  0
SECTION
  2
HEADER
  9
$ACADVER
  1
AC1015
  9
$ACADMAINTVER
 70
     6
  9
$DWGCODEPAGE
  3
ANSI_1252
  9
$INSBASE
 10
0.0
 20
0.0
 30
0.0
  9
$EXTMIN
 10
0.0
 20
0.0
 30
0.0
  9
$EXTMAX
 10
297.0
 20
210.0
 30
0.0
  9
$LIMMIN
 10
0.0
 20
0.0
  9
$LIMMAX
 10
297.0
 20
210.0
  9
$ORTHOMODE
 70
     0
  9
$REGENMODE
 70
     1
  9
$FILLMODE
 70
     1
  9
$QTEXTMODE
 70
     0
  9
$MIRRTEXT
 70
     1
  9
$LTSCALE
 40
1.0
  9
$ATTMODE
 70
     1
  9
$TEXTSIZE
 40
2.0
  9
$TRACEWID
 40
1.0
  9
$TEXTSTYLE
  7
Standard
  9
$CLAYER
  8
0
  9
$CELTYPE
  6
ByLayer
  9
$CECOLOR
 62
   256
  9
$CELTSCALE
 40
1.0
  9
$DISPSILH
 70
     0
  9
$DIMSCALE
 40
1.0
  9
$DIMASZ
 40
3.0
  9
$DIMEXO
 40
0.0
  9
$DIMDLI
 40
3.75
  9
$DIMRND
 40
0.0
  9
$DIMDLE
 40
0.0
  9
$DIMEXE
 40
1.0
  9
$DIMTP
 40
0.0
  9
$DIMTM
 40
0.0
  9
$DIMTXT
 40
2.0
  9
$DIMCEN
 40
2.5
  9
$DIMTSZ
 40
0.0
  9
$DIMTOL
 70
     0
  9
$DIMLIM
 70
     0
  9
$DIMTIH
 70
     1
  9
$DIMTOH
 70
     1
  9
$DIMSE1
 70
     0
  9
$DIMSE2
 70
     0
  9
$DIMTAD
 70
     1
  9
$DIMZIN
 70
     0
  9
$DIMBLK
  1

  9
$DIMASO
 70
     1
  9
$DIMSHO
 70
     1
  9
$DIMPOST
  1

  9
$DIMAPOST
  1

  9
$DIMALT
 70
     0
  9
$DIMALTD
 70
     3
  9
$DIMALTF
 40
0.0393700787
  9
$DIMLFAC
 40
1.0
  9
$DIMTOFL
 70
     1
  9
$DIMTVP
 40
0.0
  9
$DIMTIX
 70
     0
  9
$DIMSOXD
 70
     0
  9
$DIMSAH
 70
     0
  9
$DIMBLK1
  1

  9
$DIMBLK2
  1

  9
$DIMSTYLE
  2
ISO-25
  9
$DIMCLRD
 70
     0
  9
$DIMCLRE
 70
     0
  9
$DIMCLRT
 70
     0
  9
$DIMTFAC
 40
1.0
  9
$DIMGAP
 40
1.524
  9
$DIMJUST
 70
     0
  9
$DIMSD1
 70
     0
  9
$DIMSD2
 70
     0
  9
$DIMTOLJ
 70
     0
  9
$DIMTZIN
 70
     0
  9
$DIMALTZ
 70
     0
  9
$DIMALTTZ
 70
     0
  9
$DIMUPT
 70
     0
  9
$DIMDEC
 70
     2
  9
$DIMTDEC
 70
     3
  9
$DIMALTU
 70
     2
  9
$DIMALTTD
 70
     3
  9
$DIMTXSTY
  7
Standard
  9
$DIMAUNIT
 70
     0
  9
$DIMADEC
 70
     2
  9
$DIMALTRND
 40
0.0
  9
$DIMAZIN
 70
     0
  9
$DIMDSEP
 70
    44
  9
$DIMATFIT
 70
     3
  9
$DIMFRAC
 70
     0
  9
$DIMLDRBLK
  1

  9
$DIMLUNIT
 70
     2
  9
$DIMLWD
 70
    -2
  9
$DIMLWE
 70
    -2
  9
$DIMTMOVE
 70
     0
  9
$LUNITS
 70
     2
  9
$LUPREC
 70
     2
  9
$SKETCHINC
 40
1.0
  9
$FILLETRAD
 40
10.0
  9
$AUNITS
 70
     0
  9
$AUPREC
 70
     2
  9
$MENU
  1
.
  9
$ELEVATION
 40
0.0
  9
$PELEVATION
 40
0.0
  9
$THICKNESS
 40
0.0
  9
$LIMCHECK
 70
     0
  9
$CHAMFERA
 40
0.0
  9
$CHAMFERB
 40
0.0
  9
$CHAMFERC
 40
0.0
  9
$CHAMFERD
 40
0.0
  9
$SKPOLY
 70
     0
  9
$TDCREATE
 40
2458166.661957975
  9
$TDUCREATE
 40
2458166.620291308
  9
$TDUPDATE
 40
2458166.661959676
  9
$TDUUPDATE
 40
2458166.620293009
  9
$TDINDWG
 40
0.0000000116
  9
$TDUSRTIMER
 40
0.0000000116
  9
$USRTIMER
 70
     1
  9
$ANGBASE
 50
0.0
  9
$ANGDIR
 70
     0
  9
$PDMODE
 70
     0
  9
$PDSIZE
 40
-1.0
  9
$PLINEWID
 40
0.0
  9
$SPLFRAME
 70
     0
  9
$SPLINETYPE
 70
     6
  9
$SPLINESEGS
 70
     8
  9
$HANDSEED
  5
298
  9
$SURFTAB1
 70
     6
  9
$SURFTAB2
 70
     6
  9
$SURFTYPE
 70
     6
  9
$SURFU
 70
     6
  9
$SURFV
 70
     6
  9
$UCSBASE
  2

  9
$UCSNAME
  2

  9
$UCSORG
 10
0.0
 20
0.0
 30
0.0
  9
$UCSXDIR
 10
1.0
 20
0.0
 30
0.0
  9
$UCSYDIR
 10
0.0
 20
1.0
 30
0.0
  9
$UCSORTHOREF
  2

  9
$UCSORTHOVIEW
 70
     0
  9
$UCSORGTOP
 10
0.0
 20
0.0
 30
0.0
  9
$UCSORGBOTTOM
 10
0.0
 20
0.0
 30
0.0
  9
$UCSORGLEFT
 10
0.0
 20
0.0
 30
0.0
  9
$UCSORGRIGHT
 10
0.0
 20
0.0
 30
0.0
  9
$UCSORGFRONT
 10
0.0
 20
0.0
 30
0.0
  9
$UCSORGBACK
 10
0.0
 20
0.0
 30
0.0
  9
$PUCSBASE
  2

  9
$PUCSNAME
  2

  9
$PUCSORG
 10
0.0
 20
0.0
 30
0.0
  9
$PUCSXDIR
 10
1.0
 20
0.0
 30
0.0
  9
$PUCSYDIR
 10
0.0
 20
1.0
 30
0.0
  9
$PUCSORTHOREF
  2

  9
$PUCSORTHOVIEW
 70
     0
  9
$PUCSORGTOP
 10
0.0
 20
0.0
 30
0.0
  9
$PUCSORGBOTTOM
 10
0.0
 20
0.0
 30
0.0
  9
$PUCSORGLEFT
 10
0.0
 20
0.0
 30
0.0
  9
$PUCSORGRIGHT
 10
0.0
 20
0.0
 30
0.0
  9
$PUCSORGFRONT
 10
0.0
 20
0.0
 30
0.0
  9
$PUCSORGBACK
 10
0.0
 20
0.0
 30
0.0
  9
$USERI1
 70
     0
  9
$USERI2
 70
     0
  9
$USERI3
 70
     0
  9
$USERI4
 70
     0
  9
$USERI5
 70
     0
  9
$USERR1
 40
0.0
  9
$USERR2
 40
0.0
  9
$USERR3
 40
0.0
  9
$USERR4
 40
0.0
  9
$USERR5
 40
0.0
  9
$WORLDVIEW
 70
     1
  9
$SHADEDGE
 70
     3
  9
$SHADEDIF
 70
    70
  9
$TILEMODE
 70
     1
  9
$MAXACTVP
 70
    64
  9
$PINSBASE
 10
0.0
 20
0.0
 30
0.0
  9
$PLIMCHECK
 70
     0
  9
$PEXTMIN
 10
1.0000000000E+20
 20
1.0000000000E+20
 30
1.0000000000E+20
  9
$PEXTMAX
 10
-1.0000000000E+20
 20
-1.0000000000E+20
 30
-1.0000000000E+20
  9
$PLIMMIN
 10
0.0
 20
0.0
  9
$PLIMMAX
 10
420.0
 20
297.0
  9
$UNITMODE
 70
     0
  9
$VISRETAIN
 70
     1
  9
$PLINEGEN
 70
     0
  9
$PSLTSCALE
 70
     1
  9
$TREEDEPTH
 70
  3020
  9
$CMLSTYLE
  2
Standard
  9
$CMLJUST
 70
     0
  9
$CMLSCALE
 40
20.0
  9
$PROXYGRAPHICS
 70
     1
  9
$MEASUREMENT
 70
     1
  9
$CELWEIGHT
370
    -1
  9
$ENDCAPS
280
     0
  9
$JOINSTYLE
280
     0
  9
$LWDISPLAY
290
     1
  9
$INSUNITS
 70
     4
  9
$HYPERLINKBASE
  1

  9
$STYLESHEET
  1

  9
$XEDIT
290
     1
  9
$CEPSNTYPE
380
     0
  9
$PSTYLEMODE
290
     1
  9
$FINGERPRINTGUID
  2
{F4E0B8D7-2226-4E0B-A3A5-4D17F0656C82}
  9
$VERSIONGUID
  2
{FAEB1C32-E019-11D5-929B-00C0DF256EC4}
  9
$EXTNAMES
290
     1
  9
$PSVPSCALE
 40
0.0
  9
$OLESTARTUP
290
     0
  0
ENDSEC
  0
SECTION
  2
CLASSES
  0
CLASS
  1
ACDBDICTIONARYWDFLT
  2
AcDbDictionaryWithDefault
  3
ObjectDBX Classes
 90
        0
280
     0
281
     0
  0
CLASS
  1
VISUALSTYLE
  2
AcDbVisualStyle
  3
ObjectDBX Classes
 90
     4095
280
     0
281
     0
  0
CLASS
  1
MATERIAL
  2
AcDbMaterial
  3
ObjectDBX Classes
 90
     1153
280
     0
281
     0
  0
CLASS
  1
SCALE
  2
AcDbScale
  3
ObjectDBX Classes
 90
     1153
280
     0
281
     0
  0
CLASS
  1
TABLESTYLE
  2
AcDbTableStyle
  3
ObjectDBX Classes
 90
     4095
280
     0
281
     0
  0
CLASS
  1
MLEADERSTYLE
  2
AcDbMLeaderStyle
  3
ACDB_MLEADERSTYLE_CLASS
 90
     4095
280
     0
281
     0
  0
CLASS
  1
SUN
  2
AcDbSun
  3
SCENEOE
 90
     1153
280
     0
281
     0
  0
CLASS
  1
ACDBPLACEHOLDER
  2
AcDbPlaceHolder
  3
ObjectDBX Classes
 90
        0
280
     0
281
     0
  0
CLASS
  1
LAYOUT
  2
AcDbLayout
  3
ObjectDBX Classes
 90
        0
280
     0
281
     0
  0
ENDSEC
  0
SECTION
  2
TABLES
  0
TABLE
  2
VPORT
  5
8
330
0
100
AcDbSymbolTable
 70
     1
  0
VPORT
  5
29
330
8
100
AcDbSymbolTableRecord
100
AcDbViewportTableRecord
  2
*Active
 70
     0
 10
0.0
 20
0.0
 11
1.0
 21
1.0
 12
148.5
 22
105.0
 13
0.0
 23
0.0
 14
10.0
 24
10.0
 15
10.0
 25
10.0
 16
0.0
 26
0.0
 36
1.0
 17
0.0
 27
0.0
 37
0.0
 40
210.0
 41
1.4142857143
 42
50.0
 43
0.0
 44
0.0
 50
0.0
 51
0.0
 71
     0
 72
  2000
 73
     1
 74
     3
 75
     0
 76
     0
 77
     0
 78
     0
281
     0
 65
     1
110
0.0
120
0.0
130
0.0
111
1.0
121
0.0
131
0.0
112
0.0
122
1.0
132
0.0
 79
     0
146
0.0
  0
ENDTAB
  0
TABLE
  2
LTYPE
  5
5
330
0
100
AcDbSymbolTable
 70
     6
  0
LTYPE
  5
14
330
5
100
AcDbSymbolTableRecord
100
AcDbLinetypeTableRecord
  2
ByBlock
 70
     0
  3

 72
    65
 73
     0
 40
0.0
  0
LTYPE
  5
15
330
5
100
AcDbSymbolTableRecord
100
AcDbLinetypeTableRecord
  2
ByLayer
 70
     0
  3

 72
    65
 73
     0
 40
0.0
  0
LTYPE
  5
16
330
5
100
AcDbSymbolTableRecord
100
AcDbLinetypeTableRecord
  2
Continuous
 70
     0
  3
Solid line
 72
    65
 73
     0
 40
0.0
  0
LTYPE
  5
6E
330
5
100
AcDbSymbolTableRecord
100
AcDbLinetypeTableRecord
  2
HIDDEN
 70
     0
  3
Hidden __ __ __ __ __ __ __ __ __ __ __ __ __ __
 72
    65
 73
     2
 40
1.905
 49
1.27
 74
     0
 49
-0.635
 74
     0
  0
LTYPE
  5
6F
330
5
100
AcDbSymbolTableRecord
100
AcDbLinetypeTableRecord
  2
PHANTOM
 70
     0
  3
Phantom ______  __  __  ______  __  __  ______
 72
    65
 73
     6
 40
12.7
 49
6.35
 74
     0
 49
-1.27
 74
     0
 49
1.27
 74
     0
 49
-1.27
 74
     0
 49
1.27
 74
     0
 49
-1.27
 74
     0
  0
LTYPE
  5
70
330
5
100
AcDbSymbolTableRecord
100
AcDbLinetypeTableRecord
  2
CENTER
 70
     0
  3
Center ____ _ ____ _ ____ _ ____ _ ____ _ ____
 72
    65
 73
     4
 40
10.16
 49
6.35
 74
     0
 49
-1.27
 74
     0
 49
1.27
 74
     0
 49
-1.27
 74
     0
  0
LTYPE
  5
71
330
5
100
AcDbSymbolTableRecord
100
AcDbLinetypeTableRecord
  2
CENTERX2
 70
     0
  3
Center (2x) ________  __  ________  __  _____
 72
    65
 73
     4
 40
20.32
 49
12.7
 74
     0
 49
-2.54
 74
     0
 49
2.54
 74
     0
 49
-2.54
 74
     0
  0
LTYPE
  5
72
330
5
100
AcDbSymbolTableRecord
100
AcDbLinetypeTableRecord
  2
DOT2
 70
     0
  3
Dot (.5x) ........................................
 72
    65
 73
     2
 40
0.635
 49
0.0
 74
     0
 49
-0.635
 74
     0
  0
ENDTAB
  0
TABLE
  2
LAYER
  5
2
330
0
100
AcDbSymbolTable
 70
     5
  0
LAYER
  5
10
330
2
100
AcDbSymbolTableRecord
100
AcDbLayerTableRecord
  2
0
 70
     0
 62
     7
  6
Continuous
370
    -3
390
F
  0
LAYER
  5
73
330
2
100
AcDbSymbolTableRecord
100
AcDbLayerTableRecord
  2
FORMAT
 70
     0
 62
     7
  6
Continuous
370
    -3
390
F
  0
LAYER
  5
74
330
2
100
AcDbSymbolTableRecord
100
AcDbLayerTableRecord
  2
VERMASSUNG
 70
     0
 62
     7
  6
Continuous
370
    -3
390
F
  0
LAYER
  5
75
330
2
100
AcDbSymbolTableRecord
100
AcDbLayerTableRecord
  2
KOPF_DÜNN
 70
     0
 62
     7
  6
Continuous
370
    -3
390
F
  0
LAYER
  5
76
330
2
100
AcDbSymbolTableRecord
100
AcDbLayerTableRecord
  2
KOPF_DICK
 70
     0
 62
     7
  6
Continuous
370
    25
390
F
  0
ENDTAB
  0
TABLE
  2
STYLE
  5
3
330
0
100
AcDbSymbolTable
 70
     3
  0
STYLE
  5
11
330
3
100
AcDbSymbolTableRecord
100
AcDbTextStyleTableRecord
  2
Standard
 70
     0
 40
0.0
 41
1.0
 50
0.0
 71
     0
 42
2.0
  3
txt
  4

  0
STYLE
  5
77
330
3
100
AcDbSymbolTableRecord
100
AcDbTextStyleTableRecord
  2
SLDTEXTSTYLE0
 70
     0
 40
0.0
 41
0.7
 50
0.0
 71
     0
 42
2.0
  3
TXT
  4

  0
STYLE
  5
7B
330
3
100
AcDbSymbolTableRecord
100
AcDbTextStyleTableRecord
  2
SLDTEXTSTYLE1
 70
     0
 40
0.0
 41
0.6473684211
 50
0.0
 71
     0
 42
2.0
  3
TXT
  4

  0
ENDTAB
  0
TABLE
  2
VIEW
  5
6
330
0
100
AcDbSymbolTable
 70
     0
  0
ENDTAB
  0
TABLE
  2
UCS
  5
7
330
0
100
AcDbSymbolTable
 70
     0
  0
ENDTAB
  0
TABLE
  2
APPID
  5
9
330
0
100
AcDbSymbolTable
 70
     1
  0
APPID
  5
12
330
9
100
AcDbSymbolTableRecord
100
AcDbRegAppTableRecord
  2
ACAD
 70
     0
  0
ENDTAB
  0
TABLE
  2
DIMSTYLE
  5
A
330
0
100
AcDbSymbolTable
 70
     2
100
AcDbDimStyleTable
  0
DIMSTYLE
105
27
330
A
100
AcDbSymbolTableRecord
100
AcDbDimStyleTableRecord
  2
ISO-25
 70
     0
 41
2.5
 42
0.625
 43
3.75
 44
1.25
 73
     0
 74
     0
 77
     1
 78
     8
140
2.5
141
2.5
143
0.0393700787
147
0.625
171
     3
172
     1
178
     0
271
     2
272
     2
274
     3
278
    44
283
     0
284
     8
340
11
  0
DIMSTYLE
105
24C
102
{ACAD_REACTORS
330
24B
330
258
330
263
330
26E
330
278
330
282
330
28C
102
}
330
A
100
AcDbSymbolTableRecord
100
AcDbDimStyleTableRecord
  2
SLDDIMSTYLE0
 70
     0
 41
3.0
 44
0.0
 45
0.000000001
 73
     0
 74
     0
 77
     1
 78
    12
 79
     3
140
2.0
147
0.5
173
     1
178
     0
271
     2
272
     3
276
     2
284
    12
340
77
  0
ENDTAB
  0
TABLE
  2
BLOCK_RECORD
  5
1
330
0
100
AcDbSymbolTable
 70
     8
  0
BLOCK_RECORD
  5
1F
330
1
100
AcDbSymbolTableRecord
100
AcDbBlockTableRecord
  2
*Model_Space
340
22
  0
BLOCK_RECORD
  5
1B
330
1
100
AcDbSymbolTableRecord
100
AcDbBlockTableRecord
  2
*Paper_Space
340
1E
  0
BLOCK_RECORD
  5
23
330
1
100
AcDbSymbolTableRecord
100
AcDbBlockTableRecord
  2
*Paper_Space0
340
26
  0
BLOCK_RECORD
  5
24D
330
1
100
AcDbSymbolTableRecord
100
AcDbBlockTableRecord
  2
_D
340
0
  0
BLOCK_RECORD
  5
259
330
1
100
AcDbSymbolTableRecord
100
AcDbBlockTableRecord
  2
_D_1
340
0
  0
BLOCK_RECORD
  5
264
330
1
100
AcDbSymbolTableRecord
100
AcDbBlockTableRecord
  2
_D_2
340
0
  0
BLOCK_RECORD
  5
26F
330
1
100
AcDbSymbolTableRecord
100
AcDbBlockTableRecord
  2
_D_3
340
0
  0
BLOCK_RECORD
  5
279
330
1
100
AcDbSymbolTableRecord
100
AcDbBlockTableRecord
  2
_D_4
340
0
  0
BLOCK_RECORD
  5
283
330
1
100
AcDbSymbolTableRecord
100
AcDbBlockTableRecord
  2
_D_5
340
0
  0
BLOCK_RECORD
  5
28D
330
1
100
AcDbSymbolTableRecord
100
AcDbBlockTableRecord
  2
_D_6
340
0
  0
ENDTAB
  0
ENDSEC
  0
SECTION
  2
BLOCKS
  0
BLOCK
  5
20
330
1F
100
AcDbEntity
  8
0
100
AcDbBlockBegin
  2
*Model_Space
 70
     0
 10
0.0
 20
0.0
 30
0.0
  3
*Model_Space
  1

  0
ENDBLK
  5
21
330
1F
100
AcDbEntity
  8
0
100
AcDbBlockEnd
  0
BLOCK
  5
1C
330
1B
100
AcDbEntity
 67
     1
  8
0
100
AcDbBlockBegin
  2
*Paper_Space
 70
     0
 10
0.0
 20
0.0
 30
0.0
  3
*Paper_Space
  1

  0
ENDBLK
  5
1D
330
1B
100
AcDbEntity
 67
     1
  8
0
100
AcDbBlockEnd
  0
BLOCK
  5
24
330
23
100
AcDbEntity
  8
0
100
AcDbBlockBegin
  2
*Paper_Space0
 70
     0
 10
0.0
 20
0.0
 30
0.0
  3
*Paper_Space0
  1

  0
ENDBLK
  5
25
330
23
100
AcDbEntity
  8
0
100
AcDbBlockEnd
  0
BLOCK
  5
24E
330
24D
100
AcDbEntity
  8
0
100
AcDbBlockBegin
  2
_D
 70
     0
 10
0.0
 20
0.0
 30
0.0
  3
_D
  1

  0
SOLID
  5
250
330
24D
100
AcDbEntity
  8
VERMASSUNG
100
AcDbTrace
 10
81.3444903622
 20
140.5307534982
 30
0.0
 11
80.8944903622
 21
137.5307534982
 31
0.0
 12
81.7944903622
 22
137.5307534982
 32
0.0
 13
81.7944903622
 23
137.5307534982
 33
0.0
  0
SOLID
  5
251
330
24D
100
AcDbEntity
  8
VERMASSUNG
100
AcDbTrace
 10
81.3444903622
 20
77.5307534982
 30
0.0
 11
81.7944903622
 21
80.5307534982
 31
0.0
 12
80.8944903622
 22
80.5307534982
 32
0.0
 13
80.8944903622
 23
80.5307534982
 33
0.0
  0
LINE
  5
252
330
24D
100
AcDbEntity
  8
VERMASSUNG
100
AcDbLine
 10
121.3398703435
 20
140.5307534982
 30
0.0
 11
80.3444903622
 21
140.5307534982
 31
0.0
  0
LINE
  5
253
330
24D
100
AcDbEntity
  8
VERMASSUNG
100
AcDbLine
 10
121.3398703435
 20
77.5307534982
 30
0.0
 11
80.3444903622
 21
77.5307534982
 31
0.0
  0
LINE
  5
254
330
24D
100
AcDbEntity
  8
VERMASSUNG
100
AcDbLine
 10
81.3444903622
 20
140.5307534982
 30
0.0
 11
81.3444903622
 21
77.5307534982
 31
0.0
  0
MTEXT
  5
255
330
24D
100
AcDbEntity
  8
VERMASSUNG
100
AcDbMText
 10
78.566355106
 20
101.327836205
 30
0.0
 40
2.0
 41
0.0
 71
     1
 72
     1
  1
HSK A
  7
SLDTEXTSTYLE0
 11
-7.044195017643634E-15
 21
1.0
 31
0.0
 73
     1
 44
1.0
  0
MTEXT
  5
256
330
24D
100
AcDbEntity
  8
VERMASSUNG
100
AcDbMText
 10
78.7663550573
 20
110.3278358175
 30
0.0
 40
2.0
 41
0.0
 71
     1
 72
     1
  1
%%c
  7
SLDTEXTSTYLE0
 11
-7.044195017643634E-15
 21
1.0
 31
0.0
 73
     1
 44
1.0
  0
MTEXT
  5
257
330
24D
100
AcDbEntity
  8
VERMASSUNG
100
AcDbMText
 10
78.7663547663
 20
113.9359565057
 30
0.0
 40
2.0
 41
0.0
 71
     1
 72
     1
  1
63
  7
SLDTEXTSTYLE0
 11
-7.044195017643634E-15
 21
1.0
 31
0.0
 73
     1
 44
1.0
  0
ENDBLK
  5
24F
330
24D
100
AcDbEntity
  8
0
100
AcDbBlockEnd
  0
BLOCK
  5
25A
330
259
100
AcDbEntity
  8
0
100
AcDbBlockBegin
  2
_D_1
 70
     0
 10
0.0
 20
0.0
 30
0.0
  3
_D_1
  1

  0
SOLID
  5
25C
330
259
100
AcDbEntity
  8
VERMASSUNG
100
AcDbTrace
 10
230.7357327878
 20
122.5307534982
 30
0.0
 11
230.2857327878
 21
119.5307534982
 31
0.0
 12
231.1857327878
 22
119.5307534982
 32
0.0
 13
231.1857327878
 23
119.5307534982
 33
0.0
  0
SOLID
  5
25D
330
259
100
AcDbEntity
  8
VERMASSUNG
100
AcDbTrace
 10
230.7357327878
 20
95.5307534982
 30
0.0
 11
231.1857327878
 21
98.5307534982
 31
0.0
 12
230.2857327878
 22
98.5307534982
 32
0.0
 13
230.2857327878
 23
98.5307534982
 33
0.0
  0
LINE
  5
25E
330
259
100
AcDbEntity
  8
VERMASSUNG
100
AcDbLine
 10
201.2398703435
 20
122.5307534982
 30
0.0
 11
231.7357327878
 21
122.5307534982
 31
0.0
  0
LINE
  5
25F
330
259
100
AcDbEntity
  8
VERMASSUNG
100
AcDbLine
 10
201.2398703435
 20
95.5307534982
 30
0.0
 11
231.7357327878
 21
95.5307534982
 31
0.0
  0
LINE
  5
260
330
259
100
AcDbEntity
  8
VERMASSUNG
100
AcDbLine
 10
230.7357327878
 20
122.5307534982
 30
0.0
 11
230.7357327878
 21
95.5307534982
 31
0.0
  0
MTEXT
  5
261
330
259
100
AcDbEntity
  8
VERMASSUNG
100
AcDbMText
 10
228.15759725
 20
105.8269565057
 30
0.0
 40
2.0
 41
0.0
 71
     1
 72
     1
  1
%%c
  7
SLDTEXTSTYLE0
 11
-7.044195017643634E-15
 21
1.0
 31
0.0
 73
     1
 44
1.0
  0
MTEXT
  5
262
330
259
100
AcDbEntity
  8
VERMASSUNG
100
AcDbMText
 10
228.1575971918
 20
109.436836205
 30
0.0
 40
2.0
 41
0.0
 71
     1
 72
     1
  1
27
  7
SLDTEXTSTYLE0
 11
-7.044195017643634E-15
 21
1.0
 31
0.0
 73
     1
 44
1.0
  0
ENDBLK
  5
25B
330
259
100
AcDbEntity
  8
0
100
AcDbBlockEnd
  0
BLOCK
  5
265
330
264
100
AcDbEntity
  8
0
100
AcDbBlockBegin
  2
_D_2
 70
     0
 10
0.0
 20
0.0
 30
0.0
  3
_D_2
  1

  0
SOLID
  5
267
330
264
100
AcDbEntity
  8
VERMASSUNG
100
AcDbTrace
 10
236.7357327878
 20
138.0307534982
 30
0.0
 11
236.2857327878
 21
135.0307534982
 31
0.0
 12
237.1857327878
 22
135.0307534982
 32
0.0
 13
237.1857327878
 23
135.0307534982
 33
0.0
  0
SOLID
  5
268
330
264
100
AcDbEntity
  8
VERMASSUNG
100
AcDbTrace
 10
236.7357327878
 20
80.0307534982
 30
0.0
 11
237.1857327878
 21
83.0307534982
 31
0.0
 12
236.2857327878
 22
83.0307534982
 32
0.0
 13
236.2857327878
 23
83.0307534982
 33
0.0
  0
LINE
  5
269
330
264
100
AcDbEntity
  8
VERMASSUNG
100
AcDbLine
 10
180.2398703435
 20
138.0307534982
 30
0.0
 11
237.7357327878
 21
138.0307534982
 31
0.0
  0
LINE
  5
26A
330
264
100
AcDbEntity
  8
VERMASSUNG
100
AcDbLine
 10
180.2398703435
 20
80.0307534982
 30
0.0
 11
237.7357327878
 21
80.0307534982
 31
0.0
  0
LINE
  5
26B
330
264
100
AcDbEntity
  8
VERMASSUNG
100
AcDbLine
 10
236.7357327878
 20
138.0307534982
 30
0.0
 11
236.7357327878
 21
80.0307534982
 31
0.0
  0
MTEXT
  5
26C
330
264
100
AcDbEntity
  8
VERMASSUNG
100
AcDbMText
 10
234.15759725
 20
105.8269565057
 30
0.0
 40
2.0
 41
0.0
 71
     1
 72
     1
  1
%%c
  7
SLDTEXTSTYLE0
 11
-7.044195017643634E-15
 21
1.0
 31
0.0
 73
     1
 44
1.0
  0
MTEXT
  5
26D
330
264
100
AcDbEntity
  8
VERMASSUNG
100
AcDbMText
 10
234.1575971918
 20
109.436836205
 30
0.0
 40
2.0
 41
0.0
 71
     1
 72
     1
  1
58
  7
SLDTEXTSTYLE0
 11
-7.044195017643634E-15
 21
1.0
 31
0.0
 73
     1
 44
1.0
  0
ENDBLK
  5
266
330
264
100
AcDbEntity
  8
0
100
AcDbBlockEnd
  0
BLOCK
  5
270
330
26F
100
AcDbEntity
  8
0
100
AcDbBlockBegin
  2
_D_3
 70
     0
 10
0.0
 20
0.0
 30
0.0
  3
_D_3
  1

  0
SOLID
  5
272
330
26F
100
AcDbEntity
  8
VERMASSUNG
100
AcDbTrace
 10
146.9898703435
 20
150.5307534982
 30
0.0
 11
149.9898703435
 21
150.0807534982
 31
0.0
 12
149.9898703435
 22
150.9807534982
 32
0.0
 13
149.9898703435
 23
150.9807534982
 33
0.0
  0
SOLID
  5
273
330
26F
100
AcDbEntity
  8
VERMASSUNG
100
AcDbTrace
 10
181.0398703435
 20
150.5307534982
 30
0.0
 11
178.0398703435
 21
150.9807534982
 31
0.0
 12
178.0398703435
 22
150.0807534982
 32
0.0
 13
178.0398703435
 23
150.0807534982
 33
0.0
  0
LINE
  5
274
330
26F
100
AcDbEntity
  8
VERMASSUNG
100
AcDbLine
 10
146.9898703435
 20
138.877193822
 30
0.0
 11
146.9898703435
 21
151.5307534982
 31
0.0
  0
LINE
  5
275
330
26F
100
AcDbEntity
  8
VERMASSUNG
100
AcDbLine
 10
181.0398703435
 20
137.2307534982
 30
0.0
 11
181.0398703435
 21
151.5307534982
 31
0.0
  0
LINE
  5
276
330
26F
100
AcDbEntity
  8
VERMASSUNG
100
AcDbLine
 10
146.9898703435
 20
150.5307534982
 30
0.0
 11
181.0398703435
 21
150.5307534982
 31
0.0
  0
MTEXT
  5
277
330
26F
100
AcDbEntity
  8
VERMASSUNG
100
AcDbMText
 10
160.8156748547
 20
153.1088890941
 30
0.0
 40
2.0
 41
0.0
 71
     1
 72
     1
  1
34.05
  7
SLDTEXTSTYLE0
 73
     1
 44
1.0
  0
ENDBLK
  5
271
330
26F
100
AcDbEntity
  8
0
100
AcDbBlockEnd
  0
BLOCK
  5
27A
330
279
100
AcDbEntity
  8
0
100
AcDbBlockBegin
  2
_D_4
 70
     0
 10
0.0
 20
0.0
 30
0.0
  3
_D_4
  1

  0
SOLID
  5
27C
330
279
100
AcDbEntity
  8
VERMASSUNG
100
AcDbTrace
 10
121.0398703435
 20
156.5307534982
 30
0.0
 11
124.0398703435
 21
156.0807534982
 31
0.0
 12
124.0398703435
 22
156.9807534982
 32
0.0
 13
124.0398703435
 23
156.9807534982
 33
0.0
  0
SOLID
  5
27D
330
279
100
AcDbEntity
  8
VERMASSUNG
100
AcDbTrace
 10
181.0398703435
 20
156.5307534982
 30
0.0
 11
178.0398703435
 21
156.9807534982
 31
0.0
 12
178.0398703435
 22
156.0807534982
 32
0.0
 13
178.0398703435
 23
156.0807534982
 33
0.0
  0
LINE
  5
27E
330
279
100
AcDbEntity
  8
VERMASSUNG
100
AcDbLine
 10
121.0398703435
 20
140.2307534982
 30
0.0
 11
121.0398703435
 21
157.5307534982
 31
0.0
  0
LINE
  5
27F
330
279
100
AcDbEntity
  8
VERMASSUNG
100
AcDbLine
 10
181.0398703435
 20
137.2307534982
 30
0.0
 11
181.0398703435
 21
157.5307534982
 31
0.0
  0
LINE
  5
280
330
279
100
AcDbEntity
  8
VERMASSUNG
100
AcDbLine
 10
121.0398703435
 20
156.5307534982
 30
0.0
 11
181.0398703435
 21
156.5307534982
 31
0.0
  0
MTEXT
  5
281
330
279
100
AcDbEntity
  8
VERMASSUNG
100
AcDbMText
 10
149.6410132006
 20
159.1088890941
 30
0.0
 40
2.0
 41
0.0
 71
     1
 72
     1
  1
60
  7
SLDTEXTSTYLE0
 73
     1
 44
1.0
  0
ENDBLK
  5
27B
330
279
100
AcDbEntity
  8
0
100
AcDbBlockEnd
  0
BLOCK
  5
284
330
283
100
AcDbEntity
  8
0
100
AcDbBlockBegin
  2
_D_5
 70
     0
 10
0.0
 20
0.0
 30
0.0
  3
_D_5
  1

  0
SOLID
  5
286
330
283
100
AcDbEntity
  8
VERMASSUNG
100
AcDbTrace
 10
181.0398703435
 20
150.5307534982
 30
0.0
 11
184.0398703435
 21
150.0807534982
 31
0.0
 12
184.0398703435
 22
150.9807534982
 32
0.0
 13
184.0398703435
 23
150.9807534982
 33
0.0
  0
SOLID
  5
287
330
283
100
AcDbEntity
  8
VERMASSUNG
100
AcDbTrace
 10
202.0398703435
 20
150.5307534982
 30
0.0
 11
199.0398703435
 21
150.9807534982
 31
0.0
 12
199.0398703435
 22
150.0807534982
 32
0.0
 13
199.0398703435
 23
150.0807534982
 33
0.0
  0
LINE
  5
288
330
283
100
AcDbEntity
  8
VERMASSUNG
100
AcDbLine
 10
181.0398703435
 20
137.2307534982
 30
0.0
 11
181.0398703435
 21
151.5307534982
 31
0.0
  0
LINE
  5
289
330
283
100
AcDbEntity
  8
VERMASSUNG
100
AcDbLine
 10
202.0398703435
 20
121.7307534982
 30
0.0
 11
202.0398703435
 21
151.5307534982
 31
0.0
  0
LINE
  5
28A
330
283
100
AcDbEntity
  8
VERMASSUNG
100
AcDbLine
 10
181.0398703435
 20
150.5307534982
 30
0.0
 11
202.0398703435
 21
150.5307534982
 31
0.0
  0
MTEXT
  5
28B
330
283
100
AcDbEntity
  8
VERMASSUNG
100
AcDbMText
 10
190.3400282382
 20
153.1088890941
 30
0.0
 40
2.0
 41
0.0
 71
     1
 72
     1
  1
21
  7
SLDTEXTSTYLE0
 73
     1
 44
1.0
  0
ENDBLK
  5
285
330
283
100
AcDbEntity
  8
0
100
AcDbBlockEnd
  0
BLOCK
  5
28E
330
28D
100
AcDbEntity
  8
0
100
AcDbBlockBegin
  2
_D_6
 70
     0
 10
0.0
 20
0.0
 30
0.0
  3
_D_6
  1

  0
SOLID
  5
290
330
28D
100
AcDbEntity
  8
VERMASSUNG
100
AcDbTrace
 10
89.1398703435
 20
162.5307534982
 30
0.0
 11
92.1398703435
 21
162.0807534982
 31
0.0
 12
92.1398703435
 22
162.9807534982
 32
0.0
 13
92.1398703435
 23
162.9807534982
 33
0.0
  0
SOLID
  5
291
330
28D
100
AcDbEntity
  8
VERMASSUNG
100
AcDbTrace
 10
202.0398703435
 20
162.5307534982
 30
0.0
 11
199.0398703435
 21
162.9807534982
 31
0.0
 12
199.0398703435
 22
162.0807534982
 32
0.0
 13
199.0398703435
 23
162.0807534982
 33
0.0
  0
LINE
  5
292
330
28D
100
AcDbEntity
  8
VERMASSUNG
100
AcDbLine
 10
89.1398703435
 20
128.7214312447
 30
0.0
 11
89.1398703435
 21
163.5307534982
 31
0.0
  0
LINE
  5
293
330
28D
100
AcDbEntity
  8
VERMASSUNG
100
AcDbLine
 10
202.0398703435
 20
121.7307534982
 30
0.0
 11
202.0398703435
 21
163.5307534982
 31
0.0
  0
LINE
  5
294
330
28D
100
AcDbEntity
  8
VERMASSUNG
100
AcDbLine
 10
89.1398703435
 20
162.5307534982
 30
0.0
 11
202.0398703435
 21
162.5307534982
 31
0.0
  0
MTEXT
  5
295
330
28D
100
AcDbEntity
  8
VERMASSUNG
100
AcDbMText
 10
142.8899380126
 20
165.1088890941
 30
0.0
 40
2.0
 41
0.0
 71
     1
 72
     1
  1
112.9
  7
SLDTEXTSTYLE0
 73
     1
 44
1.0
  0
ENDBLK
  5
28F
330
28D
100
AcDbEntity
  8
0
100
AcDbBlockEnd
  0
ENDSEC
  0
SECTION
  2
ENTITIES
  0
MTEXT
  5
78
330
1F
100
AcDbEntity
  8
KOPF_DÜNN
100
AcDbMText
 10
13.8892156294
 20
23.8442973028
 30
0.0
 40
3.0
 41
0.0
 71
     1
 72
     1
  1
HA6.D27.K01.060
  7
SLDTEXTSTYLE0
 73
     1
 44
1.0
  0
MTEXT
  5
79
330
1F
100
AcDbEntity
  8
VERMASSUNG
100
AcDbMText
 10
13.9329988022
 20
28.8834360957
 30
0.0
 40
3.0
 41
0.0
 71
     1
 72
     1
  1
Fräsdorn_Milling arbor ø27
  7
SLDTEXTSTYLE0
 73
     1
 44
1.0
  0
MTEXT
  5
7A
330
1F
100
AcDbEntity
  8
VERMASSUNG
100
AcDbMText
 10
98.8601118557
 20
13.8365368761
 30
0.0
 40
2.0
 41
0.0
 71
     1
 72
     1
  1
Datum: 12.10.2006
  7
SLDTEXTSTYLE0
 73
     1
 44
1.0
  0
MTEXT
  5
7C
330
1F
100
AcDbEntity
  8
VERMASSUNG
100
AcDbMText
 10
13.933048693
 20
18.0482802738
 30
0.0
 40
2.0
 41
0.0
 71
     1
 72
     1
  1
DIN 69 893 HSK A 63
  7
SLDTEXTSTYLE1
 73
     1
 44
1.0
  0
MTEXT
  5
7D
330
1F
100
AcDbEntity
  8
VERMASSUNG
100
AcDbMText
 10
13.9808475933
 20
13.9090974274
 30
0.0
 40
2.0
 41
0.0
 71
     1
 72
     1
  1
Gewicht: 1363g
  7
SLDTEXTSTYLE0
 73
     1
 44
1.0
  0
LINE
  5
7E
330
1F
100
AcDbEntity
  8
0
  6
Continuous
 62
     7
370
    25
100
AcDbLine
 10
220.1357364276
 20
118.0307531108
 30
0.0
 11
208.7357297161
 21
118.0307531108
 31
0.0
  0
LINE
  5
7F
330
1F
100
AcDbEntity
  8
0
  6
Continuous
 62
     7
370
    25
100
AcDbLine
 10
208.7357297161
 20
100.0307538856
 30
0.0
 11
220.1357364276
 21
100.0307538856
 31
0.0
  0
ARC
  5
80
330
1F
100
AcDbEntity
  8
0
  6
Continuous
 62
     7
370
    25
100
AcDbCircle
 10
220.1357327878
 20
117.4307534982
 30
0.0
 40
0.6000000000000227
100
AcDbArc
 50
0.0
 51
90.0
  0
ARC
  5
81
330
1F
100
AcDbEntity
  8
0
  6
Continuous
 62
     7
370
    25
100
AcDbCircle
 10
220.1357327878
 20
100.6307534982
 30
0.0
 40
0.6000000000000227
100
AcDbArc
 50
270.0
 51
0.0
  0
ARC
  5
82
330
1F
100
AcDbEntity
  8
0
  6
Continuous
 62
     7
370
    25
100
AcDbCircle
 10
208.1357327878
 20
102.4307534982
 30
0.0
 40
0.6000000000000085
100
AcDbArc
 50
0.0
 51
90.0
  0
ARC
  5
83
330
1F
100
AcDbEntity
  8
0
  6
Continuous
 62
     7
370
    25
100
AcDbCircle
 10
208.1357327878
 20
115.6307534982
 30
0.0
 40
0.5999999999999943
100
AcDbArc
 50
270.0
 51
0.0
  0
LINE
  5
84
330
1F
100
AcDbEntity
  8
0
  6
Continuous
 62
     7
370
    25
100
AcDbLine
 10
208.1357344606
 20
115.0307535503
 30
0.0
 11
202.0398705819
 21
115.0307535503
 31
0.0
  0
LINE
  5
85
330
1F
100
AcDbEntity
  8
0
  6
Continuous
 62
     7
370
    25
100
AcDbLine
 10
202.0398705819
 20
103.030753446
 30
0.0
 11
208.1357344606
 21
103.030753446
 31
0.0
  0
LINE
  5
86
330
1F
100
AcDbEntity
  8
0
  6
Continuous
 62
     7
370
    25
100
AcDbLine
 10
181.0398690024
 20
81.0307526339
 30
0.0
 11
185.539866946
 21
81.0307526339
 31
0.0
  0
LINE
  5
87
330
1F
100
AcDbEntity
  8
0
  6
Continuous
 62
     7
370
    25
100
AcDbLine
 10
185.539866946
 20
93.0307527382
 30
0.0
 11
181.0398690024
 21
93.0307527382
 31
0.0
  0
ARC
  5
88
330
1F
100
AcDbEntity
  8
0
  6
Continuous
 62
     7
370
    25
100
AcDbCircle
 10
185.5398703435
 20
81.5307534982
 30
0.0
 40
0.5
100
AcDbArc
 50
270.0
 51
0.0
  0
ARC
  5
89
330
1F
100
AcDbEntity
  8
0
  6
Continuous
 62
     7
370
    25
100
AcDbCircle
 10
185.5398703435
 20
92.5307534982
 30
0.0
 40
0.5
100
AcDbArc
 50
0.0
 51
90.0
  0
LINE
  5
8A
330
1F
100
AcDbEntity
  8
0
  6
Continuous
 62
     7
370
    25
100
AcDbLine
 10
181.0398690024
 20
125.0307542581
 30
0.0
 11
185.539866946
 21
125.0307542581
 31
0.0
  0
LINE
  5
8B
330
1F
100
AcDbEntity
  8
0
  6
Continuous
 62
     7
370
    25
100
AcDbLine
 10
185.539866946
 20
137.0307543625
 30
0.0
 11
181.0398690024
 21
137.0307543625
 31
0.0
  0
ARC
  5
8C
330
1F
100
AcDbEntity
  8
0
  6
Continuous
 62
     7
370
    25
100
AcDbCircle
 10
185.5398703435
 20
125.5307534982
 30
0.0
 40
0.5
100
AcDbArc
 50
270.0
 51
0.0
  0
ARC
  5
8D
330
1F
100
AcDbEntity
  8
0
  6
Continuous
 62
     7
370
    25
100
AcDbCircle
 10
185.5398703435
 20
136.5307534982
 30
0.0
 40
0.5
100
AcDbArc
 50
0.0
 51
90.0
  0
LINE
  5
8E
330
1F
100
AcDbEntity
  8
0
  6
Continuous
 62
     7
370
    25
100
AcDbLine
 10
121.3398703577
 20
77.5307529915
 30
0.0
 11
125.9898703166
 21
77.5307529915
 31
0.0
  0
LINE
  5
8F
330
1F
100
AcDbEntity
  8
0
  6
Continuous
 62
     7
370
    25
100
AcDbLine
 10
126.0178588883
 20
140.5307540048
 30
0.0
 11
121.3398703577
 21
140.5307540048
 31
0.0
  0
ARC
  5
90
330
1F
100
AcDbEntity
  8
0
  6
Continuous
 62
     7
370
    25
100
AcDbCircle
 10
121.3398703435
 20
77.8307534982
 30
0.0
 40
0.3000000000000114
100
AcDbArc
 50
180.0
 51
270.0
  0
ARC
  5
91
330
1F
100
AcDbEntity
  8
0
  6
Continuous
 62
     7
370
    25
100
AcDbCircle
 10
121.3398703435
 20
140.2307534982
 30
0.0
 40
0.3000000000000114
100
AcDbArc
 50
90.0
 51
180.0
  0
ARC
  5
92
330
1F
100
AcDbEntity
  8
0
  6
Continuous
 62
     7
370
    25
100
AcDbCircle
 10
164.0398703435
 20
81.0307534982
 30
0.0
 40
1.0
100
AcDbArc
 50
180.0
 51
270.0
  0
ARC
  5
93
330
1F
100
AcDbEntity
  8
0
  6
Continuous
 62
     7
370
    25
100
AcDbCircle
 10
164.0398703435
 20
137.0307534982
 30
0.0
 40
1.0
100
AcDbArc
 50
90.0
 51
180.0
  0
LINE
  5
94
330
1F
100
AcDbEntity
  8
0
  6
Continuous
 62
     7
370
    25
100
AcDbLine
 10
164.0398718038
 20
80.0307543327
 30
0.0
 11
180.2398703613
 21
80.0307543327
 31
0.0
  0
LINE
  5
95
330
1F
100
AcDbEntity
  8
0
  6
Continuous
 62
     7
370
    25
100
AcDbLine
 10
180.2398703613
 20
138.0307526637
 30
0.0
 11
164.0398718038
 21
138.0307526637
 31
0.0
  0
ARC
  5
96
330
1F
100
AcDbEntity
  8
0
  6
Continuous
 62
     7
370
    25
100
AcDbCircle
 10
180.2398703435
 20
80.8307534982
 30
0.0
 40
0.8000000000000114
100
AcDbArc
 50
270.0
 51
0.0
  0
ARC
  5
97
330
1F
100
AcDbEntity
  8
0
  6
Continuous
 62
     7
370
    25
100
AcDbCircle
 10
180.2398703435
 20
137.2307534982
 30
0.0
 40
0.8000000000000114
100
AcDbArc
 50
360.0
 51
90.0
  0
ARC
  5
98
330
1F
100
AcDbEntity
  8
0
  6
Continuous
 62
     7
370
    25
100
AcDbCircle
 10
162.0398703435
 20
82.0307534982
 30
0.0
 40
1.000000000000014
100
AcDbArc
 50
0.0
 51
90.0
  0
ARC
  5
99
330
1F
100
AcDbEntity
  8
0
  6
Continuous
 62
     7
370
    25
100
AcDbCircle
 10
162.0398703435
 20
136.0307534982
 30
0.0
 40
1.0
100
AcDbArc
 50
270.0
 51
0.0
  0
ARC
  5
9A
330
1F
100
AcDbEntity
  8
0
  6
Continuous
 62
     7
370
    25
100
AcDbCircle
 10
147.9898703435
 20
82.0307534982
 30
0.0
 40
1.000000000000014
100
AcDbArc
 50
90.0
 51
143.1139143113
  0
ARC
  5
9B
330
1F
100
AcDbEntity
  8
0
  6
Continuous
 62
     7
370
    25
100
AcDbCircle
 10
147.9898703435
 20
136.0307534982
 30
0.0
 40
1.0
100
AcDbArc
 50
216.9026429317
 51
270.0
  0
LINE
  5
9C
330
1F
100
AcDbEntity
  8
0
  6
Continuous
 62
     7
370
    25
100
AcDbLine
 10
147.9898701974
 20
83.0307529617
 30
0.0
 11
162.0398714759
 21
83.0307529617
 31
0.0
  0
LINE
  5
9D
330
1F
100
AcDbEntity
  8
0
  6
Continuous
 62
     7
370
    25
100
AcDbLine
 10
162.0398714759
 20
135.0307540346
 30
0.0
 11
147.9898701974
 21
135.0307540346
 31
0.0
  0
ARC
  5
9E
330
1F
100
AcDbEntity
  8
0
  6
Continuous
 62
     7
370
    25
100
AcDbCircle
 10
120.5398635908
 20
84.4603158838
 30
0.0
 40
0.6000067526677124
100
AcDbArc
 50
33.5571153394
 51
90.0
  0
ARC
  5
9F
330
1F
100
AcDbEntity
  8
0
  6
Continuous
 62
     7
370
    25
100
AcDbCircle
 10
120.5398635908
 20
133.6011911126
 30
0.0
 40
0.6000067526677242
100
AcDbArc
 50
270.0
 51
326.4428846606
  0
LINE
  5
A0
330
1F
100
AcDbEntity
  8
0
  6
Continuous
 62
     7
370
    25
100
AcDbLine
 10
107.8083619096
 20
132.6884833474
 30
0.0
 11
95.2398694673
 21
132.0587993909
 31
0.0
  0
LINE
  5
A1
330
1F
100
AcDbEntity
  8
0
  6
Continuous
 62
     7
370
    25
100
AcDbLine
 10
119.0398702485
 20
133.2511847217
 30
0.0
 11
116.2228688219
 21
133.1100520987
 31
0.0
  0
LINE
  5
A2
330
1F
100
AcDbEntity
  8
0
  6
Continuous
 62
     7
370
    25
100
AcDbLine
 10
116.2229247012
 20
84.951453035
 30
0.0
 11
119.0398702485
 21
84.8103222747
 31
0.0
  0
LINE
  5
A3
330
1F
100
AcDbEntity
  8
0
  6
Continuous
 62
     7
370
    25
100
AcDbLine
 10
99.2398701229
 20
85.8023074765
 30
0.0
 11
107.808764241
 21
85.3730031599
 31
0.0
  0
LINE
  5
A4
330
1F
100
AcDbEntity
  8
0
  6
Continuous
 62
     7
370
    25
100
AcDbLine
 10
119.0398702485
 20
84.8103222747
 30
0.0
 11
119.8965831746
 21
85.0398783882
 31
0.0
  0
LINE
  5
A5
330
1F
100
AcDbEntity
  8
0
  6
Continuous
 62
     7
370
    25
100
AcDbLine
 10
119.8965831746
 20
133.0216286082
 30
0.0
 11
119.0398702485
 21
133.2511847217
 31
0.0
  0
ARC
  5
A6
330
1F
100
AcDbEntity
  8
0
  6
Continuous
 62
     7
370
    25
100
AcDbCircle
 10
120.0518745439
 20
84.4603226365
 30
0.0
 40
0.5999999999999943
100
AcDbArc
 50
90.0
 51
105.0
  0
ARC
  5
A7
330
1F
100
AcDbEntity
  8
0
  6
Continuous
 62
     7
370
    25
100
AcDbCircle
 10
120.0518745439
 20
133.6011843599
 30
0.0
 40
0.5999999999999943
100
AcDbArc
 50
255.0
 51
270.0
  0
LINE
  5
A8
330
1F
100
AcDbEntity
  8
0
  6
Continuous
 62
     7
370
    25
100
AcDbLine
 10
120.0518745783
 20
85.0603227813
 30
0.0
 11
120.5398635676
 21
85.0603227813
 31
0.0
  0
LINE
  5
A9
330
1F
100
AcDbEntity
  8
0
  6
Continuous
 62
     7
370
    25
100
AcDbLine
 10
120.5398635676
 20
133.0011842151
 30
0.0
 11
120.0518745783
 21
133.0011842151
 31
0.0
  0
ARC
  5
AA
330
1F
100
AcDbEntity
  8
0
  6
Continuous
 62
     7
370
    25
100
AcDbCircle
 10
181.4398703435
 20
95.2807534982
 30
0.0
 40
0.6000000000000085
100
AcDbArc
 50
90.0
 51
131.8103148958
  0
ARC
  5
AB
330
1F
100
AcDbEntity
  8
0
  6
Continuous
 62
     7
370
    25
100
AcDbCircle
 10
181.4398703435
 20
122.7807534982
 30
0.0
 40
0.6000000000000085
100
AcDbArc
 50
228.1896851042
 51
270.0
  0
ARC
  5
AC
330
1F
100
AcDbEntity
  8
0
  6
Continuous
 62
     7
370
    25
100
AcDbCircle
 10
201.2398703435
 20
96.3307534982
 30
0.0
 40
0.8000000000000114
100
AcDbArc
 50
270.0
 51
0.0
  0
ARC
  5
AD
330
1F
100
AcDbEntity
  8
0
  6
Continuous
 62
     7
370
    25
100
AcDbCircle
 10
201.2398703435
 20
121.7307534982
 30
0.0
 40
0.8000000000000114
100
AcDbArc
 50
0.0
 51
90.0
  0
LINE
  5
AE
330
1F
100
AcDbEntity
  8
0
  6
Continuous
 62
     7
370
    25
100
AcDbLine
 10
183.5398703435
 20
95.530753148
 30
0.0
 11
201.2398719409
 21
95.530753148
 31
0.0
  0
LINE
  5
AF
330
1F
100
AcDbEntity
  8
0
  6
Continuous
 62
     7
370
    25
100
AcDbLine
 10
201.2398719409
 20
122.5307538484
 30
0.0
 11
183.5398703435
 21
122.5307538484
 31
0.0
  0
LINE
  5
B0
330
1F
100
AcDbEntity
  8
0
  6
Continuous
 62
     7
370
    25
100
AcDbLine
 10
183.5398703435
 20
122.5307538484
 30
0.0
 11
182.3099508503
 21
122.2011979048
 31
0.0
  0
LINE
  5
B1
330
1F
100
AcDbEntity
  8
0
  6
Continuous
 62
     7
370
    25
100
AcDbLine
 10
182.3099508503
 20
95.8603090916
 30
0.0
 11
183.5398703435
 21
95.530753148
 31
0.0
  0
ARC
  5
B2
330
1F
100
AcDbEntity
  8
0
  6
Continuous
 62
     7
370
    25
100
AcDbCircle
 10
182.1546610623
 20
95.2807534982
 30
0.0
 40
0.6000000000000085
100
AcDbArc
 50
75.0
 51
90.0
  0
ARC
  5
B3
330
1F
100
AcDbEntity
  8
0
  6
Continuous
 62
     7
370
    25
100
AcDbCircle
 10
182.1546610623
 20
122.7807534982
 30
0.0
 40
0.6000000000000085
100
AcDbArc
 50
270.0
 51
285.0
  0
LINE
  5
B4
330
1F
100
AcDbEntity
  8
0
  6
Continuous
 62
     7
370
    25
100
AcDbLine
 10
181.4398720482
 20
95.8807534848
 30
0.0
 11
182.1546621242
 21
95.8807534848
 31
0.0
  0
LINE
  5
B5
330
1F
100
AcDbEntity
  8
0
  6
Continuous
 62
     7
370
    25
100
AcDbLine
 10
182.1546621242
 20
122.1807535116
 30
0.0
 11
181.4398720482
 21
122.1807535116
 31
0.0
  0
LINE
  5
B6
330
1F
100
AcDbEntity
  8
0
  6
Continuous
 62
     7
370
    25
100
AcDbLine
 10
90.4232069471
 20
88.1607533742
 30
0.0
 11
97.8398706385
 21
88.1607533742
 31
0.0
  0
ARC
  5
B7
330
1F
100
AcDbEntity
  8
0
  6
Continuous
 62
     7
370
    25
100
AcDbCircle
 10
97.8398703435
 20
86.7607534982
 30
0.0
 40
1.400000000000006
100
AcDbArc
 50
42.2465410162
 51
90.0
  0
LINE
  5
B8
330
1F
100
AcDbEntity
  8
0
  6
Continuous
 62
     7
370
    25
100
AcDbLine
 10
89.1409024217
 20
89.3097204466
 30
0.0
 11
90.2810331055
 21
88.1695897628
 31
0.0
  0
LINE
  5
B9
330
1F
100
AcDbEntity
  8
0
  6
Continuous
 62
     7
370
    25
100
AcDbLine
 10
90.2810331055
 20
129.8919172336
 30
0.0
 11
89.1497723379
 21
128.7606546034
 31
0.0
  0
ARC
  5
BA
330
1F
100
AcDbEntity
  8
0
  6
Continuous
 62
     7
370
    25
100
AcDbCircle
 10
93.8398703435
 20
131.3007534982
 30
0.0
 40
1.400000000000006
100
AcDbArc
 50
270.0
 51
301.7485287426
  0
LINE
  5
BB
330
1F
100
AcDbEntity
  8
0
  6
Continuous
 62
     7
370
    25
100
AcDbLine
 10
93.8398699829
 20
129.9007536222
 30
0.0
 11
90.4141358652
 21
129.9007536222
 31
0.0
  0
LINE
  5
BC
330
1F
100
AcDbEntity
  8
0
  6
Continuous
 62
     7
370
    25
100
AcDbLine
 10
208.7357297161
 20
118.0307531108
 30
0.0
 11
208.7357297161
 21
100.0307538856
 31
0.0
  0
LINE
  5
BD
330
1F
100
AcDbEntity
  8
0
  6
Continuous
 62
     7
370
    25
100
AcDbLine
 10
220.735731683
 20
117.4307531987
 30
0.0
 11
220.735731683
 21
100.6307537977
 31
0.0
  0
LINE
  5
BE
330
1F
100
AcDbEntity
  8
0
  6
Continuous
 62
     7
370
    25
100
AcDbLine
 10
186.0398679593
 20
81.5307536472
 30
0.0
 11
186.0398679593
 21
92.5307535876
 31
0.0
  0
LINE
  5
BF
330
1F
100
AcDbEntity
  8
0
  6
Continuous
 62
     7
370
    25
100
AcDbLine
 10
186.0398679593
 20
125.5308800686
 30
0.0
 11
186.0398679593
 21
136.5307533492
 31
0.0
  0
LINE
  5
C0
330
1F
100
AcDbEntity
  8
0
  6
Continuous
 62
     7
370
    25
100
AcDbLine
 10
142.4318022647
 20
78.8438358654
 30
0.0
 11
142.4318022647
 21
128.8807542373
 31
0.0
  0
SPLINE
  5
C1
330
1F
100
AcDbEntity
  8
0
  6
Continuous
 62
     7
370
    25
100
AcDbSpline
210
0.0
220
0.0
230
1.0
 70
     8
 71
     3
 72
     8
 73
     4
 74
     0
 42
0.000000001
 43
0.00000001
 40
0.0
 40
0.0
 40
0.0
 40
0.0
 40
1.0
 40
1.0
 40
1.0
 40
1.0
 10
142.4318031749496
 20
78.84383580193925
 30
0.0
 10
141.9363235142838
 20
79.73936188987261
 30
0.0
 10
141.4422094662417
 20
80.63564630492486
 30
0.0
 10
140.9498703434605
 20
81.53291633913156
 30
0.0
  0
LINE
  5
C2
330
1F
100
AcDbEntity
  8
0
  6
Continuous
 62
     7
370
    25
100
AcDbLine
 10
140.9498706081
 20
81.5329161782
 30
0.0
 11
140.9498706081
 21
128.8807542373
 31
0.0
  0
SPLINE
  5
C3
330
1F
100
AcDbEntity
  8
0
  6
Continuous
 62
     7
370
    25
100
AcDbSpline
210
0.0
220
0.0
230
1.0
 70
    24
 71
     3
 72
     8
 73
     4
 74
     0
 42
0.000000001
 43
0.00000001
 40
0.0
 40
0.0
 40
0.0
 40
0.0
 40
1.0
 40
1.0
 40
1.0
 40
1.0
 10
140.9498703434605
 20
128.8807534981864
 30
0.0
 10
141.4298223378254
 20
128.8807534981864
 30
0.0
 10
141.925123066799
 20
128.8807534981864
 30
0.0
 10
142.4318031749496
 20
128.8807534981864
 30
0.0
  0
LINE
  5
C4
330
1F
100
AcDbEntity
  8
0
  6
Continuous
 62
     7
370
    25
100
AcDbLine
 10
125.9898703166
 20
128.8807542373
 30
0.0
 11
135.6479378038
 21
128.8807542373
 31
0.0
  0
LINE
  5
C5
330
1F
100
AcDbEntity
  8
0
  6
Continuous
 62
     7
370
    25
100
AcDbLine
 10
135.6479378038
 20
78.8438358654
 30
0.0
 11
135.6479378038
 21
128.8807542373
 31
0.0
  0
LINE
  5
C6
330
1F
100
AcDbEntity
  8
0
  6
Continuous
 62
     7
370
    25
100
AcDbLine
 10
135.6479378038
 20
78.8438358654
 30
0.0
 11
133.9898706966
 21
78.8438358654
 31
0.0
  0
SPLINE
  5
C7
330
1F
100
AcDbEntity
  8
0
  6
Continuous
 62
     7
370
    25
100
AcDbSpline
210
0.0
220
0.0
230
1.0
 70
     8
 71
     3
 72
    28
 73
    24
 74
     0
 42
0.000000001
 43
0.00000001
 40
0.0
 40
0.0
 40
0.0
 40
0.0
 40
0.1250000000000001
 40
0.1250000000000001
 40
0.1875000000000001
 40
0.1875000000000001
 40
0.2500000000000001
 40
0.2500000000000001
 40
0.3749999999999999
 40
0.3749999999999999
 40
0.4375
 40
0.4375
 40
0.4999999999999999
 40
0.4999999999999999
 40
0.6249999999999999
 40
0.6249999999999999
 40
0.7499999999999997
 40
0.7499999999999997
 40
0.8124999999999998
 40
0.8124999999999998
 40
0.8749999999999998
 40
0.8749999999999998
 40
1.0
 40
1.0
 40
1.0
 40
1.0
 10
133.9898703434605
 20
78.84383580193925
 30
0.0
 10
133.4581625859676
 20
78.84383580193926
 30
0.0
 10
132.9359240206572
 20
78.82805108798904
 30
0.0
 10
132.1660535343822
 20
78.78305567391283
 30
0.0
 10
131.9116939621909
 20
78.76450067883711
 30
0.0
 10
131.4075723814924
 20
78.7206479563906
 30
0.0
 10
131.1578495640645
 20
78.6953033494384
 30
0.0
 10
130.4322596126181
 20
78.6119012716883
 30
0.0
 10
129.9738993510365
 20
78.5460357125372
 30
0.0
 10
129.3234014076426
 20
78.43706537204542
 30
0.0
 10
129.1117193568502
 20
78.39882573627877
 30
0.0
 10
128.7076478677122
 20
78.32106699885941
 30
0.0
 10
128.5151413538913
 20
78.28156603668407
 30
0.0
 10
127.96530638287
 20
78.16265829431806
 30
0.0
 10
127.6353776045612
 20
78.08284061289346
 30
0.0
 10
127.0509063359925
 20
77.92949745109739
 30
0.0
 10
126.8046291979791
 20
77.85816369782813
 30
0.0
 10
126.504786405281
 20
77.76422019075352
 30
0.0
 10
126.4163295482089
 20
77.73502639739358
 30
0.0
 10
126.2629681949037
 20
77.68155982313019
 30
0.0
 10
126.1978799806775
 20
77.657200488855
 30
0.0
 10
126.0422859647367
 20
77.59361034341025
 30
0.0
 10
125.9898703434605
 20
77.563507408321
 30
0.0
 10
125.9898703434605
 20
77.5466305153241
 30
0.0
  0
LINE
  5
C8
330
1F
100
AcDbEntity
  8
0
  6
Continuous
 62
     7
370
    25
100
AcDbLine
 10
125.9898703166
 20
77.5466301788
 30
0.0
 11
125.9898703166
 21
77.5307529915
 31
0.0
  0
SPLINE
  5
C9
330
1F
100
AcDbEntity
  8
0
  6
Continuous
 62
     7
370
    25
100
AcDbSpline
210
0.0
220
0.0
230
1.0
 70
     8
 71
     3
 72
    17
 73
    13
 74
     0
 42
0.000000001
 43
0.00000001
 40
0.0
 40
0.0
 40
0.0
 40
0.0
 40
0.1034797280380778
 40
0.2100239090909901
 40
0.3134862262879433
 40
0.4198361712144981
 40
0.5254127947779869
 40
0.6339610881168427
 40
0.7409508662120068
 40
0.8511696072047016
 40
0.9558996557845765
 40
1.0
 40
1.0
 40
1.0
 40
1.0
 10
133.989870696618
 20
139.4979489345449
 30
0.0
 10
133.5546222048921
 20
139.5033969261825
 30
0.0
 10
132.6712357543151
 20
139.5144542465111
 30
0.0
 10
131.3904078920924
 20
139.6008130068862
 30
0.0
 10
130.1729916966504
 20
139.7286841500192
 30
0.0
 10
129.0651850803246
 20
139.8876285573376
 30
0.0
 10
128.0769466009958
 20
140.0621231303222
 30
0.0
 10
127.25222350118
 20
140.2312895635092
 30
0.0
 10
126.6032698436813
 20
140.3791703719768
 30
0.0
 10
126.1862345402017
 20
140.4809611234994
 30
0.0
 10
125.9876377973237
 20
140.5313180231339
 30
0.0
 10
126.0109509143116
 20
140.5254084181584
 30
0.0
 10
126.017858888312
 20
140.5236573268073
 30
0.0
  0
LINE
  5
CA
330
1F
100
AcDbEntity
  8
0
  6
Continuous
 62
     7
370
    25
100
AcDbLine
 10
135.6479378038
 20
139.4979489345
 30
0.0
 11
133.9898706966
 21
139.4979489345
 31
0.0
  0
LINE
  5
CB
330
1F
100
AcDbEntity
  8
0
  6
Continuous
 62
     7
370
    25
100
AcDbLine
 10
135.6479378038
 20
133.4894431133
 30
0.0
 11
135.6479378038
 21
139.4979489345
 31
0.0
  0
LINE
  5
CC
330
1F
100
AcDbEntity
  8
0
  6
Continuous
 62
     7
370
    25
100
AcDbLine
 10
133.2354910293
 20
133.4894431133
 30
0.0
 11
135.6479378038
 21
133.4894431133
 31
0.0
  0
SPLINE
  5
CD
330
1F
100
AcDbEntity
  8
0
  6
Continuous
 62
     7
370
    25
100
AcDbSpline
210
0.0
220
0.0
230
1.0
 70
     8
 71
     3
 72
    20
 73
    16
 74
     0
 42
0.000000001
 43
0.00000001
 40
0.0
 40
0.0
 40
0.0
 40
0.0
 40
0.2499999999999997
 40
0.2499999999999997
 40
0.3749999999999997
 40
0.3749999999999997
 40
0.4999999999999998
 40
0.4999999999999998
 40
0.6249999999999998
 40
0.6249999999999998
 40
0.7499999999999999
 40
0.7499999999999999
 40
0.8749999999999999
 40
0.8749999999999999
 40
1.0
 40
1.0
 40
1.0
 40
1.0
 10
125.9898703434605
 20
128.8807534981864
 30
0.0
 10
126.2382440777486
 20
129.5346159264838
 30
0.0
 10
126.5578141700938
 20
130.138401708481
 30
0.0
 10
127.1801204032985
 20
130.9652404446496
 30
0.0
 10
127.4115446637293
 20
131.2276690826025
 30
0.0
 10
127.932759003379
 20
131.7243317367075
 30
0.0
 10
128.219379486014
 20
131.954918615729
 30
0.0
 10
128.8388642273217
 20
132.3714728403116
 30
0.0
 10
129.1731646068086
 20
132.5589706422791
 30
0.0
 10
129.8984250794334
 20
132.8903676199155
 30
0.0
 10
130.2803401368239
 20
133.0298716074108
 30
0.0
 10
131.0751283129956
 20
133.2553251148817
 30
0.0
 10
131.489286507202
 20
133.3419512264254
 30
0.0
 10
132.3548328477833
 20
133.4599320152795
 30
0.0
 10
132.7927204627952
 20
133.4894431605539
 30
0.0
 10
133.2354906891498
 20
133.4894431605539
 30
0.0
  0
SPLINE
  5
CE
330
1F
100
AcDbEntity
  8
0
  6
Continuous
 62
     7
370
    25
100
AcDbSpline
210
0.0
220
0.0
230
1.0
 70
    11
 71
     3
 72
    70
 73
    66
 74
     0
 42
0.000000001
 43
0.00000001
 40
0.0
 40
0.0
 40
0.0
 40
0.0
 40
0.0312499999999999
 40
0.0312499999999999
 40
0.0624999999999998
 40
0.0624999999999998
 40
0.0937499999999997
 40
0.0937499999999997
 40
0.1249999999999996
 40
0.1249999999999996
 40
0.1562499999999994
 40
0.1562499999999994
 40
0.1874999999999993
 40
0.1874999999999993
 40
0.2187499999999992
 40
0.2187499999999992
 40
0.2499999999999991
 40
0.2499999999999991
 40
0.281249999999999
 40
0.281249999999999
 40
0.3124999999999989
 40
0.3124999999999989
 40
0.3437499999999988
 40
0.3437499999999988
 40
0.3749999999999987
 40
0.3749999999999987
 40
0.4062499999999986
 40
0.4062499999999986
 40
0.4374999999999984
 40
0.4374999999999984
 40
0.4687499999999983
 40
0.4687499999999983
 40
0.4999999999999982
 40
0.4999999999999982
 40
0.5312499999999983
 40
0.5312499999999983
 40
0.5624999999999984
 40
0.5624999999999984
 40
0.5937499999999986
 40
0.5937499999999986
 40
0.6249999999999987
 40
0.6249999999999987
 40
0.6562499999999988
 40
0.6562499999999988
 40
0.6874999999999989
 40
0.6874999999999989
 40
0.718749999999999
 40
0.718749999999999
 40
0.7499999999999991
 40
0.7499999999999991
 40
0.7812499999999992
 40
0.7812499999999992
 40
0.8124999999999993
 40
0.8124999999999993
 40
0.8437499999999994
 40
0.8437499999999994
 40
0.8749999999999996
 40
0.8749999999999996
 40
0.9062499999999997
 40
0.9062499999999997
 40
0.9374999999999998
 40
0.9374999999999998
 40
0.9687499999999999
 40
0.9687499999999999
 40
1.0
 40
1.0
 40
1.0
 40
1.0
 10
129.0398703434605
 20
119.6516603841698
 30
0.0
 10
128.7753250048004
 20
119.6516603841698
 30
0.0
 10
128.5152543374233
 20
119.6763376789549
 30
0.0
 10
128.0036796575879
 20
119.7728093519969
 30
0.0
 10
127.7495043738477
 20
119.8457902679769
 30
0.0
 10
127.265233743786
 20
120.0355308709155
 30
0.0
 10
127.0355926519048
 20
120.1513915293093
 30
0.0
 10
126.6009883036713
 20
120.424009375267
 30
0.0
 10
126.3954225270247
 20
120.5820484573208
 30
0.0
 10
126.0268653864295
 20
120.9255913082914
 30
0.0
 10
125.861384403694
 20
121.1123537523931
 30
0.0
 10
125.5689598942589
 20
121.5158969267899
 30
0.0
 10
125.4448589176324
 20
121.729393923219
 30
0.0
 10
125.2452797208826
 20
122.1687772371415
 30
0.0
 10
125.1683461350244
 20
122.3979172242872
 30
0.0
 10
125.065489076504
 20
122.8638913470472
 30
0.0
 10
125.0400161670449
 20
123.0967737927234
 30
0.0
 10
125.0397257564771
 20
123.5621713278032
 30
0.0
 10
125.0657503902529
 20
123.7970470851975
 30
0.0
 10
125.1678986747448
 20
124.2485402324437
 30
0.0
 10
125.243475122328
 20
124.4665867078551
 30
0.0
 10
125.4439726534729
 20
124.887681232893
 30
0.0
 10
125.5691014949813
 20
125.0896026174113
 30
0.0
 10
125.8584602960029
 20
125.4616320999302
 30
0.0
 10
126.0238712830584
 20
125.6342604035105
 30
0.0
 10
126.3968618412062
 20
125.9515784080565
 30
0.0
 10
126.5985948742953
 20
126.0913653415582
 30
0.0
 10
127.0314541251232
 20
126.33554159511
 30
0.0
 10
127.2653726580126
 20
126.4407711061515
 30
0.0
 10
127.7495563931552
 20
126.6089282525266
 30
0.0
 10
127.9988720191107
 20
126.6721791431205
 30
0.0
 10
128.5119045435384
 20
126.757758352223
 30
0.0
 10
128.777198366443
 20
126.7796305171455
 30
0.0
 10
129.2995329863128
 20
126.7797941667894
 30
0.0
 10
129.5592866487945
 20
126.7587924746934
 30
0.0
 10
130.0758984644397
 20
126.6733901196158
 30
0.0
 10
130.32826450494
 20
126.6093839363288
 30
0.0
 10
130.8097896264728
 20
126.4425694162876
 30
0.0
 10
131.0426403585864
 20
126.3384362528885
 30
0.0
 10
131.4797302070252
 20
126.0924496003935
 30
0.0
 10
131.6810511956824
 20
125.9526997694446
 30
0.0
 10
132.0501372209823
 20
125.6395616997201
 30
0.0
 10
132.2191219720339
 20
125.4641055404499
 30
0.0
 10
132.5095780286932
 20
125.0912652763497
 30
0.0
 10
132.6326498400553
 20
124.8931434662388
 30
0.0
 10
132.8339860814773
 20
124.4724321235051
 30
0.0
 10
132.9111986274196
 20
124.2504421028376
 30
0.0
 10
133.0134021703196
 20
123.8005771631292
 30
0.0
 10
133.039630521772
 20
123.5703217500125
 30
0.0
 10
133.040106921089
 20
123.0990058074634
 30
0.0
 10
133.0143645085911
 20
122.8657683917493
 30
0.0
 10
132.9130537322272
 20
122.4040918522512
 30
0.0
 10
132.8362210928363
 20
122.1731944651391
 30
0.0
 10
132.6358172536211
 20
121.7309184513474
 30
0.0
 10
132.513145755329
 20
121.5198560200615
 30
0.0
 10
132.2231984661648
 20
121.1183575093288
 30
0.0
 10
132.0546274867996
 20
120.9274509872529
 30
0.0
 10
131.6863578926864
 20
120.5837256552558
 30
0.0
 10
131.4852960354161
 20
120.4285884690417
 30
0.0
 10
131.0482651168312
 20
120.153511108962
 30
0.0
 10
130.8161169037016
 20
120.03639487954
 30
0.0
 10
130.3351066222027
 20
119.8474683944755
 30
0.0
 10
130.0830065393723
 20
119.7743934240812
 30
0.0
 10
129.5659370531133
 20
119.6763413649467
 30
0.0
 10
129.3044156821206
 20
119.6516603841698
 30
0.0
 10
129.0398703434605
 20
119.6516603841698
 30
0.0
  0
SPLINE
  5
CF
330
1F
100
AcDbEntity
  8
0
  6
Continuous
 62
     7
370
    25
100
AcDbSpline
210
0.0
220
0.0
230
1.0
 70
    11
 71
     3
 72
    70
 73
    66
 74
     0
 42
0.000000001
 43
0.00000001
 40
0.0
 40
0.0
 40
0.0
 40
0.0
 40
0.0312500000000003
 40
0.0312500000000003
 40
0.0625000000000006
 40
0.0625000000000006
 40
0.0937500000000009
 40
0.0937500000000009
 40
0.1250000000000012
 40
0.1250000000000012
 40
0.1562500000000014
 40
0.1562500000000014
 40
0.1875000000000017
 40
0.1875000000000017
 40
0.2187500000000021
 40
0.2187500000000021
 40
0.2500000000000023
 40
0.2500000000000023
 40
0.2812500000000024
 40
0.2812500000000024
 40
0.3125000000000026
 40
0.3125000000000026
 40
0.3437500000000027
 40
0.3437500000000027
 40
0.3750000000000028
 40
0.3750000000000028
 40
0.4062500000000029
 40
0.4062500000000029
 40
0.4375000000000031
 40
0.4375000000000031
 40
0.4687500000000032
 40
0.4687500000000032
 40
0.5000000000000033
 40
0.5000000000000033
 40
0.5312500000000032
 40
0.5312500000000032
 40
0.562500000000003
 40
0.562500000000003
 40
0.5937500000000029
 40
0.5937500000000029
 40
0.6250000000000027
 40
0.6250000000000027
 40
0.6562500000000026
 40
0.6562500000000026
 40
0.6875000000000024
 40
0.6875000000000024
 40
0.7187500000000022
 40
0.7187500000000022
 40
0.7500000000000021
 40
0.7500000000000021
 40
0.7812500000000019
 40
0.7812500000000019
 40
0.8125000000000016
 40
0.8125000000000016
 40
0.8437500000000013
 40
0.8437500000000013
 40
0.875000000000001
 40
0.875000000000001
 40
0.9062500000000008
 40
0.9062500000000008
 40
0.9375000000000006
 40
0.9375000000000006
 40
0.9687500000000002
 40
0.9687500000000002
 40
1.0
 40
1.0
 40
1.0
 40
1.0
 10
129.0398703434605
 20
134.0897168929656
 30
0.0
 10
128.7753250048004
 20
134.0897168929656
 30
0.0
 10
128.5152543374233
 20
134.1056173333804
 30
0.0
 10
128.0036796575879
 20
134.1675616835547
 30
0.0
 10
127.7495043738477
 20
134.214363917646
 30
0.0
 10
127.265233743786
 20
134.335340901101
 30
0.0
 10
127.0355926519048
 20
134.4089432289079
 30
0.0
 10
126.6009883036713
 20
134.580767499886
 30
0.0
 10
126.3954225270247
 20
134.6797709228134
 30
0.0
 10
126.0268653864295
 20
134.8928673367262
 30
0.0
 10
125.861384403694
 20
135.0077670528559
 30
0.0
 10
125.5689598942589
 20
135.2531339515462
 30
0.0
 10
125.4448589176324
 20
135.3815738520165
 30
0.0
 10
125.2452797208826
 20
135.6424660001024
 30
0.0
 10
125.1683461350244
 20
135.7768471714419
 30
0.0
 10
125.065489076504
 20
136.0461671225482
 30
0.0
 10
125.0400161670449
 20
136.1788483867663
 30
0.0
 10
125.0397257564771
 20
136.4400348608973
 30
0.0
 10
125.0657503902529
 20
136.5697998990621
 30
0.0
 10
125.1678986747448
 20
136.8153825333347
 30
0.0
 10
125.243475122328
 20
136.9320440706436
 30
0.0
 10
125.443972653473
 20
137.1539492607982
 30
0.0
 10
125.5691014949813
 20
137.2585605147212
 30
0.0
 10
125.8584602960029
 20
137.4486069263292
 30
0.0
 10
126.0238712830584
 20
137.5353665977789
 30
0.0
 10
126.3968618412062
 20
137.6928709735304
 30
0.0
 10
126.5985948742953
 20
137.7611962383177
 30
0.0
 10
127.0314541251232
 20
137.8794259619369
 30
0.0
 10
127.2653726580126
 20
137.9297208780407
 30
0.0
 10
127.7495563931552
 20
138.0095864149304
 30
0.0
 10
127.9988720191107
 20
138.0393275427299
 30
0.0
 10
128.5119045435384
 20
138.0794802842382
 30
0.0
 10
128.777198366443
 20
138.089678553648
 30
0.0
 10
129.2995329863128
 20
138.0897550120328
 30
0.0
 10
129.5592866487945
 20
138.0799640004237
 30
0.0
 10
130.0758984644397
 20
138.0398971616849
 30
0.0
 10
130.32826450494
 20
138.0097999948281
 30
0.0
 10
130.8097896264728
 20
137.9305777849979
 30
0.0
 10
131.0426403585864
 20
137.8808203055346
 30
0.0
 10
131.4797302070252
 20
137.7617283630842
 30
0.0
 10
131.6810511956824
 20
137.6934131015369
 30
0.0
 10
132.0501372209822
 20
137.5380121346034
 30
0.0
 10
132.2191219720339
 20
137.4498597925364
 30
0.0
 10
132.5095780286932
 20
137.2594204034201
 30
0.0
 10
132.6326498400553
 20
137.156795825721
 30
0.0
 10
132.8339860814773
 20
136.9351554791129
 30
0.0
 10
132.9111986274195
 20
136.8164014035654
 30
0.0
 10
133.0134021703196
 20
136.5717354646477
 30
0.0
 10
133.0396305217719
 20
136.4445787391992
 30
0.0
 10
133.040106921089
 20
136.1801305933436
 30
0.0
 10
133.0143645085911
 20
136.0472299130865
 30
0.0
 10
132.9130537322272
 20
135.7804376396044
 30
0.0
 10
132.8362210928363
 20
135.6450737381359
 30
0.0
 10
132.6358172536211
 20
135.3824939428333
 30
0.0
 10
132.513145755329
 20
135.2555187830796
 30
0.0
 10
132.2231984661648
 20
135.0114393969971
 30
0.0
 10
132.0546274867996
 20
134.8940142722433
 30
0.0
 10
131.6863578926864
 20
134.6808178112948
 30
0.0
 10
131.4852960354161
 20
134.5836436928699
 30
0.0
 10
131.0482651168312
 20
134.4102888056558
 30
0.0
 10
130.8161169037016
 20
134.3358892539991
 30
0.0
 10
130.3351066222027
 20
134.2154363744944
 30
0.0
 10
130.0830065393723
 20
134.1685779992284
 30
0.0
 10
129.5659370531133
 20
134.1056205022447
 30
0.0
 10
129.3044156821206
 20
134.0897168929656
 30
0.0
 10
129.0398703434605
 20
134.0897168929656
 30
0.0
  0
LINE
  5
D0
330
1F
100
AcDbEntity
  8
0
  6
Continuous
 62
     7
370
    25
100
AcDbLine
 10
146.9898700335
 20
79.4704762597
 30
0.0
 11
146.9898700335
 21
128.8807542373
 31
0.0
  0
SPLINE
  5
D1
330
1F
100
AcDbEntity
  8
0
  6
Continuous
 62
     7
370
    25
100
AcDbSpline
210
0.0
220
0.0
230
1.0
 70
     8
 71
     3
 72
    10
 73
     6
 74
     0
 42
0.000000001
 43
0.00000001
 40
0.0
 40
0.0
 40
0.0
 40
0.0
 40
0.5
 40
0.5
 40
1.0
 40
1.0
 40
1.0
 40
1.0
 10
146.9898703434605
 20
79.47047609759358
 30
0.0
 10
146.9898703434605
 20
79.3105888293999
 30
0.0
 10
146.9285606922247
 20
79.1494615738853
 30
0.0
 10
146.7094610546896
 20
78.91536257553048
 30
0.0
 10
146.5514128483761
 20
78.84383580193925
 30
0.0
 10
146.3898703434605
 20
78.84383580193925
 30
0.0
  0
SPLINE
  5
D2
330
1F
100
AcDbEntity
  8
0
  6
Continuous
 62
     7
370
    25
100
AcDbSpline
210
0.0
220
0.0
230
1.0
 70
    24
 71
     3
 72
    12
 73
     8
 74
     0
 42
0.000000001
 43
0.00000001
 40
0.0
 40
0.0
 40
0.0
 40
0.0
 40
0.2500000000000033
 40
0.2500000000000033
 40
0.5000000000000067
 40
0.5000000000000067
 40
1.0
 40
1.0
 40
1.0
 40
1.0
 10
146.3898703434605
 20
128.8807534981864
 30
0.0
 10
146.4801094111476
 20
128.8807534981864
 30
0.0
 10
146.571007525254
 20
128.8807534981864
 30
0.0
 10
146.7256045617426
 20
128.8807534981864
 30
0.0
 10
146.7905829778507
 20
128.8807534981864
 30
0.0
 10
146.9424180057869
 20
128.8807534981864
 30
0.0
 10
146.9898703434605
 20
128.8807534981864
 30
0.0
 10
146.9898703434605
 20
128.8807534981864
 30
0.0
  0
LINE
  5
D3
330
1F
100
AcDbEntity
  8
0
  6
Continuous
 62
     7
370
    25
100
AcDbLine
 10
137.1298703917
 20
81.5329161782
 30
0.0
 11
137.1298703917
 21
128.8807542373
 31
0.0
  0
SPLINE
  5
D4
330
1F
100
AcDbEntity
  8
0
  6
Continuous
 62
     7
370
    25
100
AcDbSpline
210
0.0
220
0.0
230
1.0
 70
     8
 71
     3
 72
     8
 73
     4
 74
     0
 42
0.000000001
 43
0.00000001
 40
0.0
 40
0.0
 40
0.0
 40
0.0
 40
1.0
 40
1.0
 40
1.0
 40
1.0
 10
137.1298703434605
 20
81.53291633913155
 30
0.0
 10
136.6375312206793
 20
80.63564630492485
 30
0.0
 10
136.1434171726372
 20
79.7393618898726
 30
0.0
 10
135.6479375119715
 20
78.84383580193925
 30
0.0
  0
SPLINE
  5
D5
330
1F
100
AcDbEntity
  8
0
  6
Continuous
 62
     7
370
    25
100
AcDbSpline
210
0.0
220
0.0
230
1.0
 70
    24
 71
     3
 72
     8
 73
     4
 74
     0
 42
0.000000001
 43
0.00000001
 40
0.0
 40
0.0
 40
0.0
 40
0.0
 40
1.0
 40
1.0
 40
1.0
 40
1.0
 10
135.6479375119715
 20
128.8807534981864
 30
0.0
 10
136.154617620122
 20
128.8807534981864
 30
0.0
 10
136.6499183490956
 20
128.8807534981864
 30
0.0
 10
137.1298703434605
 20
128.8807534981864
 30
0.0
  0
LINE
  5
D6
330
1F
100
AcDbEntity
  8
0
  6
Continuous
 62
     7
370
    25
100
AcDbLine
 10
121.0398703435
 20
77.8307543446
 30
0.0
 11
121.0398703435
 21
140.2307526518
 31
0.0
  0
LINE
  5
D7
330
1F
100
AcDbEntity
  8
0
  6
Continuous
 62
     7
370
    25
100
AcDbLine
 10
146.3898710528
 20
78.8438358654
 30
0.0
 11
142.4318022647
 21
78.8438358654
 31
0.0
  0
LINE
  5
D8
330
1F
100
AcDbEntity
  8
0
  6
Continuous
 62
     7
370
    25
100
AcDbLine
 10
142.4318022647
 20
128.8807542373
 30
0.0
 11
146.3898710528
 21
128.8807542373
 31
0.0
  0
ARC
  5
D9
330
1F
100
AcDbEntity
  8
0
  6
Continuous
 62
     7
370
    25
100
AcDbCircle
 10
129.0374535578
 20
120.9426989857
 30
0.0
 40
4.11002815203758
100
AcDbArc
 50
19.1788507337
 51
159.6989474499
  0
LINE
  5
DA
330
1F
100
AcDbEntity
  8
0
  6
Continuous
 62
     7
370
    25
100
AcDbLine
 10
163.0398697772
 20
81.0307526339
 30
0.0
 11
163.0398697772
 21
137.0307543625
 31
0.0
  0
LINE
  5
DB
330
1F
100
AcDbEntity
  8
0
  6
Continuous
 62
     7
370
    25
100
AcDbLine
 10
181.0398690024
 20
80.8307529737
 30
0.0
 11
181.0398690024
 21
137.2307540227
 31
0.0
  0
SPLINE
  5
DC
330
1F
100
AcDbEntity
  8
0
  6
Continuous
 62
     7
370
    25
100
AcDbSpline
210
0.0
220
0.0
230
1.0
 70
     8
 71
     3
 72
    10
 73
     6
 74
     0
 42
0.000000001
 43
0.00000001
 40
0.0
 40
0.0
 40
0.0
 40
0.0
 40
0.5
 40
0.5
 40
1.0
 40
1.0
 40
1.0
 40
1.0
 10
137.5241678751514
 20
135.4307534981864
 30
0.0
 10
137.402627611483
 20
135.5054796653982
 30
0.0
 10
137.301293251134
 20
135.614424681315
 30
0.0
 10
137.1656543082456
 20
135.8648551620766
 30
0.0
 10
137.1298703434605
 20
136.0072745241755
 30
0.0
 10
137.1298703434605
 20
136.1504073492222
 30
0.0
  0
SPLINE
  5
DD
330
1F
100
AcDbEntity
  8
0
  6
Continuous
 62
     7
370
    25
100
AcDbSpline
210
0.0
220
0.0
230
1.0
 70
    24
 71
     3
 72
    12
 73
     8
 74
     0
 42
0.000000001
 43
0.00000001
 40
0.0
 40
0.0
 40
0.0
 40
0.0
 40
0.2500000000000037
 40
0.2500000000000037
 40
0.5000000000000074
 40
0.5000000000000074
 40
1.0
 40
1.0
 40
1.0
 40
1.0
 10
137.9298703434605
 20
135.4307534981864
 30
0.0
 10
137.8799936611431
 20
135.4307534981864
 30
0.0
 10
137.8319904677395
 20
135.4307534981864
 30
0.0
 10
137.7489423650275
 20
135.4307534981864
 30
0.0
 10
137.7128127855596
 20
135.4307534981864
 30
0.0
 10
137.6169007546154
 20
135.4307534981864
 30
0.0
 10
137.5671420866466
 20
135.4307534981864
 30
0.0
 10
137.5241678751514
 20
135.4307534981864
 30
0.0
  0
SPLINE
  5
DE
330
1F
100
AcDbEntity
  8
0
  6
Continuous
 62
     7
370
    25
100
AcDbSpline
210
0.0
220
0.0
230
1.0
 70
    24
 71
     3
 72
    14
 73
    10
 74
     0
 42
0.000000001
 43
0.00000001
 40
0.0
 40
0.0
 40
0.0
 40
0.0
 40
0.1249999999999991
 40
0.1249999999999991
 40
0.2499999999999982
 40
0.2499999999999982
 40
0.4999999999999998
 40
0.4999999999999998
 40
1.0
 40
1.0
 40
1.0
 40
1.0
 10
137.9298703434605
 20
82.63075349818641
 30
0.0
 10
137.8614324955741
 20
82.63075349818641
 30
0.0
 10
137.795882456809
 20
82.63075349818642
 30
0.0
 10
137.691455817401
 20
82.63075349818642
 30
0.0
 10
137.6489112076396
 20
82.63075349818642
 30
0.0
 10
137.5363017470994
 20
82.63075349818641
 30
0.0
 10
137.4807627000799
 20
82.63075349818641
 30
0.0
 10
137.3381510046161
 20
82.63075349818641
 30
0.0
 10
137.2747456496203
 20
82.63075349818641
 30
0.0
 10
137.2275451457928
 20
82.63075349818641
 30
0.0
  0
SPLINE
  5
DF
330
1F
100
AcDbEntity
  8
0
  6
Continuous
 62
     7
370
    25
100
AcDbSpline
210
0.0
220
0.0
230
1.0
 70
     8
 71
     3
 72
    10
 73
     6
 74
     0
 42
0.000000001
 43
0.00000001
 40
0.0
 40
0.0
 40
0.0
 40
0.0
 40
0.5
 40
0.5
 40
1.0
 40
1.0
 40
1.0
 40
1.0
 10
137.1298703434605
 20
129.1666201296478
 30
0.0
 10
137.1298703434605
 20
129.1188486216545
 30
0.0
 10
137.1320315870577
 20
129.0711388995928
 30
0.0
 10
137.1407029609178
 20
128.9758437820445
 30
0.0
 10
137.1472321438738
 20
128.9281512180779
 30
0.0
 10
137.1560179666206
 20
128.8807534981864
 30
0.0
  0
SPLINE
  5
E0
330
1F
100
AcDbEntity
  8
0
  6
Continuous
 62
     7
370
    25
100
AcDbSpline
210
0.0
220
0.0
230
1.0
 70
    24
 71
     3
 72
    14
 73
    10
 74
     0
 42
0.000000001
 43
0.00000001
 40
0.0
 40
0.0
 40
0.0
 40
0.0
 40
0.5000000000000013
 40
0.5000000000000013
 40
0.750000000000002
 40
0.750000000000002
 40
0.875000000000001
 40
0.875000000000001
 40
1.0
 40
1.0
 40
1.0
 40
1.0
 10
140.8521955411282
 20
82.63075349818641
 30
0.0
 10
140.80541083608
 20
82.63075349818641
 30
0.0
 10
140.7433596393004
 20
82.63075349818642
 30
0.0
 10
140.5999680007498
 20
82.63075349818641
 30
0.0
 10
140.5438243471986
 20
82.63075349818641
 30
0.0
 10
140.4308733250625
 20
82.63075349818641
 30
0.0
 10
140.3878725630243
 20
82.63075349818641
 30
0.0
 10
140.2838098527178
 20
82.63075349818641
 30
0.0
 10
140.2184776143609
 20
82.63075349818642
 30
0.0
 10
140.1498703434605
 20
82.63075349818641
 30
0.0
  0
SPLINE
  5
E1
330
1F
100
AcDbEntity
  8
0
  6
Continuous
 62
     7
370
    25
100
AcDbSpline
210
0.0
220
0.0
230
1.0
 70
    24
 71
     3
 72
    12
 73
     8
 74
     0
 42
0.000000001
 43
0.00000001
 40
0.0
 40
0.0
 40
0.0
 40
0.0
 40
0.5000000000000017
 40
0.5000000000000017
 40
0.7500000000000008
 40
0.7500000000000008
 40
1.0
 40
1.0
 40
1.0
 40
1.0
 10
140.5555728117695
 20
135.4307534981864
 30
0.0
 10
140.5124872621586
 20
135.4307534981864
 30
0.0
 10
140.4633350604093
 20
135.4307534981864
 30
0.0
 10
140.3668624661213
 20
135.4307534981864
 30
0.0
 10
140.3307608809868
 20
135.4307534981864
 30
0.0
 10
140.2476551231255
 20
135.4307534981864
 30
0.0
 10
140.1996585261592
 20
135.4307534981864
 30
0.0
 10
140.1498703434605
 20
135.4307534981864
 30
0.0
  0
SPLINE
  5
E2
330
1F
100
AcDbEntity
  8
0
  6
Continuous
 62
     7
370
    25
100
AcDbSpline
210
0.0
220
0.0
230
1.0
 70
     8
 71
     3
 72
    10
 73
     6
 74
     0
 42
0.000000001
 43
0.00000001
 40
0.0
 40
0.0
 40
0.0
 40
0.0
 40
0.5
 40
0.5
 40
1.0
 40
1.0
 40
1.0
 40
1.0
 10
140.9498703434605
 20
136.1504073492222
 30
0.0
 10
140.9498703434605
 20
136.0066372914042
 30
0.0
 10
140.9138212847416
 20
135.864217928909
 30
0.0
 10
140.7783124239676
 20
135.6143236355518
 30
0.0
 10
140.6784364308714
 20
135.5062932993036
 30
0.0
 10
140.5555728117695
 20
135.4307534981864
 30
0.0
  0
SPLINE
  5
E3
330
1F
100
AcDbEntity
  8
0
  6
Continuous
 62
     7
370
    25
100
AcDbSpline
210
0.0
220
0.0
230
1.0
 70
     8
 71
     3
 72
    10
 73
     6
 74
     0
 42
0.000000001
 43
0.00000001
 40
0.0
 40
0.0
 40
0.0
 40
0.0
 40
0.5
 40
0.5
 40
1.0
 40
1.0
 40
1.0
 40
1.0
 10
140.9237227203004
 20
128.8807534981864
 30
0.0
 10
140.932412363212
 20
128.9276323475046
 30
0.0
 10
140.9389514279625
 20
128.9750548129058
 30
0.0
 10
140.9477100623556
 20
129.0709916114926
 30
0.0
 10
140.9498703434605
 20
129.1189068995031
 30
0.0
 10
140.9498703434605
 20
129.1666201296476
 30
0.0
  0
LINE
  5
E4
330
1F
100
AcDbEntity
  8
0
  6
Continuous
 62
     7
370
    25
100
AcDbLine
 10
140.1498701044
 20
135.4307533551
 30
0.0
 11
137.9298708954
 21
135.4307533551
 31
0.0
  0
LINE
  5
E5
330
1F
100
AcDbEntity
  8
0
  6
Continuous
 62
     7
370
    25
100
AcDbLine
 10
140.1498701044
 20
82.6307536412
 30
0.0
 11
137.9298708954
 21
82.6307536412
 31
0.0
  0
LINE
  5
E6
330
1F
100
AcDbEntity
  8
0
  6
Continuous
 62
     7
370
    25
100
AcDbLine
 10
147.1898696938
 20
135.4307533551
 30
0.0
 11
147.1617623785
 21
135.4307533551
 31
0.0
  0
SPLINE
  5
E7
330
1F
100
AcDbEntity
  8
0
  6
Continuous
 62
     7
370
    25
100
AcDbSpline
210
0.0
220
0.0
230
1.0
 70
    24
 71
     3
 72
    10
 73
     6
 74
     0
 42
0.000000001
 43
0.00000001
 40
0.0
 40
0.0
 40
0.0
 40
0.0
 40
0.5
 40
0.5
 40
1.0
 40
1.0
 40
1.0
 40
1.0
 10
147.1898703434294
 20
82.63075349818641
 30
0.0
 10
147.1898690873785
 20
82.63075349818641
 30
0.0
 10
147.1466641676422
 20
82.63075349818641
 30
0.0
 10
147.045737199559
 20
82.63075349818642
 30
0.0
 10
146.9898703434605
 20
82.63075349818641
 30
0.0
 10
146.9898703434605
 20
82.63075349818641
 30
0.0
  0
SPLINE
  5
E8
330
1F
100
AcDbEntity
  8
0
  6
Continuous
 62
     7
370
    25
100
AcDbSpline
210
0.0
220
0.0
230
1.0
 70
    11
 71
     3
 72
    84
 73
    80
 74
     0
 42
0.000000001
 43
0.00000001
 40
0.0
 40
0.0
 40
0.0
 40
0.0
 40
0.0312500000000002
 40
0.0312500000000002
 40
0.0468750000000003
 40
0.0468750000000003
 40
0.0625000000000004
 40
0.0625000000000004
 40
0.0937500000000011
 40
0.0937500000000011
 40
0.1250000000000018
 40
0.1250000000000018
 40
0.1562500000000025
 40
0.1562500000000025
 40
0.1718750000000027
 40
0.1718750000000027
 40
0.187500000000003
 40
0.187500000000003
 40
0.2187500000000037
 40
0.2187500000000037
 40
0.2500000000000043
 40
0.2500000000000043
 40
0.281250000000005
 40
0.281250000000005
 40
0.3125000000000057
 40
0.3125000000000057
 40
0.328125000000006
 40
0.328125000000006
 40
0.3437500000000063
 40
0.3437500000000063
 40
0.3750000000000069
 40
0.3750000000000069
 40
0.4062500000000074
 40
0.4062500000000074
 40
0.4375000000000079
 40
0.4375000000000079
 40
0.4687500000000084
 40
0.4687500000000084
 40
0.4843750000000087
 40
0.4843750000000087
 40
0.500000000000009
 40
0.500000000000009
 40
0.531250000000009
 40
0.531250000000009
 40
0.562500000000009
 40
0.562500000000009
 40
0.5781250000000087
 40
0.5781250000000087
 40
0.5937500000000083
 40
0.5937500000000083
 40
0.6250000000000078
 40
0.6250000000000078
 40
0.6562500000000072
 40
0.6562500000000072
 40
0.6875000000000067
 40
0.6875000000000067
 40
0.7031250000000062
 40
0.7031250000000062
 40
0.7187500000000059
 40
0.7187500000000059
 40
0.7500000000000051
 40
0.7500000000000051
 40
0.7812500000000044
 40
0.7812500000000044
 40
0.8125000000000038
 40
0.8125000000000038
 40
0.8437500000000031
 40
0.8437500000000031
 40
0.8593750000000029
 40
0.8593750000000029
 40
0.8750000000000027
 40
0.8750000000000027
 40
0.906250000000002
 40
0.906250000000002
 40
0.9375000000000013
 40
0.9375000000000013
 40
0.9687500000000007
 40
0.9687500000000007
 40
1.0
 40
1.0
 40
1.0
 40
1.0
 10
155.0398703434605
 20
97.64564526054393
 30
0.0
 10
154.6489403135268
 20
97.64564526054392
 30
0.0
 10
154.2644498901734
 20
97.67963181597274
 30
0.0
 10
153.6969791300022
 20
97.7798153827818
 30
0.0
 10
153.5093775790826
 20
97.82147588018852
 30
0.0
 10
153.1373529596135
 20
97.92181579361318
 30
0.0
 10
152.9522562463437
 20
97.98082614069514
 30
0.0
 10
152.4133169891615
 20
98.18027040643618
 30
0.0
 10
152.0722583156756
 20
98.34354346641874
 30
0.0
 10
151.4262254128472
 20
98.73174262767837
 30
0.0
 10
151.1194141935563
 20
98.95918576911835
 30
0.0
 10
150.5684267042417
 20
99.46038541815813
 30
0.0
 10
150.32090720457
 20
99.73550152834258
 30
0.0
 10
149.9925391121634
 20
100.1871446670731
 30
0.0
 10
149.890084315412
 20
100.3447977154378
 30
0.0
 10
149.7043558868052
 20
100.6664660524982
 30
0.0
 10
149.6204467099126
 20
100.8312473009731
 30
0.0
 10
149.3951329518925
 20
101.337455649621
 30
0.0
 10
149.2795107926122
 20
101.6923364772033
 30
0.0
 10
149.1237248286687
 20
102.4290128441475
 30
0.0
 10
149.0852244378868
 20
102.8011741712884
 30
0.0
 10
149.0845584750597
 20
103.5531393896085
 30
0.0
 10
149.1236928936909
 20
103.937202750682
 30
0.0
 10
149.2775827341581
 20
104.6832379783658
 30
0.0
 10
149.3914113985941
 20
105.0470655571427
 30
0.0
 10
149.6178162169633
 20
105.578587158543
 30
0.0
 10
149.7030715952039
 20
105.7539906456432
 30
0.0
 10
149.8888128778856
 20
106.0924313329402
 30
0.0
 10
149.9895880446594
 20
106.25633071402
 30
0.0
 10
150.315125566963
 20
106.7323206519725
 30
0.0
 10
150.5645526788241
 20
107.0304757115524
 30
0.0
 10
151.1203540906268
 20
107.5756769133837
 30
0.0
 10
151.4209085503244
 20
107.8176713323216
 30
0.0
 10
152.065953725136
 20
108.2420704627933
 30
0.0
 10
152.4143763689348
 20
108.4256445094206
 30
0.0
 10
153.130829213062
 20
108.718118863246
 30
0.0
 10
153.5001091671185
 20
108.8287982895572
 30
0.0
 10
154.0706946211116
 20
108.9411778197755
 30
0.0
 10
154.2647486822797
 20
108.969695606813
 30
0.0
 10
154.6516884338929
 20
109.0073855549652
 30
0.0
 10
154.844829930014
 20
109.0167298004774
 30
0.0
 10
155.4232929135352
 20
109.0169437836778
 30
0.0
 10
155.8076620221981
 20
108.9802585657735
 30
0.0
 10
156.5737607544551
 20
108.830524531119
 30
0.0
 10
156.9453193887257
 20
108.7192186042269
 30
0.0
 10
157.4807606990618
 20
108.5011840252243
 30
0.0
 10
157.6558710778886
 20
108.4198724317485
 30
0.0
 10
157.9992218367717
 20
108.2396590320449
 30
0.0
 10
158.1683023594444
 20
108.1401439497619
 30
0.0
 10
158.6554926125591
 20
107.8203852300962
 30
0.0
 10
158.9555782282542
 20
107.5786489339698
 30
0.0
 10
159.5070712742154
 20
107.0391850095071
 30
0.0
 10
159.7602527466338
 20
106.7379536635638
 30
0.0
 10
160.1957814829612
 20
106.1026169934503
 30
0.0
 10
160.3807670586743
 20
105.7669286528212
 30
0.0
 10
160.6081884640031
 20
105.2362497475227
 30
0.0
 10
160.675791555472
 20
105.0538980412141
 30
0.0
 10
160.7909744413515
 20
104.6878917301198
 30
0.0
 10
160.8389600956486
 20
104.5035155241814
 30
0.0
 10
160.9546684882795
 20
103.9464327380559
 30
0.0
 10
160.9944381497685
 20
103.5683654518508
 30
0.0
 10
160.9952582343429
 20
102.8075412131265
 30
0.0
 10
160.9565979782265
 20
102.4352404694272
 30
0.0
 10
160.8038445521045
 20
101.7060482183442
 30
0.0
 10
160.6876676713307
 20
101.3455366389233
 30
0.0
 10
160.3867536265278
 20
100.6670882251555
 30
0.0
 10
160.2024732963388
 20
100.3470083905461
 30
0.0
 10
159.8750581252708
 20
99.89472912839896
 30
0.0
 10
159.7568317222919
 20
99.74818801677613
 30
0.0
 10
159.5080685257269
 20
99.47045307282104
 30
0.0
 10
159.3770741683513
 20
99.33850966219374
 30
0.0
 10
158.9646628367066
 20
98.96267180064312
 30
0.0
 10
158.6623325651807
 20
98.73759039127249
 30
0.0
 10
158.0110833043628
 20
98.34516814936437
 30
0.0
 10
157.6694236520721
 20
98.18173581821071
 30
0.0
 10
156.9550486598911
 20
97.91666296255995
 30
0.0
 10
156.5784953298993
 20
97.81461520536878
 30
0.0
 10
155.8167065372459
 20
97.67964010871391
 30
0.0
 10
155.4308003733942
 20
97.64564526054392
 30
0.0
 10
155.0398703434605
 20
97.64564526054392
 30
0.0
  0
SPLINE
  5
E9
330
1F
100
AcDbEntity
  8
0
  6
Continuous
 62
     7
370
    25
100
AcDbSpline
210
0.0
220
0.0
230
1.0
 70
    11
 71
     3
 72
    68
 73
    64
 74
     0
 42
0.000000001
 43
0.00000001
 40
0.0
 40
0.0
 40
0.0
 40
0.0
 40
0.0312499999999995
 40
0.0312499999999995
 40
0.062499999999999
 40
0.062499999999999
 40
0.0937499999999986
 40
0.0937499999999986
 40
0.1249999999999984
 40
0.1249999999999984
 40
0.1562499999999983
 40
0.1562499999999983
 40
0.1874999999999981
 40
0.1874999999999981
 40
0.218749999999998
 40
0.218749999999998
 40
0.2499999999999978
 40
0.2499999999999978
 40
0.2812499999999977
 40
0.2812499999999977
 40
0.3124999999999976
 40
0.3124999999999976
 40
0.3437499999999974
 40
0.3437499999999974
 40
0.3749999999999972
 40
0.3749999999999972
 40
0.4374999999999979
 40
0.4374999999999979
 40
0.4687499999999982
 40
0.4687499999999982
 40
0.4999999999999983
 40
0.4999999999999983
 40
0.5312499999999986
 40
0.5312499999999986
 40
0.5624999999999987
 40
0.5624999999999987
 40
0.5937499999999989
 40
0.5937499999999989
 40
0.6249999999999991
 40
0.6249999999999991
 40
0.6562499999999992
 40
0.6562499999999992
 40
0.6874999999999994
 40
0.6874999999999994
 40
0.7187499999999997
 40
0.7187499999999997
 40
0.7499999999999998
 40
0.7499999999999998
 40
0.78125
 40
0.78125
 40
0.8125000000000002
 40
0.8125000000000002
 40
0.8437500000000004
 40
0.8437500000000004
 40
0.8750000000000006
 40
0.8750000000000006
 40
0.9062500000000004
 40
0.9062500000000004
 40
0.9375000000000003
 40
0.9375000000000003
 40
0.9687500000000001
 40
0.9687500000000001
 40
1.0
 40
1.0
 40
1.0
 40
1.0
 10
151.5262539692001
 20
90.8264582346836
 30
0.0
 10
151.5459754038746
 20
90.9833115466736
 30
0.0
 10
151.5905711436309
 20
91.1374427509483
 30
0.0
 10
151.7263217946477
 20
91.44022006013971
 30
0.0
 10
151.8187434282582
 20
91.58976181591619
 30
0.0
 10
152.0408419543805
 20
91.86963887614664
 30
0.0
 10
152.1714821532883
 20
92.00209207474028
 30
0.0
 10
152.4679460695515
 20
92.24890114021812
 30
0.0
 10
152.6301133427169
 20
92.36038178857227
 30
0.0
 10
152.9801003352969
 20
92.56050577626523
 30
0.0
 10
153.1696881541276
 20
92.64960813426354
 30
0.0
 10
153.561437807942
 20
92.7987222608476
 30
0.0
 10
153.7645062046016
 20
92.85953732476136
 30
0.0
 10
154.1847355494994
 20
92.9536598547066
 30
0.0
 10
154.401725063075
 20
92.98655803664722
 30
0.0
 10
154.833984089588
 20
93.02225770104552
 30
0.0
 10
155.0512256152369
 20
93.02557104327623
 30
0.0
 10
155.4879776911951
 20
93.00250364320372
 30
0.0
 10
155.705607560085
 20
92.97594137165896
 30
0.0
 10
156.1271228223254
 20
92.89496621963558
 30
0.0
 10
156.3328593399365
 20
92.84049525089398
 30
0.0
 10
156.7337451861205
 20
92.70261728254178
 30
0.0
 10
156.9262037646875
 20
92.61984782500429
 30
0.0
 10
157.2847163756361
 20
92.43165385058047
 30
0.0
 10
157.452438378
 20
92.32570424199254
 30
0.0
 10
157.9176780010029
 20
91.97029207705847
 30
0.0
 10
158.1616873435561
 20
91.6955850075516
 30
0.0
 10
158.3993020721923
 20
91.24326192151584
 30
0.0
 10
158.4544710475739
 20
91.09051029326392
 30
0.0
 10
158.5166675652198
 20
90.78154142830974
 30
0.0
 10
158.5230504050543
 20
90.62345386384155
 30
0.0
 10
158.4849652470741
 20
90.31926696620332
 30
0.0
 10
158.4413652766396
 20
90.17174536171774
 30
0.0
 10
158.3048180480218
 20
89.8854740952464
 30
0.0
 10
158.2141809218702
 20
89.75165791751857
 30
0.0
 10
157.9925803853128
 20
89.50142180342019
 30
0.0
 10
157.8600822534085
 20
89.38419621814963
 30
0.0
 10
157.5664257030933
 20
89.17433309869072
 30
0.0
 10
157.4044819072311
 20
89.08042770030781
 30
0.0
 10
157.051228571925
 20
88.91295149712361
 30
0.0
 10
156.8641808616335
 20
88.84146652173631
 30
0.0
 10
156.4732215762802
 20
88.72120469921424
 30
0.0
 10
156.2670310796956
 20
88.67196888349535
 30
0.0
 10
155.8460479342641
 20
88.59731501050726
 30
0.0
 10
155.6325080817082
 20
88.57185994790133
 30
0.0
 10
155.1995147989396
 20
88.54357188846376
 30
0.0
 10
154.9779898758945
 20
88.54091848230667
 30
0.0
 10
154.5424544622204
 20
88.55890181817621
 30
0.0
 10
154.3278338736642
 20
88.57925323632887
 30
0.0
 10
153.90490319274
 20
88.64306652991344
 30
0.0
 10
153.6947369272008
 20
88.68717120724773
 30
0.0
 10
153.2959223033276
 20
88.79719450475075
 30
0.0
 10
153.1060079887407
 20
88.86305597727711
 30
0.0
 10
152.7458359555558
 20
89.01819163443426
 30
0.0
 10
152.5742309143668
 20
89.10860818619129
 30
0.0
 10
152.2669537229597
 20
89.30811375422462
 30
0.0
 10
152.1295477936347
 20
89.41761984452432
 30
0.0
 10
151.8894508792642
 20
89.65858917383059
 30
0.0
 10
151.7870351978988
 20
89.79089726607036
 30
0.0
 10
151.6308375691033
 20
90.06596724935795
 30
0.0
 10
151.5751758028082
 20
90.21024567126945
 30
0.0
 10
151.5124757187091
 20
90.51396034982673
 30
0.0
 10
151.5065325345256
 20
90.66960492269357
 30
0.0
 10
151.5262539692001
 20
90.82645823468359
 30
0.0
  0
SPLINE
  5
EA
330
1F
100
AcDbEntity
  8
0
  6
Continuous
 62
     7
370
    25
100
AcDbSpline
210
0.0
220
0.0
230
1.0
 70
    11
 71
     3
 72
    68
 73
    64
 74
     0
 42
0.000000001
 43
0.00000001
 40
0.0
 40
0.0
 40
0.0
 40
0.0
 40
0.0312499999999999
 40
0.0312499999999999
 40
0.0624999999999998
 40
0.0624999999999998
 40
0.0937499999999997
 40
0.0937499999999997
 40
0.1249999999999996
 40
0.1249999999999996
 40
0.1562499999999995
 40
0.1562499999999995
 40
0.1874999999999994
 40
0.1874999999999994
 40
0.2187499999999993
 40
0.2187499999999993
 40
0.2499999999999992
 40
0.2499999999999992
 40
0.2812499999999991
 40
0.2812499999999991
 40
0.3124999999999989
 40
0.3124999999999989
 40
0.3437499999999988
 40
0.3437499999999988
 40
0.3749999999999988
 40
0.3749999999999988
 40
0.4062499999999987
 40
0.4062499999999987
 40
0.4374999999999986
 40
0.4374999999999986
 40
0.4687499999999984
 40
0.4687499999999984
 40
0.4999999999999983
 40
0.4999999999999983
 40
0.5312499999999982
 40
0.5312499999999982
 40
0.5624999999999981
 40
0.5624999999999981
 40
0.6249999999999981
 40
0.6249999999999981
 40
0.656249999999998
 40
0.656249999999998
 40
0.6874999999999979
 40
0.6874999999999979
 40
0.7187499999999978
 40
0.7187499999999978
 40
0.7499999999999977
 40
0.7499999999999977
 40
0.7812499999999977
 40
0.7812499999999977
 40
0.812499999999998
 40
0.812499999999998
 40
0.8437499999999983
 40
0.8437499999999983
 40
0.8749999999999987
 40
0.8749999999999987
 40
0.906249999999999
 40
0.906249999999999
 40
0.9374999999999993
 40
0.9374999999999993
 40
0.9687499999999997
 40
0.9687499999999997
 40
1.0
 40
1.0
 40
1.0
 40
1.0
 10
152.3267343108504
 20
128.7895302368748
 30
0.0
 10
152.4757514865583
 20
128.8949936447668
 30
0.0
 10
152.638285757823
 20
128.9879517736063
 30
0.0
 10
152.9878636964856
 20
129.1522464797587
 30
0.0
 10
153.176733066199
 20
129.2240609679469
 30
0.0
 10
153.570433205178
 20
129.3439603909776
 30
0.0
 10
153.7737607680815
 20
129.3918867272861
 30
0.0
 10
154.1928371761178
 20
129.4654054854987
 30
0.0
 10
154.4104256634756
 20
129.4909746939755
 30
0.0
 10
154.8438862079628
 20
129.5183320493861
 30
0.0
 10
155.0609105193638
 20
129.5205129520029
 30
0.0
 10
155.4955463557288
 20
129.5019490954916
 30
0.0
 10
155.7144359060358
 20
129.4808158112353
 30
0.0
 10
156.1366412113135
 20
129.4161801568885
 30
0.0
 10
156.3418514758862
 20
129.3727411958781
 30
0.0
 10
156.740131431367
 20
129.2622664584771
 30
0.0
 10
156.9339957536486
 20
129.1945813128489
 30
0.0
 10
157.2926325792614
 20
129.0389752598516
 30
0.0
 10
157.4595438823712
 20
128.9506377805452
 30
0.0
 10
157.7668823745074
 20
128.750366433845
 30
0.0
 10
157.907026273082
 20
128.6378964741589
 30
0.0
 10
158.1446297573712
 20
128.3976529074004
 30
0.0
 10
158.2442147228938
 20
128.2687212928733
 30
0.0
 10
158.4012468002514
 20
127.9906239870649
 30
0.0
 10
158.4565521134551
 20
127.8442286610546
 30
0.0
 10
158.5172466345142
 20
127.5449573578655
 30
0.0
 10
158.5230184346609
 20
127.3886698079641
 30
0.0
 10
158.4834436532149
 20
127.0773771453828
 30
0.0
 10
158.4390210687629
 20
126.9233473164821
 30
0.0
 10
158.3021457656945
 20
126.6188371684127
 30
0.0
 10
158.2099673312327
 20
126.4702198614539
 30
0.0
 10
157.9875680767604
 20
126.1904211832813
 30
0.0
 10
157.8549608351682
 20
126.0563844144555
 30
0.0
 10
157.5596776274728
 20
125.8111338639856
 30
0.0
 10
157.3974685296176
 20
125.6996600920419
 30
0.0
 10
157.0453797456039
 20
125.4987999318031
 30
0.0
 10
156.8562025984139
 20
125.4102289319451
 30
0.0
 10
156.2691598113724
 20
125.1873984593873
 30
0.0
 10
155.8394315706719
 20
125.091970445646
 30
0.0
 10
155.1908306702347
 20
125.039065718238
 30
0.0
 10
154.9711242785944
 20
125.0359726755736
 30
0.0
 10
154.5333592697576
 20
125.0598138227864
 30
0.0
 10
154.3185296008932
 20
125.0863735891927
 30
0.0
 10
153.8968164237205
 20
125.1679311218814
 30
0.0
 10
153.6882766270623
 20
125.2235179923683
 30
0.0
 10
153.2876716348351
 20
125.3622253232663
 30
0.0
 10
153.0978396085735
 20
125.4442716921722
 30
0.0
 10
152.7393264525004
 20
125.6332344965328
 30
0.0
 10
152.5689470416301
 20
125.7414914677572
 30
0.0
 10
152.2607204381057
 20
125.9783784670976
 30
0.0
 10
152.1238083722502
 20
126.105732835794
 30
0.0
 10
151.8857155505856
 20
126.37800855708
 30
0.0
 10
151.7836558026087
 20
126.52508316547
 30
0.0
 10
151.6280441766764
 20
126.824375485819
 30
0.0
 10
151.5733094641084
 20
126.9770314184358
 30
0.0
 10
151.5122042720084
 20
127.2881576589703
 30
0.0
 10
151.5068534446829
 20
127.4455528316588
 30
0.0
 10
151.5464397271777
 20
127.7490373531064
 30
0.0
 10
151.5917732175371
 20
127.8989467683897
 30
0.0
 10
151.7292909539319
 20
128.1830088139957
 30
0.0
 10
151.8203099384631
 20
128.3163502590763
 30
0.0
 10
152.0446351917787
 20
128.5673248804816
 30
0.0
 10
152.1777171351426
 20
128.6840668289828
 30
0.0
 10
152.3267343108504
 20
128.7895302368748
 30
0.0
  0
LINE
  5
EB
330
1F
100
AcDbEntity
  8
0
  6
Continuous
 62
     7
370
    25
100
AcDbLine
 10
99.2398701229
 20
85.8023074765
 30
0.0
 11
99.2398701229
 21
87.0670155932
 31
0.0
  0
SPLINE
  5
EC
330
1F
100
AcDbEntity
  8
0
  6
Continuous
 62
     7
370
    25
100
AcDbSpline
210
0.0
220
0.0
230
1.0
 70
     8
 71
     3
 72
    14
 73
    10
 74
     0
 42
0.000000001
 43
0.00000001
 40
0.0
 40
0.0
 40
0.0
 40
0.0
 40
0.25
 40
0.25
 40
0.5
 40
0.5
 40
0.75
 40
0.75
 40
1.0
 40
1.0
 40
1.0
 40
1.0
 10
98.4615832255448
 20
88.19760217462647
 30
0.0
 10
98.51820990074688
 20
88.0899047207896
 30
0.0
 10
98.61273256103658
 20
87.98711513907028
 30
0.0
 10
98.79577753659883
 20
87.78875782685014
 30
0.0
 10
98.88740411355356
 20
87.69269831817189
 30
0.0
 10
99.04625743124674
 20
87.50516927546265
 30
0.0
 10
99.11414803886845
 20
87.41376030267908
 30
0.0
 10
99.21106506457603
 20
87.23538408176894
 30
0.0
 10
99.23987034346109
 20
87.14816217552277
 30
0.0
 10
99.23987034346109
 20
87.06701596698852
 30
0.0
  0
SPLINE
  5
ED
330
1F
100
AcDbEntity
  8
0
  6
Continuous
 62
     7
370
    25
100
AcDbSpline
210
0.0
220
0.0
230
1.0
 70
     8
 71
     3
 72
    14
 73
    10
 74
     0
 42
0.000000001
 43
0.00000001
 40
0.0
 40
0.0
 40
0.0
 40
0.0
 40
0.1249999999999975
 40
0.1249999999999975
 40
0.249999999999995
 40
0.249999999999995
 40
0.4999999999999953
 40
0.4999999999999953
 40
1.0
 40
1.0
 40
1.0
 40
1.0
 10
97.8398703434605
 20
88.64428403690579
 30
0.0
 10
97.88841475211768
 20
88.65003235018608
 30
0.0
 10
97.9413301069026
 20
88.64693146152985
 30
0.0
 10
98.03662545188563
 20
88.62473661736752
 30
0.0
 10
98.07687644917058
 20
88.60750439027166
 30
0.0
 10
98.18114646268356
 20
88.5511764738196
 30
0.0
 10
98.23146843783687
 20
88.50699012787379
 30
0.0
 10
98.35915138536225
 20
88.37598222902317
 30
0.0
 10
98.41523683242453
 20
88.28574770879287
 30
0.0
 10
98.46158322554625
 20
88.197602174627
 30
0.0
  0
SPLINE
  5
EE
330
1F
100
AcDbEntity
  8
0
  6
Continuous
 62
     7
370
    25
100
AcDbSpline
210
0.0
220
0.0
230
1.0
 70
     8
 71
     3
 72
     8
 73
     4
 74
     0
 42
0.000000001
 43
0.00000001
 40
0.0
 40
0.0
 40
0.0
 40
0.0
 40
1.0
 40
1.0
 40
1.0
 40
1.0
 10
95.57134525051428
 20
88.334438750323
 30
0.0
 10
96.30592227699725
 20
88.45306376139195
 30
0.0
 10
97.0693973463929
 20
88.55304963352822
 30
0.0
 10
97.83987034346052
 20
88.64428403690577
 30
0.0
  0
SPLINE
  5
EF
330
1F
100
AcDbEntity
  8
0
  6
Continuous
 62
     7
370
    25
100
AcDbSpline
210
0.0
220
0.0
230
1.0
 70
     8
 71
     3
 72
    14
 73
    10
 74
     0
 42
0.000000001
 43
0.00000001
 40
0.0
 40
0.0
 40
0.0
 40
0.0
 40
0.500000000000001
 40
0.500000000000001
 40
0.7500000000000004
 40
0.7500000000000004
 40
0.8750000000000003
 40
0.8750000000000003
 40
1.0
 40
1.0
 40
1.0
 40
1.0
 10
90.2898703434605
 20
88.16081573279135
 30
0.0
 10
91.18201647401408
 20
88.1600935065907
 30
0.0
 10
92.07199290980769
 20
88.16467971304816
 30
0.0
 10
93.3985880768833
 20
88.19240471743969
 30
0.0
 10
93.83943500538203
 20
88.20501125506385
 30
0.0
 10
94.49587524280444
 20
88.23602740307132
 30
0.0
 10
94.71388889939634
 20
88.24837057569809
 30
0.0
 10
95.14659775307909
 20
88.28139463086137
 30
0.0
 10
95.3618742182439
 20
88.30061179599981
 30
0.0
 10
95.5713452505143
 20
88.334438750323
 30
0.0
  0
SPLINE
  5
F0
330
1F
100
AcDbEntity
  8
0
  6
Continuous
 62
     7
370
    25
100
AcDbSpline
210
0.0
220
0.0
230
1.0
 70
     8
 71
     3
 72
     8
 73
     4
 74
     0
 42
0.000000001
 43
0.00000001
 40
0.0000005163856998
 40
0.0000005163856998
 40
0.0000005163856998
 40
0.0000005163856998
 40
0.000026289209185
 40
0.000026289209185
 40
0.000026289209185
 40
0.000026289209185
 10
90.2798254130529
 20
88.17079960588812
 30
0.0
 10
90.28315315126073
 20
88.167465359019
 30
0.0
 10
90.28650160423634
 20
88.1641374017437
 30
0.0
 10
90.28987034346049
 20
88.16081573279133
 30
0.0
  0
SPLINE
  5
F1
330
1F
100
AcDbEntity
  8
0
  6
Continuous
 62
     7
370
    25
100
AcDbSpline
210
0.0
220
0.0
230
1.0
 70
     8
 71
     3
 72
     8
 73
     4
 74
     0
 42
0.000000001
 43
0.00000001
 40
0.0000005099763573
 40
0.0000005099763573
 40
0.0000005099763573
 40
0.0000005099763573
 40
0.0000262827998699
 40
0.0000262827998699
 40
0.0000262827998699
 40
0.0000262827998699
 10
90.28987034346049
 20
129.9006912635815
 30
0.0
 10
90.28650160423275
 20
129.8973695946256
 30
0.0
 10
90.2831531512536
 20
129.8940416373468
 30
0.0
 10
90.27982541304227
 20
129.8907073904741
 30
0.0
  0
SPLINE
  5
F2
330
1F
100
AcDbEntity
  8
0
  6
Continuous
 62
     7
370
    25
100
AcDbSpline
210
0.0
220
0.0
230
1.0
 70
     8
 71
     3
 72
    10
 73
     6
 74
     0
 42
0.000000001
 43
0.00000001
 40
0.0
 40
0.0
 40
0.0
 40
0.0
 40
0.5
 40
0.5
 40
1.0
 40
1.0
 40
1.0
 40
1.0
 10
93.83987034346052
 20
129.8538408900142
 30
0.0
 10
93.25228479636992
 20
129.8749064102506
 30
0.0
 10
92.66153840290954
 20
129.8856648961228
 30
0.0
 10
91.47751923761068
 20
129.8990296766584
 30
0.0
 10
90.88410524940521
 20
129.9011723193231
 30
0.0
 10
90.28987034346052
 20
129.9006912635815
 30
0.0
  0
SPLINE
  5
F3
330
1F
100
AcDbEntity
  8
0
  6
Continuous
 62
     7
370
    25
100
AcDbSpline
210
0.0
220
0.0
230
1.0
 70
     8
 71
     3
 72
    18
 73
    14
 74
     0
 42
0.000000001
 43
0.00000001
 40
0.0
 40
0.0
 40
0.0
 40
0.0
 40
0.2500000000000009
 40
0.2500000000000009
 40
0.500000000000001
 40
0.500000000000001
 40
0.7500000000000011
 40
0.7500000000000011
 40
0.875000000000001
 40
0.875000000000001
 40
0.9375000000000006
 40
0.9375000000000006
 40
1.0
 40
1.0
 40
1.0
 40
1.0
 10
95.23987034346052
 20
130.8748611705494
 30
0.0
 10
95.23987034346052
 20
130.7916542616922
 30
0.0
 10
95.20402124352226
 20
130.7029176063786
 30
0.0
 10
95.07914950748832
 20
130.5207924158184
 30
0.0
 10
94.98874908984047
 20
130.4256623671918
 30
0.0
 10
94.7665064350983
 20
130.2364808580675
 30
0.0
 10
94.63674164865252
 20
130.1415356899728
 30
0.0
 10
94.396104191341
 20
130.0032569823928
 30
0.0
 10
94.30833689320356
 20
129.9575465490904
 30
0.0
 10
94.15381280599675
 20
129.8997232438689
 30
0.0
 10
94.09720191994201
 20
129.8820084798311
 30
0.0
 10
93.9731578890354
 20
129.8574691765982
 30
0.0
 10
93.9054432140171
 20
129.8514900380599
 30
0.0
 10
93.83987034346052
 20
129.8538408900142
 30
0.0
  0
LINE
  5
F4
330
1F
100
AcDbEntity
  8
0
  6
Continuous
 62
     7
370
    25
100
AcDbLine
 10
95.2398694673
 20
130.8748611559
 30
0.0
 11
95.2398694673
 21
132.0587993909
 31
0.0
  0
LINE
  5
F5
330
1F
100
AcDbEntity
  8
0
  6
Continuous
 62
     7
370
    25
100
AcDbLine
 10
119.0398702485
 20
84.8103222747
 30
0.0
 11
119.0398702485
 21
133.2511847217
 31
0.0
  0
SPLINE
  5
F6
330
1F
100
AcDbEntity
  8
0
  6
Continuous
 62
     7
370
    25
100
AcDbSpline
210
0.0
220
0.0
230
1.0
 70
     8
 71
     3
 72
    24
 73
    20
 74
     0
 42
0.000000001
 43
0.00000001
 40
0.0
 40
0.0
 40
0.0
 40
0.0
 40
0.0010489815523775
 40
0.0637843212772741
 40
0.1272220630088516
 40
0.1903789073370505
 40
0.2526748662763491
 40
0.3146354150030102
 40
0.3770891884518245
 40
0.4393540587943444
 40
0.5008133488401828
 40
0.5621845177353679
 40
0.6248438462901906
 40
0.6874304788646655
 40
0.7496743245911356
 40
0.811984857412469
 40
0.8750960476811308
 40
0.9384412548145236
 40
1.0
 40
1.0
 40
1.0
 40
1.0
 10
107.8087763481874
 20
85.37324530373985
 30
0.0
 10
107.8083296824367
 20
85.37318665877338
 30
0.0
 10
107.7811697465131
 20
85.36962069579268
 30
0.0
 10
107.8767996696449
 20
85.38248530526789
 30
0.0
 10
108.1103528456654
 20
85.41171978760795
 30
0.0
 10
108.5059087978998
 20
85.45833899834938
 30
0.0
 10
109.0329487982698
 20
85.50851979777453
 30
0.0
 10
109.6764792401061
 20
85.55289847121757
 30
0.0
 10
110.4151530743758
 20
85.57984166772837
 30
0.0
 10
111.2126677444947
 20
85.5833134160305
 30
0.0
 10
112.0392467942593
 20
85.5556879697371
 30
0.0
 10
112.8647696156779
 20
85.49720682675844
 30
0.0
 10
113.6568960865935
 20
85.41176376335986
 30
0.0
 10
114.3894684654309
 20
85.31002859486735
 30
0.0
 10
115.0251086472516
 20
85.20218494381943
 30
0.0
 10
115.5470195777979
 20
85.1005535485446
 30
0.0
 10
115.9286484154368
 20
85.0180715842521
 30
0.0
 10
116.1794630913701
 20
84.96191947674518
 30
0.0
 10
116.2085844070774
 20
84.9550706258323
 30
0.0
 10
116.2229368084211
 20
84.9516951788562
 30
0.0
  0
SPLINE
  5
F7
330
1F
100
AcDbEntity
  8
0
  6
Continuous
 62
     7
370
    25
100
AcDbSpline
210
0.0
220
0.0
230
1.0
 70
     8
 71
     3
 72
    24
 73
    20
 74
     0
 42
0.000000001
 43
0.00000001
 40
0.0
 40
0.0
 40
0.0
 40
0.0
 40
0.061438429114026
 40
0.1250736777967296
 40
0.1884253375120635
 40
0.2508623992448768
 40
0.3129665476325514
 40
0.3753451442328022
 40
0.4377328732174486
 40
0.499092717251918
 40
0.560580729454827
 40
0.622946985474185
 40
0.6854686070210457
 40
0.7475477863222202
 40
0.8098225081553685
 40
0.873068419947611
 40
0.936404185690527
 40
0.9991757203144552
 40
1.0
 40
1.0
 40
1.0
 40
1.0
 10
116.2228823260505
 20
133.1097820151942
 30
0.0
 10
116.2082815175983
 20
133.1064138573213
 30
0.0
 10
116.1785578277473
 20
133.0995571082369
 30
0.0
 10
115.9258198277613
 20
133.0432192883408
 30
0.0
 10
115.5428245287402
 20
132.9603614754555
 30
0.0
 10
115.0204685718572
 20
132.8584547272345
 30
0.0
 10
114.3856842271556
 20
132.7506161573455
 30
0.0
 10
113.6554604905414
 20
132.6491499041165
 30
0.0
 10
112.8649923956303
 20
132.5640878255493
 30
0.0
 10
112.0405086681726
 20
132.5058864685926
 30
0.0
 10
111.2134722876925
 20
132.4783020209081
 30
0.0
 10
110.4151478287021
 20
132.4817959494423
 30
0.0
 10
109.6753240777025
 20
132.5087496081159
 30
0.0
 10
109.0310692062429
 20
132.5531051087293
 30
0.0
 10
108.5036623491453
 20
132.6033102924521
 30
0.0
 10
108.1089971088322
 20
132.6499177524973
 30
0.0
 10
107.876468423244
 20
132.6791209293356
 30
0.0
 10
107.7810891945778
 20
132.6918790680528
 30
0.0
 10
107.8080221389046
 20
132.6883392381341
 30
0.0
 10
107.8083712228674
 20
132.6882933576005
 30
0.0
  0
SPLINE
  5
F8
330
1F
100
AcDbEntity
  8
0
  6
Continuous
 62
     7
370
    25
100
AcDbSpline
210
0.0
220
0.0
230
1.0
 70
     8
 71
     3
 72
     9
 73
     5
 74
     0
 42
0.000000001
 43
0.00000001
 40
0.0
 40
0.0
 40
0.0
 40
0.0
 40
0.7009339503679092
 40
0.9999999999999999
 40
0.9999999999999999
 40
0.9999999999999999
 40
0.9999999999999999
 10
89.1606539108891
 20
89.32947379838402
 30
0.0
 10
89.16979458183893
 20
89.31164451462311
 30
0.0
 10
89.18283528409773
 20
89.28620804696233
 30
0.0
 10
89.19799874736601
 20
89.34008740643587
 30
0.0
 10
89.2025336244244
 20
89.35620089363033
 30
0.0
  0
LINE
  5
F9
330
1F
100
AcDbEntity
  8
0
  6
Continuous
 62
     7
370
    25
100
AcDbLine
 10
89.1398705163
 20
89.3400759746
 30
0.0
 11
89.1398705163
 21
128.7214310218
 31
0.0
  0
SPLINE
  5
FA
330
1F
100
AcDbEntity
  8
0
  6
Continuous
 62
     7
370
    25
100
AcDbSpline
210
0.0
220
0.0
230
1.0
 70
     8
 71
     3
 72
    10
 73
     6
 74
     0
 42
0.000000001
 43
0.00000001
 40
0.0
 40
0.0
 40
0.0
 40
0.0
 40
0.5
 40
0.5
 40
1.0
 40
1.0
 40
1.0
 40
1.0
 10
89.20253371818391
 20
128.7053060429672
 30
0.0
 10
89.19362942907516
 20
128.7510475621803
 30
0.0
 10
89.17711404888217
 20
128.7682384016493
 30
0.0
 10
89.15000610282057
 20
128.7679151247136
 30
0.0
 10
89.13987034346052
 20
128.7500375824171
 30
0.0
 10
89.13987034346052
 20
128.7214312446646
 30
0.0
  0
SPLINE
  5
FB
330
1F
100
AcDbEntity
  8
0
  6
Continuous
 62
     7
370
    25
100
AcDbSpline
210
0.0
220
0.0
230
1.0
 70
     8
 71
     3
 72
    26
 73
    22
 74
     0
 42
0.000000001
 43
0.00000001
 40
0.0
 40
0.0
 40
0.0
 40
0.0
 40
0.2500000000000165
 40
0.2500000000000165
 40
0.3750000000000256
 40
0.3750000000000256
 40
0.4375000000000291
 40
0.4375000000000291
 40
0.4687500000000291
 40
0.4687500000000291
 40
0.5000000000000292
 40
0.5000000000000292
 40
0.5312500000000293
 40
0.5312500000000293
 40
0.5625000000000293
 40
0.5625000000000293
 40
0.625000000000026
 40
0.625000000000026
 40
0.7500000000000173
 40
0.7500000000000173
 40
1.0
 40
1.0
 40
1.0
 40
1.0
 10
89.96402398956502
 20
129.4208728317842
 30
0.0
 10
89.92542346669654
 20
129.3030981354288
 30
0.0
 10
89.87912646414229
 20
129.1787084492669
 30
0.0
 10
89.78518711570837
 20
128.9734891169134
 30
0.0
 10
89.74987564879491
 20
128.901916250467
 30
0.0
 10
89.68369567304923
 20
128.7859630178665
 30
0.0
 10
89.659157306381
 20
128.7453784830562
 30
0.0
 10
89.61578456082722
 20
128.6812368011846
 30
0.0
 10
89.60027615940201
 20
128.6593703758995
 30
0.0
 10
89.56523351481499
 20
128.6137761075563
 30
0.0
 10
89.54568322409523
 20
128.5901058165889
 30
0.0
 10
89.50375594372461
 20
128.5454892572489
 30
0.0
 10
89.48110383349298
 20
128.524609244731
 30
0.0
 10
89.44013011940633
 20
128.4937358309802
 30
0.0
 10
89.42253081951091
 20
128.4838969611478
 30
0.0
 10
89.37790383365477
 20
128.4649073454516
 30
0.0
 10
89.35734461100144
 20
128.4645830207982
 30
0.0
 10
89.30621917150478
 20
128.4738064616744
 30
0.0
 10
89.28530775851623
 20
128.4950533578914
 30
0.0
 10
89.2338578509553
 20
128.5690222367221
 30
0.0
 10
89.21619255165075
 20
128.6351403300369
 30
0.0
 10
89.20253371818391
 20
128.7053060429672
 30
0.0
  0
SPLINE
  5
FC
330
1F
100
AcDbEntity
  8
0
  6
Continuous
 62
     7
370
    25
100
AcDbSpline
210
0.0
220
0.0
230
1.0
 70
     8
 71
     3
 72
    10
 73
     6
 74
     0
 42
0.000000001
 43
0.00000001
 40
0.0
 40
0.0
 40
0.0
 40
0.0
 40
0.5
 40
0.5
 40
1.0
 40
1.0
 40
1.0
 40
1.0
 10
90.2798254130423
 20
129.8907073904741
 30
0.0
 10
90.21226615812405
 20
129.8230159976643
 30
0.0
 10
90.14862950278757
 20
129.7483088329107
 30
0.0
 10
90.03840874821572
 20
129.589342700484
 30
0.0
 10
89.99159245499308
 20
129.504987434476
 30
0.0
 10
89.96402398956502
 20
129.4208728317842
 30
0.0
  0
SPLINE
  5
FD
330
1F
100
AcDbEntity
  8
0
  6
Continuous
 62
     7
370
    25
100
AcDbSpline
210
0.0
220
0.0
230
1.0
 70
     8
 71
     3
 72
    10
 73
     6
 74
     0
 42
0.000000001
 43
0.00000001
 40
0.0
 40
0.0
 40
0.0
 40
0.0
 40
0.5
 40
0.5
 40
1.0
 40
1.0
 40
1.0
 40
1.0
 10
89.96402398956506
 20
88.64063416458845
 30
0.0
 10
89.99150140431902
 20
88.55679736812056
 30
0.0
 10
90.03821003460845
 20
88.47248688053142
 30
0.0
 10
90.1484884973544
 20
88.31336565004472
 30
0.0
 10
90.2123760359683
 20
88.23838090595507
 30
0.0
 10
90.27982541305292
 20
88.17079960588812
 30
0.0
  0
SPLINE
  5
FE
330
1F
100
AcDbEntity
  8
0
  6
Continuous
 62
     7
370
    25
100
AcDbSpline
210
0.0
220
0.0
230
1.0
 70
     8
 71
     3
 72
    24
 73
    20
 74
     0
 42
0.000000001
 43
0.00000001
 40
0.0
 40
0.0
 40
0.0
 40
0.0
 40
0.25
 40
0.25
 40
0.374999999999999
 40
0.374999999999999
 40
0.4374999999999993
 40
0.4374999999999993
 40
0.4687499999999994
 40
0.4687499999999994
 40
0.4999999999999995
 40
0.4999999999999995
 40
0.5624999999999971
 40
0.5624999999999971
 40
0.6249999999999947
 40
0.6249999999999947
 40
0.7499999999999947
 40
0.7499999999999947
 40
1.0
 40
1.0
 40
1.0
 40
1.0
 10
89.20253371818391
 20
89.35620095340569
 30
0.0
 10
89.21628683685415
 20
89.42685101139597
 30
0.0
 10
89.23405940426002
 20
89.49344912416088
 30
0.0
 10
89.28631049581537
 20
89.5675471443941
 30
0.0
 10
89.30734557139692
 20
89.58880495155564
 30
0.0
 10
89.36024597902536
 20
89.59695087770189
 30
0.0
 10
89.38135165190327
 20
89.59601107430612
 30
0.0
 10
89.42740382058125
 20
89.57499508272878
 30
0.0
 10
89.44577429256465
 20
89.56408627662115
 30
0.0
 10
89.48732592763034
 20
89.53145136567377
 30
0.0
 10
89.50989260038725
 20
89.50995938530242
 30
0.0
 10
89.57267361684725
 20
89.4414934417161
 30
0.0
 10
89.60580337781516
 20
89.39541898351101
 30
0.0
 10
89.66272106430017
 20
89.31041109517635
 30
0.0
 10
89.68690708980395
 20
89.27013079399495
 30
0.0
 10
89.75211504018371
 20
89.15519456752902
 30
0.0
 10
89.78683110037494
 20
89.08461158238201
 30
0.0
 10
89.88004637070583
 20
88.8804058233034
 30
0.0
 10
89.92571890606652
 20
88.75750744097604
 30
0.0
 10
89.96402398956505
 20
88.64063416458848
 30
0.0
  0
LWPOLYLINE
  5
FF
330
1F
100
AcDbEntity
  8
0
  6
Continuous
 62
     7
370
    25
100
AcDbPolyline
 90
       25
 70
   128
 43
0.0
 10
155.014871768
 20
125.2395139385
 10
155.66191744
 20
125.29975002
 10
156.2648705759
 20
125.4763511319
 10
156.7826374986
 20
125.7572808612
 10
157.1799322584
 20
126.1233986665
 10
157.4296831706
 20
126.5497506906
 10
157.5148693838
 20
127.0072815318
 10
157.4296831706
 20
127.464812373
 10
157.1799322584
 20
127.8911643971
 10
156.7826374986
 20
128.2572822024
 10
156.2648705759
 20
128.5382119317
 10
155.66191744
 20
128.7148130436
 10
155.014871768
 20
128.7750491251
 10
154.3678223708
 20
128.7148130436
 10
153.7648692348
 20
128.5382119317
 10
153.2471023121
 20
128.2572822024
 10
152.8498075524
 20
127.8911643971
 10
152.6000566402
 20
127.464812373
 10
152.5148704269
 20
127.0072815318
 10
152.6000566402
 20
126.5497506906
 10
152.8498075524
 20
126.1233986665
 10
153.2471023121
 20
125.7572808612
 10
153.7648692348
 20
125.4763511319
 10
154.3678223708
 20
125.29975002
 10
155.014871768
 20
125.2395139385
  0
LWPOLYLINE
  5
100
330
1F
100
AcDbEntity
  8
0
  6
Continuous
 62
     7
370
    25
100
AcDbPolyline
 90
       25
 70
   128
 43
0.0
 10
155.014871768
 20
89.2864578713
 10
155.66191744
 20
89.3466939528
 10
156.2648705759
 20
89.5232950647
 10
156.7826374986
 20
89.804224794
 10
157.1799322584
 20
90.1703425993
 10
157.4296831706
 20
90.5966946233
 10
157.5148693838
 20
91.0542254646
 10
157.4296831706
 20
91.5117563058
 10
157.1799322584
 20
91.9381083299
 10
156.7826374986
 20
92.3042261351
 10
156.2648705759
 20
92.5851558645
 10
155.66191744
 20
92.7617569764
 10
155.014871768
 20
92.8219930578
 10
154.3678223708
 20
92.7617569764
 10
153.7648692348
 20
92.5851558645
 10
153.2471023121
 20
92.3042261351
 10
152.8498075524
 20
91.9381083299
 10
152.6000566402
 20
91.5117563058
 10
152.5148704269
 20
91.0542254646
 10
152.6000566402
 20
90.5966946233
 10
152.8498075524
 20
90.1703425993
 10
153.2471023121
 20
89.804224794
 10
153.7648692348
 20
89.5232950647
 10
154.3678223708
 20
89.3466939528
 10
155.014871768
 20
89.2864578713
  0
SPLINE
  5
101
330
1F
100
AcDbEntity
  8
0
  6
Continuous
 62
     7
370
    25
100
AcDbSpline
210
0.0
220
0.0
230
1.0
 70
     8
 71
     3
 72
     8
 73
     4
 74
     0
 42
0.000000001
 43
0.00000001
 40
0.0
 40
0.0
 40
0.0
 40
0.0
 40
1.0
 40
1.0
 40
1.0
 40
1.0
 10
142.4318031749496
 20
139.4979489713507
 30
0.0
 10
141.9366631455852
 20
138.6112693231704
 30
0.0
 10
141.4425804403063
 20
137.7240066874844
 30
0.0
 10
140.9498703434605
 20
136.835987689358
 30
0.0
  0
LINE
  5
102
330
1F
100
AcDbEntity
  8
0
  6
Continuous
 62
     7
370
    25
100
AcDbLine
 10
142.4318022647
 20
133.4894431133
 30
0.0
 11
142.4318022647
 21
139.4979489345
 31
0.0
  0
SPLINE
  5
103
330
1F
100
AcDbEntity
  8
0
  6
Continuous
 62
     7
370
    25
100
AcDbSpline
210
0.0
220
0.0
230
1.0
 70
     8
 71
     3
 72
     8
 73
     4
 74
     0
 42
0.000000001
 43
0.00000001
 40
0.0
 40
0.0
 40
0.0
 40
0.0
 40
1.0
 40
1.0
 40
1.0
 40
1.0
 10
140.9498703434605
 20
130.0808971657697
 30
0.0
 10
141.4291484940504
 20
131.2219083956223
 30
0.0
 10
141.9247163331903
 20
132.3582928063902
 30
0.0
 10
142.4318031749496
 20
133.4894431605539
 30
0.0
  0
LINE
  5
104
330
1F
100
AcDbEntity
  8
0
  6
Continuous
 62
     7
370
    25
100
AcDbLine
 10
140.9498706081
 20
130.0808974851
 30
0.0
 11
140.9498706081
 21
136.8359868724
 31
0.0
  0
LINE
  5
105
330
1F
100
AcDbEntity
  8
0
  6
Continuous
 62
     7
370
    25
100
AcDbLine
 10
142.4318022647
 20
133.4894431133
 30
0.0
 11
146.3898710528
 21
133.4894431133
 31
0.0
  0
SPLINE
  5
106
330
1F
100
AcDbEntity
  8
0
  6
Continuous
 62
     7
370
    25
100
AcDbSpline
210
0.0
220
0.0
230
1.0
 70
     8
 71
     3
 72
    12
 73
     8
 74
     0
 42
0.000000001
 43
0.00000001
 40
0.0
 40
0.0
 40
0.0
 40
0.0
 40
0.250000000000002
 40
0.250000000000002
 40
0.500000000000004
 40
0.500000000000004
 40
1.0
 40
1.0
 40
1.0
 40
1.0
 10
146.3898703434605
 20
133.4894431605539
 30
0.0
 10
146.4810700652862
 20
133.4894431605539
 30
0.0
 10
146.5716650744222
 20
133.461223461966
 30
0.0
 10
146.7250778008689
 20
133.3667804547179
 30
0.0
 10
146.7902866681925
 20
133.3004934780125
 30
0.0
 10
146.9430711975324
 20
133.0748686547242
 30
0.0
 10
146.9898703434605
 20
132.8924423916917
 30
0.0
 10
146.9898703434605
 20
132.7117057594448
 30
0.0
  0
LINE
  5
107
330
1F
100
AcDbEntity
  8
0
  6
Continuous
 62
     7
370
    25
100
AcDbLine
 10
140.9498706081
 20
129.1666199763
 30
0.0
 11
140.9498706081
 21
130.0808974851
 31
0.0
  0
LINE
  5
108
330
1F
100
AcDbEntity
  8
0
  6
Continuous
 62
     7
370
    25
100
AcDbLine
 10
146.9898700335
 20
132.7117049445
 30
0.0
 11
146.9898700335
 21
128.8807542373
 31
0.0
  0
SPLINE
  5
109
330
1F
100
AcDbEntity
  8
0
  6
Continuous
 62
     7
370
    25
100
AcDbSpline
210
0.0
220
0.0
230
1.0
 70
     8
 71
     3
 72
     8
 73
     4
 74
     0
 42
0.000000001
 43
0.00000001
 40
0.0
 40
0.0
 40
0.0
 40
0.0
 40
1.0
 40
1.0
 40
1.0
 40
1.0
 10
135.6479375119715
 20
133.4894431605539
 30
0.0
 10
136.1550243537307
 20
132.3582928063902
 30
0.0
 10
136.6505921928706
 20
131.2219083956224
 30
0.0
 10
137.1298703434605
 20
130.0808971657698
 30
0.0
  0
LINE
  5
10A
330
1F
100
AcDbEntity
  8
0
  6
Continuous
 62
     7
370
    25
100
AcDbLine
 10
137.1298703917
 20
130.0808974851
 30
0.0
 11
137.1298703917
 21
129.1666199763
 31
0.0
  0
SPLINE
  5
10B
330
1F
100
AcDbEntity
  8
0
  6
Continuous
 62
     7
370
    25
100
AcDbSpline
210
0.0
220
0.0
230
1.0
 70
     8
 71
     3
 72
     8
 73
     4
 74
     0
 42
0.000000001
 43
0.00000001
 40
0.0
 40
0.0
 40
0.0
 40
0.0
 40
1.0
 40
1.0
 40
1.0
 40
1.0
 10
137.1298703434605
 20
136.835987689358
 30
0.0
 10
136.6371602466148
 20
137.7240066874844
 30
0.0
 10
136.1430775413358
 20
138.6112693231704
 30
0.0
 10
135.6479375119715
 20
139.4979489713507
 30
0.0
  0
LINE
  5
10C
330
1F
100
AcDbEntity
  8
0
  6
Continuous
 62
     7
370
    25
100
AcDbLine
 10
137.1298703917
 20
130.0808974851
 30
0.0
 11
137.1298703917
 21
136.8359868724
 31
0.0
  0
SPLINE
  5
10D
330
1F
100
AcDbEntity
  8
0
  6
Continuous
 62
     7
370
    25
100
AcDbSpline
210
0.0
220
0.0
230
1.0
 70
     8
 71
     3
 72
    10
 73
     6
 74
     0
 42
0.000000001
 43
0.00000001
 40
0.0
 40
0.0
 40
0.0
 40
0.0
 40
0.5
 40
0.5
 40
1.0
 40
1.0
 40
1.0
 40
1.0
 10
146.9898703434605
 20
138.8771938219503
 30
0.0
 10
146.9898703434605
 20
139.0375990883011
 30
0.0
 10
146.9276325123536
 20
139.1966609012897
 30
0.0
 10
146.7084975886111
 20
139.4275733669201
 30
0.0
 10
146.5509088936192
 20
139.4979489713507
 30
0.0
 10
146.3898703434605
 20
139.4979489713506
 30
0.0
  0
LINE
  5
10E
330
1F
100
AcDbEntity
  8
0
  6
Continuous
 62
     7
370
    25
100
AcDbLine
 10
146.9898700335
 20
132.7117049445
 30
0.0
 11
146.9898700335
 21
138.8771944989
 31
0.0
  0
LINE
  5
10F
330
1F
100
AcDbEntity
  8
0
  6
Continuous
 62
     7
370
    25
100
AcDbLine
 10
146.3898710528
 20
139.4979489345
 30
0.0
 11
142.4318022647
 21
139.4979489345
 31
0.0
  0
ARC
  5
110
330
1F
100
AcDbEntity
  8
0
  6
Continuous
 62
     7
370
    25
100
AcDbCircle
 10
129.0400763131
 20
127.7356567952
 30
0.0
 40
7.250180193680634
100
AcDbArc
 50
70.9631291292
 51
109.0950912202
  0
LINE
  5
111
330
1F
100
AcDbEntity
  8
0
  6
Continuous
 62
     7
370
    25
100
AcDbLine
 10
202.0398705819
 20
96.3307536517
 30
0.0
 11
202.0398705819
 21
121.7307533447
 31
0.0
  0
LINE
  5
112
330
1F
100
AcDbEntity
  8
0
  6
Continuous
 62
     7
370
    25
100
AcDbLine
 10
183.5398703435
 20
95.530753148
 30
0.0
 11
183.5398703435
 21
122.5307538484
 31
0.0
  0
LINE
  5
113
330
1F
100
AcDbEntity
  8
0
  6
HIDDEN
 62
     7
370
    18
100
AcDbLine
 10
179.6997330704
 20
115.0307535503
 30
0.0
 11
179.6997330704
 21
103.030753446
 31
0.0
  0
LINE
  5
114
330
1F
100
AcDbEntity
  8
0
  6
HIDDEN
 62
     7
370
    18
100
AcDbLine
 10
178.7357322493
 20
114.0667536605
 30
0.0
 11
178.7357322493
 21
103.9947533358
 31
0.0
  0
LINE
  5
115
330
1F
100
AcDbEntity
  8
0
  6
HIDDEN
 62
     7
370
    18
100
AcDbLine
 10
214.7357344248
 20
109.8578886089
 30
0.0
 11
214.7357344248
 21
106.977254742
 31
0.0
  0
LINE
  5
116
330
1F
100
AcDbEntity
  8
0
  6
HIDDEN
 62
     7
370
    18
100
AcDbLine
 10
214.7357344248
 20
112.7385223594
 30
0.0
 11
214.7357344248
 21
109.8578886089
 31
0.0
  0
LINE
  5
117
330
1F
100
AcDbEntity
  8
0
  6
HIDDEN
 62
     7
370
    18
100
AcDbLine
 10
214.7357344248
 20
106.977254742
 30
0.0
 11
214.7357344248
 21
105.1233705443
 31
0.0
  0
LINE
  5
118
330
1F
100
AcDbEntity
  8
0
  6
HIDDEN
 62
     7
370
    18
100
AcDbLine
 10
214.7357344248
 20
106.977254742
 30
0.0
 11
220.735731683
 21
106.977254742
 31
0.0
  0
LINE
  5
119
330
1F
100
AcDbEntity
  8
0
  6
HIDDEN
 62
     7
370
    18
100
AcDbLine
 10
214.7357344248
 20
112.7385223594
 30
0.0
 11
214.7357344248
 21
113.7652719703
 31
0.0
  0
LINE
  5
11A
330
1F
100
AcDbEntity
  8
0
  6
HIDDEN
 62
     7
370
    18
100
AcDbLine
 10
214.7357344248
 20
112.7385223594
 30
0.0
 11
220.735731683
 21
112.7385223594
 31
0.0
  0
LINE
  5
11B
330
1F
100
AcDbEntity
  8
0
  6
HIDDEN
 62
     7
370
    18
100
AcDbLine
 10
214.7357344248
 20
105.1233705443
 30
0.0
 11
214.7357344248
 21
103.2694858808
 31
0.0
  0
LINE
  5
11C
330
1F
100
AcDbEntity
  8
0
  6
HIDDEN
 62
     7
370
    18
100
AcDbLine
 10
214.7357344248
 20
113.7652719703
 30
0.0
 11
214.7357344248
 21
114.7920211155
 31
0.0
  0
LINE
  5
11D
330
1F
100
AcDbEntity
  8
0
  6
HIDDEN
 62
     7
370
    18
100
AcDbLine
 10
214.7357344248
 20
105.322984637
 30
0.0
 11
220.735731683
 21
105.322984637
 31
0.0
  0
LINE
  5
11E
330
1F
100
AcDbEntity
  8
0
  6
HIDDEN
 62
     7
370
    18
100
AcDbLine
 10
214.7357344248
 20
103.2694858808
 30
0.0
 11
220.735731683
 21
103.2694858808
 31
0.0
  0
LINE
  5
11F
330
1F
100
AcDbEntity
  8
0
  6
HIDDEN
 62
     7
370
    18
100
AcDbLine
 10
214.7357344248
 20
111.0842522543
 30
0.0
 11
220.735731683
 21
111.0842522543
 31
0.0
  0
LINE
  5
120
330
1F
100
AcDbEntity
  8
0
  6
HIDDEN
 62
     7
370
    18
100
AcDbLine
 10
214.7357344248
 20
114.7920211155
 30
0.0
 11
220.735731683
 21
114.7920211155
 31
0.0
  0
LINE
  5
121
330
1F
100
AcDbEntity
  8
0
  6
HIDDEN
 62
     7
370
    18
100
AcDbLine
 10
179.7398693481
 20
81.0307526339
 30
0.0
 11
179.7398693481
 21
93.0307527382
 31
0.0
  0
LINE
  5
122
330
1F
100
AcDbEntity
  8
0
  6
HIDDEN
 62
     7
370
    18
100
AcDbLine
 10
178.8367546716
 20
82.0307527978
 30
0.0
 11
178.8367546716
 21
92.0307525743
 31
0.0
  0
SPLINE
  5
123
330
1F
100
AcDbEntity
  8
0
  6
HIDDEN
 62
     7
370
    18
100
AcDbSpline
210
0.0
220
0.0
230
1.0
 70
     8
 71
     3
 72
    11
 73
     7
 74
     0
 42
0.000000001
 43
0.00000001
 40
0.0
 40
0.0
 40
0.0
 40
0.0
 40
0.2164542045871073
 40
0.4403089777933003
 40
0.7518992032506423
 40
0.9999999999999999
 40
0.9999999999999999
 40
0.9999999999999999
 40
0.9999999999999999
 10
186.0266208269734
 20
87.0307536173957
 30
0.0
 10
185.9360735612613
 20
87.20200516684142
 30
0.0
 10
185.7518832190884
 20
87.5503633557054
 30
0.0
 10
185.5983509931831
 20
88.19682368403768
 30
0.0
 10
185.6909222830495
 20
88.89027169346555
 30
0.0
 10
185.9235161974628
 20
89.3340391127383
 30
0.0
 10
186.0266208269734
 20
89.53075309585506
 30
0.0
  0
SPLINE
  5
124
330
1F
100
AcDbEntity
  8
0
  6
HIDDEN
 62
     7
370
    18
100
AcDbSpline
210
0.0
220
0.0
230
1.0
 70
     8
 71
     3
 72
    11
 73
     7
 74
     0
 42
0.000000001
 43
0.00000001
 40
0.0
 40
0.0
 40
0.0
 40
0.0
 40
0.2164541869583996
 40
0.4403089604261982
 40
0.7518991670153502
 40
1.0
 40
1.0
 40
1.0
 40
1.0
 10
186.0266208269734
 20
84.53075413893635
 30
0.0
 10
185.9360735608561
 20
84.70200569370144
 30
0.0
 10
185.7518832101229
 20
85.05036390801718
 30
0.0
 10
185.5983509930568
 20
85.69682416572628
 30
0.0
 10
185.690922312308
 20
86.39027230628628
 30
0.0
 10
185.9235161982323
 20
86.8340396466373
 30
0.0
 10
186.0266208269734
 20
87.0307536173957
 30
0.0
  0
LINE
  5
125
330
1F
100
AcDbEntity
  8
0
  6
HIDDEN
 62
     7
370
    18
100
AcDbLine
 10
182.772255651
 20
87.0307536174
 30
0.0
 11
186.026620827
 21
87.0307536174
 31
0.0
  0
LINE
  5
126
330
1F
100
AcDbEntity
  8
0
  6
HIDDEN
 62
     7
370
    18
100
AcDbLine
 10
165.7398707786
 20
84.0307531257
 30
0.0
 11
165.7398707786
 21
90.0307541091
 31
0.0
  0
LINE
  5
127
330
1F
100
AcDbEntity
  8
0
  6
HIDDEN
 62
     7
370
    18
100
AcDbLine
 10
165.039870105
 20
84.7307537992
 30
0.0
 11
165.039870105
 21
89.3307534356
 31
0.0
  0
LINE
  5
128
330
1F
100
AcDbEntity
  8
0
  6
HIDDEN
 62
     7
370
    18
100
AcDbLine
 10
172.1056431153
 20
84.0307531257
 30
0.0
 11
172.1056431153
 21
90.0307541091
 31
0.0
  0
SPLINE
  5
129
330
1F
100
AcDbEntity
  8
0
  6
HIDDEN
 62
     7
370
    18
100
AcDbSpline
210
0.0
220
0.0
230
1.0
 70
    24
 71
     3
 72
     9
 73
     5
 74
     0
 42
0.000000001
 43
0.00000001
 40
0.0
 40
0.0
 40
0.0
 40
0.0
 40
0.7601300680579879
 40
0.9999999999999999
 40
0.9999999999999999
 40
0.9999999999999999
 40
0.9999999999999999
 10
182.7722556510109
 20
84.53075413893635
 30
0.0
 10
182.6597582363551
 20
84.53075413893635
 30
0.0
 10
182.5117606509638
 20
84.53075413893635
 30
0.0
 10
182.5716392390982
 20
84.53075413893635
 30
0.0
 10
182.5860023119587
 20
84.53075413893635
 30
0.0
  0
SPLINE
  5
12A
330
1F
100
AcDbEntity
  8
0
  6
HIDDEN
 62
     7
370
    18
100
AcDbSpline
210
0.0
220
0.0
230
1.0
 70
    24
 71
     3
 72
     9
 73
     5
 74
     0
 42
0.000000001
 43
0.00000001
 40
0.0
 40
0.0
 40
0.0
 40
0.0
 40
0.239869931942012
 40
0.9999999999999999
 40
0.9999999999999999
 40
0.9999999999999999
 40
0.9999999999999999
 10
182.5860023119587
 20
89.53075309585506
 30
0.0
 10
182.5716392390982
 20
89.53075309585506
 30
0.0
 10
182.5117606509638
 20
89.53075309585506
 30
0.0
 10
182.6597582363551
 20
89.53075309585506
 30
0.0
 10
182.7722556510109
 20
89.53075309585506
 30
0.0
  0
SPLINE
  5
12B
330
1F
100
AcDbEntity
  8
0
  6
HIDDEN
 62
     7
370
    18
100
AcDbSpline
210
0.0
220
0.0
230
1.0
 70
     8
 71
     3
 72
    10
 73
     6
 74
     0
 42
0.000000001
 43
0.00000001
 40
0.0
 40
0.0
 40
0.0
 40
0.0
 40
0.2658511136101919
 40
0.5379898036720653
 40
1.0
 40
1.0
 40
1.0
 40
1.0
 10
182.7722556510109
 20
87.0307536173957
 30
0.0
 10
182.7054875973151
 20
86.81339288354597
 30
0.0
 10
182.5703723758229
 20
86.37353067292047
 30
0.0
 10
182.4966451641262
 20
85.5210906197257
 30
0.0
 10
182.6658025403876
 20
84.91326643059627
 30
0.0
 10
182.7722556510109
 20
84.53075413893635
 30
0.0
  0
SPLINE
  5
12C
330
1F
100
AcDbEntity
  8
0
  6
HIDDEN
 62
     7
370
    18
100
AcDbSpline
210
0.0
220
0.0
230
1.0
 70
     8
 71
     3
 72
    10
 73
     6
 74
     0
 42
0.000000001
 43
0.00000001
 40
0.0
 40
0.0
 40
0.0
 40
0.0
 40
0.2658511136755893
 40
0.5379897839758194
 40
1.0
 40
1.0
 40
1.0
 40
1.0
 10
182.772255651011
 20
89.53075309585506
 30
0.0
 10
182.7054875971577
 20
89.31339236751556
 30
0.0
 10
182.5703723803268
 20
88.87353018425274
 30
0.0
 10
182.4966451651119
 20
88.02109002744733
 30
0.0
 10
182.6658025379771
 20
87.41326589176306
 30
0.0
 10
182.772255651011
 20
87.0307536173957
 30
0.0
  0
LINE
  5
12D
330
1F
100
AcDbEntity
  8
0
  6
HIDDEN
 62
     7
370
    18
100
AcDbLine
 10
182.772255651
 20
89.5307530959
 30
0.0
 11
186.026620827
 21
89.5307530959
 31
0.0
  0
LINE
  5
12E
330
1F
100
AcDbEntity
  8
0
  6
HIDDEN
 62
     7
370
    18
100
AcDbLine
 10
182.772255651
 20
84.5307541389
 30
0.0
 11
186.026620827
 21
84.5307541389
 31
0.0
  0
LINE
  5
12F
330
1F
100
AcDbEntity
  8
0
  6
HIDDEN
 62
     7
370
    18
100
AcDbLine
 10
179.7398693481
 20
125.0308920939
 30
0.0
 11
179.7398693481
 21
137.0307543625
 31
0.0
  0
LINE
  5
130
330
1F
100
AcDbEntity
  8
0
  6
HIDDEN
 62
     7
370
    18
100
AcDbLine
 10
178.8367546716
 20
126.0308699061
 30
0.0
 11
178.8367546716
 21
136.0307541985
 31
0.0
  0
SPLINE
  5
131
330
1F
100
AcDbEntity
  8
0
  6
HIDDEN
 62
     7
370
    18
100
AcDbSpline
210
0.0
220
0.0
230
1.0
 70
     8
 71
     3
 72
    11
 73
     7
 74
     0
 42
0.000000001
 43
0.00000001
 40
0.0
 40
0.0
 40
0.0
 40
0.0
 40
0.1346864916168332
 40
0.4830332004531886
 40
0.8157588937002923
 40
1.0
 40
1.0
 40
1.0
 40
1.0
 10
186.0266208269734
 20
128.5406221945184
 30
0.0
 10
185.9689944026108
 20
128.5397940101484
 30
0.0
 10
185.7623257467094
 20
128.5368238492808
 30
0.0
 10
185.5682524612943
 20
128.5312771098964
 30
0.0
 10
185.7307919379723
 20
128.5253312560399
 30
0.0
 10
185.9488923225875
 20
128.5221388336591
 30
0.0
 10
186.0266208269734
 20
128.5210010905164
 30
0.0
  0
SPLINE
  5
132
330
1F
100
AcDbEntity
  8
0
  6
HIDDEN
 62
     7
370
    18
100
AcDbSpline
210
0.0
220
0.0
230
1.0
 70
     8
 71
     3
 72
    11
 73
     7
 74
     0
 42
0.000000001
 43
0.00000001
 40
0.0
 40
0.0
 40
0.0
 40
0.0
 40
0.1842411055931622
 40
0.5169667963708561
 40
0.8653135050549138
 40
1.0
 40
1.0
 40
1.0
 40
1.0
 10
186.0266208269734
 20
133.5208845634359
 30
0.0
 10
185.9488923226304
 20
133.5220222905016
 30
0.0
 10
185.7307919386389
 20
133.525214667764
 30
0.0
 10
185.568252460002
 20
133.5311610817205
 30
0.0
 10
185.7623257510344
 20
133.5367058961788
 30
0.0
 10
185.9689944027366
 20
133.5396786286463
 30
0.0
 10
186.0266208269734
 20
133.540507530083
 30
0.0
  0
SPLINE
  5
133
330
1F
100
AcDbEntity
  8
0
  6
HIDDEN
 62
     7
370
    18
100
AcDbSpline
210
0.0
220
0.0
230
1.0
 70
     8
 71
     3
 72
    11
 73
     7
 74
     0
 42
0.000000001
 43
0.00000001
 40
0.0
 40
0.0
 40
0.0
 40
0.0
 40
0.2164540399419736
 40
0.4403088772604378
 40
0.7518993000713726
 40
1.0
 40
1.0
 40
1.0
 40
1.0
 10
186.0266208269734
 20
131.0111322749751
 30
0.0
 10
185.9360735480259
 20
131.1830517027813
 30
0.0
 10
185.7518830808809
 20
131.5327686692877
 30
0.0
 10
185.5983510387225
 20
132.1817510808222
 30
0.0
 10
185.6909221285501
 20
132.8779048299442
 30
0.0
 10
185.9235161907209
 20
133.3234033344327
 30
0.0
 10
186.0266208269734
 20
133.5208845634359
 30
0.0
  0
SPLINE
  5
134
330
1F
100
AcDbEntity
  8
0
  6
HIDDEN
 62
     7
370
    18
100
AcDbSpline
210
0.0
220
0.0
230
1.0
 70
     8
 71
     3
 72
    11
 73
     7
 74
     0
 42
0.000000001
 43
0.00000001
 40
0.0
 40
0.0
 40
0.0
 40
0.0
 40
0.2164537899402103
 40
0.4403091600623152
 40
0.7518991530229288
 40
1.0
 40
1.0
 40
1.0
 40
1.0
 10
186.0266208269734
 20
128.5210010905164
 30
0.0
 10
185.9360735214968
 20
128.6915760898038
 30
0.0
 10
185.7518826693463
 20
129.0385588554306
 30
0.0
 10
185.59835123948
 20
129.6824684566544
 30
0.0
 10
185.6909223456427
 20
130.3731789720065
 30
0.0
 10
185.9235161789605
 20
130.8151946869036
 30
0.0
 10
186.0266208269734
 20
131.0111322749751
 30
0.0
  0
LINE
  5
135
330
1F
100
AcDbEntity
  8
0
  6
HIDDEN
 62
     7
370
    18
100
AcDbLine
 10
182.772255651
 20
131.011132275
 30
0.0
 11
186.026620827
 21
131.011132275
 31
0.0
  0
LINE
  5
136
330
1F
100
AcDbEntity
  8
0
  6
HIDDEN
 62
     7
370
    18
100
AcDbLine
 10
172.1056431153
 20
128.0308236678
 30
0.0
 11
172.1056431153
 21
134.0307538707
 31
0.0
  0
LINE
  5
137
330
1F
100
AcDbEntity
  8
0
  6
HIDDEN
 62
     7
370
    18
100
AcDbLine
 10
165.7398707786
 20
128.0308236678
 30
0.0
 11
165.7398707786
 21
134.0307538707
 31
0.0
  0
LINE
  5
138
330
1F
100
AcDbEntity
  8
0
  6
HIDDEN
 62
     7
370
    18
100
AcDbLine
 10
165.039870105
 20
128.7308057148
 30
0.0
 11
165.039870105
 21
133.3307531972
 31
0.0
  0
SPLINE
  5
139
330
1F
100
AcDbEntity
  8
0
  6
HIDDEN
 62
     7
370
    18
100
AcDbSpline
210
0.0
220
0.0
230
1.0
 70
     8
 71
     3
 72
     9
 73
     5
 74
     0
 42
0.000000001
 43
0.00000001
 40
0.0
 40
0.0
 40
0.0
 40
0.0
 40
0.768984209997429
 40
1.0
 40
1.0
 40
1.0
 40
1.0
 10
182.772255651011
 20
128.5210010905164
 30
0.0
 10
182.659293311855
 20
128.5234532621598
 30
0.0
 10
182.5123951861363
 20
128.5266421074072
 30
0.0
 10
182.5709724681729
 20
128.5299081284696
 30
0.0
 10
182.5845047452588
 20
128.5306626309055
 30
0.0
  0
SPLINE
  5
13A
330
1F
100
AcDbEntity
  8
0
  6
HIDDEN
 62
     7
370
    18
100
AcDbSpline
210
0.0
220
0.0
230
1.0
 70
     8
 71
     3
 72
     9
 73
     5
 74
     0
 42
0.000000001
 43
0.00000001
 40
0.0
 40
0.0
 40
0.0
 40
0.0
 40
0.2485294122044056
 40
0.9999999999999999
 40
0.9999999999999999
 40
0.9999999999999999
 40
0.9999999999999999
 10
182.5874961533684
 20
133.5307752091783
 30
0.0
 10
182.572292823323
 20
133.5299447603261
 30
0.0
 10
182.5111196611184
 20
133.5266033093294
 30
0.0
 10
182.6602149366612
 20
133.523338198323
 30
0.0
 10
182.7722556510109
 20
133.5208845634359
 30
0.0
  0
SPLINE
  5
13B
330
1F
100
AcDbEntity
  8
0
  6
HIDDEN
 62
     7
370
    18
100
AcDbSpline
210
0.0
220
0.0
230
1.0
 70
     8
 71
     3
 72
    10
 73
     6
 74
     0
 42
0.000000001
 43
0.00000001
 40
0.0
 40
0.0
 40
0.0
 40
0.0
 40
0.2658514435311113
 40
0.5379898091133795
 40
0.9999999999999999
 40
0.9999999999999999
 40
0.9999999999999999
 40
0.9999999999999999
 10
182.7722556510109
 20
131.0111322749751
 30
0.0
 10
182.7054876020853
 20
130.7946291233887
 30
0.0
 10
182.5703725565572
 20
130.3565028990305
 30
0.0
 10
182.4966451269839
 20
129.5074282228976
 30
0.0
 10
182.6658024974495
 20
128.902003519111
 30
0.0
 10
182.7722556510109
 20
128.5210010905164
 30
0.0
  0
SPLINE
  5
13C
330
1F
100
AcDbEntity
  8
0
  6
HIDDEN
 62
     7
370
    18
100
AcDbSpline
210
0.0
220
0.0
230
1.0
 70
     8
 71
     3
 72
    10
 73
     6
 74
     0
 42
0.000000001
 43
0.00000001
 40
0.0
 40
0.0
 40
0.0
 40
0.0
 40
0.2658509574259155
 40
0.53798939748501
 40
1.0
 40
1.0
 40
1.0
 40
1.0
 10
182.7722556510109
 20
133.5208845634359
 30
0.0
 10
182.7054875918118
 20
133.302676076491
 30
0.0
 10
182.5703723818175
 20
132.8610983836578
 30
0.0
 10
182.4966452020576
 20
132.005332921759
 30
0.0
 10
182.6658025114964
 20
131.3951372376298
 30
0.0
 10
182.7722556510109
 20
131.0111322749751
 30
0.0
  0
LINE
  5
13D
330
1F
100
AcDbEntity
  8
0
  6
HIDDEN
 62
     7
370
    18
100
AcDbLine
 10
182.772255651
 20
133.5208845634
 30
0.0
 11
186.026620827
 21
133.5208845634
 31
0.0
  0
LINE
  5
13E
330
1F
100
AcDbEntity
  8
0
  6
HIDDEN
 62
     7
370
    18
100
AcDbLine
 10
182.772255651
 20
128.5406221945
 30
0.0
 11
186.026620827
 21
128.5406221945
 31
0.0
  0
LINE
  5
13F
330
1F
100
AcDbEntity
  8
0
  6
HIDDEN
 62
     7
370
    18
100
AcDbLine
 10
182.772255651
 20
128.5210010905
 30
0.0
 11
186.026620827
 21
128.5210010905
 31
0.0
  0
LINE
  5
140
330
1F
100
AcDbEntity
  8
0
  6
HIDDEN
 62
     7
370
    18
100
AcDbLine
 10
182.772255651
 20
131.0503763456
 30
0.0
 11
186.026620827
 21
131.0503763456
 31
0.0
  0
LINE
  5
141
330
1F
100
AcDbEntity
  8
0
  6
HIDDEN
 62
     7
370
    18
100
AcDbLine
 10
182.772255651
 20
133.5405075301
 30
0.0
 11
186.026620827
 21
133.5405075301
 31
0.0
  0
LINE
  5
142
330
1F
100
AcDbEntity
  8
0
  6
HIDDEN
 62
     7
370
    18
100
AcDbLine
 10
135.6479378038
 20
133.4894431133
 30
0.0
 11
135.6479378038
 21
128.8807542373
 31
0.0
  0
ARC
  5
143
330
1F
100
AcDbEntity
  8
0
  6
HIDDEN
 62
     7
370
    18
100
AcDbCircle
 10
129.3238551246
 20
121.5260627236
 30
0.0
 40
3.676378955795278
100
AcDbArc
 50
265.5697351202
 51
12.039715291
  0
ARC
  5
144
330
1F
100
AcDbEntity
  8
0
  6
HIDDEN
 62
     7
370
    18
100
AcDbCircle
 10
128.7388873492
 20
121.5072698352
 30
0.0
 40
3.659001579671253
100
AcDbArc
 50
166.3834072052
 51
274.7183867168
  0
LINE
  5
145
330
1F
100
AcDbEntity
  8
0
  6
HIDDEN
 62
     7
370
    18
100
AcDbLine
 10
151.514870263
 20
127.4155305077
 30
0.0
 11
151.5343926468
 21
127.3323335994
 31
0.0
  0
LINE
  5
146
330
1F
100
AcDbEntity
  8
0
  6
HIDDEN
 62
     7
370
    18
100
AcDbLine
 10
152.6798560836
 20
128.9642677952
 30
0.0
 11
152.0743995526
 21
128.5772622872
 31
0.0
  0
SPLINE
  5
147
330
1F
100
AcDbEntity
  8
0
  6
HIDDEN
 62
     7
370
    18
100
AcDbSpline
210
0.0
220
0.0
230
1.0
 70
     8
 71
     3
 72
     9
 73
     5
 74
     0
 42
0.000000001
 43
0.00000001
 40
0.0
 40
0.0
 40
0.0
 40
0.0
 40
0.0711804157022457
 40
1.0
 40
1.0
 40
1.0
 40
1.0
 10
151.6084160276789
 20
127.8946624447005
 30
0.0
 10
151.6015373234536
 20
127.8845209093276
 30
0.0
 10
151.5048997278801
 20
127.7420444251304
 30
0.0
 10
151.5100689698327
 20
127.5727626944206
 30
0.0
 10
151.5148702629942
 20
127.4155305076736
 30
0.0
  0
LINE
  5
148
330
1F
100
AcDbEntity
  8
0
  6
HIDDEN
 62
     7
370
    18
100
AcDbLine
 10
151.7983667174
 20
91.5315823008
 30
0.0
 11
151.5262938657
 21
90.8250660945
 31
0.0
  0
LINE
  5
149
330
1F
100
AcDbEntity
  8
0
  6
HIDDEN
 62
     7
370
    18
100
AcDbLine
 10
153.1439080455
 20
92.6265177627
 30
0.0
 11
152.3267358163
 21
92.1313223739
 31
0.0
  0
LINE
  5
14A
330
1F
100
AcDbEntity
  8
0
  6
HIDDEN
 62
     7
370
    18
100
AcDbLine
 10
109.0350208425
 20
85.5061543484
 30
0.0
 11
108.7861556181
 21
85.4828917731
 31
0.0
  0
LINE
  5
14B
330
1F
100
AcDbEntity
  8
0
  6
HIDDEN
 62
     7
370
    18
100
AcDbLine
 10
108.6535948881
 20
132.5908397634
 30
0.0
 11
109.0349277102
 21
132.5553358842
 31
0.0
  0
SPLINE
  5
14C
330
1F
100
AcDbEntity
  8
0
  6
HIDDEN
 62
     7
370
    18
100
AcDbSpline
210
0.0
220
0.0
230
1.0
 70
     8
 71
     3
 72
    15
 73
    11
 74
     0
 42
0.000000001
 43
0.00000001
 40
0.0
 40
0.0
 40
0.0
 40
0.0
 40
0.1409172263352446
 40
0.281889861653346
 40
0.4212989542022905
 40
0.5593768841673977
 40
0.6988856533029646
 40
0.840367202775075
 40
0.9813164473602943
 40
1.0
 40
1.0
 40
1.0
 40
1.0
 10
114.7948723838765
 20
89.19322503100807
 30
0.0
 10
114.4788306642638
 20
89.23357835278276
 30
0.0
 10
113.8466229566955
 20
89.31430086335259
 30
0.0
 10
112.6124597843812
 20
89.39085880973535
 30
0.0
 10
111.3417376605656
 20
89.38618074172042
 30
0.0
 10
110.1531781940291
 20
89.30538427649718
 30
0.0
 10
109.1600555147387
 20
89.18098972964296
 30
0.0
 10
108.5206469834249
 20
89.07458278288173
 30
0.0
 10
108.2396269950715
 20
89.02150572357218
 30
0.0
 10
108.3061875635603
 20
89.03376021553407
 30
0.0
 10
108.313977866723
 20
89.03519449125702
 30
0.0
  0
SPLINE
  5
14D
330
1F
100
AcDbEntity
  8
0
  6
HIDDEN
 62
     7
370
    18
100
AcDbSpline
210
0.0
220
0.0
230
1.0
 70
     8
 71
     3
 72
    15
 73
    11
 74
     0
 42
0.000000001
 43
0.00000001
 40
0.0
 40
0.0
 40
0.0
 40
0.0
 40
0.1201202497733958
 40
0.2584739452442804
 40
0.3987302041697883
 40
0.5404022600041716
 40
0.680739511736143
 40
0.8190355942651634
 40
0.9577823154231621
 40
1.0
 40
1.0
 40
1.0
 40
1.0
 10
108.313977866723
 20
129.0263125051158
 30
0.0
 10
108.3346871155265
 20
129.0222880010415
 30
0.0
 10
108.3792491377615
 20
129.0136281002529
 30
0.0
 10
108.9416886074899
 20
128.9143351815418
 30
0.0
 10
109.8351508629372
 20
128.7904191698305
 30
0.0
 10
110.9941296867894
 20
128.6907077942968
 30
0.0
 10
112.2671665556091
 20
128.6635707365988
 30
0.0
 10
113.5014519023362
 20
128.7189080987289
 30
0.0
 10
114.3294149800321
 20
128.8053878345202
 30
0.0
 10
114.7068252926784
 20
128.8563847536574
 30
0.0
 10
114.7948723838765
 20
128.8682819653648
 30
0.0
  0
SPLINE
  5
14E
330
1F
100
AcDbEntity
  8
0
  6
HIDDEN
 62
     7
370
    18
100
AcDbSpline
210
0.0
220
0.0
230
1.0
 70
     8
 71
     3
 72
    10
 73
     6
 74
     0
 42
0.000000001
 43
0.00000001
 40
0.0
 40
0.0
 40
0.0
 40
0.0
 40
0.4476887831926781
 40
0.8953609041226328
 40
1.0
 40
1.0
 40
1.0
 40
1.0
 10
114.7948723838765
 20
128.8682819653648
 30
0.0
 10
115.0415718541333
 20
128.8977935302323
 30
0.0
 10
115.534961612886
 20
128.9568155615939
 30
0.0
 10
115.8239714338248
 20
128.9707565378244
 30
0.0
 10
115.7636566577103
 20
128.9668688514663
 30
0.0
 10
115.7522296154041
 20
128.9661323029893
 30
0.0
  0
SPLINE
  5
14F
330
1F
100
AcDbEntity
  8
0
  6
HIDDEN
 62
     7
370
    18
100
AcDbSpline
210
0.0
220
0.0
230
1.0
 70
     8
 71
     3
 72
    10
 73
     6
 74
     0
 42
0.000000001
 43
0.00000001
 40
0.0
 40
0.0
 40
0.0
 40
0.0
 40
0.3457496783596716
 40
0.7967824467577554
 40
1.0
 40
1.0
 40
1.0
 40
1.0
 10
115.752253829791
 20
89.09537469338352
 30
0.0
 10
115.7426943834177
 20
89.09592936991127
 30
0.0
 10
115.7206645753002
 20
89.09720762568011
 30
0.0
 10
115.3036053086641
 20
89.12717556379158
 30
0.0
 10
114.9154407028276
 20
89.17757148699334
 30
0.0
 10
114.7948723838765
 20
89.19322503100807
 30
0.0
  0
LWPOLYLINE
  5
150
330
1F
100
AcDbEntity
  8
0
  6
HIDDEN
 62
     7
370
    18
100
AcDbPolyline
 90
       25
 70
   128
 43
0.0
 10
155.014871768
 20
115.7482677449
 10
155.66191744
 20
115.808502895
 10
156.2648705759
 20
115.9851040069
 10
156.7826374986
 20
116.2660346676
 10
157.1799322584
 20
116.6321515415
 10
157.4296831706
 20
117.0585035656
 10
157.5148693838
 20
117.5160344068
 10
157.4296831706
 20
117.9735661794
 10
157.1799322584
 20
118.3999182035
 10
156.7826374986
 20
118.7660350774
 10
156.2648705759
 20
119.046965738
 10
155.66191744
 20
119.2235668499
 10
155.014871768
 20
119.2838020001
 10
154.3678223708
 20
119.2235668499
 10
153.7648692348
 20
119.046965738
 10
153.2471023121
 20
118.7660350774
 10
152.8498075524
 20
118.3999182035
 10
152.6000566402
 20
117.9735661794
 10
152.5148704269
 20
117.5160344068
 10
152.6000566402
 20
117.0585035656
 10
152.8498075524
 20
116.6321515415
 10
153.2471023121
 20
116.2660346676
 10
153.7648692348
 20
115.9851040069
 10
154.3678223708
 20
115.808502895
 10
155.014871768
 20
115.7482677449
  0
LWPOLYLINE
  5
151
330
1F
100
AcDbEntity
  8
0
  6
HIDDEN
 62
     7
370
    18
100
AcDbPolyline
 90
       25
 70
   128
 43
0.0
 10
155.014871768
 20
98.7777049963
 10
155.66191744
 20
98.8379401464
 10
156.2648705759
 20
99.0145412583
 10
156.7826374986
 20
99.295471919
 10
157.1799322584
 20
99.6615887929
 10
157.4296831706
 20
100.087940817
 10
157.5148693838
 20
100.5454725895
 10
157.4296831706
 20
101.0030034308
 10
157.1799322584
 20
101.4293554549
 10
156.7826374986
 20
101.7954723288
 10
156.2648705759
 20
102.0764029894
 10
155.66191744
 20
102.2530041013
 10
155.014871768
 20
102.3132392515
 10
154.3678223708
 20
102.2530041013
 10
153.7648692348
 20
102.0764029894
 10
153.2471023121
 20
101.7954723288
 10
152.8498075524
 20
101.4293554549
 10
152.6000566402
 20
101.0030034308
 10
152.5148704269
 20
100.5454725895
 10
152.6000566402
 20
100.087940817
 10
152.8498075524
 20
99.6615887929
 10
153.2471023121
 20
99.295471919
 10
153.7648692348
 20
99.0145412583
 10
154.3678223708
 20
98.8379401464
 10
155.014871768
 20
98.7777049963
  0
LINE
  5
152
330
1F
100
AcDbEntity
  8
0
  6
HIDDEN
 62
     7
370
    18
100
AcDbLine
 10
102.0438458392
 20
92.0307525743
 30
0.0
 11
102.0438458392
 21
126.0307544221
 31
0.0
  0
LWPOLYLINE
  5
153
330
1F
100
AcDbEntity
  8
0
  6
HIDDEN
 62
     7
370
    18
100
AcDbPolyline
 90
       14
 70
   128
 43
0.0
 10
129.0398707234
 20
130.97635669
 10
129.8450642818
 20
131.0172957678
 10
130.6172936776
 20
131.1384403456
 10
131.3249433034
 20
131.3348283369
 10
131.9390415766
 20
131.5984224279
 10
132.4344474443
 20
131.9184285898
 10
132.7908785635
 20
132.2817449767
 10
132.9937439033
 20
132.6735002298
 10
133.0347360664
 20
133.0776551117
 10
132.9121786722
 20
133.4776618827
 10
132.6310887554
 20
133.8571441669
 10
132.2029737377
 20
134.2005675037
 10
131.6453601786
 20
134.4938726474
 10
131.4049150416
 20
134.5893164475
  0
LWPOLYLINE
  5
154
330
1F
100
AcDbEntity
  8
0
  6
HIDDEN
 62
     7
370
    18
100
AcDbPolyline
 90
       14
 70
   128
 43
0.0
 10
126.668274551
 20
134.58690991
 10
126.434380337
 20
134.4938726474
 10
125.8767672435
 20
134.2005675037
 10
125.4486522258
 20
133.8571441669
 10
125.1675618433
 20
133.4776618827
 10
125.0450044491
 20
133.0776551117
 10
125.0859970779
 20
132.6735002298
 10
125.2888619521
 20
132.2817449767
 10
125.6452935369
 20
131.9184285898
 10
126.1406994046
 20
131.5984224279
 10
126.7547976778
 20
131.3348283369
 10
127.462446838
 20
131.1384403456
 10
128.2346762338
 20
131.0172957678
 10
129.0398707234
 20
130.97635669
  0
SPLINE
  5
155
330
1F
100
AcDbEntity
  8
0
  6
HIDDEN
 62
     7
370
    18
100
AcDbSpline
210
0.0
220
0.0
230
1.0
 70
     8
 71
     3
 72
    11
 73
     7
 74
     0
 42
0.000000001
 43
0.00000001
 40
0.0
 40
0.0
 40
0.0
 40
0.0
 40
0.0005779865010845
 40
0.0005779865010845
 40
0.0005779865010845
 40
0.0011559733324421
 40
0.0011559733324421
 40
0.0011559733324421
 40
0.0011559733324421
 10
89.13987034346052
 20
111.0305941063402
 30
0.0
 10
89.30653759826649
 20
111.0286104669992
 30
0.0
 10
89.47320402794415
 20
111.0265728599967
 30
0.0
 10
89.63987036639598
 20
111.0244613965903
 30
0.0
 10
89.80653679522239
 20
111.0223499320389
 30
0.0
 10
89.97320316886007
 20
111.0201643688826
 30
0.0
 10
90.1398703434605
 20
111.0178817915509
 30
0.0
  0
SPLINE
  5
156
330
1F
100
AcDbEntity
  8
0
  6
HIDDEN
 62
     7
370
    18
100
AcDbSpline
210
0.0
220
0.0
230
1.0
 70
     8
 71
     3
 72
     8
 73
     4
 74
     0
 42
0.000000001
 43
0.00000001
 40
0.0
 40
0.0
 40
0.0
 40
0.0
 40
0.0011564765856722
 40
0.0011564765856722
 40
0.0011564765856722
 40
0.0011564765856722
 10
90.1398703434605
 20
107.0340531959701
 30
0.0
 10
89.80656241289165
 20
107.0331780403869
 30
0.0
 10
89.47322718049946
 20
107.0321231891354
 30
0.0
 10
89.13987034346052
 20
107.0309521020978
 30
0.0
  0
LINE
  5
157
330
1F
100
AcDbEntity
  8
0
  6
HIDDEN
 62
     7
370
    18
100
AcDbLine
 10
128.6996963055
 20
92.0307525743
 30
0.0
 11
128.6996963055
 21
126.0307544221
 31
0.0
  0
LINE
  5
158
330
1F
100
AcDbEntity
  8
0
  6
HIDDEN
 62
     7
370
    18
100
AcDbLine
 10
130.9898702049
 20
93.3057536681
 30
0.0
 11
130.9898702049
 21
124.7557533283
 31
0.0
  0
SPLINE
  5
159
330
1F
100
AcDbEntity
  8
0
  6
HIDDEN
 62
     7
370
    18
100
AcDbSpline
210
0.0
220
0.0
230
1.0
 70
     8
 71
     3
 72
    16
 73
    12
 74
     0
 42
0.000000001
 43
0.00000001
 40
0.0
 40
0.0
 40
0.0
 40
0.0
 40
0.124999999999998
 40
0.124999999999998
 40
0.249999999999996
 40
0.249999999999996
 40
0.4999999999999973
 40
0.4999999999999973
 40
0.7499999999999987
 40
0.7499999999999987
 40
1.0
 40
1.0
 40
1.0
 40
1.0
 10
97.8398703434605
 20
93.22926306215476
 30
0.0
 10
97.93499209812634
 20
93.22926306215476
 30
0.0
 10
98.02832216685442
 20
93.22544722876195
 30
0.0
 10
98.21158392759241
 20
93.21067667603214
 30
0.0
 10
98.30246164314943
 20
93.19951862805657
 30
0.0
 10
98.55926334066915
 20
93.15704735791485
 30
0.0
 10
98.71433070554116
 20
93.11600116071205
 30
0.0
 10
98.96807716709577
 20
93.02085504413016
 30
0.0
 10
99.06894761876364
 20
92.96609231004857
 30
0.0
 10
99.20419403345848
 20
92.85483118614471
 30
0.0
 10
99.23987034346052
 20
92.79766144881602
 30
0.0
 10
99.23987034346052
 20
92.74323987578228
 30
0.0
  0
SPLINE
  5
15A
330
1F
100
AcDbEntity
  8
0
  6
HIDDEN
 62
     7
370
    18
100
AcDbSpline
210
0.0
220
0.0
230
1.0
 70
     8
 71
     3
 72
     8
 73
     4
 74
     0
 42
0.000000001
 43
0.00000001
 40
0.0
 40
0.0
 40
0.0
 40
0.0
 40
1.0
 40
1.0
 40
1.0
 40
1.0
 10
90.4398703467757
 20
95.37406600823701
 30
0.0
 10
90.43987034677764
 20
94.49016886592007
 30
0.0
 10
90.42638972086783
 20
93.77558562085812
 30
0.0
 10
90.42503835267854
 20
93.22926306215476
 30
0.0
  0
SPLINE
  5
15B
330
1F
100
AcDbEntity
  8
0
  6
HIDDEN
 62
     7
370
    18
100
AcDbSpline
210
0.0
220
0.0
230
1.0
 70
     8
 71
     3
 72
    10
 73
     6
 74
     0
 42
0.000000001
 43
0.00000001
 40
0.0
 40
0.0
 40
0.0
 40
0.0
 40
0.5
 40
0.5
 40
1.0
 40
1.0
 40
1.0
 40
1.0
 10
90.1398703434605
 20
96.3989762739402
 30
0.0
 10
90.23126145915342
 20
96.22433748632278
 30
0.0
 10
90.30391329288648
 20
96.0507356590672
 30
0.0
 10
90.41141218589463
 20
95.70712224006049
 30
0.0
 10
90.43987034677008
 20
95.53879641352904
 30
0.0
 10
90.4398703467757
 20
95.37406600829648
 30
0.0
  0
LINE
  5
15C
330
1F
100
AcDbEntity
  8
0
  6
HIDDEN
 62
     7
370
    18
100
AcDbLine
 10
90.1398706802
 20
99.4299269591
 30
0.0
 11
90.1398706802
 21
96.3989758242
 31
0.0
  0
SPLINE
  5
15D
330
1F
100
AcDbEntity
  8
0
  6
HIDDEN
 62
     7
370
    18
100
AcDbSpline
210
0.0
220
0.0
230
1.0
 70
     8
 71
     3
 72
    10
 73
     6
 74
     0
 42
0.000000001
 43
0.00000001
 40
0.0
 40
0.0
 40
0.0
 40
0.0
 40
0.5
 40
0.5
 40
1.0
 40
1.0
 40
1.0
 40
1.0
 10
90.43987034664823
 20
100.7977671225436
 30
0.0
 10
90.4398703466482
 20
100.5557831549368
 30
0.0
 10
90.41172031757762
 20
100.3214407259718
 30
0.0
 10
90.30813040343521
 20
99.86606570369408
 30
0.0
 10
90.23150169384373
 20
99.64446114058671
 30
0.0
 10
90.13987034346052
 20
99.42992670578877
 30
0.0
  0
LINE
  5
15E
330
1F
100
AcDbEntity
  8
0
  6
HIDDEN
 62
     7
370
    18
100
AcDbLine
 10
90.4398701706
 20
112.6353872318
 30
0.0
 11
90.4398701706
 21
100.7977669437
 31
0.0
  0
SPLINE
  5
15F
330
1F
100
AcDbEntity
  8
0
  6
HIDDEN
 62
     7
370
    18
100
AcDbSpline
210
0.0
220
0.0
230
1.0
 70
     8
 71
     3
 72
     8
 73
     4
 74
     0
 42
0.000000001
 43
0.00000001
 40
0.0
 40
0.0
 40
0.0
 40
0.0
 40
1.0
 40
1.0
 40
1.0
 40
1.0
 10
90.1398703434605
 20
118.6376928192548
 30
0.0
 10
90.32090181001942
 20
118.2055853335921
 30
0.0
 10
90.43987034665393
 20
117.7514399274924
 30
0.0
 10
90.43987034664825
 20
117.2637398737983
 30
0.0
  0
LINE
  5
160
330
1F
100
AcDbEntity
  8
0
  6
HIDDEN
 62
     7
370
    18
100
AcDbLine
 10
90.1398706802
 20
121.6708953802
 30
0.0
 11
90.1398706802
 21
118.6376932387
 31
0.0
  0
SPLINE
  5
161
330
1F
100
AcDbEntity
  8
0
  6
HIDDEN
 62
     7
370
    18
100
AcDbSpline
210
0.0
220
0.0
230
1.0
 70
     8
 71
     3
 72
    10
 73
     6
 74
     0
 42
0.000000001
 43
0.00000001
 40
0.0
 40
0.0
 40
0.0
 40
0.0
 40
0.5
 40
0.5
 40
1.0
 40
1.0
 40
1.0
 40
1.0
 10
90.43987034685372
 20
122.6874409881062
 30
0.0
 10
90.43987034685193
 20
122.5228046415003
 30
0.0
 10
90.41271167609644
 20
122.3556494176697
 30
0.0
 10
90.306946680778
 20
122.0170264098681
 30
0.0
 10
90.23053189248087
 20
121.8447546325771
 30
0.0
 10
90.13987034346053
 20
121.6708958052331
 30
0.0
  0
SPLINE
  5
162
330
1F
100
AcDbEntity
  8
0
  6
HIDDEN
 62
     7
370
    18
100
AcDbSpline
210
0.0
220
0.0
230
1.0
 70
     8
 71
     3
 72
    18
 73
    14
 74
     0
 42
0.000000001
 43
0.00000001
 40
0.0
 40
0.0
 40
0.0
 40
0.0
 40
0.2500000000000033
 40
0.2500000000000033
 40
0.3750000000000029
 40
0.3750000000000029
 40
0.5000000000000026
 40
0.5000000000000026
 40
0.6250000000000022
 40
0.6250000000000022
 40
0.7500000000000018
 40
0.7500000000000018
 40
1.0
 40
1.0
 40
1.0
 40
1.0
 10
95.23987034346051
 20
125.3182671205905
 30
0.0
 10
95.2398703434605
 20
125.2637926000383
 30
0.0
 10
95.20495965206834
 20
125.2074115406859
 30
0.0
 10
95.1029503507353
 20
125.1233346998324
 30
0.0
 10
95.06131399605718
 20
125.0960009958415
 30
0.0
 10
94.96290820056844
 20
125.0430470802425
 30
0.0
 10
94.90536498886415
 20
125.0171597265253
 30
0.0
 10
94.77806681529118
 20
124.969382181692
 30
0.0
 10
94.70847951053372
 20
124.9474342635142
 30
0.0
 10
94.55704526537878
 20
124.9080016986014
 30
0.0
 10
94.47436136228482
 20
124.8904454493756
 30
0.0
 10
94.21824990024678
 20
124.8480066839551
 30
0.0
 10
94.03033489635878
 20
124.8322439342181
 30
0.0
 10
93.83987034346052
 20
124.8322439342181
 30
0.0
  0
LINE
  5
163
330
1F
100
AcDbEntity
  8
0
  6
HIDDEN
 62
     7
370
    18
100
AcDbLine
 10
93.8398699829
 20
124.832244714
 30
0.0
 11
90.4398701706
 21
124.832244714
 31
0.0
  0
LINE
  5
164
330
1F
100
AcDbEntity
  8
0
  6
HIDDEN
 62
     7
370
    18
100
AcDbLine
 10
90.3709020087
 20
93.2292622824
 30
0.0
 11
97.8398706385
 21
93.2292622824
 31
0.0
  0
SPLINE
  5
165
330
1F
100
AcDbEntity
  8
0
  6
HIDDEN
 62
     7
370
    18
100
AcDbSpline
210
0.0
220
0.0
230
1.0
 70
     8
 71
     3
 72
    22
 73
    18
 74
     0
 42
0.000000001
 43
0.00000001
 40
0.0
 40
0.0
 40
0.0
 40
0.0
 40
0.1249999999999998
 40
0.1249999999999998
 40
0.2499999999999995
 40
0.2499999999999995
 40
0.4999999999999992
 40
0.4999999999999992
 40
0.5624999999999993
 40
0.5624999999999993
 40
0.6249999999999994
 40
0.6249999999999994
 40
0.7499999999999996
 40
0.7499999999999996
 40
0.8749999999999998
 40
0.8749999999999998
 40
1.0
 40
1.0
 40
1.0
 40
1.0
 10
90.37090135681844
 20
93.22926306215476
 30
0.0
 10
90.35781896409006
 20
93.48436877230243
 30
0.0
 10
90.34459940065024
 20
93.77752703140634
 30
0.0
 10
90.32215222285612
 20
94.43982749703115
 30
0.0
 10
90.31267375583164
 20
94.81010141764253
 30
0.0
 10
90.29347579489509
 20
96.03265822075632
 30
0.0
 10
90.29458956789198
 20
96.96979714688818
 30
0.0
 10
90.31350036084507
 20
98.28966837640317
 30
0.0
 10
90.31812988870406
 20
98.56117028537949
 30
0.0
 10
90.32861110845002
 20
99.11955512018179
 30
0.0
 10
90.33440636973444
 20
99.40667797612139
 30
0.0
 10
90.35271559063938
 20
100.2792672304931
 30
0.0
 10
90.36675052491974
 20
100.8797229068489
 30
0.0
 10
90.39620769705655
 20
102.117197399345
 30
0.0
 10
90.41176338803814
 20
102.7542135559885
 30
0.0
 10
90.43555793803502
 20
104.065702153673
 30
0.0
 10
90.44357699018038
 20
104.7418247653335
 30
0.0
 10
90.43987034346051
 20
105.4261198766183
 30
0.0
  0
LINE
  5
166
330
1F
100
AcDbEntity
  8
0
  6
HIDDEN
 62
     7
370
    18
100
AcDbLine
 10
90.4398701706
 20
112.6353872318
 30
0.0
 11
90.4398701706
 21
124.832244714
 31
0.0
  0
SPLINE
  5
167
330
1F
100
AcDbEntity
  8
0
  6
HIDDEN
 62
     7
370
    18
100
AcDbSpline
210
0.0
220
0.0
230
1.0
 70
     8
 71
     3
 72
    10
 73
     6
 74
     0
 42
0.000000001
 43
0.00000001
 40
0.0
 40
0.0
 40
0.0
 40
0.0
 40
0.5
 40
0.5
 40
1.0
 40
1.0
 40
1.0
 40
1.0
 10
90.43987034346051
 20
105.4261198766032
 30
0.0
 10
90.43987034346034
 20
105.7000350246776
 30
0.0
 10
90.41411111359261
 20
105.9709766034077
 30
0.0
 10
90.31090518085949
 20
106.5066676850105
 30
0.0
 10
90.23356701698427
 20
106.7724144885326
 30
0.0
 10
90.1398703434605
 20
107.0340531959701
 30
0.0
  0
SPLINE
  5
168
330
1F
100
AcDbEntity
  8
0
  6
HIDDEN
 62
     7
370
    18
100
AcDbSpline
210
0.0
220
0.0
230
1.0
 70
     8
 71
     3
 72
    10
 73
     6
 74
     0
 42
0.000000001
 43
0.00000001
 40
0.0
 40
0.0
 40
0.0
 40
0.0
 40
0.5
 40
0.5
 40
1.0
 40
1.0
 40
1.0
 40
1.0
 10
90.1398703434605
 20
111.0178817915509
 30
0.0
 10
90.23310092485153
 20
111.2817755996211
 30
0.0
 10
90.30813053708827
 20
111.5479559102593
 30
0.0
 10
90.41319763626637
 20
112.0862784852175
 30
0.0
 10
90.4398703468526
 20
112.3590266014631
 30
0.0
 10
90.43987034685378
 20
112.6353871197535
 30
0.0
  0
LINE
  5
169
330
1F
100
AcDbEntity
  8
0
  6
HIDDEN
 62
     7
370
    18
100
AcDbLine
 10
90.1398706802
 20
107.0340533119
 30
0.0
 11
90.1398706802
 21
111.0178817839
 31
0.0
  0
LINE
  5
16A
330
1F
100
AcDbEntity
  8
0
  6
HIDDEN
 62
     7
370
    18
100
AcDbLine
 10
90.2898694941
 20
91.0407529522
 30
0.0
 11
90.2898694941
 21
88.1608148415
 31
0.0
  0
LWPOLYLINE
  5
16B
330
1F
100
AcDbEntity
  8
0
  6
HIDDEN
 62
     7
370
    18
100
AcDbPolyline
 90
       23
 70
   128
 43
0.0
 10
172.0398693898
 20
98.3534409974
 10
172.6315088191
 20
98.4135913972
 10
173.1752149382
 20
98.5891671229
 10
173.6269436398
 20
98.8659468789
 10
173.950097672
 20
99.2215053488
 10
174.1184956947
 20
99.627038588
 10
174.1184956947
 20
100.0496923302
 10
173.950097672
 20
100.4552255694
 10
173.6269436398
 20
100.8107840393
 10
173.1752149382
 20
101.0875628639
 10
172.6315088191
 20
101.263139521
 10
172.0398693898
 20
101.3232894551
 10
171.4482336857
 20
101.263139521
 10
170.9045238414
 20
101.0875628639
 10
170.4527951398
 20
100.8107840393
 10
170.1296448329
 20
100.4552255694
 10
169.9612468102
 20
100.0496923302
 10
169.9612468102
 20
99.627038588
 10
170.1296448329
 20
99.2215053488
 10
170.4527951398
 20
98.8659468789
 10
170.9045238414
 20
98.5891671229
 10
171.4482336857
 20
98.4135913972
 10
172.0398693898
 20
98.3534409974
  0
ELLIPSE
  5
16C
330
1F
100
AcDbEntity
  8
0
  6
HIDDEN
 62
     7
370
    18
100
AcDbEllipse
 10
172.0398703435
 20
101.9596856863
 30
0.0
 11
1.940147018273706
 21
-1.940147018273706
 31
0.0
210
0.0
220
0.0
230
1.0
 40
0.4142135624
 41
5.105088062083421
 42
8.246680715673204
  0
ELLIPSE
  5
16D
330
1F
100
AcDbEntity
  8
0
  6
HIDDEN
 62
     7
370
    18
100
AcDbEllipse
 10
172.0398703435
 20
101.9596856863
 30
0.0
 11
1.940147018273706
 21
1.940147018273706
 31
0.0
210
0.0
220
0.0
230
1.0
 40
0.4142135624
 41
1.178097245096174
 42
4.319689898685978
  0
LINE
  5
16E
330
1F
100
AcDbEntity
  8
0
  6
HIDDEN
 62
     7
370
    18
100
AcDbLine
 10
99.2398701229
 20
91.0407529522
 30
0.0
 11
99.2398701229
 21
87.0670155932
 31
0.0
  0
LINE
  5
16F
330
1F
100
AcDbEntity
  8
0
  6
HIDDEN
 62
     7
370
    18
100
AcDbLine
 10
90.2898694941
 20
127.0207540442
 30
0.0
 11
90.2898694941
 21
129.9006921549
 31
0.0
  0
LINE
  5
170
330
1F
100
AcDbEntity
  8
0
  6
HIDDEN
 62
     7
370
    18
100
AcDbLine
 10
95.2398694673
 20
127.0207540442
 30
0.0
 11
95.2398694673
 21
130.8748611559
 31
0.0
  0
LINE
  5
171
330
1F
100
AcDbEntity
  8
0
  6
HIDDEN
 62
     7
370
    18
100
AcDbLine
 10
139.8398700723
 20
99.5307538037
 30
0.0
 11
139.8398700723
 21
118.5307531927
 31
0.0
  0
LINE
  5
172
330
1F
100
AcDbEntity
  8
0
  6
HIDDEN
 62
     7
370
    18
100
AcDbLine
 10
142.839870564
 20
99.5307538037
 30
0.0
 11
142.839870564
 21
118.5307531927
 31
0.0
  0
ELLIPSE
  5
173
330
1F
100
AcDbEntity
  8
0
  6
HIDDEN
 62
     7
370
    18
100
AcDbEllipse
 10
172.0398703435
 20
101.9596856863
 30
0.0
 11
1.940147018273706
 21
1.940147018273706
 31
0.0
210
0.0
220
0.0
230
1.0
 40
0.4142135624
 41
4.319689898685978
 42
7.46128255227576
  0
LINE
  5
174
330
1F
100
AcDbEntity
  8
0
  6
HIDDEN
 62
     7
370
    18
100
AcDbLine
 10
169.0398707607
 20
104.0596856114
 30
0.0
 11
169.0398707607
 21
99.8596857611
 31
0.0
  0
ELLIPSE
  5
175
330
1F
100
AcDbEntity
  8
0
  6
HIDDEN
 62
     7
370
    18
100
AcDbEllipse
 10
172.0398703435
 20
101.9596856863
 30
0.0
 11
1.940147018273706
 21
-1.940147018273706
 31
0.0
210
0.0
220
0.0
230
1.0
 40
0.4142135624
 41
1.963495408493619
 42
5.105088062083421
  0
LINE
  5
176
330
1F
100
AcDbEntity
  8
0
  6
HIDDEN
 62
     7
370
    18
100
AcDbLine
 10
131.4898702868
 20
100.5307530363
 30
0.0
 11
131.4898702868
 21
117.5307539601
 31
0.0
  0
LINE
  5
177
330
1F
100
AcDbEntity
  8
0
  6
HIDDEN
 62
     7
370
    18
100
AcDbLine
 10
137.2275456407
 20
82.6307536412
 30
0.0
 11
133.9898706966
 21
82.6307536412
 31
0.0
  0
LINE
  5
178
330
1F
100
AcDbEntity
  8
0
  6
HIDDEN
 62
     7
370
    18
100
AcDbLine
 10
146.9898700335
 20
82.6307536412
 30
0.0
 11
140.8521953591
 21
82.6307536412
 31
0.0
  0
LINE
  5
179
330
1F
100
AcDbEntity
  8
0
  6
HIDDEN
 62
     7
370
    18
100
AcDbLine
 10
125.9898703166
 20
77.5466301788
 30
0.0
 11
125.9898703166
 21
82.6307536412
 31
0.0
  0
LINE
  5
17A
330
1F
100
AcDbEntity
  8
0
  6
HIDDEN
 62
     7
370
    18
100
AcDbLine
 10
133.9898706966
 20
82.6307536412
 30
0.0
 11
125.9898703166
 21
82.6307536412
 31
0.0
  0
SPLINE
  5
17B
330
1F
100
AcDbEntity
  8
0
  6
HIDDEN
 62
     7
370
    18
100
AcDbSpline
210
0.0
220
0.0
230
1.0
 70
     8
 71
     3
 72
    14
 73
    10
 74
     0
 42
0.000000001
 43
0.00000001
 40
0.0
 40
0.0
 40
0.0
 40
0.0
 40
0.25
 40
0.25
 40
0.5
 40
0.5
 40
0.75
 40
0.75
 40
1.0
 40
1.0
 40
1.0
 40
1.0
 10
170.0398703434605
 20
105.8879960203853
 30
0.0
 10
170.0081456220905
 20
105.8467336844746
 30
0.0
 10
169.9831619132401
 20
105.7960056131095
 30
0.0
 10
169.9488413124782
 20
105.6740042227346
 30
0.0
 10
169.9398678634173
 20
105.6026391242141
 30
0.0
 10
169.9398728245613
 20
105.4463213748876
 30
0.0
 10
169.9488662074941
 20
105.3591868451196
 30
0.0
 10
169.9831758502725
 20
105.1765134787252
 30
0.0
 10
170.0081487363241
 20
105.081321840572
 30
0.0
 10
170.0398703434605
 20
104.9824575065716
 30
0.0
  0
SPLINE
  5
17C
330
1F
100
AcDbEntity
  8
0
  6
HIDDEN
 62
     7
370
    18
100
AcDbSpline
210
0.0
220
0.0
230
1.0
 70
     8
 71
     3
 72
    54
 73
    50
 74
     0
 42
0.000000001
 43
0.00000001
 40
0.0
 40
0.0
 40
0.0
 40
0.0
 40
0.0625000000000001
 40
0.0625000000000001
 40
0.1250000000000002
 40
0.1250000000000002
 40
0.1562500000000003
 40
0.1562500000000003
 40
0.1875000000000004
 40
0.1875000000000004
 40
0.2187500000000005
 40
0.2187500000000005
 40
0.2500000000000006
 40
0.2500000000000006
 40
0.2812500000000006
 40
0.2812500000000006
 40
0.3125000000000007
 40
0.3125000000000007
 40
0.3750000000000008
 40
0.3750000000000008
 40
0.4375000000000009
 40
0.4375000000000009
 40
0.500000000000001
 40
0.500000000000001
 40
0.5625000000000012
 40
0.5625000000000012
 40
0.5937500000000013
 40
0.5937500000000013
 40
0.6250000000000013
 40
0.6250000000000013
 40
0.6562500000000014
 40
0.6562500000000014
 40
0.6875000000000014
 40
0.6875000000000014
 40
0.7187500000000016
 40
0.7187500000000016
 40
0.7500000000000016
 40
0.7500000000000016
 40
0.7812500000000017
 40
0.7812500000000017
 40
0.8125000000000017
 40
0.8125000000000017
 40
0.8750000000000002
 40
0.8750000000000002
 40
0.9062500000000001
 40
0.9062500000000001
 40
0.9375000000000001
 40
0.9375000000000001
 40
1.0
 40
1.0
 40
1.0
 40
1.0
 10
170.0398703434605
 20
104.9824575065716
 30
0.0
 10
170.1165291977174
 20
104.8344670399391
 30
0.0
 10
170.2324712330938
 20
104.7120037502855
 30
0.0
 10
170.5367915004265
 20
104.5082147326359
 30
0.0
 10
170.7197058314962
 20
104.4308382033454
 30
0.0
 10
171.0341981750227
 20
104.3436777388567
 30
0.0
 10
171.1437301494935
 20
104.3200339759912
 30
0.0
 10
171.3724387125315
 20
104.2818396146086
 30
0.0
 10
171.4928870396515
 20
104.2671978568241
 30
0.0
 10
171.7383476162528
 20
104.2470813342723
 30
0.0
 10
171.8620695275221
 20
104.241595203393
 30
0.0
 10
172.1114933887557
 20
104.2391377926263
 30
0.0
 10
172.2386333626713
 20
104.2422861191515
 30
0.0
 10
172.486178483004
 20
104.2574454665466
 30
0.0
 10
172.6067492114807
 20
104.2693328791822
 30
0.0
 10
172.8417755609781
 20
104.3025492394099
 30
0.0
 10
172.9564276583751
 20
104.3240592283824
 30
0.0
 10
173.2786997443299
 20
104.402574411543
 30
0.0
 10
173.4723766249308
 20
104.4755046211594
 30
0.0
 10
173.7911034181336
 20
104.6647983373177
 30
0.0
 10
173.9200013538841
 20
104.7840312851289
 30
0.0
 10
174.0931276022947
 20
105.0635549225205
 30
0.0
 10
174.1395035725813
 20
105.2283830547192
 30
0.0
 10
174.1402326296639
 20
105.5809407306174
 30
0.0
 10
174.0947745534233
 20
105.7729746092918
 30
0.0
 10
173.9652210563303
 20
106.0551031165889
 30
0.0
 10
173.9111169902445
 20
106.1498803555062
 30
0.0
 10
173.7856076249727
 20
106.3322651697746
 30
0.0
 10
173.7142664428515
 20
106.4202150013346
 30
0.0
 10
173.5544602700768
 20
106.5885363304331
 30
0.0
 10
173.4654507587961
 20
106.6691276956471
 30
0.0
 10
173.2761330916325
 20
106.8154646047863
 30
0.0
 10
173.1751824985384
 20
106.8820156223084
 30
0.0
 10
172.9599910081687
 20
107.0000774985756
 30
0.0
 10
172.8454497843806
 20
107.0514097457966
 30
0.0
 10
172.6118610224647
 20
107.1328330472026
 30
0.0
 10
172.4917035535456
 20
107.163621966337
 30
0.0
 10
172.2442285352007
 20
107.2035527366269
 30
0.0
 10
172.1171439449903
 20
107.2122996328188
 30
0.0
 10
171.8674624479187
 20
107.2065032536122
 30
0.0
 10
171.7433906255508
 20
107.1922680407333
 30
0.0
 10
171.373508171914
 20
107.1155195864992
 30
0.0
 10
171.1409478312555
 20
107.0209335342832
 30
0.0
 10
170.8258195865159
 20
106.8309255637689
 30
0.0
 10
170.7279716693051
 20
106.7606250145608
 30
0.0
 10
170.5458271992319
 20
106.6079650445342
 30
0.0
 10
170.4608500923932
 20
106.5247312772713
 30
0.0
 10
170.2337322893076
 20
106.2656228327924
 30
0.0
 10
170.1165772472057
 20
106.0787472115141
 30
0.0
 10
170.0398703434605
 20
105.8879960203853
 30
0.0
  0
LINE
  5
17D
330
1F
100
AcDbEntity
  8
0
  6
HIDDEN
 62
     7
370
    18
100
AcDbLine
 10
133.9898706966
 20
135.4307533551
 30
0.0
 11
125.9898703166
 21
135.4307533551
 31
0.0
  0
LINE
  5
17E
330
1F
100
AcDbEntity
  8
0
  6
HIDDEN
 62
     7
370
    18
100
AcDbLine
 10
137.5241681554
 20
135.4307533551
 30
0.0
 11
133.9898706966
 21
135.4307533551
 31
0.0
  0
LINE
  5
17F
330
1F
100
AcDbEntity
  8
0
  6
HIDDEN
 62
     7
370
    18
100
AcDbLine
 10
146.9898700335
 20
135.4307533551
 30
0.0
 11
140.5555728444
 21
135.4307533551
 31
0.0
  0
SPLINE
  5
180
330
1F
100
AcDbEntity
  8
0
  6
HIDDEN
 62
     7
370
    18
100
AcDbSpline
210
0.0
220
0.0
230
1.0
 70
     8
 71
     3
 72
    11
 73
     7
 74
     0
 42
0.000000001
 43
0.00000001
 40
0.0
 40
0.0
 40
0.0
 40
0.0
 40
0.0008203708524183
 40
0.0008203708524183
 40
0.0008203708524183
 40
0.0016409967870154
 40
0.0016409967870154
 40
0.0016409967870154
 40
0.0016409967870154
 10
90.2898703434605
 20
93.1787207475437
 30
0.0
 10
90.09871204316185
 20
93.13754171892455
 30
0.0
 10
89.90728497308967
 20
93.09878774669455
 30
0.0
 10
89.71563934956906
 20
93.062419987416
 30
0.0
 10
89.5239339444886
 20
93.02604088364998
 30
0.0
 10
89.33199499242964
 20
92.99204663288242
 30
0.0
 10
89.13987034535882
 20
92.96039850749122
 30
0.0
  0
ELLIPSE
  5
181
330
1F
100
AcDbEntity
  8
0
  6
HIDDEN
 62
     7
370
    18
100
AcDbEllipse
 10
84.8974384749
 20
109.0307534982
 30
0.0
 11
20.19992453366628
 21
-1.421085471520200E-14
 31
0.0
210
0.0
220
0.0
230
1.0
 40
0.8164965809
 41
1.300566354718001
 42
1.359198697209606
  0
LINE
  5
182
330
1F
100
AcDbEntity
  8
0
  6
HIDDEN
 62
     7
370
    18
100
AcDbLine
 10
195.7136869052
 20
103.9057533566
 30
0.0
 11
195.7136869052
 21
114.1557536397
 31
0.0
  0
LINE
  5
183
330
1F
100
AcDbEntity
  8
0
  6
HIDDEN
 62
     7
370
    18
100
AcDbLine
 10
196.5398668864
 20
102.5307533641
 30
0.0
 11
196.5398668864
 21
115.5307536323
 31
0.0
  0
LINE
  5
184
330
1F
100
AcDbEntity
  8
0
  6
HIDDEN
 62
     7
370
    18
100
AcDbLine
 10
90.2898694941
 20
91.0407529522
 30
0.0
 11
90.2898694941
 21
93.1787212689
 31
0.0
  0
LINE
  5
185
330
1F
100
AcDbEntity
  8
0
  6
HIDDEN
 62
     7
370
    18
100
AcDbLine
 10
90.3709020087
 20
93.2292622824
 30
0.0
 11
90.2898694941
 21
93.1787212689
 31
0.0
  0
LINE
  5
186
330
1F
100
AcDbEntity
  8
0
  6
HIDDEN
 62
     7
370
    18
100
AcDbLine
 10
99.2398701229
 20
91.0407529522
 30
0.0
 11
99.2398701229
 21
92.7432404209
 31
0.0
  0
LINE
  5
187
330
1F
100
AcDbEntity
  8
0
  6
HIDDEN
 62
     7
370
    18
100
AcDbLine
 10
95.2398694673
 20
127.0207540442
 30
0.0
 11
95.2398694673
 21
125.3182665754
 31
0.0
  0
LINE
  5
188
330
1F
100
AcDbEntity
  8
0
  6
HIDDEN
 62
     7
370
    18
100
AcDbLine
 10
90.2898694941
 20
127.0207540442
 30
0.0
 11
90.2898694941
 21
124.9253788341
 31
0.0
  0
SPLINE
  5
189
330
1F
100
AcDbEntity
  8
0
  6
HIDDEN
 62
     7
370
    18
100
AcDbSpline
210
0.0
220
0.0
230
1.0
 70
     8
 71
     3
 72
     8
 73
     4
 74
     0
 42
0.000000001
 43
0.00000001
 40
0.0
 40
0.0
 40
0.0
 40
0.0
 40
1.0
 40
1.0
 40
1.0
 40
1.0
 10
90.2898703434605
 20
124.925377949245
 30
0.0
 10
90.33987584240424
 20
124.8943421750259
 30
0.0
 10
90.38987591306865
 20
124.8632975299984
 30
0.0
 10
90.43987034685378
 20
124.8322439342181
 30
0.0
  0
LINE
  5
18A
330
1F
100
AcDbEntity
  8
0
  6
HIDDEN
 62
     7
370
    18
100
AcDbLine
 10
169.4840743759
 20
104.8307536479
 30
0.0
 11
169.4840743759
 21
113.2307533484
 31
0.0
  0
LINE
  5
18B
330
1F
100
AcDbEntity
  8
0
  6
HIDDEN
 62
     7
370
    18
100
AcDbLine
 10
170.039869062
 20
105.8879959241
 30
0.0
 11
170.039869062
 21
104.9824577134
 31
0.0
  0
LINE
  5
18C
330
1F
100
AcDbEntity
  8
0
  6
HIDDEN
 62
     7
370
    18
100
AcDbLine
 10
170.039869062
 20
103.9057533566
 30
0.0
 11
170.039869062
 21
104.9824577134
 31
0.0
  0
LINE
  5
18D
330
1F
100
AcDbEntity
  8
0
  6
HIDDEN
 62
     7
370
    18
100
AcDbLine
 10
170.039869062
 20
105.8879959241
 30
0.0
 11
170.039869062
 21
114.1557536397
 31
0.0
  0
SPLINE
  5
18E
330
1F
100
AcDbEntity
  8
0
  6
HIDDEN
 62
     7
370
    18
100
AcDbSpline
210
0.0
220
0.0
230
1.0
 70
     8
 71
     3
 72
    54
 73
    50
 74
     0
 42
0.000000001
 43
0.00000001
 40
0.0
 40
0.0
 40
0.0
 40
0.0
 40
0.0624999999999996
 40
0.0624999999999996
 40
0.1249999999999992
 40
0.1249999999999992
 40
0.156249999999999
 40
0.156249999999999
 40
0.1874999999999988
 40
0.1874999999999988
 40
0.2187499999999985
 40
0.2187499999999985
 40
0.2499999999999983
 40
0.2499999999999983
 40
0.2812499999999981
 40
0.2812499999999981
 40
0.3124999999999979
 40
0.3124999999999979
 40
0.3749999999999974
 40
0.3749999999999974
 40
0.4374999999999969
 40
0.4374999999999969
 40
0.4999999999999965
 40
0.4999999999999965
 40
0.562499999999996
 40
0.562499999999996
 40
0.5937499999999958
 40
0.5937499999999958
 40
0.6249999999999954
 40
0.6249999999999954
 40
0.6562499999999951
 40
0.6562499999999951
 40
0.6874999999999948
 40
0.6874999999999948
 40
0.7187499999999944
 40
0.7187499999999944
 40
0.7499999999999942
 40
0.7499999999999942
 40
0.7812499999999939
 40
0.7812499999999939
 40
0.8124999999999936
 40
0.8124999999999936
 40
0.8749999999999946
 40
0.8749999999999946
 40
0.9062499999999959
 40
0.9062499999999959
 40
0.9374999999999973
 40
0.9374999999999973
 40
1.0
 40
1.0
 40
1.0
 40
1.0
 10
170.0398703434605
 20
113.0790494898013
 30
0.0
 10
170.1165291977174
 20
113.2270399564337
 30
0.0
 10
170.2324712330938
 20
113.3495032460874
 30
0.0
 10
170.5367915004265
 20
113.5532922637369
 30
0.0
 10
170.7197058314962
 20
113.6306687930275
 30
0.0
 10
171.0341981750227
 20
113.7178292575161
 30
0.0
 10
171.1437301494935
 20
113.7414730203817
 30
0.0
 10
171.3724387125315
 20
113.7796673817643
 30
0.0
 10
171.4928870396515
 20
113.7943091395487
 30
0.0
 10
171.7383476162528
 20
113.8144256621006
 30
0.0
 10
171.8620695275221
 20
113.8199117929799
 30
0.0
 10
172.1114933887557
 20
113.8223692037465
 30
0.0
 10
172.2386333626713
 20
113.8192208772214
 30
0.0
 10
172.486178483004
 20
113.8040615298262
 30
0.0
 10
172.6067492114807
 20
113.7921741171906
 30
0.0
 10
172.8417755609781
 20
113.758957756963
 30
0.0
 10
172.9564276583751
 20
113.7374477679905
 30
0.0
 10
173.2786997443299
 20
113.6589325848298
 30
0.0
 10
173.4723766249308
 20
113.5860023752135
 30
0.0
 10
173.7911034181336
 20
113.3967086590552
 30
0.0
 10
173.9200013538841
 20
113.277475711244
 30
0.0
 10
174.0931276022947
 20
112.9979520738524
 30
0.0
 10
174.1395035725813
 20
112.8331239416537
 30
0.0
 10
174.1402326296639
 20
112.4805662657555
 30
0.0
 10
174.0947745534233
 20
112.2885323870811
 30
0.0
 10
173.9652210563303
 20
112.006403879784
 30
0.0
 10
173.9111169902445
 20
111.9116266408667
 30
0.0
 10
173.7856076249727
 20
111.7292418265983
 30
0.0
 10
173.7142664428515
 20
111.6412919950382
 30
0.0
 10
173.5544602700768
 20
111.4729706659398
 30
0.0
 10
173.4654507587962
 20
111.3923793007258
 30
0.0
 10
173.2761330916325
 20
111.2460423915866
 30
0.0
 10
173.1751824985384
 20
111.1794913740645
 30
0.0
 10
172.9599910081688
 20
111.0614294977973
 30
0.0
 10
172.8454497843806
 20
111.0100972505763
 30
0.0
 10
172.6118610224647
 20
110.9286739491703
 30
0.0
 10
172.4917035535456
 20
110.8978850300359
 30
0.0
 10
172.2442285352007
 20
110.857954259746
 30
0.0
 10
172.1171439449903
 20
110.8492073635541
 30
0.0
 10
171.8674624479187
 20
110.8550037427607
 30
0.0
 10
171.7433906255508
 20
110.8692389556396
 30
0.0
 10
171.373508171914
 20
110.9459874098737
 30
0.0
 10
171.1409478312555
 20
111.0405734620897
 30
0.0
 10
170.8258195865159
 20
111.230581432604
 30
0.0
 10
170.7279716693051
 20
111.3008819818121
 30
0.0
 10
170.5458271992319
 20
111.4535419518387
 30
0.0
 10
170.4608500923932
 20
111.5367757191016
 30
0.0
 10
170.2337322893076
 20
111.7958841635805
 30
0.0
 10
170.1165772472057
 20
111.9827597848587
 30
0.0
 10
170.0398703434605
 20
112.1735109759876
 30
0.0
  0
LINE
  5
18F
330
1F
100
AcDbEntity
  8
0
  6
HIDDEN
 62
     7
370
    18
100
AcDbLine
 10
175.0398717442
 20
92.0307525743
 30
0.0
 11
175.0398717442
 21
82.0307527978
 31
0.0
  0
LINE
  5
190
330
1F
100
AcDbEntity
  8
0
  6
HIDDEN
 62
     7
370
    18
100
AcDbLine
 10
175.0398717442
 20
126.0307544221
 30
0.0
 11
175.0398717442
 21
136.0307541985
 31
0.0
  0
SPLINE
  5
191
330
1F
100
AcDbEntity
  8
0
  6
HIDDEN
 62
     7
370
    18
100
AcDbSpline
210
0.0
220
0.0
230
1.0
 70
     8
 71
     3
 72
    20
 73
    16
 74
     0
 42
0.000000001
 43
0.00000001
 40
0.0
 40
0.0
 40
0.0
 40
0.0
 40
0.1119039096442565
 40
0.1774229800519908
 40
0.2490443944723428
 40
0.3297926948372248
 40
0.3985649456666439
 40
0.4998444904387535
 40
0.6138094086455247
 40
0.6789751881076457
 40
0.7495015583844759
 40
0.8296473753437076
 40
0.8980909184305855
 40
0.9995011215699842
 40
0.9999999999999999
 40
0.9999999999999999
 40
0.9999999999999999
 40
0.9999999999999999
 10
115.7885907770235
 20
85.43079172562534
 30
0.0
 10
115.7452837847937
 20
85.44421445234907
 30
0.0
 10
115.6766208073969
 20
85.4654961053612
 30
0.0
 10
115.2315285143059
 20
85.56879053360304
 30
0.0
 10
114.7049743862087
 20
85.68208982985972
 30
0.0
 10
114.0195480277534
 20
85.80502476616022
 30
0.0
 10
113.1262311975848
 20
85.92705937530903
 30
0.0
 10
112.012871457247
 20
86.04479506553854
 30
0.0
 10
110.9020972007571
 20
86.05676883291014
 30
0.0
 10
110.0173493172968
 20
86.02971352471329
 30
0.0
 10
109.3501515933709
 20
85.98177962545257
 30
0.0
 10
108.8088830643619
 20
85.92548592704674
 30
0.0
 10
108.4212879882599
 20
85.88040126813075
 30
0.0
 10
108.2273666823916
 20
85.84153359891403
 30
0.0
 10
108.2905040024034
 20
85.85224285903412
 30
0.0
 10
108.2908130803246
 20
85.85229528438026
 30
0.0
  0
LINE
  5
192
330
1F
100
AcDbEntity
  8
0
  6
HIDDEN
 62
     7
370
    18
100
AcDbLine
 10
109.1998826333
 20
85.9630910058
 30
0.0
 11
109.3837275722
 21
85.9812815983
 31
0.0
  0
SPLINE
  5
193
330
1F
100
AcDbEntity
  8
0
  6
HIDDEN
 62
     7
370
    18
100
AcDbSpline
210
0.0
220
0.0
230
1.0
 70
     8
 71
     3
 72
    31
 73
    27
 74
     0
 42
0.000000001
 43
0.00000001
 40
0.0
 40
0.0
 40
0.0
 40
0.0
 40
0.000659268822989
 40
0.0381734606881307
 40
0.0854661669761902
 40
0.1425351062618234
 40
0.1747912073440682
 40
0.2095009586915658
 40
0.2683817032433123
 40
0.3227890748422108
 40
0.3566228189940174
 40
0.3884941073932677
 40
0.4184204188176172
 40
0.4556916498679002
 40
0.5029112931266616
 40
0.560087089745007
 40
0.5924649802208624
 40
0.6273431484579952
 40
0.687242632846834
 40
0.742022499975646
 40
0.7917325082218738
 40
0.8365036236092273
 40
0.8843410432169668
 40
0.9365486106603126
 40
0.9738609307118459
 40
1.0
 40
1.0
 40
1.0
 40
1.0
 10
108.2905225076813
 20
132.2091707337993
 30
0.0
 10
108.2903058081555
 20
132.2092174736788
 30
0.0
 10
108.2777583153256
 20
132.2119238400212
 30
0.0
 10
108.3268312387216
 20
132.2000886495997
 30
0.0
 10
108.4719332106733
 20
132.1766506139419
 30
0.0
 10
108.7449860077289
 20
132.1427421703234
 30
0.0
 10
109.0735117663546
 20
132.1091744653714
 30
0.0
 10
109.4662397481661
 20
132.0709914611545
 30
0.0
 10
110.0159675557092
 20
132.032023363924
 30
0.0
 10
110.6419901877202
 20
132.0125617395401
 30
0.0
 10
111.1851820207265
 20
132.010376580473
 30
0.0
 10
111.6302507940648
 20
132.0188913093108
 30
0.0
 10
112.0966985578428
 20
132.0386748313919
 30
0.0
 10
112.6339399392936
 20
132.0828348541358
 30
0.0
 10
113.2821505076042
 20
132.1552539465881
 30
0.0
 10
113.8676991728742
 20
132.2361545506397
 30
0.0
 10
114.3486455192163
 20
132.3143168577649
 30
0.0
 10
114.7941583395056
 20
132.3991176585017
 30
0.0
 10
115.2320363031527
 20
132.4927100914691
 30
0.0
 10
115.5733244065224
 20
132.5713120682067
 30
0.0
 10
115.7542682932694
 20
132.6194893718239
 30
0.0
 10
115.8088088585574
 20
132.636914561239
 30
0.0
 10
115.7453294546009
 20
132.6176114872655
 30
0.0
 10
115.5627545984991
 20
132.5712872485079
 30
0.0
 10
115.330522706785
 20
132.5171188375044
 30
0.0
 10
115.1629513350933
 20
132.4800330841692
 30
0.0
 10
115.0939195969243
 20
132.4647554505962
 30
0.0
  0
LINE
  5
194
330
1F
100
AcDbEntity
  8
0
  6
HIDDEN
 62
     7
370
    18
100
AcDbLine
 10
174.5398707309
 20
128.5307539005
 30
0.0
 11
174.5398707309
 21
133.5307528574
 31
0.0
  0
LINE
  5
195
330
1F
100
AcDbEntity
  8
0
  6
HIDDEN
 62
     7
370
    18
100
AcDbLine
 10
174.5398707309
 20
89.5307530959
 30
0.0
 11
174.5398707309
 21
84.5307541389
 31
0.0
  0
LINE
  5
196
330
1F
100
AcDbEntity
  8
0
  6
HIDDEN
 62
     7
370
    18
100
AcDbLine
 10
159.0398691216
 20
89.5307530959
 30
0.0
 11
159.0398691216
 21
84.5307541389
 31
0.0
  0
LINE
  5
197
330
1F
100
AcDbEntity
  8
0
  6
HIDDEN
 62
     7
370
    18
100
AcDbLine
 10
159.0398691216
 20
128.5307539005
 30
0.0
 11
159.0398691216
 21
133.5307528574
 31
0.0
  0
ELLIPSE
  5
198
330
1F
100
AcDbEntity
  8
0
  6
HIDDEN
 62
     7
370
    18
100
AcDbEllipse
 10
172.0398703435
 20
116.1018213101
 30
0.0
 11
1.940147018273706
 21
-1.940147018273706
 31
0.0
210
0.0
220
0.0
230
1.0
 40
0.4142135624
 41
5.105088062083425
 42
8.246680715673207
  0
ELLIPSE
  5
199
330
1F
100
AcDbEntity
  8
0
  6
HIDDEN
 62
     7
370
    18
100
AcDbEllipse
 10
172.0398703435
 20
116.1018213101
 30
0.0
 11
1.940147018273706
 21
1.940147018273706
 31
0.0
210
0.0
220
0.0
230
1.0
 40
0.4142135624
 41
1.178097245096171
 42
4.319689898685974
  0
ELLIPSE
  5
19A
330
1F
100
AcDbEntity
  8
0
  6
HIDDEN
 62
     7
370
    18
100
AcDbEllipse
 10
172.0398703435
 20
116.1018213101
 30
0.0
 11
1.940147018273706
 21
1.940147018273706
 31
0.0
210
0.0
220
0.0
230
1.0
 40
0.4142135624
 41
4.319689898685974
 42
7.461282552275757
  0
LINE
  5
19B
330
1F
100
AcDbEntity
  8
0
  6
HIDDEN
 62
     7
370
    18
100
AcDbLine
 10
169.0398707607
 20
116.1018210773
 30
0.0
 11
169.0398707607
 21
118.2018212352
 31
0.0
  0
LINE
  5
19C
330
1F
100
AcDbEntity
  8
0
  6
HIDDEN
 62
     7
370
    18
100
AcDbLine
 10
169.0398707607
 20
114.001821385
 30
0.0
 11
169.0398707607
 21
116.1018210773
 31
0.0
  0
ELLIPSE
  5
19D
330
1F
100
AcDbEntity
  8
0
  6
HIDDEN
 62
     7
370
    18
100
AcDbEllipse
 10
172.0398703435
 20
116.1018213101
 30
0.0
 11
1.940147018273706
 21
-1.940147018273706
 31
0.0
210
0.0
220
0.0
230
1.0
 40
0.4142135624
 41
1.963495408493622
 42
5.105088062083425
  0
LWPOLYLINE
  5
19E
330
1F
100
AcDbEntity
  8
0
  6
HIDDEN
 62
     7
370
    18
100
AcDbPolyline
 90
       23
 70
   128
 43
0.0
 10
172.0398693898
 20
124.5656210307
 10
172.6315088191
 20
124.6257704992
 10
173.1752149382
 20
124.8013471563
 10
173.6269436398
 20
125.0781269122
 10
173.950097672
 20
125.4336853821
 10
174.1184956947
 20
125.8392186214
 10
174.1184956947
 20
126.2618714322
 10
173.950097672
 20
126.6674046714
 10
173.6269436398
 20
127.0229631413
 10
173.1752149382
 20
127.2997428973
 10
172.6315088191
 20
127.4753195543
 10
172.0398693898
 20
127.5354699541
 10
171.4482336857
 20
127.4753195543
 10
170.9045238414
 20
127.2997428973
 10
170.4527951398
 20
127.0229631413
 10
170.1296448329
 20
126.6674046714
 10
169.9612468102
 20
126.2618714322
 10
169.9612468102
 20
125.8392186214
 10
170.1296448329
 20
125.4336853821
 10
170.4527951398
 20
125.0781269122
 10
170.9045238414
 20
124.8013471563
 10
171.4482336857
 20
124.6257704992
 10
172.0398693898
 20
124.5656210307
  0
SPLINE
  5
19F
330
1F
100
AcDbEntity
  8
0
  6
HIDDEN
 62
     7
370
    18
100
AcDbSpline
210
0.0
220
0.0
230
1.0
 70
     8
 71
     3
 72
     8
 73
     4
 74
     0
 42
0.000000001
 43
0.00000001
 40
0.0
 40
0.0
 40
0.0
 40
0.0
 40
0.000159097695343
 40
0.000159097695343
 40
0.000159097695343
 40
0.000159097695343
 10
90.42503835267853
 20
93.22926306215476
 30
0.0
 10
90.3799868821742
 20
93.20128417783098
 30
0.0
 10
90.33493084375938
 20
93.1733126474559
 30
0.0
 10
90.28987034346052
 20
93.1453483081034
 30
0.0
  0
SPLINE
  5
1A0
330
1F
100
AcDbEntity
  8
0
  6
HIDDEN
 62
     7
370
    18
100
AcDbSpline
210
0.0
220
0.0
230
1.0
 70
     8
 71
     3
 72
    11
 73
     7
 74
     0
 42
0.000000001
 43
0.00000001
 40
0.0
 40
0.0
 40
0.0
 40
0.0
 40
0.0008212909311456
 40
0.0008212909311456
 40
0.0008212909311456
 40
0.001642825724306
 40
0.001642825724306
 40
0.001642825724306
 40
0.001642825724306
 10
90.28987034346052
 20
93.1453483081034
 30
0.0
 10
90.09872532197832
 20
93.10206211925085
 30
0.0
 10
89.90730698630186
 20
93.06112560961357
 30
0.0
 10
89.71566091164071
 20
93.02252383822699
 30
0.0
 10
89.52395783009912
 20
92.98391058438989
 30
0.0
 10
89.3320127068136
 20
92.94763037510388
 30
0.0
 10
89.13987034346043
 20
92.91366346875238
 30
0.0
  0
LINE
  5
1A1
330
1F
100
AcDbEntity
  8
0
  6
HIDDEN
 62
     7
370
    18
100
AcDbLine
 10
137.1298703917
 20
129.1666199763
 30
0.0
 11
137.1298703917
 21
128.8807542373
 31
0.0
  0
LINE
  5
1A2
330
1F
100
AcDbEntity
  8
0
  6
HIDDEN
 62
     7
370
    18
100
AcDbLine
 10
140.9498706081
 20
129.1666199763
 30
0.0
 11
140.9498706081
 21
128.8807542373
 31
0.0
  0
LINE
  5
1A3
330
1F
100
AcDbEntity
  8
0
  6
HIDDEN
 62
     7
370
    18
100
AcDbLine
 10
142.4318022647
 20
133.4894431133
 30
0.0
 11
142.4318022647
 21
128.8807542373
 31
0.0
  0
LINE
  5
1A4
330
1F
100
AcDbEntity
  8
0
  6
HIDDEN
 62
     7
370
    18
100
AcDbLine
 10
196.5398668864
 20
105.5307533902
 30
0.0
 11
185.4398727038
 21
105.5307533902
 31
0.0
  0
ARC
  5
1A5
330
1F
100
AcDbEntity
  8
0
  6
HIDDEN
 62
     7
370
    18
100
AcDbCircle
 10
185.4398703435
 20
109.0307534982
 30
0.0
 40
3.5
100
AcDbArc
 50
90.0
 51
270.0
  0
ARC
  5
1A6
330
1F
100
AcDbEntity
  8
0
  6
HIDDEN
 62
     7
370
    18
100
AcDbCircle
 10
196.5398703435
 20
109.0307534982
 30
0.0
 40
3.5
100
AcDbArc
 50
270.0
 51
90.0
  0
LINE
  5
1A7
330
1F
100
AcDbEntity
  8
0
  6
HIDDEN
 62
     7
370
    18
100
AcDbLine
 10
185.4398727038
 20
112.5307536062
 30
0.0
 11
196.5398668864
 21
112.5307536062
 31
0.0
  0
SPLINE
  5
1A8
330
1F
100
AcDbEntity
  8
0
  6
HIDDEN
 62
     7
370
    18
100
AcDbSpline
210
0.0
220
0.0
230
1.0
 70
     8
 71
     3
 72
    24
 73
    20
 74
     0
 42
0.000000001
 43
0.00000001
 40
0.0
 40
0.0
 40
0.0
 40
0.0
 40
0.25
 40
0.25
 40
0.374999999999999
 40
0.374999999999999
 40
0.4374999999999993
 40
0.4374999999999993
 40
0.4687499999999994
 40
0.4687499999999994
 40
0.4999999999999995
 40
0.4999999999999995
 40
0.5624999999999971
 40
0.5624999999999971
 40
0.6249999999999947
 40
0.6249999999999947
 40
0.7499999999999947
 40
0.7499999999999947
 40
1.0
 40
1.0
 40
1.0
 40
1.0
 10
89.20253371818391
 20
89.35620095340569
 30
0.0
 10
89.21628683685415
 20
89.42685101139597
 30
0.0
 10
89.23405940426002
 20
89.49344912416088
 30
0.0
 10
89.28631049581537
 20
89.5675471443941
 30
0.0
 10
89.30734557139692
 20
89.58880495155564
 30
0.0
 10
89.36024597902536
 20
89.59695087770189
 30
0.0
 10
89.38135165190327
 20
89.59601107430612
 30
0.0
 10
89.42740382058125
 20
89.57499508272878
 30
0.0
 10
89.44577429256465
 20
89.56408627662115
 30
0.0
 10
89.48732592763034
 20
89.53145136567377
 30
0.0
 10
89.50989260038725
 20
89.50995938530242
 30
0.0
 10
89.57267361684725
 20
89.4414934417161
 30
0.0
 10
89.60580337781516
 20
89.39541898351101
 30
0.0
 10
89.66272106430017
 20
89.31041109517635
 30
0.0
 10
89.68690708980395
 20
89.27013079399495
 30
0.0
 10
89.75211504018371
 20
89.15519456752902
 30
0.0
 10
89.78683110037494
 20
89.08461158238201
 30
0.0
 10
89.88004637070583
 20
88.8804058233034
 30
0.0
 10
89.92571890606652
 20
88.75750744097604
 30
0.0
 10
89.96402398956505
 20
88.64063416458848
 30
0.0
  0
SPLINE
  5
1A9
330
1F
100
AcDbEntity
  8
0
  6
HIDDEN
 62
     7
370
    18
100
AcDbSpline
210
0.0
220
0.0
230
1.0
 70
     8
 71
     3
 72
    11
 73
     7
 74
     0
 42
0.000000001
 43
0.00000001
 40
0.0
 40
0.0
 40
0.0
 40
0.0
 40
0.0005781862223978
 40
0.0005781862223978
 40
0.0005781862223978
 40
0.0011563724723928
 40
0.0011563724723928
 40
0.0011563724723928
 40
0.0011563724723928
 10
90.1398703434605
 20
121.6708958052332
 30
0.0
 10
89.97320978918488
 20
121.7354253166467
 30
0.0
 10
89.80654649227841
 20
121.7999280204905
 30
0.0
 10
89.63987990844817
 20
121.8644144689242
 30
0.0
 10
89.47321331618909
 20
121.9289009206191
 30
0.0
 10
89.30654345056321
 20
121.9933709293472
 30
0.0
 10
89.13987034346046
 20
122.0578266960798
 30
0.0
  0
SPLINE
  5
1AA
330
1F
100
AcDbEntity
  8
0
  6
HIDDEN
 62
     7
370
    18
100
AcDbSpline
210
0.0
220
0.0
230
1.0
 70
     8
 71
     3
 72
    11
 73
     7
 74
     0
 42
0.000000001
 43
0.00000001
 40
0.0
 40
0.0
 40
0.0
 40
0.0
 40
0.0005778746105108
 40
0.0005778746105108
 40
0.0005778746105108
 40
0.0011557494857226
 40
0.0011557494857226
 40
0.0011557494857226
 40
0.0011557494857226
 10
89.13987034346049
 20
96.00353164269653
 30
0.0
 10
89.30653721987382
 20
96.06934376939039
 30
0.0
 10
89.47320393943528
 20
96.13520224952798
 30
0.0
 10
89.63987058748393
 20
96.20110982245862
 30
0.0
 10
89.80653731200258
 20
96.26701742562899
 30
0.0
 10
89.97320400642317
 20
96.3329745340175
 30
0.0
 10
90.1398703434605
 20
96.3989762739402
 30
0.0
  0
SPLINE
  5
1AB
330
1F
100
AcDbEntity
  8
0
  6
HIDDEN
 62
     7
370
    18
100
AcDbSpline
210
0.0
220
0.0
230
1.0
 70
     8
 71
     3
 72
    11
 73
     7
 74
     0
 42
0.000000001
 43
0.00000001
 40
0.0000000000000006
 40
0.0000000000000006
 40
0.0000000000000006
 40
0.0000000000000006
 40
0.0005780486062768
 40
0.0005780486062768
 40
0.0005780486062768
 40
0.0011560973514127
 40
0.0011560973514127
 40
0.0011560973514127
 40
0.0011560973514127
 10
89.13987034346049
 20
119.0115679998782
 30
0.0
 10
89.3065401995054
 20
118.9491961383637
 30
0.0
 10
89.47320790358967
 20
118.886842278066
 30
0.0
 10
89.63987420804331
 20
118.8245227178799
 30
0.0
 10
89.80654054873706
 20
118.762203144143
 30
0.0
 10
89.97320550536584
 20
118.6999179398234
 30
0.0
 10
90.1398703434605
 20
118.6376928192547
 30
0.0
  0
SPLINE
  5
1AC
330
1F
100
AcDbEntity
  8
0
  6
HIDDEN
 62
     7
370
    18
100
AcDbSpline
210
0.0
220
0.0
230
1.0
 70
     8
 71
     3
 72
    11
 73
     7
 74
     0
 42
0.000000001
 43
0.00000001
 40
0.0
 40
0.0
 40
0.0
 40
0.0
 40
0.0005782401583533
 40
0.0005782401583533
 40
0.0005782401583533
 40
0.0011564805960993
 40
0.0011564805960993
 40
0.0011564805960993
 40
0.0011564805960993
 10
90.1398703434605
 20
99.42992670578876
 30
0.0
 10
89.97321939311159
 20
99.36650124772797
 30
0.0
 10
89.80655980052893
 20
99.30314572407269
 30
0.0
 10
89.63989274810038
 20
99.23984813972271
 30
0.0
 10
89.47322561153656
 20
99.17655052341946
 30
0.0
 10
89.30655100409052
 20
99.1133107284788
 30
0.0
 10
89.13987034346044
 20
99.05011072183994
 30
0.0
  0
CIRCLE
  5
1AD
330
1F
100
AcDbEntity
  8
0
  6
HIDDEN
 62
     7
370
    18
100
AcDbCircle
 10
128.0398703435
 20
109.0307534982
 30
0.0
 40
5.0
  0
LINE
  5
1AE
330
1F
100
AcDbEntity
  8
0
  6
HIDDEN
 62
     7
370
    18
100
AcDbLine
 10
202.0398705819
 20
115.0307535503
 30
0.0
 11
179.6997330704
 21
115.0307535503
 31
0.0
  0
LINE
  5
1AF
330
1F
100
AcDbEntity
  8
0
  6
HIDDEN
 62
     7
370
    18
100
AcDbLine
 10
179.6997330704
 20
103.030753446
 30
0.0
 11
202.0398705819
 21
103.030753446
 31
0.0
  0
LINE
  5
1B0
330
1F
100
AcDbEntity
  8
0
  6
HIDDEN
 62
     7
370
    18
100
AcDbLine
 10
179.6997330704
 20
115.0307535503
 30
0.0
 11
178.7357322493
 21
114.0667536605
 31
0.0
  0
LINE
  5
1B1
330
1F
100
AcDbEntity
  8
0
  6
HIDDEN
 62
     7
370
    18
100
AcDbLine
 10
178.7357322493
 20
103.9947533358
 30
0.0
 11
179.6997330704
 21
103.030753446
 31
0.0
  0
LINE
  5
1B2
330
1F
100
AcDbEntity
  8
0
  6
HIDDEN
 62
     7
370
    18
100
AcDbLine
 10
214.7357344248
 20
114.0882537078
 30
0.0
 11
211.8157848337
 21
109.0307534982
 31
0.0
  0
LINE
  5
1B3
330
1F
100
AcDbEntity
  8
0
  6
HIDDEN
 62
     7
370
    18
100
AcDbLine
 10
211.8157848337
 20
109.0307534982
 30
0.0
 11
214.7357344248
 21
103.9732532885
 31
0.0
  0
LINE
  5
1B4
330
1F
100
AcDbEntity
  8
0
  6
HIDDEN
 62
     7
370
    18
100
AcDbLine
 10
179.7398693481
 20
81.0307526339
 30
0.0
 11
181.0398690024
 21
81.0307526339
 31
0.0
  0
LINE
  5
1B5
330
1F
100
AcDbEntity
  8
0
  6
HIDDEN
 62
     7
370
    18
100
AcDbLine
 10
181.0398690024
 20
93.0307527382
 30
0.0
 11
179.7398693481
 21
93.0307527382
 31
0.0
  0
ARC
  5
1B6
330
1F
100
AcDbEntity
  8
0
  6
HIDDEN
 62
     7
370
    18
100
AcDbCircle
 10
179.3398703435
 20
81.9307534982
 30
0.0
 40
0.4000000000000009
100
AcDbArc
 50
0.0
 51
130.0
  0
ARC
  5
1B7
330
1F
100
AcDbEntity
  8
0
  6
HIDDEN
 62
     7
370
    18
100
AcDbCircle
 10
179.3398703435
 20
92.1307534982
 30
0.0
 40
0.4000000000000118
100
AcDbArc
 50
230.0
 51
0.0
  0
LINE
  5
1B8
330
1F
100
AcDbEntity
  8
0
  6
HIDDEN
 62
     7
370
    18
100
AcDbLine
 10
175.5398690322
 20
82.0307527978
 30
0.0
 11
178.8367546716
 21
82.0307527978
 31
0.0
  0
LINE
  5
1B9
330
1F
100
AcDbEntity
  8
0
  6
HIDDEN
 62
     7
370
    18
100
AcDbLine
 10
178.8367546716
 20
92.0307525743
 30
0.0
 11
175.5398690322
 21
92.0307525743
 31
0.0
  0
LINE
  5
1BA
330
1F
100
AcDbEntity
  8
0
  6
HIDDEN
 62
     7
370
    18
100
AcDbLine
 10
178.8367546716
 20
82.0307527978
 30
0.0
 11
179.0827542164
 21
82.2371711333
 31
0.0
  0
LINE
  5
1BB
330
1F
100
AcDbEntity
  8
0
  6
HIDDEN
 62
     7
370
    18
100
AcDbLine
 10
179.0827542164
 20
91.8243361015
 30
0.0
 11
178.8367546716
 21
92.0307525743
 31
0.0
  0
ARC
  5
1BC
330
1F
100
AcDbEntity
  8
0
  6
HIDDEN
 62
     7
370
    18
100
AcDbCircle
 10
175.5398703435
 20
82.5307534982
 30
0.0
 40
0.5
100
AcDbArc
 50
180.0
 51
270.0
  0
ARC
  5
1BD
330
1F
100
AcDbEntity
  8
0
  6
HIDDEN
 62
     7
370
    18
100
AcDbCircle
 10
175.5398703435
 20
91.5307534982
 30
0.0
 40
0.5
100
AcDbArc
 50
90.0
 51
180.0
  0
LINE
  5
1BE
330
1F
100
AcDbEntity
  8
0
  6
HIDDEN
 62
     7
370
    18
100
AcDbLine
 10
186.0398679593
 20
89.930754279
 30
0.0
 11
185.6398686388
 21
89.5307530959
 31
0.0
  0
LINE
  5
1BF
330
1F
100
AcDbEntity
  8
0
  6
HIDDEN
 62
     7
370
    18
100
AcDbLine
 10
185.6398686388
 20
84.5307541389
 30
0.0
 11
186.0398679593
 21
84.1307529558
 31
0.0
  0
LINE
  5
1C0
330
1F
100
AcDbEntity
  8
0
  6
HIDDEN
 62
     7
370
    18
100
AcDbLine
 10
165.7398707786
 20
90.0307541091
 30
0.0
 11
165.039870105
 21
89.3307534356
 31
0.0
  0
LINE
  5
1C1
330
1F
100
AcDbEntity
  8
0
  6
HIDDEN
 62
     7
370
    18
100
AcDbLine
 10
165.039870105
 20
84.7307537992
 30
0.0
 11
165.7398707786
 21
84.0307531257
 31
0.0
  0
LINE
  5
1C2
330
1F
100
AcDbEntity
  8
0
  6
HIDDEN
 62
     7
370
    18
100
AcDbLine
 10
172.1056431153
 20
84.0307531257
 30
0.0
 11
172.8283419826
 21
84.6371707816
 31
0.0
  0
LINE
  5
1C3
330
1F
100
AcDbEntity
  8
0
  6
HIDDEN
 62
     7
370
    18
100
AcDbLine
 10
172.8283419826
 20
89.4243364532
 30
0.0
 11
172.1056431153
 21
90.0307541091
 31
0.0
  0
LINE
  5
1C4
330
1F
100
AcDbEntity
  8
0
  6
HIDDEN
 62
     7
370
    18
100
AcDbLine
 10
165.7398707786
 20
84.0307531257
 30
0.0
 11
172.1056431153
 21
84.0307531257
 31
0.0
  0
LINE
  5
1C5
330
1F
100
AcDbEntity
  8
0
  6
HIDDEN
 62
     7
370
    18
100
AcDbLine
 10
172.1056431153
 20
90.0307541091
 30
0.0
 11
165.7398707786
 21
90.0307541091
 31
0.0
  0
LINE
  5
1C6
330
1F
100
AcDbEntity
  8
0
  6
HIDDEN
 62
     7
370
    18
100
AcDbLine
 10
182.5398720422
 20
89.5307530959
 30
0.0
 11
181.0377195099
 21
87.0307536174
 31
0.0
  0
LINE
  5
1C7
330
1F
100
AcDbEntity
  8
0
  6
HIDDEN
 62
     7
370
    18
100
AcDbLine
 10
181.0377195099
 20
87.0307536174
 30
0.0
 11
182.5398720422
 21
84.5307541389
 31
0.0
  0
ARC
  5
1C8
330
1F
100
AcDbEntity
  8
0
  6
HIDDEN
 62
     7
370
    18
100
AcDbCircle
 10
174.6398703435
 20
84.3307534982
 30
0.0
 40
0.4000000000000341
100
AcDbArc
 50
0.0
 51
90.0
  0
ARC
  5
1C9
330
1F
100
AcDbEntity
  8
0
  6
HIDDEN
 62
     7
370
    18
100
AcDbCircle
 10
174.6398703435
 20
89.7307534982
 30
0.0
 40
0.4000000000000341
100
AcDbArc
 50
270.0
 51
0.0
  0
ARC
  5
1CA
330
1F
100
AcDbEntity
  8
0
  6
HIDDEN
 62
     7
370
    18
100
AcDbCircle
 10
173.0854584372
 20
84.3307534982
 30
0.0
 40
0.4000000000000057
100
AcDbArc
 50
90.0
 51
130.0
  0
ARC
  5
1CB
330
1F
100
AcDbEntity
  8
0
  6
HIDDEN
 62
     7
370
    18
100
AcDbCircle
 10
173.0854584372
 20
89.7307534982
 30
0.0
 40
0.4000000000000009
100
AcDbArc
 50
230.0
 51
270.0
  0
LINE
  5
1CC
330
1F
100
AcDbEntity
  8
0
  6
HIDDEN
 62
     7
370
    18
100
AcDbLine
 10
173.0854577937
 20
84.7307537992
 30
0.0
 11
174.6398686984
 21
84.7307537992
 31
0.0
  0
LINE
  5
1CD
330
1F
100
AcDbEntity
  8
0
  6
HIDDEN
 62
     7
370
    18
100
AcDbLine
 10
174.6398686984
 20
89.3307534356
 30
0.0
 11
173.0854577937
 21
89.3307534356
 31
0.0
  0
LINE
  5
1CE
330
1F
100
AcDbEntity
  8
0
  6
HIDDEN
 62
     7
370
    18
100
AcDbLine
 10
179.7398693481
 20
125.0307542581
 30
0.0
 11
181.0398690024
 21
125.0307542581
 31
0.0
  0
LINE
  5
1CF
330
1F
100
AcDbEntity
  8
0
  6
HIDDEN
 62
     7
370
    18
100
AcDbLine
 10
181.0398690024
 20
137.0307543625
 30
0.0
 11
179.7398693481
 21
137.0307543625
 31
0.0
  0
ARC
  5
1D0
330
1F
100
AcDbEntity
  8
0
  6
HIDDEN
 62
     7
370
    18
100
AcDbCircle
 10
179.3398703435
 20
125.9307534982
 30
0.0
 40
0.4000000000000118
100
AcDbArc
 50
0.0
 51
130.0
  0
ARC
  5
1D1
330
1F
100
AcDbEntity
  8
0
  6
HIDDEN
 62
     7
370
    18
100
AcDbCircle
 10
179.3398703435
 20
136.1307534982
 30
0.0
 40
0.4000000000000227
100
AcDbArc
 50
230.0
 51
0.0
  0
LINE
  5
1D2
330
1F
100
AcDbEntity
  8
0
  6
HIDDEN
 62
     7
370
    18
100
AcDbLine
 10
175.5398690322
 20
126.0307544221
 30
0.0
 11
178.8367546716
 21
126.0307544221
 31
0.0
  0
LINE
  5
1D3
330
1F
100
AcDbEntity
  8
0
  6
HIDDEN
 62
     7
370
    18
100
AcDbLine
 10
178.8367546716
 20
136.0307541985
 30
0.0
 11
175.5398690322
 21
136.0307541985
 31
0.0
  0
LINE
  5
1D4
330
1F
100
AcDbEntity
  8
0
  6
HIDDEN
 62
     7
370
    18
100
AcDbLine
 10
178.8367546716
 20
126.0307544221
 30
0.0
 11
179.0827542164
 21
126.2371708949
 31
0.0
  0
LINE
  5
1D5
330
1F
100
AcDbEntity
  8
0
  6
HIDDEN
 62
     7
370
    18
100
AcDbLine
 10
179.0827542164
 20
135.8243358631
 30
0.0
 11
178.8367546716
 21
136.0307541985
 31
0.0
  0
ARC
  5
1D6
330
1F
100
AcDbEntity
  8
0
  6
HIDDEN
 62
     7
370
    18
100
AcDbCircle
 10
175.5398703435
 20
126.5307534982
 30
0.0
 40
0.5
100
AcDbArc
 50
180.0
 51
270.0
  0
ARC
  5
1D7
330
1F
100
AcDbEntity
  8
0
  6
HIDDEN
 62
     7
370
    18
100
AcDbCircle
 10
175.5398703435
 20
135.5307534982
 30
0.0
 40
0.5
100
AcDbArc
 50
90.0
 51
180.0
  0
LINE
  5
1D8
330
1F
100
AcDbEntity
  8
0
  6
HIDDEN
 62
     7
370
    18
100
AcDbLine
 10
186.0398679593
 20
133.9307540406
 30
0.0
 11
185.6398686388
 21
133.5307528574
 31
0.0
  0
LINE
  5
1D9
330
1F
100
AcDbEntity
  8
0
  6
HIDDEN
 62
     7
370
    18
100
AcDbLine
 10
185.6398686388
 20
128.5307539005
 30
0.0
 11
186.0398679593
 21
128.1307527174
 31
0.0
  0
LINE
  5
1DA
330
1F
100
AcDbEntity
  8
0
  6
HIDDEN
 62
     7
370
    18
100
AcDbLine
 10
165.7398707786
 20
128.0307528872
 30
0.0
 11
172.1056431153
 21
128.0307528872
 31
0.0
  0
LINE
  5
1DB
330
1F
100
AcDbEntity
  8
0
  6
HIDDEN
 62
     7
370
    18
100
AcDbLine
 10
172.1056431153
 20
134.0307538707
 30
0.0
 11
165.7398707786
 21
134.0307538707
 31
0.0
  0
LINE
  5
1DC
330
1F
100
AcDbEntity
  8
0
  6
HIDDEN
 62
     7
370
    18
100
AcDbLine
 10
172.1056431153
 20
128.0307528872
 30
0.0
 11
172.8283419826
 21
128.6371705432
 31
0.0
  0
LINE
  5
1DD
330
1F
100
AcDbEntity
  8
0
  6
HIDDEN
 62
     7
370
    18
100
AcDbLine
 10
172.8283419826
 20
133.4243362148
 30
0.0
 11
172.1056431153
 21
134.0307538707
 31
0.0
  0
LINE
  5
1DE
330
1F
100
AcDbEntity
  8
0
  6
HIDDEN
 62
     7
370
    18
100
AcDbLine
 10
165.7398707786
 20
134.0307538707
 30
0.0
 11
165.039870105
 21
133.3307531972
 31
0.0
  0
LINE
  5
1DF
330
1F
100
AcDbEntity
  8
0
  6
HIDDEN
 62
     7
370
    18
100
AcDbLine
 10
165.039870105
 20
128.7307535608
 30
0.0
 11
165.7398707786
 21
128.0307528872
 31
0.0
  0
LINE
  5
1E0
330
1F
100
AcDbEntity
  8
0
  6
HIDDEN
 62
     7
370
    18
100
AcDbLine
 10
182.5399055698
 20
133.5308105994
 30
0.0
 11
181.0377195099
 21
131.030753379
 31
0.0
  0
LINE
  5
1E1
330
1F
100
AcDbEntity
  8
0
  6
HIDDEN
 62
     7
370
    18
100
AcDbLine
 10
181.0377195099
 20
131.030753379
 30
0.0
 11
182.5399055698
 21
128.5306961585
 31
0.0
  0
ARC
  5
1E2
330
1F
100
AcDbEntity
  8
0
  6
HIDDEN
 62
     7
370
    18
100
AcDbCircle
 10
174.6398703435
 20
128.3307534982
 30
0.0
 40
0.4000000000000341
100
AcDbArc
 50
0.0
 51
90.0
  0
ARC
  5
1E3
330
1F
100
AcDbEntity
  8
0
  6
HIDDEN
 62
     7
370
    18
100
AcDbCircle
 10
174.6398703435
 20
133.7307534982
 30
0.0
 40
0.4000000000000341
100
AcDbArc
 50
270.0
 51
0.0
  0
ARC
  5
1E4
330
1F
100
AcDbEntity
  8
0
  6
HIDDEN
 62
     7
370
    18
100
AcDbCircle
 10
173.0854584372
 20
128.3307534982
 30
0.0
 40
0.4000000000000009
100
AcDbArc
 50
90.0
 51
130.0
  0
ARC
  5
1E5
330
1F
100
AcDbEntity
  8
0
  6
HIDDEN
 62
     7
370
    18
100
AcDbCircle
 10
173.0854584372
 20
133.7307534982
 30
0.0
 40
0.4000000000000057
100
AcDbArc
 50
230.0
 51
270.0
  0
LINE
  5
1E6
330
1F
100
AcDbEntity
  8
0
  6
HIDDEN
 62
     7
370
    18
100
AcDbLine
 10
173.0854577937
 20
128.7307535608
 30
0.0
 11
174.6398686984
 21
128.7307535608
 31
0.0
  0
LINE
  5
1E7
330
1F
100
AcDbEntity
  8
0
  6
HIDDEN
 62
     7
370
    18
100
AcDbLine
 10
174.6398686984
 20
133.3307531972
 30
0.0
 11
173.0854577937
 21
133.3307531972
 31
0.0
  0
LINE
  5
1E8
330
1F
100
AcDbEntity
  8
0
  6
HIDDEN
 62
     7
370
    18
100
AcDbLine
 10
125.0398705335
 20
123.328589027
 30
0.0
 11
125.0398705335
 21
121.4246937383
 31
0.0
  0
LINE
  5
1E9
330
1F
100
AcDbEntity
  8
0
  6
HIDDEN
 62
     7
370
    18
100
AcDbLine
 10
133.0398704478
 20
121.4246937383
 30
0.0
 11
133.0398704478
 21
123.3313839261
 31
0.0
  0
LINE
  5
1EA
330
1F
100
AcDbEntity
  8
0
  6
HIDDEN
 62
     7
370
    18
100
AcDbLine
 10
121.0398703435
 20
83.7068223704
 30
0.0
 11
121.1340311157
 21
84.3768102426
 31
0.0
  0
LINE
  5
1EB
330
1F
100
AcDbEntity
  8
0
  6
HIDDEN
 62
     7
370
    18
100
AcDbLine
 10
121.1340311157
 20
133.6846967537
 30
0.0
 11
121.0398703435
 21
134.354684626
 31
0.0
  0
ARC
  5
1EC
330
1F
100
AcDbEntity
  8
0
  6
HIDDEN
 62
     7
370
    18
100
AcDbCircle
 10
120.5398635908
 20
84.4603158838
 30
0.0
 40
0.60000675266771
100
AcDbArc
 50
352.0
 51
0.0
  0
ARC
  5
1ED
330
1F
100
AcDbEntity
  8
0
  6
HIDDEN
 62
     7
370
    18
100
AcDbCircle
 10
120.5398635908
 20
84.4603158838
 30
0.0
 40
0.6000067526677124
100
AcDbArc
 50
0.0
 51
33.5571153394
  0
ARC
  5
1EE
330
1F
100
AcDbEntity
  8
0
  6
HIDDEN
 62
     7
370
    18
100
AcDbCircle
 10
120.5398635908
 20
133.6011911126
 30
0.0
 40
0.6000067526677081
100
AcDbArc
 50
348.75
 51
8.0
  0
LWPOLYLINE
  5
1EF
330
1F
100
AcDbEntity
  8
0
  6
HIDDEN
 62
     7
370
    18
100
AcDbPolyline
 90
        3
 70
   128
 43
0.0
 10
121.1283413824
 20
133.4841364373
 10
121.0941975506
 20
133.3715786536
 10
121.0398703435
 20
133.2695261885
  0
LINE
  5
1F0
330
1F
100
AcDbEntity
  8
0
  6
HIDDEN
 62
     7
370
    18
100
AcDbLine
 10
121.1398703409
 20
84.46031635
 30
0.0
 11
121.1398703409
 21
133.6011906464
 31
0.0
  0
LINE
  5
1F1
330
1F
100
AcDbEntity
  8
0
  6
HIDDEN
 62
     7
370
    18
100
AcDbLine
 10
104.1223063686
 20
89.0307539452
 30
0.0
 11
108.3139778667
 21
89.0307539452
 31
0.0
  0
LINE
  5
1F2
330
1F
100
AcDbEntity
  8
0
  6
HIDDEN
 62
     7
370
    18
100
AcDbLine
 10
108.3139778667
 20
129.0307530512
 30
0.0
 11
104.1223063686
 21
129.0307530512
 31
0.0
  0
ARC
  5
1F3
330
1F
100
AcDbEntity
  8
0
  6
HIDDEN
 62
     7
370
    18
100
AcDbCircle
 10
104.1223059088
 20
89.6307534982
 30
0.0
 40
0.6000000000000085
100
AcDbArc
 50
210.0
 51
270.0
  0
ARC
  5
1F4
330
1F
100
AcDbEntity
  8
0
  6
HIDDEN
 62
     7
370
    18
100
AcDbCircle
 10
104.1223059088
 20
128.4307534982
 30
0.0
 40
0.6000000000000227
100
AcDbArc
 50
90.0
 51
150.0
  0
ARC
  5
1F5
330
1F
100
AcDbEntity
  8
0
  6
HIDDEN
 62
     7
370
    18
100
AcDbCircle
 10
114.7948723451
 20
97.0307534982
 30
0.0
 40
7.999999999999998
100
AcDbArc
 50
276.8732270492
 51
321.3178125465
  0
ARC
  5
1F6
330
1F
100
AcDbEntity
  8
0
  6
HIDDEN
 62
     7
370
    18
100
AcDbCircle
 10
114.7948723451
 20
121.0307534982
 30
0.0
 40
8.000000000000004
100
AcDbArc
 50
38.6821874535
 51
83.1166693865
  0
LINE
  5
1F7
330
1F
100
AcDbEntity
  8
0
  6
HIDDEN
 62
     7
370
    18
100
AcDbLine
 10
152.5148704269
 20
127.0072815318
 30
0.0
 11
152.5148704269
 21
117.5160344068
 31
0.0
  0
LINE
  5
1F8
330
1F
100
AcDbEntity
  8
0
  6
HIDDEN
 62
     7
370
    18
100
AcDbLine
 10
157.5148693838
 20
117.5160344068
 30
0.0
 11
157.5148693838
 21
127.0072815318
 31
0.0
  0
LINE
  5
1F9
330
1F
100
AcDbEntity
  8
0
  6
HIDDEN
 62
     7
370
    18
100
AcDbLine
 10
157.5148693838
 20
91.0542254646
 30
0.0
 11
157.5148693838
 21
100.5454725895
 31
0.0
  0
LINE
  5
1FA
330
1F
100
AcDbEntity
  8
0
  6
HIDDEN
 62
     7
370
    18
100
AcDbLine
 10
152.5148704269
 20
100.5454725895
 30
0.0
 11
152.5148704269
 21
91.0542254646
 31
0.0
  0
LINE
  5
1FB
330
1F
100
AcDbEntity
  8
0
  6
HIDDEN
 62
     7
370
    18
100
AcDbLine
 10
103.6026898393
 20
128.7307535608
 30
0.0
 11
102.0438458392
 21
126.0307544221
 31
0.0
  0
LINE
  5
1FC
330
1F
100
AcDbEntity
  8
0
  6
HIDDEN
 62
     7
370
    18
100
AcDbLine
 10
102.0438458392
 20
92.0307525743
 30
0.0
 11
103.6026898393
 21
89.3307534356
 31
0.0
  0
LINE
  5
1FD
330
1F
100
AcDbEntity
  8
0
  6
HIDDEN
 62
     7
370
    18
100
AcDbLine
 10
125.0398705335
 20
136.3050864388
 30
0.0
 11
125.0398705335
 21
132.9763551552
 31
0.0
  0
LINE
  5
1FE
330
1F
100
AcDbEntity
  8
0
  6
HIDDEN
 62
     7
370
    18
100
AcDbLine
 10
133.0398704478
 20
132.9763551552
 30
0.0
 11
133.0398704478
 21
136.3104191918
 31
0.0
  0
ARC
  5
1FF
330
1F
100
AcDbEntity
  8
0
  6
HIDDEN
 62
     7
370
    18
100
AcDbCircle
 10
129.4898703435
 20
93.3057534982
 30
0.0
 40
1.500000000000001
100
AcDbArc
 50
238.2116693829
 51
0.0
  0
ARC
  5
200
330
1F
100
AcDbEntity
  8
0
  6
HIDDEN
 62
     7
370
    18
100
AcDbCircle
 10
129.4898703435
 20
124.7557534982
 30
0.0
 40
1.500000000000001
100
AcDbArc
 50
0.0
 51
121.7883306171
  0
LINE
  5
201
330
1F
100
AcDbEntity
  8
0
  6
HIDDEN
 62
     7
370
    18
100
AcDbLine
 10
99.2398701229
 20
92.0307525743
 30
0.0
 11
102.0438458392
 21
92.0307525743
 31
0.0
  0
LINE
  5
202
330
1F
100
AcDbEntity
  8
0
  6
HIDDEN
 62
     7
370
    18
100
AcDbLine
 10
102.0438458392
 20
126.0307544221
 30
0.0
 11
95.2398694673
 21
126.0307544221
 31
0.0
  0
LINE
  5
203
330
1F
100
AcDbEntity
  8
0
  6
HIDDEN
 62
     7
370
    18
100
AcDbLine
 10
121.0398703435
 20
92.0307525743
 30
0.0
 11
128.6996963055
 21
92.0307525743
 31
0.0
  0
LINE
  5
204
330
1F
100
AcDbEntity
  8
0
  6
HIDDEN
 62
     7
370
    18
100
AcDbLine
 10
128.6996963055
 20
126.0307544221
 30
0.0
 11
121.0398703435
 21
126.0307544221
 31
0.0
  0
LINE
  5
205
330
1F
100
AcDbEntity
  8
0
  6
HIDDEN
 62
     7
370
    18
100
AcDbLine
 10
181.0398690024
 20
124.2457834382
 30
0.0
 11
180.8457105973
 21
122.8642576684
 31
0.0
  0
LINE
  5
206
330
1F
100
AcDbEntity
  8
0
  6
HIDDEN
 62
     7
370
    18
100
AcDbLine
 10
180.8457105973
 20
95.197249328
 30
0.0
 11
181.0398690024
 21
93.8157235582
 31
0.0
  0
ARC
  5
207
330
1F
100
AcDbEntity
  8
0
  6
HIDDEN
 62
     7
370
    18
100
AcDbCircle
 10
181.4398703435
 20
95.2807534982
 30
0.0
 40
0.6000000000000008
100
AcDbArc
 50
168.75
 51
188.0
  0
ARC
  5
208
330
1F
100
AcDbEntity
  8
0
  6
HIDDEN
 62
     7
370
    18
100
AcDbCircle
 10
181.4398703435
 20
95.2807534982
 30
0.0
 40
0.6000000000000008
100
AcDbArc
 50
131.8103148958
 51
168.75
  0
ARC
  5
209
330
1F
100
AcDbEntity
  8
0
  6
HIDDEN
 62
     7
370
    18
100
AcDbCircle
 10
181.4398703435
 20
122.7807534982
 30
0.0
 40
0.5999999999999943
100
AcDbArc
 50
172.0
 51
180.0
  0
ARC
  5
20A
330
1F
100
AcDbEntity
  8
0
  6
HIDDEN
 62
     7
370
    18
100
AcDbCircle
 10
181.4398703435
 20
122.7807534982
 30
0.0
 40
0.5999999999999943
100
AcDbArc
 50
180.0
 51
228.1896851042
  0
LINE
  5
20B
330
1F
100
AcDbEntity
  8
0
  6
HIDDEN
 62
     7
370
    18
100
AcDbLine
 10
180.8398693421
 20
122.7807534237
 30
0.0
 11
180.8398693421
 21
95.2807535727
 31
0.0
  0
LINE
  5
20C
330
1F
100
AcDbEntity
  8
0
  6
HIDDEN
 62
     7
370
    18
100
AcDbLine
 10
174.1398714104
 20
99.8383649934
 30
0.0
 11
174.1398714104
 21
100.4747609917
 31
0.0
  0
LINE
  5
20D
330
1F
100
AcDbEntity
  8
0
  6
HIDDEN
 62
     7
370
    18
100
AcDbLine
 10
169.9398710945
 20
100.4747609917
 30
0.0
 11
169.9398710945
 21
99.8383649934
 31
0.0
  0
LINE
  5
20E
330
1F
100
AcDbEntity
  8
0
  6
HIDDEN
 62
     7
370
    18
100
AcDbLine
 10
139.8398700723
 20
99.5307538037
 30
0.0
 11
142.839870564
 21
99.5307538037
 31
0.0
  0
LINE
  5
20F
330
1F
100
AcDbEntity
  8
0
  6
HIDDEN
 62
     7
370
    18
100
AcDbLine
 10
142.839870564
 20
118.5307531927
 30
0.0
 11
139.8398700723
 21
118.5307531927
 31
0.0
  0
LINE
  5
210
330
1F
100
AcDbEntity
  8
0
  6
HIDDEN
 62
     7
370
    18
100
AcDbLine
 10
202.0398705819
 20
104.0596856114
 30
0.0
 11
173.5247961798
 21
104.0596856114
 31
0.0
  0
LINE
  5
211
330
1F
100
AcDbEntity
  8
0
  6
HIDDEN
 62
     7
370
    18
100
AcDbLine
 10
173.5247961798
 20
99.8596857611
 30
0.0
 11
202.0398705819
 21
99.8596857611
 31
0.0
  0
LINE
  5
212
330
1F
100
AcDbEntity
  8
0
  6
HIDDEN
 62
     7
370
    18
100
AcDbLine
 10
170.5549463251
 20
104.0596856114
 30
0.0
 11
169.0398707607
 21
104.0596856114
 31
0.0
  0
LINE
  5
213
330
1F
100
AcDbEntity
  8
0
  6
HIDDEN
 62
     7
370
    18
100
AcDbLine
 10
169.0398707607
 20
99.8596857611
 30
0.0
 11
170.5549463251
 21
99.8596857611
 31
0.0
  0
LINE
  5
214
330
1F
100
AcDbEntity
  8
0
  6
HIDDEN
 62
     7
370
    18
100
AcDbLine
 10
169.0398707607
 20
104.0596856114
 30
0.0
 11
167.7780627825
 21
101.9596859191
 31
0.0
  0
LINE
  5
215
330
1F
100
AcDbEntity
  8
0
  6
HIDDEN
 62
     7
370
    18
100
AcDbLine
 10
167.7780627825
 20
101.9596859191
 30
0.0
 11
169.0398707607
 21
99.8596857611
 31
0.0
  0
LINE
  5
216
330
1F
100
AcDbEntity
  8
0
  6
HIDDEN
 62
     7
370
    18
100
AcDbLine
 10
130.9898702049
 20
100.0307538856
 30
0.0
 11
131.4898702868
 21
100.5307530363
 31
0.0
  0
LINE
  5
217
330
1F
100
AcDbEntity
  8
0
  6
HIDDEN
 62
     7
370
    18
100
AcDbLine
 10
131.4898702868
 20
117.5307539601
 30
0.0
 11
130.9898702049
 21
118.0307531108
 31
0.0
  0
LINE
  5
218
330
1F
100
AcDbEntity
  8
0
  6
HIDDEN
 62
     7
370
    18
100
AcDbLine
 10
174.1398714104
 20
103.4446099151
 30
0.0
 11
174.1398714104
 21
105.4149029155
 31
0.0
  0
LINE
  5
219
330
1F
100
AcDbEntity
  8
0
  6
HIDDEN
 62
     7
370
    18
100
AcDbLine
 10
169.9398710945
 20
105.5131916732
 30
0.0
 11
169.9398710945
 21
103.4446099151
 31
0.0
  0
LINE
  5
21A
330
1F
100
AcDbEntity
  8
0
  6
HIDDEN
 62
     7
370
    18
100
AcDbLine
 10
131.4898702868
 20
100.5307530363
 30
0.0
 11
139.8398700723
 21
100.5307530363
 31
0.0
  0
LINE
  5
21B
330
1F
100
AcDbEntity
  8
0
  6
HIDDEN
 62
     7
370
    18
100
AcDbLine
 10
139.8398700723
 20
117.5307539601
 30
0.0
 11
131.4898702868
 21
117.5307539601
 31
0.0
  0
LINE
  5
21C
330
1F
100
AcDbEntity
  8
0
  6
HIDDEN
 62
     7
370
    18
100
AcDbLine
 10
125.9898703166
 20
140.5307540048
 30
0.0
 11
125.9898703166
 21
135.4307533551
 31
0.0
  0
ARC
  5
21D
330
1F
100
AcDbEntity
  8
0
  6
HIDDEN
 62
     7
370
    18
100
AcDbCircle
 10
201.2398703435
 20
101.7307534982
 30
0.0
 40
0.8000000000000114
100
AcDbArc
 50
0.0
 51
90.0
  0
ARC
  5
21E
330
1F
100
AcDbEntity
  8
0
  6
HIDDEN
 62
     7
370
    18
100
AcDbCircle
 10
201.2398703435
 20
116.3307534982
 30
0.0
 40
0.8000000000000114
100
AcDbArc
 50
270.0
 51
0.0
  0
LINE
  5
21F
330
1F
100
AcDbEntity
  8
0
  6
HIDDEN
 62
     7
370
    18
100
AcDbLine
 10
196.5398668864
 20
115.5307536323
 30
0.0
 11
195.7136869052
 21
114.1557536397
 31
0.0
  0
LINE
  5
220
330
1F
100
AcDbEntity
  8
0
  6
HIDDEN
 62
     7
370
    18
100
AcDbLine
 10
195.7136869052
 20
103.9057533566
 30
0.0
 11
196.5398668864
 21
102.5307533641
 31
0.0
  0
LINE
  5
221
330
1F
100
AcDbEntity
  8
0
  6
HIDDEN
 62
     7
370
    18
100
AcDbLine
 10
196.5398668864
 20
102.5307533641
 30
0.0
 11
201.2398719409
 21
102.5307533641
 31
0.0
  0
LINE
  5
222
330
1F
100
AcDbEntity
  8
0
  6
HIDDEN
 62
     7
370
    18
100
AcDbLine
 10
201.2398719409
 20
115.5307536323
 30
0.0
 11
196.5398668864
 21
115.5307536323
 31
0.0
  0
LINE
  5
223
330
1F
100
AcDbEntity
  8
0
  6
HIDDEN
 62
     7
370
    18
100
AcDbLine
 10
170.039869062
 20
114.1557536397
 30
0.0
 11
169.4840743759
 21
113.2307533484
 31
0.0
  0
LINE
  5
224
330
1F
100
AcDbEntity
  8
0
  6
HIDDEN
 62
     7
370
    18
100
AcDbLine
 10
169.4840743759
 20
104.8307536479
 30
0.0
 11
170.039869062
 21
103.9057533566
 31
0.0
  0
LINE
  5
225
330
1F
100
AcDbEntity
  8
0
  6
HIDDEN
 62
     7
370
    18
100
AcDbLine
 10
170.039869062
 20
103.9057533566
 30
0.0
 11
195.7136869052
 21
103.9057533566
 31
0.0
  0
LINE
  5
226
330
1F
100
AcDbEntity
  8
0
  6
HIDDEN
 62
     7
370
    18
100
AcDbLine
 10
195.7136869052
 20
114.1557536397
 30
0.0
 11
170.039869062
 21
114.1557536397
 31
0.0
  0
LINE
  5
227
330
1F
100
AcDbEntity
  8
0
  6
HIDDEN
 62
     7
370
    18
100
AcDbLine
 10
181.0398690024
 20
92.0307525743
 30
0.0
 11
175.0398717442
 21
92.0307525743
 31
0.0
  0
LINE
  5
228
330
1F
100
AcDbEntity
  8
0
  6
HIDDEN
 62
     7
370
    18
100
AcDbLine
 10
175.0398717442
 20
82.0307527978
 30
0.0
 11
181.0398690024
 21
82.0307527978
 31
0.0
  0
LINE
  5
229
330
1F
100
AcDbEntity
  8
0
  6
HIDDEN
 62
     7
370
    18
100
AcDbLine
 10
181.0398690024
 20
136.0307541985
 30
0.0
 11
175.0398717442
 21
136.0307541985
 31
0.0
  0
LINE
  5
22A
330
1F
100
AcDbEntity
  8
0
  6
HIDDEN
 62
     7
370
    18
100
AcDbLine
 10
175.0398717442
 20
126.0307544221
 30
0.0
 11
181.0398690024
 21
126.0307544221
 31
0.0
  0
LINE
  5
22B
330
1F
100
AcDbEntity
  8
0
  6
HIDDEN
 62
     7
370
    18
100
AcDbLine
 10
116.2243081809
 20
84.9513822545
 30
0.0
 11
115.7898760022
 21
85.4304489989
 31
0.0
  0
LINE
  5
22C
330
1F
100
AcDbEntity
  8
0
  6
HIDDEN
 62
     7
370
    18
100
AcDbLine
 10
108.2898724445
 20
85.8521369595
 30
0.0
 11
107.807438969
 21
85.3730702151
 31
0.0
  0
LINE
  5
22D
330
1F
100
AcDbEntity
  8
0
  6
HIDDEN
 62
     7
370
    18
100
AcDbLine
 10
107.8073169657
 20
132.6884311933
 30
0.0
 11
108.2898677879
 21
132.2093104322
 31
0.0
  0
LINE
  5
22E
330
1F
100
AcDbEntity
  8
0
  6
HIDDEN
 62
     7
370
    18
100
AcDbLine
 10
115.7898704142
 20
132.6310095687
 30
0.0
 11
116.224412489
 21
133.1101284672
 31
0.0
  0
LINE
  5
22F
330
1F
100
AcDbEntity
  8
0
  6
HIDDEN
 62
     7
370
    18
100
AcDbLine
 10
142.839870564
 20
104.8307536479
 30
0.0
 11
169.4840743759
 21
104.8307536479
 31
0.0
  0
LINE
  5
230
330
1F
100
AcDbEntity
  8
0
  6
HIDDEN
 62
     7
370
    18
100
AcDbLine
 10
169.4840743759
 20
113.2307533484
 30
0.0
 11
142.839870564
 21
113.2307533484
 31
0.0
  0
LINE
  5
231
330
1F
100
AcDbEntity
  8
0
  6
HIDDEN
 62
     7
370
    18
100
AcDbLine
 10
115.7898704142
 20
85.430931424
 30
0.0
 11
115.7898704142
 21
89.0953523416
 31
0.0
  0
LINE
  5
232
330
1F
100
AcDbEntity
  8
0
  6
HIDDEN
 62
     7
370
    18
100
AcDbLine
 10
108.2898705819
 20
89.0351311613
 30
0.0
 11
108.2898705819
 21
85.8524591972
 31
0.0
  0
LINE
  5
233
330
1F
100
AcDbEntity
  8
0
  6
HIDDEN
 62
     7
370
    18
100
AcDbLine
 10
115.7898704142
 20
128.9661546547
 30
0.0
 11
115.7898704142
 21
132.6307171334
 31
0.0
  0
LINE
  5
234
330
1F
100
AcDbEntity
  8
0
  6
HIDDEN
 62
     7
370
    18
100
AcDbLine
 10
108.2898705819
 20
132.2091670085
 30
0.0
 11
108.2898705819
 21
129.0263758351
 31
0.0
  0
LINE
  5
235
330
1F
100
AcDbEntity
  8
0
  6
HIDDEN
 62
     7
370
    18
100
AcDbLine
 10
175.0398717442
 20
134.0307538707
 30
0.0
 11
174.5398707309
 21
133.5307528574
 31
0.0
  0
LINE
  5
236
330
1F
100
AcDbEntity
  8
0
  6
HIDDEN
 62
     7
370
    18
100
AcDbLine
 10
174.5398707309
 20
128.5307539005
 30
0.0
 11
175.0398717442
 21
128.0307528872
 31
0.0
  0
LINE
  5
237
330
1F
100
AcDbEntity
  8
0
  6
HIDDEN
 62
     7
370
    18
100
AcDbLine
 10
175.0398717442
 20
90.0307541091
 30
0.0
 11
174.5398707309
 21
89.5307530959
 31
0.0
  0
LINE
  5
238
330
1F
100
AcDbEntity
  8
0
  6
HIDDEN
 62
     7
370
    18
100
AcDbLine
 10
174.5398707309
 20
84.5307541389
 30
0.0
 11
175.0398717442
 21
84.0307531257
 31
0.0
  0
LINE
  5
239
330
1F
100
AcDbEntity
  8
0
  6
HIDDEN
 62
     7
370
    18
100
AcDbLine
 10
159.0398691216
 20
89.5307530959
 30
0.0
 11
157.5377203145
 21
87.0307536174
 31
0.0
  0
LINE
  5
23A
330
1F
100
AcDbEntity
  8
0
  6
HIDDEN
 62
     7
370
    18
100
AcDbLine
 10
157.5377203145
 20
87.0307536174
 30
0.0
 11
159.0398691216
 21
84.5307541389
 31
0.0
  0
LINE
  5
23B
330
1F
100
AcDbEntity
  8
0
  6
HIDDEN
 62
     7
370
    18
100
AcDbLine
 10
159.0398691216
 20
133.5307528574
 30
0.0
 11
157.5377203145
 21
131.030753379
 31
0.0
  0
LINE
  5
23C
330
1F
100
AcDbEntity
  8
0
  6
HIDDEN
 62
     7
370
    18
100
AcDbLine
 10
157.5377203145
 20
131.030753379
 30
0.0
 11
159.0398691216
 21
128.5307539005
 31
0.0
  0
LINE
  5
23D
330
1F
100
AcDbEntity
  8
0
  6
HIDDEN
 62
     7
370
    18
100
AcDbLine
 10
174.5398707309
 20
89.5307530959
 30
0.0
 11
159.0398691216
 21
89.5307530959
 31
0.0
  0
LINE
  5
23E
330
1F
100
AcDbEntity
  8
0
  6
HIDDEN
 62
     7
370
    18
100
AcDbLine
 10
159.0398691216
 20
84.5307541389
 30
0.0
 11
174.5398707309
 21
84.5307541389
 31
0.0
  0
LINE
  5
23F
330
1F
100
AcDbEntity
  8
0
  6
HIDDEN
 62
     7
370
    18
100
AcDbLine
 10
174.5398707309
 20
133.5307528574
 30
0.0
 11
159.0398691216
 21
133.5307528574
 31
0.0
  0
LINE
  5
240
330
1F
100
AcDbEntity
  8
0
  6
HIDDEN
 62
     7
370
    18
100
AcDbLine
 10
159.0398691216
 20
128.5307539005
 30
0.0
 11
174.5398707309
 21
128.5307539005
 31
0.0
  0
LINE
  5
241
330
1F
100
AcDbEntity
  8
0
  6
HIDDEN
 62
     7
370
    18
100
AcDbLine
 10
174.1398714104
 20
112.6466040809
 30
0.0
 11
174.1398714104
 21
114.6168970812
 31
0.0
  0
LINE
  5
242
330
1F
100
AcDbEntity
  8
0
  6
HIDDEN
 62
     7
370
    18
100
AcDbLine
 10
169.9398710945
 20
114.6168970812
 30
0.0
 11
169.9398710945
 21
112.5483153232
 31
0.0
  0
LINE
  5
243
330
1F
100
AcDbEntity
  8
0
  6
HIDDEN
 62
     7
370
    18
100
AcDbLine
 10
202.0398705819
 20
118.2018212352
 30
0.0
 11
173.5247961798
 21
118.2018212352
 31
0.0
  0
LINE
  5
244
330
1F
100
AcDbEntity
  8
0
  6
HIDDEN
 62
     7
370
    18
100
AcDbLine
 10
173.5247961798
 20
114.001821385
 30
0.0
 11
202.0398705819
 21
114.001821385
 31
0.0
  0
LINE
  5
245
330
1F
100
AcDbEntity
  8
0
  6
HIDDEN
 62
     7
370
    18
100
AcDbLine
 10
170.5549463251
 20
118.2018212352
 30
0.0
 11
169.0398707607
 21
118.2018212352
 31
0.0
  0
LINE
  5
246
330
1F
100
AcDbEntity
  8
0
  6
HIDDEN
 62
     7
370
    18
100
AcDbLine
 10
169.0398707607
 20
114.001821385
 30
0.0
 11
170.5549463251
 21
114.001821385
 31
0.0
  0
LINE
  5
247
330
1F
100
AcDbEntity
  8
0
  6
HIDDEN
 62
     7
370
    18
100
AcDbLine
 10
169.0398707607
 20
118.2018212352
 30
0.0
 11
167.7780627825
 21
116.1018210773
 31
0.0
  0
LINE
  5
248
330
1F
100
AcDbEntity
  8
0
  6
HIDDEN
 62
     7
370
    18
100
AcDbLine
 10
167.7780627825
 20
116.1018210773
 30
0.0
 11
169.0398707607
 21
114.001821385
 31
0.0
  0
LINE
  5
249
330
1F
100
AcDbEntity
  8
0
  6
HIDDEN
 62
     7
370
    18
100
AcDbLine
 10
174.1398714104
 20
117.5867460046
 30
0.0
 11
174.1398714104
 21
126.0505450268
 31
0.0
  0
LINE
  5
24A
330
1F
100
AcDbEntity
  8
0
  6
HIDDEN
 62
     7
370
    18
100
AcDbLine
 10
169.9398710945
 20
126.0505450268
 30
0.0
 11
169.9398710945
 21
117.5867460046
 31
0.0
  0
DIMENSION
  5
24B
330
1F
100
AcDbEntity
  8
VERMASSUNG
100
AcDbDimension
  2
_D
 10
81.3444903622
 20
77.5307534982
 30
0.0
 11
81.3444903622
 21
109.0307534982
 31
0.0
 70
   160
  1
HSK A %%c<>
 71
     2
 42
-1.0
  3
SLDDIMSTYLE0
100
AcDbAlignedDimension
 13
121.3398703435
 23
140.5307534982
 33
0.0
 14
121.3398703435
 24
77.5307534982
 34
0.0
 50
90.0
100
AcDbRotatedDimension
  0
DIMENSION
  5
258
330
1F
100
AcDbEntity
  8
VERMASSUNG
100
AcDbDimension
  2
_D_1
 10
230.7357327878
 20
95.5307534982
 30
0.0
 11
230.7357327878
 21
109.0307534982
 31
0.0
 70
   160
  1
%%c<>
 71
     2
 42
-1.0
  3
SLDDIMSTYLE0
100
AcDbAlignedDimension
 13
201.2398703435
 23
122.5307534982
 33
0.0
 14
201.2398703435
 24
95.5307534982
 34
0.0
 50
90.0
100
AcDbRotatedDimension
  0
DIMENSION
  5
263
330
1F
100
AcDbEntity
  8
VERMASSUNG
100
AcDbDimension
  2
_D_2
 10
236.7357327878
 20
80.0307534982
 30
0.0
 11
236.7357327878
 21
109.0307534982
 31
0.0
 70
   160
  1
%%c<>
 71
     2
 42
-1.0
  3
SLDDIMSTYLE0
100
AcDbAlignedDimension
 13
180.2398703435
 23
138.0307534982
 33
0.0
 14
180.2398703435
 24
80.0307534982
 34
0.0
 50
90.0
100
AcDbRotatedDimension
  0
DIMENSION
  5
26E
330
1F
100
AcDbEntity
  8
VERMASSUNG
100
AcDbDimension
  2
_D_3
 10
181.0398703435
 20
150.5307534982
 30
0.0
 11
164.0148703435
 21
150.5307534982
 31
0.0
 70
   160
  1
<>
 71
     2
 42
-1.0
  3
SLDDIMSTYLE0
100
AcDbAlignedDimension
 13
146.9898703435
 23
138.877193822
 33
0.0
 14
181.0398703435
 24
137.2307534982
 34
0.0
100
AcDbRotatedDimension
  0
DIMENSION
  5
278
330
1F
100
AcDbEntity
  8
VERMASSUNG
100
AcDbDimension
  2
_D_4
 10
181.0398703435
 20
156.5307534982
 30
0.0
 11
151.0398703435
 21
156.5307534982
 31
0.0
 70
   160
  1
<>
 71
     2
 42
-1.0
  3
SLDDIMSTYLE0
100
AcDbAlignedDimension
 13
121.0398703435
 23
140.2307534982
 33
0.0
 14
181.0398703435
 24
137.2307534982
 34
0.0
100
AcDbRotatedDimension
  0
DIMENSION
  5
282
330
1F
100
AcDbEntity
  8
VERMASSUNG
100
AcDbDimension
  2
_D_5
 10
202.0398703435
 20
150.5307534982
 30
0.0
 11
191.5398703435
 21
150.5307534982
 31
0.0
 70
   160
  1
<>
 71
     2
 42
-1.0
  3
SLDDIMSTYLE0
100
AcDbAlignedDimension
 13
181.0398703435
 23
137.2307534982
 33
0.0
 14
202.0398703435
 24
121.7307534982
 34
0.0
100
AcDbRotatedDimension
  0
DIMENSION
  5
28C
330
1F
100
AcDbEntity
  8
VERMASSUNG
100
AcDbDimension
  2
_D_6
 10
202.0398703435
 20
162.5307534982
 30
0.0
 11
145.5898703435
 21
162.5307534982
 31
0.0
 70
   160
  1
<>
 71
     2
 42
-1.0
  3
SLDDIMSTYLE0
100
AcDbAlignedDimension
 13
89.1398703435
 23
128.7214312447
 33
0.0
 14
202.0398703435
 24
121.7307534982
 34
0.0
100
AcDbRotatedDimension
  0
LINE
  5
296
330
1F
100
AcDbEntity
  8
VERMASSUNG
  6
CENTERX2
370
    18
100
AcDbLine
 10
85.456495183
 20
109.0307534982
 30
0.0
 11
222.1453359198
 21
109.0307534982
 31
0.0
  0
OLE2FRAME
  5
297
330
1F
100
AcDbEntity
  8
0
100
AcDbOle2Frame
 70
     2
  3
Paintbrush-Bild
 10
13.8511154363
 20
38.264191557
 30
0.0
 11
51.6290888628
 21
31.9806341108
 31
0.0
 71
     2
 72
     0
 73
     1
 90
    12928
310
80552BED0767C5B32B40DDAF6807D121434000000000000000006FFBDDFB85D0
310
4940DDAF6807D121434000000000000000006FFBDDFB85D04940416F4BD60AFB
310
3F4000000000000000002BED0767C5B32B40416F4BD60AFB3F40000000000000
310
0000000000000100000000010000010000000100000000000100000000320000
310
D0CF11E0A1B11AE1000000000000000000000000000000003E000300FEFF0900
310
0600000000000000000000000100000001000000000000000010000002000000
310
01000000FEFFFFFF0000000000000000FFFFFFFFFFFFFFFFFFFFFFFFFFFFFFFF
310
FFFFFFFFFFFFFFFFFFFFFFFFFFFFFFFFFFFFFFFFFFFFFFFFFFFFFFFFFFFFFFFF
310
FFFFFFFFFFFFFFFFFFFFFFFFFFFFFFFFFFFFFFFFFFFFFFFFFFFFFFFFFFFFFFFF
310
FFFFFFFFFFFFFFFFFFFFFFFFFFFFFFFFFFFFFFFFFFFFFFFFFFFFFFFFFFFFFFFF
310
FFFFFFFFFFFFFFFFFFFFFFFFFFFFFFFFFFFFFFFFFFFFFFFFFFFFFFFFFFFFFFFF
310
FFFFFFFFFFFFFFFFFFFFFFFFFFFFFFFFFFFFFFFFFFFFFFFFFFFFFFFFFFFFFFFF
310
FFFFFFFFFFFFFFFFFFFFFFFFFFFFFFFFFFFFFFFFFFFFFFFFFFFFFFFFFFFFFFFF
310
FFFFFFFFFFFFFFFFFFFFFFFFFFFFFFFFFFFFFFFFFFFFFFFFFFFFFFFFFFFFFFFF
310
FFFFFFFFFFFFFFFFFFFFFFFFFFFFFFFFFFFFFFFFFFFFFFFFFFFFFFFFFFFFFFFF
310
FFFFFFFFFFFFFFFFFFFFFFFFFFFFFFFFFFFFFFFFFFFFFFFFFFFFFFFFFFFFFFFF
310
FFFFFFFFFFFFFFFFFFFFFFFFFFFFFFFFFFFFFFFFFFFFFFFFFFFFFFFFFFFFFFFF
310
FFFFFFFFFFFFFFFFFFFFFFFFFFFFFFFFFFFFFFFFFFFFFFFFFFFFFFFFFFFFFFFF
310
FFFFFFFFFFFFFFFFFFFFFFFFFFFFFFFFFFFFFFFFFFFFFFFFFFFFFFFFFFFFFFFF
310
FFFFFFFFFFFFFFFFFFFFFFFFFFFFFFFFFFFFFFFFFFFFFFFFFFFFFFFFFFFFFFFF
310
FDFFFFFFFEFFFFFFFEFFFFFFFEFFFFFF05000000060000000700000008000000
310
090000000A0000000B0000000C0000000D0000000E0000000F00000010000000
310
11000000120000001300000014000000150000001600000017000000FEFFFFFF
310
FFFFFFFFFFFFFFFFFFFFFFFFFFFFFFFFFFFFFFFFFFFFFFFFFFFFFFFFFFFFFFFF
310
FFFFFFFFFFFFFFFFFFFFFFFFFFFFFFFFFFFFFFFFFFFFFFFFFFFFFFFFFFFFFFFF
310
FFFFFFFFFFFFFFFFFFFFFFFFFFFFFFFFFFFFFFFFFFFFFFFFFFFFFFFFFFFFFFFF
310
FFFFFFFFFFFFFFFFFFFFFFFFFFFFFFFFFFFFFFFFFFFFFFFFFFFFFFFFFFFFFFFF
310
FFFFFFFFFFFFFFFFFFFFFFFFFFFFFFFFFFFFFFFFFFFFFFFFFFFFFFFFFFFFFFFF
310
FFFFFFFFFFFFFFFFFFFFFFFFFFFFFFFFFFFFFFFFFFFFFFFFFFFFFFFFFFFFFFFF
310
FFFFFFFFFFFFFFFFFFFFFFFFFFFFFFFFFFFFFFFFFFFFFFFFFFFFFFFFFFFFFFFF
310
FFFFFFFFFFFFFFFFFFFFFFFFFFFFFFFFFFFFFFFFFFFFFFFFFFFFFFFFFFFFFFFF
310
FFFFFFFFFFFFFFFFFFFFFFFFFFFFFFFFFFFFFFFFFFFFFFFFFFFFFFFFFFFFFFFF
310
FFFFFFFFFFFFFFFFFFFFFFFFFFFFFFFFFFFFFFFFFFFFFFFFFFFFFFFFFFFFFFFF
310
FFFFFFFFFFFFFFFFFFFFFFFFFFFFFFFFFFFFFFFFFFFFFFFFFFFFFFFFFFFFFFFF
310
FFFFFFFFFFFFFFFFFFFFFFFFFFFFFFFFFFFFFFFFFFFFFFFFFFFFFFFFFFFFFFFF
310
FFFFFFFFFFFFFFFFFFFFFFFFFFFFFFFFFFFFFFFFFFFFFFFFFFFFFFFFFFFFFFFF
310
52006F006F007400200045006E00740072007900000000000000000000000000
310
0000000000000000000000000000000000000000000000000000000000000000
310
16000500FFFFFFFFFFFFFFFF020000000A00030000000000C000000000000046
310
00000000000000000000000020BC92DE35A7D30103000000C000000000000000
310
01004F006C006500000000000000000000000000000000000000000000000000
310
0000000000000000000000000000000000000000000000000000000000000000
310
0A000200FFFFFFFFFFFFFFFFFFFFFFFF00000000000000000000000000000000
310
0000000000000000000000000000000000000000000000001400000000000000
310
010043006F006D0070004F0062006A0000000000000000000000000000000000
310
0000000000000000000000000000000000000000000000000000000000000000
310
120002010100000003000000FFFFFFFF00000000000000000000000000000000
310
0000000000000000000000000000000000000000010000004D00000000000000
310
01004F006C006500310030004E00610074006900760065000000000000000000
310
0000000000000000000000000000000000000000000000000000000000000000
310
1A000200FFFFFFFFFFFFFFFFFFFFFFFF00000000000000000000000000000000
310
0000000000000000000000000000000000000000040000002426000000000000
310
FEFFFFFF02000000FEFFFFFFFFFFFFFFFFFFFFFFFFFFFFFFFFFFFFFFFFFFFFFF
310
FFFFFFFFFFFFFFFFFFFFFFFFFFFFFFFFFFFFFFFFFFFFFFFFFFFFFFFFFFFFFFFF
310
FFFFFFFFFFFFFFFFFFFFFFFFFFFFFFFFFFFFFFFFFFFFFFFFFFFFFFFFFFFFFFFF
310
FFFFFFFFFFFFFFFFFFFFFFFFFFFFFFFFFFFFFFFFFFFFFFFFFFFFFFFFFFFFFFFF
310
FFFFFFFFFFFFFFFFFFFFFFFFFFFFFFFFFFFFFFFFFFFFFFFFFFFFFFFFFFFFFFFF
310
FFFFFFFFFFFFFFFFFFFFFFFFFFFFFFFFFFFFFFFFFFFFFFFFFFFFFFFFFFFFFFFF
310
FFFFFFFFFFFFFFFFFFFFFFFFFFFFFFFFFFFFFFFFFFFFFFFFFFFFFFFFFFFFFFFF
310
FFFFFFFFFFFFFFFFFFFFFFFFFFFFFFFFFFFFFFFFFFFFFFFFFFFFFFFFFFFFFFFF
310
FFFFFFFFFFFFFFFFFFFFFFFFFFFFFFFFFFFFFFFFFFFFFFFFFFFFFFFFFFFFFFFF
310
FFFFFFFFFFFFFFFFFFFFFFFFFFFFFFFFFFFFFFFFFFFFFFFFFFFFFFFFFFFFFFFF
310
FFFFFFFFFFFFFFFFFFFFFFFFFFFFFFFFFFFFFFFFFFFFFFFFFFFFFFFFFFFFFFFF
310
FFFFFFFFFFFFFFFFFFFFFFFFFFFFFFFFFFFFFFFFFFFFFFFFFFFFFFFFFFFFFFFF
310
FFFFFFFFFFFFFFFFFFFFFFFFFFFFFFFFFFFFFFFFFFFFFFFFFFFFFFFFFFFFFFFF
310
FFFFFFFFFFFFFFFFFFFFFFFFFFFFFFFFFFFFFFFFFFFFFFFFFFFFFFFFFFFFFFFF
310
FFFFFFFFFFFFFFFFFFFFFFFFFFFFFFFFFFFFFFFFFFFFFFFFFFFFFFFFFFFFFFFF
310
FFFFFFFFFFFFFFFFFFFFFFFFFFFFFFFFFFFFFFFFFFFFFFFFFFFFFFFFFFFFFFFF
310
0100000200000000000000000000000000000000000000000000000000000000
310
0000000000000000000000000000000000000000000000000000000000000000
310
0100FEFF030A0000FFFFFFFF0A00030000000000C00000000000004607000000
310
5042727573680007000000504272757368000700000050427275736800F439B2
310
7100000000000000000000000000000000000000000000000000000000000000
310
0000000000000000000000000000000000000000000000000000000000000000
310
0000000000000000000000000000000000000000000000000000000000000000
310
0000000000000000000000000000000000000000000000000000000000000000
310
0000000000000000000000000000000000000000000000000000000000000000
310
0000000000000000000000000000000000000000000000000000000000000000
310
0000000000000000000000000000000000000000000000000000000000000000
310
0000000000000000000000000000000000000000000000000000000000000000
310
0000000000000000000000000000000000000000000000000000000000000000
310
0000000000000000000000000000000000000000000000000000000000000000
310
0000000000000000000000000000000000000000000000000000000000000000
310
0000000000000000000000000000000000000000000000000000000000000000
310
20260000424D0E260000000000003E00000028000000B40200006E0000000100
310
01000000000000000000130B0000130B00000200000002000000000000FFFFFF
310
FFFFFFFFFFFFFFFFFFFFFFFFFFFFFFFFFFFFFFFFFFFFFFFFFFFFFFFFFFFFFFFF
310
FFFFFFFFFFFFFFFFFFFFFFFFFFFFFFFFFFFFFFFFFFFFFFFFFFFFFFFFFFFFFFFF
310
FFFFFFFFFFFFFFFFFFFFFFFFFFFFFFFFFFFFFFFFFFFFFFFFF000FFFFFFFFFFFF
310
FFFFFFFFFFFFFFFFFFFFFFFFFFFFFFFFFFFFFFFFFFFFFFFFFFFFFFFFFFFFFFFF
310
FFFFFFFFFFFFFFFFFFFFFFFFFFFFFFFFFFFFFFFFFFFFFFFFFFFFFFFFFFFFFFFF
310
FFFFFFFFFFFFFFFFFFFFFFFFFFFFFFFFF000FFFFFFFFFFFFFFFFFFFFFFFFFFFF
310
FFFFFFFFFFFFFFFFFFFFFFFFFFFFFFFFFFFFFFFFFFFFFFFFFFFFFFFFFFFFFFFF
310
FFFFFFFFFFFFFFFFFFFFFFFFFFFFFFFFFFFFFFFFFFFFFFFFFFFFFFFFFFFFFFFF
310
FFFFFFFFFFFFFFFFF000FFFFFFFFFFFFFFFFFFFFFFFFFFFFFFFFFFFFFFFFFFFF
310
FFFFFFFFFFFFFFFFFFFFFFFFFFFFFFFFFFFFFFFFFFFFFFFFFFFFFFFFFFFFFFFF
310
FFFFFFFFFFFFFFFFFFFFFFFFFFFFFFFFFFFFFFFFFFFFFFFFFFFFFFFFFFFFFFFF
310
F000FFFFFFFFFFFFFFFFFFFFFFFFFFFFFFFFFFFFFFFFFFFFFFFFFFFFFFFFFFFF
310
FFFFFFFFFFFFFFFFFFFFFFFFFFFFFFFFFFFFFFFFFFFFFFFFFFFFFFFFFFFFFFFF
310
FFFFFFFFFFFFFFFFFFFFFFFFFFFFFFFFFFFFFFFFFFFFFFFFF000FFFFFFFFFFFF
310
FFFFFFFFFFFFFFFFFFFFFFFFFFFFFFFFFFFFFFFFFFFFFFFFFFFFFFFFFFFFFFFF
310
FFFFFFFFFFFFFFFFFFFFFFFFFFFFFFFFFFFFFFFFFFFFFFFFFFFFFFFFFFFFFFFF
310
FFFFFFFFFFFFFFFFFFFFFFFFFFFFFFFFF000FFFFFFFFFFFFFFFFFFFFFFFFFFFF
310
FFFFFFFFFFFFFFFFFFFFFFFFFFFFFFFFFFFFFFFFFFFFFFFFFFFFFFFFFFFFFFFF
310
FFFFFFFFFFFFFFFFFFFFFFFFFFFFFFFFFFFFFFFFFFFFFFFFFFFFFFFFFFFFFFFF
310
FFFFFFFFFFFFFFFFF000FFFFFFFFFFFFFFFFFFFFFFFFFFFFFFFFFFFFFFFFFFFF
310
FFFFFFFFFFFFFFFFFFFFFFFFFFFFFFFFFFFFFFFFFFFFFFFFFFFFFFFFFFFFFFFF
310
FFFFFFFFFFFFFFFFFFFFFFFFFFFFFFFFFFFFFFFFFFFFFFFFFFFFFFFFFFFFFFFF
310
F000FFFFFFFFFFFFFFFFFFFFFFFFFFFFFFFFFFFFFFFFFFFFFFFFFFFFFFFFFFFF
310
FFFFFFFFFFFFFFFFFFFFFFFFFFFFFFFFFFFFFFFFFFFFFFFFFFFFFFFFFFFFFFFF
310
FFFFFFFFFFFFFFFFFFFFFFFFFFFFFFFFFFFFFFFFFFFFFFFFF000FFFFFFFFFFFF
310
FFFFFFFFFFFFFFFFFFFFFFFFFFFFFFFFFFFFFFFFFFFFFFFFFFFFFFFFFFFFFFFF
310
FFFFFFFFFFFFFFFFFFFFFFFFFFFFFFFFFFFFFFFFFFFFFFFFFFFFFFFFFFFFFFFF
310
FFFFFFFFFFFFFFFFFFFFFFFFFFFFFFFFF000FFFFFFFFFFFFFFFFFFFFFFFFFFFF
310
FFFFFFFFFFFFFFFFFFFFFFFFFFFFFFFFFFFFFFFFFFFFFFFFFFFFFFFFFFFFFFFF
310
FFFFFFFFFFFFFFFFFFFFFFFFFFFFFFFFFFFFFFFFFFFFFFFFFFFFFFFFFFFFFFFF
310
FFFFFFFFFFFFFFFFF000FFFFFFFFFFFFFFFFFFFFFFFFFFFFFFFFFFFFFFFFFFFF
310
FFFFFFFFFFFFFFFFFFFFFFFFFFFFFFFFFFFFFFFFFFFFFFFFFFFFFFFFFFFFFFFF
310
FFFFFFFFFFFFFFFFFFFFFFFFFFFFFFFFFFFFFFFFFFFFFFFFFFFFFFFFFFFFFFFF
310
F000FFFFFFFFFFFFFFFFFFFFFFFFFFFFFFFFFFFFFFFFFFFFFFFFFFFFFFFFFFFF
310
FFFFFFFFFFFFFFFFFFFFFFFFFFFFFFFFFFFFFFFFFFFFFFFFFFFFFFFFFFFFFFFF
310
FFFFFFFFFFFFFFFFFFFFFFFFFFFFFFFFFFFFFFFFFFFFFFFFF000FFFFFFFFFFFF
310
FFFFFFFFFFFFFFFFFFFFFFFFFFFFFFFFFFFFFFFFFFFFFFFFFFFFFFFFFFFFFFFF
310
FFFFFFFFFFFFFFFFFFFFFFFFFFFFFFFFFFFFFFFFFFFFFFFFFFFFFFFFFFFFFFFF
310
FFFFFFFFFFFFFFFFFFFFFFFFFFFFFFFFF000FFFFFFFFFFFFFFFFFFFFFFFFFFFF
310
FFFFFFFFFFFFFFFFFFFFFFFFFFFFFFFFFFFFFFFFFFFFFFFFFFFFFFFFFFFFFFFF
310
FFFFFFFFFFFFFFFFFFFFFFFFFFFFFFFFFFFFFFFFFFFFFFFFFFFFFFFFFFFFFFFF
310
FFFFFFFFFFFFFFFFF000FFFFFFFFFFFFFFFFFFFFFFFFFFFFFFFFFFFFFFFFFFFF
310
FFFFFFFFFFFFFFFFFFFFFFFFFFFFFFFFFFFFFFFFFFFFFFFFFFFFFFFFFFFFFFFF
310
FFFFFFFFFFFFFFFFFFFFFFFFFFFFFFFFFFFFFFFFFFFFFFFFFFFFFFFFFFFFFFFF
310
F000FFFFFFFFFFFFFFFFFFFFFFFFFFFFFFFFFFFFFFFFFFFFFFFFFFFFFFFFFFFF
310
FFFFFFFFFFFFFFFFFFFFFFFFFFFFFFFFFFFFFFFFFFFFFFFFFFFFFFFFFFFFFFFF
310
FFFFFFFFFFFFFFFFFFFFFFFFFFFFFFFFFFFFFFFFFFFFFFFFF000FFFFFFFFFFFF
310
FFFFFFFFFFFFFFFFFFFFFFFFFFFFFFFFFFFFFFFFFFFFFFFFFFFFFFFFFFFFFFFF
310
FFFFFFFFFFFFFFFFFFFFFFFFFFFFFFFFFFFFFFFFFFFFFFFFFFFFFFFFFFFFFFFF
310
FFFFFFFFFFFFFFFFFFFFFFFFFFFFFFFFF000FFFFFFFFFFFFFFFFFFFFFFFFFFFF
310
FFFFFFFFFFFFFFFFFFFFFFFFFFFFFFFFFFFFFFFFFFFFFFFFFFFFFFFFFFFFFFFF
310
FFFFFFFFFFFFFFFFFFFFFFFFFFFFFFFFFFFFFFFFFFFFFFFFFFFFFFFFFFFFFFFF
310
FFFFFFFFFFFFFFFFF000FFFFF80003FFFFFFFFFFFFFFFFFFFFFFFFFFFFFFFFFF
310
FFFFF00007FFFFFFFFFF00007FFFFFF800000000000000007FFFFFFFFFFFFFFF
310
FFFFFFFC001FFFFFFFFFFFFFFC001FFFFFFFFFFFFFFFFFFFFFFFFFFE0007FFFF
310
F000FFFF8000007FFFFFFFF8000FFFFFC0007FFFFF80007FFFFF0000007FFFFF
310
FFF8000007FFFFF800000000000000007FFFFFF0001FFFFFFFFFFFC00001FFFF
310
FFFFFFFFC00001FFFFFFFF000000000003FFFFE000007FFFF000FFFE0000000F
310
FFFFFFF0000FFFFF80007FFFFF80007FFFFC0000001FFFFFFFC0000001FFFFF8
310
00000000000000007FFFFFF0001FFFFFFFFFFE0000003FFFFFFFFFFE0000003F
310
FFFFFF000000000003FFFF0000000FFFF000FFF800000003FFFFFFF00007FFFF
310
80007FFFFF80007FFFF000000007FFFFFF000000003FFFF80000000000000000
310
7FFFFFF0001FFFFFFFFFF80000000FFFFFFFFFF80000000FFFFFFF0000000000
310
03FFFC00000003FFF000FFE000000000FFFFFFF00007FFFF80003FFFFF80007F
310
FFC000000001FFFFFC000000001FFFF800000000000000007FFFFFF0001FFFFF
310
FFFFE000000003FFFFFFFFE000000003FFFFFF000000000003FFF000000000FF
310
F000FF80000000007FFFFFF00007FFFF80003FFFFF80007FFF8000000000FFFF
310
F80000000007FFF800000000000000007FFFFFF0001FFFFFFFFFC000000001FF
310
FFFFFFC000000001FFFFFF000000000003FFC0000000007FF000FF0000000000
310
3FFFFFE00007FFFF00003FFFFF80007FFE00000000003FFFF00000000003FFF8
310
00000000000000007FFFFFF0001FFFFFFFFF8000000000FFFFFFFF8000000000
310
FFFFFF000000000003FF80000000003FF000FE00000000001FFFFFE00003FFFF
310
00003FFFFF80007FFC00000000001FFFE00000000001FFF8000001FFFE000000
310
7FFFFFF0001FFFFFFFFE00000000003FFFFFFE00000000003FFFFF0000000000
310
03FF00000000001FF000FC00000000000FFFFFE00003FFFF00001FFFFF80007F
310
F800000000001FFFC00000000000FFF8000001FFFE0000007FFFFFF0001FFFFF
310
FFFC00000000001FFFFFFC00000000001FFFFF000000000003FE00000000000F
310
F000F8000000000007FFFFE00003FFFF00001FFFFF80007FF800000000000FFF
310
800000000000FFF8000001FFFE0000007FFFFFF0001FFFFFFFF800000000000F
310
FFFFF800000000000FFFFF000000000003FC000000000007F000F80000000000
310
03FFFFC00003FFFE00001FFFFF80007FF0000000000007FF0000000000007FF8
310
000001FFFE0000007FFFFFF0001FFFFFFFF0000000000007FFFFF00000000000
310
07FFFF000000000003F8000000000003F000F0000000000003FFFFC00001FFFE
310
00001FFFFF80007FE0000000000007FE0000000000003FF8000001FFFE000000
310
7FFFFFF0001FFFFFFFF0000000000007FFFFF0000000000007FFFF0000000000
310
03F800001F800003F000E00001FFF00001FFFFC00001FFFE00000FFFFF80007F
310
E00001FFE00003FE00001FFF00003FF8000001FFFE0000007FFFFFF0001FFFFF
310
FFE000003E000003FFFFE000003E000003FFFF000000000003F00001FFF80001
310
F000E00007FFFC0001FFFFC00001FFFE00000FFFFF80007FC0000FFFFC0003FC
310
0000FFFFC0001FF8000001FFFE0000007FFFFFF0001FFFFFFFC00003FFE00001
310
FFFFC00003FFE00001FFFF0001FFFFFFFFF00007FFFE0001F000E0000FFFFF00
310
00FFFF800001FFFC00000FFFFF80007FC0001FFFFE0001FC0001FFFFE0001FF8
310
000001FFFE0000007FFFFFF0001FFFFFFF80000FFFF80000FFFF80000FFFF800
310
00FFFF0003FFFFFFFFE0000FFFFF8000F000C0003FFFFF8000FFFF800000FFFC
310
000007FFFF80007F80003FFFFF0001FC0003FFFFF0001FF8000001FFFE000000
310
7FFFFFF0001FFFFFFF80003FFFFE0000FFFF80003FFFFE0000FFFF0003FFFFFF
310
FFE0003FFFFF8000F000C0003FFFFF8000FFFF800000FFFC000007FFFF80007F
310
80007FFFFF8001F80007FFFFF8000FF8000001FFFE0000007FFFFFF0001FFFFF
310
FF00007FFFFF00007FFF00007FFFFF00007FFF0003FFFFFFFFE0003FFFFFC000
310
F000C0007FFFFFC000FFFF000000FFFC000007FFFF80007F8000FFFFFF8000F8
310
000FFFFFF8000FF8000001FFFE0000007FFFFFF0001FFFFFFF0000FFFFFF8000
310
7FFF0000FFFFFF80007FFF0003FFFFFFFFC0007FFFFFC00070008000FFFFFFC0
310
00FFFF000000FFF8000007FFFF80007F8000FFFFFF8000F8000FFFFFF8000FF8
310
000001FFFE0000007FFFFFF0001FFFFFFE0001FFFFFFC0003FFE0001FFFFFFC0
310
003FFF0003FFFFFFFFC0007FFFFFE00070008000FFFFFFC0007FFF0000007FF8
310
000003FFFF80007F0001FFFFFF8000F8000FFFFFF8000FF8000001FFFE000000
310
7FFFFFF0001FFFFFFE0001FFFFFFC0003FFE0001FFFFFFC0003FFF0003FFFFFF
310
FFC000FFFFFFE00070008000FFFFFFC0007FFF0000007FF8000003FFFF80007F
310
0001FFFFFF8000F8001FFFFFF8000FF8000001FFFE0000007FFFFFF0001FFFFF
310
FE0003FFFFFFE0003FFE0003FFFFFFE0003FFF0003FFFFFFFFC000FFFFFFE000
310
70008000FFFFFFC0007FFE0000007FF8000003FFFF80007F0001FFFFFF8000F0
310
001FFFFFF8000FF8000001FFFE0000007FFFFFF0001FFFFFFC0003FFFFFFE000
310
1FFC0003FFFFFFE0001FFF0003FFFFFFFFC000FFFFFFC00070008000FFFFFF80
310
007FFE0000007FF0000003FFFF80007F0001FFFFFF0000F0001FFFFFF8000FF8
310
000001FFFE0000007FFFFFF0001FFFFFFC0007FFFFFFF0001FFC0007FFFFFFF0
310
001FFF0003FFFFFFFFC000FFFFFFC00070008001FFFFFF0000FFFE0000003FF0
310
000001FFFF80007F0001FFFFFF0000F8001FFFFFF0000FF8000001FFFE000000
310
7FFFFFF0001FFFFFFC0007FFFFFFF0001FFC0007FFFFFFF0001FFF0003FFFFFF
310
FFC001FFFFFF80007000FFFFFFFFFE0000FFFE0008003FF0008001FFFF80007F
310
FFFFFFFFFC0000FFFFFFFFFFE0000FF8000001FFFE0000007FFFFFF0001FFFFF
310
F8000FFFFFFFF8000FF8000FFFFFFFF8000FFF0003FFFFFFFFFFFFFFFFFF0000
310
7000FFFFFFFFFC0000FFFC0008003FF0008001FFFF80007FFFFFFFFFF80001FF
310
FFFFFFFF80000FF8000001FFFE0000007FFFFFF0001FFFFFF8000FFFFFFFF800
310
0FF8000FFFFFFFF8000FFF0003FFFFFFFFFFFFFFFFFE0000F000FFFFFFFFE000
310
00FFFC000C003FE000C001FFFF80007FFFFFFFFFC00001FFFFFFFFFE00001FF8
310
000001FFFE0000007FFFFFF0001FFFFFF8000FFFFFFFF8000FF8000FFFFFFFF8
310
000FFF0003FFFFFFFFFFFFFFFFF00000F000FFFFFFFE000001FFFC000C001FE0
310
00C000FFFF80007FFFFFFFFE000001FFFFFFFFE000001FF80FFFFFFFFFFFFFC0
310
7FFFFFF0001FFFFFF8000FFFFFFFF8000FF8000FFFFFFFF8000FFF0003FFFFFF
310
FFFFFFFFFF800000F000FFFFFFC0000001FFFC001C001FE001C000FFFF80007F
310
FFFFFF80000003FFFFFFF80000001FF80FFFFFFFFFFFFFC07FFFFFF0001FFFFF
310
F8001FFFFFFFFC000FF8001FFFFFFFFC000FFF0003FFFFFFFFFFFFFFF0000001
310
F000FFFFF800000001FFF8001C001FE001C000FFFF80007FFFFFF800000003FF
310
FFFF800000003FF80FFFFFFFFFFFFFC07FFFFFF0001FFFFFF8001FFFFFFFFC00
310
0FF8001FFFFFFFFC000FFF0003FFFFFFFFFFFFFE00000001F000FFFFC0000000
310
03FFF8001E001FC001E000FFFF80007FFFFF8000000007FFFFFC000000003FF8
310
0FFFFFFFFFFFFFC07FFFFFF0001FFFFFF8001FFFFFFFFC000FF8001FFFFFFFFC
310
000FFF0003FFFFFFFFFFFFE000000003F000FFFE0000000007FFF8001E000FC0
310
01E0007FFF80007FFFFE0000000007FFFFE0000000007FF80FFFFFFFFFFFFFC0
310
7FFFFFF0001FFFFFF0001FFFFFFFFC0007F0001FFFFFFFFC0007FF0003FFFFFF
310
FFFFFF0000000003F000FFF80000000007FFF8001E000FC003E0007FFF80007F
310
FFF0000000000FFFFF8000000000FFF80FFFFFFFFFFFFFC07FFFFFF0001FFFFF
310
F0001FFFFFFFFC0007F0001FFFFFFFFC0007FF0003FFFFFFFFFFFC0000000007
310
F000FFE0000000000FFFF0003E000FC003E0007FFF80007FFFC0000000001FFF
310
FE0000000001FFF80FFFFFFFFFFFFFC07FFFFFF0001FFFFFF0001FFFFFFFFC00
310
07F0001FFFFFFFFC0007FF0003FFFFFFFFFFF0000000000FF000FFC000000000
310
1FFFF0003F000F8003F0003FFF80007FFF80000000003FFFF80000000003FFF8
310
0FFFFFFFFFFFFFC07FFFFFF0001FFFFFF0001FFFFFFFFC0007F0001FFFFFFFFC
310
0007FF0003FFFFFFFFFFE0000000001FF000FF00000000007FFFF0003F000780
310
03F0003FFF80007FFF00000000007FFFF00000000007FFF80FFFFFFFFFFFFFC0
310
7FFFFFF0001FFFFFF0001FFFFFFFFC0007F0001FFFFFFFFC0007FF0003FFFFFF
310
FFFF80000000007FF000FE0000000000FFFFE0003F00078007F0003FFF80007F
310
FE0000000001FFFFE0000000001FFFF80FFFFFFFFFFFFFC07FFFFFF0001FFFFF
310
F0001FFFFFFFFC0007F0001FFFFFFFFC0007FF0003FFFFFFFFFF0000000000FF
310
F000FC0000000003FFFFE0007F00078007F0003FFF80007FFC0000000007FFFF
310
C0000000007FFFF80FFFFFFFFFFFFFC07FFFFFF0001FFFFFF8001FFFFFFFFC00
310
0FF8001FFFFFFFFC000FFF0003FFFFFFFFFE0000000003FFF000FC000000000F
310
FFFFE0007F80070007F8001FFF80007FF8000000001FFFFF8000000001FFFFF8
310
0FFFFFFFFFFFFFC07FFFFFF0001FFFFFF8001FFFFFFFFC000FF8001FFFFFFFFC
310
000FFF0003FFFFFFFFFC000000000FFFF000F8000000007FFFFFE0007F800700
310
07F8001FFF80007FF000000000FFFFFF800000000FFFFFF80FFFFFFFFFFFFFC0
310
7FFFFFF0001FFFFFF8000FFFFFFFF8000FF8000FFFFFFFF8000FFF0003FFFFFF
310
FFFC000000007FFFF000F800000007FFFFFFC0007F8003000FF8001FFF80007F
310
F000000007FFFFFF000000007FFFFFF80FFFFFFFFFFFFFC07FFFFFF0001FFFFF
310
F8000FFFFFFFF8000FF8000FFFFFFFF8000FFF0003FFFFFFFFF80000000FFFFF
310
F000F0000000FFFFFFFFC000FF8003000FF8001FFF80007FE0000000FFFFFFFF
310
0000000FFFFFFFF8000001FFFE0000007FFFFFF0001FFFFFF8000FFFFFFFF800
310
0FF8000FFFFFFFF8000FFF0003FFFFFFFFF8000000FFFFFFF000F000000FFFFF
310
FFFFC000FFC002000FF8000FFF80007FE000001FFFFFFFFE000001FFFFFFFFF8
310
000001FFFE0000007FFFFFF0001FFFFFF8000FFFFFFFF8000FF8000FFFFFFFF8
310
000FFF0003FFFFFFFFF000001FFFFFFFF000E00000FFFFFFFFFFC000FFC00200
310
0FFC000FFF80007FE00001FFFFFFFFFE00001FFFFFFFFFF8000001FFFE000000
310
7FFFFFF0001FFFFFFC000FFFFFFFF8001FFC000FFFFFFFF8001FFF0003FFFFFF
310
FFF00001FFFFFFFFF000E00007FFFFFFFFFF8000FFC000001FFC000FFF80007F
310
C0000FFFFFFFFFFE0000FFFFFFFFFFF8000001FFFE0000007FFFFFF0001FFFFF
310
FC0007FFFFFFF0001FFC0007FFFFFFF0001FFF0003FFFFFFFFF00007FFFFFFFF
310
F000E0001FFFFFFFFFFF8000FFC000001FFC000FFF80007FC0003FFFFFFFFFFE
310
0001FFFFFFFFFFF8000001FFFE0000007FFFFFF0001FFFFFFC0007FFFFFFF000
310
1FFC0007FFFFFFF0001FFF0003FFFFFFFFF0001FFFFFFFFFF000E0003FFFFF00
310
03FF8001FFE000001FFC0007FF80007FC0007FFFFF0007FC0003FFFFF0003FF8
310
000001FFFE0000007FFFFFF0001FFFFFFC0003FFFFFFE0001FFC0003FFFFFFE0
310
001FFF0003FFFFFFFFF0003FFFFFFFFFF000E0003FFFFF0001FF8001FFE00000
310
1FFE0007FF80007FC0007FFFFE0003FC0007FFFFE0003FF8000001FFFE000000
310
7FFFFFF0001FFFFFFE0003FFFFFFE0003FFE0003FFFFFFE0003FFF0003FFFFFF
310
FFF0003FFFFF8001F000E0003FFFFF0001FF0001FFE000001FFE0007FF80007F
310
C0007FFFFE0003FC0007FFFFE0003FF8000001FFFE0000007FFFFFF0001FFFFF
310
FE0001FFFFFFC0003FFE0001FFFFFFC0003FFF0003FFFFFFFFF0003FFFFF0001
310
F000E0003FFFFF0003FF0001FFE000003FFE0007FF80007FC0007FFFFE0003FC
310
0007FFFFE0003FF8000001FFFE0000007FFFFFF0001FFFFFFF0001FFFFFFC000
310
7FFF0001FFFFFFC0007FFF0003FFFFFFFFF0003FFFFF0001F000E0003FFFFE00
310
03FF0003FFF000003FFE0003FF80007FC0007FFFFC0003FE0007FFFFE0003FF8
310
000001FFFE0000007FFFFFF0001FFFFFFF0000FFFFFF80007FFF0000FFFFFF80
310
007FFF0003FFFFFFFFF0003FFFFF0001F000E0003FFFFE0003FF0003FFF00000
310
3FFF0003FF80007FC0007FFFFC0007FE0007FFFFC0003FF8000001FFFE000000
310
7FFFFFF0001FFFFFFF80007FFFFF0000FFFF80007FFFFF0000FFFF0003FFFFFF
310
FFF0003FFFFF0003F000E0003FFFFC0003FE0003FFF000003FFF0003FF80007F
310
E0003FFFF80007FE0003FFFFC0007FF8000001FFFE0000007FFFFFF0001FFFFF
310
FF80003FFFFE0000FFFF80003FFFFE0000FFFF0003FFFFFFFFF0001FFFFE0003
310
F000F0001FFFF80003FE0003FFF000007FFF0001FF80007FE0003FFFF00007FE
310
0001FFFF80007FF8000001FFFE0000007FFFFFF0001FFFFFFFC0000FFFF80001
310
FFFFC0000FFFF80001FFFF0003FFFFFFFFF0001FFFFC0003F000F0000FFFF000
310
07FE0007FFF800007FFF0001FF80007FE0001FFFE00007FF0000FFFE00007FF8
310
000001FFFE0000007FFFFFF0001FFFFFFFC00003FFE00001FFFFC00003FFE000
310
01FFFF0003FFFFFFFFF8000FFFF80003F000F00003FFC00007FC0007FFF80000
310
7FFF8001FF80007FF00007FF80000FFF00007FF80000FFF8000001FFFE000000
310
7F80000000000001FFE000003E000003FFFFE000003E000003FFFF0003FFFFFF
310
FFF80003FFE00007F000F800000000000FFC0007FFF800007FFF8001FF80007F
310
F000000000000FFF000000000000FFF8000001FFFE0000007F80000000000001
310
FFF0000000000007FFFFF0000000000007FFFF0003FFFFFFFFFC00007E000007
310
F000F800000000000FFC0007FFF80000FFFF8000FF80007FF800000000001FFF
310
800000000001FFF8000001FFFE0000007F80000000000001FFF800000000000F
310
FFFFF800000000000FFFFF0003FFFFFFFFFC00000000000FF000FC0000000000
310
1FFC0007FFFC0000FFFF8000FF80007FF800000000003FFFC00000000001FFF8
310
000001FFFE0000007F80000000000001FFF800000000000FFFFFF80000000000
310
0FFFFF0003FFFFFFFFFE00000000001FF000FE00000000003FF8000FFFFC0000
310
FFFF8000FF80007FFC00000000003FFFC00000000003FFF8000001FFFE000000
310
7F80000000000001FFFC00000000001FFFFFFC00000000001FFFFF0003FFFFFF
310
FFFF00000000001FF000FF00000000003FF8000FFFFC0000FFFFC000FF80007F
310
FE00000000007FFFE00000000007FFF8000001FFFE0000007F80000000000001
310
FFFE00000000003FFFFFFE00000000003FFFFF0003FFFFFFFFFF80000000003F
310
F000FF80000000007FF8000FFFFC0001FFFFC0007F80007FFF0000000000FFFF
310
F0000000000FFFF800000000000000007F80000000000001FFFF8000000000FF
310
FFFFFF8000000000FFFFFF0003FFFFFFFFFFC0000000007FF000FFC000000000
310
FFF8000FFFFE0001FFFFC0007F80007FFF8000000001FFFFF8000000001FFFF8
310
00000000000000007F80000000000001FFFFC000000001FFFFFFFFC000000001
310
FFFFFF0003FFFFFFFFFFE000000000FFF000FFE000000003FFF0001FFFFE0001
310
FFFFC0007F80007FFFC000000007FFFFFE000000003FFFF80000000000000000
310
7F80000000000001FFFFE000000003FFFFFFFFE000000003FFFFFF0003FFFFFF
310
FFFFF000000003FFF000FFF80000000FFFF0001FFFFE0001FFFFE0007F80007F
310
FFF00000000FFFFFFF00000000FFFFF800000000000000007F80000000000001
310
FFFFF80000000FFFFFFFFFF80000000FFFFFFF0003FFFFFFFFFFFC0000000FFF
310
F000FFFE0000003FFFF0001FFFFE0003FFFFE0003F80007FFFFC0000003FFFFF
310
FFC0000003FFFFF800000000000000007F80000000000001FFFFFE0000003FFF
310
FFFFFFFE0000003FFFFFFF0003FFFFFFFFFFFF0000003FFFF000FFFF800000FF
310
FFF0001FFFFF0003FFFFE0003F80007FFFFF000001FFFFFFFFF800001FFFFFF8
310
00000000000000007F80000000000001FFFFFFC00001FFFFFFFFFFFFC00001FF
310
FFFFFF0003FFFFFFFFFFFFC00000FFFFF000FFFFF8000FFFFFFFFFFFFFFFFFFF
310
FFFFFFFFFFFFFFFFFFFFF0001FFFFFFFFFFF0000FFFFFFF80000000000000000
310
7FFFFFFFFFFFFFFFFFFFFFFC001FFFFFFFFFFFFFFC001FFFFFFFFFFFFFFFFFFF
310
FFFFFFFC001FFFFFF000FFFFFFFFFFFFFFFFFFFFFFFFFFFFFFFFFFFFFFFFFFFF
310
FFFFFFFFFFFFFFFFFFFFFFFFFFFFFFFFFFFFFFFFFFFFFFFFFFFFFFFFFFFFFFFF
310
FFFFFFFFFFFFFFFFFFFFFFFFFFFFFFFFFFFFFFFFFFFFFFFFFFFFFFFFFFFFFFFF
310
F000FFFFFFFFFFFFFFFFFFFFFFFFFFFFFFFFFFFFFFFFFFFFFFFFFFFFFFFFFFFF
310
FFFFFFFFFFFFFFFFFFFFFFFFFFFFFFFFFFFFFFFFFFFFFFFFFFFFFFFFFFFFFFFF
310
FFFFFFFFFFFFFFFFFFFFFFFFFFFFFFFFFFFFFFFFFFFFFFFFF000FFFFFFFFFFFF
310
FFFFFFFFFFFFFFFFFFFFFFFFFFFFFFFFFFFFFFFFFFFFFFFFFFFFFFFFFFFFFFFF
310
FFFFFFFFFFFFFFFFFFFFFFFFFFFFFFFFFFFFFFFFFFFFFFFFFFFFFFFFFFFFFFFF
310
FFFFFFFFFFFFFFFFFFFFFFFFFFFFFFFFF000FFFFFFFFFFFFFFFFFFFFFFFFFFFF
310
FFFFFFFFFFFFFFFFFFFFFFFFFFFFFFFFFFFFFFFFFFFFFFFFFFFFFFFFFFFFFFFF
310
FFFFFFFFFFFFFFFFFFFFFFFFFFFFFFFFFFFFFFFFFFFFFFFFFFFFFFFFFFFFFFFF
310
FFFFFFFFFFFFFFFFF000FFFFFFFFFFFFFFFFFFFFFFFFFFFFFFFFFFFFFFFFFFFF
310
FFFFFFFFFFFFFFFFFFFFFFFFFFFFFFFFFFFFFFFFFFFFFFFFFFFFFFFFFFFFFFFF
310
FFFFFFFFFFFFFFFFFFFFFFFFFFFFFFFFFFFFFFFFFFFFFFFFFFFFFFFFFFFFFFFF
310
F000FFFFFFFFFFFFFFFFFFFFFFFFFFFFFFFFFFFFFFFFFFFFFFFFFFFFFFFFFFFF
310
FFFFFFFFFFFFFFFFFFFFFFFFFFFFFFFFFFFFFFFFFFFFFFFFFFFFFFFFFFFFFFFF
310
FFFFFFFFFFFFFFFFFFFFFFFFFFFFFFFFFFFFFFFFFFFFFFFFF000FFFFFFFFFFFF
310
FFFFFFFFFFFFFFFFFFFFFFFFFFFFFFFFFFFFFFFFFFFFFFFFFFFFFFFFFFFFFFFF
310
FFFFFFFFFFFFFFFFFFFFFFFFFFFFFFFFFFFFFFFFFFFFFFFFFFFFFFFFFFFFFFFF
310
FFFFFFFFFFFFFFFFFFFFFFFFFFFFFFFFF000FFFFFFFFFFFFFFFFFFFFFFFFFFFF
310
FFFFFFFFFFFFFFFFFFFFFFFFFFFFFFFFFFFFFFFFFFFFFFFFFFFFFFFFFFFFFFFF
310
FFFFFFFFFFFFFFFFFFFFFFFFFFFFFFFFFFFFFFFFFFFFFFFFFFFFFFFFFFFFFFFF
310
FFFFFFFFFFFFFFFFF000FFFFFFFFFFFFFFFFFFFFFFFFFFFFFFFFFFFFFFFFFFFF
310
FFFFFFFFFFFFFFFFFFFFFFFFFFFFFFFFFFFFFFFFFFFFFFFFFFFFFFFFFFFFFFFF
310
FFFFFFFFFFFFFFFFFFFFFFFFFFFFFFFFFFFFFFFFFFFFFFFFFFFFFFFFFFFFFFFF
310
F000FFFFFFFFFFFFFFFFFFFFFFFFFFFFFFFFFFFFFFFFFFFFFFFFFFFFFFFFFFFF
310
FFFFFFFFFFFFFFFFFFFFFFFFFFFFFFFFFFFFFFFFFFFFFFFFFFFFFFFFFFFFFFFF
310
FFFFFFFFFFFFFFFFFFFFFFFFFFFFFFFFFFFFFFFFFFFFFFFFF000FFFFFFFFFFFF
310
FFFFFFFFFFFFFFFFFFFFFFFFFFFFFFFFFFFFFFFFFFFFFFFFFFFFFFFFFFFFFFFF
310
FFFFFFFFFFFFFFFFFFFFFFFFFFFFFFFFFFFFFFFFFFFFFFFFFFFFFFFFFFFFFFFF
310
FFFFFFFFFFFFFFFFFFFFFFFFFFFFFFFFF000FFFFFFFFFFFFFFFFFFFFFFFFFFFF
310
FFFFFFFFFFFFFFFFFFFFFFFFFFFFFFFFFFFFFFFFFFFFFFFFFFFFFFFFFFFFFFFF
310
FFFFFFFFFFFFFFFFFFFFFFFFFFFFFFFFFFFFFFFFFFFFFFFFFFFFFFFFFFFFFFFF
310
FFFFFFFFFFFFFFFFF000FFFFFFFFFFFFFFFFFFFFFFFFFFFFFFFFFFFFFFFFFFFF
310
FFFFFFFFFFFFFFFFFFFFFFFFFFFFFFFFFFFFFFFFFFFFFFFFFFFFFFFFFFFFFFFF
310
FFFFFFFFFFFFFFFFFFFFFFFFFFFFFFFFFFFFFFFFFFFFFFFFFFFFFFFFFFFFFFFF
310
F000FFFFFFFFFFFFFFFFFFFFFFFFFFFFFFFFFFFFFFFFFFFFFFFFFFFFFFFFFFFF
310
FFFFFFFFFFFFFFFFFFFFFFFFFFFFFFFFFFFFFFFFFFFFFFFFFFFFFFFFFFFFFFFF
310
FFFFFFFFFFFFFFFFFFFFFFFFFFFFFFFFFFFFFFFFFFFFFFFFF000FFFFFFFFFFFF
310
FFFFFFFFFFFFFFFFFFFFFFFFFFFFFFFFFFFFFFFFFFFFFFFFFFFFFFFFFFFFFFFF
310
FFFFFFFFFFFFFFFFFFFFFFFFFFFFFFFFFFFFFFFFFFFFFFFFFFFFFFFFFFFFFFFF
310
FFFFFFFFFFFFFFFFFFFFFFFFFFFFFFFFF000FFFFFFFFFFFFFFFFFFFFFFFFFFFF
310
FFFFFFFFFFFFFFFFFFFFFFFFFFFFFFFFFFFFFFFFFFFFFFFFFFFFFFFFFFFFFFFF
310
FFFFFFFFFFFFFFFFFFFFFFFFFFFFFFFFFFFFFFFFFFFFFFFFFFFFFFFFFFFFFFFF
310
FFFFFFFFFFFFFFFFF000FFFFFFFFFFFFFFFFFFFFFFFFFFFFFFFFFFFFFFFFFFFF
310
FFFFFFFFFFFFFFFFFFFFFFFFFFFFFFFFFFFFFFFFFFFFFFFFFFFFFFFFFFFFFFFF
310
FFFFFFFFFFFFFFFFFFFFFFFFFFFFFFFFFFFFFFFFFFFFFFFFFFFFFFFFFFFFFFFF
310
F000FFFFFFFFFFFFFFFFFFFFFFFFFFFFFFFFFFFFFFFFFFFFFFFFFFFFFFFFFFFF
310
FFFFFFFFFFFFFFFFFFFFFFFFFFFFFFFFFFFFFFFFFFFFFFFFFFFFFFFFFFFFFFFF
310
FFFFFFFFFFFFFFFFFFFFFFFFFFFFFFFFFFFFFFFFFFFFFFFFF000FFFFFFFFFFFF
310
FFFFFFFFFFFFFFFFFFFFFFFFFFFFFFFFFFFFFFFFFFFFFFFFFFFFFFFFFFFFFFFF
310
FFFFFFFFFFFFFFFFFFFFFFFFFFFFFFFFFFFFFFFFFFFFFFFFFFFFFFFFFFFFFFFF
310
FFFFFFFFFFFFFFFFFFFFFFFFFFFFFFFFF000FFFFFFFFFFFFFFFFFFFFFFFFFFFF
310
FFFFFFFFFFFFFFFFFFFFFFFFFFFFFFFFFFFFFFFFFFFFFFFFFFFFFFFFFFFFFFFF
310
FFFFFFFFFFFFFFFFFFFFFFFFFFFFFFFFFFFFFFFFFFFFFFFFFFFFFFFFFFFFFFFF
310
FFFFFFFFFFFFFFFFF000FFFFFFFFFFFFFFFFFFFFFFFFFFFFFFFFFFFFFFFFFFFF
310
FFFFFFFFFFFFFFFFFFFFFFFFFFFFFFFFFFFFFFFFFFFFFFFFFFFFFFFFFFFFFFFF
310
FFFFFFFFFFFFFFFFFFFFFFFFFFFFFFFFFFFFFFFFFFFFFFFFFFFFFFFFFFFFFFFF
310
F000FFFFFFFFFFFFFFFFFFFFFFFFFFFFFFFFFFFFFFFFFFFFFFFFFFFFFFFFFFFF
310
FFFFFFFFFFFFFFFFFFFFFFFFFFFFFFFFFFFFFFFFFFFFFFFFFFFFFFFFFFFFFFFF
310
FFFFFFFFFFFFFFFFFFFFFFFFFFFFFFFFFFFFFFFFFFFFFFFFF000FFFFFFFFFFFF
310
FFFFFFFFFFFFFFFFFFFFFFFFFFFFFFFFFFFFFFFFFFFFFFFFFFFFFFFFFFFFFFFF
310
FFFFFFFFFFFFFFFFFFFFFFFFFFFFFFFFFFFFFFFFFFFFFFFFFFFFFFFFFFFFFFFF
310
FFFFFFFFFFFFFFFFFFFFFFFFFFFFFFFFF0000000000000000000000000000000
310
0000000000000000000000000000000000000000000000000000000000000000
310
0000000000000000000000000000000000000000000000000000000000000000
310
0000000000000000000000000000000000000000000000000000000000000000
310
0000000000000000000000000000000000000000000000000000000000000000
310
0000000000000000000000000000000000000000000000000000000000000000
310
0000000000000000000000000000000000000000000000000000000000000000
310
0000000000000000000000000000000000000000000000000000000000000000
310
0000000000000000000000000000000000000000000000000000000000000000
310
0000000000000000000000000000000000000000000000000000000000000000
310
0000000000000000000000000000000000000000000000000000000000000000
310
0000000000000000000000000000000000000000000000000000000000000000
310
0000000000000000000000000000000000000000000000000000000000000000
310
0000000000000000000000000000000000000000000000000000000000000000
310
0000000000000000000000000000000000000000000000000000000000000000
310
0000000000000000000000000000000000000000000000000000000000000000
  1
OLE
  0
ENDSEC
  0
SECTION
  2
OBJECTS
  0
DICTIONARY
  5
C
330
0
100
AcDbDictionary
281
     1
  3
ACAD_GROUP
350
D
  3
ACAD_LAYOUT
350
1A
  3
ACAD_MLINESTYLE
350
17
  3
ACAD_PLOTSETTINGS
350
19
  3
ACAD_PLOTSTYLENAME
350
E
  3
ACAD_SCALELIST
350
47
  0
DICTIONARY
  5
D
102
{ACAD_REACTORS
330
C
102
}
330
C
100
AcDbDictionary
281
     1
  0
DICTIONARY
  5
1A
102
{ACAD_REACTORS
330
C
102
}
330
C
100
AcDbDictionary
281
     1
  3
Layout1
350
1E
  3
Layout2
350
26
  3
Model
350
22
  0
DICTIONARY
  5
17
102
{ACAD_REACTORS
330
C
102
}
330
C
100
AcDbDictionary
281
     1
  3
Standard
350
18
  0
DICTIONARY
  5
19
102
{ACAD_REACTORS
330
C
102
}
330
C
100
AcDbDictionary
281
     1
  0
ACDBDICTIONARYWDFLT
  5
E
102
{ACAD_REACTORS
330
C
102
}
330
C
100
AcDbDictionary
281
     1
  3
Normal
350
F
100
AcDbDictionaryWithDefault
340
F
  0
DICTIONARY
  5
47
102
{ACAD_REACTORS
330
C
102
}
330
C
100
AcDbDictionary
281
     1
  3
A0
350
48
  3
A1
350
49
  3
A2
350
4A
  3
A3
350
4B
  3
A4
350
4C
  3
A5
350
4D
  3
A6
350
4E
  3
A7
350
4F
  3
A8
350
50
  3
A9
350
51
  3
B0
350
52
  3
B1
350
53
  3
B2
350
54
  3
B3
350
55
  3
B4
350
56
  3
B5
350
57
  3
B6
350
58
  3
B7
350
59
  3
B8
350
5A
  3
B9
350
5B
  3
C0
350
5C
  3
C1
350
5D
  3
C2
350
5E
  3
C3
350
5F
  3
C4
350
60
  3
C5
350
61
  3
C6
350
62
  3
C7
350
63
  3
C8
350
64
  3
C9
350
65
  3
D0
350
66
  3
D1
350
67
  3
D2
350
68
  0
LAYOUT
  5
1E
102
{ACAD_REACTORS
330
1A
102
}
330
1A
100
AcDbPlotSettings
  1

  2
none_device
  4

  6

 40
0.0
 41
0.0
 42
0.0
 43
0.0
 44
0.0
 45
0.0
 46
0.0
 47
0.0
 48
0.0
 49
0.0
140
0.0
141
0.0
142
1.0
143
1.0
 70
   688
 72
     1
 73
     0
 74
     5
  7

 75
    16
147
1.0
148
0.0
149
0.0
100
AcDbLayout
  1
Layout1
 70
     1
 71
     1
 10
0.0
 20
0.0
 11
420.0
 21
297.0
 12
0.0
 22
0.0
 32
0.0
 14
1.0000000000E+20
 24
1.0000000000E+20
 34
1.0000000000E+20
 15
-1.0000000000E+20
 25
-1.0000000000E+20
 35
-1.0000000000E+20
146
0.0
 13
0.0
 23
0.0
 33
0.0
 16
1.0
 26
0.0
 36
0.0
 17
0.0
 27
1.0
 37
0.0
 76
     0
330
1B
  0
LAYOUT
  5
26
102
{ACAD_REACTORS
330
1A
102
}
330
1A
100
AcDbPlotSettings
  1

  2
none_device
  4

  6

 40
0.0
 41
0.0
 42
0.0
 43
0.0
 44
0.0
 45
0.0
 46
0.0
 47
0.0
 48
0.0
 49
0.0
140
0.0
141
0.0
142
1.0
143
1.0
 70
   688
 72
     1
 73
     0
 74
     5
  7

 75
    16
147
1.0
148
0.0
149
0.0
100
AcDbLayout
  1
Layout2
 70
     1
 71
     2
 10
0.0
 20
0.0
 11
0.0
 21
0.0
 12
0.0
 22
0.0
 32
0.0
 14
0.0
 24
0.0
 34
0.0
 15
0.0
 25
0.0
 35
0.0
146
0.0
 13
0.0
 23
0.0
 33
0.0
 16
1.0
 26
0.0
 36
0.0
 17
0.0
 27
1.0
 37
0.0
 76
     0
330
23
  0
LAYOUT
  5
22
102
{ACAD_REACTORS
330
1A
102
}
330
1A
100
AcDbPlotSettings
  1

  2
none_device
  4
Letter_(8.50_x_11.00_Inches)
  6

 40
6.35
 41
6.35
 42
6.35000508
 43
6.35000508
 44
215.9
 45
279.4
 46
0.0
 47
0.0
 48
0.0
 49
0.0
140
0.0
141
0.0
142
1.0
143
1.0
 70
  1712
 72
     1
 73
     0
 74
     0
  7

 75
     0
147
1.0
148
0.0
149
0.0
100
AcDbLayout
  1
Model
 70
     1
 71
     0
 10
0.0
 20
0.0
 11
297.0
 21
210.0
 12
0.0
 22
0.0
 32
0.0
 14
0.0
 24
0.0
 34
0.0
 15
297.0
 25
210.0
 35
0.0
146
0.0
 13
0.0
 23
0.0
 33
0.0
 16
1.0
 26
0.0
 36
0.0
 17
0.0
 27
1.0
 37
0.0
 76
     0
330
1F
331
29
  0
MLINESTYLE
  5
18
102
{ACAD_REACTORS
330
17
102
}
330
17
100
AcDbMlineStyle
  2
Standard
 70
     0
  3

 62
   256
 51
90.0
 52
90.0
 71
     2
 49
0.5
 62
   256
  6
BYLAYER
 49
-0.5
 62
   256
  6
BYLAYER
  0
ACDBPLACEHOLDER
  5
F
102
{ACAD_REACTORS
330
E
102
}
330
E
  0
SCALE
  5
48
102
{ACAD_REACTORS
330
47
102
}
330
47
100
AcDbScale
 70
     0
300
1:1
140
1.0
141
1.0
290
     1
  0
SCALE
  5
49
102
{ACAD_REACTORS
330
47
102
}
330
47
100
AcDbScale
 70
     0
300
1:2
140
1.0
141
2.0
290
     0
  0
SCALE
  5
4A
102
{ACAD_REACTORS
330
47
102
}
330
47
100
AcDbScale
 70
     0
300
1:4
140
1.0
141
4.0
290
     0
  0
SCALE
  5
4B
102
{ACAD_REACTORS
330
47
102
}
330
47
100
AcDbScale
 70
     0
300
1:5
140
1.0
141
5.0
290
     0
  0
SCALE
  5
4C
102
{ACAD_REACTORS
330
47
102
}
330
47
100
AcDbScale
 70
     0
300
1:8
140
1.0
141
8.0
290
     0
  0
SCALE
  5
4D
102
{ACAD_REACTORS
330
47
102
}
330
47
100
AcDbScale
 70
     0
300
1:10
140
1.0
141
10.0
290
     0
  0
SCALE
  5
4E
102
{ACAD_REACTORS
330
47
102
}
330
47
100
AcDbScale
 70
     0
300
1:16
140
1.0
141
16.0
290
     0
  0
SCALE
  5
4F
102
{ACAD_REACTORS
330
47
102
}
330
47
100
AcDbScale
 70
     0
300
1:20
140
1.0
141
20.0
290
     0
  0
SCALE
  5
50
102
{ACAD_REACTORS
330
47
102
}
330
47
100
AcDbScale
 70
     0
300
1:30
140
1.0
141
30.0
290
     0
  0
SCALE
  5
51
102
{ACAD_REACTORS
330
47
102
}
330
47
100
AcDbScale
 70
     0
300
1:40
140
1.0
141
40.0
290
     0
  0
SCALE
  5
52
102
{ACAD_REACTORS
330
47
102
}
330
47
100
AcDbScale
 70
     0
300
1:50
140
1.0
141
50.0
290
     0
  0
SCALE
  5
53
102
{ACAD_REACTORS
330
47
102
}
330
47
100
AcDbScale
 70
     0
300
1:100
140
1.0
141
100.0
290
     0
  0
SCALE
  5
54
102
{ACAD_REACTORS
330
47
102
}
330
47
100
AcDbScale
 70
     0
300
2:1
140
2.0
141
1.0
290
     0
  0
SCALE
  5
55
102
{ACAD_REACTORS
330
47
102
}
330
47
100
AcDbScale
 70
     0
300
4:1
140
4.0
141
1.0
290
     0
  0
SCALE
  5
56
102
{ACAD_REACTORS
330
47
102
}
330
47
100
AcDbScale
 70
     0
300
8:1
140
8.0
141
1.0
290
     0
  0
SCALE
  5
57
102
{ACAD_REACTORS
330
47
102
}
330
47
100
AcDbScale
 70
     0
300
10:1
140
10.0
141
1.0
290
     0
  0
SCALE
  5
58
102
{ACAD_REACTORS
330
47
102
}
330
47
100
AcDbScale
 70
     0
300
100:1
140
100.0
141
1.0
290
     0
  0
SCALE
  5
59
102
{ACAD_REACTORS
330
47
102
}
330
47
100
AcDbScale
 70
     0
300
1/128" = 1'-0"
140
0.0078125
141
12.0
290
     0
  0
SCALE
  5
5A
102
{ACAD_REACTORS
330
47
102
}
330
47
100
AcDbScale
 70
     0
300
1/64" = 1'-0"
140
0.015625
141
12.0
290
     0
  0
SCALE
  5
5B
102
{ACAD_REACTORS
330
47
102
}
330
47
100
AcDbScale
 70
     0
300
1/32" = 1'-0"
140
0.03125
141
12.0
290
     0
  0
SCALE
  5
5C
102
{ACAD_REACTORS
330
47
102
}
330
47
100
AcDbScale
 70
     0
300
1/16" = 1'-0"
140
0.0625
141
12.0
290
     0
  0
SCALE
  5
5D
102
{ACAD_REACTORS
330
47
102
}
330
47
100
AcDbScale
 70
     0
300
3/32" = 1'-0"
140
0.09375
141
12.0
290
     0
  0
SCALE
  5
5E
102
{ACAD_REACTORS
330
47
102
}
330
47
100
AcDbScale
 70
     0
300
1/8" = 1'-0"
140
0.125
141
12.0
290
     0
  0
SCALE
  5
5F
102
{ACAD_REACTORS
330
47
102
}
330
47
100
AcDbScale
 70
     0
300
3/16" = 1'-0"
140
0.1875
141
12.0
290
     0
  0
SCALE
  5
60
102
{ACAD_REACTORS
330
47
102
}
330
47
100
AcDbScale
 70
     0
300
1/4" = 1'-0"
140
0.25
141
12.0
290
     0
  0
SCALE
  5
61
102
{ACAD_REACTORS
330
47
102
}
330
47
100
AcDbScale
 70
     0
300
3/8" = 1'-0"
140
0.375
141
12.0
290
     0
  0
SCALE
  5
62
102
{ACAD_REACTORS
330
47
102
}
330
47
100
AcDbScale
 70
     0
300
1/2" = 1'-0"
140
0.5
141
12.0
290
     0
  0
SCALE
  5
63
102
{ACAD_REACTORS
330
47
102
}
330
47
100
AcDbScale
 70
     0
300
3/4" = 1'-0"
140
0.75
141
12.0
290
     0
  0
SCALE
  5
64
102
{ACAD_REACTORS
330
47
102
}
330
47
100
AcDbScale
 70
     0
300
1" = 1'-0"
140
1.0
141
12.0
290
     0
  0
SCALE
  5
65
102
{ACAD_REACTORS
330
47
102
}
330
47
100
AcDbScale
 70
     0
300
1-1/2" = 1'-0"
140
1.5
141
12.0
290
     0
  0
SCALE
  5
66
102
{ACAD_REACTORS
330
47
102
}
330
47
100
AcDbScale
 70
     0
300
3" = 1'-0"
140
3.0
141
12.0
290
     0
  0
SCALE
  5
67
102
{ACAD_REACTORS
330
47
102
}
330
47
100
AcDbScale
 70
     0
300
6" = 1'-0"
140
6.0
141
12.0
290
     0
  0
SCALE
  5
68
102
{ACAD_REACTORS
330
47
102
}
330
47
100
AcDbScale
 70
     0
300
1'-0" = 1'-0"
140
12.0
141
12.0
290
     0
  0
ENDSEC
  0
EOF
