  0
SECTION
  2
HEADER
  9
$ACADVER
  1
AC1015
  9
$ACADMAINTVER
 70
     6
  9
$DWGCODEPAGE
  3
ANSI_1252
  9
$INSBASE
 10
0.0
 20
0.0
 30
0.0
  9
$EXTMIN
 10
0.0
 20
0.0
 30
0.0
  9
$EXTMAX
 10
297.0
 20
210.0
 30
0.0
  9
$LIMMIN
 10
0.0
 20
0.0
  9
$LIMMAX
 10
297.0
 20
210.0
  9
$ORTHOMODE
 70
     0
  9
$REGENMODE
 70
     1
  9
$FILLMODE
 70
     1
  9
$QTEXTMODE
 70
     0
  9
$MIRRTEXT
 70
     1
  9
$LTSCALE
 40
1.0
  9
$ATTMODE
 70
     1
  9
$TEXTSIZE
 40
2.0
  9
$TRACEWID
 40
1.0
  9
$TEXTSTYLE
  7
Standard
  9
$CLAYER
  8
0
  9
$CELTYPE
  6
ByLayer
  9
$CECOLOR
 62
   256
  9
$CELTSCALE
 40
1.0
  9
$DISPSILH
 70
     0
  9
$DIMSCALE
 40
1.0
  9
$DIMASZ
 40
3.0
  9
$DIMEXO
 40
0.0
  9
$DIMDLI
 40
3.75
  9
$DIMRND
 40
0.0
  9
$DIMDLE
 40
0.0
  9
$DIMEXE
 40
1.0
  9
$DIMTP
 40
0.0
  9
$DIMTM
 40
0.0
  9
$DIMTXT
 40
2.0
  9
$DIMCEN
 40
2.5
  9
$DIMTSZ
 40
0.0
  9
$DIMTOL
 70
     0
  9
$DIMLIM
 70
     0
  9
$DIMTIH
 70
     1
  9
$DIMTOH
 70
     1
  9
$DIMSE1
 70
     0
  9
$DIMSE2
 70
     0
  9
$DIMTAD
 70
     1
  9
$DIMZIN
 70
     0
  9
$DIMBLK
  1

  9
$DIMASO
 70
     1
  9
$DIMSHO
 70
     1
  9
$DIMPOST
  1

  9
$DIMAPOST
  1

  9
$DIMALT
 70
     0
  9
$DIMALTD
 70
     3
  9
$DIMALTF
 40
0.0393700787
  9
$DIMLFAC
 40
2.0
  9
$DIMTOFL
 70
     1
  9
$DIMTVP
 40
0.0
  9
$DIMTIX
 70
     0
  9
$DIMSOXD
 70
     0
  9
$DIMSAH
 70
     0
  9
$DIMBLK1
  1

  9
$DIMBLK2
  1

  9
$DIMSTYLE
  2
ISO-25
  9
$DIMCLRD
 70
     0
  9
$DIMCLRE
 70
     0
  9
$DIMCLRT
 70
     0
  9
$DIMTFAC
 40
1.0
  9
$DIMGAP
 40
1.524
  9
$DIMJUST
 70
     0
  9
$DIMSD1
 70
     0
  9
$DIMSD2
 70
     0
  9
$DIMTOLJ
 70
     0
  9
$DIMTZIN
 70
     0
  9
$DIMALTZ
 70
     0
  9
$DIMALTTZ
 70
     0
  9
$DIMUPT
 70
     0
  9
$DIMDEC
 70
     2
  9
$DIMTDEC
 70
     3
  9
$DIMALTU
 70
     2
  9
$DIMALTTD
 70
     3
  9
$DIMTXSTY
  7
Standard
  9
$DIMAUNIT
 70
     0
  9
$DIMADEC
 70
     2
  9
$DIMALTRND
 40
0.0
  9
$DIMAZIN
 70
     0
  9
$DIMDSEP
 70
    44
  9
$DIMATFIT
 70
     3
  9
$DIMFRAC
 70
     0
  9
$DIMLDRBLK
  1

  9
$DIMLUNIT
 70
     2
  9
$DIMLWD
 70
    -2
  9
$DIMLWE
 70
    -2
  9
$DIMTMOVE
 70
     0
  9
$LUNITS
 70
     2
  9
$LUPREC
 70
     2
  9
$SKETCHINC
 40
1.0
  9
$FILLETRAD
 40
10.0
  9
$AUNITS
 70
     0
  9
$AUPREC
 70
     2
  9
$MENU
  1
.
  9
$ELEVATION
 40
0.0
  9
$PELEVATION
 40
0.0
  9
$THICKNESS
 40
0.0
  9
$LIMCHECK
 70
     0
  9
$CHAMFERA
 40
0.0
  9
$CHAMFERB
 40
0.0
  9
$CHAMFERC
 40
0.0
  9
$CHAMFERD
 40
0.0
  9
$SKPOLY
 70
     0
  9
$TDCREATE
 40
2458166.656268426
  9
$TDUCREATE
 40
2458166.614601759
  9
$TDUPDATE
 40
2458166.656270671
  9
$TDUUPDATE
 40
2458166.614604005
  9
$TDINDWG
 40
0.0000000116
  9
$TDUSRTIMER
 40
0.0000000116
  9
$USRTIMER
 70
     1
  9
$ANGBASE
 50
0.0
  9
$ANGDIR
 70
     0
  9
$PDMODE
 70
     0
  9
$PDSIZE
 40
-1.0
  9
$PLINEWID
 40
0.0
  9
$SPLFRAME
 70
     0
  9
$SPLINETYPE
 70
     6
  9
$SPLINESEGS
 70
     8
  9
$HANDSEED
  5
296
  9
$SURFTAB1
 70
     6
  9
$SURFTAB2
 70
     6
  9
$SURFTYPE
 70
     6
  9
$SURFU
 70
     6
  9
$SURFV
 70
     6
  9
$UCSBASE
  2

  9
$UCSNAME
  2

  9
$UCSORG
 10
0.0
 20
0.0
 30
0.0
  9
$UCSXDIR
 10
1.0
 20
0.0
 30
0.0
  9
$UCSYDIR
 10
0.0
 20
1.0
 30
0.0
  9
$UCSORTHOREF
  2

  9
$UCSORTHOVIEW
 70
     0
  9
$UCSORGTOP
 10
0.0
 20
0.0
 30
0.0
  9
$UCSORGBOTTOM
 10
0.0
 20
0.0
 30
0.0
  9
$UCSORGLEFT
 10
0.0
 20
0.0
 30
0.0
  9
$UCSORGRIGHT
 10
0.0
 20
0.0
 30
0.0
  9
$UCSORGFRONT
 10
0.0
 20
0.0
 30
0.0
  9
$UCSORGBACK
 10
0.0
 20
0.0
 30
0.0
  9
$PUCSBASE
  2

  9
$PUCSNAME
  2

  9
$PUCSORG
 10
0.0
 20
0.0
 30
0.0
  9
$PUCSXDIR
 10
1.0
 20
0.0
 30
0.0
  9
$PUCSYDIR
 10
0.0
 20
1.0
 30
0.0
  9
$PUCSORTHOREF
  2

  9
$PUCSORTHOVIEW
 70
     0
  9
$PUCSORGTOP
 10
0.0
 20
0.0
 30
0.0
  9
$PUCSORGBOTTOM
 10
0.0
 20
0.0
 30
0.0
  9
$PUCSORGLEFT
 10
0.0
 20
0.0
 30
0.0
  9
$PUCSORGRIGHT
 10
0.0
 20
0.0
 30
0.0
  9
$PUCSORGFRONT
 10
0.0
 20
0.0
 30
0.0
  9
$PUCSORGBACK
 10
0.0
 20
0.0
 30
0.0
  9
$USERI1
 70
     0
  9
$USERI2
 70
     0
  9
$USERI3
 70
     0
  9
$USERI4
 70
     0
  9
$USERI5
 70
     0
  9
$USERR1
 40
0.0
  9
$USERR2
 40
0.0
  9
$USERR3
 40
0.0
  9
$USERR4
 40
0.0
  9
$USERR5
 40
0.0
  9
$WORLDVIEW
 70
     1
  9
$SHADEDGE
 70
     3
  9
$SHADEDIF
 70
    70
  9
$TILEMODE
 70
     1
  9
$MAXACTVP
 70
    64
  9
$PINSBASE
 10
0.0
 20
0.0
 30
0.0
  9
$PLIMCHECK
 70
     0
  9
$PEXTMIN
 10
1.0000000000E+20
 20
1.0000000000E+20
 30
1.0000000000E+20
  9
$PEXTMAX
 10
-1.0000000000E+20
 20
-1.0000000000E+20
 30
-1.0000000000E+20
  9
$PLIMMIN
 10
0.0
 20
0.0
  9
$PLIMMAX
 10
420.0
 20
297.0
  9
$UNITMODE
 70
     0
  9
$VISRETAIN
 70
     1
  9
$PLINEGEN
 70
     0
  9
$PSLTSCALE
 70
     1
  9
$TREEDEPTH
 70
  3020
  9
$CMLSTYLE
  2
Standard
  9
$CMLJUST
 70
     0
  9
$CMLSCALE
 40
20.0
  9
$PROXYGRAPHICS
 70
     1
  9
$MEASUREMENT
 70
     1
  9
$CELWEIGHT
370
    -1
  9
$ENDCAPS
280
     0
  9
$JOINSTYLE
280
     0
  9
$LWDISPLAY
290
     1
  9
$INSUNITS
 70
     4
  9
$HYPERLINKBASE
  1

  9
$STYLESHEET
  1

  9
$XEDIT
290
     1
  9
$CEPSNTYPE
380
     0
  9
$PSTYLEMODE
290
     1
  9
$FINGERPRINTGUID
  2
{A79C5206-D909-47C0-AF20-A0BDF139596F}
  9
$VERSIONGUID
  2
{FAEB1C32-E019-11D5-929B-00C0DF256EC4}
  9
$EXTNAMES
290
     1
  9
$PSVPSCALE
 40
0.0
  9
$OLESTARTUP
290
     0
  0
ENDSEC
  0
SECTION
  2
CLASSES
  0
CLASS
  1
ACDBDICTIONARYWDFLT
  2
AcDbDictionaryWithDefault
  3
ObjectDBX Classes
 90
        0
280
     0
281
     0
  0
CLASS
  1
VISUALSTYLE
  2
AcDbVisualStyle
  3
ObjectDBX Classes
 90
     4095
280
     0
281
     0
  0
CLASS
  1
MATERIAL
  2
AcDbMaterial
  3
ObjectDBX Classes
 90
     1153
280
     0
281
     0
  0
CLASS
  1
SCALE
  2
AcDbScale
  3
ObjectDBX Classes
 90
     1153
280
     0
281
     0
  0
CLASS
  1
TABLESTYLE
  2
AcDbTableStyle
  3
ObjectDBX Classes
 90
     4095
280
     0
281
     0
  0
CLASS
  1
MLEADERSTYLE
  2
AcDbMLeaderStyle
  3
ACDB_MLEADERSTYLE_CLASS
 90
     4095
280
     0
281
     0
  0
CLASS
  1
SUN
  2
AcDbSun
  3
SCENEOE
 90
     1153
280
     0
281
     0
  0
CLASS
  1
ACDBPLACEHOLDER
  2
AcDbPlaceHolder
  3
ObjectDBX Classes
 90
        0
280
     0
281
     0
  0
CLASS
  1
LAYOUT
  2
AcDbLayout
  3
ObjectDBX Classes
 90
        0
280
     0
281
     0
  0
ENDSEC
  0
SECTION
  2
TABLES
  0
TABLE
  2
VPORT
  5
8
330
0
100
AcDbSymbolTable
 70
     1
  0
VPORT
  5
29
330
8
100
AcDbSymbolTableRecord
100
AcDbViewportTableRecord
  2
*Active
 70
     0
 10
0.0
 20
0.0
 11
1.0
 21
1.0
 12
148.5
 22
105.0
 13
0.0
 23
0.0
 14
10.0
 24
10.0
 15
10.0
 25
10.0
 16
0.0
 26
0.0
 36
1.0
 17
0.0
 27
0.0
 37
0.0
 40
210.0
 41
1.4142857143
 42
50.0
 43
0.0
 44
0.0
 50
0.0
 51
0.0
 71
     0
 72
  2000
 73
     1
 74
     3
 75
     0
 76
     0
 77
     0
 78
     0
281
     0
 65
     1
110
0.0
120
0.0
130
0.0
111
1.0
121
0.0
131
0.0
112
0.0
122
1.0
132
0.0
 79
     0
146
0.0
  0
ENDTAB
  0
TABLE
  2
LTYPE
  5
5
330
0
100
AcDbSymbolTable
 70
     6
  0
LTYPE
  5
14
330
5
100
AcDbSymbolTableRecord
100
AcDbLinetypeTableRecord
  2
ByBlock
 70
     0
  3

 72
    65
 73
     0
 40
0.0
  0
LTYPE
  5
15
330
5
100
AcDbSymbolTableRecord
100
AcDbLinetypeTableRecord
  2
ByLayer
 70
     0
  3

 72
    65
 73
     0
 40
0.0
  0
LTYPE
  5
16
330
5
100
AcDbSymbolTableRecord
100
AcDbLinetypeTableRecord
  2
Continuous
 70
     0
  3
Solid line
 72
    65
 73
     0
 40
0.0
  0
LTYPE
  5
6E
330
5
100
AcDbSymbolTableRecord
100
AcDbLinetypeTableRecord
  2
HIDDEN
 70
     0
  3
Hidden __ __ __ __ __ __ __ __ __ __ __ __ __ __
 72
    65
 73
     2
 40
1.905
 49
1.27
 74
     0
 49
-0.635
 74
     0
  0
LTYPE
  5
6F
330
5
100
AcDbSymbolTableRecord
100
AcDbLinetypeTableRecord
  2
PHANTOM
 70
     0
  3
Phantom ______  __  __  ______  __  __  ______
 72
    65
 73
     6
 40
12.7
 49
6.35
 74
     0
 49
-1.27
 74
     0
 49
1.27
 74
     0
 49
-1.27
 74
     0
 49
1.27
 74
     0
 49
-1.27
 74
     0
  0
LTYPE
  5
70
330
5
100
AcDbSymbolTableRecord
100
AcDbLinetypeTableRecord
  2
CENTER
 70
     0
  3
Center ____ _ ____ _ ____ _ ____ _ ____ _ ____
 72
    65
 73
     4
 40
10.16
 49
6.35
 74
     0
 49
-1.27
 74
     0
 49
1.27
 74
     0
 49
-1.27
 74
     0
  0
LTYPE
  5
71
330
5
100
AcDbSymbolTableRecord
100
AcDbLinetypeTableRecord
  2
CENTERX2
 70
     0
  3
Center (2x) ________  __  ________  __  _____
 72
    65
 73
     4
 40
20.32
 49
12.7
 74
     0
 49
-2.54
 74
     0
 49
2.54
 74
     0
 49
-2.54
 74
     0
  0
LTYPE
  5
72
330
5
100
AcDbSymbolTableRecord
100
AcDbLinetypeTableRecord
  2
DOT2
 70
     0
  3
Dot (.5x) ........................................
 72
    65
 73
     2
 40
0.635
 49
0.0
 74
     0
 49
-0.635
 74
     0
  0
ENDTAB
  0
TABLE
  2
LAYER
  5
2
330
0
100
AcDbSymbolTable
 70
     5
  0
LAYER
  5
10
330
2
100
AcDbSymbolTableRecord
100
AcDbLayerTableRecord
  2
0
 70
     0
 62
     7
  6
Continuous
370
    -3
390
F
  0
LAYER
  5
73
330
2
100
AcDbSymbolTableRecord
100
AcDbLayerTableRecord
  2
FORMAT
 70
     0
 62
     7
  6
Continuous
370
    -3
390
F
  0
LAYER
  5
74
330
2
100
AcDbSymbolTableRecord
100
AcDbLayerTableRecord
  2
VERMASSUNG
 70
     0
 62
     7
  6
Continuous
370
    -3
390
F
  0
LAYER
  5
75
330
2
100
AcDbSymbolTableRecord
100
AcDbLayerTableRecord
  2
KOPF_DÜNN
 70
     0
 62
     7
  6
Continuous
370
    -3
390
F
  0
LAYER
  5
76
330
2
100
AcDbSymbolTableRecord
100
AcDbLayerTableRecord
  2
KOPF_DICK
 70
     0
 62
     7
  6
Continuous
370
    25
390
F
  0
ENDTAB
  0
TABLE
  2
STYLE
  5
3
330
0
100
AcDbSymbolTable
 70
     3
  0
STYLE
  5
11
330
3
100
AcDbSymbolTableRecord
100
AcDbTextStyleTableRecord
  2
Standard
 70
     0
 40
0.0
 41
1.0
 50
0.0
 71
     0
 42
2.0
  3
txt
  4

  0
STYLE
  5
77
330
3
100
AcDbSymbolTableRecord
100
AcDbTextStyleTableRecord
  2
SLDTEXTSTYLE0
 70
     0
 40
0.0
 41
0.7
 50
0.0
 71
     0
 42
2.0
  3
TXT
  4

  0
STYLE
  5
7B
330
3
100
AcDbSymbolTableRecord
100
AcDbTextStyleTableRecord
  2
SLDTEXTSTYLE1
 70
     0
 40
0.0
 41
0.6428571429
 50
0.0
 71
     0
 42
2.0
  3
TXT
  4

  0
ENDTAB
  0
TABLE
  2
VIEW
  5
6
330
0
100
AcDbSymbolTable
 70
     0
  0
ENDTAB
  0
TABLE
  2
UCS
  5
7
330
0
100
AcDbSymbolTable
 70
     0
  0
ENDTAB
  0
TABLE
  2
APPID
  5
9
330
0
100
AcDbSymbolTable
 70
     1
  0
APPID
  5
12
330
9
100
AcDbSymbolTableRecord
100
AcDbRegAppTableRecord
  2
ACAD
 70
     0
  0
ENDTAB
  0
TABLE
  2
DIMSTYLE
  5
A
330
0
100
AcDbSymbolTable
 70
     3
100
AcDbDimStyleTable
  0
DIMSTYLE
105
27
330
A
100
AcDbSymbolTableRecord
100
AcDbDimStyleTableRecord
  2
ISO-25
 70
     0
 41
2.5
 42
0.625
 43
3.75
 44
1.25
 73
     0
 74
     0
 77
     1
 78
     8
140
2.5
141
2.5
143
0.0393700787
147
0.625
171
     3
172
     1
178
     0
271
     2
272
     2
274
     3
278
    44
283
     0
284
     8
340
11
  0
DIMSTYLE
105
127
102
{ACAD_REACTORS
330
126
330
132
330
153
330
15F
330
169
330
173
330
17D
102
}
330
A
100
AcDbSymbolTableRecord
100
AcDbDimStyleTableRecord
  2
SLDDIMSTYLE0
 70
     0
 41
3.0
 44
0.0
 45
0.000000001
 73
     0
 74
     0
 77
     1
 78
    12
 79
     3
140
2.0
147
0.5
173
     1
178
     0
271
     2
272
     3
276
     2
284
    12
340
77
  0
DIMSTYLE
105
13E
102
{ACAD_REACTORS
330
13D
330
148
102
}
330
A
100
AcDbSymbolTableRecord
100
AcDbDimStyleTableRecord
  2
SLDDIMSTYLE1
 70
     0
 41
3.0
 44
0.0
 45
0.000000001
 73
     0
 74
     0
 77
     1
 78
    12
 79
     3
140
2.0
147
0.5
173
     1
178
     0
271
     0
272
     3
276
     2
284
    12
340
77
  0
ENDTAB
  0
TABLE
  2
BLOCK_RECORD
  5
1
330
0
100
AcDbSymbolTable
 70
    10
  0
BLOCK_RECORD
  5
1F
330
1
100
AcDbSymbolTableRecord
100
AcDbBlockTableRecord
  2
*Model_Space
340
22
  0
BLOCK_RECORD
  5
1B
330
1
100
AcDbSymbolTableRecord
100
AcDbBlockTableRecord
  2
*Paper_Space
340
1E
  0
BLOCK_RECORD
  5
23
330
1
100
AcDbSymbolTableRecord
100
AcDbBlockTableRecord
  2
*Paper_Space0
340
26
  0
BLOCK_RECORD
  5
128
330
1
100
AcDbSymbolTableRecord
100
AcDbBlockTableRecord
  2
_D
340
0
  0
BLOCK_RECORD
  5
133
330
1
100
AcDbSymbolTableRecord
100
AcDbBlockTableRecord
  2
_D_1
340
0
  0
BLOCK_RECORD
  5
13F
330
1
100
AcDbSymbolTableRecord
100
AcDbBlockTableRecord
  2
_D_2
340
0
  0
BLOCK_RECORD
  5
149
330
1
100
AcDbSymbolTableRecord
100
AcDbBlockTableRecord
  2
_D_3
340
0
  0
BLOCK_RECORD
  5
154
330
1
100
AcDbSymbolTableRecord
100
AcDbBlockTableRecord
  2
_D_4
340
0
  0
BLOCK_RECORD
  5
160
330
1
100
AcDbSymbolTableRecord
100
AcDbBlockTableRecord
  2
_D_5
340
0
  0
BLOCK_RECORD
  5
16A
330
1
100
AcDbSymbolTableRecord
100
AcDbBlockTableRecord
  2
_D_6
340
0
  0
BLOCK_RECORD
  5
174
330
1
100
AcDbSymbolTableRecord
100
AcDbBlockTableRecord
  2
_D_7
340
0
  0
BLOCK_RECORD
  5
17E
330
1
100
AcDbSymbolTableRecord
100
AcDbBlockTableRecord
  2
_D_8
340
0
  0
ENDTAB
  0
ENDSEC
  0
SECTION
  2
BLOCKS
  0
BLOCK
  5
20
330
1F
100
AcDbEntity
  8
0
100
AcDbBlockBegin
  2
*Model_Space
 70
     0
 10
0.0
 20
0.0
 30
0.0
  3
*Model_Space
  1

  0
ENDBLK
  5
21
330
1F
100
AcDbEntity
  8
0
100
AcDbBlockEnd
  0
BLOCK
  5
1C
330
1B
100
AcDbEntity
 67
     1
  8
0
100
AcDbBlockBegin
  2
*Paper_Space
 70
     0
 10
0.0
 20
0.0
 30
0.0
  3
*Paper_Space
  1

  0
ENDBLK
  5
1D
330
1B
100
AcDbEntity
 67
     1
  8
0
100
AcDbBlockEnd
  0
BLOCK
  5
24
330
23
100
AcDbEntity
  8
0
100
AcDbBlockBegin
  2
*Paper_Space0
 70
     0
 10
0.0
 20
0.0
 30
0.0
  3
*Paper_Space0
  1

  0
ENDBLK
  5
25
330
23
100
AcDbEntity
  8
0
100
AcDbBlockEnd
  0
BLOCK
  5
129
330
128
100
AcDbEntity
  8
0
100
AcDbBlockBegin
  2
_D
 70
     0
 10
0.0
 20
0.0
 30
0.0
  3
_D
  1

  0
SOLID
  5
12B
330
128
100
AcDbEntity
  8
VERMASSUNG
100
AcDbTrace
 10
243.4967731669
 20
110.2669724771
 30
0.0
 11
243.9467731669
 21
113.2669724771
 31
0.0
 12
243.0467731669
 22
113.2669724771
 32
0.0
 13
243.0467731669
 23
113.2669724771
 33
0.0
  0
SOLID
  5
12C
330
128
100
AcDbEntity
  8
VERMASSUNG
100
AcDbTrace
 10
243.4967731669
 20
132.2669724771
 30
0.0
 11
243.0467731669
 21
129.2669724771
 31
0.0
 12
243.9467731669
 22
129.2669724771
 32
0.0
 13
243.9467731669
 23
129.2669724771
 33
0.0
  0
LINE
  5
12D
330
128
100
AcDbEntity
  8
VERMASSUNG
100
AcDbLine
 10
204.2099803339
 20
110.2669724771
 30
0.0
 11
244.4967731669
 21
110.2669724771
 31
0.0
  0
LINE
  5
12E
330
128
100
AcDbEntity
  8
VERMASSUNG
100
AcDbLine
 10
204.2099803339
 20
132.2669724771
 30
0.0
 11
244.4967731669
 21
132.2669724771
 31
0.0
  0
LINE
  5
12F
330
128
100
AcDbEntity
  8
VERMASSUNG
100
AcDbLine
 10
243.4967731669
 20
110.2669724771
 30
0.0
 11
243.4967731669
 21
132.2669724771
 31
0.0
  0
MTEXT
  5
130
330
128
100
AcDbEntity
  8
VERMASSUNG
100
AcDbMText
 10
240.918637862
 20
118.0619725198
 30
0.0
 40
2.0
 41
0.0
 71
     1
 72
     1
  1
%%c
  7
SLDTEXTSTYLE0
 11
6.123233995736766E-17
 21
1.0
 31
0.0
 73
     1
 44
1.0
  0
MTEXT
  5
131
330
128
100
AcDbEntity
  8
VERMASSUNG
100
AcDbMText
 10
240.7186379107
 20
121.6719725341
 30
0.0
 40
2.0
 41
0.0
 71
     1
 72
     1
  1
22
  7
SLDTEXTSTYLE0
 11
6.123233995736766E-17
 21
1.0
 31
0.0
 73
     1
 44
1.0
  0
ENDBLK
  5
12A
330
128
100
AcDbEntity
  8
0
100
AcDbBlockEnd
  0
BLOCK
  5
134
330
133
100
AcDbEntity
  8
0
100
AcDbBlockBegin
  2
_D_1
 70
     0
 10
0.0
 20
0.0
 30
0.0
  3
_D_1
  1

  0
SOLID
  5
136
330
133
100
AcDbEntity
  8
VERMASSUNG
100
AcDbTrace
 10
254.0099803339
 20
97.2669724771
 30
0.0
 11
254.4599803339
 21
100.2669724771
 31
0.0
 12
253.5599803339
 22
100.2669724771
 32
0.0
 13
253.5599803339
 23
100.2669724771
 33
0.0
  0
SOLID
  5
137
330
133
100
AcDbEntity
  8
VERMASSUNG
100
AcDbTrace
 10
254.0099803339
 20
145.2669724771
 30
0.0
 11
253.5599803339
 21
142.2669724771
 31
0.0
 12
254.4599803339
 22
142.2669724771
 32
0.0
 13
254.4599803339
 23
142.2669724771
 33
0.0
  0
LINE
  5
138
330
133
100
AcDbEntity
  8
VERMASSUNG
100
AcDbLine
 10
185.2099803339
 20
97.2669724771
 30
0.0
 11
255.0099803339
 21
97.2669724771
 31
0.0
  0
LINE
  5
139
330
133
100
AcDbEntity
  8
VERMASSUNG
100
AcDbLine
 10
185.2099803339
 20
145.2669724771
 30
0.0
 11
255.0099803339
 21
145.2669724771
 31
0.0
  0
LINE
  5
13A
330
133
100
AcDbEntity
  8
VERMASSUNG
100
AcDbLine
 10
254.0099803339
 20
97.2669724771
 30
0.0
 11
254.0099803339
 21
145.2669724771
 31
0.0
  0
MTEXT
  5
13B
330
133
100
AcDbEntity
  8
VERMASSUNG
100
AcDbMText
 10
251.431845029
 20
117.9619724569
 30
0.0
 40
2.0
 41
0.0
 71
     1
 72
     1
  1
%%c
  7
SLDTEXTSTYLE0
 11
6.123233995736766E-17
 21
1.0
 31
0.0
 73
     1
 44
1.0
  0
MTEXT
  5
13C
330
133
100
AcDbEntity
  8
VERMASSUNG
100
AcDbMText
 10
251.2318450777
 20
121.5719724712
 30
0.0
 40
2.0
 41
0.0
 71
     1
 72
     1
  1
48
  7
SLDTEXTSTYLE0
 11
6.123233995736766E-17
 21
1.0
 31
0.0
 73
     1
 44
1.0
  0
ENDBLK
  5
135
330
133
100
AcDbEntity
  8
0
100
AcDbBlockEnd
  0
BLOCK
  5
140
330
13F
100
AcDbEntity
  8
0
100
AcDbBlockBegin
  2
_D_2
 70
     0
 10
0.0
 20
0.0
 30
0.0
  3
_D_2
  1

  0
SOLID
  5
142
330
13F
100
AcDbEntity
  8
VERMASSUNG
100
AcDbTrace
 10
264.8770482467
 20
96.2094127333
 30
0.0
 11
265.3270482467
 21
99.2094127333
 31
0.0
 12
264.4270482467
 22
99.2094127333
 32
0.0
 13
264.4270482467
 23
99.2094127333
 33
0.0
  0
SOLID
  5
143
330
13F
100
AcDbEntity
  8
VERMASSUNG
100
AcDbTrace
 10
264.8770482467
 20
146.3245322208
 30
0.0
 11
264.4270482467
 21
143.3245322208
 31
0.0
 12
265.3270482467
 22
143.3245322208
 32
0.0
 13
265.3270482467
 23
143.3245322208
 33
0.0
  0
LINE
  5
144
330
13F
100
AcDbEntity
  8
VERMASSUNG
100
AcDbLine
 10
113.792195099
 20
96.2094127333
 30
0.0
 11
265.8770482467
 21
96.2094127333
 31
0.0
  0
LINE
  5
145
330
13F
100
AcDbEntity
  8
VERMASSUNG
100
AcDbLine
 10
113.792195099
 20
146.3245322208
 30
0.0
 11
265.8770482467
 21
146.3245322208
 31
0.0
  0
LINE
  5
146
330
13F
100
AcDbEntity
  8
VERMASSUNG
100
AcDbLine
 10
264.8770482467
 20
96.2094127333
 30
0.0
 11
264.8770482467
 21
146.3245322208
 31
0.0
  0
MTEXT
  5
147
330
13F
100
AcDbEntity
  8
VERMASSUNG
100
AcDbMText
 10
262.2989126507
 20
119.866972527
 30
0.0
 40
2.0
 41
0.0
 71
     1
 72
     1
  1
50
  7
SLDTEXTSTYLE0
 11
2.725767599057743E-15
 21
1.0
 31
0.0
 73
     1
 44
1.0
  0
ENDBLK
  5
141
330
13F
100
AcDbEntity
  8
0
100
AcDbBlockEnd
  0
BLOCK
  5
14A
330
149
100
AcDbEntity
  8
0
100
AcDbBlockBegin
  2
_D_3
 70
     0
 10
0.0
 20
0.0
 30
0.0
  3
_D_3
  1

  0
SOLID
  5
14C
330
149
100
AcDbEntity
  8
VERMASSUNG
100
AcDbTrace
 10
232.755291858
 20
125.3244724771
 30
0.0
 11
232.305291858
 21
122.3244724771
 31
0.0
 12
233.205291858
 22
122.3244724771
 32
0.0
 13
233.205291858
 23
122.3244724771
 33
0.0
  0
SOLID
  5
14D
330
149
100
AcDbEntity
  8
VERMASSUNG
100
AcDbTrace
 10
232.755291858
 20
117.2094724771
 30
0.0
 11
233.205291858
 21
120.2094724771
 31
0.0
 12
232.305291858
 22
120.2094724771
 32
0.0
 13
232.305291858
 23
120.2094724771
 33
0.0
  0
LINE
  5
14E
330
149
100
AcDbEntity
  8
VERMASSUNG
100
AcDbLine
 10
220.0099803339
 20
125.3244724771
 30
0.0
 11
233.755291858
 21
125.3244724771
 31
0.0
  0
LINE
  5
14F
330
149
100
AcDbEntity
  8
VERMASSUNG
100
AcDbLine
 10
220.0099803339
 20
117.2094724771
 30
0.0
 11
233.755291858
 21
117.2094724771
 31
0.0
  0
LINE
  5
150
330
149
100
AcDbEntity
  8
VERMASSUNG
100
AcDbLine
 10
232.755291858
 20
125.3244724771
 30
0.0
 11
232.755291858
 21
117.2094724771
 31
0.0
  0
MTEXT
  5
151
330
149
100
AcDbEntity
  8
VERMASSUNG
100
AcDbMText
 10
230.177156262
 20
118.66697247
 30
0.0
 40
2.0
 41
0.0
 71
     1
 72
     1
  1
SW
  7
SLDTEXTSTYLE0
 11
-7.044195017643634E-15
 21
1.0
 31
0.0
 73
     1
 44
1.0
  0
MTEXT
  5
152
330
149
100
AcDbEntity
  8
VERMASSUNG
100
AcDbMText
 10
230.177156262
 20
122.4669725341
 30
0.0
 40
2.0
 41
0.0
 71
     1
 72
     1
  1
8
  7
SLDTEXTSTYLE0
 11
-7.044195017643634E-15
 21
1.0
 31
0.0
 73
     1
 44
1.0
  0
ENDBLK
  5
14B
330
149
100
AcDbEntity
  8
0
100
AcDbBlockEnd
  0
BLOCK
  5
155
330
154
100
AcDbEntity
  8
0
100
AcDbBlockBegin
  2
_D_4
 70
     0
 10
0.0
 20
0.0
 30
0.0
  3
_D_4
  1

  0
SOLID
  5
157
330
154
100
AcDbEntity
  8
VERMASSUNG
100
AcDbTrace
 10
41.1951813871
 20
152.7669724771
 30
0.0
 11
40.7451813871
 21
149.7669724771
 31
0.0
 12
41.6451813871
 22
149.7669724771
 32
0.0
 13
41.6451813871
 23
149.7669724771
 33
0.0
  0
SOLID
  5
158
330
154
100
AcDbEntity
  8
VERMASSUNG
100
AcDbTrace
 10
41.1951813871
 20
89.7669724771
 30
0.0
 11
41.6451813871
 21
92.7669724771
 31
0.0
 12
40.7451813871
 22
92.7669724771
 32
0.0
 13
40.7451813871
 23
92.7669724771
 33
0.0
  0
LINE
  5
159
330
154
100
AcDbEntity
  8
VERMASSUNG
100
AcDbLine
 10
86.3099803339
 20
152.7669724771
 30
0.0
 11
40.1951813871
 21
152.7669724771
 31
0.0
  0
LINE
  5
15A
330
154
100
AcDbEntity
  8
VERMASSUNG
100
AcDbLine
 10
86.3099803339
 20
89.7669724771
 30
0.0
 11
40.1951813871
 21
89.7669724771
 31
0.0
  0
LINE
  5
15B
330
154
100
AcDbEntity
  8
VERMASSUNG
100
AcDbLine
 10
41.1951813871
 20
152.7669724771
 30
0.0
 11
41.1951813871
 21
89.7669724771
 31
0.0
  0
MTEXT
  5
15C
330
154
100
AcDbEntity
  8
VERMASSUNG
100
AcDbMText
 10
38.4170461309
 20
113.5619731792
 30
0.0
 40
2.0
 41
0.0
 71
     1
 72
     1
  1
HSK A
  7
SLDTEXTSTYLE0
 11
-7.044195017643634E-15
 21
1.0
 31
0.0
 73
     1
 44
1.0
  0
MTEXT
  5
15D
330
154
100
AcDbEntity
  8
VERMASSUNG
100
AcDbMText
 10
38.6170460822
 20
122.5619727918
 30
0.0
 40
2.0
 41
0.0
 71
     1
 72
     1
  1
%%c
  7
SLDTEXTSTYLE0
 11
-7.044195017643634E-15
 21
1.0
 31
0.0
 73
     1
 44
1.0
  0
MTEXT
  5
15E
330
154
100
AcDbEntity
  8
VERMASSUNG
100
AcDbMText
 10
38.4170461309
 20
126.1719728061
 30
0.0
 40
2.0
 41
0.0
 71
     1
 72
     1
  1
63
  7
SLDTEXTSTYLE0
 11
-7.044195017643634E-15
 21
1.0
 31
0.0
 73
     1
 44
1.0
  0
ENDBLK
  5
156
330
154
100
AcDbEntity
  8
0
100
AcDbBlockEnd
  0
BLOCK
  5
161
330
160
100
AcDbEntity
  8
0
100
AcDbBlockBegin
  2
_D_5
 70
     0
 10
0.0
 20
0.0
 30
0.0
  3
_D_5
  1

  0
SOLID
  5
163
330
160
100
AcDbEntity
  8
VERMASSUNG
100
AcDbTrace
 10
111.9599803339
 20
162.7669724771
 30
0.0
 11
114.9599803339
 21
162.3169724771
 31
0.0
 12
114.9599803339
 22
163.2169724771
 32
0.0
 13
114.9599803339
 23
163.2169724771
 33
0.0
  0
SOLID
  5
164
330
160
100
AcDbEntity
  8
VERMASSUNG
100
AcDbTrace
 10
186.0099803339
 20
162.7669724771
 30
0.0
 11
183.0099803339
 21
163.2169724771
 31
0.0
 12
183.0099803339
 22
162.3169724771
 32
0.0
 13
183.0099803339
 23
162.3169724771
 33
0.0
  0
LINE
  5
165
330
160
100
AcDbEntity
  8
VERMASSUNG
100
AcDbLine
 10
111.9599803339
 20
151.1134128008
 30
0.0
 11
111.9599803339
 21
163.7669724771
 31
0.0
  0
LINE
  5
166
330
160
100
AcDbEntity
  8
VERMASSUNG
100
AcDbLine
 10
186.0099803339
 20
133.9820025087
 30
0.0
 11
186.0099803339
 21
163.7669724771
 31
0.0
  0
LINE
  5
167
330
160
100
AcDbEntity
  8
VERMASSUNG
100
AcDbLine
 10
111.9599803339
 20
162.7669724771
 30
0.0
 11
186.0099803339
 21
162.7669724771
 31
0.0
  0
MTEXT
  5
168
330
160
100
AcDbEntity
  8
VERMASSUNG
100
AcDbMText
 10
145.7849804148
 20
165.345108073
 30
0.0
 40
2.0
 41
0.0
 71
     1
 72
     1
  1
74.05
  7
SLDTEXTSTYLE0
 73
     1
 44
1.0
  0
ENDBLK
  5
162
330
160
100
AcDbEntity
  8
0
100
AcDbBlockEnd
  0
BLOCK
  5
16B
330
16A
100
AcDbEntity
  8
0
100
AcDbBlockBegin
  2
_D_6
 70
     0
 10
0.0
 20
0.0
 30
0.0
  3
_D_6
  1

  0
SOLID
  5
16D
330
16A
100
AcDbEntity
  8
VERMASSUNG
100
AcDbTrace
 10
186.0099803339
 20
162.7669724771
 30
0.0
 11
189.0099803339
 21
162.3169724771
 31
0.0
 12
189.0099803339
 22
163.2169724771
 32
0.0
 13
189.0099803339
 23
163.2169724771
 33
0.0
  0
SOLID
  5
16E
330
16A
100
AcDbEntity
  8
VERMASSUNG
100
AcDbTrace
 10
205.0099803339
 20
162.7669724771
 30
0.0
 11
202.0099803339
 21
163.2169724771
 31
0.0
 12
202.0099803339
 22
162.3169724771
 32
0.0
 13
202.0099803339
 23
162.3169724771
 33
0.0
  0
LINE
  5
16F
330
16A
100
AcDbEntity
  8
VERMASSUNG
100
AcDbLine
 10
186.0099803339
 20
144.4669724771
 30
0.0
 11
186.0099803339
 21
163.7669724771
 31
0.0
  0
LINE
  5
170
330
16A
100
AcDbEntity
  8
VERMASSUNG
100
AcDbLine
 10
205.0099803339
 20
131.4669724771
 30
0.0
 11
205.0099803339
 21
163.7669724771
 31
0.0
  0
LINE
  5
171
330
16A
100
AcDbEntity
  8
VERMASSUNG
100
AcDbLine
 10
186.0099803339
 20
162.7669724771
 30
0.0
 11
205.0099803339
 21
162.7669724771
 31
0.0
  0
MTEXT
  5
172
330
16A
100
AcDbEntity
  8
VERMASSUNG
100
AcDbMText
 10
194.3099802769
 20
165.345108073
 30
0.0
 40
2.0
 41
0.0
 71
     1
 72
     1
  1
19
  7
SLDTEXTSTYLE0
 73
     1
 44
1.0
  0
ENDBLK
  5
16C
330
16A
100
AcDbEntity
  8
0
100
AcDbBlockEnd
  0
BLOCK
  5
175
330
174
100
AcDbEntity
  8
0
100
AcDbBlockBegin
  2
_D_7
 70
     0
 10
0.0
 20
0.0
 30
0.0
  3
_D_7
  1

  0
SOLID
  5
177
330
174
100
AcDbEntity
  8
VERMASSUNG
100
AcDbTrace
 10
86.0099803339
 20
172.0295003229
 30
0.0
 11
89.0099803339
 21
171.5795003229
 31
0.0
 12
89.0099803339
 22
172.4795003229
 32
0.0
 13
89.0099803339
 23
172.4795003229
 33
0.0
  0
SOLID
  5
178
330
174
100
AcDbEntity
  8
VERMASSUNG
100
AcDbTrace
 10
186.0099803339
 20
172.0295003229
 30
0.0
 11
183.0099803339
 21
172.4795003229
 31
0.0
 12
183.0099803339
 22
171.5795003229
 32
0.0
 13
183.0099803339
 23
171.5795003229
 33
0.0
  0
LINE
  5
179
330
174
100
AcDbEntity
  8
VERMASSUNG
100
AcDbLine
 10
86.0099803339
 20
152.4669724771
 30
0.0
 11
86.0099803339
 21
173.0295003229
 31
0.0
  0
LINE
  5
17A
330
174
100
AcDbEntity
  8
VERMASSUNG
100
AcDbLine
 10
186.0099803339
 20
144.4669724771
 30
0.0
 11
186.0099803339
 21
173.0295003229
 31
0.0
  0
LINE
  5
17B
330
174
100
AcDbEntity
  8
VERMASSUNG
100
AcDbLine
 10
86.0099803339
 20
172.0295003229
 30
0.0
 11
186.0099803339
 21
172.0295003229
 31
0.0
  0
MTEXT
  5
17C
330
174
100
AcDbEntity
  8
VERMASSUNG
100
AcDbMText
 10
134.1099803019
 20
174.6076359189
 30
0.0
 40
2.0
 41
0.0
 71
     1
 72
     1
  1
100
  7
SLDTEXTSTYLE0
 73
     1
 44
1.0
  0
ENDBLK
  5
176
330
174
100
AcDbEntity
  8
0
100
AcDbBlockEnd
  0
BLOCK
  5
17F
330
17E
100
AcDbEntity
  8
0
100
AcDbBlockBegin
  2
_D_8
 70
     0
 10
0.0
 20
0.0
 30
0.0
  3
_D_8
  1

  0
SOLID
  5
181
330
17E
100
AcDbEntity
  8
VERMASSUNG
100
AcDbTrace
 10
54.1099803339
 20
182.6612441905
 30
0.0
 11
57.1099803339
 21
182.2112441905
 31
0.0
 12
57.1099803339
 22
183.1112441905
 32
0.0
 13
57.1099803339
 23
183.1112441905
 33
0.0
  0
SOLID
  5
182
330
17E
100
AcDbEntity
  8
VERMASSUNG
100
AcDbTrace
 10
220.0099803339
 20
182.6612441905
 30
0.0
 11
217.0099803339
 21
183.1112441905
 31
0.0
 12
217.0099803339
 22
182.2112441905
 32
0.0
 13
217.0099803339
 23
182.2112441905
 33
0.0
  0
LINE
  5
183
330
17E
100
AcDbEntity
  8
VERMASSUNG
100
AcDbLine
 10
54.1099803339
 20
140.9576502235
 30
0.0
 11
54.1099803339
 21
183.6612441905
 31
0.0
  0
LINE
  5
184
330
17E
100
AcDbEntity
  8
VERMASSUNG
100
AcDbLine
 10
220.0099803339
 20
127.7669724771
 30
0.0
 11
220.0099803339
 21
183.6612441905
 31
0.0
  0
LINE
  5
185
330
17E
100
AcDbEntity
  8
VERMASSUNG
100
AcDbLine
 10
54.1099803339
 20
182.6612441905
 30
0.0
 11
220.0099803339
 21
182.6612441905
 31
0.0
  0
MTEXT
  5
186
330
17E
100
AcDbEntity
  8
VERMASSUNG
100
AcDbMText
 10
134.1599803708
 20
185.2393797864
 30
0.0
 40
2.0
 41
0.0
 71
     1
 72
     1
  1
165.9
  7
SLDTEXTSTYLE0
 73
     1
 44
1.0
  0
ENDBLK
  5
180
330
17E
100
AcDbEntity
  8
0
100
AcDbBlockEnd
  0
ENDSEC
  0
SECTION
  2
ENTITIES
  0
MTEXT
  5
78
330
1F
100
AcDbEntity
  8
KOPF_DÜNN
100
AcDbMText
 10
13.8892156294
 20
23.8442973028
 30
0.0
 40
3.0
 41
0.0
 71
     1
 72
     1
  1
HA6.D22.K01.100
  7
SLDTEXTSTYLE0
 73
     1
 44
1.0
  0
MTEXT
  5
79
330
1F
100
AcDbEntity
  8
VERMASSUNG
100
AcDbMText
 10
13.9329988022
 20
28.8834360957
 30
0.0
 40
3.0
 41
0.0
 71
     1
 72
     1
  1
Fräsdorn Typ S_Milling arbor type S
  7
SLDTEXTSTYLE0
 73
     1
 44
1.0
  0
MTEXT
  5
7A
330
1F
100
AcDbEntity
  8
VERMASSUNG
100
AcDbMText
 10
98.8601118557
 20
13.8365368761
 30
0.0
 40
2.0
 41
0.0
 71
     1
 72
     1
  1
Datum: 16.02.2018
  7
SLDTEXTSTYLE0
 73
     1
 44
1.0
  0
MTEXT
  5
7C
330
1F
100
AcDbEntity
  8
VERMASSUNG
100
AcDbMText
 10
13.933048693
 20
18.0482802738
 30
0.0
 40
2.0
 41
0.0
 71
     1
 72
     1
  1
HSK A 63 / Ø22
  7
SLDTEXTSTYLE1
 73
     1
 44
1.0
  0
MTEXT
  5
7D
330
1F
100
AcDbEntity
  8
VERMASSUNG
100
AcDbMText
 10
13.9808475933
 20
13.9090974274
 30
0.0
 40
2.0
 41
0.0
 71
     1
 72
     1
  1
Gewicht: 1725g
  7
SLDTEXTSTYLE0
 73
     1
 44
1.0
  0
ARC
  5
7E
330
1F
100
AcDbEntity
  8
0
  6
Continuous
 62
     7
370
    25
100
AcDbCircle
 10
191.1099803339
 20
134.2669724771
 30
0.0
 40
0.5
100
AcDbArc
 50
270.0
 51
0.0
  0
ARC
  5
7F
330
1F
100
AcDbEntity
  8
0
  6
Continuous
 62
     7
370
    25
100
AcDbCircle
 10
191.1099803339
 20
143.2669724771
 30
0.0
 40
0.5000000000000284
100
AcDbArc
 50
0.0
 51
90.0
  0
LINE
  5
80
330
1F
100
AcDbEntity
  8
0
  6
Continuous
 62
     7
370
    25
100
AcDbLine
 10
186.0099818241
 20
133.7669726633
 30
0.0
 11
191.1099787485
 21
133.7669726633
 31
0.0
  0
LINE
  5
81
330
1F
100
AcDbEntity
  8
0
  6
Continuous
 62
     7
370
    25
100
AcDbLine
 10
191.1099787485
 20
143.7669733711
 30
0.0
 11
186.0099818241
 21
143.7669733711
 31
0.0
  0
LINE
  5
82
330
1F
100
AcDbEntity
  8
0
  6
Continuous
 62
     7
370
    25
100
AcDbLine
 10
186.0099818241
 20
98.766971583
 30
0.0
 11
191.1099787485
 21
98.766971583
 31
0.0
  0
LINE
  5
83
330
1F
100
AcDbEntity
  8
0
  6
Continuous
 62
     7
370
    25
100
AcDbLine
 10
191.1099787485
 20
108.7669722908
 30
0.0
 11
186.0099818241
 21
108.7669722908
 31
0.0
  0
ARC
  5
84
330
1F
100
AcDbEntity
  8
0
  6
Continuous
 62
     7
370
    25
100
AcDbCircle
 10
191.1099803339
 20
99.2669724771
 30
0.0
 40
0.5
100
AcDbArc
 50
270.0
 51
0.0
  0
ARC
  5
85
330
1F
100
AcDbEntity
  8
0
  6
Continuous
 62
     7
370
    25
100
AcDbCircle
 10
191.1099803339
 20
108.2669724771
 30
0.0
 40
0.5
100
AcDbArc
 50
0.0
 51
90.0
  0
LINE
  5
86
330
1F
100
AcDbEntity
  8
0
  6
Continuous
 62
     7
370
    25
100
AcDbLine
 10
218.5099731814
 20
129.266972857
 30
0.0
 11
210.0099783074
 21
129.266972857
 31
0.0
  0
LINE
  5
87
330
1F
100
AcDbEntity
  8
0
  6
Continuous
 62
     7
370
    25
100
AcDbLine
 10
210.0099783074
 20
113.2669720971
 30
0.0
 11
218.5099731814
 21
113.2669720971
 31
0.0
  0
ARC
  5
88
330
1F
100
AcDbEntity
  8
0
  6
Continuous
 62
     7
370
    25
100
AcDbCircle
 10
218.5099803339
 20
127.7669724771
 30
0.0
 40
1.5
100
AcDbArc
 50
0.0
 51
90.0
  0
ARC
  5
89
330
1F
100
AcDbEntity
  8
0
  6
Continuous
 62
     7
370
    25
100
AcDbCircle
 10
218.5099803339
 20
114.7669724771
 30
0.0
 40
1.5
100
AcDbArc
 50
270.0
 51
0.0
  0
ARC
  5
8A
330
1F
100
AcDbEntity
  8
0
  6
Continuous
 62
     7
370
    25
100
AcDbCircle
 10
209.6099803339
 20
115.8669724771
 30
0.0
 40
0.3999999999999915
100
AcDbArc
 50
0.0
 51
90.0
  0
ARC
  5
8B
330
1F
100
AcDbEntity
  8
0
  6
Continuous
 62
     7
370
    25
100
AcDbCircle
 10
209.6099803339
 20
126.6669724771
 30
0.0
 40
0.3999999999999773
100
AcDbArc
 50
270.0
 51
0.0
  0
LINE
  5
8C
330
1F
100
AcDbEntity
  8
0
  6
Continuous
 62
     7
370
    25
100
AcDbLine
 10
209.6099789869
 20
126.2669723653
 30
0.0
 11
205.0099830758
 21
126.2669723653
 31
0.0
  0
LINE
  5
8D
330
1F
100
AcDbEntity
  8
0
  6
Continuous
 62
     7
370
    25
100
AcDbLine
 10
205.0099830758
 20
116.2669725888
 30
0.0
 11
209.6099789869
 21
116.2669725888
 31
0.0
  0
ARC
  5
8E
330
1F
100
AcDbEntity
  8
0
  6
Continuous
 62
     7
370
    25
100
AcDbCircle
 10
86.3099803339
 20
90.0669724771
 30
0.0
 40
0.3000000000000114
100
AcDbArc
 50
180.0
 51
270.0
  0
ARC
  5
8F
330
1F
100
AcDbEntity
  8
0
  6
Continuous
 62
     7
370
    25
100
AcDbCircle
 10
86.3099803339
 20
152.4669724771
 30
0.0
 40
0.3000000000000398
100
AcDbArc
 50
90.0
 51
180.0
  0
LINE
  5
90
330
1F
100
AcDbEntity
  8
0
  6
Continuous
 62
     7
370
    25
100
AcDbLine
 10
86.3099803482
 20
89.7669719704
 30
0.0
 11
90.9599803071
 21
89.7669719704
 31
0.0
  0
LINE
  5
91
330
1F
100
AcDbEntity
  8
0
  6
Continuous
 62
     7
370
    25
100
AcDbLine
 10
90.9879688788
 20
152.7669729837
 30
0.0
 11
86.3099803482
 21
152.7669729837
 31
0.0
  0
ARC
  5
92
330
1F
100
AcDbEntity
  8
0
  6
Continuous
 62
     7
370
    25
100
AcDbCircle
 10
113.9599803339
 20
94.2164631316
 30
0.0
 40
1.999999999999992
100
AcDbArc
 50
94.8123490719
 51
160.9900915671
  0
ARC
  5
93
330
1F
100
AcDbEntity
  8
0
  6
Continuous
 62
     7
370
    25
100
AcDbCircle
 10
113.9599803339
 20
148.3174818225
 30
0.0
 40
2.0
100
AcDbArc
 50
198.7059078229
 51
265.1876509281
  0
ARC
  5
94
330
1F
100
AcDbEntity
  8
0
  6
Continuous
 62
     7
370
    25
100
AcDbCircle
 10
138.9599803339
 20
-202.7330275229
 30
0.0
 40
300.0
100
AcDbArc
 50
90.0
 51
94.8123490719
  0
ARC
  5
95
330
1F
100
AcDbEntity
  8
0
  6
Continuous
 62
     7
370
    25
100
AcDbCircle
 10
138.9599803339
 20
445.2669724771
 30
0.0
 40
300.0
100
AcDbArc
 50
265.1876509281
 51
270.0
  0
ARC
  5
96
330
1F
100
AcDbEntity
  8
0
  6
Continuous
 62
     7
370
    25
100
AcDbCircle
 10
85.5099735813
 20
96.6965348627
 30
0.0
 40
0.6000067526677242
100
AcDbArc
 50
33.5571153394
 51
90.0
  0
ARC
  5
97
330
1F
100
AcDbEntity
  8
0
  6
Continuous
 62
     7
370
    25
100
AcDbCircle
 10
85.5099735813
 20
145.8374100915
 30
0.0
 40
0.6000067526677242
100
AcDbArc
 50
270.0
 51
326.4428846606
  0
LINE
  5
98
330
1F
100
AcDbEntity
  8
0
  6
Continuous
 62
     7
370
    25
100
AcDbLine
 10
72.7795578222
 20
144.924756343
 30
0.0
 11
60.2099794578
 21
144.2950183698
 31
0.0
  0
LINE
  5
99
330
1F
100
AcDbEntity
  8
0
  6
Continuous
 62
     7
370
    25
100
AcDbLine
 10
84.009980239
 20
145.4874037006
 30
0.0
 11
81.1913708839
 21
145.3461909839
 31
0.0
  0
LINE
  5
9A
330
1F
100
AcDbEntity
  8
0
  6
Continuous
 62
     7
370
    25
100
AcDbLine
 10
81.1915925387
 20
97.1877427944
 30
0.0
 11
84.009980239
 21
97.0465412536
 31
0.0
  0
LINE
  5
9B
330
1F
100
AcDbEntity
  8
0
  6
Continuous
 62
     7
370
    25
100
AcDbLine
 10
64.2099801134
 20
98.0385264554
 30
0.0
 11
72.7802572455
 21
97.6091532209
 31
0.0
  0
LINE
  5
9C
330
1F
100
AcDbEntity
  8
0
  6
Continuous
 62
     7
370
    25
100
AcDbLine
 10
84.009980239
 20
97.0465412536
 30
0.0
 11
84.8666931651
 21
97.276097367
 31
0.0
  0
LINE
  5
9D
330
1F
100
AcDbEntity
  8
0
  6
Continuous
 62
     7
370
    25
100
AcDbLine
 10
84.8666931651
 20
145.2578475871
 30
0.0
 11
84.009980239
 21
145.4874037006
 31
0.0
  0
LINE
  5
9E
330
1F
100
AcDbEntity
  8
0
  6
Continuous
 62
     7
370
    25
100
AcDbLine
 10
138.9599788617
 20
97.2669722684
 30
0.0
 11
185.209983183
 21
97.2669722684
 31
0.0
  0
LINE
  5
9F
330
1F
100
AcDbEntity
  8
0
  6
Continuous
 62
     7
370
    25
100
AcDbLine
 10
185.209983183
 20
145.2669726857
 30
0.0
 11
138.9599788617
 21
145.2669726857
 31
0.0
  0
ARC
  5
A0
330
1F
100
AcDbEntity
  8
0
  6
Continuous
 62
     7
370
    25
100
AcDbCircle
 10
185.2099803339
 20
98.0669724771
 30
0.0
 40
0.8000000000000114
100
AcDbArc
 50
270.0
 51
0.0
  0
ARC
  5
A1
330
1F
100
AcDbEntity
  8
0
  6
Continuous
 62
     7
370
    25
100
AcDbCircle
 10
185.2099803339
 20
144.4669724771
 30
0.0
 40
0.8000000000000398
100
AcDbArc
 50
0.0
 51
90.0
  0
ARC
  5
A2
330
1F
100
AcDbEntity
  8
0
  6
Continuous
 62
     7
370
    25
100
AcDbCircle
 10
85.0219845344
 20
96.6965416153
 30
0.0
 40
0.6000000000000085
100
AcDbArc
 50
90.0
 51
105.0
  0
ARC
  5
A3
330
1F
100
AcDbEntity
  8
0
  6
Continuous
 62
     7
370
    25
100
AcDbCircle
 10
85.0219845344
 20
145.8374033388
 30
0.0
 40
0.5999999999999943
100
AcDbArc
 50
255.0
 51
270.0
  0
LINE
  5
A4
330
1F
100
AcDbEntity
  8
0
  6
Continuous
 62
     7
370
    25
100
AcDbLine
 10
85.0219845688
 20
97.2965417602
 30
0.0
 11
85.5099735581
 21
97.2965417602
 31
0.0
  0
LINE
  5
A5
330
1F
100
AcDbEntity
  8
0
  6
Continuous
 62
     7
370
    25
100
AcDbLine
 10
85.5099735581
 20
145.2374031939
 30
0.0
 11
85.0219845688
 21
145.2374031939
 31
0.0
  0
LINE
  5
A6
330
1F
100
AcDbEntity
  8
0
  6
Continuous
 62
     7
370
    25
100
AcDbLine
 10
55.3933169376
 20
100.3969723531
 30
0.0
 11
62.809980629
 21
100.3969723531
 31
0.0
  0
ARC
  5
A7
330
1F
100
AcDbEntity
  8
0
  6
Continuous
 62
     7
370
    25
100
AcDbCircle
 10
186.4099803339
 20
110.0169724771
 30
0.0
 40
0.5999999999999943
100
AcDbArc
 50
90.0
 51
131.8103148958
  0
ARC
  5
A8
330
1F
100
AcDbEntity
  8
0
  6
Continuous
 62
     7
370
    25
100
AcDbCircle
 10
186.4099803339
 20
132.5169724771
 30
0.0
 40
0.5999999999999943
100
AcDbArc
 50
228.1896851042
 51
270.0
  0
ARC
  5
A9
330
1F
100
AcDbEntity
  8
0
  6
Continuous
 62
     7
370
    25
100
AcDbCircle
 10
204.2099803339
 20
111.0669724771
 30
0.0
 40
0.8000000000000114
100
AcDbArc
 50
270.0
 51
0.0
  0
ARC
  5
AA
330
1F
100
AcDbEntity
  8
0
  6
Continuous
 62
     7
370
    25
100
AcDbCircle
 10
204.2099803339
 20
131.4669724771
 30
0.0
 40
0.799999999999983
100
AcDbArc
 50
0.0
 51
90.0
  0
LINE
  5
AB
330
1F
100
AcDbEntity
  8
0
  6
Continuous
 62
     7
370
    25
100
AcDbLine
 10
188.5099794399
 20
110.2669725367
 30
0.0
 11
204.2099769842
 21
110.2669725367
 31
0.0
  0
LINE
  5
AC
330
1F
100
AcDbEntity
  8
0
  6
Continuous
 62
     7
370
    25
100
AcDbLine
 10
204.2099769842
 20
132.2669724175
 30
0.0
 11
188.5099794399
 21
132.2669724175
 31
0.0
  0
LINE
  5
AD
330
1F
100
AcDbEntity
  8
0
  6
Continuous
 62
     7
370
    25
100
AcDbLine
 10
188.5099794399
 20
132.2669724175
 30
0.0
 11
187.2800599467
 21
131.9374174052
 31
0.0
  0
LINE
  5
AE
330
1F
100
AcDbEntity
  8
0
  6
Continuous
 62
     7
370
    25
100
AcDbLine
 10
187.2800599467
 20
110.596527549
 30
0.0
 11
188.5099794399
 21
110.2669725367
 31
0.0
  0
ARC
  5
AF
330
1F
100
AcDbEntity
  8
0
  6
Continuous
 62
     7
370
    25
100
AcDbCircle
 10
187.1247710527
 20
110.0169724771
 30
0.0
 40
0.5999999999999998
100
AcDbArc
 50
75.0
 51
90.0
  0
ARC
  5
B0
330
1F
100
AcDbEntity
  8
0
  6
Continuous
 62
     7
370
    25
100
AcDbCircle
 10
187.1247710527
 20
132.5169724771
 30
0.0
 40
0.5999999999999943
100
AcDbArc
 50
270.0
 51
285.0
  0
LINE
  5
B1
330
1F
100
AcDbEntity
  8
0
  6
Continuous
 62
     7
370
    25
100
AcDbLine
 10
186.4099811446
 20
110.6169728734
 30
0.0
 11
187.1247674953
 21
110.6169728734
 31
0.0
  0
LINE
  5
B2
330
1F
100
AcDbEntity
  8
0
  6
Continuous
 62
     7
370
    25
100
AcDbLine
 10
187.1247674953
 20
131.9169720807
 30
0.0
 11
186.4099811446
 21
131.9169720807
 31
0.0
  0
ARC
  5
B3
330
1F
100
AcDbEntity
  8
0
  6
Continuous
 62
     7
370
    25
100
AcDbCircle
 10
62.8099803339
 20
98.9969724771
 30
0.0
 40
1.400000000000006
100
AcDbArc
 50
42.2465410162
 51
90.0
  0
LINE
  5
B4
330
1F
100
AcDbEntity
  8
0
  6
Continuous
 62
     7
370
    25
100
AcDbLine
 10
54.1110124122
 20
101.5459394255
 30
0.0
 11
55.251143096
 21
100.4058087417
 31
0.0
  0
LINE
  5
B5
330
1F
100
AcDbEntity
  8
0
  6
Continuous
 62
     7
370
    25
100
AcDbLine
 10
55.251143096
 20
142.1281362125
 30
0.0
 11
54.1198823284
 21
140.9968735822
 31
0.0
  0
ARC
  5
B6
330
1F
100
AcDbEntity
  8
0
  6
Continuous
 62
     7
370
    25
100
AcDbCircle
 10
58.8099803339
 20
143.5369724771
 30
0.0
 40
1.400000000000008
100
AcDbArc
 50
270.0
 51
301.7485287426
  0
LINE
  5
B7
330
1F
100
AcDbEntity
  8
0
  6
Continuous
 62
     7
370
    25
100
AcDbLine
 10
58.8099799733
 20
142.136972601
 30
0.0
 11
55.3842458557
 21
142.136972601
 31
0.0
  0
LINE
  5
B8
330
1F
100
AcDbEntity
  8
0
  6
Continuous
 62
     7
370
    25
100
AcDbLine
 10
191.6099797617
 20
134.2669727453
 30
0.0
 11
191.6099797617
 21
143.2669723579
 31
0.0
  0
LINE
  5
B9
330
1F
100
AcDbEntity
  8
0
  6
Continuous
 62
     7
370
    25
100
AcDbLine
 10
191.6099797617
 20
99.2669725963
 30
0.0
 11
191.6099797617
 21
108.2669722088
 31
0.0
  0
LINE
  5
BA
330
1F
100
AcDbEntity
  8
0
  6
Continuous
 62
     7
370
    25
100
AcDbLine
 10
210.0099783074
 20
129.266972857
 30
0.0
 11
210.0099783074
 21
113.2669720971
 31
0.0
  0
LINE
  5
BB
330
1F
100
AcDbEntity
  8
0
  6
Continuous
 62
     7
370
    25
100
AcDbLine
 10
220.0099836718
 20
127.7669726112
 30
0.0
 11
220.0099836718
 21
114.7669728086
 31
0.0
  0
LINE
  5
BC
330
1F
100
AcDbEntity
  8
0
  6
Continuous
 62
     7
370
    25
100
AcDbLine
 10
86.0099803339
 20
90.0669733235
 30
0.0
 11
86.0099803339
 21
152.4669716307
 31
0.0
  0
LINE
  5
BD
330
1F
100
AcDbEntity
  8
0
  6
Continuous
 62
     7
370
    25
100
AcDbLine
 10
90.9599803071
 20
141.1169732162
 30
0.0
 11
100.6180477943
 21
141.1169732162
 31
0.0
  0
LINE
  5
BE
330
1F
100
AcDbEntity
  8
0
  6
Continuous
 62
     7
370
    25
100
AcDbLine
 10
100.6180477943
 20
91.0800548442
 30
0.0
 11
100.6180477943
 21
141.1169732162
 31
0.0
  0
LINE
  5
BF
330
1F
100
AcDbEntity
  8
0
  6
Continuous
 62
     7
370
    25
100
AcDbLine
 10
100.6180477943
 20
91.0800548442
 30
0.0
 11
98.9599806871
 21
91.0800548442
 31
0.0
  0
SPLINE
  5
C0
330
1F
100
AcDbEntity
  8
0
  6
Continuous
 62
     7
370
    25
100
AcDbSpline
210
0.0
220
0.0
230
1.0
 70
     8
 71
     3
 72
    28
 73
    24
 74
     0
 42
0.000000001
 43
0.00000001
 40
0.0
 40
0.0
 40
0.0
 40
0.0
 40
0.1250000000000001
 40
0.1250000000000001
 40
0.1875000000000001
 40
0.1875000000000001
 40
0.2500000000000001
 40
0.2500000000000001
 40
0.3749999999999999
 40
0.3749999999999999
 40
0.4375
 40
0.4375
 40
0.4999999999999999
 40
0.4999999999999999
 40
0.6249999999999999
 40
0.6249999999999999
 40
0.7499999999999997
 40
0.7499999999999997
 40
0.8124999999999998
 40
0.8124999999999998
 40
0.8749999999999998
 40
0.8749999999999998
 40
1.0
 40
1.0
 40
1.0
 40
1.0
 10
98.95998033394581
 20
91.08005478081705
 30
0.0
 10
98.42827257645287
 20
91.08005478081705
 30
0.0
 10
97.90603401114255
 20
91.06427006686684
 30
0.0
 10
97.13616352486754
 20
91.01927465279064
 30
0.0
 10
96.88180395267621
 20
91.0007196577149
 30
0.0
 10
96.37768237197768
 20
90.9568669352684
 30
0.0
 10
96.12795955454978
 20
90.93152232831619
 30
0.0
 10
95.40236960310337
 20
90.8481202505661
 30
0.0
 10
94.94400934152182
 20
90.78225469141502
 30
0.0
 10
94.29351139812795
 20
90.67328435092321
 30
0.0
 10
94.08182934733549
 20
90.63504471515657
 30
0.0
 10
93.67775785819748
 20
90.55728597773721
 30
0.0
 10
93.48525134437664
 20
90.51778501556184
 30
0.0
 10
92.93541637335534
 20
90.39887727319585
 30
0.0
 10
92.60548759504653
 20
90.31905959177125
 30
0.0
 10
92.02101632647785
 20
90.16571642997519
 30
0.0
 10
91.77473918846441
 20
90.09438267670595
 30
0.0
 10
91.47489639576634
 20
90.0004391696313
 30
0.0
 10
91.38643953869416
 20
89.97124537627138
 30
0.0
 10
91.23307818538903
 20
89.91777880200796
 30
0.0
 10
91.1679899711628
 20
89.89341946773278
 30
0.0
 10
91.012395955222
 20
89.82982932228806
 30
0.0
 10
90.95998033394581
 20
89.7997263871988
 30
0.0
 10
90.95998033394581
 20
89.78284949420187
 30
0.0
  0
LINE
  5
C1
330
1F
100
AcDbEntity
  8
0
  6
Continuous
 62
     7
370
    25
100
AcDbLine
 10
90.9599803071
 20
89.7828491577
 30
0.0
 11
90.9599803071
 21
89.7669719704
 31
0.0
  0
SPLINE
  5
C2
330
1F
100
AcDbEntity
  8
0
  6
Continuous
 62
     7
370
    25
100
AcDbSpline
210
0.0
220
0.0
230
1.0
 70
     8
 71
     3
 72
    17
 73
    13
 74
     0
 42
0.000000001
 43
0.00000001
 40
0.0
 40
0.0
 40
0.0
 40
0.0
 40
0.1034797280380778
 40
0.2100239090909901
 40
0.3134862262879433
 40
0.4198361712144981
 40
0.5254127947779869
 40
0.6339610881168427
 40
0.7409508662120068
 40
0.8511696072047016
 40
0.9558996557845765
 40
1.0
 40
1.0
 40
1.0
 40
1.0
 10
98.95998068710334
 20
151.7341679134227
 30
0.0
 10
98.52473219537744
 20
151.7396159050603
 30
0.0
 10
97.64134574480043
 20
151.7506732253889
 30
0.0
 10
96.36051788257767
 20
151.837031985764
 30
0.0
 10
95.14310168713574
 20
151.964903128897
 30
0.0
 10
94.03529507080994
 20
152.1238475362155
 30
0.0
 10
93.0470565914811
 20
152.2983421092
 30
0.0
 10
92.22233349166527
 20
152.467508542387
 30
0.0
 10
91.57337983416663
 20
152.6153893508546
 30
0.0
 10
91.156344530687
 20
152.7171801023772
 30
0.0
 10
90.95774778780903
 20
152.7675370020117
 30
0.0
 10
90.98106090479693
 20
152.7616273970362
 30
0.0
 10
90.98796887879736
 20
152.7598763056851
 30
0.0
  0
LINE
  5
C3
330
1F
100
AcDbEntity
  8
0
  6
Continuous
 62
     7
370
    25
100
AcDbLine
 10
100.6180477943
 20
151.7341679134
 30
0.0
 11
98.9599806871
 21
151.7341679134
 31
0.0
  0
LINE
  5
C4
330
1F
100
AcDbEntity
  8
0
  6
Continuous
 62
     7
370
    25
100
AcDbLine
 10
100.6180477943
 20
145.7256620922
 30
0.0
 11
100.6180477943
 21
151.7341679134
 31
0.0
  0
LINE
  5
C5
330
1F
100
AcDbEntity
  8
0
  6
Continuous
 62
     7
370
    25
100
AcDbLine
 10
98.2056010198
 20
145.7256620922
 30
0.0
 11
100.6180477943
 21
145.7256620922
 31
0.0
  0
SPLINE
  5
C6
330
1F
100
AcDbEntity
  8
0
  6
Continuous
 62
     7
370
    25
100
AcDbSpline
210
0.0
220
0.0
230
1.0
 70
     8
 71
     3
 72
    20
 73
    16
 74
     0
 42
0.000000001
 43
0.00000001
 40
0.0
 40
0.0
 40
0.0
 40
0.0
 40
0.2499999999999997
 40
0.2499999999999997
 40
0.3749999999999997
 40
0.3749999999999997
 40
0.4999999999999998
 40
0.4999999999999998
 40
0.6249999999999998
 40
0.6249999999999998
 40
0.7499999999999999
 40
0.7499999999999999
 40
0.8749999999999999
 40
0.8749999999999999
 40
1.0
 40
1.0
 40
1.0
 40
1.0
 10
90.95998033394581
 20
141.1169724770642
 30
0.0
 10
91.20835406823387
 20
141.7708349053616
 30
0.0
 10
91.52792416057913
 20
142.3746206873588
 30
0.0
 10
92.15023039378381
 20
143.2014594235274
 30
0.0
 10
92.38165465421459
 20
143.4638880614803
 30
0.0
 10
92.9028689938643
 20
143.9605507155852
 30
0.0
 10
93.18948947649936
 20
144.1911375946068
 30
0.0
 10
93.80897421780699
 20
144.6076918191894
 30
0.0
 10
94.14327459729394
 20
144.7951896211569
 30
0.0
 10
94.86853506991872
 20
145.1265865987933
 30
0.0
 10
95.2504501273092
 20
145.2660905862886
 30
0.0
 10
96.04523830348089
 20
145.4915440937596
 30
0.0
 10
96.45939649768725
 20
145.5781702053032
 30
0.0
 10
97.32494283826864
 20
145.6961509941573
 30
0.0
 10
97.76283045328046
 20
145.7256621394317
 30
0.0
 10
98.20560067963508
 20
145.7256621394317
 30
0.0
  0
SPLINE
  5
C7
330
1F
100
AcDbEntity
  8
0
  6
Continuous
 62
     7
370
    25
100
AcDbSpline
210
0.0
220
0.0
230
1.0
 70
    11
 71
     3
 72
    70
 73
    66
 74
     0
 42
0.000000001
 43
0.00000001
 40
0.0
 40
0.0
 40
0.0
 40
0.0
 40
0.0312499999999999
 40
0.0312499999999999
 40
0.0624999999999998
 40
0.0624999999999998
 40
0.0937499999999997
 40
0.0937499999999997
 40
0.1249999999999996
 40
0.1249999999999996
 40
0.1562499999999994
 40
0.1562499999999994
 40
0.1874999999999993
 40
0.1874999999999993
 40
0.2187499999999992
 40
0.2187499999999992
 40
0.2499999999999991
 40
0.2499999999999991
 40
0.281249999999999
 40
0.281249999999999
 40
0.3124999999999989
 40
0.3124999999999989
 40
0.3437499999999988
 40
0.3437499999999988
 40
0.3749999999999987
 40
0.3749999999999987
 40
0.4062499999999986
 40
0.4062499999999986
 40
0.4374999999999984
 40
0.4374999999999984
 40
0.4687499999999983
 40
0.4687499999999983
 40
0.4999999999999982
 40
0.4999999999999982
 40
0.5312499999999983
 40
0.5312499999999983
 40
0.5624999999999984
 40
0.5624999999999984
 40
0.5937499999999986
 40
0.5937499999999986
 40
0.6249999999999987
 40
0.6249999999999987
 40
0.6562499999999988
 40
0.6562499999999988
 40
0.6874999999999989
 40
0.6874999999999989
 40
0.718749999999999
 40
0.718749999999999
 40
0.7499999999999991
 40
0.7499999999999991
 40
0.7812499999999992
 40
0.7812499999999992
 40
0.8124999999999993
 40
0.8124999999999993
 40
0.8437499999999994
 40
0.8437499999999994
 40
0.8749999999999996
 40
0.8749999999999996
 40
0.9062499999999997
 40
0.9062499999999997
 40
0.9374999999999998
 40
0.9374999999999998
 40
0.9687499999999999
 40
0.9687499999999999
 40
1.0
 40
1.0
 40
1.0
 40
1.0
 10
94.0099803339458
 20
131.8878793630475
 30
0.0
 10
93.74543499528568
 20
131.8878793630475
 30
0.0
 10
93.48536432790857
 20
131.9125566578327
 30
0.0
 10
92.97378964807315
 20
132.0090283308747
 30
0.0
 10
92.71961436433295
 20
132.0820092468547
 30
0.0
 10
92.23534373427125
 20
132.2717498497933
 30
0.0
 10
92.00570264239009
 20
132.3876105081871
 30
0.0
 10
91.5710982941566
 20
132.6602283541448
 30
0.0
 10
91.36553251750999
 20
132.8182674361985
 30
0.0
 10
90.99697537691476
 20
133.1618102871692
 30
0.0
 10
90.83149439417927
 20
133.3485727312709
 30
0.0
 10
90.53906988474417
 20
133.7521159056677
 30
0.0
 10
90.41496890811767
 20
133.9656129020969
 30
0.0
 10
90.21538971136795
 20
134.4049962160193
 30
0.0
 10
90.13845612550969
 20
134.634136203165
 30
0.0
 10
90.0355990669893
 20
135.100110325925
 30
0.0
 10
90.01012615753018
 20
135.3329927716012
 30
0.0
 10
90.00983574696242
 20
135.7983903066809
 30
0.0
 10
90.03586038073816
 20
136.0332660640753
 30
0.0
 10
90.13800866523015
 20
136.4847592113215
 30
0.0
 10
90.21358511281332
 20
136.7028056867329
 30
0.0
 10
90.41408264395824
 20
137.1239002117707
 30
0.0
 10
90.53921148546662
 20
137.3258215962891
 30
0.0
 10
90.82857028648819
 20
137.697851078808
 30
0.0
 10
90.99398127354368
 20
137.8704793823883
 30
0.0
 10
91.36697183169149
 20
138.1877973869343
 30
0.0
 10
91.5687048647806
 20
138.327584320436
 30
0.0
 10
92.00156411560847
 20
138.5717605739878
 30
0.0
 10
92.23548264849785
 20
138.6769900850293
 30
0.0
 10
92.71966638364046
 20
138.8451472314044
 30
0.0
 10
92.96898200959596
 20
138.9083981219983
 30
0.0
 10
93.48201453402369
 20
138.9939773311009
 30
0.0
 10
93.74730835692833
 20
139.0158494960232
 30
0.0
 10
94.26964297679807
 20
139.0160131456672
 30
0.0
 10
94.52939663927982
 20
138.9950114535712
 30
0.0
 10
95.04600845492506
 20
138.9096090984935
 30
0.0
 10
95.29837449542534
 20
138.8456029152066
 30
0.0
 10
95.77989961695815
 20
138.6787883951654
 30
0.0
 10
96.01275034907172
 20
138.5746552317663
 30
0.0
 10
96.44984019751048
 20
138.3286685792713
 30
0.0
 10
96.65116118616768
 20
138.1889187483225
 30
0.0
 10
97.02024721146756
 20
137.8757806785978
 30
0.0
 10
97.18923196251927
 20
137.7003245193277
 30
0.0
 10
97.47968801917847
 20
137.3274842552275
 30
0.0
 10
97.6027598305406
 20
137.1293624451166
 30
0.0
 10
97.8040960719626
 20
136.7086511023829
 30
0.0
 10
97.88130861790486
 20
136.4866610817154
 30
0.0
 10
97.98351216080492
 20
136.036796142007
 30
0.0
 10
98.00974051225725
 20
135.8065407288903
 30
0.0
 10
98.01021691157435
 20
135.3352247863412
 30
0.0
 10
97.98447449907638
 20
135.1019873706271
 30
0.0
 10
97.88316372271252
 20
134.640310831129
 30
0.0
 10
97.80633108332157
 20
134.4094134440168
 30
0.0
 10
97.6059272441064
 20
133.9671374302252
 30
0.0
 10
97.48325574581435
 20
133.7560749989393
 30
0.0
 10
97.19330845665012
 20
133.3545764882066
 30
0.0
 10
97.02473747728487
 20
133.1636699661307
 30
0.0
 10
96.65646788317173
 20
132.8199446341336
 30
0.0
 10
96.45540602590141
 20
132.6648074479195
 30
0.0
 10
96.01837510731647
 20
132.3897300878398
 30
0.0
 10
95.78622689418687
 20
132.2726138584178
 30
0.0
 10
95.30521661268803
 20
132.0836873733532
 30
0.0
 10
95.05311652985758
 20
132.010612402959
 30
0.0
 10
94.53604704359859
 20
131.9125603438245
 30
0.0
 10
94.27452567260596
 20
131.8878793630475
 30
0.0
 10
94.00998033394582
 20
131.8878793630475
 30
0.0
  0
SPLINE
  5
C8
330
1F
100
AcDbEntity
  8
0
  6
Continuous
 62
     7
370
    25
100
AcDbSpline
210
0.0
220
0.0
230
1.0
 70
    11
 71
     3
 72
    70
 73
    66
 74
     0
 42
0.000000001
 43
0.00000001
 40
0.0
 40
0.0
 40
0.0
 40
0.0
 40
0.0312500000000003
 40
0.0312500000000003
 40
0.0625000000000006
 40
0.0625000000000006
 40
0.0937500000000009
 40
0.0937500000000009
 40
0.1250000000000012
 40
0.1250000000000012
 40
0.1562500000000014
 40
0.1562500000000014
 40
0.1875000000000017
 40
0.1875000000000017
 40
0.2187500000000021
 40
0.2187500000000021
 40
0.2500000000000023
 40
0.2500000000000023
 40
0.2812500000000024
 40
0.2812500000000024
 40
0.3125000000000026
 40
0.3125000000000026
 40
0.3437500000000027
 40
0.3437500000000027
 40
0.3750000000000028
 40
0.3750000000000028
 40
0.4062500000000029
 40
0.4062500000000029
 40
0.4375000000000031
 40
0.4375000000000031
 40
0.4687500000000032
 40
0.4687500000000032
 40
0.5000000000000033
 40
0.5000000000000033
 40
0.5312500000000032
 40
0.5312500000000032
 40
0.562500000000003
 40
0.562500000000003
 40
0.5937500000000029
 40
0.5937500000000029
 40
0.6250000000000027
 40
0.6250000000000027
 40
0.6562500000000026
 40
0.6562500000000026
 40
0.6875000000000024
 40
0.6875000000000024
 40
0.7187500000000022
 40
0.7187500000000022
 40
0.7500000000000021
 40
0.7500000000000021
 40
0.7812500000000019
 40
0.7812500000000019
 40
0.8125000000000016
 40
0.8125000000000016
 40
0.8437500000000013
 40
0.8437500000000013
 40
0.875000000000001
 40
0.875000000000001
 40
0.9062500000000008
 40
0.9062500000000008
 40
0.9375000000000006
 40
0.9375000000000006
 40
0.9687500000000002
 40
0.9687500000000002
 40
1.0
 40
1.0
 40
1.0
 40
1.0
 10
94.00998033394583
 20
146.3259358718434
 30
0.0
 10
93.74543499528568
 20
146.3259358718434
 30
0.0
 10
93.48536432790857
 20
146.3418363122582
 30
0.0
 10
92.97378964807315
 20
146.4037806624325
 30
0.0
 10
92.71961436433295
 20
146.4505828965237
 30
0.0
 10
92.23534373427125
 20
146.5715598799788
 30
0.0
 10
92.00570264239009
 20
146.6451622077856
 30
0.0
 10
91.5710982941566
 20
146.8169864787638
 30
0.0
 10
91.36553251751
 20
146.9159899016912
 30
0.0
 10
90.99697537691476
 20
147.129086315604
 30
0.0
 10
90.83149439417927
 20
147.2439860317337
 30
0.0
 10
90.53906988474417
 20
147.489352930424
 30
0.0
 10
90.41496890811767
 20
147.6177928308943
 30
0.0
 10
90.21538971136796
 20
147.8786849789802
 30
0.0
 10
90.13845612550969
 20
148.0130661503197
 30
0.0
 10
90.03559906698932
 20
148.282386101426
 30
0.0
 10
90.0101261575302
 20
148.4150673656441
 30
0.0
 10
90.00983574696242
 20
148.6762538397751
 30
0.0
 10
90.03586038073816
 20
148.8060188779399
 30
0.0
 10
90.13800866523015
 20
149.0516015122125
 30
0.0
 10
90.21358511281333
 20
149.1682630495214
 30
0.0
 10
90.41408264395825
 20
149.390168239676
 30
0.0
 10
90.53921148546662
 20
149.494779493599
 30
0.0
 10
90.8285702864882
 20
149.684825905207
 30
0.0
 10
90.99398127354368
 20
149.7715855766567
 30
0.0
 10
91.3669718316915
 20
149.9290899524082
 30
0.0
 10
91.5687048647806
 20
149.9974152171955
 30
0.0
 10
92.00156411560847
 20
150.1156449408147
 30
0.0
 10
92.23548264849785
 20
150.1659398569185
 30
0.0
 10
92.71966638364046
 20
150.2458053938082
 30
0.0
 10
92.96898200959596
 20
150.2755465216077
 30
0.0
 10
93.48201453402369
 20
150.315699263116
 30
0.0
 10
93.74730835692831
 20
150.3258975325258
 30
0.0
 10
94.26964297679807
 20
150.3259739909105
 30
0.0
 10
94.52939663927981
 20
150.3161829793015
 30
0.0
 10
95.04600845492506
 20
150.2761161405627
 30
0.0
 10
95.29837449542534
 20
150.2460189737059
 30
0.0
 10
95.77989961695815
 20
150.1667967638757
 30
0.0
 10
96.01275034907172
 20
150.1170392844124
 30
0.0
 10
96.44984019751047
 20
149.9979473419619
 30
0.0
 10
96.65116118616767
 20
149.9296320804147
 30
0.0
 10
97.02024721146756
 20
149.7742311134811
 30
0.0
 10
97.18923196251926
 20
149.6860787714142
 30
0.0
 10
97.47968801917847
 20
149.4956393822979
 30
0.0
 10
97.60275983054059
 20
149.3930148045988
 30
0.0
 10
97.8040960719626
 20
149.1713744579907
 30
0.0
 10
97.88130861790484
 20
149.0526203824432
 30
0.0
 10
97.98351216080492
 20
148.8079544435255
 30
0.0
 10
98.00974051225724
 20
148.680797718077
 30
0.0
 10
98.01021691157435
 20
148.4163495722214
 30
0.0
 10
97.98447449907638
 20
148.2834488919643
 30
0.0
 10
97.88316372271251
 20
148.0166566184822
 30
0.0
 10
97.80633108332157
 20
147.8812927170137
 30
0.0
 10
97.60592724410638
 20
147.6187129217111
 30
0.0
 10
97.48325574581436
 20
147.4917377619574
 30
0.0
 10
97.19330845665012
 20
147.2476583758749
 30
0.0
 10
97.02473747728487
 20
147.1302332511211
 30
0.0
 10
96.65646788317173
 20
146.9170367901726
 30
0.0
 10
96.45540602590141
 20
146.8198626717477
 30
0.0
 10
96.01837510731647
 20
146.6465077845336
 30
0.0
 10
95.78622689418688
 20
146.5721082328769
 30
0.0
 10
95.30521661268801
 20
146.4516553533722
 30
0.0
 10
95.05311652985758
 20
146.4047969781062
 30
0.0
 10
94.53604704359859
 20
146.3418394811225
 30
0.0
 10
94.27452567260596
 20
146.3259358718434
 30
0.0
 10
94.00998033394582
 20
146.3259358718434
 30
0.0
  0
LINE
  5
C9
330
1F
100
AcDbEntity
  8
0
  6
Continuous
 62
     7
370
    25
100
AcDbLine
 10
107.4019122552
 20
91.0800548442
 30
0.0
 11
107.4019122552
 21
141.1169732162
 31
0.0
  0
SPLINE
  5
CA
330
1F
100
AcDbEntity
  8
0
  6
Continuous
 62
     7
370
    25
100
AcDbSpline
210
0.0
220
0.0
230
1.0
 70
     8
 71
     3
 72
     8
 73
     4
 74
     0
 42
0.000000001
 43
0.00000001
 40
0.0
 40
0.0
 40
0.0
 40
0.0
 40
1.0
 40
1.0
 40
1.0
 40
1.0
 10
107.4019131654349
 20
91.08005478081705
 30
0.0
 10
106.9064335047691
 20
91.97558086875041
 30
0.0
 10
106.412319456727
 20
92.87186528380266
 30
0.0
 10
105.9199803339458
 20
93.76913531800936
 30
0.0
  0
LINE
  5
CB
330
1F
100
AcDbEntity
  8
0
  6
Continuous
 62
     7
370
    25
100
AcDbLine
 10
105.9199805986
 20
93.7691351571
 30
0.0
 11
105.9199805986
 21
141.1169732162
 31
0.0
  0
SPLINE
  5
CC
330
1F
100
AcDbEntity
  8
0
  6
Continuous
 62
     7
370
    25
100
AcDbSpline
210
0.0
220
0.0
230
1.0
 70
    24
 71
     3
 72
     8
 73
     4
 74
     0
 42
0.000000001
 43
0.00000001
 40
0.0
 40
0.0
 40
0.0
 40
0.0
 40
1.0
 40
1.0
 40
1.0
 40
1.0
 10
105.9199803339458
 20
141.1169724770642
 30
0.0
 10
106.3999323283107
 20
141.1169724770642
 30
0.0
 10
106.8952330572843
 20
141.1169724770642
 30
0.0
 10
107.4019131654349
 20
141.1169724770642
 30
0.0
  0
LINE
  5
CD
330
1F
100
AcDbEntity
  8
0
  6
Continuous
 62
     7
370
    25
100
AcDbLine
 10
111.3599810432
 20
91.0800548442
 30
0.0
 11
107.4019122552
 21
91.0800548442
 31
0.0
  0
LINE
  5
CE
330
1F
100
AcDbEntity
  8
0
  6
Continuous
 62
     7
370
    25
100
AcDbLine
 10
107.4019122552
 20
141.1169732162
 30
0.0
 11
111.3599810432
 21
141.1169732162
 31
0.0
  0
LINE
  5
CF
330
1F
100
AcDbEntity
  8
0
  6
Continuous
 62
     7
370
    25
100
AcDbLine
 10
111.959980024
 20
91.7066952386
 30
0.0
 11
111.959980024
 21
141.1169732162
 31
0.0
  0
SPLINE
  5
D0
330
1F
100
AcDbEntity
  8
0
  6
Continuous
 62
     7
370
    25
100
AcDbSpline
210
0.0
220
0.0
230
1.0
 70
     8
 71
     3
 72
    10
 73
     6
 74
     0
 42
0.000000001
 43
0.00000001
 40
0.0
 40
0.0
 40
0.0
 40
0.0
 40
0.5
 40
0.5
 40
1.0
 40
1.0
 40
1.0
 40
1.0
 10
111.9599803339458
 20
91.70669507647136
 30
0.0
 10
111.9599803339458
 20
91.5468078082777
 30
0.0
 10
111.89867068271
 20
91.38568055276309
 30
0.0
 10
111.6795710451749
 20
91.15158155440827
 30
0.0
 10
111.5215228388614
 20
91.08005478081705
 30
0.0
 10
111.3599803339458
 20
91.08005478081705
 30
0.0
  0
SPLINE
  5
D1
330
1F
100
AcDbEntity
  8
0
  6
Continuous
 62
     7
370
    25
100
AcDbSpline
210
0.0
220
0.0
230
1.0
 70
    24
 71
     3
 72
    12
 73
     8
 74
     0
 42
0.000000001
 43
0.00000001
 40
0.0
 40
0.0
 40
0.0
 40
0.0
 40
0.2500000000000033
 40
0.2500000000000033
 40
0.5000000000000067
 40
0.5000000000000067
 40
1.0
 40
1.0
 40
1.0
 40
1.0
 10
111.3599803339458
 20
141.1169724770642
 30
0.0
 10
111.4502194016329
 20
141.1169724770642
 30
0.0
 10
111.5411175157393
 20
141.1169724770642
 30
0.0
 10
111.6957145522279
 20
141.1169724770642
 30
0.0
 10
111.760692968336
 20
141.1169724770642
 30
0.0
 10
111.9125279962722
 20
141.1169724770642
 30
0.0
 10
111.9599803339458
 20
141.1169724770642
 30
0.0
 10
111.9599803339458
 20
141.1169724770642
 30
0.0
  0
LINE
  5
D2
330
1F
100
AcDbEntity
  8
0
  6
Continuous
 62
     7
370
    25
100
AcDbLine
 10
102.0999803822
 20
93.7691351571
 30
0.0
 11
102.0999803822
 21
141.1169732162
 31
0.0
  0
SPLINE
  5
D3
330
1F
100
AcDbEntity
  8
0
  6
Continuous
 62
     7
370
    25
100
AcDbSpline
210
0.0
220
0.0
230
1.0
 70
     8
 71
     3
 72
     8
 73
     4
 74
     0
 42
0.000000001
 43
0.00000001
 40
0.0
 40
0.0
 40
0.0
 40
0.0
 40
1.0
 40
1.0
 40
1.0
 40
1.0
 10
102.0999803339458
 20
93.76913531800935
 30
0.0
 10
101.6076412111646
 20
92.87186528380265
 30
0.0
 10
101.1135271631225
 20
91.97558086875041
 30
0.0
 10
100.6180475024568
 20
91.08005478081705
 30
0.0
  0
SPLINE
  5
D4
330
1F
100
AcDbEntity
  8
0
  6
Continuous
 62
     7
370
    25
100
AcDbSpline
210
0.0
220
0.0
230
1.0
 70
    24
 71
     3
 72
     8
 73
     4
 74
     0
 42
0.000000001
 43
0.00000001
 40
0.0
 40
0.0
 40
0.0
 40
0.0
 40
1.0
 40
1.0
 40
1.0
 40
1.0
 10
100.6180475024567
 20
141.1169724770642
 30
0.0
 10
101.1247276106073
 20
141.1169724770642
 30
0.0
 10
101.6200283395809
 20
141.1169724770642
 30
0.0
 10
102.0999803339458
 20
141.1169724770642
 30
0.0
  0
ARC
  5
D5
330
1F
100
AcDbEntity
  8
0
  6
Continuous
 62
     7
370
    25
100
AcDbCircle
 10
94.0067675986
 20
133.1472976685
 30
0.0
 40
4.121170404893566
100
AcDbArc
 50
19.5689031514
 51
159.1018120252
  0
SPLINE
  5
D6
330
1F
100
AcDbEntity
  8
0
  6
Continuous
 62
     7
370
    25
100
AcDbSpline
210
0.0
220
0.0
230
1.0
 70
    24
 71
     3
 72
    14
 73
    10
 74
     0
 42
0.000000001
 43
0.00000001
 40
0.0
 40
0.0
 40
0.0
 40
0.0
 40
0.4999999999999984
 40
0.4999999999999984
 40
0.7499999999999992
 40
0.7499999999999992
 40
0.8749999999999996
 40
0.8749999999999996
 40
1.0
 40
1.0
 40
1.0
 40
1.0
 10
105.8223055316135
 20
94.86697247706421
 30
0.0
 10
105.7755208265653
 20
94.86697247706421
 30
0.0
 10
105.7134696297857
 20
94.86697247706421
 30
0.0
 10
105.5700779912351
 20
94.8669724770642
 30
0.0
 10
105.5139343376839
 20
94.86697247706421
 30
0.0
 10
105.4009833155478
 20
94.86697247706421
 30
0.0
 10
105.3579825535096
 20
94.86697247706421
 30
0.0
 10
105.2539198432031
 20
94.86697247706421
 30
0.0
 10
105.1885876048462
 20
94.86697247706421
 30
0.0
 10
105.1199803339458
 20
94.86697247706421
 30
0.0
  0
SPLINE
  5
D7
330
1F
100
AcDbEntity
  8
0
  6
Continuous
 62
     7
370
    25
100
AcDbSpline
210
0.0
220
0.0
230
1.0
 70
    24
 71
     3
 72
    12
 73
     8
 74
     0
 42
0.000000001
 43
0.00000001
 40
0.0
 40
0.0
 40
0.0
 40
0.0
 40
0.5000000000000017
 40
0.5000000000000017
 40
0.7500000000000008
 40
0.7500000000000008
 40
1.0
 40
1.0
 40
1.0
 40
1.0
 10
105.5256828022548
 20
147.6669724770642
 30
0.0
 10
105.4825972526439
 20
147.6669724770642
 30
0.0
 10
105.4334450508946
 20
147.6669724770642
 30
0.0
 10
105.3369724566067
 20
147.6669724770642
 30
0.0
 10
105.3008708714721
 20
147.6669724770642
 30
0.0
 10
105.2177651136108
 20
147.6669724770642
 30
0.0
 10
105.1697685166445
 20
147.6669724770642
 30
0.0
 10
105.1199803339458
 20
147.6669724770642
 30
0.0
  0
SPLINE
  5
D8
330
1F
100
AcDbEntity
  8
0
  6
Continuous
 62
     7
370
    25
100
AcDbSpline
210
0.0
220
0.0
230
1.0
 70
     8
 71
     3
 72
    10
 73
     6
 74
     0
 42
0.000000001
 43
0.00000001
 40
0.0
 40
0.0
 40
0.0
 40
0.0
 40
0.5
 40
0.5
 40
1.0
 40
1.0
 40
1.0
 40
1.0
 10
105.9199803339458
 20
148.3866263281
 30
0.0
 10
105.9199803339458
 20
148.242856270282
 30
0.0
 10
105.8839312752269
 20
148.1004369077868
 30
0.0
 10
105.7484224144529
 20
147.8505426144296
 30
0.0
 10
105.6485464213567
 20
147.7425122781814
 30
0.0
 10
105.5256828022548
 20
147.6669724770642
 30
0.0
  0
SPLINE
  5
D9
330
1F
100
AcDbEntity
  8
0
  6
Continuous
 62
     7
370
    25
100
AcDbSpline
210
0.0
220
0.0
230
1.0
 70
     8
 71
     3
 72
    10
 73
     6
 74
     0
 42
0.000000001
 43
0.00000001
 40
0.0
 40
0.0
 40
0.0
 40
0.0
 40
0.5
 40
0.5
 40
1.0
 40
1.0
 40
1.0
 40
1.0
 10
105.8938327107857
 20
141.1169724770642
 30
0.0
 10
105.9025223536973
 20
141.1638513263824
 30
0.0
 10
105.9090614184479
 20
141.2112737917837
 30
0.0
 10
105.9178200528409
 20
141.3072105903705
 30
0.0
 10
105.9199803339458
 20
141.355125878381
 30
0.0
 10
105.9199803339458
 20
141.4028391085256
 30
0.0
  0
SPLINE
  5
DA
330
1F
100
AcDbEntity
  8
0
  6
Continuous
 62
     7
370
    25
100
AcDbSpline
210
0.0
220
0.0
230
1.0
 70
     8
 71
     3
 72
    10
 73
     6
 74
     0
 42
0.000000001
 43
0.00000001
 40
0.0
 40
0.0
 40
0.0
 40
0.0
 40
0.5
 40
0.5
 40
1.0
 40
1.0
 40
1.0
 40
1.0
 10
102.4942778656368
 20
147.6669724770642
 30
0.0
 10
102.3727376019683
 20
147.741698644276
 30
0.0
 10
102.2714032416193
 20
147.8506436601927
 30
0.0
 10
102.1357642987309
 20
148.1010741409544
 30
0.0
 10
102.0999803339458
 20
148.2434935030533
 30
0.0
 10
102.0999803339458
 20
148.3866263281
 30
0.0
  0
SPLINE
  5
DB
330
1F
100
AcDbEntity
  8
0
  6
Continuous
 62
     7
370
    25
100
AcDbSpline
210
0.0
220
0.0
230
1.0
 70
    24
 71
     3
 72
    12
 73
     8
 74
     0
 42
0.000000001
 43
0.00000001
 40
0.0
 40
0.0
 40
0.0
 40
0.0
 40
0.2500000000000037
 40
0.2500000000000037
 40
0.5000000000000074
 40
0.5000000000000074
 40
1.0
 40
1.0
 40
1.0
 40
1.0
 10
102.8999803339458
 20
147.6669724770642
 30
0.0
 10
102.8501036516284
 20
147.6669724770642
 30
0.0
 10
102.8021004582248
 20
147.6669724770642
 30
0.0
 10
102.7190523555128
 20
147.6669724770642
 30
0.0
 10
102.6829227760449
 20
147.6669724770642
 30
0.0
 10
102.5870107451007
 20
147.6669724770642
 30
0.0
 10
102.5372520771319
 20
147.6669724770642
 30
0.0
 10
102.4942778656368
 20
147.6669724770642
 30
0.0
  0
SPLINE
  5
DC
330
1F
100
AcDbEntity
  8
0
  6
Continuous
 62
     7
370
    25
100
AcDbSpline
210
0.0
220
0.0
230
1.0
 70
    24
 71
     3
 72
    14
 73
    10
 74
     0
 42
0.000000001
 43
0.00000001
 40
0.0
 40
0.0
 40
0.0
 40
0.0
 40
0.1249999999999991
 40
0.1249999999999991
 40
0.2499999999999982
 40
0.2499999999999982
 40
0.4999999999999998
 40
0.4999999999999998
 40
1.0
 40
1.0
 40
1.0
 40
1.0
 10
102.8999803339458
 20
94.86697247706421
 30
0.0
 10
102.8315424860594
 20
94.86697247706421
 30
0.0
 10
102.7659924472943
 20
94.86697247706421
 30
0.0
 10
102.6615658078863
 20
94.86697247706421
 30
0.0
 10
102.6190211981249
 20
94.86697247706421
 30
0.0
 10
102.5064117375847
 20
94.8669724770642
 30
0.0
 10
102.4508726905652
 20
94.86697247706421
 30
0.0
 10
102.3082609951014
 20
94.8669724770642
 30
0.0
 10
102.2448556401056
 20
94.8669724770642
 30
0.0
 10
102.1976551362781
 20
94.86697247706421
 30
0.0
  0
SPLINE
  5
DD
330
1F
100
AcDbEntity
  8
0
  6
Continuous
 62
     7
370
    25
100
AcDbSpline
210
0.0
220
0.0
230
1.0
 70
     8
 71
     3
 72
    10
 73
     6
 74
     0
 42
0.000000001
 43
0.00000001
 40
0.0
 40
0.0
 40
0.0
 40
0.0
 40
0.5
 40
0.5
 40
1.0
 40
1.0
 40
1.0
 40
1.0
 10
102.0999803339458
 20
141.4028391085256
 30
0.0
 10
102.0999803339458
 20
141.3550676005323
 30
0.0
 10
102.102141577543
 20
141.3073578784706
 30
0.0
 10
102.1108129514031
 20
141.2120627609224
 30
0.0
 10
102.1173421343591
 20
141.1643701969557
 30
0.0
 10
102.126127957106
 20
141.1169724770642
 30
0.0
  0
LINE
  5
DE
330
1F
100
AcDbEntity
  8
0
  6
Continuous
 62
     7
370
    25
100
AcDbLine
 10
105.1199800949
 20
147.666972334
 30
0.0
 11
102.8999808859
 21
147.666972334
 31
0.0
  0
LINE
  5
DF
330
1F
100
AcDbEntity
  8
0
  6
Continuous
 62
     7
370
    25
100
AcDbLine
 10
105.1199800949
 20
94.8669726201
 30
0.0
 11
102.8999808859
 21
94.8669726201
 31
0.0
  0
LINE
  5
E0
330
1F
100
AcDbEntity
  8
0
  6
Continuous
 62
     7
370
    25
100
AcDbLine
 10
64.2099801134
 20
98.0385264554
 30
0.0
 11
64.2099801134
 21
99.303234572
 31
0.0
  0
SPLINE
  5
E1
330
1F
100
AcDbEntity
  8
0
  6
Continuous
 62
     7
370
    25
100
AcDbSpline
210
0.0
220
0.0
230
1.0
 70
     8
 71
     3
 72
    14
 73
    10
 74
     0
 42
0.000000001
 43
0.00000001
 40
0.0
 40
0.0
 40
0.0
 40
0.0
 40
0.25
 40
0.25
 40
0.5
 40
0.5
 40
0.75
 40
0.75
 40
1.0
 40
1.0
 40
1.0
 40
1.0
 10
63.43169321603009
 20
100.4338211535043
 30
0.0
 10
63.48831989123217
 20
100.3261236996674
 30
0.0
 10
63.5828425515219
 20
100.2233341179481
 30
0.0
 10
63.76588752708413
 20
100.0249768057279
 30
0.0
 10
63.85751410403886
 20
99.92891729704968
 30
0.0
 10
64.01636742173206
 20
99.74138825434044
 30
0.0
 10
64.08425802935375
 20
99.6499792815569
 30
0.0
 10
64.18117505506133
 20
99.47160306064673
 30
0.0
 10
64.2099803339464
 20
99.38438115440056
 30
0.0
 10
64.20998033394639
 20
99.3032349458663
 30
0.0
  0
SPLINE
  5
E2
330
1F
100
AcDbEntity
  8
0
  6
Continuous
 62
     7
370
    25
100
AcDbSpline
210
0.0
220
0.0
230
1.0
 70
     8
 71
     3
 72
    14
 73
    10
 74
     0
 42
0.000000001
 43
0.00000001
 40
0.0
 40
0.0
 40
0.0
 40
0.0
 40
0.1249999999999975
 40
0.1249999999999975
 40
0.249999999999995
 40
0.249999999999995
 40
0.4999999999999953
 40
0.4999999999999953
 40
1.0
 40
1.0
 40
1.0
 40
1.0
 10
62.80998033394582
 20
100.8805030157836
 30
0.0
 10
62.85852474260298
 20
100.8862513290639
 30
0.0
 10
62.91144009738789
 20
100.8831504404076
 30
0.0
 10
63.00673544237092
 20
100.8609555962453
 30
0.0
 10
63.04698643965588
 20
100.8437233691494
 30
0.0
 10
63.15125645316886
 20
100.7873954526974
 30
0.0
 10
63.20157842832218
 20
100.7432091067516
 30
0.0
 10
63.32926137584756
 20
100.612201207901
 30
0.0
 10
63.38534682290982
 20
100.5219666876707
 30
0.0
 10
63.43169321603156
 20
100.4338211535048
 30
0.0
  0
SPLINE
  5
E3
330
1F
100
AcDbEntity
  8
0
  6
Continuous
 62
     7
370
    25
100
AcDbSpline
210
0.0
220
0.0
230
1.0
 70
     8
 71
     3
 72
     8
 73
     4
 74
     0
 42
0.000000001
 43
0.00000001
 40
0.0
 40
0.0
 40
0.0
 40
0.0
 40
1.0
 40
1.0
 40
1.0
 40
1.0
 10
60.54145524099959
 20
100.5706577292008
 30
0.0
 10
61.27603226748254
 20
100.6892827402697
 30
0.0
 10
62.03950733687822
 20
100.789268612406
 30
0.0
 10
62.80998033394583
 20
100.8805030157836
 30
0.0
  0
SPLINE
  5
E4
330
1F
100
AcDbEntity
  8
0
  6
Continuous
 62
     7
370
    25
100
AcDbSpline
210
0.0
220
0.0
230
1.0
 70
     8
 71
     3
 72
    14
 73
    10
 74
     0
 42
0.000000001
 43
0.00000001
 40
0.0
 40
0.0
 40
0.0
 40
0.0
 40
0.500000000000001
 40
0.500000000000001
 40
0.7500000000000004
 40
0.7500000000000004
 40
0.8750000000000003
 40
0.8750000000000003
 40
1.0
 40
1.0
 40
1.0
 40
1.0
 10
55.25998033394582
 20
100.3970347116691
 30
0.0
 10
56.1521264644994
 20
100.3963124854685
 30
0.0
 10
57.04210290029299
 20
100.4008986919259
 30
0.0
 10
58.36869806736861
 20
100.4286236963175
 30
0.0
 10
58.80954499586733
 20
100.4412302339417
 30
0.0
 10
59.46598523328975
 20
100.4722463819491
 30
0.0
 10
59.68399888988163
 20
100.4845895545759
 30
0.0
 10
60.11670774356441
 20
100.5176136097392
 30
0.0
 10
60.3319842087292
 20
100.5368307748776
 30
0.0
 10
60.5414552409996
 20
100.5706577292008
 30
0.0
  0
SPLINE
  5
E5
330
1F
100
AcDbEntity
  8
0
  6
Continuous
 62
     7
370
    25
100
AcDbSpline
210
0.0
220
0.0
230
1.0
 70
     8
 71
     3
 72
     8
 73
     4
 74
     0
 42
0.000000001
 43
0.00000001
 40
0.0000005163856712
 40
0.0000005163856712
 40
0.0000005163856712
 40
0.0000005163856712
 40
0.000026289209185
 40
0.000026289209185
 40
0.000026289209185
 40
0.000026289209185
 10
55.24993540352713
 20
100.407018584777
 30
0.0
 10
55.25326314173861
 20
100.4036843379042
 30
0.0
 10
55.2566115947179
 20
100.4003563806252
 30
0.0
 10
55.25998033394579
 20
100.3970347116691
 30
0.0
  0
SPLINE
  5
E6
330
1F
100
AcDbEntity
  8
0
  6
Continuous
 62
     7
370
    25
100
AcDbSpline
210
0.0
220
0.0
230
1.0
 70
     8
 71
     3
 72
     8
 73
     4
 74
     0
 42
0.000000001
 43
0.00000001
 40
0.0000005099763573
 40
0.0000005099763573
 40
0.0000005099763573
 40
0.0000005099763573
 40
0.0000262827998699
 40
0.0000262827998699
 40
0.0000262827998699
 40
0.0000262827998699
 10
55.2599803339458
 20
142.1369102424593
 30
0.0
 10
55.25661159471807
 20
142.1335885735034
 30
0.0
 10
55.25326314173892
 20
142.1302606162245
 30
0.0
 10
55.2499354035276
 20
142.1269263693519
 30
0.0
  0
SPLINE
  5
E7
330
1F
100
AcDbEntity
  8
0
  6
Continuous
 62
     7
370
    25
100
AcDbSpline
210
0.0
220
0.0
230
1.0
 70
     8
 71
     3
 72
    10
 73
     6
 74
     0
 42
0.000000001
 43
0.00000001
 40
0.0
 40
0.0
 40
0.0
 40
0.0
 40
0.5
 40
0.5
 40
1.0
 40
1.0
 40
1.0
 40
1.0
 10
58.80998033394583
 20
142.090059868892
 30
0.0
 10
58.22239478685523
 20
142.1111253891284
 30
0.0
 10
57.63164839339484
 20
142.1218838750006
 30
0.0
 10
56.44762922809598
 20
142.1352486555363
 30
0.0
 10
55.85421523989052
 20
142.1373912982008
 30
0.0
 10
55.25998033394582
 20
142.1369102424593
 30
0.0
  0
SPLINE
  5
E8
330
1F
100
AcDbEntity
  8
0
  6
Continuous
 62
     7
370
    25
100
AcDbSpline
210
0.0
220
0.0
230
1.0
 70
     8
 71
     3
 72
    18
 73
    14
 74
     0
 42
0.000000001
 43
0.00000001
 40
0.0
 40
0.0
 40
0.0
 40
0.0
 40
0.2500000000000009
 40
0.2500000000000009
 40
0.500000000000001
 40
0.500000000000001
 40
0.7500000000000011
 40
0.7500000000000011
 40
0.875000000000001
 40
0.875000000000001
 40
0.9375000000000006
 40
0.9375000000000006
 40
1.0
 40
1.0
 40
1.0
 40
1.0
 10
60.20998033394583
 20
143.1110801494272
 30
0.0
 10
60.20998033394584
 20
143.02787324057
 30
0.0
 10
60.17413123400755
 20
142.9391365852564
 30
0.0
 10
60.04925949797363
 20
142.7570113946962
 30
0.0
 10
59.95885908032577
 20
142.6618813460696
 30
0.0
 10
59.73661642558359
 20
142.4726998369453
 30
0.0
 10
59.60685163913782
 20
142.3777546688505
 30
0.0
 10
59.36621418182631
 20
142.2394759612706
 30
0.0
 10
59.27844688368886
 20
142.1937655279682
 30
0.0
 10
59.12392279648206
 20
142.1359422227468
 30
0.0
 10
59.0673119104273
 20
142.1182274587089
 30
0.0
 10
58.9432678795207
 20
142.093688155476
 30
0.0
 10
58.87555320450241
 20
142.0877090169377
 30
0.0
 10
58.80998033394582
 20
142.090059868892
 30
0.0
  0
LINE
  5
E9
330
1F
100
AcDbEntity
  8
0
  6
Continuous
 62
     7
370
    25
100
AcDbLine
 10
60.2099794578
 20
143.1110801347
 30
0.0
 11
60.2099794578
 21
144.2950183698
 31
0.0
  0
LINE
  5
EA
330
1F
100
AcDbEntity
  8
0
  6
Continuous
 62
     7
370
    25
100
AcDbLine
 10
84.009980239
 20
97.0465412536
 30
0.0
 11
84.009980239
 21
145.4874037006
 31
0.0
  0
SPLINE
  5
EB
330
1F
100
AcDbEntity
  8
0
  6
Continuous
 62
     7
370
    25
100
AcDbSpline
210
0.0
220
0.0
230
1.0
 70
     8
 71
     3
 72
    18
 73
    14
 74
     0
 42
0.000000001
 43
0.00000001
 40
0.0
 40
0.0
 40
0.0
 40
0.0
 40
0.001067142096085
 40
0.1270947925777493
 40
0.2524053537361832
 40
0.3766468838452861
 40
0.4391416358858051
 40
0.5008278334298175
 40
0.5624255844801763
 40
0.6253162510714301
 40
0.7499985254815132
 40
0.8752758926324193
 40
1.0
 40
1.0
 40
1.0
 40
1.0
 10
72.78028145988948
 20
97.60963378332623
 30
0.0
 10
72.77936938460675
 20
97.60951861543418
 30
0.0
 10
72.67074278342622
 20
97.59580231710443
 30
0.0
 10
73.05842425546896
 20
97.64678857848608
 30
0.0
 10
73.92437271557851
 20
97.74634561436059
 30
0.0
 10
75.12478050930133
 20
97.81547624397967
 30
0.0
 10
76.18235605915906
 20
97.8194269442464
 30
0.0
 10
77.00949042328232
 20
97.79194007632215
 30
0.0
 10
77.83476205933016
 20
97.73339758750984
 30
0.0
 10
78.88912726643895
 20
97.61987898555013
 30
0.0
 10
80.05096347269236
 20
97.43672482971661
 30
0.0
 10
81.0031981933655
 20
97.23212468105045
 30
0.0
 10
81.12890329607414
 20
97.20283801104135
 30
0.0
 10
81.19161675309307
 20
97.18822708211907
 30
0.0
  0
SPLINE
  5
EC
330
1F
100
AcDbEntity
  8
0
  6
Continuous
 62
     7
370
    25
100
AcDbSpline
210
0.0
220
0.0
230
1.0
 70
     8
 71
     3
 72
    18
 73
    14
 74
     0
 42
0.000000001
 43
0.00000001
 40
0.0
 40
0.0
 40
0.0
 40
0.0
 40
0.1248907819469273
 40
0.2505384063477967
 40
0.3748721756041158
 40
0.4374907331267689
 40
0.4990776026247599
 40
0.5607931145009658
 40
0.6233901196104445
 40
0.7478191009174896
 40
0.8731941046696081
 40
0.9991614615322162
 40
0.9999999999999999
 40
0.9999999999999999
 40
0.9999999999999999
 40
0.9999999999999999
 10
81.19139789228804
 20
145.3456526794292
 30
0.0
 10
81.12765706032033
 20
145.3309912132021
 30
0.0
 10
80.99978912474076
 20
145.3015794317561
 30
0.0
 10
80.04779028815223
 20
145.0966254723985
 30
0.0
 10
78.8872462172996
 20
144.9133642105349
 30
0.0
 10
77.83498244563621
 20
144.8003336561599
 30
0.0
 10
77.01075514661795
 20
144.7420728486871
 30
0.0
 10
76.18315140129329
 20
144.714625712565
 30
0.0
 10
75.12433407159905
 20
144.7186105064397
 30
0.0
 10
73.9221143319732
 20
144.7877032909356
 30
0.0
 10
73.05693356097431
 20
144.8873120281227
 30
0.0
 10
72.67078481333664
 20
144.938169633766
 30
0.0
 10
72.77886268570025
 20
144.9244688263426
 30
0.0
 10
72.77957738002307
 20
144.9243782260276
 30
0.0
  0
SPLINE
  5
ED
330
1F
100
AcDbEntity
  8
0
  6
Continuous
 62
     7
370
    25
100
AcDbSpline
210
0.0
220
0.0
230
1.0
 70
    11
 71
     3
 72
    70
 73
    66
 74
     0
 42
0.000000001
 43
0.00000001
 40
0.0
 40
0.0
 40
0.0
 40
0.0
 40
0.0312499999999997
 40
0.0312499999999997
 40
0.0624999999999994
 40
0.0624999999999994
 40
0.0937499999999994
 40
0.0937499999999994
 40
0.1249999999999994
 40
0.1249999999999994
 40
0.1562499999999994
 40
0.1562499999999994
 40
0.1874999999999994
 40
0.1874999999999994
 40
0.2187499999999995
 40
0.2187499999999995
 40
0.2499999999999995
 40
0.2499999999999995
 40
0.2812499999999995
 40
0.2812499999999995
 40
0.3124999999999996
 40
0.3124999999999996
 40
0.3437499999999996
 40
0.3437499999999996
 40
0.3749999999999996
 40
0.3749999999999996
 40
0.4062499999999996
 40
0.4062499999999996
 40
0.4374999999999997
 40
0.4374999999999997
 40
0.4687499999999997
 40
0.4687499999999997
 40
0.4999999999999997
 40
0.4999999999999997
 40
0.5312499999999997
 40
0.5312499999999997
 40
0.5624999999999997
 40
0.5624999999999997
 40
0.5937499999999998
 40
0.5937499999999998
 40
0.6249999999999998
 40
0.6249999999999998
 40
0.6562499999999998
 40
0.6562499999999998
 40
0.6874999999999998
 40
0.6874999999999998
 40
0.7187499999999999
 40
0.7187499999999999
 40
0.7499999999999999
 40
0.7499999999999999
 40
0.7812499999999999
 40
0.7812499999999999
 40
0.8124999999999999
 40
0.8124999999999999
 40
0.84375
 40
0.84375
 40
0.875
 40
0.875
 40
0.90625
 40
0.90625
 40
0.9375
 40
0.9375
 40
0.9687500000000001
 40
0.9687500000000001
 40
1.0
 40
1.0
 40
1.0
 40
1.0
 10
144.4715791304711
 20
104.4772457073038
 30
0.0
 10
144.4915753936835
 20
104.6336972503518
 30
0.0
 10
144.5366472394824
 20
104.7874486319131
 30
0.0
 10
144.6735222106247
 20
105.0895039067286
 30
0.0
 10
144.7666312166182
 20
105.2387471215767
 30
0.0
 10
144.9900139319664
 20
105.5179774343098
 30
0.0
 10
145.1213191992603
 20
105.6501341794155
 30
0.0
 10
145.4185209397099
 20
105.8960532193025
 30
0.0
 10
145.5809313018989
 20
106.0071216472742
 30
0.0
 10
145.9311222543214
 20
106.2064754212947
 30
0.0
 10
146.1205858126538
 20
106.2951737937275
 30
0.0
 10
146.5116962879824
 20
106.4435631685861
 30
0.0
 10
146.7143501061596
 20
106.5040871969718
 30
0.0
 10
147.1335679158492
 20
106.597731554704
 30
0.0
 10
147.3498213223564
 20
106.6304241793639
 30
0.0
 10
147.7806546560318
 20
106.6658771062817
 30
0.0
 10
147.9971698615309
 20
106.6691331048271
 30
0.0
 10
148.4324418369749
 20
106.6460842570481
 30
0.0
 10
148.6493831250667
 20
106.6195960862996
 30
0.0
 10
149.0696591441364
 20
106.5388947826945
 30
0.0
 10
149.2748345124556
 20
106.4846244597288
 30
0.0
 10
149.674728720527
 20
106.347329133376
 30
0.0
 10
149.8671148568236
 20
106.2647965289286
 30
0.0
 10
150.2254550737962
 20
106.0772623333685
 30
0.0
 10
150.3931806471256
 20
105.9717078390273
 30
0.0
 10
150.7035429573649
 20
105.7357495814829
 30
0.0
 10
150.8430880311039
 20
105.6072895859507
 30
0.0
 10
151.0824010039915
 20
105.3368375940507
 30
0.0
 10
151.1837912379658
 20
105.1934005242631
 30
0.0
 10
151.3435692331377
 20
104.8919270102891
 30
0.0
 10
151.399156542051
 20
104.7394020587794
 30
0.0
 10
151.4618011341277
 20
104.431313073131
 30
0.0
 10
151.4682401919206
 20
104.2737188862386
 30
0.0
 10
151.4297312988198
 20
103.9706241750642
 30
0.0
 10
151.385693083945
 20
103.823951726253
 30
0.0
 10
151.2481044807603
 20
103.5398988304468
 30
0.0
 10
151.156727234164
 20
103.4071897643074
 30
0.0
 10
150.9338602643222
 20
103.1597441714214
 30
0.0
 10
150.8007957895942
 20
103.0441119122072
 30
0.0
 10
150.5062999207341
 20
102.8374308092437
 30
0.0
 10
150.3440565894447
 20
102.7451190981736
 30
0.0
 10
149.9905180488794
 20
102.5806992890758
 30
0.0
 10
149.8037221266042
 20
102.5107227196769
 30
0.0
 10
149.4132362504382
 20
102.3929883792429
 30
0.0
 10
149.2073854612439
 20
102.3448447993188
 30
0.0
 10
148.7875526016469
 20
102.2719361244939
 30
0.0
 10
148.5746318912583
 20
102.2470968540961
 30
0.0
 10
148.1429587574803
 20
102.2195288664174
 30
0.0
 10
147.9221623519933
 20
102.2169748957708
 30
0.0
 10
147.488020629667
 20
102.2346176373927
 30
0.0
 10
147.2740637905821
 20
102.2545382694732
 30
0.0
 10
146.8523925502037
 20
102.3169843193861
 30
0.0
 10
146.6427818329802
 20
102.3601395242667
 30
0.0
 10
146.2446259713472
 20
102.467950429395
 30
0.0
 10
146.0549599213161
 20
102.5325173616596
 30
0.0
 10
145.6951092232204
 20
102.6847308636358
 30
0.0
 10
145.523409148869
 20
102.7735660812289
 30
0.0
 10
145.2154819780993
 20
102.970086437888
 30
0.0
 10
145.0777267770679
 20
103.0780539524223
 30
0.0
 10
144.8368891623003
 20
103.3159335567625
 30
0.0
 10
144.7337782655316
 20
103.4470395673541
 30
0.0
 10
144.5765700758478
 20
103.7200298363002
 30
0.0
 10
144.5205833822813
 20
103.8633297505053
 30
0.0
 10
144.4575487578961
 20
104.1652382266646
 30
0.0
 10
144.4515828672588
 20
104.3207941642558
 30
0.0
 10
144.4715791304711
 20
104.4772457073038
 30
0.0
  0
SPLINE
  5
EE
330
1F
100
AcDbEntity
  8
0
  6
Continuous
 62
     7
370
    25
100
AcDbSpline
210
0.0
220
0.0
230
1.0
 70
    11
 71
     3
 72
    68
 73
    64
 74
     0
 42
0.000000001
 43
0.00000001
 40
0.0
 40
0.0
 40
0.0
 40
0.0
 40
0.03125
 40
0.03125
 40
0.0625
 40
0.0625
 40
0.09375
 40
0.09375
 40
0.1249999999999999
 40
0.1249999999999999
 40
0.1562499999999999
 40
0.1562499999999999
 40
0.1874999999999999
 40
0.1874999999999999
 40
0.2187499999999999
 40
0.2187499999999999
 40
0.2499999999999999
 40
0.2499999999999999
 40
0.2812499999999999
 40
0.2812499999999999
 40
0.3124999999999999
 40
0.3124999999999999
 40
0.3437500000000002
 40
0.3437500000000002
 40
0.3750000000000005
 40
0.3750000000000005
 40
0.4062500000000008
 40
0.4062500000000008
 40
0.4375000000000011
 40
0.4375000000000011
 40
0.4687500000000014
 40
0.4687500000000014
 40
0.5000000000000018
 40
0.5000000000000018
 40
0.5312500000000021
 40
0.5312500000000021
 40
0.5625000000000024
 40
0.5625000000000024
 40
0.6250000000000028
 40
0.6250000000000028
 40
0.6562500000000026
 40
0.6562500000000026
 40
0.6875000000000023
 40
0.6875000000000023
 40
0.7187500000000021
 40
0.7187500000000021
 40
0.7500000000000019
 40
0.7500000000000019
 40
0.7812500000000017
 40
0.7812500000000017
 40
0.8125000000000014
 40
0.8125000000000014
 40
0.8437500000000012
 40
0.8437500000000012
 40
0.8750000000000009
 40
0.8750000000000009
 40
0.9062500000000007
 40
0.9062500000000007
 40
0.9375000000000004
 40
0.9375000000000004
 40
0.9687500000000002
 40
0.9687500000000002
 40
1.0
 40
1.0
 40
1.0
 40
1.0
 10
145.2678883616544
 20
139.5942084249315
 30
0.0
 10
145.4166558839469
 20
139.6984686545993
 30
0.0
 10
145.5788637462359
 20
139.7902362422432
 30
0.0
 10
145.9275560207094
 20
139.9523342254905
 30
0.0
 10
146.1158276141985
 20
140.0231252339469
 30
0.0
 10
146.5082754798788
 20
140.1413972562527
 30
0.0
 10
146.710903988667
 20
140.1886996348244
 30
0.0
 10
147.128422393841
 20
140.2614254832029
 30
0.0
 10
147.3451644285705
 20
140.2868368570911
 30
0.0
 10
147.7771236840114
 20
140.3144246116407
 30
0.0
 10
147.9933985119193
 20
140.3169767000107
 30
0.0
 10
148.4265366832605
 20
140.2997152048369
 30
0.0
 10
148.6448421177085
 20
140.2795192812301
 30
0.0
 10
149.066306050241
 20
140.2171909021839
 30
0.0
 10
149.2712134858259
 20
140.1751435448325
 30
0.0
 10
149.6690587935336
 20
140.0679626397636
 30
0.0
 10
149.8631384102279
 20
140.0020976444986
 30
0.0
 10
150.2227134847302
 20
139.850234824098
 30
0.0
 10
150.3901843547405
 20
139.7639086900192
 30
0.0
 10
150.6988952200233
 20
139.5679353437993
 30
0.0
 10
150.8403975167384
 20
139.4573705826169
 30
0.0
 10
151.0806707789942
 20
139.2207110279141
 30
0.0
 10
151.1815575587399
 20
139.0935624928463
 30
0.0
 10
151.3412270950125
 20
138.8189884593085
 30
0.0
 10
151.3982704503247
 20
138.6732123878248
 30
0.0
 10
151.4614796601658
 20
138.3757893037253
 30
0.0
 10
151.468382358928
 20
138.2205331042185
 30
0.0
 10
151.4304780676773
 20
137.9096616097289
 30
0.0
 10
151.3866061981044
 20
137.7558641210751
 30
0.0
 10
151.2506979761152
 20
137.4518525161751
 30
0.0
 10
151.1586691988138
 20
137.3030636854287
 30
0.0
 10
150.936678955395
 20
137.0232545824738
 30
0.0
 10
150.8043231564063
 20
136.8892525048037
 30
0.0
 10
150.5094793979245
 20
136.6438373326003
 30
0.0
 10
150.3475748804823
 20
136.532281491863
 30
0.0
 10
149.9963934745305
 20
136.3312035182245
 30
0.0
 10
149.8077351853244
 20
136.2424516441063
 30
0.0
 10
149.2225169686678
 20
136.0189249674218
 30
0.0
 10
148.7943849825449
 20
135.9227803696804
 30
0.0
 10
148.1480761544641
 20
135.8683984493269
 30
0.0
 10
147.9293435022577
 20
135.8647347980643
 30
0.0
 10
147.4926564594389
 20
135.887325844625
 30
0.0
 10
147.278324388668
 20
135.9132235320732
 30
0.0
 10
146.8575084990748
 20
135.9933167276727
 30
0.0
 10
146.6496148285619
 20
136.0479989930668
 30
0.0
 10
146.2487265692492
 20
136.1852007554208
 30
0.0
 10
146.0586758407217
 20
136.2664652214812
 30
0.0
 10
145.6995161243572
 20
136.4537034590822
 30
0.0
 10
145.5288994093481
 20
136.5608230744637
 30
0.0
 10
145.2184120002727
 20
136.7964845164486
 30
0.0
 10
145.080371905403
 20
136.9231823067166
 30
0.0
 10
144.8399399433578
 20
137.1939474845549
 30
0.0
 10
144.7365183680669
 20
137.3402372403803
 30
0.0
 10
144.577797793659
 20
137.6390170572826
 30
0.0
 10
144.5217325052333
 20
137.7912565894242
 30
0.0
 10
144.4582062838803
 20
138.1011420249245
 30
0.0
 10
144.4517255840168
 20
138.2585350038846
 30
0.0
 10
144.4897342753698
 20
138.5611332261694
 30
0.0
 10
144.5344155077989
 20
138.7101915014599
 30
0.0
 10
144.6713147672047
 20
138.9930351666055
 30
0.0
 10
144.7621712867861
 20
139.1254735466397
 30
0.0
 10
144.9860837299153
 20
139.3742841369933
 30
0.0
 10
145.119120839362
 20
139.4899481952637
 30
0.0
 10
145.2678883616544
 20
139.5942084249315
 30
0.0
  0
SPLINE
  5
EF
330
1F
100
AcDbEntity
  8
0
  6
Continuous
 62
     7
370
    25
100
AcDbSpline
210
0.0
220
0.0
230
1.0
 70
    11
 71
     3
 72
    82
 73
    78
 74
     0
 42
0.000000001
 43
0.00000001
 40
0.0
 40
0.0
 40
0.0
 40
0.0
 40
0.0312499999999997
 40
0.0312499999999997
 40
0.0468749999999995
 40
0.0468749999999995
 40
0.0624999999999993
 40
0.0624999999999993
 40
0.093749999999999
 40
0.093749999999999
 40
0.1249999999999987
 40
0.1249999999999987
 40
0.1562499999999983
 40
0.1562499999999983
 40
0.187499999999998
 40
0.187499999999998
 40
0.2187499999999976
 40
0.2187499999999976
 40
0.2499999999999973
 40
0.2499999999999973
 40
0.2656249999999971
 40
0.2656249999999971
 40
0.2812499999999968
 40
0.2812499999999968
 40
0.3124999999999966
 40
0.3124999999999966
 40
0.3281249999999963
 40
0.3281249999999963
 40
0.3437499999999962
 40
0.3437499999999962
 40
0.3749999999999958
 40
0.3749999999999958
 40
0.4062499999999955
 40
0.4062499999999955
 40
0.4374999999999951
 40
0.4374999999999951
 40
0.4687499999999948
 40
0.4687499999999948
 40
0.4999999999999944
 40
0.4999999999999944
 40
0.5312499999999941
 40
0.5312499999999941
 40
0.5624999999999938
 40
0.5624999999999938
 40
0.5937499999999934
 40
0.5937499999999934
 40
0.6249999999999931
 40
0.6249999999999931
 40
0.6406249999999929
 40
0.6406249999999929
 40
0.6562499999999927
 40
0.6562499999999927
 40
0.687499999999993
 40
0.687499999999993
 40
0.7187499999999933
 40
0.7187499999999933
 40
0.7499999999999937
 40
0.7499999999999937
 40
0.7812499999999941
 40
0.7812499999999941
 40
0.7968749999999942
 40
0.7968749999999942
 40
0.8124999999999944
 40
0.8124999999999944
 40
0.8437499999999948
 40
0.8437499999999948
 40
0.8593749999999952
 40
0.8593749999999952
 40
0.8749999999999957
 40
0.8749999999999957
 40
0.9062499999999968
 40
0.9062499999999968
 40
0.9374999999999979
 40
0.9374999999999979
 40
0.968749999999999
 40
0.968749999999999
 40
1.0
 40
1.0
 40
1.0
 40
1.0
 10
162.2099803339459
 20
110.5517236169903
 30
0.0
 10
161.8557730010037
 20
110.5517236169903
 30
0.0
 10
161.5070586178335
 20
110.5808319127838
 30
0.0
 10
160.9919202736062
 20
110.6667864531914
 30
0.0
 10
160.821538957404
 20
110.7025406958256
 30
0.0
 10
160.4834988525086
 20
110.788677015748
 30
0.0
 10
160.3149756429462
 20
110.8393945998633
 30
0.0
 10
159.822183916773
 20
111.0116585956066
 30
0.0
 10
159.5096561588774
 20
111.1529657195402
 30
0.0
 10
158.9164157404124
 20
111.4896139544442
 30
0.0
 10
158.6328881166024
 20
111.687705233852
 30
0.0
 10
158.119768454085
 20
112.1283210000639
 30
0.0
 10
157.888880396719
 20
112.3705751018731
 30
0.0
 10
157.4796016329983
 20
112.901565615608
 30
0.0
 10
157.3011034774661
 20
113.1925114927049
 30
0.0
 10
157.0160876761019
 20
113.7966004746078
 30
0.0
 10
156.9067579868118
 20
114.1126334035312
 30
0.0
 10
156.7577239062576
 20
114.7748844241944
 30
0.0
 10
156.7202372660744
 20
115.1138370612583
 30
0.0
 10
156.7193836542356
 20
115.6225345743497
 30
0.0
 10
156.7282606409556
 20
115.7927422683941
 30
0.0
 10
156.7647419621399
 20
116.1344557174229
 30
0.0
 10
156.7925736333418
 20
116.3065044934284
 30
0.0
 10
156.902374714532
 20
116.8123204084834
 30
0.0
 10
157.0105416524853
 20
117.1397441648411
 30
0.0
 10
157.2243814327643
 20
117.6160955421837
 30
0.0
 10
157.3048380895533
 20
117.7731641133669
 30
0.0
 10
157.4799877574072
 20
118.0759989217921
 30
0.0
 10
157.5748106379959
 20
118.2222900043445
 30
0.0
 10
157.8803347578294
 20
118.6461833921954
 30
0.0
 10
158.1136218547447
 20
118.9105187879965
 30
0.0
 10
158.6296329587741
 20
119.3909832011694
 30
0.0
 10
158.9076108620383
 20
119.6033526539561
 30
0.0
 10
159.501725176234
 20
119.9745690869348
 30
0.0
 10
159.8209634279604
 20
120.1341567274349
 30
0.0
 10
160.4747596395077
 20
120.3877658393258
 30
0.0
 10
160.8110677222584
 20
120.483525505156
 30
0.0
 10
161.5024596855743
 20
120.613013828471
 30
0.0
 10
161.8567111493213
 20
120.6457633835185
 30
0.0
 10
162.555918352109
 20
120.6462108304242
 30
0.0
 10
162.9043955445414
 20
120.6147203090647
 30
0.0
 10
163.599017728616
 20
120.4860986406106
 30
0.0
 10
163.9383680759629
 20
120.3898378521449
 30
0.0
 10
164.5897490546031
 20
120.1383085141169
 30
0.0
 10
164.9048697409855
 20
119.9820016482735
 30
0.0
 10
165.5052793988916
 20
119.6086583118029
 30
0.0
 10
165.7830444259806
 20
119.3965911079314
 30
0.0
 10
166.1665428500166
 20
119.0412388304218
 30
0.0
 10
166.2888124892587
 20
118.916536378032
 30
0.0
 10
166.521821141473
 20
118.6542208332073
 30
0.0
 10
166.6329577096437
 20
118.5159240102966
 30
0.0
 10
166.9411096654441
 20
118.090606069542
 30
0.0
 10
167.1155364787825
 20
117.7909925567625
 30
0.0
 10
167.401820898144
 20
117.1598866159786
 30
0.0
 10
167.5137019235893
 20
116.8251300575087
 30
0.0
 10
167.6614681230265
 20
116.1543702660046
 30
0.0
 10
167.6994517438973
 20
115.815217002354
 30
0.0
 10
167.7011186891219
 20
115.1293037509194
 30
0.0
 10
167.6642172385114
 20
114.7899991356063
 30
0.0
 10
167.5554800739431
 20
114.2975934639945
 30
0.0
 10
167.5102717976947
 20
114.1356038466965
 30
0.0
 10
167.401628336745
 20
113.8159107005811
 30
0.0
 10
167.3379726726668
 20
113.6580369998817
 30
0.0
 10
167.1241378421527
 20
113.2016000775906
 30
0.0
 10
166.9502085433629
 20
112.9162501030028
 30
0.0
 10
166.6431824173297
 20
112.5151280606823
 30
0.0
 10
166.5325224537095
 20
112.3854306417743
 30
0.0
 10
166.3000823582001
 20
112.1400238517748
 30
0.0
 10
166.1779710475769
 20
112.0237550214536
 30
0.0
 10
165.7945065828185
 20
111.6933469166876
 30
0.0
 10
165.5144885008979
 20
111.4964960881746
 30
0.0
 10
164.915387094501
 20
111.1551957338668
 30
0.0
 10
164.6021186439876
 20
111.0136040917884
 30
0.0
 10
163.9493465411258
 20
110.784569135872
 30
0.0
 10
163.6066659244221
 20
110.6968392592335
 30
0.0
 10
162.9145608403441
 20
110.5808638936073
 30
0.0
 10
162.5641876668881
 20
110.5517236169903
 30
0.0
 10
162.2099803339459
 20
110.5517236169903
 30
0.0
  0
LINE
  5
F0
330
1F
100
AcDbEntity
  8
0
  6
Continuous
 62
     7
370
    25
100
AcDbLine
 10
186.0099818241
 20
98.0669727721
 30
0.0
 11
186.0099818241
 21
144.466972182
 31
0.0
  0
SPLINE
  5
F1
330
1F
100
AcDbEntity
  8
0
  6
Continuous
 62
     7
370
    25
100
AcDbSpline
210
0.0
220
0.0
230
1.0
 70
     8
 71
     3
 72
     9
 73
     5
 74
     0
 42
0.000000001
 43
0.00000001
 40
0.0
 40
0.0
 40
0.0
 40
0.0
 40
0.7009339503679092
 40
0.9999999999999999
 40
0.9999999999999999
 40
0.9999999999999999
 40
0.9999999999999999
 10
54.1307639013744
 20
101.5656927772618
 30
0.0
 10
54.13990457232423
 20
101.5478634935009
 30
0.0
 10
54.15294527458305
 20
101.5224270258401
 30
0.0
 10
54.16810873785133
 20
101.5763063853137
 30
0.0
 10
54.17264361490971
 20
101.5924198725081
 30
0.0
  0
LINE
  5
F2
330
1F
100
AcDbEntity
  8
0
  6
Continuous
 62
     7
370
    25
100
AcDbLine
 10
54.1099805068
 20
101.5762949535
 30
0.0
 11
54.1099805068
 21
140.9576500007
 31
0.0
  0
SPLINE
  5
F3
330
1F
100
AcDbEntity
  8
0
  6
Continuous
 62
     7
370
    25
100
AcDbSpline
210
0.0
220
0.0
230
1.0
 70
     8
 71
     3
 72
    10
 73
     6
 74
     0
 42
0.000000001
 43
0.00000001
 40
0.0
 40
0.0
 40
0.0
 40
0.0
 40
0.5
 40
0.5
 40
1.0
 40
1.0
 40
1.0
 40
1.0
 10
54.17264370866923
 20
140.9415250218449
 30
0.0
 10
54.16373941956046
 20
140.9872665410581
 30
0.0
 10
54.14722403936747
 20
141.0044573805271
 30
0.0
 10
54.12011609330586
 20
141.0041341035914
 30
0.0
 10
54.10998033394582
 20
140.986256561295
 30
0.0
 10
54.10998033394582
 20
140.9576502235423
 30
0.0
  0
SPLINE
  5
F4
330
1F
100
AcDbEntity
  8
0
  6
Continuous
 62
     7
370
    25
100
AcDbSpline
210
0.0
220
0.0
230
1.0
 70
     8
 71
     3
 72
    26
 73
    22
 74
     0
 42
0.000000001
 43
0.00000001
 40
0.0
 40
0.0
 40
0.0
 40
0.0
 40
0.2500000000000165
 40
0.2500000000000165
 40
0.3750000000000256
 40
0.3750000000000256
 40
0.4375000000000291
 40
0.4375000000000291
 40
0.4687500000000291
 40
0.4687500000000291
 40
0.5000000000000292
 40
0.5000000000000292
 40
0.5312500000000293
 40
0.5312500000000293
 40
0.5625000000000293
 40
0.5625000000000293
 40
0.625000000000026
 40
0.625000000000026
 40
0.7500000000000173
 40
0.7500000000000173
 40
1.0
 40
1.0
 40
1.0
 40
1.0
 10
54.93413398005033
 20
141.6570918106621
 30
0.0
 10
54.89553345718186
 20
141.5393171143066
 30
0.0
 10
54.84923645462759
 20
141.4149274281447
 30
0.0
 10
54.75529710619367
 20
141.2097080957912
 30
0.0
 10
54.71998563928021
 20
141.1381352293448
 30
0.0
 10
54.65380566353453
 20
141.0221819967443
 30
0.0
 10
54.62926729686632
 20
140.9815974619341
 30
0.0
 10
54.58589455131252
 20
140.9174557800623
 30
0.0
 10
54.57038614988733
 20
140.8955893547773
 30
0.0
 10
54.53534350530029
 20
140.8499950864341
 30
0.0
 10
54.51579321458053
 20
140.8263247954666
 30
0.0
 10
54.47386593420991
 20
140.7817082361267
 30
0.0
 10
54.45121382397827
 20
140.7608282236088
 30
0.0
 10
54.41024010989165
 20
140.729954809858
 30
0.0
 10
54.39264080999623
 20
140.7201159400256
 30
0.0
 10
54.34801382414008
 20
140.7011263243294
 30
0.0
 10
54.32745460148675
 20
140.7008019996759
 30
0.0
 10
54.27632916199007
 20
140.7100254405522
 30
0.0
 10
54.25541774900153
 20
140.7312723367691
 30
0.0
 10
54.2039678414406
 20
140.8052412155999
 30
0.0
 10
54.18630254213605
 20
140.8713593089146
 30
0.0
 10
54.17264370866923
 20
140.9415250218449
 30
0.0
  0
SPLINE
  5
F5
330
1F
100
AcDbEntity
  8
0
  6
Continuous
 62
     7
370
    25
100
AcDbSpline
210
0.0
220
0.0
230
1.0
 70
     8
 71
     3
 72
    10
 73
     6
 74
     0
 42
0.000000001
 43
0.00000001
 40
0.0
 40
0.0
 40
0.0
 40
0.0
 40
0.5
 40
0.5
 40
1.0
 40
1.0
 40
1.0
 40
1.0
 10
55.24993540352763
 20
142.1269263693519
 30
0.0
 10
55.18237614860938
 20
142.0592349765421
 30
0.0
 10
55.11873949327288
 20
141.9845278117885
 30
0.0
 10
55.00851873870101
 20
141.8255616793618
 30
0.0
 10
54.96170244547839
 20
141.7412064133538
 30
0.0
 10
54.93413398005031
 20
141.6570918106621
 30
0.0
  0
SPLINE
  5
F6
330
1F
100
AcDbEntity
  8
0
  6
Continuous
 62
     7
370
    25
100
AcDbSpline
210
0.0
220
0.0
230
1.0
 70
     8
 71
     3
 72
    10
 73
     6
 74
     0
 42
0.000000001
 43
0.00000001
 40
0.0
 40
0.0
 40
0.0
 40
0.0
 40
0.5
 40
0.5
 40
1.0
 40
1.0
 40
1.0
 40
1.0
 10
54.93413398005037
 20
100.8768531434662
 30
0.0
 10
54.96161139480357
 20
100.7930163470006
 30
0.0
 10
55.00832002509124
 20
100.7087058594138
 30
0.0
 10
55.11859848783318
 20
100.549584628931
 30
0.0
 10
55.18248602644482
 20
100.4745998848429
 30
0.0
 10
55.24993540352715
 20
100.407018584777
 30
0.0
  0
SPLINE
  5
F7
330
1F
100
AcDbEntity
  8
0
  6
Continuous
 62
     7
370
    25
100
AcDbSpline
210
0.0
220
0.0
230
1.0
 70
     8
 71
     3
 72
    24
 73
    20
 74
     0
 42
0.000000001
 43
0.00000001
 40
0.0
 40
0.0
 40
0.0
 40
0.0
 40
0.25
 40
0.25
 40
0.374999999999999
 40
0.374999999999999
 40
0.4374999999999993
 40
0.4374999999999993
 40
0.4687499999999994
 40
0.4687499999999994
 40
0.4999999999999995
 40
0.4999999999999995
 40
0.5624999999999971
 40
0.5624999999999971
 40
0.6249999999999947
 40
0.6249999999999947
 40
0.7499999999999947
 40
0.7499999999999947
 40
1.0
 40
1.0
 40
1.0
 40
1.0
 10
54.17264370866923
 20
101.5924199322835
 30
0.0
 10
54.18639682733944
 20
101.6630699902737
 30
0.0
 10
54.20416939474531
 20
101.7296681030387
 30
0.0
 10
54.25642048630067
 20
101.8037661232719
 30
0.0
 10
54.27745556188223
 20
101.8250239304334
 30
0.0
 10
54.33035596951066
 20
101.8331698565797
 30
0.0
 10
54.35146164238858
 20
101.8322300531839
 30
0.0
 10
54.39751381106655
 20
101.8112140616066
 30
0.0
 10
54.41588428304994
 20
101.800305255499
 30
0.0
 10
54.45743591811564
 20
101.7676703445516
 30
0.0
 10
54.48000259087256
 20
101.7461783641802
 30
0.0
 10
54.54278360733257
 20
101.6777124205939
 30
0.0
 10
54.57591336830048
 20
101.6316379623888
 30
0.0
 10
54.63283105478548
 20
101.5466300740541
 30
0.0
 10
54.65701708028925
 20
101.5063497728728
 30
0.0
 10
54.72222503066901
 20
101.3914135464068
 30
0.0
 10
54.75694109086025
 20
101.3208305612598
 30
0.0
 10
54.85015636119115
 20
101.1166248021812
 30
0.0
 10
54.89582889655181
 20
100.9937264198538
 30
0.0
 10
54.93413398005035
 20
100.8768531434662
 30
0.0
  0
SPLINE
  5
F8
330
1F
100
AcDbEntity
  8
0
  6
Continuous
 62
     7
370
    25
100
AcDbSpline
210
0.0
220
0.0
230
1.0
 70
     8
 71
     3
 72
     8
 73
     4
 74
     0
 42
0.000000001
 43
0.00000001
 40
0.0
 40
0.0
 40
0.0
 40
0.0
 40
1.0
 40
1.0
 40
1.0
 40
1.0
 10
102.0999803339458
 20
149.0722066682358
 30
0.0
 10
101.6072702371001
 20
149.9602256663622
 30
0.0
 10
101.1131875318211
 20
150.8474883020482
 30
0.0
 10
100.6180475024568
 20
151.7341679502285
 30
0.0
  0
LINE
  5
F9
330
1F
100
AcDbEntity
  8
0
  6
Continuous
 62
     7
370
    25
100
AcDbLine
 10
102.0999803822
 20
142.317116464
 30
0.0
 11
102.0999803822
 21
149.0722058513
 31
0.0
  0
SPLINE
  5
FA
330
1F
100
AcDbEntity
  8
0
  6
Continuous
 62
     7
370
    25
100
AcDbSpline
210
0.0
220
0.0
230
1.0
 70
     8
 71
     3
 72
     8
 73
     4
 74
     0
 42
0.000000001
 43
0.00000001
 40
0.0
 40
0.0
 40
0.0
 40
0.0
 40
1.0
 40
1.0
 40
1.0
 40
1.0
 10
100.6180475024568
 20
145.7256621394316
 30
0.0
 10
101.125134344216
 20
144.594511785268
 30
0.0
 10
101.620702183356
 20
143.4581273745002
 30
0.0
 10
102.0999803339458
 20
142.3171161446475
 30
0.0
  0
LINE
  5
FB
330
1F
100
AcDbEntity
  8
0
  6
Continuous
 62
     7
370
    25
100
AcDbLine
 10
111.3599810432
 20
151.7341679134
 30
0.0
 11
107.4019122552
 21
151.7341679134
 31
0.0
  0
LINE
  5
FC
330
1F
100
AcDbEntity
  8
0
  6
Continuous
 62
     7
370
    25
100
AcDbLine
 10
107.4019122552
 20
145.7256620922
 30
0.0
 11
111.3599810432
 21
145.7256620922
 31
0.0
  0
LINE
  5
FD
330
1F
100
AcDbEntity
  8
0
  6
Continuous
 62
     7
370
    25
100
AcDbLine
 10
107.4019122552
 20
145.7256620922
 30
0.0
 11
107.4019122552
 21
151.7341679134
 31
0.0
  0
SPLINE
  5
FE
330
1F
100
AcDbEntity
  8
0
  6
Continuous
 62
     7
370
    25
100
AcDbSpline
210
0.0
220
0.0
230
1.0
 70
     8
 71
     3
 72
     8
 73
     4
 74
     0
 42
0.000000001
 43
0.00000001
 40
0.0
 40
0.0
 40
0.0
 40
0.0
 40
1.0
 40
1.0
 40
1.0
 40
1.0
 10
105.9199803339458
 20
142.3171161446475
 30
0.0
 10
106.3992584845357
 20
143.4581273745002
 30
0.0
 10
106.8948263236756
 20
144.594511785268
 30
0.0
 10
107.4019131654349
 20
145.7256621394316
 30
0.0
  0
SPLINE
  5
FF
330
1F
100
AcDbEntity
  8
0
  6
Continuous
 62
     7
370
    25
100
AcDbSpline
210
0.0
220
0.0
230
1.0
 70
     8
 71
     3
 72
    12
 73
     8
 74
     0
 42
0.000000001
 43
0.00000001
 40
0.0
 40
0.0
 40
0.0
 40
0.0
 40
0.25
 40
0.25
 40
0.5
 40
0.5
 40
1.0
 40
1.0
 40
1.0
 40
1.0
 10
111.3599803339458
 20
145.7256621394317
 30
0.0
 10
111.4511800557715
 20
145.7256621394317
 30
0.0
 10
111.5417750649075
 20
145.6974424408438
 30
0.0
 10
111.6951877913541
 20
145.6029994335957
 30
0.0
 10
111.7603966586778
 20
145.5367124568903
 30
0.0
 10
111.9131811880178
 20
145.311087633602
 30
0.0
 10
111.9599803339458
 20
145.1286613705695
 30
0.0
 10
111.9599803339458
 20
144.9479247383226
 30
0.0
  0
LINE
  5
100
330
1F
100
AcDbEntity
  8
0
  6
Continuous
 62
     7
370
    25
100
AcDbLine
 10
105.9199805986
 20
141.4028389551
 30
0.0
 11
105.9199805986
 21
142.317116464
 31
0.0
  0
LINE
  5
101
330
1F
100
AcDbEntity
  8
0
  6
Continuous
 62
     7
370
    25
100
AcDbLine
 10
111.959980024
 20
144.9479239234
 30
0.0
 11
111.959980024
 21
141.1169732162
 31
0.0
  0
SPLINE
  5
102
330
1F
100
AcDbEntity
  8
0
  6
Continuous
 62
     7
370
    25
100
AcDbSpline
210
0.0
220
0.0
230
1.0
 70
     8
 71
     3
 72
    10
 73
     6
 74
     0
 42
0.000000001
 43
0.00000001
 40
0.0
 40
0.0
 40
0.0
 40
0.0
 40
0.5
 40
0.5
 40
1.0
 40
1.0
 40
1.0
 40
1.0
 10
111.9599803339458
 20
151.1134128008281
 30
0.0
 10
111.9599803339458
 20
151.2738180671789
 30
0.0
 10
111.897742502839
 20
151.4328798801675
 30
0.0
 10
111.6786075790964
 20
151.6637923457978
 30
0.0
 10
111.5210188841045
 20
151.7341679502285
 30
0.0
 10
111.3599803339458
 20
151.7341679502285
 30
0.0
  0
LINE
  5
103
330
1F
100
AcDbEntity
  8
0
  6
Continuous
 62
     7
370
    25
100
AcDbLine
 10
111.959980024
 20
144.9479239234
 30
0.0
 11
111.959980024
 21
151.1134134778
 31
0.0
  0
SPLINE
  5
104
330
1F
100
AcDbEntity
  8
0
  6
Continuous
 62
     7
370
    25
100
AcDbSpline
210
0.0
220
0.0
230
1.0
 70
     8
 71
     3
 72
     8
 73
     4
 74
     0
 42
0.000000001
 43
0.00000001
 40
0.0
 40
0.0
 40
0.0
 40
0.0
 40
1.0
 40
1.0
 40
1.0
 40
1.0
 10
107.4019131654349
 20
151.7341679502285
 30
0.0
 10
106.9067731360706
 20
150.8474883020482
 30
0.0
 10
106.4126904307916
 20
149.9602256663622
 30
0.0
 10
105.9199803339458
 20
149.0722066682358
 30
0.0
  0
LINE
  5
105
330
1F
100
AcDbEntity
  8
0
  6
Continuous
 62
     7
370
    25
100
AcDbLine
 10
105.9199805986
 20
142.317116464
 30
0.0
 11
105.9199805986
 21
149.0722058513
 31
0.0
  0
LINE
  5
106
330
1F
100
AcDbEntity
  8
0
  6
Continuous
 62
     7
370
    25
100
AcDbLine
 10
102.0999803822
 20
142.317116464
 30
0.0
 11
102.0999803822
 21
141.4028389551
 31
0.0
  0
ARC
  5
107
330
1F
100
AcDbEntity
  8
0
  6
Continuous
 62
     7
370
    25
100
AcDbCircle
 10
94.0101923862
 20
139.9932166874
 30
0.0
 40
7.230004954940306
100
AcDbArc
 50
70.9071289338
 51
109.1560830453
  0
LWPOLYLINE
  5
108
330
1F
100
AcDbEntity
  8
0
  6
Continuous
 62
     7
370
    25
100
AcDbPolyline
 90
       23
 70
   128
 43
0.0
 10
147.9599784743
 20
136.0615195879
 10
148.6643116604
 20
136.133127118
 10
149.3115808498
 20
136.3421466374
 10
149.8493563067
 20
136.6716457703
 10
150.2340595852
 20
137.0949300178
 10
150.4345323574
 20
137.5777071514
 10
150.4345323574
 20
138.0808672109
 10
150.2340595852
 20
138.5636443444
 10
149.8493563067
 20
138.986928592
 10
149.3115808498
 20
139.3164267936
 10
148.6643116604
 20
139.5254472443
 10
147.9599784743
 20
139.5970547744
 10
147.2556490134
 20
139.5254472443
 10
146.6083798241
 20
139.3164267936
 10
146.0706080924
 20
138.986928592
 10
145.6859010886
 20
138.5636443444
 10
145.4854283165
 20
138.0808672109
 10
145.4854283165
 20
137.5777071514
 10
145.6859010886
 20
137.0949300178
 10
146.0706080924
 20
136.6716457703
 10
146.6083798241
 20
136.3421466374
 10
147.2556490134
 20
136.133127118
 10
147.9599784743
 20
136.0615195879
  0
LWPOLYLINE
  5
109
330
1F
100
AcDbEntity
  8
0
  6
Continuous
 62
     7
370
    25
100
AcDbPolyline
 90
       23
 70
   128
 43
0.0
 10
147.9599784743
 20
102.9368901797
 10
148.6643116604
 20
103.0084977099
 10
149.3115808498
 20
103.2175181606
 10
149.8493563067
 20
103.5470163622
 10
150.2340595852
 20
103.9703006097
 10
150.4345323574
 20
104.4530777433
 10
150.4345323574
 20
104.9562378027
 10
150.2340595852
 20
105.4390149363
 10
149.8493563067
 20
105.8622991838
 10
149.3115808498
 20
106.1917983168
 10
148.6643116604
 20
106.4008178362
 10
147.9599784743
 20
106.4724253663
 10
147.2556490134
 20
106.4008178362
 10
146.6083798241
 20
106.1917983168
 10
146.0706080924
 20
105.8622991838
 10
145.6859010886
 20
105.4390149363
 10
145.4854283165
 20
104.9562378027
 10
145.4854283165
 20
104.4530777433
 10
145.6859010886
 20
103.9703006097
 10
146.0706080924
 20
103.5470163622
 10
146.6083798241
 20
103.2175181606
 10
147.2556490134
 20
103.0084977099
 10
147.9599784743
 20
102.9368901797
  0
LINE
  5
10A
330
1F
100
AcDbEntity
  8
0
  6
Continuous
 62
     7
370
    25
100
AcDbLine
 10
205.0099830758
 20
111.066972109
 30
0.0
 11
205.0099830758
 21
131.4669728451
 31
0.0
  0
LINE
  5
10B
330
1F
100
AcDbEntity
  8
0
  6
Continuous
 62
     7
370
    25
100
AcDbLine
 10
188.5099794399
 20
110.2669725367
 30
0.0
 11
188.5099794399
 21
132.2669724175
 31
0.0
  0
LINE
  5
10C
330
1F
100
AcDbEntity
  8
0
  6
HIDDEN
 62
     7
370
    18
100
AcDbLine
 10
210.0099783074
 20
113.2669720971
 30
0.0
 11
210.0099783074
 21
129.266972857
 31
0.0
  0
LINE
  5
10D
330
1F
100
AcDbEntity
  8
0
  6
HIDDEN
 62
     7
370
    18
100
AcDbLine
 10
220.0099836718
 20
127.7669726112
 30
0.0
 11
220.0099836718
 21
114.766972343
 31
0.0
  0
LINE
  5
10E
330
1F
100
AcDbEntity
  8
0
  6
HIDDEN
 62
     7
370
    18
100
AcDbLine
 10
210.0099783074
 20
115.866972337
 30
0.0
 11
210.0099783074
 21
126.6425207429
 31
0.0
  0
LINE
  5
10F
330
1F
100
AcDbEntity
  8
0
  6
HIDDEN
 62
     7
370
    18
100
AcDbLine
 10
192.8379770051
 20
116.2669725888
 30
0.0
 11
192.8379770051
 21
126.2669723653
 31
0.0
  0
LINE
  5
110
330
1F
100
AcDbEntity
  8
0
  6
HIDDEN
 62
     7
370
    18
100
AcDbLine
 10
192.0099790822
 20
117.0949723744
 30
0.0
 11
192.0099790822
 21
125.4389725798
 31
0.0
  0
LINE
  5
111
330
1F
100
AcDbEntity
  8
0
  6
HIDDEN
 62
     7
370
    18
100
AcDbLine
 10
220.0099836718
 20
121.2669724771
 30
0.0
 11
220.0099836718
 21
117.2094724313
 31
0.0
  0
LINE
  5
112
330
1F
100
AcDbEntity
  8
0
  6
HIDDEN
 62
     7
370
    18
100
AcDbLine
 10
215.009973539
 20
121.2669724771
 30
0.0
 11
215.009973539
 21
119.2382224542
 31
0.0
  0
LINE
  5
113
330
1F
100
AcDbEntity
  8
0
  6
HIDDEN
 62
     7
370
    18
100
AcDbLine
 10
215.009973539
 20
121.2669724771
 30
0.0
 11
215.009973539
 21
123.2957224999
 31
0.0
  0
LINE
  5
114
330
1F
100
AcDbEntity
  8
0
  6
HIDDEN
 62
     7
370
    18
100
AcDbLine
 10
215.009973539
 20
121.2669724771
 30
0.0
 11
220.0099836718
 21
121.2669724771
 31
0.0
  0
LINE
  5
115
330
1F
100
AcDbEntity
  8
0
  6
HIDDEN
 62
     7
370
    18
100
AcDbLine
 10
220.0099836718
 20
121.2669724771
 30
0.0
 11
220.0099836718
 21
125.3244725228
 31
0.0
  0
LINE
  5
116
330
1F
100
AcDbEntity
  8
0
  6
HIDDEN
 62
     7
370
    18
100
AcDbLine
 10
215.009973539
 20
123.2957224999
 30
0.0
 11
215.009973539
 21
125.3244725228
 31
0.0
  0
LINE
  5
117
330
1F
100
AcDbEntity
  8
0
  6
HIDDEN
 62
     7
370
    18
100
AcDbLine
 10
215.009973539
 20
119.2382224542
 30
0.0
 11
215.009973539
 21
123.2957224999
 31
0.0
  0
LINE
  5
118
330
1F
100
AcDbEntity
  8
0
  6
HIDDEN
 62
     7
370
    18
100
AcDbLine
 10
215.009973539
 20
117.2094724313
 30
0.0
 11
215.009973539
 21
119.2382224542
 31
0.0
  0
LINE
  5
119
330
1F
100
AcDbEntity
  8
0
  6
HIDDEN
 62
     7
370
    18
100
AcDbLine
 10
215.009973539
 20
119.2382224542
 30
0.0
 11
215.009973539
 21
117.2094724313
 31
0.0
  0
LINE
  5
11A
330
1F
100
AcDbEntity
  8
0
  6
HIDDEN
 62
     7
370
    18
100
AcDbLine
 10
215.009973539
 20
125.3244725228
 30
0.0
 11
215.009973539
 21
123.2957224999
 31
0.0
  0
LINE
  5
11B
330
1F
100
AcDbEntity
  8
0
  6
HIDDEN
 62
     7
370
    18
100
AcDbLine
 10
215.009973539
 20
123.2957224999
 30
0.0
 11
215.009973539
 21
119.2382224542
 31
0.0
  0
LINE
  5
11C
330
1F
100
AcDbEntity
  8
0
  6
HIDDEN
 62
     7
370
    18
100
AcDbLine
 10
215.009973539
 20
119.2382224542
 30
0.0
 11
215.009973539
 21
117.2094724313
 31
0.0
  0
LINE
  5
11D
330
1F
100
AcDbEntity
  8
0
  6
HIDDEN
 62
     7
370
    18
100
AcDbLine
 10
215.009973539
 20
123.2957224999
 30
0.0
 11
215.009973539
 21
125.3244725228
 31
0.0
  0
LINE
  5
11E
330
1F
100
AcDbEntity
  8
0
  6
HIDDEN
 62
     7
370
    18
100
AcDbLine
 10
215.009973539
 20
117.2094724313
 30
0.0
 11
220.0099836718
 21
117.2094724313
 31
0.0
  0
LINE
  5
11F
330
1F
100
AcDbEntity
  8
0
  6
HIDDEN
 62
     7
370
    18
100
AcDbLine
 10
215.009973539
 20
125.3244725228
 30
0.0
 11
220.0099836718
 21
125.3244725228
 31
0.0
  0
LINE
  5
120
330
1F
100
AcDbEntity
  8
0
  6
HIDDEN
 62
     7
370
    18
100
AcDbLine
 10
205.0099830758
 20
126.2669723653
 30
0.0
 11
192.8379770051
 21
126.2669723653
 31
0.0
  0
LINE
  5
121
330
1F
100
AcDbEntity
  8
0
  6
HIDDEN
 62
     7
370
    18
100
AcDbLine
 10
192.8379770051
 20
116.2669725888
 30
0.0
 11
205.0099830758
 21
116.2669725888
 31
0.0
  0
LINE
  5
122
330
1F
100
AcDbEntity
  8
0
  6
HIDDEN
 62
     7
370
    18
100
AcDbLine
 10
192.8379770051
 20
126.2669723653
 30
0.0
 11
192.0099790822
 21
125.4389725798
 31
0.0
  0
LINE
  5
123
330
1F
100
AcDbEntity
  8
0
  6
HIDDEN
 62
     7
370
    18
100
AcDbLine
 10
192.0099790822
 20
117.0949723744
 30
0.0
 11
192.8379770051
 21
116.2669725888
 31
0.0
  0
LINE
  5
124
330
1F
100
AcDbEntity
  8
0
  6
HIDDEN
 62
     7
370
    18
100
AcDbLine
 10
215.009973539
 20
125.3244725228
 30
0.0
 11
212.6673768889
 21
121.2669724771
 31
0.0
  0
LINE
  5
125
330
1F
100
AcDbEntity
  8
0
  6
HIDDEN
 62
     7
370
    18
100
AcDbLine
 10
212.6673768889
 20
121.2669724771
 30
0.0
 11
215.009973539
 21
117.2094724313
 31
0.0
  0
DIMENSION
  5
126
330
1F
100
AcDbEntity
  8
VERMASSUNG
100
AcDbDimension
  2
_D
 10
243.4967731669
 20
132.2669724771
 30
0.0
 11
243.4967731669
 21
121.2669724771
 31
0.0
 70
   160
  1
%%c<>
 71
     2
 42
-1.0
  3
SLDDIMSTYLE0
100
AcDbAlignedDimension
 13
204.2099803339
 23
110.2669724771
 33
0.0
 14
204.2099803339
 24
132.2669724771
 34
0.0
 50
90.0
100
AcDbRotatedDimension
  0
DIMENSION
  5
132
330
1F
100
AcDbEntity
  8
VERMASSUNG
100
AcDbDimension
  2
_D_1
 10
254.0099803339
 20
145.2669724771
 30
0.0
 11
254.0099803339
 21
121.2669724771
 31
0.0
 70
   160
  1
%%c<>
 71
     2
 42
-1.0
  3
SLDDIMSTYLE0
100
AcDbAlignedDimension
 13
185.2099803339
 23
97.2669724771
 33
0.0
 14
185.2099803339
 24
145.2669724771
 34
0.0
 50
90.0
100
AcDbRotatedDimension
  0
DIMENSION
  5
13D
330
1F
100
AcDbEntity
  8
VERMASSUNG
100
AcDbDimension
  2
_D_2
 10
264.8770482467
 20
146.3245322208
 30
0.0
 11
264.8770482467
 21
121.2669724771
 31
0.0
 70
   160
  1
<>
 71
     2
 42
-1.0
  3
SLDDIMSTYLE1
100
AcDbAlignedDimension
 13
113.792195099
 23
96.2094127333
 33
0.0
 14
113.792195099
 24
146.3245322208
 34
0.0
 50
90.0
100
AcDbRotatedDimension
  0
DIMENSION
  5
148
330
1F
100
AcDbEntity
  8
VERMASSUNG
100
AcDbDimension
  2
_D_3
 10
232.755291858
 20
117.2094724771
 30
0.0
 11
232.755291858
 21
121.2669724771
 31
0.0
 70
   160
  1
SW<>
 71
     2
 42
-1.0
  3
SLDDIMSTYLE1
100
AcDbAlignedDimension
 13
220.0099803339
 23
125.3244724771
 33
0.0
 14
220.0099803339
 24
117.2094724771
 34
0.0
 50
90.0
100
AcDbRotatedDimension
  0
DIMENSION
  5
153
330
1F
100
AcDbEntity
  8
VERMASSUNG
100
AcDbDimension
  2
_D_4
 10
41.1951813871
 20
89.7669724771
 30
0.0
 11
41.1951813871
 21
121.2669724771
 31
0.0
 70
   160
  1
HSK A %%c<>
 71
     2
 42
-1.0
  3
SLDDIMSTYLE0
100
AcDbAlignedDimension
 13
86.3099803339
 23
152.7669724771
 33
0.0
 14
86.3099803339
 24
89.7669724771
 34
0.0
 50
90.0
100
AcDbRotatedDimension
  0
DIMENSION
  5
15F
330
1F
100
AcDbEntity
  8
VERMASSUNG
100
AcDbDimension
  2
_D_5
 10
186.0099803339
 20
162.7669724771
 30
0.0
 11
148.9849803339
 21
162.7669724771
 31
0.0
 70
   160
  1
<>
 71
     2
 42
-1.0
  3
SLDDIMSTYLE0
100
AcDbAlignedDimension
 13
111.9599803339
 23
151.1134128008
 33
0.0
 14
186.0099803339
 24
133.9820025087
 34
0.0
100
AcDbRotatedDimension
  0
DIMENSION
  5
169
330
1F
100
AcDbEntity
  8
VERMASSUNG
100
AcDbDimension
  2
_D_6
 10
205.0099803339
 20
162.7669724771
 30
0.0
 11
195.5099803339
 21
162.7669724771
 31
0.0
 70
   160
  1
<>
 71
     2
 42
-1.0
  3
SLDDIMSTYLE0
100
AcDbAlignedDimension
 13
186.0099803339
 23
144.4669724771
 33
0.0
 14
205.0099803339
 24
131.4669724771
 34
0.0
100
AcDbRotatedDimension
  0
DIMENSION
  5
173
330
1F
100
AcDbEntity
  8
VERMASSUNG
100
AcDbDimension
  2
_D_7
 10
186.0099803339
 20
172.0295003229
 30
0.0
 11
136.0099803339
 21
172.0295003229
 31
0.0
 70
   160
  1
<>
 71
     2
 42
-1.0
  3
SLDDIMSTYLE0
100
AcDbAlignedDimension
 13
86.0099803339
 23
152.4669724771
 33
0.0
 14
186.0099803339
 24
144.4669724771
 34
0.0
100
AcDbRotatedDimension
  0
DIMENSION
  5
17D
330
1F
100
AcDbEntity
  8
VERMASSUNG
100
AcDbDimension
  2
_D_8
 10
220.0099803339
 20
182.6612441905
 30
0.0
 11
137.0599803339
 21
182.6612441905
 31
0.0
 70
   160
  1
<>
 71
     2
 42
-1.0
  3
SLDDIMSTYLE0
100
AcDbAlignedDimension
 13
54.1099803339
 23
140.9576502235
 33
0.0
 14
220.0099803339
 24
127.7669724771
 34
0.0
100
AcDbRotatedDimension
  0
LINE
  5
187
330
1F
100
AcDbEntity
  8
VERMASSUNG
  6
CENTERX2
370
    18
100
AcDbLine
 10
220.5099803339
 20
121.2669724771
 30
0.0
 11
47.9487189842
 21
121.2669724771
 31
0.0
  0
SPLINE
  5
188
330
1F
100
AcDbEntity
  8
0
  6
Continuous
 62
     7
370
    25
100
AcDbSpline
210
0.0
220
0.0
230
1.0
 70
     8
 71
     3
 72
    17
 73
    13
 74
     0
 42
0.000000001
 43
0.00000001
 40
0.0
 40
0.0
 40
0.0
 40
0.0
 40
0.0108259515838348
 40
0.1348427471249642
 40
0.2587788676686983
 40
0.3829676517164883
 40
0.5077462832122045
 40
0.6335211280170965
 40
0.7603636176251828
 40
0.8733509948036582
 40
0.9942455095305156
 40
1.0
 40
1.0
 40
1.0
 40
1.0
 10
261.0459538548412
 20
41.08361921146813
 30
0.0
 10
261.0566282782945
 20
41.09484430291547
 30
0.0
 10
261.1895836652886
 20
41.23465854056164
 30
0.0
 10
261.4036945507987
 20
41.56735257702158
 30
0.0
 10
261.6651070469669
 20
42.05904486317636
 30
0.0
 10
261.8465187030209
 20
42.57621486711155
 30
0.0
 10
261.9437903002729
 20
43.08619408032254
 30
0.0
 10
261.9471784507857
 20
43.56775819054222
 30
0.0
 10
261.856631674328
 20
43.98736251111479
 30
0.0
 10
261.6673437503927
 20
44.32258384776795
 30
0.0
 10
261.4973572357364
 20
44.52095931749116
 30
0.0
 10
261.3764780697804
 20
44.56952685735672
 30
0.0
 10
261.3709857407457
 20
44.57173359751113
 30
0.0
  0
LINE
  5
189
330
1F
100
AcDbEntity
  8
0
  6
Continuous
 62
     7
370
    25
100
AcDbLine
 10
261.3505247629
 20
44.5873573859
 30
0.0
 11
259.5474035582
 21
45.6282771007
 31
0.0
  0
SPLINE
  5
18A
330
1F
100
AcDbEntity
  8
0
  6
Continuous
 62
     7
370
    25
100
AcDbSpline
210
0.0
220
0.0
230
1.0
 70
     8
 71
     3
 72
    22
 73
    18
 74
     0
 42
0.000000001
 43
0.00000001
 40
0.0
 40
0.0
 40
0.0
 40
0.0
 40
0.0590922446616754
 40
0.1264183504574732
 40
0.1956341874631843
 40
0.2676714853827595
 40
0.3411755533999316
 40
0.4147384967991888
 40
0.4881150752476338
 40
0.5614440502974668
 40
0.6349223805420648
 40
0.7087497935221361
 40
0.7831665953718455
 40
0.8582150709770069
 40
0.9250659810150654
 40
0.9965952587040027
 40
0.9999999999999999
 40
0.9999999999999999
 40
0.9999999999999999
 40
0.9999999999999999
 10
246.5013227293777
 20
33.10781096518841
 30
0.0
 10
246.5948041609059
 20
33.06413199651561
 30
0.0
 10
246.7947926439948
 20
32.97068787028695
 30
0.0
 10
247.1537009813624
 20
32.96623883582527
 30
0.0
 10
247.543184986224
 20
33.06015866813856
 30
0.0
 10
247.9458866010191
 20
33.2648520707657
 30
0.0
 10
248.3424299314284
 20
33.57074124516454
 30
0.0
 10
248.7110805433358
 20
33.96283416369513
 30
0.0
 10
249.0320589778723
 20
34.41905510294817
 30
0.0
 10
249.2900051510597
 20
34.91674248552955
 30
0.0
 10
249.4723469456678
 20
35.43230181624902
 30
0.0
 10
249.5693689230439
 20
35.94271604707311
 30
0.0
 10
249.5728234114755
 20
36.42416135511017
 30
0.0
 10
249.4822601846027
 20
36.84379807605572
 30
0.0
 10
249.2929758632805
 20
37.17901088619846
 30
0.0
 10
249.1229885053633
 20
37.37738832508027
 30
0.0
 10
249.0021093460312
 20
37.42595584920946
 30
0.0
 10
248.9966170172975
 20
37.42816258864887
 30
0.0
  0
LINE
  5
18B
330
1F
100
AcDbEntity
  8
0
  6
Continuous
 62
     7
370
    25
100
AcDbLine
 10
244.6732380781
 20
34.1544619077
 30
0.0
 11
246.4763592827
 21
33.1135421929
 31
0.0
  0
LINE
  5
18C
330
1F
100
AcDbEntity
  8
0
  6
Continuous
 62
     7
370
    25
100
AcDbLine
 10
248.9761560394
 20
37.443786377
 30
0.0
 11
247.1730348348
 21
38.4847060918
 31
0.0
  0
SPLINE
  5
18D
330
1F
100
AcDbEntity
  8
0
  6
Continuous
 62
     7
370
    25
100
AcDbSpline
210
0.0
220
0.0
230
1.0
 70
     8
 71
     3
 72
    22
 73
    18
 74
     0
 42
0.000000001
 43
0.00000001
 40
0.0
 40
0.0
 40
0.0
 40
0.0
 40
0.0062294431128759
 40
0.0755341617124865
 40
0.1439425042872249
 40
0.213692088833681
 40
0.2865718718319438
 40
0.3628131937071803
 40
0.4411417156638776
 40
0.5198932777129559
 40
0.5983696440504613
 40
0.6766051123533964
 40
0.7548422629065883
 40
0.8333403717293614
 40
0.9123892751698484
 40
0.9877971009652821
 40
1.0
 40
1.0
 40
1.0
 40
1.0
 10
261.5775678601773
 20
29.81377532566583
 30
0.0
 10
261.588882330781
 20
29.80495920987901
 30
0.0
 10
261.7260742172447
 20
29.69806074344278
 30
0.0
 10
262.0520791933941
 20
29.59534331809648
 30
0.0
 10
262.5260179053205
 20
29.5214352742551
 30
0.0
 10
263.0261920647885
 20
29.56939877827421
 30
0.0
 10
263.5392863190316
 20
29.7229473892535
 30
0.0
 10
264.0608613621384
 20
29.98693697422138
 30
0.0
 10
264.574715249068
 20
30.35594699675204
 30
0.0
 10
265.0617549999167
 20
30.8173569195662
 30
0.0
 10
265.5047264970993
 20
31.35309835187936
 30
0.0
 10
265.8906235945691
 20
31.9451530547375
 30
0.0
 10
266.2087427593834
 20
32.57608472672899
 30
0.0
 10
266.4497921364157
 20
33.22877623126336
 30
0.0
 10
266.6015088871317
 20
33.87364893480277
 30
0.0
 10
266.6468276517765
 20
34.32372273968304
 30
0.0
 10
266.6486480157469
 20
34.55280920709432
 30
0.0
 10
266.6489015659575
 20
34.58471761827867
 30
0.0
  0
SPLINE
  5
18E
330
1F
100
AcDbEntity
  8
0
  6
Continuous
 62
     7
370
    25
100
AcDbSpline
210
0.0
220
0.0
230
1.0
 70
     8
 71
     3
 72
    13
 73
     9
 74
     0
 42
0.000000001
 43
0.00000001
 40
0.0
 40
0.0
 40
0.0
 40
0.0
 40
0.1258487242687064
 40
0.3604966472754011
 40
0.5658945326773388
 40
0.7622022204492809
 40
0.9735318895599369
 40
1.0
 40
1.0
 40
1.0
 40
1.0
 10
266.6489015659575
 20
34.58471761827867
 30
0.0
 10
266.6458790227784
 20
34.6968845535837
 30
0.0
 10
266.6372208763519
 20
35.01818939276728
 30
0.0
 10
266.5434737396885
 20
35.49150922745591
 30
0.0
 10
266.3451844593873
 20
35.97712088478104
 30
0.0
 10
266.0556395292272
 20
36.3725325766645
 30
0.0
 10
265.8024180910286
 20
36.62193085072992
 30
0.0
 10
265.6301978325099
 20
36.6992900589762
 30
0.0
 10
265.6110288359317
 20
36.70790053494989
 30
0.0
  0
LINE
  5
18F
330
1F
100
AcDbEntity
  8
0
  6
Continuous
 62
     7
370
    25
100
AcDbLine
 10
265.600640461
 20
36.722250802
 30
0.0
 11
262.5954384532
 21
38.4571169934
 31
0.0
  0
LINE
  5
190
330
1F
100
AcDbEntity
  8
0
  6
Continuous
 62
     7
370
    25
100
AcDbLine
 10
258.5957634449
 20
31.5287261087
 30
0.0
 11
261.6009654526
 21
29.7938599173
 31
0.0
  0
LINE
  5
191
330
1F
100
AcDbEntity
  8
0
  6
Continuous
 62
     7
370
    25
100
AcDbLine
 10
260.2841245433
 20
38.0594061199
 30
0.0
 11
259.4710512494
 21
38.5287833415
 31
0.0
  0
LINE
  5
192
330
1F
100
AcDbEntity
  8
0
  6
Continuous
 62
     7
370
    25
100
AcDbLine
 10
256.9722027968
 20
34.1979917131
 30
0.0
 11
257.7843277866
 21
33.7291619358
 31
0.0
  0
SPLINE
  5
193
330
1F
100
AcDbEntity
  8
0
  6
Continuous
 62
     7
370
    25
100
AcDbSpline
210
0.0
220
0.0
230
1.0
 70
     8
 71
     3
 72
    16
 73
    12
 74
     0
 42
0.000000001
 43
0.00000001
 40
0.0
 40
0.0
 40
0.0
 40
0.0
 40
0.0278009165446311
 40
0.148004466117567
 40
0.2692139082993231
 40
0.391310795468974
 40
0.5140245769841605
 40
0.637076669051976
 40
0.7602570763991066
 40
0.8834123947377792
 40
0.9999999999999999
 40
0.9999999999999999
 40
0.9999999999999999
 40
0.9999999999999999
 10
247.6301855662547
 20
29.10201932086775
 30
0.0
 10
247.6881276787383
 20
29.09290206097899
 30
0.0
 10
247.9965956175594
 20
29.04436426618628
 30
0.0
 10
248.5951721336448
 20
29.06919589661856
 30
0.0
 10
249.4189326380066
 20
29.18117866674253
 30
0.0
 10
250.271913123516
 20
29.41626304933578
 30
0.0
 10
251.1407587939327
 20
29.76045776434715
 30
0.0
 10
252.0171942805061
 20
30.21274786629363
 30
0.0
 10
252.8904798927396
 20
30.76931994457619
 30
0.0
 10
253.7390768806138
 20
31.40415376821124
 30
0.0
 10
254.2815047352452
 20
31.8958825584713
 30
0.0
 10
254.5452888071549
 20
32.13501154394387
 30
0.0
  0
SPLINE
  5
194
330
1F
100
AcDbEntity
  8
0
  6
Continuous
 62
     7
370
    25
100
AcDbSpline
210
0.0
220
0.0
230
1.0
 70
     8
 71
     3
 72
    13
 73
     9
 74
     0
 42
0.000000001
 43
0.00000001
 40
0.0
 40
0.0
 40
0.0
 40
0.0
 40
0.0881619161552971
 40
0.2992904670712995
 40
0.5103602213921846
 40
0.7210141399947572
 40
0.9307477070880182
 40
1.0
 40
1.0
 40
1.0
 40
1.0
 10
260.4135509296474
 20
45.1282606274227
 30
0.0
 10
260.4118842931663
 20
45.26853121225437
 30
0.0
 10
260.4062264259989
 20
45.74471923857499
 30
0.0
 10
260.3005295259686
 20
46.50004144503819
 30
0.0
 10
260.1007382742401
 20
47.38511910288655
 30
0.0
 10
259.8001947695381
 20
48.18502303391392
 30
0.0
 10
259.5168188468065
 20
48.76135678698189
 30
0.0
 10
259.3061764411266
 20
49.03605470072758
 30
0.0
 10
259.2538889539487
 20
49.10424260238205
 30
0.0
  0
LINE
  5
195
330
1F
100
AcDbEntity
  8
0
  6
Continuous
 62
     7
370
    25
100
AcDbLine
 10
233.8802039642
 20
36.5593607748
 30
0.0
 11
245.8279662383
 21
29.662064427
 31
0.0
  0
LINE
  5
196
330
1F
100
AcDbEntity
  8
0
  6
Continuous
 62
     7
370
    25
100
AcDbLine
 10
229.4761203956
 20
39.101784102
 30
0.0
 11
231.4316617266
 21
37.9728741211
 31
0.0
  0
LINE
  5
197
330
1F
100
AcDbEntity
  8
0
  6
Continuous
 62
     7
370
    25
100
AcDbLine
 10
243.4294470415
 20
58.7587624447
 30
0.0
 11
241.4751450912
 21
59.8869569463
 31
0.0
  0
LINE
  5
198
330
1F
100
AcDbEntity
  8
0
  6
Continuous
 62
     7
370
    25
100
AcDbLine
 10
257.826990934
 20
50.4472372713
 30
0.0
 11
245.8887354084
 21
57.33904549
 31
0.0
  0
SPLINE
  5
199
330
1F
100
AcDbEntity
  8
0
  6
Continuous
 62
     7
370
    25
100
AcDbSpline
210
0.0
220
0.0
230
1.0
 70
     8
 71
     3
 72
    13
 73
     9
 74
     0
 42
0.000000001
 43
0.00000001
 40
0.0
 40
0.0
 40
0.0
 40
0.0
 40
0.0465459730590919
 40
0.238155884815293
 40
0.4299545874693302
 40
0.6250913613692549
 40
0.8247270445651678
 40
1.0
 40
1.0
 40
1.0
 40
1.0
 10
255.8334780912959
 20
31.40514827590594
 30
0.0
 10
255.8678384431171
 20
31.38208199039158
 30
0.0
 10
256.0436457031812
 20
31.26406164888752
 30
0.0
 10
256.4213321350616
 20
31.15980853143543
 30
0.0
 10
256.9483366599139
 20
31.10042716057352
 30
0.0
 10
257.5117334151955
 20
31.16521295329755
 30
0.0
 10
258.0707747117812
 20
31.32251151892894
 30
0.0
 10
258.439659186525
 20
31.51031467179056
 30
0.0
 10
258.6121157944562
 20
31.59811423213746
 30
0.0
  0
SPLINE
  5
19A
330
1F
100
AcDbEntity
  8
0
  6
Continuous
 62
     7
370
    25
100
AcDbSpline
210
0.0
220
0.0
230
1.0
 70
     8
 71
     3
 72
    13
 73
     9
 74
     0
 42
0.000000001
 43
0.00000001
 40
0.0
 40
0.0
 40
0.0
 40
0.0
 40
0.0995555694526713
 40
0.2995018145024445
 40
0.4986691365946055
 40
0.6949599357813149
 40
0.8864018655809979
 40
1.0
 40
1.0
 40
1.0
 40
1.0
 10
262.5357451802083
 20
38.44574102856274
 30
0.0
 10
262.533652930464
 20
38.56125967809627
 30
0.0
 10
262.5273586307251
 20
38.90878463661313
 30
0.0
 10
262.4135374977805
 20
39.4298847045505
 30
0.0
 10
262.2003458831024
 20
39.99436245177728
 30
0.0
 10
261.8876846362183
 20
40.46173633867895
 30
0.0
 10
261.5543987265156
 20
40.79502783191771
 30
0.0
 10
261.3038092495515
 20
40.92189742164499
 30
0.0
 10
261.2104887306188
 20
40.96914416198526
 30
0.0
  0
LINE
  5
19B
330
1F
100
AcDbEntity
  8
0
  6
Continuous
 62
     7
370
    25
100
AcDbLine
 10
250.2444269864
 20
34.6178462233
 30
0.0
 11
255.7952143505
 21
31.4134448856
 31
0.0
  0
LINE
  5
19C
330
1F
100
AcDbEntity
  8
0
  6
Continuous
 62
     7
370
    25
100
AcDbLine
 10
261.2947672811
 20
40.9399822808
 30
0.0
 11
255.743979917
 21
44.1443836185
 31
0.0
  0
SPLINE
  5
19D
330
1F
100
AcDbEntity
  8
0
  6
Continuous
 62
     7
370
    25
100
AcDbSpline
210
0.0
220
0.0
230
1.0
 70
     8
 71
     3
 72
    12
 73
     8
 74
     0
 42
0.000000001
 43
0.00000001
 40
0.0
 40
0.0
 40
0.0
 40
0.0
 40
0.0082136675394544
 40
0.3218525183570473
 40
0.5799680835973319
 40
0.85616540593162
 40
1.0
 40
1.0
 40
1.0
 40
1.0
 10
257.2276265282268
 20
33.90773096536346
 30
0.0
 10
257.2254292388801
 20
33.90853565089277
 30
0.0
 10
257.1393284676447
 20
33.94006724903112
 30
0.0
 10
257.0295082524914
 20
34.07111049626747
 30
0.0
 10
256.8831935930932
 20
34.34027408789767
 30
0.0
 10
256.8149144329074
 20
34.64318245182166
 30
0.0
 10
256.8082685474857
 20
34.86569851991351
 30
0.0
 10
256.8059927484464
 20
34.94189632078967
 30
0.0
  0
SPLINE
  5
19E
330
1F
100
AcDbEntity
  8
0
  6
Continuous
 62
     7
370
    25
100
AcDbSpline
210
0.0
220
0.0
230
1.0
 70
     8
 71
     3
 72
    19
 73
    15
 74
     0
 42
0.000000001
 43
0.00000001
 40
0.0
 40
0.0
 40
0.0
 40
0.0
 40
0.0448247963703028
 40
0.1313413709335604
 40
0.218479622894497
 40
0.3061235598363098
 40
0.394032741243206
 40
0.4818862488321791
 40
0.5692835452632828
 40
0.6559279183759309
 40
0.741657545125794
 40
0.8268222739353555
 40
0.9125654055409802
 40
1.0
 40
1.0
 40
1.0
 40
1.0
 10
256.8059927484464
 20
34.94189632078967
 30
0.0
 10
256.808081192387
 20
35.01876974499099
 30
0.0
 10
256.8142005529302
 20
35.24401696841505
 30
0.0
 10
256.8846740648909
 20
35.65870796809413
 30
0.0
 10
257.0442207673435
 20
36.17470263643885
 30
0.0
 10
257.278986413394
 20
36.69259997619808
 30
0.0
 10
257.5772832223494
 20
37.18523168388745
 30
0.0
 10
257.9245636849108
 20
37.62807280104215
 30
0.0
 10
258.3019980120828
 20
37.99918428545278
 30
0.0
 10
258.6878569193304
 20
38.28131389340984
 30
0.0
 10
259.0590622489284
 20
38.46452852827922
 30
0.0
 10
259.3910771640704
 20
38.5452459133591
 30
0.0
 10
259.6665714508121
 20
38.53956963175403
 30
0.0
 10
259.7999128068331
 20
38.47526041901348
 30
0.0
 10
259.8672346712164
 20
38.44279175191797
 30
0.0
  0
LINE
  5
19F
330
1F
100
AcDbEntity
  8
0
  6
Continuous
 62
     7
370
    25
100
AcDbLine
 10
255.1730409264
 20
44.3589295523
 30
0.0
 11
254.6729216475
 21
44.4608253246
 31
0.0
  0
LINE
  5
1A0
330
1F
100
AcDbEntity
  8
0
  6
Continuous
 62
     7
370
    25
100
AcDbLine
 10
249.4347789471
 20
35.3871131585
 30
0.0
 11
249.7731190297
 21
35.0049768008
 31
0.0
  0
LINE
  5
1A1
330
1F
100
AcDbEntity
  8
0
  6
Continuous
 62
     7
370
    25
100
AcDbLine
 10
249.5894583751
 20
35.1980186425
 30
0.0
 11
249.6155262009
 21
35.182970007
 31
0.0
  0
LINE
  5
1A2
330
1F
100
AcDbEntity
  8
0
  6
Continuous
 62
     7
370
    25
100
AcDbLine
 10
254.940093319
 20
44.4063903854
 30
0.0
 11
254.9140254932
 21
44.4214390209
 31
0.0
  0
SPLINE
  5
1A3
330
1F
100
AcDbEntity
  8
0
  6
Continuous
 62
     7
370
    25
100
AcDbSpline
210
0.0
220
0.0
230
1.0
 70
     8
 71
     3
 72
    11
 73
     7
 74
     0
 42
0.000000001
 43
0.00000001
 40
0.0
 40
0.0
 40
0.0
 40
0.0
 40
0.2473670663866025
 40
0.5974545140157735
 40
0.9474624210113455
 40
1.0
 40
1.0
 40
1.0
 40
1.0
 10
220.694244330603
 20
43.57202804130518
 30
0.0
 10
221.4341339107988
 20
43.24050304810515
 30
0.0
 10
223.2211558293527
 20
42.43978569073937
 30
0.0
 10
225.9980405965592
 20
41.02660059849247
 30
0.0
 10
228.1858433702373
 20
39.86295824403852
 30
0.0
 10
229.3232740146953
 20
39.18380879811909
 30
0.0
 10
229.471723952424
 20
39.09517069658168
 30
0.0
  0
SPLINE
  5
1A4
330
1F
100
AcDbEntity
  8
0
  6
Continuous
 62
     7
370
    25
100
AcDbSpline
210
0.0
220
0.0
230
1.0
 70
     8
 71
     3
 72
    10
 73
     6
 74
     0
 42
0.000000001
 43
0.00000001
 40
0.0
 40
0.0
 40
0.0
 40
0.0
 40
0.3430454027166298
 40
0.6919701865226281
 40
0.9999999999999999
 40
0.9999999999999999
 40
0.9999999999999999
 40
0.9999999999999999
 10
241.4757423911063
 20
59.88794055069935
 30
0.0
 10
240.5040203658499
 20
60.4623019753607
 30
0.0
 10
238.543922181353
 20
61.62086868112887
 30
0.0
 10
235.7860369824368
 20
63.41328600034059
 30
0.0
 10
234.0325240052644
 20
64.66347919576944
 30
0.0
 10
233.2103450030592
 20
65.24966396164379
 30
0.0
  0
LINE
  5
1A5
330
1F
100
AcDbEntity
  8
0
  6
Continuous
 62
     7
370
    25
100
AcDbLine
 10
208.9866870096
 20
46.6000724324
 30
0.0
 11
214.045352768
 21
43.6797668505
 31
0.0
  0
LINE
  5
1A6
330
1F
100
AcDbEntity
  8
0
  6
Continuous
 62
     7
370
    25
100
AcDbLine
 10
226.9287080721
 20
72.614446083
 30
0.0
 11
224.7354074989
 21
73.8806115528
 31
0.0
  0
SPLINE
  5
1A7
330
1F
100
AcDbEntity
  8
0
  6
Continuous
 62
     7
370
    25
100
AcDbSpline
210
0.0
220
0.0
230
1.0
 70
     8
 71
     3
 72
    12
 73
     8
 74
     0
 42
0.000000001
 43
0.00000001
 40
0.0
 40
0.0
 40
0.0
 40
0.0
 40
0.1293448776291774
 40
0.4183160393173637
 40
0.7082299758996127
 40
0.9987646654292711
 40
1.0
 40
1.0
 40
1.0
 40
1.0
 10
221.3894437551722
 20
40.75858291013913
 30
0.0
 10
221.5262763698225
 20
40.76586799526076
 30
0.0
 10
221.9688086019376
 20
40.7894287887767
 30
0.0
 10
222.7491855464116
 20
40.94784677662974
 30
0.0
 10
223.7217957357657
 20
41.24306172839556
 30
0.0
 10
224.3817746089412
 20
41.48617512867609
 30
0.0
 10
224.7149046703727
 20
41.65586226732733
 30
0.0
 10
224.7163151205473
 20
41.65658071120871
 30
0.0
  0
LINE
  5
1A8
330
1F
100
AcDbEntity
  8
0
  6
Continuous
 62
     7
370
    25
100
AcDbLine
 10
216.4438110494
 20
42.2951663567
 30
0.0
 11
217.8431996897
 21
41.4873164902
 31
0.0
  0
LINE
  5
1A9
330
1F
100
AcDbEntity
  8
0
  6
Continuous
 62
     7
370
    25
100
AcDbLine
 10
217.5591134671
 20
73.4699341089
 30
0.0
 11
211.3687312132
 21
76.5541534286
 31
0.0
  0
LINE
  5
1AA
330
1F
100
AcDbEntity
  8
0
  6
Continuous
 62
     7
370
    25
100
AcDbLine
 10
199.9870333833
 20
56.8383380481
 30
0.0
 11
209.782515554
 21
50.3521767232
 31
0.0
  0
SPLINE
  5
1AB
330
1F
100
AcDbEntity
  8
0
  6
Continuous
 62
     7
370
    25
100
AcDbSpline
210
0.0
220
0.0
230
1.0
 70
     8
 71
     3
 72
    10
 73
     6
 74
     0
 42
0.000000001
 43
0.00000001
 40
0.0
 40
0.0
 40
0.0
 40
0.0
 40
0.1561862319704665
 40
0.8056093906632281
 40
1.0
 40
1.0
 40
1.0
 40
1.0
 10
235.282963693787
 20
67.24475406235017
 30
0.0
 10
235.2430719031107
 20
67.30287950233287
 30
0.0
 10
235.0373098409003
 20
67.60269082177966
 30
0.0
 10
234.7306610757697
 20
67.91417846249682
 30
0.0
 10
234.4535096716329
 20
68.14815126177233
 30
0.0
 10
234.3896618981431
 20
68.20205191703849
 30
0.0
  0
SPLINE
  5
1AC
330
1F
100
AcDbEntity
  8
0
  6
Continuous
 62
     7
370
    25
100
AcDbSpline
210
0.0
220
0.0
230
1.0
 70
     8
 71
     3
 72
    11
 73
     7
 74
     0
 42
0.000000001
 43
0.00000001
 40
0.0
 40
0.0
 40
0.0
 40
0.0
 40
0.1610117295293473
 40
0.4655459236133605
 40
0.7695813166442728
 40
1.0
 40
1.0
 40
1.0
 40
1.0
 10
236.5819163940025
 20
64.47852098979918
 30
0.0
 10
236.5350030907015
 20
64.64869392931834
 30
0.0
 10
236.3993589536009
 20
65.14072838254741
 30
0.0
 10
236.106249514194
 20
65.89397648737739
 30
0.0
 10
235.7218025038785
 20
66.65249791521022
 30
0.0
 10
235.4151643239424
 20
67.06633630606964
 30
0.0
 10
235.282963693787
 20
67.24475406235017
 30
0.0
  0
SPLINE
  5
1AD
330
1F
100
AcDbEntity
  8
0
  6
Continuous
 62
     7
370
    25
100
AcDbSpline
210
0.0
220
0.0
230
1.0
 70
     8
 71
     3
 72
    25
 73
    21
 74
     0
 42
0.000000001
 43
0.00000001
 40
0.0
 40
0.0
 40
0.0
 40
0.0
 40
0.0355608054747832
 40
0.0906263619993465
 40
0.1458919813913775
 40
0.2017128379899667
 40
0.2582401470179652
 40
0.3154168697281701
 40
0.3730596406462273
 40
0.4309630609380943
 40
0.4889661598436525
 40
0.5469498961742671
 40
0.6048770195934343
 40
0.6627388688041248
 40
0.7205418597072363
 40
0.7783000335949942
 40
0.8360309910745144
 40
0.8937540605190951
 40
0.9514876712690683
 40
0.9999999999999999
 40
0.9999999999999999
 40
0.9999999999999999
 40
0.9999999999999999
 10
211.5141687921829
 20
76.46182416338303
 30
0.0
 10
211.3783180568793
 20
76.53732172311537
 30
0.0
 10
211.0321037979185
 20
76.72972650942492
 30
0.0
 10
210.4110900461342
 20
76.91376271310551
 30
0.0
 10
209.6706821696543
 20
77.02591397294351
 30
0.0
 10
208.8888702190381
 20
77.02001442768227
 30
0.0
 10
208.0748515391318
 20
76.90113440793291
 30
0.0
 10
207.2354868031217
 20
76.66782076340795
 30
0.0
 10
206.3803930970385
 20
76.32229036233998
 30
0.0
 10
205.5197550157478
 20
75.86831241867745
 30
0.0
 10
204.6639372089927
 20
75.31167017230379
 30
0.0
 10
203.8227193886937
 20
74.65941111071976
 30
0.0
 10
203.0052337831219
 20
73.91947553379049
 30
0.0
 10
202.2199679079924
 20
73.10036342537518
 30
0.0
 10
201.474926516767
 20
72.21119960435229
 30
0.0
 10
200.7779555098568
 20
71.26165649151596
 30
0.0
 10
200.1355276000812
 20
70.2620177045831
 30
0.0
 10
199.5570899967462
 20
69.22265552800833
 30
0.0
 10
199.0663070394323
 20
68.21258811840852
 30
0.0
 10
198.806831998303
 20
67.5469567719255
 30
0.0
 10
198.6883546376224
 20
67.243026787853
 30
0.0
  0
LINE
  5
1AE
330
1F
100
AcDbEntity
  8
0
  6
Continuous
 62
     7
370
    25
100
AcDbLine
 10
198.8028472101
 20
65.3944784662
 30
0.0
 11
201.3564075405
 21
63.9203394655
 31
0.0
  0
LINE
  5
1AF
330
1F
100
AcDbEntity
  8
0
  6
Continuous
 62
     7
370
    25
100
AcDbLine
 10
198.5045548654
 20
66.5227881396
 30
0.0
 11
198.5045548654
 21
66.0573821702
 31
0.0
  0
SPLINE
  5
1B0
330
1F
100
AcDbEntity
  8
0
  6
Continuous
 62
     7
370
    25
100
AcDbSpline
210
0.0
220
0.0
230
1.0
 70
     8
 71
     3
 72
    10
 73
     6
 74
     0
 42
0.000000001
 43
0.00000001
 40
0.0
 40
0.0
 40
0.0
 40
0.0
 40
0.2792440455175318
 40
0.9462030009652181
 40
1.0
 40
1.0
 40
1.0
 40
1.0
 10
201.3878490894885
 20
56.67644965128142
 30
0.0
 10
201.384280824285
 20
56.70779806357532
 30
0.0
 10
201.3721899550327
 20
56.81402042449628
 30
0.0
 10
201.3824915612922
 20
56.9795990322664
 30
0.0
 10
201.4199060040034
 20
57.1077348225153
 30
0.0
 10
201.4226986063064
 20
57.11729883782655
 30
0.0
  0
LINE
  5
1B1
330
1F
100
AcDbEntity
  8
0
  6
Continuous
 62
     7
370
    25
100
AcDbLine
 10
198.5045548654
 20
59.0514394748
 30
0.0
 11
198.5045548654
 21
58.5860335054
 31
0.0
  0
SPLINE
  5
1B2
330
1F
100
AcDbEntity
  8
0
  6
Continuous
 62
     7
370
    25
100
AcDbSpline
210
0.0
220
0.0
230
1.0
 70
     8
 71
     3
 72
    10
 73
     6
 74
     0
 42
0.000000001
 43
0.00000001
 40
0.0
 40
0.0
 40
0.0
 40
0.0
 40
0.3034725612506086
 40
0.6853069952739731
 40
1.0
 40
1.0
 40
1.0
 40
1.0
 10
198.6202631111305
 20
58.29983279045594
 30
0.0
 10
198.7303501351221
 20
58.12482886284624
 30
0.0
 10
198.9789505598834
 20
57.72963196169277
 30
0.0
 10
199.4304176835054
 20
57.24539507372351
 30
0.0
 10
199.7973993231844
 20
56.98318460872286
 30
0.0
 10
199.9632026332123
 20
56.86471720239954
 30
0.0
  0
LWPOLYLINE
  5
1B3
330
1F
100
AcDbEntity
  8
0
  6
Continuous
 62
     7
370
    25
100
AcDbPolyline
 90
        9
 70
   128
 43
0.0
 10
256.7634478098
 20
43.5919602447
 10
256.9743124441
 20
44.052958919
 10
257.2932992207
 20
44.5634390382
 10
257.6706465409
 20
45.0099744367
 10
258.0844245432
 20
45.3666143798
 10
258.5105858165
 20
45.6126320462
 10
258.9243638189
 20
45.7337300157
 10
259.301711139
 20
45.7228705595
 10
259.5474035582
 20
45.6282771007
  0
ARC
  5
1B4
330
1F
100
AcDbEntity
  8
0
  6
Continuous
 62
     7
370
    25
100
AcDbCircle
 10
260.0415882572
 20
42.7283881958
 30
0.0
 40
1.050773680969883
100
AcDbArc
 50
333.8131682449
 51
26.1868317551
  0
LINE
  5
1B5
330
1F
100
AcDbEntity
  8
0
  6
Continuous
 62
     7
370
    25
100
AcDbLine
 10
260.9845103352
 20
43.1998182487
 30
0.0
 11
260.9845103352
 21
43.1920942271
 31
0.0
  0
LINE
  5
1B6
330
1F
100
AcDbEntity
  8
0
  6
Continuous
 62
     7
370
    25
100
AcDbLine
 10
260.9845103352
 20
43.1998182487
 30
0.0
 11
260.9787177777
 21
43.2003362872
 31
0.0
  0
ARC
  5
1B7
330
1F
100
AcDbEntity
  8
0
  6
Continuous
 62
     7
370
    25
100
AcDbCircle
 10
260.5985205843
 20
42.8686685808
 30
0.0
 40
0.5045328268615697
100
AcDbArc
 50
41.1000475288
 51
128.6809613804
  0
LINE
  5
1B8
330
1F
100
AcDbEntity
  8
0
  6
Continuous
 62
     7
370
    25
100
AcDbLine
 10
260.2774034381
 20
43.2630441788
 30
0.0
 11
260.2831959956
 21
43.2625261402
 31
0.0
  0
LINE
  5
1B9
330
1F
100
AcDbEntity
  8
0
  6
Continuous
 62
     7
370
    25
100
AcDbLine
 10
260.2774034381
 20
43.2630441788
 30
0.0
 11
260.2716108806
 21
43.2558381957
 31
0.0
  0
ARC
  5
1BA
330
1F
100
AcDbEntity
  8
0
  6
Continuous
 62
     7
370
    25
100
AcDbCircle
 10
261.2317161978
 20
41.7718798205
 30
0.0
 40
1.767465609170389
100
AcDbArc
 50
122.9024384701
 51
159.5084147368
  0
LINE
  5
1BB
330
1F
100
AcDbEntity
  8
0
  6
Continuous
 62
     7
370
    25
100
AcDbLine
 10
259.570296541
 20
42.3834100031
 30
0.0
 11
259.5760894277
 21
42.3906161762
 31
0.0
  0
LINE
  5
1BC
330
1F
100
AcDbEntity
  8
0
  6
Continuous
 62
     7
370
    25
100
AcDbLine
 10
259.570296541
 20
42.3834100031
 30
0.0
 11
259.570296541
 21
42.3756859815
 31
0.0
  0
ARC
  5
1BD
330
1F
100
AcDbEntity
  8
0
  6
Continuous
 62
     7
370
    25
100
AcDbCircle
 10
261.0671642599
 20
41.7912671773
 30
0.0
 40
1.606909551466031
100
AcDbArc
 50
158.6729431623
 51
172.8320717408
  0
ARC
  5
1BE
330
1F
100
AcDbEntity
  8
0
  6
Continuous
 62
     7
370
    25
100
AcDbCircle
 10
259.271935812
 20
42.8986765308
 30
0.0
 40
1.825981247891721
100
AcDbArc
 50
307.9699718547
 51
339.183024314
  0
LINE
  5
1BF
330
1F
100
AcDbEntity
  8
0
  6
Continuous
 62
     7
370
    25
100
AcDbLine
 10
260.9845103352
 20
42.2569581429
 30
0.0
 11
260.9787177777
 21
42.2497521599
 31
0.0
  0
LINE
  5
1C0
330
1F
100
AcDbEntity
  8
0
  6
Continuous
 62
     7
370
    25
100
AcDbLine
 10
260.9845103352
 20
42.2569581429
 30
0.0
 11
260.9845103352
 21
42.2646821645
 31
0.0
  0
SPLINE
  5
1C1
330
1F
100
AcDbEntity
  8
0
  6
Continuous
 62
     7
370
    25
100
AcDbSpline
210
0.0
220
0.0
230
1.0
 70
     8
 71
     3
 72
    10
 73
     6
 74
     0
 42
0.000000001
 43
0.00000001
 40
0.0
 40
0.0
 40
0.0
 40
0.0
 40
0.4395944420415739
 40
0.7571239196827025
 40
1.0
 40
1.0
 40
1.0
 40
1.0
 10
260.2831959955593
 20
43.2625261402381
 30
0.0
 10
260.3359597529782
 20
43.28073103998988
 30
0.0
 10
260.4268360221337
 20
43.31208577003034
 30
0.0
 10
260.7108820143897
 20
43.26876837500684
 30
0.0
 10
260.8977363419476
 20
43.22102705925507
 30
0.0
 10
260.9787177776652
 20
43.20033628723412
 30
0.0
  0
LINE
  5
1C2
330
1F
100
AcDbEntity
  8
0
  6
Continuous
 62
     7
370
    25
100
AcDbLine
 10
259.6321621877
 20
42.4951849878
 30
0.0
 11
259.9895786583
 21
42.8313199743
 31
0.0
  0
SPLINE
  5
1C3
330
1F
100
AcDbEntity
  8
0
  6
Continuous
 62
     7
370
    25
100
AcDbSpline
210
0.0
220
0.0
230
1.0
 70
     8
 71
     3
 72
     9
 73
     5
 74
     0
 42
0.000000001
 43
0.00000001
 40
0.0
 40
0.0
 40
0.0
 40
0.0
 40
0.6786694912565541
 40
1.0
 40
1.0
 40
1.0
 40
1.0
 10
259.9895786583191
 20
42.83131997433131
 30
0.0
 10
259.9804636317965
 20
42.86734939936501
 30
0.0
 10
259.9670329020525
 20
42.92043772217586
 30
0.0
 10
259.9643533992633
 20
42.96960012377311
 30
0.0
 10
259.9634923932689
 20
42.9853975032894
 30
0.0
  0
SPLINE
  5
1C4
330
1F
100
AcDbEntity
  8
0
  6
Continuous
 62
     7
370
    25
100
AcDbSpline
210
0.0
220
0.0
230
1.0
 70
     8
 71
     3
 72
    11
 73
     7
 74
     0
 42
0.000000001
 43
0.00000001
 40
0.0
 40
0.0
 40
0.0
 40
0.0
 40
0.178410053899575
 40
0.5165279805494587
 40
0.8702849330418287
 40
1.0
 40
1.0
 40
1.0
 40
1.0
 10
260.9845103351574
 20
43.19209422711699
 30
0.0
 10
260.9637882200182
 20
43.15194324122717
 30
0.0
 10
260.9037941106526
 20
43.03569918880169
 30
0.0
 10
260.8582499464653
 20
42.77971979367558
 30
0.0
 10
260.9122668092226
 20
42.48478353605164
 30
0.0
 10
260.9692277664086
 20
42.31124293655134
 30
0.0
 10
260.9845103351574
 20
42.26468216451384
 30
0.0
  0
LINE
  5
1C5
330
1F
100
AcDbEntity
  8
0
  6
Continuous
 62
     7
370
    25
100
AcDbLine
 10
259.9895786583
 20
42.8313199743
 30
0.0
 11
260.9845103352
 21
42.2569581429
 31
0.0
  0
SPLINE
  5
1C6
330
1F
100
AcDbEntity
  8
0
  6
Continuous
 62
     7
370
    25
100
AcDbSpline
210
0.0
220
0.0
230
1.0
 70
     8
 71
     3
 72
    10
 73
     6
 74
     0
 42
0.000000001
 43
0.00000001
 40
0.0
 40
0.0
 40
0.0
 40
0.0
 40
0.4961433884902827
 40
0.8545195095594383
 40
1.0
 40
1.0
 40
1.0
 40
1.0
 10
260.9787177776652
 20
42.2497521598731
 30
0.0
 10
260.8326771498599
 20
42.15272166991549
 30
0.0
 10
260.5811479174987
 20
41.98560375881484
 30
0.0
 10
260.3887424456474
 20
41.69479461691222
 30
0.0
 10
260.3390699092454
 20
41.54362251539013
 30
0.0
 10
260.3247277634997
 20
41.49997400315873
 30
0.0
  0
LWPOLYLINE
  5
1C7
330
1F
100
AcDbEntity
  8
0
  6
Continuous
 62
     7
370
    25
100
AcDbPolyline
 90
       11
 70
   128
 43
0.0
 10
244.1553692137
 20
35.2990736927
 10
244.206737661
 20
35.8172556062
 10
244.3578565034
 20
36.3646306952
 10
244.59994405
 20
36.9093881002
 10
244.9189304973
 20
37.4198680294
 10
245.2962778175
 20
37.8664034278
 10
245.7100558198
 20
38.2230433709
 10
246.1362170931
 20
38.4690610374
 10
246.5499950954
 20
38.5901590068
 10
246.9273424156
 20
38.5792995506
 10
247.1730348348
 20
38.4847060918
  0
ARC
  5
1C8
330
1F
100
AcDbEntity
  8
0
  6
Continuous
 62
     7
370
    25
100
AcDbCircle
 10
245.3592555419
 20
35.1543024208
 30
0.0
 40
1.212559694332845
100
AcDbArc
 50
173.1429215125
 51
235.5449339762
  0
ARC
  5
1C9
330
1F
100
AcDbEntity
  8
0
  6
Continuous
 62
     7
370
    25
100
AcDbCircle
 10
247.6672195337
 20
35.584817187
 30
0.0
 40
1.050773680970495
100
AcDbArc
 50
333.8131682449
 51
26.1868317551
  0
LINE
  5
1CA
330
1F
100
AcDbEntity
  8
0
  6
Continuous
 62
     7
370
    25
100
AcDbLine
 10
248.6101416117
 20
36.0562472398
 30
0.0
 11
248.6101416117
 21
36.0485232183
 31
0.0
  0
LINE
  5
1CB
330
1F
100
AcDbEntity
  8
0
  6
Continuous
 62
     7
370
    25
100
AcDbLine
 10
248.6101416117
 20
36.0562472398
 30
0.0
 11
248.6043487249
 21
36.0567650883
 31
0.0
  0
ARC
  5
1CC
330
1F
100
AcDbEntity
  8
0
  6
Continuous
 62
     7
370
    25
100
AcDbCircle
 10
248.2241516707
 20
35.7250984722
 30
0.0
 40
0.5045320052619545
100
AcDbArc
 50
41.099964609
 51
128.6810084186
  0
LINE
  5
1CD
330
1F
100
AcDbEntity
  8
0
  6
Continuous
 62
     7
370
    25
100
AcDbLine
 10
247.9030347146
 20
36.1194731699
 30
0.0
 11
247.9088272721
 21
36.1189551314
 31
0.0
  0
LINE
  5
1CE
330
1F
100
AcDbEntity
  8
0
  6
Continuous
 62
     7
370
    25
100
AcDbLine
 10
247.9030347146
 20
36.1194731699
 30
0.0
 11
247.8972421571
 21
36.1122671869
 31
0.0
  0
ARC
  5
1CF
330
1F
100
AcDbEntity
  8
0
  6
Continuous
 62
     7
370
    25
100
AcDbCircle
 10
248.8573494763
 20
34.6283067082
 30
0.0
 40
1.767468462674239
100
AcDbArc
 50
122.9024559174
 51
159.5083830919
  0
LINE
  5
1D0
330
1F
100
AcDbEntity
  8
0
  6
Continuous
 62
     7
370
    25
100
AcDbLine
 10
247.1959278175
 20
35.2398389942
 30
0.0
 11
247.201720375
 21
35.2470449773
 31
0.0
  0
LINE
  5
1D1
330
1F
100
AcDbEntity
  8
0
  6
Continuous
 62
     7
370
    25
100
AcDbLine
 10
247.1959278175
 20
35.2398389942
 30
0.0
 11
247.1959278175
 21
35.2321149726
 31
0.0
  0
ARC
  5
1D2
330
1F
100
AcDbEntity
  8
0
  6
Continuous
 62
     7
370
    25
100
AcDbCircle
 10
248.1388498955
 20
34.7684089413
 30
0.0
 40
1.050773680970549
100
AcDbArc
 50
153.8131682449
 51
206.1868317551
  0
LINE
  5
1D3
330
1F
100
AcDbEntity
  8
0
  6
Continuous
 62
     7
370
    25
100
AcDbLine
 10
247.1959278175
 20
34.2969788884
 30
0.0
 11
247.1959278175
 21
34.30470291
 31
0.0
  0
LINE
  5
1D4
330
1F
100
AcDbEntity
  8
0
  6
Continuous
 62
     7
370
    25
100
AcDbLine
 10
247.1959278175
 20
34.2969788884
 30
0.0
 11
247.201720375
 21
34.2964608499
 31
0.0
  0
ARC
  5
1D5
330
1F
100
AcDbEntity
  8
0
  6
Continuous
 62
     7
370
    25
100
AcDbCircle
 10
247.5819175684
 20
34.6281285563
 30
0.0
 40
0.5045328268617024
100
AcDbArc
 50
221.1000475288
 51
308.6809613804
  0
LINE
  5
1D6
330
1F
100
AcDbEntity
  8
0
  6
Continuous
 62
     7
370
    25
100
AcDbLine
 10
247.9030347146
 20
34.2337529584
 30
0.0
 11
247.8972421571
 21
34.2342709969
 31
0.0
  0
LINE
  5
1D7
330
1F
100
AcDbEntity
  8
0
  6
Continuous
 62
     7
370
    25
100
AcDbLine
 10
247.9030347146
 20
34.2337529584
 30
0.0
 11
247.9088272721
 21
34.2409589414
 31
0.0
  0
ARC
  5
1D8
330
1F
100
AcDbEntity
  8
0
  6
Continuous
 62
     7
370
    25
100
AcDbCircle
 10
246.9487219549
 20
35.7249173167
 30
0.0
 40
1.767465609170119
100
AcDbArc
 50
302.9024384701
 51
339.5084147368
  0
LINE
  5
1D9
330
1F
100
AcDbEntity
  8
0
  6
Continuous
 62
     7
370
    25
100
AcDbLine
 10
248.6101416117
 20
35.1133871341
 30
0.0
 11
248.6043487249
 21
35.1061809609
 31
0.0
  0
LINE
  5
1DA
330
1F
100
AcDbEntity
  8
0
  6
Continuous
 62
     7
370
    25
100
AcDbLine
 10
248.6101416117
 20
35.1133871341
 30
0.0
 11
248.6101416117
 21
35.1211111557
 31
0.0
  0
SPLINE
  5
1DB
330
1F
100
AcDbEntity
  8
0
  6
Continuous
 62
     7
370
    25
100
AcDbSpline
210
0.0
220
0.0
230
1.0
 70
     8
 71
     3
 72
    10
 73
     6
 74
     0
 42
0.000000001
 43
0.00000001
 40
0.0
 40
0.0
 40
0.0
 40
0.0
 40
0.2594378235474183
 40
0.9669726995767636
 40
1.0
 40
1.0
 40
1.0
 40
1.0
 10
247.1959278175285
 20
34.30470291000915
 30
0.0
 10
247.181153925789
 20
34.35090954548483
 30
0.0
 10
247.126088901795
 20
34.52313021259237
 30
0.0
 10
247.0732536385886
 20
34.71651402398492
 30
0.0
 10
247.0915113455067
 20
34.82321473705261
 30
0.0
 10
247.0923255955327
 20
34.82797333345128
 30
0.0
  0
SPLINE
  5
1DC
330
1F
100
AcDbEntity
  8
0
  6
Continuous
 62
     7
370
    25
100
AcDbSpline
210
0.0
220
0.0
230
1.0
 70
     8
 71
     3
 72
    10
 73
     6
 74
     0
 42
0.000000001
 43
0.00000001
 40
0.0
 40
0.0
 40
0.0
 40
0.0
 40
0.4395945817495909
 40
0.7571241603051293
 40
1.0
 40
1.0
 40
1.0
 40
1.0
 10
247.9088272721111
 20
36.11895513137583
 30
0.0
 10
247.9615910292889
 20
36.13716001651087
 30
0.0
 10
248.0524672980292
 20
36.16851472137655
 30
0.0
 10
248.3365132022976
 20
36.1251974786738
 30
0.0
 10
248.52336740387
 20
36.07745594110245
 30
0.0
 10
248.6043487249448
 20
36.05676508828704
 30
0.0
  0
LINE
  5
1DD
330
1F
100
AcDbEntity
  8
0
  6
Continuous
 62
     7
370
    25
100
AcDbLine
 10
247.2577934642
 20
35.351613979
 30
0.0
 11
247.6152099349
 21
35.6877489655
 31
0.0
  0
SPLINE
  5
1DE
330
1F
100
AcDbEntity
  8
0
  6
Continuous
 62
     7
370
    25
100
AcDbSpline
210
0.0
220
0.0
230
1.0
 70
     8
 71
     3
 72
     9
 73
     5
 74
     0
 42
0.000000001
 43
0.00000001
 40
0.0
 40
0.0
 40
0.0
 40
0.0
 40
0.6786694912565541
 40
1.0
 40
1.0
 40
1.0
 40
1.0
 10
247.6152099348709
 20
35.68774896546905
 30
0.0
 10
247.6060949083484
 20
35.72377839050275
 30
0.0
 10
247.5926641786043
 20
35.7768667133136
 30
0.0
 10
247.5899846758151
 20
35.82602911491084
 30
0.0
 10
247.5891236698207
 20
35.84182649442714
 30
0.0
  0
LINE
  5
1DF
330
1F
100
AcDbEntity
  8
0
  6
Continuous
 62
     7
370
    25
100
AcDbLine
 10
247.1105080094
 20
34.6912688868
 30
0.0
 11
247.9030347146
 21
34.2337529584
 31
0.0
  0
SPLINE
  5
1E0
330
1F
100
AcDbEntity
  8
0
  6
Continuous
 62
     7
370
    25
100
AcDbSpline
210
0.0
220
0.0
230
1.0
 70
     8
 71
     3
 72
    10
 73
     6
 74
     0
 42
0.000000001
 43
0.00000001
 40
0.0
 40
0.0
 40
0.0
 40
0.0
 40
0.4395944420415739
 40
0.7571239196827025
 40
1.0
 40
1.0
 40
1.0
 40
1.0
 10
247.8972421571267
 20
34.23427099688806
 30
0.0
 10
247.7505086821451
 20
34.2703136603933
 30
0.0
 10
247.4977861426818
 20
34.33239079344841
 30
0.0
 10
247.2871974277561
 20
34.33330220490589
 30
0.0
 10
247.2275647744645
 20
34.30760001139279
 30
0.0
 10
247.2017203750207
 20
34.29646084989203
 30
0.0
  0
SPLINE
  5
1E1
330
1F
100
AcDbEntity
  8
0
  6
Continuous
 62
     7
370
    25
100
AcDbSpline
210
0.0
220
0.0
230
1.0
 70
     8
 71
     3
 72
    11
 73
     7
 74
     0
 42
0.000000001
 43
0.00000001
 40
0.0
 40
0.0
 40
0.0
 40
0.0
 40
0.178410053899575
 40
0.5165279805494587
 40
0.8702849330418287
 40
1.0
 40
1.0
 40
1.0
 40
1.0
 10
248.6101416117093
 20
36.04852321825473
 30
0.0
 10
248.58941949657
 20
36.00837223236491
 30
0.0
 10
248.5294253872045
 20
35.89212817993943
 30
0.0
 10
248.4838812230171
 20
35.63614878481332
 30
0.0
 10
248.5378980857745
 20
35.34121252718938
 30
0.0
 10
248.5948590429605
 20
35.16767192768909
 30
0.0
 10
248.6101416117093
 20
35.12111115565158
 30
0.0
  0
LINE
  5
1E2
330
1F
100
AcDbEntity
  8
0
  6
Continuous
 62
     7
370
    25
100
AcDbLine
 10
247.6152099349
 20
35.6877489655
 30
0.0
 11
248.6101416117
 21
35.1133871341
 31
0.0
  0
SPLINE
  5
1E3
330
1F
100
AcDbEntity
  8
0
  6
Continuous
 62
     7
370
    25
100
AcDbSpline
210
0.0
220
0.0
230
1.0
 70
     8
 71
     3
 72
    10
 73
     6
 74
     0
 42
0.000000001
 43
0.00000001
 40
0.0
 40
0.0
 40
0.0
 40
0.0
 40
0.4395942583827752
 40
0.7571238400861879
 40
1.0
 40
1.0
 40
1.0
 40
1.0
 10
248.6043487249448
 20
35.10618096092601
 30
0.0
 10
248.4576153730504
 20
35.00921860880752
 30
0.0
 10
248.2048929665666
 20
34.84221800090643
 30
0.0
 10
247.9943043255041
 20
34.51335417657144
 30
0.0
 10
247.9346716717537
 20
34.32331895545945
 30
0.0
 10
247.9088272721111
 20
34.24095894141166
 30
0.0
  0
LWPOLYLINE
  5
1E4
330
1F
100
AcDbEntity
  8
0
  6
Continuous
 62
     7
370
    25
100
AcDbPolyline
 90
       18
 70
   128
 43
0.0
 10
262.5954384532
 20
38.4571169934
 10
262.2362496747
 20
38.6005858807
 10
261.7705720266
 20
38.6422245679
 10
261.2624279302
 20
38.5519678744
 10
260.730182926
 20
38.3330778233
 10
260.1930738092
 20
37.9934658259
 10
259.670513021
 20
37.5454065161
 10
259.1813873195
 20
37.0050937177
 10
258.7433750439
 20
36.3920558137
 10
258.3723071103
 20
35.7284495911
 10
258.0815946129
 20
35.0382591713
 10
257.8817449586
 20
34.3464303636
 10
257.7799810636
 20
33.6779673416
 10
257.7799810636
 20
33.0570302368
 10
257.8817449586
 20
32.5060613071
 10
258.0815946129
 20
32.0449739987
 10
258.3723071103
 20
31.690433084
 10
258.5957634449
 20
31.5287261087
  0
LINE
  5
1E5
330
1F
100
AcDbEntity
  8
0
  6
Continuous
 62
     7
370
    25
100
AcDbLine
 10
264.1311367516
 20
34.8647276582
 30
0.0
 11
262.6965938531
 21
33.0801699296
 31
0.0
  0
LINE
  5
1E6
330
1F
100
AcDbEntity
  8
0
  6
Continuous
 62
     7
370
    25
100
AcDbLine
 10
262.6965938531
 20
33.0801699296
 30
0.0
 11
262.6965938531
 21
31.167342448
 31
0.0
  0
LINE
  5
1E7
330
1F
100
AcDbEntity
  8
0
  6
Continuous
 62
     7
370
    25
100
AcDbLine
 10
264.1311367516
 20
31.0390726949
 30
0.0
 11
262.6965938531
 21
31.167342448
 31
0.0
  0
LINE
  5
1E8
330
1F
100
AcDbEntity
  8
0
  6
Continuous
 62
     7
370
    25
100
AcDbLine
 10
265.5656796501
 20
32.8236304235
 30
0.0
 11
264.1311367516
 21
31.0390726949
 31
0.0
  0
LINE
  5
1E9
330
1F
100
AcDbEntity
  8
0
  6
Continuous
 62
     7
370
    25
100
AcDbLine
 10
265.5656796501
 20
32.8236304235
 30
0.0
 11
265.5656796501
 21
34.7364579052
 31
0.0
  0
LINE
  5
1EA
330
1F
100
AcDbEntity
  8
0
  6
Continuous
 62
     7
370
    25
100
AcDbLine
 10
264.1311367516
 20
34.8647276582
 30
0.0
 11
265.5656796501
 21
34.7364579052
 31
0.0
  0
ARC
  5
1EB
330
1F
100
AcDbEntity
  8
0
  6
Continuous
 62
     7
370
    25
100
AcDbCircle
 10
260.5444653295
 20
35.0248250457
 30
0.0
 40
3.275566879661719
100
AcDbArc
 50
320.7388720639
 51
349.0713768258
  0
ARC
  5
1EC
330
1F
100
AcDbEntity
  8
0
  6
Continuous
 62
     7
370
    25
100
AcDbCircle
 10
260.7924548564
 20
34.7736885442
 30
0.0
 40
2.924863400684979
100
AcDbArc
 50
310.618313977
 51
321.4736014978
  0
LINE
  5
1ED
330
1F
100
AcDbEntity
  8
0
  6
Continuous
 62
     7
370
    25
100
AcDbLine
 10
262.6965950056
 20
31.8672160174
 30
0.0
 11
264.1311367516
 21
31.0390726949
 31
0.0
  0
LINE
  5
1EE
330
1F
100
AcDbEntity
  8
0
  6
Continuous
 62
     7
370
    25
100
AcDbLine
 10
263.7979091147
 20
33.8441426314
 30
0.0
 11
265.5656796501
 21
32.8236304235
 31
0.0
  0
LINE
  5
1EF
330
1F
100
AcDbEntity
  8
0
  6
Continuous
 62
     7
370
    25
100
AcDbLine
 10
263.7979091147
 20
33.8441426314
 30
0.0
 11
263.7979091147
 21
34.4502021353
 31
0.0
  0
LINE
  5
1F0
330
1F
100
AcDbEntity
  8
0
  6
Continuous
 62
     7
370
    25
100
AcDbLine
 10
263.0806376654
 20
32.9518638146
 30
0.0
 11
262.6965902928
 21
32.4741125066
 31
0.0
  0
LINE
  5
1F1
330
1F
100
AcDbEntity
  8
0
  6
Continuous
 62
     7
370
    25
100
AcDbLine
 10
263.7979091147
 20
33.8441426314
 30
0.0
 11
263.0806376654
 21
32.9518638146
 31
0.0
  0
ARC
  5
1F2
330
1F
100
AcDbEntity
  8
0
  6
Continuous
 62
     7
370
    25
100
AcDbCircle
 10
255.7262540541
 20
46.8082575458
 30
0.0
 40
4.195545740573871
100
AcDbArc
 50
34.5711440496
 51
85.4325234254
  0
ARC
  5
1F3
330
1F
100
AcDbEntity
  8
0
  6
Continuous
 62
     7
370
    25
100
AcDbCircle
 10
247.9258806197
 20
33.2972071995
 30
0.0
 40
4.191004934363058
100
AcDbArc
 50
214.6195907556
 51
264.4965031854
  0
SPLINE
  5
1F4
330
1F
100
AcDbEntity
  8
0
  6
Continuous
 62
     7
370
    25
100
AcDbSpline
210
0.0
220
0.0
230
1.0
 70
    11
 71
     3
 72
    70
 73
    66
 74
     0
 42
0.000000001
 43
0.00000001
 40
0.0
 40
0.0
 40
0.0
 40
0.0
 40
0.0312499999999997
 40
0.0312499999999997
 40
0.0624999999999994
 40
0.0624999999999994
 40
0.0937499999999994
 40
0.0937499999999994
 40
0.1249999999999994
 40
0.1249999999999994
 40
0.1562499999999994
 40
0.1562499999999994
 40
0.1874999999999994
 40
0.1874999999999994
 40
0.2187499999999995
 40
0.2187499999999995
 40
0.2499999999999995
 40
0.2499999999999995
 40
0.2812499999999995
 40
0.2812499999999995
 40
0.3124999999999996
 40
0.3124999999999996
 40
0.3437499999999996
 40
0.3437499999999996
 40
0.3749999999999996
 40
0.3749999999999996
 40
0.4062499999999996
 40
0.4062499999999996
 40
0.4374999999999997
 40
0.4374999999999997
 40
0.4687499999999997
 40
0.4687499999999997
 40
0.4999999999999997
 40
0.4999999999999997
 40
0.5312499999999997
 40
0.5312499999999997
 40
0.5624999999999997
 40
0.5624999999999997
 40
0.5937499999999998
 40
0.5937499999999998
 40
0.6249999999999998
 40
0.6249999999999998
 40
0.6562499999999998
 40
0.6562499999999998
 40
0.6874999999999998
 40
0.6874999999999998
 40
0.7187499999999999
 40
0.7187499999999999
 40
0.7499999999999999
 40
0.7499999999999999
 40
0.7812499999999999
 40
0.7812499999999999
 40
0.8124999999999999
 40
0.8124999999999999
 40
0.84375
 40
0.84375
 40
0.875
 40
0.875
 40
0.90625
 40
0.90625
 40
0.9375
 40
0.9375
 40
0.9687500000000001
 40
0.9687500000000001
 40
1.0
 40
1.0
 40
1.0
 40
1.0
 10
231.4882128794299
 20
51.94425449976481
 30
0.0
 10
231.550596599596
 20
52.03463986232122
 30
0.0
 10
231.6208912257579
 20
52.11656913563726
 30
0.0
 10
231.7760765024502
 20
52.26476399047701
 30
0.0
 10
231.8617609518465
 20
52.33126390385044
 30
0.0
 10
232.039461492081
 20
52.44336130941134
 30
0.0
 10
232.1326093798574
 20
52.49001242576096
 30
0.0
 10
232.3246315732471
 20
52.56441851814777
 30
0.0
 10
232.4213209267638
 20
52.59141949429009
 30
0.0
 10
232.6156143280804
 20
52.62695146695883
 30
0.0
 10
232.7139594218364
 20
52.63534689948242
 30
0.0
 10
232.9047014230946
 20
52.63377240556593
 30
0.0
 10
232.997748843076
 20
52.62404659488103
 30
0.0
 10
233.1790730012749
 20
52.587272673962
 30
0.0
 10
233.2670887146688
 20
52.56006459384813
 30
0.0
 10
233.4319458030886
 20
52.49048356299313
 30
0.0
 10
233.5096466574333
 20
52.44797266439758
 30
0.0
 10
233.6553895419002
 20
52.34720849821711
 30
0.0
 10
233.722724887286
 20
52.28923004381847
 30
0.0
 10
233.8427826792983
 20
52.16148375959782
 30
0.0
 10
233.8961356697406
 20
52.0913127607185
 30
0.0
 10
233.9889783947382
 20
51.9375171674004
 30
0.0
 10
234.0278174833922
 20
51.85461819053013
 30
0.0
 10
234.0882065313963
 20
51.68125589937296
 30
0.0
 10
234.1101873271695
 20
51.59014697391024
 30
0.0
 10
234.1364931322736
 20
51.39792921323644
 30
0.0
 10
234.1404122992586
 20
51.29848937669416
 30
0.0
 10
234.129402993507
 20
51.09792921716433
 30
0.0
 10
234.1145371921415
 20
50.99568157262743
 30
0.0
 10
234.0644402610372
 20
50.78862476927358
 30
0.0
 10
234.0301676288211
 20
50.68757371181765
 30
0.0
 10
233.9433899312717
 20
50.49030011365267
 30
0.0
 10
233.8899485228729
 20
50.39291853863958
 30
0.0
 10
233.7691734103426
 20
50.21259048932763
 30
0.0
 10
233.7017470085741
 20
50.12880229757194
 30
0.0
 10
233.5526742269911
 20
49.97404806417531
 30
0.0
 10
233.4734477513378
 20
49.90564711278824
 30
0.0
 10
233.3071671501468
 20
49.78631881809559
 30
0.0
 10
233.219239576632
 20
49.73508591540647
 30
0.0
 10
233.0420467589565
 20
49.65322081453778
 30
0.0
 10
232.9520479606377
 20
49.62192331889718
 30
0.0
 10
232.7689220299283
 20
49.57815627821801
 30
0.0
 10
232.6781392448858
 20
49.56627588136336
 30
0.0
 10
232.4984562641388
 20
49.56124485022208
 30
0.0
 10
232.4086556937454
 20
49.56824991608857
 30
0.0
 10
232.2344452535644
 20
49.60071082442696
 30
0.0
 10
232.15038440621
 20
49.62590196477876
 30
0.0
 10
231.9880181506191
 20
49.69372675606455
 30
0.0
 10
231.9090518678468
 20
49.73690578156751
 30
0.0
 10
231.7617972410401
 20
49.83850397737581
 30
0.0
 10
231.6931950821559
 20
49.89684423527853
 30
0.0
 10
231.5661897980803
 20
50.02860223505313
 30
0.0
 10
231.5073388873085
 20
50.10286324458818
 30
0.0
 10
231.4046864434946
 20
50.26200727601654
 30
0.0
 10
231.360457226248
 20
50.34706033550271
 30
0.0
 10
231.2870463915467
 20
50.52838663291706
 30
0.0
 10
231.2577492404788
 20
50.62578682653128
 30
0.0
 10
231.2183609836148
 20
50.82449111295205
 30
0.0
 10
231.2078294460558
 20
50.92632770890368
 30
0.0
 10
231.2067836314397
 20
51.13514366928626
 30
0.0
 10
231.2166813988519
 20
51.24286958239048
 30
0.0
 10
231.257616545545
 20
51.45213573185353
 30
0.0
 10
231.2884864307454
 20
51.55503639511858
 30
0.0
 10
231.3729410909642
 20
51.75698629650059
 30
0.0
 10
231.4258291592638
 20
51.85386913720839
 30
0.0
 10
231.4882128794299
 20
51.94425449976481
 30
0.0
  0
SPLINE
  5
1F5
330
1F
100
AcDbEntity
  8
0
  6
Continuous
 62
     7
370
    25
100
AcDbSpline
210
0.0
220
0.0
230
1.0
 70
     8
 71
     3
 72
    20
 73
    16
 74
     0
 42
0.000000001
 43
0.00000001
 40
0.0
 40
0.0
 40
0.0
 40
0.0
 40
0.0752862478175221
 40
0.1419583862417285
 40
0.2192814601721277
 40
0.2899261973346033
 40
0.3586841733566133
 40
0.4314214815547769
 40
0.5116529459381013
 40
0.5996981210068245
 40
0.6927832845589319
 40
0.7868342634564663
 40
0.8772152812901308
 40
0.9590590778616173
 40
0.9999999999999999
 40
0.9999999999999999
 40
0.9999999999999999
 40
0.9999999999999999
 10
232.685556482276
 20
37.33279801368543
 30
0.0
 10
232.5313927344938
 20
37.40994260221437
 30
0.0
 10
232.2407043619614
 20
37.55540504206652
 30
0.0
 10
231.8149824993152
 20
37.76657619137836
 30
0.0
 10
231.4706610630009
 20
37.94702545745023
 30
0.0
 10
231.2543721412938
 20
38.07802180029969
 30
0.0
 10
231.1846427476108
 20
38.14428786637102
 30
0.0
 10
231.2536758831182
 20
38.14179831777029
 30
0.0
 10
231.4675056392264
 20
38.05559795384634
 30
0.0
 10
231.8258767179637
 20
37.8693429582065
 30
0.0
 10
232.2999141456064
 20
37.58593620491745
 30
0.0
 10
232.8317770643314
 20
37.24006690762731
 30
0.0
 10
233.3325830153
 20
36.90557129005104
 30
0.0
 10
233.7018693333216
 20
36.66371898250536
 30
0.0
 10
233.8365532377769
 20
36.58708451611359
 30
0.0
 10
233.8814617842437
 20
36.56153177832481
 30
0.0
  0
LINE
  5
1F6
330
1F
100
AcDbEntity
  8
0
  6
Continuous
 62
     7
370
    25
100
AcDbLine
 10
244.1854726003
 20
58.2739181466
 30
0.0
 11
244.6143832969
 21
57.9907374714
 31
0.0
  0
LWPOLYLINE
  5
1F7
330
1F
100
AcDbEntity
  8
0
  6
Continuous
 62
     7
370
    25
100
AcDbPolyline
 90
       15
 70
   128
 43
0.0
 10
245.8882566466
 20
57.3382345012
 10
245.8692852964
 20
57.3501575115
 10
245.565352518
 20
57.5131557618
 10
245.1802607144
 20
57.7072539963
 10
244.7257668808
 20
57.9335179685
 10
244.2311564913
 20
58.1876086607
 10
243.7597989792
 20
58.4492348213
 10
243.3940390789
 20
58.680056477
 10
243.2001576489
 20
58.8332475805
 10
243.2038645959
 20
58.8706757603
 10
243.3715102713
 20
58.7917155023
 10
243.6413442736
 20
58.6296072441
 10
243.981815077
 20
58.4088856116
 10
244.1854726003
 20
58.2739181466
 10
244.1854726003
 20
58.2739181466
  0
SPLINE
  5
1F8
330
1F
100
AcDbEntity
  8
0
  6
Continuous
 62
     7
370
    25
100
AcDbSpline
210
0.0
220
0.0
230
1.0
 70
    11
 71
     3
 72
    82
 73
    78
 74
     0
 42
0.000000001
 43
0.00000001
 40
0.0
 40
0.0
 40
0.0
 40
0.0
 40
0.0312499999999997
 40
0.0312499999999997
 40
0.0468749999999995
 40
0.0468749999999995
 40
0.0624999999999993
 40
0.0624999999999993
 40
0.093749999999999
 40
0.093749999999999
 40
0.1249999999999987
 40
0.1249999999999987
 40
0.1562499999999983
 40
0.1562499999999983
 40
0.187499999999998
 40
0.187499999999998
 40
0.2187499999999976
 40
0.2187499999999976
 40
0.2499999999999973
 40
0.2499999999999973
 40
0.2656249999999971
 40
0.2656249999999971
 40
0.2812499999999968
 40
0.2812499999999968
 40
0.3124999999999966
 40
0.3124999999999966
 40
0.3281249999999963
 40
0.3281249999999963
 40
0.3437499999999962
 40
0.3437499999999962
 40
0.3749999999999958
 40
0.3749999999999958
 40
0.4062499999999955
 40
0.4062499999999955
 40
0.4374999999999951
 40
0.4374999999999951
 40
0.4687499999999948
 40
0.4687499999999948
 40
0.4999999999999944
 40
0.4999999999999944
 40
0.5312499999999941
 40
0.5312499999999941
 40
0.5624999999999938
 40
0.5624999999999938
 40
0.5937499999999934
 40
0.5937499999999934
 40
0.6249999999999931
 40
0.6249999999999931
 40
0.6406249999999929
 40
0.6406249999999929
 40
0.6562499999999927
 40
0.6562499999999927
 40
0.687499999999993
 40
0.687499999999993
 40
0.7187499999999933
 40
0.7187499999999933
 40
0.7499999999999937
 40
0.7499999999999937
 40
0.7812499999999941
 40
0.7812499999999941
 40
0.7968749999999942
 40
0.7968749999999942
 40
0.8124999999999944
 40
0.8124999999999944
 40
0.8437499999999948
 40
0.8437499999999948
 40
0.8593749999999952
 40
0.8593749999999952
 40
0.8749999999999957
 40
0.8749999999999957
 40
0.9062499999999968
 40
0.9062499999999968
 40
0.9374999999999979
 40
0.9374999999999979
 40
0.968749999999999
 40
0.968749999999999
 40
1.0
 40
1.0
 40
1.0
 40
1.0
 10
239.9073370296758
 20
51.32967506967872
 30
0.0
 10
239.782105826141
 20
51.40196950464899
 30
0.0
 10
239.6691080102948
 20
51.48504254739073
 30
0.0
 10
239.5173686212666
 20
51.6250608305422
 30
0.0
 10
239.469770762941
 20
51.67431675880892
 30
0.0
 10
239.3807093256605
 20
51.77804499598398
 30
0.0
 10
239.3390587473527
 20
51.83282771885292
 30
0.0
 10
239.2257350814801
 20
52.00226396389334
 30
0.0
 10
239.1651994458033
 20
52.12209825253269
 30
0.0
 10
239.0744804093056
 20
52.37447417768504
 30
0.0
 10
239.0442741000623
 20
52.50862663654462
 30
0.0
 10
239.0186401016922
 20
52.77946637629029
 30
0.0
 10
239.0226586052428
 20
52.91635102937599
 30
0.0
 10
239.0656902071353
 20
53.19181298684952
 30
0.0
 10
239.105446480359
 20
53.33111673189812
 30
0.0
 10
239.2182558851858
 20
53.59700627568364
 30
0.0
 10
239.2913365164048
 20
53.72524996415858
 30
0.0
 10
239.4727861056903
 20
53.97101185865431
 30
0.0
 10
239.579370431036
 20
54.08565746785188
 30
0.0
 10
239.758920364216
 20
54.24151449579523
 30
0.0
 10
239.8222363603035
 20
54.29099015236073
 30
0.0
 10
239.955948403617
 20
54.38489844871831
 30
0.0
 10
240.0266168134405
 20
54.42943139564638
 30
0.0
 10
240.2442702897699
 20
54.55233800432659
 30
0.0
 10
240.3982748566544
 20
54.6212489688961
 30
0.0
 10
240.642294280589
 20
54.70609553287732
 30
0.0
 10
240.72627213029
 20
54.7313632607578
 30
0.0
 10
240.8952651625294
 20
54.77481217852471
 30
0.0
 10
240.9805118217173
 20
54.79311540272176
 30
0.0
 10
241.2383998547173
 20
54.83836591230093
 30
0.0
 10
241.4143359742526
 20
54.85575792758203
 30
0.0
 10
241.7666432720027
 20
54.86586694147302
 30
0.0
 10
241.9400072423029
 20
54.85868598607139
 30
0.0
 10
242.2813032010104
 20
54.82254326490548
 30
0.0
 10
242.4505937187109
 20
54.79309705452869
 30
0.0
 10
242.7714099474549
 20
54.7157620197371
 30
0.0
 10
242.9241689649317
 20
54.66791924932064
 30
0.0
 10
243.2143939735412
 20
54.55481741731387
 30
0.0
 10
243.351219495899
 20
54.48951785777138
 30
0.0
 10
243.5985847695425
 20
54.34690430284141
 30
0.0
 10
243.7106564818732
 20
54.26904625134535
 30
0.0
 10
243.9107678832483
 20
54.09945195984848
 30
0.0
 10
243.9967130210086
 20
54.00928414870157
 30
0.0
 10
244.1380819242814
 20
53.82070333212936
 30
0.0
 10
244.194231089006
 20
53.72143404654553
 30
0.0
 10
244.274511156839
 20
53.51332499983943
 30
0.0
 10
244.2977388449922
 20
53.4071512787426
 30
0.0
 10
244.3076900105287
 20
53.24356245389043
 30
0.0
 10
244.3068298811917
 20
53.1883067266301
 30
0.0
 10
244.2964683299415
 20
53.07607671214289
 30
0.0
 10
244.2868657297888
 20
53.0188434559818
 30
0.0
 10
244.2454412985461
 20
52.84805691328365
 30
0.0
 10
244.2011811165015
 20
52.7343637063311
 30
0.0
 10
244.0792682984531
 20
52.50589923936582
 30
0.0
 10
244.0004698980719
 20
52.39013401755221
 30
0.0
 10
243.8155637403381
 20
52.16744776000484
 30
0.0
 10
243.7090841919895
 20
52.05930258249404
 30
0.0
 10
243.4671665904281
 20
51.84929049114532
 30
0.0
 10
243.334157660259
 20
51.74977234462033
 30
0.0
 10
243.1216215722967
 20
51.61202133438341
 30
0.0
 10
243.0483660545096
 20
51.56785108747216
 30
0.0
 10
242.8969261947665
 20
51.4831558576793
 30
0.0
 10
242.8186037367334
 20
51.44260735542668
 30
0.0
 10
242.5816268859102
 20
51.32940860307072
 30
0.0
 10
242.4192471415784
 20
51.2640774825214
 30
0.0
 10
242.1688789556144
 20
51.1818631420574
 30
0.0
 10
242.0838997880676
 20
51.15703557540711
 30
0.0
 10
241.9149554015114
 20
51.113837005295
 30
0.0
 10
241.8306752944304
 20
51.09533599700038
 30
0.0
 10
241.5782832270235
 20
51.0490792397082
 30
0.0
 10
241.4096846068712
 20
51.03046043269545
 30
0.0
 10
241.0772023758542
 20
51.01966463101673
 30
0.0
 10
240.9163850478728
 20
51.02744114568677
 30
0.0
 10
240.6046191723927
 20
51.06913667411268
 30
0.0
 10
240.4524460831246
 20
51.10357938595506
 30
0.0
 10
240.1667465002595
 20
51.19778244092891
 30
0.0
 10
240.0325682332105
 20
51.25738063470845
 30
0.0
 10
239.9073370296758
 20
51.32967506967871
 30
0.0
  0
LWPOLYLINE
  5
1F9
330
1F
100
AcDbEntity
  8
0
  6
Continuous
 62
     7
370
    25
100
AcDbPolyline
 90
       20
 70
   128
 43
0.0
 10
247.6772102539
 20
38.1936520687
 10
247.8145987726
 20
38.9416262943
 10
248.060067616
 20
39.8055725664
 10
248.3960122429
 20
40.6714352706
 10
248.8149285388
 20
41.5198727373
 10
249.3074585861
 20
42.3319320676
 10
249.8625997526
 20
43.0894732615
 10
250.4679514804
 20
43.7755740463
 10
251.1099908874
 20
44.3749083712
 10
251.7743760266
 20
44.8740876365
 10
252.4462656097
 20
45.2619612368
 10
253.110650749
 20
45.5298647253
 10
253.7526901559
 20
45.6718133211
 10
254.3580418837
 20
45.6846367642
 10
254.9131830502
 20
45.568047918
 10
255.4057130975
 20
45.3246516761
 10
255.8246293934
 20
44.9598846693
 10
256.1605740203
 20
44.4818953753
 10
256.4060428637
 20
43.9013613971
 10
256.4545917526
 20
43.7341562422
  0
ARC
  5
1FA
330
1F
100
AcDbEntity
  8
0
  6
Continuous
 62
     7
370
    25
100
AcDbCircle
 10
250.1537414609
 20
36.7227501305
 30
0.0
 40
2.63968984220287
100
AcDbArc
 50
243.6503919568
 51
287.6713922446
  0
LINE
  5
1FB
330
1F
100
AcDbEntity
  8
0
  6
Continuous
 62
     7
370
    25
100
AcDbLine
 10
261.2273683788
 20
40.9770291365
 30
0.0
 11
261.2947672811
 21
40.9399822808
 31
0.0
  0
LWPOLYLINE
  5
1FC
330
1F
100
AcDbEntity
  8
0
  6
Continuous
 62
     7
370
    25
100
AcDbPolyline
 90
       16
 70
   128
 43
0.0
 10
249.1078359651
 20
37.3054955207
 10
249.1554786968
 20
37.8854692792
 10
249.3052623402
 20
38.6736823782
 10
249.5505876209
 20
39.480217803
 10
249.8851009013
 20
40.2841863767
 10
250.3001380408
 20
41.0647660123
 10
250.7849501111
 20
41.8017395769
 10
251.3269806442
 20
42.4760206301
 10
251.9121914468
 20
43.0701449378
 10
252.5254257877
 20
43.5687253854
 10
253.1508012095
 20
43.9588490863
 10
253.7721208409
 20
44.2304117866
 10
254.3732927867
 20
44.3763805068
 10
254.9387470894
 20
44.3929741713
 10
255.453838707
 20
44.2797631619
 10
255.743979917
 20
44.1443836185
  0
ARC
  5
1FD
330
1F
100
AcDbEntity
  8
0
  6
Continuous
 62
     7
370
    25
100
AcDbCircle
 10
251.3173109755
 20
36.3979670883
 30
0.0
 40
2.078439402016143
100
AcDbArc
 50
205.282654327
 51
238.9225085321
  0
LWPOLYLINE
  5
1FE
330
1F
100
AcDbEntity
  8
0
  6
Continuous
 62
     7
370
    25
100
AcDbPolyline
 90
       17
 70
   128
 43
0.0
 10
257.3799486961
 20
37.5231959686
 10
257.3355428753
 20
37.7553541517
 10
257.2090857015
 20
37.9008985578
 10
257.0198290649
 20
37.9376711038
 10
256.7965856048
 20
37.8600737905
 10
256.5733423093
 20
37.6799197862
 10
256.3840856727
 20
37.4246361787
 10
256.2576284989
 20
37.1330874276
 10
256.2132225135
 20
36.84965928
 10
256.2576284989
 20
36.6175010019
 10
256.3840856727
 20
36.4719565958
 10
256.5733423093
 20
36.4351840498
 10
256.7965856048
 20
36.5127814582
 10
257.0198290649
 20
36.6929353674
 10
257.2090857015
 20
36.9482189749
 10
257.3355428753
 20
37.239767726
 10
257.3799486961
 20
37.5231959686
  0
LINE
  5
1FF
330
1F
100
AcDbEntity
  8
0
  6
Continuous
 62
     7
370
    25
100
AcDbLine
 10
254.8655780201
 20
44.4484074897
 30
0.0
 11
254.9140254932
 21
44.4214390209
 31
0.0
  0
LWPOLYLINE
  5
200
330
1F
100
AcDbEntity
  8
0
  6
Continuous
 62
     7
370
    25
100
AcDbPolyline
 90
       19
 70
   128
 43
0.0
 10
232.1769503757
 20
49.9564211368
 10
232.5169490026
 20
49.8471883616
 10
232.8913229943
 20
49.8816996207
 10
233.2549166124
 20
50.0557937819
 10
233.5638767196
 20
50.348469931
 10
233.7809369407
 20
50.7244292611
 10
233.8799161803
 20
51.1383247849
 10
233.8488786484
 20
51.5402346597
 10
233.6915648777
 20
51.8816827307
 10
233.4269508284
 20
52.1214854241
 10
233.0869538479
 20
52.2307172488
 10
232.7125798562
 20
52.1962059897
 10
232.3489859088
 20
52.0221120187
 10
232.0400258016
 20
51.7294358696
 10
231.8229655805
 20
51.3534765394
 10
231.7239863409
 20
50.9395810157
 10
231.7550242021
 20
50.5376709507
 10
231.9123379728
 20
50.1962228797
 10
232.1769503757
 20
49.9564211368
  0
LINE
  5
201
330
1F
100
AcDbEntity
  8
0
  6
Continuous
 62
     7
370
    25
100
AcDbLine
 10
233.2035086525
 20
65.246934961
 30
0.0
 11
233.2428191498
 21
65.2181321625
 31
0.0
  0
ARC
  5
202
330
1F
100
AcDbEntity
  8
0
  6
Continuous
 62
     7
370
    25
100
AcDbCircle
 10
240.7369468877
 20
46.4603875455
 30
0.0
 40
26.01914106905718
100
AcDbArc
 50
137.701347509
 51
162.9474330642
  0
SPLINE
  5
203
330
1F
100
AcDbEntity
  8
0
  6
Continuous
 62
     7
370
    25
100
AcDbSpline
210
0.0
220
0.0
230
1.0
 70
     8
 71
     3
 72
    10
 73
     6
 74
     0
 42
0.000000001
 43
0.00000001
 40
0.0
 40
0.0
 40
0.0
 40
0.0
 40
0.5
 40
0.5
 40
1.0
 40
1.0
 40
1.0
 40
1.0
 10
215.4785554160363
 20
52.64624606753719
 30
0.0
 10
215.4220267302537
 20
52.61361275185457
 30
0.0
 10
215.343383407679
 20
52.5932397763956
 30
0.0
 10
215.1831534933479
 20
52.59017837643425
 30
0.0
 10
215.1019864808072
 20
52.60783757631449
 30
0.0
 10
215.0448725804694
 20
52.6408087291688
 30
0.0
  0
SPLINE
  5
204
330
1F
100
AcDbEntity
  8
0
  6
Continuous
 62
     7
370
    25
100
AcDbSpline
210
0.0
220
0.0
230
1.0
 70
     8
 71
     3
 72
    12
 73
     8
 74
     0
 42
0.000000001
 43
0.00000001
 40
0.0
 40
0.0
 40
0.0
 40
0.0
 40
0.2500000000000033
 40
0.2500000000000033
 40
0.5000000000000067
 40
0.5000000000000067
 40
1.0
 40
1.0
 40
1.0
 40
1.0
 10
232.7355944868142
 20
69.1647706074239
 30
0.0
 10
232.7674988151589
 20
69.14635263070815
 30
0.0
 10
232.7996361515998
 20
69.11643809007609
 30
0.0
 10
232.854294458026
 20
69.04604067013318
 30
0.0
 10
232.8772677973564
 20
69.00565997345734
 30
0.0
 10
232.930949586294
 20
68.88313614342198
 30
0.0
 10
232.9477265211701
 20
68.7983348218163
 30
0.0
 10
232.9477265211701
 20
68.72478222618268
 30
0.0
  0
LINE
  5
205
330
1F
100
AcDbEntity
  8
0
  6
Continuous
 62
     7
370
    25
100
AcDbLine
 10
215.0448728537
 20
52.6408084392
 30
0.0
 11
213.6454842135
 21
53.4486583056
 31
0.0
  0
LWPOLYLINE
  5
206
330
1F
100
AcDbEntity
  8
0
  6
Continuous
 62
     7
370
    25
100
AcDbPolyline
 90
       21
 70
   128
 43
0.0
 10
213.6454842135
 20
53.4486583056
 10
214.008618826
 20
54.8481904028
 10
214.4709697542
 20
56.2581859049
 10
215.0280878712
 20
57.6650747691
 10
215.6746119663
 20
59.0553193578
 10
216.4043187938
 20
60.4155372489
 10
217.2101869523
 20
61.7326407743
 10
218.0844607629
 20
62.9939533651
 10
219.0187256733
 20
64.1873359715
 10
220.0039915631
 20
65.3013051165
 10
221.03077605
 20
66.3251387828
 10
222.0891976736
 20
67.2489849604
 10
223.169070232
 20
68.0639526073
 10
224.2600015226
 20
68.7621983102
 10
225.3514926584
 20
69.3370018693
 10
226.433039237
 20
69.7828315462
 10
227.4942330037
 20
70.0953981899
 10
228.5248610856
 20
70.2716927517
 10
229.5150051438
 20
70.3100184286
 10
230.4551357102
 20
70.2100071004
 10
231.3362063587
 20
69.9726204607
  0
LINE
  5
207
330
1F
100
AcDbEntity
  8
0
  6
Continuous
 62
     7
370
    25
100
AcDbLine
 10
231.3362063587
 20
69.9726204607
 30
0.0
 11
232.7355949989
 21
69.1647705942
 31
0.0
  0
LINE
  5
208
330
1F
100
AcDbEntity
  8
0
  6
Continuous
 62
     7
370
    25
100
AcDbLine
 10
235.3783709879
 20
63.7258949457
 30
0.0
 11
236.4820020213
 21
64.3630075799
 31
0.0
  0
LINE
  5
209
330
1F
100
AcDbEntity
  8
0
  6
Continuous
 62
     7
370
    25
100
AcDbLine
 10
216.5958821472
 20
52.024244497
 30
0.0
 11
216.5958821472
 21
53.2912650282
 31
0.0
  0
LINE
  5
20A
330
1F
100
AcDbEntity
  8
0
  6
Continuous
 62
     7
370
    25
100
AcDbLine
 10
216.5958821472
 20
53.2912650282
 30
0.0
 11
215.4785553638
 21
52.6462460057
 31
0.0
  0
LINE
  5
20B
330
1F
100
AcDbEntity
  8
0
  6
Continuous
 62
     7
370
    25
100
AcDbLine
 10
232.9477266729
 20
68.7247821076
 30
0.0
 11
232.9477266729
 21
67.1607183072
 31
0.0
  0
LINE
  5
20C
330
1F
100
AcDbEntity
  8
0
  6
Continuous
 62
     7
370
    25
100
AcDbLine
 10
234.3021722846
 20
67.9426231155
 30
0.0
 11
232.9477266729
 21
67.1607183072
 31
0.0
  0
SPLINE
  5
20D
330
1F
100
AcDbEntity
  8
0
  6
Continuous
 62
     7
370
    25
100
AcDbSpline
210
0.0
220
0.0
230
1.0
 70
     8
 71
     3
 72
    20
 73
    16
 74
     0
 42
0.000000001
 43
0.00000001
 40
0.0
 40
0.0
 40
0.0
 40
0.0
 40
0.25
 40
0.25
 40
0.5
 40
0.5
 40
0.53125
 40
0.53125
 40
0.5625
 40
0.5625
 40
0.625
 40
0.625
 40
0.75
 40
0.75
 40
1.0
 40
1.0
 40
1.0
 40
1.0
 10
216.5958822062312
 20
47.20941847723078
 30
0.0
 10
216.5958822062312
 20
47.60761414586003
 30
0.0
 10
216.6072794573132
 20
47.99933947623619
 30
0.0
 10
216.6265127957401
 20
48.78481184676648
 30
0.0
 10
216.6341290532485
 20
49.17868368661043
 30
0.0
 10
216.6343502739782
 20
49.62652822450387
 30
0.0
 10
216.6342701038757
 20
49.67762468909724
 30
0.0
 10
216.6338984472869
 20
49.77893651616299
 30
0.0
 10
216.6336075997755
 20
49.82965069039366
 30
0.0
 10
216.6324320938777
 20
49.98196128572486
 30
0.0
 10
216.6312417755645
 20
50.08372727541602
 30
0.0
 10
216.6266480921842
 20
50.38959261562705
 30
0.0
 10
216.6221872455948
 20
50.59427861698227
 30
0.0
 10
216.6076071901352
 20
51.20900095755485
 30
0.0
 10
216.5958822062312
 20
51.61996404066625
 30
0.0
 10
216.5958822062312
 20
52.02424440359884
 30
0.0
  0
LWPOLYLINE
  5
20E
330
1F
100
AcDbEntity
  8
0
  6
Continuous
 62
     7
370
    25
100
AcDbPolyline
 90
       20
 70
   128
 43
0.0
 10
212.7217016853
 20
55.0796400981
 10
213.0901224346
 20
56.4004516227
 10
213.5529883446
 20
57.7274942633
 10
214.1056257248
 20
59.0473687224
 10
214.7424547276
 20
60.3467480309
 10
215.4570440074
 20
61.6125110052
 10
216.2421798676
 20
62.8318779829
 10
217.0899334324
 20
63.9925362928
 10
217.9917449401
 20
65.082766484
 10
218.938508696
 20
66.0915598093
 10
219.9206649387
 20
67.0087313359
 10
220.9282963171
 20
67.8250189858
 10
221.9512288537
 20
68.5321813654
 10
222.9791334836
 20
69.123076915
 10
224.001631175
 20
69.5917398028
 10
225.0083977198
 20
69.9334381379
 10
225.9892671665
 20
70.1447215133
 10
226.9343358288
 20
70.2234567144
 10
227.8340607383
 20
70.1688480517
 10
227.8367676855
 20
70.1684715587
  0
SPLINE
  5
20F
330
1F
100
AcDbEntity
  8
0
  6
Continuous
 62
     7
370
    25
100
AcDbSpline
210
0.0
220
0.0
230
1.0
 70
     8
 71
     3
 72
     8
 73
     4
 74
     0
 42
0.000000001
 43
0.00000001
 40
0.0
 40
0.0
 40
0.0
 40
0.0
 40
1.0
 40
1.0
 40
1.0
 40
1.0
 10
212.7217017250784
 20
55.07964029901547
 30
0.0
 10
212.2304006960258
 20
54.99699307881158
 30
0.0
 10
211.7388206051232
 20
54.91490929132114
 30
0.0
 10
211.2470258063712
 20
54.83325900423939
 30
0.0
  0
LWPOLYLINE
  5
210
330
1F
100
AcDbEntity
  8
0
  6
Continuous
 62
     7
370
    25
100
AcDbPolyline
 90
       21
 70
   128
 43
0.0
 10
211.247025932
 20
54.8332587994
 10
211.6101605446
 20
56.2327908966
 10
212.0725114727
 20
57.6427863987
 10
212.6296295898
 20
59.0496752629
 10
213.2761536849
 20
60.4399198517
 10
214.0058605124
 20
61.8001377428
 10
214.8117286708
 20
63.1172412681
 10
215.6860024814
 20
64.378553859
 10
216.6202673918
 20
65.5719364653
 10
217.6055332816
 20
66.6859056103
 10
218.6323177685
 20
67.7097392767
 10
219.6907393921
 20
68.6335854542
 10
220.7706119506
 20
69.4485531011
 10
221.8615432412
 20
70.146798804
 10
222.9530343769
 20
70.7216023631
 10
224.0345809555
 20
71.16743204
 10
225.0957747222
 20
71.4799986838
 10
226.1264028041
 20
71.6562932455
 10
227.1165468624
 20
71.6946189225
 10
228.0566774287
 20
71.5946075942
 10
228.9377480772
 20
71.3572209545
  0
LINE
  5
211
330
1F
100
AcDbEntity
  8
0
  6
Continuous
 62
     7
370
    25
100
AcDbLine
 10
228.9377480772
 20
71.3572209545
 30
0.0
 11
229.278018683
 21
70.2578513011
 31
0.0
  0
LINE
  5
212
330
1F
100
AcDbEntity
  8
0
  6
Continuous
 62
     7
370
    25
100
AcDbLine
 10
225.5231055705
 20
73.3284521148
 30
0.0
 11
228.9377480772
 21
71.3572209545
 31
0.0
  0
LINE
  5
213
330
1F
100
AcDbEntity
  8
0
  6
Continuous
 62
     7
370
    25
100
AcDbLine
 10
211.247025932
 20
54.8332587994
 30
0.0
 11
210.6608106844
 21
55.1716736585
 31
0.0
  0
SPLINE
  5
214
330
1F
100
AcDbEntity
  8
0
  6
Continuous
 62
     7
370
    25
100
AcDbSpline
210
0.0
220
0.0
230
1.0
 70
     8
 71
     3
 72
    28
 73
    24
 74
     0
 42
0.000000001
 43
0.00000001
 40
0.0
 40
0.0
 40
0.0
 40
0.0
 40
0.1250000000000001
 40
0.1250000000000001
 40
0.1875000000000001
 40
0.1875000000000001
 40
0.2500000000000001
 40
0.2500000000000001
 40
0.3749999999999999
 40
0.3749999999999999
 40
0.4375
 40
0.4375
 40
0.4999999999999999
 40
0.4999999999999999
 40
0.6249999999999999
 40
0.6249999999999999
 40
0.7499999999999997
 40
0.7499999999999997
 40
0.8124999999999998
 40
0.8124999999999998
 40
0.8749999999999998
 40
0.8749999999999998
 40
1.0
 40
1.0
 40
1.0
 40
1.0
 10
210.6608105371128
 20
55.17167387581922
 30
0.0
 10
210.4728234566464
 20
55.28019650740328
 30
0.0
 10
210.2826035020457
 20
55.36214022795119
 30
0.0
 10
209.9945049000977
 20
55.44729795798965
 30
0.0
 10
209.8980150294981
 20
55.46934788839346
 30
0.0
 10
209.7042768566632
 20
55.50062171185242
 30
0.0
 10
209.6070258361319
 20
55.50974896317585
 30
0.0
 10
209.3210039612465
 20
55.51753180528425
 30
0.0
 10
209.1356621448899
 20
55.49722526164718
 30
0.0
 10
208.8671495580741
 20
55.43000460851404
 30
0.0
 10
208.7787888984084
 20
55.40121825090846
 30
0.0
 10
208.6084361881187
 20
55.3322063608133
 30
0.0
 10
208.5264091583373
 20
55.29206647090317
 30
0.0
 10
208.2899729045846
 20
55.15544670313995
 30
0.0
 10
208.1451056544623
 20
55.04293221345088
 30
0.0
 10
207.8842488609782
 20
54.77467524845142
 30
0.0
 10
207.7719564534758
 20
54.62252186207414
 30
0.0
 10
207.632731972022
 20
54.37060547437584
 30
0.0
 10
207.5911361856562
 20
54.28256318869946
 30
0.0
 10
207.518011470595
 20
54.09822213364764
 30
0.0
 10
207.4863869865421
 20
54.00143337096586
 30
0.0
 10
207.4088936831199
 20
53.70341829206904
 30
0.0
 10
207.37971896773
 20
53.49394541493252
 30
0.0
 10
207.3737520849883
 20
53.27356462224865
 30
0.0
  0
ARC
  5
215
330
1F
100
AcDbEntity
  8
0
  6
Continuous
 62
     7
370
    25
100
AcDbCircle
 10
222.2183019228
 20
52.8652941531
 30
0.0
 40
14.85016324625926
100
AcDbArc
 50
178.4245883564
 51
181.5754116436
  0
SPLINE
  5
216
330
1F
100
AcDbEntity
  8
0
  6
Continuous
 62
     7
370
    25
100
AcDbSpline
210
0.0
220
0.0
230
1.0
 70
     8
 71
     3
 72
    30
 73
    26
 74
     0
 42
0.000000001
 43
0.00000001
 40
0.0
 40
0.0
 40
0.0
 40
0.0
 40
0.1250000000000003
 40
0.1250000000000003
 40
0.1875000000000005
 40
0.1875000000000005
 40
0.2500000000000007
 40
0.2500000000000007
 40
0.3750000000000011
 40
0.3750000000000011
 40
0.4375000000000012
 40
0.4375000000000012
 40
0.5000000000000012
 40
0.5000000000000012
 40
0.6250000000000014
 40
0.6250000000000014
 40
0.6875000000000012
 40
0.6875000000000012
 40
0.7500000000000011
 40
0.7500000000000011
 40
0.8125000000000009
 40
0.8125000000000009
 40
0.8750000000000008
 40
0.8750000000000008
 40
1.0
 40
1.0
 40
1.0
 40
1.0
 10
207.3737520849883
 20
52.4570238103629
 30
0.0
 10
207.3797196836798
 20
52.24350661758818
 30
0.0
 10
207.4088649036792
 20
52.02595671956905
 30
0.0
 10
207.4852995649381
 20
51.69365769003346
 30
0.0
 10
207.5162655485154
 20
51.58188338873389
 30
0.0
 10
207.5892354893311
 20
51.3561815151989
 30
0.0
 10
207.6313716878896
 20
51.24209374262639
 30
0.0
 10
207.7712634772541
 20
50.90393101526519
 30
0.0
 10
207.8831074017963
 20
50.68142079599242
 30
0.0
 10
208.0768939989409
 20
50.35081054004285
 30
0.0
 10
208.1462346365442
 20
50.24058390033672
 30
0.0
 10
208.2917270209909
 20
50.02385389988317
 30
0.0
 10
208.3676143117099
 20
49.91765696425244
 30
0.0
 10
208.6040022601813
 20
49.60501879100284
 30
0.0
 10
208.7731477624322
 20
49.40447624316767
 30
0.0
 10
209.0430137597663
 20
49.11437140374533
 30
0.0
 10
209.1352052658171
 20
49.02002798737288
 30
0.0
 10
209.3208038608518
 20
48.83872295931249
 30
0.0
 10
209.4146327411387
 20
48.75130362581834
 30
0.0
 10
209.6040827916041
 20
48.58269607549368
 30
0.0
 10
209.6997042068097
 20
48.50150788972434
 30
0.0
 10
209.8925658962361
 20
48.3453452101762
 30
0.0
 10
209.9903008051345
 20
48.27001823047949
 30
0.0
 10
210.2815567602549
 20
48.05672799703566
 30
0.0
 10
210.472814151228
 20
47.93133457233522
 30
0.0
 10
210.6608105371128
 20
47.82280656884746
 30
0.0
  0
LINE
  5
217
330
1F
100
AcDbEntity
  8
0
  6
Continuous
 62
     7
370
    25
100
AcDbLine
 10
210.6608106844
 20
47.8228066679
 30
0.0
 11
211.247025932
 21
47.4843918088
 31
0.0
  0
ARC
  5
218
330
1F
100
AcDbEntity
  8
0
  6
Continuous
 62
     7
370
    25
100
AcDbCircle
 10
217.1355738179
 20
48.9391329802
 30
0.0
 40
6.065580605344008
100
AcDbArc
 50
193.8768278913
 51
252.745350142
  0
LINE
  5
219
330
1F
100
AcDbEntity
  8
0
  6
Continuous
 62
     7
370
    25
100
AcDbLine
 10
230.5671656555
 20
70.416272422
 30
0.0
 11
230.9014777506
 21
70.1089437016
 31
0.0
  0
LINE
  5
21A
330
1F
100
AcDbEntity
  8
0
  6
Continuous
 62
     7
370
    25
100
AcDbLine
 10
229.7142369188
 20
70.908657701
 30
0.0
 11
230.5671656555
 21
70.416272422
 31
0.0
  0
SPLINE
  5
21B
330
1F
100
AcDbEntity
  8
0
  6
Continuous
 62
     7
370
    25
100
AcDbSpline
210
0.0
220
0.0
230
1.0
 70
     8
 71
     3
 72
    20
 73
    16
 74
     0
 42
0.000000001
 43
0.00000001
 40
0.0
 40
0.0
 40
0.0
 40
0.0
 40
0.2499999999999997
 40
0.2499999999999997
 40
0.3749999999999997
 40
0.3749999999999997
 40
0.4999999999999998
 40
0.4999999999999998
 40
0.6249999999999998
 40
0.6249999999999998
 40
0.7499999999999999
 40
0.7499999999999999
 40
0.8749999999999999
 40
0.8749999999999999
 40
1.0
 40
1.0
 40
1.0
 40
1.0
 10
225.5231053187114
 20
73.32845197771964
 30
0.0
 10
225.8420939731093
 20
73.19456158845986
 30
0.0
 10
226.1685495732073
 20
73.03466524139787
 30
0.0
 10
226.6808996905905
 20
72.75674631392833
 30
0.0
 10
226.8555030572683
 20
72.65774730111804
 30
0.0
 10
227.2153769196172
 20
72.44680659621936
 30
0.0
 10
227.3982373359706
 20
72.33625077900932
 30
0.0
 10
227.7645324251479
 20
72.11083290999848
 30
0.0
 10
227.9490159414065
 20
71.99535230861902
 30
0.0
 10
228.322600765642
 20
71.76051996432325
 30
0.0
 10
228.5069502368813
 20
71.64419003904798
 30
0.0
 10
228.8676601433577
 20
71.41849535224861
 30
0.0
 10
229.0447141326115
 20
71.3086853781519
 30
0.0
 10
229.3924434839639
 20
71.097290614616
 30
0.0
 10
229.5576939004222
 20
70.99902777947301
 30
0.0
 10
229.7142368152036
 20
70.90865747835562
 30
0.0
  0
SPLINE
  5
21C
330
1F
100
AcDbEntity
  8
0
  6
Continuous
 62
     7
370
    25
100
AcDbSpline
210
0.0
220
0.0
230
1.0
 70
    11
 71
     3
 72
    70
 73
    66
 74
     0
 42
0.000000001
 43
0.00000001
 40
0.0
 40
0.0
 40
0.0
 40
0.0
 40
0.0312499999999999
 40
0.0312499999999999
 40
0.0624999999999998
 40
0.0624999999999998
 40
0.0937499999999997
 40
0.0937499999999997
 40
0.1249999999999996
 40
0.1249999999999996
 40
0.1562499999999994
 40
0.1562499999999994
 40
0.1874999999999993
 40
0.1874999999999993
 40
0.2187499999999992
 40
0.2187499999999992
 40
0.2499999999999991
 40
0.2499999999999991
 40
0.281249999999999
 40
0.281249999999999
 40
0.3124999999999989
 40
0.3124999999999989
 40
0.3437499999999988
 40
0.3437499999999988
 40
0.3749999999999987
 40
0.3749999999999987
 40
0.4062499999999986
 40
0.4062499999999986
 40
0.4374999999999984
 40
0.4374999999999984
 40
0.4687499999999983
 40
0.4687499999999983
 40
0.4999999999999982
 40
0.4999999999999982
 40
0.5312499999999983
 40
0.5312499999999983
 40
0.5624999999999984
 40
0.5624999999999984
 40
0.5937499999999986
 40
0.5937499999999986
 40
0.6249999999999987
 40
0.6249999999999987
 40
0.6562499999999988
 40
0.6562499999999988
 40
0.6874999999999989
 40
0.6874999999999989
 40
0.718749999999999
 40
0.718749999999999
 40
0.7499999999999991
 40
0.7499999999999991
 40
0.7812499999999992
 40
0.7812499999999992
 40
0.8124999999999993
 40
0.8124999999999993
 40
0.8437499999999994
 40
0.8437499999999994
 40
0.8749999999999996
 40
0.8749999999999996
 40
0.9062499999999997
 40
0.9062499999999997
 40
0.9374999999999998
 40
0.9374999999999998
 40
0.9687499999999999
 40
0.9687499999999999
 40
1.0
 40
1.0
 40
1.0
 40
1.0
 10
223.3384659974592
 20
72.94395190739385
 30
0.0
 10
223.2449350960103
 20
72.99794614750061
 30
0.0
 10
223.1617109710072
 20
73.05246886287507
 30
0.0
 10
223.0149498955099
 20
73.16235692718864
 30
0.0
 10
222.9508880124319
 20
73.2183321611278
 30
0.0
 10
222.8467559227111
 20
73.32729919553307
 30
0.0
 10
222.8065284646684
 20
73.38015089399205
 30
0.0
 10
222.7492575875584
 20
73.48190894614378
 30
0.0
 10
222.7324543635414
 20
73.53097981974679
 30
0.0
 10
222.7236104766314
 20
73.62008249555471
 30
0.0
 10
222.7311346094542
 20
73.66069276109411
 30
0.0
 10
222.7704209902096
 20
73.73297220699168
 30
0.0
 10
222.8020272561164
 20
73.7639357383293
 30
0.0
 10
222.886810814821
 20
73.81368627056943
 30
0.0
 10
222.9406239040662
 20
73.83283482694358
 30
0.0
 10
223.0690051733104
 20
73.85787188870998
 30
0.0
 10
223.1423355180813
 20
73.86365396795271
 30
0.0
 10
223.3067757189416
 20
73.861904787521
 30
0.0
 10
223.3990179368469
 20
73.85414374376809
 30
0.0
 10
223.5947597422109
 20
73.8256932369275
 30
0.0
 10
223.6985711221915
 20
73.80514133125857
 30
0.0
 10
223.9183371012208
 20
73.75177516569592
 30
0.0
 10
224.0339668175268
 20
73.71892280396293
 30
0.0
 10
224.2678028876712
 20
73.64437000675139
 30
0.0
 10
224.3873178250292
 20
73.60235137149074
 30
0.0
 10
224.6313787579252
 20
73.50956447525624
 30
0.0
 10
224.7521243000687
 20
73.46025746618079
 30
0.0
 10
224.9914924981941
 20
73.35686479212416
 30
0.0
 10
225.111399439039
 20
73.30214517549638
 30
0.0
 10
225.3420367695222
 20
73.19179477953452
 30
0.0
 10
225.4525457212341
 20
73.13634837803797
 30
0.0
 10
225.6641869292727
 20
73.02540139907916
 30
0.0
 10
225.765715437932
 20
72.96961271509113
 30
0.0
 10
225.9504464726977
 20
72.86299099212512
 30
0.0
 10
226.0348580413384
 20
72.81155212202545
 30
0.0
 10
226.187313608178
 20
72.71233590868339
 30
0.0
 10
226.2539088743474
 20
72.6654418535342
 30
0.0
 10
226.3651758745604
 20
72.57860131070773
 30
0.0
 10
226.4106844074083
 20
72.53798975865604
 30
0.0
 10
226.4782495902875
 20
72.46394638172794
 30
0.0
 10
226.500018281858
 20
72.43098099320834
 30
0.0
 10
226.5197988712484
 20
72.37211059015611
 30
0.0
 10
226.5175108829309
 20
72.34603505715165
 30
0.0
 10
226.4883836670588
 20
72.30229612469691
 30
0.0
 10
226.4618494855371
 20
72.28436625459946
 30
0.0
 10
226.3842886746566
 20
72.25575317211045
 30
0.0
 10
226.333102107586
 20
72.24522628071574
 30
0.0
 10
226.210185241966
 20
72.23196403196943
 30
0.0
 10
226.1380507825418
 20
72.22905366733212
 30
0.0
 10
225.9715838656067
 20
72.23083271724684
 30
0.0
 10
225.8800206692471
 20
72.23549002411335
 30
0.0
 10
225.6809745948631
 20
72.25219415559157
 30
0.0
 10
225.5721756006056
 20
72.26443908249203
 30
0.0
 10
225.344953959509
 20
72.29628899123128
 30
0.0
 10
225.2269611971507
 20
72.31575655039282
 30
0.0
 10
224.9824981901857
 20
72.36243738850783
 30
0.0
 10
224.8554037007091
 20
72.38987420749184
 30
0.0
 10
224.6036754804977
 20
72.45116184324169
 30
0.0
 10
224.4777401009477
 20
72.48522368637296
 30
0.0
 10
224.2259718045563
 20
72.56126504333486
 30
0.0
 10
224.1024881766784
 20
72.60260095579204
 30
0.0
 10
223.8656297613769
 20
72.6906969323816
 30
0.0
 10
223.7506630187729
 20
72.7380513766669
 30
0.0
 10
223.533184710772
 20
72.83802320030208
 30
0.0
 10
223.4319968989082
 20
72.8899576672871
 30
0.0
 10
223.3384659974592
 20
72.94395190739385
 30
0.0
  0
LINE
  5
21D
330
1F
100
AcDbEntity
  8
0
  6
Continuous
 62
     7
370
    25
100
AcDbLine
 10
213.8563165791
 20
54.3053814319
 30
0.0
 11
213.3926887332
 21
54.5730280904
 31
0.0
  0
LINE
  5
21E
330
1F
100
AcDbEntity
  8
0
  6
Continuous
 62
     7
370
    25
100
AcDbLine
 10
212.9668705616
 20
55.2211730778
 30
0.0
 11
212.7217016853
 21
55.0796400981
 31
0.0
  0
SPLINE
  5
21F
330
1F
100
AcDbEntity
  8
0
  6
Continuous
 62
     7
370
    25
100
AcDbSpline
210
0.0
220
0.0
230
1.0
 70
     8
 71
     3
 72
    14
 73
    10
 74
     0
 42
0.000000001
 43
0.00000001
 40
0.0
 40
0.0
 40
0.0
 40
0.0
 40
0.1249999999999991
 40
0.1249999999999991
 40
0.2499999999999982
 40
0.2499999999999982
 40
0.4999999999999998
 40
0.4999999999999998
 40
1.0
 40
1.0
 40
1.0
 40
1.0
 10
213.3926884874561
 20
54.57302815819349
 30
0.0
 10
213.368492054291
 20
54.58699646173604
 30
0.0
 10
213.345316615832
 20
54.61436163773358
 30
0.0
 10
213.3083962234011
 20
54.67216340685911
 30
0.0
 10
213.2933544323685
 20
54.70313388597547
 30
0.0
 10
213.2535409757816
 20
54.79616035890467
 30
0.0
 10
213.2339049573976
 20
54.85877141318944
 30
0.0
 10
213.1834841089281
 20
55.04310216410443
 30
0.0
 10
213.1610669306875
 20
55.16464639900511
 30
0.0
 10
213.1443790325216
 20
55.28377546430747
 30
0.0
  0
SPLINE
  5
220
330
1F
100
AcDbEntity
  8
0
  6
Continuous
 62
     7
370
    25
100
AcDbSpline
210
0.0
220
0.0
230
1.0
 70
     8
 71
     3
 72
    10
 73
     6
 74
     0
 42
0.000000001
 43
0.00000001
 40
0.0
 40
0.0
 40
0.0
 40
0.0
 40
0.5
 40
0.5
 40
1.0
 40
1.0
 40
1.0
 40
1.0
 10
213.1443790325216
 20
55.28377546430748
 30
0.0
 10
213.1109890143338
 20
55.27762569510725
 30
0.0
 10
213.0787496629057
 20
55.26907908725916
 30
0.0
 10
213.0187617686434
 20
55.24784311349025
 30
0.0
 10
212.9914998953944
 20
55.23539146748206
 30
0.0
 10
212.9668703294445
 20
55.2211731217052
 30
0.0
  0
LWPOLYLINE
  5
221
330
1F
100
AcDbEntity
  8
0
  6
Continuous
 62
     7
370
    25
100
AcDbPolyline
 90
       21
 70
   128
 43
0.0
 10
205.7241157447
 20
53.9335895044
 10
205.77406437
 20
55.1732515936
 10
205.9234578258
 20
56.4593564668
 10
206.1709428032
 20
57.7802570964
 10
206.5142789337
 20
59.123990946
 10
206.9503565702
 20
60.4783895703
 10
207.4752264212
 20
61.8311866931
 10
208.0841351125
 20
63.1701313232
 10
208.7715679925
 20
64.4830976367
 10
209.5313004983
 20
65.7581963803
 10
210.3564514984
 20
66.9838786696
 10
211.2395484884
 20
68.1490443488
 10
212.1725941036
 20
69.2431427455
 10
213.1471385596
 20
70.2562646805
 10
214.1543560427
 20
71.1792352368
 10
215.1851253824
 20
72.0036960719
 10
216.2301115044
 20
72.7221805776
 10
217.2798509596
 20
73.3281822659
 10
218.3248370816
 20
73.8162130553
 10
219.3556064212
 20
74.1818531678
 10
220.0973382715
 20
74.3703007986
  0
LINE
  5
222
330
1F
100
AcDbEntity
  8
0
  6
Continuous
 62
     7
370
    25
100
AcDbLine
 10
211.999688304
 20
48.5957242656
 30
0.0
 11
213.1443792581
 21
47.9349082437
 31
0.0
  0
ARC
  5
223
330
1F
100
AcDbEntity
  8
0
  6
Continuous
 62
     7
370
    25
100
AcDbCircle
 10
215.3121243342
 20
53.774146598
 30
0.0
 40
6.147218094902214
100
AcDbArc
 50
182.6054747885
 51
237.394528727
  0
LINE
  5
224
330
1F
100
AcDbEntity
  8
0
  6
Continuous
 62
     7
370
    25
100
AcDbLine
 10
209.1712610449
 20
54.3112444875
 30
0.0
 11
209.1712610449
 21
53.4947036368
 31
0.0
  0
ARC
  5
225
330
1F
100
AcDbEntity
  8
0
  6
Continuous
 62
     7
370
    25
100
AcDbCircle
 10
211.7336913252
 20
54.4028284668
 30
0.0
 40
2.564066412331195
100
AcDbArc
 50
154.984761466
 51
182.0469406963
  0
LINE
  5
226
330
1F
100
AcDbEntity
  8
0
  6
Continuous
 62
     7
370
    25
100
AcDbLine
 10
216.5958821472
 20
45.9423980376
 30
0.0
 11
216.5958821472
 21
47.2094185687
 31
0.0
  0
LINE
  5
227
330
1F
100
AcDbEntity
  8
0
  6
Continuous
 62
     7
370
    25
100
AcDbLine
 10
214.4258864557
 20
47.1951098855
 30
0.0
 11
216.5958821472
 21
45.9423980376
 31
0.0
  0
SPLINE
  5
228
330
1F
100
AcDbEntity
  8
0
  6
Continuous
 62
     7
370
    25
100
AcDbSpline
210
0.0
220
0.0
230
1.0
 70
     8
 71
     3
 72
    14
 73
    10
 74
     0
 42
0.000000001
 43
0.00000001
 40
0.0
 40
0.0
 40
0.0
 40
0.0
 40
0.1249999999999997
 40
0.1249999999999997
 40
0.2499999999999993
 40
0.2499999999999993
 40
0.4999999999999996
 40
0.4999999999999996
 40
1.0
 40
1.0
 40
1.0
 40
1.0
 10
214.1775770145732
 20
47.90585696713158
 30
0.0
 10
214.202006363217
 20
47.89175420434527
 30
0.0
 10
214.2249849172831
 20
47.8644720744856
 30
0.0
 10
214.2618680307748
 20
47.80671867097909
 30
0.0
 10
214.2769931770917
 20
47.7755710893085
 30
0.0
 10
214.3167105375509
 20
47.68273398775252
 30
0.0
 10
214.33617265544
 20
47.62078351793576
 30
0.0
 10
214.387040776634
 20
47.43486881243825
 30
0.0
 10
214.4093250040492
 20
47.31333616746497
 30
0.0
 10
214.4258864695077
 20
47.19510966101742
 30
0.0
  0
LINE
  5
229
330
1F
100
AcDbEntity
  8
0
  6
Continuous
 62
     7
370
    25
100
AcDbLine
 10
213.3926887332
 20
48.3589633701
 30
0.0
 11
214.1775769806
 21
47.9058570295
 31
0.0
  0
SPLINE
  5
22A
330
1F
100
AcDbEntity
  8
0
  6
Continuous
 62
     7
370
    25
100
AcDbSpline
210
0.0
220
0.0
230
1.0
 70
     8
 71
     3
 72
    14
 73
    10
 74
     0
 42
0.000000001
 43
0.00000001
 40
0.0
 40
0.0
 40
0.0
 40
0.0
 40
0.4999999999999968
 40
0.4999999999999968
 40
0.7499999999999967
 40
0.7499999999999967
 40
0.8749999999999983
 40
0.8749999999999983
 40
1.0
 40
1.0
 40
1.0
 40
1.0
 10
213.1443790325216
 20
47.93490815733549
 30
0.0
 10
213.1610031139753
 20
48.03438790156559
 30
0.0
 10
213.1834205155797
 20
48.13022303496159
 30
0.0
 10
213.2338515734283
 20
48.25643898453523
 30
0.0
 10
213.2533862673595
 20
48.29627253322948
 30
0.0
 10
213.293329424695
 20
48.34353286470133
 30
0.0
 10
213.3083463918606
 20
48.35713547830659
 30
0.0
 10
213.3454077593823
 20
48.37235587988231
 30
0.0
 10
213.3683914217307
 20
48.37298986667619
 30
0.0
 10
213.3926884874561
 20
48.35896346919317
 30
0.0
  0
LINE
  5
22B
330
1F
100
AcDbEntity
  8
0
  6
Continuous
 62
     7
370
    25
100
AcDbLine
 10
215.4785553638
 20
45.2973790151
 30
0.0
 11
216.5958821472
 21
45.9423980376
 31
0.0
  0
ARC
  5
22C
330
1F
100
AcDbEntity
  8
0
  6
Continuous
 62
     7
370
    25
100
AcDbCircle
 10
220.7016481223
 20
46.4379336411
 30
0.0
 40
5.696972796144551
100
AcDbArc
 50
204.4029865465
 51
275.7994108735
  0
SPLINE
  5
22D
330
1F
100
AcDbEntity
  8
0
  6
Continuous
 62
     7
370
    25
100
AcDbSpline
210
0.0
220
0.0
230
1.0
 70
     8
 71
     3
 72
    12
 73
     8
 74
     0
 42
0.000000001
 43
0.00000001
 40
0.0
 40
0.0
 40
0.0
 40
0.0
 40
0.2499999999999962
 40
0.2499999999999962
 40
0.4999999999999925
 40
0.4999999999999925
 40
1.0
 40
1.0
 40
1.0
 40
1.0
 10
215.0448725804694
 20
45.29194142219706
 30
0.0
 10
215.0731147805417
 20
45.27563754713304
 30
0.0
 10
215.1076609124472
 20
45.26268175372304
 30
0.0
 10
215.1823849721448
 20
45.24597001553049
 30
0.0
 10
215.2226753634465
 20
45.24208310674304
 30
0.0
 10
215.3437883808828
 20
45.24434650463234
 30
0.0
 10
215.4219059433007
 20
45.26467571605908
 30
0.0
 10
215.4785554160363
 20
45.29737876056544
 30
0.0
  0
ARC
  5
22E
330
1F
100
AcDbEntity
  8
0
  6
Continuous
 62
     7
370
    25
100
AcDbCircle
 10
219.7533003311
 20
47.6607240584
 30
0.0
 40
6.304119982696678
100
AcDbArc
 50
194.335844021
 51
238.333611709
  0
LINE
  5
22F
330
1F
100
AcDbEntity
  8
0
  6
Continuous
 62
     7
370
    25
100
AcDbLine
 10
213.6454842135
 20
46.099791315
 30
0.0
 11
215.0448728537
 21
45.2919414486
 31
0.0
  0
SPLINE
  5
230
330
1F
100
AcDbEntity
  8
0
  6
Continuous
 62
     7
370
    25
100
AcDbSpline
210
0.0
220
0.0
230
1.0
 70
     8
 71
     3
 72
     8
 73
     4
 74
     0
 42
0.000000001
 43
0.00000001
 40
0.0
 40
0.0
 40
0.0
 40
0.0
 40
1.0
 40
1.0
 40
1.0
 40
1.0
 10
214.0722756771447
 20
46.95110324525304
 30
0.0
 10
213.9291109804542
 20
46.66748119824603
 30
0.0
 10
213.7869222836016
 20
46.38369805226201
 30
0.0
 10
213.6454845128464
 20
46.09979095807493
 30
0.0
  0
LINE
  5
231
330
1F
100
AcDbEntity
  8
0
  6
Continuous
 62
     7
370
    25
100
AcDbLine
 10
214.3174445902
 20
47.0926362963
 30
0.0
 11
214.0722757138
 21
46.9511033166
 31
0.0
  0
SPLINE
  5
232
330
1F
100
AcDbEntity
  8
0
  6
Continuous
 62
     7
370
    25
100
AcDbSpline
210
0.0
220
0.0
230
1.0
 70
     8
 71
     3
 72
    10
 73
     6
 74
     0
 42
0.000000001
 43
0.00000001
 40
0.0
 40
0.0
 40
0.0
 40
0.0
 40
0.5
 40
0.5
 40
1.0
 40
1.0
 40
1.0
 40
1.0
 10
214.4258864695077
 20
47.19510966101742
 30
0.0
 10
214.4152336025377
 20
47.1758340138113
 30
0.0
 10
214.4004288393856
 20
47.15722263238626
 30
0.0
 10
214.3636430680548
 20
47.12259235815475
 30
0.0
 10
214.3420738474607
 20
47.10685441371965
 30
0.0
 10
214.3174442815109
 20
47.09263606794281
 30
0.0
  0
SPLINE
  5
233
330
1F
100
AcDbEntity
  8
0
  6
Continuous
 62
     7
370
    25
100
AcDbSpline
210
0.0
220
0.0
230
1.0
 70
     8
 71
     3
 72
    14
 73
    10
 74
     0
 42
0.000000001
 43
0.00000001
 40
0.0
 40
0.0
 40
0.0
 40
0.0
 40
0.500000000000001
 40
0.500000000000001
 40
0.7500000000000004
 40
0.7500000000000004
 40
0.8750000000000003
 40
0.8750000000000003
 40
1.0
 40
1.0
 40
1.0
 40
1.0
 10
198.504577212829
 20
58.59016900815423
 30
0.0
 10
198.8197431566689
 20
58.36308101725837
 30
0.0
 10
199.1360188119348
 20
58.13323464221023
 30
0.0
 10
199.6148433005059
 20
57.77792604022111
 30
0.0
 10
199.7751633109299
 20
57.65778772602557
 30
0.0
 10
200.0182158468836
 20
57.47151889178176
 30
0.0
 10
200.0996592849002
 20
57.40842565055475
 30
0.0
 10
200.2643207339336
 20
57.27808040814261
 30
0.0
 10
200.3472267519998
 20
57.21155596616536
 30
0.0
 10
200.4332455800845
 20
57.1377624948418
 30
0.0
  0
SPLINE
  5
234
330
1F
100
AcDbEntity
  8
0
  6
Continuous
 62
     7
370
    25
100
AcDbSpline
210
0.0
220
0.0
230
1.0
 70
     8
 71
     3
 72
     8
 73
     4
 74
     0
 42
0.000000001
 43
0.00000001
 40
0.0
 40
0.0
 40
0.0
 40
0.0
 40
1.0
 40
1.0
 40
1.0
 40
1.0
 10
200.4332455800845
 20
57.1377624948418
 30
0.0
 10
200.734898053322
 20
56.87898213675997
 30
0.0
 10
201.0401775968454
 20
56.63140712135531
 30
0.0
 10
201.3448371699721
 20
56.39043426478879
 30
0.0
  0
SPLINE
  5
235
330
1F
100
AcDbEntity
  8
0
  6
Continuous
 62
     7
370
    25
100
AcDbSpline
210
0.0
220
0.0
230
1.0
 70
     8
 71
     3
 72
    14
 73
    10
 74
     0
 42
0.000000001
 43
0.00000001
 40
0.0
 40
0.0
 40
0.0
 40
0.0
 40
0.1249999999999988
 40
0.1249999999999988
 40
0.2499999999999976
 40
0.2499999999999976
 40
0.4999999999999982
 40
0.4999999999999982
 40
1.0
 40
1.0
 40
1.0
 40
1.0
 10
201.3448371699722
 20
56.39043426478874
 30
0.0
 10
201.3640325458977
 20
56.37525153305253
 30
0.0
 10
201.3816446192981
 20
56.36388371455575
 30
0.0
 10
201.4074895492173
 20
56.3526152453433
 30
0.0
 10
201.415627913465
 20
56.35223177510625
 30
0.0
 10
201.432578004433
 20
56.35800756780064
 30
0.0
 10
201.4347472769428
 20
56.37067299341867
 30
0.0
 10
201.4335717291282
 20
56.41510982046244
 30
0.0
 10
201.421498208524
 20
56.45559309123588
 30
0.0
 10
201.406719980484
 20
56.49959676111838
 30
0.0
  0
SPLINE
  5
236
330
1F
100
AcDbEntity
  8
0
  6
Continuous
 62
     7
370
    25
100
AcDbSpline
210
0.0
220
0.0
230
1.0
 70
     8
 71
     3
 72
    14
 73
    10
 74
     0
 42
0.000000001
 43
0.00000001
 40
0.0
 40
0.0
 40
0.0
 40
0.0
 40
0.25
 40
0.25
 40
0.5
 40
0.5
 40
0.75
 40
0.75
 40
1.0
 40
1.0
 40
1.0
 40
1.0
 10
201.4067199804833
 20
56.49959676111909
 30
0.0
 10
201.3886637335367
 20
56.55336106410586
 30
0.0
 10
201.3857409354355
 20
56.59791167320291
 30
0.0
 10
201.3803272068922
 20
56.69017302304762
 30
0.0
 10
201.3787599288511
 20
56.73746742596788
 30
0.0
 10
201.3686215290439
 20
56.84222848079565
 30
0.0
 10
201.3603065312998
 20
56.89948968783067
 30
0.0
 10
201.3315063566409
 20
57.02911104520508
 30
0.0
 10
201.3108529599703
 20
57.10190524481813
 30
0.0
 10
201.2821634428092
 20
57.1815919437779
 30
0.0
  0
ARC
  5
237
330
1F
100
AcDbEntity
  8
0
  6
Continuous
 62
     7
370
    25
100
AcDbCircle
 10
211.6371337711
 20
60.2681534104
 30
0.0
 40
10.80519673566303
100
AcDbArc
 50
163.4019784234
 51
196.5980215766
  0
SPLINE
  5
238
330
1F
100
AcDbEntity
  8
0
  6
Continuous
 62
     7
370
    25
100
AcDbSpline
210
0.0
220
0.0
230
1.0
 70
     8
 71
     3
 72
    14
 73
    10
 74
     0
 42
0.000000001
 43
0.00000001
 40
0.0
 40
0.0
 40
0.0
 40
0.0
 40
0.25
 40
0.25
 40
0.5
 40
0.5
 40
0.75
 40
0.75
 40
1.0
 40
1.0
 40
1.0
 40
1.0
 10
201.4067199804833
 20
64.81591995604208
 30
0.0
 10
201.3886637335367
 20
64.6950778770975
 30
0.0
 10
201.3857409354355
 20
64.56998361053141
 30
0.0
 10
201.3803272068922
 20
64.32203229988005
 30
0.0
 10
201.3787599288511
 20
64.1981236755663
 30
0.0
 10
201.3686215290439
 20
63.9519679363261
 30
0.0
 10
201.3603065312998
 20
63.82967999446468
 30
0.0
 10
201.3315063566409
 20
63.5876828172559
 30
0.0
 10
201.3108529599703
 20
63.4675258500763
 30
0.0
 10
201.2821634428092
 20
63.35471493967103
 30
0.0
  0
SPLINE
  5
239
330
1F
100
AcDbEntity
  8
0
  6
Continuous
 62
     7
370
    25
100
AcDbSpline
210
0.0
220
0.0
230
1.0
 70
     8
 71
     3
 72
    14
 73
    10
 74
     0
 42
0.000000001
 43
0.00000001
 40
0.0
 40
0.0
 40
0.0
 40
0.0
 40
0.1249999999999975
 40
0.1249999999999975
 40
0.249999999999995
 40
0.249999999999995
 40
0.4999999999999953
 40
0.4999999999999953
 40
1.0
 40
1.0
 40
1.0
 40
1.0
 10
201.3448371699723
 20
65.3612055203361
 30
0.0
 10
201.3640325458978
 20
65.35891871236227
 30
0.0
 10
201.3816446192981
 20
65.34742047308946
 30
0.0
 10
201.4074895492174
 20
65.31072897056293
 30
0.0
 10
201.415627913465
 20
65.28764755546086
 30
0.0
 10
201.4325780044331
 20
65.21631503638376
 30
0.0
 10
201.4347472769428
 20
65.1650709307757
 30
0.0
 10
201.4335717291282
 20
65.0150354510141
 30
0.0
 10
201.421498208524
 20
64.91482377613103
 30
0.0
 10
201.406719980484
 20
64.81591995604239
 30
0.0
  0
SPLINE
  5
23A
330
1F
100
AcDbEntity
  8
0
  6
Continuous
 62
     7
370
    25
100
AcDbSpline
210
0.0
220
0.0
230
1.0
 70
     8
 71
     3
 72
     8
 73
     4
 74
     0
 42
0.000000001
 43
0.00000001
 40
0.0
 40
0.0
 40
0.0
 40
0.0
 40
1.0
 40
1.0
 40
1.0
 40
1.0
 10
200.4332455800845
 20
65.41341833147219
 30
0.0
 10
200.7348980533221
 20
65.42076457861529
 30
0.0
 10
201.0401775968455
 20
65.39750061264535
 30
0.0
 10
201.3448371699723
 20
65.36120552033609
 30
0.0
  0
SPLINE
  5
23B
330
1F
100
AcDbEntity
  8
0
  6
Continuous
 62
     7
370
    25
100
AcDbSpline
210
0.0
220
0.0
230
1.0
 70
     8
 71
     3
 72
    14
 73
    10
 74
     0
 42
0.000000001
 43
0.00000001
 40
0.0
 40
0.0
 40
0.0
 40
0.0
 40
0.500000000000001
 40
0.500000000000001
 40
0.7500000000000004
 40
0.7500000000000004
 40
0.8750000000000003
 40
0.8750000000000003
 40
1.0
 40
1.0
 40
1.0
 40
1.0
 10
198.504577212829
 20
66.04605767645715
 30
0.0
 10
198.8197431566689
 20
65.90867318273105
 30
0.0
 10
199.1360188119348
 20
65.77709967509989
 30
0.0
 10
199.6148433005059
 20
65.60220420857912
 30
0.0
 10
199.7751633109299
 20
65.54753305831461
 30
0.0
 10
200.0182158468836
 20
65.47850124259456
 30
0.0
 10
200.0996592849002
 20
65.45763895808578
 30
0.0
 10
200.2643207339336
 20
65.42483124465615
 30
0.0
 10
200.3472267519998
 20
65.41132348516349
 30
0.0
 10
200.4332455800845
 20
65.41341833147219
 30
0.0
  0
SPLINE
  5
23C
330
1F
100
AcDbEntity
  8
0
  6
Continuous
 62
     7
370
    25
100
AcDbSpline
210
0.0
220
0.0
230
1.0
 70
     8
 71
     3
 72
     8
 73
     4
 74
     0
 42
0.000000001
 43
0.00000001
 40
0.0000005163856712
 40
0.0000005163856712
 40
0.0000005163856712
 40
0.0000005163856712
 40
0.000026289209185
 40
0.000026289209185
 40
0.000026289209185
 40
0.000026289209185
 10
198.5045556258097
 20
66.05893678766265
 30
0.0
 10
198.5045533246505
 20
66.05464395263135
 30
0.0
 10
198.5045605709748
 20
66.05035088495106
 30
0.0
 10
198.504577212829
 20
66.04605767645717
 30
0.0
  0
SPLINE
  5
23D
330
1F
100
AcDbEntity
  8
0
  6
Continuous
 62
     7
370
    25
100
AcDbSpline
210
0.0
220
0.0
230
1.0
 70
     8
 71
     3
 72
     8
 73
     4
 74
     0
 42
0.000000001
 43
0.00000001
 40
0.0000005163856716
 40
0.0000005163856716
 40
0.0000005163856716
 40
0.0000005163856716
 40
0.0000262892091854
 40
0.0000262892091854
 40
0.0000262892091854
 40
0.0000262892091854
 10
198.5045556258097
 20
58.58546573578335
 30
0.0
 10
198.5045533246505
 20
58.58703912148282
 30
0.0
 10
198.5045605709748
 20
58.58860685141673
 30
0.0
 10
198.504577212829
 20
58.59016900815423
 30
0.0
  0
SPLINE
  5
23E
330
1F
100
AcDbEntity
  8
0
  6
Continuous
 62
     7
370
    25
100
AcDbSpline
210
0.0
220
0.0
230
1.0
 70
     8
 71
     3
 72
    18
 73
    14
 74
     0
 42
0.000000001
 43
0.00000001
 40
0.0
 40
0.0
 40
0.0
 40
0.0
 40
0.1236982567622907
 40
0.2480720359662387
 40
0.3724231024205777
 40
0.496066619208269
 40
0.6186553265906507
 40
0.6803186920055972
 40
0.7411842593695384
 40
0.801962556870335
 40
0.864016569864765
 40
0.9870401581931225
 40
1.0
 40
1.0
 40
1.0
 40
1.0
 10
204.1934241956062
 20
56.71249463946134
 30
0.0
 10
204.0603773198279
 20
56.95742939256653
 30
0.0
 10
203.7935569925479
 20
57.44863649986198
 30
0.0
 10
203.6688616068018
 20
58.20065756210228
 30
0.0
 10
203.8046881105845
 20
58.82534456890107
 30
0.0
 10
204.1717641577694
 20
59.24220987780902
 30
0.0
 10
204.6144035698943
 20
59.33619296615952
 30
0.0
 10
204.9906297192768
 20
59.25424971217147
 30
0.0
 10
205.2728508946589
 20
59.1119736545656
 30
0.0
 10
205.5452394563287
 20
58.89528902513359
 30
0.0
 10
205.8714517228902
 20
58.51747817692971
 30
0.0
 10
206.1246558019417
 20
58.13903673785469
 30
0.0
 10
206.215361511134
 20
57.84862483479022
 30
0.0
 10
206.2240061793921
 20
57.82094725437616
 30
0.0
  0
SPLINE
  5
23F
330
1F
100
AcDbEntity
  8
0
  6
Continuous
 62
     7
370
    25
100
AcDbSpline
210
0.0
220
0.0
230
1.0
 70
     8
 71
     3
 72
    13
 73
     9
 74
     0
 42
0.000000001
 43
0.00000001
 40
0.0
 40
0.0
 40
0.0
 40
0.0
 40
0.0434649086530512
 40
0.2042136056439869
 40
0.3623124932166216
 40
0.5205294112087471
 40
0.6810302331413438
 40
0.9999999999999999
 40
0.9999999999999999
 40
0.9999999999999999
 40
0.9999999999999999
 10
205.8371157261277
 20
55.3839186662463
 30
0.0
 10
205.8189711348111
 20
55.38040894516648
 30
0.0
 10
205.7337213889697
 20
55.36391902677658
 30
0.0
 10
205.5323972765821
 20
55.44979412724454
 30
0.0
 10
205.2651343683023
 20
55.58609090605171
 30
0.0
 10
204.9820753230228
 20
55.79722810579536
 30
0.0
 10
204.6024242375842
 20
56.14520037641427
 30
0.0
 10
204.3568160471224
 20
56.48586566518174
 30
0.0
 10
204.1934241956062
 20
56.71249463946134
 30
0.0
  0
ARC
  5
240
330
1F
100
AcDbEntity
  8
0
  6
Continuous
 62
     7
370
    25
100
AcDbCircle
 10
218.9474822472
 20
49.7532244233
 30
0.0
 40
6.546041011963244
100
AcDbArc
 50
197.9964420636
 51
217.4725866998
  0
SPLINE
  5
241
330
1F
100
AcDbEntity
  8
0
  6
Continuous
 62
     7
370
    25
100
AcDbSpline
210
0.0
220
0.0
230
1.0
 70
     8
 71
     3
 72
     8
 73
     4
 74
     0
 42
0.000000001
 43
0.00000001
 40
0.0
 40
0.0
 40
0.0
 40
0.0
 40
1.0
 40
1.0
 40
1.0
 40
1.0
 10
211.2470258063712
 20
47.48439169726765
 30
0.0
 10
211.7388206051232
 20
47.56604198434939
 30
0.0
 10
212.2304006960258
 20
47.64812577183984
 30
0.0
 10
212.7217017250784
 20
47.73077299204373
 30
0.0
  0
SPLINE
  5
242
330
1F
100
AcDbEntity
  8
0
  6
Continuous
 62
     7
370
    25
100
AcDbSpline
210
0.0
220
0.0
230
1.0
 70
     8
 71
     3
 72
    10
 73
     6
 74
     0
 42
0.000000001
 43
0.00000001
 40
0.0
 40
0.0
 40
0.0
 40
0.0
 40
0.5
 40
0.5
 40
1.0
 40
1.0
 40
1.0
 40
1.0
 10
212.9668703294446
 20
47.87230581473349
 30
0.0
 10
212.9917026327965
 20
47.88664119832134
 30
0.0
 10
213.0193776302899
 20
47.89923663845743
 30
0.0
 10
213.0795026397444
 20
47.9204345365977
 30
0.0
 10
213.1111970399392
 20
47.92879670226435
 30
0.0
 10
213.1443790325208
 20
47.9349081573356
 30
0.0
  0
LINE
  5
243
330
1F
100
AcDbEntity
  8
0
  6
Continuous
 62
     7
370
    25
100
AcDbLine
 10
212.7217016853
 20
47.7307731075
 30
0.0
 11
212.9668705616
 21
47.8723060872
 31
0.0
  0
SPLINE
  5
244
330
1F
100
AcDbEntity
  8
0
  6
Continuous
 62
     7
370
    25
100
AcDbSpline
210
0.0
220
0.0
230
1.0
 70
     8
 71
     3
 72
    12
 73
     8
 74
     0
 42
0.000000001
 43
0.00000001
 40
0.0
 40
0.0
 40
0.0
 40
0.0
 40
0.0821404658911618
 40
0.3398733960459964
 40
0.5967633483214528
 40
0.8571859090566674
 40
0.9999999999999999
 40
0.9999999999999999
 40
0.9999999999999999
 40
0.9999999999999999
 10
205.2127058848995
 20
59.03316282903112
 30
0.0
 10
205.1990569457275
 20
58.98617196112956
 30
0.0
 10
205.1425815987903
 20
58.79173739488284
 30
0.0
 10
205.2207032739932
 20
58.35789537489614
 30
0.0
 10
205.4441293907996
 20
57.80981641807011
 30
0.0
 10
205.7481711480772
 20
57.35101587769207
 30
0.0
 10
205.9762924620177
 20
57.13520424335214
 30
0.0
 10
206.0570860554066
 20
57.05877036204459
 30
0.0
  0
LINE
  5
245
330
1F
100
AcDbEntity
  8
0
  6
Continuous
 62
     7
370
    25
100
AcDbLine
 10
232.965623937
 20
69.0316719282
 30
0.0
 11
234.3650125772
 21
68.2238220618
 31
0.0
  0
SPLINE
  5
246
330
1F
100
AcDbEntity
  8
0
  6
Continuous
 62
     7
370
    25
100
AcDbSpline
210
0.0
220
0.0
230
1.0
 70
     8
 71
     3
 72
    12
 73
     8
 74
     0
 42
0.000000001
 43
0.00000001
 40
0.0
 40
0.0
 40
0.0
 40
0.0
 40
0.25
 40
0.25
 40
0.5
 40
0.5
 40
1.0
 40
1.0
 40
1.0
 40
1.0
 10
234.3650123431363
 20
68.2238219144119
 30
0.0
 10
234.397256314009
 20
68.2052078662383
 30
0.0
 10
234.4193093165426
 20
68.18095754344088
 30
0.0
 10
234.4401582607076
 20
68.13036968555333
 30
0.0
 10
234.4397770914802
 20
68.10353111711927
 30
0.0
 10
234.414024158583
 20
68.02629700085046
 30
0.0
 10
234.3660727314743
 20
67.97951163002264
 30
0.0
 10
234.302172682339
 20
67.94262291685516
 30
0.0
  0
SPLINE
  5
247
330
1F
100
AcDbEntity
  8
0
  6
Continuous
 62
     7
370
    25
100
AcDbSpline
210
0.0
220
0.0
230
1.0
 70
     8
 71
     3
 72
    12
 73
     8
 74
     0
 42
0.000000001
 43
0.00000001
 40
0.0
 40
0.0
 40
0.0
 40
0.0
 40
0.1930688481378084
 40
0.3711503214480341
 40
0.6815676641852036
 40
0.9593096543962196
 40
1.0
 40
1.0
 40
1.0
 40
1.0
 10
204.4846934924032
 20
56.89541779772263
 30
0.0
 10
204.5642484787609
 20
56.78101396049949
 30
0.0
 10
204.7171828285758
 20
56.56108712419315
 30
0.0
 10
205.0420186256542
 20
56.20720780474021
 30
0.0
 10
205.426681195792
 20
55.90331288369326
 30
0.0
 10
205.7219241889572
 20
55.73721033953093
 30
0.0
 10
205.8471835807401
 20
55.72068235560205
 30
0.0
 10
205.8631896434684
 20
55.71857035470717
 30
0.0
  0
SPLINE
  5
248
330
1F
100
AcDbEntity
  8
0
  6
Continuous
 62
     7
370
    25
100
AcDbSpline
210
0.0
220
0.0
230
1.0
 70
     8
 71
     3
 72
    17
 73
    13
 74
     0
 42
0.000000001
 43
0.00000001
 40
0.0
 40
0.0
 40
0.0
 40
0.0
 40
0.0289362692013463
 40
0.1765476560566969
 40
0.2609526750157862
 40
0.3523009205131302
 40
0.4561086130746499
 40
0.5447591072382802
 40
0.6761091837550732
 40
0.8084257225541438
 40
0.8968654947384084
 40
0.9999999999999999
 40
0.9999999999999999
 40
0.9999999999999999
 40
0.9999999999999999
 10
205.5280314833008
 20
58.89374905910135
 30
0.0
 10
205.5007593411156
 20
58.91980485535438
 30
0.0
 10
205.3343649540252
 20
59.07877800158667
 30
0.0
 10
205.0465782676497
 20
59.15727064757885
 30
0.0
 10
204.7263044387107
 20
59.16091523523607
 30
0.0
 10
204.4723594634754
 20
59.06986421950049
 30
0.0
 10
204.263879752993
 20
58.88906389659189
 30
0.0
 10
204.1007853241524
 20
58.59693828158283
 30
0.0
 10
204.0237812923653
 20
58.18715065503555
 30
0.0
 10
204.0991729761319
 20
57.72255413872133
 30
0.0
 10
204.2579178772592
 20
57.28061501652718
 30
0.0
 10
204.4053324680781
 20
57.03021908944044
 30
0.0
 10
204.4846934924032
 20
56.89541779772263
 30
0.0
  0
SPLINE
  5
249
330
1F
100
AcDbEntity
  8
0
  6
Continuous
 62
     7
370
    25
100
AcDbSpline
210
0.0
220
0.0
230
1.0
 70
     8
 71
     3
 72
    10
 73
     6
 74
     0
 42
0.000000001
 43
0.00000001
 40
0.0
 40
0.0
 40
0.0
 40
0.0
 40
0.5
 40
0.5
 40
1.0
 40
1.0
 40
1.0
 40
1.0
 10
236.4820018915002
 20
64.36300722332598
 30
0.0
 10
236.5189177254378
 20
64.38431828063958
 30
0.0
 10
236.5464701786302
 20
64.41075259917017
 30
0.0
 10
236.5766828634411
 20
64.46784875373045
 30
0.0
 10
236.579441487819
 20
64.49862280649532
 30
0.0
 10
236.568340925324
 20
64.5282498123714
 30
0.0
  0
LINE
  5
24A
330
1F
100
AcDbEntity
  8
0
  6
Continuous
 62
     7
370
    25
100
AcDbLine
 10
230.5671656555
 20
70.416272422
 30
0.0
 11
230.4265120731
 21
70.2046922335
 31
0.0
  0
LINE
  5
24B
330
1F
100
AcDbEntity
  8
0
  6
Continuous
 62
     7
370
    25
100
AcDbLine
 10
200.344332633
 20
60.7651502283
 30
0.0
 11
200.8447158236
 21
60.4762851611
 31
0.0
  0
SPLINE
  5
24C
330
1F
100
AcDbEntity
  8
0
  6
Continuous
 62
     7
370
    25
100
AcDbSpline
210
0.0
220
0.0
230
1.0
 70
     8
 71
     3
 72
     9
 73
     5
 74
     0
 42
0.000000001
 43
0.00000001
 40
0.0
 40
0.0
 40
0.0
 40
0.0
 40
0.7009339503679092
 40
0.9999999999999999
 40
0.9999999999999999
 40
0.9999999999999999
 40
0.9999999999999999
 10
198.5185219359142
 20
66.52252882169242
 30
0.0
 10
198.5154500473953
 20
66.57653280604642
 30
0.0
 10
198.5110674825084
 20
66.65357855953812
 30
0.0
 10
198.5354778065849
 20
66.74321129995239
 30
0.0
 10
198.5427781057767
 20
66.77001740954579
 30
0.0
  0
SPLINE
  5
24D
330
1F
100
AcDbEntity
  8
0
  6
Continuous
 62
     7
370
    25
100
AcDbSpline
210
0.0
220
0.0
230
1.0
 70
     8
 71
     3
 72
    10
 73
     6
 74
     0
 42
0.000000001
 43
0.00000001
 40
0.0
 40
0.0
 40
0.0
 40
0.0
 40
0.5
 40
0.5
 40
1.0
 40
1.0
 40
1.0
 40
1.0
 10
198.5590145630278
 20
66.57487896677002
 30
0.0
 10
198.5390885125317
 20
66.49091849275429
 30
0.0
 10
198.5257942483909
 20
66.40547263024291
 30
0.0
 10
198.5085257222502
 20
66.23305915931043
 30
0.0
 10
198.5046022676279
 20
66.14594755304654
 30
0.0
 10
198.5045556258097
 20
66.05893678766265
 30
0.0
  0
SPLINE
  5
24E
330
1F
100
AcDbEntity
  8
0
  6
Continuous
 62
     7
370
    25
100
AcDbSpline
210
0.0
220
0.0
230
1.0
 70
     8
 71
     3
 72
    24
 73
    20
 74
     0
 42
0.000000001
 43
0.00000001
 40
0.0
 40
0.0
 40
0.0
 40
0.0
 40
0.25
 40
0.25
 40
0.374999999999999
 40
0.374999999999999
 40
0.4374999999999993
 40
0.4374999999999993
 40
0.4687499999999994
 40
0.4687499999999994
 40
0.4999999999999995
 40
0.4999999999999995
 40
0.5624999999999971
 40
0.5624999999999971
 40
0.6249999999999947
 40
0.6249999999999947
 40
0.7499999999999947
 40
0.7499999999999947
 40
1.0
 40
1.0
 40
1.0
 40
1.0
 10
198.5427781600595
 20
66.77001731748626
 30
0.0
 10
198.5726191893447
 20
66.8772963740425
 30
0.0
 10
198.6024487293857
 20
66.98318094741317
 30
0.0
 10
198.647119886257
 20
67.13312899066348
 30
0.0
 10
198.6620726783488
 20
67.18212925342641
 30
0.0
 10
198.6836558166381
 20
67.24527953532916
 30
0.0
 10
198.6907855281678
 20
67.26491971955767
 30
0.0
 10
198.6996371534692
 20
67.28262964904566
 30
0.0
 10
198.7022752507391
 20
67.28634601553135
 30
0.0
 10
198.7054277887841
 20
67.28419766714913
 30
0.0
 10
198.7058077499208
 20
67.27803525808257
 30
0.0
 10
198.7037978246601
 20
67.24939017472983
 30
0.0
 10
198.6992211830617
 20
67.22108916974162
 30
0.0
 10
198.6892897969553
 20
67.16471015959233
 30
0.0
 10
198.6835996112203
 20
67.13524041163629
 30
0.0
 10
198.6660180106016
 20
67.04738599106996
 30
0.0
 10
198.6533371376734
 20
66.98816099802063
 30
0.0
 10
198.614096074053
 20
66.80966769089085
 30
0.0
 10
198.5867926140165
 20
66.69192465671713
 30
0.0
 10
198.5590145630278
 20
66.57487896677003
 30
0.0
  0
ARC
  5
24F
330
1F
100
AcDbEntity
  8
0
  6
Continuous
 62
     7
370
    25
100
AcDbCircle
 10
199.2216925904
 20
65.9802701358
 30
0.0
 40
0.7201273031242125
100
AcDbArc
 50
174.7584203609
 51
234.4349513409
  0
ARC
  5
250
330
1F
100
AcDbEntity
  8
0
  6
Continuous
 62
     7
370
    25
100
AcDbCircle
 10
200.7170273579
 20
58.4803723995
 30
0.0
 40
2.21517351110213
100
AcDbArc
 50
122.6235856257
 51
177.1589283586
  0
LINE
  5
251
330
1F
100
AcDbEntity
  8
0
  6
Continuous
 62
     7
370
    25
100
AcDbLine
 10
199.5227884812
 20
60.3460591872
 30
0.0
 11
200.2668752865
 21
60.7756113567
 31
0.0
  0
SPLINE
  5
252
330
1F
100
AcDbEntity
  8
0
  6
Continuous
 62
     7
370
    25
100
AcDbSpline
210
0.0
220
0.0
230
1.0
 70
     8
 71
     3
 72
     8
 73
     4
 74
     0
 42
0.000000001
 43
0.00000001
 40
0.0
 40
0.0
 40
0.0
 40
0.0
 40
0.000159097695343
 40
0.000159097695343
 40
0.000159097695343
 40
0.000159097695343
 10
200.3443330591276
 20
60.76515021075735
 30
0.0
 10
200.3185129295619
 20
60.76863476021925
 30
0.0
 10
200.2926937850095
 20
60.77212174295678
 30
0.0
 10
200.2668756053532
 20
60.77561110407619
 30
0.0
  0
ARC
  5
253
330
1F
100
AcDbEntity
  8
0
  6
Continuous
 62
     7
370
    25
100
AcDbCircle
 10
199.8516473078
 20
58.9750311565
 30
0.0
 40
1.353479563765816
100
AcDbArc
 50
122.9135810547
 51
170.975405912
  0
LINE
  5
254
330
1F
100
AcDbEntity
  8
0
  6
Continuous
 62
     7
370
    25
100
AcDbLine
 10
199.5227884812
 20
60.3460591872
 30
0.0
 11
199.1162024434
 21
60.1112651909
 31
0.0
  0
SPLINE
  5
255
330
1F
100
AcDbEntity
  8
0
  6
Continuous
 62
     7
370
    25
100
AcDbSpline
210
0.0
220
0.0
230
1.0
 70
     8
 71
     3
 72
    10
 73
     6
 74
     0
 42
0.000000001
 43
0.00000001
 40
0.0
 40
0.0
 40
0.0
 40
0.0
 40
0.5
 40
0.5
 40
1.0
 40
1.0
 40
1.0
 40
1.0
 10
198.5590145630278
 20
58.39022335106603
 30
0.0
 10
198.5390885125317
 20
58.42874491258167
 30
0.0
 10
198.5257942483909
 20
58.46070823977475
 30
0.0
 10
198.5085257222502
 20
58.5231516632716
 30
0.0
 10
198.5046022676279
 20
58.55357504048379
 30
0.0
 10
198.5045556258097
 20
58.58546573578334
 30
0.0
  0
LINE
  5
256
330
1F
100
AcDbEntity
  8
0
  6
Continuous
 62
     7
370
    25
100
AcDbLine
 10
198.5149223316
 20
59.1873358138
 30
0.0
 11
198.5185219359
 21
59.051699553
 31
0.0
  0
LINE
  5
257
330
1F
100
AcDbEntity
  8
0
  6
Continuous
 62
     7
370
    25
100
AcDbLine
 10
198.6139792794
 20
58.2948372458
 30
0.0
 11
198.5590145206
 21
58.3902235288
 31
0.0
  0
LWPOLYLINE
  5
258
330
1F
100
AcDbEntity
  8
0
  6
Continuous
 62
     7
370
    18
100
AcDbPolyline
 90
       17
 70
   128
 43
0.0
 10
258.8626763084
 20
42.3439986813
 10
258.8832080798
 20
42.4004181583
 10
259.117621278
 20
42.9083175026
 10
259.4249083529
 20
43.3792626341
 10
259.7857604502
 20
43.7836615711
 10
260.1775042118
 20
44.0961049082
 10
260.5755252197
 20
44.2969607536
 10
260.9548139291
 20
44.3736083406
 10
261.2915389313
 20
44.3212318975
 10
261.5645418498
 20
44.1431222216
 10
261.7566689173
 20
43.8504704686
 10
261.8558483544
 20
43.4616652648
 10
261.8558483544
 20
43.00113659
 10
261.7566689173
 20
42.4978212455
 10
261.5645418498
 20
41.9833443021
 10
261.2915389313
 20
41.4900321658
 10
261.0055047341
 20
41.1069698351
  0
LWPOLYLINE
  5
259
330
1F
100
AcDbEntity
  8
0
  6
Continuous
 62
     7
370
    18
100
AcDbPolyline
 90
        9
 70
   128
 43
0.0
 10
258.5552934154
 20
42.5214467486
 10
258.7774336488
 20
43.0120392042
 10
259.0964204254
 20
43.5225193234
 10
259.4737677455
 20
43.9690547219
 10
259.8875457479
 20
44.325694665
 10
260.3137070212
 20
44.5717123314
 10
260.7274850235
 20
44.6928103009
 10
261.1048323437
 20
44.6819508446
 10
261.3689574237
 20
44.5763976712
  0
LWPOLYLINE
  5
25A
330
1F
100
AcDbEntity
  8
0
  6
Continuous
 62
     7
370
    18
100
AcDbPolyline
 90
       26
 70
   128
 43
0.0
 10
246.3120445254
 20
34.2581539779
 10
246.3620280536
 20
34.7439060813
 10
246.5088393564
 20
35.2568471494
 10
246.7432528838
 20
35.7647466838
 10
247.0505396294
 20
36.2356916253
 10
247.4113917267
 20
36.6400905623
 10
247.8031354884
 20
36.9525338993
 10
248.2011564963
 20
37.1533897448
 10
248.5804455349
 20
37.2300375218
 10
248.9171702079
 20
37.1776608886
 10
249.1901727971
 20
36.9995510227
 10
249.3823001938
 20
36.7068994597
 10
249.4814796309
 20
36.3180942559
 10
249.4814796309
 20
35.8575655811
 10
249.3823001938
 20
35.3542502367
 10
249.1901727971
 20
34.8397731031
 10
248.9171702079
 20
34.3464611569
 10
248.5804455349
 20
33.9053104917
 10
248.2011564963
 20
33.544040466
 10
247.8031354884
 20
33.2853510374
 10
247.4113917267
 20
33.1454966547
 10
247.0505396294
 20
33.1332646284
 10
246.7432528838
 20
33.2494238452
 10
246.5088393564
 20
33.4866752817
 10
246.3620280536
 20
33.8301116277
 10
246.3120445254
 20
34.2581539779
  0
LWPOLYLINE
  5
25B
330
1F
100
AcDbEntity
  8
0
  6
Continuous
 62
     7
370
    18
100
AcDbPolyline
 90
       11
 70
   128
 43
0.0
 10
245.9584904183
 20
34.2581539779
 10
246.0098588656
 20
34.7763358913
 10
246.160977708
 20
35.3237109804
 10
246.4030652546
 20
35.8684683854
 10
246.7220517019
 20
36.3789483145
 10
247.0993990221
 20
36.825483713
 10
247.5131770244
 20
37.1821236561
 10
247.9393382977
 20
37.4281413225
 10
248.3531163001
 20
37.549239292
 10
248.7304636202
 20
37.5383798358
 10
248.9945890295
 20
37.4328268524
  0
ARC
  5
25C
330
1F
100
AcDbEntity
  8
0
  6
Continuous
 62
     7
370
    18
100
AcDbCircle
 10
247.1551164312
 20
34.1117560059
 30
0.0
 40
1.205548083209512
100
AcDbArc
 50
173.0249649828
 51
236.7489681567
  0
LWPOLYLINE
  5
25D
330
1F
100
AcDbEntity
  8
0
  6
Continuous
 62
     7
370
    18
100
AcDbPolyline
 90
       31
 70
   128
 43
0.0
 10
266.4292338379
 20
34.2785633857
 10
266.3790148801
 20
34.8013198426
 10
266.2305529355
 20
35.2432478373
 10
265.9903363138
 20
35.5850328573
 10
265.668863861
 20
35.811737428
 10
265.2801852947
 20
35.9134533008
 10
264.8412877707
 20
35.8857351169
 10
264.3713533115
 20
35.7297943592
 10
263.8909201917
 20
35.4524462227
 10
263.4209857325
 20
35.0658122028
 10
262.9820882085
 20
34.5867900917
 10
262.5934096422
 20
34.0363154984
 10
262.2719371894
 20
33.4384467341
 10
262.0317205678
 20
32.8193135064
 10
261.8832586232
 20
32.2059749989
 10
261.8330396653
 20
31.6252369675
 10
261.8832586232
 20
31.1024805106
 10
262.0317205678
 20
30.6605525158
 10
262.2719371894
 20
30.3187674959
 10
262.5934096422
 20
30.0920629251
 10
262.9820882085
 20
29.9903470523
 10
263.4209857325
 20
30.0180652362
 10
263.8909201917
 20
30.1740059939
 10
264.3713533115
 20
30.4513541304
 10
264.8412877707
 20
30.8379881503
 10
265.2801852947
 20
31.3170102614
 10
265.668863861
 20
31.8674848547
 10
265.9903363138
 20
32.465353619
 10
266.2305529355
 20
33.0844868468
 10
266.3790148801
 20
33.6978253542
 10
266.4292338379
 20
34.2785633857
  0
LWPOLYLINE
  5
25E
330
1F
100
AcDbEntity
  8
0
  6
Continuous
 62
     7
370
    18
100
AcDbPolyline
 90
       18
 70
   128
 43
0.0
 10
261.5822474775
 20
29.8048698493
 10
261.377509118
 20
29.9555668926
 10
261.0867966206
 20
30.3101078073
 10
260.8869469663
 20
30.7711951157
 10
260.7851830713
 20
31.3221640454
 10
260.7851830713
 20
31.9431011502
 10
260.8869469663
 20
32.6115641722
 10
261.0867966206
 20
33.3033929799
 10
261.377509118
 20
33.9935833997
 10
261.7485770516
 20
34.6571896223
 10
262.1865893273
 20
35.2702275263
 10
262.6757150287
 20
35.8105403247
 10
263.1982758169
 20
36.2585996345
 10
263.7353849337
 20
36.5982116319
 10
264.2676299379
 20
36.817101683
 10
264.7757740344
 20
36.9073583765
 10
265.2414516824
 20
36.8657196893
 10
265.6110953489
 20
36.7161519542
  0
LWPOLYLINE
  5
25F
330
1F
100
AcDbEntity
  8
0
  6
Continuous
 62
     7
370
    18
100
AcDbPolyline
 90
       29
 70
   128
 43
0.0
 10
243.9078822607
 20
35.1562025158
 10
243.9576655913
 20
36.226925793
 10
244.1064110394
 20
37.3421302855
 10
244.3523128757
 20
38.4882791628
 10
244.6923865767
 20
39.6514596561
 10
245.1225043854
 20
40.8175526382
 10
245.6374440438
 20
41.9724022023
 10
246.2309559645
 20
43.1019913222
 10
246.8958356707
 20
44.1926083874
 10
247.6240120408
 20
45.2310137358
 10
248.4066460904
 20
46.2046027638
 10
249.2342376565
 20
47.1015580093
 10
250.0967411365
 20
47.9109912514
 10
250.9836866605
 20
48.6230773416
 10
251.8843080137
 20
49.2291721578
 10
252.7876728222
 20
49.7219189385
 10
253.6828154556
 20
50.0953356518
 10
254.5588702998
 20
50.344890412
 10
255.4052030548
 20
50.4675537011
 10
256.2115400969
 20
50.4618357855
 10
256.9680941376
 20
50.3278075464
 10
257.6656811153
 20
50.0670941941
 10
258.2958337939
 20
49.6828621402
 10
258.850903179
 20
49.1797745002
 10
259.3241503846
 20
48.5639380434
 10
259.7098315855
 20
47.8428282787
 10
260.0032651888
 20
47.0251989534
 10
260.2008891273
 20
46.1209742525
 10
260.2974982652
 20
45.1952569419
  0
LWPOLYLINE
  5
260
330
1F
100
AcDbEntity
  8
0
  6
Continuous
 62
     7
370
    18
100
AcDbPolyline
 90
       18
 70
   128
 43
0.0
 10
254.4675726527
 20
32.1798757002
 10
253.6828154556
 20
31.5029670196
 10
252.7876728222
 20
30.8428740473
 10
251.8843080137
 20
30.292618021
 10
250.9836866605
 20
29.8588775563
 10
250.0967411365
 20
29.5469181419
 10
249.2342376565
 20
29.3605260628
 10
248.4066460904
 20
29.3019644247
 10
247.6240120408
 20
29.371943413
 10
246.8958356707
 20
29.56961422
 10
246.2309559645
 20
29.8925775164
 10
245.6374440438
 20
30.3369123587
 10
245.1225043854
 20
30.8972252483
 10
244.6923865767
 20
31.5667147791
 10
244.3523128757
 20
32.3372545348
 10
244.1064110394
 20
33.199491195
 10
243.9576655913
 20
34.1429578487
 10
243.9078822607
 20
35.1562025158
  0
LWPOLYLINE
  5
261
330
1F
100
AcDbEntity
  8
0
  6
Continuous
 62
     7
370
    18
100
AcDbPolyline
 90
       21
 70
   128
 43
0.0
 10
243.3421971382
 20
35.1562021357
 10
243.3919383219
 20
36.244320245
 10
243.5405784028
 20
37.3771108319
 10
243.7863748721
 20
38.5412933361
 10
244.1264459389
 20
39.7232184794
 10
244.5568041163
 20
40.9090291011
 10
245.0724049534
 20
42.0848232721
 10
245.667202353
 20
43.2368151279
 10
246.3342236459
 20
44.3514991217
 10
247.0656482868
 20
45.4158072424
 10
247.8529010383
 20
46.4172597678
 10
248.68675207
 20
47.3441169675
 10
249.5574252885
 20
48.1855116033
 10
250.4547128424
 20
48.9315796709
 10
251.3680947303
 20
49.5735735546
 10
252.286862442
 20
50.1039668649
 10
253.2002443299
 20
50.5165412617
 10
254.0975318838
 20
50.8064593523
 10
254.9682051024
 20
50.9703226171
 10
255.802056134
 20
51.006209326
 10
256.0603583635
 20
50.9904792486
  0
ARC
  5
262
330
1F
100
AcDbEntity
  8
0
  6
Continuous
 62
     7
370
    18
100
AcDbCircle
 10
250.7484047834
 20
34.8664360692
 30
0.0
 40
7.411873990942692
100
AcDbArc
 50
177.759459378
 51
212.2057774952
  0
LWPOLYLINE
  5
263
330
1F
100
AcDbEntity
  8
0
  6
Continuous
 62
     7
370
    18
100
AcDbPolyline
 90
       23
 70
   128
 43
0.0
 10
226.9903512954
 20
44.5959218106
 10
227.0400924792
 20
45.6840399199
 10
227.1887325601
 20
46.8168305069
 10
227.4345290293
 20
47.981013011
 10
227.7746000962
 20
49.1629381544
 10
228.2049582736
 20
50.3487487761
 10
228.7205591107
 20
51.524542947
 10
229.3153565103
 20
52.6765348029
 10
229.9823778032
 20
53.7912187967
 10
230.713802444
 20
54.8555269174
 10
231.5010551956
 20
55.8569794428
 10
232.3349062272
 20
56.7838366424
 10
233.2055794457
 20
57.6252312782
 10
234.1028669997
 20
58.3712993458
 10
235.0162488875
 20
59.0132932295
 10
235.9350165993
 20
59.5436865398
 10
236.8483984871
 20
59.9562609367
 10
237.7456860411
 20
60.2461790273
 10
238.6163592596
 20
60.4100422921
 10
239.4502102912
 20
60.445929001
 10
240.2374630428
 20
60.3534191551
 10
240.9688876836
 20
60.1335959494
 10
241.4751450912
 20
59.8869569463
  0
LWPOLYLINE
  5
264
330
1F
100
AcDbEntity
  8
0
  6
Continuous
 62
     7
370
    18
100
AcDbPolyline
 90
        9
 70
   128
 43
0.0
 10
229.4761203956
 20
39.101784102
 10
229.3153565103
 20
39.1997027005
 10
228.7205591107
 20
39.6649560964
 10
228.2049582736
 20
40.2454502122
 10
227.7746000962
 20
40.9343798586
 10
227.4345290293
 20
41.7236673057
 10
227.1887325601
 20
42.6040592472
 10
227.0400924792
 20
43.5652336497
 10
226.9903512954
 20
44.5959218106
  0
LWPOLYLINE
  5
265
330
1F
100
AcDbEntity
  8
0
  6
Continuous
 62
     7
370
    18
100
AcDbPolyline
 90
       20
 70
   128
 43
0.0
 10
255.2215909678
 20
33.9315899573
 10
255.2707756815
 20
34.64541451
 10
255.4169873795
 20
35.396554808
 10
255.6562382456
 20
36.1645218359
 10
255.9820021037
 20
36.9283676875
 10
256.3853927189
 20
37.6672563232
 10
256.8554068002
 20
38.3610328966
 10
257.3792238032
 20
38.9907729708
 10
257.9425549584
 20
39.5392988397
 10
258.5300343645
 20
39.9916482693
 10
259.1256369994
 20
40.3354823517
 10
259.7131164055
 20
40.5614222066
 10
260.2764475607
 20
40.6633046452
 10
260.8002645637
 20
40.6383508094
 10
261.270278645
 20
40.4872409433
 10
261.6736692602
 20
40.2140971982
 10
261.9994331184
 20
39.8263702913
 10
262.2386839845
 20
39.3346364336
 10
262.3848956825
 20
38.7523085689
 10
262.411732359
 20
38.5452620913
  0
LWPOLYLINE
  5
266
330
1F
100
AcDbEntity
  8
0
  6
Continuous
 62
     7
370
    18
100
AcDbPolyline
 90
       10
 70
   128
 43
0.0
 10
258.4275637689
 20
31.6437317724
 10
257.9425549584
 20
31.4654392285
 10
257.3792238032
 20
31.36355679
 10
256.8554068002
 20
31.3885106257
 10
256.3853927189
 20
31.5396204919
 10
255.9820021037
 20
31.8127642369
 10
255.6562382456
 20
32.2004911438
 10
255.4169873795
 20
32.6922250015
 10
255.2707756815
 20
33.2745528662
 10
255.2215909678
 20
33.9315899573
  0
LWPOLYLINE
  5
267
330
1F
100
AcDbEntity
  8
0
  6
Continuous
 62
     7
370
    18
100
AcDbPolyline
 90
       16
 70
   128
 43
0.0
 10
254.6559035403
 20
33.9315912879
 10
254.7062660609
 20
34.6810679415
 10
254.8560497043
 20
35.4692810406
 10
255.101374985
 20
36.2758164653
 10
255.4358882654
 20
37.079785039
 10
255.8509254049
 20
37.8603646747
 10
256.3357374752
 20
38.5973382393
 10
256.8777680083
 20
39.2716192924
 10
257.4629788109
 20
39.8657436001
 10
258.0762131518
 20
40.3643240477
 10
258.7015885736
 20
40.7544477486
 10
259.322908205
 20
41.0260104489
 10
259.9240801508
 20
41.1719791691
 10
260.4895344535
 20
41.1885728336
 10
261.0046260711
 20
41.0753618242
 10
261.2273683788
 20
40.9770291365
  0
ARC
  5
268
330
1F
100
AcDbEntity
  8
0
  6
Continuous
 62
     7
370
    18
100
AcDbCircle
 10
257.4288412815
 20
33.6731972219
 30
0.0
 40
2.784950845056766
100
AcDbArc
 50
174.676310497
 51
234.8072445366
  0
LWPOLYLINE
  5
269
330
1F
100
AcDbEntity
  8
0
  6
Continuous
 62
     7
370
    18
100
AcDbPolyline
 90
       14
 70
   128
 43
0.0
 10
256.6888376805
 20
34.7786134551
 10
256.7388462333
 20
35.3384674843
 10
256.8865337296
 20
35.9298821093
 10
257.1249941777
 20
36.5252033175
 10
257.4430777605
 20
37.0965946979
 10
257.825910921
 20
37.6173383072
 10
258.2555931025
 20
38.063085328
 10
258.7120326676
 20
38.4129925379
 10
259.1738870326
 20
38.6506989763
 10
259.6195604446
 20
38.7650895933
 10
260.0282137359
 20
38.7508158105
 10
260.3807386203
 20
38.6085448498
 10
260.6606514817
 20
38.3449293138
 10
260.685997872
 20
38.3095994417
  0
ARC
  5
26A
330
1F
100
AcDbEntity
  8
0
  6
Continuous
 62
     7
370
    18
100
AcDbCircle
 10
258.0185591179
 20
34.5774553554
 30
0.0
 40
1.344850802965032
100
AcDbArc
 50
171.3976140649
 51
259.2900215599
  0
LWPOLYLINE
  5
26B
330
1F
100
AcDbEntity
  8
0
  6
Continuous
 62
     7
370
    18
100
AcDbPolyline
 90
        3
 70
   128
 43
0.0
 10
259.872984588
 20
38.4408692757
 10
260.0957859178
 20
38.2497968497
 10
260.1951169847
 20
38.1107891713
  0
LWPOLYLINE
  5
26C
330
1F
100
AcDbEntity
  8
0
  6
Continuous
 62
     7
370
    18
100
AcDbPolyline
 90
        3
 70
   128
 43
0.0
 10
257.6953201457
 20
33.7805448446
 10
257.4365717523
 20
33.817550244
 10
257.2237793935
 20
33.9084947665
  0
LWPOLYLINE
  5
26D
330
1F
100
AcDbEntity
  8
0
  6
Continuous
 62
     7
370
    18
100
AcDbPolyline
 90
       18
 70
   128
 43
0.0
 10
248.0465381484
 20
37.980443289
 10
248.084008343
 20
38.3701298324
 10
248.230791987
 20
39.1608860582
 10
248.4714122964
 20
39.970605032
 10
248.7999440171
 20
40.7793487332
 10
249.2082982469
 20
41.5672032038
 10
249.6864193404
 20
42.3147690283
 10
250.2225348267
 20
43.0036382159
 10
250.8034434403
 20
43.6168490725
 10
251.4148414299
 20
44.1393019533
 10
252.0416741386
 20
44.5581325698
 10
252.6685068474
 20
44.863027594
 10
253.279904837
 20
45.0464798063
 10
253.8608134506
 20
45.1039717586
 10
254.3969289369
 20
45.0340883361
 10
254.8750500304
 20
44.8385493759
 10
255.2834042602
 20
44.5221706634
 10
255.5023248696
 20
44.2612782696
  0
LWPOLYLINE
  5
26E
330
1F
100
AcDbEntity
  8
0
  6
Continuous
 62
     7
370
    18
100
AcDbPolyline
 90
        3
 70
   128
 43
0.0
 10
250.0223516196
 20
34.7686574882
 10
249.6864193404
 20
34.8279084414
 10
249.2870465052
 20
34.9804321287
  0
LWPOLYLINE
  5
26F
330
1F
100
AcDbEntity
  8
0
  6
Continuous
 62
     7
370
    18
100
AcDbPolyline
 90
       15
 70
   128
 43
0.0
 10
248.7877388824
 20
37.5525575797
 10
248.8356433856
 20
38.1813074272
 10
248.9809393775
 20
38.945905913
 10
249.2189146429
 20
39.7282776537
 10
249.5434058637
 20
40.5081596957
 10
249.9460088597
 20
41.2653533175
 10
250.416296237
 20
41.9802477296
 10
250.9420877211
 20
42.6343274691
 10
251.5097658462
 20
43.2106523641
 10
252.1046279478
 20
43.6942955273
 10
252.7112673977
 20
44.072731311
 10
253.3139725792
 20
44.3361580268
 10
253.897133662
 20
44.4777533039
 10
254.4456472365
 20
44.4938498844
 10
254.6729216475
 20
44.4608253246
  0
LWPOLYLINE
  5
270
330
1F
100
AcDbEntity
  8
0
  6
Continuous
 62
     7
370
    18
100
AcDbPolyline
 90
       16
 70
   128
 43
0.0
 10
248.4871969497
 20
37.7260564738
 10
248.5351584169
 20
38.3616719056
 10
248.6801761738
 20
39.1248055283
 10
248.9176957264
 20
39.9056784394
 10
249.2415652812
 20
40.6840662302
 10
249.6433967923
 20
41.4398089612
 10
250.1127829514
 20
42.1533336741
 10
250.6375671917
 20
42.8061600752
 10
251.204157566
 20
43.3813805949
 10
251.7978799328
 20
43.8640973598
 10
252.403357031
 20
44.2418077591
 10
253.0049074341
 20
44.5047298142
 10
253.5869512139
 20
44.6460538534
 10
254.134413669
 20
44.6621196863
 10
254.6331160894
 20
44.5525110065
 10
254.8655780201
 20
44.4484074897
  0
LINE
  5
271
330
1F
100
AcDbEntity
  8
0
  6
Continuous
 62
     7
370
    18
100
AcDbLine
 10
249.5894583751
 20
35.1980186425
 30
0.0
 11
249.4036050965
 21
35.3214562622
 31
0.0
  0
LWPOLYLINE
  5
272
330
1F
100
AcDbEntity
  8
0
  6
Continuous
 62
     7
370
    18
100
AcDbPolyline
 90
       15
 70
   128
 43
0.0
 10
248.7399120875
 20
37.5801671301
 10
248.7878735548
 20
38.2157825619
 10
248.9328913116
 20
38.9789161846
 10
249.1704108642
 20
39.7597890957
 10
249.4942804191
 20
40.5381768865
 10
249.8961119301
 20
41.2939196174
 10
250.3654980893
 20
42.0074443304
 10
250.8902823295
 20
42.6602707314
 10
251.4568727038
 20
43.2354912511
 10
252.0505950707
 20
43.7182080161
 10
252.6560721689
 20
44.0959184154
 10
253.257622572
 20
44.3588404704
 10
253.8396663517
 20
44.5001645096
 10
254.3871288069
 20
44.5162303425
 10
254.8063137889
 20
44.4336478954
  0
LWPOLYLINE
  5
273
330
1F
100
AcDbEntity
  8
0
  6
Continuous
 62
     7
370
    18
100
AcDbPolyline
 90
        3
 70
   128
 43
0.0
 10
249.5250212767
 20
35.2851893179
 10
249.4942804191
 20
35.3140261035
 10
249.4226623867
 20
35.3865281313
  0
LWPOLYLINE
  5
274
330
1F
100
AcDbEntity
  8
0
  6
Continuous
 62
     7
370
    18
100
AcDbPolyline
 90
       24
 70
   128
 43
0.0
 10
217.7182922357
 20
49.5168674435
 10
217.7684812298
 20
50.6332509658
 10
217.918479888
 20
51.7949325512
 10
218.166588507
 20
52.9887498872
 10
218.5099951018
 20
54.2011757435
 10
218.9448103084
 20
55.4184744338
 10
219.4661062384
 20
56.6268520042
 10
220.0679770646
 20
57.8126183951
 10
220.7436029
 20
58.9623368674
 10
221.4853294819
 20
60.0629817901
 10
222.2847514774
 20
61.1020817902
 10
223.1328122531
 20
62.0678648013
 10
224.0199019984
 20
62.9493854322
 10
224.9359703363
 20
63.7366584174
 10
225.8706376174
 20
64.4207624099
 10
226.8133136023
 20
64.9939457574
 10
227.7533175017
 20
65.4497155725
 10
228.6799986959
 20
65.7829066619
 10
229.5828572894
 20
65.9897435163
 10
230.4516638635
 20
66.0678835867
 10
231.2765744949
 20
66.016441097
 10
232.0482424614
 20
65.8359982981
 10
232.7579242675
 20
65.5286012755
 10
233.2035086525
 20
65.246934961
  0
LWPOLYLINE
  5
275
330
1F
100
AcDbEntity
  8
0
  6
Continuous
 62
     7
370
    18
100
AcDbPolyline
 90
        9
 70
   128
 43
0.0
 10
220.6976483472
 20
43.5845777066
 10
220.0679770646
 20
43.9340048497
 10
219.4661062384
 20
44.4248659763
 10
218.9448103084
 20
45.0313680771
 10
218.5099951018
 20
45.7466398159
 10
218.166588507
 20
46.5625768573
 10
217.918479888
 20
47.4699340792
 10
217.7684812298
 20
48.4584309002
 10
217.7182922357
 20
49.5168674435
  0
LWPOLYLINE
  5
276
330
1F
100
AcDbEntity
  8
0
  6
Continuous
 62
     7
370
    18
100
AcDbPolyline
 90
        3
 70
   128
 43
0.0
 10
215.4785553638
 20
52.6462460057
 10
215.8427344279
 20
54.0271770826
 10
215.8617084123
 20
54.0904735716
  0
LWPOLYLINE
  5
277
330
1F
100
AcDbEntity
  8
0
  6
Continuous
 62
     7
370
    18
100
AcDbPolyline
 90
       13
 70
   128
 43
0.0
 10
221.4919692569
 20
63.9711424682
 10
221.8018964367
 20
64.3025902256
 10
222.8181211624
 20
65.3018965325
 10
223.8645985996
 20
66.2010906695
 10
224.9311541533
 20
66.9914305019
 10
226.0074181246
 20
67.6652316162
 10
227.0829263542
 20
68.2159436718
 10
228.1472221948
 20
68.638210789
 10
229.1899577821
 20
68.9279284906
 10
230.2009948235
 20
69.0822798328
 10
231.1705033896
 20
69.0997635384
 10
232.0890577329
 20
68.9802105285
 10
232.9477266729
 20
68.7247821076
  0
LWPOLYLINE
  5
278
330
1F
100
AcDbEntity
  8
0
  6
Continuous
 62
     7
370
    18
100
AcDbPolyline
 90
       21
 70
   128
 43
0.0
 10
215.0448728537
 20
52.6408084392
 10
215.4080074663
 20
54.0403405363
 10
215.8703583944
 20
55.4503360384
 10
216.4274765115
 20
56.8572249027
 10
217.0740006065
 20
58.2474694914
 10
217.8037074341
 20
59.6076873825
 10
218.6095755925
 20
60.9247909079
 10
219.4838494031
 20
62.1861034987
 10
220.4181143135
 20
63.3794861051
 10
221.4033802033
 20
64.49345525
 10
222.4301646902
 20
65.5172889164
 10
223.4885863138
 20
66.4411350939
 10
224.5684588723
 20
67.2561027409
 10
225.6593901629
 20
67.9543484438
 10
226.7508812986
 20
68.5291520028
 10
227.8324278772
 20
68.9749816797
 10
228.8936216439
 20
69.2875483235
 10
229.9242497258
 20
69.4638428852
 10
230.9143937841
 20
69.5021685622
 10
231.8545243504
 20
69.402157234
 10
232.7355949989
 20
69.1647705942
  0
LWPOLYLINE
  5
279
330
1F
100
AcDbEntity
  8
0
  6
Continuous
 62
     7
370
    18
100
AcDbPolyline
 90
       26
 70
   128
 43
0.0
 10
216.5958821472
 20
52.024244497
 10
216.8625162818
 20
53.283321309
 10
217.2269943252
 20
54.5609780751
 10
217.6853834496
 20
55.8434275919
 10
218.2327373272
 20
57.1168310396
 10
218.8631488138
 20
58.3674466477
 10
219.5698164617
 20
59.5817798798
 10
220.3451130084
 20
60.7467256341
 10
221.1806732923
 20
61.8497140539
 10
222.0674801928
 20
62.8788422696
 10
222.9959647288
 20
63.8230051889
 10
223.9561068163
 20
64.6720137392
 10
224.9375460687
 20
65.4167067409
 10
225.9296916083
 20
66.0490477603
 10
226.921837148
 20
66.5622135982
 10
227.9032764003
 20
66.9506662376
 10
228.8634184879
 20
67.2102141452
 10
229.7919030238
 20
67.338056653
 10
230.6787099243
 20
67.3328138905
 10
231.5142702082
 20
67.1945428399
 10
232.2895667549
 20
66.9247354248
 10
232.9962344028
 20
66.526303292
 10
233.6266458894
 20
66.0035452935
 10
234.173999767
 20
65.3621031812
 10
234.6323888914
 20
64.6088984822
 10
234.8297098995
 20
64.1856451053
  0
ARC
  5
27A
330
1F
100
AcDbEntity
  8
0
  6
Continuous
 62
     7
370
    18
100
AcDbCircle
 10
229.9555455252
 20
62.8421986106
 30
0.0
 40
6.701305418784819
100
AcDbArc
 50
13.117112618
 51
49.5620710787
  0
LWPOLYLINE
  5
27B
330
1F
100
AcDbEntity
  8
0
  6
Continuous
 62
     7
370
    18
100
AcDbPolyline
 90
       11
 70
   128
 43
0.0
 10
222.4357511233
 20
42.7075696389
 10
222.0674801928
 20
42.6721934304
 10
221.1806732923
 20
42.6774361929
 10
220.3451130084
 20
42.8157072435
 10
219.5698164617
 20
43.0855146586
 10
218.8631488138
 20
43.4839467914
 10
218.2327373272
 20
44.0067047899
 10
217.6853834496
 20
44.6481469022
 10
217.2269943252
 20
45.4013516012
 10
216.8625162818
 20
46.2581909758
 10
216.5958821472
 20
47.2094185687
  0
LWPOLYLINE
  5
27C
330
1F
100
AcDbEntity
  8
0
  6
Continuous
 62
     7
370
    18
100
AcDbPolyline
 90
       27
 70
   128
 43
0.0
 10
205.7241152714
 20
53.8111280086
 10
205.7730517138
 20
55.0436564805
 10
205.9194290358
 20
56.3218530127
 10
206.1619617584
 20
57.634485594
 10
206.4985188318
 20
58.9700184874
 10
206.9261420738
 20
60.3167151764
 10
207.4410731712
 20
61.6627405493
 10
208.0387879229
 20
62.9962664107
 10
208.7140324611
 20
64.305572239
 10
209.4608739582
 20
65.5791531676
 10
210.2727480425
 20
66.8058165592
 10
211.1425200429
 20
67.9747812404
 10
212.062547221
 20
69.075776546
 10
213.0247433089
 20
70.099125204
 10
214.0206532536
 20
71.0358351538
 10
215.0415246693
 20
71.8776734947
 10
216.0783861219
 20
72.6172428579
 10
217.1221255986
 20
73.2480426752
 10
218.1635706651
 20
73.7645314233
 10
219.1935690961
 20
74.1621686071
 10
220.2030694238
 20
74.437459739
 10
221.1831996543
 20
74.5879865714
 10
222.1253470132
 20
74.6124265171
 10
223.0212312911
 20
74.5105630508
 10
223.8629795885
 20
74.2832931165
 10
224.6431948041
 20
73.9326126731
 10
224.7354074989
 20
73.8806115528
  0
LWPOLYLINE
  5
27D
330
1F
100
AcDbEntity
  8
0
  6
Continuous
 62
     7
370
    18
100
AcDbPolyline
 90
       10
 70
   128
 43
0.0
 10
208.9866870096
 20
46.6000724324
 10
208.7140324611
 20
46.7687686857
 10
208.0387879229
 20
47.2984537649
 10
207.4410731712
 20
47.9418728633
 10
206.9261420738
 20
48.6933714461
 10
206.4985188318
 20
49.546344849
 10
206.1619617584
 20
50.4932972167
 10
205.9194290358
 20
51.5259074768
 10
205.7730517138
 20
52.6351003504
 10
205.7241152714
 20
53.8111280086
  0
LWPOLYLINE
  5
27E
330
1F
100
AcDbEntity
  8
0
  6
Continuous
 62
     7
370
    18
100
AcDbPolyline
 90
       16
 70
   128
 43
0.0
 10
213.3926887332
 20
54.5730280904
 10
213.719568495
 20
55.8556678954
 10
214.1423092881
 20
57.1489356803
 10
214.6564125949
 20
58.4390678688
 10
215.2564065693
 20
59.7123329159
 10
215.9359053049
 20
60.9551799721
 10
216.6876766662
 20
62.1543803232
 10
217.5037199958
 20
63.2971722515
 10
218.375349421
 20
64.3713908769
 10
219.2932886837
 20
65.3656057915
 10
220.2477677824
 20
66.2692331242
 10
221.2286281741
 20
67.072656349
 10
222.2254305701
 20
67.7673250166
 10
223.2275658184
 20
68.3458453813
 10
224.2243682144
 20
68.8020602629
 10
224.5387517649
 20
68.9207684885
  0
LWPOLYLINE
  5
27F
330
1F
100
AcDbEntity
  8
0
  6
Continuous
 62
     7
370
    18
100
AcDbPolyline
 90
       18
 70
   128
 43
0.0
 10
212.9668705616
 20
55.2211730778
 10
213.337052259
 20
56.5222439611
 10
213.8005213957
 20
57.828389025
 10
214.3525292074
 20
59.1262279901
 10
214.9874220893
 20
60.4024658341
 10
215.6986962561
 20
61.6440296694
 10
216.479064254
 20
62.838199917
 10
217.3205333286
 20
63.9727449011
 10
218.214483132
 20
65.0360417553
 10
219.1517559444
 20
66.0171984684
 10
220.1227506809
 20
66.9061636675
 10
221.1175205204
 20
67.6938308874
 10
222.1258751041
 20
68.3721317886
 10
223.137485038
 20
68.9341185396
 10
224.1419874245
 20
69.3740323429
 10
225.1290922999
 20
69.687368683
 10
226.0886879601
 20
69.8709168361
 10
226.8581478269
 20
69.9233146736
  0
LINE
  5
280
330
1F
100
AcDbEntity
  8
0
  6
Continuous
 62
     7
370
    18
100
AcDbLine
 10
207.3737519565
 20
53.2735645784
 30
0.0
 11
209.1712610449
 21
54.3112444875
 31
0.0
  0
LWPOLYLINE
  5
281
330
1F
100
AcDbEntity
  8
0
  6
Continuous
 62
     7
370
    18
100
AcDbPolyline
 90
       13
 70
   128
 43
0.0
 10
224.5360838364
 20
41.6881210081
 10
223.5195387288
 20
41.3090473148
 10
222.5122779464
 20
41.049851455
 10
221.5362978634
 20
40.9183936005
 10
220.60053213
 20
40.9158766308
 10
219.7135457762
 20
41.0423233165
 10
218.883458985
 20
41.2965771822
 10
218.1178680672
 20
41.6763108789
 10
217.4237825707
 20
42.178047673
 10
216.8075541572
 20
42.7971956737
 10
216.2748239189
 20
43.5280866219
 10
215.8304690365
 20
44.3640321689
 10
215.4785553638
 20
45.2973790151
  0
LWPOLYLINE
  5
282
330
1F
100
AcDbEntity
  8
0
  6
Continuous
 62
     7
370
    18
100
AcDbPolyline
 90
        3
 70
   128
 43
0.0
 10
215.5136307614
 20
44.0842185134
 10
215.3994911687
 20
44.3308979099
 10
215.0448728537
 20
45.2919414486
  0
LWPOLYLINE
  5
283
330
1F
100
AcDbEntity
  8
0
  6
Continuous
 62
     7
370
    18
100
AcDbPolyline
 90
       19
 70
   128
 43
0.0
 10
198.5045561825
 20
66.0589368564
 10
198.9052574666
 20
67.2043829894
 10
199.3906034519
 20
68.3422484905
 10
199.9547034578
 20
69.4587235261
 10
200.5907122434
 20
70.5402582403
 10
201.2909100208
 20
71.5737264371
 10
202.0467992609
 20
72.546585649
 10
202.8492057801
 20
73.4470286492
 10
203.6883911869
 20
74.2641270738
 10
204.5541711728
 20
74.9879643492
 10
205.4360379193
 20
75.6097557861
 10
206.3232886787
 20
76.1219547471
 10
207.2051554252
 20
76.5183449831
 10
208.0709354111
 20
76.7941160021
 10
208.9101208179
 20
76.9459204245
 10
209.7125273371
 20
76.9719162716
 10
210.4684165771
 20
76.8717881997
 10
211.1686143545
 20
76.6467511486
 10
211.3687312132
 20
76.5541534286
  0
ARC
  5
284
330
1F
100
AcDbEntity
  8
0
  6
Continuous
 62
     7
370
    18
100
AcDbCircle
 10
202.37151818
 20
60.3641486041
 30
0.0
 40
4.256419601235224
100
AcDbArc
 50
204.7009669482
 51
235.929743574
  0
LINE
  5
285
330
1F
100
AcDbEntity
  8
0
  6
Continuous
 62
     7
370
    18
100
AcDbLine
 10
207.3737519565
 20
52.4570237278
 30
0.0
 11
209.1712610449
 21
53.4947036368
 31
0.0
  0
LINE
  5
286
330
1F
100
AcDbEntity
  8
0
  6
Continuous
 62
     7
370
    18
100
AcDbLine
 10
210.6608106844
 20
47.8228066679
 30
0.0
 11
211.999688304
 21
48.5957242656
 31
0.0
  0
LINE
  5
287
330
1F
100
AcDbEntity
  8
0
  6
Continuous
 62
     7
370
    18
100
AcDbLine
 10
214.3574202174
 20
47.3634015937
 30
0.0
 11
214.1775769806
 21
47.9058570295
 31
0.0
  0
LWPOLYLINE
  5
288
330
1F
100
AcDbEntity
  8
0
  6
Continuous
 62
     7
370
    18
100
AcDbPolyline
 90
        3
 70
   128
 43
0.0
 10
213.9765516598
 20
46.9313908392
 10
213.719568495
 20
47.4537309047
 10
213.3926887332
 20
48.3589633701
  0
LWPOLYLINE
  5
289
330
1F
100
AcDbEntity
  8
0
  6
Continuous
 62
     7
370
    18
100
AcDbPolyline
 90
        3
 70
   128
 43
0.0
 10
213.7435513689
 20
46.3094222711
 10
213.3369561115
 20
46.9988276387
 10
212.9668705616
 20
47.8723060872
  0
LINE
  5
28A
330
1F
100
AcDbEntity
  8
0
  6
Continuous
 62
     7
370
    18
100
AcDbLine
 10
229.7142369188
 20
70.908657701
 30
0.0
 11
229.1732478738
 21
70.596351373
 31
0.0
  0
ARC
  5
28B
330
1F
100
AcDbEntity
  8
0
  6
Continuous
 62
     7
370
    18
100
AcDbCircle
 10
202.2669952555
 20
64.5628458878
 30
0.0
 40
1.102097410650232
100
AcDbArc
 50
159.4112025223
 51
213.191486534
  0
ARC
  5
28C
330
1F
100
AcDbEntity
  8
0
  6
Continuous
 62
     7
370
    18
100
AcDbCircle
 10
200.9351705983
 20
64.3913481027
 30
0.0
 40
0.6345234148772504
100
AcDbArc
 50
41.9991509505
 51
61.7717641965
  0
LINE
  5
28D
330
1F
100
AcDbEntity
  8
0
  6
Continuous
 62
     7
370
    18
100
AcDbLine
 10
201.2352906688
 20
64.9504079451
 30
0.0
 11
201.344837572
 21
65.3612058035
 31
0.0
  0
LINE
  5
28E
330
1F
100
AcDbEntity
  8
0
  6
Continuous
 62
     7
370
    18
100
AcDbLine
 10
201.2352906688
 20
64.9504079451
 30
0.0
 11
200.4332460198
 21
65.4134184655
 31
0.0
  0
LINE
  5
28F
330
1F
100
AcDbEntity
  8
0
  6
Continuous
 62
     7
370
    18
100
AcDbLine
 10
198.5590145206
 20
66.5748787809
 30
0.0
 11
198.5427781058
 21
66.7700174095
 31
0.0
  0
ARC
  5
290
330
1F
100
AcDbEntity
  8
0
  6
Continuous
 62
     7
370
    18
100
AcDbCircle
 10
201.0253270176
 20
56.2977861365
 30
0.0
 40
0.431494985477925
100
AcDbArc
 50
27.885175929
 51
60.8829215863
  0
ARC
  5
291
330
1F
100
AcDbEntity
  8
0
  6
Continuous
 62
     7
370
    18
100
AcDbCircle
 10
202.4750257079
 20
57.0698468692
 30
0.0
 40
1.301169858630649
100
AcDbArc
 50
165.9701496118
 51
197.6767200265
  0
LINE
  5
292
330
1F
100
AcDbEntity
  8
0
  6
Continuous
 62
     7
370
    18
100
AcDbLine
 10
200.8435192482
 20
59.5836175444
 30
0.0
 11
199.5227884812
 21
60.3460591872
 31
0.0
  0
LINE
  5
293
330
1F
100
AcDbEntity
  8
0
  6
Continuous
 62
     7
370
    18
100
AcDbLine
 10
201.2352906688
 20
56.6747519011
 30
0.0
 11
200.4332460198
 21
57.1377624215
 31
0.0
  0
LINE
  5
294
330
1F
100
AcDbEntity
  8
0
  6
Continuous
 62
     7
370
    18
100
AcDbLine
 10
201.2352906688
 20
56.6747519011
 30
0.0
 11
201.344837572
 21
56.390434205
 31
0.0
  0
OLE2FRAME
  5
295
330
1F
100
AcDbEntity
  8
0
100
AcDbOle2Frame
 70
     2
  3
Paintbrush-Bild
 10
13.8511154363
 20
38.264191557
 30
0.0
 11
51.6290888628
 21
31.9806341108
 31
0.0
 71
     2
 72
     0
 73
     1
 90
    12928
310
80552BED0767C5B32B40DDAF6807D121434000000000000000006FFBDDFB85D0
310
4940DDAF6807D121434000000000000000006FFBDDFB85D04940416F4BD60AFB
310
3F4000000000000000002BED0767C5B32B40416F4BD60AFB3F40000000000000
310
0000000000000100000000010000010000000100000000000100000000320000
310
D0CF11E0A1B11AE1000000000000000000000000000000003E000300FEFF0900
310
0600000000000000000000000100000001000000000000000010000002000000
310
01000000FEFFFFFF0000000000000000FFFFFFFFFFFFFFFFFFFFFFFFFFFFFFFF
310
FFFFFFFFFFFFFFFFFFFFFFFFFFFFFFFFFFFFFFFFFFFFFFFFFFFFFFFFFFFFFFFF
310
FFFFFFFFFFFFFFFFFFFFFFFFFFFFFFFFFFFFFFFFFFFFFFFFFFFFFFFFFFFFFFFF
310
FFFFFFFFFFFFFFFFFFFFFFFFFFFFFFFFFFFFFFFFFFFFFFFFFFFFFFFFFFFFFFFF
310
FFFFFFFFFFFFFFFFFFFFFFFFFFFFFFFFFFFFFFFFFFFFFFFFFFFFFFFFFFFFFFFF
310
FFFFFFFFFFFFFFFFFFFFFFFFFFFFFFFFFFFFFFFFFFFFFFFFFFFFFFFFFFFFFFFF
310
FFFFFFFFFFFFFFFFFFFFFFFFFFFFFFFFFFFFFFFFFFFFFFFFFFFFFFFFFFFFFFFF
310
FFFFFFFFFFFFFFFFFFFFFFFFFFFFFFFFFFFFFFFFFFFFFFFFFFFFFFFFFFFFFFFF
310
FFFFFFFFFFFFFFFFFFFFFFFFFFFFFFFFFFFFFFFFFFFFFFFFFFFFFFFFFFFFFFFF
310
FFFFFFFFFFFFFFFFFFFFFFFFFFFFFFFFFFFFFFFFFFFFFFFFFFFFFFFFFFFFFFFF
310
FFFFFFFFFFFFFFFFFFFFFFFFFFFFFFFFFFFFFFFFFFFFFFFFFFFFFFFFFFFFFFFF
310
FFFFFFFFFFFFFFFFFFFFFFFFFFFFFFFFFFFFFFFFFFFFFFFFFFFFFFFFFFFFFFFF
310
FFFFFFFFFFFFFFFFFFFFFFFFFFFFFFFFFFFFFFFFFFFFFFFFFFFFFFFFFFFFFFFF
310
FFFFFFFFFFFFFFFFFFFFFFFFFFFFFFFFFFFFFFFFFFFFFFFFFFFFFFFFFFFFFFFF
310
FDFFFFFFFEFFFFFFFEFFFFFFFEFFFFFF05000000060000000700000008000000
310
090000000A0000000B0000000C0000000D0000000E0000000F00000010000000
310
11000000120000001300000014000000150000001600000017000000FEFFFFFF
310
FFFFFFFFFFFFFFFFFFFFFFFFFFFFFFFFFFFFFFFFFFFFFFFFFFFFFFFFFFFFFFFF
310
FFFFFFFFFFFFFFFFFFFFFFFFFFFFFFFFFFFFFFFFFFFFFFFFFFFFFFFFFFFFFFFF
310
FFFFFFFFFFFFFFFFFFFFFFFFFFFFFFFFFFFFFFFFFFFFFFFFFFFFFFFFFFFFFFFF
310
FFFFFFFFFFFFFFFFFFFFFFFFFFFFFFFFFFFFFFFFFFFFFFFFFFFFFFFFFFFFFFFF
310
FFFFFFFFFFFFFFFFFFFFFFFFFFFFFFFFFFFFFFFFFFFFFFFFFFFFFFFFFFFFFFFF
310
FFFFFFFFFFFFFFFFFFFFFFFFFFFFFFFFFFFFFFFFFFFFFFFFFFFFFFFFFFFFFFFF
310
FFFFFFFFFFFFFFFFFFFFFFFFFFFFFFFFFFFFFFFFFFFFFFFFFFFFFFFFFFFFFFFF
310
FFFFFFFFFFFFFFFFFFFFFFFFFFFFFFFFFFFFFFFFFFFFFFFFFFFFFFFFFFFFFFFF
310
FFFFFFFFFFFFFFFFFFFFFFFFFFFFFFFFFFFFFFFFFFFFFFFFFFFFFFFFFFFFFFFF
310
FFFFFFFFFFFFFFFFFFFFFFFFFFFFFFFFFFFFFFFFFFFFFFFFFFFFFFFFFFFFFFFF
310
FFFFFFFFFFFFFFFFFFFFFFFFFFFFFFFFFFFFFFFFFFFFFFFFFFFFFFFFFFFFFFFF
310
FFFFFFFFFFFFFFFFFFFFFFFFFFFFFFFFFFFFFFFFFFFFFFFFFFFFFFFFFFFFFFFF
310
FFFFFFFFFFFFFFFFFFFFFFFFFFFFFFFFFFFFFFFFFFFFFFFFFFFFFFFFFFFFFFFF
310
52006F006F007400200045006E00740072007900000000000000000000000000
310
0000000000000000000000000000000000000000000000000000000000000000
310
16000500FFFFFFFFFFFFFFFF020000000A00030000000000C000000000000046
310
000000000000000000000000905C99B934A7D30103000000C000000000000000
310
01004F006C006500000000000000000000000000000000000000000000000000
310
0000000000000000000000000000000000000000000000000000000000000000
310
0A000200FFFFFFFFFFFFFFFFFFFFFFFF00000000000000000000000000000000
310
0000000000000000000000000000000000000000000000001400000000000000
310
010043006F006D0070004F0062006A0000000000000000000000000000000000
310
0000000000000000000000000000000000000000000000000000000000000000
310
120002010100000003000000FFFFFFFF00000000000000000000000000000000
310
0000000000000000000000000000000000000000010000004D00000000000000
310
01004F006C006500310030004E00610074006900760065000000000000000000
310
0000000000000000000000000000000000000000000000000000000000000000
310
1A000200FFFFFFFFFFFFFFFFFFFFFFFF00000000000000000000000000000000
310
0000000000000000000000000000000000000000040000002426000000000000
310
FEFFFFFF02000000FEFFFFFFFFFFFFFFFFFFFFFFFFFFFFFFFFFFFFFFFFFFFFFF
310
FFFFFFFFFFFFFFFFFFFFFFFFFFFFFFFFFFFFFFFFFFFFFFFFFFFFFFFFFFFFFFFF
310
FFFFFFFFFFFFFFFFFFFFFFFFFFFFFFFFFFFFFFFFFFFFFFFFFFFFFFFFFFFFFFFF
310
FFFFFFFFFFFFFFFFFFFFFFFFFFFFFFFFFFFFFFFFFFFFFFFFFFFFFFFFFFFFFFFF
310
FFFFFFFFFFFFFFFFFFFFFFFFFFFFFFFFFFFFFFFFFFFFFFFFFFFFFFFFFFFFFFFF
310
FFFFFFFFFFFFFFFFFFFFFFFFFFFFFFFFFFFFFFFFFFFFFFFFFFFFFFFFFFFFFFFF
310
FFFFFFFFFFFFFFFFFFFFFFFFFFFFFFFFFFFFFFFFFFFFFFFFFFFFFFFFFFFFFFFF
310
FFFFFFFFFFFFFFFFFFFFFFFFFFFFFFFFFFFFFFFFFFFFFFFFFFFFFFFFFFFFFFFF
310
FFFFFFFFFFFFFFFFFFFFFFFFFFFFFFFFFFFFFFFFFFFFFFFFFFFFFFFFFFFFFFFF
310
FFFFFFFFFFFFFFFFFFFFFFFFFFFFFFFFFFFFFFFFFFFFFFFFFFFFFFFFFFFFFFFF
310
FFFFFFFFFFFFFFFFFFFFFFFFFFFFFFFFFFFFFFFFFFFFFFFFFFFFFFFFFFFFFFFF
310
FFFFFFFFFFFFFFFFFFFFFFFFFFFFFFFFFFFFFFFFFFFFFFFFFFFFFFFFFFFFFFFF
310
FFFFFFFFFFFFFFFFFFFFFFFFFFFFFFFFFFFFFFFFFFFFFFFFFFFFFFFFFFFFFFFF
310
FFFFFFFFFFFFFFFFFFFFFFFFFFFFFFFFFFFFFFFFFFFFFFFFFFFFFFFFFFFFFFFF
310
FFFFFFFFFFFFFFFFFFFFFFFFFFFFFFFFFFFFFFFFFFFFFFFFFFFFFFFFFFFFFFFF
310
FFFFFFFFFFFFFFFFFFFFFFFFFFFFFFFFFFFFFFFFFFFFFFFFFFFFFFFFFFFFFFFF
310
0100000200000000000000000000000000000000000000000000000000000000
310
0000000000000000000000000000000000000000000000000000000000000000
310
0100FEFF030A0000FFFFFFFF0A00030000000000C00000000000004607000000
310
5042727573680007000000504272757368000700000050427275736800F439B2
310
7100000000000000000000000000000000000000000000000000000000000000
310
0000000000000000000000000000000000000000000000000000000000000000
310
0000000000000000000000000000000000000000000000000000000000000000
310
0000000000000000000000000000000000000000000000000000000000000000
310
0000000000000000000000000000000000000000000000000000000000000000
310
0000000000000000000000000000000000000000000000000000000000000000
310
0000000000000000000000000000000000000000000000000000000000000000
310
0000000000000000000000000000000000000000000000000000000000000000
310
0000000000000000000000000000000000000000000000000000000000000000
310
0000000000000000000000000000000000000000000000000000000000000000
310
0000000000000000000000000000000000000000000000000000000000000000
310
0000000000000000000000000000000000000000000000000000000000000000
310
20260000424D0E260000000000003E00000028000000B40200006E0000000100
310
01000000000000000000130B0000130B00000200000002000000000000FFFFFF
310
FFFFFFFFFFFFFFFFFFFFFFFFFFFFFFFFFFFFFFFFFFFFFFFFFFFFFFFFFFFFFFFF
310
FFFFFFFFFFFFFFFFFFFFFFFFFFFFFFFFFFFFFFFFFFFFFFFFFFFFFFFFFFFFFFFF
310
FFFFFFFFFFFFFFFFFFFFFFFFFFFFFFFFFFFFFFFFFFFFFFFFF000FFFFFFFFFFFF
310
FFFFFFFFFFFFFFFFFFFFFFFFFFFFFFFFFFFFFFFFFFFFFFFFFFFFFFFFFFFFFFFF
310
FFFFFFFFFFFFFFFFFFFFFFFFFFFFFFFFFFFFFFFFFFFFFFFFFFFFFFFFFFFFFFFF
310
FFFFFFFFFFFFFFFFFFFFFFFFFFFFFFFFF000FFFFFFFFFFFFFFFFFFFFFFFFFFFF
310
FFFFFFFFFFFFFFFFFFFFFFFFFFFFFFFFFFFFFFFFFFFFFFFFFFFFFFFFFFFFFFFF
310
FFFFFFFFFFFFFFFFFFFFFFFFFFFFFFFFFFFFFFFFFFFFFFFFFFFFFFFFFFFFFFFF
310
FFFFFFFFFFFFFFFFF000FFFFFFFFFFFFFFFFFFFFFFFFFFFFFFFFFFFFFFFFFFFF
310
FFFFFFFFFFFFFFFFFFFFFFFFFFFFFFFFFFFFFFFFFFFFFFFFFFFFFFFFFFFFFFFF
310
FFFFFFFFFFFFFFFFFFFFFFFFFFFFFFFFFFFFFFFFFFFFFFFFFFFFFFFFFFFFFFFF
310
F000FFFFFFFFFFFFFFFFFFFFFFFFFFFFFFFFFFFFFFFFFFFFFFFFFFFFFFFFFFFF
310
FFFFFFFFFFFFFFFFFFFFFFFFFFFFFFFFFFFFFFFFFFFFFFFFFFFFFFFFFFFFFFFF
310
FFFFFFFFFFFFFFFFFFFFFFFFFFFFFFFFFFFFFFFFFFFFFFFFF000FFFFFFFFFFFF
310
FFFFFFFFFFFFFFFFFFFFFFFFFFFFFFFFFFFFFFFFFFFFFFFFFFFFFFFFFFFFFFFF
310
FFFFFFFFFFFFFFFFFFFFFFFFFFFFFFFFFFFFFFFFFFFFFFFFFFFFFFFFFFFFFFFF
310
FFFFFFFFFFFFFFFFFFFFFFFFFFFFFFFFF000FFFFFFFFFFFFFFFFFFFFFFFFFFFF
310
FFFFFFFFFFFFFFFFFFFFFFFFFFFFFFFFFFFFFFFFFFFFFFFFFFFFFFFFFFFFFFFF
310
FFFFFFFFFFFFFFFFFFFFFFFFFFFFFFFFFFFFFFFFFFFFFFFFFFFFFFFFFFFFFFFF
310
FFFFFFFFFFFFFFFFF000FFFFFFFFFFFFFFFFFFFFFFFFFFFFFFFFFFFFFFFFFFFF
310
FFFFFFFFFFFFFFFFFFFFFFFFFFFFFFFFFFFFFFFFFFFFFFFFFFFFFFFFFFFFFFFF
310
FFFFFFFFFFFFFFFFFFFFFFFFFFFFFFFFFFFFFFFFFFFFFFFFFFFFFFFFFFFFFFFF
310
F000FFFFFFFFFFFFFFFFFFFFFFFFFFFFFFFFFFFFFFFFFFFFFFFFFFFFFFFFFFFF
310
FFFFFFFFFFFFFFFFFFFFFFFFFFFFFFFFFFFFFFFFFFFFFFFFFFFFFFFFFFFFFFFF
310
FFFFFFFFFFFFFFFFFFFFFFFFFFFFFFFFFFFFFFFFFFFFFFFFF000FFFFFFFFFFFF
310
FFFFFFFFFFFFFFFFFFFFFFFFFFFFFFFFFFFFFFFFFFFFFFFFFFFFFFFFFFFFFFFF
310
FFFFFFFFFFFFFFFFFFFFFFFFFFFFFFFFFFFFFFFFFFFFFFFFFFFFFFFFFFFFFFFF
310
FFFFFFFFFFFFFFFFFFFFFFFFFFFFFFFFF000FFFFFFFFFFFFFFFFFFFFFFFFFFFF
310
FFFFFFFFFFFFFFFFFFFFFFFFFFFFFFFFFFFFFFFFFFFFFFFFFFFFFFFFFFFFFFFF
310
FFFFFFFFFFFFFFFFFFFFFFFFFFFFFFFFFFFFFFFFFFFFFFFFFFFFFFFFFFFFFFFF
310
FFFFFFFFFFFFFFFFF000FFFFFFFFFFFFFFFFFFFFFFFFFFFFFFFFFFFFFFFFFFFF
310
FFFFFFFFFFFFFFFFFFFFFFFFFFFFFFFFFFFFFFFFFFFFFFFFFFFFFFFFFFFFFFFF
310
FFFFFFFFFFFFFFFFFFFFFFFFFFFFFFFFFFFFFFFFFFFFFFFFFFFFFFFFFFFFFFFF
310
F000FFFFFFFFFFFFFFFFFFFFFFFFFFFFFFFFFFFFFFFFFFFFFFFFFFFFFFFFFFFF
310
FFFFFFFFFFFFFFFFFFFFFFFFFFFFFFFFFFFFFFFFFFFFFFFFFFFFFFFFFFFFFFFF
310
FFFFFFFFFFFFFFFFFFFFFFFFFFFFFFFFFFFFFFFFFFFFFFFFF000FFFFFFFFFFFF
310
FFFFFFFFFFFFFFFFFFFFFFFFFFFFFFFFFFFFFFFFFFFFFFFFFFFFFFFFFFFFFFFF
310
FFFFFFFFFFFFFFFFFFFFFFFFFFFFFFFFFFFFFFFFFFFFFFFFFFFFFFFFFFFFFFFF
310
FFFFFFFFFFFFFFFFFFFFFFFFFFFFFFFFF000FFFFFFFFFFFFFFFFFFFFFFFFFFFF
310
FFFFFFFFFFFFFFFFFFFFFFFFFFFFFFFFFFFFFFFFFFFFFFFFFFFFFFFFFFFFFFFF
310
FFFFFFFFFFFFFFFFFFFFFFFFFFFFFFFFFFFFFFFFFFFFFFFFFFFFFFFFFFFFFFFF
310
FFFFFFFFFFFFFFFFF000FFFFFFFFFFFFFFFFFFFFFFFFFFFFFFFFFFFFFFFFFFFF
310
FFFFFFFFFFFFFFFFFFFFFFFFFFFFFFFFFFFFFFFFFFFFFFFFFFFFFFFFFFFFFFFF
310
FFFFFFFFFFFFFFFFFFFFFFFFFFFFFFFFFFFFFFFFFFFFFFFFFFFFFFFFFFFFFFFF
310
F000FFFFFFFFFFFFFFFFFFFFFFFFFFFFFFFFFFFFFFFFFFFFFFFFFFFFFFFFFFFF
310
FFFFFFFFFFFFFFFFFFFFFFFFFFFFFFFFFFFFFFFFFFFFFFFFFFFFFFFFFFFFFFFF
310
FFFFFFFFFFFFFFFFFFFFFFFFFFFFFFFFFFFFFFFFFFFFFFFFF000FFFFFFFFFFFF
310
FFFFFFFFFFFFFFFFFFFFFFFFFFFFFFFFFFFFFFFFFFFFFFFFFFFFFFFFFFFFFFFF
310
FFFFFFFFFFFFFFFFFFFFFFFFFFFFFFFFFFFFFFFFFFFFFFFFFFFFFFFFFFFFFFFF
310
FFFFFFFFFFFFFFFFFFFFFFFFFFFFFFFFF000FFFFFFFFFFFFFFFFFFFFFFFFFFFF
310
FFFFFFFFFFFFFFFFFFFFFFFFFFFFFFFFFFFFFFFFFFFFFFFFFFFFFFFFFFFFFFFF
310
FFFFFFFFFFFFFFFFFFFFFFFFFFFFFFFFFFFFFFFFFFFFFFFFFFFFFFFFFFFFFFFF
310
FFFFFFFFFFFFFFFFF000FFFFF80003FFFFFFFFFFFFFFFFFFFFFFFFFFFFFFFFFF
310
FFFFF00007FFFFFFFFFF00007FFFFFF800000000000000007FFFFFFFFFFFFFFF
310
FFFFFFFC001FFFFFFFFFFFFFFC001FFFFFFFFFFFFFFFFFFFFFFFFFFE0007FFFF
310
F000FFFF8000007FFFFFFFF8000FFFFFC0007FFFFF80007FFFFF0000007FFFFF
310
FFF8000007FFFFF800000000000000007FFFFFF0001FFFFFFFFFFFC00001FFFF
310
FFFFFFFFC00001FFFFFFFF000000000003FFFFE000007FFFF000FFFE0000000F
310
FFFFFFF0000FFFFF80007FFFFF80007FFFFC0000001FFFFFFFC0000001FFFFF8
310
00000000000000007FFFFFF0001FFFFFFFFFFE0000003FFFFFFFFFFE0000003F
310
FFFFFF000000000003FFFF0000000FFFF000FFF800000003FFFFFFF00007FFFF
310
80007FFFFF80007FFFF000000007FFFFFF000000003FFFF80000000000000000
310
7FFFFFF0001FFFFFFFFFF80000000FFFFFFFFFF80000000FFFFFFF0000000000
310
03FFFC00000003FFF000FFE000000000FFFFFFF00007FFFF80003FFFFF80007F
310
FFC000000001FFFFFC000000001FFFF800000000000000007FFFFFF0001FFFFF
310
FFFFE000000003FFFFFFFFE000000003FFFFFF000000000003FFF000000000FF
310
F000FF80000000007FFFFFF00007FFFF80003FFFFF80007FFF8000000000FFFF
310
F80000000007FFF800000000000000007FFFFFF0001FFFFFFFFFC000000001FF
310
FFFFFFC000000001FFFFFF000000000003FFC0000000007FF000FF0000000000
310
3FFFFFE00007FFFF00003FFFFF80007FFE00000000003FFFF00000000003FFF8
310
00000000000000007FFFFFF0001FFFFFFFFF8000000000FFFFFFFF8000000000
310
FFFFFF000000000003FF80000000003FF000FE00000000001FFFFFE00003FFFF
310
00003FFFFF80007FFC00000000001FFFE00000000001FFF8000001FFFE000000
310
7FFFFFF0001FFFFFFFFE00000000003FFFFFFE00000000003FFFFF0000000000
310
03FF00000000001FF000FC00000000000FFFFFE00003FFFF00001FFFFF80007F
310
F800000000001FFFC00000000000FFF8000001FFFE0000007FFFFFF0001FFFFF
310
FFFC00000000001FFFFFFC00000000001FFFFF000000000003FE00000000000F
310
F000F8000000000007FFFFE00003FFFF00001FFFFF80007FF800000000000FFF
310
800000000000FFF8000001FFFE0000007FFFFFF0001FFFFFFFF800000000000F
310
FFFFF800000000000FFFFF000000000003FC000000000007F000F80000000000
310
03FFFFC00003FFFE00001FFFFF80007FF0000000000007FF0000000000007FF8
310
000001FFFE0000007FFFFFF0001FFFFFFFF0000000000007FFFFF00000000000
310
07FFFF000000000003F8000000000003F000F0000000000003FFFFC00001FFFE
310
00001FFFFF80007FE0000000000007FE0000000000003FF8000001FFFE000000
310
7FFFFFF0001FFFFFFFF0000000000007FFFFF0000000000007FFFF0000000000
310
03F800001F800003F000E00001FFF00001FFFFC00001FFFE00000FFFFF80007F
310
E00001FFE00003FE00001FFF00003FF8000001FFFE0000007FFFFFF0001FFFFF
310
FFE000003E000003FFFFE000003E000003FFFF000000000003F00001FFF80001
310
F000E00007FFFC0001FFFFC00001FFFE00000FFFFF80007FC0000FFFFC0003FC
310
0000FFFFC0001FF8000001FFFE0000007FFFFFF0001FFFFFFFC00003FFE00001
310
FFFFC00003FFE00001FFFF0001FFFFFFFFF00007FFFE0001F000E0000FFFFF00
310
00FFFF800001FFFC00000FFFFF80007FC0001FFFFE0001FC0001FFFFE0001FF8
310
000001FFFE0000007FFFFFF0001FFFFFFF80000FFFF80000FFFF80000FFFF800
310
00FFFF0003FFFFFFFFE0000FFFFF8000F000C0003FFFFF8000FFFF800000FFFC
310
000007FFFF80007F80003FFFFF0001FC0003FFFFF0001FF8000001FFFE000000
310
7FFFFFF0001FFFFFFF80003FFFFE0000FFFF80003FFFFE0000FFFF0003FFFFFF
310
FFE0003FFFFF8000F000C0003FFFFF8000FFFF800000FFFC000007FFFF80007F
310
80007FFFFF8001F80007FFFFF8000FF8000001FFFE0000007FFFFFF0001FFFFF
310
FF00007FFFFF00007FFF00007FFFFF00007FFF0003FFFFFFFFE0003FFFFFC000
310
F000C0007FFFFFC000FFFF000000FFFC000007FFFF80007F8000FFFFFF8000F8
310
000FFFFFF8000FF8000001FFFE0000007FFFFFF0001FFFFFFF0000FFFFFF8000
310
7FFF0000FFFFFF80007FFF0003FFFFFFFFC0007FFFFFC00070008000FFFFFFC0
310
00FFFF000000FFF8000007FFFF80007F8000FFFFFF8000F8000FFFFFF8000FF8
310
000001FFFE0000007FFFFFF0001FFFFFFE0001FFFFFFC0003FFE0001FFFFFFC0
310
003FFF0003FFFFFFFFC0007FFFFFE00070008000FFFFFFC0007FFF0000007FF8
310
000003FFFF80007F0001FFFFFF8000F8000FFFFFF8000FF8000001FFFE000000
310
7FFFFFF0001FFFFFFE0001FFFFFFC0003FFE0001FFFFFFC0003FFF0003FFFFFF
310
FFC000FFFFFFE00070008000FFFFFFC0007FFF0000007FF8000003FFFF80007F
310
0001FFFFFF8000F8001FFFFFF8000FF8000001FFFE0000007FFFFFF0001FFFFF
310
FE0003FFFFFFE0003FFE0003FFFFFFE0003FFF0003FFFFFFFFC000FFFFFFE000
310
70008000FFFFFFC0007FFE0000007FF8000003FFFF80007F0001FFFFFF8000F0
310
001FFFFFF8000FF8000001FFFE0000007FFFFFF0001FFFFFFC0003FFFFFFE000
310
1FFC0003FFFFFFE0001FFF0003FFFFFFFFC000FFFFFFC00070008000FFFFFF80
310
007FFE0000007FF0000003FFFF80007F0001FFFFFF0000F0001FFFFFF8000FF8
310
000001FFFE0000007FFFFFF0001FFFFFFC0007FFFFFFF0001FFC0007FFFFFFF0
310
001FFF0003FFFFFFFFC000FFFFFFC00070008001FFFFFF0000FFFE0000003FF0
310
000001FFFF80007F0001FFFFFF0000F8001FFFFFF0000FF8000001FFFE000000
310
7FFFFFF0001FFFFFFC0007FFFFFFF0001FFC0007FFFFFFF0001FFF0003FFFFFF
310
FFC001FFFFFF80007000FFFFFFFFFE0000FFFE0008003FF0008001FFFF80007F
310
FFFFFFFFFC0000FFFFFFFFFFE0000FF8000001FFFE0000007FFFFFF0001FFFFF
310
F8000FFFFFFFF8000FF8000FFFFFFFF8000FFF0003FFFFFFFFFFFFFFFFFF0000
310
7000FFFFFFFFFC0000FFFC0008003FF0008001FFFF80007FFFFFFFFFF80001FF
310
FFFFFFFF80000FF8000001FFFE0000007FFFFFF0001FFFFFF8000FFFFFFFF800
310
0FF8000FFFFFFFF8000FFF0003FFFFFFFFFFFFFFFFFE0000F000FFFFFFFFE000
310
00FFFC000C003FE000C001FFFF80007FFFFFFFFFC00001FFFFFFFFFE00001FF8
310
000001FFFE0000007FFFFFF0001FFFFFF8000FFFFFFFF8000FF8000FFFFFFFF8
310
000FFF0003FFFFFFFFFFFFFFFFF00000F000FFFFFFFE000001FFFC000C001FE0
310
00C000FFFF80007FFFFFFFFE000001FFFFFFFFE000001FF80FFFFFFFFFFFFFC0
310
7FFFFFF0001FFFFFF8000FFFFFFFF8000FF8000FFFFFFFF8000FFF0003FFFFFF
310
FFFFFFFFFF800000F000FFFFFFC0000001FFFC001C001FE001C000FFFF80007F
310
FFFFFF80000003FFFFFFF80000001FF80FFFFFFFFFFFFFC07FFFFFF0001FFFFF
310
F8001FFFFFFFFC000FF8001FFFFFFFFC000FFF0003FFFFFFFFFFFFFFF0000001
310
F000FFFFF800000001FFF8001C001FE001C000FFFF80007FFFFFF800000003FF
310
FFFF800000003FF80FFFFFFFFFFFFFC07FFFFFF0001FFFFFF8001FFFFFFFFC00
310
0FF8001FFFFFFFFC000FFF0003FFFFFFFFFFFFFE00000001F000FFFFC0000000
310
03FFF8001E001FC001E000FFFF80007FFFFF8000000007FFFFFC000000003FF8
310
0FFFFFFFFFFFFFC07FFFFFF0001FFFFFF8001FFFFFFFFC000FF8001FFFFFFFFC
310
000FFF0003FFFFFFFFFFFFE000000003F000FFFE0000000007FFF8001E000FC0
310
01E0007FFF80007FFFFE0000000007FFFFE0000000007FF80FFFFFFFFFFFFFC0
310
7FFFFFF0001FFFFFF0001FFFFFFFFC0007F0001FFFFFFFFC0007FF0003FFFFFF
310
FFFFFF0000000003F000FFF80000000007FFF8001E000FC003E0007FFF80007F
310
FFF0000000000FFFFF8000000000FFF80FFFFFFFFFFFFFC07FFFFFF0001FFFFF
310
F0001FFFFFFFFC0007F0001FFFFFFFFC0007FF0003FFFFFFFFFFFC0000000007
310
F000FFE0000000000FFFF0003E000FC003E0007FFF80007FFFC0000000001FFF
310
FE0000000001FFF80FFFFFFFFFFFFFC07FFFFFF0001FFFFFF0001FFFFFFFFC00
310
07F0001FFFFFFFFC0007FF0003FFFFFFFFFFF0000000000FF000FFC000000000
310
1FFFF0003F000F8003F0003FFF80007FFF80000000003FFFF80000000003FFF8
310
0FFFFFFFFFFFFFC07FFFFFF0001FFFFFF0001FFFFFFFFC0007F0001FFFFFFFFC
310
0007FF0003FFFFFFFFFFE0000000001FF000FF00000000007FFFF0003F000780
310
03F0003FFF80007FFF00000000007FFFF00000000007FFF80FFFFFFFFFFFFFC0
310
7FFFFFF0001FFFFFF0001FFFFFFFFC0007F0001FFFFFFFFC0007FF0003FFFFFF
310
FFFF80000000007FF000FE0000000000FFFFE0003F00078007F0003FFF80007F
310
FE0000000001FFFFE0000000001FFFF80FFFFFFFFFFFFFC07FFFFFF0001FFFFF
310
F0001FFFFFFFFC0007F0001FFFFFFFFC0007FF0003FFFFFFFFFF0000000000FF
310
F000FC0000000003FFFFE0007F00078007F0003FFF80007FFC0000000007FFFF
310
C0000000007FFFF80FFFFFFFFFFFFFC07FFFFFF0001FFFFFF8001FFFFFFFFC00
310
0FF8001FFFFFFFFC000FFF0003FFFFFFFFFE0000000003FFF000FC000000000F
310
FFFFE0007F80070007F8001FFF80007FF8000000001FFFFF8000000001FFFFF8
310
0FFFFFFFFFFFFFC07FFFFFF0001FFFFFF8001FFFFFFFFC000FF8001FFFFFFFFC
310
000FFF0003FFFFFFFFFC000000000FFFF000F8000000007FFFFFE0007F800700
310
07F8001FFF80007FF000000000FFFFFF800000000FFFFFF80FFFFFFFFFFFFFC0
310
7FFFFFF0001FFFFFF8000FFFFFFFF8000FF8000FFFFFFFF8000FFF0003FFFFFF
310
FFFC000000007FFFF000F800000007FFFFFFC0007F8003000FF8001FFF80007F
310
F000000007FFFFFF000000007FFFFFF80FFFFFFFFFFFFFC07FFFFFF0001FFFFF
310
F8000FFFFFFFF8000FF8000FFFFFFFF8000FFF0003FFFFFFFFF80000000FFFFF
310
F000F0000000FFFFFFFFC000FF8003000FF8001FFF80007FE0000000FFFFFFFF
310
0000000FFFFFFFF8000001FFFE0000007FFFFFF0001FFFFFF8000FFFFFFFF800
310
0FF8000FFFFFFFF8000FFF0003FFFFFFFFF8000000FFFFFFF000F000000FFFFF
310
FFFFC000FFC002000FF8000FFF80007FE000001FFFFFFFFE000001FFFFFFFFF8
310
000001FFFE0000007FFFFFF0001FFFFFF8000FFFFFFFF8000FF8000FFFFFFFF8
310
000FFF0003FFFFFFFFF000001FFFFFFFF000E00000FFFFFFFFFFC000FFC00200
310
0FFC000FFF80007FE00001FFFFFFFFFE00001FFFFFFFFFF8000001FFFE000000
310
7FFFFFF0001FFFFFFC000FFFFFFFF8001FFC000FFFFFFFF8001FFF0003FFFFFF
310
FFF00001FFFFFFFFF000E00007FFFFFFFFFF8000FFC000001FFC000FFF80007F
310
C0000FFFFFFFFFFE0000FFFFFFFFFFF8000001FFFE0000007FFFFFF0001FFFFF
310
FC0007FFFFFFF0001FFC0007FFFFFFF0001FFF0003FFFFFFFFF00007FFFFFFFF
310
F000E0001FFFFFFFFFFF8000FFC000001FFC000FFF80007FC0003FFFFFFFFFFE
310
0001FFFFFFFFFFF8000001FFFE0000007FFFFFF0001FFFFFFC0007FFFFFFF000
310
1FFC0007FFFFFFF0001FFF0003FFFFFFFFF0001FFFFFFFFFF000E0003FFFFF00
310
03FF8001FFE000001FFC0007FF80007FC0007FFFFF0007FC0003FFFFF0003FF8
310
000001FFFE0000007FFFFFF0001FFFFFFC0003FFFFFFE0001FFC0003FFFFFFE0
310
001FFF0003FFFFFFFFF0003FFFFFFFFFF000E0003FFFFF0001FF8001FFE00000
310
1FFE0007FF80007FC0007FFFFE0003FC0007FFFFE0003FF8000001FFFE000000
310
7FFFFFF0001FFFFFFE0003FFFFFFE0003FFE0003FFFFFFE0003FFF0003FFFFFF
310
FFF0003FFFFF8001F000E0003FFFFF0001FF0001FFE000001FFE0007FF80007F
310
C0007FFFFE0003FC0007FFFFE0003FF8000001FFFE0000007FFFFFF0001FFFFF
310
FE0001FFFFFFC0003FFE0001FFFFFFC0003FFF0003FFFFFFFFF0003FFFFF0001
310
F000E0003FFFFF0003FF0001FFE000003FFE0007FF80007FC0007FFFFE0003FC
310
0007FFFFE0003FF8000001FFFE0000007FFFFFF0001FFFFFFF0001FFFFFFC000
310
7FFF0001FFFFFFC0007FFF0003FFFFFFFFF0003FFFFF0001F000E0003FFFFE00
310
03FF0003FFF000003FFE0003FF80007FC0007FFFFC0003FE0007FFFFE0003FF8
310
000001FFFE0000007FFFFFF0001FFFFFFF0000FFFFFF80007FFF0000FFFFFF80
310
007FFF0003FFFFFFFFF0003FFFFF0001F000E0003FFFFE0003FF0003FFF00000
310
3FFF0003FF80007FC0007FFFFC0007FE0007FFFFC0003FF8000001FFFE000000
310
7FFFFFF0001FFFFFFF80007FFFFF0000FFFF80007FFFFF0000FFFF0003FFFFFF
310
FFF0003FFFFF0003F000E0003FFFFC0003FE0003FFF000003FFF0003FF80007F
310
E0003FFFF80007FE0003FFFFC0007FF8000001FFFE0000007FFFFFF0001FFFFF
310
FF80003FFFFE0000FFFF80003FFFFE0000FFFF0003FFFFFFFFF0001FFFFE0003
310
F000F0001FFFF80003FE0003FFF000007FFF0001FF80007FE0003FFFF00007FE
310
0001FFFF80007FF8000001FFFE0000007FFFFFF0001FFFFFFFC0000FFFF80001
310
FFFFC0000FFFF80001FFFF0003FFFFFFFFF0001FFFFC0003F000F0000FFFF000
310
07FE0007FFF800007FFF0001FF80007FE0001FFFE00007FF0000FFFE00007FF8
310
000001FFFE0000007FFFFFF0001FFFFFFFC00003FFE00001FFFFC00003FFE000
310
01FFFF0003FFFFFFFFF8000FFFF80003F000F00003FFC00007FC0007FFF80000
310
7FFF8001FF80007FF00007FF80000FFF00007FF80000FFF8000001FFFE000000
310
7F80000000000001FFE000003E000003FFFFE000003E000003FFFF0003FFFFFF
310
FFF80003FFE00007F000F800000000000FFC0007FFF800007FFF8001FF80007F
310
F000000000000FFF000000000000FFF8000001FFFE0000007F80000000000001
310
FFF0000000000007FFFFF0000000000007FFFF0003FFFFFFFFFC00007E000007
310
F000F800000000000FFC0007FFF80000FFFF8000FF80007FF800000000001FFF
310
800000000001FFF8000001FFFE0000007F80000000000001FFF800000000000F
310
FFFFF800000000000FFFFF0003FFFFFFFFFC00000000000FF000FC0000000000
310
1FFC0007FFFC0000FFFF8000FF80007FF800000000003FFFC00000000001FFF8
310
000001FFFE0000007F80000000000001FFF800000000000FFFFFF80000000000
310
0FFFFF0003FFFFFFFFFE00000000001FF000FE00000000003FF8000FFFFC0000
310
FFFF8000FF80007FFC00000000003FFFC00000000003FFF8000001FFFE000000
310
7F80000000000001FFFC00000000001FFFFFFC00000000001FFFFF0003FFFFFF
310
FFFF00000000001FF000FF00000000003FF8000FFFFC0000FFFFC000FF80007F
310
FE00000000007FFFE00000000007FFF8000001FFFE0000007F80000000000001
310
FFFE00000000003FFFFFFE00000000003FFFFF0003FFFFFFFFFF80000000003F
310
F000FF80000000007FF8000FFFFC0001FFFFC0007F80007FFF0000000000FFFF
310
F0000000000FFFF800000000000000007F80000000000001FFFF8000000000FF
310
FFFFFF8000000000FFFFFF0003FFFFFFFFFFC0000000007FF000FFC000000000
310
FFF8000FFFFE0001FFFFC0007F80007FFF8000000001FFFFF8000000001FFFF8
310
00000000000000007F80000000000001FFFFC000000001FFFFFFFFC000000001
310
FFFFFF0003FFFFFFFFFFE000000000FFF000FFE000000003FFF0001FFFFE0001
310
FFFFC0007F80007FFFC000000007FFFFFE000000003FFFF80000000000000000
310
7F80000000000001FFFFE000000003FFFFFFFFE000000003FFFFFF0003FFFFFF
310
FFFFF000000003FFF000FFF80000000FFFF0001FFFFE0001FFFFE0007F80007F
310
FFF00000000FFFFFFF00000000FFFFF800000000000000007F80000000000001
310
FFFFF80000000FFFFFFFFFF80000000FFFFFFF0003FFFFFFFFFFFC0000000FFF
310
F000FFFE0000003FFFF0001FFFFE0003FFFFE0003F80007FFFFC0000003FFFFF
310
FFC0000003FFFFF800000000000000007F80000000000001FFFFFE0000003FFF
310
FFFFFFFE0000003FFFFFFF0003FFFFFFFFFFFF0000003FFFF000FFFF800000FF
310
FFF0001FFFFF0003FFFFE0003F80007FFFFF000001FFFFFFFFF800001FFFFFF8
310
00000000000000007F80000000000001FFFFFFC00001FFFFFFFFFFFFC00001FF
310
FFFFFF0003FFFFFFFFFFFFC00000FFFFF000FFFFF8000FFFFFFFFFFFFFFFFFFF
310
FFFFFFFFFFFFFFFFFFFFF0001FFFFFFFFFFF0000FFFFFFF80000000000000000
310
7FFFFFFFFFFFFFFFFFFFFFFC001FFFFFFFFFFFFFFC001FFFFFFFFFFFFFFFFFFF
310
FFFFFFFC001FFFFFF000FFFFFFFFFFFFFFFFFFFFFFFFFFFFFFFFFFFFFFFFFFFF
310
FFFFFFFFFFFFFFFFFFFFFFFFFFFFFFFFFFFFFFFFFFFFFFFFFFFFFFFFFFFFFFFF
310
FFFFFFFFFFFFFFFFFFFFFFFFFFFFFFFFFFFFFFFFFFFFFFFFFFFFFFFFFFFFFFFF
310
F000FFFFFFFFFFFFFFFFFFFFFFFFFFFFFFFFFFFFFFFFFFFFFFFFFFFFFFFFFFFF
310
FFFFFFFFFFFFFFFFFFFFFFFFFFFFFFFFFFFFFFFFFFFFFFFFFFFFFFFFFFFFFFFF
310
FFFFFFFFFFFFFFFFFFFFFFFFFFFFFFFFFFFFFFFFFFFFFFFFF000FFFFFFFFFFFF
310
FFFFFFFFFFFFFFFFFFFFFFFFFFFFFFFFFFFFFFFFFFFFFFFFFFFFFFFFFFFFFFFF
310
FFFFFFFFFFFFFFFFFFFFFFFFFFFFFFFFFFFFFFFFFFFFFFFFFFFFFFFFFFFFFFFF
310
FFFFFFFFFFFFFFFFFFFFFFFFFFFFFFFFF000FFFFFFFFFFFFFFFFFFFFFFFFFFFF
310
FFFFFFFFFFFFFFFFFFFFFFFFFFFFFFFFFFFFFFFFFFFFFFFFFFFFFFFFFFFFFFFF
310
FFFFFFFFFFFFFFFFFFFFFFFFFFFFFFFFFFFFFFFFFFFFFFFFFFFFFFFFFFFFFFFF
310
FFFFFFFFFFFFFFFFF000FFFFFFFFFFFFFFFFFFFFFFFFFFFFFFFFFFFFFFFFFFFF
310
FFFFFFFFFFFFFFFFFFFFFFFFFFFFFFFFFFFFFFFFFFFFFFFFFFFFFFFFFFFFFFFF
310
FFFFFFFFFFFFFFFFFFFFFFFFFFFFFFFFFFFFFFFFFFFFFFFFFFFFFFFFFFFFFFFF
310
F000FFFFFFFFFFFFFFFFFFFFFFFFFFFFFFFFFFFFFFFFFFFFFFFFFFFFFFFFFFFF
310
FFFFFFFFFFFFFFFFFFFFFFFFFFFFFFFFFFFFFFFFFFFFFFFFFFFFFFFFFFFFFFFF
310
FFFFFFFFFFFFFFFFFFFFFFFFFFFFFFFFFFFFFFFFFFFFFFFFF000FFFFFFFFFFFF
310
FFFFFFFFFFFFFFFFFFFFFFFFFFFFFFFFFFFFFFFFFFFFFFFFFFFFFFFFFFFFFFFF
310
FFFFFFFFFFFFFFFFFFFFFFFFFFFFFFFFFFFFFFFFFFFFFFFFFFFFFFFFFFFFFFFF
310
FFFFFFFFFFFFFFFFFFFFFFFFFFFFFFFFF000FFFFFFFFFFFFFFFFFFFFFFFFFFFF
310
FFFFFFFFFFFFFFFFFFFFFFFFFFFFFFFFFFFFFFFFFFFFFFFFFFFFFFFFFFFFFFFF
310
FFFFFFFFFFFFFFFFFFFFFFFFFFFFFFFFFFFFFFFFFFFFFFFFFFFFFFFFFFFFFFFF
310
FFFFFFFFFFFFFFFFF000FFFFFFFFFFFFFFFFFFFFFFFFFFFFFFFFFFFFFFFFFFFF
310
FFFFFFFFFFFFFFFFFFFFFFFFFFFFFFFFFFFFFFFFFFFFFFFFFFFFFFFFFFFFFFFF
310
FFFFFFFFFFFFFFFFFFFFFFFFFFFFFFFFFFFFFFFFFFFFFFFFFFFFFFFFFFFFFFFF
310
F000FFFFFFFFFFFFFFFFFFFFFFFFFFFFFFFFFFFFFFFFFFFFFFFFFFFFFFFFFFFF
310
FFFFFFFFFFFFFFFFFFFFFFFFFFFFFFFFFFFFFFFFFFFFFFFFFFFFFFFFFFFFFFFF
310
FFFFFFFFFFFFFFFFFFFFFFFFFFFFFFFFFFFFFFFFFFFFFFFFF000FFFFFFFFFFFF
310
FFFFFFFFFFFFFFFFFFFFFFFFFFFFFFFFFFFFFFFFFFFFFFFFFFFFFFFFFFFFFFFF
310
FFFFFFFFFFFFFFFFFFFFFFFFFFFFFFFFFFFFFFFFFFFFFFFFFFFFFFFFFFFFFFFF
310
FFFFFFFFFFFFFFFFFFFFFFFFFFFFFFFFF000FFFFFFFFFFFFFFFFFFFFFFFFFFFF
310
FFFFFFFFFFFFFFFFFFFFFFFFFFFFFFFFFFFFFFFFFFFFFFFFFFFFFFFFFFFFFFFF
310
FFFFFFFFFFFFFFFFFFFFFFFFFFFFFFFFFFFFFFFFFFFFFFFFFFFFFFFFFFFFFFFF
310
FFFFFFFFFFFFFFFFF000FFFFFFFFFFFFFFFFFFFFFFFFFFFFFFFFFFFFFFFFFFFF
310
FFFFFFFFFFFFFFFFFFFFFFFFFFFFFFFFFFFFFFFFFFFFFFFFFFFFFFFFFFFFFFFF
310
FFFFFFFFFFFFFFFFFFFFFFFFFFFFFFFFFFFFFFFFFFFFFFFFFFFFFFFFFFFFFFFF
310
F000FFFFFFFFFFFFFFFFFFFFFFFFFFFFFFFFFFFFFFFFFFFFFFFFFFFFFFFFFFFF
310
FFFFFFFFFFFFFFFFFFFFFFFFFFFFFFFFFFFFFFFFFFFFFFFFFFFFFFFFFFFFFFFF
310
FFFFFFFFFFFFFFFFFFFFFFFFFFFFFFFFFFFFFFFFFFFFFFFFF000FFFFFFFFFFFF
310
FFFFFFFFFFFFFFFFFFFFFFFFFFFFFFFFFFFFFFFFFFFFFFFFFFFFFFFFFFFFFFFF
310
FFFFFFFFFFFFFFFFFFFFFFFFFFFFFFFFFFFFFFFFFFFFFFFFFFFFFFFFFFFFFFFF
310
FFFFFFFFFFFFFFFFFFFFFFFFFFFFFFFFF000FFFFFFFFFFFFFFFFFFFFFFFFFFFF
310
FFFFFFFFFFFFFFFFFFFFFFFFFFFFFFFFFFFFFFFFFFFFFFFFFFFFFFFFFFFFFFFF
310
FFFFFFFFFFFFFFFFFFFFFFFFFFFFFFFFFFFFFFFFFFFFFFFFFFFFFFFFFFFFFFFF
310
FFFFFFFFFFFFFFFFF000FFFFFFFFFFFFFFFFFFFFFFFFFFFFFFFFFFFFFFFFFFFF
310
FFFFFFFFFFFFFFFFFFFFFFFFFFFFFFFFFFFFFFFFFFFFFFFFFFFFFFFFFFFFFFFF
310
FFFFFFFFFFFFFFFFFFFFFFFFFFFFFFFFFFFFFFFFFFFFFFFFFFFFFFFFFFFFFFFF
310
F000FFFFFFFFFFFFFFFFFFFFFFFFFFFFFFFFFFFFFFFFFFFFFFFFFFFFFFFFFFFF
310
FFFFFFFFFFFFFFFFFFFFFFFFFFFFFFFFFFFFFFFFFFFFFFFFFFFFFFFFFFFFFFFF
310
FFFFFFFFFFFFFFFFFFFFFFFFFFFFFFFFFFFFFFFFFFFFFFFFF000FFFFFFFFFFFF
310
FFFFFFFFFFFFFFFFFFFFFFFFFFFFFFFFFFFFFFFFFFFFFFFFFFFFFFFFFFFFFFFF
310
FFFFFFFFFFFFFFFFFFFFFFFFFFFFFFFFFFFFFFFFFFFFFFFFFFFFFFFFFFFFFFFF
310
FFFFFFFFFFFFFFFFFFFFFFFFFFFFFFFFF000FFFFFFFFFFFFFFFFFFFFFFFFFFFF
310
FFFFFFFFFFFFFFFFFFFFFFFFFFFFFFFFFFFFFFFFFFFFFFFFFFFFFFFFFFFFFFFF
310
FFFFFFFFFFFFFFFFFFFFFFFFFFFFFFFFFFFFFFFFFFFFFFFFFFFFFFFFFFFFFFFF
310
FFFFFFFFFFFFFFFFF000FFFFFFFFFFFFFFFFFFFFFFFFFFFFFFFFFFFFFFFFFFFF
310
FFFFFFFFFFFFFFFFFFFFFFFFFFFFFFFFFFFFFFFFFFFFFFFFFFFFFFFFFFFFFFFF
310
FFFFFFFFFFFFFFFFFFFFFFFFFFFFFFFFFFFFFFFFFFFFFFFFFFFFFFFFFFFFFFFF
310
F000FFFFFFFFFFFFFFFFFFFFFFFFFFFFFFFFFFFFFFFFFFFFFFFFFFFFFFFFFFFF
310
FFFFFFFFFFFFFFFFFFFFFFFFFFFFFFFFFFFFFFFFFFFFFFFFFFFFFFFFFFFFFFFF
310
FFFFFFFFFFFFFFFFFFFFFFFFFFFFFFFFFFFFFFFFFFFFFFFFF000FFFFFFFFFFFF
310
FFFFFFFFFFFFFFFFFFFFFFFFFFFFFFFFFFFFFFFFFFFFFFFFFFFFFFFFFFFFFFFF
310
FFFFFFFFFFFFFFFFFFFFFFFFFFFFFFFFFFFFFFFFFFFFFFFFFFFFFFFFFFFFFFFF
310
FFFFFFFFFFFFFFFFFFFFFFFFFFFFFFFFF0000000000000000000000000000000
310
0000000000000000000000000000000000000000000000000000000000000000
310
0000000000000000000000000000000000000000000000000000000000000000
310
0000000000000000000000000000000000000000000000000000000000000000
310
0000000000000000000000000000000000000000000000000000000000000000
310
0000000000000000000000000000000000000000000000000000000000000000
310
0000000000000000000000000000000000000000000000000000000000000000
310
0000000000000000000000000000000000000000000000000000000000000000
310
0000000000000000000000000000000000000000000000000000000000000000
310
0000000000000000000000000000000000000000000000000000000000000000
310
0000000000000000000000000000000000000000000000000000000000000000
310
0000000000000000000000000000000000000000000000000000000000000000
310
0000000000000000000000000000000000000000000000000000000000000000
310
0000000000000000000000000000000000000000000000000000000000000000
310
0000000000000000000000000000000000000000000000000000000000000000
310
0000000000000000000000000000000000000000000000000000000000000000
  1
OLE
  0
ENDSEC
  0
SECTION
  2
OBJECTS
  0
DICTIONARY
  5
C
330
0
100
AcDbDictionary
281
     1
  3
ACAD_GROUP
350
D
  3
ACAD_LAYOUT
350
1A
  3
ACAD_MLINESTYLE
350
17
  3
ACAD_PLOTSETTINGS
350
19
  3
ACAD_PLOTSTYLENAME
350
E
  3
ACAD_SCALELIST
350
47
  0
DICTIONARY
  5
D
102
{ACAD_REACTORS
330
C
102
}
330
C
100
AcDbDictionary
281
     1
  0
DICTIONARY
  5
1A
102
{ACAD_REACTORS
330
C
102
}
330
C
100
AcDbDictionary
281
     1
  3
Layout1
350
1E
  3
Layout2
350
26
  3
Model
350
22
  0
DICTIONARY
  5
17
102
{ACAD_REACTORS
330
C
102
}
330
C
100
AcDbDictionary
281
     1
  3
Standard
350
18
  0
DICTIONARY
  5
19
102
{ACAD_REACTORS
330
C
102
}
330
C
100
AcDbDictionary
281
     1
  0
ACDBDICTIONARYWDFLT
  5
E
102
{ACAD_REACTORS
330
C
102
}
330
C
100
AcDbDictionary
281
     1
  3
Normal
350
F
100
AcDbDictionaryWithDefault
340
F
  0
DICTIONARY
  5
47
102
{ACAD_REACTORS
330
C
102
}
330
C
100
AcDbDictionary
281
     1
  3
A0
350
48
  3
A1
350
49
  3
A2
350
4A
  3
A3
350
4B
  3
A4
350
4C
  3
A5
350
4D
  3
A6
350
4E
  3
A7
350
4F
  3
A8
350
50
  3
A9
350
51
  3
B0
350
52
  3
B1
350
53
  3
B2
350
54
  3
B3
350
55
  3
B4
350
56
  3
B5
350
57
  3
B6
350
58
  3
B7
350
59
  3
B8
350
5A
  3
B9
350
5B
  3
C0
350
5C
  3
C1
350
5D
  3
C2
350
5E
  3
C3
350
5F
  3
C4
350
60
  3
C5
350
61
  3
C6
350
62
  3
C7
350
63
  3
C8
350
64
  3
C9
350
65
  3
D0
350
66
  3
D1
350
67
  3
D2
350
68
  0
LAYOUT
  5
1E
102
{ACAD_REACTORS
330
1A
102
}
330
1A
100
AcDbPlotSettings
  1

  2
none_device
  4

  6

 40
0.0
 41
0.0
 42
0.0
 43
0.0
 44
0.0
 45
0.0
 46
0.0
 47
0.0
 48
0.0
 49
0.0
140
0.0
141
0.0
142
1.0
143
1.0
 70
   688
 72
     1
 73
     0
 74
     5
  7

 75
    16
147
1.0
148
0.0
149
0.0
100
AcDbLayout
  1
Layout1
 70
     1
 71
     1
 10
0.0
 20
0.0
 11
420.0
 21
297.0
 12
0.0
 22
0.0
 32
0.0
 14
1.0000000000E+20
 24
1.0000000000E+20
 34
1.0000000000E+20
 15
-1.0000000000E+20
 25
-1.0000000000E+20
 35
-1.0000000000E+20
146
0.0
 13
0.0
 23
0.0
 33
0.0
 16
1.0
 26
0.0
 36
0.0
 17
0.0
 27
1.0
 37
0.0
 76
     0
330
1B
  0
LAYOUT
  5
26
102
{ACAD_REACTORS
330
1A
102
}
330
1A
100
AcDbPlotSettings
  1

  2
none_device
  4

  6

 40
0.0
 41
0.0
 42
0.0
 43
0.0
 44
0.0
 45
0.0
 46
0.0
 47
0.0
 48
0.0
 49
0.0
140
0.0
141
0.0
142
1.0
143
1.0
 70
   688
 72
     1
 73
     0
 74
     5
  7

 75
    16
147
1.0
148
0.0
149
0.0
100
AcDbLayout
  1
Layout2
 70
     1
 71
     2
 10
0.0
 20
0.0
 11
0.0
 21
0.0
 12
0.0
 22
0.0
 32
0.0
 14
0.0
 24
0.0
 34
0.0
 15
0.0
 25
0.0
 35
0.0
146
0.0
 13
0.0
 23
0.0
 33
0.0
 16
1.0
 26
0.0
 36
0.0
 17
0.0
 27
1.0
 37
0.0
 76
     0
330
23
  0
LAYOUT
  5
22
102
{ACAD_REACTORS
330
1A
102
}
330
1A
100
AcDbPlotSettings
  1

  2
none_device
  4
Letter_(8.50_x_11.00_Inches)
  6

 40
6.35
 41
6.35
 42
6.35000508
 43
6.35000508
 44
215.9
 45
279.4
 46
0.0
 47
0.0
 48
0.0
 49
0.0
140
0.0
141
0.0
142
1.0
143
1.0
 70
  1712
 72
     1
 73
     0
 74
     0
  7

 75
     0
147
1.0
148
0.0
149
0.0
100
AcDbLayout
  1
Model
 70
     1
 71
     0
 10
0.0
 20
0.0
 11
297.0
 21
210.0
 12
0.0
 22
0.0
 32
0.0
 14
0.0
 24
0.0
 34
0.0
 15
297.0
 25
210.0
 35
0.0
146
0.0
 13
0.0
 23
0.0
 33
0.0
 16
1.0
 26
0.0
 36
0.0
 17
0.0
 27
1.0
 37
0.0
 76
     0
330
1F
331
29
  0
MLINESTYLE
  5
18
102
{ACAD_REACTORS
330
17
102
}
330
17
100
AcDbMlineStyle
  2
Standard
 70
     0
  3

 62
   256
 51
90.0
 52
90.0
 71
     2
 49
0.5
 62
   256
  6
BYLAYER
 49
-0.5
 62
   256
  6
BYLAYER
  0
ACDBPLACEHOLDER
  5
F
102
{ACAD_REACTORS
330
E
102
}
330
E
  0
SCALE
  5
48
102
{ACAD_REACTORS
330
47
102
}
330
47
100
AcDbScale
 70
     0
300
1:1
140
1.0
141
1.0
290
     1
  0
SCALE
  5
49
102
{ACAD_REACTORS
330
47
102
}
330
47
100
AcDbScale
 70
     0
300
1:2
140
1.0
141
2.0
290
     0
  0
SCALE
  5
4A
102
{ACAD_REACTORS
330
47
102
}
330
47
100
AcDbScale
 70
     0
300
1:4
140
1.0
141
4.0
290
     0
  0
SCALE
  5
4B
102
{ACAD_REACTORS
330
47
102
}
330
47
100
AcDbScale
 70
     0
300
1:5
140
1.0
141
5.0
290
     0
  0
SCALE
  5
4C
102
{ACAD_REACTORS
330
47
102
}
330
47
100
AcDbScale
 70
     0
300
1:8
140
1.0
141
8.0
290
     0
  0
SCALE
  5
4D
102
{ACAD_REACTORS
330
47
102
}
330
47
100
AcDbScale
 70
     0
300
1:10
140
1.0
141
10.0
290
     0
  0
SCALE
  5
4E
102
{ACAD_REACTORS
330
47
102
}
330
47
100
AcDbScale
 70
     0
300
1:16
140
1.0
141
16.0
290
     0
  0
SCALE
  5
4F
102
{ACAD_REACTORS
330
47
102
}
330
47
100
AcDbScale
 70
     0
300
1:20
140
1.0
141
20.0
290
     0
  0
SCALE
  5
50
102
{ACAD_REACTORS
330
47
102
}
330
47
100
AcDbScale
 70
     0
300
1:30
140
1.0
141
30.0
290
     0
  0
SCALE
  5
51
102
{ACAD_REACTORS
330
47
102
}
330
47
100
AcDbScale
 70
     0
300
1:40
140
1.0
141
40.0
290
     0
  0
SCALE
  5
52
102
{ACAD_REACTORS
330
47
102
}
330
47
100
AcDbScale
 70
     0
300
1:50
140
1.0
141
50.0
290
     0
  0
SCALE
  5
53
102
{ACAD_REACTORS
330
47
102
}
330
47
100
AcDbScale
 70
     0
300
1:100
140
1.0
141
100.0
290
     0
  0
SCALE
  5
54
102
{ACAD_REACTORS
330
47
102
}
330
47
100
AcDbScale
 70
     0
300
2:1
140
2.0
141
1.0
290
     0
  0
SCALE
  5
55
102
{ACAD_REACTORS
330
47
102
}
330
47
100
AcDbScale
 70
     0
300
4:1
140
4.0
141
1.0
290
     0
  0
SCALE
  5
56
102
{ACAD_REACTORS
330
47
102
}
330
47
100
AcDbScale
 70
     0
300
8:1
140
8.0
141
1.0
290
     0
  0
SCALE
  5
57
102
{ACAD_REACTORS
330
47
102
}
330
47
100
AcDbScale
 70
     0
300
10:1
140
10.0
141
1.0
290
     0
  0
SCALE
  5
58
102
{ACAD_REACTORS
330
47
102
}
330
47
100
AcDbScale
 70
     0
300
100:1
140
100.0
141
1.0
290
     0
  0
SCALE
  5
59
102
{ACAD_REACTORS
330
47
102
}
330
47
100
AcDbScale
 70
     0
300
1/128" = 1'-0"
140
0.0078125
141
12.0
290
     0
  0
SCALE
  5
5A
102
{ACAD_REACTORS
330
47
102
}
330
47
100
AcDbScale
 70
     0
300
1/64" = 1'-0"
140
0.015625
141
12.0
290
     0
  0
SCALE
  5
5B
102
{ACAD_REACTORS
330
47
102
}
330
47
100
AcDbScale
 70
     0
300
1/32" = 1'-0"
140
0.03125
141
12.0
290
     0
  0
SCALE
  5
5C
102
{ACAD_REACTORS
330
47
102
}
330
47
100
AcDbScale
 70
     0
300
1/16" = 1'-0"
140
0.0625
141
12.0
290
     0
  0
SCALE
  5
5D
102
{ACAD_REACTORS
330
47
102
}
330
47
100
AcDbScale
 70
     0
300
3/32" = 1'-0"
140
0.09375
141
12.0
290
     0
  0
SCALE
  5
5E
102
{ACAD_REACTORS
330
47
102
}
330
47
100
AcDbScale
 70
     0
300
1/8" = 1'-0"
140
0.125
141
12.0
290
     0
  0
SCALE
  5
5F
102
{ACAD_REACTORS
330
47
102
}
330
47
100
AcDbScale
 70
     0
300
3/16" = 1'-0"
140
0.1875
141
12.0
290
     0
  0
SCALE
  5
60
102
{ACAD_REACTORS
330
47
102
}
330
47
100
AcDbScale
 70
     0
300
1/4" = 1'-0"
140
0.25
141
12.0
290
     0
  0
SCALE
  5
61
102
{ACAD_REACTORS
330
47
102
}
330
47
100
AcDbScale
 70
     0
300
3/8" = 1'-0"
140
0.375
141
12.0
290
     0
  0
SCALE
  5
62
102
{ACAD_REACTORS
330
47
102
}
330
47
100
AcDbScale
 70
     0
300
1/2" = 1'-0"
140
0.5
141
12.0
290
     0
  0
SCALE
  5
63
102
{ACAD_REACTORS
330
47
102
}
330
47
100
AcDbScale
 70
     0
300
3/4" = 1'-0"
140
0.75
141
12.0
290
     0
  0
SCALE
  5
64
102
{ACAD_REACTORS
330
47
102
}
330
47
100
AcDbScale
 70
     0
300
1" = 1'-0"
140
1.0
141
12.0
290
     0
  0
SCALE
  5
65
102
{ACAD_REACTORS
330
47
102
}
330
47
100
AcDbScale
 70
     0
300
1-1/2" = 1'-0"
140
1.5
141
12.0
290
     0
  0
SCALE
  5
66
102
{ACAD_REACTORS
330
47
102
}
330
47
100
AcDbScale
 70
     0
300
3" = 1'-0"
140
3.0
141
12.0
290
     0
  0
SCALE
  5
67
102
{ACAD_REACTORS
330
47
102
}
330
47
100
AcDbScale
 70
     0
300
6" = 1'-0"
140
6.0
141
12.0
290
     0
  0
SCALE
  5
68
102
{ACAD_REACTORS
330
47
102
}
330
47
100
AcDbScale
 70
     0
300
1'-0" = 1'-0"
140
12.0
141
12.0
290
     0
  0
ENDSEC
  0
EOF
