  0
SECTION
  2
HEADER
  9
$ACADVER
  1
AC1015
  9
$ACADMAINTVER
 70
     6
  9
$DWGCODEPAGE
  3
ANSI_1252
  9
$INSBASE
 10
0.0
 20
0.0
 30
0.0
  9
$EXTMIN
 10
0.0
 20
0.0
 30
0.0
  9
$EXTMAX
 10
297.0
 20
210.0
 30
0.0
  9
$LIMMIN
 10
0.0
 20
0.0
  9
$LIMMAX
 10
297.0
 20
210.0
  9
$ORTHOMODE
 70
     0
  9
$REGENMODE
 70
     1
  9
$FILLMODE
 70
     1
  9
$QTEXTMODE
 70
     0
  9
$MIRRTEXT
 70
     1
  9
$LTSCALE
 40
1.0
  9
$ATTMODE
 70
     1
  9
$TEXTSIZE
 40
2.0
  9
$TRACEWID
 40
1.0
  9
$TEXTSTYLE
  7
Standard
  9
$CLAYER
  8
0
  9
$CELTYPE
  6
ByLayer
  9
$CECOLOR
 62
   256
  9
$CELTSCALE
 40
1.0
  9
$DISPSILH
 70
     0
  9
$DIMSCALE
 40
1.0
  9
$DIMASZ
 40
3.0
  9
$DIMEXO
 40
0.0
  9
$DIMDLI
 40
3.75
  9
$DIMRND
 40
0.0
  9
$DIMDLE
 40
0.0
  9
$DIMEXE
 40
1.0
  9
$DIMTP
 40
0.0
  9
$DIMTM
 40
0.0
  9
$DIMTXT
 40
2.0
  9
$DIMCEN
 40
2.5
  9
$DIMTSZ
 40
0.0
  9
$DIMTOL
 70
     0
  9
$DIMLIM
 70
     0
  9
$DIMTIH
 70
     1
  9
$DIMTOH
 70
     1
  9
$DIMSE1
 70
     0
  9
$DIMSE2
 70
     0
  9
$DIMTAD
 70
     1
  9
$DIMZIN
 70
     0
  9
$DIMBLK
  1

  9
$DIMASO
 70
     1
  9
$DIMSHO
 70
     1
  9
$DIMPOST
  1

  9
$DIMAPOST
  1

  9
$DIMALT
 70
     0
  9
$DIMALTD
 70
     3
  9
$DIMALTF
 40
0.0393700787
  9
$DIMLFAC
 40
2.0
  9
$DIMTOFL
 70
     1
  9
$DIMTVP
 40
0.0
  9
$DIMTIX
 70
     0
  9
$DIMSOXD
 70
     0
  9
$DIMSAH
 70
     0
  9
$DIMBLK1
  1

  9
$DIMBLK2
  1

  9
$DIMSTYLE
  2
ISO-25
  9
$DIMCLRD
 70
     0
  9
$DIMCLRE
 70
     0
  9
$DIMCLRT
 70
     0
  9
$DIMTFAC
 40
1.0
  9
$DIMGAP
 40
1.524
  9
$DIMJUST
 70
     0
  9
$DIMSD1
 70
     0
  9
$DIMSD2
 70
     0
  9
$DIMTOLJ
 70
     0
  9
$DIMTZIN
 70
     0
  9
$DIMALTZ
 70
     0
  9
$DIMALTTZ
 70
     0
  9
$DIMUPT
 70
     0
  9
$DIMDEC
 70
     2
  9
$DIMTDEC
 70
     3
  9
$DIMALTU
 70
     2
  9
$DIMALTTD
 70
     3
  9
$DIMTXSTY
  7
Standard
  9
$DIMAUNIT
 70
     0
  9
$DIMADEC
 70
     2
  9
$DIMALTRND
 40
0.0
  9
$DIMAZIN
 70
     0
  9
$DIMDSEP
 70
    44
  9
$DIMATFIT
 70
     3
  9
$DIMFRAC
 70
     0
  9
$DIMLDRBLK
  1

  9
$DIMLUNIT
 70
     2
  9
$DIMLWD
 70
    -2
  9
$DIMLWE
 70
    -2
  9
$DIMTMOVE
 70
     0
  9
$LUNITS
 70
     2
  9
$LUPREC
 70
     2
  9
$SKETCHINC
 40
1.0
  9
$FILLETRAD
 40
10.0
  9
$AUNITS
 70
     0
  9
$AUPREC
 70
     2
  9
$MENU
  1
.
  9
$ELEVATION
 40
0.0
  9
$PELEVATION
 40
0.0
  9
$THICKNESS
 40
0.0
  9
$LIMCHECK
 70
     0
  9
$CHAMFERA
 40
0.0
  9
$CHAMFERB
 40
0.0
  9
$CHAMFERC
 40
0.0
  9
$CHAMFERD
 40
0.0
  9
$SKPOLY
 70
     0
  9
$TDCREATE
 40
2458166.645258322
  9
$TDUCREATE
 40
2458166.603591655
  9
$TDUPDATE
 40
2458166.645260301
  9
$TDUUPDATE
 40
2458166.603593634
  9
$TDINDWG
 40
0.0000000116
  9
$TDUSRTIMER
 40
0.0000000116
  9
$USRTIMER
 70
     1
  9
$ANGBASE
 50
0.0
  9
$ANGDIR
 70
     0
  9
$PDMODE
 70
     0
  9
$PDSIZE
 40
-1.0
  9
$PLINEWID
 40
0.0
  9
$SPLFRAME
 70
     0
  9
$SPLINETYPE
 70
     6
  9
$SPLINESEGS
 70
     8
  9
$HANDSEED
  5
2A5
  9
$SURFTAB1
 70
     6
  9
$SURFTAB2
 70
     6
  9
$SURFTYPE
 70
     6
  9
$SURFU
 70
     6
  9
$SURFV
 70
     6
  9
$UCSBASE
  2

  9
$UCSNAME
  2

  9
$UCSORG
 10
0.0
 20
0.0
 30
0.0
  9
$UCSXDIR
 10
1.0
 20
0.0
 30
0.0
  9
$UCSYDIR
 10
0.0
 20
1.0
 30
0.0
  9
$UCSORTHOREF
  2

  9
$UCSORTHOVIEW
 70
     0
  9
$UCSORGTOP
 10
0.0
 20
0.0
 30
0.0
  9
$UCSORGBOTTOM
 10
0.0
 20
0.0
 30
0.0
  9
$UCSORGLEFT
 10
0.0
 20
0.0
 30
0.0
  9
$UCSORGRIGHT
 10
0.0
 20
0.0
 30
0.0
  9
$UCSORGFRONT
 10
0.0
 20
0.0
 30
0.0
  9
$UCSORGBACK
 10
0.0
 20
0.0
 30
0.0
  9
$PUCSBASE
  2

  9
$PUCSNAME
  2

  9
$PUCSORG
 10
0.0
 20
0.0
 30
0.0
  9
$PUCSXDIR
 10
1.0
 20
0.0
 30
0.0
  9
$PUCSYDIR
 10
0.0
 20
1.0
 30
0.0
  9
$PUCSORTHOREF
  2

  9
$PUCSORTHOVIEW
 70
     0
  9
$PUCSORGTOP
 10
0.0
 20
0.0
 30
0.0
  9
$PUCSORGBOTTOM
 10
0.0
 20
0.0
 30
0.0
  9
$PUCSORGLEFT
 10
0.0
 20
0.0
 30
0.0
  9
$PUCSORGRIGHT
 10
0.0
 20
0.0
 30
0.0
  9
$PUCSORGFRONT
 10
0.0
 20
0.0
 30
0.0
  9
$PUCSORGBACK
 10
0.0
 20
0.0
 30
0.0
  9
$USERI1
 70
     0
  9
$USERI2
 70
     0
  9
$USERI3
 70
     0
  9
$USERI4
 70
     0
  9
$USERI5
 70
     0
  9
$USERR1
 40
0.0
  9
$USERR2
 40
0.0
  9
$USERR3
 40
0.0
  9
$USERR4
 40
0.0
  9
$USERR5
 40
0.0
  9
$WORLDVIEW
 70
     1
  9
$SHADEDGE
 70
     3
  9
$SHADEDIF
 70
    70
  9
$TILEMODE
 70
     1
  9
$MAXACTVP
 70
    64
  9
$PINSBASE
 10
0.0
 20
0.0
 30
0.0
  9
$PLIMCHECK
 70
     0
  9
$PEXTMIN
 10
1.0000000000E+20
 20
1.0000000000E+20
 30
1.0000000000E+20
  9
$PEXTMAX
 10
-1.0000000000E+20
 20
-1.0000000000E+20
 30
-1.0000000000E+20
  9
$PLIMMIN
 10
0.0
 20
0.0
  9
$PLIMMAX
 10
420.0
 20
297.0
  9
$UNITMODE
 70
     0
  9
$VISRETAIN
 70
     1
  9
$PLINEGEN
 70
     0
  9
$PSLTSCALE
 70
     1
  9
$TREEDEPTH
 70
  3020
  9
$CMLSTYLE
  2
Standard
  9
$CMLJUST
 70
     0
  9
$CMLSCALE
 40
20.0
  9
$PROXYGRAPHICS
 70
     1
  9
$MEASUREMENT
 70
     1
  9
$CELWEIGHT
370
    -1
  9
$ENDCAPS
280
     0
  9
$JOINSTYLE
280
     0
  9
$LWDISPLAY
290
     1
  9
$INSUNITS
 70
     4
  9
$HYPERLINKBASE
  1

  9
$STYLESHEET
  1

  9
$XEDIT
290
     1
  9
$CEPSNTYPE
380
     0
  9
$PSTYLEMODE
290
     1
  9
$FINGERPRINTGUID
  2
{F5123411-AED4-4224-9F6E-8445A1D77BC9}
  9
$VERSIONGUID
  2
{FAEB1C32-E019-11D5-929B-00C0DF256EC4}
  9
$EXTNAMES
290
     1
  9
$PSVPSCALE
 40
0.0
  9
$OLESTARTUP
290
     0
  0
ENDSEC
  0
SECTION
  2
CLASSES
  0
CLASS
  1
ACDBDICTIONARYWDFLT
  2
AcDbDictionaryWithDefault
  3
ObjectDBX Classes
 90
        0
280
     0
281
     0
  0
CLASS
  1
VISUALSTYLE
  2
AcDbVisualStyle
  3
ObjectDBX Classes
 90
     4095
280
     0
281
     0
  0
CLASS
  1
MATERIAL
  2
AcDbMaterial
  3
ObjectDBX Classes
 90
     1153
280
     0
281
     0
  0
CLASS
  1
SCALE
  2
AcDbScale
  3
ObjectDBX Classes
 90
     1153
280
     0
281
     0
  0
CLASS
  1
TABLESTYLE
  2
AcDbTableStyle
  3
ObjectDBX Classes
 90
     4095
280
     0
281
     0
  0
CLASS
  1
MLEADERSTYLE
  2
AcDbMLeaderStyle
  3
ACDB_MLEADERSTYLE_CLASS
 90
     4095
280
     0
281
     0
  0
CLASS
  1
SUN
  2
AcDbSun
  3
SCENEOE
 90
     1153
280
     0
281
     0
  0
CLASS
  1
ACDBPLACEHOLDER
  2
AcDbPlaceHolder
  3
ObjectDBX Classes
 90
        0
280
     0
281
     0
  0
CLASS
  1
LAYOUT
  2
AcDbLayout
  3
ObjectDBX Classes
 90
        0
280
     0
281
     0
  0
ENDSEC
  0
SECTION
  2
TABLES
  0
TABLE
  2
VPORT
  5
8
330
0
100
AcDbSymbolTable
 70
     1
  0
VPORT
  5
29
330
8
100
AcDbSymbolTableRecord
100
AcDbViewportTableRecord
  2
*Active
 70
     0
 10
0.0
 20
0.0
 11
1.0
 21
1.0
 12
148.5
 22
105.0
 13
0.0
 23
0.0
 14
10.0
 24
10.0
 15
10.0
 25
10.0
 16
0.0
 26
0.0
 36
1.0
 17
0.0
 27
0.0
 37
0.0
 40
210.0
 41
1.4142857143
 42
50.0
 43
0.0
 44
0.0
 50
0.0
 51
0.0
 71
     0
 72
  2000
 73
     1
 74
     3
 75
     0
 76
     0
 77
     0
 78
     0
281
     0
 65
     1
110
0.0
120
0.0
130
0.0
111
1.0
121
0.0
131
0.0
112
0.0
122
1.0
132
0.0
 79
     0
146
0.0
  0
ENDTAB
  0
TABLE
  2
LTYPE
  5
5
330
0
100
AcDbSymbolTable
 70
     6
  0
LTYPE
  5
14
330
5
100
AcDbSymbolTableRecord
100
AcDbLinetypeTableRecord
  2
ByBlock
 70
     0
  3

 72
    65
 73
     0
 40
0.0
  0
LTYPE
  5
15
330
5
100
AcDbSymbolTableRecord
100
AcDbLinetypeTableRecord
  2
ByLayer
 70
     0
  3

 72
    65
 73
     0
 40
0.0
  0
LTYPE
  5
16
330
5
100
AcDbSymbolTableRecord
100
AcDbLinetypeTableRecord
  2
Continuous
 70
     0
  3
Solid line
 72
    65
 73
     0
 40
0.0
  0
LTYPE
  5
6E
330
5
100
AcDbSymbolTableRecord
100
AcDbLinetypeTableRecord
  2
HIDDEN
 70
     0
  3
Hidden __ __ __ __ __ __ __ __ __ __ __ __ __ __
 72
    65
 73
     2
 40
1.905
 49
1.27
 74
     0
 49
-0.635
 74
     0
  0
LTYPE
  5
6F
330
5
100
AcDbSymbolTableRecord
100
AcDbLinetypeTableRecord
  2
PHANTOM
 70
     0
  3
Phantom ______  __  __  ______  __  __  ______
 72
    65
 73
     6
 40
12.7
 49
6.35
 74
     0
 49
-1.27
 74
     0
 49
1.27
 74
     0
 49
-1.27
 74
     0
 49
1.27
 74
     0
 49
-1.27
 74
     0
  0
LTYPE
  5
70
330
5
100
AcDbSymbolTableRecord
100
AcDbLinetypeTableRecord
  2
CENTER
 70
     0
  3
Center ____ _ ____ _ ____ _ ____ _ ____ _ ____
 72
    65
 73
     4
 40
10.16
 49
6.35
 74
     0
 49
-1.27
 74
     0
 49
1.27
 74
     0
 49
-1.27
 74
     0
  0
LTYPE
  5
71
330
5
100
AcDbSymbolTableRecord
100
AcDbLinetypeTableRecord
  2
CENTERX2
 70
     0
  3
Center (2x) ________  __  ________  __  _____
 72
    65
 73
     4
 40
20.32
 49
12.7
 74
     0
 49
-2.54
 74
     0
 49
2.54
 74
     0
 49
-2.54
 74
     0
  0
LTYPE
  5
72
330
5
100
AcDbSymbolTableRecord
100
AcDbLinetypeTableRecord
  2
DOT2
 70
     0
  3
Dot (.5x) ........................................
 72
    65
 73
     2
 40
0.635
 49
0.0
 74
     0
 49
-0.635
 74
     0
  0
ENDTAB
  0
TABLE
  2
LAYER
  5
2
330
0
100
AcDbSymbolTable
 70
     5
  0
LAYER
  5
10
330
2
100
AcDbSymbolTableRecord
100
AcDbLayerTableRecord
  2
0
 70
     0
 62
     7
  6
Continuous
370
    -3
390
F
  0
LAYER
  5
73
330
2
100
AcDbSymbolTableRecord
100
AcDbLayerTableRecord
  2
FORMAT
 70
     0
 62
     7
  6
Continuous
370
    -3
390
F
  0
LAYER
  5
74
330
2
100
AcDbSymbolTableRecord
100
AcDbLayerTableRecord
  2
VERMASSUNG
 70
     0
 62
     7
  6
Continuous
370
    -3
390
F
  0
LAYER
  5
75
330
2
100
AcDbSymbolTableRecord
100
AcDbLayerTableRecord
  2
KOPF_DÜNN
 70
     0
 62
     7
  6
Continuous
370
    -3
390
F
  0
LAYER
  5
76
330
2
100
AcDbSymbolTableRecord
100
AcDbLayerTableRecord
  2
KOPF_DICK
 70
     0
 62
     7
  6
Continuous
370
    25
390
F
  0
ENDTAB
  0
TABLE
  2
STYLE
  5
3
330
0
100
AcDbSymbolTable
 70
     3
  0
STYLE
  5
11
330
3
100
AcDbSymbolTableRecord
100
AcDbTextStyleTableRecord
  2
Standard
 70
     0
 40
0.0
 41
1.0
 50
0.0
 71
     0
 42
2.0
  3
txt
  4

  0
STYLE
  5
77
330
3
100
AcDbSymbolTableRecord
100
AcDbTextStyleTableRecord
  2
SLDTEXTSTYLE0
 70
     0
 40
0.0
 41
0.7
 50
0.0
 71
     0
 42
2.0
  3
TXT
  4

  0
STYLE
  5
7B
330
3
100
AcDbSymbolTableRecord
100
AcDbTextStyleTableRecord
  2
SLDTEXTSTYLE1
 70
     0
 40
0.0
 41
0.6428571429
 50
0.0
 71
     0
 42
2.0
  3
TXT
  4

  0
ENDTAB
  0
TABLE
  2
VIEW
  5
6
330
0
100
AcDbSymbolTable
 70
     0
  0
ENDTAB
  0
TABLE
  2
UCS
  5
7
330
0
100
AcDbSymbolTable
 70
     0
  0
ENDTAB
  0
TABLE
  2
APPID
  5
9
330
0
100
AcDbSymbolTable
 70
     1
  0
APPID
  5
12
330
9
100
AcDbSymbolTableRecord
100
AcDbRegAppTableRecord
  2
ACAD
 70
     0
  0
ENDTAB
  0
TABLE
  2
DIMSTYLE
  5
A
330
0
100
AcDbSymbolTable
 70
     3
100
AcDbDimStyleTable
  0
DIMSTYLE
105
27
330
A
100
AcDbSymbolTableRecord
100
AcDbDimStyleTableRecord
  2
ISO-25
 70
     0
 41
2.5
 42
0.625
 43
3.75
 44
1.25
 73
     0
 74
     0
 77
     1
 78
     8
140
2.5
141
2.5
143
0.0393700787
147
0.625
171
     3
172
     1
178
     0
271
     2
272
     2
274
     3
278
    44
283
     0
284
     8
340
11
  0
DIMSTYLE
105
12A
102
{ACAD_REACTORS
330
129
330
134
330
13E
330
148
330
154
330
15F
330
16A
330
175
102
}
330
A
100
AcDbSymbolTableRecord
100
AcDbDimStyleTableRecord
  2
SLDDIMSTYLE0
 70
     0
 41
3.0
 44
0.0
 45
0.000000001
 73
     0
 74
     0
 77
     1
 78
    12
 79
     3
140
2.0
147
0.5
173
     1
178
     0
271
     2
272
     3
276
     2
284
    12
340
77
  0
DIMSTYLE
105
180
102
{ACAD_REACTORS
330
17F
102
}
330
A
100
AcDbSymbolTableRecord
100
AcDbDimStyleTableRecord
  2
SLDDIMSTYLE1
 70
     0
 41
3.0
 44
0.0
 45
0.000000001
 73
     0
 74
     0
 77
     1
 78
    12
 79
     3
140
2.0
147
0.5
172
     1
173
     1
178
     0
271
     0
272
     3
276
     2
284
    12
289
     0
340
77
  0
ENDTAB
  0
TABLE
  2
BLOCK_RECORD
  5
1
330
0
100
AcDbSymbolTable
 70
    10
  0
BLOCK_RECORD
  5
1F
330
1
100
AcDbSymbolTableRecord
100
AcDbBlockTableRecord
  2
*Model_Space
340
22
  0
BLOCK_RECORD
  5
1B
330
1
100
AcDbSymbolTableRecord
100
AcDbBlockTableRecord
  2
*Paper_Space
340
1E
  0
BLOCK_RECORD
  5
23
330
1
100
AcDbSymbolTableRecord
100
AcDbBlockTableRecord
  2
*Paper_Space0
340
26
  0
BLOCK_RECORD
  5
12B
330
1
100
AcDbSymbolTableRecord
100
AcDbBlockTableRecord
  2
_D
340
0
  0
BLOCK_RECORD
  5
135
330
1
100
AcDbSymbolTableRecord
100
AcDbBlockTableRecord
  2
_D_1
340
0
  0
BLOCK_RECORD
  5
13F
330
1
100
AcDbSymbolTableRecord
100
AcDbBlockTableRecord
  2
_D_2
340
0
  0
BLOCK_RECORD
  5
149
330
1
100
AcDbSymbolTableRecord
100
AcDbBlockTableRecord
  2
_D_3
340
0
  0
BLOCK_RECORD
  5
155
330
1
100
AcDbSymbolTableRecord
100
AcDbBlockTableRecord
  2
_D_4
340
0
  0
BLOCK_RECORD
  5
160
330
1
100
AcDbSymbolTableRecord
100
AcDbBlockTableRecord
  2
_D_5
340
0
  0
BLOCK_RECORD
  5
16B
330
1
100
AcDbSymbolTableRecord
100
AcDbBlockTableRecord
  2
_D_6
340
0
  0
BLOCK_RECORD
  5
176
330
1
100
AcDbSymbolTableRecord
100
AcDbBlockTableRecord
  2
_D_7
340
0
  0
BLOCK_RECORD
  5
181
330
1
100
AcDbSymbolTableRecord
100
AcDbBlockTableRecord
  2
_D_8
340
0
  0
ENDTAB
  0
ENDSEC
  0
SECTION
  2
BLOCKS
  0
BLOCK
  5
20
330
1F
100
AcDbEntity
  8
0
100
AcDbBlockBegin
  2
*Model_Space
 70
     0
 10
0.0
 20
0.0
 30
0.0
  3
*Model_Space
  1

  0
ENDBLK
  5
21
330
1F
100
AcDbEntity
  8
0
100
AcDbBlockEnd
  0
BLOCK
  5
1C
330
1B
100
AcDbEntity
 67
     1
  8
0
100
AcDbBlockBegin
  2
*Paper_Space
 70
     0
 10
0.0
 20
0.0
 30
0.0
  3
*Paper_Space
  1

  0
ENDBLK
  5
1D
330
1B
100
AcDbEntity
 67
     1
  8
0
100
AcDbBlockEnd
  0
BLOCK
  5
24
330
23
100
AcDbEntity
  8
0
100
AcDbBlockBegin
  2
*Paper_Space0
 70
     0
 10
0.0
 20
0.0
 30
0.0
  3
*Paper_Space0
  1

  0
ENDBLK
  5
25
330
23
100
AcDbEntity
  8
0
100
AcDbBlockEnd
  0
BLOCK
  5
12C
330
12B
100
AcDbEntity
  8
0
100
AcDbBlockBegin
  2
_D
 70
     0
 10
0.0
 20
0.0
 30
0.0
  3
_D
  1

  0
SOLID
  5
12E
330
12B
100
AcDbEntity
  8
VERMASSUNG
100
AcDbTrace
 10
216.8069038354
 20
149.715072671
 30
0.0
 11
213.8069038354
 21
150.165072671
 31
0.0
 12
213.8069038354
 22
149.265072671
 32
0.0
 13
213.8069038354
 23
149.265072671
 33
0.0
  0
SOLID
  5
12F
330
12B
100
AcDbEntity
  8
VERMASSUNG
100
AcDbTrace
 10
199.8069038354
 20
149.715072671
 30
0.0
 11
202.8069038354
 21
149.265072671
 31
0.0
 12
202.8069038354
 22
150.165072671
 32
0.0
 13
202.8069038354
 23
150.165072671
 33
0.0
  0
LINE
  5
130
330
12B
100
AcDbEntity
  8
VERMASSUNG
100
AcDbLine
 10
216.8069038354
 20
119.3678105815
 30
0.0
 11
216.8069038354
 21
150.715072671
 31
0.0
  0
LINE
  5
131
330
12B
100
AcDbEntity
  8
VERMASSUNG
100
AcDbLine
 10
199.8069038354
 20
132.5178105815
 30
0.0
 11
199.8069038354
 21
150.715072671
 31
0.0
  0
LINE
  5
132
330
12B
100
AcDbEntity
  8
VERMASSUNG
100
AcDbLine
 10
216.8069038354
 20
149.715072671
 30
0.0
 11
199.8069038354
 21
149.715072671
 31
0.0
  0
MTEXT
  5
133
330
12B
100
AcDbEntity
  8
VERMASSUNG
100
AcDbMText
 10
207.1069037784
 20
152.2932082669
 30
0.0
 40
2.0
 41
0.0
 71
     1
 72
     1
  1
17
  7
SLDTEXTSTYLE0
 73
     1
 44
1.0
  0
ENDBLK
  5
12D
330
12B
100
AcDbEntity
  8
0
100
AcDbBlockEnd
  0
BLOCK
  5
136
330
135
100
AcDbEntity
  8
0
100
AcDbBlockBegin
  2
_D_1
 70
     0
 10
0.0
 20
0.0
 30
0.0
  3
_D_1
  1

  0
SOLID
  5
138
330
135
100
AcDbEntity
  8
VERMASSUNG
100
AcDbTrace
 10
125.7569038354
 20
149.715072671
 30
0.0
 11
128.7569038354
 21
149.265072671
 31
0.0
 12
128.7569038354
 22
150.165072671
 32
0.0
 13
128.7569038354
 23
150.165072671
 33
0.0
  0
SOLID
  5
139
330
135
100
AcDbEntity
  8
VERMASSUNG
100
AcDbTrace
 10
199.8069038354
 20
149.715072671
 30
0.0
 11
196.8069038354
 21
150.165072671
 31
0.0
 12
196.8069038354
 22
149.265072671
 32
0.0
 13
196.8069038354
 23
149.265072671
 33
0.0
  0
LINE
  5
13A
330
135
100
AcDbEntity
  8
VERMASSUNG
100
AcDbLine
 10
125.7569038354
 20
144.1642509053
 30
0.0
 11
125.7569038354
 21
150.715072671
 31
0.0
  0
LINE
  5
13B
330
135
100
AcDbEntity
  8
VERMASSUNG
100
AcDbLine
 10
199.8069038354
 20
132.5178105815
 30
0.0
 11
199.8069038354
 21
150.715072671
 31
0.0
  0
LINE
  5
13C
330
135
100
AcDbEntity
  8
VERMASSUNG
100
AcDbLine
 10
125.7569038354
 20
149.715072671
 30
0.0
 11
199.8069038354
 21
149.715072671
 31
0.0
  0
MTEXT
  5
13D
330
135
100
AcDbEntity
  8
VERMASSUNG
100
AcDbMText
 10
159.5819039162
 20
152.2932082669
 30
0.0
 40
2.0
 41
0.0
 71
     1
 72
     1
  1
74.05
  7
SLDTEXTSTYLE0
 73
     1
 44
1.0
  0
ENDBLK
  5
137
330
135
100
AcDbEntity
  8
0
100
AcDbBlockEnd
  0
BLOCK
  5
140
330
13F
100
AcDbEntity
  8
0
100
AcDbBlockBegin
  2
_D_2
 70
     0
 10
0.0
 20
0.0
 30
0.0
  3
_D_2
  1

  0
SOLID
  5
142
330
13F
100
AcDbEntity
  8
VERMASSUNG
100
AcDbTrace
 10
199.8069038354
 20
159.7641794993
 30
0.0
 11
196.8069038354
 21
160.2141794993
 31
0.0
 12
196.8069038354
 22
159.3141794993
 32
0.0
 13
196.8069038354
 23
159.3141794993
 33
0.0
  0
SOLID
  5
143
330
13F
100
AcDbEntity
  8
VERMASSUNG
100
AcDbTrace
 10
99.8069038354
 20
159.7641794993
 30
0.0
 11
102.8069038354
 21
159.3141794993
 31
0.0
 12
102.8069038354
 22
160.2141794993
 32
0.0
 13
102.8069038354
 23
160.2141794993
 33
0.0
  0
LINE
  5
144
330
13F
100
AcDbEntity
  8
VERMASSUNG
100
AcDbLine
 10
199.8069038354
 20
132.5178105815
 30
0.0
 11
199.8069038354
 21
160.7641794993
 31
0.0
  0
LINE
  5
145
330
13F
100
AcDbEntity
  8
VERMASSUNG
100
AcDbLine
 10
99.8069038354
 20
145.5178105815
 30
0.0
 11
99.8069038354
 21
160.7641794993
 31
0.0
  0
LINE
  5
146
330
13F
100
AcDbEntity
  8
VERMASSUNG
100
AcDbLine
 10
199.8069038354
 20
159.7641794993
 30
0.0
 11
99.8069038354
 21
159.7641794993
 31
0.0
  0
MTEXT
  5
147
330
13F
100
AcDbEntity
  8
VERMASSUNG
100
AcDbMText
 10
147.9069038033
 20
162.3423150953
 30
0.0
 40
2.0
 41
0.0
 71
     1
 72
     1
  1
100
  7
SLDTEXTSTYLE0
 73
     1
 44
1.0
  0
ENDBLK
  5
141
330
13F
100
AcDbEntity
  8
0
100
AcDbBlockEnd
  0
BLOCK
  5
14A
330
149
100
AcDbEntity
  8
0
100
AcDbBlockBegin
  2
_D_3
 70
     0
 10
0.0
 20
0.0
 30
0.0
  3
_D_3
  1

  0
SOLID
  5
14C
330
149
100
AcDbEntity
  8
VERMASSUNG
100
AcDbTrace
 10
53.2798083121
 20
145.8178105815
 30
0.0
 11
52.8298083121
 21
142.8178105815
 31
0.0
 12
53.7298083121
 22
142.8178105815
 32
0.0
 13
53.7298083121
 23
142.8178105815
 33
0.0
  0
SOLID
  5
14D
330
149
100
AcDbEntity
  8
VERMASSUNG
100
AcDbTrace
 10
53.2798083121
 20
82.8178105815
 30
0.0
 11
53.7298083121
 21
85.8178105815
 31
0.0
 12
52.8298083121
 22
85.8178105815
 32
0.0
 13
52.8298083121
 23
85.8178105815
 33
0.0
  0
LINE
  5
14E
330
149
100
AcDbEntity
  8
VERMASSUNG
100
AcDbLine
 10
100.1069038354
 20
145.8178105815
 30
0.0
 11
52.2798083121
 21
145.8178105815
 31
0.0
  0
LINE
  5
14F
330
149
100
AcDbEntity
  8
VERMASSUNG
100
AcDbLine
 10
100.1069038354
 20
82.8178105815
 30
0.0
 11
52.2798083121
 21
82.8178105815
 31
0.0
  0
LINE
  5
150
330
149
100
AcDbEntity
  8
VERMASSUNG
100
AcDbLine
 10
53.2798083121
 20
145.8178105815
 30
0.0
 11
53.2798083121
 21
82.8178105815
 31
0.0
  0
MTEXT
  5
151
330
149
100
AcDbEntity
  8
VERMASSUNG
100
AcDbMText
 10
50.5016730559
 20
106.6128112836
 30
0.0
 40
2.0
 41
0.0
 71
     1
 72
     1
  1
HSK A
  7
SLDTEXTSTYLE0
 11
-7.044195017643634E-15
 21
1.0
 31
0.0
 73
     1
 44
1.0
  0
MTEXT
  5
152
330
149
100
AcDbEntity
  8
VERMASSUNG
100
AcDbMText
 10
50.7016730072
 20
115.6128108962
 30
0.0
 40
2.0
 41
0.0
 71
     1
 72
     1
  1
%%c
  7
SLDTEXTSTYLE0
 11
-7.044195017643634E-15
 21
1.0
 31
0.0
 73
     1
 44
1.0
  0
MTEXT
  5
153
330
149
100
AcDbEntity
  8
VERMASSUNG
100
AcDbMText
 10
50.5016730559
 20
119.2228109105
 30
0.0
 40
2.0
 41
0.0
 71
     1
 72
     1
  1
63
  7
SLDTEXTSTYLE0
 11
-7.044195017643634E-15
 21
1.0
 31
0.0
 73
     1
 44
1.0
  0
ENDBLK
  5
14B
330
149
100
AcDbEntity
  8
0
100
AcDbBlockEnd
  0
BLOCK
  5
156
330
155
100
AcDbEntity
  8
0
100
AcDbBlockBegin
  2
_D_4
 70
     0
 10
0.0
 20
0.0
 30
0.0
  3
_D_4
  1

  0
SOLID
  5
158
330
155
100
AcDbEntity
  8
VERMASSUNG
100
AcDbTrace
 10
268.294509081
 20
92.2085747037
 30
0.0
 11
268.744509081
 21
95.2085747037
 31
0.0
 12
267.844509081
 22
95.2085747037
 32
0.0
 13
267.844509081
 23
95.2085747037
 33
0.0
  0
SOLID
  5
159
330
155
100
AcDbEntity
  8
VERMASSUNG
100
AcDbTrace
 10
268.294509081
 20
136.4270464593
 30
0.0
 11
267.844509081
 21
133.4270464593
 31
0.0
 12
268.744509081
 22
133.4270464593
 32
0.0
 13
268.744509081
 23
133.4270464593
 33
0.0
  0
LINE
  5
15A
330
155
100
AcDbEntity
  8
VERMASSUNG
100
AcDbLine
 10
128.0146357941
 20
92.2085747037
 30
0.0
 11
269.294509081
 21
92.2085747037
 31
0.0
  0
LINE
  5
15B
330
155
100
AcDbEntity
  8
VERMASSUNG
100
AcDbLine
 10
128.0146357941
 20
136.4270464593
 30
0.0
 11
269.294509081
 21
136.4270464593
 31
0.0
  0
LINE
  5
15C
330
155
100
AcDbEntity
  8
VERMASSUNG
100
AcDbLine
 10
268.294509081
 20
92.2085747037
 30
0.0
 11
268.294509081
 21
136.4270464593
 31
0.0
  0
MTEXT
  5
15D
330
155
100
AcDbEntity
  8
VERMASSUNG
100
AcDbMText
 10
265.7163737761
 20
109.2128105922
 30
0.0
 40
2.0
 41
0.0
 71
     1
 72
     1
  1
%%c
  7
SLDTEXTSTYLE0
 11
6.123233995736766E-17
 21
1.0
 31
0.0
 73
     1
 44
1.0
  0
MTEXT
  5
15E
330
155
100
AcDbEntity
  8
VERMASSUNG
100
AcDbMText
 10
265.5163738248
 20
112.8228106065
 30
0.0
 40
2.0
 41
0.0
 71
     1
 72
     1
  1
44.22
  7
SLDTEXTSTYLE0
 11
6.123233995736766E-17
 21
1.0
 31
0.0
 73
     1
 44
1.0
  0
ENDBLK
  5
157
330
155
100
AcDbEntity
  8
0
100
AcDbBlockEnd
  0
BLOCK
  5
161
330
160
100
AcDbEntity
  8
0
100
AcDbBlockBegin
  2
_D_5
 70
     0
 10
0.0
 20
0.0
 30
0.0
  3
_D_5
  1

  0
SOLID
  5
163
330
160
100
AcDbEntity
  8
VERMASSUNG
100
AcDbTrace
 10
257.8069038354
 20
133.3178105815
 30
0.0
 11
257.3569038354
 21
130.3178105815
 31
0.0
 12
258.2569038354
 22
130.3178105815
 32
0.0
 13
258.2569038354
 23
130.3178105815
 33
0.0
  0
SOLID
  5
164
330
160
100
AcDbEntity
  8
VERMASSUNG
100
AcDbTrace
 10
257.8069038354
 20
95.3178105815
 30
0.0
 11
258.2569038354
 21
98.3178105815
 31
0.0
 12
257.3569038354
 22
98.3178105815
 32
0.0
 13
257.3569038354
 23
98.3178105815
 33
0.0
  0
LINE
  5
165
330
160
100
AcDbEntity
  8
VERMASSUNG
100
AcDbLine
 10
199.0069038354
 20
133.3178105815
 30
0.0
 11
258.8069038354
 21
133.3178105815
 31
0.0
  0
LINE
  5
166
330
160
100
AcDbEntity
  8
VERMASSUNG
100
AcDbLine
 10
199.0069038354
 20
95.3178105815
 30
0.0
 11
258.8069038354
 21
95.3178105815
 31
0.0
  0
LINE
  5
167
330
160
100
AcDbEntity
  8
VERMASSUNG
100
AcDbLine
 10
257.8069038354
 20
133.3178105815
 30
0.0
 11
257.8069038354
 21
95.3178105815
 31
0.0
  0
MTEXT
  5
168
330
160
100
AcDbEntity
  8
VERMASSUNG
100
AcDbMText
 10
255.2287685304
 20
111.1128106243
 30
0.0
 40
2.0
 41
0.0
 71
     1
 72
     1
  1
%%c
  7
SLDTEXTSTYLE0
 11
-7.044195017643634E-15
 21
1.0
 31
0.0
 73
     1
 44
1.0
  0
MTEXT
  5
169
330
160
100
AcDbEntity
  8
VERMASSUNG
100
AcDbMText
 10
255.0287685791
 20
114.7228106386
 30
0.0
 40
2.0
 41
0.0
 71
     1
 72
     1
  1
38
  7
SLDTEXTSTYLE0
 11
-7.044195017643634E-15
 21
1.0
 31
0.0
 73
     1
 44
1.0
  0
ENDBLK
  5
162
330
160
100
AcDbEntity
  8
0
100
AcDbBlockEnd
  0
BLOCK
  5
16C
330
16B
100
AcDbEntity
  8
0
100
AcDbBlockBegin
  2
_D_6
 70
     0
 10
0.0
 20
0.0
 30
0.0
  3
_D_6
  1

  0
SOLID
  5
16E
330
16B
100
AcDbEntity
  8
VERMASSUNG
100
AcDbTrace
 10
248.9797035253
 20
122.3178105815
 30
0.0
 11
248.5297035253
 21
119.3178105815
 31
0.0
 12
249.4297035253
 22
119.3178105815
 32
0.0
 13
249.4297035253
 23
119.3178105815
 33
0.0
  0
SOLID
  5
16F
330
16B
100
AcDbEntity
  8
VERMASSUNG
100
AcDbTrace
 10
248.9797035253
 20
106.3178105815
 30
0.0
 11
249.4297035253
 21
109.3178105815
 31
0.0
 12
248.5297035253
 22
109.3178105815
 32
0.0
 13
248.5297035253
 23
109.3178105815
 33
0.0
  0
LINE
  5
170
330
16B
100
AcDbEntity
  8
VERMASSUNG
100
AcDbLine
 10
216.0069038354
 20
122.3178105815
 30
0.0
 11
249.9797035253
 21
122.3178105815
 31
0.0
  0
LINE
  5
171
330
16B
100
AcDbEntity
  8
VERMASSUNG
100
AcDbLine
 10
216.0069038354
 20
106.3178105815
 30
0.0
 11
249.9797035253
 21
106.3178105815
 31
0.0
  0
LINE
  5
172
330
16B
100
AcDbEntity
  8
VERMASSUNG
100
AcDbLine
 10
248.9797035253
 20
122.3178105815
 30
0.0
 11
248.9797035253
 21
106.3178105815
 31
0.0
  0
MTEXT
  5
173
330
16B
100
AcDbEntity
  8
VERMASSUNG
100
AcDbMText
 10
246.4015682203
 20
111.3128105174
 30
0.0
 40
2.0
 41
0.0
 71
     1
 72
     1
  1
%%c
  7
SLDTEXTSTYLE0
 11
-7.044195017643634E-15
 21
1.0
 31
0.0
 73
     1
 44
1.0
  0
MTEXT
  5
174
330
16B
100
AcDbEntity
  8
VERMASSUNG
100
AcDbMText
 10
246.201568269
 20
114.9228105317
 30
0.0
 40
2.0
 41
0.0
 71
     1
 72
     1
  1
16
  7
SLDTEXTSTYLE0
 11
-7.044195017643634E-15
 21
1.0
 31
0.0
 73
     1
 44
1.0
  0
ENDBLK
  5
16D
330
16B
100
AcDbEntity
  8
0
100
AcDbBlockEnd
  0
BLOCK
  5
177
330
176
100
AcDbEntity
  8
0
100
AcDbBlockBegin
  2
_D_7
 70
     0
 10
0.0
 20
0.0
 30
0.0
  3
_D_7
  1

  0
SOLID
  5
179
330
176
100
AcDbEntity
  8
VERMASSUNG
100
AcDbTrace
 10
67.9069038354
 20
169.934501484
 30
0.0
 11
70.9069038354
 21
169.484501484
 31
0.0
 12
70.9069038354
 22
170.384501484
 32
0.0
 13
70.9069038354
 23
170.384501484
 33
0.0
  0
SOLID
  5
17A
330
176
100
AcDbEntity
  8
VERMASSUNG
100
AcDbTrace
 10
229.8069038354
 20
169.934501484
 30
0.0
 11
226.8069038354
 21
170.384501484
 31
0.0
 12
226.8069038354
 22
169.484501484
 32
0.0
 13
226.8069038354
 23
169.484501484
 33
0.0
  0
LINE
  5
17B
330
176
100
AcDbEntity
  8
VERMASSUNG
100
AcDbLine
 10
67.9069038354
 20
134.008488328
 30
0.0
 11
67.9069038354
 21
170.934501484
 31
0.0
  0
LINE
  5
17C
330
176
100
AcDbEntity
  8
VERMASSUNG
100
AcDbLine
 10
229.8069038354
 20
120.4178105815
 30
0.0
 11
229.8069038354
 21
170.934501484
 31
0.0
  0
LINE
  5
17D
330
176
100
AcDbEntity
  8
VERMASSUNG
100
AcDbLine
 10
67.9069038354
 20
169.934501484
 30
0.0
 11
229.8069038354
 21
169.934501484
 31
0.0
  0
MTEXT
  5
17E
330
176
100
AcDbEntity
  8
VERMASSUNG
100
AcDbMText
 10
146.1569037653
 20
172.51263708
 30
0.0
 40
2.0
 41
0.0
 71
     1
 72
     1
  1
161.9
  7
SLDTEXTSTYLE0
 73
     1
 44
1.0
  0
ENDBLK
  5
178
330
176
100
AcDbEntity
  8
0
100
AcDbBlockEnd
  0
BLOCK
  5
182
330
181
100
AcDbEntity
  8
0
100
AcDbBlockBegin
  2
_D_8
 70
     0
 10
0.0
 20
0.0
 30
0.0
  3
_D_8
  1

  0
SOLID
  5
184
330
181
100
AcDbEntity
  8
VERMASSUNG
100
AcDbTrace
 10
239.8069038354
 20
111.2703105815
 30
0.0
 11
239.3569038354
 21
108.2703105815
 31
0.0
 12
240.2569038354
 22
108.2703105815
 32
0.0
 13
240.2569038354
 23
108.2703105815
 33
0.0
  0
SOLID
  5
185
330
181
100
AcDbEntity
  8
VERMASSUNG
100
AcDbTrace
 10
239.8069038354
 20
117.3653105815
 30
0.0
 11
240.2569038354
 21
120.3653105815
 31
0.0
 12
239.3569038354
 22
120.3653105815
 32
0.0
 13
239.3569038354
 23
120.3653105815
 33
0.0
  0
LINE
  5
186
330
181
100
AcDbEntity
  8
VERMASSUNG
100
AcDbLine
 10
229.8069038354
 20
111.2703105815
 30
0.0
 11
240.8069038354
 21
111.2703105815
 31
0.0
  0
LINE
  5
187
330
181
100
AcDbEntity
  8
VERMASSUNG
100
AcDbLine
 10
229.8069038354
 20
117.3653105815
 30
0.0
 11
240.8069038354
 21
117.3653105815
 31
0.0
  0
LINE
  5
188
330
181
100
AcDbEntity
  8
VERMASSUNG
100
AcDbLine
 10
239.8069038354
 20
111.2703105815
 30
0.0
 11
239.8069038354
 21
105.2703105815
 31
0.0
  0
LINE
  5
189
330
181
100
AcDbEntity
  8
VERMASSUNG
100
AcDbLine
 10
239.8069038354
 20
111.2703105815
 30
0.0
 11
239.8069038354
 21
117.3653105815
 31
0.0
  0
LINE
  5
18A
330
181
100
AcDbEntity
  8
VERMASSUNG
100
AcDbLine
 10
239.8069038354
 20
117.3653105815
 30
0.0
 11
239.8069038354
 21
123.3653105815
 31
0.0
  0
MTEXT
  5
18B
330
181
100
AcDbEntity
  8
VERMASSUNG
100
AcDbMText
 10
237.2287682394
 20
111.7178105744
 30
0.0
 40
2.0
 41
0.0
 71
     1
 72
     1
  1
SW
  7
SLDTEXTSTYLE0
 11
6.123233995736766E-17
 21
1.0
 31
0.0
 73
     1
 44
1.0
  0
MTEXT
  5
18C
330
181
100
AcDbEntity
  8
VERMASSUNG
100
AcDbMText
 10
237.2287682394
 20
115.5178106385
 30
0.0
 40
2.0
 41
0.0
 71
     1
 72
     1
  1
6
  7
SLDTEXTSTYLE0
 11
6.123233995736766E-17
 21
1.0
 31
0.0
 73
     1
 44
1.0
  0
ENDBLK
  5
183
330
181
100
AcDbEntity
  8
0
100
AcDbBlockEnd
  0
ENDSEC
  0
SECTION
  2
ENTITIES
  0
MTEXT
  5
78
330
1F
100
AcDbEntity
  8
KOPF_DÜNN
100
AcDbMText
 10
13.8892156294
 20
23.8442973028
 30
0.0
 40
3.0
 41
0.0
 71
     1
 72
     1
  1
HA6.D16.K01.100
  7
SLDTEXTSTYLE0
 73
     1
 44
1.0
  0
MTEXT
  5
79
330
1F
100
AcDbEntity
  8
VERMASSUNG
100
AcDbMText
 10
13.9329988022
 20
28.8834360957
 30
0.0
 40
3.0
 41
0.0
 71
     1
 72
     1
  1
Fräsdorn Typ S_Milling arbor type S
  7
SLDTEXTSTYLE0
 73
     1
 44
1.0
  0
MTEXT
  5
7A
330
1F
100
AcDbEntity
  8
VERMASSUNG
100
AcDbMText
 10
98.8601118557
 20
13.8365368761
 30
0.0
 40
2.0
 41
0.0
 71
     1
 72
     1
  1
Datum: 16.02.2018
  7
SLDTEXTSTYLE0
 73
     1
 44
1.0
  0
MTEXT
  5
7C
330
1F
100
AcDbEntity
  8
VERMASSUNG
100
AcDbMText
 10
13.933048693
 20
18.0482802738
 30
0.0
 40
2.0
 41
0.0
 71
     1
 72
     1
  1
HSK A 63 / Ø16
  7
SLDTEXTSTYLE1
 73
     1
 44
1.0
  0
MTEXT
  5
7D
330
1F
100
AcDbEntity
  8
VERMASSUNG
100
AcDbMText
 10
13.9808475933
 20
13.9090974274
 30
0.0
 40
2.0
 41
0.0
 71
     1
 72
     1
  1
Gewicht: 1325g
  7
SLDTEXTSTYLE0
 73
     1
 44
1.0
  0
LINE
  5
7E
330
1F
100
AcDbEntity
  8
0
  6
Continuous
 62
     7
370
    25
100
AcDbLine
 10
199.8069053255
 20
124.317810358
 30
0.0
 11
204.3069069944
 21
124.317810358
 31
0.0
  0
LINE
  5
7F
330
1F
100
AcDbEntity
  8
0
  6
Continuous
 62
     7
370
    25
100
AcDbLine
 10
204.3069069944
 20
132.3178098066
 30
0.0
 11
199.8069053255
 21
132.3178098066
 31
0.0
  0
ARC
  5
80
330
1F
100
AcDbEntity
  8
0
  6
Continuous
 62
     7
370
    25
100
AcDbCircle
 10
204.3069038354
 20
124.8178105815
 30
0.0
 40
0.5
100
AcDbArc
 50
270.0
 51
0.0
  0
ARC
  5
81
330
1F
100
AcDbEntity
  8
0
  6
Continuous
 62
     7
370
    25
100
AcDbCircle
 10
204.3069038354
 20
131.8178105815
 30
0.0
 40
0.5
100
AcDbArc
 50
0.0
 51
90.0
  0
ARC
  5
82
330
1F
100
AcDbEntity
  8
0
  6
Continuous
 62
     7
370
    25
100
AcDbCircle
 10
204.3069038354
 20
96.8178105815
 30
0.0
 40
0.5
100
AcDbArc
 50
270.0
 51
0.0
  0
ARC
  5
83
330
1F
100
AcDbEntity
  8
0
  6
Continuous
 62
     7
370
    25
100
AcDbCircle
 10
204.3069038354
 20
103.8178105815
 30
0.0
 40
0.5
100
AcDbArc
 50
0.0
 51
90.0
  0
LINE
  5
84
330
1F
100
AcDbEntity
  8
0
  6
Continuous
 62
     7
370
    25
100
AcDbLine
 10
199.8069053255
 20
96.3178113564
 30
0.0
 11
204.3069069944
 21
96.3178113564
 31
0.0
  0
LINE
  5
85
330
1F
100
AcDbEntity
  8
0
  6
Continuous
 62
     7
370
    25
100
AcDbLine
 10
204.3069069944
 20
104.317810805
 30
0.0
 11
199.8069053255
 21
104.317810805
 31
0.0
  0
LINE
  5
86
330
1F
100
AcDbEntity
  8
0
  6
Continuous
 62
     7
370
    25
100
AcDbLine
 10
229.4069071971
 20
120.8178107156
 30
0.0
 11
221.8069052063
 21
120.8178107156
 31
0.0
  0
LINE
  5
87
330
1F
100
AcDbEntity
  8
0
  6
Continuous
 62
     7
370
    25
100
AcDbLine
 10
221.8069052063
 20
107.8178104474
 30
0.0
 11
229.4069071971
 21
107.8178104474
 31
0.0
  0
ARC
  5
88
330
1F
100
AcDbEntity
  8
0
  6
Continuous
 62
     7
370
    25
100
AcDbCircle
 10
229.4069038354
 20
120.4178105815
 30
0.0
 40
0.4000000000000057
100
AcDbArc
 50
360.0
 51
90.0
  0
ARC
  5
89
330
1F
100
AcDbEntity
  8
0
  6
Continuous
 62
     7
370
    25
100
AcDbCircle
 10
229.4069038354
 20
108.2178105815
 30
0.0
 40
0.4000000000000057
100
AcDbArc
 50
270.0
 51
0.0
  0
ARC
  5
8A
330
1F
100
AcDbEntity
  8
0
  6
Continuous
 62
     7
370
    25
100
AcDbCircle
 10
221.4069038354
 20
109.9178105815
 30
0.0
 40
0.3999999999999915
100
AcDbArc
 50
0.0
 51
90.0
  0
ARC
  5
8B
330
1F
100
AcDbEntity
  8
0
  6
Continuous
 62
     7
370
    25
100
AcDbCircle
 10
221.4069038354
 20
118.7178105815
 30
0.0
 40
0.4000000000000057
100
AcDbArc
 50
270.0
 51
360.0
  0
LINE
  5
8C
330
1F
100
AcDbEntity
  8
0
  6
Continuous
 62
     7
370
    25
100
AcDbLine
 10
221.4069058858
 20
118.3178107715
 30
0.0
 11
216.8069025241
 21
118.3178107715
 31
0.0
  0
LINE
  5
8D
330
1F
100
AcDbEntity
  8
0
  6
Continuous
 62
     7
370
    25
100
AcDbLine
 10
216.8069025241
 20
110.3178103915
 30
0.0
 11
221.4069058858
 21
110.3178103915
 31
0.0
  0
ARC
  5
8E
330
1F
100
AcDbEntity
  8
0
  6
Continuous
 62
     7
370
    25
100
AcDbCircle
 10
100.1069038354
 20
83.1178105815
 30
0.0
 40
0.3000000000000114
100
AcDbArc
 50
180.0
 51
270.0
  0
ARC
  5
8F
330
1F
100
AcDbEntity
  8
0
  6
Continuous
 62
     7
370
    25
100
AcDbCircle
 10
100.1069038354
 20
145.5178105815
 30
0.0
 40
0.3000000000000114
100
AcDbArc
 50
90.0
 51
180.0
  0
LINE
  5
90
330
1F
100
AcDbEntity
  8
0
  6
Continuous
 62
     7
370
    25
100
AcDbLine
 10
100.1069038496
 20
82.8178100749
 30
0.0
 11
104.7569038085
 21
82.8178100749
 31
0.0
  0
LINE
  5
91
330
1F
100
AcDbEntity
  8
0
  6
Continuous
 62
     7
370
    25
100
AcDbLine
 10
104.7848923802
 20
145.8178110881
 30
0.0
 11
100.1069038496
 21
145.8178110881
 31
0.0
  0
ARC
  5
92
330
1F
100
AcDbEntity
  8
0
  6
Continuous
 62
     7
370
    25
100
AcDbCircle
 10
128.7569038354
 20
89.30185178
 30
0.0
 40
3.000000000000014
100
AcDbArc
 50
104.3250519401
 51
180.0
  0
ARC
  5
93
330
1F
100
AcDbEntity
  8
0
  6
Continuous
 62
     7
370
    25
100
AcDbCircle
 10
128.7569038354
 20
139.333769383
 30
0.0
 40
3.000000000000014
100
AcDbArc
 50
180.0
 51
255.6749480599
  0
ARC
  5
94
330
1F
100
AcDbEntity
  8
0
  6
Continuous
 62
     7
370
    25
100
AcDbCircle
 10
99.3068970827
 20
89.7473729671
 30
0.0
 40
0.60000675266771
100
AcDbArc
 50
33.5571153394
 51
90.0
  0
ARC
  5
95
330
1F
100
AcDbEntity
  8
0
  6
Continuous
 62
     7
370
    25
100
AcDbCircle
 10
99.3068970827
 20
138.8882481959
 30
0.0
 40
0.6000067526677242
100
AcDbArc
 50
270.0
 51
326.4428846606
  0
LINE
  5
96
330
1F
100
AcDbEntity
  8
0
  6
Continuous
 62
     7
370
    25
100
AcDbLine
 10
97.8069037404
 20
90.097379358
 30
0.0
 11
98.6636166665
 21
90.3269354715
 31
0.0
  0
LINE
  5
97
330
1F
100
AcDbEntity
  8
0
  6
Continuous
 62
     7
370
    25
100
AcDbLine
 10
98.6636166665
 20
138.3086856915
 30
0.0
 11
97.8069037404
 21
138.538241805
 31
0.0
  0
LINE
  5
98
330
1F
100
AcDbEntity
  8
0
  6
Continuous
 62
     7
370
    25
100
AcDbLine
 10
86.5764813237
 20
137.9755944474
 30
0.0
 11
74.0069029592
 21
137.3458564742
 31
0.0
  0
LINE
  5
99
330
1F
100
AcDbEntity
  8
0
  6
Continuous
 62
     7
370
    25
100
AcDbLine
 10
97.8069037404
 20
138.538241805
 30
0.0
 11
94.9882943853
 21
138.3970290883
 31
0.0
  0
LINE
  5
9A
330
1F
100
AcDbEntity
  8
0
  6
Continuous
 62
     7
370
    25
100
AcDbLine
 10
94.9885160401
 20
90.2385808988
 30
0.0
 11
97.8069037404
 21
90.097379358
 31
0.0
  0
LINE
  5
9B
330
1F
100
AcDbEntity
  8
0
  6
Continuous
 62
     7
370
    25
100
AcDbLine
 10
78.0069036148
 20
91.0893645598
 30
0.0
 11
86.5771807469
 21
90.6599913253
 31
0.0
  0
ARC
  5
9C
330
1F
100
AcDbEntity
  8
0
  6
Continuous
 62
     7
370
    25
100
AcDbCircle
 10
98.8189080358
 20
89.7473797198
 30
0.0
 40
0.6000000000000109
100
AcDbArc
 50
90.0
 51
105.0
  0
ARC
  5
9D
330
1F
100
AcDbEntity
  8
0
  6
Continuous
 62
     7
370
    25
100
AcDbCircle
 10
98.8189080358
 20
138.8882414432
 30
0.0
 40
0.5999999999999971
100
AcDbArc
 50
255.0
 51
270.0
  0
LINE
  5
9E
330
1F
100
AcDbEntity
  8
0
  6
Continuous
 62
     7
370
    25
100
AcDbLine
 10
98.8189080702
 20
90.3473798646
 30
0.0
 11
99.3068970595
 21
90.3473798646
 31
0.0
  0
LINE
  5
9F
330
1F
100
AcDbEntity
  8
0
  6
Continuous
 62
     7
370
    25
100
AcDbLine
 10
99.3068970595
 20
138.2882412984
 30
0.0
 11
98.8189080702
 21
138.2882412984
 31
0.0
  0
ARC
  5
A0
330
1F
100
AcDbEntity
  8
0
  6
Continuous
 62
     7
370
    25
100
AcDbCircle
 10
152.7569038354
 20
-4.6821894185
 30
0.0
 40
100.0
100
AcDbArc
 50
90.0
 51
104.3250519401
  0
ARC
  5
A1
330
1F
100
AcDbEntity
  8
0
  6
Continuous
 62
     7
370
    25
100
AcDbCircle
 10
152.7569038354
 20
233.3178105815
 30
0.0
 40
100.0
100
AcDbArc
 50
255.6749480599
 51
270.0
  0
LINE
  5
A2
330
1F
100
AcDbEntity
  8
0
  6
Continuous
 62
     7
370
    25
100
AcDbLine
 10
152.7569023631
 20
95.3178111924
 30
0.0
 11
199.0069066845
 21
95.3178111924
 31
0.0
  0
LINE
  5
A3
330
1F
100
AcDbEntity
  8
0
  6
Continuous
 62
     7
370
    25
100
AcDbLine
 10
199.0069066845
 20
133.3178099706
 30
0.0
 11
152.7569023631
 21
133.3178099706
 31
0.0
  0
ARC
  5
A4
330
1F
100
AcDbEntity
  8
0
  6
Continuous
 62
     7
370
    25
100
AcDbCircle
 10
199.0069038354
 20
96.1178105815
 30
0.0
 40
0.7999999999999972
100
AcDbArc
 50
270.0
 51
0.0
  0
ARC
  5
A5
330
1F
100
AcDbEntity
  8
0
  6
Continuous
 62
     7
370
    25
100
AcDbCircle
 10
199.0069038354
 20
132.5178105815
 30
0.0
 40
0.799999999999983
100
AcDbArc
 50
0.0
 51
90.0
  0
LINE
  5
A6
330
1F
100
AcDbEntity
  8
0
  6
Continuous
 62
     7
370
    25
100
AcDbLine
 10
69.190240439
 20
93.4478104575
 30
0.0
 11
76.6069041304
 21
93.4478104575
 31
0.0
  0
ARC
  5
A7
330
1F
100
AcDbEntity
  8
0
  6
Continuous
 62
     7
370
    25
100
AcDbCircle
 10
76.6069038354
 20
92.0478105815
 30
0.0
 40
1.400000000000006
100
AcDbArc
 50
42.2465410162
 51
90.0
  0
LINE
  5
A8
330
1F
100
AcDbEntity
  8
0
  6
Continuous
 62
     7
370
    25
100
AcDbLine
 10
67.9079359136
 20
94.5967775299
 30
0.0
 11
69.0480665974
 21
93.4566468461
 31
0.0
  0
LINE
  5
A9
330
1F
100
AcDbEntity
  8
0
  6
Continuous
 62
     7
370
    25
100
AcDbLine
 10
69.0480665974
 20
135.1789743169
 30
0.0
 11
67.9168058298
 21
134.0477116867
 31
0.0
  0
ARC
  5
AA
330
1F
100
AcDbEntity
  8
0
  6
Continuous
 62
     7
370
    25
100
AcDbCircle
 10
72.6069038354
 20
136.5878105815
 30
0.0
 40
1.400000000000006
100
AcDbArc
 50
270.0
 51
301.7485287426
  0
LINE
  5
AB
330
1F
100
AcDbEntity
  8
0
  6
Continuous
 62
     7
370
    25
100
AcDbLine
 10
72.6069034748
 20
135.1878107055
 30
0.0
 11
69.1811693571
 21
135.1878107055
 31
0.0
  0
ARC
  5
AC
330
1F
100
AcDbEntity
  8
0
  6
Continuous
 62
     7
370
    25
100
AcDbCircle
 10
200.3069038354
 20
105.9678105815
 30
0.0
 40
0.6000000000000085
100
AcDbArc
 50
90.0
 51
146.4426902381
  0
ARC
  5
AD
330
1F
100
AcDbEntity
  8
0
  6
Continuous
 62
     7
370
    25
100
AcDbCircle
 10
200.3069038354
 20
122.6678105815
 30
0.0
 40
0.6000000000000019
100
AcDbArc
 50
213.5573097619
 51
270.0
  0
LINE
  5
AE
330
1F
100
AcDbEntity
  8
0
  6
Continuous
 62
     7
370
    25
100
AcDbLine
 10
201.806901928
 20
106.3178102015
 30
0.0
 11
216.006903883
 21
106.3178102015
 31
0.0
  0
LINE
  5
AF
330
1F
100
AcDbEntity
  8
0
  6
Continuous
 62
     7
370
    25
100
AcDbLine
 10
216.006903883
 20
122.3178109615
 30
0.0
 11
201.806901928
 21
122.3178109615
 31
0.0
  0
ARC
  5
B0
330
1F
100
AcDbEntity
  8
0
  6
Continuous
 62
     7
370
    25
100
AcDbCircle
 10
216.0069038354
 20
107.1178105815
 30
0.0
 40
0.8000000000000256
100
AcDbArc
 50
270.0
 51
0.0
  0
ARC
  5
B1
330
1F
100
AcDbEntity
  8
0
  6
Continuous
 62
     7
370
    25
100
AcDbCircle
 10
216.0069038354
 20
121.5178105815
 30
0.0
 40
0.8000000000000256
100
AcDbArc
 50
0.0
 51
90.0
  0
LINE
  5
B2
330
1F
100
AcDbEntity
  8
0
  6
Continuous
 62
     7
370
    25
100
AcDbLine
 10
201.806901928
 20
122.3178109615
 30
0.0
 11
200.9501894675
 21
122.0882553137
 31
0.0
  0
LINE
  5
B3
330
1F
100
AcDbEntity
  8
0
  6
Continuous
 62
     7
370
    25
100
AcDbLine
 10
200.9501894675
 20
106.5473658493
 30
0.0
 11
201.806901928
 21
106.3178102015
 31
0.0
  0
ARC
  5
B4
330
1F
100
AcDbEntity
  8
0
  6
Continuous
 62
     7
370
    25
100
AcDbCircle
 10
200.7948996349
 20
105.9678105815
 30
0.0
 40
0.6000000000000145
100
AcDbArc
 50
75.0
 51
90.0
  0
ARC
  5
B5
330
1F
100
AcDbEntity
  8
0
  6
Continuous
 62
     7
370
    25
100
AcDbCircle
 10
200.7948996349
 20
122.6678105815
 30
0.0
 40
0.6000000000000008
100
AcDbArc
 50
270.0
 51
285.0
  0
LINE
  5
B6
330
1F
100
AcDbEntity
  8
0
  6
Continuous
 62
     7
370
    25
100
AcDbLine
 10
200.3069063388
 20
106.5678107082
 30
0.0
 11
200.7948970161
 21
106.5678107082
 31
0.0
  0
LINE
  5
B7
330
1F
100
AcDbEntity
  8
0
  6
Continuous
 62
     7
370
    25
100
AcDbLine
 10
200.7948970161
 20
122.0678104548
 30
0.0
 11
200.3069063388
 21
122.0678104548
 31
0.0
  0
LINE
  5
B8
330
1F
100
AcDbEntity
  8
0
  6
Continuous
 62
     7
370
    25
100
AcDbLine
 10
204.8069005571
 20
124.8178104399
 30
0.0
 11
204.8069005571
 21
131.817810656
 31
0.0
  0
LINE
  5
B9
330
1F
100
AcDbEntity
  8
0
  6
Continuous
 62
     7
370
    25
100
AcDbLine
 10
204.8069005571
 20
96.817810507
 30
0.0
 11
204.8069005571
 21
103.8178097917
 31
0.0
  0
LINE
  5
BA
330
1F
100
AcDbEntity
  8
0
  6
Continuous
 62
     7
370
    25
100
AcDbLine
 10
221.8069052063
 20
120.8178107156
 30
0.0
 11
221.8069052063
 21
107.8178104474
 31
0.0
  0
LINE
  5
BB
330
1F
100
AcDbEntity
  8
0
  6
Continuous
 62
     7
370
    25
100
AcDbLine
 10
229.806899067
 20
120.4178104638
 30
0.0
 11
229.806899067
 21
108.2178498148
 31
0.0
  0
LINE
  5
BC
330
1F
100
AcDbEntity
  8
0
  6
Continuous
 62
     7
370
    25
100
AcDbLine
 10
99.8069038354
 20
83.1178114279
 30
0.0
 11
99.8069038354
 21
145.5178097351
 31
0.0
  0
LINE
  5
BD
330
1F
100
AcDbEntity
  8
0
  6
Continuous
 62
     7
370
    25
100
AcDbLine
 10
115.8969038836
 20
86.8199732615
 30
0.0
 11
115.8969038836
 21
134.1678113206
 31
0.0
  0
SPLINE
  5
BE
330
1F
100
AcDbEntity
  8
0
  6
Continuous
 62
     7
370
    25
100
AcDbSpline
210
0.0
220
0.0
230
1.0
 70
     8
 71
     3
 72
     8
 73
     4
 74
     0
 42
0.000000001
 43
0.00000001
 40
0.0
 40
0.0
 40
0.0
 40
0.0
 40
1.0
 40
1.0
 40
1.0
 40
1.0
 10
115.8969038353598
 20
86.81997342244472
 30
0.0
 10
115.4045647125786
 20
85.92270338823802
 30
0.0
 10
114.9104506645365
 20
85.02641897318577
 30
0.0
 10
114.4149710038708
 20
84.13089288525241
 30
0.0
  0
LINE
  5
BF
330
1F
100
AcDbEntity
  8
0
  6
Continuous
 62
     7
370
    25
100
AcDbLine
 10
114.4149712957
 20
84.1308929487
 30
0.0
 11
114.4149712957
 21
134.1678113206
 31
0.0
  0
SPLINE
  5
C0
330
1F
100
AcDbEntity
  8
0
  6
Continuous
 62
     7
370
    25
100
AcDbSpline
210
0.0
220
0.0
230
1.0
 70
    24
 71
     3
 72
     8
 73
     4
 74
     0
 42
0.000000001
 43
0.00000001
 40
0.0
 40
0.0
 40
0.0
 40
0.0
 40
1.0
 40
1.0
 40
1.0
 40
1.0
 10
114.4149710038708
 20
134.1678105814996
 30
0.0
 10
114.9216511120213
 20
134.1678105814996
 30
0.0
 10
115.4169518409949
 20
134.1678105814996
 30
0.0
 10
115.8969038353598
 20
134.1678105814996
 30
0.0
  0
LINE
  5
C1
330
1F
100
AcDbEntity
  8
0
  6
Continuous
 62
     7
370
    25
100
AcDbLine
 10
125.7569035254
 20
84.757533343
 30
0.0
 11
125.7569035254
 21
134.1678113206
 31
0.0
  0
SPLINE
  5
C2
330
1F
100
AcDbEntity
  8
0
  6
Continuous
 62
     7
370
    25
100
AcDbSpline
210
0.0
220
0.0
230
1.0
 70
     8
 71
     3
 72
    10
 73
     6
 74
     0
 42
0.000000001
 43
0.00000001
 40
0.0
 40
0.0
 40
0.0
 40
0.0
 40
0.5
 40
0.5
 40
1.0
 40
1.0
 40
1.0
 40
1.0
 10
125.7569038353598
 20
84.75753318090673
 30
0.0
 10
125.7569038353598
 20
84.59764591271308
 30
0.0
 10
125.695594184124
 20
84.43651865719846
 30
0.0
 10
125.4764945465889
 20
84.20241965884364
 30
0.0
 10
125.3184463402754
 20
84.13089288525241
 30
0.0
 10
125.1569038353598
 20
84.13089288525241
 30
0.0
  0
SPLINE
  5
C3
330
1F
100
AcDbEntity
  8
0
  6
Continuous
 62
     7
370
    25
100
AcDbSpline
210
0.0
220
0.0
230
1.0
 70
    24
 71
     3
 72
    12
 73
     8
 74
     0
 42
0.000000001
 43
0.00000001
 40
0.0
 40
0.0
 40
0.0
 40
0.0
 40
0.2500000000000033
 40
0.2500000000000033
 40
0.5000000000000067
 40
0.5000000000000067
 40
1.0
 40
1.0
 40
1.0
 40
1.0
 10
125.1569038353598
 20
134.1678105814996
 30
0.0
 10
125.2471429030469
 20
134.1678105814996
 30
0.0
 10
125.3380410171534
 20
134.1678105814996
 30
0.0
 10
125.4926380536419
 20
134.1678105814996
 30
0.0
 10
125.55761646975
 20
134.1678105814996
 30
0.0
 10
125.7094514976863
 20
134.1678105814996
 30
0.0
 10
125.7569038353598
 20
134.1678105814996
 30
0.0
 10
125.7569038353598
 20
134.1678105814996
 30
0.0
  0
LINE
  5
C4
330
1F
100
AcDbEntity
  8
0
  6
Continuous
 62
     7
370
    25
100
AcDbLine
 10
104.7569038085
 20
134.1678113206
 30
0.0
 11
114.4149712957
 21
134.1678113206
 31
0.0
  0
LINE
  5
C5
330
1F
100
AcDbEntity
  8
0
  6
Continuous
 62
     7
370
    25
100
AcDbLine
 10
114.4149712957
 20
84.1308929487
 30
0.0
 11
112.7569041885
 21
84.1308929487
 31
0.0
  0
SPLINE
  5
C6
330
1F
100
AcDbEntity
  8
0
  6
Continuous
 62
     7
370
    25
100
AcDbSpline
210
0.0
220
0.0
230
1.0
 70
     8
 71
     3
 72
    28
 73
    24
 74
     0
 42
0.000000001
 43
0.00000001
 40
0.0
 40
0.0
 40
0.0
 40
0.0
 40
0.1250000000000001
 40
0.1250000000000001
 40
0.1875000000000001
 40
0.1875000000000001
 40
0.2500000000000001
 40
0.2500000000000001
 40
0.3749999999999999
 40
0.3749999999999999
 40
0.4375
 40
0.4375
 40
0.4999999999999999
 40
0.4999999999999999
 40
0.6249999999999999
 40
0.6249999999999999
 40
0.7499999999999997
 40
0.7499999999999997
 40
0.8124999999999998
 40
0.8124999999999998
 40
0.8749999999999998
 40
0.8749999999999998
 40
1.0
 40
1.0
 40
1.0
 40
1.0
 10
112.7569038353598
 20
84.13089288525241
 30
0.0
 10
112.2251960778669
 20
84.13089288525241
 30
0.0
 10
111.7029575125566
 20
84.1151081713022
 30
0.0
 10
110.9330870262816
 20
84.07011275722601
 30
0.0
 10
110.6787274540902
 20
84.05155776215025
 30
0.0
 10
110.1746058733917
 20
84.00770503970375
 30
0.0
 10
109.9248830559638
 20
83.98236043275156
 30
0.0
 10
109.1992931045174
 20
83.89895835500147
 30
0.0
 10
108.7409328429358
 20
83.83309279585038
 30
0.0
 10
108.090434899542
 20
83.72412245535858
 30
0.0
 10
107.8787528487495
 20
83.68588281959194
 30
0.0
 10
107.4746813596115
 20
83.60812408217258
 30
0.0
 10
107.2821748457906
 20
83.56862311999721
 30
0.0
 10
106.7323398747694
 20
83.44971537763122
 30
0.0
 10
106.4024110964606
 20
83.36989769620662
 30
0.0
 10
105.8179398278919
 20
83.21655453441056
 30
0.0
 10
105.5716626898784
 20
83.1452207811413
 30
0.0
 10
105.2718198971804
 20
83.05127727406668
 30
0.0
 10
105.1833630401082
 20
83.02208348070675
 30
0.0
 10
105.030001686803
 20
82.96861690644333
 30
0.0
 10
104.9649134725768
 20
82.94425757216815
 30
0.0
 10
104.809319456636
 20
82.88066742672342
 30
0.0
 10
104.7569038353598
 20
82.85056449163416
 30
0.0
 10
104.7569038353598
 20
82.83368759863724
 30
0.0
  0
LINE
  5
C7
330
1F
100
AcDbEntity
  8
0
  6
Continuous
 62
     7
370
    25
100
AcDbLine
 10
104.7569038085
 20
82.8336872621
 30
0.0
 11
104.7569038085
 21
82.8178100749
 31
0.0
  0
SPLINE
  5
C8
330
1F
100
AcDbEntity
  8
0
  6
Continuous
 62
     7
370
    25
100
AcDbSpline
210
0.0
220
0.0
230
1.0
 70
     8
 71
     3
 72
    17
 73
    13
 74
     0
 42
0.000000001
 43
0.00000001
 40
0.0
 40
0.0
 40
0.0
 40
0.0
 40
0.1034797280380778
 40
0.2100239090909901
 40
0.3134862262879433
 40
0.4198361712144981
 40
0.5254127947779869
 40
0.6339610881168427
 40
0.7409508662120068
 40
0.8511696072047016
 40
0.9558996557845765
 40
1.0
 40
1.0
 40
1.0
 40
1.0
 10
112.7569041885174
 20
144.7850060178581
 30
0.0
 10
112.3216556967915
 20
144.7904540094957
 30
0.0
 10
111.4382692462144
 20
144.8015113298243
 30
0.0
 10
110.1574413839917
 20
144.8878700901993
 30
0.0
 10
108.9400251885498
 20
145.0157412333324
 30
0.0
 10
107.832218572224
 20
145.1746856406508
 30
0.0
 10
106.8439800928951
 20
145.3491802136354
 30
0.0
 10
106.0192569930793
 20
145.5183466468223
 30
0.0
 10
105.3703033355807
 20
145.66622745529
 30
0.0
 10
104.953268032101
 20
145.7680182068126
 30
0.0
 10
104.7546712892231
 20
145.818375106447
 30
0.0
 10
104.777984406211
 20
145.8124655014715
 30
0.0
 10
104.7848923802114
 20
145.8107144101205
 30
0.0
  0
LINE
  5
C9
330
1F
100
AcDbEntity
  8
0
  6
Continuous
 62
     7
370
    25
100
AcDbLine
 10
114.4149712957
 20
144.7850060179
 30
0.0
 11
112.7569041885
 21
144.7850060179
 31
0.0
  0
LINE
  5
CA
330
1F
100
AcDbEntity
  8
0
  6
Continuous
 62
     7
370
    25
100
AcDbLine
 10
114.4149712957
 20
138.7765001966
 30
0.0
 11
114.4149712957
 21
144.7850060179
 31
0.0
  0
LINE
  5
CB
330
1F
100
AcDbEntity
  8
0
  6
Continuous
 62
     7
370
    25
100
AcDbLine
 10
112.0025245212
 20
138.7765001966
 30
0.0
 11
114.4149712957
 21
138.7765001966
 31
0.0
  0
SPLINE
  5
CC
330
1F
100
AcDbEntity
  8
0
  6
Continuous
 62
     7
370
    25
100
AcDbSpline
210
0.0
220
0.0
230
1.0
 70
     8
 71
     3
 72
    20
 73
    16
 74
     0
 42
0.000000001
 43
0.00000001
 40
0.0
 40
0.0
 40
0.0
 40
0.0
 40
0.2499999999999997
 40
0.2499999999999997
 40
0.3749999999999997
 40
0.3749999999999997
 40
0.4999999999999998
 40
0.4999999999999998
 40
0.6249999999999998
 40
0.6249999999999998
 40
0.7499999999999999
 40
0.7499999999999999
 40
0.8749999999999999
 40
0.8749999999999999
 40
1.0
 40
1.0
 40
1.0
 40
1.0
 10
104.7569038353598
 20
134.1678105814996
 30
0.0
 10
105.0052775696479
 20
134.821673009797
 30
0.0
 10
105.3248476619932
 20
135.4254587917941
 30
0.0
 10
105.9471538951978
 20
136.2522975279627
 30
0.0
 10
106.1785781556286
 20
136.5147261659156
 30
0.0
 10
106.6997924952783
 20
137.0113888200206
 30
0.0
 10
106.9864129779134
 20
137.2419756990421
 30
0.0
 10
107.605897719221
 20
137.6585299236248
 30
0.0
 10
107.940198098708
 20
137.8460277255923
 30
0.0
 10
108.6654585713327
 20
138.1774247032287
 30
0.0
 10
109.0473736287232
 20
138.316928690724
 30
0.0
 10
109.8421618048949
 20
138.5423821981949
 30
0.0
 10
110.2563199991013
 20
138.6290083097386
 30
0.0
 10
111.1218663396827
 20
138.7469890985927
 30
0.0
 10
111.5597539546945
 20
138.776500243867
 30
0.0
 10
112.0025241810491
 20
138.776500243867
 30
0.0
  0
SPLINE
  5
CD
330
1F
100
AcDbEntity
  8
0
  6
Continuous
 62
     7
370
    25
100
AcDbSpline
210
0.0
220
0.0
230
1.0
 70
    11
 71
     3
 72
    70
 73
    66
 74
     0
 42
0.000000001
 43
0.00000001
 40
0.0
 40
0.0
 40
0.0
 40
0.0
 40
0.0312499999999999
 40
0.0312499999999999
 40
0.0624999999999998
 40
0.0624999999999998
 40
0.0937499999999997
 40
0.0937499999999997
 40
0.1249999999999996
 40
0.1249999999999996
 40
0.1562499999999994
 40
0.1562499999999994
 40
0.1874999999999993
 40
0.1874999999999993
 40
0.2187499999999992
 40
0.2187499999999992
 40
0.2499999999999991
 40
0.2499999999999991
 40
0.281249999999999
 40
0.281249999999999
 40
0.3124999999999989
 40
0.3124999999999989
 40
0.3437499999999988
 40
0.3437499999999988
 40
0.3749999999999987
 40
0.3749999999999987
 40
0.4062499999999986
 40
0.4062499999999986
 40
0.4374999999999984
 40
0.4374999999999984
 40
0.4687499999999983
 40
0.4687499999999983
 40
0.4999999999999982
 40
0.4999999999999982
 40
0.5312499999999982
 40
0.5312499999999982
 40
0.5624999999999982
 40
0.5624999999999982
 40
0.5937499999999982
 40
0.5937499999999982
 40
0.6249999999999982
 40
0.6249999999999982
 40
0.6562499999999982
 40
0.6562499999999982
 40
0.6874999999999982
 40
0.6874999999999982
 40
0.7187499999999982
 40
0.7187499999999982
 40
0.7499999999999982
 40
0.7499999999999982
 40
0.7812499999999984
 40
0.7812499999999984
 40
0.8124999999999987
 40
0.8124999999999987
 40
0.8437499999999989
 40
0.8437499999999989
 40
0.8749999999999991
 40
0.8749999999999991
 40
0.9062499999999993
 40
0.9062499999999993
 40
0.9374999999999996
 40
0.9374999999999996
 40
0.9687499999999998
 40
0.9687499999999998
 40
1.0
 40
1.0
 40
1.0
 40
1.0
 10
107.8069038353598
 20
124.9387174674829
 30
0.0
 10
107.5423584966997
 20
124.9387174674829
 30
0.0
 10
107.2822878293226
 20
124.9633947622681
 30
0.0
 10
106.7707131494872
 20
125.05986643531
 30
0.0
 10
106.516537865747
 20
125.1328473512901
 30
0.0
 10
106.0322672356853
 20
125.3225879542287
 30
0.0
 10
105.8026261438041
 20
125.4384486126225
 30
0.0
 10
105.3680217955706
 20
125.7110664585802
 30
0.0
 10
105.162456018924
 20
125.8691055406339
 30
0.0
 10
104.7938988783288
 20
126.2126483916046
 30
0.0
 10
104.6284178955933
 20
126.3994108357062
 30
0.0
 10
104.3359933861582
 20
126.8029540101031
 30
0.0
 10
104.2118924095317
 20
127.0164510065322
 30
0.0
 10
104.012313212782
 20
127.4558343204547
 30
0.0
 10
103.9353796269237
 20
127.6849743076003
 30
0.0
 10
103.8325225684033
 20
128.1509484303604
 30
0.0
 10
103.8070496589442
 20
128.3838308760365
 30
0.0
 10
103.8067592483764
 20
128.8492284111163
 30
0.0
 10
103.8327838821522
 20
129.0841041685107
 30
0.0
 10
103.9349321666442
 20
129.5355973157569
 30
0.0
 10
104.0105086142273
 20
129.7536437911683
 30
0.0
 10
104.2110061453723
 20
130.1747383162061
 30
0.0
 10
104.3361349868806
 20
130.3766597007244
 30
0.0
 10
104.6254937879022
 20
130.7486891832433
 30
0.0
 10
104.7909047749577
 20
130.9213174868237
 30
0.0
 10
105.1638953331055
 20
131.2386354913697
 30
0.0
 10
105.3656283661946
 20
131.3784224248713
 30
0.0
 10
105.7984876170225
 20
131.6225986784231
 30
0.0
 10
106.0324061499119
 20
131.7278281894646
 30
0.0
 10
106.5165898850545
 20
131.8959853358398
 30
0.0
 10
106.76590551101
 20
131.9592362264336
 30
0.0
 10
107.2789380354377
 20
132.0448154355362
 30
0.0
 10
107.5442318583424
 20
132.0666876004586
 30
0.0
 10
108.0665664782121
 20
132.0668512501026
 30
0.0
 10
108.3263201406939
 20
132.0458495580066
 30
0.0
 10
108.8429319563391
 20
131.9604472029289
 30
0.0
 10
109.0952979968393
 20
131.896441019642
 30
0.0
 10
109.5768231183722
 20
131.7296264996008
 30
0.0
 10
109.8096738504858
 20
131.6254933362016
 30
0.0
 10
110.2467636989245
 20
131.3795066837067
 30
0.0
 10
110.4480846875817
 20
131.2397568527578
 30
0.0
 10
110.8171707128816
 20
130.9266187830332
 30
0.0
 10
110.9861554639333
 20
130.7511626237631
 30
0.0
 10
111.2766115205925
 20
130.3783223596629
 30
0.0
 10
111.3996833319546
 20
130.180200549552
 30
0.0
 10
111.6010195733766
 20
129.7594892068183
 30
0.0
 10
111.6782321193189
 20
129.5374991861508
 30
0.0
 10
111.780435662219
 20
129.0876342464424
 30
0.0
 10
111.8066640136713
 20
128.8573788333256
 30
0.0
 10
111.8071404129884
 20
128.3860628907766
 30
0.0
 10
111.7813980004904
 20
128.1528254750624
 30
0.0
 10
111.6800872241266
 20
127.6911489355644
 30
0.0
 10
111.6032545847356
 20
127.4602515484522
 30
0.0
 10
111.4028507455204
 20
127.0179755346606
 30
0.0
 10
111.2801792472284
 20
126.8069131033747
 30
0.0
 10
110.9902319580642
 20
126.405414592642
 30
0.0
 10
110.8216609786989
 20
126.2145080705661
 30
0.0
 10
110.4533913845858
 20
125.870782738569
 30
0.0
 10
110.2523295273154
 20
125.7156455523549
 30
0.0
 10
109.8152986087305
 20
125.4405681922752
 30
0.0
 10
109.5831503956009
 20
125.3234519628532
 30
0.0
 10
109.102140114102
 20
125.1345254777886
 30
0.0
 10
108.8500400312716
 20
125.0614505073943
 30
0.0
 10
108.3329705450126
 20
124.9633984482598
 30
0.0
 10
108.07144917402
 20
124.9387174674829
 30
0.0
 10
107.8069038353598
 20
124.9387174674829
 30
0.0
  0
SPLINE
  5
CE
330
1F
100
AcDbEntity
  8
0
  6
Continuous
 62
     7
370
    25
100
AcDbSpline
210
0.0
220
0.0
230
1.0
 70
    11
 71
     3
 72
    70
 73
    66
 74
     0
 42
0.000000001
 43
0.00000001
 40
0.0
 40
0.0
 40
0.0
 40
0.0
 40
0.0312499999999998
 40
0.0312499999999998
 40
0.0624999999999996
 40
0.0624999999999996
 40
0.0937499999999995
 40
0.0937499999999995
 40
0.1249999999999993
 40
0.1249999999999993
 40
0.1562499999999991
 40
0.1562499999999991
 40
0.1874999999999989
 40
0.1874999999999989
 40
0.2187499999999987
 40
0.2187499999999987
 40
0.2499999999999986
 40
0.2499999999999986
 40
0.2812499999999986
 40
0.2812499999999986
 40
0.3124999999999985
 40
0.3124999999999985
 40
0.3437499999999985
 40
0.3437499999999985
 40
0.3749999999999985
 40
0.3749999999999985
 40
0.4062499999999985
 40
0.4062499999999985
 40
0.4374999999999984
 40
0.4374999999999984
 40
0.4687499999999984
 40
0.4687499999999984
 40
0.4999999999999984
 40
0.4999999999999984
 40
0.5312499999999984
 40
0.5312499999999984
 40
0.5624999999999986
 40
0.5624999999999986
 40
0.5937499999999986
 40
0.5937499999999986
 40
0.6249999999999986
 40
0.6249999999999986
 40
0.6562499999999987
 40
0.6562499999999987
 40
0.6874999999999987
 40
0.6874999999999987
 40
0.7187499999999988
 40
0.7187499999999988
 40
0.7499999999999988
 40
0.7499999999999988
 40
0.7812499999999989
 40
0.7812499999999989
 40
0.8124999999999991
 40
0.8124999999999991
 40
0.8437499999999992
 40
0.8437499999999992
 40
0.8749999999999993
 40
0.8749999999999993
 40
0.9062499999999996
 40
0.9062499999999996
 40
0.9374999999999997
 40
0.9374999999999997
 40
0.9687499999999999
 40
0.9687499999999999
 40
1.0
 40
1.0
 40
1.0
 40
1.0
 10
107.8069038353598
 20
139.3767739762787
 30
0.0
 10
107.5423584966997
 20
139.3767739762787
 30
0.0
 10
107.2822878293226
 20
139.3926744166935
 30
0.0
 10
106.7707131494872
 20
139.4546187668678
 30
0.0
 10
106.516537865747
 20
139.5014210009591
 30
0.0
 10
106.0322672356853
 20
139.6223979844142
 30
0.0
 10
105.8026261438041
 20
139.696000312221
 30
0.0
 10
105.3680217955706
 20
139.8678245831991
 30
0.0
 10
105.162456018924
 20
139.9668280061265
 30
0.0
 10
104.7938988783288
 20
140.1799244200394
 30
0.0
 10
104.6284178955933
 20
140.2948241361691
 30
0.0
 10
104.3359933861582
 20
140.5401910348593
 30
0.0
 10
104.2118924095317
 20
140.6686309353296
 30
0.0
 10
104.012313212782
 20
140.9295230834156
 30
0.0
 10
103.9353796269237
 20
141.063904254755
 30
0.0
 10
103.8325225684033
 20
141.3332242058614
 30
0.0
 10
103.8070496589442
 20
141.4659054700795
 30
0.0
 10
103.8067592483764
 20
141.7270919442105
 30
0.0
 10
103.8327838821522
 20
141.8568569823752
 30
0.0
 10
103.9349321666442
 20
142.1024396166479
 30
0.0
 10
104.0105086142273
 20
142.2191011539568
 30
0.0
 10
104.2110061453723
 20
142.4410063441113
 30
0.0
 10
104.3361349868806
 20
142.5456175980343
 30
0.0
 10
104.6254937879022
 20
142.7356640096424
 30
0.0
 10
104.7909047749577
 20
142.8224236810921
 30
0.0
 10
105.1638953331055
 20
142.9799280568436
 30
0.0
 10
105.3656283661946
 20
143.0482533216309
 30
0.0
 10
105.7984876170225
 20
143.16648304525
 30
0.0
 10
106.0324061499119
 20
143.2167779613539
 30
0.0
 10
106.5165898850545
 20
143.2966434982435
 30
0.0
 10
106.76590551101
 20
143.3263846260431
 30
0.0
 10
107.2789380354377
 20
143.3665373675513
 30
0.0
 10
107.5442318583424
 20
143.3767356369612
 30
0.0
 10
108.0665664782121
 20
143.3768120953459
 30
0.0
 10
108.3263201406939
 20
143.3670210837369
 30
0.0
 10
108.8429319563391
 20
143.3269542449981
 30
0.0
 10
109.0952979968393
 20
143.2968570781413
 30
0.0
 10
109.5768231183722
 20
143.2176348683111
 30
0.0
 10
109.8096738504857
 20
143.1678773888477
 30
0.0
 10
110.2467636989245
 20
143.0487854463973
 30
0.0
 10
110.4480846875817
 20
142.98047018485
 30
0.0
 10
110.8171707128816
 20
142.8250692179165
 30
0.0
 10
110.9861554639333
 20
142.7369168758496
 30
0.0
 10
111.2766115205925
 20
142.5464774867332
 30
0.0
 10
111.3996833319546
 20
142.4438529090341
 30
0.0
 10
111.6010195733766
 20
142.2222125624261
 30
0.0
 10
111.6782321193189
 20
142.1034584868786
 30
0.0
 10
111.780435662219
 20
141.8587925479609
 30
0.0
 10
111.8066640136713
 20
141.7316358225123
 30
0.0
 10
111.8071404129884
 20
141.4671876766568
 30
0.0
 10
111.7813980004904
 20
141.3342869963996
 30
0.0
 10
111.6800872241265
 20
141.0674947229176
 30
0.0
 10
111.6032545847356
 20
140.932130821449
 30
0.0
 10
111.4028507455204
 20
140.6695510261464
 30
0.0
 10
111.2801792472284
 20
140.5425758663927
 30
0.0
 10
110.9902319580641
 20
140.2984964803103
 30
0.0
 10
110.8216609786989
 20
140.1810713555564
 30
0.0
 10
110.4533913845858
 20
139.967874894608
 30
0.0
 10
110.2523295273154
 20
139.8707007761831
 30
0.0
 10
109.8152986087305
 20
139.6973458889689
 30
0.0
 10
109.5831503956009
 20
139.6229463373122
 30
0.0
 10
109.102140114102
 20
139.5024934578076
 30
0.0
 10
108.8500400312716
 20
139.4556350825416
 30
0.0
 10
108.3329705450126
 20
139.3926775855578
 30
0.0
 10
108.07144917402
 20
139.3767739762787
 30
0.0
 10
107.8069038353598
 20
139.3767739762787
 30
0.0
  0
LINE
  5
CF
330
1F
100
AcDbEntity
  8
0
  6
Continuous
 62
     7
370
    25
100
AcDbLine
 10
121.1988357566
 20
84.1308929487
 30
0.0
 11
121.1988357566
 21
134.1678113206
 31
0.0
  0
SPLINE
  5
D0
330
1F
100
AcDbEntity
  8
0
  6
Continuous
 62
     7
370
    25
100
AcDbSpline
210
0.0
220
0.0
230
1.0
 70
     8
 71
     3
 72
     8
 73
     4
 74
     0
 42
0.000000001
 43
0.00000001
 40
0.0
 40
0.0
 40
0.0
 40
0.0
 40
1.0
 40
1.0
 40
1.0
 40
1.0
 10
121.1988366668489
 20
84.13089288525241
 30
0.0
 10
120.7033570061832
 20
85.02641897318577
 30
0.0
 10
120.209242958141
 20
85.92270338823803
 30
0.0
 10
119.7169038353598
 20
86.81997342244473
 30
0.0
  0
LINE
  5
D1
330
1F
100
AcDbEntity
  8
0
  6
Continuous
 62
     7
370
    25
100
AcDbLine
 10
119.7169041
 20
86.8199732615
 30
0.0
 11
119.7169041
 21
134.1678113206
 31
0.0
  0
SPLINE
  5
D2
330
1F
100
AcDbEntity
  8
0
  6
Continuous
 62
     7
370
    25
100
AcDbSpline
210
0.0
220
0.0
230
1.0
 70
    24
 71
     3
 72
     8
 73
     4
 74
     0
 42
0.000000001
 43
0.00000001
 40
0.0
 40
0.0
 40
0.0
 40
0.0
 40
1.0
 40
1.0
 40
1.0
 40
1.0
 10
119.7169038353598
 20
134.1678105814996
 30
0.0
 10
120.1968558297247
 20
134.1678105814996
 30
0.0
 10
120.6921565586984
 20
134.1678105814996
 30
0.0
 10
121.1988366668489
 20
134.1678105814996
 30
0.0
  0
LINE
  5
D3
330
1F
100
AcDbEntity
  8
0
  6
Continuous
 62
     7
370
    25
100
AcDbLine
 10
125.1569045447
 20
84.1308929487
 30
0.0
 11
121.1988357566
 21
84.1308929487
 31
0.0
  0
LINE
  5
D4
330
1F
100
AcDbEntity
  8
0
  6
Continuous
 62
     7
370
    25
100
AcDbLine
 10
121.1988357566
 20
134.1678113206
 30
0.0
 11
125.1569045447
 21
134.1678113206
 31
0.0
  0
ARC
  5
D5
330
1F
100
AcDbEntity
  8
0
  6
Continuous
 62
     7
370
    25
100
AcDbCircle
 10
107.8038988255
 20
126.2160420307
 30
0.0
 40
4.115011455683809
100
AcDbArc
 50
19.3349525029
 51
159.3357626738
  0
SPLINE
  5
D6
330
1F
100
AcDbEntity
  8
0
  6
Continuous
 62
     7
370
    25
100
AcDbSpline
210
0.0
220
0.0
230
1.0
 70
     8
 71
     3
 72
    10
 73
     6
 74
     0
 42
0.000000001
 43
0.00000001
 40
0.0
 40
0.0
 40
0.0
 40
0.0
 40
0.5
 40
0.5
 40
1.0
 40
1.0
 40
1.0
 40
1.0
 10
116.2912013670508
 20
140.7178105814996
 30
0.0
 10
116.1696611033823
 20
140.7925367487113
 30
0.0
 10
116.0683267430333
 20
140.9014817646281
 30
0.0
 10
115.9326878001449
 20
141.1519122453897
 30
0.0
 10
115.8969038353598
 20
141.2943316074887
 30
0.0
 10
115.8969038353598
 20
141.4374644325354
 30
0.0
  0
SPLINE
  5
D7
330
1F
100
AcDbEntity
  8
0
  6
Continuous
 62
     7
370
    25
100
AcDbSpline
210
0.0
220
0.0
230
1.0
 70
    24
 71
     3
 72
    12
 73
     8
 74
     0
 42
0.000000001
 43
0.00000001
 40
0.0
 40
0.0
 40
0.0
 40
0.0
 40
0.2500000000000037
 40
0.2500000000000037
 40
0.5000000000000074
 40
0.5000000000000074
 40
1.0
 40
1.0
 40
1.0
 40
1.0
 10
116.6969038353598
 20
140.7178105814996
 30
0.0
 10
116.6470271530424
 20
140.7178105814996
 30
0.0
 10
116.5990239596388
 20
140.7178105814996
 30
0.0
 10
116.5159758569268
 20
140.7178105814996
 30
0.0
 10
116.479846277459
 20
140.7178105814996
 30
0.0
 10
116.3839342465148
 20
140.7178105814996
 30
0.0
 10
116.334175578546
 20
140.7178105814996
 30
0.0
 10
116.2912013670508
 20
140.7178105814996
 30
0.0
  0
SPLINE
  5
D8
330
1F
100
AcDbEntity
  8
0
  6
Continuous
 62
     7
370
    25
100
AcDbSpline
210
0.0
220
0.0
230
1.0
 70
    24
 71
     3
 72
    14
 73
    10
 74
     0
 42
0.000000001
 43
0.00000001
 40
0.0
 40
0.0
 40
0.0
 40
0.0
 40
0.1249999999999991
 40
0.1249999999999991
 40
0.2499999999999982
 40
0.2499999999999982
 40
0.4999999999999998
 40
0.4999999999999998
 40
1.0
 40
1.0
 40
1.0
 40
1.0
 10
116.6969038353598
 20
87.91781058149958
 30
0.0
 10
116.6284659874734
 20
87.91781058149958
 30
0.0
 10
116.5629159487083
 20
87.91781058149958
 30
0.0
 10
116.4584893093004
 20
87.91781058149958
 30
0.0
 10
116.415944699539
 20
87.91781058149958
 30
0.0
 10
116.3033352389987
 20
87.91781058149957
 30
0.0
 10
116.2477961919792
 20
87.91781058149958
 30
0.0
 10
116.1051844965154
 20
87.91781058149957
 30
0.0
 10
116.0417791415197
 20
87.91781058149957
 30
0.0
 10
115.9945786376921
 20
87.91781058149958
 30
0.0
  0
SPLINE
  5
D9
330
1F
100
AcDbEntity
  8
0
  6
Continuous
 62
     7
370
    25
100
AcDbSpline
210
0.0
220
0.0
230
1.0
 70
     8
 71
     3
 72
    10
 73
     6
 74
     0
 42
0.000000001
 43
0.00000001
 40
0.0
 40
0.0
 40
0.0
 40
0.0
 40
0.5
 40
0.5
 40
1.0
 40
1.0
 40
1.0
 40
1.0
 10
115.8969038353598
 20
134.4536772129609
 30
0.0
 10
115.8969038353598
 20
134.4059057049677
 30
0.0
 10
115.899065078957
 20
134.358195982906
 30
0.0
 10
115.9077364528172
 20
134.2629008653577
 30
0.0
 10
115.9142656357731
 20
134.215208301391
 30
0.0
 10
115.92305145852
 20
134.1678105814996
 30
0.0
  0
SPLINE
  5
DA
330
1F
100
AcDbEntity
  8
0
  6
Continuous
 62
     7
370
    25
100
AcDbSpline
210
0.0
220
0.0
230
1.0
 70
    24
 71
     3
 72
    14
 73
    10
 74
     0
 42
0.000000001
 43
0.00000001
 40
0.0
 40
0.0
 40
0.0
 40
0.0
 40
0.4999999999999984
 40
0.4999999999999984
 40
0.7499999999999992
 40
0.7499999999999992
 40
0.8749999999999996
 40
0.8749999999999996
 40
1.0
 40
1.0
 40
1.0
 40
1.0
 10
119.6192290330276
 20
87.91781058149958
 30
0.0
 10
119.5724443279793
 20
87.91781058149958
 30
0.0
 10
119.5103931311997
 20
87.91781058149958
 30
0.0
 10
119.3670014926491
 20
87.91781058149957
 30
0.0
 10
119.3108578390979
 20
87.91781058149958
 30
0.0
 10
119.1979068169618
 20
87.91781058149958
 30
0.0
 10
119.1549060549236
 20
87.91781058149958
 30
0.0
 10
119.0508433446172
 20
87.91781058149958
 30
0.0
 10
118.9855111062602
 20
87.91781058149958
 30
0.0
 10
118.9169038353598
 20
87.91781058149958
 30
0.0
  0
SPLINE
  5
DB
330
1F
100
AcDbEntity
  8
0
  6
Continuous
 62
     7
370
    25
100
AcDbSpline
210
0.0
220
0.0
230
1.0
 70
    24
 71
     3
 72
    12
 73
     8
 74
     0
 42
0.000000001
 43
0.00000001
 40
0.0
 40
0.0
 40
0.0
 40
0.0
 40
0.5000000000000017
 40
0.5000000000000017
 40
0.7500000000000008
 40
0.7500000000000008
 40
1.0
 40
1.0
 40
1.0
 40
1.0
 10
119.3226063036689
 20
140.7178105814996
 30
0.0
 10
119.2795207540579
 20
140.7178105814996
 30
0.0
 10
119.2303685523086
 20
140.7178105814996
 30
0.0
 10
119.1338959580207
 20
140.7178105814996
 30
0.0
 10
119.0977943728861
 20
140.7178105814996
 30
0.0
 10
119.0146886150248
 20
140.7178105814996
 30
0.0
 10
118.9666920180585
 20
140.7178105814996
 30
0.0
 10
118.9169038353598
 20
140.7178105814996
 30
0.0
  0
SPLINE
  5
DC
330
1F
100
AcDbEntity
  8
0
  6
Continuous
 62
     7
370
    25
100
AcDbSpline
210
0.0
220
0.0
230
1.0
 70
     8
 71
     3
 72
    10
 73
     6
 74
     0
 42
0.000000001
 43
0.00000001
 40
0.0
 40
0.0
 40
0.0
 40
0.0
 40
0.5
 40
0.5
 40
1.0
 40
1.0
 40
1.0
 40
1.0
 10
119.7169038353598
 20
141.4374644325354
 30
0.0
 10
119.7169038353598
 20
141.2936943747173
 30
0.0
 10
119.680854776641
 20
141.1512750122222
 30
0.0
 10
119.5453459158669
 20
140.901380718865
 30
0.0
 10
119.4454699227708
 20
140.7933503826168
 30
0.0
 10
119.3226063036688
 20
140.7178105814995
 30
0.0
  0
SPLINE
  5
DD
330
1F
100
AcDbEntity
  8
0
  6
Continuous
 62
     7
370
    25
100
AcDbSpline
210
0.0
220
0.0
230
1.0
 70
     8
 71
     3
 72
    10
 73
     6
 74
     0
 42
0.000000001
 43
0.00000001
 40
0.0
 40
0.0
 40
0.0
 40
0.0
 40
0.5
 40
0.5
 40
1.0
 40
1.0
 40
1.0
 40
1.0
 10
119.6907562121997
 20
134.1678105814996
 30
0.0
 10
119.6994458551114
 20
134.2146894308178
 30
0.0
 10
119.7059849198619
 20
134.2621118962191
 30
0.0
 10
119.7147435542549
 20
134.3580486948059
 30
0.0
 10
119.7169038353598
 20
134.4059639828164
 30
0.0
 10
119.7169038353598
 20
134.4536772129609
 30
0.0
  0
LINE
  5
DE
330
1F
100
AcDbEntity
  8
0
  6
Continuous
 62
     7
370
    25
100
AcDbLine
 10
118.9169035963
 20
140.7178104384
 30
0.0
 11
116.6969043873
 21
140.7178104384
 31
0.0
  0
LINE
  5
DF
330
1F
100
AcDbEntity
  8
0
  6
Continuous
 62
     7
370
    25
100
AcDbLine
 10
118.9169035963
 20
87.9178107246
 30
0.0
 11
116.6969043873
 21
87.9178107246
 31
0.0
  0
LINE
  5
E0
330
1F
100
AcDbEntity
  8
0
  6
Continuous
 62
     7
370
    25
100
AcDbLine
 10
97.8069037404
 20
90.097379358
 30
0.0
 11
97.8069037404
 21
138.538241805
 31
0.0
  0
LINE
  5
E1
330
1F
100
AcDbEntity
  8
0
  6
Continuous
 62
     7
370
    25
100
AcDbLine
 10
78.0069036148
 20
91.0893645598
 30
0.0
 11
78.0069036148
 21
92.3540726765
 31
0.0
  0
SPLINE
  5
E2
330
1F
100
AcDbEntity
  8
0
  6
Continuous
 62
     7
370
    25
100
AcDbSpline
210
0.0
220
0.0
230
1.0
 70
     8
 71
     3
 72
    14
 73
    10
 74
     0
 42
0.000000001
 43
0.00000001
 40
0.0
 40
0.0
 40
0.0
 40
0.0
 40
0.25
 40
0.25
 40
0.5
 40
0.5
 40
0.75
 40
0.75
 40
1.0
 40
1.0
 40
1.0
 40
1.0
 10
77.22861671744413
 20
93.48465925793963
 30
0.0
 10
77.2852433926462
 20
93.37696180410276
 30
0.0
 10
77.37976605293592
 20
93.27417222238344
 30
0.0
 10
77.56281102849816
 20
93.0758149101633
 30
0.0
 10
77.65443760545287
 20
92.97975540148505
 30
0.0
 10
77.81329092314608
 20
92.7922263587758
 30
0.0
 10
77.88118153076779
 20
92.70081738599225
 30
0.0
 10
77.97809855647536
 20
92.5224411650821
 30
0.0
 10
78.0069038353604
 20
92.43521925883593
 30
0.0
 10
78.0069038353604
 20
92.35407305030166
 30
0.0
  0
SPLINE
  5
E3
330
1F
100
AcDbEntity
  8
0
  6
Continuous
 62
     7
370
    25
100
AcDbSpline
210
0.0
220
0.0
230
1.0
 70
     8
 71
     3
 72
    14
 73
    10
 74
     0
 42
0.000000001
 43
0.00000001
 40
0.0
 40
0.0
 40
0.0
 40
0.0
 40
0.1249999999999975
 40
0.1249999999999975
 40
0.249999999999995
 40
0.249999999999995
 40
0.4999999999999953
 40
0.4999999999999953
 40
1.0
 40
1.0
 40
1.0
 40
1.0
 10
76.60690383535984
 20
93.93134112021895
 30
0.0
 10
76.65544824401701
 20
93.93708943349924
 30
0.0
 10
76.70836359880191
 20
93.933988544843
 30
0.0
 10
76.80365894378497
 20
93.91179370068068
 30
0.0
 10
76.84390994106991
 20
93.89456147358482
 30
0.0
 10
76.94817995458288
 20
93.83823355713275
 30
0.0
 10
76.99850192973621
 20
93.79404721118695
 30
0.0
 10
77.12618487726158
 20
93.66303931233632
 30
0.0
 10
77.18227032432384
 20
93.57280479210603
 30
0.0
 10
77.22861671744558
 20
93.48465925794015
 30
0.0
  0
SPLINE
  5
E4
330
1F
100
AcDbEntity
  8
0
  6
Continuous
 62
     7
370
    25
100
AcDbSpline
210
0.0
220
0.0
230
1.0
 70
     8
 71
     3
 72
     8
 73
     4
 74
     0
 42
0.000000001
 43
0.00000001
 40
0.0
 40
0.0
 40
0.0
 40
0.0
 40
1.0
 40
1.0
 40
1.0
 40
1.0
 10
74.33837874241361
 20
93.62149583363616
 30
0.0
 10
75.07295576889656
 20
93.74012084470512
 30
0.0
 10
75.83643083829223
 20
93.8401067168414
 30
0.0
 10
76.60690383535984
 20
93.93134112021895
 30
0.0
  0
SPLINE
  5
E5
330
1F
100
AcDbEntity
  8
0
  6
Continuous
 62
     7
370
    25
100
AcDbSpline
210
0.0
220
0.0
230
1.0
 70
     8
 71
     3
 72
    14
 73
    10
 74
     0
 42
0.000000001
 43
0.00000001
 40
0.0
 40
0.0
 40
0.0
 40
0.0
 40
0.500000000000001
 40
0.500000000000001
 40
0.7500000000000004
 40
0.7500000000000004
 40
0.8750000000000003
 40
0.8750000000000003
 40
1.0
 40
1.0
 40
1.0
 40
1.0
 10
69.05690383535983
 20
93.4478728161045
 30
0.0
 10
69.94904996591342
 20
93.44715058990386
 30
0.0
 10
70.83902640170702
 20
93.45173679636132
 30
0.0
 10
72.16562156878261
 20
93.47946180075286
 30
0.0
 10
72.60646849728136
 20
93.49206833837704
 30
0.0
 10
73.26290873470377
 20
93.52308448638448
 30
0.0
 10
73.48092239129565
 20
93.53542765901125
 30
0.0
 10
73.91363124497843
 20
93.56845171417453
 30
0.0
 10
74.12890771014321
 20
93.58766887931297
 30
0.0
 10
74.33837874241362
 20
93.62149583363616
 30
0.0
  0
SPLINE
  5
E6
330
1F
100
AcDbEntity
  8
0
  6
Continuous
 62
     7
370
    25
100
AcDbSpline
210
0.0
220
0.0
230
1.0
 70
     8
 71
     3
 72
     8
 73
     4
 74
     0
 42
0.000000001
 43
0.00000001
 40
0.0000005163856712
 40
0.0000005163856712
 40
0.0000005163856712
 40
0.0000005163856712
 40
0.000026289209185
 40
0.000026289209185
 40
0.000026289209185
 40
0.000026289209185
 10
69.04685890494115
 20
93.45785668921238
 30
0.0
 10
69.05018664315263
 20
93.45452244233955
 30
0.0
 10
69.05353509613192
 20
93.45119448506054
 30
0.0
 10
69.05690383535982
 20
93.44787281610449
 30
0.0
  0
SPLINE
  5
E7
330
1F
100
AcDbEntity
  8
0
  6
Continuous
 62
     7
370
    25
100
AcDbSpline
210
0.0
220
0.0
230
1.0
 70
     8
 71
     3
 72
     8
 73
     4
 74
     0
 42
0.000000001
 43
0.00000001
 40
0.0000005099763573
 40
0.0000005099763573
 40
0.0000005099763573
 40
0.0000005099763573
 40
0.0000262827998699
 40
0.0000262827998699
 40
0.0000262827998699
 40
0.0000262827998699
 10
69.05690383535982
 20
135.1877483468946
 30
0.0
 10
69.0535350961321
 20
135.1844266779388
 30
0.0
 10
69.05018664315294
 20
135.1810987206599
 30
0.0
 10
69.04685890494163
 20
135.1777644737872
 30
0.0
  0
SPLINE
  5
E8
330
1F
100
AcDbEntity
  8
0
  6
Continuous
 62
     7
370
    25
100
AcDbSpline
210
0.0
220
0.0
230
1.0
 70
     8
 71
     3
 72
    10
 73
     6
 74
     0
 42
0.000000001
 43
0.00000001
 40
0.0
 40
0.0
 40
0.0
 40
0.0
 40
0.5
 40
0.5
 40
1.0
 40
1.0
 40
1.0
 40
1.0
 10
72.60690383535984
 20
135.1408979733273
 30
0.0
 10
72.01931828826926
 20
135.1619634935637
 30
0.0
 10
71.42857189480887
 20
135.1727219794359
 30
0.0
 10
70.24455272951
 20
135.1860867599716
 30
0.0
 10
69.65113874130455
 20
135.1882294026362
 30
0.0
 10
69.05690383535983
 20
135.1877483468946
 30
0.0
  0
SPLINE
  5
E9
330
1F
100
AcDbEntity
  8
0
  6
Continuous
 62
     7
370
    25
100
AcDbSpline
210
0.0
220
0.0
230
1.0
 70
     8
 71
     3
 72
    18
 73
    14
 74
     0
 42
0.000000001
 43
0.00000001
 40
0.0
 40
0.0
 40
0.0
 40
0.0
 40
0.2500000000000009
 40
0.2500000000000009
 40
0.500000000000001
 40
0.500000000000001
 40
0.7500000000000011
 40
0.7500000000000011
 40
0.875000000000001
 40
0.875000000000001
 40
0.9375000000000006
 40
0.9375000000000006
 40
1.0
 40
1.0
 40
1.0
 40
1.0
 10
74.00690383535985
 20
136.1619182538626
 30
0.0
 10
74.00690383535985
 20
136.0787113450054
 30
0.0
 10
73.97105473542157
 20
135.9899746896918
 30
0.0
 10
73.84618299938766
 20
135.8078494991316
 30
0.0
 10
73.7557825817398
 20
135.7127194505049
 30
0.0
 10
73.53353992699762
 20
135.5235379413806
 30
0.0
 10
73.40377514055186
 20
135.4285927732859
 30
0.0
 10
73.16313768324032
 20
135.290314065706
 30
0.0
 10
73.07537038510289
 20
135.2446036324036
 30
0.0
 10
72.92084629789608
 20
135.1867803271821
 30
0.0
 10
72.86423541184132
 20
135.1690655631443
 30
0.0
 10
72.74019138093472
 20
135.1445262599113
 30
0.0
 10
72.67247670591644
 20
135.1385471213731
 30
0.0
 10
72.60690383535984
 20
135.1408979733273
 30
0.0
  0
LINE
  5
EA
330
1F
100
AcDbEntity
  8
0
  6
Continuous
 62
     7
370
    25
100
AcDbLine
 10
74.0069029592
 20
136.1619182392
 30
0.0
 11
74.0069029592
 21
137.3458564742
 31
0.0
  0
SPLINE
  5
EB
330
1F
100
AcDbEntity
  8
0
  6
Continuous
 62
     7
370
    25
100
AcDbSpline
210
0.0
220
0.0
230
1.0
 70
     8
 71
     3
 72
    18
 73
    14
 74
     0
 42
0.000000001
 43
0.00000001
 40
0.0
 40
0.0
 40
0.0
 40
0.0
 40
0.001067142096085
 40
0.1270947925777493
 40
0.2524053537361832
 40
0.3766468838452861
 40
0.4391416358858051
 40
0.5008278334298175
 40
0.5624255844801763
 40
0.6253162510714301
 40
0.7499985254815132
 40
0.8752758926324193
 40
1.0
 40
1.0
 40
1.0
 40
1.0
 10
86.5772049613035
 20
90.66047188776159
 30
0.0
 10
86.57629288602077
 20
90.66035671986955
 30
0.0
 10
86.46766628484026
 20
90.6466404215398
 30
0.0
 10
86.855347756883
 20
90.69762668292144
 30
0.0
 10
87.72129621699254
 20
90.79718371879596
 30
0.0
 10
88.92170401071536
 20
90.86631434841503
 30
0.0
 10
89.97927956057309
 20
90.87026504868177
 30
0.0
 10
90.80641392469634
 20
90.84277818075752
 30
0.0
 10
91.63168556074417
 20
90.78423569194521
 30
0.0
 10
92.68605076785296
 20
90.6707170899855
 30
0.0
 10
93.84788697410639
 20
90.48756293415197
 30
0.0
 10
94.80012169477952
 20
90.28296278548582
 30
0.0
 10
94.92582679748817
 20
90.25367611547672
 30
0.0
 10
94.98854025450709
 20
90.23906518655443
 30
0.0
  0
SPLINE
  5
EC
330
1F
100
AcDbEntity
  8
0
  6
Continuous
 62
     7
370
    25
100
AcDbSpline
210
0.0
220
0.0
230
1.0
 70
     8
 71
     3
 72
    18
 73
    14
 74
     0
 42
0.000000001
 43
0.00000001
 40
0.0
 40
0.0
 40
0.0
 40
0.0
 40
0.1248907819469273
 40
0.2505384063477967
 40
0.3748721756041158
 40
0.4374907331267689
 40
0.4990776026247599
 40
0.5607931145009658
 40
0.6233901196104445
 40
0.7478191009174896
 40
0.8731941046696081
 40
0.9991614615322162
 40
0.9999999999999999
 40
0.9999999999999999
 40
0.9999999999999999
 40
0.9999999999999999
 10
94.98832139370205
 20
138.3964907838645
 30
0.0
 10
94.92458056173434
 20
138.3818293176375
 30
0.0
 10
94.79671262615477
 20
138.3524175361915
 30
0.0
 10
93.84471378956627
 20
138.1474635768339
 30
0.0
 10
92.68416971871363
 20
137.9642023149702
 30
0.0
 10
91.63190594705026
 20
137.8511717605952
 30
0.0
 10
90.80767864803198
 20
137.7929109531225
 30
0.0
 10
89.9800749027073
 20
137.7654638170004
 30
0.0
 10
88.92125757301307
 20
137.769448610875
 30
0.0
 10
87.71903783338723
 20
137.838541395371
 30
0.0
 10
86.85385706238836
 20
137.9381501325581
 30
0.0
 10
86.46770831475067
 20
137.9890077382014
 30
0.0
 10
86.57578618711428
 20
137.975306930778
 30
0.0
 10
86.57650088143708
 20
137.975216330463
 30
0.0
  0
SPLINE
  5
ED
330
1F
100
AcDbEntity
  8
0
  6
Continuous
 62
     7
370
    25
100
AcDbSpline
210
0.0
220
0.0
230
1.0
 70
     8
 71
     3
 72
     9
 73
     5
 74
     0
 42
0.000000001
 43
0.00000001
 40
0.0
 40
0.0
 40
0.0
 40
0.0
 40
0.7009339503679092
 40
0.9999999999999999
 40
0.9999999999999999
 40
0.9999999999999999
 40
0.9999999999999999
 10
67.92768740278842
 20
94.61653088169717
 30
0.0
 10
67.93682807373827
 20
94.59870159793628
 30
0.0
 10
67.94986877599707
 20
94.57326513027547
 30
0.0
 10
67.96503223926534
 20
94.62714448974903
 30
0.0
 10
67.96956711632373
 20
94.64325797694349
 30
0.0
  0
LINE
  5
EE
330
1F
100
AcDbEntity
  8
0
  6
Continuous
 62
     7
370
    25
100
AcDbLine
 10
67.9069040082
 20
94.6271330579
 30
0.0
 11
67.9069040082
 21
134.0084881051
 31
0.0
  0
SPLINE
  5
EF
330
1F
100
AcDbEntity
  8
0
  6
Continuous
 62
     7
370
    25
100
AcDbSpline
210
0.0
220
0.0
230
1.0
 70
     8
 71
     3
 72
    10
 73
     6
 74
     0
 42
0.000000001
 43
0.00000001
 40
0.0
 40
0.0
 40
0.0
 40
0.0
 40
0.5
 40
0.5
 40
1.0
 40
1.0
 40
1.0
 40
1.0
 10
67.96956721008324
 20
133.9923631262803
 30
0.0
 10
67.9606629209745
 20
134.0381046454935
 30
0.0
 10
67.94414754078151
 20
134.0552954849625
 30
0.0
 10
67.9170395947199
 20
134.0549722080268
 30
0.0
 10
67.90690383535986
 20
134.0370946657303
 30
0.0
 10
67.90690383535984
 20
134.0084883279777
 30
0.0
  0
SPLINE
  5
F0
330
1F
100
AcDbEntity
  8
0
  6
Continuous
 62
     7
370
    25
100
AcDbSpline
210
0.0
220
0.0
230
1.0
 70
     8
 71
     3
 72
    26
 73
    22
 74
     0
 42
0.000000001
 43
0.00000001
 40
0.0
 40
0.0
 40
0.0
 40
0.0
 40
0.2500000000000165
 40
0.2500000000000165
 40
0.3750000000000256
 40
0.3750000000000256
 40
0.4375000000000291
 40
0.4375000000000291
 40
0.4687500000000291
 40
0.4687500000000291
 40
0.5000000000000292
 40
0.5000000000000292
 40
0.5312500000000293
 40
0.5312500000000293
 40
0.5625000000000293
 40
0.5625000000000293
 40
0.625000000000026
 40
0.625000000000026
 40
0.7500000000000173
 40
0.7500000000000173
 40
1.0
 40
1.0
 40
1.0
 40
1.0
 10
68.73105748146435
 20
134.7079299150974
 30
0.0
 10
68.69245695859588
 20
134.590155218742
 30
0.0
 10
68.64615995604161
 20
134.4657655325801
 30
0.0
 10
68.55222060760768
 20
134.2605462002266
 30
0.0
 10
68.51690914069424
 20
134.1889733337801
 30
0.0
 10
68.45072916494857
 20
134.0730201011797
 30
0.0
 10
68.42619079828033
 20
134.0324355663694
 30
0.0
 10
68.38281805272655
 20
133.9682938844977
 30
0.0
 10
68.36730965130133
 20
133.9464274592127
 30
0.0
 10
68.33226700671433
 20
133.9008331908694
 30
0.0
 10
68.31271671599455
 20
133.877162899902
 30
0.0
 10
68.27078943562395
 20
133.8325463405621
 30
0.0
 10
68.2481373253923
 20
133.8116663280442
 30
0.0
 10
68.20716361130566
 20
133.7807929142934
 30
0.0
 10
68.18956431141024
 20
133.7709540444609
 30
0.0
 10
68.1449373255541
 20
133.7519644287648
 30
0.0
 10
68.12437810290076
 20
133.7516401041113
 30
0.0
 10
68.07325266340409
 20
133.7608635449875
 30
0.0
 10
68.05234125041557
 20
133.7821104412045
 30
0.0
 10
68.00089134285463
 20
133.8560793200353
 30
0.0
 10
67.98322604355008
 20
133.92219741335
 30
0.0
 10
67.96956721008324
 20
133.9923631262803
 30
0.0
  0
SPLINE
  5
F1
330
1F
100
AcDbEntity
  8
0
  6
Continuous
 62
     7
370
    25
100
AcDbSpline
210
0.0
220
0.0
230
1.0
 70
     8
 71
     3
 72
    10
 73
     6
 74
     0
 42
0.000000001
 43
0.00000001
 40
0.0
 40
0.0
 40
0.0
 40
0.0
 40
0.5
 40
0.5
 40
1.0
 40
1.0
 40
1.0
 40
1.0
 10
69.04685890494164
 20
135.1777644737872
 30
0.0
 10
68.9792996500234
 20
135.1100730809775
 30
0.0
 10
68.91566299468691
 20
135.0353659162238
 30
0.0
 10
68.80544224011503
 20
134.8763997837972
 30
0.0
 10
68.75862594689241
 20
134.7920445177892
 30
0.0
 10
68.73105748146435
 20
134.7079299150974
 30
0.0
  0
SPLINE
  5
F2
330
1F
100
AcDbEntity
  8
0
  6
Continuous
 62
     7
370
    25
100
AcDbSpline
210
0.0
220
0.0
230
1.0
 70
     8
 71
     3
 72
    10
 73
     6
 74
     0
 42
0.000000001
 43
0.00000001
 40
0.0
 40
0.0
 40
0.0
 40
0.0
 40
0.5
 40
0.5
 40
1.0
 40
1.0
 40
1.0
 40
1.0
 10
68.73105748146438
 20
93.9276912479016
 30
0.0
 10
68.7585348962176
 20
93.84385445143602
 30
0.0
 10
68.80524352650527
 20
93.75954396384918
 30
0.0
 10
68.91552198924721
 20
93.60042273336633
 30
0.0
 10
68.97940952785885
 20
93.52543798927825
 30
0.0
 10
69.04685890494117
 20
93.45785668921238
 30
0.0
  0
SPLINE
  5
F3
330
1F
100
AcDbEntity
  8
0
  6
Continuous
 62
     7
370
    25
100
AcDbSpline
210
0.0
220
0.0
230
1.0
 70
     8
 71
     3
 72
    24
 73
    20
 74
     0
 42
0.000000001
 43
0.00000001
 40
0.0
 40
0.0
 40
0.0
 40
0.0
 40
0.25
 40
0.25
 40
0.374999999999999
 40
0.374999999999999
 40
0.4374999999999993
 40
0.4374999999999993
 40
0.4687499999999994
 40
0.4687499999999994
 40
0.4999999999999995
 40
0.4999999999999995
 40
0.5624999999999971
 40
0.5624999999999971
 40
0.6249999999999947
 40
0.6249999999999947
 40
0.7499999999999947
 40
0.7499999999999947
 40
1.0
 40
1.0
 40
1.0
 40
1.0
 10
67.96956721008324
 20
94.64325803671883
 30
0.0
 10
67.98332032875348
 20
94.71390809470911
 30
0.0
 10
68.00109289615934
 20
94.78050620747405
 30
0.0
 10
68.0533439877147
 20
94.85460422770726
 30
0.0
 10
68.07437906329625
 20
94.8758620348688
 30
0.0
 10
68.1272794709247
 20
94.88400796101506
 30
0.0
 10
68.14838514380261
 20
94.88306815761928
 30
0.0
 10
68.19443731248056
 20
94.86205216604193
 30
0.0
 10
68.21280778446396
 20
94.85114335993431
 30
0.0
 10
68.25435941952968
 20
94.81850844898696
 30
0.0
 10
68.27692609228659
 20
94.79701646861558
 30
0.0
 10
68.3397071087466
 20
94.72855052502926
 30
0.0
 10
68.37283686971449
 20
94.68247606682418
 30
0.0
 10
68.42975455619951
 20
94.5974681784895
 30
0.0
 10
68.45394058170329
 20
94.55718787730812
 30
0.0
 10
68.51914853208305
 20
94.44225165084218
 30
0.0
 10
68.55386459227428
 20
94.37166866569517
 30
0.0
 10
68.64707986260515
 20
94.16746290661656
 30
0.0
 10
68.69275239796583
 20
94.0445645242892
 30
0.0
 10
68.73105748146438
 20
93.92769124790162
 30
0.0
  0
SPLINE
  5
F4
330
1F
100
AcDbEntity
  8
0
  6
Continuous
 62
     7
370
    25
100
AcDbSpline
210
0.0
220
0.0
230
1.0
 70
     8
 71
     3
 72
     8
 73
     4
 74
     0
 42
0.000000001
 43
0.00000001
 40
0.0
 40
0.0
 40
0.0
 40
0.0
 40
1.0
 40
1.0
 40
1.0
 40
1.0
 10
121.1988366668489
 20
144.7850060546638
 30
0.0
 10
120.7036966374846
 20
143.8983264064836
 30
0.0
 10
120.2096139322056
 20
143.0110637707976
 30
0.0
 10
119.7169038353598
 20
142.1230447726712
 30
0.0
  0
LINE
  5
F5
330
1F
100
AcDbEntity
  8
0
  6
Continuous
 62
     7
370
    25
100
AcDbLine
 10
121.1988357566
 20
138.7765001966
 30
0.0
 11
121.1988357566
 21
144.7850060179
 31
0.0
  0
SPLINE
  5
F6
330
1F
100
AcDbEntity
  8
0
  6
Continuous
 62
     7
370
    25
100
AcDbSpline
210
0.0
220
0.0
230
1.0
 70
     8
 71
     3
 72
     8
 73
     4
 74
     0
 42
0.000000001
 43
0.00000001
 40
0.0
 40
0.0
 40
0.0
 40
0.0
 40
1.0
 40
1.0
 40
1.0
 40
1.0
 10
119.7169038353598
 20
135.3679542490829
 30
0.0
 10
120.1961819859497
 20
136.5089654789355
 30
0.0
 10
120.6917498250896
 20
137.6453498897033
 30
0.0
 10
121.1988366668489
 20
138.776500243867
 30
0.0
  0
LINE
  5
F7
330
1F
100
AcDbEntity
  8
0
  6
Continuous
 62
     7
370
    25
100
AcDbLine
 10
119.7169041
 20
135.3679545684
 30
0.0
 11
119.7169041
 21
142.1230439557
 31
0.0
  0
LINE
  5
F8
330
1F
100
AcDbEntity
  8
0
  6
Continuous
 62
     7
370
    25
100
AcDbLine
 10
119.7169041
 20
134.4536770596
 30
0.0
 11
119.7169041
 21
135.3679545684
 31
0.0
  0
LINE
  5
F9
330
1F
100
AcDbEntity
  8
0
  6
Continuous
 62
     7
370
    25
100
AcDbLine
 10
121.1988357566
 20
138.7765001966
 30
0.0
 11
125.1569045447
 21
138.7765001966
 31
0.0
  0
SPLINE
  5
FA
330
1F
100
AcDbEntity
  8
0
  6
Continuous
 62
     7
370
    25
100
AcDbSpline
210
0.0
220
0.0
230
1.0
 70
     8
 71
     3
 72
    12
 73
     8
 74
     0
 42
0.000000001
 43
0.00000001
 40
0.0
 40
0.0
 40
0.0
 40
0.0
 40
0.25
 40
0.25
 40
0.5
 40
0.5
 40
1.0
 40
1.0
 40
1.0
 40
1.0
 10
125.1569038353598
 20
138.776500243867
 30
0.0
 10
125.2481035571855
 20
138.776500243867
 30
0.0
 10
125.3386985663215
 20
138.7482805452791
 30
0.0
 10
125.4921112927682
 20
138.653837538031
 30
0.0
 10
125.5573201600919
 20
138.5875505613257
 30
0.0
 10
125.7101046894318
 20
138.3619257380374
 30
0.0
 10
125.7569038353598
 20
138.1794994750049
 30
0.0
 10
125.7569038353598
 20
137.998762842758
 30
0.0
  0
LINE
  5
FB
330
1F
100
AcDbEntity
  8
0
  6
Continuous
 62
     7
370
    25
100
AcDbLine
 10
125.7569035254
 20
137.9987620278
 30
0.0
 11
125.7569035254
 21
134.1678113206
 31
0.0
  0
SPLINE
  5
FC
330
1F
100
AcDbEntity
  8
0
  6
Continuous
 62
     7
370
    25
100
AcDbSpline
210
0.0
220
0.0
230
1.0
 70
     8
 71
     3
 72
    10
 73
     6
 74
     0
 42
0.000000001
 43
0.00000001
 40
0.0
 40
0.0
 40
0.0
 40
0.0
 40
0.5
 40
0.5
 40
1.0
 40
1.0
 40
1.0
 40
1.0
 10
125.7569038353598
 20
144.1642509052635
 30
0.0
 10
125.7569038353598
 20
144.3246561716143
 30
0.0
 10
125.694666004253
 20
144.4837179846029
 30
0.0
 10
125.4755310805104
 20
144.7146304502332
 30
0.0
 10
125.3179423855185
 20
144.7850060546638
 30
0.0
 10
125.1569038353598
 20
144.7850060546638
 30
0.0
  0
LINE
  5
FD
330
1F
100
AcDbEntity
  8
0
  6
Continuous
 62
     7
370
    25
100
AcDbLine
 10
125.7569035254
 20
137.9987620278
 30
0.0
 11
125.7569035254
 21
144.1642515822
 31
0.0
  0
SPLINE
  5
FE
330
1F
100
AcDbEntity
  8
0
  6
Continuous
 62
     7
370
    25
100
AcDbSpline
210
0.0
220
0.0
230
1.0
 70
     8
 71
     3
 72
     8
 73
     4
 74
     0
 42
0.000000001
 43
0.00000001
 40
0.0
 40
0.0
 40
0.0
 40
0.0
 40
1.0
 40
1.0
 40
1.0
 40
1.0
 10
114.4149710038708
 20
138.776500243867
 30
0.0
 10
114.9220578456301
 20
137.6453498897033
 30
0.0
 10
115.41762568477
 20
136.5089654789355
 30
0.0
 10
115.8969038353598
 20
135.3679542490829
 30
0.0
  0
LINE
  5
FF
330
1F
100
AcDbEntity
  8
0
  6
Continuous
 62
     7
370
    25
100
AcDbLine
 10
115.8969038836
 20
135.3679545684
 30
0.0
 11
115.8969038836
 21
134.4536770596
 31
0.0
  0
LINE
  5
100
330
1F
100
AcDbEntity
  8
0
  6
Continuous
 62
     7
370
    25
100
AcDbLine
 10
125.1569045447
 20
144.7850060179
 30
0.0
 11
121.1988357566
 21
144.7850060179
 31
0.0
  0
SPLINE
  5
101
330
1F
100
AcDbEntity
  8
0
  6
Continuous
 62
     7
370
    25
100
AcDbSpline
210
0.0
220
0.0
230
1.0
 70
     8
 71
     3
 72
     8
 73
     4
 74
     0
 42
0.000000001
 43
0.00000001
 40
0.0
 40
0.0
 40
0.0
 40
0.0
 40
1.0
 40
1.0
 40
1.0
 40
1.0
 10
115.8969038353598
 20
142.1230447726712
 30
0.0
 10
115.4041937385141
 20
143.0110637707976
 30
0.0
 10
114.9101110332351
 20
143.8983264064836
 30
0.0
 10
114.4149710038708
 20
144.7850060546638
 30
0.0
  0
LINE
  5
102
330
1F
100
AcDbEntity
  8
0
  6
Continuous
 62
     7
370
    25
100
AcDbLine
 10
115.8969038836
 20
135.3679545684
 30
0.0
 11
115.8969038836
 21
142.1230439557
 31
0.0
  0
ARC
  5
103
330
1F
100
AcDbEntity
  8
0
  6
Continuous
 62
     7
370
    25
100
AcDbCircle
 10
107.8071138722
 20
133.0477082689
 30
0.0
 40
7.226553215484753
100
AcDbArc
 50
70.8976388436
 51
109.1655731354
  0
SPLINE
  5
104
330
1F
100
AcDbEntity
  8
0
  6
Continuous
 62
     7
370
    25
100
AcDbSpline
210
0.0
220
0.0
230
1.0
 70
    11
 71
     3
 72
    62
 73
    58
 74
     0
 42
0.000000001
 43
0.00000001
 40
0.0
 40
0.0
 40
0.0
 40
0.0
 40
0.0312500000000004
 40
0.0312500000000004
 40
0.0625000000000008
 40
0.0625000000000008
 40
0.0937500000000012
 40
0.0937500000000012
 40
0.1250000000000016
 40
0.1250000000000016
 40
0.1562500000000021
 40
0.1562500000000021
 40
0.1875000000000024
 40
0.1875000000000024
 40
0.2187500000000029
 40
0.2187500000000029
 40
0.2500000000000033
 40
0.2500000000000033
 40
0.2812500000000037
 40
0.2812500000000037
 40
0.3125000000000041
 40
0.3125000000000041
 40
0.3437500000000045
 40
0.3437500000000045
 40
0.3750000000000049
 40
0.3750000000000049
 40
0.4062500000000053
 40
0.4062500000000053
 40
0.4375000000000057
 40
0.4375000000000057
 40
0.4687500000000062
 40
0.4687500000000062
 40
0.5000000000000066
 40
0.5000000000000066
 40
0.531250000000007
 40
0.531250000000007
 40
0.5625000000000073
 40
0.5625000000000073
 40
0.6250000000000064
 40
0.6250000000000064
 40
0.6875000000000054
 40
0.6875000000000054
 40
0.7500000000000044
 40
0.7500000000000044
 40
0.8125000000000036
 40
0.8125000000000036
 40
0.843750000000003
 40
0.843750000000003
 40
0.8750000000000023
 40
0.8750000000000023
 40
0.9062500000000018
 40
0.9062500000000018
 40
0.9375000000000012
 40
0.9375000000000012
 40
0.9687500000000006
 40
0.9687500000000006
 40
1.0
 40
1.0
 40
1.0
 40
1.0
 10
159.0504009205379
 20
129.0527614066012
 30
0.0
 10
159.1982420770044
 20
129.1531967764959
 30
0.0
 10
159.3592842921179
 20
129.2411804003208
 30
0.0
 10
159.704915157935
 20
129.3963070080605
 30
0.0
 10
159.8911636617819
 20
129.4638550815073
 30
0.0
 10
160.2794210647652
 20
129.5769732895277
 30
0.0
 10
160.4797349775078
 20
129.6223018391976
 30
0.0
 10
160.892148448414
 20
129.6925174803894
 30
0.0
 10
161.1061180063679
 20
129.7174236461909
 30
0.0
 10
161.533205031511
 20
129.7457276928041
 30
0.0
 10
161.7470560829361
 20
129.7494449464762
 30
0.0
 10
162.1753679969602
 20
129.7362758725225
 30
0.0
 10
162.3916391886391
 20
129.7190468670573
 30
0.0
 10
162.8106961946659
 20
129.6640332611398
 30
0.0
 10
163.0146191716803
 20
129.6264027426342
 30
0.0
 10
163.4110483486214
 20
129.5296874810331
 30
0.0
 10
163.6053918024423
 20
129.4697862354166
 30
0.0
 10
163.9680325591735
 20
129.3300168570389
 30
0.0
 10
164.1373442764589
 20
129.2502011611699
 30
0.0
 10
164.4505949815592
 20
129.0681688191019
 30
0.0
 10
164.5960008752801
 20
128.9643901219187
 30
0.0
 10
164.8454711750115
 20
128.7395771704456
 30
0.0
 10
164.950850624086
 20
128.6183291819658
 30
0.0
 10
165.119628525458
 20
128.3554272578704
 30
0.0
 10
165.1825048724493
 20
128.2126212661107
 30
0.0
 10
165.2547565312634
 20
127.9212331154247
 30
0.0
 10
165.265681758583
 20
127.7700650176505
 30
0.0
 10
165.2339808343783
 20
127.460369390245
 30
0.0
 10
165.1921549223311
 20
127.3072496182624
 30
0.0
 10
165.0597991253305
 20
127.0047178319019
 30
0.0
 10
164.9685490812809
 20
126.8555073853611
 30
0.0
 10
164.7481810982329
 20
126.5755288015368
 30
0.0
 10
164.6167992030742
 20
126.4416049439618
 30
0.0
 10
164.3236262268668
 20
126.1955089420269
 30
0.0
 10
164.1628201496629
 20
126.0836048096024
 30
0.0
 10
163.8147705783335
 20
125.8816283573846
 30
0.0
 10
163.6278745852463
 20
125.7921791047159
 30
0.0
 10
163.0487405516378
 20
125.5660365076781
 30
0.0
 10
162.6258154583559
 20
125.4672937453167
 30
0.0
 10
161.7739120382361
 20
125.3879227857192
 30
0.0
 10
161.3343688864702
 20
125.4065358455786
 30
0.0
 10
160.4984463512071
 20
125.5569396499724
 30
0.0
 10
160.0899953777187
 20
125.6910016643672
 30
0.0
 10
159.3673851598481
 20
126.0540982849086
 30
0.0
 10
159.0415249281685
 20
126.2894651933494
 30
0.0
 10
158.6689062512213
 20
126.6882539608819
 30
0.0
 10
158.5615198770888
 20
126.8309919790413
 30
0.0
 10
158.3916851322968
 20
127.1284915065677
 30
0.0
 10
158.3308856658905
 20
127.2795640157492
 30
0.0
 10
158.2587878679796
 20
127.5857812254974
 30
0.0
 10
158.2482492076781
 20
127.7426538627187
 30
0.0
 10
158.2804918054736
 20
128.0429201520072
 30
0.0
 10
158.3227249000295
 20
128.1891183636601
 30
0.0
 10
158.4572306971251
 20
128.4684072190589
 30
0.0
 10
158.5474344429308
 20
128.5980557386312
 30
0.0
 10
158.7697942480794
 20
128.8401020507612
 30
0.0
 10
158.9025597640713
 20
128.9523260367065
 30
0.0
 10
159.0504009205378
 20
129.0527614066012
 30
0.0
  0
SPLINE
  5
105
330
1F
100
AcDbEntity
  8
0
  6
Continuous
 62
     7
370
    25
100
AcDbSpline
210
0.0
220
0.0
230
1.0
 70
    11
 71
     3
 72
    70
 73
    66
 74
     0
 42
0.000000001
 43
0.00000001
 40
0.0
 40
0.0
 40
0.0
 40
0.0
 40
0.0312499999999993
 40
0.0312499999999993
 40
0.0624999999999985
 40
0.0624999999999985
 40
0.0937499999999978
 40
0.0937499999999978
 40
0.124999999999997
 40
0.124999999999997
 40
0.1562499999999963
 40
0.1562499999999963
 40
0.1874999999999955
 40
0.1874999999999955
 40
0.2187499999999948
 40
0.2187499999999948
 40
0.249999999999994
 40
0.249999999999994
 40
0.2812499999999942
 40
0.2812499999999942
 40
0.3124999999999945
 40
0.3124999999999945
 40
0.3437499999999947
 40
0.3437499999999947
 40
0.374999999999995
 40
0.374999999999995
 40
0.4062499999999952
 40
0.4062499999999952
 40
0.4374999999999955
 40
0.4374999999999955
 40
0.4687499999999957
 40
0.4687499999999957
 40
0.499999999999996
 40
0.499999999999996
 40
0.5312499999999962
 40
0.5312499999999962
 40
0.5624999999999964
 40
0.5624999999999964
 40
0.5937499999999968
 40
0.5937499999999968
 40
0.624999999999997
 40
0.624999999999997
 40
0.6562499999999972
 40
0.6562499999999972
 40
0.6874999999999974
 40
0.6874999999999974
 40
0.7187499999999978
 40
0.7187499999999978
 40
0.749999999999998
 40
0.749999999999998
 40
0.7812499999999982
 40
0.7812499999999982
 40
0.8124999999999984
 40
0.8124999999999984
 40
0.8437499999999988
 40
0.8437499999999988
 40
0.874999999999999
 40
0.874999999999999
 40
0.9062499999999992
 40
0.9062499999999992
 40
0.9374999999999994
 40
0.9374999999999994
 40
0.9687499999999998
 40
0.9687499999999998
 40
1.0
 40
1.0
 40
1.0
 40
1.0
 10
158.2692494043841
 20
101.0648385229987
 30
0.0
 10
158.290190270659
 20
101.2200152112219
 30
0.0
 10
158.3368860365459
 20
101.3725425176969
 30
0.0
 10
158.4775381003019
 20
101.6722277825739
 30
0.0
 10
158.5729282660921
 20
101.8204670717606
 30
0.0
 10
158.8005179528401
 20
102.0975328293302
 30
0.0
 10
158.9339306338993
 20
102.2286526510116
 30
0.0
 10
159.2334442130192
 20
102.4716453029841
 30
0.0
 10
159.3965796046459
 20
102.5813609191531
 30
0.0
 10
159.7472735233676
 20
102.7781994482666
 30
0.0
 10
159.9362129740728
 20
102.865581341682
 30
0.0
 10
160.3251754426004
 20
103.011681399936
 30
0.0
 10
160.5264430465539
 20
103.0712888927305
 30
0.0
 10
160.9422914607296
 20
103.1634340687634
 30
0.0
 10
161.1561799964301
 20
103.1954965568602
 30
0.0
 10
161.5824258579825
 20
103.2301926564985
 30
0.0
 10
161.7965896303732
 20
103.2332729131058
 30
0.0
 10
162.2270401666395
 20
103.2102949841994
 30
0.0
 10
162.4418142744603
 20
103.1840366589702
 30
0.0
 10
162.8580974379472
 20
103.1041950508062
 30
0.0
 10
163.0614405098954
 20
103.0505583015497
 30
0.0
 10
163.4580499745804
 20
102.9151325228326
 30
0.0
 10
163.6501183045421
 20
102.8333851395955
 30
0.0
 10
164.0078709480014
 20
102.6479731544792
 30
0.0
 10
164.1755816662846
 20
102.5437003940041
 30
0.0
 10
164.4865420314493
 20
102.3109601043222
 30
0.0
 10
164.6284290324846
 20
102.1828833957635
 30
0.0
 10
164.8709672102281
 20
101.9146019874509
 30
0.0
 10
164.973638579389
 20
101.7730410278125
 30
0.0
 10
165.1368177290973
 20
101.4741661819637
 30
0.0
 10
165.1945533841358
 20
101.3210823079481
 30
0.0
 10
165.2587981497819
 20
101.0156840917659
 30
0.0
 10
165.2654509809736
 20
100.8599157094509
 30
0.0
 10
165.2255429495154
 20
100.5602177950418
 30
0.0
 10
165.1800160014956
 20
100.4163001304343
 30
0.0
 10
165.0389472343038
 20
100.1395127444732
 30
0.0
 10
164.9451232165409
 20
100.0104893579482
 30
0.0
 10
164.7181196435182
 20
99.77220557338309
 30
0.0
 10
164.5832407095852
 20
99.66178039582125
 30
0.0
 10
164.2860985351094
 20
99.46543172460102
 30
0.0
 10
164.1228264457816
 20
99.37822238707058
 30
0.0
 10
163.7687915760368
 20
99.22376055863711
 30
0.0
 10
163.5827033164177
 20
99.15851483062713
 30
0.0
 10
163.1938452130672
 20
99.04882514218794
 30
0.0
 10
162.9891947129594
 20
99.00415437418796
 30
0.0
 10
162.5730270956902
 20
98.93673494358045
 30
0.0
 10
162.3620936407177
 20
98.91383189910155
 30
0.0
 10
161.934685566414
 20
98.88851686463711
 30
0.0
 10
161.7162368550968
 20
98.88626186170252
 30
0.0
 10
161.2864858034536
 20
98.90280720864519
 30
0.0
 10
161.0746466342885
 20
98.92135851550002
 30
0.0
 10
160.6570436799421
 20
98.97945633957406
 30
0.0
 10
160.4493043120575
 20
99.01957765298965
 30
0.0
 10
160.0532367840114
 20
99.12034359538342
 30
0.0
 10
159.8643799745464
 20
99.18078126213115
 30
0.0
 10
159.5056174796084
 20
99.32364305709254
 30
0.0
 10
159.3338656930432
 20
99.40727011409936
 30
0.0
 10
159.0237267069439
 20
99.59417758277604
 30
0.0
 10
158.8848071425718
 20
99.69717792308597
 30
0.0
 10
158.6415233524316
 20
99.92504446609996
 30
0.0
 10
158.5363127516457
 20
100.0519008743141
 30
0.0
 10
158.3755604075715
 20
100.3182808857632
 30
0.0
 10
158.3184645359746
 20
100.4584612585725
 30
0.0
 10
158.2543220179145
 20
100.7545677242307
 30
0.0
 10
158.2483085381093
 20
100.9096618347756
 30
0.0
 10
158.2692494043841
 20
101.0648385229987
 30
0.0
  0
SPLINE
  5
106
330
1F
100
AcDbEntity
  8
0
  6
Continuous
 62
     7
370
    25
100
AcDbSpline
210
0.0
220
0.0
230
1.0
 70
    11
 71
     3
 72
    77
 73
    73
 74
     0
 42
0.000000001
 43
0.00000001
 40
0.0
 40
0.0
 40
0.0
 40
0.0
 40
0.0312500000000001
 40
0.0312500000000001
 40
0.0625000000000002
 40
0.0625000000000002
 40
0.0937500000000002
 40
0.0937500000000002
 40
0.1250000000000003
 40
0.1250000000000003
 40
0.1562500000000004
 40
0.1562500000000004
 40
0.1875000000000005
 40
0.1875000000000005
 40
0.2187500000000006
 40
0.2187500000000006
 40
0.2343750000000004
 40
0.2343750000000004
 40
0.2500000000000003
 40
0.2656250000000002
 40
0.2656250000000002
 40
0.2812500000000001
 40
0.2812500000000001
 40
0.3125000000000001
 40
0.3125000000000001
 40
0.3437500000000001
 40
0.3437500000000001
 40
0.3750000000000002
 40
0.3750000000000002
 40
0.4062500000000002
 40
0.4062500000000002
 40
0.4375000000000002
 40
0.4375000000000002
 40
0.4687500000000002
 40
0.4687500000000002
 40
0.5000000000000002
 40
0.5000000000000002
 40
0.5312500000000003
 40
0.5312500000000003
 40
0.5625000000000002
 40
0.5625000000000002
 40
0.5937500000000002
 40
0.5937500000000002
 40
0.6250000000000002
 40
0.6250000000000002
 40
0.6562500000000002
 40
0.6562500000000002
 40
0.6875000000000001
 40
0.6875000000000001
 40
0.7031250000000002
 40
0.7031250000000002
 40
0.7187500000000002
 40
0.7187500000000002
 40
0.7500000000000007
 40
0.7500000000000007
 40
0.7656250000000008
 40
0.7656250000000008
 40
0.781250000000001
 40
0.781250000000001
 40
0.8125000000000008
 40
0.8125000000000008
 40
0.8437500000000007
 40
0.8437500000000007
 40
0.8750000000000006
 40
0.8750000000000006
 40
0.9062500000000004
 40
0.9062500000000004
 40
0.9375000000000002
 40
0.9375000000000002
 40
0.9687500000000001
 40
0.9687500000000001
 40
1.0
 40
1.0
 40
1.0
 40
1.0
 10
191.5069038353598
 20
106.0306358131829
 30
0.0
 10
191.2126175848004
 20
106.0306358131829
 30
0.0
 10
190.9225327150597
 20
106.053467874254
 30
0.0
 10
190.3504944699915
 20
106.1435747704921
 30
0.0
 10
190.0670111972032
 20
106.2113510647892
 30
0.0
 10
189.5154930607349
 20
106.3931903444621
 30
0.0
 10
189.252378250763
 20
106.5053522948251
 30
0.0
 10
188.7514829312861
 20
106.7733289189726
 30
0.0
 10
188.5114499053509
 20
106.9309959635646
 30
0.0
 10
188.0707683859317
 20
107.2872903257356
 30
0.0
 10
187.8719463504783
 20
107.4836499686357
 30
0.0
 10
187.5184170717769
 20
107.914995454184
 30
0.0
 10
187.3621827111154
 20
108.1535626740252
 30
0.0
 10
187.1108741144328
 20
108.6536795803826
 30
0.0
 10
187.0144882842316
 20
108.9152729846112
 30
0.0
 10
186.9155238404781
 20
109.3261555798897
 30
0.0
 10
186.8901296385059
 20
109.4672126058333
 30
0.0
 10
186.8563601045045
 20
109.7493613041399
 30
0.0
 10
186.8392167775847
 20
110.0320577577634
 30
0.0
 10
186.8546085945352
 20
110.3158506161735
 30
0.0
 10
186.8864546718444
 20
110.6001868018807
 30
0.0
 10
186.9108532948231
 20
110.7435515900491
 30
0.0
 10
187.0076900257495
 20
111.1659676211132
 30
0.0
 10
187.1029913475047
 20
111.4377153787342
 30
0.0
 10
187.3524932872279
 20
111.9619595943118
 30
0.0
 10
187.5071282113948
 20
112.2133188795055
 30
0.0
 10
187.8600938487824
 20
112.6747348854826
 30
0.0
 10
188.0616861411698
 20
112.889504201703
 30
0.0
 10
188.5023637831701
 20
113.2758473329915
 30
0.0
 10
188.7387942908222
 20
113.4458096650001
 30
0.0
 10
189.241992397221
 20
113.7418144960217
 30
0.0
 10
189.5104255272377
 20
113.867955986435
 30
0.0
 10
190.0578634571596
 20
114.0679522580549
 30
0.0
 10
190.3389749787983
 20
114.1433429649112
 30
0.0
 10
190.9158800001862
 20
114.2452238194652
 30
0.0
 10
191.2097523457345
 20
114.2708700012461
 30
0.0
 10
191.7910847145244
 20
114.2716136168224
 30
0.0
 10
192.0810111712968
 20
114.2472094384471
 30
0.0
 10
192.6593301432293
 20
114.1470278718306
 30
0.0
 10
192.9432240220575
 20
114.0716711375719
 30
0.0
 10
193.4889741887791
 20
113.8741028236859
 30
0.0
 10
193.7527075273394
 20
113.7516123028099
 30
0.0
 10
194.2605058895086
 20
113.4556933868948
 30
0.0
 10
194.4986884081061
 20
113.285347156718
 30
0.0
 10
194.9359055515183
 20
112.9052955709169
 30
0.0
 10
195.1365535515816
 20
112.6945273200218
 30
0.0
 10
195.496207489758
 20
112.2294527755054
 30
0.0
 10
195.6488592247243
 20
111.9834639893861
 30
0.0
 10
195.8370929694398
 20
111.5946387895254
 30
0.0
 10
195.8929971164964
 20
111.4616980778124
 30
0.0
 10
195.9904599775049
 20
111.1888729012157
 30
0.0
 10
196.032045343491
 20
111.0484188099468
 30
0.0
 10
196.131288386191
 20
110.6278053409553
 30
0.0
 10
196.1651923755184
 20
110.3450082173521
 30
0.0
 10
196.1670628104976
 20
109.917318474222
 30
0.0
 10
196.1592941999122
 20
109.773273825252
 30
0.0
 10
196.1273427884722
 20
109.4906607854197
 30
0.0
 10
196.1032718524632
 20
109.3516081537441
 30
0.0
 10
196.0074961486492
 20
108.9409496160345
 30
0.0
 10
195.9109478673493
 20
108.6729952996601
 30
0.0
 10
195.6608128101682
 20
108.1687028174167
 30
0.0
 10
195.5089228156531
 20
107.9338787646182
 30
0.0
 10
195.1539722392163
 20
107.4962190370077
 30
0.0
 10
194.9515340121154
 20
107.2952529534175
 30
0.0
 10
194.5135773205612
 20
106.9390206025046
 30
0.0
 10
194.2743666264837
 20
106.7805175020289
 30
0.0
 10
193.7682080548295
 20
106.5082598210679
 30
0.0
 10
193.5043817971895
 20
106.3956801344684
 30
0.0
 10
192.9563697283151
 20
106.2140318006783
 30
0.0
 10
192.6699496155165
 20
106.1448545906846
 30
0.0
 10
192.0932156713643
 20
106.0535425759143
 30
0.0
 10
191.8011900859193
 20
106.0306358131829
 30
0.0
 10
191.5069038353598
 20
106.0306358131829
 30
0.0
  0
LINE
  5
107
330
1F
100
AcDbEntity
  8
0
  6
Continuous
 62
     7
370
    25
100
AcDbLine
 10
199.8069053255
 20
96.1178098335
 30
0.0
 11
199.8069053255
 21
132.5178113295
 31
0.0
  0
LWPOLYLINE
  5
108
330
1F
100
AcDbEntity
  8
0
  6
Continuous
 62
     7
370
    25
100
AcDbPolyline
 90
       24
 70
   128
 43
0.0
 10
161.7569019757
 20
125.5768243684
 10
162.4313955866
 20
125.6423773705
 10
163.0558659993
 20
125.8341767355
 10
163.5839929543
 20
126.137996511
 10
163.9766162
 20
126.5313033475
 10
164.2046114169
 20
126.9849282219
 10
164.2510732375
 20
127.4652280374
 10
164.1125594936
 20
127.936580637
 10
163.7993296347
 20
128.3640278964
 10
163.3346220217
 20
128.7158675952
 10
162.7529030405
 20
128.966006869
 10
162.0973190032
 20
129.0958928405
 10
161.4164886735
 20
129.0958928405
 10
160.7609009109
 20
128.966006869
 10
160.1791856549
 20
128.7158675952
 10
159.714478042
 20
128.3640278964
 10
159.4012519084
 20
127.936580637
 10
159.2627307139
 20
127.4652280374
 10
159.3091925345
 20
126.9849282219
 10
159.5371914766
 20
126.5313033475
 10
159.9298147224
 20
126.137996511
 10
160.4579454027
 20
125.8341767355
 10
161.0824120901
 20
125.6423773705
 10
161.7569019757
 20
125.5768243684
  0
LWPOLYLINE
  5
109
330
1F
100
AcDbEntity
  8
0
  6
Continuous
 62
     7
370
    25
100
AcDbPolyline
 90
       24
 70
   128
 43
0.0
 10
161.7569019757
 20
99.5232634707
 10
162.4313955866
 20
99.5888164728
 10
163.0558659993
 20
99.7806158377
 10
163.5839929543
 20
100.084434682
 10
163.9766162
 20
100.4777424498
 10
164.2046114169
 20
100.9313673242
 10
164.2510732375
 20
101.4116671397
 10
164.1125594936
 20
101.8830188079
 10
163.7993296347
 20
102.3104660674
 10
163.3346220217
 20
102.6623066975
 10
162.7529030405
 20
102.9124459712
 10
162.0973190032
 20
103.0423319428
 10
161.4164886735
 20
103.0423319428
 10
160.7609009109
 20
102.9124459712
 10
160.1791856549
 20
102.6623066975
 10
159.714478042
 20
102.3104660674
 10
159.4012519084
 20
101.8830188079
 10
159.2627307139
 20
101.4116671397
 10
159.3091925345
 20
100.9313673242
 10
159.5371914766
 20
100.4777424498
 10
159.9298147224
 20
100.084434682
 10
160.4579454027
 20
99.7806158377
 10
161.0824120901
 20
99.5888164728
 10
161.7569019757
 20
99.5232634707
  0
LINE
  5
10A
330
1F
100
AcDbEntity
  8
0
  6
Continuous
 62
     7
370
    25
100
AcDbLine
 10
201.806901928
 20
106.3178102015
 30
0.0
 11
201.806901928
 21
122.3178109615
 31
0.0
  0
LINE
  5
10B
330
1F
100
AcDbEntity
  8
0
  6
Continuous
 62
     7
370
    25
100
AcDbLine
 10
216.8069025241
 20
109.7385859578
 30
0.0
 11
216.8069025241
 21
121.5178104578
 31
0.0
  0
SPLINE
  5
10C
330
1F
100
AcDbEntity
  8
0
  6
Continuous
 62
     7
370
    25
100
AcDbSpline
210
0.0
220
0.0
230
1.0
 70
     8
 71
     3
 72
    14
 73
    10
 74
     0
 42
0.000000001
 43
0.00000001
 40
0.0
 40
0.0
 40
0.0
 40
0.0
 40
0.25
 40
0.25
 40
0.5
 40
0.5
 40
0.75
 40
0.75
 40
1.0
 40
1.0
 40
1.0
 40
1.0
 10
216.8069038353599
 20
109.7385858496715
 30
0.0
 10
216.8069038353599
 20
109.6185841001037
 30
0.0
 10
216.8010148147533
 20
109.5028250344797
 30
0.0
 10
216.7912654722775
 20
109.2876649161792
 30
0.0
 10
216.7875256997231
 20
109.1887549182266
 30
0.0
 10
216.7875314743818
 20
109.0168157782535
 30
0.0
 10
216.7913158013158
 20
108.9427315244539
 30
0.0
 10
216.8010071198761
 20
108.827978158725
 30
0.0
 10
216.8069038353598
 20
108.7857430799329
 30
0.0
 10
216.8069038353598
 20
108.7616697575631
 30
0.0
  0
LINE
  5
10D
330
1F
100
AcDbEntity
  8
0
  6
Continuous
 62
     7
370
    25
100
AcDbLine
 10
216.8069025241
 20
107.1178107052
 30
0.0
 11
216.8069025241
 21
108.7616695552
 31
0.0
  0
LINE
  5
10E
330
1F
100
AcDbEntity
  8
0
  6
Continuous
 62
     7
370
    25
100
AcDbLine
 10
216.8069025241
 20
108.7616695552
 30
0.0
 11
216.8069025241
 21
109.7385859578
 31
0.0
  0
LINE
  5
10F
330
1F
100
AcDbEntity
  8
0
  6
HIDDEN
 62
     7
370
    18
100
AcDbLine
 10
221.8069052063
 20
107.8178104474
 30
0.0
 11
221.8069052063
 21
120.8178107156
 31
0.0
  0
LINE
  5
110
330
1F
100
AcDbEntity
  8
0
  6
HIDDEN
 62
     7
370
    18
100
AcDbLine
 10
229.806899067
 20
120.4178104638
 30
0.0
 11
229.806899067
 21
108.2178106992
 31
0.0
  0
LINE
  5
111
330
1F
100
AcDbEntity
  8
0
  6
HIDDEN
 62
     7
370
    18
100
AcDbLine
 10
221.8069052063
 20
109.9178106053
 30
0.0
 11
221.8069052063
 21
118.7178105577
 31
0.0
  0
LINE
  5
112
330
1F
100
AcDbEntity
  8
0
  6
HIDDEN
 62
     7
370
    18
100
AcDbLine
 10
197.4974041544
 20
110.3178103915
 30
0.0
 11
197.4974041544
 21
118.3178107715
 31
0.0
  0
LINE
  5
113
330
1F
100
AcDbEntity
  8
0
  6
HIDDEN
 62
     7
370
    18
100
AcDbLine
 10
196.8069066964
 20
111.0083106435
 30
0.0
 11
196.8069066964
 21
117.6273105195
 31
0.0
  0
LINE
  5
114
330
1F
100
AcDbEntity
  8
0
  6
HIDDEN
 62
     7
370
    18
100
AcDbLine
 10
229.806899067
 20
114.3178105815
 30
0.0
 11
229.806899067
 21
111.270310543
 31
0.0
  0
LINE
  5
115
330
1F
100
AcDbEntity
  8
0
  6
HIDDEN
 62
     7
370
    18
100
AcDbLine
 10
225.8069058619
 20
114.3178105815
 30
0.0
 11
225.8069058619
 21
112.7940605622
 31
0.0
  0
LINE
  5
116
330
1F
100
AcDbEntity
  8
0
  6
HIDDEN
 62
     7
370
    18
100
AcDbLine
 10
225.8069058619
 20
114.3178105815
 30
0.0
 11
225.8069058619
 21
115.8415606008
 31
0.0
  0
LINE
  5
117
330
1F
100
AcDbEntity
  8
0
  6
HIDDEN
 62
     7
370
    18
100
AcDbLine
 10
225.8069058619
 20
114.3178105815
 30
0.0
 11
229.806899067
 21
114.3178105815
 31
0.0
  0
LINE
  5
118
330
1F
100
AcDbEntity
  8
0
  6
HIDDEN
 62
     7
370
    18
100
AcDbLine
 10
229.806899067
 20
114.3178105815
 30
0.0
 11
229.806899067
 21
117.36531062
 31
0.0
  0
LINE
  5
119
330
1F
100
AcDbEntity
  8
0
  6
HIDDEN
 62
     7
370
    18
100
AcDbLine
 10
225.8069058619
 20
115.8415606008
 30
0.0
 11
225.8069058619
 21
117.36531062
 31
0.0
  0
LINE
  5
11A
330
1F
100
AcDbEntity
  8
0
  6
HIDDEN
 62
     7
370
    18
100
AcDbLine
 10
225.8069058619
 20
112.7940605622
 30
0.0
 11
225.8069058619
 21
115.8415606008
 31
0.0
  0
LINE
  5
11B
330
1F
100
AcDbEntity
  8
0
  6
HIDDEN
 62
     7
370
    18
100
AcDbLine
 10
225.8069058619
 20
111.270310543
 30
0.0
 11
225.8069058619
 21
112.7940605622
 31
0.0
  0
LINE
  5
11C
330
1F
100
AcDbEntity
  8
0
  6
HIDDEN
 62
     7
370
    18
100
AcDbLine
 10
225.8069058619
 20
112.7940605622
 30
0.0
 11
225.8069058619
 21
111.270310543
 31
0.0
  0
LINE
  5
11D
330
1F
100
AcDbEntity
  8
0
  6
HIDDEN
 62
     7
370
    18
100
AcDbLine
 10
225.8069058619
 20
117.36531062
 30
0.0
 11
225.8069058619
 21
115.8415606008
 31
0.0
  0
LINE
  5
11E
330
1F
100
AcDbEntity
  8
0
  6
HIDDEN
 62
     7
370
    18
100
AcDbLine
 10
225.8069058619
 20
115.8415606008
 30
0.0
 11
225.8069058619
 21
112.7940605622
 31
0.0
  0
LINE
  5
11F
330
1F
100
AcDbEntity
  8
0
  6
HIDDEN
 62
     7
370
    18
100
AcDbLine
 10
225.8069058619
 20
112.7940605622
 30
0.0
 11
225.8069058619
 21
111.270310543
 31
0.0
  0
LINE
  5
120
330
1F
100
AcDbEntity
  8
0
  6
HIDDEN
 62
     7
370
    18
100
AcDbLine
 10
225.8069058619
 20
115.8415606008
 30
0.0
 11
225.8069058619
 21
117.36531062
 31
0.0
  0
LINE
  5
121
330
1F
100
AcDbEntity
  8
0
  6
HIDDEN
 62
     7
370
    18
100
AcDbLine
 10
225.8069058619
 20
117.36531062
 30
0.0
 11
229.806899067
 21
117.36531062
 31
0.0
  0
LINE
  5
122
330
1F
100
AcDbEntity
  8
0
  6
HIDDEN
 62
     7
370
    18
100
AcDbLine
 10
225.8069058619
 20
111.270310543
 30
0.0
 11
229.806899067
 21
111.270310543
 31
0.0
  0
LINE
  5
123
330
1F
100
AcDbEntity
  8
0
  6
HIDDEN
 62
     7
370
    18
100
AcDbLine
 10
216.8069025241
 20
118.3178107715
 30
0.0
 11
197.4974041544
 21
118.3178107715
 31
0.0
  0
LINE
  5
124
330
1F
100
AcDbEntity
  8
0
  6
HIDDEN
 62
     7
370
    18
100
AcDbLine
 10
197.4974041544
 20
110.3178103915
 30
0.0
 11
216.8069025241
 21
110.3178103915
 31
0.0
  0
LINE
  5
125
330
1F
100
AcDbEntity
  8
0
  6
HIDDEN
 62
     7
370
    18
100
AcDbLine
 10
197.4974041544
 20
118.3178107715
 30
0.0
 11
196.8069066964
 21
117.6273105195
 31
0.0
  0
LINE
  5
126
330
1F
100
AcDbEntity
  8
0
  6
HIDDEN
 62
     7
370
    18
100
AcDbLine
 10
196.8069066964
 20
111.0083106435
 30
0.0
 11
197.4974041544
 21
110.3178103915
 31
0.0
  0
LINE
  5
127
330
1F
100
AcDbEntity
  8
0
  6
HIDDEN
 62
     7
370
    18
100
AcDbLine
 10
225.8069058619
 20
117.36531062
 30
0.0
 11
224.0474289022
 21
114.3178105815
 31
0.0
  0
LINE
  5
128
330
1F
100
AcDbEntity
  8
0
  6
HIDDEN
 62
     7
370
    18
100
AcDbLine
 10
224.0474289022
 20
114.3178105815
 30
0.0
 11
225.8069058619
 21
111.270310543
 31
0.0
  0
DIMENSION
  5
129
330
1F
100
AcDbEntity
  8
VERMASSUNG
100
AcDbDimension
  2
_D
 10
199.8069038354
 20
149.715072671
 30
0.0
 11
208.3069038354
 21
149.715072671
 31
0.0
 70
   160
  1
<>
 71
     2
 42
-1.0
  3
SLDDIMSTYLE0
100
AcDbAlignedDimension
 13
216.8069038354
 23
119.3678105815
 33
0.0
 14
199.8069038354
 24
132.5178105815
 34
0.0
100
AcDbRotatedDimension
  0
DIMENSION
  5
134
330
1F
100
AcDbEntity
  8
VERMASSUNG
100
AcDbDimension
  2
_D_1
 10
199.8069038354
 20
149.715072671
 30
0.0
 11
162.7819038354
 21
149.715072671
 31
0.0
 70
   160
  1
<>
 71
     2
 42
-1.0
  3
SLDDIMSTYLE0
100
AcDbAlignedDimension
 13
125.7569038354
 23
144.1642509053
 33
0.0
 14
199.8069038354
 24
132.5178105815
 34
0.0
100
AcDbRotatedDimension
  0
DIMENSION
  5
13E
330
1F
100
AcDbEntity
  8
VERMASSUNG
100
AcDbDimension
  2
_D_2
 10
99.8069038354
 20
159.7641794993
 30
0.0
 11
149.8069038354
 21
159.7641794993
 31
0.0
 70
   160
  1
<>
 71
     2
 42
-1.0
  3
SLDDIMSTYLE0
100
AcDbAlignedDimension
 13
199.8069038354
 23
132.5178105815
 33
0.0
 14
99.8069038354
 24
145.5178105815
 34
0.0
100
AcDbRotatedDimension
  0
DIMENSION
  5
148
330
1F
100
AcDbEntity
  8
VERMASSUNG
100
AcDbDimension
  2
_D_3
 10
53.2798083121
 20
82.8178105815
 30
0.0
 11
53.2798083121
 21
114.3178105815
 31
0.0
 70
   160
  1
HSK A %%c<>
 71
     2
 42
-1.0
  3
SLDDIMSTYLE0
100
AcDbAlignedDimension
 13
100.1069038354
 23
145.8178105815
 33
0.0
 14
100.1069038354
 24
82.8178105815
 34
0.0
 50
90.0
100
AcDbRotatedDimension
  0
DIMENSION
  5
154
330
1F
100
AcDbEntity
  8
VERMASSUNG
100
AcDbDimension
  2
_D_4
 10
268.294509081
 20
136.4270464593
 30
0.0
 11
268.294509081
 21
114.3178105815
 31
0.0
 70
   160
  1
%%c<>
 71
     2
 42
-1.0
  3
SLDDIMSTYLE0
100
AcDbAlignedDimension
 13
128.0146357941
 23
92.2085747037
 33
0.0
 14
128.0146357941
 24
136.4270464593
 34
0.0
 50
90.0
100
AcDbRotatedDimension
  0
DIMENSION
  5
15F
330
1F
100
AcDbEntity
  8
VERMASSUNG
100
AcDbDimension
  2
_D_5
 10
257.8069038354
 20
95.3178105815
 30
0.0
 11
257.8069038354
 21
114.3178105815
 31
0.0
 70
   160
  1
%%c<>
 71
     2
 42
-1.0
  3
SLDDIMSTYLE0
100
AcDbAlignedDimension
 13
199.0069038354
 23
133.3178105815
 33
0.0
 14
199.0069038354
 24
95.3178105815
 34
0.0
 50
90.0
100
AcDbRotatedDimension
  0
DIMENSION
  5
16A
330
1F
100
AcDbEntity
  8
VERMASSUNG
100
AcDbDimension
  2
_D_6
 10
248.9797035253
 20
106.3178105815
 30
0.0
 11
248.9797035253
 21
114.3178105815
 31
0.0
 70
   160
  1
%%c<>
 71
     2
 42
-1.0
  3
SLDDIMSTYLE0
100
AcDbAlignedDimension
 13
216.0069038354
 23
122.3178105815
 33
0.0
 14
216.0069038354
 24
106.3178105815
 34
0.0
 50
90.0
100
AcDbRotatedDimension
  0
DIMENSION
  5
175
330
1F
100
AcDbEntity
  8
VERMASSUNG
100
AcDbDimension
  2
_D_7
 10
229.8069038354
 20
169.934501484
 30
0.0
 11
148.8569038354
 21
169.934501484
 31
0.0
 70
   160
  1
<>
 71
     2
 42
-1.0
  3
SLDDIMSTYLE0
100
AcDbAlignedDimension
 13
67.9069038354
 23
134.008488328
 33
0.0
 14
229.8069038354
 24
120.4178105815
 34
0.0
100
AcDbRotatedDimension
  0
DIMENSION
  5
17F
330
1F
100
AcDbEntity
  8
VERMASSUNG
100
AcDbDimension
  2
_D_8
 10
239.8069038354
 20
117.3653105815
 30
0.0
 11
239.8069038354
 21
114.3178105815
 31
0.0
 70
   160
  1
SW<>
 71
     2
 42
-1.0
  3
SLDDIMSTYLE1
100
AcDbAlignedDimension
 13
229.8069038354
 23
111.2703105815
 33
0.0
 14
229.8069038354
 24
117.3653105815
 34
0.0
 50
90.0
100
AcDbRotatedDimension
  0
LINE
  5
18D
330
1F
100
AcDbEntity
  8
VERMASSUNG
  6
CENTERX2
370
    18
100
AcDbLine
 10
231.4069038354
 20
114.3178105815
 30
0.0
 11
62.7739518504
 21
114.3178105815
 31
0.0
  0
SPLINE
  5
18E
330
1F
100
AcDbEntity
  8
0
  6
Continuous
 62
     7
370
    25
100
AcDbSpline
210
0.0
220
0.0
230
1.0
 70
     8
 71
     3
 72
    16
 73
    12
 74
     0
 42
0.000000001
 43
0.00000001
 40
0.0
 40
0.0
 40
0.0
 40
0.0
 40
0.1048028580233925
 40
0.2272937619156795
 40
0.3496949917225071
 40
0.4725123755679624
 40
0.596291868716998
 40
0.7216376460505086
 40
0.8347165265676748
 40
0.9422554159742682
 40
1.0
 40
1.0
 40
1.0
 40
1.0
 10
269.7366496472088
 20
35.67439692917444
 30
0.0
 10
269.8334562896715
 20
35.76536867514121
 30
0.0
 10
270.043408063495
 20
35.96266587446195
 30
0.0
 10
270.3156699798766
 20
36.35212239166
 30
0.0
 10
270.5422706544422
 20
36.79484683560466
 30
0.0
 10
270.6915934057811
 20
37.2559264254729
 30
0.0
 10
270.7536597539586
 20
37.70702623891654
 30
0.0
 10
270.7217541429335
 20
38.11245180087212
 30
0.0
 10
270.5972363090026
 20
38.44238876417416
 30
0.0
 10
270.4356645399291
 20
38.67104121463824
 30
0.0
 10
270.2939591729619
 20
38.74286469941087
 30
0.0
 10
270.2444520002252
 20
38.76795745167065
 30
0.0
  0
LINE
  5
18F
330
1F
100
AcDbEntity
  8
0
  6
Continuous
 62
     7
370
    25
100
AcDbLine
 10
270.2513179853
 20
38.7828036587
 30
0.0
 11
268.6603271375
 21
39.7012631251
 31
0.0
  0
SPLINE
  5
190
330
1F
100
AcDbEntity
  8
0
  6
Continuous
 62
     7
370
    25
100
AcDbSpline
210
0.0
220
0.0
230
1.0
 70
     8
 71
     3
 72
    21
 73
    17
 74
     0
 42
0.000000001
 43
0.00000001
 40
0.0
 40
0.0
 40
0.0
 40
0.0
 40
0.0299819340120565
 40
0.10290670778108
 40
0.1757763315902083
 40
0.2522329125465261
 40
0.3319828902268521
 40
0.4125759077096029
 40
0.49295379166438
 40
0.5732729419546416
 40
0.6538650889373265
 40
0.735088600396209
 40
0.817339897043882
 40
0.8915417382612297
 40
0.9621082801118339
 40
1.0
 40
1.0
 40
1.0
 40
1.0
 10
258.3263011799387
 20
29.63811176963949
 30
0.0
 10
258.3608991639021
 20
29.61100753132718
 30
0.0
 10
258.4796494961556
 20
29.51797791120619
 30
0.0
 10
258.7458560411743
 20
29.47544202497781
 30
0.0
 10
259.0843045091629
 20
29.50835084891127
 30
0.0
 10
259.4392884238908
 20
29.65235119315908
 30
0.0
 10
259.7941429618353
 20
29.8971221348318
 30
0.0
 10
260.1279198862292
 20
30.23293365109005
 30
0.0
 10
260.4167010151395
 20
30.63587844964913
 30
0.0
 10
260.6426347930939
 20
31.08036301434727
 30
0.0
 10
260.7921366864778
 20
31.5409688184867
 30
0.0
 10
260.8541542579391
 20
31.99219698147581
 30
0.0
 10
260.82226227016
 20
32.39758875189974
 30
0.0
 10
260.6977407321354
 20
32.7275336713119
 30
0.0
 10
260.5361693940842
 20
32.9561839949752
 30
0.0
 10
260.3944639432441
 20
33.02800767913222
 30
0.0
 10
260.3449567580489
 20
33.05310049251297
 30
0.0
  0
LINE
  5
191
330
1F
100
AcDbEntity
  8
0
  6
Continuous
 62
     7
370
    25
100
AcDbLine
 10
256.7609942266
 20
30.5222106286
 30
0.0
 11
258.3519850743
 21
29.6037511621
 31
0.0
  0
LINE
  5
192
330
1F
100
AcDbEntity
  8
0
  6
Continuous
 62
     7
370
    25
100
AcDbLine
 10
260.3518227431
 20
33.0679466995
 30
0.0
 11
258.7608318954
 21
33.986406166
 31
0.0
  0
LINE
  5
193
330
1F
100
AcDbEntity
  8
0
  6
Continuous
 62
     7
370
    25
100
AcDbLine
 10
275.5283306167
 20
30.2350980552
 30
0.0
 11
275.5325159963
 21
30.3153395742
 31
0.0
  0
SPLINE
  5
194
330
1F
100
AcDbEntity
  8
0
  6
Continuous
 62
     7
370
    25
100
AcDbSpline
210
0.0
220
0.0
230
1.0
 70
     8
 71
     3
 72
    11
 73
     7
 74
     0
 42
0.000000001
 43
0.00000001
 40
0.0
 40
0.0
 40
0.0
 40
0.0
 40
0.0287084787795192
 40
0.4201111483869406
 40
0.812600248097167
 40
1.0
 40
1.0
 40
1.0
 40
1.0
 10
275.2116345871622
 20
28.79102486285204
 30
0.0
 10
275.218058474396
 20
28.80493234300298
 30
0.0
 10
275.312063686711
 20
29.00845017835226
 30
0.0
 10
275.422283360074
 20
29.41347216607534
 30
0.0
 10
275.5167232161089
 20
29.88494922250584
 30
0.0
 10
275.5254956677774
 20
30.14957898962519
 30
0.0
 10
275.5283306166846
 20
30.23509805516047
 30
0.0
  0
SPLINE
  5
195
330
1F
100
AcDbEntity
  8
0
  6
Continuous
 62
     7
370
    25
100
AcDbSpline
210
0.0
220
0.0
230
1.0
 70
     8
 71
     3
 72
    13
 73
     9
 74
     0
 42
0.000000001
 43
0.00000001
 40
0.0
 40
0.0
 40
0.0
 40
0.0
 40
0.1433772246814704
 40
0.317574567118363
 40
0.4916734022465085
 40
0.6654670059957069
 40
0.8390865279746048
 40
1.0
 40
1.0
 40
1.0
 40
1.0
 10
273.0172468598462
 20
26.28141360861493
 30
0.0
 10
273.1432825053625
 20
26.34184148822586
 30
0.0
 10
273.422446198587
 20
26.47568671888891
 30
0.0
 10
273.8457296153873
 20
26.80286322250012
 30
0.0
 10
274.2702796570823
 20
27.22424200771033
 30
0.0
 10
274.6522238461155
 20
27.71744024427975
 30
0.0
 10
274.977707260067
 20
28.24554675713272
 30
0.0
 10
275.1356585514339
 20
28.61386187568105
 30
0.0
 10
275.2116345871622
 20
28.79102486285204
 30
0.0
  0
SPLINE
  5
196
330
1F
100
AcDbEntity
  8
0
  6
Continuous
 62
     7
370
    25
100
AcDbSpline
210
0.0
220
0.0
230
1.0
 70
     8
 71
     3
 72
     9
 73
     5
 74
     0
 42
0.000000001
 43
0.00000001
 40
0.0
 40
0.0
 40
0.0
 40
0.0
 40
0.8324478780257912
 40
0.9999999999999999
 40
0.9999999999999999
 40
0.9999999999999999
 40
0.9999999999999999
 10
275.5325159963051
 20
30.3153395742108
 30
0.0
 10
275.5334553660101
 20
30.40945990256144
 30
0.0
 10
275.5345838086787
 20
30.52252443288838
 30
0.0
 10
275.5132370762848
 20
30.62193775967542
 30
0.0
 10
275.5096603859749
 20
30.63859467353111
 30
0.0
  0
LINE
  5
197
330
1F
100
AcDbEntity
  8
0
  6
Continuous
 62
     7
370
    25
100
AcDbLine
 10
274.8007095643
 20
31.8849752821
 30
0.0
 11
272.1137030919
 21
33.4361511009
 31
0.0
  0
LINE
  5
198
330
1F
100
AcDbEntity
  8
0
  6
Continuous
 62
     7
370
    25
100
AcDbLine
 10
268.863967374
 20
27.8068334714
 30
0.0
 11
271.5509738464
 21
26.2556576526
 31
0.0
  0
LINE
  5
199
330
1F
100
AcDbEntity
  8
0
  6
Continuous
 62
     7
370
    25
100
AcDbLine
 10
270.2077795499
 20
33.0930808082
 30
0.0
 11
269.1590895678
 21
33.6984766487
 31
0.0
  0
LINE
  5
19A
330
1F
100
AcDbEntity
  8
0
  6
Continuous
 62
     7
370
    25
100
AcDbLine
 10
267.1606429096
 20
30.233478288
 30
0.0
 11
268.2079420457
 21
29.6288853659
 31
0.0
  0
SPLINE
  5
19B
330
1F
100
AcDbEntity
  8
0
  6
Continuous
 62
     7
370
    25
100
AcDbSpline
210
0.0
220
0.0
230
1.0
 70
     8
 71
     3
 72
    18
 73
    14
 74
     0
 42
0.000000001
 43
0.00000001
 40
0.0
 40
0.0
 40
0.0
 40
0.0
 40
0.0503254257240444
 40
0.1487911603409743
 40
0.2475052157631005
 40
0.3471158988024837
 40
0.4478601235647362
 40
0.549581588158765
 40
0.6519346852892566
 40
0.7545868619541711
 40
0.8572933093828924
 40
0.9599311396887588
 40
1.0
 40
1.0
 40
1.0
 40
1.0
 10
257.7399647601673
 20
27.03031450322158
 30
0.0
 10
257.8352064211558
 20
26.97434700672775
 30
0.0
 10
258.116796036095
 20
26.80887461131557
 30
0.0
 10
258.6471110251642
 20
26.65150502478752
 30
0.0
 10
259.3144964430814
 20
26.55424772132828
 30
0.0
 10
260.0231069914266
 20
26.57443891365519
 30
0.0
 10
260.7621255218859
 20
26.70537561631849
 30
0.0
 10
261.5241252803149
 20
26.94822617803049
 30
0.0
 10
262.2984743154499
 20
27.30029263326242
 30
0.0
 10
263.0750956495342
 20
27.75522285019773
 30
0.0
 10
263.8407405483293
 20
28.31253107625458
 30
0.0
 10
264.4418755660816
 20
28.81361776107663
 30
0.0
 10
264.7733975445134
 20
29.15318740595035
 30
0.0
 10
264.866481532282
 20
29.24853099921529
 30
0.0
  0
SPLINE
  5
19C
330
1F
100
AcDbEntity
  8
0
  6
Continuous
 62
     7
370
    25
100
AcDbSpline
210
0.0
220
0.0
230
1.0
 70
     8
 71
     3
 72
    14
 73
    10
 74
     0
 42
0.000000001
 43
0.00000001
 40
0.0
 40
0.0
 40
0.0
 40
0.0
 40
0.0881520589366662
 40
0.2484417129883487
 40
0.408537101513938
 40
0.567937897144488
 40
0.7259902345954378
 40
0.8821641582721302
 40
1.0
 40
1.0
 40
1.0
 40
1.0
 10
269.2429954644018
 20
39.36489531662571
 30
0.0
 10
269.2375911517654
 20
39.52704566110611
 30
0.0
 10
269.2223600079315
 20
39.98403906353258
 30
0.0
 10
269.0975992985237
 20
40.67512990126086
 30
0.0
 10
268.8766195050115
 20
41.42870751263359
 30
0.0
 10
268.563771802189
 20
42.10100417525006
 30
0.0
 10
268.1663103941244
 20
42.67978243217682
 30
0.0
 10
267.7364222588711
 20
43.13331647369749
 30
0.0
 10
267.4108955538733
 20
43.34311279415063
 30
0.0
 10
267.2709052391788
 20
43.43333412613676
 30
0.0
  0
LINE
  5
19D
330
1F
100
AcDbEntity
  8
0
  6
Continuous
 62
     7
370
    25
100
AcDbLine
 10
245.730716161
 20
33.9446920889
 30
0.0
 11
257.6782044806
 21
27.0475538918
 31
0.0
  0
LINE
  5
19E
330
1F
100
AcDbEntity
  8
0
  6
Continuous
 62
     7
370
    25
100
AcDbLine
 10
241.3263586378
 20
36.4872735667
 30
0.0
 11
243.2807027349
 21
35.3590547343
 31
0.0
  0
LINE
  5
19F
330
1F
100
AcDbEntity
  8
0
  6
Continuous
 62
     7
370
    25
100
AcDbLine
 10
252.7769066375
 20
51.8157291335
 30
0.0
 11
250.8255865768
 21
52.9422022269
 31
0.0
  0
LINE
  5
1A0
330
1F
100
AcDbEntity
  8
0
  6
Continuous
 62
     7
370
    25
100
AcDbLine
 10
267.1774324195
 20
43.5024825519
 30
0.0
 11
255.2362740298
 21
50.3959665584
 31
0.0
  0
SPLINE
  5
1A1
330
1F
100
AcDbEntity
  8
0
  6
Continuous
 62
     7
370
    25
100
AcDbSpline
210
0.0
220
0.0
230
1.0
 70
     8
 71
     3
 72
    13
 73
     9
 74
     0
 42
0.000000001
 43
0.00000001
 40
0.0
 40
0.0
 40
0.0
 40
0.0
 40
0.0353199928072327
 40
0.2627773957249592
 40
0.4890670162664016
 40
0.7200966888708596
 40
0.9588863917387864
 40
1.0
 40
1.0
 40
1.0
 40
1.0
 10
266.4081641892446
 20
28.36871152674558
 30
0.0
 10
266.4262788039912
 20
28.35450888934842
 30
0.0
 10
266.5610498191956
 20
28.24884261449893
 30
0.0
 10
266.8750468458894
 20
28.15501816018857
 30
0.0
 10
267.3267124681798
 20
28.09779055471516
 30
0.0
 10
267.8102259245936
 20
28.16943842175238
 30
0.0
 10
268.1702830836193
 20
28.27243150311563
 30
0.0
 10
268.3647709565655
 20
28.38144909799042
 30
0.0
 10
268.3933383150136
 20
28.39746215146656
 30
0.0
  0
SPLINE
  5
1A2
330
1F
100
AcDbEntity
  8
0
  6
Continuous
 62
     7
370
    25
100
AcDbSpline
210
0.0
220
0.0
230
1.0
 70
     8
 71
     3
 72
    12
 73
     8
 74
     0
 42
0.000000001
 43
0.00000001
 40
0.0
 40
0.0
 40
0.0
 40
0.0
 40
0.0621704207407045
 40
0.3219977528571621
 40
0.5795773293650461
 40
0.8297926913996047
 40
1.0
 40
1.0
 40
1.0
 40
1.0
 10
271.3628553393181
 20
33.56770614718526
 30
0.0
 10
271.3616345673624
 20
33.61529788857061
 30
0.0
 10
271.3553118527689
 20
33.8617886408941
 30
0.0
 10
271.2481749227761
 20
34.256322818924
 30
0.0
 10
271.0327695374329
 20
34.72031083759529
 30
0.0
 10
270.7564520981678
 20
35.06424321834571
 30
0.0
 10
270.5290419196958
 20
35.19988497353228
 30
0.0
 10
270.4369753468644
 20
35.25479927691482
 30
0.0
  0
LINE
  5
1A3
330
1F
100
AcDbEntity
  8
0
  6
Continuous
 62
     7
370
    25
100
AcDbLine
 10
261.4179287579
 20
31.239338072
 30
0.0
 11
266.4383875955
 21
28.341088876
 31
0.0
  0
LINE
  5
1A4
330
1F
100
AcDbEntity
  8
0
  6
Continuous
 62
     7
370
    25
100
AcDbLine
 10
270.4380626038
 20
35.2694797607
 30
0.0
 11
265.4176037662
 21
38.1677289567
 31
0.0
  0
SPLINE
  5
1A5
330
1F
100
AcDbEntity
  8
0
  6
Continuous
 62
     7
370
    25
100
AcDbSpline
210
0.0
220
0.0
230
1.0
 70
     8
 71
     3
 72
    12
 73
     8
 74
     0
 42
0.000000001
 43
0.00000001
 40
0.0
 40
0.0
 40
0.0
 40
0.0
 40
0.0582029503128397
 40
0.3662134377987321
 40
0.6447075311169257
 40
0.9185290559289622
 40
1.0
 40
1.0
 40
1.0
 40
1.0
 10
267.3747242869539
 20
29.97259330392365
 30
0.0
 10
267.3635845339314
 20
29.97698740987342
 30
0.0
 10
267.2934931171097
 20
30.00463516032712
 30
0.0
 10
267.2040076448569
 20
30.11743388412323
 30
0.0
 10
267.0961895978398
 20
30.34721925808157
 30
0.0
 10
267.0560154383002
 20
30.58635931868371
 30
0.0
 10
267.0533839083387
 20
30.73946171245131
 30
0.0
 10
267.0527804808835
 20
30.77456911734226
 30
0.0
  0
SPLINE
  5
1A6
330
1F
100
AcDbEntity
  8
0
  6
Continuous
 62
     7
370
    25
100
AcDbSpline
210
0.0
220
0.0
230
1.0
 70
     8
 71
     3
 72
    19
 73
    15
 74
     0
 42
0.000000001
 43
0.00000001
 40
0.0
 40
0.0
 40
0.0
 40
0.0
 40
0.0485395949344863
 40
0.142421643235342
 40
0.2371921332947938
 40
0.332654862167765
 40
0.4283984010416597
 40
0.5238572859242115
 40
0.6184569109793363
 40
0.7118049585436554
 40
0.8040016214842325
 40
0.8963561007363636
 40
0.9928849022445112
 40
1.0
 40
1.0
 40
1.0
 40
1.0
 10
267.0527804808835
 20
30.77456911734226
 30
0.0
 10
267.0547693839017
 20
30.84225520466541
 30
0.0
 10
267.0606050905337
 20
31.04085520933669
 30
0.0
 10
267.128563426081
 20
31.41196012995093
 30
0.0
 10
267.2828289671076
 20
31.87392333475431
 30
0.0
 10
267.5088560805564
 20
32.33345248812167
 30
0.0
 10
267.7929128270711
 20
32.76100968833294
 30
0.0
 10
268.1173242484415
 20
33.13049635227007
 30
0.0
 10
268.4596189963005
 20
33.42017166235127
 30
0.0
 10
268.7939123880473
 20
33.61451343393591
 30
0.0
 10
269.0945085371656
 20
33.71194106001057
 30
0.0
 10
269.332828166422
 20
33.70969908283588
 30
0.0
 10
269.4576630029932
 20
33.68796746360781
 30
0.0
 10
269.5073751051389
 20
33.63921591574086
 30
0.0
 10
269.5107878141253
 20
33.63586914828741
 30
0.0
  0
LINE
  5
1A7
330
1F
100
AcDbEntity
  8
0
  6
Continuous
 62
     7
370
    25
100
AcDbLine
 10
265.0023753196
 20
38.3237624322
 30
0.0
 11
264.6540121896
 21
38.3947387051
 31
0.0
  0
LINE
  5
1A8
330
1F
100
AcDbEntity
  8
0
  6
Continuous
 62
     7
370
    25
100
AcDbLine
 10
260.839485488
 20
31.7870685045
 30
0.0
 11
261.0751593049
 21
31.5208875138
 31
0.0
  0
LINE
  5
1A9
330
1F
100
AcDbEntity
  8
0
  6
Continuous
 62
     7
370
    25
100
AcDbLine
 10
260.9500951174
 20
31.6537463183
 30
0.0
 11
260.965299593
 21
31.6449689614
 31
0.0
  0
LINE
  5
1AA
330
1F
100
AcDbEntity
  8
0
  6
Continuous
 62
     7
370
    25
100
AcDbLine
 10
264.8399848294
 20
38.3568476369
 30
0.0
 11
264.8247803538
 21
38.3656249938
 31
0.0
  0
SPLINE
  5
1AB
330
1F
100
AcDbEntity
  8
0
  6
Continuous
 62
     7
370
    25
100
AcDbSpline
210
0.0
220
0.0
230
1.0
 70
     8
 71
     3
 72
    13
 73
     9
 74
     0
 42
0.000000001
 43
0.00000001
 40
0.0
 40
0.0
 40
0.0
 40
0.0
 40
0.1672683239108613
 40
0.3715147768374639
 40
0.5780298763976826
 40
0.7857711135941406
 40
0.9938278873880783
 40
0.9999999999999999
 40
0.9999999999999999
 40
0.9999999999999999
 40
0.9999999999999999
 10
232.891691603612
 20
39.76385033596199
 30
0.0
 10
233.3689376018688
 20
39.65499460875434
 30
0.0
 10
234.4289347154492
 20
39.41321834020882
 30
0.0
 10
236.0876558396581
 20
38.89269006350985
 30
0.0
 10
237.8491277578016
 20
38.23107901325847
 30
0.0
 10
239.5837761779735
 20
37.43117710769116
 30
0.0
 10
240.7479992230264
 20
36.84324451223178
 30
0.0
 10
241.309257787796
 20
36.49578721492401
 30
0.0
 10
241.3254281144233
 20
36.48577668085088
 30
0.0
  0
SPLINE
  5
1AC
330
1F
100
AcDbEntity
  8
0
  6
Continuous
 62
     7
370
    25
100
AcDbSpline
210
0.0
220
0.0
230
1.0
 70
     8
 71
     3
 72
    12
 73
     8
 74
     0
 42
0.000000001
 43
0.00000001
 40
0.0
 40
0.0
 40
0.0
 40
0.0
 40
0.2050760666437277
 40
0.4115821577089002
 40
0.615997196965365
 40
0.8176419517395038
 40
1.0
 40
1.0
 40
1.0
 40
1.0
 10
250.82624973109
 20
52.94273492030089
 30
0.0
 10
250.2847685550521
 20
53.26821779780157
 30
0.0
 10
249.1980303781415
 20
53.92145319094843
 30
0.0
 10
247.6605038518459
 20
55.02279142887902
 30
0.0
 10
246.2142422326006
 20
56.19539599844475
 30
0.0
 10
244.9078164379734
 20
57.38849397792197
 30
0.0
 10
244.1387336938812
 20
58.20898575894864
 30
0.0
 10
243.7735060782098
 20
58.5986268725535
 30
0.0
  0
LINE
  5
1AD
330
1F
100
AcDbEntity
  8
0
  6
Continuous
 62
     7
370
    25
100
AcDbLine
 10
219.5870268735
 20
41.8204398051
 30
0.0
 11
224.6456926319
 21
38.9001342232
 31
0.0
  0
LINE
  5
1AE
330
1F
100
AcDbEntity
  8
0
  6
Continuous
 62
     7
370
    25
100
AcDbLine
 10
237.529047936
 20
67.8348134556
 30
0.0
 11
235.3357473628
 21
69.1009789255
 31
0.0
  0
SPLINE
  5
1AF
330
1F
100
AcDbEntity
  8
0
  6
Continuous
 62
     7
370
    25
100
AcDbSpline
210
0.0
220
0.0
230
1.0
 70
     8
 71
     3
 72
    14
 73
    10
 74
     0
 42
0.000000001
 43
0.00000001
 40
0.0
 40
0.0
 40
0.0
 40
0.0
 40
0.0801199853230193
 40
0.2464492072423848
 40
0.413330515757878
 40
0.5805813633360717
 40
0.7480371983432959
 40
0.9155761991841528
 40
1.0
 40
1.0
 40
1.0
 40
1.0
 10
231.892121797804
 20
35.97214554216794
 30
0.0
 10
232.0378755058769
 20
35.97846032911839
 30
0.0
 10
232.48621415275
 20
35.99788462421242
 30
0.0
 10
233.2698469463071
 20
36.15129208255947
 30
0.0
 10
234.2334115496408
 20
36.42527866955868
 30
0.0
 10
235.2152248843681
 20
36.81319332417914
 30
0.0
 10
236.2044110441288
 20
37.3103330809964
 30
0.0
 10
237.0322932724947
 20
37.79531739463867
 30
0.0
 10
237.523776895866
 20
38.14892697604855
 30
0.0
 10
237.688455631183
 20
38.26740900859951
 30
0.0
  0
LINE
  5
1B0
330
1F
100
AcDbEntity
  8
0
  6
Continuous
 62
     7
370
    25
100
AcDbLine
 10
227.0441509133
 20
37.5155337293
 30
0.0
 11
228.4435395536
 21
36.7076838629
 31
0.0
  0
LINE
  5
1B1
330
1F
100
AcDbEntity
  8
0
  6
Continuous
 62
     7
370
    25
100
AcDbLine
 10
228.159453331
 20
68.6903014816
 30
0.0
 11
221.9690710771
 21
71.7745208012
 31
0.0
  0
LINE
  5
1B2
330
1F
100
AcDbEntity
  8
0
  6
Continuous
 62
     7
370
    25
100
AcDbLine
 10
210.5873732472
 20
52.0587054208
 30
0.0
 11
220.3828554179
 21
45.5725440959
 31
0.0
  0
SPLINE
  5
1B3
330
1F
100
AcDbEntity
  8
0
  6
Continuous
 62
     7
370
    25
100
AcDbSpline
210
0.0
220
0.0
230
1.0
 70
     8
 71
     3
 72
    10
 73
     6
 74
     0
 42
0.000000001
 43
0.00000001
 40
0.0
 40
0.0
 40
0.0
 40
0.0
 40
0.1425591302769614
 40
0.7851845044767666
 40
1.0
 40
1.0
 40
1.0
 40
1.0
 10
245.8865501821046
 20
62.46207321994232
 30
0.0
 10
245.8501086671328
 20
62.51541636609931
 30
0.0
 10
245.6493967743208
 20
62.80921874621434
 30
0.0
 10
245.342717869758
 20
63.12313094131672
 30
0.0
 10
245.0604694206526
 20
63.36218419684472
 30
0.0
 10
244.9897574420239
 20
63.42207444159044
 30
0.0
  0
SPLINE
  5
1B4
330
1F
100
AcDbEntity
  8
0
  6
Continuous
 62
     7
370
    25
100
AcDbSpline
210
0.0
220
0.0
230
1.0
 70
     8
 71
     3
 72
    11
 73
     7
 74
     0
 42
0.000000001
 43
0.00000001
 40
0.0
 40
0.0
 40
0.0
 40
0.0
 40
0.1601098185488765
 40
0.4629345866422236
 40
0.7652682016087808
 40
1.0
 40
1.0
 40
1.0
 40
1.0
 10
247.1822562578959
 20
59.69888836245927
 30
0.0
 10
247.1356950764773
 20
59.86785243340304
 30
0.0
 10
247.0010700955177
 20
60.3563878214802
 30
0.0
 10
246.7106999484321
 20
61.10482112454672
 30
0.0
 10
246.3272657217708
 20
61.86373671346706
 30
0.0
 10
246.0205879184815
 20
62.2800971748491
 30
0.0
 10
245.8865501821046
 20
62.46207321994232
 30
0.0
  0
SPLINE
  5
1B5
330
1F
100
AcDbEntity
  8
0
  6
Continuous
 62
     7
370
    25
100
AcDbSpline
210
0.0
220
0.0
230
1.0
 70
     8
 71
     3
 72
    25
 73
    21
 74
     0
 42
0.000000001
 43
0.00000001
 40
0.0
 40
0.0
 40
0.0
 40
0.0
 40
0.0329381873985721
 40
0.0876776829807605
 40
0.1426016386463488
 40
0.1980636760765276
 40
0.2542212957599724
 40
0.3110270380478278
 40
0.3683051323666632
 40
0.4258530116657597
 40
0.4835087650717507
 40
0.5411523042222052
 40
0.5987416992236165
 40
0.6562665463397385
 40
0.7137320817146856
 40
0.7711514683088141
 40
0.828541734254856
 40
0.8859215774681684
 40
0.9433099828727799
 40
1.0
 40
1.0
 40
1.0
 40
1.0
 10
222.1044875842982
 20
71.68716382911077
 30
0.0
 10
221.9790831175167
 20
71.75746378379542
 30
0.0
 10
221.6452707874759
 20
71.94459421285686
 30
0.0
 10
221.0400833189351
 20
72.12695843646493
 30
0.0
 10
220.3069508345642
 20
72.24348244123956
 30
0.0
 10
219.5324970821014
 20
72.24329776281895
 30
0.0
 10
218.7259572013955
 20
72.13185335870406
 30
0.0
 10
217.8939008671119
 20
71.90751432729536
 30
0.0
 10
217.0456884143928
 20
71.57237229233871
 30
0.0
 10
216.1912643662129
 20
71.12997723408724
 30
0.0
 10
215.3407882425953
 20
70.5858722616179
 30
0.0
 10
214.5038802750513
 20
69.94686460695706
 30
0.0
 10
213.6895273595581
 20
69.22065440581363
 30
0.0
 10
212.9060813150703
 20
68.41550557555469
 30
0.0
 10
212.1614297488017
 20
67.54027882976199
 30
0.0
 10
211.4632440287475
 20
66.6043847591377
 30
0.0
 10
210.8181095975533
 20
65.61780241776712
 30
0.0
 10
210.2345989089966
 20
64.5907187354802
 30
0.0
 10
209.7138066240145
 20
63.53896434735312
 30
0.0
 10
209.428621095805
 20
62.82594987497625
 30
0.0
 10
209.2869012848204
 20
62.47162517663356
 30
0.0
  0
LINE
  5
1B6
330
1F
100
AcDbEntity
  8
0
  6
Continuous
 62
     7
370
    25
100
AcDbLine
 10
209.403187074
 20
60.6148458389
 30
0.0
 11
211.9567474044
 21
59.1407068381
 31
0.0
  0
LINE
  5
1B7
330
1F
100
AcDbEntity
  8
0
  6
Continuous
 62
     7
370
    25
100
AcDbLine
 10
209.1048947293
 20
61.7431555123
 30
0.0
 11
209.1048947293
 21
61.2777495429
 31
0.0
  0
SPLINE
  5
1B8
330
1F
100
AcDbEntity
  8
0
  6
Continuous
 62
     7
370
    25
100
AcDbSpline
210
0.0
220
0.0
230
1.0
 70
     8
 71
     3
 72
    10
 73
     6
 74
     0
 42
0.000000001
 43
0.00000001
 40
0.0
 40
0.0
 40
0.0
 40
0.0
 40
0.2735083039409023
 40
0.9438263408870146
 40
1.0
 40
1.0
 40
1.0
 40
1.0
 10
211.988001268197
 20
51.89728933189255
 30
0.0
 10
211.9845197685082
 20
51.92754924718566
 30
0.0
 10
211.9725057599214
 20
52.03197059277233
 30
0.0
 10
211.9823514017314
 20
52.19508284775934
 30
0.0
 10
212.0191010987344
 20
52.32246330353159
 30
0.0
 10
212.0219426521384
 20
52.33231259202177
 30
0.0
  0
LINE
  5
1B9
330
1F
100
AcDbEntity
  8
0
  6
Continuous
 62
     7
370
    25
100
AcDbLine
 10
209.1048947293
 20
54.2718068475
 30
0.0
 11
209.1048947293
 21
53.8064008781
 31
0.0
  0
SPLINE
  5
1BA
330
1F
100
AcDbEntity
  8
0
  6
Continuous
 62
     7
370
    25
100
AcDbSpline
210
0.0
220
0.0
230
1.0
 70
     8
 71
     3
 72
    10
 73
     6
 74
     0
 42
0.000000001
 43
0.00000001
 40
0.0
 40
0.0
 40
0.0
 40
0.0
 40
0.2880829376856291
 40
0.6531689026793376
 40
1.0
 40
1.0
 40
1.0
 40
1.0
 10
209.2206734392861
 20
53.52016479633916
 30
0.0
 10
209.3290085259304
 20
53.34743002154119
 30
0.0
 10
209.5746360880263
 20
52.95578939118747
 30
0.0
 10
210.0436805174188
 20
52.45353208985355
 30
0.0
 10
210.4327358363935
 20
52.17445841327526
 30
0.0
 10
210.6222754475945
 20
52.03849955710416
 30
0.0
  0
LWPOLYLINE
  5
1BB
330
1F
100
AcDbEntity
  8
0
  6
Continuous
 62
     7
370
    25
100
AcDbPolyline
 90
        9
 70
   128
 43
0.0
 10
266.3055402351
 20
37.6551342409
 10
266.4356633615
 20
38.0786760019
 10
266.6604081385
 20
38.5466406397
 10
266.9533014061
 20
38.9752513923
 10
267.2943826802
 20
39.3352989468
 10
267.6604083031
 20
39.6022470578
 10
268.0264335969
 20
39.7579029456
 10
268.3675152002
 20
39.7916596379
 10
268.6603271375
 20
39.7012631251
  0
ARC
  5
1BC
330
1F
100
AcDbEntity
  8
0
  6
Continuous
 62
     7
370
    25
100
AcDbCircle
 10
269.1923583893
 20
37.3568603127
 30
0.0
 40
1.050773680970549
100
AcDbArc
 50
333.8131682449
 51
26.1868317551
  0
LINE
  5
1BD
330
1F
100
AcDbEntity
  8
0
  6
Continuous
 62
     7
370
    25
100
AcDbLine
 10
270.1352804673
 20
37.8282903656
 30
0.0
 11
270.1352804673
 21
37.820566344
 31
0.0
  0
LINE
  5
1BE
330
1F
100
AcDbEntity
  8
0
  6
Continuous
 62
     7
370
    25
100
AcDbLine
 10
270.1352804673
 20
37.8282903656
 30
0.0
 11
270.1294872513
 21
37.828808024
 31
0.0
  0
ARC
  5
1BF
330
1F
100
AcDbEntity
  8
0
  6
Continuous
 62
     7
370
    25
100
AcDbCircle
 10
269.7492902913
 20
37.4971419968
 30
0.0
 40
0.5045315470163055
100
AcDbArc
 50
41.0999212461
 51
128.6810159
  0
LINE
  5
1C0
330
1F
100
AcDbEntity
  8
0
  6
Continuous
 62
     7
370
    25
100
AcDbLine
 10
269.4281735702
 20
37.8915162957
 30
0.0
 11
269.4339661277
 21
37.8909982571
 31
0.0
  0
LINE
  5
1C1
330
1F
100
AcDbEntity
  8
0
  6
Continuous
 62
     7
370
    25
100
AcDbLine
 10
269.4281735702
 20
37.8915162957
 30
0.0
 11
269.4223806835
 21
37.8843101225
 31
0.0
  0
ARC
  5
1C2
330
1F
100
AcDbEntity
  8
0
  6
Continuous
 62
     7
370
    25
100
AcDbCircle
 10
270.3824871599
 20
36.4003508155
 30
0.0
 40
1.76746702120548
100
AcDbArc
 50
122.902453611
 51
159.5083995959
  0
LINE
  5
1C3
330
1F
100
AcDbEntity
  8
0
  6
Continuous
 62
     7
370
    25
100
AcDbLine
 10
268.7210666731
 20
37.01188212
 30
0.0
 11
268.7268592306
 21
37.019088103
 31
0.0
  0
LINE
  5
1C4
330
1F
100
AcDbEntity
  8
0
  6
Continuous
 62
     7
370
    25
100
AcDbLine
 10
268.7210666731
 20
37.01188212
 30
0.0
 11
268.7210666731
 21
37.0041580984
 31
0.0
  0
ARC
  5
1C5
330
1F
100
AcDbEntity
  8
0
  6
Continuous
 62
     7
370
    25
100
AcDbCircle
 10
269.9275099226
 20
36.4919494295
 30
0.0
 40
1.310672741227676
100
AcDbArc
 50
156.9958194069
 51
187.8105639736
  0
LWPOLYLINE
  5
1C6
330
1F
100
AcDbEntity
  8
0
  6
Continuous
 62
     7
370
    25
100
AcDbPolyline
 90
        3
 70
   128
 43
0.0
 10
269.4223806835
 20
36.0063139326
 10
269.3177270952
 20
35.9545764391
 10
269.2780820572
 20
35.9391221349
  0
LINE
  5
1C7
330
1F
100
AcDbEntity
  8
0
  6
Continuous
 62
     7
370
    25
100
AcDbLine
 10
269.4281735702
 20
36.0057960841
 30
0.0
 11
269.4223806835
 21
36.0063139326
 31
0.0
  0
LINE
  5
1C8
330
1F
100
AcDbEntity
  8
0
  6
Continuous
 62
     7
370
    25
100
AcDbLine
 10
269.4281735702
 20
36.0057960841
 30
0.0
 11
269.4339661277
 21
36.0130020672
 31
0.0
  0
ARC
  5
1C9
330
1F
100
AcDbEntity
  8
0
  6
Continuous
 62
     7
370
    25
100
AcDbCircle
 10
268.4738616533
 20
37.4969592708
 30
0.0
 40
1.76746416770531
100
AcDbArc
 50
302.9024361636
 51
339.5084312408
  0
LINE
  5
1CA
330
1F
100
AcDbEntity
  8
0
  6
Continuous
 62
     7
370
    25
100
AcDbLine
 10
270.1352804673
 20
36.8854302598
 30
0.0
 11
270.1294872513
 21
36.8782238966
 31
0.0
  0
LINE
  5
1CB
330
1F
100
AcDbEntity
  8
0
  6
Continuous
 62
     7
370
    25
100
AcDbLine
 10
270.1352804673
 20
36.8854302598
 30
0.0
 11
270.1352804673
 21
36.8931542814
 31
0.0
  0
SPLINE
  5
1CC
330
1F
100
AcDbEntity
  8
0
  6
Continuous
 62
     7
370
    25
100
AcDbSpline
210
0.0
220
0.0
230
1.0
 70
     8
 71
     3
 72
     9
 73
     5
 74
     0
 42
0.000000001
 43
0.00000001
 40
0.0
 40
0.0
 40
0.0
 40
0.0
 40
0.9442799064757825
 40
1.0
 40
1.0
 40
1.0
 40
1.0
 10
268.6641025732041
 20
36.29356510593647
 30
0.0
 10
268.6338562863755
 20
36.39863940132393
 30
0.0
 10
268.6018252258593
 20
36.50991392349355
 30
0.0
 10
268.6166415200299
 20
36.59525947634011
 30
0.0
 10
268.6174670853268
 20
36.6000149385266
 30
0.0
  0
SPLINE
  5
1CD
330
1F
100
AcDbEntity
  8
0
  6
Continuous
 62
     7
370
    25
100
AcDbSpline
210
0.0
220
0.0
230
1.0
 70
     8
 71
     3
 72
    10
 73
     6
 74
     0
 42
0.000000001
 43
0.00000001
 40
0.0
 40
0.0
 40
0.0
 40
0.0
 40
0.4395940406551678
 40
0.7571240997642454
 40
1.0
 40
1.0
 40
1.0
 40
1.0
 10
269.4339661277272
 20
37.89099825712976
 30
0.0
 10
269.4867314202655
 20
37.9092020508124
 30
0.0
 10
269.5776104379891
 20
37.9405549119288
 30
0.0
 10
269.861651357354
 20
37.89724116167059
 30
0.0
 10
270.0485058584202
 20
37.8494990923901
 30
0.0
 10
270.1294872512887
 20
37.82880802395614
 30
0.0
  0
LINE
  5
1CE
330
1F
100
AcDbEntity
  8
0
  6
Continuous
 62
     7
370
    25
100
AcDbLine
 10
268.7829323199
 20
37.1236571047
 30
0.0
 11
269.1403487905
 21
37.4597920912
 31
0.0
  0
SPLINE
  5
1CF
330
1F
100
AcDbEntity
  8
0
  6
Continuous
 62
     7
370
    25
100
AcDbSpline
210
0.0
220
0.0
230
1.0
 70
     8
 71
     3
 72
     9
 73
     5
 74
     0
 42
0.000000001
 43
0.00000001
 40
0.0
 40
0.0
 40
0.0
 40
0.0
 40
0.6786694912565541
 40
1.0
 40
1.0
 40
1.0
 40
1.0
 10
269.1403487904871
 20
37.45979209122298
 30
0.0
 10
269.1312337639645
 20
37.49582151625668
 30
0.0
 10
269.1178030342204
 20
37.54890983906753
 30
0.0
 10
269.1151235314313
 20
37.59807224066477
 30
0.0
 10
269.1142625254369
 20
37.61386962018106
 30
0.0
  0
LINE
  5
1D0
330
1F
100
AcDbEntity
  8
0
  6
Continuous
 62
     7
370
    25
100
AcDbLine
 10
268.635646865
 20
36.4633120125
 30
0.0
 11
269.4281735702
 21
36.0057960841
 31
0.0
  0
SPLINE
  5
1D1
330
1F
100
AcDbEntity
  8
0
  6
Continuous
 62
     7
370
    25
100
AcDbSpline
210
0.0
220
0.0
230
1.0
 70
     8
 71
     3
 72
     9
 73
     5
 74
     0
 42
0.000000001
 43
0.00000001
 40
0.0
 40
0.0
 40
0.0
 40
0.0
 40
0.9874377055488446
 40
1.0
 40
1.0
 40
1.0
 40
1.0
 10
269.4223806834705
 20
36.00631393255716
 30
0.0
 10
269.2640492515362
 20
36.04909767792622
 30
0.0
 10
269.1037035091724
 20
36.09242572295493
 30
0.0
 10
269.0112966153499
 20
36.09378728117382
 30
0.0
 10
269.0101357727404
 20
36.09380438546908
 30
0.0
  0
SPLINE
  5
1D2
330
1F
100
AcDbEntity
  8
0
  6
Continuous
 62
     7
370
    25
100
AcDbSpline
210
0.0
220
0.0
230
1.0
 70
     8
 71
     3
 72
    11
 73
     7
 74
     0
 42
0.000000001
 43
0.00000001
 40
0.0
 40
0.0
 40
0.0
 40
0.0
 40
0.1784090564110245
 40
0.516527963050341
 40
0.8702860442948489
 40
1.0
 40
1.0
 40
1.0
 40
1.0
 10
270.1352804673254
 20
37.82056634400865
 30
0.0
 10
270.1145595432524
 20
37.78041458870224
 30
0.0
 10
270.0545685488531
 20
37.66416766268554
 30
0.0
 10
270.0090169289355
 20
37.40819354490252
 30
0.0
 10
270.063041568074
 20
37.11325452327385
 30
0.0
 10
270.1199989809739
 20
36.93971449864204
 30
0.0
 10
270.1352804673254
 20
36.89315428140551
 30
0.0
  0
LINE
  5
1D3
330
1F
100
AcDbEntity
  8
0
  6
Continuous
 62
     7
370
    25
100
AcDbLine
 10
269.1403487905
 20
37.4597920912
 30
0.0
 11
270.1352804673
 21
36.8854302598
 31
0.0
  0
SPLINE
  5
1D4
330
1F
100
AcDbEntity
  8
0
  6
Continuous
 62
     7
370
    25
100
AcDbSpline
210
0.0
220
0.0
230
1.0
 70
     8
 71
     3
 72
    10
 73
     6
 74
     0
 42
0.000000001
 43
0.00000001
 40
0.0
 40
0.0
 40
0.0
 40
0.0
 40
0.4395937172876286
 40
0.7571237795448396
 40
1.0
 40
1.0
 40
1.0
 40
1.0
 10
270.1294872512887
 20
36.87822389659511
 30
0.0
 10
269.9827556710498
 20
36.78126058943518
 30
0.0
 10
269.7300360250673
 20
36.61425814443424
 30
0.0
 10
269.5194420835732
 20
36.28539763039347
 30
0.0
 10
269.4598101826068
 20
36.09536213925065
 30
0.0
 10
269.4339661277272
 20
36.01300206716559
 30
0.0
  0
LWPOLYLINE
  5
1D5
330
1F
100
AcDbEntity
  8
0
  6
Continuous
 62
     7
370
    25
100
AcDbPolyline
 90
        3
 70
   128
 43
0.0
 10
258.3519850743
 20
29.6037511621
 10
258.3519040733
 20
29.6037982234
 10
258.3249590662
 20
29.6202201912
  0
LWPOLYLINE
  5
1D6
330
1F
100
AcDbEntity
  8
0
  6
Continuous
 62
     7
370
    25
100
AcDbPolyline
 90
       10
 70
   128
 43
0.0
 10
256.3466999253
 20
31.4379005318
 10
256.3948876026
 20
31.8883913277
 10
256.5361684486
 20
32.3638192328
 10
256.7609132256
 20
32.8317838706
 10
257.0538061639
 20
33.2603944331
 10
257.3948877673
 20
33.6204421777
 10
257.760913061
 20
33.8873900986
 10
258.1269386839
 20
34.0430461765
 10
258.4680199581
 20
34.0768026788
 10
258.7608318954
 20
33.986406166
  0
ARC
  5
1D7
330
1F
100
AcDbEntity
  8
0
  6
Continuous
 62
     7
370
    25
100
AcDbCircle
 10
257.2958207821
 20
31.3157538084
 30
0.0
 40
0.9569483908886112
100
AcDbArc
 50
172.6666513433
 51
236.0210997208
  0
ARC
  5
1D8
330
1F
100
AcDbEntity
  8
0
  6
Continuous
 62
     7
370
    25
100
AcDbCircle
 10
259.2928642692
 20
31.6420033535
 30
0.0
 40
1.050772674066317
100
AcDbArc
 50
333.8131412446
 51
26.1868587554
  0
LINE
  5
1D9
330
1F
100
AcDbEntity
  8
0
  6
Continuous
 62
     7
370
    25
100
AcDbLine
 10
260.2357852251
 20
32.1134334064
 30
0.0
 11
260.2357852251
 21
32.1057093849
 31
0.0
  0
LINE
  5
1DA
330
1F
100
AcDbEntity
  8
0
  6
Continuous
 62
     7
370
    25
100
AcDbLine
 10
260.2357852251
 20
32.1134334064
 30
0.0
 11
260.2299926677
 21
32.113951445
 31
0.0
  0
ARC
  5
1DB
330
1F
100
AcDbEntity
  8
0
  6
Continuous
 62
     7
370
    25
100
AcDbCircle
 10
259.8497955686
 20
31.7822843275
 30
0.0
 40
0.504532368614722
100
AcDbArc
 50
41.1000041658
 51
128.6809688618
  0
LINE
  5
1DC
330
1F
100
AcDbEntity
  8
0
  6
Continuous
 62
     7
370
    25
100
AcDbLine
 10
259.5286783281
 20
32.1766593365
 30
0.0
 11
259.5344712148
 21
32.1761414881
 31
0.0
  0
LINE
  5
1DD
330
1F
100
AcDbEntity
  8
0
  6
Continuous
 62
     7
370
    25
100
AcDbLine
 10
259.5286783281
 20
32.1766593365
 30
0.0
 11
259.5228857706
 21
32.1694533534
 31
0.0
  0
ARC
  5
1DE
330
1F
100
AcDbEntity
  8
0
  6
Continuous
 62
     7
370
    25
100
AcDbCircle
 10
260.482990245
 20
30.6854961498
 30
0.0
 40
1.767464167705779
100
AcDbArc
 50
122.9024361636
 51
159.5084312408
  0
LINE
  5
1DF
330
1F
100
AcDbEntity
  8
0
  6
Continuous
 62
     7
370
    25
100
AcDbLine
 10
258.821571431
 20
31.2970251608
 30
0.0
 11
258.827364647
 21
31.304231524
 31
0.0
  0
LINE
  5
1E0
330
1F
100
AcDbEntity
  8
0
  6
Continuous
 62
     7
370
    25
100
AcDbLine
 10
258.821571431
 20
31.2970251608
 30
0.0
 11
258.821571431
 21
31.2893011392
 31
0.0
  0
ARC
  5
1E1
330
1F
100
AcDbEntity
  8
0
  6
Continuous
 62
     7
370
    25
100
AcDbCircle
 10
259.764493509
 20
30.8255951079
 30
0.0
 40
1.050773680970395
100
AcDbArc
 50
153.8131682449
 51
206.1868317551
  0
LINE
  5
1E2
330
1F
100
AcDbEntity
  8
0
  6
Continuous
 62
     7
370
    25
100
AcDbLine
 10
258.821571431
 20
30.354165055
 30
0.0
 11
258.821571431
 21
30.3618890766
 31
0.0
  0
LINE
  5
1E3
330
1F
100
AcDbEntity
  8
0
  6
Continuous
 62
     7
370
    25
100
AcDbLine
 10
258.821571431
 20
30.354165055
 30
0.0
 11
258.827364647
 21
30.3536473967
 31
0.0
  0
ARC
  5
1E4
330
1F
100
AcDbEntity
  8
0
  6
Continuous
 62
     7
370
    25
100
AcDbCircle
 10
259.207561607
 20
30.6853134238
 30
0.0
 40
0.5045315470163054
100
AcDbArc
 50
221.0999212461
 51
308.6810159
  0
LINE
  5
1E5
330
1F
100
AcDbEntity
  8
0
  6
Continuous
 62
     7
370
    25
100
AcDbLine
 10
259.5286783281
 20
30.290939125
 30
0.0
 11
259.5228857706
 21
30.2914571635
 31
0.0
  0
LINE
  5
1E6
330
1F
100
AcDbEntity
  8
0
  6
Continuous
 62
     7
370
    25
100
AcDbLine
 10
259.5286783281
 20
30.290939125
 30
0.0
 11
259.5344712148
 21
30.2981452981
 31
0.0
  0
ARC
  5
1E7
330
1F
100
AcDbEntity
  8
0
  6
Continuous
 62
     7
370
    25
100
AcDbCircle
 10
258.5743647384
 20
31.7821046052
 30
0.0
 40
1.767467021205839
100
AcDbArc
 50
302.902453611
 51
339.5083995959
  0
LINE
  5
1E8
330
1F
100
AcDbEntity
  8
0
  6
Continuous
 62
     7
370
    25
100
AcDbLine
 10
260.2357852251
 20
31.1705733007
 30
0.0
 11
260.2299926677
 21
31.1633673176
 31
0.0
  0
LINE
  5
1E9
330
1F
100
AcDbEntity
  8
0
  6
Continuous
 62
     7
370
    25
100
AcDbLine
 10
260.2357852251
 20
31.1705733007
 30
0.0
 11
260.2357852251
 21
31.1782973222
 31
0.0
  0
SPLINE
  5
1EA
330
1F
100
AcDbEntity
  8
0
  6
Continuous
 62
     7
370
    25
100
AcDbSpline
210
0.0
220
0.0
230
1.0
 70
     8
 71
     3
 72
    10
 73
     6
 74
     0
 42
0.000000001
 43
0.00000001
 40
0.0
 40
0.0
 40
0.0
 40
0.0
 40
0.2594353039344574
 40
0.9669716274396607
 40
1.0
 40
1.0
 40
1.0
 40
1.0
 10
258.8215714309683
 20
30.36188907660541
 30
0.0
 10
258.8067991309613
 20
30.40809477709076
 30
0.0
 10
258.7517395659672
 20
30.58031344092608
 30
0.0
 10
258.698879201083
 20
30.77371410894801
 30
0.0
 10
258.7171566873264
 20
30.880399909757
 30
0.0
 10
258.7179718431505
 20
30.88515797936893
 30
0.0
  0
SPLINE
  5
1EB
330
1F
100
AcDbEntity
  8
0
  6
Continuous
 62
     7
370
    25
100
AcDbSpline
210
0.0
220
0.0
230
1.0
 70
     8
 71
     3
 72
    10
 73
     6
 74
     0
 42
0.000000001
 43
0.00000001
 40
0.0
 40
0.0
 40
0.0
 40
0.0
 40
0.4395939009472043
 40
0.7571238591416337
 40
1.0
 40
1.0
 40
1.0
 40
1.0
 10
259.5344712148232
 20
32.17614148805691
 30
0.0
 10
259.5872365076025
 20
32.19434529635635
 30
0.0
 10
259.6781155257411
 20
32.22569818264765
 30
0.0
 10
259.9621565330928
 20
32.18238428006893
 30
0.0
 10
260.1490111601452
 20
32.13464243260793
 30
0.0
 10
260.2299926676569
 20
32.11395144496812
 30
0.0
  0
LINE
  5
1EC
330
1F
100
AcDbEntity
  8
0
  6
Continuous
 62
     7
370
    25
100
AcDbLine
 10
258.883437407
 20
31.4088003357
 30
0.0
 11
259.2408535483
 21
31.7449351321
 31
0.0
  0
SPLINE
  5
1ED
330
1F
100
AcDbEntity
  8
0
  6
Continuous
 62
     7
370
    25
100
AcDbSpline
210
0.0
220
0.0
230
1.0
 70
     8
 71
     3
 72
     9
 73
     5
 74
     0
 42
0.000000001
 43
0.00000001
 40
0.0
 40
0.0
 40
0.0
 40
0.0
 40
0.6786694912565541
 40
1.0
 40
1.0
 40
1.0
 40
1.0
 10
259.2408535483107
 20
31.7449351320653
 30
0.0
 10
259.2317385217881
 20
31.780964557099
 30
0.0
 10
259.2183077920441
 20
31.83405287990985
 30
0.0
 10
259.2156282892549
 20
31.8832152815071
 30
0.0
 10
259.2147672832605
 20
31.89901266102339
 30
0.0
  0
LINE
  5
1EE
330
1F
100
AcDbEntity
  8
0
  6
Continuous
 62
     7
370
    25
100
AcDbLine
 10
258.7361516228
 20
30.7484550534
 30
0.0
 11
259.5286783281
 21
30.290939125
 31
0.0
  0
SPLINE
  5
1EF
330
1F
100
AcDbEntity
  8
0
  6
Continuous
 62
     7
370
    25
100
AcDbSpline
210
0.0
220
0.0
230
1.0
 70
     8
 71
     3
 72
    10
 73
     6
 74
     0
 42
0.000000001
 43
0.00000001
 40
0.0
 40
0.0
 40
0.0
 40
0.0
 40
0.4395940406551678
 40
0.7571240997642454
 40
1.0
 40
1.0
 40
1.0
 40
1.0
 10
259.5228857705665
 20
30.29145716348431
 30
0.0
 10
259.3761540800163
 20
30.32749901672285
 30
0.0
 10
259.1234343230581
 20
30.38957482568147
 30
0.0
 10
258.9128402535302
 20
30.39048861203732
 30
0.0
 10
258.853208582898
 20
30.36478650461154
 30
0.0
 10
258.827364647005
 20
30.35364739665793
 30
0.0
  0
SPLINE
  5
1F0
330
1F
100
AcDbEntity
  8
0
  6
Continuous
 62
     7
370
    25
100
AcDbSpline
210
0.0
220
0.0
230
1.0
 70
     8
 71
     3
 72
    11
 73
     7
 74
     0
 42
0.000000001
 43
0.00000001
 40
0.0
 40
0.0
 40
0.0
 40
0.0
 40
0.1784090564110245
 40
0.516527963050341
 40
0.8702860442948489
 40
1.0
 40
1.0
 40
1.0
 40
1.0
 10
260.2357852251491
 20
32.10570938485098
 30
0.0
 10
260.2150643010761
 20
32.06555762954456
 30
0.0
 10
260.1550733066768
 20
31.94931070352787
 30
0.0
 10
260.1095216867592
 20
31.69333658574485
 30
0.0
 10
260.1635463258976
 20
31.39839756411618
 30
0.0
 10
260.2205037387976
 20
31.22485753948437
 30
0.0
 10
260.2357852251491
 20
31.17829732224784
 30
0.0
  0
LINE
  5
1F1
330
1F
100
AcDbEntity
  8
0
  6
Continuous
 62
     7
370
    25
100
AcDbLine
 10
259.2408535483
 20
31.7449351321
 30
0.0
 11
260.2357852251
 21
31.1705733007
 31
0.0
  0
SPLINE
  5
1F2
330
1F
100
AcDbEntity
  8
0
  6
Continuous
 62
     7
370
    25
100
AcDbSpline
210
0.0
220
0.0
230
1.0
 70
     8
 71
     3
 72
    10
 73
     6
 74
     0
 42
0.000000001
 43
0.00000001
 40
0.0
 40
0.0
 40
0.0
 40
0.0
 40
0.4395939009472043
 40
0.7571238591416337
 40
1.0
 40
1.0
 40
1.0
 40
1.0
 10
260.2299926676569
 20
31.16336731760709
 30
0.0
 10
260.0832609643314
 20
31.06640396145729
 30
0.0
 10
259.83054118537
 20
30.89940148429534
 30
0.0
 10
259.6199471700116
 20
30.57054086113893
 30
0.0
 10
259.5603152695039
 20
30.38050537012287
 30
0.0
 10
259.5344712148232
 20
30.29814529809275
 30
0.0
  0
LWPOLYLINE
  5
1F3
330
1F
100
AcDbEntity
  8
0
  6
Continuous
 62
     7
370
    25
100
AcDbPolyline
 90
       23
 70
   128
 43
0.0
 10
272.9156864757
 20
26.2834336306
 10
272.4656906862
 20
26.136481527
 10
272.0267931622
 20
26.1087633431
 10
271.6381145959
 20
26.2104792159
 10
271.3166421431
 20
26.4371837867
 10
271.0764255215
 20
26.7789688066
 10
270.9279635769
 20
27.2208968014
 10
270.877744619
 20
27.7436532583
 10
270.9279635769
 20
28.3243912897
 10
271.0764255215
 20
28.9377297972
 10
271.3166421431
 20
29.5568630249
 10
271.6381145959
 20
30.1547317892
 10
272.0267931622
 20
30.7052063825
 10
272.4656906862
 20
31.1842284936
 10
272.9356251454
 20
31.5708625135
 10
273.4160582652
 20
31.84821065
 10
273.8859927244
 20
32.0041514077
 10
274.3248902485
 20
32.0318695916
 10
274.7135688147
 20
31.9301537188
 10
275.0350412675
 20
31.7034491481
 10
275.2752578892
 20
31.3616641281
 10
275.4237198338
 20
30.9197361334
 10
275.4557171943
 20
30.7199814878
  0
LWPOLYLINE
  5
1F4
330
1F
100
AcDbEntity
  8
0
  6
Continuous
 62
     7
370
    25
100
AcDbPolyline
 90
       17
 70
   128
 43
0.0
 10
272.1137030919
 20
33.4361511009
 10
272.0265623423
 20
33.4813295376
 10
271.6378837761
 20
33.5830454104
 10
271.198986252
 20
33.5553272265
 10
270.7290517929
 20
33.3993864688
 10
270.2486186731
 20
33.1220383323
 10
269.7786842139
 20
32.7354043124
 10
269.3397866898
 20
32.2563822013
 10
268.9511081236
 20
31.705907608
 10
268.6296356707
 20
31.1080388437
 10
268.3894190491
 20
30.4889056159
 10
268.2409571045
 20
29.8755671085
 10
268.1907381467
 20
29.2948290771
 10
268.2409571045
 20
28.7720726201
 10
268.3894190491
 20
28.3301446254
 10
268.6296356707
 20
27.9883596054
 10
268.863967374
 20
27.8068334714
  0
LINE
  5
1F5
330
1F
100
AcDbEntity
  8
0
  6
Continuous
 62
     7
370
    25
100
AcDbLine
 10
273.3172601871
 20
30.4253604447
 30
0.0
 11
272.2398062157
 21
29.0850179421
 31
0.0
  0
LINE
  5
1F6
330
1F
100
AcDbEntity
  8
0
  6
Continuous
 62
     7
370
    25
100
AcDbLine
 10
272.2398062157
 20
29.0850179421
 30
0.0
 11
272.2398062157
 21
27.6483348129
 31
0.0
  0
LINE
  5
1F7
330
1F
100
AcDbEntity
  8
0
  6
Continuous
 62
     7
370
    25
100
AcDbLine
 10
273.3172601871
 20
27.5519941864
 30
0.0
 11
272.2398062157
 21
27.6483348129
 31
0.0
  0
LINE
  5
1F8
330
1F
100
AcDbEntity
  8
0
  6
Continuous
 62
     7
370
    25
100
AcDbLine
 10
274.3947141586
 20
28.892336689
 30
0.0
 11
273.3172601871
 21
27.5519941864
 31
0.0
  0
LINE
  5
1F9
330
1F
100
AcDbEntity
  8
0
  6
Continuous
 62
     7
370
    25
100
AcDbLine
 10
274.3947141586
 20
28.892336689
 30
0.0
 11
274.3947141586
 21
30.3290198182
 31
0.0
  0
LINE
  5
1FA
330
1F
100
AcDbEntity
  8
0
  6
Continuous
 62
     7
370
    25
100
AcDbLine
 10
273.3172601871
 20
30.4253604447
 30
0.0
 11
274.3947141586
 21
30.3290198182
 31
0.0
  0
ARC
  5
1FB
330
1F
100
AcDbEntity
  8
0
  6
Continuous
 62
     7
370
    25
100
AcDbCircle
 10
270.4546008624
 20
30.6408069792
 30
0.0
 40
2.552649879976816
100
AcDbArc
 50
321.1211961458
 51
343.2437586151
  0
LWPOLYLINE
  5
1FC
330
1F
100
AcDbEntity
  8
0
  6
Continuous
 62
     7
370
    25
100
AcDbPolyline
 90
        3
 70
   128
 43
0.0
 10
272.2398086235
 20
28.8176206668
 10
272.3153727986
 20
28.8936187886
 10
272.4417760129
 20
29.0385721864
  0
LINE
  5
1FD
330
1F
100
AcDbEntity
  8
0
  6
Continuous
 62
     7
370
    25
100
AcDbLine
 10
272.2398076151
 20
28.1739943166
 30
0.0
 11
273.3172601871
 21
27.5519941864
 31
0.0
  0
LINE
  5
1FE
330
1F
100
AcDbEntity
  8
0
  6
Continuous
 62
     7
370
    25
100
AcDbLine
 10
272.9805029986
 20
29.708743414
 30
0.0
 11
274.3947141586
 21
28.892336689
 31
0.0
  0
LINE
  5
1FF
330
1F
100
AcDbEntity
  8
0
  6
Continuous
 62
     7
370
    25
100
AcDbLine
 10
272.9805029986
 20
29.708743414
 30
0.0
 11
272.9805029986
 21
30.0064332668
 31
0.0
  0
LINE
  5
200
330
1F
100
AcDbEntity
  8
0
  6
Continuous
 62
     7
370
    25
100
AcDbLine
 10
272.4417760129
 20
29.0385721864
 30
0.0
 11
272.2398086235
 21
28.7873266769
 31
0.0
  0
LINE
  5
201
330
1F
100
AcDbEntity
  8
0
  6
Continuous
 62
     7
370
    25
100
AcDbLine
 10
272.9805029986
 20
29.708743414
 30
0.0
 11
272.4417760129
 21
29.0385721864
 31
0.0
  0
LINE
  5
202
330
1F
100
AcDbEntity
  8
0
  6
Continuous
 62
     7
370
    25
100
AcDbLine
 10
267.1774324195
 20
43.5024825519
 30
0.0
 11
267.2687043834
 21
43.4477273135
 31
0.0
  0
LINE
  5
203
330
1F
100
AcDbEntity
  8
0
  6
Continuous
 62
     7
370
    25
100
AcDbLine
 10
257.7288159309
 20
27.0189528863
 30
0.0
 11
257.6782044806
 21
27.0475538918
 31
0.0
  0
LINE
  5
204
330
1F
100
AcDbEntity
  8
0
  6
Continuous
 62
     7
370
    25
100
AcDbLine
 10
253.5106519892
 20
51.3348795299
 30
0.0
 11
253.9549215901
 21
51.0330905454
 31
0.0
  0
LWPOLYLINE
  5
205
330
1F
100
AcDbEntity
  8
0
  6
Continuous
 62
     7
370
    25
100
AcDbPolyline
 90
       15
 70
   128
 43
0.0
 10
255.2354096901
 20
50.394503699
 10
255.2042839132
 20
50.4140661039
 10
254.9090304221
 20
50.568862293
 10
254.536292255
 20
50.7508020502
 10
254.0899321046
 20
50.9655880786
 10
253.5949470033
 20
51.2130705456
 10
253.1177709212
 20
51.4755038182
 10
252.748035717
 20
51.7134830262
 10
252.5554361438
 20
51.8759527549
 10
252.5664901427
 20
51.9174419783
 10
252.7388266306
 20
51.8374582641
 10
253.000786087
 20
51.6773326603
 10
253.3254366756
 20
51.4612305651
 10
253.5106519892
 20
51.3348795299
 10
253.5106519892
 20
51.3348795299
  0
SPLINE
  5
206
330
1F
100
AcDbEntity
  8
0
  6
Continuous
 62
     7
370
    25
100
AcDbSpline
210
0.0
220
0.0
230
1.0
 70
    11
 71
     3
 72
    70
 73
    66
 74
     0
 42
0.000000001
 43
0.00000001
 40
0.0
 40
0.0
 40
0.0
 40
0.0
 40
0.0312499999999993
 40
0.0312499999999993
 40
0.0624999999999985
 40
0.0624999999999985
 40
0.0937499999999978
 40
0.0937499999999978
 40
0.124999999999997
 40
0.124999999999997
 40
0.1562499999999963
 40
0.1562499999999963
 40
0.1874999999999955
 40
0.1874999999999955
 40
0.2187499999999948
 40
0.2187499999999948
 40
0.249999999999994
 40
0.249999999999994
 40
0.2812499999999942
 40
0.2812499999999942
 40
0.3124999999999945
 40
0.3124999999999945
 40
0.3437499999999947
 40
0.3437499999999947
 40
0.374999999999995
 40
0.374999999999995
 40
0.4062499999999952
 40
0.4062499999999952
 40
0.4374999999999955
 40
0.4374999999999955
 40
0.4687499999999957
 40
0.4687499999999957
 40
0.499999999999996
 40
0.499999999999996
 40
0.5312499999999962
 40
0.5312499999999962
 40
0.5624999999999964
 40
0.5624999999999964
 40
0.5937499999999968
 40
0.5937499999999968
 40
0.624999999999997
 40
0.624999999999997
 40
0.6562499999999972
 40
0.6562499999999972
 40
0.6874999999999974
 40
0.6874999999999974
 40
0.7187499999999978
 40
0.7187499999999978
 40
0.749999999999998
 40
0.749999999999998
 40
0.7812499999999982
 40
0.7812499999999982
 40
0.8124999999999984
 40
0.8124999999999984
 40
0.8437499999999988
 40
0.8437499999999988
 40
0.874999999999999
 40
0.874999999999999
 40
0.9062499999999992
 40
0.9062499999999992
 40
0.9374999999999994
 40
0.9374999999999994
 40
0.9687499999999998
 40
0.9687499999999998
 40
1.0
 40
1.0
 40
1.0
 40
1.0
 10
243.3392483871347
 20
46.44315745024302
 30
0.0
 10
243.4015153456705
 20
46.53222627457189
 30
0.0
 10
243.4719513383885
 20
46.61234186013102
 30
0.0
 10
243.6276340939314
 20
46.75626359423205
 30
0.0
 10
243.7137701137869
 20
46.82034099213241
 30
0.0
 10
243.8921927572068
 20
46.92731259585442
 30
0.0
 10
243.9857191204729
 20
46.9712751266534
 30
0.0
 10
244.1775240378936
 20
47.04019283409045
 30
0.0
 10
244.2739914368265
 20
47.06461730183869
 30
0.0
 10
244.4675733902185
 20
47.09548957875512
 30
0.0
 10
244.5652677383256
 20
47.10177490683301
 30
0.0
 10
244.7544409088487
 20
47.09681497520862
 30
0.0
 10
244.8466741838252
 20
47.08577942604894
 30
0.0
 10
245.0262770400431
 20
47.04716549582039
 30
0.0
 10
245.1132338584266
 20
47.01948948250675
 30
0.0
 10
245.2762014516722
 20
46.9497768949057
 30
0.0
 10
245.3530088147106
 20
46.9075944357305
 30
0.0
 10
245.4970721366166
 20
46.80829961837264
 30
0.0
 10
245.5637225307322
 20
46.7513953654052
 30
0.0
 10
245.6826725833531
 20
46.62643349278029
 30
0.0
 10
245.735601761334
 20
46.55797721443587
 30
0.0
 10
245.8279441390756
 20
46.40828785648711
 30
0.0
 10
245.8669484838435
 20
46.32730892759651
 30
0.0
 10
245.9278801079378
 20
46.15827747682026
 30
0.0
 10
245.9503088130131
 20
46.06951092717339
 30
0.0
 10
245.9779637859126
 20
45.88229990268292
 30
0.0
 10
245.9828464616427
 20
45.78430425584951
 30
0.0
 10
245.9737448551902
 20
45.58741423625185
 30
0.0
 10
245.9599953086181
 20
45.48740078753771
 30
0.0
 10
245.9120196351587
 20
45.28352680515047
 30
0.0
 10
245.8783089490523
 20
45.18260219382753
 30
0.0
 10
245.793048328962
 20
44.98761120694182
 30
0.0
 10
245.7403280202722
 20
44.89140900459439
 30
0.0
 10
245.6202591866452
 20
44.71281934723902
 30
0.0
 10
245.5532804015212
 20
44.6303127135363
 30
0.0
 10
245.4055459417937
 20
44.47867728469402
 30
0.0
 10
245.3267574864228
 20
44.41169698889637
 30
0.0
 10
245.1622535635475
 20
44.29588550338374
 30
0.0
 10
245.075525463202
 20
44.24658359290575
 30
0.0
 10
244.9010501014794
 20
44.1683577423414
 30
0.0
 10
244.812491543733
 20
44.13877182853156
 30
0.0
 10
244.6327108119866
 20
44.09814992112065
 30
0.0
 10
244.543850828489
 20
44.08763475867678
 30
0.0
 10
244.367587566329
 20
44.08474817327689
 30
0.0
 10
244.2794391866425
 20
44.0925787731419
 30
0.0
 10
244.1084653462187
 20
44.1260437321249
 30
0.0
 10
244.0257916589932
 20
44.15144823348567
 30
0.0
 10
243.8657298688883
 20
44.21916840293349
 30
0.0
 10
243.787699322398
 20
44.26200761359291
 30
0.0
 10
243.6416090444887
 20
44.36248687867104
 30
0.0
 10
243.5732714654083
 20
44.42004372074502
 30
0.0
 10
243.4461672076649
 20
44.54975839437618
 30
0.0
 10
243.3869052761827
 20
44.62275479693618
 30
0.0
 10
243.2825003993277
 20
44.77949625025291
 30
0.0
 10
243.237097376003
 20
44.86319880107037
 30
0.0
 10
243.1607649514948
 20
45.04148330382418
 30
0.0
 10
243.1296081545643
 20
45.13730130711605
 30
0.0
 10
243.0860392337516
 20
45.33381651070729
 30
0.0
 10
243.0733398702969
 20
45.43444893552572
 30
0.0
 10
243.0678890503019
 20
45.64060048661812
 30
0.0
 10
243.0755419989102
 20
45.74758308049972
 30
0.0
 10
243.1128870188511
 20
45.95579459342856
 30
0.0
 10
243.1422618259605
 20
46.05784319451764
 30
0.0
 10
243.2242734661292
 20
46.25739402815395
 30
0.0
 10
243.276981428599
 20
46.35408862591414
 30
0.0
 10
243.3392483871347
 20
46.44315745024301
 30
0.0
  0
SPLINE
  5
207
330
1F
100
AcDbEntity
  8
0
  6
Continuous
 62
     7
370
    25
100
AcDbSpline
210
0.0
220
0.0
230
1.0
 70
     8
 71
     3
 72
    20
 73
    16
 74
     0
 42
0.000000001
 43
0.00000001
 40
0.0
 40
0.0
 40
0.0
 40
0.0
 40
0.0794190642718616
 40
0.1462183388967125
 40
0.2224437110067284
 40
0.2904464322922774
 40
0.3563015266589759
 40
0.4270111307565015
 40
0.5067333580308632
 40
0.5959057098873392
 40
0.6910889273454331
 40
0.7875285224883456
 40
0.8799899661353529
 40
0.9620446851312824
 40
1.0
 40
1.0
 40
1.0
 40
1.0
 10
244.5422343020011
 20
34.73307611232639
 30
0.0
 10
244.3800934554461
 20
34.8116183403932
 30
0.0
 10
244.0815761476945
 20
34.95622233726054
 30
0.0
 10
243.6499098421641
 20
35.1631171461365
 30
0.0
 10
243.3134060452774
 20
35.33609321599273
 30
0.0
 10
243.1098654436392
 20
35.4613757007976
 30
0.0
 10
243.0487533728752
 20
35.52691571026146
 30
0.0
 10
243.1194296960108
 20
35.52987833497115
 30
0.0
 10
243.3312800499631
 20
35.45272113004962
 30
0.0
 10
243.688276936457
 20
35.27324983662922
 30
0.0
 10
244.1631240060459
 20
34.98864946841488
 30
0.0
 10
244.697006550887
 20
34.63310270972654
 30
0.0
 10
245.1980648128872
 20
34.28798486799307
 30
0.0
 10
245.5621743785935
 20
34.04326334828476
 30
0.0
 10
245.6913450324536
 20
33.97032084598027
 30
0.0
 10
245.7321975568733
 20
33.94725147791891
 30
0.0
  0
SPLINE
  5
208
330
1F
100
AcDbEntity
  8
0
  6
Continuous
 62
     7
370
    25
100
AcDbSpline
210
0.0
220
0.0
230
1.0
 70
    11
 71
     3
 72
    77
 73
    73
 74
     0
 42
0.000000001
 43
0.00000001
 40
0.0
 40
0.0
 40
0.0
 40
0.0
 40
0.0312500000000001
 40
0.0312500000000001
 40
0.0625000000000002
 40
0.0625000000000002
 40
0.0937500000000002
 40
0.0937500000000002
 40
0.1250000000000003
 40
0.1250000000000003
 40
0.1562500000000004
 40
0.1562500000000004
 40
0.1875000000000005
 40
0.1875000000000005
 40
0.2187500000000006
 40
0.2187500000000006
 40
0.2343750000000004
 40
0.2343750000000004
 40
0.2500000000000003
 40
0.2656250000000002
 40
0.2656250000000002
 40
0.2812500000000001
 40
0.2812500000000001
 40
0.3125000000000001
 40
0.3125000000000001
 40
0.3437500000000001
 40
0.3437500000000001
 40
0.3750000000000002
 40
0.3750000000000002
 40
0.4062500000000002
 40
0.4062500000000002
 40
0.4375000000000002
 40
0.4375000000000002
 40
0.4687500000000002
 40
0.4687500000000002
 40
0.5000000000000002
 40
0.5000000000000002
 40
0.5312500000000003
 40
0.5312500000000003
 40
0.5625000000000002
 40
0.5625000000000002
 40
0.5937500000000002
 40
0.5937500000000002
 40
0.6250000000000002
 40
0.6250000000000002
 40
0.6562500000000002
 40
0.6562500000000002
 40
0.6875000000000001
 40
0.6875000000000001
 40
0.7031250000000002
 40
0.7031250000000002
 40
0.7187500000000002
 40
0.7187500000000002
 40
0.7500000000000007
 40
0.7500000000000007
 40
0.7656250000000008
 40
0.7656250000000008
 40
0.781250000000001
 40
0.781250000000001
 40
0.8125000000000008
 40
0.8125000000000008
 40
0.8437500000000007
 40
0.8437500000000007
 40
0.8750000000000006
 40
0.8750000000000006
 40
0.9062500000000004
 40
0.9062500000000004
 40
0.9375000000000002
 40
0.9375000000000002
 40
0.9687500000000001
 40
0.9687500000000001
 40
1.0
 40
1.0
 40
1.0
 40
1.0
 10
256.8462082755173
 20
42.09473694691057
 30
0.0
 10
256.7421623738269
 20
42.15480136744922
 30
0.0
 10
256.6476742371763
 20
42.22320869006516
 30
0.0
 10
256.4772857747641
 20
42.37600521361222
 30
0.0
 10
256.401021841144
 20
42.46090835450707
 30
0.0
 10
256.2703206278933
 20
42.64513205641622
 30
0.0
 10
256.2169507325589
 20
42.74269576793052
 30
0.0
 10
256.1346015380925
 20
42.9479618465079
 30
0.0
 10
256.1054807661192
 20
43.05682012549244
 30
0.0
 10
256.0756454005515
 20
43.27913417290679
 30
0.0
 10
256.0747748133153
 20
43.39138868790594
 30
0.0
 10
256.1022869970892
 20
43.61702699434224
 30
0.0
 10
256.1313960586094
 20
43.73192184255799
 30
0.0
 10
256.2193630801027
 20
43.95216849683546
 30
0.0
 10
256.2777727780518
 20
44.05787402698844
 30
0.0
 10
256.3880524981111
 20
44.208961022859
 30
0.0
 10
256.4289454816917
 20
44.25838754439503
 30
0.0
 10
256.5167607773845
 20
44.35233967689869
 30
0.0
 10
256.6106479857133
 20
44.4416566248164
 30
0.0
 10
256.7164257421006
 20
44.52186431010396
 30
0.0
 10
256.8282130532355
 20
44.59748278772354
 30
0.0
 10
256.887526376064
 20
44.63320175707113
 30
0.0
 10
257.0711099506406
 20
44.73133972590095
 30
0.0
 10
257.2008813971683
 20
44.78505867415056
 30
0.0
 10
257.4744419738334
 20
44.87090938028266
 30
0.0
 10
257.617982603114
 20
44.90260344350642
 30
0.0
 10
257.9059099943626
 20
44.94340771274418
 30
0.0
 10
258.0531160527987
 20
44.95303179909442
 30
0.0
 10
258.3455120512861
 20
44.95221747945988
 30
0.0
 10
258.4891936176609
 20
44.9419834152597
 30
0.0
 10
258.771754525958
 20
44.90430320646732
 30
0.0
 10
258.9112577208531
 20
44.87652371313253
 30
0.0
 10
259.1755156170535
 20
44.80711393024932
 30
0.0
 10
259.3015581886921
 20
44.76539002011182
 30
0.0
 10
259.5415452366181
 20
44.66870705666755
 30
0.0
 10
259.6545120953128
 20
44.6139666079708
 30
0.0
 10
259.8603070331683
 20
44.49546801014461
 30
0.0
 10
259.9541833349737
 20
44.43130882300587
 30
0.0
 10
260.1232304357926
 20
44.29256566920013
 30
0.0
 10
260.1969594503198
 20
44.2189822429042
 30
0.0
 10
260.3200603249328
 20
44.06580487726623
 30
0.0
 10
260.3699972020221
 20
43.98577699334046
 30
0.0
 10
260.4449078986423
 20
43.81719235462511
 30
0.0
 10
260.4688916484186
 20
43.73049337090938
 30
0.0
 10
260.4891027251372
 20
43.55368295806105
 30
0.0
 10
260.4855246761419
 20
43.46301344004653
 30
0.0
 10
260.4482528633321
 20
43.27604946727125
 30
0.0
 10
260.4152532324289
 20
43.18306825524366
 30
0.0
 10
260.3443334433384
 20
43.04341527009875
 30
0.0
 10
260.3170969047044
 20
42.99683689123029
 30
0.0
 10
260.2550969634459
 20
42.9034951075612
 30
0.0
 10
260.2201415903985
 20
42.85655895362684
 30
0.0
 10
260.1065199865467
 20
42.71913038329317
 30
0.0
 10
260.0185229750282
 20
42.63077021564933
 30
0.0
 10
259.8679731148513
 20
42.50294381780223
 30
0.0
 10
259.8142990221985
 20
42.46088473913731
 30
0.0
 10
259.7030836938911
 20
42.38036118425207
 30
0.0
 10
259.6454108034505
 20
42.3417391328295
 30
0.0
 10
259.4663592602473
 20
42.23072254855944
 30
0.0
 10
259.3374881309595
 20
42.16246858680167
 30
0.0
 10
259.070757716439
 20
42.04337438641505
 30
0.0
 10
258.9340336538212
 20
41.99277470311465
 30
0.0
 10
258.6538035934062
 20
41.90967130276572
 30
0.0
 10
258.5111786315814
 20
41.87767473783033
 30
0.0
 10
258.2303904028451
 20
41.83479280186424
 30
0.0
 10
258.0897773422951
 20
41.82347432035152
 30
0.0
 10
257.8145656368901
 20
41.8221425729797
 30
0.0
 10
257.6814860390648
 20
41.83196606665548
 30
0.0
 10
257.4235121297211
 20
41.87224749392666
 30
0.0
 10
257.297789490562
 20
41.90311072372893
 30
0.0
 10
257.0615995767128
 20
41.9843007047868
 30
0.0
 10
256.9502541772075
 20
42.03467252637191
 30
0.0
 10
256.8462082755173
 20
42.09473694691057
 30
0.0
  0
LWPOLYLINE
  5
209
330
1F
100
AcDbEntity
  8
0
  6
Continuous
 62
     7
370
    25
100
AcDbPolyline
 90
       18
 70
   128
 43
0.0
 10
259.5024909764
 20
33.5582557337
 10
259.5409871835
 20
33.9273191876
 10
259.686193284
 20
34.6369307964
 10
259.9232966365
 20
35.3609692216
 10
260.2450924347
 20
36.0774348051
 10
260.6418032683
 20
36.7645581228
 10
261.1013753033
 20
37.4014613218
 10
261.6098445972
 20
37.9687925972
 10
262.1517617372
 20
38.4493133485
 10
262.7106606821
 20
38.8284235916
 10
263.2695596269
 20
39.0946043348
 10
263.8114767669
 20
39.2397677953
 10
264.3199460608
 20
39.2595026706
 10
264.7795180958
 20
39.1532100488
 10
265.1762289294
 20
38.9241193101
 10
265.4980247276
 20
38.5791912468
 10
265.7351280801
 20
38.1289065254
 10
265.7966799303
 20
37.9488929096
  0
ARC
  5
20A
330
1F
100
AcDbEntity
  8
0
  6
Continuous
 62
     7
370
    25
100
AcDbCircle
 10
261.2987660263
 20
32.8659901234
 30
0.0
 40
1.911561724188101
100
AcDbArc
 50
249.1987296738
 51
285.1083367403
  0
SPLINE
  5
20B
330
1F
100
AcDbEntity
  8
0
  6
Continuous
 62
     7
370
    25
100
AcDbSpline
210
0.0
220
0.0
230
1.0
 70
     8
 71
     3
 72
    14
 73
    10
 74
     0
 42
0.000000001
 43
0.00000001
 40
0.0
 40
0.0
 40
0.0
 40
0.0
 40
0.25
 40
0.25
 40
0.5
 40
0.5
 40
0.75
 40
0.75
 40
1.0
 40
1.0
 40
1.0
 40
1.0
 10
267.1020673650781
 20
32.97578152117376
 30
0.0
 10
267.0596403396412
 20
32.94136338384962
 30
0.0
 10
267.0166312462953
 20
32.90185834807809
 30
0.0
 10
266.9371137438612
 20
32.81274519008609
 30
0.0
 10
266.9008215694549
 20
32.76326336643082
 30
0.0
 10
266.8400339451919
 20
32.65795349008634
 30
0.0
 10
266.8151791676901
 20
32.60131739362921
 30
0.0
 10
266.7780341246909
 20
32.48861424404424
 30
0.0
 10
266.7651865731347
 20
32.43097226232422
 30
0.0
 10
266.756675368388
 20
32.37754503613473
 30
0.0
  0
LWPOLYLINE
  5
20C
330
1F
100
AcDbEntity
  8
0
  6
Continuous
 62
     7
370
    25
100
AcDbPolyline
 90
        3
 70
   128
 43
0.0
 10
261.4179287579
 20
31.239338072
 10
261.4093273434
 20
31.2443464322
 10
261.0751593049
 20
31.5208875138
  0
LWPOLYLINE
  5
20D
330
1F
100
AcDbEntity
  8
0
  6
Continuous
 62
     7
370
    25
100
AcDbPolyline
 90
       15
 70
   128
 43
0.0
 10
260.604830604
 20
32.7382872727
 10
260.5904911266
 20
32.9781766254
 10
260.6252932282
 20
33.6105963416
 10
260.758666601
 20
34.2815955119
 10
260.9859031458
 20
34.9674888085
 10
261.298981461
 20
35.6440645586
 10
261.6868505115
 20
36.2874407017
 10
262.1358189097
 20
36.8749067754
 10
262.6300385353
 20
37.3857259208
 10
263.1520640297
 20
37.8018668115
 10
263.6834684944
 20
38.1086400792
 10
264.2054939888
 20
38.2952169951
 10
264.6997136144
 20
38.3550116835
 10
265.1486820127
 20
38.2859134887
 10
265.4176037662
 20
38.1677289567
  0
LWPOLYLINE
  5
20E
330
1F
100
AcDbEntity
  8
0
  6
Continuous
 62
     7
370
    25
100
AcDbPolyline
 90
        9
 70
   128
 43
0.0
 10
266.7566748332
 20
32.3775452183
 10
266.748657877
 20
32.2412336628
 10
266.7701586967
 20
32.1239931726
 10
266.8197387017
 20
32.0336684378
 10
266.8940804741
 20
31.9763027881
 10
266.9882098626
 20
31.9557347463
 10
267.0958285476
 20
31.9733402957
 10
267.2097361679
 20
32.0279416796
 10
267.3223110588
 20
32.1158854938
  0
LWPOLYLINE
  5
20F
330
1F
100
AcDbEntity
  8
0
  6
Continuous
 62
     7
370
    25
100
AcDbPolyline
 90
        9
 70
   128
 43
0.0
 10
267.611430784
 20
32.6166555459
 10
267.6313099378
 20
32.758128866
 10
267.6216490076
 20
32.8840880454
 10
267.583094437
 20
32.9861050508
 10
267.5182259097
 20
33.0573543907
 10
267.4313836454
 20
33.0930685535
 10
267.328378394
 20
33.0908580474
 10
267.2161019884
 20
33.050870611
 10
267.1020669397
 20
32.9757818935
  0
SPLINE
  5
210
330
1F
100
AcDbEntity
  8
0
  6
Continuous
 62
     7
370
    25
100
AcDbSpline
210
0.0
220
0.0
230
1.0
 70
     8
 71
     3
 72
    14
 73
    10
 74
     0
 42
0.000000001
 43
0.00000001
 40
0.0
 40
0.0
 40
0.0
 40
0.0
 40
0.25
 40
0.25
 40
0.5
 40
0.5
 40
0.75
 40
0.75
 40
1.0
 40
1.0
 40
1.0
 40
1.0
 10
267.3223114533453
 20
32.11588514881973
 30
0.0
 10
267.3560441133731
 20
32.14759980142369
 30
0.0
 10
267.3865176947647
 20
32.18447959386202
 30
0.0
 10
267.4438181943645
 20
32.26410946865965
 30
0.0
 10
267.4702294113788
 20
32.30605150002398
 30
0.0
 10
267.5205274021354
 20
32.39315022843316
 30
0.0
 10
267.5439180108041
 20
32.43755160357576
 30
0.0
 10
267.5839174897867
 20
32.52626994000946
 30
0.0
 10
267.6008330249202
 20
32.57159258617981
 30
0.0
 10
267.6114312801208
 20
32.61665537680069
 30
0.0
  0
LWPOLYLINE
  5
211
330
1F
100
AcDbEntity
  8
0
  6
Continuous
 62
     7
370
    25
100
AcDbPolyline
 90
       19
 70
   128
 43
0.0
 10
244.0272906923
 20
44.4549447856
 10
244.36728899
 20
44.3457118203
 10
244.7416629817
 20
44.3802230794
 10
245.1052562706
 20
44.55431629
 10
245.414216707
 20
44.8469930094
 10
245.6312769281
 20
45.2229523396
 10
245.7302564969
 20
45.6368484337
 10
245.6992183065
 20
46.0387575481
 10
245.5419045358
 20
46.3802056191
 10
245.2772904866
 20
46.6200079322
 10
244.937293506
 20
46.7292401372
 10
244.5629195143
 20
46.694728878
 10
244.1993262254
 20
46.5206356675
 10
243.890365789
 20
46.227958948
 10
243.6733055679
 20
45.8519996179
 10
243.574325999
 20
45.4381035238
 10
243.6053641895
 20
45.0361944094
 10
243.7626779601
 20
44.6947463384
 10
244.0272906923
 20
44.4549447856
  0
ARC
  5
212
330
1F
100
AcDbEntity
  8
0
  6
Continuous
 62
     7
370
    25
100
AcDbCircle
 10
251.3155588064
 20
41.693273235
 30
0.0
 40
25.99517531722538
100
AcDbArc
 50
138.0445495982
 51
162.7242237183
  0
SPLINE
  5
213
330
1F
100
AcDbEntity
  8
0
  6
Continuous
 62
     7
370
    25
100
AcDbSpline
210
0.0
220
0.0
230
1.0
 70
     8
 71
     3
 72
    10
 73
     6
 74
     0
 42
0.000000001
 43
0.00000001
 40
0.0
 40
0.0
 40
0.0
 40
0.0
 40
0.5
 40
0.5
 40
1.0
 40
1.0
 40
1.0
 40
1.0
 10
226.0788952799296
 20
47.86661344019727
 30
0.0
 10
226.022366594147
 20
47.83398012451465
 30
0.0
 10
225.9437232715723
 20
47.81360714905568
 30
0.0
 10
225.7834933572412
 20
47.81054574909433
 30
0.0
 10
225.7023263447005
 20
47.82820494897457
 30
0.0
 10
225.6452124443627
 20
47.86117610182889
 30
0.0
  0
SPLINE
  5
214
330
1F
100
AcDbEntity
  8
0
  6
Continuous
 62
     7
370
    25
100
AcDbSpline
210
0.0
220
0.0
230
1.0
 70
     8
 71
     3
 72
    12
 73
     8
 74
     0
 42
0.000000001
 43
0.00000001
 40
0.0
 40
0.0
 40
0.0
 40
0.0
 40
0.2500000000000033
 40
0.2500000000000033
 40
0.5000000000000067
 40
0.5000000000000067
 40
1.0
 40
1.0
 40
1.0
 40
1.0
 10
243.3359343507074
 20
64.385137980084
 30
0.0
 10
243.3678386790522
 20
64.36672000336824
 30
0.0
 10
243.3999760154931
 20
64.33680546273617
 30
0.0
 10
243.4546343219193
 20
64.26640804279327
 30
0.0
 10
243.4776076612497
 20
64.22602734611743
 30
0.0
 10
243.5312894501873
 20
64.10350351608204
 30
0.0
 10
243.5480663850634
 20
64.01870219447638
 30
0.0
 10
243.5480663850634
 20
63.94514959884276
 30
0.0
  0
LINE
  5
215
330
1F
100
AcDbEntity
  8
0
  6
Continuous
 62
     7
370
    25
100
AcDbLine
 10
225.6452127176
 20
47.8611758118
 30
0.0
 11
224.2458240773
 21
48.6690256783
 31
0.0
  0
LWPOLYLINE
  5
216
330
1F
100
AcDbEntity
  8
0
  6
Continuous
 62
     7
370
    25
100
AcDbPolyline
 90
       22
 70
   128
 43
0.0
 10
224.2458240773
 20
48.6690256783
 10
224.5893854301
 20
50.001568915
 10
225.0231166725
 20
51.3441881893
 10
225.5432311736
 20
52.6851628418
 10
226.1451889276
 20
54.0127867328
 10
226.823735408
 20
55.3154701404
 10
227.5729463482
 20
56.5818408981
 10
228.3862817428
 20
57.8008436296
 10
229.2566418234
 20
58.9618382242
 10
230.176427645
 20
60.0546880444
 10
231.1376105621
 20
61.0698532661
 10
232.13179973
 20
61.9984724324
 10
233.1503156967
 20
62.8324383973
 10
234.184267535
 20
63.5644709908
 10
235.2246291517
 20
64.1881800819
 10
236.2623183948
 20
64.698120373
 10
237.2882766552
 20
65.0898411544
 10
238.2935474809
 20
65.3599218013
 10
239.2693556837
 20
65.5060052744
 10
240.2071820028
 20
65.5268161263
 10
241.0988400714
 20
65.4221722338
 10
241.9365462226
 20
65.1929878333
  0
LINE
  5
217
330
1F
100
AcDbEntity
  8
0
  6
Continuous
 62
     7
370
    25
100
AcDbLine
 10
241.9365462226
 20
65.1929878333
 30
0.0
 11
243.3359348628
 21
64.3851379669
 31
0.0
  0
LINE
  5
218
330
1F
100
AcDbEntity
  8
0
  6
Continuous
 62
     7
370
    25
100
AcDbLine
 10
245.8638409333
 20
58.8799493259
 30
0.0
 11
247.0823418851
 21
59.5833749525
 31
0.0
  0
LINE
  5
219
330
1F
100
AcDbEntity
  8
0
  6
Continuous
 62
     7
370
    25
100
AcDbLine
 10
245.8638409333
 20
56.5418688091
 30
0.0
 11
245.8638409333
 21
58.8799493259
 31
0.0
  0
LINE
  5
21A
330
1F
100
AcDbEntity
  8
0
  6
Continuous
 62
     7
370
    25
100
AcDbLine
 10
226.0788952277
 20
40.5177463877
 30
0.0
 11
227.1962220111
 21
41.1627654102
 31
0.0
  0
LINE
  5
21B
330
1F
100
AcDbEntity
  8
0
  6
Continuous
 62
     7
370
    25
100
AcDbLine
 10
227.1962220111
 20
41.1627654102
 30
0.0
 11
227.1962220111
 21
48.5116324008
 31
0.0
  0
LINE
  5
21C
330
1F
100
AcDbEntity
  8
0
  6
Continuous
 62
     7
370
    25
100
AcDbLine
 10
227.1962220111
 20
48.5116324008
 30
0.0
 11
226.0788952277
 21
47.8666133784
 31
0.0
  0
LINE
  5
21D
330
1F
100
AcDbEntity
  8
0
  6
Continuous
 62
     7
370
    25
100
AcDbLine
 10
243.5480665368
 20
63.9451494802
 30
0.0
 11
243.5480665368
 21
62.3810856799
 31
0.0
  0
LINE
  5
21E
330
1F
100
AcDbEntity
  8
0
  6
Continuous
 62
     7
370
    25
100
AcDbLine
 10
244.9025121485
 20
63.1629904882
 30
0.0
 11
243.5480665368
 21
62.3810856799
 31
0.0
  0
LWPOLYLINE
  5
21F
330
1F
100
AcDbEntity
  8
0
  6
Continuous
 62
     7
370
    25
100
AcDbPolyline
 90
       20
 70
   128
 43
0.0
 10
223.3220415491
 20
50.3000074708
 10
223.6904622985
 20
51.6208189953
 10
224.1533282085
 20
52.947861636
 10
224.7059655887
 20
54.267736095
 10
225.3427945915
 20
55.5671154036
 10
226.0573838713
 20
56.8328783779
 10
226.8425197315
 20
58.0522453556
 10
227.6902732963
 20
59.2129036654
 10
228.592084804
 20
60.3031338566
 10
229.5388485599
 20
61.311927182
 10
230.5210048026
 20
62.2290987085
 10
231.528636181
 20
63.0453863585
 10
232.5515687176
 20
63.752548738
 10
233.5794733475
 20
64.3434442876
 10
234.6019710389
 20
64.8121071754
 10
235.6087375837
 20
65.1538055105
 10
236.5896070304
 20
65.365088886
 10
237.5346756927
 20
65.4438240871
 10
238.4344006022
 20
65.3892154244
 10
238.4371075494
 20
65.3888389314
  0
SPLINE
  5
220
330
1F
100
AcDbEntity
  8
0
  6
Continuous
 62
     7
370
    25
100
AcDbSpline
210
0.0
220
0.0
230
1.0
 70
     8
 71
     3
 72
     8
 73
     4
 74
     0
 42
0.000000001
 43
0.00000001
 40
0.0
 40
0.0
 40
0.0
 40
0.0
 40
1.0
 40
1.0
 40
1.0
 40
1.0
 10
223.3220415889717
 20
50.30000767167555
 30
0.0
 10
222.8307405599191
 20
50.21736045147166
 30
0.0
 10
222.3391604690164
 20
50.13527666398122
 30
0.0
 10
221.8473656702645
 20
50.05362637689947
 30
0.0
  0
LWPOLYLINE
  5
221
330
1F
100
AcDbEntity
  8
0
  6
Continuous
 62
     7
370
    25
100
AcDbPolyline
 90
       22
 70
   128
 43
0.0
 10
221.8473657959
 20
50.0536261721
 10
222.1909271486
 20
51.3861694089
 10
222.624658391
 20
52.7287886831
 10
223.1447728921
 20
54.0697633356
 10
223.7467306462
 20
55.3973872266
 10
224.4252771265
 20
56.7000706343
 10
225.1744880667
 20
57.9664413919
 10
225.9878234613
 20
59.1854441234
 10
226.8581835419
 20
60.346438718
 10
227.7779693635
 20
61.4392885382
 10
228.7391522807
 20
62.45445376
 10
229.7333414486
 20
63.3830729263
 10
230.7518574152
 20
64.2170388912
 10
231.7858092536
 20
64.9490714846
 10
232.8261708702
 20
65.5727805758
 10
233.8638601133
 20
66.0827208669
 10
234.8898183738
 20
66.4744416482
 10
235.8950891994
 20
66.7445222951
 10
236.8708974023
 20
66.8906057683
 10
237.8087237214
 20
66.9114166202
 10
238.7003817899
 20
66.8067727277
 10
239.5380879411
 20
66.5775883272
  0
LINE
  5
222
330
1F
100
AcDbEntity
  8
0
  6
Continuous
 62
     7
370
    25
100
AcDbLine
 10
239.5380879411
 20
66.5775883272
 30
0.0
 11
239.8795310854
 21
65.474430728
 31
0.0
  0
LINE
  5
223
330
1F
100
AcDbEntity
  8
0
  6
Continuous
 62
     7
370
    25
100
AcDbLine
 10
236.1234454344
 20
68.5488194874
 30
0.0
 11
239.5380879411
 21
66.5775883272
 31
0.0
  0
LINE
  5
224
330
1F
100
AcDbEntity
  8
0
  6
Continuous
 62
     7
370
    25
100
AcDbLine
 10
221.8473657959
 20
50.0536261721
 30
0.0
 11
221.2611505483
 21
50.3920410312
 31
0.0
  0
SPLINE
  5
225
330
1F
100
AcDbEntity
  8
0
  6
Continuous
 62
     7
370
    25
100
AcDbSpline
210
0.0
220
0.0
230
1.0
 70
     8
 71
     3
 72
    28
 73
    24
 74
     0
 42
0.000000001
 43
0.00000001
 40
0.0
 40
0.0
 40
0.0
 40
0.0
 40
0.1250000000000001
 40
0.1250000000000001
 40
0.1875000000000001
 40
0.1875000000000001
 40
0.2500000000000001
 40
0.2500000000000001
 40
0.3749999999999999
 40
0.3749999999999999
 40
0.4375
 40
0.4375
 40
0.4999999999999999
 40
0.4999999999999999
 40
0.6249999999999999
 40
0.6249999999999999
 40
0.7499999999999997
 40
0.7499999999999997
 40
0.8124999999999998
 40
0.8124999999999998
 40
0.8749999999999998
 40
0.8749999999999998
 40
1.0
 40
1.0
 40
1.0
 40
1.0
 10
221.2611504010061
 20
50.39204124847929
 30
0.0
 10
221.0731633205397
 20
50.50056388006336
 30
0.0
 10
220.882943365939
 20
50.58250760061127
 30
0.0
 10
220.594844763991
 20
50.66766533064974
 30
0.0
 10
220.4983548933915
 20
50.68971526105354
 30
0.0
 10
220.3046167205565
 20
50.7209890845125
 30
0.0
 10
220.2073657000252
 20
50.73011633583593
 30
0.0
 10
219.9213438251398
 20
50.73789917794433
 30
0.0
 10
219.7360020087833
 20
50.71759263430726
 30
0.0
 10
219.4674894219674
 20
50.65037198117412
 30
0.0
 10
219.3791287623017
 20
50.62158562356854
 30
0.0
 10
219.208776052012
 20
50.55257373347338
 30
0.0
 10
219.1267490222306
 20
50.51243384356325
 30
0.0
 10
218.8903127684779
 20
50.37581407580003
 30
0.0
 10
218.7454455183556
 20
50.26329958611097
 30
0.0
 10
218.4845887248715
 20
49.9950426211115
 30
0.0
 10
218.3722963173691
 20
49.84288923473422
 30
0.0
 10
218.2330718359153
 20
49.59097284703591
 30
0.0
 10
218.1914760495495
 20
49.50293056135953
 30
0.0
 10
218.1183513344883
 20
49.31858950630772
 30
0.0
 10
218.0867268504354
 20
49.22180074362593
 30
0.0
 10
218.0092335470132
 20
48.92378566472912
 30
0.0
 10
217.9800588316233
 20
48.7143127875926
 30
0.0
 10
217.9740919488816
 20
48.49393199490873
 30
0.0
  0
ARC
  5
226
330
1F
100
AcDbEntity
  8
0
  6
Continuous
 62
     7
370
    25
100
AcDbCircle
 10
232.8186417866
 20
48.0856615258
 30
0.0
 40
14.85016324623417
100
AcDbArc
 50
178.4245883564
 51
181.5754116436
  0
SPLINE
  5
227
330
1F
100
AcDbEntity
  8
0
  6
Continuous
 62
     7
370
    25
100
AcDbSpline
210
0.0
220
0.0
230
1.0
 70
     8
 71
     3
 72
    30
 73
    26
 74
     0
 42
0.000000001
 43
0.00000001
 40
0.0
 40
0.0
 40
0.0
 40
0.0
 40
0.1250000000000003
 40
0.1250000000000003
 40
0.1875000000000005
 40
0.1875000000000005
 40
0.2500000000000007
 40
0.2500000000000007
 40
0.3750000000000011
 40
0.3750000000000011
 40
0.4375000000000012
 40
0.4375000000000012
 40
0.5000000000000012
 40
0.5000000000000012
 40
0.6250000000000014
 40
0.6250000000000014
 40
0.6875000000000012
 40
0.6875000000000012
 40
0.7500000000000011
 40
0.7500000000000011
 40
0.8125000000000009
 40
0.8125000000000009
 40
0.8750000000000008
 40
0.8750000000000008
 40
1.0
 40
1.0
 40
1.0
 40
1.0
 10
217.9740919488816
 20
47.67739118302298
 30
0.0
 10
217.9800595475731
 20
47.46387399024827
 30
0.0
 10
218.0092047675725
 20
47.24632409222913
 30
0.0
 10
218.0856394288314
 20
46.91402506269354
 30
0.0
 10
218.1166054124087
 20
46.80225076139398
 30
0.0
 10
218.1895753532244
 20
46.57654888785898
 30
0.0
 10
218.231711551783
 20
46.46246111528647
 30
0.0
 10
218.3716033411474
 20
46.12429838792528
 30
0.0
 10
218.4834472656896
 20
45.9017881686525
 30
0.0
 10
218.6772338628342
 20
45.57117791270293
 30
0.0
 10
218.7465745004375
 20
45.46095127299679
 30
0.0
 10
218.8920668848842
 20
45.24422127254325
 30
0.0
 10
218.9679541756032
 20
45.13802433691252
 30
0.0
 10
219.2043421240746
 20
44.82538616366292
 30
0.0
 10
219.3734876263255
 20
44.62484361582776
 30
0.0
 10
219.6433536236596
 20
44.33473877640541
 30
0.0
 10
219.7355451297104
 20
44.24039536003296
 30
0.0
 10
219.9211437247451
 20
44.05909033197257
 30
0.0
 10
220.014972605032
 20
43.97167099847842
 30
0.0
 10
220.2044226554974
 20
43.80306344815376
 30
0.0
 10
220.300044070703
 20
43.72187526238443
 30
0.0
 10
220.4929057601294
 20
43.56571258283628
 30
0.0
 10
220.5906406690278
 20
43.49038560313957
 30
0.0
 10
220.8818966241482
 20
43.27709536969574
 30
0.0
 10
221.0731540151213
 20
43.1517019449953
 30
0.0
 10
221.2611504010061
 20
43.04317394150754
 30
0.0
  0
LINE
  5
228
330
1F
100
AcDbEntity
  8
0
  6
Continuous
 62
     7
370
    25
100
AcDbLine
 10
221.2611505483
 20
43.0431740405
 30
0.0
 11
221.8473657959
 21
42.7047591815
 31
0.0
  0
ARC
  5
229
330
1F
100
AcDbEntity
  8
0
  6
Continuous
 62
     7
370
    25
100
AcDbCircle
 10
227.7359136818
 20
44.1595003528
 30
0.0
 40
6.065580605344291
100
AcDbArc
 50
193.8768278913
 51
252.745350142
  0
LINE
  5
22A
330
1F
100
AcDbEntity
  8
0
  6
Continuous
 62
     7
370
    25
100
AcDbLine
 10
241.1675055194
 20
65.6366397947
 30
0.0
 11
241.5018176145
 21
65.3293110743
 31
0.0
  0
LINE
  5
22B
330
1F
100
AcDbEntity
  8
0
  6
Continuous
 62
     7
370
    25
100
AcDbLine
 10
240.3145767826
 20
66.1290250737
 30
0.0
 11
241.1675055194
 21
65.6366397947
 31
0.0
  0
SPLINE
  5
22C
330
1F
100
AcDbEntity
  8
0
  6
Continuous
 62
     7
370
    25
100
AcDbSpline
210
0.0
220
0.0
230
1.0
 70
     8
 71
     3
 72
    20
 73
    16
 74
     0
 42
0.000000001
 43
0.00000001
 40
0.0
 40
0.0
 40
0.0
 40
0.0
 40
0.2499999999999997
 40
0.2499999999999997
 40
0.3749999999999997
 40
0.3749999999999997
 40
0.4999999999999998
 40
0.4999999999999998
 40
0.6249999999999998
 40
0.6249999999999998
 40
0.7499999999999999
 40
0.7499999999999999
 40
0.8749999999999999
 40
0.8749999999999999
 40
1.0
 40
1.0
 40
1.0
 40
1.0
 10
236.1234451826047
 20
68.54881935037973
 30
0.0
 10
236.4424338370027
 20
68.41492896111993
 30
0.0
 10
236.7688894371006
 20
68.25503261405794
 30
0.0
 10
237.2812395544837
 20
67.97711368658842
 30
0.0
 10
237.4558429211616
 20
67.87811467377813
 30
0.0
 10
237.8157167835104
 20
67.66717396887944
 30
0.0
 10
237.9985771998639
 20
67.55661815166938
 30
0.0
 10
238.3648722890412
 20
67.33120028265856
 30
0.0
 10
238.5493558052998
 20
67.2157196812791
 30
0.0
 10
238.9229406295353
 20
66.98088733698332
 30
0.0
 10
239.1072901007746
 20
66.86455741170806
 30
0.0
 10
239.468000007251
 20
66.63886272490868
 30
0.0
 10
239.6450539965048
 20
66.529052750812
 30
0.0
 10
239.9927833478572
 20
66.31765798727609
 30
0.0
 10
240.1580337643155
 20
66.21939515213307
 30
0.0
 10
240.3145766790969
 20
66.12902485101571
 30
0.0
  0
SPLINE
  5
22D
330
1F
100
AcDbEntity
  8
0
  6
Continuous
 62
     7
370
    25
100
AcDbSpline
210
0.0
220
0.0
230
1.0
 70
    11
 71
     3
 72
    70
 73
    66
 74
     0
 42
0.000000001
 43
0.00000001
 40
0.0
 40
0.0
 40
0.0
 40
0.0
 40
0.0312499999999999
 40
0.0312499999999999
 40
0.0624999999999998
 40
0.0624999999999998
 40
0.0937499999999997
 40
0.0937499999999997
 40
0.1249999999999996
 40
0.1249999999999996
 40
0.1562499999999994
 40
0.1562499999999994
 40
0.1874999999999993
 40
0.1874999999999993
 40
0.2187499999999992
 40
0.2187499999999992
 40
0.2499999999999991
 40
0.2499999999999991
 40
0.281249999999999
 40
0.281249999999999
 40
0.3124999999999989
 40
0.3124999999999989
 40
0.3437499999999988
 40
0.3437499999999988
 40
0.3749999999999987
 40
0.3749999999999987
 40
0.4062499999999986
 40
0.4062499999999986
 40
0.4374999999999984
 40
0.4374999999999984
 40
0.4687499999999983
 40
0.4687499999999983
 40
0.4999999999999982
 40
0.4999999999999982
 40
0.5312499999999982
 40
0.5312499999999982
 40
0.5624999999999982
 40
0.5624999999999982
 40
0.5937499999999982
 40
0.5937499999999982
 40
0.6249999999999982
 40
0.6249999999999982
 40
0.6562499999999982
 40
0.6562499999999982
 40
0.6874999999999982
 40
0.6874999999999982
 40
0.7187499999999982
 40
0.7187499999999982
 40
0.7499999999999982
 40
0.7499999999999982
 40
0.7812499999999984
 40
0.7812499999999984
 40
0.8124999999999987
 40
0.8124999999999987
 40
0.8437499999999989
 40
0.8437499999999989
 40
0.8749999999999991
 40
0.8749999999999991
 40
0.9062499999999993
 40
0.9062499999999993
 40
0.9374999999999996
 40
0.9374999999999996
 40
0.9687499999999998
 40
0.9687499999999998
 40
1.0
 40
1.0
 40
1.0
 40
1.0
 10
233.9388058613525
 20
68.16431928005395
 30
0.0
 10
233.8452749599036
 20
68.2183135201607
 30
0.0
 10
233.7620508349005
 20
68.27283623553515
 30
0.0
 10
233.6152897594032
 20
68.38272429984872
 30
0.0
 10
233.5512278763252
 20
68.4386995337879
 30
0.0
 10
233.4470957866043
 20
68.54766656819314
 30
0.0
 10
233.4068683285617
 20
68.60051826665213
 30
0.0
 10
233.3495974514518
 20
68.70227631880385
 30
0.0
 10
233.3327942274348
 20
68.75134719240688
 30
0.0
 10
233.3239503405247
 20
68.84044986821478
 30
0.0
 10
233.3314744733475
 20
68.88106013375418
 30
0.0
 10
233.3707608541029
 20
68.95333957965177
 30
0.0
 10
233.4023671200097
 20
68.98430311098937
 30
0.0
 10
233.4871506787143
 20
69.03405364322951
 30
0.0
 10
233.5409637679595
 20
69.05320219960366
 30
0.0
 10
233.6693450372037
 20
69.07823926137004
 30
0.0
 10
233.7426753819746
 20
69.08402134061281
 30
0.0
 10
233.9071155828349
 20
69.08227216018109
 30
0.0
 10
233.9993578007402
 20
69.07451111642817
 30
0.0
 10
234.1950996061042
 20
69.04606060958758
 30
0.0
 10
234.2989109860848
 20
69.02550870391866
 30
0.0
 10
234.5186769651141
 20
68.972142538356
 30
0.0
 10
234.6343066814201
 20
68.939290176623
 30
0.0
 10
234.8681427515645
 20
68.86473737941147
 30
0.0
 10
234.9876576889226
 20
68.82271874415083
 30
0.0
 10
235.2317186218185
 20
68.72993184791632
 30
0.0
 10
235.352464163962
 20
68.68062483884087
 30
0.0
 10
235.5918323620874
 20
68.57723216478423
 30
0.0
 10
235.7117393029323
 20
68.52251254815646
 30
0.0
 10
235.9423766334155
 20
68.4121621521946
 30
0.0
 10
236.0528855851274
 20
68.35671575069804
 30
0.0
 10
236.264526793166
 20
68.24576877173924
 30
0.0
 10
236.3660553018253
 20
68.18998008775121
 30
0.0
 10
236.550786336591
 20
68.08335836478521
 30
0.0
 10
236.6351979052317
 20
68.03191949468554
 30
0.0
 10
236.7876534720713
 20
67.93270328134346
 30
0.0
 10
236.8542487382407
 20
67.88580922619428
 30
0.0
 10
236.9655157384537
 20
67.79896868336779
 30
0.0
 10
237.0110242713016
 20
67.75835713131612
 30
0.0
 10
237.0785894541808
 20
67.68431375438801
 30
0.0
 10
237.1003581457513
 20
67.65134836586842
 30
0.0
 10
237.1201387351417
 20
67.5924779628162
 30
0.0
 10
237.1178507468242
 20
67.56640242981175
 30
0.0
 10
237.0887235309521
 20
67.52266349735697
 30
0.0
 10
237.0621893494304
 20
67.50473362725954
 30
0.0
 10
236.9846285385499
 20
67.47612054477052
 30
0.0
 10
236.9334419714793
 20
67.46559365337582
 30
0.0
 10
236.8105251058593
 20
67.4523314046295
 30
0.0
 10
236.7383906464351
 20
67.44942103999222
 30
0.0
 10
236.5719237295
 20
67.45120008990692
 30
0.0
 10
236.4803605331404
 20
67.45585739677342
 30
0.0
 10
236.2813144587564
 20
67.47256152825165
 30
0.0
 10
236.1725154644988
 20
67.48480645515211
 30
0.0
 10
235.9452938234023
 20
67.51665636389137
 30
0.0
 10
235.827301061044
 20
67.5361239230529
 30
0.0
 10
235.582838054079
 20
67.5828047611679
 30
0.0
 10
235.4557435646024
 20
67.61024158015192
 30
0.0
 10
235.2040153443909
 20
67.67152921590177
 30
0.0
 10
235.078079964841
 20
67.70559105903305
 30
0.0
 10
234.8263116684495
 20
67.78163241599492
 30
0.0
 10
234.7028280405717
 20
67.82296832845213
 30
0.0
 10
234.4659696252702
 20
67.91106430504169
 30
0.0
 10
234.3510028826662
 20
67.95841874932698
 30
0.0
 10
234.1335245746654
 20
68.05839057296214
 30
0.0
 10
234.0323367628015
 20
68.11032503994718
 30
0.0
 10
233.9388058613525
 20
68.16431928005395
 30
0.0
  0
LINE
  5
22E
330
1F
100
AcDbEntity
  8
0
  6
Continuous
 62
     7
370
    25
100
AcDbLine
 10
224.456656443
 20
49.5257488046
 30
0.0
 11
223.9930285971
 21
49.793395463
 31
0.0
  0
LINE
  5
22F
330
1F
100
AcDbEntity
  8
0
  6
Continuous
 62
     7
370
    25
100
AcDbLine
 10
223.5672104255
 20
50.4415404505
 30
0.0
 11
223.3220415491
 21
50.3000074708
 31
0.0
  0
SPLINE
  5
230
330
1F
100
AcDbEntity
  8
0
  6
Continuous
 62
     7
370
    25
100
AcDbSpline
210
0.0
220
0.0
230
1.0
 70
     8
 71
     3
 72
    14
 73
    10
 74
     0
 42
0.000000001
 43
0.00000001
 40
0.0
 40
0.0
 40
0.0
 40
0.0
 40
0.1249999999999991
 40
0.1249999999999991
 40
0.2499999999999982
 40
0.2499999999999982
 40
0.4999999999999998
 40
0.4999999999999998
 40
1.0
 40
1.0
 40
1.0
 40
1.0
 10
223.9930283513494
 20
49.79339553085357
 30
0.0
 10
223.9688319181843
 20
49.80736383439611
 30
0.0
 10
223.9456564797254
 20
49.83472901039366
 30
0.0
 10
223.9087360872944
 20
49.89253077951918
 30
0.0
 10
223.8936942962618
 20
49.92350125863555
 30
0.0
 10
223.8538808396749
 20
50.01652773156475
 30
0.0
 10
223.8342448212909
 20
50.07913878584952
 30
0.0
 10
223.7838239728214
 20
50.2634695367645
 30
0.0
 10
223.7614067945808
 20
50.38501377166519
 30
0.0
 10
223.7447188964149
 20
50.50414283696756
 30
0.0
  0
SPLINE
  5
231
330
1F
100
AcDbEntity
  8
0
  6
Continuous
 62
     7
370
    25
100
AcDbSpline
210
0.0
220
0.0
230
1.0
 70
     8
 71
     3
 72
    10
 73
     6
 74
     0
 42
0.000000001
 43
0.00000001
 40
0.0
 40
0.0
 40
0.0
 40
0.0
 40
0.5
 40
0.5
 40
1.0
 40
1.0
 40
1.0
 40
1.0
 10
223.7447188964149
 20
50.50414283696756
 30
0.0
 10
223.7113288782271
 20
50.49799306776733
 30
0.0
 10
223.679089526799
 20
50.48944645991924
 30
0.0
 10
223.6191016325367
 20
50.46821048615033
 30
0.0
 10
223.5918397592876
 20
50.45575884014214
 30
0.0
 10
223.5672101933378
 20
50.44154049436528
 30
0.0
  0
LWPOLYLINE
  5
232
330
1F
100
AcDbEntity
  8
0
  6
Continuous
 62
     7
370
    25
100
AcDbPolyline
 90
       21
 70
   128
 43
0.0
 10
216.3244556086
 20
49.1539568771
 10
216.372925143
 20
50.3747465073
 10
216.5179083262
 20
51.6407696805
 10
216.7581315333
 20
52.940901229
 10
217.0914834705
 20
54.2637149208
 10
217.5150336148
 20
55.5975856446
 10
218.0250611897
 20
56.9307919745
 10
218.6170834828
 20
58.2516171188
 10
219.2858973338
 20
59.5484538603
 10
220.0256252331
 20
60.8099053128
 10
220.8297673463
 20
62.0248860583
 10
221.6912561739
 20
63.1827183399
 10
222.6025210881
 20
64.2732278746
 10
223.5555535291
 20
65.2868301594
 10
224.5419784573
 20
66.2146188682
 10
225.5531272866
 20
67.0484398958
 10
226.5801138643
 20
67.7809648771
 10
227.613912982
 20
68.405757804
 10
228.6454395862
 20
68.9173275968
 10
229.6656285852
 20
69.3111772175
 10
230.6079761416
 20
69.5713340245
  0
LINE
  5
233
330
1F
100
AcDbEntity
  8
0
  6
Continuous
 62
     7
370
    25
100
AcDbLine
 10
222.6000281678
 20
43.8160916383
 30
0.0
 11
223.744719122
 21
43.1552756164
 31
0.0
  0
ARC
  5
234
330
1F
100
AcDbEntity
  8
0
  6
Continuous
 62
     7
370
    25
100
AcDbCircle
 10
225.912464198
 20
48.9945139707
 30
0.0
 40
6.147218094902214
100
AcDbArc
 50
182.6054747885
 51
237.394528727
  0
LINE
  5
235
330
1F
100
AcDbEntity
  8
0
  6
Continuous
 62
     7
370
    25
100
AcDbLine
 10
219.7716009088
 20
49.5316118602
 30
0.0
 11
219.7716009088
 21
48.7150710095
 31
0.0
  0
ARC
  5
236
330
1F
100
AcDbEntity
  8
0
  6
Continuous
 62
     7
370
    25
100
AcDbCircle
 10
222.3322859981
 20
49.623434643
 30
0.0
 40
2.562330882274281
100
AcDbArc
 50
154.9031671643
 51
182.053670993
  0
LINE
  5
237
330
1F
100
AcDbEntity
  8
0
  6
Continuous
 62
     7
370
    25
100
AcDbLine
 10
225.0262263196
 20
42.4154772582
 30
0.0
 11
227.1962220111
 21
41.1627654102
 31
0.0
  0
SPLINE
  5
238
330
1F
100
AcDbEntity
  8
0
  6
Continuous
 62
     7
370
    25
100
AcDbSpline
210
0.0
220
0.0
230
1.0
 70
     8
 71
     3
 72
    14
 73
    10
 74
     0
 42
0.000000001
 43
0.00000001
 40
0.0
 40
0.0
 40
0.0
 40
0.0
 40
0.1249999999999997
 40
0.1249999999999997
 40
0.2499999999999993
 40
0.2499999999999993
 40
0.4999999999999996
 40
0.4999999999999996
 40
1.0
 40
1.0
 40
1.0
 40
1.0
 10
224.7779168784665
 20
43.12622433979166
 30
0.0
 10
224.8023462271103
 20
43.11212157700535
 30
0.0
 10
224.8253247811763
 20
43.08483944714568
 30
0.0
 10
224.8622078946681
 20
43.02708604363918
 30
0.0
 10
224.877333040985
 20
42.99593846196858
 30
0.0
 10
224.9170504014442
 20
42.9031013604126
 30
0.0
 10
224.9365125193333
 20
42.84115089059584
 30
0.0
 10
224.9873806405273
 20
42.65523618509834
 30
0.0
 10
225.0096648679425
 20
42.53370354012505
 30
0.0
 10
225.026226333401
 20
42.4154770336775
 30
0.0
  0
LINE
  5
239
330
1F
100
AcDbEntity
  8
0
  6
Continuous
 62
     7
370
    25
100
AcDbLine
 10
223.9930285971
 20
43.5793307428
 30
0.0
 11
224.7779168445
 21
43.1262244021
 31
0.0
  0
SPLINE
  5
23A
330
1F
100
AcDbEntity
  8
0
  6
Continuous
 62
     7
370
    25
100
AcDbSpline
210
0.0
220
0.0
230
1.0
 70
     8
 71
     3
 72
    14
 73
    10
 74
     0
 42
0.000000001
 43
0.00000001
 40
0.0
 40
0.0
 40
0.0
 40
0.0
 40
0.4999999999999968
 40
0.4999999999999968
 40
0.7499999999999967
 40
0.7499999999999967
 40
0.8749999999999983
 40
0.8749999999999983
 40
1.0
 40
1.0
 40
1.0
 40
1.0
 10
223.7447188964149
 20
43.15527552999557
 30
0.0
 10
223.7613429778687
 20
43.25475527422567
 30
0.0
 10
223.7837603794729
 20
43.35059040762167
 30
0.0
 10
223.8341914373216
 20
43.47680635719531
 30
0.0
 10
223.8537261312528
 20
43.51663990588955
 30
0.0
 10
223.8936692885883
 20
43.56390023736141
 30
0.0
 10
223.9086862557539
 20
43.57750285096667
 30
0.0
 10
223.9457476232756
 20
43.59272325254238
 30
0.0
 10
223.968731285624
 20
43.59335723933627
 30
0.0
 10
223.9930283513494
 20
43.57933084185325
 30
0.0
  0
ARC
  5
23B
330
1F
100
AcDbEntity
  8
0
  6
Continuous
 62
     7
370
    25
100
AcDbCircle
 10
231.2745942864
 20
41.6112531846
 30
0.0
 40
5.650191308759696
100
AcDbArc
 50
204.9479398449
 51
275.1577512002
  0
SPLINE
  5
23C
330
1F
100
AcDbEntity
  8
0
  6
Continuous
 62
     7
370
    25
100
AcDbSpline
210
0.0
220
0.0
230
1.0
 70
     8
 71
     3
 72
    12
 73
     8
 74
     0
 42
0.000000001
 43
0.00000001
 40
0.0
 40
0.0
 40
0.0
 40
0.0
 40
0.2499999999999962
 40
0.2499999999999962
 40
0.4999999999999925
 40
0.4999999999999925
 40
1.0
 40
1.0
 40
1.0
 40
1.0
 10
225.6452124443627
 20
40.51230879485714
 30
0.0
 10
225.673454644435
 20
40.49600491979312
 30
0.0
 10
225.7080007763405
 20
40.48304912638312
 30
0.0
 10
225.7827248360381
 20
40.46633738819057
 30
0.0
 10
225.8230152273398
 20
40.46245047940312
 30
0.0
 10
225.9441282447761
 20
40.46471387729243
 30
0.0
 10
226.0222458071941
 20
40.48504308871916
 30
0.0
 10
226.0788952799296
 20
40.51774613322552
 30
0.0
  0
ARC
  5
23D
330
1F
100
AcDbEntity
  8
0
  6
Continuous
 62
     7
370
    25
100
AcDbCircle
 10
230.353640195
 20
42.8810914311
 30
0.0
 40
6.304119982696943
100
AcDbArc
 50
194.335844021
 51
238.333611709
  0
LINE
  5
23E
330
1F
100
AcDbEntity
  8
0
  6
Continuous
 62
     7
370
    25
100
AcDbLine
 10
224.2458240773
 20
41.3201586876
 30
0.0
 11
225.6452127176
 21
40.5123088212
 31
0.0
  0
SPLINE
  5
23F
330
1F
100
AcDbEntity
  8
0
  6
Continuous
 62
     7
370
    25
100
AcDbSpline
210
0.0
220
0.0
230
1.0
 70
     8
 71
     3
 72
     8
 73
     4
 74
     0
 42
0.000000001
 43
0.00000001
 40
0.0
 40
0.0
 40
0.0
 40
0.0
 40
1.0
 40
1.0
 40
1.0
 40
1.0
 10
224.672615541038
 20
42.17147061791312
 30
0.0
 10
224.5294508443475
 20
41.88784857090611
 30
0.0
 10
224.3872621474949
 20
41.60406542492209
 30
0.0
 10
224.2458243767397
 20
41.320158330735
 30
0.0
  0
LINE
  5
240
330
1F
100
AcDbEntity
  8
0
  6
Continuous
 62
     7
370
    25
100
AcDbLine
 10
224.917784454
 20
42.3130036689
 30
0.0
 11
224.6726155777
 21
42.1714706892
 31
0.0
  0
SPLINE
  5
241
330
1F
100
AcDbEntity
  8
0
  6
Continuous
 62
     7
370
    25
100
AcDbSpline
210
0.0
220
0.0
230
1.0
 70
     8
 71
     3
 72
    10
 73
     6
 74
     0
 42
0.000000001
 43
0.00000001
 40
0.0
 40
0.0
 40
0.0
 40
0.0
 40
0.5
 40
0.5
 40
1.0
 40
1.0
 40
1.0
 40
1.0
 10
225.026226333401
 20
42.4154770336775
 30
0.0
 10
225.0155734664311
 20
42.39620138647138
 30
0.0
 10
225.0007687032789
 20
42.37759000504634
 30
0.0
 10
224.9639829319481
 20
42.34295973081483
 30
0.0
 10
224.942413711354
 20
42.32722178637974
 30
0.0
 10
224.9177841454042
 20
42.31300344060288
 30
0.0
  0
SPLINE
  5
242
330
1F
100
AcDbEntity
  8
0
  6
Continuous
 62
     7
370
    25
100
AcDbSpline
210
0.0
220
0.0
230
1.0
 70
     8
 71
     3
 72
    14
 73
    10
 74
     0
 42
0.000000001
 43
0.00000001
 40
0.0
 40
0.0
 40
0.0
 40
0.0
 40
0.500000000000001
 40
0.500000000000001
 40
0.7500000000000004
 40
0.7500000000000004
 40
0.8750000000000003
 40
0.8750000000000003
 40
1.0
 40
1.0
 40
1.0
 40
1.0
 10
209.1049170767223
 20
53.81053638081431
 30
0.0
 10
209.4200830205621
 20
53.58344838991845
 30
0.0
 10
209.7363586758281
 20
53.35360201487031
 30
0.0
 10
210.2151831643992
 20
52.9982934128812
 30
0.0
 10
210.3755031748232
 20
52.87815509868565
 30
0.0
 10
210.6185557107769
 20
52.69188626444183
 30
0.0
 10
210.6999991487935
 20
52.62879302321483
 30
0.0
 10
210.8646605978269
 20
52.49844778080269
 30
0.0
 10
210.9475666158931
 20
52.43192333882544
 30
0.0
 10
211.0335854439778
 20
52.35812986750188
 30
0.0
  0
SPLINE
  5
243
330
1F
100
AcDbEntity
  8
0
  6
Continuous
 62
     7
370
    25
100
AcDbSpline
210
0.0
220
0.0
230
1.0
 70
     8
 71
     3
 72
     8
 73
     4
 74
     0
 42
0.000000001
 43
0.00000001
 40
0.0
 40
0.0
 40
0.0
 40
0.0
 40
1.0
 40
1.0
 40
1.0
 40
1.0
 10
211.0335854439778
 20
52.35812986750188
 30
0.0
 10
211.3352379172153
 20
52.09934950942005
 30
0.0
 10
211.6405174607387
 20
51.85177449401539
 30
0.0
 10
211.9451770338654
 20
51.61080163744887
 30
0.0
  0
SPLINE
  5
244
330
1F
100
AcDbEntity
  8
0
  6
Continuous
 62
     7
370
    25
100
AcDbSpline
210
0.0
220
0.0
230
1.0
 70
     8
 71
     3
 72
    14
 73
    10
 74
     0
 42
0.000000001
 43
0.00000001
 40
0.0
 40
0.0
 40
0.0
 40
0.0
 40
0.1249999999999988
 40
0.1249999999999988
 40
0.2499999999999976
 40
0.2499999999999976
 40
0.4999999999999982
 40
0.4999999999999982
 40
1.0
 40
1.0
 40
1.0
 40
1.0
 10
211.9451770338655
 20
51.61080163744882
 30
0.0
 10
211.964372409791
 20
51.59561890571262
 30
0.0
 10
211.9819844831914
 20
51.58425108721583
 30
0.0
 10
212.0078294131106
 20
51.57298261800339
 30
0.0
 10
212.0159677773583
 20
51.57259914776634
 30
0.0
 10
212.0329178683263
 20
51.57837494046072
 30
0.0
 10
212.0350871408361
 20
51.59104036607876
 30
0.0
 10
212.0339115930215
 20
51.63547719312253
 30
0.0
 10
212.0218380724174
 20
51.67596046389597
 30
0.0
 10
212.0070598443773
 20
51.71996413377846
 30
0.0
  0
SPLINE
  5
245
330
1F
100
AcDbEntity
  8
0
  6
Continuous
 62
     7
370
    25
100
AcDbSpline
210
0.0
220
0.0
230
1.0
 70
     8
 71
     3
 72
    14
 73
    10
 74
     0
 42
0.000000001
 43
0.00000001
 40
0.0
 40
0.0
 40
0.0
 40
0.0
 40
0.25
 40
0.25
 40
0.5
 40
0.5
 40
0.75
 40
0.75
 40
1.0
 40
1.0
 40
1.0
 40
1.0
 10
212.0070598443766
 20
51.71996413377917
 30
0.0
 10
211.98900359743
 20
51.77372843676594
 30
0.0
 10
211.9860807993288
 20
51.81827904586299
 30
0.0
 10
211.9806670707855
 20
51.91054039570771
 30
0.0
 10
211.9790997927444
 20
51.95783479862796
 30
0.0
 10
211.9689613929372
 20
52.06259585345574
 30
0.0
 10
211.960646395193
 20
52.11985706049075
 30
0.0
 10
211.9318462205342
 20
52.24947841786516
 30
0.0
 10
211.9111928238636
 20
52.32227261747822
 30
0.0
 10
211.8825033067025
 20
52.40195931643798
 30
0.0
  0
ARC
  5
246
330
1F
100
AcDbEntity
  8
0
  6
Continuous
 62
     7
370
    25
100
AcDbCircle
 10
222.237473635
 20
55.4885207831
 30
0.0
 40
10.80519673566306
100
AcDbArc
 50
163.4019784234
 51
196.5980215766
  0
SPLINE
  5
247
330
1F
100
AcDbEntity
  8
0
  6
Continuous
 62
     7
370
    25
100
AcDbSpline
210
0.0
220
0.0
230
1.0
 70
     8
 71
     3
 72
    14
 73
    10
 74
     0
 42
0.000000001
 43
0.00000001
 40
0.0
 40
0.0
 40
0.0
 40
0.0
 40
0.25
 40
0.25
 40
0.5
 40
0.5
 40
0.75
 40
0.75
 40
1.0
 40
1.0
 40
1.0
 40
1.0
 10
212.0070598443766
 20
60.03628732870216
 30
0.0
 10
211.98900359743
 20
59.9154452497576
 30
0.0
 10
211.9860807993288
 20
59.79035098319149
 30
0.0
 10
211.9806670707855
 20
59.54239967254013
 30
0.0
 10
211.9790997927444
 20
59.41849104822637
 30
0.0
 10
211.9689613929372
 20
59.17233530898617
 30
0.0
 10
211.960646395193
 20
59.05004736712475
 30
0.0
 10
211.9318462205342
 20
58.80805018991598
 30
0.0
 10
211.9111928238636
 20
58.68789322273638
 30
0.0
 10
211.8825033067025
 20
58.57508231233111
 30
0.0
  0
SPLINE
  5
248
330
1F
100
AcDbEntity
  8
0
  6
Continuous
 62
     7
370
    25
100
AcDbSpline
210
0.0
220
0.0
230
1.0
 70
     8
 71
     3
 72
    14
 73
    10
 74
     0
 42
0.000000001
 43
0.00000001
 40
0.0
 40
0.0
 40
0.0
 40
0.0
 40
0.1249999999999975
 40
0.1249999999999975
 40
0.249999999999995
 40
0.249999999999995
 40
0.4999999999999953
 40
0.4999999999999953
 40
1.0
 40
1.0
 40
1.0
 40
1.0
 10
211.9451770338655
 20
60.58157289299618
 30
0.0
 10
211.9643724097911
 20
60.57928608502235
 30
0.0
 10
211.9819844831914
 20
60.56778784574954
 30
0.0
 10
212.0078294131107
 20
60.53109634322301
 30
0.0
 10
212.0159677773583
 20
60.50801492812094
 30
0.0
 10
212.0329178683263
 20
60.43668240904385
 30
0.0
 10
212.0350871408361
 20
60.38543830343578
 30
0.0
 10
212.0339115930215
 20
60.23540282367418
 30
0.0
 10
212.0218380724173
 20
60.13519114879111
 30
0.0
 10
212.0070598443773
 20
60.03628732870248
 30
0.0
  0
SPLINE
  5
249
330
1F
100
AcDbEntity
  8
0
  6
Continuous
 62
     7
370
    25
100
AcDbSpline
210
0.0
220
0.0
230
1.0
 70
     8
 71
     3
 72
     8
 73
     4
 74
     0
 42
0.000000001
 43
0.00000001
 40
0.0
 40
0.0
 40
0.0
 40
0.0
 40
1.0
 40
1.0
 40
1.0
 40
1.0
 10
211.0335854439778
 20
60.63378570413227
 30
0.0
 10
211.3352379172154
 20
60.64113195127537
 30
0.0
 10
211.6405174607388
 20
60.61786798530542
 30
0.0
 10
211.9451770338655
 20
60.58157289299617
 30
0.0
  0
SPLINE
  5
24A
330
1F
100
AcDbEntity
  8
0
  6
Continuous
 62
     7
370
    25
100
AcDbSpline
210
0.0
220
0.0
230
1.0
 70
     8
 71
     3
 72
    14
 73
    10
 74
     0
 42
0.000000001
 43
0.00000001
 40
0.0
 40
0.0
 40
0.0
 40
0.0
 40
0.500000000000001
 40
0.500000000000001
 40
0.7500000000000004
 40
0.7500000000000004
 40
0.8750000000000003
 40
0.8750000000000003
 40
1.0
 40
1.0
 40
1.0
 40
1.0
 10
209.1049170767223
 20
61.26642504911725
 30
0.0
 10
209.4200830205621
 20
61.12904055539112
 30
0.0
 10
209.7363586758281
 20
60.99746704775996
 30
0.0
 10
210.2151831643992
 20
60.8225715812392
 30
0.0
 10
210.3755031748232
 20
60.76790043097468
 30
0.0
 10
210.6185557107769
 20
60.69886861525464
 30
0.0
 10
210.6999991487935
 20
60.67800633074585
 30
0.0
 10
210.8646605978269
 20
60.64519861731622
 30
0.0
 10
210.9475666158931
 20
60.63169085782356
 30
0.0
 10
211.0335854439778
 20
60.63378570413226
 30
0.0
  0
SPLINE
  5
24B
330
1F
100
AcDbEntity
  8
0
  6
Continuous
 62
     7
370
    25
100
AcDbSpline
210
0.0
220
0.0
230
1.0
 70
     8
 71
     3
 72
     8
 73
     4
 74
     0
 42
0.000000001
 43
0.00000001
 40
0.0000005163856712
 40
0.0000005163856712
 40
0.0000005163856712
 40
0.0000005163856712
 40
0.000026289209185
 40
0.000026289209185
 40
0.000026289209185
 40
0.000026289209185
 10
209.104895489703
 20
61.27930416032272
 30
0.0
 10
209.1048931885437
 20
61.27501132529142
 30
0.0
 10
209.1049004348681
 20
61.27071825761114
 30
0.0
 10
209.1049170767223
 20
61.26642504911725
 30
0.0
  0
SPLINE
  5
24C
330
1F
100
AcDbEntity
  8
0
  6
Continuous
 62
     7
370
    25
100
AcDbSpline
210
0.0
220
0.0
230
1.0
 70
     8
 71
     3
 72
     8
 73
     4
 74
     0
 42
0.000000001
 43
0.00000001
 40
0.0000005163856716
 40
0.0000005163856716
 40
0.0000005163856716
 40
0.0000005163856716
 40
0.0000262892091854
 40
0.0000262892091854
 40
0.0000262892091854
 40
0.0000262892091854
 10
209.104895489703
 20
53.80583310844343
 30
0.0
 10
209.1048931885437
 20
53.8074064941429
 30
0.0
 10
209.1049004348681
 20
53.80897422407681
 30
0.0
 10
209.1049170767223
 20
53.81053638081432
 30
0.0
  0
SPLINE
  5
24D
330
1F
100
AcDbEntity
  8
0
  6
Continuous
 62
     7
370
    25
100
AcDbSpline
210
0.0
220
0.0
230
1.0
 70
     8
 71
     3
 72
    18
 73
    14
 74
     0
 42
0.000000001
 43
0.00000001
 40
0.0
 40
0.0
 40
0.0
 40
0.0
 40
0.1237260359567633
 40
0.2481277460587711
 40
0.3725067383105169
 40
0.4961780219996021
 40
0.618794259402468
 40
0.6804714726974457
 40
0.7413507087781234
 40
0.802142655397268
 40
0.8642106040003307
 40
0.9872618200113601
 40
0.9999999999999999
 40
0.9999999999999999
 40
0.9999999999999999
 40
0.9999999999999999
 10
214.7937640594996
 20
51.93286201212142
 30
0.0
 10
214.6607171834604
 20
52.17779676513083
 30
0.0
 10
214.3938968556575
 20
52.66900387223416
 30
0.0
 10
214.26920147385
 20
53.42102493592117
 30
0.0
 10
214.40502796268
 20
54.04571193722774
 30
0.0
 10
214.7721040652707
 20
54.46257726648667
 30
0.0
 10
215.2147433063891
 20
54.55656029202507
 30
0.0
 10
215.5909698041948
 20
54.47461716601579
 30
0.0
 10
215.8731899278573
 20
54.3323407221045
 30
0.0
 10
216.1455824492188
 20
54.11565754710033
 30
0.0
 10
216.4717746600769
 20
53.73783933226903
 30
0.0
 10
216.7247891812595
 20
53.3598627607821
 30
0.0
 10
216.8153847906034
 20
53.06994493877239
 30
0.0
 10
216.8238834157685
 20
53.04274822454086
 30
0.0
  0
SPLINE
  5
24E
330
1F
100
AcDbEntity
  8
0
  6
Continuous
 62
     7
370
    25
100
AcDbSpline
210
0.0
220
0.0
230
1.0
 70
     8
 71
     3
 72
    13
 73
     9
 74
     0
 42
0.000000001
 43
0.00000001
 40
0.0
 40
0.0
 40
0.0
 40
0.0
 40
0.0428753865568351
 40
0.2037231545694943
 40
0.3619194800599372
 40
0.520233908713193
 40
0.6808336488996478
 40
1.0
 40
1.0
 40
1.0
 40
1.0
 10
216.4366658305198
 20
50.60417842815919
 30
0.0
 10
216.4187739121085
 20
50.60072893015577
 30
0.0
 10
216.3337601465716
 20
50.58433857962198
 30
0.0
 10
216.1327214479371
 20
50.67019727831527
 30
0.0
 10
215.8654784010618
 20
50.80644877385007
 30
0.0
 10
215.5824140810381
 20
51.01759799981674
 30
0.0
 10
215.2027647148442
 20
51.36556635062079
 30
0.0
 10
214.9571561560503
 20
51.70623247917215
 30
0.0
 10
214.7937640594996
 20
51.93286201212142
 30
0.0
  0
ARC
  5
24F
330
1F
100
AcDbEntity
  8
0
  6
Continuous
 62
     7
370
    25
100
AcDbCircle
 10
229.5478221111
 20
44.973591796
 30
0.0
 40
6.546041011964348
100
AcDbArc
 50
197.9964420636
 51
217.4725866998
  0
SPLINE
  5
250
330
1F
100
AcDbEntity
  8
0
  6
Continuous
 62
     7
370
    25
100
AcDbSpline
210
0.0
220
0.0
230
1.0
 70
     8
 71
     3
 72
     8
 73
     4
 74
     0
 42
0.000000001
 43
0.00000001
 40
0.0
 40
0.0
 40
0.0
 40
0.0
 40
1.0
 40
1.0
 40
1.0
 40
1.0
 10
221.8473656702645
 20
42.70475906992773
 30
0.0
 10
222.3391604690164
 20
42.78640935700948
 30
0.0
 10
222.8307405599191
 20
42.86849314449992
 30
0.0
 10
223.3220415889717
 20
42.9511403647038
 30
0.0
  0
SPLINE
  5
251
330
1F
100
AcDbEntity
  8
0
  6
Continuous
 62
     7
370
    25
100
AcDbSpline
210
0.0
220
0.0
230
1.0
 70
     8
 71
     3
 72
    10
 73
     6
 74
     0
 42
0.000000001
 43
0.00000001
 40
0.0
 40
0.0
 40
0.0
 40
0.0
 40
0.5
 40
0.5
 40
1.0
 40
1.0
 40
1.0
 40
1.0
 10
223.5672101933379
 20
43.09267318739357
 30
0.0
 10
223.5920424966898
 20
43.10700857098141
 30
0.0
 10
223.6197174941832
 20
43.11960401111751
 30
0.0
 10
223.6798425036377
 20
43.14080190925778
 30
0.0
 10
223.7115369038325
 20
43.14916407492443
 30
0.0
 10
223.7447188964142
 20
43.15527552999568
 30
0.0
  0
LINE
  5
252
330
1F
100
AcDbEntity
  8
0
  6
Continuous
 62
     7
370
    25
100
AcDbLine
 10
223.3220415491
 20
42.9511404802
 30
0.0
 11
223.5672104255
 21
43.0926734599
 31
0.0
  0
SPLINE
  5
253
330
1F
100
AcDbEntity
  8
0
  6
Continuous
 62
     7
370
    25
100
AcDbSpline
210
0.0
220
0.0
230
1.0
 70
     8
 71
     3
 72
    12
 73
     8
 74
     0
 42
0.000000001
 43
0.00000001
 40
0.0
 40
0.0
 40
0.0
 40
0.0
 40
0.0821784668623647
 40
0.3398545054835895
 40
0.5966877523029559
 40
0.8570528278000292
 40
1.0
 40
1.0
 40
1.0
 40
1.0
 10
215.8130701149396
 20
54.2536287069449
 30
0.0
 10
215.7994107016515
 20
54.2066062037354
 30
0.0
 10
215.7429212911593
 20
54.01214151991948
 30
0.0
 10
215.8210410065809
 20
53.57826512582903
 30
0.0
 10
216.0444679099942
 20
53.03018020080368
 30
0.0
 10
216.3485931471696
 20
52.57127858712597
 30
0.0
 10
216.5768112035761
 20
52.35538418632974
 30
0.0
 10
216.6576992152707
 20
52.27886408493472
 30
0.0
  0
LINE
  5
254
330
1F
100
AcDbEntity
  8
0
  6
Continuous
 62
     7
370
    25
100
AcDbLine
 10
243.5659638009
 20
64.2520393008
 30
0.0
 11
244.9653524411
 21
63.4441894344
 31
0.0
  0
SPLINE
  5
255
330
1F
100
AcDbEntity
  8
0
  6
Continuous
 62
     7
370
    25
100
AcDbSpline
210
0.0
220
0.0
230
1.0
 70
     8
 71
     3
 72
    12
 73
     8
 74
     0
 42
0.000000001
 43
0.00000001
 40
0.0
 40
0.0
 40
0.0
 40
0.0
 40
0.25
 40
0.25
 40
0.5
 40
0.5
 40
1.0
 40
1.0
 40
1.0
 40
1.0
 10
244.9653522070296
 20
63.44418928707199
 30
0.0
 10
244.9975961779023
 20
63.42557523889837
 30
0.0
 10
245.0196491804359
 20
63.40132491610095
 30
0.0
 10
245.0404981246008
 20
63.35073705821343
 30
0.0
 10
245.0401169553735
 20
63.32389848977936
 30
0.0
 10
245.0143640224763
 20
63.24666437351053
 30
0.0
 10
244.9664125953676
 20
63.1998790026827
 30
0.0
 10
244.9025125462323
 20
63.16299028951525
 30
0.0
  0
SPLINE
  5
256
330
1F
100
AcDbEntity
  8
0
  6
Continuous
 62
     7
370
    25
100
AcDbSpline
210
0.0
220
0.0
230
1.0
 70
     8
 71
     3
 72
    12
 73
     8
 74
     0
 42
0.000000001
 43
0.00000001
 40
0.0
 40
0.0
 40
0.0
 40
0.0
 40
0.193223131450629
 40
0.3714469115074855
 40
0.6821123119528579
 40
0.96007624866002
 40
1.0
 40
1.0
 40
1.0
 40
1.0
 10
215.0850333562965
 20
52.11578517038271
 30
0.0
 10
215.1645881699145
 20
52.00138181848089
 30
0.0
 10
215.3175221876593
 20
51.78145591514311
 30
0.0
 10
215.6423608917364
 20
51.42756842832244
 30
0.0
 10
216.027005039055
 20
51.12372526716774
 30
0.0
 10
216.3219224787702
 20
50.95769504281662
 30
0.0
 10
216.4468853739017
 20
50.94116040623471
 30
0.0
 10
216.4625795569089
 20
50.93908380891995
 30
0.0
  0
SPLINE
  5
257
330
1F
100
AcDbEntity
  8
0
  6
Continuous
 62
     7
370
    25
100
AcDbSpline
210
0.0
220
0.0
230
1.0
 70
     8
 71
     3
 72
    17
 73
    13
 74
     0
 42
0.000000001
 43
0.00000001
 40
0.0
 40
0.0
 40
0.0
 40
0.0
 40
0.0289371873755788
 40
0.1765484346592746
 40
0.2609533738105088
 40
0.3523015329349377
 40
0.4561091273427056
 40
0.5447595376842378
 40
0.6761094900050054
 40
0.8084259036942273
 40
0.8968655922556384
 40
1.0
 40
1.0
 40
1.0
 40
1.0
 10
216.1283736520999
 20
54.11411386553903
 30
0.0
 10
216.1011007690905
 20
54.14017057658527
 30
0.0
 10
215.9347064080405
 20
54.29914496092583
 30
0.0
 10
215.6469180094404
 20
54.37763804899596
 30
0.0
 10
215.3266443296963
 20
54.38128260151549
 30
0.0
 10
215.0726993186909
 20
54.29023159420434
 30
0.0
 10
214.8642196189128
 20
54.10943126877469
 30
0.0
 10
214.7011251872595
 20
53.81730565442808
 30
0.0
 10
214.6241211565079
 20
53.4075180276369
 30
0.0
 10
214.6995128399829
 20
52.94292151139136
 30
0.0
 10
214.8582577411631
 20
52.50098238918478
 30
0.0
 10
215.0056723319751
 20
52.25058646209965
 30
0.0
 10
215.0850333562965
 20
52.11578517038271
 30
0.0
  0
SPLINE
  5
258
330
1F
100
AcDbEntity
  8
0
  6
Continuous
 62
     7
370
    25
100
AcDbSpline
210
0.0
220
0.0
230
1.0
 70
     8
 71
     3
 72
    10
 73
     6
 74
     0
 42
0.000000001
 43
0.00000001
 40
0.0
 40
0.0
 40
0.0
 40
0.0
 40
0.5
 40
0.5
 40
1.0
 40
1.0
 40
1.0
 40
1.0
 10
247.0823417553935
 20
59.58337459598606
 30
0.0
 10
247.1192575893311
 20
59.60468565329965
 30
0.0
 10
247.1468100425235
 20
59.63111997183026
 30
0.0
 10
247.1770227273344
 20
59.68821612639053
 30
0.0
 10
247.1797813517123
 20
59.7189901791554
 30
0.0
 10
247.1686807892173
 20
59.74861718503148
 30
0.0
  0
LINE
  5
259
330
1F
100
AcDbEntity
  8
0
  6
Continuous
 62
     7
370
    25
100
AcDbLine
 10
241.1675055194
 20
65.6366397947
 30
0.0
 11
241.030376138
 21
65.4303608818
 31
0.0
  0
LINE
  5
25A
330
1F
100
AcDbEntity
  8
0
  6
Continuous
 62
     7
370
    25
100
AcDbLine
 10
210.9446724969
 20
55.985517601
 30
0.0
 11
211.4450556875
 21
55.6966525337
 31
0.0
  0
SPLINE
  5
25B
330
1F
100
AcDbEntity
  8
0
  6
Continuous
 62
     7
370
    25
100
AcDbSpline
210
0.0
220
0.0
230
1.0
 70
     8
 71
     3
 72
     9
 73
     5
 74
     0
 42
0.000000001
 43
0.00000001
 40
0.0
 40
0.0
 40
0.0
 40
0.0
 40
0.7009339503679092
 40
0.9999999999999999
 40
0.9999999999999999
 40
0.9999999999999999
 40
0.9999999999999999
 10
209.1188617998075
 20
61.7428961943525
 30
0.0
 10
209.1157899112886
 20
61.79690017870651
 30
0.0
 10
209.1114073464017
 20
61.8739459321982
 30
0.0
 10
209.1358176704782
 20
61.96357867261247
 30
0.0
 10
209.14311796967
 20
61.99038478220587
 30
0.0
  0
SPLINE
  5
25C
330
1F
100
AcDbEntity
  8
0
  6
Continuous
 62
     7
370
    25
100
AcDbSpline
210
0.0
220
0.0
230
1.0
 70
     8
 71
     3
 72
    10
 73
     6
 74
     0
 42
0.000000001
 43
0.00000001
 40
0.0
 40
0.0
 40
0.0
 40
0.0
 40
0.5
 40
0.5
 40
1.0
 40
1.0
 40
1.0
 40
1.0
 10
209.1593544269211
 20
61.79524633943009
 30
0.0
 10
209.139428376425
 20
61.71128586541437
 30
0.0
 10
209.1261341122842
 20
61.62584000290298
 30
0.0
 10
209.1088655861435
 20
61.4534265319705
 30
0.0
 10
209.1049421315212
 20
61.36631492570661
 30
0.0
 10
209.104895489703
 20
61.27930416032272
 30
0.0
  0
SPLINE
  5
25D
330
1F
100
AcDbEntity
  8
0
  6
Continuous
 62
     7
370
    25
100
AcDbSpline
210
0.0
220
0.0
230
1.0
 70
     8
 71
     3
 72
    24
 73
    20
 74
     0
 42
0.000000001
 43
0.00000001
 40
0.0
 40
0.0
 40
0.0
 40
0.0
 40
0.25
 40
0.25
 40
0.374999999999999
 40
0.374999999999999
 40
0.4374999999999993
 40
0.4374999999999993
 40
0.4687499999999994
 40
0.4687499999999994
 40
0.4999999999999995
 40
0.4999999999999995
 40
0.5624999999999971
 40
0.5624999999999971
 40
0.6249999999999947
 40
0.6249999999999947
 40
0.7499999999999947
 40
0.7499999999999947
 40
1.0
 40
1.0
 40
1.0
 40
1.0
 10
209.1431180239528
 20
61.99038469014634
 30
0.0
 10
209.172959053238
 20
62.09766374670259
 30
0.0
 10
209.202788593279
 20
62.20354832007327
 30
0.0
 10
209.2474597501503
 20
62.35349636332356
 30
0.0
 10
209.2624125422421
 20
62.40249662608649
 30
0.0
 10
209.2839956805314
 20
62.46564690798924
 30
0.0
 10
209.2911253920611
 20
62.48528709221775
 30
0.0
 10
209.2999770173625
 20
62.50299702170575
 30
0.0
 10
209.3026151146323
 20
62.50671338819141
 30
0.0
 10
209.3057676526774
 20
62.50456503980922
 30
0.0
 10
209.3061476138141
 20
62.49840263074265
 30
0.0
 10
209.3041376885534
 20
62.4697575473899
 30
0.0
 10
209.2995610469549
 20
62.4414565424017
 30
0.0
 10
209.2896296608486
 20
62.38507753225242
 30
0.0
 10
209.2839394751136
 20
62.35560778429637
 30
0.0
 10
209.266357874495
 20
62.26775336373004
 30
0.0
 10
209.2536770015667
 20
62.20852837068072
 30
0.0
 10
209.2144359379463
 20
62.03003506355093
 30
0.0
 10
209.1871324779098
 20
61.91229202937722
 30
0.0
 10
209.1593544269211
 20
61.79524633943011
 30
0.0
  0
ARC
  5
25E
330
1F
100
AcDbEntity
  8
0
  6
Continuous
 62
     7
370
    25
100
AcDbCircle
 10
209.8220324543
 20
61.2006375085
 30
0.0
 40
0.7201273031244034
100
AcDbArc
 50
174.7584203609
 51
234.4349513408
  0
ARC
  5
25F
330
1F
100
AcDbEntity
  8
0
  6
Continuous
 62
     7
370
    25
100
AcDbCircle
 10
211.3173672218
 20
53.7007397722
 30
0.0
 40
2.215173511102239
100
AcDbArc
 50
122.6235856257
 51
177.1589283586
  0
LINE
  5
260
330
1F
100
AcDbEntity
  8
0
  6
Continuous
 62
     7
370
    25
100
AcDbLine
 10
210.123128345
 20
55.5664265598
 30
0.0
 11
210.8672151504
 21
55.9959787293
 31
0.0
  0
SPLINE
  5
261
330
1F
100
AcDbEntity
  8
0
  6
Continuous
 62
     7
370
    25
100
AcDbSpline
210
0.0
220
0.0
230
1.0
 70
     8
 71
     3
 72
     8
 73
     4
 74
     0
 42
0.000000001
 43
0.00000001
 40
0.0
 40
0.0
 40
0.0
 40
0.0
 40
0.000159097695343
 40
0.000159097695343
 40
0.000159097695343
 40
0.000159097695343
 10
210.9446729230209
 20
55.98551758341743
 30
0.0
 10
210.9188527934552
 20
55.98900213287933
 30
0.0
 10
210.8930336489028
 20
55.99248911561687
 30
0.0
 10
210.8672154692465
 20
55.99597847673628
 30
0.0
  0
ARC
  5
262
330
1F
100
AcDbEntity
  8
0
  6
Continuous
 62
     7
370
    25
100
AcDbCircle
 10
210.4519871717
 20
54.1953985291
 30
0.0
 40
1.35347956376582
100
AcDbArc
 50
122.9135810547
 51
170.975405912
  0
LINE
  5
263
330
1F
100
AcDbEntity
  8
0
  6
Continuous
 62
     7
370
    25
100
AcDbLine
 10
210.123128345
 20
55.5664265598
 30
0.0
 11
209.7165423073
 21
55.3316325635
 31
0.0
  0
SPLINE
  5
264
330
1F
100
AcDbEntity
  8
0
  6
Continuous
 62
     7
370
    25
100
AcDbSpline
210
0.0
220
0.0
230
1.0
 70
     8
 71
     3
 72
    10
 73
     6
 74
     0
 42
0.000000001
 43
0.00000001
 40
0.0
 40
0.0
 40
0.0
 40
0.0
 40
0.5
 40
0.5
 40
1.0
 40
1.0
 40
1.0
 40
1.0
 10
209.1593544269211
 20
53.61059072372612
 30
0.0
 10
209.139428376425
 20
53.64911228524175
 30
0.0
 10
209.1261341122842
 20
53.68107561243483
 30
0.0
 10
209.1088655861435
 20
53.74351903593168
 30
0.0
 10
209.1049421315212
 20
53.77394241314387
 30
0.0
 10
209.104895489703
 20
53.80583310844342
 30
0.0
  0
LINE
  5
265
330
1F
100
AcDbEntity
  8
0
  6
Continuous
 62
     7
370
    25
100
AcDbLine
 10
209.1152621955
 20
54.4077031865
 30
0.0
 11
209.1188617998
 21
54.2720669257
 31
0.0
  0
LINE
  5
266
330
1F
100
AcDbEntity
  8
0
  6
Continuous
 62
     7
370
    25
100
AcDbLine
 10
209.214344168
 20
53.5151616468
 30
0.0
 11
209.1593543845
 21
53.6105909014
 31
0.0
  0
LWPOLYLINE
  5
267
330
1F
100
AcDbEntity
  8
0
  6
Continuous
 62
     7
370
    18
100
AcDbPolyline
 90
       17
 70
   128
 43
0.0
 10
268.2184210529
 20
36.5508513657
 10
268.2408612863
 20
36.665816135
 10
268.387175388
 20
37.1202474726
 10
268.617824675
 20
37.5607773823
 10
268.9141236055
 20
37.9517168601
 10
269.2520679028
 20
38.2613944037
 10
269.6042789084
 20
38.4647214893
 10
269.9422232057
 20
38.5452261261
 10
270.2385224655
 20
38.4963863017
 10
270.4691717525
 20
38.3221583904
 10
270.6154851956
 20
38.0366573387
 10
270.6656103109
 20
37.6630132147
 10
270.6154851956
 20
37.2314958646
 10
270.4691717525
 20
36.7770649072
 10
270.2385224655
 20
36.3365349975
 10
269.9422232057
 20
35.9455953296
 10
269.6886575576
 20
35.7021020794
  0
LWPOLYLINE
  5
268
330
1F
100
AcDbEntity
  8
0
  6
Continuous
 62
     7
370
    18
100
AcDbPolyline
 90
       10
 70
   128
 43
0.0
 10
267.8965310828
 20
36.7366747744
 10
268.0266542093
 20
37.1602165354
 10
268.2513989862
 20
37.6281811733
 10
268.5442922538
 20
38.0567919258
 10
268.8853735279
 20
38.4168394803
 10
269.2513991509
 20
38.6837875913
 10
269.6174244446
 20
38.8394434792
 10
269.958506048
 20
38.8732001715
 10
270.2513989862
 20
38.7827565975
 10
270.2515320122
 20
38.7826800634
  0
LWPOLYLINE
  5
269
330
1F
100
AcDbEntity
  8
0
  6
Continuous
 62
     7
370
    18
100
AcDbPolyline
 90
       23
 70
   128
 43
0.0
 10
258.2912415874
 20
30.5194422059
 10
258.3413667026
 20
30.950959556
 10
258.4876801458
 20
31.4053905134
 10
258.7183294328
 20
31.8459204231
 10
259.0146286926
 20
32.236860091
 10
259.3525729899
 20
32.5465376346
 10
259.7047839955
 20
32.7498647202
 10
260.0427282928
 20
32.830369357
 10
260.3390272233
 20
32.7815293426
 10
260.5696765103
 20
32.6073014313
 10
260.715990612
 20
32.3218007597
 10
260.766115398
 20
31.9481564457
 10
260.715990612
 20
31.5166392856
 10
260.5696765103
 20
31.062207948
 10
260.3390272233
 20
30.6216780383
 10
260.0427282928
 20
30.2307385605
 10
259.7047839955
 20
29.9210610169
 10
259.3525729899
 20
29.7177339313
 10
259.0146286926
 20
29.6372292945
 10
258.7183294328
 20
29.6860691189
 10
258.4876801458
 20
29.8602970302
 10
258.3413667026
 20
30.1457980819
 10
258.2912415874
 20
30.5194422059
  0
LWPOLYLINE
  5
26A
330
1F
100
AcDbEntity
  8
0
  6
Continuous
 62
     7
370
    18
100
AcDbPolyline
 90
       11
 70
   128
 43
0.0
 10
257.9376907731
 20
30.5194410654
 10
257.9858784503
 20
30.9699318613
 10
258.1271592964
 20
31.4453597664
 10
258.3519040733
 20
31.9133244042
 10
258.6447970116
 20
32.3419349667
 10
258.985878615
 20
32.7019827113
 10
259.3519039087
 20
32.9689306322
 10
259.7179295317
 20
33.1245867101
 10
260.0590108058
 20
33.1583432123
 10
260.3519040733
 20
33.0678998284
 10
260.3520367701
 20
33.0678231042
  0
ARC
  5
26B
330
1F
100
AcDbEntity
  8
0
  6
Continuous
 62
     7
370
    18
100
AcDbCircle
 10
258.9498372938
 20
30.4223401164
 30
0.0
 40
1.016793574805317
100
AcDbArc
 50
174.5200620739
 51
232.0802176409
  0
LWPOLYLINE
  5
26C
330
1F
100
AcDbEntity
  8
0
  6
Continuous
 62
     7
370
    18
100
AcDbPolyline
 90
       30
 70
   128
 43
0.0
 10
275.4739358281
 20
30.2336996621
 10
275.4235140386
 20
30.7399647873
 10
275.2746060947
 20
31.1643416731
 10
275.0341747876
 20
31.4869868128
 10
274.7134624598
 20
31.692813754
 10
274.3274652398
 20
31.77219843
 10
273.8942320629
 20
31.7214286823
 10
273.4340202519
 20
31.5428783911
 10
272.9683489012
 20
31.2448966557
 10
272.5189922086
 20
30.8414165826
 10
272.1069616541
 20
30.3513044015
 10
271.7515233688
 20
29.797477373
 10
271.4692972052
 20
29.2058317863
 10
271.2734796543
 20
28.6040322334
 10
271.1732269543
 20
28.0202182379
 10
271.1732269543
 20
27.481688314
 10
271.2734796543
 20
27.0136236221
 10
271.4692972052
 20
26.6379102011
 10
271.7515233688
 20
26.372116007
 10
272.1069616541
 20
26.2286692874
 10
272.5189922086
 20
26.2142774586
 10
272.9683489012
 20
26.3296135794
 10
273.4340202519
 20
26.5692845413
 10
273.8942320629
 20
26.922083497
 10
274.3274652398
 20
27.3715141283
 10
274.7134624598
 20
27.8965617082
 10
275.0341747876
 20
28.4726752214
 10
275.2746060947
 20
29.0729164396
 10
275.4235140386
 20
29.6692187778
 10
275.4739358281
 20
30.2336996621
  0
LWPOLYLINE
  5
26D
330
1F
100
AcDbEntity
  8
0
  6
Continuous
 62
     7
370
    18
100
AcDbPolyline
 90
       26
 70
   128
 43
0.0
 10
256.2759887088
 20
31.3970798154
 10
256.324760515
 20
32.3383592854
 10
256.4703357298
 20
33.321680038
 10
256.710508229
 20
34.332136447
 10
257.0416362614
 20
35.3544104699
 10
257.4587013886
 20
36.373006245
 10
257.9553809249
 20
37.3724820259
 10
258.5241454016
 20
38.3376876269
 10
259.1563734832
 20
39.2539908397
 10
259.842480713
 20
40.1075019487
 10
260.5720666976
 20
40.8852822733
 10
261.3340715112
 20
41.5755409237
 10
262.1169440775
 20
42.1678156559
 10
262.9088167657
 20
42.6531268971
 10
263.6976856266
 20
43.0241190555
 10
264.4715922328
 20
43.2751670162
 10
265.2188048197
 20
43.4024655018
 10
265.9279966687
 20
43.4040856628
 10
266.5884167114
 20
43.2800017017
 10
267.1900540836
 20
43.0320953728
 10
267.723788273
 20
42.6641244087
 10
268.181528731
 20
42.1816673737
 10
268.5563363743
 20
41.5920369596
 10
268.8425299393
 20
40.9041719905
 10
269.035769947
 20
40.1284994849
 10
269.122830848
 20
39.4342647899
  0
LWPOLYLINE
  5
26E
330
1F
100
AcDbEntity
  8
0
  6
Continuous
 62
     7
370
    18
100
AcDbPolyline
 90
       17
 70
   128
 43
0.0
 10
264.7980245136
 20
29.2880502237
 10
264.4715922328
 20
28.9814350296
 10
263.6976856266
 20
28.3389494422
 10
262.9088167657
 20
27.7991330009
 10
262.1169440775
 20
27.3701674972
 10
261.3340715112
 20
27.0585568043
 10
260.5720666976
 20
26.8690234237
 10
259.842480713
 20
26.8044417007
 10
259.1563734832
 20
26.8657902637
 10
258.5241454016
 20
27.0521384711
 10
257.9553809249
 20
27.3606625851
 10
257.4587013886
 20
27.7866843798
 10
257.0416362614
 20
28.3237470087
 10
256.710508229
 20
28.9637087431
 10
256.4703357298
 20
29.696867887
 10
256.324760515
 20
30.5121110743
 10
256.2759887088
 20
31.3970798154
  0
LWPOLYLINE
  5
26F
330
1F
100
AcDbEntity
  8
0
  6
Continuous
 62
     7
370
    18
100
AcDbPolyline
 90
       21
 70
   128
 43
0.0
 10
255.7103042448
 20
31.3970798154
 10
255.7592821755
 20
32.3603738112
 10
255.9055027639
 20
33.3661700791
 10
256.1468336428
 20
34.3998018662
 10
256.4797548919
 20
35.4461957026
 10
256.8994123796
 20
36.4900939261
 10
257.3996865811
 20
37.5162732143
 10
257.9732824695
 20
38.5097704332
 10
258.6118352126
 20
39.4560972682
 10
259.3060339788
 20
40.3414546631
 10
260.0457549634
 20
41.1529316684
 10
260.8202120305
 20
41.8786962083
 10
261.6181115534
 20
42.5081639369
 10
262.4278184501
 20
43.0321556853
 10
263.2375253467
 20
43.4430316206
 10
264.0354248696
 20
43.7347990721
 10
264.8098819367
 20
43.9032036289
 10
265.5496029213
 20
43.9457902932
 10
266.2438016875
 20
43.8619377332
 10
266.8823544306
 20
43.6528682024
 10
267.1774324195
 20
43.5024825519
  0
LWPOLYLINE
  5
270
330
1F
100
AcDbEntity
  8
0
  6
Continuous
 62
     7
370
    18
100
AcDbPolyline
 90
        8
 70
   128
 43
0.0
 10
257.6782044806
 20
27.0475538918
 10
257.3996865811
 20
27.228405744
 10
256.8994123796
 20
27.6769807338
 10
256.4797548919
 20
28.2363527354
 10
256.1468336428
 20
28.8983638794
 10
255.9055027639
 20
29.6533609646
 10
255.7592821755
 20
30.4903345346
 10
255.7103042448
 20
31.3970798154
  0
LWPOLYLINE
  5
271
330
1F
100
AcDbEntity
  8
0
  6
Continuous
 62
     7
370
    18
100
AcDbPolyline
 90
       21
 70
   128
 43
0.0
 10
239.358458402
 20
40.8367994903
 10
239.4074363327
 20
41.8000934862
 10
239.5536569211
 20
42.805889754
 10
239.7949878
 20
43.8395215412
 10
240.1279090491
 20
44.8859153775
 10
240.5475665369
 20
45.9298136011
 10
241.0478407383
 20
46.9559928892
 10
241.6214366268
 20
47.9494901081
 10
242.2599893699
 20
48.8958169432
 10
242.954188136
 20
49.7811743381
 10
243.6939091206
 20
50.5926513433
 10
244.4683661877
 20
51.3184158833
 10
245.2662657106
 20
51.9478836118
 10
246.0759726073
 20
52.4718753603
 10
246.885679504
 20
52.8827512955
 10
247.6835790269
 20
53.174518747
 10
248.458036094
 20
53.3429233038
 10
249.1977570785
 20
53.3855099681
 10
249.8919558447
 20
53.3016574082
 10
250.5305085878
 20
53.0925878773
 10
250.8255865768
 20
52.9422022269
  0
LWPOLYLINE
  5
272
330
1F
100
AcDbEntity
  8
0
  6
Continuous
 62
     7
370
    18
100
AcDbPolyline
 90
        8
 70
   128
 43
0.0
 10
241.3263586378
 20
36.4872735667
 10
241.0478407383
 20
36.6681254189
 10
240.5475665369
 20
37.1167004087
 10
240.1279090491
 20
37.6760724104
 10
239.7949878
 20
38.3380835544
 10
239.5536569211
 20
39.0930806396
 10
239.4074363327
 20
39.9300542096
 10
239.358458402
 20
40.8367994903
  0
LWPOLYLINE
  5
273
330
1F
100
AcDbEntity
  8
0
  6
Continuous
 62
     7
370
    18
100
AcDbPolyline
 90
       12
 70
   128
 43
0.0
 10
267.1020669397
 20
32.9757818935
 10
267.517032874
 20
33.5368696544
 10
267.9783999367
 20
34.024933462
 10
268.468387817
 20
34.42116364
 10
268.968113492
 20
34.7102907722
 10
269.4583185274
 20
34.8811722959
 10
269.9201113391
 20
34.9272229017
 10
270.3356954821
 20
34.8466676636
 10
270.6890551539
 20
34.6426111535
 10
270.9665725596
 20
34.3229173124
 10
271.1575526072
 20
33.8999064528
 10
271.2339928317
 20
33.5620423478
  0
LWPOLYLINE
  5
274
330
1F
100
AcDbEntity
  8
0
  6
Continuous
 62
     7
370
    18
100
AcDbPolyline
 90
       12
 70
   128
 43
0.0
 10
268.3150215062
 20
28.5056876649
 10
267.983816136
 20
28.4028336509
 10
267.5220233243
 20
28.3567830451
 10
267.1064391813
 20
28.4373382831
 10
266.7530795095
 20
28.6413947933
 10
266.4755621037
 20
28.9610886343
 10
266.2845820561
 20
29.384099494
 10
266.1874990955
 20
29.8941253753
 10
266.1880547424
 20
30.4715109083
 10
266.2862274296
 20
31.0940047132
 10
266.4782341481
 20
31.7376174875
 10
266.7566748332
 20
32.3775452183
  0
LWPOLYLINE
  5
275
330
1F
100
AcDbEntity
  8
0
  6
Continuous
 62
     7
370
    18
100
AcDbPolyline
 90
       14
 70
   128
 43
0.0
 10
265.6097978406
 20
30.1724680172
 10
265.6579572005
 20
30.8004257592
 10
265.8007953396
 20
31.4626027669
 10
266.033447919
 20
32.1364494429
 10
266.3479921544
 20
32.7990184697
 10
266.7337169839
 20
33.4277473481
 10
267.1774866671
 20
34.0012249095
 10
267.6641892541
 20
34.4999225541
 10
268.1772507642
 20
34.9068572429
 10
268.6991994352
 20
35.208171797
 10
269.2122609453
 20
35.3936053188
 10
269.6989635322
 20
35.4568425201
 10
270.1427332155
 20
35.395730529
 10
270.4426518359
 20
35.2668183754
  0
ARC
  5
276
330
1F
100
AcDbEntity
  8
0
  6
Continuous
 62
     7
370
    18
100
AcDbCircle
 10
267.6033547308
 20
29.96790437
 30
0.0
 40
2.004024790348291
100
AcDbArc
 50
174.141248276
 51
233.4479048284
  0
LWPOLYLINE
  5
277
330
1F
100
AcDbEntity
  8
0
  6
Continuous
 62
     7
370
    18
100
AcDbPolyline
 90
        9
 70
   128
 43
0.0
 10
268.1915832651
 20
29.3673202433
 10
267.7989370917
 20
29.3441689332
 10
267.4585672926
 20
29.4552887675
 10
267.1921826641
 20
29.6945546758
 10
267.0153937567
 20
30.0479449193
 10
266.9385608751
 20
30.4947502658
 10
266.9661864879
 20
31.0087869614
 10
267.0966517282
 20
31.5599313929
 10
267.3223110588
 20
32.1158854938
  0
LWPOLYLINE
  5
278
330
1F
100
AcDbEntity
  8
0
  6
Continuous
 62
     7
370
    18
100
AcDbPolyline
 90
        9
 70
   128
 43
0.0
 10
267.611430784
 20
32.6166555459
 10
267.9800637494
 20
33.0900458931
 10
268.3921209543
 20
33.4785778983
 10
268.8234551153
 20
33.7594828472
 10
269.2487891332
 20
33.9162991734
 10
269.6431975717
 20
33.9398370135
 10
269.9835673708
 20
33.8287171793
 10
270.2499519993
 20
33.5894512709
 10
270.4261085393
 20
33.2380509805
  0
LWPOLYLINE
  5
279
330
1F
100
AcDbEntity
  8
0
  6
Continuous
 62
     7
370
    18
100
AcDbPolyline
 90
        3
 70
   128
 43
0.0
 10
269.5187255804
 20
33.6348352599
 10
269.7395165384
 20
33.4240785356
 10
269.7972081654
 20
33.3300985877
  0
ARC
  5
27A
330
1F
100
AcDbEntity
  8
0
  6
Continuous
 62
     7
370
    18
100
AcDbCircle
 10
267.7571870471
 20
30.6409174946
 30
0.0
 40
0.7760554133623242
100
AcDbArc
 50
239.914375106
 51
272.9680662804
  0
LWPOLYLINE
  5
27B
330
1F
100
AcDbEntity
  8
0
  6
Continuous
 62
     7
370
    18
100
AcDbPolyline
 90
       16
 70
   128
 43
0.0
 10
259.6956759957
 20
33.4096599378
 10
259.7464451674
 20
34.0716455353
 10
259.8970233448
 20
34.7697045909
 10
260.142282771
 20
35.4800655157
 10
260.4738716199
 20
36.1785379134
 10
260.8804979936
 20
36.8413362297
 10
261.3483145942
 20
37.4458894668
 10
261.8613906539
 20
37.9716105848
 10
262.4022539375
 20
38.4005962788
 10
262.9524859427
 20
38.7182384542
 10
263.4933492262
 20
38.9137202152
 10
264.006425286
 20
38.9803841065
 10
264.4742418866
 20
38.9159604196
 10
264.8808682602
 20
38.7226429211
 10
265.2124571092
 20
38.4070148593
 10
265.3469310745
 20
38.2057409841
  0
ARC
  5
27C
330
1F
100
AcDbEntity
  8
0
  6
Continuous
 62
     7
370
    18
100
AcDbCircle
 10
261.3340447837
 20
32.886816773
 30
0.0
 40
1.605362860244424
100
AcDbArc
 50
247.7705475634
 51
270.5576456955
  0
LWPOLYLINE
  5
27D
330
1F
100
AcDbEntity
  8
0
  6
Continuous
 62
     7
370
    18
100
AcDbPolyline
 90
       14
 70
   128
 43
0.0
 10
260.3824896791
 20
32.9712354494
 10
260.3728285019
 20
33.4909694313
 10
260.453224274
 20
34.1276894221
 10
260.6280548346
 20
34.7910441415
 10
260.8911171884
 20
35.4574977856
 10
261.2330781133
 20
36.1034048744
 10
261.64180475
 20
36.7058485711
 10
262.1027957838
 20
37.2434544801
 10
262.5996949858
 20
37.6971481384
 10
263.1148726669
 20
38.0508328901
 10
263.630050348
 20
38.2919596281
 10
264.12694955
 20
38.4119735767
 10
264.5879405837
 20
38.406616586
 10
264.6540121896
 20
38.3947387051
  0
LWPOLYLINE
  5
27E
330
1F
100
AcDbEntity
  8
0
  6
Continuous
 62
     7
370
    18
100
AcDbPolyline
 90
       14
 70
   128
 43
0.0
 10
260.1473990033
 20
33.4278949653
 10
260.1969149648
 20
34.055288982
 10
260.3436735841
 20
34.7171774063
 10
260.5823704496
 20
35.3896378567
 10
260.9043784638
 20
36.0483659406
 10
261.2980593341
 20
36.6695532274
 10
261.7491844656
 20
37.230748718
 10
262.2414491195
 20
37.71166907
 10
262.75706144
 20
38.0949327455
 10
263.2773858933
 20
38.3666877367
 10
263.7836166299
 20
38.5171116969
 10
264.2574571018
 20
38.5407681542
 10
264.6817815298
 20
38.436802244
 10
264.7999018593
 20
38.3796228873
  0
LWPOLYLINE
  5
27F
330
1F
100
AcDbEntity
  8
0
  6
Continuous
 62
     7
370
    18
100
AcDbPolyline
 90
        3
 70
   128
 43
0.0
 10
260.9695952789
 20
31.642713404
 10
260.9043784638
 20
31.6814138716
 10
260.7977182904
 20
31.7567825204
  0
LINE
  5
280
330
1F
100
AcDbEntity
  8
0
  6
Continuous
 62
     7
370
    18
100
AcDbLine
 10
260.1561019982
 20
33.1809340386
 30
0.0
 11
260.1473990033
 21
33.4278949653
 31
0.0
  0
LINE
  5
281
330
1F
100
AcDbEntity
  8
0
  6
Continuous
 62
     7
370
    18
100
AcDbLine
 10
260.9101682225
 20
31.7072361401
 30
0.0
 11
260.7854117399
 21
31.832753216
 31
0.0
  0
LWPOLYLINE
  5
282
330
1F
100
AcDbEntity
  8
0
  6
Continuous
 62
     7
370
    18
100
AcDbPolyline
 90
       14
 70
   128
 43
0.0
 10
260.3286327568
 20
33.0813341517
 10
260.3218963404
 20
33.4492865123
 10
260.3917743335
 20
34.0895800852
 10
260.5593177698
 20
34.759907127
 10
260.8183936245
 20
35.4357310937
 10
261.1595190211
 20
36.0923148746
 10
261.5702076265
 20
36.7056247365
 10
262.035426516
 20
37.2532117045
 10
262.5381472514
 20
37.7150318835
 10
263.0599684942
 20
38.0741813635
 10
263.5817897369
 20
38.3175138662
 10
264.0845104723
 20
38.4361226936
 10
264.5497293618
 20
38.4256660223
 10
264.7584925807
 20
38.3734516826
  0
LWPOLYLINE
  5
283
330
1F
100
AcDbEntity
  8
0
  6
Continuous
 62
     7
370
    18
100
AcDbPolyline
 90
       24
 70
   128
 43
0.0
 10
229.5114649622
 20
45.2521445768
 10
229.5606154316
 20
46.2911711546
 10
229.7074484663
 20
47.3738790609
 10
229.9501175077
 20
48.4866526659
 10
230.285571519
 20
49.615498503
 10
230.709590547
 20
50.7462202668
 10
231.2168436739
 20
51.8645987518
 10
231.800951579
 20
52.9565694154
 10
232.4545681985
 20
54.0084005079
 10
233.1694745674
 20
55.0068643584
 10
233.9366802363
 20
55.9394042869
 10
234.7465367049
 20
56.7942943855
 10
235.5888599116
 20
57.5607824745
 10
236.4530570858
 20
58.229230253
 10
237.3282605143
 20
58.7912315857
 10
238.2034639428
 20
59.2397186227
 10
239.067661117
 20
59.5690516631
 10
239.9099843237
 20
59.7750892478
 10
240.7198407923
 20
59.8552395249
 10
241.4870464612
 20
59.8084964071
 10
242.2019528302
 20
59.6354458808
 10
242.8555694496
 20
59.3382644739
 10
243.4396773548
 20
58.9206904427
 10
243.7621376244
 20
58.6052391895
  0
LWPOLYLINE
  5
284
330
1F
100
AcDbEntity
  8
0
  6
Continuous
 62
     7
370
    18
100
AcDbPolyline
 90
       10
 70
   128
 43
0.0
 10
232.8922184392
 20
39.7716020955
 10
232.4545681985
 20
39.8939233131
 10
231.800951579
 20
40.19110472
 10
231.2168436739
 20
40.6086787512
 10
230.709590547
 20
41.1413952421
 10
230.285571519
 20
41.7825550567
 10
229.9501175077
 20
42.5240939365
 10
229.7074484663
 20
43.3566878301
 10
229.5606154316
 20
44.269865923
 10
229.5114649622
 20
45.2521445768
  0
LWPOLYLINE
  5
285
330
1F
100
AcDbEntity
  8
0
  6
Continuous
 62
     7
370
    18
100
AcDbPolyline
 90
        3
 70
   128
 43
0.0
 10
226.0788952277
 20
47.8666133784
 10
226.4234766658
 20
49.1814632096
 10
226.4931184061
 20
49.4130913901
  0
LWPOLYLINE
  5
286
330
1F
100
AcDbEntity
  8
0
  6
Continuous
 62
     7
370
    18
100
AcDbPolyline
 90
       13
 70
   128
 43
0.0
 10
231.9838600112
 20
59.072414798
 10
232.9301571883
 20
60.0583150022
 10
233.9136293675
 20
60.9634978028
 10
234.9201764524
 20
61.7739777093
 10
235.9409215511
 20
62.4826066092
 10
236.9668622366
 20
63.0831357919
 10
237.9889503957
 20
63.5702681279
 10
238.9981716652
 20
63.9397077288
 10
239.9856255691
 20
64.1881970839
 10
240.942603021
 20
64.3135427899
 10
241.8606644438
 20
64.3146408762
 10
242.7317130327
 20
64.1914810758
 10
243.5480665368
 20
63.9451494802
  0
LWPOLYLINE
  5
287
330
1F
100
AcDbEntity
  8
0
  6
Continuous
 62
     7
370
    18
100
AcDbPolyline
 90
       22
 70
   128
 43
0.0
 10
225.6452127176
 20
47.8611758118
 10
225.9887740703
 20
49.1937190486
 10
226.4225053127
 20
50.5363383229
 10
226.9426198138
 20
51.8773129754
 10
227.5445775679
 20
53.2049368664
 10
228.2231240482
 20
54.507620274
 10
228.9723349884
 20
55.7739910316
 10
229.785670383
 20
56.9929937631
 10
230.6560304636
 20
58.1539883578
 10
231.5758162852
 20
59.2468381779
 10
232.5369992023
 20
60.2620033997
 10
233.5311883702
 20
61.190622566
 10
234.5497043369
 20
62.0245885309
 10
235.5836561753
 20
62.7566211243
 10
236.6240177919
 20
63.3803302155
 10
237.661707035
 20
63.8902705066
 10
238.6876652955
 20
64.281991288
 10
239.6929361211
 20
64.5520719349
 10
240.6687443239
 20
64.698155408
 10
241.606570643
 20
64.7189662599
 10
242.4982287116
 20
64.6143223674
 10
243.3359348628
 20
64.3851379669
  0
LWPOLYLINE
  5
288
330
1F
100
AcDbEntity
  8
0
  6
Continuous
 62
     7
370
    18
100
AcDbPolyline
 90
       16
 70
   128
 43
0.0
 10
237.5643026223
 20
38.2636711242
 10
237.2362248034
 20
38.0439980007
 10
236.1911617963
 20
37.4203817231
 10
235.1492006162
 20
36.9139753475
 10
234.1198785927
 20
36.5294146874
 10
233.1126178102
 20
36.2702188277
 10
232.1366377273
 20
36.1387609732
 10
231.2008719939
 20
36.1362440035
 10
230.3138856401
 20
36.2626906892
 10
229.4837988489
 20
36.5169445549
 10
228.7182079311
 20
36.8966782516
 10
228.0241224346
 20
37.3984150456
 10
227.4078940211
 20
38.0175630464
 10
226.8751637828
 20
38.7484539945
 10
226.4308089004
 20
39.5843995416
 10
226.0788952277
 20
40.5177463877
  0
ARC
  5
289
330
1F
100
AcDbEntity
  8
0
  6
Continuous
 62
     7
370
    18
100
AcDbCircle
 10
240.5558853891
 20
58.0625659833
 30
0.0
 40
6.701305418784762
100
AcDbArc
 50
13.117112618
 51
49.5620710787
  0
LWPOLYLINE
  5
28A
330
1F
100
AcDbEntity
  8
0
  6
Continuous
 62
     7
370
    18
100
AcDbPolyline
 90
       30
 70
   128
 43
0.0
 10
227.6855541663
 20
45.1196843459
 10
227.7340052614
 20
46.2152325838
 10
227.8788277598
 20
47.354718169
 10
228.1184339107
 20
48.5256562558
 10
228.4501994142
 20
49.7152179864
 10
228.8704897631
 20
50.9103710789
 10
229.3746990973
 20
52.0980196538
 10
229.9573042039
 20
53.2651530897
 10
230.6119211525
 20
54.3989829007
 10
231.3313783932
 20
55.4870875985
 10
232.1077928193
 20
56.5175444351
 10
232.9326586696
 20
57.4790651369
 10
233.7969377503
 20
58.3611133881
 10
234.6911613436
 20
59.1540260196
 10
235.6055318714
 20
59.8491165654
 10
236.5300314722
 20
60.4387683611
 10
237.4545310731
 20
60.9165210842
 10
238.3689016008
 20
61.2771402784
 10
239.2631251941
 20
61.5166762314
 10
240.1274042748
 20
61.6325033663
 10
240.9522701251
 20
61.6233525036
 10
241.7286845512
 20
61.4893246823
 10
242.448141792
 20
61.2318876334
 10
243.1027587405
 20
60.8538624634
 10
243.6853638471
 20
60.3593905656
 10
244.1895731813
 20
59.7538896966
 10
244.6098635302
 20
59.043993512
 10
244.9416290337
 20
58.2374800783
 10
245.1812351846
 20
57.3431853649
 10
245.2125430491
 20
57.1834182993
  0
LWPOLYLINE
  5
28B
330
1F
100
AcDbEntity
  8
0
  6
Continuous
 62
     7
370
    18
100
AcDbPolyline
 90
       15
 70
   128
 43
0.0
 10
234.7999148654
 20
39.2107556746
 10
234.6911613436
 20
39.1738445504
 10
233.7969377503
 20
38.9343085973
 10
232.9326586696
 20
38.8184814624
 10
232.1077928193
 20
38.8276323251
 10
231.3313783932
 20
38.9616601464
 10
230.6119211525
 20
39.2190971953
 10
229.9573042039
 20
39.5971223653
 10
229.3746990973
 20
40.0915942631
 10
228.8704897631
 20
40.6970951322
 10
228.4501994142
 20
41.4069913167
 10
228.1184339107
 20
42.2135047504
 10
227.8788277598
 20
43.1077994639
 10
227.7340052614
 20
44.0800765515
 10
227.6855541663
 20
45.1196843459
  0
LWPOLYLINE
  5
28C
330
1F
100
AcDbEntity
  8
0
  6
Continuous
 62
     7
370
    18
100
AcDbPolyline
 90
       27
 70
   128
 43
0.0
 10
216.3244551353
 20
49.0314953812
 10
216.3733915777
 20
50.2640238531
 10
216.5197688997
 20
51.5422203854
 10
216.7623016223
 20
52.8548529667
 10
217.0988586957
 20
54.1903858601
 10
217.5264819377
 20
55.537082549
 10
218.0414130351
 20
56.883107922
 10
218.6391277868
 20
58.2166337834
 10
219.314372325
 20
59.5259396117
 10
220.0612138221
 20
60.7995205403
 10
220.8730879064
 20
62.0261839319
 10
221.7428599068
 20
63.195148613
 10
222.6628870849
 20
64.2961439187
 10
223.6250831728
 20
65.3194925767
 10
224.6209931175
 20
66.2562025264
 10
225.6418645332
 20
67.0980408673
 10
226.6787259858
 20
67.8376102305
 10
227.7224654625
 20
68.4684100479
 10
228.763910529
 20
68.9848987959
 10
229.79390896
 20
69.3825359797
 10
230.8034092877
 20
69.6578271116
 10
231.7835395182
 20
69.8083539441
 10
232.7256868771
 20
69.8327938898
 10
233.621571155
 20
69.7309304234
 10
234.4633194524
 20
69.5036604892
 10
235.243534668
 20
69.1529800457
 10
235.3357473628
 20
69.1009789255
  0
LWPOLYLINE
  5
28D
330
1F
100
AcDbEntity
  8
0
  6
Continuous
 62
     7
370
    18
100
AcDbPolyline
 90
       10
 70
   128
 43
0.0
 10
219.5870268735
 20
41.8204398051
 10
219.314372325
 20
41.9891360583
 10
218.6391277868
 20
42.5188211376
 10
218.0414130351
 20
43.1622402359
 10
217.5264819377
 20
43.9137388188
 10
217.0988586957
 20
44.7667122216
 10
216.7623016223
 20
45.7136645893
 10
216.5197688997
 20
46.7462748495
 10
216.3733915777
 20
47.8554677231
 10
216.3244551353
 20
49.0314953812
  0
LWPOLYLINE
  5
28E
330
1F
100
AcDbEntity
  8
0
  6
Continuous
 62
     7
370
    18
100
AcDbPolyline
 90
       16
 70
   128
 43
0.0
 10
223.9930285971
 20
49.793395463
 10
224.3199083589
 20
51.0760352681
 10
224.742649152
 20
52.3693030529
 10
225.2567524588
 20
53.6594352415
 10
225.8567464331
 20
54.9327002886
 10
226.5362451688
 20
56.1755473448
 10
227.2880165301
 20
57.3747476959
 10
228.1040598597
 20
58.5175396242
 10
228.9756892848
 20
59.5917582495
 10
229.8936285476
 20
60.5859731641
 10
230.8481076463
 20
61.4896004968
 10
231.828968038
 20
62.2930237217
 10
232.825770434
 20
62.9876923893
 10
233.8279056823
 20
63.5662127539
 10
234.8247080783
 20
64.0224276355
 10
235.1390916288
 20
64.1411358612
  0
LWPOLYLINE
  5
28F
330
1F
100
AcDbEntity
  8
0
  6
Continuous
 62
     7
370
    18
100
AcDbPolyline
 90
       18
 70
   128
 43
0.0
 10
223.5672104255
 20
50.4415404505
 10
223.9373921229
 20
51.7426113338
 10
224.4008612596
 20
53.0487563976
 10
224.9528690713
 20
54.3465953628
 10
225.5877619532
 20
55.6228332067
 10
226.29903612
 20
56.864397042
 10
227.0794041179
 20
58.0585672896
 10
227.9208731924
 20
59.1931122738
 10
228.8148229959
 20
60.2564091279
 10
229.7520958083
 20
61.237565841
 10
230.7230905448
 20
62.1265310402
 10
231.7178603843
 20
62.91419826
 10
232.726214968
 20
63.5924991613
 10
233.7378249019
 20
64.1544859122
 10
234.7423272884
 20
64.5943997156
 10
235.7294321638
 20
64.9077360556
 10
236.689027824
 20
65.0912842087
 10
237.4584876908
 20
65.1436820462
  0
LINE
  5
290
330
1F
100
AcDbEntity
  8
0
  6
Continuous
 62
     7
370
    18
100
AcDbLine
 10
217.9740918204
 20
48.4939319511
 30
0.0
 11
219.7716009088
 21
49.5316118602
 31
0.0
  0
LWPOLYLINE
  5
291
330
1F
100
AcDbEntity
  8
0
  6
Continuous
 62
     7
370
    18
100
AcDbPolyline
 90
        3
 70
   128
 43
0.0
 10
226.1516143464
 20
39.2280330185
 10
225.9998310326
 20
39.5512652826
 10
225.6452127176
 20
40.5123088212
  0
LWPOLYLINE
  5
292
330
1F
100
AcDbEntity
  8
0
  6
Continuous
 62
     7
370
    18
100
AcDbPolyline
 90
       19
 70
   128
 43
0.0
 10
209.1048960464
 20
61.279304229
 10
209.5055973305
 20
62.4247503621
 10
209.9909433158
 20
63.5626158632
 10
210.5550433217
 20
64.6790908987
 10
211.1910521073
 20
65.7606256129
 10
211.8912498847
 20
66.7940938098
 10
212.6471391248
 20
67.7669530217
 10
213.449545644
 20
68.6673960218
 10
214.2887310508
 20
69.4844944464
 10
215.1545110367
 20
70.2083317219
 10
216.0363777831
 20
70.8301231588
 10
216.9236285426
 20
71.3423221197
 10
217.8054952891
 20
71.7387123557
 10
218.671275275
 20
72.0144833747
 10
219.5104606817
 20
72.1662877971
 10
220.3128672009
 20
72.1922836442
 10
221.068756441
 20
72.0921555723
 10
221.7689542184
 20
71.8671185213
 10
221.9690710771
 20
71.7745208012
  0
ARC
  5
293
330
1F
100
AcDbEntity
  8
0
  6
Continuous
 62
     7
370
    18
100
AcDbCircle
 10
212.9718580439
 20
55.5845159767
 30
0.0
 40
4.256419601233724
100
AcDbArc
 50
204.7009669482
 51
235.929743574
  0
LINE
  5
294
330
1F
100
AcDbEntity
  8
0
  6
Continuous
 62
     7
370
    18
100
AcDbLine
 10
217.9740918204
 20
47.6773911004
 30
0.0
 11
219.7716009088
 21
48.7150710095
 31
0.0
  0
LINE
  5
295
330
1F
100
AcDbEntity
  8
0
  6
Continuous
 62
     7
370
    18
100
AcDbLine
 10
221.2611505483
 20
43.0431740405
 30
0.0
 11
222.6000281678
 21
43.8160916383
 31
0.0
  0
LINE
  5
296
330
1F
100
AcDbEntity
  8
0
  6
Continuous
 62
     7
370
    18
100
AcDbLine
 10
224.9490850745
 20
42.6070939377
 30
0.0
 11
224.7779168445
 21
43.1262244021
 31
0.0
  0
LWPOLYLINE
  5
297
330
1F
100
AcDbEntity
  8
0
  6
Continuous
 62
     7
370
    18
100
AcDbPolyline
 90
        3
 70
   128
 43
0.0
 10
224.6189303709
 20
42.0765988603
 10
224.3199083589
 20
42.6740982773
 10
223.9930285971
 20
43.5793307428
  0
LWPOLYLINE
  5
298
330
1F
100
AcDbEntity
  8
0
  6
Continuous
 62
     7
370
    18
100
AcDbPolyline
 90
        3
 70
   128
 43
0.0
 10
224.3461632113
 20
41.5264673484
 10
223.9372959754
 20
42.2191950113
 10
223.5672104255
 20
43.0926734599
  0
LINE
  5
299
330
1F
100
AcDbEntity
  8
0
  6
Continuous
 62
     7
370
    18
100
AcDbLine
 10
240.3145767826
 20
66.1290250737
 30
0.0
 11
239.7735877377
 21
65.8167187457
 31
0.0
  0
ARC
  5
29A
330
1F
100
AcDbEntity
  8
0
  6
Continuous
 62
     7
370
    18
100
AcDbCircle
 10
212.8673351194
 20
59.7832132605
 30
0.0
 40
1.102097410650209
100
AcDbArc
 50
159.4112025223
 51
213.191486534
  0
ARC
  5
29B
330
1F
100
AcDbEntity
  8
0
  6
Continuous
 62
     7
370
    18
100
AcDbCircle
 10
211.5355104622
 20
59.6117154754
 30
0.0
 40
0.6345234148778739
100
AcDbArc
 50
41.9991509505
 51
61.7717641965
  0
LINE
  5
29C
330
1F
100
AcDbEntity
  8
0
  6
Continuous
 62
     7
370
    18
100
AcDbLine
 10
211.8356305327
 20
60.1707753177
 30
0.0
 11
211.9451774359
 21
60.5815731761
 31
0.0
  0
LINE
  5
29D
330
1F
100
AcDbEntity
  8
0
  6
Continuous
 62
     7
370
    18
100
AcDbLine
 10
211.8356305327
 20
60.1707753177
 30
0.0
 11
211.0335858837
 21
60.6337858381
 31
0.0
  0
LINE
  5
29E
330
1F
100
AcDbEntity
  8
0
  6
Continuous
 62
     7
370
    18
100
AcDbLine
 10
209.1593543845
 20
61.7952461535
 30
0.0
 11
209.1431179697
 21
61.9903847822
 31
0.0
  0
ARC
  5
29F
330
1F
100
AcDbEntity
  8
0
  6
Continuous
 62
     7
370
    18
100
AcDbCircle
 10
211.6256668815
 20
51.5181535091
 30
0.0
 40
0.4314949854781345
100
AcDbArc
 50
27.885175929
 51
60.8829215863
  0
ARC
  5
2A0
330
1F
100
AcDbEntity
  8
0
  6
Continuous
 62
     7
370
    18
100
AcDbCircle
 10
213.0753655718
 20
52.2902142418
 30
0.0
 40
1.30116985863059
100
AcDbArc
 50
165.9701496118
 51
197.6767200265
  0
LINE
  5
2A1
330
1F
100
AcDbEntity
  8
0
  6
Continuous
 62
     7
370
    18
100
AcDbLine
 10
211.4438591121
 20
54.803984917
 30
0.0
 11
210.123128345
 21
55.5664265598
 31
0.0
  0
LINE
  5
2A2
330
1F
100
AcDbEntity
  8
0
  6
Continuous
 62
     7
370
    18
100
AcDbLine
 10
211.8356305327
 20
51.8951192737
 30
0.0
 11
211.0335858837
 21
52.3581297941
 31
0.0
  0
LINE
  5
2A3
330
1F
100
AcDbEntity
  8
0
  6
Continuous
 62
     7
370
    18
100
AcDbLine
 10
211.8356305327
 20
51.8951192737
 30
0.0
 11
211.9451774359
 21
51.6108015776
 31
0.0
  0
OLE2FRAME
  5
2A4
330
1F
100
AcDbEntity
  8
0
100
AcDbOle2Frame
 70
     2
  3
Paintbrush-Bild
 10
13.8511154363
 20
38.264191557
 30
0.0
 11
51.6290888628
 21
31.9806341108
 31
0.0
 71
     2
 72
     0
 73
     1
 90
    12928
310
80552BED0767C5B32B40DDAF6807D121434000000000000000006FFBDDFB85D0
310
4940DDAF6807D121434000000000000000006FFBDDFB85D04940416F4BD60AFB
310
3F4000000000000000002BED0767C5B32B40416F4BD60AFB3F40000000000000
310
0000000000000100000000010000010000000100000000000100000000320000
310
D0CF11E0A1B11AE1000000000000000000000000000000003E000300FEFF0900
310
0600000000000000000000000100000001000000000000000010000002000000
310
01000000FEFFFFFF0000000000000000FFFFFFFFFFFFFFFFFFFFFFFFFFFFFFFF
310
FFFFFFFFFFFFFFFFFFFFFFFFFFFFFFFFFFFFFFFFFFFFFFFFFFFFFFFFFFFFFFFF
310
FFFFFFFFFFFFFFFFFFFFFFFFFFFFFFFFFFFFFFFFFFFFFFFFFFFFFFFFFFFFFFFF
310
FFFFFFFFFFFFFFFFFFFFFFFFFFFFFFFFFFFFFFFFFFFFFFFFFFFFFFFFFFFFFFFF
310
FFFFFFFFFFFFFFFFFFFFFFFFFFFFFFFFFFFFFFFFFFFFFFFFFFFFFFFFFFFFFFFF
310
FFFFFFFFFFFFFFFFFFFFFFFFFFFFFFFFFFFFFFFFFFFFFFFFFFFFFFFFFFFFFFFF
310
FFFFFFFFFFFFFFFFFFFFFFFFFFFFFFFFFFFFFFFFFFFFFFFFFFFFFFFFFFFFFFFF
310
FFFFFFFFFFFFFFFFFFFFFFFFFFFFFFFFFFFFFFFFFFFFFFFFFFFFFFFFFFFFFFFF
310
FFFFFFFFFFFFFFFFFFFFFFFFFFFFFFFFFFFFFFFFFFFFFFFFFFFFFFFFFFFFFFFF
310
FFFFFFFFFFFFFFFFFFFFFFFFFFFFFFFFFFFFFFFFFFFFFFFFFFFFFFFFFFFFFFFF
310
FFFFFFFFFFFFFFFFFFFFFFFFFFFFFFFFFFFFFFFFFFFFFFFFFFFFFFFFFFFFFFFF
310
FFFFFFFFFFFFFFFFFFFFFFFFFFFFFFFFFFFFFFFFFFFFFFFFFFFFFFFFFFFFFFFF
310
FFFFFFFFFFFFFFFFFFFFFFFFFFFFFFFFFFFFFFFFFFFFFFFFFFFFFFFFFFFFFFFF
310
FFFFFFFFFFFFFFFFFFFFFFFFFFFFFFFFFFFFFFFFFFFFFFFFFFFFFFFFFFFFFFFF
310
FDFFFFFFFEFFFFFFFEFFFFFFFEFFFFFF05000000060000000700000008000000
310
090000000A0000000B0000000C0000000D0000000E0000000F00000010000000
310
11000000120000001300000014000000150000001600000017000000FEFFFFFF
310
FFFFFFFFFFFFFFFFFFFFFFFFFFFFFFFFFFFFFFFFFFFFFFFFFFFFFFFFFFFFFFFF
310
FFFFFFFFFFFFFFFFFFFFFFFFFFFFFFFFFFFFFFFFFFFFFFFFFFFFFFFFFFFFFFFF
310
FFFFFFFFFFFFFFFFFFFFFFFFFFFFFFFFFFFFFFFFFFFFFFFFFFFFFFFFFFFFFFFF
310
FFFFFFFFFFFFFFFFFFFFFFFFFFFFFFFFFFFFFFFFFFFFFFFFFFFFFFFFFFFFFFFF
310
FFFFFFFFFFFFFFFFFFFFFFFFFFFFFFFFFFFFFFFFFFFFFFFFFFFFFFFFFFFFFFFF
310
FFFFFFFFFFFFFFFFFFFFFFFFFFFFFFFFFFFFFFFFFFFFFFFFFFFFFFFFFFFFFFFF
310
FFFFFFFFFFFFFFFFFFFFFFFFFFFFFFFFFFFFFFFFFFFFFFFFFFFFFFFFFFFFFFFF
310
FFFFFFFFFFFFFFFFFFFFFFFFFFFFFFFFFFFFFFFFFFFFFFFFFFFFFFFFFFFFFFFF
310
FFFFFFFFFFFFFFFFFFFFFFFFFFFFFFFFFFFFFFFFFFFFFFFFFFFFFFFFFFFFFFFF
310
FFFFFFFFFFFFFFFFFFFFFFFFFFFFFFFFFFFFFFFFFFFFFFFFFFFFFFFFFFFFFFFF
310
FFFFFFFFFFFFFFFFFFFFFFFFFFFFFFFFFFFFFFFFFFFFFFFFFFFFFFFFFFFFFFFF
310
FFFFFFFFFFFFFFFFFFFFFFFFFFFFFFFFFFFFFFFFFFFFFFFFFFFFFFFFFFFFFFFF
310
FFFFFFFFFFFFFFFFFFFFFFFFFFFFFFFFFFFFFFFFFFFFFFFFFFFFFFFFFFFFFFFF
310
52006F006F007400200045006E00740072007900000000000000000000000000
310
0000000000000000000000000000000000000000000000000000000000000000
310
16000500FFFFFFFFFFFFFFFF020000000A00030000000000C000000000000046
310
00000000000000000000000080F5948232A7D30103000000C000000000000000
310
01004F006C006500000000000000000000000000000000000000000000000000
310
0000000000000000000000000000000000000000000000000000000000000000
310
0A000200FFFFFFFFFFFFFFFFFFFFFFFF00000000000000000000000000000000
310
0000000000000000000000000000000000000000000000001400000000000000
310
010043006F006D0070004F0062006A0000000000000000000000000000000000
310
0000000000000000000000000000000000000000000000000000000000000000
310
120002010100000003000000FFFFFFFF00000000000000000000000000000000
310
0000000000000000000000000000000000000000010000004D00000000000000
310
01004F006C006500310030004E00610074006900760065000000000000000000
310
0000000000000000000000000000000000000000000000000000000000000000
310
1A000200FFFFFFFFFFFFFFFFFFFFFFFF00000000000000000000000000000000
310
0000000000000000000000000000000000000000040000002426000000000000
310
FEFFFFFF02000000FEFFFFFFFFFFFFFFFFFFFFFFFFFFFFFFFFFFFFFFFFFFFFFF
310
FFFFFFFFFFFFFFFFFFFFFFFFFFFFFFFFFFFFFFFFFFFFFFFFFFFFFFFFFFFFFFFF
310
FFFFFFFFFFFFFFFFFFFFFFFFFFFFFFFFFFFFFFFFFFFFFFFFFFFFFFFFFFFFFFFF
310
FFFFFFFFFFFFFFFFFFFFFFFFFFFFFFFFFFFFFFFFFFFFFFFFFFFFFFFFFFFFFFFF
310
FFFFFFFFFFFFFFFFFFFFFFFFFFFFFFFFFFFFFFFFFFFFFFFFFFFFFFFFFFFFFFFF
310
FFFFFFFFFFFFFFFFFFFFFFFFFFFFFFFFFFFFFFFFFFFFFFFFFFFFFFFFFFFFFFFF
310
FFFFFFFFFFFFFFFFFFFFFFFFFFFFFFFFFFFFFFFFFFFFFFFFFFFFFFFFFFFFFFFF
310
FFFFFFFFFFFFFFFFFFFFFFFFFFFFFFFFFFFFFFFFFFFFFFFFFFFFFFFFFFFFFFFF
310
FFFFFFFFFFFFFFFFFFFFFFFFFFFFFFFFFFFFFFFFFFFFFFFFFFFFFFFFFFFFFFFF
310
FFFFFFFFFFFFFFFFFFFFFFFFFFFFFFFFFFFFFFFFFFFFFFFFFFFFFFFFFFFFFFFF
310
FFFFFFFFFFFFFFFFFFFFFFFFFFFFFFFFFFFFFFFFFFFFFFFFFFFFFFFFFFFFFFFF
310
FFFFFFFFFFFFFFFFFFFFFFFFFFFFFFFFFFFFFFFFFFFFFFFFFFFFFFFFFFFFFFFF
310
FFFFFFFFFFFFFFFFFFFFFFFFFFFFFFFFFFFFFFFFFFFFFFFFFFFFFFFFFFFFFFFF
310
FFFFFFFFFFFFFFFFFFFFFFFFFFFFFFFFFFFFFFFFFFFFFFFFFFFFFFFFFFFFFFFF
310
FFFFFFFFFFFFFFFFFFFFFFFFFFFFFFFFFFFFFFFFFFFFFFFFFFFFFFFFFFFFFFFF
310
FFFFFFFFFFFFFFFFFFFFFFFFFFFFFFFFFFFFFFFFFFFFFFFFFFFFFFFFFFFFFFFF
310
0100000200000000000000000000000000000000000000000000000000000000
310
0000000000000000000000000000000000000000000000000000000000000000
310
0100FEFF030A0000FFFFFFFF0A00030000000000C00000000000004607000000
310
5042727573680007000000504272757368000700000050427275736800F439B2
310
7100000000000000000000000000000000000000000000000000000000000000
310
0000000000000000000000000000000000000000000000000000000000000000
310
0000000000000000000000000000000000000000000000000000000000000000
310
0000000000000000000000000000000000000000000000000000000000000000
310
0000000000000000000000000000000000000000000000000000000000000000
310
0000000000000000000000000000000000000000000000000000000000000000
310
0000000000000000000000000000000000000000000000000000000000000000
310
0000000000000000000000000000000000000000000000000000000000000000
310
0000000000000000000000000000000000000000000000000000000000000000
310
0000000000000000000000000000000000000000000000000000000000000000
310
0000000000000000000000000000000000000000000000000000000000000000
310
0000000000000000000000000000000000000000000000000000000000000000
310
20260000424D0E260000000000003E00000028000000B40200006E0000000100
310
01000000000000000000130B0000130B00000200000002000000000000FFFFFF
310
FFFFFFFFFFFFFFFFFFFFFFFFFFFFFFFFFFFFFFFFFFFFFFFFFFFFFFFFFFFFFFFF
310
FFFFFFFFFFFFFFFFFFFFFFFFFFFFFFFFFFFFFFFFFFFFFFFFFFFFFFFFFFFFFFFF
310
FFFFFFFFFFFFFFFFFFFFFFFFFFFFFFFFFFFFFFFFFFFFFFFFF000FFFFFFFFFFFF
310
FFFFFFFFFFFFFFFFFFFFFFFFFFFFFFFFFFFFFFFFFFFFFFFFFFFFFFFFFFFFFFFF
310
FFFFFFFFFFFFFFFFFFFFFFFFFFFFFFFFFFFFFFFFFFFFFFFFFFFFFFFFFFFFFFFF
310
FFFFFFFFFFFFFFFFFFFFFFFFFFFFFFFFF000FFFFFFFFFFFFFFFFFFFFFFFFFFFF
310
FFFFFFFFFFFFFFFFFFFFFFFFFFFFFFFFFFFFFFFFFFFFFFFFFFFFFFFFFFFFFFFF
310
FFFFFFFFFFFFFFFFFFFFFFFFFFFFFFFFFFFFFFFFFFFFFFFFFFFFFFFFFFFFFFFF
310
FFFFFFFFFFFFFFFFF000FFFFFFFFFFFFFFFFFFFFFFFFFFFFFFFFFFFFFFFFFFFF
310
FFFFFFFFFFFFFFFFFFFFFFFFFFFFFFFFFFFFFFFFFFFFFFFFFFFFFFFFFFFFFFFF
310
FFFFFFFFFFFFFFFFFFFFFFFFFFFFFFFFFFFFFFFFFFFFFFFFFFFFFFFFFFFFFFFF
310
F000FFFFFFFFFFFFFFFFFFFFFFFFFFFFFFFFFFFFFFFFFFFFFFFFFFFFFFFFFFFF
310
FFFFFFFFFFFFFFFFFFFFFFFFFFFFFFFFFFFFFFFFFFFFFFFFFFFFFFFFFFFFFFFF
310
FFFFFFFFFFFFFFFFFFFFFFFFFFFFFFFFFFFFFFFFFFFFFFFFF000FFFFFFFFFFFF
310
FFFFFFFFFFFFFFFFFFFFFFFFFFFFFFFFFFFFFFFFFFFFFFFFFFFFFFFFFFFFFFFF
310
FFFFFFFFFFFFFFFFFFFFFFFFFFFFFFFFFFFFFFFFFFFFFFFFFFFFFFFFFFFFFFFF
310
FFFFFFFFFFFFFFFFFFFFFFFFFFFFFFFFF000FFFFFFFFFFFFFFFFFFFFFFFFFFFF
310
FFFFFFFFFFFFFFFFFFFFFFFFFFFFFFFFFFFFFFFFFFFFFFFFFFFFFFFFFFFFFFFF
310
FFFFFFFFFFFFFFFFFFFFFFFFFFFFFFFFFFFFFFFFFFFFFFFFFFFFFFFFFFFFFFFF
310
FFFFFFFFFFFFFFFFF000FFFFFFFFFFFFFFFFFFFFFFFFFFFFFFFFFFFFFFFFFFFF
310
FFFFFFFFFFFFFFFFFFFFFFFFFFFFFFFFFFFFFFFFFFFFFFFFFFFFFFFFFFFFFFFF
310
FFFFFFFFFFFFFFFFFFFFFFFFFFFFFFFFFFFFFFFFFFFFFFFFFFFFFFFFFFFFFFFF
310
F000FFFFFFFFFFFFFFFFFFFFFFFFFFFFFFFFFFFFFFFFFFFFFFFFFFFFFFFFFFFF
310
FFFFFFFFFFFFFFFFFFFFFFFFFFFFFFFFFFFFFFFFFFFFFFFFFFFFFFFFFFFFFFFF
310
FFFFFFFFFFFFFFFFFFFFFFFFFFFFFFFFFFFFFFFFFFFFFFFFF000FFFFFFFFFFFF
310
FFFFFFFFFFFFFFFFFFFFFFFFFFFFFFFFFFFFFFFFFFFFFFFFFFFFFFFFFFFFFFFF
310
FFFFFFFFFFFFFFFFFFFFFFFFFFFFFFFFFFFFFFFFFFFFFFFFFFFFFFFFFFFFFFFF
310
FFFFFFFFFFFFFFFFFFFFFFFFFFFFFFFFF000FFFFFFFFFFFFFFFFFFFFFFFFFFFF
310
FFFFFFFFFFFFFFFFFFFFFFFFFFFFFFFFFFFFFFFFFFFFFFFFFFFFFFFFFFFFFFFF
310
FFFFFFFFFFFFFFFFFFFFFFFFFFFFFFFFFFFFFFFFFFFFFFFFFFFFFFFFFFFFFFFF
310
FFFFFFFFFFFFFFFFF000FFFFFFFFFFFFFFFFFFFFFFFFFFFFFFFFFFFFFFFFFFFF
310
FFFFFFFFFFFFFFFFFFFFFFFFFFFFFFFFFFFFFFFFFFFFFFFFFFFFFFFFFFFFFFFF
310
FFFFFFFFFFFFFFFFFFFFFFFFFFFFFFFFFFFFFFFFFFFFFFFFFFFFFFFFFFFFFFFF
310
F000FFFFFFFFFFFFFFFFFFFFFFFFFFFFFFFFFFFFFFFFFFFFFFFFFFFFFFFFFFFF
310
FFFFFFFFFFFFFFFFFFFFFFFFFFFFFFFFFFFFFFFFFFFFFFFFFFFFFFFFFFFFFFFF
310
FFFFFFFFFFFFFFFFFFFFFFFFFFFFFFFFFFFFFFFFFFFFFFFFF000FFFFFFFFFFFF
310
FFFFFFFFFFFFFFFFFFFFFFFFFFFFFFFFFFFFFFFFFFFFFFFFFFFFFFFFFFFFFFFF
310
FFFFFFFFFFFFFFFFFFFFFFFFFFFFFFFFFFFFFFFFFFFFFFFFFFFFFFFFFFFFFFFF
310
FFFFFFFFFFFFFFFFFFFFFFFFFFFFFFFFF000FFFFFFFFFFFFFFFFFFFFFFFFFFFF
310
FFFFFFFFFFFFFFFFFFFFFFFFFFFFFFFFFFFFFFFFFFFFFFFFFFFFFFFFFFFFFFFF
310
FFFFFFFFFFFFFFFFFFFFFFFFFFFFFFFFFFFFFFFFFFFFFFFFFFFFFFFFFFFFFFFF
310
FFFFFFFFFFFFFFFFF000FFFFFFFFFFFFFFFFFFFFFFFFFFFFFFFFFFFFFFFFFFFF
310
FFFFFFFFFFFFFFFFFFFFFFFFFFFFFFFFFFFFFFFFFFFFFFFFFFFFFFFFFFFFFFFF
310
FFFFFFFFFFFFFFFFFFFFFFFFFFFFFFFFFFFFFFFFFFFFFFFFFFFFFFFFFFFFFFFF
310
F000FFFFFFFFFFFFFFFFFFFFFFFFFFFFFFFFFFFFFFFFFFFFFFFFFFFFFFFFFFFF
310
FFFFFFFFFFFFFFFFFFFFFFFFFFFFFFFFFFFFFFFFFFFFFFFFFFFFFFFFFFFFFFFF
310
FFFFFFFFFFFFFFFFFFFFFFFFFFFFFFFFFFFFFFFFFFFFFFFFF000FFFFFFFFFFFF
310
FFFFFFFFFFFFFFFFFFFFFFFFFFFFFFFFFFFFFFFFFFFFFFFFFFFFFFFFFFFFFFFF
310
FFFFFFFFFFFFFFFFFFFFFFFFFFFFFFFFFFFFFFFFFFFFFFFFFFFFFFFFFFFFFFFF
310
FFFFFFFFFFFFFFFFFFFFFFFFFFFFFFFFF000FFFFFFFFFFFFFFFFFFFFFFFFFFFF
310
FFFFFFFFFFFFFFFFFFFFFFFFFFFFFFFFFFFFFFFFFFFFFFFFFFFFFFFFFFFFFFFF
310
FFFFFFFFFFFFFFFFFFFFFFFFFFFFFFFFFFFFFFFFFFFFFFFFFFFFFFFFFFFFFFFF
310
FFFFFFFFFFFFFFFFF000FFFFF80003FFFFFFFFFFFFFFFFFFFFFFFFFFFFFFFFFF
310
FFFFF00007FFFFFFFFFF00007FFFFFF800000000000000007FFFFFFFFFFFFFFF
310
FFFFFFFC001FFFFFFFFFFFFFFC001FFFFFFFFFFFFFFFFFFFFFFFFFFE0007FFFF
310
F000FFFF8000007FFFFFFFF8000FFFFFC0007FFFFF80007FFFFF0000007FFFFF
310
FFF8000007FFFFF800000000000000007FFFFFF0001FFFFFFFFFFFC00001FFFF
310
FFFFFFFFC00001FFFFFFFF000000000003FFFFE000007FFFF000FFFE0000000F
310
FFFFFFF0000FFFFF80007FFFFF80007FFFFC0000001FFFFFFFC0000001FFFFF8
310
00000000000000007FFFFFF0001FFFFFFFFFFE0000003FFFFFFFFFFE0000003F
310
FFFFFF000000000003FFFF0000000FFFF000FFF800000003FFFFFFF00007FFFF
310
80007FFFFF80007FFFF000000007FFFFFF000000003FFFF80000000000000000
310
7FFFFFF0001FFFFFFFFFF80000000FFFFFFFFFF80000000FFFFFFF0000000000
310
03FFFC00000003FFF000FFE000000000FFFFFFF00007FFFF80003FFFFF80007F
310
FFC000000001FFFFFC000000001FFFF800000000000000007FFFFFF0001FFFFF
310
FFFFE000000003FFFFFFFFE000000003FFFFFF000000000003FFF000000000FF
310
F000FF80000000007FFFFFF00007FFFF80003FFFFF80007FFF8000000000FFFF
310
F80000000007FFF800000000000000007FFFFFF0001FFFFFFFFFC000000001FF
310
FFFFFFC000000001FFFFFF000000000003FFC0000000007FF000FF0000000000
310
3FFFFFE00007FFFF00003FFFFF80007FFE00000000003FFFF00000000003FFF8
310
00000000000000007FFFFFF0001FFFFFFFFF8000000000FFFFFFFF8000000000
310
FFFFFF000000000003FF80000000003FF000FE00000000001FFFFFE00003FFFF
310
00003FFFFF80007FFC00000000001FFFE00000000001FFF8000001FFFE000000
310
7FFFFFF0001FFFFFFFFE00000000003FFFFFFE00000000003FFFFF0000000000
310
03FF00000000001FF000FC00000000000FFFFFE00003FFFF00001FFFFF80007F
310
F800000000001FFFC00000000000FFF8000001FFFE0000007FFFFFF0001FFFFF
310
FFFC00000000001FFFFFFC00000000001FFFFF000000000003FE00000000000F
310
F000F8000000000007FFFFE00003FFFF00001FFFFF80007FF800000000000FFF
310
800000000000FFF8000001FFFE0000007FFFFFF0001FFFFFFFF800000000000F
310
FFFFF800000000000FFFFF000000000003FC000000000007F000F80000000000
310
03FFFFC00003FFFE00001FFFFF80007FF0000000000007FF0000000000007FF8
310
000001FFFE0000007FFFFFF0001FFFFFFFF0000000000007FFFFF00000000000
310
07FFFF000000000003F8000000000003F000F0000000000003FFFFC00001FFFE
310
00001FFFFF80007FE0000000000007FE0000000000003FF8000001FFFE000000
310
7FFFFFF0001FFFFFFFF0000000000007FFFFF0000000000007FFFF0000000000
310
03F800001F800003F000E00001FFF00001FFFFC00001FFFE00000FFFFF80007F
310
E00001FFE00003FE00001FFF00003FF8000001FFFE0000007FFFFFF0001FFFFF
310
FFE000003E000003FFFFE000003E000003FFFF000000000003F00001FFF80001
310
F000E00007FFFC0001FFFFC00001FFFE00000FFFFF80007FC0000FFFFC0003FC
310
0000FFFFC0001FF8000001FFFE0000007FFFFFF0001FFFFFFFC00003FFE00001
310
FFFFC00003FFE00001FFFF0001FFFFFFFFF00007FFFE0001F000E0000FFFFF00
310
00FFFF800001FFFC00000FFFFF80007FC0001FFFFE0001FC0001FFFFE0001FF8
310
000001FFFE0000007FFFFFF0001FFFFFFF80000FFFF80000FFFF80000FFFF800
310
00FFFF0003FFFFFFFFE0000FFFFF8000F000C0003FFFFF8000FFFF800000FFFC
310
000007FFFF80007F80003FFFFF0001FC0003FFFFF0001FF8000001FFFE000000
310
7FFFFFF0001FFFFFFF80003FFFFE0000FFFF80003FFFFE0000FFFF0003FFFFFF
310
FFE0003FFFFF8000F000C0003FFFFF8000FFFF800000FFFC000007FFFF80007F
310
80007FFFFF8001F80007FFFFF8000FF8000001FFFE0000007FFFFFF0001FFFFF
310
FF00007FFFFF00007FFF00007FFFFF00007FFF0003FFFFFFFFE0003FFFFFC000
310
F000C0007FFFFFC000FFFF000000FFFC000007FFFF80007F8000FFFFFF8000F8
310
000FFFFFF8000FF8000001FFFE0000007FFFFFF0001FFFFFFF0000FFFFFF8000
310
7FFF0000FFFFFF80007FFF0003FFFFFFFFC0007FFFFFC00070008000FFFFFFC0
310
00FFFF000000FFF8000007FFFF80007F8000FFFFFF8000F8000FFFFFF8000FF8
310
000001FFFE0000007FFFFFF0001FFFFFFE0001FFFFFFC0003FFE0001FFFFFFC0
310
003FFF0003FFFFFFFFC0007FFFFFE00070008000FFFFFFC0007FFF0000007FF8
310
000003FFFF80007F0001FFFFFF8000F8000FFFFFF8000FF8000001FFFE000000
310
7FFFFFF0001FFFFFFE0001FFFFFFC0003FFE0001FFFFFFC0003FFF0003FFFFFF
310
FFC000FFFFFFE00070008000FFFFFFC0007FFF0000007FF8000003FFFF80007F
310
0001FFFFFF8000F8001FFFFFF8000FF8000001FFFE0000007FFFFFF0001FFFFF
310
FE0003FFFFFFE0003FFE0003FFFFFFE0003FFF0003FFFFFFFFC000FFFFFFE000
310
70008000FFFFFFC0007FFE0000007FF8000003FFFF80007F0001FFFFFF8000F0
310
001FFFFFF8000FF8000001FFFE0000007FFFFFF0001FFFFFFC0003FFFFFFE000
310
1FFC0003FFFFFFE0001FFF0003FFFFFFFFC000FFFFFFC00070008000FFFFFF80
310
007FFE0000007FF0000003FFFF80007F0001FFFFFF0000F0001FFFFFF8000FF8
310
000001FFFE0000007FFFFFF0001FFFFFFC0007FFFFFFF0001FFC0007FFFFFFF0
310
001FFF0003FFFFFFFFC000FFFFFFC00070008001FFFFFF0000FFFE0000003FF0
310
000001FFFF80007F0001FFFFFF0000F8001FFFFFF0000FF8000001FFFE000000
310
7FFFFFF0001FFFFFFC0007FFFFFFF0001FFC0007FFFFFFF0001FFF0003FFFFFF
310
FFC001FFFFFF80007000FFFFFFFFFE0000FFFE0008003FF0008001FFFF80007F
310
FFFFFFFFFC0000FFFFFFFFFFE0000FF8000001FFFE0000007FFFFFF0001FFFFF
310
F8000FFFFFFFF8000FF8000FFFFFFFF8000FFF0003FFFFFFFFFFFFFFFFFF0000
310
7000FFFFFFFFFC0000FFFC0008003FF0008001FFFF80007FFFFFFFFFF80001FF
310
FFFFFFFF80000FF8000001FFFE0000007FFFFFF0001FFFFFF8000FFFFFFFF800
310
0FF8000FFFFFFFF8000FFF0003FFFFFFFFFFFFFFFFFE0000F000FFFFFFFFE000
310
00FFFC000C003FE000C001FFFF80007FFFFFFFFFC00001FFFFFFFFFE00001FF8
310
000001FFFE0000007FFFFFF0001FFFFFF8000FFFFFFFF8000FF8000FFFFFFFF8
310
000FFF0003FFFFFFFFFFFFFFFFF00000F000FFFFFFFE000001FFFC000C001FE0
310
00C000FFFF80007FFFFFFFFE000001FFFFFFFFE000001FF80FFFFFFFFFFFFFC0
310
7FFFFFF0001FFFFFF8000FFFFFFFF8000FF8000FFFFFFFF8000FFF0003FFFFFF
310
FFFFFFFFFF800000F000FFFFFFC0000001FFFC001C001FE001C000FFFF80007F
310
FFFFFF80000003FFFFFFF80000001FF80FFFFFFFFFFFFFC07FFFFFF0001FFFFF
310
F8001FFFFFFFFC000FF8001FFFFFFFFC000FFF0003FFFFFFFFFFFFFFF0000001
310
F000FFFFF800000001FFF8001C001FE001C000FFFF80007FFFFFF800000003FF
310
FFFF800000003FF80FFFFFFFFFFFFFC07FFFFFF0001FFFFFF8001FFFFFFFFC00
310
0FF8001FFFFFFFFC000FFF0003FFFFFFFFFFFFFE00000001F000FFFFC0000000
310
03FFF8001E001FC001E000FFFF80007FFFFF8000000007FFFFFC000000003FF8
310
0FFFFFFFFFFFFFC07FFFFFF0001FFFFFF8001FFFFFFFFC000FF8001FFFFFFFFC
310
000FFF0003FFFFFFFFFFFFE000000003F000FFFE0000000007FFF8001E000FC0
310
01E0007FFF80007FFFFE0000000007FFFFE0000000007FF80FFFFFFFFFFFFFC0
310
7FFFFFF0001FFFFFF0001FFFFFFFFC0007F0001FFFFFFFFC0007FF0003FFFFFF
310
FFFFFF0000000003F000FFF80000000007FFF8001E000FC003E0007FFF80007F
310
FFF0000000000FFFFF8000000000FFF80FFFFFFFFFFFFFC07FFFFFF0001FFFFF
310
F0001FFFFFFFFC0007F0001FFFFFFFFC0007FF0003FFFFFFFFFFFC0000000007
310
F000FFE0000000000FFFF0003E000FC003E0007FFF80007FFFC0000000001FFF
310
FE0000000001FFF80FFFFFFFFFFFFFC07FFFFFF0001FFFFFF0001FFFFFFFFC00
310
07F0001FFFFFFFFC0007FF0003FFFFFFFFFFF0000000000FF000FFC000000000
310
1FFFF0003F000F8003F0003FFF80007FFF80000000003FFFF80000000003FFF8
310
0FFFFFFFFFFFFFC07FFFFFF0001FFFFFF0001FFFFFFFFC0007F0001FFFFFFFFC
310
0007FF0003FFFFFFFFFFE0000000001FF000FF00000000007FFFF0003F000780
310
03F0003FFF80007FFF00000000007FFFF00000000007FFF80FFFFFFFFFFFFFC0
310
7FFFFFF0001FFFFFF0001FFFFFFFFC0007F0001FFFFFFFFC0007FF0003FFFFFF
310
FFFF80000000007FF000FE0000000000FFFFE0003F00078007F0003FFF80007F
310
FE0000000001FFFFE0000000001FFFF80FFFFFFFFFFFFFC07FFFFFF0001FFFFF
310
F0001FFFFFFFFC0007F0001FFFFFFFFC0007FF0003FFFFFFFFFF0000000000FF
310
F000FC0000000003FFFFE0007F00078007F0003FFF80007FFC0000000007FFFF
310
C0000000007FFFF80FFFFFFFFFFFFFC07FFFFFF0001FFFFFF8001FFFFFFFFC00
310
0FF8001FFFFFFFFC000FFF0003FFFFFFFFFE0000000003FFF000FC000000000F
310
FFFFE0007F80070007F8001FFF80007FF8000000001FFFFF8000000001FFFFF8
310
0FFFFFFFFFFFFFC07FFFFFF0001FFFFFF8001FFFFFFFFC000FF8001FFFFFFFFC
310
000FFF0003FFFFFFFFFC000000000FFFF000F8000000007FFFFFE0007F800700
310
07F8001FFF80007FF000000000FFFFFF800000000FFFFFF80FFFFFFFFFFFFFC0
310
7FFFFFF0001FFFFFF8000FFFFFFFF8000FF8000FFFFFFFF8000FFF0003FFFFFF
310
FFFC000000007FFFF000F800000007FFFFFFC0007F8003000FF8001FFF80007F
310
F000000007FFFFFF000000007FFFFFF80FFFFFFFFFFFFFC07FFFFFF0001FFFFF
310
F8000FFFFFFFF8000FF8000FFFFFFFF8000FFF0003FFFFFFFFF80000000FFFFF
310
F000F0000000FFFFFFFFC000FF8003000FF8001FFF80007FE0000000FFFFFFFF
310
0000000FFFFFFFF8000001FFFE0000007FFFFFF0001FFFFFF8000FFFFFFFF800
310
0FF8000FFFFFFFF8000FFF0003FFFFFFFFF8000000FFFFFFF000F000000FFFFF
310
FFFFC000FFC002000FF8000FFF80007FE000001FFFFFFFFE000001FFFFFFFFF8
310
000001FFFE0000007FFFFFF0001FFFFFF8000FFFFFFFF8000FF8000FFFFFFFF8
310
000FFF0003FFFFFFFFF000001FFFFFFFF000E00000FFFFFFFFFFC000FFC00200
310
0FFC000FFF80007FE00001FFFFFFFFFE00001FFFFFFFFFF8000001FFFE000000
310
7FFFFFF0001FFFFFFC000FFFFFFFF8001FFC000FFFFFFFF8001FFF0003FFFFFF
310
FFF00001FFFFFFFFF000E00007FFFFFFFFFF8000FFC000001FFC000FFF80007F
310
C0000FFFFFFFFFFE0000FFFFFFFFFFF8000001FFFE0000007FFFFFF0001FFFFF
310
FC0007FFFFFFF0001FFC0007FFFFFFF0001FFF0003FFFFFFFFF00007FFFFFFFF
310
F000E0001FFFFFFFFFFF8000FFC000001FFC000FFF80007FC0003FFFFFFFFFFE
310
0001FFFFFFFFFFF8000001FFFE0000007FFFFFF0001FFFFFFC0007FFFFFFF000
310
1FFC0007FFFFFFF0001FFF0003FFFFFFFFF0001FFFFFFFFFF000E0003FFFFF00
310
03FF8001FFE000001FFC0007FF80007FC0007FFFFF0007FC0003FFFFF0003FF8
310
000001FFFE0000007FFFFFF0001FFFFFFC0003FFFFFFE0001FFC0003FFFFFFE0
310
001FFF0003FFFFFFFFF0003FFFFFFFFFF000E0003FFFFF0001FF8001FFE00000
310
1FFE0007FF80007FC0007FFFFE0003FC0007FFFFE0003FF8000001FFFE000000
310
7FFFFFF0001FFFFFFE0003FFFFFFE0003FFE0003FFFFFFE0003FFF0003FFFFFF
310
FFF0003FFFFF8001F000E0003FFFFF0001FF0001FFE000001FFE0007FF80007F
310
C0007FFFFE0003FC0007FFFFE0003FF8000001FFFE0000007FFFFFF0001FFFFF
310
FE0001FFFFFFC0003FFE0001FFFFFFC0003FFF0003FFFFFFFFF0003FFFFF0001
310
F000E0003FFFFF0003FF0001FFE000003FFE0007FF80007FC0007FFFFE0003FC
310
0007FFFFE0003FF8000001FFFE0000007FFFFFF0001FFFFFFF0001FFFFFFC000
310
7FFF0001FFFFFFC0007FFF0003FFFFFFFFF0003FFFFF0001F000E0003FFFFE00
310
03FF0003FFF000003FFE0003FF80007FC0007FFFFC0003FE0007FFFFE0003FF8
310
000001FFFE0000007FFFFFF0001FFFFFFF0000FFFFFF80007FFF0000FFFFFF80
310
007FFF0003FFFFFFFFF0003FFFFF0001F000E0003FFFFE0003FF0003FFF00000
310
3FFF0003FF80007FC0007FFFFC0007FE0007FFFFC0003FF8000001FFFE000000
310
7FFFFFF0001FFFFFFF80007FFFFF0000FFFF80007FFFFF0000FFFF0003FFFFFF
310
FFF0003FFFFF0003F000E0003FFFFC0003FE0003FFF000003FFF0003FF80007F
310
E0003FFFF80007FE0003FFFFC0007FF8000001FFFE0000007FFFFFF0001FFFFF
310
FF80003FFFFE0000FFFF80003FFFFE0000FFFF0003FFFFFFFFF0001FFFFE0003
310
F000F0001FFFF80003FE0003FFF000007FFF0001FF80007FE0003FFFF00007FE
310
0001FFFF80007FF8000001FFFE0000007FFFFFF0001FFFFFFFC0000FFFF80001
310
FFFFC0000FFFF80001FFFF0003FFFFFFFFF0001FFFFC0003F000F0000FFFF000
310
07FE0007FFF800007FFF0001FF80007FE0001FFFE00007FF0000FFFE00007FF8
310
000001FFFE0000007FFFFFF0001FFFFFFFC00003FFE00001FFFFC00003FFE000
310
01FFFF0003FFFFFFFFF8000FFFF80003F000F00003FFC00007FC0007FFF80000
310
7FFF8001FF80007FF00007FF80000FFF00007FF80000FFF8000001FFFE000000
310
7F80000000000001FFE000003E000003FFFFE000003E000003FFFF0003FFFFFF
310
FFF80003FFE00007F000F800000000000FFC0007FFF800007FFF8001FF80007F
310
F000000000000FFF000000000000FFF8000001FFFE0000007F80000000000001
310
FFF0000000000007FFFFF0000000000007FFFF0003FFFFFFFFFC00007E000007
310
F000F800000000000FFC0007FFF80000FFFF8000FF80007FF800000000001FFF
310
800000000001FFF8000001FFFE0000007F80000000000001FFF800000000000F
310
FFFFF800000000000FFFFF0003FFFFFFFFFC00000000000FF000FC0000000000
310
1FFC0007FFFC0000FFFF8000FF80007FF800000000003FFFC00000000001FFF8
310
000001FFFE0000007F80000000000001FFF800000000000FFFFFF80000000000
310
0FFFFF0003FFFFFFFFFE00000000001FF000FE00000000003FF8000FFFFC0000
310
FFFF8000FF80007FFC00000000003FFFC00000000003FFF8000001FFFE000000
310
7F80000000000001FFFC00000000001FFFFFFC00000000001FFFFF0003FFFFFF
310
FFFF00000000001FF000FF00000000003FF8000FFFFC0000FFFFC000FF80007F
310
FE00000000007FFFE00000000007FFF8000001FFFE0000007F80000000000001
310
FFFE00000000003FFFFFFE00000000003FFFFF0003FFFFFFFFFF80000000003F
310
F000FF80000000007FF8000FFFFC0001FFFFC0007F80007FFF0000000000FFFF
310
F0000000000FFFF800000000000000007F80000000000001FFFF8000000000FF
310
FFFFFF8000000000FFFFFF0003FFFFFFFFFFC0000000007FF000FFC000000000
310
FFF8000FFFFE0001FFFFC0007F80007FFF8000000001FFFFF8000000001FFFF8
310
00000000000000007F80000000000001FFFFC000000001FFFFFFFFC000000001
310
FFFFFF0003FFFFFFFFFFE000000000FFF000FFE000000003FFF0001FFFFE0001
310
FFFFC0007F80007FFFC000000007FFFFFE000000003FFFF80000000000000000
310
7F80000000000001FFFFE000000003FFFFFFFFE000000003FFFFFF0003FFFFFF
310
FFFFF000000003FFF000FFF80000000FFFF0001FFFFE0001FFFFE0007F80007F
310
FFF00000000FFFFFFF00000000FFFFF800000000000000007F80000000000001
310
FFFFF80000000FFFFFFFFFF80000000FFFFFFF0003FFFFFFFFFFFC0000000FFF
310
F000FFFE0000003FFFF0001FFFFE0003FFFFE0003F80007FFFFC0000003FFFFF
310
FFC0000003FFFFF800000000000000007F80000000000001FFFFFE0000003FFF
310
FFFFFFFE0000003FFFFFFF0003FFFFFFFFFFFF0000003FFFF000FFFF800000FF
310
FFF0001FFFFF0003FFFFE0003F80007FFFFF000001FFFFFFFFF800001FFFFFF8
310
00000000000000007F80000000000001FFFFFFC00001FFFFFFFFFFFFC00001FF
310
FFFFFF0003FFFFFFFFFFFFC00000FFFFF000FFFFF8000FFFFFFFFFFFFFFFFFFF
310
FFFFFFFFFFFFFFFFFFFFF0001FFFFFFFFFFF0000FFFFFFF80000000000000000
310
7FFFFFFFFFFFFFFFFFFFFFFC001FFFFFFFFFFFFFFC001FFFFFFFFFFFFFFFFFFF
310
FFFFFFFC001FFFFFF000FFFFFFFFFFFFFFFFFFFFFFFFFFFFFFFFFFFFFFFFFFFF
310
FFFFFFFFFFFFFFFFFFFFFFFFFFFFFFFFFFFFFFFFFFFFFFFFFFFFFFFFFFFFFFFF
310
FFFFFFFFFFFFFFFFFFFFFFFFFFFFFFFFFFFFFFFFFFFFFFFFFFFFFFFFFFFFFFFF
310
F000FFFFFFFFFFFFFFFFFFFFFFFFFFFFFFFFFFFFFFFFFFFFFFFFFFFFFFFFFFFF
310
FFFFFFFFFFFFFFFFFFFFFFFFFFFFFFFFFFFFFFFFFFFFFFFFFFFFFFFFFFFFFFFF
310
FFFFFFFFFFFFFFFFFFFFFFFFFFFFFFFFFFFFFFFFFFFFFFFFF000FFFFFFFFFFFF
310
FFFFFFFFFFFFFFFFFFFFFFFFFFFFFFFFFFFFFFFFFFFFFFFFFFFFFFFFFFFFFFFF
310
FFFFFFFFFFFFFFFFFFFFFFFFFFFFFFFFFFFFFFFFFFFFFFFFFFFFFFFFFFFFFFFF
310
FFFFFFFFFFFFFFFFFFFFFFFFFFFFFFFFF000FFFFFFFFFFFFFFFFFFFFFFFFFFFF
310
FFFFFFFFFFFFFFFFFFFFFFFFFFFFFFFFFFFFFFFFFFFFFFFFFFFFFFFFFFFFFFFF
310
FFFFFFFFFFFFFFFFFFFFFFFFFFFFFFFFFFFFFFFFFFFFFFFFFFFFFFFFFFFFFFFF
310
FFFFFFFFFFFFFFFFF000FFFFFFFFFFFFFFFFFFFFFFFFFFFFFFFFFFFFFFFFFFFF
310
FFFFFFFFFFFFFFFFFFFFFFFFFFFFFFFFFFFFFFFFFFFFFFFFFFFFFFFFFFFFFFFF
310
FFFFFFFFFFFFFFFFFFFFFFFFFFFFFFFFFFFFFFFFFFFFFFFFFFFFFFFFFFFFFFFF
310
F000FFFFFFFFFFFFFFFFFFFFFFFFFFFFFFFFFFFFFFFFFFFFFFFFFFFFFFFFFFFF
310
FFFFFFFFFFFFFFFFFFFFFFFFFFFFFFFFFFFFFFFFFFFFFFFFFFFFFFFFFFFFFFFF
310
FFFFFFFFFFFFFFFFFFFFFFFFFFFFFFFFFFFFFFFFFFFFFFFFF000FFFFFFFFFFFF
310
FFFFFFFFFFFFFFFFFFFFFFFFFFFFFFFFFFFFFFFFFFFFFFFFFFFFFFFFFFFFFFFF
310
FFFFFFFFFFFFFFFFFFFFFFFFFFFFFFFFFFFFFFFFFFFFFFFFFFFFFFFFFFFFFFFF
310
FFFFFFFFFFFFFFFFFFFFFFFFFFFFFFFFF000FFFFFFFFFFFFFFFFFFFFFFFFFFFF
310
FFFFFFFFFFFFFFFFFFFFFFFFFFFFFFFFFFFFFFFFFFFFFFFFFFFFFFFFFFFFFFFF
310
FFFFFFFFFFFFFFFFFFFFFFFFFFFFFFFFFFFFFFFFFFFFFFFFFFFFFFFFFFFFFFFF
310
FFFFFFFFFFFFFFFFF000FFFFFFFFFFFFFFFFFFFFFFFFFFFFFFFFFFFFFFFFFFFF
310
FFFFFFFFFFFFFFFFFFFFFFFFFFFFFFFFFFFFFFFFFFFFFFFFFFFFFFFFFFFFFFFF
310
FFFFFFFFFFFFFFFFFFFFFFFFFFFFFFFFFFFFFFFFFFFFFFFFFFFFFFFFFFFFFFFF
310
F000FFFFFFFFFFFFFFFFFFFFFFFFFFFFFFFFFFFFFFFFFFFFFFFFFFFFFFFFFFFF
310
FFFFFFFFFFFFFFFFFFFFFFFFFFFFFFFFFFFFFFFFFFFFFFFFFFFFFFFFFFFFFFFF
310
FFFFFFFFFFFFFFFFFFFFFFFFFFFFFFFFFFFFFFFFFFFFFFFFF000FFFFFFFFFFFF
310
FFFFFFFFFFFFFFFFFFFFFFFFFFFFFFFFFFFFFFFFFFFFFFFFFFFFFFFFFFFFFFFF
310
FFFFFFFFFFFFFFFFFFFFFFFFFFFFFFFFFFFFFFFFFFFFFFFFFFFFFFFFFFFFFFFF
310
FFFFFFFFFFFFFFFFFFFFFFFFFFFFFFFFF000FFFFFFFFFFFFFFFFFFFFFFFFFFFF
310
FFFFFFFFFFFFFFFFFFFFFFFFFFFFFFFFFFFFFFFFFFFFFFFFFFFFFFFFFFFFFFFF
310
FFFFFFFFFFFFFFFFFFFFFFFFFFFFFFFFFFFFFFFFFFFFFFFFFFFFFFFFFFFFFFFF
310
FFFFFFFFFFFFFFFFF000FFFFFFFFFFFFFFFFFFFFFFFFFFFFFFFFFFFFFFFFFFFF
310
FFFFFFFFFFFFFFFFFFFFFFFFFFFFFFFFFFFFFFFFFFFFFFFFFFFFFFFFFFFFFFFF
310
FFFFFFFFFFFFFFFFFFFFFFFFFFFFFFFFFFFFFFFFFFFFFFFFFFFFFFFFFFFFFFFF
310
F000FFFFFFFFFFFFFFFFFFFFFFFFFFFFFFFFFFFFFFFFFFFFFFFFFFFFFFFFFFFF
310
FFFFFFFFFFFFFFFFFFFFFFFFFFFFFFFFFFFFFFFFFFFFFFFFFFFFFFFFFFFFFFFF
310
FFFFFFFFFFFFFFFFFFFFFFFFFFFFFFFFFFFFFFFFFFFFFFFFF000FFFFFFFFFFFF
310
FFFFFFFFFFFFFFFFFFFFFFFFFFFFFFFFFFFFFFFFFFFFFFFFFFFFFFFFFFFFFFFF
310
FFFFFFFFFFFFFFFFFFFFFFFFFFFFFFFFFFFFFFFFFFFFFFFFFFFFFFFFFFFFFFFF
310
FFFFFFFFFFFFFFFFFFFFFFFFFFFFFFFFF000FFFFFFFFFFFFFFFFFFFFFFFFFFFF
310
FFFFFFFFFFFFFFFFFFFFFFFFFFFFFFFFFFFFFFFFFFFFFFFFFFFFFFFFFFFFFFFF
310
FFFFFFFFFFFFFFFFFFFFFFFFFFFFFFFFFFFFFFFFFFFFFFFFFFFFFFFFFFFFFFFF
310
FFFFFFFFFFFFFFFFF000FFFFFFFFFFFFFFFFFFFFFFFFFFFFFFFFFFFFFFFFFFFF
310
FFFFFFFFFFFFFFFFFFFFFFFFFFFFFFFFFFFFFFFFFFFFFFFFFFFFFFFFFFFFFFFF
310
FFFFFFFFFFFFFFFFFFFFFFFFFFFFFFFFFFFFFFFFFFFFFFFFFFFFFFFFFFFFFFFF
310
F000FFFFFFFFFFFFFFFFFFFFFFFFFFFFFFFFFFFFFFFFFFFFFFFFFFFFFFFFFFFF
310
FFFFFFFFFFFFFFFFFFFFFFFFFFFFFFFFFFFFFFFFFFFFFFFFFFFFFFFFFFFFFFFF
310
FFFFFFFFFFFFFFFFFFFFFFFFFFFFFFFFFFFFFFFFFFFFFFFFF000FFFFFFFFFFFF
310
FFFFFFFFFFFFFFFFFFFFFFFFFFFFFFFFFFFFFFFFFFFFFFFFFFFFFFFFFFFFFFFF
310
FFFFFFFFFFFFFFFFFFFFFFFFFFFFFFFFFFFFFFFFFFFFFFFFFFFFFFFFFFFFFFFF
310
FFFFFFFFFFFFFFFFFFFFFFFFFFFFFFFFF000FFFFFFFFFFFFFFFFFFFFFFFFFFFF
310
FFFFFFFFFFFFFFFFFFFFFFFFFFFFFFFFFFFFFFFFFFFFFFFFFFFFFFFFFFFFFFFF
310
FFFFFFFFFFFFFFFFFFFFFFFFFFFFFFFFFFFFFFFFFFFFFFFFFFFFFFFFFFFFFFFF
310
FFFFFFFFFFFFFFFFF000FFFFFFFFFFFFFFFFFFFFFFFFFFFFFFFFFFFFFFFFFFFF
310
FFFFFFFFFFFFFFFFFFFFFFFFFFFFFFFFFFFFFFFFFFFFFFFFFFFFFFFFFFFFFFFF
310
FFFFFFFFFFFFFFFFFFFFFFFFFFFFFFFFFFFFFFFFFFFFFFFFFFFFFFFFFFFFFFFF
310
F000FFFFFFFFFFFFFFFFFFFFFFFFFFFFFFFFFFFFFFFFFFFFFFFFFFFFFFFFFFFF
310
FFFFFFFFFFFFFFFFFFFFFFFFFFFFFFFFFFFFFFFFFFFFFFFFFFFFFFFFFFFFFFFF
310
FFFFFFFFFFFFFFFFFFFFFFFFFFFFFFFFFFFFFFFFFFFFFFFFF000FFFFFFFFFFFF
310
FFFFFFFFFFFFFFFFFFFFFFFFFFFFFFFFFFFFFFFFFFFFFFFFFFFFFFFFFFFFFFFF
310
FFFFFFFFFFFFFFFFFFFFFFFFFFFFFFFFFFFFFFFFFFFFFFFFFFFFFFFFFFFFFFFF
310
FFFFFFFFFFFFFFFFFFFFFFFFFFFFFFFFF0000000000000000000000000000000
310
0000000000000000000000000000000000000000000000000000000000000000
310
0000000000000000000000000000000000000000000000000000000000000000
310
0000000000000000000000000000000000000000000000000000000000000000
310
0000000000000000000000000000000000000000000000000000000000000000
310
0000000000000000000000000000000000000000000000000000000000000000
310
0000000000000000000000000000000000000000000000000000000000000000
310
0000000000000000000000000000000000000000000000000000000000000000
310
0000000000000000000000000000000000000000000000000000000000000000
310
0000000000000000000000000000000000000000000000000000000000000000
310
0000000000000000000000000000000000000000000000000000000000000000
310
0000000000000000000000000000000000000000000000000000000000000000
310
0000000000000000000000000000000000000000000000000000000000000000
310
0000000000000000000000000000000000000000000000000000000000000000
310
0000000000000000000000000000000000000000000000000000000000000000
310
0000000000000000000000000000000000000000000000000000000000000000
  1
OLE
  0
ENDSEC
  0
SECTION
  2
OBJECTS
  0
DICTIONARY
  5
C
330
0
100
AcDbDictionary
281
     1
  3
ACAD_GROUP
350
D
  3
ACAD_LAYOUT
350
1A
  3
ACAD_MLINESTYLE
350
17
  3
ACAD_PLOTSETTINGS
350
19
  3
ACAD_PLOTSTYLENAME
350
E
  3
ACAD_SCALELIST
350
47
  0
DICTIONARY
  5
D
102
{ACAD_REACTORS
330
C
102
}
330
C
100
AcDbDictionary
281
     1
  0
DICTIONARY
  5
1A
102
{ACAD_REACTORS
330
C
102
}
330
C
100
AcDbDictionary
281
     1
  3
Layout1
350
1E
  3
Layout2
350
26
  3
Model
350
22
  0
DICTIONARY
  5
17
102
{ACAD_REACTORS
330
C
102
}
330
C
100
AcDbDictionary
281
     1
  3
Standard
350
18
  0
DICTIONARY
  5
19
102
{ACAD_REACTORS
330
C
102
}
330
C
100
AcDbDictionary
281
     1
  0
ACDBDICTIONARYWDFLT
  5
E
102
{ACAD_REACTORS
330
C
102
}
330
C
100
AcDbDictionary
281
     1
  3
Normal
350
F
100
AcDbDictionaryWithDefault
340
F
  0
DICTIONARY
  5
47
102
{ACAD_REACTORS
330
C
102
}
330
C
100
AcDbDictionary
281
     1
  3
A0
350
48
  3
A1
350
49
  3
A2
350
4A
  3
A3
350
4B
  3
A4
350
4C
  3
A5
350
4D
  3
A6
350
4E
  3
A7
350
4F
  3
A8
350
50
  3
A9
350
51
  3
B0
350
52
  3
B1
350
53
  3
B2
350
54
  3
B3
350
55
  3
B4
350
56
  3
B5
350
57
  3
B6
350
58
  3
B7
350
59
  3
B8
350
5A
  3
B9
350
5B
  3
C0
350
5C
  3
C1
350
5D
  3
C2
350
5E
  3
C3
350
5F
  3
C4
350
60
  3
C5
350
61
  3
C6
350
62
  3
C7
350
63
  3
C8
350
64
  3
C9
350
65
  3
D0
350
66
  3
D1
350
67
  3
D2
350
68
  0
LAYOUT
  5
1E
102
{ACAD_REACTORS
330
1A
102
}
330
1A
100
AcDbPlotSettings
  1

  2
none_device
  4

  6

 40
0.0
 41
0.0
 42
0.0
 43
0.0
 44
0.0
 45
0.0
 46
0.0
 47
0.0
 48
0.0
 49
0.0
140
0.0
141
0.0
142
1.0
143
1.0
 70
   688
 72
     1
 73
     0
 74
     5
  7

 75
    16
147
1.0
148
0.0
149
0.0
100
AcDbLayout
  1
Layout1
 70
     1
 71
     1
 10
0.0
 20
0.0
 11
420.0
 21
297.0
 12
0.0
 22
0.0
 32
0.0
 14
1.0000000000E+20
 24
1.0000000000E+20
 34
1.0000000000E+20
 15
-1.0000000000E+20
 25
-1.0000000000E+20
 35
-1.0000000000E+20
146
0.0
 13
0.0
 23
0.0
 33
0.0
 16
1.0
 26
0.0
 36
0.0
 17
0.0
 27
1.0
 37
0.0
 76
     0
330
1B
  0
LAYOUT
  5
26
102
{ACAD_REACTORS
330
1A
102
}
330
1A
100
AcDbPlotSettings
  1

  2
none_device
  4

  6

 40
0.0
 41
0.0
 42
0.0
 43
0.0
 44
0.0
 45
0.0
 46
0.0
 47
0.0
 48
0.0
 49
0.0
140
0.0
141
0.0
142
1.0
143
1.0
 70
   688
 72
     1
 73
     0
 74
     5
  7

 75
    16
147
1.0
148
0.0
149
0.0
100
AcDbLayout
  1
Layout2
 70
     1
 71
     2
 10
0.0
 20
0.0
 11
0.0
 21
0.0
 12
0.0
 22
0.0
 32
0.0
 14
0.0
 24
0.0
 34
0.0
 15
0.0
 25
0.0
 35
0.0
146
0.0
 13
0.0
 23
0.0
 33
0.0
 16
1.0
 26
0.0
 36
0.0
 17
0.0
 27
1.0
 37
0.0
 76
     0
330
23
  0
LAYOUT
  5
22
102
{ACAD_REACTORS
330
1A
102
}
330
1A
100
AcDbPlotSettings
  1

  2
none_device
  4
Letter_(8.50_x_11.00_Inches)
  6

 40
6.35
 41
6.35
 42
6.35000508
 43
6.35000508
 44
215.9
 45
279.4
 46
0.0
 47
0.0
 48
0.0
 49
0.0
140
0.0
141
0.0
142
1.0
143
1.0
 70
  1712
 72
     1
 73
     0
 74
     0
  7

 75
     0
147
1.0
148
0.0
149
0.0
100
AcDbLayout
  1
Model
 70
     1
 71
     0
 10
0.0
 20
0.0
 11
297.0
 21
210.0
 12
0.0
 22
0.0
 32
0.0
 14
0.0
 24
0.0
 34
0.0
 15
297.0
 25
210.0
 35
0.0
146
0.0
 13
0.0
 23
0.0
 33
0.0
 16
1.0
 26
0.0
 36
0.0
 17
0.0
 27
1.0
 37
0.0
 76
     0
330
1F
331
29
  0
MLINESTYLE
  5
18
102
{ACAD_REACTORS
330
17
102
}
330
17
100
AcDbMlineStyle
  2
Standard
 70
     0
  3

 62
   256
 51
90.0
 52
90.0
 71
     2
 49
0.5
 62
   256
  6
BYLAYER
 49
-0.5
 62
   256
  6
BYLAYER
  0
ACDBPLACEHOLDER
  5
F
102
{ACAD_REACTORS
330
E
102
}
330
E
  0
SCALE
  5
48
102
{ACAD_REACTORS
330
47
102
}
330
47
100
AcDbScale
 70
     0
300
1:1
140
1.0
141
1.0
290
     1
  0
SCALE
  5
49
102
{ACAD_REACTORS
330
47
102
}
330
47
100
AcDbScale
 70
     0
300
1:2
140
1.0
141
2.0
290
     0
  0
SCALE
  5
4A
102
{ACAD_REACTORS
330
47
102
}
330
47
100
AcDbScale
 70
     0
300
1:4
140
1.0
141
4.0
290
     0
  0
SCALE
  5
4B
102
{ACAD_REACTORS
330
47
102
}
330
47
100
AcDbScale
 70
     0
300
1:5
140
1.0
141
5.0
290
     0
  0
SCALE
  5
4C
102
{ACAD_REACTORS
330
47
102
}
330
47
100
AcDbScale
 70
     0
300
1:8
140
1.0
141
8.0
290
     0
  0
SCALE
  5
4D
102
{ACAD_REACTORS
330
47
102
}
330
47
100
AcDbScale
 70
     0
300
1:10
140
1.0
141
10.0
290
     0
  0
SCALE
  5
4E
102
{ACAD_REACTORS
330
47
102
}
330
47
100
AcDbScale
 70
     0
300
1:16
140
1.0
141
16.0
290
     0
  0
SCALE
  5
4F
102
{ACAD_REACTORS
330
47
102
}
330
47
100
AcDbScale
 70
     0
300
1:20
140
1.0
141
20.0
290
     0
  0
SCALE
  5
50
102
{ACAD_REACTORS
330
47
102
}
330
47
100
AcDbScale
 70
     0
300
1:30
140
1.0
141
30.0
290
     0
  0
SCALE
  5
51
102
{ACAD_REACTORS
330
47
102
}
330
47
100
AcDbScale
 70
     0
300
1:40
140
1.0
141
40.0
290
     0
  0
SCALE
  5
52
102
{ACAD_REACTORS
330
47
102
}
330
47
100
AcDbScale
 70
     0
300
1:50
140
1.0
141
50.0
290
     0
  0
SCALE
  5
53
102
{ACAD_REACTORS
330
47
102
}
330
47
100
AcDbScale
 70
     0
300
1:100
140
1.0
141
100.0
290
     0
  0
SCALE
  5
54
102
{ACAD_REACTORS
330
47
102
}
330
47
100
AcDbScale
 70
     0
300
2:1
140
2.0
141
1.0
290
     0
  0
SCALE
  5
55
102
{ACAD_REACTORS
330
47
102
}
330
47
100
AcDbScale
 70
     0
300
4:1
140
4.0
141
1.0
290
     0
  0
SCALE
  5
56
102
{ACAD_REACTORS
330
47
102
}
330
47
100
AcDbScale
 70
     0
300
8:1
140
8.0
141
1.0
290
     0
  0
SCALE
  5
57
102
{ACAD_REACTORS
330
47
102
}
330
47
100
AcDbScale
 70
     0
300
10:1
140
10.0
141
1.0
290
     0
  0
SCALE
  5
58
102
{ACAD_REACTORS
330
47
102
}
330
47
100
AcDbScale
 70
     0
300
100:1
140
100.0
141
1.0
290
     0
  0
SCALE
  5
59
102
{ACAD_REACTORS
330
47
102
}
330
47
100
AcDbScale
 70
     0
300
1/128" = 1'-0"
140
0.0078125
141
12.0
290
     0
  0
SCALE
  5
5A
102
{ACAD_REACTORS
330
47
102
}
330
47
100
AcDbScale
 70
     0
300
1/64" = 1'-0"
140
0.015625
141
12.0
290
     0
  0
SCALE
  5
5B
102
{ACAD_REACTORS
330
47
102
}
330
47
100
AcDbScale
 70
     0
300
1/32" = 1'-0"
140
0.03125
141
12.0
290
     0
  0
SCALE
  5
5C
102
{ACAD_REACTORS
330
47
102
}
330
47
100
AcDbScale
 70
     0
300
1/16" = 1'-0"
140
0.0625
141
12.0
290
     0
  0
SCALE
  5
5D
102
{ACAD_REACTORS
330
47
102
}
330
47
100
AcDbScale
 70
     0
300
3/32" = 1'-0"
140
0.09375
141
12.0
290
     0
  0
SCALE
  5
5E
102
{ACAD_REACTORS
330
47
102
}
330
47
100
AcDbScale
 70
     0
300
1/8" = 1'-0"
140
0.125
141
12.0
290
     0
  0
SCALE
  5
5F
102
{ACAD_REACTORS
330
47
102
}
330
47
100
AcDbScale
 70
     0
300
3/16" = 1'-0"
140
0.1875
141
12.0
290
     0
  0
SCALE
  5
60
102
{ACAD_REACTORS
330
47
102
}
330
47
100
AcDbScale
 70
     0
300
1/4" = 1'-0"
140
0.25
141
12.0
290
     0
  0
SCALE
  5
61
102
{ACAD_REACTORS
330
47
102
}
330
47
100
AcDbScale
 70
     0
300
3/8" = 1'-0"
140
0.375
141
12.0
290
     0
  0
SCALE
  5
62
102
{ACAD_REACTORS
330
47
102
}
330
47
100
AcDbScale
 70
     0
300
1/2" = 1'-0"
140
0.5
141
12.0
290
     0
  0
SCALE
  5
63
102
{ACAD_REACTORS
330
47
102
}
330
47
100
AcDbScale
 70
     0
300
3/4" = 1'-0"
140
0.75
141
12.0
290
     0
  0
SCALE
  5
64
102
{ACAD_REACTORS
330
47
102
}
330
47
100
AcDbScale
 70
     0
300
1" = 1'-0"
140
1.0
141
12.0
290
     0
  0
SCALE
  5
65
102
{ACAD_REACTORS
330
47
102
}
330
47
100
AcDbScale
 70
     0
300
1-1/2" = 1'-0"
140
1.5
141
12.0
290
     0
  0
SCALE
  5
66
102
{ACAD_REACTORS
330
47
102
}
330
47
100
AcDbScale
 70
     0
300
3" = 1'-0"
140
3.0
141
12.0
290
     0
  0
SCALE
  5
67
102
{ACAD_REACTORS
330
47
102
}
330
47
100
AcDbScale
 70
     0
300
6" = 1'-0"
140
6.0
141
12.0
290
     0
  0
SCALE
  5
68
102
{ACAD_REACTORS
330
47
102
}
330
47
100
AcDbScale
 70
     0
300
1'-0" = 1'-0"
140
12.0
141
12.0
290
     0
  0
ENDSEC
  0
EOF
