  0
SECTION
  2
HEADER
  9
$ACADVER
  1
AC1015
  9
$ACADMAINTVER
 70
     6
  9
$DWGCODEPAGE
  3
ANSI_1252
  9
$INSBASE
 10
0.0
 20
0.0
 30
0.0
  9
$EXTMIN
 10
0.0
 20
0.0
 30
0.0
  9
$EXTMAX
 10
297.0
 20
210.0
 30
0.0
  9
$LIMMIN
 10
0.0
 20
0.0
  9
$LIMMAX
 10
297.0
 20
210.0
  9
$ORTHOMODE
 70
     0
  9
$REGENMODE
 70
     1
  9
$FILLMODE
 70
     1
  9
$QTEXTMODE
 70
     0
  9
$MIRRTEXT
 70
     1
  9
$LTSCALE
 40
1.0
  9
$ATTMODE
 70
     1
  9
$TEXTSIZE
 40
2.0
  9
$TRACEWID
 40
1.0
  9
$TEXTSTYLE
  7
Standard
  9
$CLAYER
  8
0
  9
$CELTYPE
  6
ByLayer
  9
$CECOLOR
 62
   256
  9
$CELTSCALE
 40
1.0
  9
$DISPSILH
 70
     0
  9
$DIMSCALE
 40
1.0
  9
$DIMASZ
 40
3.0
  9
$DIMEXO
 40
0.0
  9
$DIMDLI
 40
3.75
  9
$DIMRND
 40
0.0
  9
$DIMDLE
 40
0.0
  9
$DIMEXE
 40
1.0
  9
$DIMTP
 40
0.0
  9
$DIMTM
 40
0.0
  9
$DIMTXT
 40
2.0
  9
$DIMCEN
 40
2.5
  9
$DIMTSZ
 40
0.0
  9
$DIMTOL
 70
     0
  9
$DIMLIM
 70
     0
  9
$DIMTIH
 70
     1
  9
$DIMTOH
 70
     1
  9
$DIMSE1
 70
     0
  9
$DIMSE2
 70
     0
  9
$DIMTAD
 70
     1
  9
$DIMZIN
 70
     0
  9
$DIMBLK
  1

  9
$DIMASO
 70
     1
  9
$DIMSHO
 70
     1
  9
$DIMPOST
  1

  9
$DIMAPOST
  1

  9
$DIMALT
 70
     0
  9
$DIMALTD
 70
     3
  9
$DIMALTF
 40
0.0393700787
  9
$DIMLFAC
 40
1.0
  9
$DIMTOFL
 70
     1
  9
$DIMTVP
 40
0.0
  9
$DIMTIX
 70
     0
  9
$DIMSOXD
 70
     0
  9
$DIMSAH
 70
     0
  9
$DIMBLK1
  1

  9
$DIMBLK2
  1

  9
$DIMSTYLE
  2
ISO-25
  9
$DIMCLRD
 70
     0
  9
$DIMCLRE
 70
     0
  9
$DIMCLRT
 70
     0
  9
$DIMTFAC
 40
1.0
  9
$DIMGAP
 40
1.524
  9
$DIMJUST
 70
     0
  9
$DIMSD1
 70
     0
  9
$DIMSD2
 70
     0
  9
$DIMTOLJ
 70
     0
  9
$DIMTZIN
 70
     0
  9
$DIMALTZ
 70
     0
  9
$DIMALTTZ
 70
     0
  9
$DIMUPT
 70
     0
  9
$DIMDEC
 70
     2
  9
$DIMTDEC
 70
     3
  9
$DIMALTU
 70
     2
  9
$DIMALTTD
 70
     3
  9
$DIMTXSTY
  7
Standard
  9
$DIMAUNIT
 70
     0
  9
$DIMADEC
 70
     2
  9
$DIMALTRND
 40
0.0
  9
$DIMAZIN
 70
     0
  9
$DIMDSEP
 70
    44
  9
$DIMATFIT
 70
     3
  9
$DIMFRAC
 70
     0
  9
$DIMLDRBLK
  1

  9
$DIMLUNIT
 70
     2
  9
$DIMLWD
 70
    -2
  9
$DIMLWE
 70
    -2
  9
$DIMTMOVE
 70
     0
  9
$LUNITS
 70
     2
  9
$LUPREC
 70
     2
  9
$SKETCHINC
 40
1.0
  9
$FILLETRAD
 40
10.0
  9
$AUNITS
 70
     0
  9
$AUPREC
 70
     2
  9
$MENU
  1
.
  9
$ELEVATION
 40
0.0
  9
$PELEVATION
 40
0.0
  9
$THICKNESS
 40
0.0
  9
$LIMCHECK
 70
     0
  9
$CHAMFERA
 40
0.0
  9
$CHAMFERB
 40
0.0
  9
$CHAMFERC
 40
0.0
  9
$CHAMFERD
 40
0.0
  9
$SKPOLY
 70
     0
  9
$TDCREATE
 40
2458166.636711644
  9
$TDUCREATE
 40
2458166.595044977
  9
$TDUPDATE
 40
2458166.63671331
  9
$TDUUPDATE
 40
2458166.595046644
  9
$TDINDWG
 40
0.0000000116
  9
$TDUSRTIMER
 40
0.0000000116
  9
$USRTIMER
 70
     1
  9
$ANGBASE
 50
0.0
  9
$ANGDIR
 70
     0
  9
$PDMODE
 70
     0
  9
$PDSIZE
 40
-1.0
  9
$PLINEWID
 40
0.0
  9
$SPLFRAME
 70
     0
  9
$SPLINETYPE
 70
     6
  9
$SPLINESEGS
 70
     8
  9
$HANDSEED
  5
284
  9
$SURFTAB1
 70
     6
  9
$SURFTAB2
 70
     6
  9
$SURFTYPE
 70
     6
  9
$SURFU
 70
     6
  9
$SURFV
 70
     6
  9
$UCSBASE
  2

  9
$UCSNAME
  2

  9
$UCSORG
 10
0.0
 20
0.0
 30
0.0
  9
$UCSXDIR
 10
1.0
 20
0.0
 30
0.0
  9
$UCSYDIR
 10
0.0
 20
1.0
 30
0.0
  9
$UCSORTHOREF
  2

  9
$UCSORTHOVIEW
 70
     0
  9
$UCSORGTOP
 10
0.0
 20
0.0
 30
0.0
  9
$UCSORGBOTTOM
 10
0.0
 20
0.0
 30
0.0
  9
$UCSORGLEFT
 10
0.0
 20
0.0
 30
0.0
  9
$UCSORGRIGHT
 10
0.0
 20
0.0
 30
0.0
  9
$UCSORGFRONT
 10
0.0
 20
0.0
 30
0.0
  9
$UCSORGBACK
 10
0.0
 20
0.0
 30
0.0
  9
$PUCSBASE
  2

  9
$PUCSNAME
  2

  9
$PUCSORG
 10
0.0
 20
0.0
 30
0.0
  9
$PUCSXDIR
 10
1.0
 20
0.0
 30
0.0
  9
$PUCSYDIR
 10
0.0
 20
1.0
 30
0.0
  9
$PUCSORTHOREF
  2

  9
$PUCSORTHOVIEW
 70
     0
  9
$PUCSORGTOP
 10
0.0
 20
0.0
 30
0.0
  9
$PUCSORGBOTTOM
 10
0.0
 20
0.0
 30
0.0
  9
$PUCSORGLEFT
 10
0.0
 20
0.0
 30
0.0
  9
$PUCSORGRIGHT
 10
0.0
 20
0.0
 30
0.0
  9
$PUCSORGFRONT
 10
0.0
 20
0.0
 30
0.0
  9
$PUCSORGBACK
 10
0.0
 20
0.0
 30
0.0
  9
$USERI1
 70
     0
  9
$USERI2
 70
     0
  9
$USERI3
 70
     0
  9
$USERI4
 70
     0
  9
$USERI5
 70
     0
  9
$USERR1
 40
0.0
  9
$USERR2
 40
0.0
  9
$USERR3
 40
0.0
  9
$USERR4
 40
0.0
  9
$USERR5
 40
0.0
  9
$WORLDVIEW
 70
     1
  9
$SHADEDGE
 70
     3
  9
$SHADEDIF
 70
    70
  9
$TILEMODE
 70
     1
  9
$MAXACTVP
 70
    64
  9
$PINSBASE
 10
0.0
 20
0.0
 30
0.0
  9
$PLIMCHECK
 70
     0
  9
$PEXTMIN
 10
1.0000000000E+20
 20
1.0000000000E+20
 30
1.0000000000E+20
  9
$PEXTMAX
 10
-1.0000000000E+20
 20
-1.0000000000E+20
 30
-1.0000000000E+20
  9
$PLIMMIN
 10
0.0
 20
0.0
  9
$PLIMMAX
 10
420.0
 20
297.0
  9
$UNITMODE
 70
     0
  9
$VISRETAIN
 70
     1
  9
$PLINEGEN
 70
     0
  9
$PSLTSCALE
 70
     1
  9
$TREEDEPTH
 70
  3020
  9
$CMLSTYLE
  2
Standard
  9
$CMLJUST
 70
     0
  9
$CMLSCALE
 40
20.0
  9
$PROXYGRAPHICS
 70
     1
  9
$MEASUREMENT
 70
     1
  9
$CELWEIGHT
370
    -1
  9
$ENDCAPS
280
     0
  9
$JOINSTYLE
280
     0
  9
$LWDISPLAY
290
     1
  9
$INSUNITS
 70
     4
  9
$HYPERLINKBASE
  1

  9
$STYLESHEET
  1

  9
$XEDIT
290
     1
  9
$CEPSNTYPE
380
     0
  9
$PSTYLEMODE
290
     1
  9
$FINGERPRINTGUID
  2
{4E395B0B-F744-4A38-AA68-75FC1326AC62}
  9
$VERSIONGUID
  2
{FAEB1C32-E019-11D5-929B-00C0DF256EC4}
  9
$EXTNAMES
290
     1
  9
$PSVPSCALE
 40
0.0
  9
$OLESTARTUP
290
     0
  0
ENDSEC
  0
SECTION
  2
CLASSES
  0
CLASS
  1
ACDBDICTIONARYWDFLT
  2
AcDbDictionaryWithDefault
  3
ObjectDBX Classes
 90
        0
280
     0
281
     0
  0
CLASS
  1
VISUALSTYLE
  2
AcDbVisualStyle
  3
ObjectDBX Classes
 90
     4095
280
     0
281
     0
  0
CLASS
  1
MATERIAL
  2
AcDbMaterial
  3
ObjectDBX Classes
 90
     1153
280
     0
281
     0
  0
CLASS
  1
SCALE
  2
AcDbScale
  3
ObjectDBX Classes
 90
     1153
280
     0
281
     0
  0
CLASS
  1
TABLESTYLE
  2
AcDbTableStyle
  3
ObjectDBX Classes
 90
     4095
280
     0
281
     0
  0
CLASS
  1
MLEADERSTYLE
  2
AcDbMLeaderStyle
  3
ACDB_MLEADERSTYLE_CLASS
 90
     4095
280
     0
281
     0
  0
CLASS
  1
SUN
  2
AcDbSun
  3
SCENEOE
 90
     1153
280
     0
281
     0
  0
CLASS
  1
ACDBPLACEHOLDER
  2
AcDbPlaceHolder
  3
ObjectDBX Classes
 90
        0
280
     0
281
     0
  0
CLASS
  1
LAYOUT
  2
AcDbLayout
  3
ObjectDBX Classes
 90
        0
280
     0
281
     0
  0
ENDSEC
  0
SECTION
  2
TABLES
  0
TABLE
  2
VPORT
  5
8
330
0
100
AcDbSymbolTable
 70
     1
  0
VPORT
  5
29
330
8
100
AcDbSymbolTableRecord
100
AcDbViewportTableRecord
  2
*Active
 70
     0
 10
0.0
 20
0.0
 11
1.0
 21
1.0
 12
148.5
 22
105.0
 13
0.0
 23
0.0
 14
10.0
 24
10.0
 15
10.0
 25
10.0
 16
0.0
 26
0.0
 36
1.0
 17
0.0
 27
0.0
 37
0.0
 40
210.0
 41
1.4142857143
 42
50.0
 43
0.0
 44
0.0
 50
0.0
 51
0.0
 71
     0
 72
  2000
 73
     1
 74
     3
 75
     0
 76
     0
 77
     0
 78
     0
281
     0
 65
     1
110
0.0
120
0.0
130
0.0
111
1.0
121
0.0
131
0.0
112
0.0
122
1.0
132
0.0
 79
     0
146
0.0
  0
ENDTAB
  0
TABLE
  2
LTYPE
  5
5
330
0
100
AcDbSymbolTable
 70
     6
  0
LTYPE
  5
14
330
5
100
AcDbSymbolTableRecord
100
AcDbLinetypeTableRecord
  2
ByBlock
 70
     0
  3

 72
    65
 73
     0
 40
0.0
  0
LTYPE
  5
15
330
5
100
AcDbSymbolTableRecord
100
AcDbLinetypeTableRecord
  2
ByLayer
 70
     0
  3

 72
    65
 73
     0
 40
0.0
  0
LTYPE
  5
16
330
5
100
AcDbSymbolTableRecord
100
AcDbLinetypeTableRecord
  2
Continuous
 70
     0
  3
Solid line
 72
    65
 73
     0
 40
0.0
  0
LTYPE
  5
6E
330
5
100
AcDbSymbolTableRecord
100
AcDbLinetypeTableRecord
  2
HIDDEN
 70
     0
  3
Hidden __ __ __ __ __ __ __ __ __ __ __ __ __ __
 72
    65
 73
     2
 40
1.905
 49
1.27
 74
     0
 49
-0.635
 74
     0
  0
LTYPE
  5
6F
330
5
100
AcDbSymbolTableRecord
100
AcDbLinetypeTableRecord
  2
PHANTOM
 70
     0
  3
Phantom ______  __  __  ______  __  __  ______
 72
    65
 73
     6
 40
12.7
 49
6.35
 74
     0
 49
-1.27
 74
     0
 49
1.27
 74
     0
 49
-1.27
 74
     0
 49
1.27
 74
     0
 49
-1.27
 74
     0
  0
LTYPE
  5
70
330
5
100
AcDbSymbolTableRecord
100
AcDbLinetypeTableRecord
  2
CENTER
 70
     0
  3
Center ____ _ ____ _ ____ _ ____ _ ____ _ ____
 72
    65
 73
     4
 40
10.16
 49
6.35
 74
     0
 49
-1.27
 74
     0
 49
1.27
 74
     0
 49
-1.27
 74
     0
  0
LTYPE
  5
71
330
5
100
AcDbSymbolTableRecord
100
AcDbLinetypeTableRecord
  2
CENTERX2
 70
     0
  3
Center (2x) ________  __  ________  __  _____
 72
    65
 73
     4
 40
20.32
 49
12.7
 74
     0
 49
-2.54
 74
     0
 49
2.54
 74
     0
 49
-2.54
 74
     0
  0
LTYPE
  5
72
330
5
100
AcDbSymbolTableRecord
100
AcDbLinetypeTableRecord
  2
DOT2
 70
     0
  3
Dot (.5x) ........................................
 72
    65
 73
     2
 40
0.635
 49
0.0
 74
     0
 49
-0.635
 74
     0
  0
ENDTAB
  0
TABLE
  2
LAYER
  5
2
330
0
100
AcDbSymbolTable
 70
     5
  0
LAYER
  5
10
330
2
100
AcDbSymbolTableRecord
100
AcDbLayerTableRecord
  2
0
 70
     0
 62
     7
  6
Continuous
370
    -3
390
F
  0
LAYER
  5
73
330
2
100
AcDbSymbolTableRecord
100
AcDbLayerTableRecord
  2
FORMAT
 70
     0
 62
     7
  6
Continuous
370
    -3
390
F
  0
LAYER
  5
74
330
2
100
AcDbSymbolTableRecord
100
AcDbLayerTableRecord
  2
VERMASSUNG
 70
     0
 62
     7
  6
Continuous
370
    -3
390
F
  0
LAYER
  5
75
330
2
100
AcDbSymbolTableRecord
100
AcDbLayerTableRecord
  2
KOPF_DÜNN
 70
     0
 62
     7
  6
Continuous
370
    -3
390
F
  0
LAYER
  5
76
330
2
100
AcDbSymbolTableRecord
100
AcDbLayerTableRecord
  2
KOPF_DICK
 70
     0
 62
     7
  6
Continuous
370
    25
390
F
  0
ENDTAB
  0
TABLE
  2
STYLE
  5
3
330
0
100
AcDbSymbolTable
 70
     3
  0
STYLE
  5
11
330
3
100
AcDbSymbolTableRecord
100
AcDbTextStyleTableRecord
  2
Standard
 70
     0
 40
0.0
 41
1.0
 50
0.0
 71
     0
 42
2.0
  3
txt
  4

  0
STYLE
  5
77
330
3
100
AcDbSymbolTableRecord
100
AcDbTextStyleTableRecord
  2
SLDTEXTSTYLE0
 70
     0
 40
0.0
 41
0.7
 50
0.0
 71
     0
 42
2.0
  3
TXT
  4

  0
STYLE
  5
7B
330
3
100
AcDbSymbolTableRecord
100
AcDbTextStyleTableRecord
  2
SLDTEXTSTYLE1
 70
     0
 40
0.0
 41
0.6473684211
 50
0.0
 71
     0
 42
2.0
  3
TXT
  4

  0
ENDTAB
  0
TABLE
  2
VIEW
  5
6
330
0
100
AcDbSymbolTable
 70
     0
  0
ENDTAB
  0
TABLE
  2
UCS
  5
7
330
0
100
AcDbSymbolTable
 70
     0
  0
ENDTAB
  0
TABLE
  2
APPID
  5
9
330
0
100
AcDbSymbolTable
 70
     1
  0
APPID
  5
12
330
9
100
AcDbSymbolTableRecord
100
AcDbRegAppTableRecord
  2
ACAD
 70
     0
  0
ENDTAB
  0
TABLE
  2
DIMSTYLE
  5
A
330
0
100
AcDbSymbolTable
 70
     2
100
AcDbDimStyleTable
  0
DIMSTYLE
105
27
330
A
100
AcDbSymbolTableRecord
100
AcDbDimStyleTableRecord
  2
ISO-25
 70
     0
 41
2.5
 42
0.625
 43
3.75
 44
1.25
 73
     0
 74
     0
 77
     1
 78
     8
140
2.5
141
2.5
143
0.0393700787
147
0.625
171
     3
172
     1
178
     0
271
     2
272
     2
274
     3
278
    44
283
     0
284
     8
340
11
  0
DIMSTYLE
105
237
102
{ACAD_REACTORS
330
236
330
243
330
24D
330
257
330
261
330
26B
330
276
102
}
330
A
100
AcDbSymbolTableRecord
100
AcDbDimStyleTableRecord
  2
SLDDIMSTYLE0
 70
     0
 41
3.0
 44
0.0
 45
0.000000001
 73
     0
 74
     0
 77
     1
 78
    12
 79
     3
140
2.0
147
0.5
173
     1
178
     0
271
     2
272
     3
276
     2
284
    12
340
77
  0
ENDTAB
  0
TABLE
  2
BLOCK_RECORD
  5
1
330
0
100
AcDbSymbolTable
 70
     8
  0
BLOCK_RECORD
  5
1F
330
1
100
AcDbSymbolTableRecord
100
AcDbBlockTableRecord
  2
*Model_Space
340
22
  0
BLOCK_RECORD
  5
1B
330
1
100
AcDbSymbolTableRecord
100
AcDbBlockTableRecord
  2
*Paper_Space
340
1E
  0
BLOCK_RECORD
  5
23
330
1
100
AcDbSymbolTableRecord
100
AcDbBlockTableRecord
  2
*Paper_Space0
340
26
  0
BLOCK_RECORD
  5
238
330
1
100
AcDbSymbolTableRecord
100
AcDbBlockTableRecord
  2
_D
340
0
  0
BLOCK_RECORD
  5
244
330
1
100
AcDbSymbolTableRecord
100
AcDbBlockTableRecord
  2
_D_1
340
0
  0
BLOCK_RECORD
  5
24E
330
1
100
AcDbSymbolTableRecord
100
AcDbBlockTableRecord
  2
_D_2
340
0
  0
BLOCK_RECORD
  5
258
330
1
100
AcDbSymbolTableRecord
100
AcDbBlockTableRecord
  2
_D_3
340
0
  0
BLOCK_RECORD
  5
262
330
1
100
AcDbSymbolTableRecord
100
AcDbBlockTableRecord
  2
_D_4
340
0
  0
BLOCK_RECORD
  5
26C
330
1
100
AcDbSymbolTableRecord
100
AcDbBlockTableRecord
  2
_D_5
340
0
  0
BLOCK_RECORD
  5
277
330
1
100
AcDbSymbolTableRecord
100
AcDbBlockTableRecord
  2
_D_6
340
0
  0
ENDTAB
  0
ENDSEC
  0
SECTION
  2
BLOCKS
  0
BLOCK
  5
20
330
1F
100
AcDbEntity
  8
0
100
AcDbBlockBegin
  2
*Model_Space
 70
     0
 10
0.0
 20
0.0
 30
0.0
  3
*Model_Space
  1

  0
ENDBLK
  5
21
330
1F
100
AcDbEntity
  8
0
100
AcDbBlockEnd
  0
BLOCK
  5
1C
330
1B
100
AcDbEntity
 67
     1
  8
0
100
AcDbBlockBegin
  2
*Paper_Space
 70
     0
 10
0.0
 20
0.0
 30
0.0
  3
*Paper_Space
  1

  0
ENDBLK
  5
1D
330
1B
100
AcDbEntity
 67
     1
  8
0
100
AcDbBlockEnd
  0
BLOCK
  5
24
330
23
100
AcDbEntity
  8
0
100
AcDbBlockBegin
  2
*Paper_Space0
 70
     0
 10
0.0
 20
0.0
 30
0.0
  3
*Paper_Space0
  1

  0
ENDBLK
  5
25
330
23
100
AcDbEntity
  8
0
100
AcDbBlockEnd
  0
BLOCK
  5
239
330
238
100
AcDbEntity
  8
0
100
AcDbBlockBegin
  2
_D
 70
     0
 10
0.0
 20
0.0
 30
0.0
  3
_D
  1

  0
SOLID
  5
23B
330
238
100
AcDbEntity
  8
VERMASSUNG
100
AcDbTrace
 10
84.7469373963
 20
137.9004930931
 30
0.0
 11
84.2969373963
 21
134.9004930931
 31
0.0
 12
85.1969373963
 22
134.9004930931
 32
0.0
 13
85.1969373963
 23
134.9004930931
 33
0.0
  0
SOLID
  5
23C
330
238
100
AcDbEntity
  8
VERMASSUNG
100
AcDbTrace
 10
84.7469373963
 20
74.9004930931
 30
0.0
 11
85.1969373963
 21
77.9004930931
 31
0.0
 12
84.2969373963
 22
77.9004930931
 32
0.0
 13
84.2969373963
 23
77.9004930931
 33
0.0
  0
LINE
  5
23D
330
238
100
AcDbEntity
  8
VERMASSUNG
100
AcDbLine
 10
123.715349286
 20
137.9004930931
 30
0.0
 11
83.7469373963
 21
137.9004930931
 31
0.0
  0
LINE
  5
23E
330
238
100
AcDbEntity
  8
VERMASSUNG
100
AcDbLine
 10
123.715349286
 20
74.9004930931
 30
0.0
 11
83.7469373963
 21
74.9004930931
 31
0.0
  0
LINE
  5
23F
330
238
100
AcDbEntity
  8
VERMASSUNG
100
AcDbLine
 10
84.7469373963
 20
137.9004930931
 30
0.0
 11
84.7469373963
 21
74.9004930931
 31
0.0
  0
MTEXT
  5
240
330
238
100
AcDbEntity
  8
VERMASSUNG
100
AcDbMText
 10
81.9688021401
 20
98.1659139505
 30
0.0
 40
2.0
 41
0.0
 71
     1
 72
     1
  1
HSK A
  7
SLDTEXTSTYLE0
 11
-7.044195017643634E-15
 21
1.0
 31
0.0
 73
     1
 44
1.0
  0
MTEXT
  5
241
330
238
100
AcDbEntity
  8
VERMASSUNG
100
AcDbMText
 10
82.1688020914
 20
107.1659135631
 30
0.0
 40
2.0
 41
0.0
 71
     1
 72
     1
  1
%%c
  7
SLDTEXTSTYLE0
 11
-7.044195017643634E-15
 21
1.0
 31
0.0
 73
     1
 44
1.0
  0
MTEXT
  5
242
330
238
100
AcDbEntity
  8
VERMASSUNG
100
AcDbMText
 10
82.1688018003
 20
110.7740342513
 30
0.0
 40
2.0
 41
0.0
 71
     1
 72
     1
  1
63
  7
SLDTEXTSTYLE0
 11
-7.044195017643634E-15
 21
1.0
 31
0.0
 73
     1
 44
1.0
  0
ENDBLK
  5
23A
330
238
100
AcDbEntity
  8
0
100
AcDbBlockEnd
  0
BLOCK
  5
245
330
244
100
AcDbEntity
  8
0
100
AcDbBlockBegin
  2
_D_1
 70
     0
 10
0.0
 20
0.0
 30
0.0
  3
_D_1
  1

  0
SOLID
  5
247
330
244
100
AcDbEntity
  8
VERMASSUNG
100
AcDbTrace
 10
123.415349286
 20
150.3940667551
 30
0.0
 11
126.415349286
 21
149.9440667551
 31
0.0
 12
126.415349286
 22
150.8440667551
 32
0.0
 13
126.415349286
 23
150.8440667551
 33
0.0
  0
SOLID
  5
248
330
244
100
AcDbEntity
  8
VERMASSUNG
100
AcDbTrace
 10
183.415349286
 20
150.3940667551
 30
0.0
 11
180.415349286
 21
150.8440667551
 31
0.0
 12
180.415349286
 22
149.9440667551
 32
0.0
 13
180.415349286
 23
149.9440667551
 33
0.0
  0
LINE
  5
249
330
244
100
AcDbEntity
  8
VERMASSUNG
100
AcDbLine
 10
123.415349286
 20
137.6004930931
 30
0.0
 11
123.415349286
 21
151.3940667551
 31
0.0
  0
LINE
  5
24A
330
244
100
AcDbEntity
  8
VERMASSUNG
100
AcDbLine
 10
183.415349286
 20
124.6004930931
 30
0.0
 11
183.415349286
 21
151.3940667551
 31
0.0
  0
LINE
  5
24B
330
244
100
AcDbEntity
  8
VERMASSUNG
100
AcDbLine
 10
123.415349286
 20
150.3940667551
 30
0.0
 11
183.415349286
 21
150.3940667551
 31
0.0
  0
MTEXT
  5
24C
330
244
100
AcDbEntity
  8
VERMASSUNG
100
AcDbMText
 10
152.0164921432
 20
152.9722023511
 30
0.0
 40
2.0
 41
0.0
 71
     1
 72
     1
  1
60
  7
SLDTEXTSTYLE0
 73
     1
 44
1.0
  0
ENDBLK
  5
246
330
244
100
AcDbEntity
  8
0
100
AcDbBlockEnd
  0
BLOCK
  5
24F
330
24E
100
AcDbEntity
  8
0
100
AcDbBlockBegin
  2
_D_2
 70
     0
 10
0.0
 20
0.0
 30
0.0
  3
_D_2
  1

  0
SOLID
  5
251
330
24E
100
AcDbEntity
  8
VERMASSUNG
100
AcDbTrace
 10
200.415349286
 20
150.5438428422
 30
0.0
 11
197.415349286
 21
150.9938428422
 31
0.0
 12
197.415349286
 22
150.0938428422
 32
0.0
 13
197.415349286
 23
150.0938428422
 33
0.0
  0
SOLID
  5
252
330
24E
100
AcDbEntity
  8
VERMASSUNG
100
AcDbTrace
 10
183.415349286
 20
150.5438428422
 30
0.0
 11
186.415349286
 21
150.0938428422
 31
0.0
 12
186.415349286
 22
150.9938428422
 32
0.0
 13
186.415349286
 23
150.9938428422
 33
0.0
  0
LINE
  5
253
330
24E
100
AcDbEntity
  8
VERMASSUNG
100
AcDbLine
 10
200.415349286
 20
113.6004930931
 30
0.0
 11
200.415349286
 21
151.5438428422
 31
0.0
  0
LINE
  5
254
330
24E
100
AcDbEntity
  8
VERMASSUNG
100
AcDbLine
 10
183.415349286
 20
124.6004930931
 30
0.0
 11
183.415349286
 21
151.5438428422
 31
0.0
  0
LINE
  5
255
330
24E
100
AcDbEntity
  8
VERMASSUNG
100
AcDbLine
 10
200.415349286
 20
150.5438428422
 30
0.0
 11
183.415349286
 21
150.5438428422
 31
0.0
  0
MTEXT
  5
256
330
24E
100
AcDbEntity
  8
VERMASSUNG
100
AcDbMText
 10
190.7155071808
 20
153.1219784381
 30
0.0
 40
2.0
 41
0.0
 71
     1
 72
     1
  1
17
  7
SLDTEXTSTYLE0
 73
     1
 44
1.0
  0
ENDBLK
  5
250
330
24E
100
AcDbEntity
  8
0
100
AcDbBlockEnd
  0
BLOCK
  5
259
330
258
100
AcDbEntity
  8
0
100
AcDbBlockBegin
  2
_D_3
 70
     0
 10
0.0
 20
0.0
 30
0.0
  3
_D_3
  1

  0
SOLID
  5
25B
330
258
100
AcDbEntity
  8
VERMASSUNG
100
AcDbTrace
 10
183.415349286
 20
144.3940667551
 30
0.0
 11
180.415349286
 21
144.8440667551
 31
0.0
 12
180.415349286
 22
143.9440667551
 32
0.0
 13
180.415349286
 23
143.9440667551
 33
0.0
  0
SOLID
  5
25C
330
258
100
AcDbEntity
  8
VERMASSUNG
100
AcDbTrace
 10
149.365349286
 20
144.3940667551
 30
0.0
 11
152.365349286
 21
143.9440667551
 31
0.0
 12
152.365349286
 22
144.8440667551
 32
0.0
 13
152.365349286
 23
144.8440667551
 33
0.0
  0
LINE
  5
25D
330
258
100
AcDbEntity
  8
VERMASSUNG
100
AcDbLine
 10
183.415349286
 20
124.6004930931
 30
0.0
 11
183.415349286
 21
145.3940667551
 31
0.0
  0
LINE
  5
25E
330
258
100
AcDbEntity
  8
VERMASSUNG
100
AcDbLine
 10
149.365349286
 20
136.2469334168
 30
0.0
 11
149.365349286
 21
145.3940667551
 31
0.0
  0
LINE
  5
25F
330
258
100
AcDbEntity
  8
VERMASSUNG
100
AcDbLine
 10
183.415349286
 20
144.3940667551
 30
0.0
 11
149.365349286
 21
144.3940667551
 31
0.0
  0
MTEXT
  5
260
330
258
100
AcDbEntity
  8
VERMASSUNG
100
AcDbMText
 10
163.1911537973
 20
146.9722023511
 30
0.0
 40
2.0
 41
0.0
 71
     1
 72
     1
  1
34.05
  7
SLDTEXTSTYLE0
 73
     1
 44
1.0
  0
ENDBLK
  5
25A
330
258
100
AcDbEntity
  8
0
100
AcDbBlockEnd
  0
BLOCK
  5
263
330
262
100
AcDbEntity
  8
0
100
AcDbBlockBegin
  2
_D_4
 70
     0
 10
0.0
 20
0.0
 30
0.0
  3
_D_4
  1

  0
SOLID
  5
265
330
262
100
AcDbEntity
  8
VERMASSUNG
100
AcDbTrace
 10
91.515349286
 20
156.3940667551
 30
0.0
 11
94.515349286
 21
155.9440667551
 31
0.0
 12
94.515349286
 22
156.8440667551
 32
0.0
 13
94.515349286
 23
156.8440667551
 33
0.0
  0
SOLID
  5
266
330
262
100
AcDbEntity
  8
VERMASSUNG
100
AcDbTrace
 10
200.415349286
 20
156.3940667551
 30
0.0
 11
197.415349286
 21
156.8440667551
 31
0.0
 12
197.415349286
 22
155.9440667551
 32
0.0
 13
197.415349286
 23
155.9440667551
 33
0.0
  0
LINE
  5
267
330
262
100
AcDbEntity
  8
VERMASSUNG
100
AcDbLine
 10
91.515349286
 20
126.0911708396
 30
0.0
 11
91.515349286
 21
157.3940667551
 31
0.0
  0
LINE
  5
268
330
262
100
AcDbEntity
  8
VERMASSUNG
100
AcDbLine
 10
200.415349286
 20
113.6004930931
 30
0.0
 11
200.415349286
 21
157.3940667551
 31
0.0
  0
LINE
  5
269
330
262
100
AcDbEntity
  8
VERMASSUNG
100
AcDbLine
 10
91.515349286
 20
156.3940667551
 30
0.0
 11
200.415349286
 21
156.3940667551
 31
0.0
  0
MTEXT
  5
26A
330
262
100
AcDbEntity
  8
VERMASSUNG
100
AcDbMText
 10
143.0664019176
 20
158.9722023511
 30
0.0
 40
2.0
 41
0.0
 71
     1
 72
     1
  1
108.9
  7
SLDTEXTSTYLE0
 73
     1
 44
1.0
  0
ENDBLK
  5
264
330
262
100
AcDbEntity
  8
0
100
AcDbBlockEnd
  0
BLOCK
  5
26D
330
26C
100
AcDbEntity
  8
0
100
AcDbBlockBegin
  2
_D_5
 70
     0
 10
0.0
 20
0.0
 30
0.0
  3
_D_5
  1

  0
SOLID
  5
26F
330
26C
100
AcDbEntity
  8
VERMASSUNG
100
AcDbTrace
 10
220.6333341546
 20
114.4004930931
 30
0.0
 11
220.1833341546
 21
111.4004930931
 31
0.0
 12
221.0833341546
 22
111.4004930931
 32
0.0
 13
221.0833341546
 23
111.4004930931
 33
0.0
  0
SOLID
  5
270
330
26C
100
AcDbEntity
  8
VERMASSUNG
100
AcDbTrace
 10
220.6333341546
 20
98.4004930931
 30
0.0
 11
221.0833341546
 21
101.4004930931
 31
0.0
 12
220.1833341546
 22
101.4004930931
 32
0.0
 13
220.1833341546
 23
101.4004930931
 33
0.0
  0
LINE
  5
271
330
26C
100
AcDbEntity
  8
VERMASSUNG
100
AcDbLine
 10
199.615349286
 20
114.4004930931
 30
0.0
 11
221.6333341546
 21
114.4004930931
 31
0.0
  0
LINE
  5
272
330
26C
100
AcDbEntity
  8
VERMASSUNG
100
AcDbLine
 10
199.615349286
 20
98.4004930931
 30
0.0
 11
221.6333341546
 21
98.4004930931
 31
0.0
  0
LINE
  5
273
330
26C
100
AcDbEntity
  8
VERMASSUNG
100
AcDbLine
 10
220.6333341546
 20
114.4004930931
 30
0.0
 11
220.6333341546
 21
98.4004930931
 31
0.0
  0
MTEXT
  5
274
330
26C
100
AcDbEntity
  8
VERMASSUNG
100
AcDbMText
 10
218.0551986169
 20
102.4425798437
 30
0.0
 40
2.0
 41
0.0
 71
     1
 72
     1
  1
%%c
  7
SLDTEXTSTYLE0
 11
-7.044195017643634E-15
 21
1.0
 31
0.0
 73
     1
 44
1.0
  0
MTEXT
  5
275
330
26C
100
AcDbEntity
  8
VERMASSUNG
100
AcDbMText
 10
218.0551985587
 20
106.0524595429
 30
0.0
 40
2.0
 41
0.0
 71
     1
 72
     1
  1
16
  7
SLDTEXTSTYLE0
 11
-7.044195017643634E-15
 21
1.0
 31
0.0
 73
     1
 44
1.0
  0
ENDBLK
  5
26E
330
26C
100
AcDbEntity
  8
0
100
AcDbBlockEnd
  0
BLOCK
  5
278
330
277
100
AcDbEntity
  8
0
100
AcDbBlockBegin
  2
_D_6
 70
     0
 10
0.0
 20
0.0
 30
0.0
  3
_D_6
  1

  0
SOLID
  5
27A
330
277
100
AcDbEntity
  8
VERMASSUNG
100
AcDbTrace
 10
226.6333341546
 20
125.4004930931
 30
0.0
 11
226.1833341546
 21
122.4004930931
 31
0.0
 12
227.0833341546
 22
122.4004930931
 32
0.0
 13
227.0833341546
 23
122.4004930931
 33
0.0
  0
SOLID
  5
27B
330
277
100
AcDbEntity
  8
VERMASSUNG
100
AcDbTrace
 10
226.6333341546
 20
87.4004930931
 30
0.0
 11
227.0833341546
 21
90.4004930931
 31
0.0
 12
226.1833341546
 22
90.4004930931
 32
0.0
 13
226.1833341546
 23
90.4004930931
 33
0.0
  0
LINE
  5
27C
330
277
100
AcDbEntity
  8
VERMASSUNG
100
AcDbLine
 10
182.615349286
 20
125.4004930931
 30
0.0
 11
227.6333341546
 21
125.4004930931
 31
0.0
  0
LINE
  5
27D
330
277
100
AcDbEntity
  8
VERMASSUNG
100
AcDbLine
 10
182.615349286
 20
87.4004930931
 30
0.0
 11
227.6333341546
 21
87.4004930931
 31
0.0
  0
LINE
  5
27E
330
277
100
AcDbEntity
  8
VERMASSUNG
100
AcDbLine
 10
226.6333341546
 20
125.4004930931
 30
0.0
 11
226.6333341546
 21
87.4004930931
 31
0.0
  0
MTEXT
  5
27F
330
277
100
AcDbEntity
  8
VERMASSUNG
100
AcDbMText
 10
224.0551986169
 20
102.2435648061
 30
0.0
 40
2.0
 41
0.0
 71
     1
 72
     1
  1
%%c
  7
SLDTEXTSTYLE0
 11
-7.044195017643634E-15
 21
1.0
 31
0.0
 73
     1
 44
1.0
  0
MTEXT
  5
280
330
277
100
AcDbEntity
  8
VERMASSUNG
100
AcDbMText
 10
224.0551985587
 20
105.8534445053
 30
0.0
 40
2.0
 41
0.0
 71
     1
 72
     1
  1
38
  7
SLDTEXTSTYLE0
 11
-7.044195017643634E-15
 21
1.0
 31
0.0
 73
     1
 44
1.0
  0
ENDBLK
  5
279
330
277
100
AcDbEntity
  8
0
100
AcDbBlockEnd
  0
ENDSEC
  0
SECTION
  2
ENTITIES
  0
MTEXT
  5
78
330
1F
100
AcDbEntity
  8
KOPF_DÜNN
100
AcDbMText
 10
13.8892156294
 20
23.8442973028
 30
0.0
 40
3.0
 41
0.0
 71
     1
 72
     1
  1
HA6.D16.K01.060
  7
SLDTEXTSTYLE0
 73
     1
 44
1.0
  0
MTEXT
  5
79
330
1F
100
AcDbEntity
  8
VERMASSUNG
100
AcDbMText
 10
13.9329988022
 20
28.8834360957
 30
0.0
 40
3.0
 41
0.0
 71
     1
 72
     1
  1
Fräsdorn_Milling arbor ø16
  7
SLDTEXTSTYLE0
 73
     1
 44
1.0
  0
MTEXT
  5
7A
330
1F
100
AcDbEntity
  8
VERMASSUNG
100
AcDbMText
 10
98.8601118557
 20
13.8365368761
 30
0.0
 40
2.0
 41
0.0
 71
     1
 72
     1
  1
Datum: 12.10.2006
  7
SLDTEXTSTYLE0
 73
     1
 44
1.0
  0
MTEXT
  5
7C
330
1F
100
AcDbEntity
  8
VERMASSUNG
100
AcDbMText
 10
13.933048693
 20
18.0482802738
 30
0.0
 40
2.0
 41
0.0
 71
     1
 72
     1
  1
DIN 69 893 HSK A 63
  7
SLDTEXTSTYLE1
 73
     1
 44
1.0
  0
MTEXT
  5
7D
330
1F
100
AcDbEntity
  8
VERMASSUNG
100
AcDbMText
 10
13.9808475933
 20
13.9090974274
 30
0.0
 40
2.0
 41
0.0
 71
     1
 72
     1
  1
Gewicht: 954g
  7
SLDTEXTSTYLE0
 73
     1
 44
1.0
  0
ARC
  5
7E
330
1F
100
AcDbEntity
  8
0
  6
Continuous
 62
     7
370
    25
100
AcDbCircle
 10
187.915349286
 20
116.9004930931
 30
0.0
 40
0.5
100
AcDbArc
 50
270.0
 51
0.0
  0
ARC
  5
7F
330
1F
100
AcDbEntity
  8
0
  6
Continuous
 62
     7
370
    25
100
AcDbCircle
 10
187.915349286
 20
123.9004930931
 30
0.0
 40
0.5
100
AcDbArc
 50
0.0
 51
90.0
  0
LINE
  5
80
330
1F
100
AcDbEntity
  8
0
  6
Continuous
 62
     7
370
    25
100
AcDbLine
 10
183.4153479449
 20
116.4004928696
 30
0.0
 11
187.9153458886
 21
116.4004928696
 31
0.0
  0
LINE
  5
81
330
1F
100
AcDbEntity
  8
0
  6
Continuous
 62
     7
370
    25
100
AcDbLine
 10
187.9153458886
 20
124.4004923182
 30
0.0
 11
183.4153479449
 21
124.4004923182
 31
0.0
  0
LINE
  5
82
330
1F
100
AcDbEntity
  8
0
  6
Continuous
 62
     7
370
    25
100
AcDbLine
 10
183.4153479449
 20
88.4004938679
 30
0.0
 11
187.9153458886
 21
88.4004938679
 31
0.0
  0
LINE
  5
83
330
1F
100
AcDbEntity
  8
0
  6
Continuous
 62
     7
370
    25
100
AcDbLine
 10
187.9153458886
 20
96.4004933166
 30
0.0
 11
183.4153479449
 21
96.4004933166
 31
0.0
  0
ARC
  5
84
330
1F
100
AcDbEntity
  8
0
  6
Continuous
 62
     7
370
    25
100
AcDbCircle
 10
187.915349286
 20
88.9004930931
 30
0.0
 40
0.5
100
AcDbArc
 50
270.0
 51
0.0
  0
ARC
  5
85
330
1F
100
AcDbEntity
  8
0
  6
Continuous
 62
     7
370
    25
100
AcDbCircle
 10
187.915349286
 20
95.9004930931
 30
0.0
 40
0.5
100
AcDbArc
 50
0.0
 51
90.0
  0
LINE
  5
86
330
1F
100
AcDbEntity
  8
0
  6
Continuous
 62
     7
370
    25
100
AcDbLine
 10
213.0153460912
 20
112.9004932272
 30
0.0
 11
205.415351551
 21
112.9004932272
 31
0.0
  0
LINE
  5
87
330
1F
100
AcDbEntity
  8
0
  6
Continuous
 62
     7
370
    25
100
AcDbLine
 10
205.415351551
 20
99.900492959
 30
0.0
 11
213.0153460912
 21
99.900492959
 31
0.0
  0
ARC
  5
88
330
1F
100
AcDbEntity
  8
0
  6
Continuous
 62
     7
370
    25
100
AcDbCircle
 10
213.015349286
 20
112.5004930931
 30
0.0
 40
0.4000000000000057
100
AcDbArc
 50
0.0
 51
90.0
  0
ARC
  5
89
330
1F
100
AcDbEntity
  8
0
  6
Continuous
 62
     7
370
    25
100
AcDbCircle
 10
213.015349286
 20
100.3004930931
 30
0.0
 40
0.4000000000000057
100
AcDbArc
 50
270.0
 51
0.0
  0
ARC
  5
8A
330
1F
100
AcDbEntity
  8
0
  6
Continuous
 62
     7
370
    25
100
AcDbCircle
 10
205.015349286
 20
102.0004930931
 30
0.0
 40
0.3999999999999915
100
AcDbArc
 50
0.0
 51
90.0
  0
ARC
  5
8B
330
1F
100
AcDbEntity
  8
0
  6
Continuous
 62
     7
370
    25
100
AcDbCircle
 10
205.015349286
 20
110.8004930931
 30
0.0
 40
0.3999999999999915
100
AcDbArc
 50
270.0
 51
360.0
  0
LINE
  5
8C
330
1F
100
AcDbEntity
  8
0
  6
Continuous
 62
     7
370
    25
100
AcDbLine
 10
205.0153522305
 20
110.4004932831
 30
0.0
 11
200.4153488688
 21
110.4004932831
 31
0.0
  0
LINE
  5
8D
330
1F
100
AcDbEntity
  8
0
  6
Continuous
 62
     7
370
    25
100
AcDbLine
 10
200.4153488688
 20
102.4004929031
 30
0.0
 11
205.0153522305
 21
102.4004929031
 31
0.0
  0
ARC
  5
8E
330
1F
100
AcDbEntity
  8
0
  6
Continuous
 62
     7
370
    25
100
AcDbCircle
 10
123.715349286
 20
75.2004930931
 30
0.0
 40
0.3000000000000114
100
AcDbArc
 50
180.0
 51
270.0
  0
ARC
  5
8F
330
1F
100
AcDbEntity
  8
0
  6
Continuous
 62
     7
370
    25
100
AcDbCircle
 10
123.715349286
 20
137.6004930931
 30
0.0
 40
0.3000000000000114
100
AcDbArc
 50
90.0
 51
180.0
  0
LINE
  5
90
330
1F
100
AcDbEntity
  8
0
  6
Continuous
 62
     7
370
    25
100
AcDbLine
 10
123.7153493003
 20
74.9004925864
 30
0.0
 11
128.3653492592
 21
74.9004925864
 31
0.0
  0
LINE
  5
91
330
1F
100
AcDbEntity
  8
0
  6
Continuous
 62
     7
370
    25
100
AcDbLine
 10
128.3933378309
 20
137.9004935997
 30
0.0
 11
123.7153493003
 21
137.9004935997
 31
0.0
  0
ARC
  5
92
330
1F
100
AcDbEntity
  8
0
  6
Continuous
 62
     7
370
    25
100
AcDbCircle
 10
122.9153425333
 20
81.8300554787
 30
0.0
 40
0.6000067526677045
100
AcDbArc
 50
33.5571153394
 51
90.0
  0
ARC
  5
93
330
1F
100
AcDbEntity
  8
0
  6
Continuous
 62
     7
370
    25
100
AcDbCircle
 10
122.9153425333
 20
130.9709307075
 30
0.0
 40
0.6000067526677242
100
AcDbArc
 50
270.0
 51
326.4428846606
  0
LINE
  5
94
330
1F
100
AcDbEntity
  8
0
  6
Continuous
 62
     7
370
    25
100
AcDbLine
 10
110.1838408522
 20
130.0582229423
 30
0.0
 11
97.6153484098
 21
129.4285389858
 31
0.0
  0
LINE
  5
95
330
1F
100
AcDbEntity
  8
0
  6
Continuous
 62
     7
370
    25
100
AcDbLine
 10
121.415349191
 20
130.6209243166
 30
0.0
 11
118.5983477644
 21
130.4797916936
 31
0.0
  0
LINE
  5
96
330
1F
100
AcDbEntity
  8
0
  6
Continuous
 62
     7
370
    25
100
AcDbLine
 10
118.5984036438
 20
82.3211926299
 30
0.0
 11
121.415349191
 21
82.1800618696
 31
0.0
  0
LINE
  5
97
330
1F
100
AcDbEntity
  8
0
  6
Continuous
 62
     7
370
    25
100
AcDbLine
 10
101.6153490655
 20
83.1720470714
 30
0.0
 11
110.1842431836
 21
82.7427427548
 31
0.0
  0
LINE
  5
98
330
1F
100
AcDbEntity
  8
0
  6
Continuous
 62
     7
370
    25
100
AcDbLine
 10
121.415349191
 20
82.1800618696
 30
0.0
 11
122.2720621172
 21
82.409617983
 31
0.0
  0
LINE
  5
99
330
1F
100
AcDbEntity
  8
0
  6
Continuous
 62
     7
370
    25
100
AcDbLine
 10
122.2720621172
 20
130.3913682031
 30
0.0
 11
121.415349191
 21
130.6209243166
 31
0.0
  0
ARC
  5
9A
330
1F
100
AcDbEntity
  8
0
  6
Continuous
 62
     7
370
    25
100
AcDbCircle
 10
122.4273534865
 20
81.8300622314
 30
0.0
 40
0.5999999999999943
100
AcDbArc
 50
90.0
 51
105.0
  0
ARC
  5
9B
330
1F
100
AcDbEntity
  8
0
  6
Continuous
 62
     7
370
    25
100
AcDbCircle
 10
122.4273534865
 20
130.9709239548
 30
0.0
 40
0.5999999999999943
100
AcDbArc
 50
255.0
 51
270.0
  0
LINE
  5
9C
330
1F
100
AcDbEntity
  8
0
  6
Continuous
 62
     7
370
    25
100
AcDbLine
 10
122.4273535208
 20
82.4300623762
 30
0.0
 11
122.9153425102
 21
82.4300623762
 31
0.0
  0
LINE
  5
9D
330
1F
100
AcDbEntity
  8
0
  6
Continuous
 62
     7
370
    25
100
AcDbLine
 10
122.9153425102
 20
130.3709238099
 30
0.0
 11
122.4273535208
 21
130.3709238099
 31
0.0
  0
ARC
  5
9E
330
1F
100
AcDbEntity
  8
0
  6
Continuous
 62
     7
370
    25
100
AcDbCircle
 10
152.365349286
 20
84.4004930931
 30
0.0
 40
3.0
100
AcDbArc
 50
90.0
 51
180.0
  0
ARC
  5
9F
330
1F
100
AcDbEntity
  8
0
  6
Continuous
 62
     7
370
    25
100
AcDbCircle
 10
152.365349286
 20
128.4004930931
 30
0.0
 40
3.0
100
AcDbArc
 50
180.0
 51
270.0
  0
LINE
  5
A0
330
1F
100
AcDbEntity
  8
0
  6
Continuous
 62
     7
370
    25
100
AcDbLine
 10
152.3653494678
 20
87.400493704
 30
0.0
 11
182.6153493039
 21
87.400493704
 31
0.0
  0
LINE
  5
A1
330
1F
100
AcDbEntity
  8
0
  6
Continuous
 62
     7
370
    25
100
AcDbLine
 10
182.6153493039
 20
125.4004924821
 30
0.0
 11
152.3653494678
 21
125.4004924821
 31
0.0
  0
ARC
  5
A2
330
1F
100
AcDbEntity
  8
0
  6
Continuous
 62
     7
370
    25
100
AcDbCircle
 10
182.615349286
 20
88.2004930931
 30
0.0
 40
0.7999999999999972
100
AcDbArc
 50
270.0
 51
0.0
  0
ARC
  5
A3
330
1F
100
AcDbEntity
  8
0
  6
Continuous
 62
     7
370
    25
100
AcDbCircle
 10
182.615349286
 20
124.6004930931
 30
0.0
 40
0.7999999999999972
100
AcDbArc
 50
0.0
 51
90.0
  0
LINE
  5
A4
330
1F
100
AcDbEntity
  8
0
  6
Continuous
 62
     7
370
    25
100
AcDbLine
 10
92.7986858897
 20
85.5304929691
 30
0.0
 11
100.2153495811
 21
85.5304929691
 31
0.0
  0
ARC
  5
A5
330
1F
100
AcDbEntity
  8
0
  6
Continuous
 62
     7
370
    25
100
AcDbCircle
 10
100.215349286
 20
84.1304930931
 30
0.0
 40
1.400000000000007
100
AcDbArc
 50
42.2465410162
 51
90.0
  0
LINE
  5
A6
330
1F
100
AcDbEntity
  8
0
  6
Continuous
 62
     7
370
    25
100
AcDbLine
 10
91.5163813643
 20
86.6794600415
 30
0.0
 11
92.6565120481
 21
85.5393293577
 31
0.0
  0
LINE
  5
A7
330
1F
100
AcDbEntity
  8
0
  6
Continuous
 62
     7
370
    25
100
AcDbLine
 10
92.6565120481
 20
127.2616568285
 30
0.0
 11
91.5252512805
 21
126.1303941982
 31
0.0
  0
ARC
  5
A8
330
1F
100
AcDbEntity
  8
0
  6
Continuous
 62
     7
370
    25
100
AcDbCircle
 10
96.215349286
 20
128.6704930931
 30
0.0
 40
1.40000000000002
100
AcDbArc
 50
270.0
 51
301.7485287426
  0
LINE
  5
A9
330
1F
100
AcDbEntity
  8
0
  6
Continuous
 62
     7
370
    25
100
AcDbLine
 10
96.2153489254
 20
127.2704932171
 30
0.0
 11
92.7896148078
 21
127.2704932171
 31
0.0
  0
ARC
  5
AA
330
1F
100
AcDbEntity
  8
0
  6
Continuous
 62
     7
370
    25
100
AcDbCircle
 10
183.915349286
 20
98.0504930931
 30
0.0
 40
0.6000000000000085
100
AcDbArc
 50
90.0
 51
146.4426902381
  0
ARC
  5
AB
330
1F
100
AcDbEntity
  8
0
  6
Continuous
 62
     7
370
    25
100
AcDbCircle
 10
183.915349286
 20
114.7504930931
 30
0.0
 40
0.6000000000000085
100
AcDbArc
 50
213.5573097619
 51
270.0
  0
LINE
  5
AC
330
1F
100
AcDbEntity
  8
0
  6
Continuous
 62
     7
370
    25
100
AcDbLine
 10
185.4153482727
 20
98.4004927131
 30
0.0
 11
199.6153502278
 21
98.4004927131
 31
0.0
  0
LINE
  5
AD
330
1F
100
AcDbEntity
  8
0
  6
Continuous
 62
     7
370
    25
100
AcDbLine
 10
199.6153502278
 20
114.4004934731
 30
0.0
 11
185.4153482727
 21
114.4004934731
 31
0.0
  0
ARC
  5
AE
330
1F
100
AcDbEntity
  8
0
  6
Continuous
 62
     7
370
    25
100
AcDbCircle
 10
199.615349286
 20
99.2004930931
 30
0.0
 40
0.7999999999999972
100
AcDbArc
 50
270.0
 51
0.0
  0
ARC
  5
AF
330
1F
100
AcDbEntity
  8
0
  6
Continuous
 62
     7
370
    25
100
AcDbCircle
 10
199.615349286
 20
113.6004930931
 30
0.0
 40
0.7999999999999972
100
AcDbArc
 50
0.0
 51
90.0
  0
LINE
  5
B0
330
1F
100
AcDbEntity
  8
0
  6
Continuous
 62
     7
370
    25
100
AcDbLine
 10
185.4153482727
 20
114.4004934731
 30
0.0
 11
184.5586358122
 21
114.1709378252
 31
0.0
  0
LINE
  5
B1
330
1F
100
AcDbEntity
  8
0
  6
Continuous
 62
     7
370
    25
100
AcDbLine
 10
184.5586358122
 20
98.6300483609
 30
0.0
 11
185.4153482727
 21
98.4004927131
 31
0.0
  0
ARC
  5
B2
330
1F
100
AcDbEntity
  8
0
  6
Continuous
 62
     7
370
    25
100
AcDbCircle
 10
184.4033450856
 20
98.0504930931
 30
0.0
 40
0.6000000000000085
100
AcDbArc
 50
75.0
 51
90.0
  0
ARC
  5
B3
330
1F
100
AcDbEntity
  8
0
  6
Continuous
 62
     7
370
    25
100
AcDbCircle
 10
184.4033450856
 20
114.7504930931
 30
0.0
 40
0.6000000000000085
100
AcDbArc
 50
270.0
 51
285.0
  0
LINE
  5
B4
330
1F
100
AcDbEntity
  8
0
  6
Continuous
 62
     7
370
    25
100
AcDbLine
 10
183.9153489582
 20
98.6504932197
 30
0.0
 11
184.4033433608
 21
98.6504932197
 31
0.0
  0
LINE
  5
B5
330
1F
100
AcDbEntity
  8
0
  6
Continuous
 62
     7
370
    25
100
AcDbLine
 10
184.4033433608
 20
114.1504929664
 30
0.0
 11
183.9153489582
 21
114.1504929664
 31
0.0
  0
LINE
  5
B6
330
1F
100
AcDbEntity
  8
0
  6
Continuous
 62
     7
370
    25
100
AcDbLine
 10
188.4153469018
 20
116.9004929515
 30
0.0
 11
188.4153469018
 21
123.9004931676
 31
0.0
  0
LINE
  5
B7
330
1F
100
AcDbEntity
  8
0
  6
Continuous
 62
     7
370
    25
100
AcDbLine
 10
188.4153469018
 20
88.9004930186
 30
0.0
 11
188.4153469018
 21
95.9004932346
 31
0.0
  0
LINE
  5
B8
330
1F
100
AcDbEntity
  8
0
  6
Continuous
 62
     7
370
    25
100
AcDbLine
 10
205.415351551
 20
112.9004932272
 30
0.0
 11
205.415351551
 21
99.900492959
 31
0.0
  0
LINE
  5
B9
330
1F
100
AcDbEntity
  8
0
  6
Continuous
 62
     7
370
    25
100
AcDbLine
 10
213.4153528623
 20
112.5004929754
 30
0.0
 11
213.4153528623
 21
100.3004932108
 31
0.0
  0
LINE
  5
BA
330
1F
100
AcDbEntity
  8
0
  6
Continuous
 62
     7
370
    25
100
AcDbLine
 10
148.7653499953
 20
76.2135754603
 30
0.0
 11
144.8072812073
 21
76.2135754603
 31
0.0
  0
LINE
  5
BB
330
1F
100
AcDbEntity
  8
0
  6
Continuous
 62
     7
370
    25
100
AcDbLine
 10
144.8072812073
 20
76.2135754603
 30
0.0
 11
144.8072812073
 21
126.2504938322
 31
0.0
  0
LINE
  5
BC
330
1F
100
AcDbEntity
  8
0
  6
Continuous
 62
     7
370
    25
100
AcDbLine
 10
144.8072812073
 20
126.2504938322
 30
0.0
 11
148.7653499953
 21
126.2504938322
 31
0.0
  0
SPLINE
  5
BD
330
1F
100
AcDbEntity
  8
0
  6
Continuous
 62
     7
370
    25
100
AcDbSpline
210
0.0
220
0.0
230
1.0
 70
     8
 71
     3
 72
     8
 73
     4
 74
     0
 42
0.000000001
 43
0.00000001
 40
0.0
 40
0.0
 40
0.0
 40
0.0
 40
1.0
 40
1.0
 40
1.0
 40
1.0
 10
144.807282117506
 20
76.21357539682717
 30
0.0
 10
144.3118024568403
 20
77.10910148476054
 30
0.0
 10
143.8176884087982
 20
78.0053858998128
 30
0.0
 10
143.325349286017
 20
78.90265593401949
 30
0.0
  0
LINE
  5
BE
330
1F
100
AcDbEntity
  8
0
  6
Continuous
 62
     7
370
    25
100
AcDbLine
 10
143.3253495507
 20
78.9026557731
 30
0.0
 11
143.3253495507
 21
126.2504938322
 31
0.0
  0
SPLINE
  5
BF
330
1F
100
AcDbEntity
  8
0
  6
Continuous
 62
     7
370
    25
100
AcDbSpline
210
0.0
220
0.0
230
1.0
 70
    24
 71
     3
 72
     8
 73
     4
 74
     0
 42
0.000000001
 43
0.00000001
 40
0.0
 40
0.0
 40
0.0
 40
0.0
 40
1.0
 40
1.0
 40
1.0
 40
1.0
 10
143.325349286017
 20
126.2504930930743
 30
0.0
 10
143.8053012803819
 20
126.2504930930743
 30
0.0
 10
144.3006020093555
 20
126.2504930930743
 30
0.0
 10
144.8072821175061
 20
126.2504930930743
 30
0.0
  0
LINE
  5
C0
330
1F
100
AcDbEntity
  8
0
  6
Continuous
 62
     7
370
    25
100
AcDbLine
 10
139.5053493343
 20
78.9026557731
 30
0.0
 11
139.5053493343
 21
126.2504938322
 31
0.0
  0
SPLINE
  5
C1
330
1F
100
AcDbEntity
  8
0
  6
Continuous
 62
     7
370
    25
100
AcDbSpline
210
0.0
220
0.0
230
1.0
 70
     8
 71
     3
 72
     8
 73
     4
 74
     0
 42
0.000000001
 43
0.00000001
 40
0.0
 40
0.0
 40
0.0
 40
0.0
 40
1.0
 40
1.0
 40
1.0
 40
1.0
 10
139.505349286017
 20
78.90265593401948
 30
0.0
 10
139.0130101632358
 20
78.00538589981278
 30
0.0
 10
138.5188961151937
 20
77.10910148476053
 30
0.0
 10
138.023416454528
 20
76.21357539682717
 30
0.0
  0
LINE
  5
C2
330
1F
100
AcDbEntity
  8
0
  6
Continuous
 62
     7
370
    25
100
AcDbLine
 10
138.0234167464
 20
76.2135754603
 30
0.0
 11
138.0234167464
 21
126.2504938322
 31
0.0
  0
SPLINE
  5
C3
330
1F
100
AcDbEntity
  8
0
  6
Continuous
 62
     7
370
    25
100
AcDbSpline
210
0.0
220
0.0
230
1.0
 70
    24
 71
     3
 72
     8
 73
     4
 74
     0
 42
0.000000001
 43
0.00000001
 40
0.0
 40
0.0
 40
0.0
 40
0.0
 40
1.0
 40
1.0
 40
1.0
 40
1.0
 10
138.023416454528
 20
126.2504930930743
 30
0.0
 10
138.5300965626785
 20
126.2504930930743
 30
0.0
 10
139.0253972916521
 20
126.2504930930743
 30
0.0
 10
139.505349286017
 20
126.2504930930743
 30
0.0
  0
LINE
  5
C4
330
1F
100
AcDbEntity
  8
0
  6
Continuous
 62
     7
370
    25
100
AcDbLine
 10
149.3653489761
 20
76.8402158546
 30
0.0
 11
149.3653489761
 21
126.2504938322
 31
0.0
  0
SPLINE
  5
C5
330
1F
100
AcDbEntity
  8
0
  6
Continuous
 62
     7
370
    25
100
AcDbSpline
210
0.0
220
0.0
230
1.0
 70
     8
 71
     3
 72
    10
 73
     6
 74
     0
 42
0.000000001
 43
0.00000001
 40
0.0
 40
0.0
 40
0.0
 40
0.0
 40
0.5
 40
0.5
 40
1.0
 40
1.0
 40
1.0
 40
1.0
 10
149.365349286017
 20
76.8402156924815
 30
0.0
 10
149.365349286017
 20
76.67913734156103
 30
0.0
 10
149.3036650667281
 20
76.51865257273838
 30
0.0
 10
149.0847817505321
 20
76.28508183743833
 30
0.0
 10
148.9256097008133
 20
76.21357539682714
 30
0.0
 10
148.765349286017
 20
76.21357539682715
 30
0.0
  0
SPLINE
  5
C6
330
1F
100
AcDbEntity
  8
0
  6
Continuous
 62
     7
370
    25
100
AcDbSpline
210
0.0
220
0.0
230
1.0
 70
    24
 71
     3
 72
    12
 73
     8
 74
     0
 42
0.000000001
 43
0.00000001
 40
0.0
 40
0.0
 40
0.0
 40
0.0
 40
0.250000000000002
 40
0.250000000000002
 40
0.500000000000004
 40
0.500000000000004
 40
1.0
 40
1.0
 40
1.0
 40
1.0
 10
148.765349286017
 20
126.2504930930743
 30
0.0
 10
148.8563416208498
 20
126.2504930930743
 30
0.0
 10
148.946334210685
 20
126.2504930930743
 30
0.0
 10
149.100554687823
 20
126.2504930930743
 30
0.0
 10
149.1658317244818
 20
126.2504930930743
 30
0.0
 10
149.3186199122542
 20
126.2504930930743
 30
0.0
 10
149.365349286017
 20
126.2504930930743
 30
0.0
 10
149.365349286017
 20
126.2504930930743
 30
0.0
  0
LINE
  5
C7
330
1F
100
AcDbEntity
  8
0
  6
Continuous
 62
     7
370
    25
100
AcDbLine
 10
123.415349286
 20
75.2004939395
 30
0.0
 11
123.415349286
 21
137.6004922467
 31
0.0
  0
LINE
  5
C8
330
1F
100
AcDbEntity
  8
0
  6
Continuous
 62
     7
370
    25
100
AcDbLine
 10
128.3653492592
 20
126.2504938322
 30
0.0
 11
138.0234167464
 21
126.2504938322
 31
0.0
  0
LINE
  5
C9
330
1F
100
AcDbEntity
  8
0
  6
Continuous
 62
     7
370
    25
100
AcDbLine
 10
138.0234167464
 20
76.2135754603
 30
0.0
 11
136.3653496392
 21
76.2135754603
 31
0.0
  0
SPLINE
  5
CA
330
1F
100
AcDbEntity
  8
0
  6
Continuous
 62
     7
370
    25
100
AcDbSpline
210
0.0
220
0.0
230
1.0
 70
     8
 71
     3
 72
    28
 73
    24
 74
     0
 42
0.000000001
 43
0.00000001
 40
0.0
 40
0.0
 40
0.0
 40
0.0
 40
0.1250000000000001
 40
0.1250000000000001
 40
0.1875000000000001
 40
0.1875000000000001
 40
0.2500000000000001
 40
0.2500000000000001
 40
0.3749999999999999
 40
0.3749999999999999
 40
0.4375
 40
0.4375
 40
0.4999999999999999
 40
0.4999999999999999
 40
0.6249999999999999
 40
0.6249999999999999
 40
0.7499999999999997
 40
0.7499999999999997
 40
0.8124999999999998
 40
0.8124999999999998
 40
0.8749999999999998
 40
0.8749999999999998
 40
1.0
 40
1.0
 40
1.0
 40
1.0
 10
136.365349286017
 20
76.21357539682717
 30
0.0
 10
135.8336415285241
 20
76.21357539682718
 30
0.0
 10
135.3114029632137
 20
76.19779068287697
 30
0.0
 10
134.5415324769387
 20
76.15279526880076
 30
0.0
 10
134.2871729047474
 20
76.13424027372504
 30
0.0
 10
133.7830513240489
 20
76.09038755127852
 30
0.0
 10
133.533328506621
 20
76.06504294432632
 30
0.0
 10
132.8077385551746
 20
75.98164086657621
 30
0.0
 10
132.349378293593
 20
75.91577530742514
 30
0.0
 10
131.6988803501991
 20
75.80680496693334
 30
0.0
 10
131.4871982994067
 20
75.76856533116668
 30
0.0
 10
131.0831268102687
 20
75.69080659374733
 30
0.0
 10
130.8906202964478
 20
75.65130563157199
 30
0.0
 10
130.3407853254265
 20
75.53239788920598
 30
0.0
 10
130.0108565471177
 20
75.45258020778138
 30
0.0
 10
129.426385278549
 20
75.29923704598532
 30
0.0
 10
129.1801081405356
 20
75.22790329271606
 30
0.0
 10
128.8802653478375
 20
75.13395978564144
 30
0.0
 10
128.7918084907654
 20
75.10476599228151
 30
0.0
 10
128.6384471374602
 20
75.0512994180181
 30
0.0
 10
128.573358923234
 20
75.02694008374291
 30
0.0
 10
128.4177649072932
 20
74.96334993829818
 30
0.0
 10
128.365349286017
 20
74.93324700320893
 30
0.0
 10
128.365349286017
 20
74.91637011021201
 30
0.0
  0
LINE
  5
CB
330
1F
100
AcDbEntity
  8
0
  6
Continuous
 62
     7
370
    25
100
AcDbLine
 10
128.3653492592
 20
74.9163697737
 30
0.0
 11
128.3653492592
 21
74.9004925864
 31
0.0
  0
SPLINE
  5
CC
330
1F
100
AcDbEntity
  8
0
  6
Continuous
 62
     7
370
    25
100
AcDbSpline
210
0.0
220
0.0
230
1.0
 70
     8
 71
     3
 72
    17
 73
    13
 74
     0
 42
0.000000001
 43
0.00000001
 40
0.0
 40
0.0
 40
0.0
 40
0.0
 40
0.1034797280380778
 40
0.2100239090909901
 40
0.3134862262879433
 40
0.4198361712144981
 40
0.5254127947779869
 40
0.6339610881168427
 40
0.7409508662120068
 40
0.8511696072047016
 40
0.9558996557845765
 40
1.0
 40
1.0
 40
1.0
 40
1.0
 10
136.3653496391745
 20
136.8676885294328
 30
0.0
 10
135.9301011474486
 20
136.8731365210704
 30
0.0
 10
135.0467146968716
 20
136.8841938413991
 30
0.0
 10
133.7658868346489
 20
136.9705526017741
 30
0.0
 10
132.5484706392069
 20
137.0984237449071
 30
0.0
 10
131.4406640228811
 20
137.2573681522256
 30
0.0
 10
130.4524255435523
 20
137.4318627252102
 30
0.0
 10
129.6277024437364
 20
137.6010291583971
 30
0.0
 10
128.9787487862378
 20
137.7489099668647
 30
0.0
 10
128.5617134827582
 20
137.8507007183873
 30
0.0
 10
128.3631167398802
 20
137.9010576180218
 30
0.0
 10
128.3864298568681
 20
137.8951480130463
 30
0.0
 10
128.3933378308685
 20
137.8933969216953
 30
0.0
  0
LINE
  5
CD
330
1F
100
AcDbEntity
  8
0
  6
Continuous
 62
     7
370
    25
100
AcDbLine
 10
138.0234167464
 20
136.8676885294
 30
0.0
 11
136.3653496392
 21
136.8676885294
 31
0.0
  0
LINE
  5
CE
330
1F
100
AcDbEntity
  8
0
  6
Continuous
 62
     7
370
    25
100
AcDbLine
 10
138.0234167464
 20
130.8591827082
 30
0.0
 11
138.0234167464
 21
136.8676885294
 31
0.0
  0
LINE
  5
CF
330
1F
100
AcDbEntity
  8
0
  6
Continuous
 62
     7
370
    25
100
AcDbLine
 10
135.6109699718
 20
130.8591827082
 30
0.0
 11
138.0234167464
 21
130.8591827082
 31
0.0
  0
SPLINE
  5
D0
330
1F
100
AcDbEntity
  8
0
  6
Continuous
 62
     7
370
    25
100
AcDbSpline
210
0.0
220
0.0
230
1.0
 70
     8
 71
     3
 72
    20
 73
    16
 74
     0
 42
0.000000001
 43
0.00000001
 40
0.0
 40
0.0
 40
0.0
 40
0.0
 40
0.2499999999999997
 40
0.2499999999999997
 40
0.3749999999999997
 40
0.3749999999999997
 40
0.4999999999999998
 40
0.4999999999999998
 40
0.6249999999999998
 40
0.6249999999999998
 40
0.7499999999999999
 40
0.7499999999999999
 40
0.8749999999999999
 40
0.8749999999999999
 40
1.0
 40
1.0
 40
1.0
 40
1.0
 10
128.365349286017
 20
126.2504930930743
 30
0.0
 10
128.6137230203051
 20
126.9043555213717
 30
0.0
 10
128.9332931126503
 20
127.5081413033689
 30
0.0
 10
129.555599345855
 20
128.3349800395375
 30
0.0
 10
129.7870236062858
 20
128.5974086774904
 30
0.0
 10
130.3082379459355
 20
129.0940713315954
 30
0.0
 10
130.5948584285705
 20
129.3246582106169
 30
0.0
 10
131.2143431698782
 20
129.7412124351995
 30
0.0
 10
131.5486435493651
 20
129.9287102371671
 30
0.0
 10
132.2739040219899
 20
130.2601072148035
 30
0.0
 10
132.6558190793804
 20
130.3996112022987
 30
0.0
 10
133.4506072555521
 20
130.6250647097697
 30
0.0
 10
133.8647654497584
 20
130.7116908213133
 30
0.0
 10
134.7303117903398
 20
130.8296716101675
 30
0.0
 10
135.1681994053517
 20
130.8591827554418
 30
0.0
 10
135.6109696317063
 20
130.8591827554418
 30
0.0
  0
SPLINE
  5
D1
330
1F
100
AcDbEntity
  8
0
  6
Continuous
 62
     7
370
    25
100
AcDbSpline
210
0.0
220
0.0
230
1.0
 70
    11
 71
     3
 72
    70
 73
    66
 74
     0
 42
0.000000001
 43
0.00000001
 40
0.0
 40
0.0
 40
0.0
 40
0.0
 40
0.0312499999999999
 40
0.0312499999999999
 40
0.0624999999999998
 40
0.0624999999999998
 40
0.0937499999999997
 40
0.0937499999999997
 40
0.1249999999999996
 40
0.1249999999999996
 40
0.1562499999999994
 40
0.1562499999999994
 40
0.1874999999999993
 40
0.1874999999999993
 40
0.2187499999999992
 40
0.2187499999999992
 40
0.2499999999999991
 40
0.2499999999999991
 40
0.281249999999999
 40
0.281249999999999
 40
0.3124999999999989
 40
0.3124999999999989
 40
0.3437499999999988
 40
0.3437499999999988
 40
0.3749999999999987
 40
0.3749999999999987
 40
0.4062499999999986
 40
0.4062499999999986
 40
0.4374999999999984
 40
0.4374999999999984
 40
0.4687499999999983
 40
0.4687499999999983
 40
0.4999999999999982
 40
0.4999999999999982
 40
0.5312499999999982
 40
0.5312499999999982
 40
0.5624999999999982
 40
0.5624999999999982
 40
0.5937499999999982
 40
0.5937499999999982
 40
0.6249999999999982
 40
0.6249999999999982
 40
0.6562499999999982
 40
0.6562499999999982
 40
0.6874999999999982
 40
0.6874999999999982
 40
0.7187499999999982
 40
0.7187499999999982
 40
0.7499999999999982
 40
0.7499999999999982
 40
0.7812499999999984
 40
0.7812499999999984
 40
0.8124999999999987
 40
0.8124999999999987
 40
0.8437499999999989
 40
0.8437499999999989
 40
0.8749999999999991
 40
0.8749999999999991
 40
0.9062499999999993
 40
0.9062499999999993
 40
0.9374999999999996
 40
0.9374999999999996
 40
0.9687499999999998
 40
0.9687499999999998
 40
1.0
 40
1.0
 40
1.0
 40
1.0
 10
131.415349286017
 20
117.0213999790577
 30
0.0
 10
131.1508039473569
 20
117.0213999790577
 30
0.0
 10
130.8907332799797
 20
117.0460772738429
 30
0.0
 10
130.3791586001443
 20
117.1425489468848
 30
0.0
 10
130.1249833164042
 20
117.2155298628648
 30
0.0
 10
129.6407126863425
 20
117.4052704658035
 30
0.0
 10
129.4110715944613
 20
117.5211311241972
 30
0.0
 10
128.9764672462278
 20
117.7937489701549
 30
0.0
 10
128.7709014695812
 20
117.9517880522087
 30
0.0
 10
128.4023443289859
 20
118.2953309031793
 30
0.0
 10
128.2368633462505
 20
118.482093347281
 30
0.0
 10
127.9444388368154
 20
118.8856365216778
 30
0.0
 10
127.8203378601889
 20
119.099133518107
 30
0.0
 10
127.6207586634391
 20
119.5385168320295
 30
0.0
 10
127.5438250775809
 20
119.7676568191751
 30
0.0
 10
127.4409680190605
 20
120.2336309419351
 30
0.0
 10
127.4154951096014
 20
120.4665133876113
 30
0.0
 10
127.4152046990336
 20
120.9319109226911
 30
0.0
 10
127.4412293328093
 20
121.1667866800854
 30
0.0
 10
127.5433776173013
 20
121.6182798273317
 30
0.0
 10
127.6189540648845
 20
121.8363263027431
 30
0.0
 10
127.8194515960294
 20
122.2574208277809
 30
0.0
 10
127.9445804375378
 20
122.4593422122992
 30
0.0
 10
128.2339392385594
 20
122.8313716948181
 30
0.0
 10
128.3993502256149
 20
123.0039999983985
 30
0.0
 10
128.7723407837627
 20
123.3213180029445
 30
0.0
 10
128.9740738168518
 20
123.4611049364461
 30
0.0
 10
129.4069330676796
 20
123.7052811899979
 30
0.0
 10
129.6408516005691
 20
123.8105107010394
 30
0.0
 10
130.1250353357117
 20
123.9786678474145
 30
0.0
 10
130.3743509616672
 20
124.0419187380084
 30
0.0
 10
130.8873834860949
 20
124.127497947111
 30
0.0
 10
131.1526773089995
 20
124.1493701120334
 30
0.0
 10
131.6750119288693
 20
124.1495337616773
 30
0.0
 10
131.934765591351
 20
124.1285320695813
 30
0.0
 10
132.4513774069962
 20
124.0431297145037
 30
0.0
 10
132.7037434474965
 20
123.9791235312167
 30
0.0
 10
133.1852685690293
 20
123.8123090111755
 30
0.0
 10
133.4181193011429
 20
123.7081758477764
 30
0.0
 10
133.8552091495817
 20
123.4621891952814
 30
0.0
 10
134.0565301382389
 20
123.3224393643326
 30
0.0
 10
134.4256161635388
 20
123.009301294608
 30
0.0
 10
134.5946009145905
 20
122.8338451353379
 30
0.0
 10
134.8850569712497
 20
122.4610048712377
 30
0.0
 10
135.0081287826118
 20
122.2628830611267
 30
0.0
 10
135.2094650240338
 20
121.842171718393
 30
0.0
 10
135.286677569976
 20
121.6201816977255
 30
0.0
 10
135.3888811128761
 20
121.1703167580172
 30
0.0
 10
135.4151094643285
 20
120.9400613449004
 30
0.0
 10
135.4155858636456
 20
120.4687454023513
 30
0.0
 10
135.3898434511476
 20
120.2355079866372
 30
0.0
 10
135.2885326747837
 20
119.7738314471391
 30
0.0
 10
135.2117000353928
 20
119.542934060027
 30
0.0
 10
135.0112961961776
 20
119.1006580462353
 30
0.0
 10
134.8886246978855
 20
118.8895956149494
 30
0.0
 10
134.5986774087213
 20
118.4880971042167
 30
0.0
 10
134.4301064293561
 20
118.2971905821408
 30
0.0
 10
134.0618368352429
 20
117.9534652501438
 30
0.0
 10
133.8607749779726
 20
117.7983280639297
 30
0.0
 10
133.4237440593877
 20
117.5232507038499
 30
0.0
 10
133.1915958462581
 20
117.4061344744279
 30
0.0
 10
132.7105855647592
 20
117.2172079893634
 30
0.0
 10
132.4584854819288
 20
117.1441330189691
 30
0.0
 10
131.9414159956698
 20
117.0460809598346
 30
0.0
 10
131.6798946246772
 20
117.0213999790577
 30
0.0
 10
131.415349286017
 20
117.0213999790577
 30
0.0
  0
SPLINE
  5
D2
330
1F
100
AcDbEntity
  8
0
  6
Continuous
 62
     7
370
    25
100
AcDbSpline
210
0.0
220
0.0
230
1.0
 70
    11
 71
     3
 72
    70
 73
    66
 74
     0
 42
0.000000001
 43
0.00000001
 40
0.0
 40
0.0
 40
0.0
 40
0.0
 40
0.0312499999999998
 40
0.0312499999999998
 40
0.0624999999999996
 40
0.0624999999999996
 40
0.0937499999999995
 40
0.0937499999999995
 40
0.1249999999999993
 40
0.1249999999999993
 40
0.1562499999999991
 40
0.1562499999999991
 40
0.1874999999999989
 40
0.1874999999999989
 40
0.2187499999999987
 40
0.2187499999999987
 40
0.2499999999999986
 40
0.2499999999999986
 40
0.2812499999999986
 40
0.2812499999999986
 40
0.3124999999999985
 40
0.3124999999999985
 40
0.3437499999999985
 40
0.3437499999999985
 40
0.3749999999999985
 40
0.3749999999999985
 40
0.4062499999999985
 40
0.4062499999999985
 40
0.4374999999999984
 40
0.4374999999999984
 40
0.4687499999999984
 40
0.4687499999999984
 40
0.4999999999999984
 40
0.4999999999999984
 40
0.5312499999999984
 40
0.5312499999999984
 40
0.5624999999999986
 40
0.5624999999999986
 40
0.5937499999999986
 40
0.5937499999999986
 40
0.6249999999999986
 40
0.6249999999999986
 40
0.6562499999999987
 40
0.6562499999999987
 40
0.6874999999999987
 40
0.6874999999999987
 40
0.7187499999999988
 40
0.7187499999999988
 40
0.7499999999999988
 40
0.7499999999999988
 40
0.7812499999999989
 40
0.7812499999999989
 40
0.8124999999999991
 40
0.8124999999999991
 40
0.8437499999999992
 40
0.8437499999999992
 40
0.8749999999999993
 40
0.8749999999999993
 40
0.9062499999999996
 40
0.9062499999999996
 40
0.9374999999999997
 40
0.9374999999999997
 40
0.9687499999999999
 40
0.9687499999999999
 40
1.0
 40
1.0
 40
1.0
 40
1.0
 10
131.415349286017
 20
131.4594564878535
 30
0.0
 10
131.1508039473568
 20
131.4594564878535
 30
0.0
 10
130.8907332799797
 20
131.4753569282683
 30
0.0
 10
130.3791586001443
 20
131.5373012784426
 30
0.0
 10
130.1249833164042
 20
131.5841035125339
 30
0.0
 10
129.6407126863425
 20
131.7050804959889
 30
0.0
 10
129.4110715944613
 20
131.7786828237957
 30
0.0
 10
128.9764672462278
 20
131.9505070947739
 30
0.0
 10
128.7709014695812
 20
132.0495105177013
 30
0.0
 10
128.4023443289859
 20
132.2626069316142
 30
0.0
 10
128.2368633462505
 20
132.3775066477438
 30
0.0
 10
127.9444388368154
 20
132.6228735464341
 30
0.0
 10
127.8203378601889
 20
132.7513134469044
 30
0.0
 10
127.6207586634391
 20
133.0122055949903
 30
0.0
 10
127.5438250775809
 20
133.1465867663298
 30
0.0
 10
127.4409680190605
 20
133.4159067174361
 30
0.0
 10
127.4154951096014
 20
133.5485879816542
 30
0.0
 10
127.4152046990336
 20
133.8097744557853
 30
0.0
 10
127.4412293328093
 20
133.93953949395
 30
0.0
 10
127.5433776173013
 20
134.1851221282226
 30
0.0
 10
127.6189540648845
 20
134.3017836655316
 30
0.0
 10
127.8194515960294
 20
134.5236888556861
 30
0.0
 10
127.9445804375378
 20
134.6283001096091
 30
0.0
 10
128.2339392385594
 20
134.8183465212172
 30
0.0
 10
128.3993502256149
 20
134.9051061926668
 30
0.0
 10
128.7723407837627
 20
135.0626105684184
 30
0.0
 10
128.9740738168518
 20
135.1309358332056
 30
0.0
 10
129.4069330676796
 20
135.2491655568248
 30
0.0
 10
129.6408516005691
 20
135.2994604729287
 30
0.0
 10
130.1250353357117
 20
135.3793260098183
 30
0.0
 10
130.3743509616672
 20
135.4090671376179
 30
0.0
 10
130.8873834860949
 20
135.4492198791261
 30
0.0
 10
131.1526773089995
 20
135.4594181485359
 30
0.0
 10
131.6750119288693
 20
135.4594946069207
 30
0.0
 10
131.934765591351
 20
135.4497035953116
 30
0.0
 10
132.4513774069962
 20
135.4096367565729
 30
0.0
 10
132.7037434474965
 20
135.3795395897161
 30
0.0
 10
133.1852685690293
 20
135.3003173798859
 30
0.0
 10
133.4181193011429
 20
135.2505599004225
 30
0.0
 10
133.8552091495817
 20
135.1314679579721
 30
0.0
 10
134.0565301382389
 20
135.0631526964248
 30
0.0
 10
134.4256161635388
 20
134.9077517294913
 30
0.0
 10
134.5946009145904
 20
134.8195993874243
 30
0.0
 10
134.8850569712496
 20
134.629159998308
 30
0.0
 10
135.0081287826118
 20
134.526535420609
 30
0.0
 10
135.2094650240338
 20
134.3048950740008
 30
0.0
 10
135.286677569976
 20
134.1861409984533
 30
0.0
 10
135.3888811128761
 20
133.9414750595357
 30
0.0
 10
135.4151094643285
 20
133.8143183340871
 30
0.0
 10
135.4155858636456
 20
133.5498701882316
 30
0.0
 10
135.3898434511476
 20
133.4169695079744
 30
0.0
 10
135.2885326747837
 20
133.1501772344924
 30
0.0
 10
135.2117000353928
 20
133.0148133330238
 30
0.0
 10
135.0112961961776
 20
132.7522335377212
 30
0.0
 10
134.8886246978855
 20
132.6252583779675
 30
0.0
 10
134.5986774087213
 20
132.381178991885
 30
0.0
 10
134.4301064293561
 20
132.2637538671312
 30
0.0
 10
134.0618368352429
 20
132.0505574061827
 30
0.0
 10
133.8607749779726
 20
131.9533832877578
 30
0.0
 10
133.4237440593877
 20
131.7800284005437
 30
0.0
 10
133.1915958462581
 20
131.705628848887
 30
0.0
 10
132.7105855647592
 20
131.5851759693824
 30
0.0
 10
132.4584854819288
 20
131.5383175941163
 30
0.0
 10
131.9414159956698
 20
131.4753600971326
 30
0.0
 10
131.6798946246772
 20
131.4594564878535
 30
0.0
 10
131.415349286017
 20
131.4594564878535
 30
0.0
  0
ARC
  5
D3
330
1F
100
AcDbEntity
  8
0
  6
Continuous
 62
     7
370
    25
100
AcDbCircle
 10
131.4151560771
 20
118.3057085575
 30
0.0
 40
4.11177237072329
100
AcDbArc
 50
19.6499532614
 51
160.2634845382
  0
SPLINE
  5
D4
330
1F
100
AcDbEntity
  8
0
  6
Continuous
 62
     7
370
    25
100
AcDbSpline
210
0.0
220
0.0
230
1.0
 70
    24
 71
     3
 72
    14
 73
    10
 74
     0
 42
0.000000001
 43
0.00000001
 40
0.0
 40
0.0
 40
0.0
 40
0.0
 40
0.5000000000000013
 40
0.5000000000000013
 40
0.750000000000002
 40
0.750000000000002
 40
0.875000000000001
 40
0.875000000000001
 40
1.0
 40
1.0
 40
1.0
 40
1.0
 10
143.2276744836847
 20
80.00049309307433
 30
0.0
 10
143.1808897786365
 20
80.00049309307433
 30
0.0
 10
143.1188385818569
 20
80.00049309307434
 30
0.0
 10
142.9754469433063
 20
80.00049309307433
 30
0.0
 10
142.9193032897551
 20
80.00049309307433
 30
0.0
 10
142.806352267619
 20
80.00049309307433
 30
0.0
 10
142.7633515055808
 20
80.00049309307433
 30
0.0
 10
142.6592887952743
 20
80.00049309307433
 30
0.0
 10
142.5939565569174
 20
80.00049309307434
 30
0.0
 10
142.525349286017
 20
80.00049309307433
 30
0.0
  0
SPLINE
  5
D5
330
1F
100
AcDbEntity
  8
0
  6
Continuous
 62
     7
370
    25
100
AcDbSpline
210
0.0
220
0.0
230
1.0
 70
    24
 71
     3
 72
    12
 73
     8
 74
     0
 42
0.000000001
 43
0.00000001
 40
0.0
 40
0.0
 40
0.0
 40
0.0
 40
0.5000000000000017
 40
0.5000000000000017
 40
0.7500000000000008
 40
0.7500000000000008
 40
1.0
 40
1.0
 40
1.0
 40
1.0
 10
142.931051754326
 20
132.8004930930744
 30
0.0
 10
142.8879662047151
 20
132.8004930930744
 30
0.0
 10
142.8388140029657
 20
132.8004930930744
 30
0.0
 10
142.7423414086778
 20
132.8004930930744
 30
0.0
 10
142.7062398235433
 20
132.8004930930744
 30
0.0
 10
142.623134065682
 20
132.8004930930744
 30
0.0
 10
142.5751374687157
 20
132.8004930930744
 30
0.0
 10
142.525349286017
 20
132.8004930930744
 30
0.0
  0
SPLINE
  5
D6
330
1F
100
AcDbEntity
  8
0
  6
Continuous
 62
     7
370
    25
100
AcDbSpline
210
0.0
220
0.0
230
1.0
 70
     8
 71
     3
 72
    10
 73
     6
 74
     0
 42
0.000000001
 43
0.00000001
 40
0.0
 40
0.0
 40
0.0
 40
0.0
 40
0.5
 40
0.5
 40
1.0
 40
1.0
 40
1.0
 40
1.0
 10
143.325349286017
 20
133.5201469441101
 30
0.0
 10
143.325349286017
 20
133.3763768862921
 30
0.0
 10
143.2893002272981
 20
133.2339575237969
 30
0.0
 10
143.1537913665241
 20
132.9840632304397
 30
0.0
 10
143.0539153734279
 20
132.8760328941915
 30
0.0
 10
142.931051754326
 20
132.8004930930743
 30
0.0
  0
SPLINE
  5
D7
330
1F
100
AcDbEntity
  8
0
  6
Continuous
 62
     7
370
    25
100
AcDbSpline
210
0.0
220
0.0
230
1.0
 70
     8
 71
     3
 72
    10
 73
     6
 74
     0
 42
0.000000001
 43
0.00000001
 40
0.0
 40
0.0
 40
0.0
 40
0.0
 40
0.5
 40
0.5
 40
1.0
 40
1.0
 40
1.0
 40
1.0
 10
143.2992016628569
 20
126.2504930930743
 30
0.0
 10
143.3078913057685
 20
126.2973719423925
 30
0.0
 10
143.314430370519
 20
126.3447944077938
 30
0.0
 10
143.3231890049121
 20
126.4407312063805
 30
0.0
 10
143.325349286017
 20
126.488646494391
 30
0.0
 10
143.325349286017
 20
126.5363597245355
 30
0.0
  0
SPLINE
  5
D8
330
1F
100
AcDbEntity
  8
0
  6
Continuous
 62
     7
370
    25
100
AcDbSpline
210
0.0
220
0.0
230
1.0
 70
     8
 71
     3
 72
    10
 73
     6
 74
     0
 42
0.000000001
 43
0.00000001
 40
0.0
 40
0.0
 40
0.0
 40
0.0
 40
0.5
 40
0.5
 40
1.0
 40
1.0
 40
1.0
 40
1.0
 10
139.8996468177079
 20
132.8004930930744
 30
0.0
 10
139.7781065540394
 20
132.8752192602861
 30
0.0
 10
139.6767721936905
 20
132.9841642762029
 30
0.0
 10
139.5411332508021
 20
133.2345947569645
 30
0.0
 10
139.505349286017
 20
133.3770141190634
 30
0.0
 10
139.505349286017
 20
133.5201469441101
 30
0.0
  0
SPLINE
  5
D9
330
1F
100
AcDbEntity
  8
0
  6
Continuous
 62
     7
370
    25
100
AcDbSpline
210
0.0
220
0.0
230
1.0
 70
    24
 71
     3
 72
    12
 73
     8
 74
     0
 42
0.000000001
 43
0.00000001
 40
0.0
 40
0.0
 40
0.0
 40
0.0
 40
0.2499999999999963
 40
0.2499999999999963
 40
0.4999999999999926
 40
0.4999999999999926
 40
1.0
 40
1.0
 40
1.0
 40
1.0
 10
140.305349286017
 20
132.8004930930744
 30
0.0
 10
140.2554726036995
 20
132.8004930930744
 30
0.0
 10
140.2074694102959
 20
132.8004930930744
 30
0.0
 10
140.124421307584
 20
132.8004930930744
 30
0.0
 10
140.0882917281161
 20
132.8004930930744
 30
0.0
 10
139.9923796971719
 20
132.8004930930744
 30
0.0
 10
139.9426210292031
 20
132.8004930930744
 30
0.0
 10
139.8996468177079
 20
132.8004930930744
 30
0.0
  0
SPLINE
  5
DA
330
1F
100
AcDbEntity
  8
0
  6
Continuous
 62
     7
370
    25
100
AcDbSpline
210
0.0
220
0.0
230
1.0
 70
    24
 71
     3
 72
    14
 73
    10
 74
     0
 42
0.000000001
 43
0.00000001
 40
0.0
 40
0.0
 40
0.0
 40
0.0
 40
0.1249999999999994
 40
0.1249999999999994
 40
0.2499999999999988
 40
0.2499999999999988
 40
0.4999999999999984
 40
0.4999999999999984
 40
1.0
 40
1.0
 40
1.0
 40
1.0
 10
140.305349286017
 20
80.00049309307433
 30
0.0
 10
140.2369114381306
 20
80.00049309307433
 30
0.0
 10
140.1713613993655
 20
80.00049309307433
 30
0.0
 10
140.0669347599576
 20
80.00049309307433
 30
0.0
 10
140.0243901501961
 20
80.00049309307433
 30
0.0
 10
139.9117806896559
 20
80.00049309307434
 30
0.0
 10
139.8562416426363
 20
80.00049309307434
 30
0.0
 10
139.7136299471726
 20
80.00049309307433
 30
0.0
 10
139.6502245921768
 20
80.00049309307433
 30
0.0
 10
139.6030240883493
 20
80.00049309307433
 30
0.0
  0
SPLINE
  5
DB
330
1F
100
AcDbEntity
  8
0
  6
Continuous
 62
     7
370
    25
100
AcDbSpline
210
0.0
220
0.0
230
1.0
 70
     8
 71
     3
 72
    10
 73
     6
 74
     0
 42
0.000000001
 43
0.00000001
 40
0.0
 40
0.0
 40
0.0
 40
0.0
 40
0.5
 40
0.5
 40
1.0
 40
1.0
 40
1.0
 40
1.0
 10
139.505349286017
 20
126.5363597245357
 30
0.0
 10
139.505349286017
 20
126.4885882165424
 30
0.0
 10
139.5075105296142
 20
126.4408784944807
 30
0.0
 10
139.5161819034743
 20
126.3455833769325
 30
0.0
 10
139.5227110864303
 20
126.2978908129658
 30
0.0
 10
139.5314969091771
 20
126.2504930930743
 30
0.0
  0
LINE
  5
DC
330
1F
100
AcDbEntity
  8
0
  6
Continuous
 62
     7
370
    25
100
AcDbLine
 10
142.525349047
 20
132.80049295
 30
0.0
 11
140.305349838
 21
132.80049295
 31
0.0
  0
LINE
  5
DD
330
1F
100
AcDbEntity
  8
0
  6
Continuous
 62
     7
370
    25
100
AcDbLine
 10
142.525349047
 20
80.0004932361
 30
0.0
 11
140.305349838
 21
80.0004932361
 31
0.0
  0
LINE
  5
DE
330
1F
100
AcDbEntity
  8
0
  6
Continuous
 62
     7
370
    25
100
AcDbLine
 10
101.6153490655
 20
83.1720470714
 30
0.0
 11
101.6153490655
 21
84.436755188
 31
0.0
  0
SPLINE
  5
DF
330
1F
100
AcDbEntity
  8
0
  6
Continuous
 62
     7
370
    25
100
AcDbSpline
210
0.0
220
0.0
230
1.0
 70
     8
 71
     3
 72
    14
 73
    10
 74
     0
 42
0.000000001
 43
0.00000001
 40
0.0
 40
0.0
 40
0.0
 40
0.0
 40
0.25
 40
0.25
 40
0.5
 40
0.5
 40
0.75
 40
0.75
 40
1.0
 40
1.0
 40
1.0
 40
1.0
 10
100.8370621681013
 20
85.56734176951439
 30
0.0
 10
100.8936888433034
 20
85.45964431567752
 30
0.0
 10
100.9882115035931
 20
85.35685473395822
 30
0.0
 10
101.1712564791553
 20
85.15849742173806
 30
0.0
 10
101.26288305611
 20
85.06243791305981
 30
0.0
 10
101.4217363738032
 20
84.87490887035057
 30
0.0
 10
101.4896269814249
 20
84.78349989756701
 30
0.0
 10
101.5865440071325
 20
84.60512367665686
 30
0.0
 10
101.6153492860176
 20
84.51790177041069
 30
0.0
 10
101.6153492860176
 20
84.43675556187644
 30
0.0
  0
SPLINE
  5
E0
330
1F
100
AcDbEntity
  8
0
  6
Continuous
 62
     7
370
    25
100
AcDbSpline
210
0.0
220
0.0
230
1.0
 70
     8
 71
     3
 72
    14
 73
    10
 74
     0
 42
0.000000001
 43
0.00000001
 40
0.0
 40
0.0
 40
0.0
 40
0.0
 40
0.1249999999999975
 40
0.1249999999999975
 40
0.249999999999995
 40
0.249999999999995
 40
0.4999999999999953
 40
0.4999999999999953
 40
1.0
 40
1.0
 40
1.0
 40
1.0
 10
100.215349286017
 20
86.0140236317937
 30
0.0
 10
100.2638936946742
 20
86.019771945074
 30
0.0
 10
100.3168090494591
 20
86.01667105641776
 30
0.0
 10
100.4121043944421
 20
85.99447621225544
 30
0.0
 10
100.4523553917271
 20
85.97724398515957
 30
0.0
 10
100.55662540524
 20
85.92091606870751
 30
0.0
 10
100.6069473803934
 20
85.87672972276171
 30
0.0
 10
100.7346303279187
 20
85.74572182391108
 30
0.0
 10
100.790715774981
 20
85.65548730368079
 30
0.0
 10
100.8370621681027
 20
85.56734176951491
 30
0.0
  0
SPLINE
  5
E1
330
1F
100
AcDbEntity
  8
0
  6
Continuous
 62
     7
370
    25
100
AcDbSpline
210
0.0
220
0.0
230
1.0
 70
     8
 71
     3
 72
     8
 73
     4
 74
     0
 42
0.000000001
 43
0.00000001
 40
0.0
 40
0.0
 40
0.0
 40
0.0
 40
1.0
 40
1.0
 40
1.0
 40
1.0
 10
97.94682419307077
 20
85.70417834521092
 30
0.0
 10
98.68140121955373
 20
85.82280335627986
 30
0.0
 10
99.44487628894939
 20
85.92278922841615
 30
0.0
 10
100.215349286017
 20
86.01402363179369
 30
0.0
  0
SPLINE
  5
E2
330
1F
100
AcDbEntity
  8
0
  6
Continuous
 62
     7
370
    25
100
AcDbSpline
210
0.0
220
0.0
230
1.0
 70
     8
 71
     3
 72
    14
 73
    10
 74
     0
 42
0.000000001
 43
0.00000001
 40
0.0
 40
0.0
 40
0.0
 40
0.0
 40
0.500000000000001
 40
0.500000000000001
 40
0.7500000000000004
 40
0.7500000000000004
 40
0.8750000000000003
 40
0.8750000000000003
 40
1.0
 40
1.0
 40
1.0
 40
1.0
 10
92.66534928601699
 20
85.53055532767927
 30
0.0
 10
93.55749541657057
 20
85.52983310147862
 30
0.0
 10
94.44747185236419
 20
85.53441930793608
 30
0.0
 10
95.77406701943978
 20
85.56214431232762
 30
0.0
 10
96.21491394793851
 20
85.57475084995178
 30
0.0
 10
96.87135418536094
 20
85.60576699795924
 30
0.0
 10
97.08936784195282
 20
85.61811017058602
 30
0.0
 10
97.52207669563559
 20
85.6511342257493
 30
0.0
 10
97.73735316080038
 20
85.67035139088773
 30
0.0
 10
97.94682419307078
 20
85.70417834521092
 30
0.0
  0
SPLINE
  5
E3
330
1F
100
AcDbEntity
  8
0
  6
Continuous
 62
     7
370
    25
100
AcDbSpline
210
0.0
220
0.0
230
1.0
 70
     8
 71
     3
 72
     8
 73
     4
 74
     0
 42
0.000000001
 43
0.00000001
 40
0.0000005163856998
 40
0.0000005163856998
 40
0.0000005163856998
 40
0.0000005163856998
 40
0.000026289209185
 40
0.000026289209185
 40
0.000026289209185
 40
0.000026289209185
 10
92.6553043556094
 20
85.54053920077605
 30
0.0
 10
92.65863209381722
 20
85.53720495390694
 30
0.0
 10
92.66198054679282
 20
85.53387699663162
 30
0.0
 10
92.66534928601698
 20
85.53055532767925
 30
0.0
  0
SPLINE
  5
E4
330
1F
100
AcDbEntity
  8
0
  6
Continuous
 62
     7
370
    25
100
AcDbSpline
210
0.0
220
0.0
230
1.0
 70
     8
 71
     3
 72
     8
 73
     4
 74
     0
 42
0.000000001
 43
0.00000001
 40
0.0000005099763573
 40
0.0000005099763573
 40
0.0000005099763573
 40
0.0000005099763573
 40
0.0000262827998699
 40
0.0000262827998699
 40
0.0000262827998699
 40
0.0000262827998699
 10
92.66534928601698
 20
127.2704308584694
 30
0.0
 10
92.66198054678924
 20
127.2671091895135
 30
0.0
 10
92.65863209381008
 20
127.2637812322346
 30
0.0
 10
92.65530435559877
 20
127.260446985362
 30
0.0
  0
SPLINE
  5
E5
330
1F
100
AcDbEntity
  8
0
  6
Continuous
 62
     7
370
    25
100
AcDbSpline
210
0.0
220
0.0
230
1.0
 70
     8
 71
     3
 72
    10
 73
     6
 74
     0
 42
0.000000001
 43
0.00000001
 40
0.0
 40
0.0
 40
0.0
 40
0.0
 40
0.5
 40
0.5
 40
1.0
 40
1.0
 40
1.0
 40
1.0
 10
96.215349286017
 20
127.2235804849021
 30
0.0
 10
95.6277637389264
 20
127.2446460051385
 30
0.0
 10
95.03701734546603
 20
127.2554044910107
 30
0.0
 10
93.85299818016716
 20
127.2687692715464
 30
0.0
 10
93.25958419196171
 20
127.270911914211
 30
0.0
 10
92.665349286017
 20
127.2704308584694
 30
0.0
  0
SPLINE
  5
E6
330
1F
100
AcDbEntity
  8
0
  6
Continuous
 62
     7
370
    25
100
AcDbSpline
210
0.0
220
0.0
230
1.0
 70
     8
 71
     3
 72
    18
 73
    14
 74
     0
 42
0.000000001
 43
0.00000001
 40
0.0
 40
0.0
 40
0.0
 40
0.0
 40
0.2500000000000009
 40
0.2500000000000009
 40
0.500000000000001
 40
0.500000000000001
 40
0.7500000000000011
 40
0.7500000000000011
 40
0.875000000000001
 40
0.875000000000001
 40
0.9375000000000006
 40
0.9375000000000006
 40
1.0
 40
1.0
 40
1.0
 40
1.0
 10
97.61534928601702
 20
128.2446007654373
 30
0.0
 10
97.61534928601702
 20
128.1613938565801
 30
0.0
 10
97.57950018607875
 20
128.0726572012666
 30
0.0
 10
97.45462845004482
 20
127.8905320107063
 30
0.0
 10
97.36422803239695
 20
127.7954019620797
 30
0.0
 10
97.14198537765478
 20
127.6062204529554
 30
0.0
 10
97.01222059120902
 20
127.5112752848607
 30
0.0
 10
96.77158313389748
 20
127.3729965772807
 30
0.0
 10
96.68381583576006
 20
127.3272861439783
 30
0.0
 10
96.52929174855323
 20
127.2694628387569
 30
0.0
 10
96.47268086249849
 20
127.251748074719
 30
0.0
 10
96.34863683159189
 20
127.2272087714861
 30
0.0
 10
96.2809221565736
 20
127.2212296329478
 30
0.0
 10
96.215349286017
 20
127.2235804849021
 30
0.0
  0
LINE
  5
E7
330
1F
100
AcDbEntity
  8
0
  6
Continuous
 62
     7
370
    25
100
AcDbLine
 10
97.6153484098
 20
128.2446007507
 30
0.0
 11
97.6153484098
 21
129.4285389858
 31
0.0
  0
LINE
  5
E8
330
1F
100
AcDbEntity
  8
0
  6
Continuous
 62
     7
370
    25
100
AcDbLine
 10
121.415349191
 20
82.1800618696
 30
0.0
 11
121.415349191
 21
130.6209243166
 31
0.0
  0
SPLINE
  5
E9
330
1F
100
AcDbEntity
  8
0
  6
Continuous
 62
     7
370
    25
100
AcDbSpline
210
0.0
220
0.0
230
1.0
 70
     8
 71
     3
 72
    24
 73
    20
 74
     0
 42
0.000000001
 43
0.00000001
 40
0.0
 40
0.0
 40
0.0
 40
0.0
 40
0.0010489815523775
 40
0.0637843212772741
 40
0.1272220630088516
 40
0.1903789073370505
 40
0.2526748662763491
 40
0.3146354150030102
 40
0.3770891884518245
 40
0.4393540587943444
 40
0.5008133488401828
 40
0.5621845177353679
 40
0.6248438462901906
 40
0.6874304788646655
 40
0.7496743245911356
 40
0.811984857412469
 40
0.8750960476811308
 40
0.9384412548145236
 40
1.0
 40
1.0
 40
1.0
 40
1.0
 10
110.1842552907439
 20
82.74298489862778
 30
0.0
 10
110.1838086249932
 20
82.7429262536613
 30
0.0
 10
110.1566486890695
 20
82.73936029068061
 30
0.0
 10
110.2522786122014
 20
82.75222490015581
 30
0.0
 10
110.4858317882219
 20
82.78145938249587
 30
0.0
 10
110.8813877404563
 20
82.8280785932373
 30
0.0
 10
111.4084277408263
 20
82.87825939266246
 30
0.0
 10
112.0519581826626
 20
82.9226380661055
 30
0.0
 10
112.7906320169323
 20
82.94958126261629
 30
0.0
 10
113.5881466870512
 20
82.95305301091844
 30
0.0
 10
114.4147257368157
 20
82.92542756462501
 30
0.0
 10
115.2402485582344
 20
82.86694642164636
 30
0.0
 10
116.03237502915
 20
82.78150335824779
 30
0.0
 10
116.7649474079874
 20
82.67976818975526
 30
0.0
 10
117.4005875898081
 20
82.57192453870735
 30
0.0
 10
117.9224985203543
 20
82.47029314343251
 30
0.0
 10
118.3041273579933
 20
82.38781117914002
 30
0.0
 10
118.5549420339266
 20
82.3316590716331
 30
0.0
 10
118.5840633496339
 20
82.32481022072024
 30
0.0
 10
118.5984157509776
 20
82.32143477374413
 30
0.0
  0
SPLINE
  5
EA
330
1F
100
AcDbEntity
  8
0
  6
Continuous
 62
     7
370
    25
100
AcDbSpline
210
0.0
220
0.0
230
1.0
 70
     8
 71
     3
 72
    24
 73
    20
 74
     0
 42
0.000000001
 43
0.00000001
 40
0.0
 40
0.0
 40
0.0
 40
0.0
 40
0.061438429114026
 40
0.1250736777967296
 40
0.1884253375120635
 40
0.2508623992448768
 40
0.3129665476325514
 40
0.3753451442328022
 40
0.4377328732174486
 40
0.499092717251918
 40
0.560580729454827
 40
0.622946985474185
 40
0.6854686070210457
 40
0.7475477863222202
 40
0.8098225081553685
 40
0.873068419947611
 40
0.936404185690527
 40
0.9991757203144552
 40
1.0
 40
1.0
 40
1.0
 40
1.0
 10
118.598361268607
 20
130.4795216100822
 30
0.0
 10
118.5837604601548
 20
130.4761534522092
 30
0.0
 10
118.5540367703038
 20
130.4692967031248
 30
0.0
 10
118.3012987703178
 20
130.4129588832287
 30
0.0
 10
117.9183034712967
 20
130.3301010703435
 30
0.0
 10
117.3959475144137
 20
130.2281943221224
 30
0.0
 10
116.7611631697121
 20
130.1203557522334
 30
0.0
 10
116.0309394330979
 20
130.0188894990044
 30
0.0
 10
115.2404713381868
 20
129.9338274204372
 30
0.0
 10
114.4159876107291
 20
129.8756260634806
 30
0.0
 10
113.588951230249
 20
129.848041615796
 30
0.0
 10
112.7906267712586
 20
129.8515355443302
 30
0.0
 10
112.050803020259
 20
129.8784892030039
 30
0.0
 10
111.4065481487994
 20
129.9228447036172
 30
0.0
 10
110.8791412917018
 20
129.97304988734
 30
0.0
 10
110.4844760513887
 20
130.0196573473852
 30
0.0
 10
110.2519473658005
 20
130.0488605242235
 30
0.0
 10
110.1565681371343
 20
130.0616186629408
 30
0.0
 10
110.1835010814611
 20
130.058078833022
 30
0.0
 10
110.1838501654239
 20
130.0580329524884
 30
0.0
  0
SPLINE
  5
EB
330
1F
100
AcDbEntity
  8
0
  6
Continuous
 62
     7
370
    25
100
AcDbSpline
210
0.0
220
0.0
230
1.0
 70
     8
 71
     3
 72
     9
 73
     5
 74
     0
 42
0.000000001
 43
0.00000001
 40
0.0
 40
0.0
 40
0.0
 40
0.0
 40
0.7009339503679092
 40
0.9999999999999999
 40
0.9999999999999999
 40
0.9999999999999999
 40
0.9999999999999999
 10
91.53613285344558
 20
86.69921339327195
 30
0.0
 10
91.54527352439543
 20
86.68138410951104
 30
0.0
 10
91.55831422665422
 20
86.65594764185025
 30
0.0
 10
91.57347768992251
 20
86.70982700132379
 30
0.0
 10
91.57801256698089
 20
86.72594048851826
 30
0.0
  0
LINE
  5
EC
330
1F
100
AcDbEntity
  8
0
  6
Continuous
 62
     7
370
    25
100
AcDbLine
 10
91.5153494589
 20
86.7098155695
 30
0.0
 11
91.5153494589
 21
126.0911706167
 31
0.0
  0
SPLINE
  5
ED
330
1F
100
AcDbEntity
  8
0
  6
Continuous
 62
     7
370
    25
100
AcDbSpline
210
0.0
220
0.0
230
1.0
 70
     8
 71
     3
 72
    10
 73
     6
 74
     0
 42
0.000000001
 43
0.00000001
 40
0.0
 40
0.0
 40
0.0
 40
0.0
 40
0.5
 40
0.5
 40
1.0
 40
1.0
 40
1.0
 40
1.0
 10
91.57801266074041
 20
126.0750456378551
 30
0.0
 10
91.56910837163166
 20
126.1207871570683
 30
0.0
 10
91.55259299143867
 20
126.1379779965373
 30
0.0
 10
91.52548504537707
 20
126.1376547196015
 30
0.0
 10
91.51534928601701
 20
126.1197771773051
 30
0.0
 10
91.51534928601701
 20
126.0911708395525
 30
0.0
  0
SPLINE
  5
EE
330
1F
100
AcDbEntity
  8
0
  6
Continuous
 62
     7
370
    25
100
AcDbSpline
210
0.0
220
0.0
230
1.0
 70
     8
 71
     3
 72
    26
 73
    22
 74
     0
 42
0.000000001
 43
0.00000001
 40
0.0
 40
0.0
 40
0.0
 40
0.0
 40
0.2500000000000165
 40
0.2500000000000165
 40
0.3750000000000256
 40
0.3750000000000256
 40
0.4375000000000291
 40
0.4375000000000291
 40
0.4687500000000291
 40
0.4687500000000291
 40
0.5000000000000292
 40
0.5000000000000292
 40
0.5312500000000293
 40
0.5312500000000293
 40
0.5625000000000293
 40
0.5625000000000293
 40
0.625000000000026
 40
0.625000000000026
 40
0.7500000000000173
 40
0.7500000000000173
 40
1.0
 40
1.0
 40
1.0
 40
1.0
 10
92.3395029321215
 20
126.7906124266722
 30
0.0
 10
92.30090240925304
 20
126.6728377303167
 30
0.0
 10
92.25460540669877
 20
126.5484480441548
 30
0.0
 10
92.16066605826485
 20
126.3432287118013
 30
0.0
 10
92.12535459135141
 20
126.2716558453549
 30
0.0
 10
92.05917461560573
 20
126.1557026127544
 30
0.0
 10
92.0346362489375
 20
126.1151180779442
 30
0.0
 10
91.99126350338372
 20
126.0509763960724
 30
0.0
 10
91.9757551019585
 20
126.0291099707874
 30
0.0
 10
91.94071245737148
 20
125.9835157024442
 30
0.0
 10
91.92116216665173
 20
125.9598454114768
 30
0.0
 10
91.87923488628111
 20
125.9152288521368
 30
0.0
 10
91.85658277604946
 20
125.8943488396189
 30
0.0
 10
91.81560906196283
 20
125.8634754258681
 30
0.0
 10
91.79800976206741
 20
125.8536365560357
 30
0.0
 10
91.75338277621125
 20
125.8346469403395
 30
0.0
 10
91.73282355355792
 20
125.8343226156861
 30
0.0
 10
91.68169811406126
 20
125.8435460565623
 30
0.0
 10
91.66078670107272
 20
125.8647929527793
 30
0.0
 10
91.6093367935118
 20
125.93876183161
 30
0.0
 10
91.59167149420725
 20
126.0048799249248
 30
0.0
 10
91.57801266074041
 20
126.0750456378551
 30
0.0
  0
SPLINE
  5
EF
330
1F
100
AcDbEntity
  8
0
  6
Continuous
 62
     7
370
    25
100
AcDbSpline
210
0.0
220
0.0
230
1.0
 70
     8
 71
     3
 72
    10
 73
     6
 74
     0
 42
0.000000001
 43
0.00000001
 40
0.0
 40
0.0
 40
0.0
 40
0.0
 40
0.5
 40
0.5
 40
1.0
 40
1.0
 40
1.0
 40
1.0
 10
92.6553043555988
 20
127.260446985362
 30
0.0
 10
92.58774510068055
 20
127.1927555925522
 30
0.0
 10
92.52410844534405
 20
127.1180484277986
 30
0.0
 10
92.4138876907722
 20
126.959082295372
 30
0.0
 10
92.36707139754957
 20
126.874727029364
 30
0.0
 10
92.3395029321215
 20
126.7906124266722
 30
0.0
  0
SPLINE
  5
F0
330
1F
100
AcDbEntity
  8
0
  6
Continuous
 62
     7
370
    25
100
AcDbSpline
210
0.0
220
0.0
230
1.0
 70
     8
 71
     3
 72
    10
 73
     6
 74
     0
 42
0.000000001
 43
0.00000001
 40
0.0
 40
0.0
 40
0.0
 40
0.0
 40
0.5
 40
0.5
 40
1.0
 40
1.0
 40
1.0
 40
1.0
 10
92.33950293212155
 20
86.01037375947637
 30
0.0
 10
92.36698034687552
 20
85.92653696300847
 30
0.0
 10
92.41368897716494
 20
85.84222647541934
 30
0.0
 10
92.5239674399109
 20
85.68310524493263
 30
0.0
 10
92.5878549785248
 20
85.60812050084299
 30
0.0
 10
92.65530435560942
 20
85.54053920077605
 30
0.0
  0
SPLINE
  5
F1
330
1F
100
AcDbEntity
  8
0
  6
Continuous
 62
     7
370
    25
100
AcDbSpline
210
0.0
220
0.0
230
1.0
 70
     8
 71
     3
 72
    24
 73
    20
 74
     0
 42
0.000000001
 43
0.00000001
 40
0.0
 40
0.0
 40
0.0
 40
0.0
 40
0.25
 40
0.25
 40
0.374999999999999
 40
0.374999999999999
 40
0.4374999999999993
 40
0.4374999999999993
 40
0.4687499999999994
 40
0.4687499999999994
 40
0.4999999999999995
 40
0.4999999999999995
 40
0.5624999999999971
 40
0.5624999999999971
 40
0.6249999999999947
 40
0.6249999999999947
 40
0.7499999999999947
 40
0.7499999999999947
 40
1.0
 40
1.0
 40
1.0
 40
1.0
 10
91.57801266074041
 20
86.72594054829361
 30
0.0
 10
91.59176577941064
 20
86.79659060628389
 30
0.0
 10
91.6095383468165
 20
86.86318871904881
 30
0.0
 10
91.66178943837185
 20
86.93728673928202
 30
0.0
 10
91.68282451395342
 20
86.95854454644358
 30
0.0
 10
91.73572492158186
 20
86.96669047258982
 30
0.0
 10
91.75683059445977
 20
86.96575066919404
 30
0.0
 10
91.80288276313773
 20
86.9447346776167
 30
0.0
 10
91.82125323512113
 20
86.93382587150909
 30
0.0
 10
91.86280487018684
 20
86.9011909605617
 30
0.0
 10
91.88537154294374
 20
86.87969898019035
 30
0.0
 10
91.94815255940375
 20
86.81123303660402
 30
0.0
 10
91.98128232037166
 20
86.76515857839894
 30
0.0
 10
92.03820000685667
 20
86.68015069006427
 30
0.0
 10
92.06238603236045
 20
86.63987038888288
 30
0.0
 10
92.12759398274021
 20
86.52493416241694
 30
0.0
 10
92.16231004293144
 20
86.45435117726993
 30
0.0
 10
92.25552531326232
 20
86.25014541819132
 30
0.0
 10
92.301197848623
 20
86.12724703586397
 30
0.0
 10
92.33950293212153
 20
86.0103737594764
 30
0.0
  0
SPLINE
  5
F2
330
1F
100
AcDbEntity
  8
0
  6
Continuous
 62
     7
370
    25
100
AcDbSpline
210
0.0
220
0.0
230
1.0
 70
     8
 71
     3
 72
     8
 73
     4
 74
     0
 42
0.000000001
 43
0.00000001
 40
0.0
 40
0.0
 40
0.0
 40
0.0
 40
1.0
 40
1.0
 40
1.0
 40
1.0
 10
144.807282117506
 20
136.8676885662386
 30
0.0
 10
144.3121420881417
 20
135.9810089180583
 30
0.0
 10
143.8180593828627
 20
135.0937462823723
 30
0.0
 10
143.325349286017
 20
134.2057272842459
 30
0.0
  0
LINE
  5
F3
330
1F
100
AcDbEntity
  8
0
  6
Continuous
 62
     7
370
    25
100
AcDbLine
 10
144.8072812073
 20
130.8591827082
 30
0.0
 11
144.8072812073
 21
136.8676885294
 31
0.0
  0
SPLINE
  5
F4
330
1F
100
AcDbEntity
  8
0
  6
Continuous
 62
     7
370
    25
100
AcDbSpline
210
0.0
220
0.0
230
1.0
 70
     8
 71
     3
 72
     8
 73
     4
 74
     0
 42
0.000000001
 43
0.00000001
 40
0.0
 40
0.0
 40
0.0
 40
0.0
 40
1.0
 40
1.0
 40
1.0
 40
1.0
 10
143.325349286017
 20
127.4506367606577
 30
0.0
 10
143.8046274366069
 20
128.5916479905103
 30
0.0
 10
144.3001952757468
 20
129.7280324012781
 30
0.0
 10
144.807282117506
 20
130.8591827554418
 30
0.0
  0
LINE
  5
F5
330
1F
100
AcDbEntity
  8
0
  6
Continuous
 62
     7
370
    25
100
AcDbLine
 10
143.3253495507
 20
127.45063708
 30
0.0
 11
143.3253495507
 21
134.2057264673
 31
0.0
  0
LINE
  5
F6
330
1F
100
AcDbEntity
  8
0
  6
Continuous
 62
     7
370
    25
100
AcDbLine
 10
148.7653499953
 20
136.8676885294
 30
0.0
 11
144.8072812073
 21
136.8676885294
 31
0.0
  0
LINE
  5
F7
330
1F
100
AcDbEntity
  8
0
  6
Continuous
 62
     7
370
    25
100
AcDbLine
 10
144.8072812073
 20
130.8591827082
 30
0.0
 11
148.7653499953
 21
130.8591827082
 31
0.0
  0
SPLINE
  5
F8
330
1F
100
AcDbEntity
  8
0
  6
Continuous
 62
     7
370
    25
100
AcDbSpline
210
0.0
220
0.0
230
1.0
 70
     8
 71
     3
 72
    10
 73
     6
 74
     0
 42
0.000000001
 43
0.00000001
 40
0.0
 40
0.0
 40
0.0
 40
0.0
 40
0.5
 40
0.5
 40
1.0
 40
1.0
 40
1.0
 40
1.0
 10
149.365349286017
 20
136.2469334168382
 30
0.0
 10
149.365349286017
 20
136.4075502329452
 30
0.0
 10
149.3035782103819
 20
136.5660095518154
 30
0.0
 10
149.0831443347817
 20
136.7980888204863
 30
0.0
 10
148.9256092820683
 20
136.8676885662386
 30
0.0
 10
148.765349286017
 20
136.8676885662386
 30
0.0
  0
SPLINE
  5
F9
330
1F
100
AcDbEntity
  8
0
  6
Continuous
 62
     7
370
    25
100
AcDbSpline
210
0.0
220
0.0
230
1.0
 70
     8
 71
     3
 72
    12
 73
     8
 74
     0
 42
0.000000001
 43
0.00000001
 40
0.0
 40
0.0
 40
0.0
 40
0.0
 40
0.25
 40
0.25
 40
0.5
 40
0.5
 40
1.0
 40
1.0
 40
1.0
 40
1.0
 10
148.765349286017
 20
130.8591827554418
 30
0.0
 10
148.8563171634028
 20
130.8591827554418
 30
0.0
 10
148.9456477233284
 20
130.8318111742462
 30
0.0
 10
149.1014141909426
 20
130.7360649158598
 30
0.0
 10
149.1662388532895
 20
130.6695761333004
 30
0.0
 10
149.317932296631
 20
130.4454366703541
 30
0.0
 10
149.365349286017
 20
130.2624047797244
 30
0.0
 10
149.365349286017
 20
130.0814453543327
 30
0.0
  0
LINE
  5
FA
330
1F
100
AcDbEntity
  8
0
  6
Continuous
 62
     7
370
    25
100
AcDbLine
 10
149.3653489761
 20
130.0814445394
 30
0.0
 11
149.3653489761
 21
136.2469340938
 31
0.0
  0
SPLINE
  5
FB
330
1F
100
AcDbEntity
  8
0
  6
Continuous
 62
     7
370
    25
100
AcDbSpline
210
0.0
220
0.0
230
1.0
 70
     8
 71
     3
 72
     8
 73
     4
 74
     0
 42
0.000000001
 43
0.00000001
 40
0.0
 40
0.0
 40
0.0
 40
0.0
 40
1.0
 40
1.0
 40
1.0
 40
1.0
 10
138.023416454528
 20
130.8591827554418
 30
0.0
 10
138.5305032962872
 20
129.7280324012781
 30
0.0
 10
139.0260711354271
 20
128.5916479905103
 30
0.0
 10
139.505349286017
 20
127.4506367606577
 30
0.0
  0
LINE
  5
FC
330
1F
100
AcDbEntity
  8
0
  6
Continuous
 62
     7
370
    25
100
AcDbLine
 10
139.5053493343
 20
127.45063708
 30
0.0
 11
139.5053493343
 21
126.5363595712
 31
0.0
  0
LINE
  5
FD
330
1F
100
AcDbEntity
  8
0
  6
Continuous
 62
     7
370
    25
100
AcDbLine
 10
143.3253495507
 20
126.5363595712
 30
0.0
 11
143.3253495507
 21
127.45063708
 31
0.0
  0
LINE
  5
FE
330
1F
100
AcDbEntity
  8
0
  6
Continuous
 62
     7
370
    25
100
AcDbLine
 10
149.3653489761
 20
130.0814445394
 30
0.0
 11
149.3653489761
 21
126.2504938322
 31
0.0
  0
SPLINE
  5
FF
330
1F
100
AcDbEntity
  8
0
  6
Continuous
 62
     7
370
    25
100
AcDbSpline
210
0.0
220
0.0
230
1.0
 70
     8
 71
     3
 72
     8
 73
     4
 74
     0
 42
0.000000001
 43
0.00000001
 40
0.0
 40
0.0
 40
0.0
 40
0.0
 40
1.0
 40
1.0
 40
1.0
 40
1.0
 10
139.505349286017
 20
134.205727284246
 30
0.0
 10
139.0126391891713
 20
135.0937462823723
 30
0.0
 10
138.5185564838923
 20
135.9810089180583
 30
0.0
 10
138.023416454528
 20
136.8676885662386
 30
0.0
  0
LINE
  5
100
330
1F
100
AcDbEntity
  8
0
  6
Continuous
 62
     7
370
    25
100
AcDbLine
 10
139.5053493343
 20
127.45063708
 30
0.0
 11
139.5053493343
 21
134.2057264673
 31
0.0
  0
ARC
  5
101
330
1F
100
AcDbEntity
  8
0
  6
Continuous
 62
     7
370
    25
100
AcDbCircle
 10
131.4155731975
 20
125.0813300546
 30
0.0
 40
7.272906186575726
100
AcDbArc
 50
71.0161899393
 51
109.0433087387
  0
SPLINE
  5
102
330
1F
100
AcDbEntity
  8
0
  6
Continuous
 62
     7
370
    25
100
AcDbSpline
210
0.0
220
0.0
230
1.0
 70
    11
 71
     3
 72
    62
 73
    58
 74
     0
 42
0.000000001
 43
0.00000001
 40
0.0
 40
0.0
 40
0.0
 40
0.0
 40
0.03125
 40
0.03125
 40
0.0625
 40
0.0625
 40
0.09375
 40
0.09375
 40
0.1249999999999999
 40
0.1249999999999999
 40
0.1562499999999999
 40
0.1562499999999999
 40
0.1874999999999999
 40
0.1874999999999999
 40
0.2187499999999999
 40
0.2187499999999999
 40
0.2499999999999999
 40
0.2499999999999999
 40
0.2812499999999999
 40
0.2812499999999999
 40
0.3124999999999999
 40
0.3124999999999999
 40
0.3437499999999998
 40
0.3437499999999998
 40
0.3749999999999998
 40
0.3749999999999998
 40
0.4062499999999998
 40
0.4062499999999998
 40
0.4374999999999998
 40
0.4374999999999998
 40
0.4687499999999998
 40
0.4687499999999998
 40
0.4999999999999998
 40
0.4999999999999998
 40
0.5312499999999998
 40
0.5312499999999998
 40
0.5624999999999998
 40
0.5624999999999998
 40
0.6249999999999998
 40
0.6249999999999998
 40
0.6874999999999999
 40
0.6874999999999999
 40
0.75
 40
0.75
 40
0.8125000000000001
 40
0.8125000000000001
 40
0.8437500000000001
 40
0.8437500000000001
 40
0.875
 40
0.875
 40
0.90625
 40
0.90625
 40
0.9375
 40
0.9375
 40
0.96875
 40
0.96875
 40
1.0
 40
1.0
 40
1.0
 40
1.0
 10
157.658846371195
 20
121.1354439181759
 30
0.0
 10
157.8066875276616
 20
121.2358792880706
 30
0.0
 10
157.967729742775
 20
121.3238629118955
 30
0.0
 10
158.3133606085922
 20
121.4789895196352
 30
0.0
 10
158.4996091124391
 20
121.546537593082
 30
0.0
 10
158.8878665154224
 20
121.6596558011024
 30
0.0
 10
159.0881804281649
 20
121.7049843507723
 30
0.0
 10
159.5005938990711
 20
121.7751999919642
 30
0.0
 10
159.714563457025
 20
121.8001061577656
 30
0.0
 10
160.1416504821682
 20
121.8284102043789
 30
0.0
 10
160.3555015335933
 20
121.8321274580509
 30
0.0
 10
160.7838134476174
 20
121.8189583840972
 30
0.0
 10
161.0000846392962
 20
121.801729378632
 30
0.0
 10
161.4191416453231
 20
121.7467157727145
 30
0.0
 10
161.6230646223375
 20
121.7090852542089
 30
0.0
 10
162.0194937992785
 20
121.6123699926078
 30
0.0
 10
162.2138372530995
 20
121.5524687469913
 30
0.0
 10
162.5764780098306
 20
121.4126993686136
 30
0.0
 10
162.7457897271161
 20
121.3328836727447
 30
0.0
 10
163.0590404322164
 20
121.1508513306767
 30
0.0
 10
163.2044463259373
 20
121.0470726334935
 30
0.0
 10
163.4539166256687
 20
120.8222596820204
 30
0.0
 10
163.5592960747432
 20
120.7010116935406
 30
0.0
 10
163.7280739761152
 20
120.4381097694451
 30
0.0
 10
163.7909503231065
 20
120.2953037776854
 30
0.0
 10
163.8632019819206
 20
120.0039156269994
 30
0.0
 10
163.8741272092401
 20
119.8527475292253
 30
0.0
 10
163.8424262850354
 20
119.5430519018198
 30
0.0
 10
163.8006003729882
 20
119.3899321298372
 30
0.0
 10
163.6682445759877
 20
119.0874003434767
 30
0.0
 10
163.5769945319381
 20
118.9381898969358
 30
0.0
 10
163.3566265488901
 20
118.6582113131116
 30
0.0
 10
163.2252446537314
 20
118.5242874555366
 30
0.0
 10
162.9320716775239
 20
118.2781914536017
 30
0.0
 10
162.7712656003201
 20
118.1662873211771
 30
0.0
 10
162.4232160289907
 20
117.9643108689594
 30
0.0
 10
162.2363200359035
 20
117.8748616162906
 30
0.0
 10
161.657186002295
 20
117.6487190192529
 30
0.0
 10
161.2342609090131
 20
117.5499762568915
 30
0.0
 10
160.3823574888932
 20
117.4706052972939
 30
0.0
 10
159.9428143371274
 20
117.4892183571533
 30
0.0
 10
159.1068918018643
 20
117.6396221615472
 30
0.0
 10
158.6984408283758
 20
117.773684175942
 30
0.0
 10
157.9758306105053
 20
118.1367807964834
 30
0.0
 10
157.6499703788256
 20
118.3721477049242
 30
0.0
 10
157.2773517018784
 20
118.7709364724567
 30
0.0
 10
157.169965327746
 20
118.913674490616
 30
0.0
 10
157.000130582954
 20
119.2111740181425
 30
0.0
 10
156.9393311165477
 20
119.362246527324
 30
0.0
 10
156.8672333186368
 20
119.6684637370722
 30
0.0
 10
156.8566946583353
 20
119.8253363742934
 30
0.0
 10
156.8889372561308
 20
120.125602663582
 30
0.0
 10
156.9311703506866
 20
120.2718008752348
 30
0.0
 10
157.0656761477823
 20
120.5510897306336
 30
0.0
 10
157.155879893588
 20
120.6807382502059
 30
0.0
 10
157.3782396987366
 20
120.922784562336
 30
0.0
 10
157.5110052147284
 20
121.0350085482812
 30
0.0
 10
157.658846371195
 20
121.1354439181759
 30
0.0
  0
SPLINE
  5
103
330
1F
100
AcDbEntity
  8
0
  6
Continuous
 62
     7
370
    25
100
AcDbSpline
210
0.0
220
0.0
230
1.0
 70
    11
 71
     3
 72
    70
 73
    66
 74
     0
 42
0.000000001
 43
0.00000001
 40
0.0
 40
0.0
 40
0.0
 40
0.0
 40
0.03125
 40
0.03125
 40
0.0625
 40
0.0625
 40
0.09375
 40
0.09375
 40
0.125
 40
0.125
 40
0.15625
 40
0.15625
 40
0.1875
 40
0.1875
 40
0.21875
 40
0.21875
 40
0.25
 40
0.25
 40
0.28125
 40
0.28125
 40
0.3125
 40
0.3125
 40
0.34375
 40
0.34375
 40
0.375
 40
0.375
 40
0.40625
 40
0.40625
 40
0.4375
 40
0.4375
 40
0.46875
 40
0.46875
 40
0.5
 40
0.5
 40
0.53125
 40
0.53125
 40
0.5625
 40
0.5625
 40
0.59375
 40
0.59375
 40
0.625
 40
0.625
 40
0.65625
 40
0.65625
 40
0.6875
 40
0.6875
 40
0.71875
 40
0.71875
 40
0.75
 40
0.75
 40
0.78125
 40
0.78125
 40
0.8125
 40
0.8125
 40
0.84375
 40
0.84375
 40
0.875
 40
0.875
 40
0.90625
 40
0.90625
 40
0.9375
 40
0.9375
 40
0.96875
 40
0.96875
 40
1.0
 40
1.0
 40
1.0
 40
1.0
 10
156.8776948550413
 20
93.14752103457351
 30
0.0
 10
156.8986357213161
 20
93.30269772279668
 30
0.0
 10
156.9453314872031
 20
93.45522502927167
 30
0.0
 10
157.0859835509591
 20
93.75491029414869
 30
0.0
 10
157.1813737167493
 20
93.90314958333538
 30
0.0
 10
157.4089634034973
 20
94.18021534090501
 30
0.0
 10
157.5423760845565
 20
94.3113351625864
 30
0.0
 10
157.8418896636763
 20
94.55432781455892
 30
0.0
 10
158.0050250553031
 20
94.66404343072784
 30
0.0
 10
158.3557189740248
 20
94.86088195984132
 30
0.0
 10
158.54465842473
 20
94.9482638532568
 30
0.0
 10
158.9336208932576
 20
95.0943639115108
 30
0.0
 10
159.134888497211
 20
95.15397140430525
 30
0.0
 10
159.5507369113868
 20
95.24611658033817
 30
0.0
 10
159.7646254470872
 20
95.27817906843497
 30
0.0
 10
160.1908713086396
 20
95.31287516807326
 30
0.0
 10
160.4050350810303
 20
95.3159554246806
 30
0.0
 10
160.8354856172966
 20
95.29297749577414
 30
0.0
 10
161.0502597251175
 20
95.26671917054499
 30
0.0
 10
161.4665428886044
 20
95.18687756238097
 30
0.0
 10
161.6698859605526
 20
95.13324081312446
 30
0.0
 10
162.0664954252376
 20
94.9978150344074
 30
0.0
 10
162.2585637551992
 20
94.9160676511703
 30
0.0
 10
162.6163163986585
 20
94.73065566605393
 30
0.0
 10
162.7840271169418
 20
94.62638290557885
 30
0.0
 10
163.0949874821065
 20
94.39364261589692
 30
0.0
 10
163.2368744831417
 20
94.26556590733821
 30
0.0
 10
163.4794126608853
 20
93.99728449902567
 30
0.0
 10
163.5820840300462
 20
93.85572353938728
 30
0.0
 10
163.7452631797545
 20
93.55684869353847
 30
0.0
 10
163.8029988347929
 20
93.40376481952288
 30
0.0
 10
163.8672436004391
 20
93.0983666033407
 30
0.0
 10
163.8738964316307
 20
92.94259822102573
 30
0.0
 10
163.8339884001726
 20
92.64290030661655
 30
0.0
 10
163.7884614521527
 20
92.4989826420091
 30
0.0
 10
163.647392684961
 20
92.22219525604795
 30
0.0
 10
163.553568667198
 20
92.09317186952295
 30
0.0
 10
163.3265650941754
 20
91.85488808495786
 30
0.0
 10
163.1916861602424
 20
91.74446290739603
 30
0.0
 10
162.8945439857665
 20
91.5481142361758
 30
0.0
 10
162.7312718964388
 20
91.46090489864534
 30
0.0
 10
162.377237026694
 20
91.30644307021188
 30
0.0
 10
162.1911487670748
 20
91.2411973422019
 30
0.0
 10
161.8022906637244
 20
91.1315076537627
 30
0.0
 10
161.5976401636165
 20
91.08683688576274
 30
0.0
 10
161.1814725463473
 20
91.0194174551552
 30
0.0
 10
160.9705390913749
 20
90.99651441067633
 30
0.0
 10
160.5431310170712
 20
90.97119937621189
 30
0.0
 10
160.3246823057539
 20
90.9689443732773
 30
0.0
 10
159.8949312541108
 20
90.98548972021997
 30
0.0
 10
159.6830920849457
 20
91.0040410270748
 30
0.0
 10
159.2654891305993
 20
91.06213885114883
 30
0.0
 10
159.0577497627147
 20
91.10226016456444
 30
0.0
 10
158.6616822346685
 20
91.2030261069582
 30
0.0
 10
158.4728254252036
 20
91.26346377370592
 30
0.0
 10
158.1140629302656
 20
91.40632556866731
 30
0.0
 10
157.9423111437004
 20
91.48995262567414
 30
0.0
 10
157.6321721576011
 20
91.6768600943508
 30
0.0
 10
157.4932525932289
 20
91.77986043466073
 30
0.0
 10
157.2499688030889
 20
92.00772697767474
 30
0.0
 10
157.1447582023028
 20
92.13458338588883
 30
0.0
 10
156.9840058582287
 20
92.40096339733793
 30
0.0
 10
156.9269099866318
 20
92.5411437701473
 30
0.0
 10
156.8627674685717
 20
92.83725023580544
 30
0.0
 10
156.8567539887665
 20
92.99234434635034
 30
0.0
 10
156.8776948550413
 20
93.14752103457351
 30
0.0
  0
SPLINE
  5
104
330
1F
100
AcDbEntity
  8
0
  6
Continuous
 62
     7
370
    25
100
AcDbSpline
210
0.0
220
0.0
230
1.0
 70
    11
 71
     3
 72
    77
 73
    73
 74
     0
 42
0.000000001
 43
0.00000001
 40
0.0
 40
0.0
 40
0.0
 40
0.0
 40
0.0312499999999999
 40
0.0312499999999999
 40
0.0624999999999998
 40
0.0624999999999998
 40
0.0937499999999996
 40
0.0937499999999996
 40
0.1249999999999995
 40
0.1249999999999995
 40
0.1562499999999994
 40
0.1562499999999994
 40
0.1874999999999993
 40
0.1874999999999993
 40
0.2187499999999991
 40
0.2187499999999991
 40
0.2343749999999991
 40
0.2343749999999991
 40
0.249999999999999
 40
0.2656249999999989
 40
0.2656249999999989
 40
0.2812499999999989
 40
0.2812499999999989
 40
0.3124999999999989
 40
0.3124999999999989
 40
0.3437499999999989
 40
0.3437499999999989
 40
0.3749999999999989
 40
0.3749999999999989
 40
0.4062499999999989
 40
0.4062499999999989
 40
0.4374999999999989
 40
0.4374999999999989
 40
0.468749999999999
 40
0.468749999999999
 40
0.499999999999999
 40
0.499999999999999
 40
0.531249999999999
 40
0.531249999999999
 40
0.562499999999999
 40
0.562499999999999
 40
0.593749999999999
 40
0.593749999999999
 40
0.6249999999999989
 40
0.6249999999999989
 40
0.6562499999999989
 40
0.6562499999999989
 40
0.6874999999999989
 40
0.6874999999999989
 40
0.703124999999999
 40
0.703124999999999
 40
0.718749999999999
 40
0.718749999999999
 40
0.7499999999999992
 40
0.7499999999999992
 40
0.7656249999999992
 40
0.7656249999999992
 40
0.7812499999999993
 40
0.7812499999999993
 40
0.8124999999999994
 40
0.8124999999999994
 40
0.8437499999999996
 40
0.8437499999999996
 40
0.8749999999999996
 40
0.8749999999999996
 40
0.9062499999999997
 40
0.9062499999999997
 40
0.9374999999999998
 40
0.9374999999999998
 40
0.9687499999999999
 40
0.9687499999999999
 40
1.0
 40
1.0
 40
1.0
 40
1.0
 10
175.115349286017
 20
98.11331832475764
 30
0.0
 10
174.8210630354575
 20
98.11331832475764
 30
0.0
 10
174.5309781657169
 20
98.13615038582877
 30
0.0
 10
173.9589399206486
 20
98.22625728206685
 30
0.0
 10
173.6754566478604
 20
98.29403357636403
 30
0.0
 10
173.1239385113921
 20
98.47587285603686
 30
0.0
 10
172.8608237014201
 20
98.58803480639985
 30
0.0
 10
172.3599283819433
 20
98.85601143054733
 30
0.0
 10
172.119895356008
 20
99.0136784751394
 30
0.0
 10
171.6792138365889
 20
99.36997283731034
 30
0.0
 10
171.4803918011355
 20
99.56633248021048
 30
0.0
 10
171.126862522434
 20
99.99767796575878
 30
0.0
 10
170.9706281617726
 20
100.2362451856
 30
0.0
 10
170.71931956509
 20
100.7363620919574
 30
0.0
 10
170.6229337348887
 20
100.997955496186
 30
0.0
 10
170.5239692911352
 20
101.4088380914645
 30
0.0
 10
170.498575089163
 20
101.5498951174081
 30
0.0
 10
170.4648060215962
 20
101.832043816431
 30
0.0
 10
170.4476622282419
 20
102.1147402693382
 30
0.0
 10
170.4630540451924
 20
102.3985331277483
 30
0.0
 10
170.4949001225016
 20
102.6828693134554
 30
0.0
 10
170.5192987454802
 20
102.8262341016239
 30
0.0
 10
170.6161354764067
 20
103.2486501326879
 30
0.0
 10
170.7114367981619
 20
103.5203978903089
 30
0.0
 10
170.960938737885
 20
104.0446421058866
 30
0.0
 10
171.1155736620519
 20
104.2960013910803
 30
0.0
 10
171.4685392994395
 20
104.7574173970574
 30
0.0
 10
171.670131591827
 20
104.9721867132778
 30
0.0
 10
172.1108092338273
 20
105.3585298445663
 30
0.0
 10
172.3472397414793
 20
105.5284921765749
 30
0.0
 10
172.8504378478782
 20
105.8244970075965
 30
0.0
 10
173.1188709778949
 20
105.9506384980097
 30
0.0
 10
173.6663089078167
 20
106.1506347696296
 30
0.0
 10
173.9474204294555
 20
106.226025476486
 30
0.0
 10
174.5243254508434
 20
106.3279063310399
 30
0.0
 10
174.8181977963916
 20
106.3535525128209
 30
0.0
 10
175.3995301651816
 20
106.3542961283972
 30
0.0
 10
175.689456621954
 20
106.3298919500218
 30
0.0
 10
176.2677755938865
 20
106.2297103834053
 30
0.0
 10
176.5516694727147
 20
106.1543536491466
 30
0.0
 10
177.0974196394362
 20
105.9567853352606
 30
0.0
 10
177.3611529779965
 20
105.8342948143846
 30
0.0
 10
177.8689513401658
 20
105.5383758984696
 30
0.0
 10
178.1071338587632
 20
105.3680296682928
 30
0.0
 10
178.5443510021755
 20
104.9879780824916
 30
0.0
 10
178.7449990022386
 20
104.7772098315966
 30
0.0
 10
179.1046529404152
 20
104.3121352870802
 30
0.0
 10
179.2573046753816
 20
104.0661465009609
 30
0.0
 10
179.4455384200969
 20
103.6773213011002
 30
0.0
 10
179.5014425671536
 20
103.5443805893872
 30
0.0
 10
179.598905428162
 20
103.2715554127905
 30
0.0
 10
179.6404907941482
 20
103.1311013215216
 30
0.0
 10
179.7397338368481
 20
102.7104878525301
 30
0.0
 10
179.7736378261755
 20
102.4276907289269
 30
0.0
 10
179.7755082611547
 20
102.0000009857968
 30
0.0
 10
179.7677396505694
 20
101.8559563368268
 30
0.0
 10
179.7357882391293
 20
101.5733432969945
 30
0.0
 10
179.7117173031203
 20
101.4342906653188
 30
0.0
 10
179.6159415993063
 20
101.0236321276093
 30
0.0
 10
179.5193933180064
 20
100.7556778112349
 30
0.0
 10
179.2692582608254
 20
100.2513853289915
 30
0.0
 10
179.1173682663102
 20
100.0165612761929
 30
0.0
 10
178.7624176898734
 20
99.57890154858245
 30
0.0
 10
178.5599794627726
 20
99.37793546499229
 30
0.0
 10
178.1220227712183
 20
99.02170311407936
 30
0.0
 10
177.8828120771407
 20
98.86320001360369
 30
0.0
 10
177.3766535054866
 20
98.59094233264261
 30
0.0
 10
177.1128272478466
 20
98.47836264604318
 30
0.0
 10
176.5648151789723
 20
98.29671431225309
 30
0.0
 10
176.2783950661737
 20
98.22753710225936
 30
0.0
 10
175.7016611220214
 20
98.13622508748911
 30
0.0
 10
175.4096355365764
 20
98.11331832475764
 30
0.0
 10
175.115349286017
 20
98.11331832475764
 30
0.0
  0
LINE
  5
105
330
1F
100
AcDbEntity
  8
0
  6
Continuous
 62
     7
370
    25
100
AcDbLine
 10
183.4153479449
 20
88.200492345
 30
0.0
 11
183.4153479449
 21
124.6004938411
 31
0.0
  0
LWPOLYLINE
  5
106
330
1F
100
AcDbEntity
  8
0
  6
Continuous
 62
     7
370
    25
100
AcDbPolyline
 90
       26
 70
   128
 43
0.0
 10
160.3653489165
 20
117.65950688
 10
160.9870737902
 20
117.7150444391
 10
161.56973527
 20
117.8781674507
 10
162.0767174773
 20
118.1386267098
 10
162.4761691801
 20
118.4800570163
 10
162.7429893724
 20
118.8810034918
 10
162.8604142479
 20
119.3162747922
 10
162.8210677318
 20
119.758519836
 10
162.6274159662
 20
120.1799526142
 10
162.2916331999
 20
120.5540909695
 10
161.8348120264
 20
120.8574273887
 10
161.285659533
 20
121.0709014239
 10
160.6786830835
 20
121.1811010989
 10
160.0520147495
 20
121.1811010989
 10
159.4450383
 20
121.0709014239
 10
158.8958858065
 20
120.8574273887
 10
158.4390646331
 20
120.5540909695
 10
158.1032818667
 20
120.1799526142
 10
157.9096301011
 20
119.758519836
 10
157.870283585
 20
119.3162747922
 10
157.9877084605
 20
118.8810034918
 10
158.2545286528
 20
118.4800570163
 10
158.6539803557
 20
118.1386267098
 10
159.1609662883
 20
117.8781674507
 10
159.7436240427
 20
117.7150444391
 10
160.3653489165
 20
117.65950688
  0
LWPOLYLINE
  5
107
330
1F
100
AcDbEntity
  8
0
  6
Continuous
 62
     7
370
    25
100
AcDbPolyline
 90
       26
 70
   128
 43
0.0
 10
160.3653489165
 20
91.6059459823
 10
160.9870737902
 20
91.6614835414
 10
161.56973527
 20
91.824606553
 10
162.0767174773
 20
92.0850658121
 10
162.4761691801
 20
92.4264951872
 10
162.7429893724
 20
92.8274425941
 10
162.8604142479
 20
93.2627138945
 10
162.8210677318
 20
93.7049589383
 10
162.6274159662
 20
94.1263907852
 10
162.2916331999
 20
94.5005291405
 10
161.8348120264
 20
94.803866491
 10
161.285659533
 20
95.0173405262
 10
160.6786830835
 20
95.1275402012
 10
160.0520147495
 20
95.1275402012
 10
159.4450383
 20
95.0173405262
 10
158.8958858065
 20
94.803866491
 10
158.4390646331
 20
94.5005291405
 10
158.1032818667
 20
94.1263907852
 10
157.9096301011
 20
93.7049589383
 10
157.870283585
 20
93.2627138945
 10
157.9877084605
 20
92.8274425941
 10
158.2545286528
 20
92.4264951872
 10
158.6539803557
 20
92.0850658121
 10
159.1609662883
 20
91.824606553
 10
159.7436240427
 20
91.6614835414
 10
160.3653489165
 20
91.6059459823
  0
LINE
  5
108
330
1F
100
AcDbEntity
  8
0
  6
Continuous
 62
     7
370
    25
100
AcDbLine
 10
185.4153482727
 20
98.4004927131
 30
0.0
 11
185.4153482727
 21
114.4004934731
 31
0.0
  0
SPLINE
  5
109
330
1F
100
AcDbEntity
  8
0
  6
Continuous
 62
     7
370
    25
100
AcDbSpline
210
0.0
220
0.0
230
1.0
 70
     8
 71
     3
 72
    14
 73
    10
 74
     0
 42
0.000000001
 43
0.00000001
 40
0.0
 40
0.0
 40
0.0
 40
0.0
 40
0.25
 40
0.25
 40
0.5
 40
0.5
 40
0.75
 40
0.75
 40
1.0
 40
1.0
 40
1.0
 40
1.0
 10
200.4153492860171
 20
100.8443522691378
 30
0.0
 10
200.4153492860171
 20
100.8686634529382
 30
0.0
 10
200.4094602654105
 20
100.910499296348
 30
0.0
 10
200.3997109229347
 20
101.0260805420013
 30
0.0
 10
200.3959711503802
 20
101.099701816561
 30
0.0
 10
200.395976925039
 20
101.2716848198583
 30
0.0
 10
200.3997612519731
 20
101.3714788794381
 30
0.0
 10
200.4094525705333
 20
101.5853169041454
 30
0.0
 10
200.415349286017
 20
101.7024407127858
 30
0.0
 10
200.415349286017
 20
101.8212683612463
 30
0.0
  0
LINE
  5
10A
330
1F
100
AcDbEntity
  8
0
  6
Continuous
 62
     7
370
    25
100
AcDbLine
 10
200.4153488688
 20
99.2004932168
 30
0.0
 11
200.4153488688
 21
100.8443520668
 31
0.0
  0
LINE
  5
10B
330
1F
100
AcDbEntity
  8
0
  6
Continuous
 62
     7
370
    25
100
AcDbLine
 10
200.4153488688
 20
101.8212684693
 30
0.0
 11
200.4153488688
 21
113.6004929694
 31
0.0
  0
LINE
  5
10C
330
1F
100
AcDbEntity
  8
0
  6
HIDDEN
 62
     7
370
    18
100
AcDbLine
 10
180.4153493158
 20
117.9004931154
 30
0.0
 11
180.4153493158
 21
122.9004930037
 31
0.0
  0
LINE
  5
10D
330
1F
100
AcDbEntity
  8
0
  6
HIDDEN
 62
     7
370
    18
100
AcDbLine
 10
182.5122332684
 20
117.4004930335
 30
0.0
 11
182.5122332684
 21
123.4004940169
 31
0.0
  0
SPLINE
  5
10E
330
1F
100
AcDbEntity
  8
0
  6
HIDDEN
 62
     7
370
    18
100
AcDbSpline
210
0.0
220
0.0
230
1.0
 70
     8
 71
     3
 72
    10
 73
     6
 74
     0
 42
0.000000001
 43
0.00000001
 40
0.0
 40
0.0
 40
0.0
 40
0.0
 40
0.4395943884721533
 40
0.7571244038339854
 40
1.0
 40
1.0
 40
1.0
 40
1.0
 10
188.4153469018312
 20
120.4168773519407
 30
0.0
 10
188.2824537343929
 20
120.699008628626
 30
0.0
 10
188.0535685101751
 20
121.1849303789143
 30
0.0
 10
188.1574523365209
 20
121.8844499046472
 30
0.0
 10
188.3373713489392
 20
122.2330342976501
 30
0.0
 10
188.4153469018312
 20
122.3841081636558
 30
0.0
  0
SPLINE
  5
10F
330
1F
100
AcDbEntity
  8
0
  6
HIDDEN
 62
     7
370
    18
100
AcDbSpline
210
0.0
220
0.0
230
1.0
 70
     8
 71
     3
 72
    10
 73
     6
 74
     0
 42
0.000000001
 43
0.00000001
 40
0.0
 40
0.0
 40
0.0
 40
0.0
 40
0.4395942487642542
 40
0.7571241632115784
 40
1.0
 40
1.0
 40
1.0
 40
1.0
 10
188.4153469018312
 20
118.4168770241151
 30
0.0
 10
188.282453716667
 20
118.6990083192083
 30
0.0
 10
188.0535684619194
 20
119.184930101201
 30
0.0
 10
188.1574524893068
 20
119.884449674758
 30
0.0
 10
188.3373713548017
 20
120.2330345710259
 30
0.0
 10
188.4153469018312
 20
120.3841087671528
 30
0.0
  0
LINE
  5
110
330
1F
100
AcDbEntity
  8
0
  6
HIDDEN
 62
     7
370
    18
100
AcDbLine
 10
185.6012551598
 20
120.4004935252
 30
0.0
 11
188.4153469018
 21
120.4004935252
 31
0.0
  0
SPLINE
  5
111
330
1F
100
AcDbEntity
  8
0
  6
HIDDEN
 62
     7
370
    18
100
AcDbSpline
210
0.0
220
0.0
230
1.0
 70
    24
 71
     3
 72
     9
 73
     5
 74
     0
 42
0.000000001
 43
0.00000001
 40
0.0
 40
0.0
 40
0.0
 40
0.0
 40
0.7720510917115355
 40
1.0
 40
1.0
 40
1.0
 40
1.0
 10
185.6012551597925
 20
118.4004931973825
 30
0.0
 10
185.5095970457891
 20
118.4004931973825
 30
0.0
 10
185.3908767758647
 20
118.4004931973825
 30
0.0
 10
185.4398385238852
 20
118.4004931973825
 30
0.0
 10
185.4509993008943
 20
118.4004931973825
 30
0.0
  0
SPLINE
  5
112
330
1F
100
AcDbEntity
  8
0
  6
HIDDEN
 62
     7
370
    18
100
AcDbSpline
210
0.0
220
0.0
230
1.0
 70
    24
 71
     3
 72
     9
 73
     5
 74
     0
 42
0.000000001
 43
0.00000001
 40
0.0
 40
0.0
 40
0.0
 40
0.0
 40
0.2279489082884645
 40
1.0
 40
1.0
 40
1.0
 40
1.0
 10
185.4509993008943
 20
122.4004938530336
 30
0.0
 10
185.4398385238852
 20
122.4004938530336
 30
0.0
 10
185.3908767758647
 20
122.4004938530336
 30
0.0
 10
185.5095970457891
 20
122.4004938530336
 30
0.0
 10
185.6012551597925
 20
122.4004938530336
 30
0.0
  0
SPLINE
  5
113
330
1F
100
AcDbEntity
  8
0
  6
HIDDEN
 62
     7
370
    18
100
AcDbSpline
210
0.0
220
0.0
230
1.0
 70
     8
 71
     3
 72
     9
 73
     5
 74
     0
 42
0.000000001
 43
0.00000001
 40
0.0
 40
0.0
 40
0.0
 40
0.0
 40
0.537162289482753
 40
1.0
 40
1.0
 40
1.0
 40
1.0
 10
185.6012551597925
 20
120.400493525208
 30
0.0
 10
185.5039403030183
 20
120.0413773237054
 30
0.0
 10
185.3227755811465
 20
119.3728341133314
 30
0.0
 10
185.5131450094459
 20
118.7081391106266
 30
0.0
 10
185.6012551597925
 20
118.4004931973825
 30
0.0
  0
SPLINE
  5
114
330
1F
100
AcDbEntity
  8
0
  6
HIDDEN
 62
     7
370
    18
100
AcDbSpline
210
0.0
220
0.0
230
1.0
 70
     8
 71
     3
 72
     9
 73
     5
 74
     0
 42
0.000000001
 43
0.00000001
 40
0.0
 40
0.0
 40
0.0
 40
0.0
 40
0.537162289482753
 40
1.0
 40
1.0
 40
1.0
 40
1.0
 10
185.6012551597925
 20
122.4004938530336
 30
0.0
 10
185.5039403030183
 20
122.0413776515309
 30
0.0
 10
185.3227755811465
 20
121.372834441157
 30
0.0
 10
185.5131450094459
 20
120.7081394384522
 30
0.0
 10
185.6012551597925
 20
120.400493525208
 30
0.0
  0
LINE
  5
115
330
1F
100
AcDbEntity
  8
0
  6
HIDDEN
 62
     7
370
    18
100
AcDbLine
 10
178.3194711916
 20
118.4004931974
 30
0.0
 11
178.3194711916
 21
122.400493853
 31
0.0
  0
LINE
  5
116
330
1F
100
AcDbEntity
  8
0
  6
HIDDEN
 62
     7
370
    18
100
AcDbLine
 10
173.9153510444
 20
118.4004931974
 30
0.0
 11
173.9153510444
 21
122.400493853
 31
0.0
  0
LINE
  5
117
330
1F
100
AcDbEntity
  8
0
  6
HIDDEN
 62
     7
370
    18
100
AcDbLine
 10
173.4153500311
 20
118.9004932793
 30
0.0
 11
173.4153500311
 21
121.9004928398
 31
0.0
  0
LINE
  5
118
330
1F
100
AcDbEntity
  8
0
  6
HIDDEN
 62
     7
370
    18
100
AcDbLine
 10
185.6012551598
 20
122.400493853
 30
0.0
 11
188.4153469018
 21
122.400493853
 31
0.0
  0
LINE
  5
119
330
1F
100
AcDbEntity
  8
0
  6
HIDDEN
 62
     7
370
    18
100
AcDbLine
 10
185.6012551598
 20
118.4004931974
 30
0.0
 11
188.4153469018
 21
118.4004931974
 31
0.0
  0
LINE
  5
11A
330
1F
100
AcDbEntity
  8
0
  6
HIDDEN
 62
     7
370
    18
100
AcDbLine
 10
182.5122332684
 20
89.4004921692
 30
0.0
 11
182.5122332684
 21
95.4004931527
 31
0.0
  0
LINE
  5
11B
330
1F
100
AcDbEntity
  8
0
  6
HIDDEN
 62
     7
370
    18
100
AcDbLine
 10
180.4153493158
 20
89.9004931825
 30
0.0
 11
180.4153493158
 21
94.9004930707
 31
0.0
  0
SPLINE
  5
11C
330
1F
100
AcDbEntity
  8
0
  6
HIDDEN
 62
     7
370
    18
100
AcDbSpline
210
0.0
220
0.0
230
1.0
 70
     8
 71
     3
 72
    10
 73
     6
 74
     0
 42
0.000000001
 43
0.00000001
 40
0.0
 40
0.0
 40
0.0
 40
0.0
 40
0.4395942487642542
 40
0.7571241632115784
 40
1.0
 40
1.0
 40
1.0
 40
1.0
 10
188.4153469018312
 20
92.41687741899588
 30
0.0
 10
188.282453716667
 20
92.69900871408909
 30
0.0
 10
188.0535684619194
 20
93.18493049608179
 30
0.0
 10
188.1574524893068
 20
93.8844500696388
 30
0.0
 10
188.3373713548017
 20
94.23303496590663
 30
0.0
 10
188.4153469018312
 20
94.38410916203358
 30
0.0
  0
SPLINE
  5
11D
330
1F
100
AcDbEntity
  8
0
  6
HIDDEN
 62
     7
370
    18
100
AcDbSpline
210
0.0
220
0.0
230
1.0
 70
     8
 71
     3
 72
    10
 73
     6
 74
     0
 42
0.000000001
 43
0.00000001
 40
0.0
 40
0.0
 40
0.0
 40
0.0
 40
0.4395940651053976
 40
0.757124083615146
 40
0.9999999999999999
 40
0.9999999999999999
 40
0.9999999999999999
 40
0.9999999999999999
 10
188.4153469018312
 20
90.41687802249291
 30
0.0
 10
188.2824537296641
 20
90.69900898244013
 30
0.0
 10
188.053568425738
 20
91.18493033913158
 30
0.0
 10
188.1574525003273
 20
91.88444975097376
 30
0.0
 10
188.3373713581338
 20
92.2330346408508
 30
0.0
 10
188.4153469018312
 20
92.38410883420804
 30
0.0
  0
LINE
  5
11E
330
1F
100
AcDbEntity
  8
0
  6
HIDDEN
 62
     7
370
    18
100
AcDbLine
 10
185.6012551598
 20
92.4004926609
 30
0.0
 11
188.4153469018
 21
92.4004926609
 31
0.0
  0
SPLINE
  5
11F
330
1F
100
AcDbEntity
  8
0
  6
HIDDEN
 62
     7
370
    18
100
AcDbSpline
210
0.0
220
0.0
230
1.0
 70
    24
 71
     3
 72
     9
 73
     5
 74
     0
 42
0.000000001
 43
0.00000001
 40
0.0
 40
0.0
 40
0.0
 40
0.0
 40
0.7720510917115355
 40
1.0
 40
1.0
 40
1.0
 40
1.0
 10
185.6012551597925
 20
90.40049233311512
 30
0.0
 10
185.5095970457891
 20
90.40049233311512
 30
0.0
 10
185.3908767758647
 20
90.40049233311512
 30
0.0
 10
185.4398385238852
 20
90.40049233311512
 30
0.0
 10
185.4509993008943
 20
90.40049233311512
 30
0.0
  0
SPLINE
  5
120
330
1F
100
AcDbEntity
  8
0
  6
HIDDEN
 62
     7
370
    18
100
AcDbSpline
210
0.0
220
0.0
230
1.0
 70
    24
 71
     3
 72
     9
 73
     5
 74
     0
 42
0.000000001
 43
0.00000001
 40
0.0
 40
0.0
 40
0.0
 40
0.0
 40
0.2279489082884645
 40
1.0
 40
1.0
 40
1.0
 40
1.0
 10
185.4509993008943
 20
94.40049298876622
 30
0.0
 10
185.4398385238852
 20
94.40049298876622
 30
0.0
 10
185.3908767758647
 20
94.40049298876622
 30
0.0
 10
185.5095970457891
 20
94.40049298876622
 30
0.0
 10
185.6012551597925
 20
94.40049298876622
 30
0.0
  0
SPLINE
  5
121
330
1F
100
AcDbEntity
  8
0
  6
HIDDEN
 62
     7
370
    18
100
AcDbSpline
210
0.0
220
0.0
230
1.0
 70
     8
 71
     3
 72
     9
 73
     5
 74
     0
 42
0.000000001
 43
0.00000001
 40
0.0
 40
0.0
 40
0.0
 40
0.0
 40
0.5371619490991092
 40
1.0
 40
1.0
 40
1.0
 40
1.0
 10
185.6012551597925
 20
92.40049266094067
 30
0.0
 10
185.5039403519424
 20
92.04137681885065
 30
0.0
 10
185.3227756063506
 20
91.37283385393604
 30
0.0
 10
185.5131449731239
 20
90.70813859240515
 30
0.0
 10
185.6012551597925
 20
90.40049233311512
 30
0.0
  0
SPLINE
  5
122
330
1F
100
AcDbEntity
  8
0
  6
HIDDEN
 62
     7
370
    18
100
AcDbSpline
210
0.0
220
0.0
230
1.0
 70
     8
 71
     3
 72
     9
 73
     5
 74
     0
 42
0.000000001
 43
0.00000001
 40
0.0
 40
0.0
 40
0.0
 40
0.0
 40
0.5371619490991092
 40
1.0
 40
1.0
 40
1.0
 40
1.0
 10
185.6012551597925
 20
94.40049298876622
 30
0.0
 10
185.5039403519424
 20
94.0413771466762
 30
0.0
 10
185.3227756063506
 20
93.37283418176159
 30
0.0
 10
185.5131449731239
 20
92.7081389202307
 30
0.0
 10
185.6012551597925
 20
92.40049266094067
 30
0.0
  0
LINE
  5
123
330
1F
100
AcDbEntity
  8
0
  6
HIDDEN
 62
     7
370
    18
100
AcDbLine
 10
178.3194711916
 20
90.4004923331
 30
0.0
 11
178.3194711916
 21
94.4004929888
 31
0.0
  0
LINE
  5
124
330
1F
100
AcDbEntity
  8
0
  6
HIDDEN
 62
     7
370
    18
100
AcDbLine
 10
173.9153510444
 20
90.4004923331
 30
0.0
 11
173.9153510444
 21
94.4004929888
 31
0.0
  0
LINE
  5
125
330
1F
100
AcDbEntity
  8
0
  6
HIDDEN
 62
     7
370
    18
100
AcDbLine
 10
173.4153500311
 20
90.9004933464
 30
0.0
 11
173.4153500311
 21
93.9004929068
 31
0.0
  0
LINE
  5
126
330
1F
100
AcDbEntity
  8
0
  6
HIDDEN
 62
     7
370
    18
100
AcDbLine
 10
185.6012551598
 20
94.4004929888
 30
0.0
 11
188.4153469018
 21
94.4004929888
 31
0.0
  0
LINE
  5
127
330
1F
100
AcDbEntity
  8
0
  6
HIDDEN
 62
     7
370
    18
100
AcDbLine
 10
185.6012551598
 20
90.4004923331
 30
0.0
 11
188.4153469018
 21
90.4004923331
 31
0.0
  0
LINE
  5
128
330
1F
100
AcDbEntity
  8
0
  6
HIDDEN
 62
     7
370
    18
100
AcDbLine
 10
181.1058504991
 20
110.4004932831
 30
0.0
 11
181.1058504991
 21
102.4004929031
 31
0.0
  0
LINE
  5
129
330
1F
100
AcDbEntity
  8
0
  6
HIDDEN
 62
     7
370
    18
100
AcDbLine
 10
180.4153493158
 20
109.7099930311
 30
0.0
 11
180.4153493158
 21
103.090993155
 31
0.0
  0
LINE
  5
12A
330
1F
100
AcDbEntity
  8
0
  6
HIDDEN
 62
     7
370
    18
100
AcDbLine
 10
209.4153522066
 20
106.6210513499
 30
0.0
 11
209.4153522066
 21
104.8661904906
 31
0.0
  0
LINE
  5
12B
330
1F
100
AcDbEntity
  8
0
  6
HIDDEN
 62
     7
370
    18
100
AcDbLine
 10
209.4153522066
 20
108.3759123257
 30
0.0
 11
209.4153522066
 21
106.6210513499
 31
0.0
  0
LINE
  5
12C
330
1F
100
AcDbEntity
  8
0
  6
HIDDEN
 62
     7
370
    18
100
AcDbLine
 10
209.4153522066
 20
104.8661904906
 30
0.0
 11
209.4153522066
 21
103.8784808742
 31
0.0
  0
LINE
  5
12D
330
1F
100
AcDbEntity
  8
0
  6
HIDDEN
 62
     7
370
    18
100
AcDbLine
 10
209.4153522066
 20
104.8661904906
 30
0.0
 11
213.4153528623
 21
104.8661904906
 31
0.0
  0
LINE
  5
12E
330
1F
100
AcDbEntity
  8
0
  6
HIDDEN
 62
     7
370
    18
100
AcDbLine
 10
209.4153522066
 20
108.3759123257
 30
0.0
 11
209.4153522066
 21
109.1430634523
 31
0.0
  0
LINE
  5
12F
330
1F
100
AcDbEntity
  8
0
  6
HIDDEN
 62
     7
370
    18
100
AcDbLine
 10
209.4153522066
 20
108.3759123257
 30
0.0
 11
213.4153528623
 21
108.3759123257
 31
0.0
  0
LINE
  5
130
330
1F
100
AcDbEntity
  8
0
  6
HIDDEN
 62
     7
370
    18
100
AcDbLine
 10
209.4153522066
 20
103.8784808742
 30
0.0
 11
209.4153522066
 21
102.8907713743
 31
0.0
  0
LINE
  5
131
330
1F
100
AcDbEntity
  8
0
  6
HIDDEN
 62
     7
370
    18
100
AcDbLine
 10
209.4153522066
 20
109.1430634523
 30
0.0
 11
209.4153522066
 21
109.9102148118
 31
0.0
  0
LINE
  5
132
330
1F
100
AcDbEntity
  8
0
  6
HIDDEN
 62
     7
370
    18
100
AcDbLine
 10
209.4153522066
 20
104.4250738605
 30
0.0
 11
213.4153528623
 21
104.4250738605
 31
0.0
  0
LINE
  5
133
330
1F
100
AcDbEntity
  8
0
  6
HIDDEN
 62
     7
370
    18
100
AcDbLine
 10
209.4153522066
 20
102.8907713743
 30
0.0
 11
213.4153528623
 21
102.8907713743
 31
0.0
  0
LINE
  5
134
330
1F
100
AcDbEntity
  8
0
  6
HIDDEN
 62
     7
370
    18
100
AcDbLine
 10
209.4153522066
 20
107.9347956956
 30
0.0
 11
213.4153528623
 21
107.9347956956
 31
0.0
  0
LINE
  5
135
330
1F
100
AcDbEntity
  8
0
  6
HIDDEN
 62
     7
370
    18
100
AcDbLine
 10
209.4153522066
 20
109.9102148118
 30
0.0
 11
213.4153528623
 21
109.9102148118
 31
0.0
  0
LINE
  5
136
330
1F
100
AcDbEntity
  8
0
  6
HIDDEN
 62
     7
370
    18
100
AcDbLine
 10
138.0234167464
 20
130.8591827082
 30
0.0
 11
138.0234167464
 21
126.2504938322
 31
0.0
  0
ARC
  5
137
330
1F
100
AcDbEntity
  8
0
  6
HIDDEN
 62
     7
370
    18
100
AcDbCircle
 10
131.7067480461
 20
118.8879272583
 30
0.0
 40
3.669108845194432
100
AcDbArc
 50
265.4448070519
 51
12.6010737287
  0
ARC
  5
138
330
1F
100
AcDbEntity
  8
0
  6
HIDDEN
 62
     7
370
    18
100
AcDbCircle
 10
131.1237455584
 20
118.8874331918
 30
0.0
 40
3.668632686143009
100
AcDbArc
 50
167.2957382391
 51
274.5590086144
  0
LINE
  5
139
330
1F
100
AcDbEntity
  8
0
  6
HIDDEN
 62
     7
370
    18
100
AcDbLine
 10
111.4104997851
 20
82.8758939433
 30
0.0
 11
111.1616345606
 21
82.852631368
 31
0.0
  0
LINE
  5
13A
330
1F
100
AcDbEntity
  8
0
  6
HIDDEN
 62
     7
370
    18
100
AcDbLine
 10
111.0290738307
 20
129.9605793583
 30
0.0
 11
111.4104066528
 21
129.9250754791
 31
0.0
  0
SPLINE
  5
13B
330
1F
100
AcDbEntity
  8
0
  6
HIDDEN
 62
     7
370
    18
100
AcDbSpline
210
0.0
220
0.0
230
1.0
 70
     8
 71
     3
 72
    10
 73
     6
 74
     0
 42
0.000000001
 43
0.00000001
 40
0.0
 40
0.0
 40
0.0
 40
0.0
 40
0.4476309253620634
 40
0.8952451906147796
 40
1.0
 40
1.0
 40
1.0
 40
1.0
 10
117.170351326433
 20
126.2380215602527
 30
0.0
 10
117.4170539312421
 20
126.2675330479226
 30
0.0
 10
117.9104499589825
 20
126.326554924892
 30
0.0
 10
118.1994621235262
 20
126.3404985653124
 30
0.0
 10
118.1391196877083
 20
126.3366063224535
 30
0.0
 10
118.1276759616704
 20
126.3358681725869
 30
0.0
  0
SPLINE
  5
13C
330
1F
100
AcDbEntity
  8
0
  6
HIDDEN
 62
     7
370
    18
100
AcDbSpline
210
0.0
220
0.0
230
1.0
 70
     8
 71
     3
 72
    10
 73
     6
 74
     0
 42
0.000000001
 43
0.00000001
 40
0.0
 40
0.0
 40
0.0
 40
0.0
 40
0.3455595742254082
 40
0.7967233982624802
 40
1.0
 40
1.0
 40
1.0
 40
1.0
 10
118.1276596635254
 20
86.46511801356175
 30
0.0
 10
118.118099728714
 20
86.4656733584801
 30
0.0
 10
118.0960583085995
 20
86.46695376372296
 30
0.0
 10
117.679080299504
 20
86.49691539640504
 30
0.0
 10
117.2909187088379
 20
86.54731113822157
 30
0.0
 10
117.170351326433
 20
86.562964625896
 30
0.0
  0
SPLINE
  5
13D
330
1F
100
AcDbEntity
  8
0
  6
HIDDEN
 62
     7
370
    18
100
AcDbSpline
210
0.0
220
0.0
230
1.0
 70
     8
 71
     3
 72
    15
 73
    11
 74
     0
 42
0.000000001
 43
0.00000001
 40
0.0
 40
0.0
 40
0.0
 40
0.0
 40
0.1409172263352446
 40
0.281889861653346
 40
0.4212989542022905
 40
0.5593768841673977
 40
0.6988856533029646
 40
0.840367202775075
 40
0.9813164473602943
 40
1.0
 40
1.0
 40
1.0
 40
1.0
 10
117.170351326433
 20
86.562964625896
 30
0.0
 10
116.8543096068203
 20
86.60331794767067
 30
0.0
 10
116.2221018992519
 20
86.6840404582405
 30
0.0
 10
114.9879387269377
 20
86.76059840462328
 30
0.0
 10
113.7172166031221
 20
86.75592033660834
 30
0.0
 10
112.5286571365856
 20
86.6751238713851
 30
0.0
 10
111.5355344572952
 20
86.55072932453088
 30
0.0
 10
110.8961259259814
 20
86.44432237776965
 30
0.0
 10
110.615105937628
 20
86.3912453184601
 30
0.0
 10
110.6816665061168
 20
86.403499810422
 30
0.0
 10
110.6894568092795
 20
86.40493408614495
 30
0.0
  0
SPLINE
  5
13E
330
1F
100
AcDbEntity
  8
0
  6
HIDDEN
 62
     7
370
    18
100
AcDbSpline
210
0.0
220
0.0
230
1.0
 70
     8
 71
     3
 72
    15
 73
    11
 74
     0
 42
0.000000001
 43
0.00000001
 40
0.0
 40
0.0
 40
0.0
 40
0.0
 40
0.1201202497733958
 40
0.2584739452442804
 40
0.3987302041697883
 40
0.5404022600041716
 40
0.680739511736143
 40
0.8190355942651634
 40
0.9577823154231621
 40
1.0
 40
1.0
 40
1.0
 40
1.0
 10
110.6894568092795
 20
126.3960521000037
 30
0.0
 10
110.710166058083
 20
126.3920275959294
 30
0.0
 10
110.754728080318
 20
126.3833676951409
 30
0.0
 10
111.3171675500464
 20
126.2840747764297
 30
0.0
 10
112.2106298054937
 20
126.1601587647184
 30
0.0
 10
113.3696086293459
 20
126.0604473891847
 30
0.0
 10
114.6426454981656
 20
126.0333103314867
 30
0.0
 10
115.8769308448927
 20
126.0886476936168
 30
0.0
 10
116.7048939225886
 20
126.1751274294081
 30
0.0
 10
117.0823042352349
 20
126.2261243485453
 30
0.0
 10
117.170351326433
 20
126.2380215602527
 30
0.0
  0
LINE
  5
13F
330
1F
100
AcDbEntity
  8
0
  6
HIDDEN
 62
     7
370
    18
100
AcDbLine
 10
104.4193247817
 20
89.4004921692
 30
0.0
 11
104.4193247817
 21
123.4004940169
 31
0.0
  0
LWPOLYLINE
  5
140
330
1F
100
AcDbEntity
  8
0
  6
HIDDEN
 62
     7
370
    18
100
AcDbPolyline
 90
       14
 70
   128
 43
0.0
 10
131.415349666
 20
128.3460962849
 10
132.1957104392
 20
128.384524517
 10
132.9460826255
 20
128.4983358609
 10
133.6376306154
 20
128.6831568258
 10
134.2437763251
 20
128.9318814206
 10
134.7412273772
 20
129.2349542754
 10
135.1108674444
 20
129.5807282704
 10
135.3384901322
 20
129.9559152948
 10
135.4153493903
 20
130.3460947501
 10
135.3384901322
 20
130.736276068
 10
135.1108674444
 20
131.1114630925
 10
134.7412273772
 20
131.4572352248
 10
134.2437763251
 20
131.7603099423
 10
133.7814566232
 20
131.9586667495
  0
LWPOLYLINE
  5
141
330
1F
100
AcDbEntity
  8
0
  6
HIDDEN
 62
     7
370
    18
100
AcDbPolyline
 90
       14
 70
   128
 43
0.0
 10
129.0425492935
 20
131.9562061953
 10
128.5869220756
 20
131.7603099423
 10
128.0894710235
 20
131.4572352248
 10
127.7198309563
 20
131.1114630925
 10
127.4922082685
 20
130.736276068
 10
127.415349476
 20
130.3460947501
 10
127.4922082685
 20
129.9559152948
 10
127.7198309563
 20
129.5807282704
 10
128.0894710235
 20
129.2349542754
 10
128.5869220756
 20
128.9318814206
 10
129.193068251
 20
128.6831568258
 10
129.8846157752
 20
128.4983358609
 10
130.6349879615
 20
128.384524517
 10
131.415349666
 20
128.3460962849
  0
SPLINE
  5
142
330
1F
100
AcDbEntity
  8
0
  6
HIDDEN
 62
     7
370
    18
100
AcDbSpline
210
0.0
220
0.0
230
1.0
 70
     8
 71
     3
 72
     9
 73
     5
 74
     0
 42
0.000000001
 43
0.00000001
 40
0.0
 40
0.0
 40
0.0
 40
0.0
 40
0.9474841337054655
 40
1.0
 40
1.0
 40
1.0
 40
1.0
 10
158.0181217305036
 20
121.3048412727723
 30
0.0
 10
157.7516429919965
 20
121.1931829042615
 30
0.0
 10
157.4703942311704
 20
121.0753356870483
 30
0.0
 10
157.3447467062354
 20
120.8737401254179
 30
0.0
 10
157.3381482176157
 20
120.8631531598578
 30
0.0
  0
SPLINE
  5
143
330
1F
100
AcDbEntity
  8
0
  6
HIDDEN
 62
     7
370
    18
100
AcDbSpline
210
0.0
220
0.0
230
1.0
 70
     8
 71
     3
 72
     9
 73
     5
 74
     0
 42
0.000000001
 43
0.00000001
 40
0.0
 40
0.0
 40
0.0
 40
0.0
 40
0.166770182143487
 40
1.0
 40
1.0
 40
1.0
 40
1.0
 10
156.9637565426202
 20
120.2794346290241
 30
0.0
 10
156.9486028213052
 20
120.257424884277
 30
0.0
 10
156.8577369295719
 20
120.125448385456
 30
0.0
 10
156.8618893519524
 20
119.967297565437
 30
0.0
 10
156.8653492740961
 20
119.8355215864787
 30
0.0
  0
LINE
  5
144
330
1F
100
AcDbEntity
  8
0
  6
HIDDEN
 62
     7
370
    18
100
AcDbLine
 10
157.143084567
 20
93.8299731615
 30
0.0
 11
156.8776986114
 21
93.1241498592
 31
0.0
  0
LINE
  5
145
330
1F
100
AcDbEntity
  8
0
  6
HIDDEN
 62
     7
370
    18
100
AcDbLine
 10
157.7527283244
 20
94.4622406068
 30
0.0
 11
157.6588472835
 21
94.4054429683
 31
0.0
  0
SPLINE
  5
146
330
1F
100
AcDbEntity
  8
0
  6
HIDDEN
 62
     7
370
    18
100
AcDbSpline
210
0.0
220
0.0
230
1.0
 70
     8
 71
     3
 72
    11
 73
     7
 74
     0
 42
0.000000001
 43
0.00000001
 40
0.0
 40
0.0
 40
0.0
 40
0.0
 40
0.0005779865010845
 40
0.0005779865010845
 40
0.0005779865010845
 40
0.0011559733324421
 40
0.0011559733324421
 40
0.0011559733324421
 40
0.0011559733324421
 10
91.51534928601701
 20
108.4003337012281
 30
0.0
 10
91.68201654082297
 20
108.3983500618871
 30
0.0
 10
91.84868297050063
 20
108.3963124548846
 30
0.0
 10
92.01534930895247
 20
108.3942009914782
 30
0.0
 10
92.18201573777887
 20
108.3920895269268
 30
0.0
 10
92.34868211141657
 20
108.3899039637705
 30
0.0
 10
92.515349286017
 20
108.3876213864389
 30
0.0
  0
SPLINE
  5
147
330
1F
100
AcDbEntity
  8
0
  6
HIDDEN
 62
     7
370
    18
100
AcDbSpline
210
0.0
220
0.0
230
1.0
 70
     8
 71
     3
 72
     8
 73
     4
 74
     0
 42
0.000000001
 43
0.00000001
 40
0.0
 40
0.0
 40
0.0
 40
0.0
 40
0.0011564765856722
 40
0.0011564765856722
 40
0.0011564765856722
 40
0.0011564765856722
 10
92.515349286017
 20
104.4037927908581
 30
0.0
 10
92.18204135544815
 20
104.4029176352748
 30
0.0
 10
91.84870612305596
 20
104.4018627840233
 30
0.0
 10
91.51534928601701
 20
104.4006916969857
 30
0.0
  0
LINE
  5
148
330
1F
100
AcDbEntity
  8
0
  6
HIDDEN
 62
     7
370
    18
100
AcDbLine
 10
131.0751752481
 20
89.4004921692
 30
0.0
 11
131.0751752481
 21
123.4004940169
 31
0.0
  0
LINE
  5
149
330
1F
100
AcDbEntity
  8
0
  6
HIDDEN
 62
     7
370
    18
100
AcDbLine
 10
133.3653491474
 20
90.6754932629
 30
0.0
 11
133.3653491474
 21
122.1254929232
 31
0.0
  0
SPLINE
  5
14A
330
1F
100
AcDbEntity
  8
0
  6
HIDDEN
 62
     7
370
    18
100
AcDbSpline
210
0.0
220
0.0
230
1.0
 70
     8
 71
     3
 72
    16
 73
    12
 74
     0
 42
0.000000001
 43
0.00000001
 40
0.0
 40
0.0
 40
0.0
 40
0.0
 40
0.124999999999998
 40
0.124999999999998
 40
0.249999999999996
 40
0.249999999999996
 40
0.4999999999999973
 40
0.4999999999999973
 40
0.7499999999999987
 40
0.7499999999999987
 40
1.0
 40
1.0
 40
1.0
 40
1.0
 10
100.215349286017
 20
90.59900265704269
 30
0.0
 10
100.3104710406828
 20
90.59900265704269
 30
0.0
 10
100.4038011094109
 20
90.59518682364988
 30
0.0
 10
100.5870628701489
 20
90.58041627092007
 30
0.0
 10
100.6779405857059
 20
90.56925822294448
 30
0.0
 10
100.9347422832256
 20
90.52678695280277
 30
0.0
 10
101.0898096480976
 20
90.48574075559996
 30
0.0
 10
101.3435561096523
 20
90.39059463901808
 30
0.0
 10
101.4444265613201
 20
90.3358319049365
 30
0.0
 10
101.579672976015
 20
90.22457078103263
 30
0.0
 10
101.615349286017
 20
90.16740104370393
 30
0.0
 10
101.615349286017
 20
90.11297947067021
 30
0.0
  0
SPLINE
  5
14B
330
1F
100
AcDbEntity
  8
0
  6
HIDDEN
 62
     7
370
    18
100
AcDbSpline
210
0.0
220
0.0
230
1.0
 70
     8
 71
     3
 72
     8
 73
     4
 74
     0
 42
0.000000001
 43
0.00000001
 40
0.0
 40
0.0
 40
0.0
 40
0.0
 40
1.0
 40
1.0
 40
1.0
 40
1.0
 10
92.8153492893322
 20
92.74380560312493
 30
0.0
 10
92.81534928933414
 20
91.85990846080799
 30
0.0
 10
92.80186866342433
 20
91.14532521574604
 30
0.0
 10
92.80051729523503
 20
90.59900265704269
 30
0.0
  0
SPLINE
  5
14C
330
1F
100
AcDbEntity
  8
0
  6
HIDDEN
 62
     7
370
    18
100
AcDbSpline
210
0.0
220
0.0
230
1.0
 70
     8
 71
     3
 72
    10
 73
     6
 74
     0
 42
0.000000001
 43
0.00000001
 40
0.0
 40
0.0
 40
0.0
 40
0.0
 40
0.5
 40
0.5
 40
1.0
 40
1.0
 40
1.0
 40
1.0
 10
92.515349286017
 20
93.76871586882812
 30
0.0
 10
92.60674040170991
 20
93.5940770812107
 30
0.0
 10
92.67939223544298
 20
93.42047525395512
 30
0.0
 10
92.78689112845112
 20
93.07686183494842
 30
0.0
 10
92.81534928932656
 20
92.90853600841696
 30
0.0
 10
92.8153492893322
 20
92.7438056031844
 30
0.0
  0
LINE
  5
14D
330
1F
100
AcDbEntity
  8
0
  6
HIDDEN
 62
     7
370
    18
100
AcDbLine
 10
92.5153496228
 20
96.799666554
 30
0.0
 11
92.5153496228
 21
93.7687154191
 31
0.0
  0
SPLINE
  5
14E
330
1F
100
AcDbEntity
  8
0
  6
HIDDEN
 62
     7
370
    18
100
AcDbSpline
210
0.0
220
0.0
230
1.0
 70
     8
 71
     3
 72
    10
 73
     6
 74
     0
 42
0.000000001
 43
0.00000001
 40
0.0
 40
0.0
 40
0.0
 40
0.0
 40
0.5
 40
0.5
 40
1.0
 40
1.0
 40
1.0
 40
1.0
 10
92.81534928920472
 20
98.16750671743151
 30
0.0
 10
92.81534928920469
 20
97.9255227498247
 30
0.0
 10
92.78719926013412
 20
97.69118032085969
 30
0.0
 10
92.68360934599171
 20
97.235805298582
 30
0.0
 10
92.60698063640021
 20
97.01420073547463
 30
0.0
 10
92.51534928601701
 20
96.7996663006767
 30
0.0
  0
LINE
  5
14F
330
1F
100
AcDbEntity
  8
0
  6
HIDDEN
 62
     7
370
    18
100
AcDbLine
 10
92.8153491132
 20
110.0051268267
 30
0.0
 11
92.8153491132
 21
98.1675065386
 31
0.0
  0
SPLINE
  5
150
330
1F
100
AcDbEntity
  8
0
  6
HIDDEN
 62
     7
370
    18
100
AcDbSpline
210
0.0
220
0.0
230
1.0
 70
     8
 71
     3
 72
     8
 73
     4
 74
     0
 42
0.000000001
 43
0.00000001
 40
0.0
 40
0.0
 40
0.0
 40
0.0
 40
1.0
 40
1.0
 40
1.0
 40
1.0
 10
92.515349286017
 20
116.0074324141427
 30
0.0
 10
92.69638075257592
 20
115.57532492848
 30
0.0
 10
92.81534928921043
 20
115.1211795223803
 30
0.0
 10
92.81534928920473
 20
114.6334794686863
 30
0.0
  0
LINE
  5
151
330
1F
100
AcDbEntity
  8
0
  6
HIDDEN
 62
     7
370
    18
100
AcDbLine
 10
92.5153496228
 20
119.0406349751
 30
0.0
 11
92.5153496228
 21
116.0074328336
 31
0.0
  0
SPLINE
  5
152
330
1F
100
AcDbEntity
  8
0
  6
HIDDEN
 62
     7
370
    18
100
AcDbSpline
210
0.0
220
0.0
230
1.0
 70
     8
 71
     3
 72
    10
 73
     6
 74
     0
 42
0.000000001
 43
0.00000001
 40
0.0
 40
0.0
 40
0.0
 40
0.0
 40
0.5
 40
0.5
 40
1.0
 40
1.0
 40
1.0
 40
1.0
 10
92.81534928941021
 20
120.0571805829942
 30
0.0
 10
92.81534928940842
 20
119.8925442363882
 30
0.0
 10
92.78819061865293
 20
119.7253890125577
 30
0.0
 10
92.6824256233345
 20
119.3867660047561
 30
0.0
 10
92.60601083503737
 20
119.214494227465
 30
0.0
 10
92.51534928601703
 20
119.040635400121
 30
0.0
  0
SPLINE
  5
153
330
1F
100
AcDbEntity
  8
0
  6
HIDDEN
 62
     7
370
    18
100
AcDbSpline
210
0.0
220
0.0
230
1.0
 70
     8
 71
     3
 72
    18
 73
    14
 74
     0
 42
0.000000001
 43
0.00000001
 40
0.0
 40
0.0
 40
0.0
 40
0.0
 40
0.2500000000000033
 40
0.2500000000000033
 40
0.3750000000000029
 40
0.3750000000000029
 40
0.5000000000000026
 40
0.5000000000000026
 40
0.6250000000000022
 40
0.6250000000000022
 40
0.7500000000000018
 40
0.7500000000000018
 40
1.0
 40
1.0
 40
1.0
 40
1.0
 10
97.61534928601701
 20
122.6880067154785
 30
0.0
 10
97.615349286017
 20
122.6335321949263
 30
0.0
 10
97.58043859462482
 20
122.5771511355738
 30
0.0
 10
97.47842929329178
 20
122.4930742947203
 30
0.0
 10
97.43679293861366
 20
122.4657405907294
 30
0.0
 10
97.33838714312493
 20
122.4127866751304
 30
0.0
 10
97.28084393142063
 20
122.3868993214132
 30
0.0
 10
97.15354575784768
 20
122.33912177658
 30
0.0
 10
97.08395845309022
 20
122.3171738584021
 30
0.0
 10
96.93252420793527
 20
122.2777412934894
 30
0.0
 10
96.84984030484131
 20
122.2601850442635
 30
0.0
 10
96.59372884280326
 20
122.217746278843
 30
0.0
 10
96.40581383891528
 20
122.201983529106
 30
0.0
 10
96.215349286017
 20
122.201983529106
 30
0.0
  0
LINE
  5
154
330
1F
100
AcDbEntity
  8
0
  6
HIDDEN
 62
     7
370
    18
100
AcDbLine
 10
96.2153489254
 20
122.2019843089
 30
0.0
 11
92.8153491132
 21
122.2019843089
 31
0.0
  0
LINE
  5
155
330
1F
100
AcDbEntity
  8
0
  6
HIDDEN
 62
     7
370
    18
100
AcDbLine
 10
92.7463809512
 20
90.5990018772
 30
0.0
 11
100.2153495811
 21
90.5990018772
 31
0.0
  0
SPLINE
  5
156
330
1F
100
AcDbEntity
  8
0
  6
HIDDEN
 62
     7
370
    18
100
AcDbSpline
210
0.0
220
0.0
230
1.0
 70
     8
 71
     3
 72
    22
 73
    18
 74
     0
 42
0.000000001
 43
0.00000001
 40
0.0
 40
0.0
 40
0.0
 40
0.0
 40
0.1249999999999998
 40
0.1249999999999998
 40
0.2499999999999995
 40
0.2499999999999995
 40
0.4999999999999992
 40
0.4999999999999992
 40
0.5624999999999993
 40
0.5624999999999993
 40
0.6249999999999994
 40
0.6249999999999994
 40
0.7499999999999996
 40
0.7499999999999996
 40
0.8749999999999998
 40
0.8749999999999998
 40
1.0
 40
1.0
 40
1.0
 40
1.0
 10
92.74638029937493
 20
90.59900265704269
 30
0.0
 10
92.73329790664656
 20
90.85410836719035
 30
0.0
 10
92.72007834320672
 20
91.14726662629425
 30
0.0
 10
92.6976311654126
 20
91.80956709191906
 30
0.0
 10
92.68815269838814
 20
92.17984101253045
 30
0.0
 10
92.66895473745159
 20
93.40239781564425
 30
0.0
 10
92.67006851044847
 20
94.3395367417761
 30
0.0
 10
92.68897930340155
 20
95.65940797129109
 30
0.0
 10
92.69360883126056
 20
95.93090988026741
 30
0.0
 10
92.7040900510065
 20
96.48929471506972
 30
0.0
 10
92.70988531229094
 20
96.77641757100932
 30
0.0
 10
92.72819453319586
 20
97.649006825381
 30
0.0
 10
92.74222946747624
 20
98.24946250173686
 30
0.0
 10
92.77168663961305
 20
99.48693699423293
 30
0.0
 10
92.78724233059462
 20
100.1239531508764
 30
0.0
 10
92.81103688059152
 20
101.4354417485609
 30
0.0
 10
92.81905593273687
 20
102.1115643602215
 30
0.0
 10
92.81534928601701
 20
102.7958594715062
 30
0.0
  0
LINE
  5
157
330
1F
100
AcDbEntity
  8
0
  6
HIDDEN
 62
     7
370
    18
100
AcDbLine
 10
92.8153491132
 20
110.0051268267
 30
0.0
 11
92.8153491132
 21
122.2019843089
 31
0.0
  0
SPLINE
  5
158
330
1F
100
AcDbEntity
  8
0
  6
HIDDEN
 62
     7
370
    18
100
AcDbSpline
210
0.0
220
0.0
230
1.0
 70
     8
 71
     3
 72
    10
 73
     6
 74
     0
 42
0.000000001
 43
0.00000001
 40
0.0
 40
0.0
 40
0.0
 40
0.0
 40
0.5
 40
0.5
 40
1.0
 40
1.0
 40
1.0
 40
1.0
 10
92.81534928601701
 20
102.7958594714912
 30
0.0
 10
92.81534928601683
 20
103.0697746195655
 30
0.0
 10
92.78959005614911
 20
103.3407161982956
 30
0.0
 10
92.68638412341598
 20
103.8764072798985
 30
0.0
 10
92.60904595954075
 20
104.1421540834205
 30
0.0
 10
92.515349286017
 20
104.403792790858
 30
0.0
  0
SPLINE
  5
159
330
1F
100
AcDbEntity
  8
0
  6
HIDDEN
 62
     7
370
    18
100
AcDbSpline
210
0.0
220
0.0
230
1.0
 70
     8
 71
     3
 72
    10
 73
     6
 74
     0
 42
0.000000001
 43
0.00000001
 40
0.0
 40
0.0
 40
0.0
 40
0.0
 40
0.5
 40
0.5
 40
1.0
 40
1.0
 40
1.0
 40
1.0
 10
92.515349286017
 20
108.3876213864389
 30
0.0
 10
92.60857986740801
 20
108.651515194509
 30
0.0
 10
92.68360947964477
 20
108.9176955051472
 30
0.0
 10
92.78867657882286
 20
109.4560180801054
 30
0.0
 10
92.8153492894091
 20
109.728766196351
 30
0.0
 10
92.81534928941028
 20
110.0051267146414
 30
0.0
  0
LINE
  5
15A
330
1F
100
AcDbEntity
  8
0
  6
HIDDEN
 62
     7
370
    18
100
AcDbLine
 10
92.5153496228
 20
104.4037929068
 30
0.0
 11
92.5153496228
 21
108.3876213788
 31
0.0
  0
LWPOLYLINE
  5
15B
330
1F
100
AcDbEntity
  8
0
  6
HIDDEN
 62
     7
370
    18
100
AcDbPolyline
 90
       26
 70
   128
 43
0.0
 10
160.3653489165
 20
109.5824735502
 10
160.9870737902
 20
109.6380113422
 10
161.56973527
 20
109.8011345866
 10
162.0767174773
 20
110.0615938457
 10
162.4761691801
 20
110.4030236865
 10
162.7429893724
 20
110.8039706277
 10
162.8604142479
 20
111.2392414624
 10
162.8210677318
 20
111.6814869719
 10
162.6274159662
 20
112.1029192845
 10
162.2916331999
 20
112.4770576397
 10
161.8348120264
 20
112.7803940589
 10
161.285659533
 20
112.9938685598
 10
160.6786830835
 20
113.1040682348
 10
160.0520147495
 20
113.1040682348
 10
159.4450383
 20
112.9938685598
 10
158.8958858065
 20
112.7803940589
 10
158.4390646331
 20
112.4770576397
 10
158.1032818667
 20
112.1029192845
 10
157.9096301011
 20
111.6814869719
 10
157.870283585
 20
111.2392414624
 10
157.9877084605
 20
110.8039706277
 10
158.2545286528
 20
110.4030236865
 10
158.6539803557
 20
110.0615938457
 10
159.1609662883
 20
109.8011345866
 10
159.7436240427
 20
109.6380113422
 10
160.3653489165
 20
109.5824735502
  0
LWPOLYLINE
  5
15C
330
1F
100
AcDbEntity
  8
0
  6
HIDDEN
 62
     7
370
    18
100
AcDbPolyline
 90
       26
 70
   128
 43
0.0
 10
160.3653489165
 20
99.6829788464
 10
160.9870737902
 20
99.7385164055
 10
161.56973527
 20
99.9016394171
 10
162.0767174773
 20
100.1620991419
 10
162.4761691801
 20
100.503528517
 10
162.7429893724
 20
100.9044754582
 10
162.8604142479
 20
101.3397467586
 10
162.8210677318
 20
101.7819922681
 10
162.6274159662
 20
102.203424115
 10
162.2916331999
 20
102.5775627031
 10
161.8348120264
 20
102.8808991222
 10
161.285659533
 20
103.094373856
 10
160.6786830835
 20
103.2045732981
 10
160.0520147495
 20
103.2045732981
 10
159.4450383
 20
103.094373856
 10
158.8958858065
 20
102.8808991222
 10
158.4390646331
 20
102.5775627031
 10
158.1032818667
 20
102.203424115
 10
157.9096301011
 20
101.7819922681
 10
157.870283585
 20
101.3397467586
 10
157.9877084605
 20
100.9044754582
 10
158.2545286528
 20
100.503528517
 10
158.6539803557
 20
100.1620991419
 10
159.1609662883
 20
99.9016394171
 10
159.7436240427
 20
99.7385164055
 10
160.3653489165
 20
99.6829788464
  0
LINE
  5
15D
330
1F
100
AcDbEntity
  8
0
  6
HIDDEN
 62
     7
370
    18
100
AcDbLine
 10
92.6653484367
 20
88.4104925471
 30
0.0
 11
92.6653484367
 21
85.5305544364
 31
0.0
  0
LINE
  5
15E
330
1F
100
AcDbEntity
  8
0
  6
HIDDEN
 62
     7
370
    18
100
AcDbLine
 10
101.6153490655
 20
88.4104925471
 30
0.0
 11
101.6153490655
 21
84.436755188
 31
0.0
  0
LINE
  5
15F
330
1F
100
AcDbEntity
  8
0
  6
HIDDEN
 62
     7
370
    18
100
AcDbLine
 10
92.6653484367
 20
124.3904936391
 30
0.0
 11
92.6653484367
 21
127.2704317498
 31
0.0
  0
LINE
  5
160
330
1F
100
AcDbEntity
  8
0
  6
HIDDEN
 62
     7
370
    18
100
AcDbLine
 10
97.6153484098
 20
124.3904936391
 30
0.0
 11
97.6153484098
 21
128.2446007507
 31
0.0
  0
LINE
  5
161
330
1F
100
AcDbEntity
  8
0
  6
HIDDEN
 62
     7
370
    18
100
AcDbLine
 10
142.2153490148
 20
96.9004933985
 30
0.0
 11
142.2153490148
 21
115.9004927876
 31
0.0
  0
LINE
  5
162
330
1F
100
AcDbEntity
  8
0
  6
HIDDEN
 62
     7
370
    18
100
AcDbLine
 10
145.2153495066
 20
96.9004933985
 30
0.0
 11
145.2153495066
 21
115.9004927876
 31
0.0
  0
LINE
  5
163
330
1F
100
AcDbEntity
  8
0
  6
HIDDEN
 62
     7
370
    18
100
AcDbLine
 10
133.8653492294
 20
97.9004926311
 30
0.0
 11
133.8653492294
 21
114.900493555
 31
0.0
  0
LINE
  5
164
330
1F
100
AcDbEntity
  8
0
  6
HIDDEN
 62
     7
370
    18
100
AcDbLine
 10
149.3653489761
 20
80.0004932361
 30
0.0
 11
143.2276743017
 21
80.0004932361
 31
0.0
  0
LINE
  5
165
330
1F
100
AcDbEntity
  8
0
  6
HIDDEN
 62
     7
370
    18
100
AcDbLine
 10
128.3653492592
 20
74.9163697737
 30
0.0
 11
128.3653492592
 21
80.0004932361
 31
0.0
  0
LINE
  5
166
330
1F
100
AcDbEntity
  8
0
  6
HIDDEN
 62
     7
370
    18
100
AcDbLine
 10
136.3653496392
 20
80.0004932361
 30
0.0
 11
128.3653492592
 21
80.0004932361
 31
0.0
  0
LINE
  5
167
330
1F
100
AcDbEntity
  8
0
  6
HIDDEN
 62
     7
370
    18
100
AcDbLine
 10
139.6030245833
 20
80.0004932361
 30
0.0
 11
136.3653496392
 21
80.0004932361
 31
0.0
  0
LINE
  5
168
330
1F
100
AcDbEntity
  8
0
  6
HIDDEN
 62
     7
370
    18
100
AcDbLine
 10
149.3653489761
 20
132.80049295
 30
0.0
 11
142.931051787
 21
132.80049295
 31
0.0
  0
LINE
  5
169
330
1F
100
AcDbEntity
  8
0
  6
HIDDEN
 62
     7
370
    18
100
AcDbLine
 10
136.3653496392
 20
132.80049295
 30
0.0
 11
128.3653492592
 21
132.80049295
 31
0.0
  0
LINE
  5
16A
330
1F
100
AcDbEntity
  8
0
  6
HIDDEN
 62
     7
370
    18
100
AcDbLine
 10
139.899647098
 20
132.80049295
 30
0.0
 11
136.3653496392
 21
132.80049295
 31
0.0
  0
SPLINE
  5
16B
330
1F
100
AcDbEntity
  8
0
  6
HIDDEN
 62
     7
370
    18
100
AcDbSpline
210
0.0
220
0.0
230
1.0
 70
     8
 71
     3
 72
    11
 73
     7
 74
     0
 42
0.000000001
 43
0.00000001
 40
0.0
 40
0.0
 40
0.0
 40
0.0
 40
0.0008203708524183
 40
0.0008203708524183
 40
0.0008203708524183
 40
0.0016409967870154
 40
0.0016409967870154
 40
0.0016409967870154
 40
0.0016409967870154
 10
92.66534928601699
 20
90.54846034243161
 30
0.0
 10
92.47419098571835
 20
90.50728131381247
 30
0.0
 10
92.28276391564616
 20
90.46852734158247
 30
0.0
 10
92.09111829212554
 20
90.43215958230392
 30
0.0
 10
91.89941288704509
 20
90.3957804785379
 30
0.0
 10
91.70747393498613
 20
90.36178622777034
 30
0.0
 10
91.51534928791531
 20
90.33013810237914
 30
0.0
  0
ELLIPSE
  5
16C
330
1F
100
AcDbEntity
  8
0
  6
HIDDEN
 62
     7
370
    18
100
AcDbEllipse
 10
87.2729174174
 20
106.4004930931
 30
0.0
 11
20.19992453366626
 21
-1.421085471520200E-14
 31
0.0
210
0.0
220
0.0
230
1.0
 40
0.8164965809
 41
1.300566354718002
 42
1.359198697209606
  0
ELLIPSE
  5
16D
330
1F
100
AcDbEntity
  8
0
  6
HIDDEN
 62
     7
370
    18
100
AcDbEllipse
 10
177.415349286
 20
102.0694640583
 30
0.0
 11
1.15484941563912
 21
-1.15484941563912
 31
0.0
210
0.0
220
0.0
230
1.0
 40
0.4142135624
 41
5.105088062083423
 42
8.246680715673206
  0
ELLIPSE
  5
16E
330
1F
100
AcDbEntity
  8
0
  6
HIDDEN
 62
     7
370
    18
100
AcDbEllipse
 10
177.415349286
 20
102.0694640583
 30
0.0
 11
1.15484941563912
 21
1.15484941563912
 31
0.0
210
0.0
220
0.0
230
1.0
 40
0.4142135624
 41
1.178097245096173
 42
4.319689898685976
  0
LWPOLYLINE
  5
16F
330
1F
100
AcDbEntity
  8
0
  6
HIDDEN
 62
     7
370
    18
100
AcDbPolyline
 90
       18
 70
   128
 43
0.0
 10
177.4153506867
 20
99.8597555126
 10
177.8669005744
 20
99.9194421137
 10
178.2574674599
 20
100.0904408547
 10
178.5343049578
 20
100.3496581952
 10
178.6600186042
 20
100.6620843227
 10
178.6176322512
 20
100.9855252022
 10
178.4128716699
 20
101.2762976142
 10
178.0733896903
 20
101.4951318766
 10
177.6450371854
 20
101.6124724674
 10
177.1856641881
 20
101.6124724674
 10
176.7573079578
 20
101.4951318766
 10
176.4178259782
 20
101.2762976142
 10
176.213065397
 20
100.9855252022
 10
176.1706827692
 20
100.6620843227
 10
176.2963964156
 20
100.3496581952
 10
176.5732301883
 20
100.0904408547
 10
176.9637970738
 20
99.9194421137
 10
177.4153506867
 20
99.8597555126
  0
LINE
  5
170
330
1F
100
AcDbEntity
  8
0
  6
HIDDEN
 62
     7
370
    18
100
AcDbLine
 10
92.6653484367
 20
88.4104925471
 30
0.0
 11
92.6653484367
 21
90.5484608638
 31
0.0
  0
LINE
  5
171
330
1F
100
AcDbEntity
  8
0
  6
HIDDEN
 62
     7
370
    18
100
AcDbLine
 10
92.7463809512
 20
90.5990018772
 30
0.0
 11
92.6653484367
 21
90.5484608638
 31
0.0
  0
LINE
  5
172
330
1F
100
AcDbEntity
  8
0
  6
HIDDEN
 62
     7
370
    18
100
AcDbLine
 10
101.6153490655
 20
88.4104925471
 30
0.0
 11
101.6153490655
 21
90.1129800158
 31
0.0
  0
LINE
  5
173
330
1F
100
AcDbEntity
  8
0
  6
HIDDEN
 62
     7
370
    18
100
AcDbLine
 10
97.6153484098
 20
124.3904936391
 30
0.0
 11
97.6153484098
 21
122.6880061703
 31
0.0
  0
LINE
  5
174
330
1F
100
AcDbEntity
  8
0
  6
HIDDEN
 62
     7
370
    18
100
AcDbLine
 10
92.6653484367
 20
124.3904936391
 30
0.0
 11
92.6653484367
 21
122.295118429
 31
0.0
  0
SPLINE
  5
175
330
1F
100
AcDbEntity
  8
0
  6
HIDDEN
 62
     7
370
    18
100
AcDbSpline
210
0.0
220
0.0
230
1.0
 70
     8
 71
     3
 72
     8
 73
     4
 74
     0
 42
0.000000001
 43
0.00000001
 40
0.0
 40
0.0
 40
0.0
 40
0.0
 40
1.0
 40
1.0
 40
1.0
 40
1.0
 10
92.66534928601699
 20
122.295117544133
 30
0.0
 10
92.71535478496074
 20
122.2640817699139
 30
0.0
 10
92.76535485562515
 20
122.2330371248863
 30
0.0
 10
92.81534928941026
 20
122.201983529106
 30
0.0
  0
ELLIPSE
  5
176
330
1F
100
AcDbEntity
  8
0
  6
HIDDEN
 62
     7
370
    18
100
AcDbEllipse
 10
177.415349286
 20
102.0694640583
 30
0.0
 11
1.15484941563912
 21
1.15484941563912
 31
0.0
210
0.0
220
0.0
230
1.0
 40
0.4142135624
 41
4.319689898685976
 42
7.461282552275759
  0
ELLIPSE
  5
177
330
1F
100
AcDbEntity
  8
0
  6
HIDDEN
 62
     7
370
    18
100
AcDbEllipse
 10
177.415349286
 20
102.0694640583
 30
0.0
 11
1.15484941563912
 21
-1.15484941563912
 31
0.0
210
0.0
220
0.0
230
1.0
 40
0.4142135624
 41
1.96349540849362
 42
5.105088062083423
  0
LINE
  5
178
330
1F
100
AcDbEntity
  8
0
  6
HIDDEN
 62
     7
370
    18
100
AcDbLine
 10
175.4153503589
 20
100.8194638679
 30
0.0
 11
175.4153503589
 21
103.3194640449
 31
0.0
  0
SPLINE
  5
179
330
1F
100
AcDbEntity
  8
0
  6
HIDDEN
 62
     7
370
    18
100
AcDbSpline
210
0.0
220
0.0
230
1.0
 70
    11
 71
     3
 72
    42
 73
    38
 74
     0
 42
0.000000001
 43
0.00000001
 40
0.0
 40
0.0
 40
0.0
 40
0.0
 40
0.0624999999999997
 40
0.0624999999999997
 40
0.1249999999999994
 40
0.1249999999999994
 40
0.1874999999999991
 40
0.1874999999999991
 40
0.2499999999999987
 40
0.2499999999999987
 40
0.2812499999999984
 40
0.2812499999999984
 40
0.3124999999999981
 40
0.3124999999999981
 40
0.3749999999999987
 40
0.3749999999999987
 40
0.4374999999999994
 40
0.4374999999999994
 40
0.5
 40
0.5
 40
0.5625000000000007
 40
0.5625000000000007
 40
0.6250000000000013
 40
0.6250000000000013
 40
0.687500000000002
 40
0.687500000000002
 40
0.7187500000000018
 40
0.7187500000000018
 40
0.7500000000000014
 40
0.7500000000000014
 40
0.8125000000000011
 40
0.8125000000000011
 40
0.8750000000000008
 40
0.8750000000000008
 40
0.9375000000000004
 40
0.9375000000000004
 40
1.0
 40
1.0
 40
1.0
 40
1.0
 10
177.415349286017
 20
103.28082116506
 30
0.0
 10
177.5821075935033
 20
103.28082116506
 30
0.0
 10
177.7455365142731
 20
103.2947260455504
 30
0.0
 10
178.0474632427195
 20
103.3516467153804
 30
0.0
 10
178.1850574391745
 20
103.394985933217
 30
0.0
 10
178.4134792515642
 20
103.5130315366077
 30
0.0
 10
178.5063594726956
 20
103.5892422138776
 30
0.0
 10
178.631654542071
 20
103.7712729404656
 30
0.0
 10
178.6652392072502
 20
103.8792693757753
 30
0.0
 10
178.6654039090092
 20
104.0539768846352
 30
0.0
 10
178.6571063830768
 20
104.1152801490095
 30
0.0
 10
178.6248359113489
 20
104.2373698013334
 30
0.0
 10
178.6009658946596
 20
104.2988143132739
 30
0.0
 10
178.5057480325963
 20
104.4835156377755
 30
0.0
 10
178.4135472147098
 20
104.6014964096788
 30
0.0
 10
178.1839427693696
 20
104.8073593805164
 30
0.0
 10
178.046210483297
 20
104.8947439991377
 30
0.0
 10
177.7457432967241
 20
105.0151683461012
 30
0.0
 10
177.5799947254386
 20
105.0485294790456
 30
0.0
 10
177.2516075164674
 20
105.0486465958637
 30
0.0
 10
177.0859368075285
 20
105.015526678412
 30
0.0
 10
176.7840027958771
 20
104.894584497199
 30
0.0
 10
176.6471213973746
 20
104.8077801598831
 30
0.0
 10
176.4158895599199
 20
104.6002717354209
 30
0.0
 10
176.3245051885913
 20
104.4827007662986
 30
0.0
 10
176.2298403853568
 20
104.2989986932698
 30
0.0
 10
176.2059959069383
 20
104.2377418229004
 30
0.0
 10
176.1736777841664
 20
104.1157351831895
 30
0.0
 10
176.1653305891798
 20
104.0543769519293
 30
0.0
 10
176.1653867766027
 20
103.8796333913022
 30
0.0
 10
176.1988757282412
 20
103.7715216311131
 30
0.0
 10
176.3244937244717
 20
103.5890133932564
 30
0.0
 10
176.4172491607135
 20
103.5129364730475
 30
0.0
 10
176.6466062345008
 20
103.3945671693097
 30
0.0
 10
176.7833155737615
 20
103.3515802642375
 30
0.0
 10
177.0864308647278
 20
103.294538396044
 30
0.0
 10
177.2485909785308
 20
103.28082116506
 30
0.0
 10
177.415349286017
 20
103.28082116506
 30
0.0
  0
SPLINE
  5
17A
330
1F
100
AcDbEntity
  8
0
  6
HIDDEN
 62
     7
370
    18
100
AcDbSpline
210
0.0
220
0.0
230
1.0
 70
     8
 71
     3
 72
    20
 73
    16
 74
     0
 42
0.000000001
 43
0.00000001
 40
0.0
 40
0.0
 40
0.0
 40
0.0
 40
0.1118786221933336
 40
0.1773979194694345
 40
0.249019581888319
 40
0.329768161854772
 40
0.3985406508171214
 40
0.499820546282926
 40
0.6137858591081602
 40
0.6789518642153317
 40
0.7494784786989604
 40
0.8296245731735853
 40
0.8980683532551997
 40
0.9994789075407152
 40
0.9999999999999999
 40
0.9999999999999999
 40
0.9999999999999999
 40
0.9999999999999999
 10
118.1640170998545
 20
82.80054622167447
 30
0.0
 10
118.1207175500428
 20
82.81396601259932
 30
0.0
 10
118.0520605546313
 20
82.83524481406394
 30
0.0
 10
117.60700593496
 20
82.9385304776563
 30
0.0
 10
117.0804538137353
 20
83.05182931360756
 30
0.0
 10
116.395026858653
 20
83.17476438613001
 30
0.0
 10
115.5017101798341
 20
83.29679896309014
 30
0.0
 10
114.3883504058839
 20
83.41453464683624
 30
0.0
 10
113.2775760715968
 20
83.42650848606947
 30
0.0
 10
112.39282841243
 20
83.39945299814735
 30
0.0
 10
111.7256298633483
 20
83.35151975452729
 30
0.0
 10
111.1843647167899
 20
83.29522337001254
 30
0.0
 10
110.796756783561
 20
83.2501489209301
 30
0.0
 10
110.6028536417174
 20
83.21124168076416
 30
0.0
 10
110.6660101340067
 20
83.22198739586813
 30
0.0
 10
110.6663330010744
 20
83.22204232984879
 30
0.0
  0
LINE
  5
17B
330
1F
100
AcDbEntity
  8
0
  6
HIDDEN
 62
     7
370
    18
100
AcDbLine
 10
111.5753615759
 20
83.3328306007
 30
0.0
 11
111.7592065148
 21
83.3510211932
 31
0.0
  0
SPLINE
  5
17C
330
1F
100
AcDbEntity
  8
0
  6
HIDDEN
 62
     7
370
    18
100
AcDbSpline
210
0.0
220
0.0
230
1.0
 70
     8
 71
     3
 72
    27
 73
    23
 74
     0
 42
0.000000001
 43
0.00000001
 40
0.0
 40
0.0
 40
0.0
 40
0.0
 40
0.000798700036687
 40
0.0456811097914999
 40
0.1022626464447534
 40
0.1705405804729787
 40
0.2091321500600397
 40
0.2506592949887199
 40
0.321104893634164
 40
0.3861984975311248
 40
0.4266775773956154
 40
0.4648087526716622
 40
0.5006129351694828
 40
0.5452046638165685
 40
0.6016987870229145
 40
0.6701045663905604
 40
0.7088418462060989
 40
0.7505704870347152
 40
0.8222349177148808
 40
0.8877741795395272
 40
0.9472478040025795
 40
1.0
 40
1.0
 40
1.0
 40
1.0
 10
110.666009832141
 20
129.5789084660421
 30
0.0
 10
110.6657902515311
 20
129.578955847176
 30
0.0
 10
110.6532314866803
 20
129.5816657791684
 30
0.0
 10
110.7023107613114
 20
129.5698275517697
 30
0.0
 10
110.847411940292
 20
129.5463904631404
 30
0.0
 10
111.1204649828582
 20
129.5124817262916
 30
0.0
 10
111.4489907018839
 20
129.4789140686902
 30
0.0
 10
111.84171869409
 20
129.4407310518143
 30
0.0
 10
112.3914464980956
 20
129.4017629603533
 30
0.0
 10
113.0174691279219
 20
129.3823013334563
 30
0.0
 10
113.5606609686697
 20
129.3801161770751
 30
0.0
 10
114.0057297179092
 20
129.3886308984015
 30
0.0
 10
114.4721775724561
 20
129.4084144485629
 30
0.0
 10
115.0094184979068
 20
129.4525743303108
 30
0.0
 10
115.6576314682267
 20
129.5249941654424
 30
0.0
 10
116.2431706102787
 20
129.6058918250098
 30
0.0
 10
116.7241397611922
 20
129.6840611830799
 30
0.0
 10
117.169554814684
 20
129.7688317553033
 30
0.0
 10
117.6080545434904
 20
129.8626164318231
 30
0.0
 10
117.9470806221749
 20
129.9405190132107
 30
0.0
 10
118.1344304853639
 20
129.9907123261679
 30
0.0
 10
118.154920657341
 20
129.9973802064643
 30
0.0
 10
118.1645521446736
 20
130.0005144702802
 30
0.0
  0
LINE
  5
17D
330
1F
100
AcDbEntity
  8
0
  6
HIDDEN
 62
     7
370
    18
100
AcDbLine
 10
195.9046183638
 20
103.000493048
 30
0.0
 11
195.9046183638
 21
109.8004931382
 31
0.0
  0
LINE
  5
17E
330
1F
100
AcDbEntity
  8
0
  6
HIDDEN
 62
     7
370
    18
100
AcDbLine
 10
196.4153482131
 20
102.1504928621
 30
0.0
 11
196.4153482131
 21
110.650493324
 31
0.0
  0
LINE
  5
17F
330
1F
100
AcDbEntity
  8
0
  6
HIDDEN
 62
     7
370
    18
100
AcDbLine
 10
174.5139306895
 20
102.2004932428
 30
0.0
 11
174.5139306895
 21
110.6004929433
 31
0.0
  0
LINE
  5
180
330
1F
100
AcDbEntity
  8
0
  6
HIDDEN
 62
     7
370
    18
100
AcDbLine
 10
174.9946160726
 20
103.000493048
 30
0.0
 11
174.9946160726
 21
109.8004931382
 31
0.0
  0
SPLINE
  5
181
330
1F
100
AcDbEntity
  8
0
  6
HIDDEN
 62
     7
370
    18
100
AcDbSpline
210
0.0
220
0.0
230
1.0
 70
    11
 71
     3
 72
    42
 73
    38
 74
     0
 42
0.000000001
 43
0.00000001
 40
0.0
 40
0.0
 40
0.0
 40
0.0
 40
0.0624999999999998
 40
0.0624999999999998
 40
0.1249999999999995
 40
0.1249999999999995
 40
0.1874999999999993
 40
0.1874999999999993
 40
0.249999999999999
 40
0.249999999999999
 40
0.2812499999999989
 40
0.2812499999999989
 40
0.3124999999999988
 40
0.3124999999999988
 40
0.3749999999999994
 40
0.3749999999999994
 40
0.4375
 40
0.4375
 40
0.5000000000000007
 40
0.5000000000000007
 40
0.5625000000000013
 40
0.5625000000000013
 40
0.6250000000000019
 40
0.6250000000000019
 40
0.6875000000000026
 40
0.6875000000000026
 40
0.7187500000000024
 40
0.7187500000000024
 40
0.7500000000000023
 40
0.7500000000000023
 40
0.8125000000000018
 40
0.8125000000000018
 40
0.8750000000000011
 40
0.8750000000000011
 40
0.9375000000000006
 40
0.9375000000000006
 40
1.0
 40
1.0
 40
1.0
 40
1.0
 10
177.415349286017
 20
107.7523980681223
 30
0.0
 10
177.2485909785308
 20
107.7523980681223
 30
0.0
 10
177.0851620577609
 20
107.7856612392448
 30
0.0
 10
176.7832353293145
 20
107.9068182611152
 30
0.0
 10
176.6456411328595
 20
107.9945189587912
 30
0.0
 10
176.4172193204698
 20
108.1995365912855
 30
0.0
 10
176.3243390993385
 20
108.3187960217727
 30
0.0
 10
176.1990440299631
 20
108.561562046429
 30
0.0
 10
176.1654593647839
 20
108.6875382544413
 30
0.0
 10
176.1652946630249
 20
108.8623313969101
 30
0.0
 10
176.1735921889573
 20
108.9192856340401
 30
0.0
 10
176.2058626606851
 20
109.02488096244
 30
0.0
 10
176.2297326773744
 20
109.0742300549539
 30
0.0
 10
176.3249505394378
 20
109.2127678973945
 30
0.0
 10
176.4171513573243
 20
109.2880033899775
 30
0.0
 10
176.6467558026645
 20
109.4064920544017
 30
0.0
 10
176.784488088737
 20
109.4496151162642
 30
0.0
 10
177.0849552753099
 20
109.5061815500218
 30
0.0
 10
177.2507038465954
 20
109.5201396099758
 30
0.0
 10
177.5790910555666
 20
109.5201903623703
 30
0.0
 10
177.7447617645056
 20
109.5063474815419
 30
0.0
 10
178.046695776157
 20
109.4495425765978
 30
0.0
 10
178.1835771746595
 20
109.4067530492053
 30
0.0
 10
178.4148090121141
 20
109.2872796239491
 30
0.0
 10
178.5061933834427
 20
109.2121671483195
 30
0.0
 10
178.6008581866772
 20
109.0743631138466
 30
0.0
 10
178.6247026650958
 20
109.0251855214262
 30
0.0
 10
178.6570207878677
 20
108.9196962792635
 30
0.0
 10
178.6653679828542
 20
108.8627127850714
 30
0.0
 10
178.6653117954314
 20
108.6879400108364
 30
0.0
 10
178.6318228437929
 20
108.561892478613
 30
0.0
 10
178.5062048475623
 20
108.3184920891963
 30
0.0
 10
178.4134494113205
 20
108.1994074211269
 30
0.0
 10
178.1840923375333
 20
107.9937555743915
 30
0.0
 10
178.0473829982726
 20
107.9066906530973
 30
0.0
 10
177.7442677073063
 20
107.7852479261262
 30
0.0
 10
177.5821075935032
 20
107.7523980681223
 30
0.0
 10
177.415349286017
 20
107.7523980681223
 30
0.0
  0
LINE
  5
182
330
1F
100
AcDbEntity
  8
0
  6
HIDDEN
 62
     7
370
    18
100
AcDbLine
 10
179.4153510146
 20
117.4004930335
 30
0.0
 11
179.4153510146
 21
123.4004940169
 31
0.0
  0
LINE
  5
183
330
1F
100
AcDbEntity
  8
0
  6
HIDDEN
 62
     7
370
    18
100
AcDbLine
 10
179.4153510146
 20
95.4004931527
 30
0.0
 11
179.4153510146
 21
89.4004921692
 31
0.0
  0
LINE
  5
184
330
1F
100
AcDbEntity
  8
0
  6
HIDDEN
 62
     7
370
    18
100
AcDbLine
 10
178.9153500013
 20
118.7504935341
 30
0.0
 11
178.9153500013
 21
122.0504935163
 31
0.0
  0
LINE
  5
185
330
1F
100
AcDbEntity
  8
0
  6
HIDDEN
 62
     7
370
    18
100
AcDbLine
 10
178.9153500013
 20
94.050492652
 30
0.0
 11
178.9153500013
 21
90.7504926699
 31
0.0
  0
LINE
  5
186
330
1F
100
AcDbEntity
  8
0
  6
HIDDEN
 62
     7
370
    18
100
AcDbLine
 10
168.4153510742
 20
118.7504935341
 30
0.0
 11
168.4153510742
 21
122.0504935163
 31
0.0
  0
LINE
  5
187
330
1F
100
AcDbEntity
  8
0
  6
HIDDEN
 62
     7
370
    18
100
AcDbLine
 10
168.4153510742
 20
94.050492652
 30
0.0
 11
168.4153510742
 21
90.7504926699
 31
0.0
  0
ELLIPSE
  5
188
330
1F
100
AcDbEntity
  8
0
  6
HIDDEN
 62
     7
370
    18
100
AcDbEllipse
 10
177.415349286
 20
110.7315221278
 30
0.0
 11
-1.15484941563912
 21
1.15484941563912
 31
0.0
210
0.0
220
0.0
230
1.0
 40
0.4142135624
 41
1.96349540849362
 42
5.105088062083423
  0
ELLIPSE
  5
189
330
1F
100
AcDbEntity
  8
0
  6
HIDDEN
 62
     7
370
    18
100
AcDbEllipse
 10
177.415349286
 20
110.7315221278
 30
0.0
 11
1.15484941563912
 21
1.15484941563912
 31
0.0
210
0.0
220
0.0
230
1.0
 40
0.4142135624
 41
1.178097245096173
 42
4.319689898685976
  0
ELLIPSE
  5
18A
330
1F
100
AcDbEntity
  8
0
  6
HIDDEN
 62
     7
370
    18
100
AcDbEllipse
 10
177.415349286
 20
110.7315221278
 30
0.0
 11
1.15484941563912
 21
1.15484941563912
 31
0.0
210
0.0
220
0.0
230
1.0
 40
0.4142135624
 41
4.319689898685976
 42
7.461282552275759
  0
ELLIPSE
  5
18B
330
1F
100
AcDbEntity
  8
0
  6
HIDDEN
 62
     7
370
    18
100
AcDbEllipse
 10
177.415349286
 20
110.7315221278
 30
0.0
 11
-1.15484941563912
 21
1.15484941563912
 31
0.0
210
0.0
220
0.0
230
1.0
 40
0.4142135624
 41
5.105088062083423
 42
8.246680715673206
  0
LINE
  5
18C
330
1F
100
AcDbEntity
  8
0
  6
HIDDEN
 62
     7
370
    18
100
AcDbLine
 10
175.4153503589
 20
111.9815223182
 30
0.0
 11
175.4153503589
 21
109.4815221413
 31
0.0
  0
LWPOLYLINE
  5
18D
330
1F
100
AcDbEntity
  8
0
  6
HIDDEN
 62
     7
370
    18
100
AcDbPolyline
 90
       18
 70
   128
 43
0.0
 10
177.4153506867
 20
116.5775037634
 10
177.8669005744
 20
116.6371903645
 10
178.2574674599
 20
116.8081895711
 10
178.5343049578
 20
117.067406446
 10
178.6600186042
 20
117.3798325735
 10
178.6176322512
 20
117.7032734531
 10
178.4128716699
 20
117.9940463307
 10
178.0733896903
 20
118.2128801274
 10
177.6450371854
 20
118.3302211838
 10
177.1856641881
 20
118.3302211838
 10
176.7573079578
 20
118.2128801274
 10
176.4178259782
 20
117.9940463307
 10
176.213065397
 20
117.7032734531
 10
176.1706827692
 20
117.3798325735
 10
176.2963964156
 20
117.067406446
 10
176.5732301883
 20
116.8081895711
 10
176.9637970738
 20
116.6371903645
 10
177.4153506867
 20
116.5775037634
  0
ARC
  5
18E
330
1F
100
AcDbEntity
  8
0
  6
HIDDEN
 62
     7
370
    18
100
AcDbCircle
 10
186.315349286
 20
106.4004930931
 30
0.0
 40
2.000000000000014
100
AcDbArc
 50
90.0
 51
270.0
  0
ARC
  5
18F
330
1F
100
AcDbEntity
  8
0
  6
HIDDEN
 62
     7
370
    18
100
AcDbCircle
 10
196.415349286
 20
106.4004930931
 30
0.0
 40
2.000000000000014
100
AcDbArc
 50
270.0
 51
90.0
  0
LINE
  5
190
330
1F
100
AcDbEntity
  8
0
  6
HIDDEN
 62
     7
370
    18
100
AcDbLine
 10
196.4153482131
 20
104.4004929981
 30
0.0
 11
186.3153486065
 21
104.4004929981
 31
0.0
  0
LINE
  5
191
330
1F
100
AcDbEntity
  8
0
  6
HIDDEN
 62
     7
370
    18
100
AcDbLine
 10
186.3153486065
 20
108.4004931881
 30
0.0
 11
196.4153482131
 21
108.4004931881
 31
0.0
  0
SPLINE
  5
192
330
1F
100
AcDbEntity
  8
0
  6
HIDDEN
 62
     7
370
    18
100
AcDbSpline
210
0.0
220
0.0
230
1.0
 70
     8
 71
     3
 72
     8
 73
     4
 74
     0
 42
0.000000001
 43
0.00000001
 40
0.0
 40
0.0
 40
0.0
 40
0.0
 40
0.000159097695343
 40
0.000159097695343
 40
0.000159097695343
 40
0.000159097695343
 10
92.80051729523501
 20
90.59900265704269
 30
0.0
 10
92.75546582473068
 20
90.5710237727189
 30
0.0
 10
92.71040978631586
 20
90.54305224234382
 30
0.0
 10
92.665349286017
 20
90.51508790299131
 30
0.0
  0
SPLINE
  5
193
330
1F
100
AcDbEntity
  8
0
  6
HIDDEN
 62
     7
370
    18
100
AcDbSpline
210
0.0
220
0.0
230
1.0
 70
     8
 71
     3
 72
    11
 73
     7
 74
     0
 42
0.000000001
 43
0.00000001
 40
0.0
 40
0.0
 40
0.0
 40
0.0
 40
0.0008212909311456
 40
0.0008212909311456
 40
0.0008212909311456
 40
0.001642825724306
 40
0.001642825724306
 40
0.001642825724306
 40
0.001642825724306
 10
92.665349286017
 20
90.51508790299131
 30
0.0
 10
92.47420426453482
 20
90.47180171413876
 30
0.0
 10
92.28278592885836
 20
90.43086520450149
 30
0.0
 10
92.0911398541972
 20
90.3922634331149
 30
0.0
 10
91.8994367726556
 20
90.3536501792778
 30
0.0
 10
91.70749164937008
 20
90.3173699699918
 30
0.0
 10
91.51534928601693
 20
90.28340306364029
 30
0.0
  0
LINE
  5
194
330
1F
100
AcDbEntity
  8
0
  6
HIDDEN
 62
     7
370
    18
100
AcDbLine
 10
139.5053493343
 20
126.5363595712
 30
0.0
 11
139.5053493343
 21
126.2504938322
 31
0.0
  0
LINE
  5
195
330
1F
100
AcDbEntity
  8
0
  6
HIDDEN
 62
     7
370
    18
100
AcDbLine
 10
143.3253495507
 20
126.5363595712
 30
0.0
 11
143.3253495507
 21
126.2504938322
 31
0.0
  0
LINE
  5
196
330
1F
100
AcDbEntity
  8
0
  6
HIDDEN
 62
     7
370
    18
100
AcDbLine
 10
144.8072812073
 20
130.8591827082
 30
0.0
 11
144.8072812073
 21
126.2504938322
 31
0.0
  0
SPLINE
  5
197
330
1F
100
AcDbEntity
  8
0
  6
HIDDEN
 62
     7
370
    18
100
AcDbSpline
210
0.0
220
0.0
230
1.0
 70
     8
 71
     3
 72
    24
 73
    20
 74
     0
 42
0.000000001
 43
0.00000001
 40
0.0
 40
0.0
 40
0.0
 40
0.0
 40
0.25
 40
0.25
 40
0.374999999999999
 40
0.374999999999999
 40
0.4374999999999993
 40
0.4374999999999993
 40
0.4687499999999994
 40
0.4687499999999994
 40
0.4999999999999995
 40
0.4999999999999995
 40
0.5624999999999971
 40
0.5624999999999971
 40
0.6249999999999947
 40
0.6249999999999947
 40
0.7499999999999947
 40
0.7499999999999947
 40
1.0
 40
1.0
 40
1.0
 40
1.0
 10
91.57801266074041
 20
86.72594054829361
 30
0.0
 10
91.59176577941064
 20
86.79659060628389
 30
0.0
 10
91.6095383468165
 20
86.86318871904881
 30
0.0
 10
91.66178943837185
 20
86.93728673928202
 30
0.0
 10
91.68282451395342
 20
86.95854454644358
 30
0.0
 10
91.73572492158186
 20
86.96669047258982
 30
0.0
 10
91.75683059445977
 20
86.96575066919404
 30
0.0
 10
91.80288276313773
 20
86.9447346776167
 30
0.0
 10
91.82125323512113
 20
86.93382587150909
 30
0.0
 10
91.86280487018684
 20
86.9011909605617
 30
0.0
 10
91.88537154294374
 20
86.87969898019035
 30
0.0
 10
91.94815255940375
 20
86.81123303660402
 30
0.0
 10
91.98128232037166
 20
86.76515857839894
 30
0.0
 10
92.03820000685667
 20
86.68015069006427
 30
0.0
 10
92.06238603236045
 20
86.63987038888288
 30
0.0
 10
92.12759398274021
 20
86.52493416241694
 30
0.0
 10
92.16231004293144
 20
86.45435117726993
 30
0.0
 10
92.25552531326232
 20
86.25014541819132
 30
0.0
 10
92.301197848623
 20
86.12724703586397
 30
0.0
 10
92.33950293212153
 20
86.0103737594764
 30
0.0
  0
SPLINE
  5
198
330
1F
100
AcDbEntity
  8
0
  6
HIDDEN
 62
     7
370
    18
100
AcDbSpline
210
0.0
220
0.0
230
1.0
 70
     8
 71
     3
 72
    11
 73
     7
 74
     0
 42
0.000000001
 43
0.00000001
 40
0.0
 40
0.0
 40
0.0
 40
0.0
 40
0.0005781862223978
 40
0.0005781862223978
 40
0.0005781862223978
 40
0.0011563724723928
 40
0.0011563724723928
 40
0.0011563724723928
 40
0.0011563724723928
 10
92.515349286017
 20
119.0406354001211
 30
0.0
 10
92.34868873174138
 20
119.1051649115347
 30
0.0
 10
92.1820254348349
 20
119.1696676153784
 30
0.0
 10
92.01535885100466
 20
119.2341540638121
 30
0.0
 10
91.84869225874557
 20
119.298640515507
 30
0.0
 10
91.68202239311971
 20
119.3631105242351
 30
0.0
 10
91.51534928601696
 20
119.4275662909677
 30
0.0
  0
SPLINE
  5
199
330
1F
100
AcDbEntity
  8
0
  6
HIDDEN
 62
     7
370
    18
100
AcDbSpline
210
0.0
220
0.0
230
1.0
 70
     8
 71
     3
 72
    11
 73
     7
 74
     0
 42
0.000000001
 43
0.00000001
 40
0.0
 40
0.0
 40
0.0
 40
0.0
 40
0.0005778746105108
 40
0.0005778746105108
 40
0.0005778746105108
 40
0.0011557494857226
 40
0.0011557494857226
 40
0.0011557494857226
 40
0.0011557494857226
 10
91.51534928601698
 20
93.37327123758445
 30
0.0
 10
91.68201616243032
 20
93.4390833642783
 30
0.0
 10
91.84868288199178
 20
93.50494184441591
 30
0.0
 10
92.01534953004042
 20
93.57084941734654
 30
0.0
 10
92.18201625455907
 20
93.63675702051691
 30
0.0
 10
92.34868294897966
 20
93.70271412890543
 30
0.0
 10
92.515349286017
 20
93.76871586882812
 30
0.0
  0
SPLINE
  5
19A
330
1F
100
AcDbEntity
  8
0
  6
HIDDEN
 62
     7
370
    18
100
AcDbSpline
210
0.0
220
0.0
230
1.0
 70
     8
 71
     3
 72
    11
 73
     7
 74
     0
 42
0.000000001
 43
0.00000001
 40
0.0000000000000006
 40
0.0000000000000006
 40
0.0000000000000006
 40
0.0000000000000006
 40
0.0005780486062768
 40
0.0005780486062768
 40
0.0005780486062768
 40
0.0011560973514127
 40
0.0011560973514127
 40
0.0011560973514127
 40
0.0011560973514127
 10
91.51534928601698
 20
116.3813075947661
 30
0.0
 10
91.68201914206189
 20
116.3189357332516
 30
0.0
 10
91.84868684614617
 20
116.2565818729539
 30
0.0
 10
92.01535315059981
 20
116.1942623127678
 30
0.0
 10
92.18201949129354
 20
116.1319427390309
 30
0.0
 10
92.34868444792232
 20
116.0696575347113
 30
0.0
 10
92.515349286017
 20
116.0074324141427
 30
0.0
  0
SPLINE
  5
19B
330
1F
100
AcDbEntity
  8
0
  6
HIDDEN
 62
     7
370
    18
100
AcDbSpline
210
0.0
220
0.0
230
1.0
 70
     8
 71
     3
 72
    11
 73
     7
 74
     0
 42
0.000000001
 43
0.00000001
 40
0.0
 40
0.0
 40
0.0
 40
0.0
 40
0.0005782401583533
 40
0.0005782401583533
 40
0.0005782401583533
 40
0.0011564805960993
 40
0.0011564805960993
 40
0.0011564805960993
 40
0.0011564805960993
 10
92.515349286017
 20
96.79966630067669
 30
0.0
 10
92.34869833566809
 20
96.7362408426159
 30
0.0
 10
92.18203874308541
 20
96.67288531896061
 30
0.0
 10
92.01537169065688
 20
96.60958773461063
 30
0.0
 10
91.84870455409305
 20
96.54629011830738
 30
0.0
 10
91.682029946647
 20
96.48305032336671
 30
0.0
 10
91.51534928601694
 20
96.41985031672787
 30
0.0
  0
CIRCLE
  5
19C
330
1F
100
AcDbEntity
  8
0
  6
HIDDEN
 62
     7
370
    18
100
AcDbCircle
 10
130.415349286
 20
106.4004930931
 30
0.0
 40
5.000000000000014
  0
ARC
  5
19D
330
1F
100
AcDbEntity
  8
0
  6
HIDDEN
 62
     7
370
    18
100
AcDbCircle
 10
183.015349286
 20
117.3004930931
 30
0.0
 40
0.4000000000000057
100
AcDbArc
 50
0.0
 51
130.0
  0
ARC
  5
19E
330
1F
100
AcDbEntity
  8
0
  6
HIDDEN
 62
     7
370
    18
100
AcDbCircle
 10
183.015349286
 20
123.5004930931
 30
0.0
 40
0.4000000000000057
100
AcDbArc
 50
230.0
 51
0.0
  0
ARC
  5
19F
330
1F
100
AcDbEntity
  8
0
  6
HIDDEN
 62
     7
370
    18
100
AcDbCircle
 10
180.915349286
 20
117.9004930931
 30
0.0
 40
0.5000000000000284
100
AcDbArc
 50
180.0
 51
270.0
  0
ARC
  5
1A0
330
1F
100
AcDbEntity
  8
0
  6
HIDDEN
 62
     7
370
    18
100
AcDbCircle
 10
180.915349286
 20
122.9004930931
 30
0.0
 40
0.5000000000000284
100
AcDbArc
 50
90.0
 51
180.0
  0
LINE
  5
1A1
330
1F
100
AcDbEntity
  8
0
  6
HIDDEN
 62
     7
370
    18
100
AcDbLine
 10
180.9153503291
 20
117.4004930335
 30
0.0
 11
182.5122332684
 21
117.4004930335
 31
0.0
  0
LINE
  5
1A2
330
1F
100
AcDbEntity
  8
0
  6
HIDDEN
 62
     7
370
    18
100
AcDbLine
 10
182.5122332684
 20
123.4004940169
 30
0.0
 11
180.9153503291
 21
123.4004940169
 31
0.0
  0
LINE
  5
1A3
330
1F
100
AcDbEntity
  8
0
  6
HIDDEN
 62
     7
370
    18
100
AcDbLine
 10
182.5122332684
 20
117.4004930335
 30
0.0
 11
182.7582328133
 21
117.6069104376
 31
0.0
  0
LINE
  5
1A4
330
1F
100
AcDbEntity
  8
0
  6
HIDDEN
 62
     7
370
    18
100
AcDbLine
 10
182.7582328133
 20
123.1940756815
 30
0.0
 11
182.5122332684
 21
123.4004940169
 31
0.0
  0
LINE
  5
1A5
330
1F
100
AcDbEntity
  8
0
  6
HIDDEN
 62
     7
370
    18
100
AcDbLine
 10
185.4153482727
 20
122.400493853
 30
0.0
 11
184.2136292271
 21
120.4004935252
 31
0.0
  0
LINE
  5
1A6
330
1F
100
AcDbEntity
  8
0
  6
HIDDEN
 62
     7
370
    18
100
AcDbLine
 10
184.2136292271
 20
120.4004935252
 30
0.0
 11
185.4153482727
 21
118.4004931974
 31
0.0
  0
LINE
  5
1A7
330
1F
100
AcDbEntity
  8
0
  6
HIDDEN
 62
     7
370
    18
100
AcDbLine
 10
173.9153510444
 20
118.4004931974
 30
0.0
 11
178.3194711916
 21
118.4004931974
 31
0.0
  0
LINE
  5
1A8
330
1F
100
AcDbEntity
  8
0
  6
HIDDEN
 62
     7
370
    18
100
AcDbLine
 10
178.3194711916
 20
122.400493853
 30
0.0
 11
173.9153510444
 21
122.400493853
 31
0.0
  0
LINE
  5
1A9
330
1F
100
AcDbEntity
  8
0
  6
HIDDEN
 62
     7
370
    18
100
AcDbLine
 10
173.9153510444
 20
122.400493853
 30
0.0
 11
173.4153500311
 21
121.9004928398
 31
0.0
  0
LINE
  5
1AA
330
1F
100
AcDbEntity
  8
0
  6
HIDDEN
 62
     7
370
    18
100
AcDbLine
 10
173.4153500311
 20
118.9004932793
 30
0.0
 11
173.9153510444
 21
118.4004931974
 31
0.0
  0
LINE
  5
1AB
330
1F
100
AcDbEntity
  8
0
  6
HIDDEN
 62
     7
370
    18
100
AcDbLine
 10
178.3194711916
 20
118.4004931974
 30
0.0
 11
178.8038222603
 21
118.8069111931
 31
0.0
  0
LINE
  5
1AC
330
1F
100
AcDbEntity
  8
0
  6
HIDDEN
 62
     7
370
    18
100
AcDbLine
 10
178.8038222603
 20
121.994074926
 30
0.0
 11
178.3194711916
 21
122.400493853
 31
0.0
  0
ARC
  5
1AD
330
1F
100
AcDbEntity
  8
0
  6
HIDDEN
 62
     7
370
    18
100
AcDbCircle
 10
180.015349286
 20
118.5004930931
 30
0.0
 40
0.4000000000000057
100
AcDbArc
 50
0.0
 51
90.0
  0
ARC
  5
1AE
330
1F
100
AcDbEntity
  8
0
  6
HIDDEN
 62
     7
370
    18
100
AcDbCircle
 10
180.015349286
 20
122.3004930931
 30
0.0
 40
0.3999999999999773
100
AcDbArc
 50
270.0
 51
0.0
  0
ARC
  5
1AF
330
1F
100
AcDbEntity
  8
0
  6
HIDDEN
 62
     7
370
    18
100
AcDbCircle
 10
179.0609373797
 20
118.5004930931
 30
0.0
 40
0.4000000000000057
100
AcDbArc
 50
90.0
 51
130.0
  0
ARC
  5
1B0
330
1F
100
AcDbEntity
  8
0
  6
HIDDEN
 62
     7
370
    18
100
AcDbCircle
 10
179.0609373797
 20
122.3004930931
 30
0.0
 40
0.3999999999999915
100
AcDbArc
 50
230.0
 51
270.0
  0
LINE
  5
1B1
330
1F
100
AcDbEntity
  8
0
  6
HIDDEN
 62
     7
370
    18
100
AcDbLine
 10
179.0609380714
 20
118.9004932793
 30
0.0
 11
180.0153499953
 21
118.9004932793
 31
0.0
  0
LINE
  5
1B2
330
1F
100
AcDbEntity
  8
0
  6
HIDDEN
 62
     7
370
    18
100
AcDbLine
 10
180.0153499953
 20
121.9004928398
 30
0.0
 11
179.0609380714
 21
121.9004928398
 31
0.0
  0
LINE
  5
1B3
330
1F
100
AcDbEntity
  8
0
  6
HIDDEN
 62
     7
370
    18
100
AcDbLine
 10
188.4153469018
 20
122.7004933434
 30
0.0
 11
188.1153492741
 21
122.400493853
 31
0.0
  0
LINE
  5
1B4
330
1F
100
AcDbEntity
  8
0
  6
HIDDEN
 62
     7
370
    18
100
AcDbLine
 10
188.1153492741
 20
118.4004931974
 30
0.0
 11
188.4153469018
 21
118.1004927757
 31
0.0
  0
ARC
  5
1B5
330
1F
100
AcDbEntity
  8
0
  6
HIDDEN
 62
     7
370
    18
100
AcDbCircle
 10
183.015349286
 20
89.3004930931
 30
0.0
 40
0.4000000000000057
100
AcDbArc
 50
0.0
 51
130.0
  0
ARC
  5
1B6
330
1F
100
AcDbEntity
  8
0
  6
HIDDEN
 62
     7
370
    18
100
AcDbCircle
 10
183.015349286
 20
95.5004930931
 30
0.0
 40
0.4000000000000057
100
AcDbArc
 50
230.0
 51
0.0
  0
LINE
  5
1B7
330
1F
100
AcDbEntity
  8
0
  6
HIDDEN
 62
     7
370
    18
100
AcDbLine
 10
180.9153503291
 20
89.4004921692
 30
0.0
 11
182.5122332684
 21
89.4004921692
 31
0.0
  0
LINE
  5
1B8
330
1F
100
AcDbEntity
  8
0
  6
HIDDEN
 62
     7
370
    18
100
AcDbLine
 10
182.5122332684
 20
95.4004931527
 30
0.0
 11
180.9153503291
 21
95.4004931527
 31
0.0
  0
LINE
  5
1B9
330
1F
100
AcDbEntity
  8
0
  6
HIDDEN
 62
     7
370
    18
100
AcDbLine
 10
182.5122332684
 20
89.4004921692
 30
0.0
 11
182.7582328133
 21
89.6069105046
 31
0.0
  0
LINE
  5
1BA
330
1F
100
AcDbEntity
  8
0
  6
HIDDEN
 62
     7
370
    18
100
AcDbLine
 10
182.7582328133
 20
95.1940757486
 30
0.0
 11
182.5122332684
 21
95.4004931527
 31
0.0
  0
ARC
  5
1BB
330
1F
100
AcDbEntity
  8
0
  6
HIDDEN
 62
     7
370
    18
100
AcDbCircle
 10
180.915349286
 20
89.9004930931
 30
0.0
 40
0.5000000000000284
100
AcDbArc
 50
180.0
 51
270.0
  0
ARC
  5
1BC
330
1F
100
AcDbEntity
  8
0
  6
HIDDEN
 62
     7
370
    18
100
AcDbCircle
 10
180.915349286
 20
94.9004930931
 30
0.0
 40
0.5000000000000284
100
AcDbArc
 50
90.0
 51
180.0
  0
LINE
  5
1BD
330
1F
100
AcDbEntity
  8
0
  6
HIDDEN
 62
     7
370
    18
100
AcDbLine
 10
185.4153482727
 20
94.4004929888
 30
0.0
 11
184.2136292271
 21
92.4004926609
 31
0.0
  0
LINE
  5
1BE
330
1F
100
AcDbEntity
  8
0
  6
HIDDEN
 62
     7
370
    18
100
AcDbLine
 10
184.2136292271
 20
92.4004926609
 30
0.0
 11
185.4153482727
 21
90.4004923331
 31
0.0
  0
LINE
  5
1BF
330
1F
100
AcDbEntity
  8
0
  6
HIDDEN
 62
     7
370
    18
100
AcDbLine
 10
173.9153510444
 20
90.4004923331
 30
0.0
 11
178.3194711916
 21
90.4004923331
 31
0.0
  0
LINE
  5
1C0
330
1F
100
AcDbEntity
  8
0
  6
HIDDEN
 62
     7
370
    18
100
AcDbLine
 10
178.3194711916
 20
94.4004929888
 30
0.0
 11
173.9153510444
 21
94.4004929888
 31
0.0
  0
LINE
  5
1C1
330
1F
100
AcDbEntity
  8
0
  6
HIDDEN
 62
     7
370
    18
100
AcDbLine
 10
173.9153510444
 20
94.4004929888
 30
0.0
 11
173.4153500311
 21
93.9004929068
 31
0.0
  0
LINE
  5
1C2
330
1F
100
AcDbEntity
  8
0
  6
HIDDEN
 62
     7
370
    18
100
AcDbLine
 10
173.4153500311
 20
90.9004933464
 30
0.0
 11
173.9153510444
 21
90.4004923331
 31
0.0
  0
LINE
  5
1C3
330
1F
100
AcDbEntity
  8
0
  6
HIDDEN
 62
     7
370
    18
100
AcDbLine
 10
178.3194711916
 20
90.4004923331
 30
0.0
 11
178.8038222603
 21
90.8069112601
 31
0.0
  0
LINE
  5
1C4
330
1F
100
AcDbEntity
  8
0
  6
HIDDEN
 62
     7
370
    18
100
AcDbLine
 10
178.8038222603
 20
93.9940749931
 30
0.0
 11
178.3194711916
 21
94.4004929888
 31
0.0
  0
ARC
  5
1C5
330
1F
100
AcDbEntity
  8
0
  6
HIDDEN
 62
     7
370
    18
100
AcDbCircle
 10
180.015349286
 20
90.5004930931
 30
0.0
 40
0.3999999999999915
100
AcDbArc
 50
0.0
 51
90.0
  0
ARC
  5
1C6
330
1F
100
AcDbEntity
  8
0
  6
HIDDEN
 62
     7
370
    18
100
AcDbCircle
 10
180.015349286
 20
94.3004930931
 30
0.0
 40
0.4000000000000057
100
AcDbArc
 50
270.0
 51
0.0
  0
ARC
  5
1C7
330
1F
100
AcDbEntity
  8
0
  6
HIDDEN
 62
     7
370
    18
100
AcDbCircle
 10
179.0609373797
 20
90.5004930931
 30
0.0
 40
0.3999999999999915
100
AcDbArc
 50
90.0
 51
130.0
  0
ARC
  5
1C8
330
1F
100
AcDbEntity
  8
0
  6
HIDDEN
 62
     7
370
    18
100
AcDbCircle
 10
179.0609373797
 20
94.3004930931
 30
0.0
 40
0.4000000000000057
100
AcDbArc
 50
230.0
 51
270.0
  0
LINE
  5
1C9
330
1F
100
AcDbEntity
  8
0
  6
HIDDEN
 62
     7
370
    18
100
AcDbLine
 10
179.0609380714
 20
90.9004933464
 30
0.0
 11
180.0153499953
 21
90.9004933464
 31
0.0
  0
LINE
  5
1CA
330
1F
100
AcDbEntity
  8
0
  6
HIDDEN
 62
     7
370
    18
100
AcDbLine
 10
180.0153499953
 20
93.9004929068
 30
0.0
 11
179.0609380714
 21
93.9004929068
 31
0.0
  0
LINE
  5
1CB
330
1F
100
AcDbEntity
  8
0
  6
HIDDEN
 62
     7
370
    18
100
AcDbLine
 10
188.4153469018
 20
94.7004934105
 30
0.0
 11
188.1153492741
 21
94.4004929888
 31
0.0
  0
LINE
  5
1CC
330
1F
100
AcDbEntity
  8
0
  6
HIDDEN
 62
     7
370
    18
100
AcDbLine
 10
188.1153492741
 20
90.4004923331
 30
0.0
 11
188.4153469018
 21
90.1004928427
 31
0.0
  0
LINE
  5
1CD
330
1F
100
AcDbEntity
  8
0
  6
HIDDEN
 62
     7
370
    18
100
AcDbLine
 10
200.4153488688
 20
110.4004932831
 30
0.0
 11
181.1058504991
 21
110.4004932831
 31
0.0
  0
LINE
  5
1CE
330
1F
100
AcDbEntity
  8
0
  6
HIDDEN
 62
     7
370
    18
100
AcDbLine
 10
181.1058504991
 20
102.4004929031
 30
0.0
 11
200.4153488688
 21
102.4004929031
 31
0.0
  0
LINE
  5
1CF
330
1F
100
AcDbEntity
  8
0
  6
HIDDEN
 62
     7
370
    18
100
AcDbLine
 10
181.1058504991
 20
110.4004932831
 30
0.0
 11
180.4153493158
 21
109.7099930311
 31
0.0
  0
LINE
  5
1D0
330
1F
100
AcDbEntity
  8
0
  6
HIDDEN
 62
     7
370
    18
100
AcDbLine
 10
180.4153493158
 20
103.090993155
 30
0.0
 11
181.1058504991
 21
102.4004929031
 31
0.0
  0
LINE
  5
1D1
330
1F
100
AcDbEntity
  8
0
  6
HIDDEN
 62
     7
370
    18
100
AcDbLine
 10
209.4153522066
 20
109.4479931316
 30
0.0
 11
207.6558752469
 21
106.4004930931
 31
0.0
  0
LINE
  5
1D2
330
1F
100
AcDbEntity
  8
0
  6
HIDDEN
 62
     7
370
    18
100
AcDbLine
 10
207.6558752469
 20
106.4004930931
 30
0.0
 11
209.4153522066
 21
103.3529930546
 31
0.0
  0
LINE
  5
1D3
330
1F
100
AcDbEntity
  8
0
  6
HIDDEN
 62
     7
370
    18
100
AcDbLine
 10
127.415349476
 20
120.6983286219
 30
0.0
 11
127.415349476
 21
118.7944333332
 31
0.0
  0
LINE
  5
1D4
330
1F
100
AcDbEntity
  8
0
  6
HIDDEN
 62
     7
370
    18
100
AcDbLine
 10
135.4153493903
 20
118.7944333332
 30
0.0
 11
135.4153493903
 21
120.701123521
 31
0.0
  0
LINE
  5
1D5
330
1F
100
AcDbEntity
  8
0
  6
HIDDEN
 62
     7
370
    18
100
AcDbLine
 10
123.415349286
 20
81.0765619653
 30
0.0
 11
123.5095100583
 21
81.7465498375
 31
0.0
  0
LINE
  5
1D6
330
1F
100
AcDbEntity
  8
0
  6
HIDDEN
 62
     7
370
    18
100
AcDbLine
 10
123.5095100583
 20
131.0544363486
 30
0.0
 11
123.415349286
 21
131.7244242209
 31
0.0
  0
ARC
  5
1D7
330
1F
100
AcDbEntity
  8
0
  6
HIDDEN
 62
     7
370
    18
100
AcDbCircle
 10
122.9153425333
 20
81.8300554787
 30
0.0
 40
0.6000067526677242
100
AcDbArc
 50
352.0
 51
0.0
  0
ARC
  5
1D8
330
1F
100
AcDbEntity
  8
0
  6
HIDDEN
 62
     7
370
    18
100
AcDbCircle
 10
122.9153425333
 20
81.8300554787
 30
0.0
 40
0.6000067526677242
100
AcDbArc
 50
0.0
 51
33.5571153394
  0
ARC
  5
1D9
330
1F
100
AcDbEntity
  8
0
  6
HIDDEN
 62
     7
370
    18
100
AcDbCircle
 10
122.9153425333
 20
130.9709307075
 30
0.0
 40
0.6000067526677222
100
AcDbArc
 50
348.75
 51
8.0
  0
LWPOLYLINE
  5
1DA
330
1F
100
AcDbEntity
  8
0
  6
HIDDEN
 62
     7
370
    18
100
AcDbPolyline
 90
        3
 70
   128
 43
0.0
 10
123.5038203249
 20
130.8538760322
 10
123.4696764932
 20
130.7413182485
 10
123.415349286
 20
130.6392657834
  0
LINE
  5
1DB
330
1F
100
AcDbEntity
  8
0
  6
HIDDEN
 62
     7
370
    18
100
AcDbLine
 10
123.5153492835
 20
81.8300559449
 30
0.0
 11
123.5153492835
 21
130.9709302413
 31
0.0
  0
ARC
  5
1DC
330
1F
100
AcDbEntity
  8
0
  6
HIDDEN
 62
     7
370
    18
100
AcDbCircle
 10
106.4977848513
 20
87.0004930931
 30
0.0
 40
0.6000000000000085
100
AcDbArc
 50
210.0
 51
270.0
  0
ARC
  5
1DD
330
1F
100
AcDbEntity
  8
0
  6
HIDDEN
 62
     7
370
    18
100
AcDbCircle
 10
106.4977848513
 20
125.8004930931
 30
0.0
 40
0.6000000000000084
100
AcDbArc
 50
90.0
 51
150.0
  0
ARC
  5
1DE
330
1F
100
AcDbEntity
  8
0
  6
HIDDEN
 62
     7
370
    18
100
AcDbCircle
 10
117.1703512876
 20
94.4004930931
 30
0.0
 40
8.0
100
AcDbArc
 50
276.8749485689
 51
321.3178125465
  0
ARC
  5
1DF
330
1F
100
AcDbEntity
  8
0
  6
HIDDEN
 62
     7
370
    18
100
AcDbCircle
 10
117.1703512876
 20
118.4004930931
 30
0.0
 40
8.000000000000004
100
AcDbArc
 50
38.6821874535
 51
83.1152809396
  0
LINE
  5
1E0
330
1F
100
AcDbEntity
  8
0
  6
HIDDEN
 62
     7
370
    18
100
AcDbLine
 10
106.4977853112
 20
86.4004935401
 30
0.0
 11
110.6894568093
 21
86.4004935401
 31
0.0
  0
LINE
  5
1E1
330
1F
100
AcDbEntity
  8
0
  6
HIDDEN
 62
     7
370
    18
100
AcDbLine
 10
110.6894568093
 20
126.400492646
 30
0.0
 11
106.4977853112
 21
126.400492646
 31
0.0
  0
LINE
  5
1E2
330
1F
100
AcDbEntity
  8
0
  6
HIDDEN
 62
     7
370
    18
100
AcDbLine
 10
105.9781687818
 20
126.1004931557
 30
0.0
 11
104.4193247817
 21
123.4004940169
 31
0.0
  0
LINE
  5
1E3
330
1F
100
AcDbEntity
  8
0
  6
HIDDEN
 62
     7
370
    18
100
AcDbLine
 10
104.4193247817
 20
89.4004921692
 30
0.0
 11
105.9781687818
 21
86.7004930305
 31
0.0
  0
LINE
  5
1E4
330
1F
100
AcDbEntity
  8
0
  6
HIDDEN
 62
     7
370
    18
100
AcDbLine
 10
127.415349476
 20
133.6748260337
 30
0.0
 11
127.415349476
 21
130.3460947501
 31
0.0
  0
LINE
  5
1E5
330
1F
100
AcDbEntity
  8
0
  6
HIDDEN
 62
     7
370
    18
100
AcDbLine
 10
135.4153493903
 20
130.3460947501
 30
0.0
 11
135.4153493903
 21
133.6801587867
 31
0.0
  0
ARC
  5
1E6
330
1F
100
AcDbEntity
  8
0
  6
HIDDEN
 62
     7
370
    18
100
AcDbCircle
 10
131.865349286
 20
90.6754930931
 30
0.0
 40
1.500000000000016
100
AcDbArc
 50
238.2116693829
 51
0.0
  0
ARC
  5
1E7
330
1F
100
AcDbEntity
  8
0
  6
HIDDEN
 62
     7
370
    18
100
AcDbCircle
 10
131.865349286
 20
122.1254930931
 30
0.0
 40
1.500000000000016
100
AcDbArc
 50
0.0
 51
121.7883306171
  0
LINE
  5
1E8
330
1F
100
AcDbEntity
  8
0
  6
HIDDEN
 62
     7
370
    18
100
AcDbLine
 10
123.415349286
 20
89.4004921692
 30
0.0
 11
131.0751752481
 21
89.4004921692
 31
0.0
  0
LINE
  5
1E9
330
1F
100
AcDbEntity
  8
0
  6
HIDDEN
 62
     7
370
    18
100
AcDbLine
 10
131.0751752481
 20
123.4004940169
 30
0.0
 11
123.415349286
 21
123.4004940169
 31
0.0
  0
LINE
  5
1EA
330
1F
100
AcDbEntity
  8
0
  6
HIDDEN
 62
     7
370
    18
100
AcDbLine
 10
101.6153490655
 20
89.4004921692
 30
0.0
 11
104.4193247817
 21
89.4004921692
 31
0.0
  0
LINE
  5
1EB
330
1F
100
AcDbEntity
  8
0
  6
HIDDEN
 62
     7
370
    18
100
AcDbLine
 10
104.4193247817
 20
123.4004940169
 30
0.0
 11
97.6153484098
 21
123.4004940169
 31
0.0
  0
LINE
  5
1EC
330
1F
100
AcDbEntity
  8
0
  6
HIDDEN
 62
     7
370
    18
100
AcDbLine
 10
157.8653475754
 20
119.4272735419
 30
0.0
 11
157.8653475754
 21
111.3502406778
 31
0.0
  0
LINE
  5
1ED
330
1F
100
AcDbEntity
  8
0
  6
HIDDEN
 62
     7
370
    18
100
AcDbLine
 10
162.8653502576
 20
111.3502406778
 30
0.0
 11
162.8653502576
 21
119.4272735419
 31
0.0
  0
LINE
  5
1EE
330
1F
100
AcDbEntity
  8
0
  6
HIDDEN
 62
     7
370
    18
100
AcDbLine
 10
162.8653502576
 20
93.3737126442
 30
0.0
 11
162.8653502576
 21
101.4507455083
 31
0.0
  0
LINE
  5
1EF
330
1F
100
AcDbEntity
  8
0
  6
HIDDEN
 62
     7
370
    18
100
AcDbLine
 10
157.8653475754
 20
101.4507455083
 30
0.0
 11
157.8653475754
 21
93.3737126442
 31
0.0
  0
LINE
  5
1F0
330
1F
100
AcDbEntity
  8
0
  6
HIDDEN
 62
     7
370
    18
100
AcDbLine
 10
142.2153490148
 20
96.9004933985
 30
0.0
 11
145.2153495066
 21
96.9004933985
 31
0.0
  0
LINE
  5
1F1
330
1F
100
AcDbEntity
  8
0
  6
HIDDEN
 62
     7
370
    18
100
AcDbLine
 10
145.2153495066
 20
115.9004927876
 30
0.0
 11
142.2153490148
 21
115.9004927876
 31
0.0
  0
LINE
  5
1F2
330
1F
100
AcDbEntity
  8
0
  6
HIDDEN
 62
     7
370
    18
100
AcDbLine
 10
183.4153479449
 20
115.5039859267
 30
0.0
 11
183.3211875073
 21
114.8339971232
 31
0.0
  0
LINE
  5
1F3
330
1F
100
AcDbEntity
  8
0
  6
HIDDEN
 62
     7
370
    18
100
AcDbLine
 10
183.3211875073
 20
97.966989063
 30
0.0
 11
183.4153479449
 21
97.2970002594
 31
0.0
  0
LINE
  5
1F4
330
1F
100
AcDbEntity
  8
0
  6
HIDDEN
 62
     7
370
    18
100
AcDbLine
 10
133.3653491474
 20
97.4004934805
 30
0.0
 11
133.8653492294
 21
97.9004926311
 31
0.0
  0
LINE
  5
1F5
330
1F
100
AcDbEntity
  8
0
  6
HIDDEN
 62
     7
370
    18
100
AcDbLine
 10
133.8653492294
 20
114.900493555
 30
0.0
 11
133.3653491474
 21
115.4004927056
 31
0.0
  0
LINE
  5
1F6
330
1F
100
AcDbEntity
  8
0
  6
HIDDEN
 62
     7
370
    18
100
AcDbLine
 10
133.8653492294
 20
97.9004926311
 30
0.0
 11
142.2153490148
 21
97.9004926311
 31
0.0
  0
LINE
  5
1F7
330
1F
100
AcDbEntity
  8
0
  6
HIDDEN
 62
     7
370
    18
100
AcDbLine
 10
142.2153490148
 20
114.900493555
 30
0.0
 11
133.8653492294
 21
114.900493555
 31
0.0
  0
ARC
  5
1F8
330
1F
100
AcDbEntity
  8
0
  6
HIDDEN
 62
     7
370
    18
100
AcDbCircle
 10
183.915349286
 20
98.0504930931
 30
0.0
 40
0.6000000000000008
100
AcDbArc
 50
168.75
 51
188.0
  0
LWPOLYLINE
  5
1F9
330
1F
100
AcDbEntity
  8
0
  6
HIDDEN
 62
     7
370
    18
100
AcDbPolyline
 90
        3
 70
   128
 43
0.0
 10
183.3268797509
 20
98.1675475168
 10
183.3610220365
 20
98.2801034378
 10
183.4153479449
 20
98.3821559029
  0
ARC
  5
1FA
330
1F
100
AcDbEntity
  8
0
  6
HIDDEN
 62
     7
370
    18
100
AcDbCircle
 10
183.915349286
 20
114.7504930931
 30
0.0
 40
0.5999999999999943
100
AcDbArc
 50
172.0
 51
180.0
  0
ARC
  5
1FB
330
1F
100
AcDbEntity
  8
0
  6
HIDDEN
 62
     7
370
    18
100
AcDbCircle
 10
183.915349286
 20
114.7504930931
 30
0.0
 40
0.5999999999999943
100
AcDbArc
 50
180.0
 51
213.5573097619
  0
LINE
  5
1FC
330
1F
100
AcDbEntity
  8
0
  6
HIDDEN
 62
     7
370
    18
100
AcDbLine
 10
183.3153499774
 20
114.7504928785
 30
0.0
 11
183.3153499774
 21
98.0504933077
 31
0.0
  0
LINE
  5
1FD
330
1F
100
AcDbEntity
  8
0
  6
HIDDEN
 62
     7
370
    18
100
AcDbLine
 10
128.3653492592
 20
137.9004935997
 30
0.0
 11
128.3653492592
 21
132.80049295
 31
0.0
  0
LINE
  5
1FE
330
1F
100
AcDbEntity
  8
0
  6
HIDDEN
 62
     7
370
    18
100
AcDbLine
 10
178.6653494946
 20
100.7436388435
 30
0.0
 11
178.6653494946
 21
101.1855807419
 31
0.0
  0
LINE
  5
1FF
330
1F
100
AcDbEntity
  8
0
  6
HIDDEN
 62
     7
370
    18
100
AcDbLine
 10
176.1653481535
 20
101.1855807419
 30
0.0
 11
176.1653481535
 21
100.7436388435
 31
0.0
  0
LINE
  5
200
330
1F
100
AcDbEntity
  8
0
  6
HIDDEN
 62
     7
370
    18
100
AcDbLine
 10
178.2992316894
 20
100.8194638679
 30
0.0
 11
200.4153488688
 21
100.8194638679
 31
0.0
  0
LINE
  5
201
330
1F
100
AcDbEntity
  8
0
  6
HIDDEN
 62
     7
370
    18
100
AcDbLine
 10
200.4153488688
 20
103.3194640449
 30
0.0
 11
178.2992316894
 21
103.3194640449
 31
0.0
  0
LINE
  5
202
330
1F
100
AcDbEntity
  8
0
  6
HIDDEN
 62
     7
370
    18
100
AcDbLine
 10
175.4153503589
 20
100.8194638679
 30
0.0
 11
176.5314659588
 21
100.8194638679
 31
0.0
  0
LINE
  5
203
330
1F
100
AcDbEntity
  8
0
  6
HIDDEN
 62
     7
370
    18
100
AcDbLine
 10
176.5314659588
 20
103.3194640449
 30
0.0
 11
175.4153503589
 21
103.3194640449
 31
0.0
  0
LINE
  5
204
330
1F
100
AcDbEntity
  8
0
  6
HIDDEN
 62
     7
370
    18
100
AcDbLine
 10
175.4153503589
 20
103.3194640449
 30
0.0
 11
174.6642722301
 21
102.0694640728
 31
0.0
  0
LINE
  5
205
330
1F
100
AcDbEntity
  8
0
  6
HIDDEN
 62
     7
370
    18
100
AcDbLine
 10
174.6642722301
 20
102.0694640728
 30
0.0
 11
175.4153503589
 21
100.8194638679
 31
0.0
  0
LINE
  5
206
330
1F
100
AcDbEntity
  8
0
  6
HIDDEN
 62
     7
370
    18
100
AcDbLine
 10
178.6653494946
 20
102.9533476366
 30
0.0
 11
178.6653494946
 21
103.9996959998
 31
0.0
  0
LINE
  5
207
330
1F
100
AcDbEntity
  8
0
  6
HIDDEN
 62
     7
370
    18
100
AcDbLine
 10
176.1653481535
 20
103.9997944871
 30
0.0
 11
176.1653481535
 21
102.9533476366
 31
0.0
  0
ARC
  5
208
330
1F
100
AcDbEntity
  8
0
  6
HIDDEN
 62
     7
370
    18
100
AcDbCircle
 10
199.615349286
 20
101.3504930931
 30
0.0
 40
0.7999999999999972
100
AcDbArc
 50
0.0
 51
90.0
  0
ARC
  5
209
330
1F
100
AcDbEntity
  8
0
  6
HIDDEN
 62
     7
370
    18
100
AcDbCircle
 10
199.615349286
 20
111.4504930931
 30
0.0
 40
0.7999999999999972
100
AcDbArc
 50
270.0
 51
0.0
  0
LINE
  5
20A
330
1F
100
AcDbEntity
  8
0
  6
HIDDEN
 62
     7
370
    18
100
AcDbLine
 10
118.5997871235
 20
82.3211218494
 30
0.0
 11
118.1653549447
 21
82.8001885938
 31
0.0
  0
LINE
  5
20B
330
1F
100
AcDbEntity
  8
0
  6
HIDDEN
 62
     7
370
    18
100
AcDbLine
 10
110.6653513871
 20
83.2218765544
 30
0.0
 11
110.1829179115
 21
82.74280981
 31
0.0
  0
LINE
  5
20C
330
1F
100
AcDbEntity
  8
0
  6
HIDDEN
 62
     7
370
    18
100
AcDbLine
 10
110.1827959083
 20
130.0581707882
 30
0.0
 11
110.6653467305
 21
129.5790500271
 31
0.0
  0
LINE
  5
20D
330
1F
100
AcDbEntity
  8
0
  6
HIDDEN
 62
     7
370
    18
100
AcDbLine
 10
118.1653493568
 20
130.0007491636
 30
0.0
 11
118.5998914316
 21
130.4798680621
 31
0.0
  0
LINE
  5
20E
330
1F
100
AcDbEntity
  8
0
  6
HIDDEN
 62
     7
370
    18
100
AcDbLine
 10
196.4153482131
 20
110.650493324
 30
0.0
 11
195.9046183638
 21
109.8004931382
 31
0.0
  0
LINE
  5
20F
330
1F
100
AcDbEntity
  8
0
  6
HIDDEN
 62
     7
370
    18
100
AcDbLine
 10
195.9046183638
 20
103.000493048
 30
0.0
 11
196.4153482131
 21
102.1504928621
 31
0.0
  0
LINE
  5
210
330
1F
100
AcDbEntity
  8
0
  6
HIDDEN
 62
     7
370
    18
100
AcDbLine
 10
196.4153482131
 20
102.1504928621
 30
0.0
 11
199.6153502278
 21
102.1504928621
 31
0.0
  0
LINE
  5
211
330
1F
100
AcDbEntity
  8
0
  6
HIDDEN
 62
     7
370
    18
100
AcDbLine
 10
199.6153502278
 20
110.650493324
 30
0.0
 11
196.4153482131
 21
110.650493324
 31
0.0
  0
LINE
  5
212
330
1F
100
AcDbEntity
  8
0
  6
HIDDEN
 62
     7
370
    18
100
AcDbLine
 10
145.2153495066
 20
102.2004932428
 30
0.0
 11
174.5139306895
 21
102.2004932428
 31
0.0
  0
LINE
  5
213
330
1F
100
AcDbEntity
  8
0
  6
HIDDEN
 62
     7
370
    18
100
AcDbLine
 10
174.5139306895
 20
110.6004929433
 30
0.0
 11
145.2153495066
 21
110.6004929433
 31
0.0
  0
LINE
  5
214
330
1F
100
AcDbEntity
  8
0
  6
HIDDEN
 62
     7
370
    18
100
AcDbLine
 10
174.5139306895
 20
102.2004932428
 30
0.0
 11
174.9946160726
 21
103.000493048
 31
0.0
  0
LINE
  5
215
330
1F
100
AcDbEntity
  8
0
  6
HIDDEN
 62
     7
370
    18
100
AcDbLine
 10
174.9946160726
 20
109.8004931382
 30
0.0
 11
174.5139306895
 21
110.6004929433
 31
0.0
  0
LINE
  5
216
330
1F
100
AcDbEntity
  8
0
  6
HIDDEN
 62
     7
370
    18
100
AcDbLine
 10
118.1653493568
 20
126.3358942496
 30
0.0
 11
118.1653493568
 21
130.0004567283
 31
0.0
  0
LINE
  5
217
330
1F
100
AcDbEntity
  8
0
  6
HIDDEN
 62
     7
370
    18
100
AcDbLine
 10
110.6653495244
 20
129.5789066034
 30
0.0
 11
110.6653495244
 21
126.3961154299
 31
0.0
  0
LINE
  5
218
330
1F
100
AcDbEntity
  8
0
  6
HIDDEN
 62
     7
370
    18
100
AcDbLine
 10
118.1653493568
 20
82.8006710189
 30
0.0
 11
118.1653493568
 21
86.4650919365
 31
0.0
  0
LINE
  5
219
330
1F
100
AcDbEntity
  8
0
  6
HIDDEN
 62
     7
370
    18
100
AcDbLine
 10
110.6653495244
 20
86.4048707562
 30
0.0
 11
110.6653495244
 21
83.222198792
 31
0.0
  0
LINE
  5
21A
330
1F
100
AcDbEntity
  8
0
  6
HIDDEN
 62
     7
370
    18
100
AcDbLine
 10
174.9946160726
 20
103.000493048
 30
0.0
 11
195.9046183638
 21
103.000493048
 31
0.0
  0
LINE
  5
21B
330
1F
100
AcDbEntity
  8
0
  6
HIDDEN
 62
     7
370
    18
100
AcDbLine
 10
195.9046183638
 20
109.8004931382
 30
0.0
 11
174.9946160726
 21
109.8004931382
 31
0.0
  0
LINE
  5
21C
330
1F
100
AcDbEntity
  8
0
  6
HIDDEN
 62
     7
370
    18
100
AcDbLine
 10
183.4153479449
 20
123.4004940169
 30
0.0
 11
179.4153510146
 21
123.4004940169
 31
0.0
  0
LINE
  5
21D
330
1F
100
AcDbEntity
  8
0
  6
HIDDEN
 62
     7
370
    18
100
AcDbLine
 10
179.4153510146
 20
117.4004930335
 30
0.0
 11
183.4153479449
 21
117.4004930335
 31
0.0
  0
LINE
  5
21E
330
1F
100
AcDbEntity
  8
0
  6
HIDDEN
 62
     7
370
    18
100
AcDbLine
 10
183.4153479449
 20
95.4004931527
 30
0.0
 11
179.4153510146
 21
95.4004931527
 31
0.0
  0
LINE
  5
21F
330
1F
100
AcDbEntity
  8
0
  6
HIDDEN
 62
     7
370
    18
100
AcDbLine
 10
179.4153510146
 20
89.4004921692
 30
0.0
 11
183.4153479449
 21
89.4004921692
 31
0.0
  0
LINE
  5
220
330
1F
100
AcDbEntity
  8
0
  6
HIDDEN
 62
     7
370
    18
100
AcDbLine
 10
179.4153510146
 20
122.5504926669
 30
0.0
 11
178.9153500013
 21
122.0504935163
 31
0.0
  0
LINE
  5
221
330
1F
100
AcDbEntity
  8
0
  6
HIDDEN
 62
     7
370
    18
100
AcDbLine
 10
178.9153500013
 20
118.7504935341
 30
0.0
 11
179.4153510146
 21
118.2504934522
 31
0.0
  0
LINE
  5
222
330
1F
100
AcDbEntity
  8
0
  6
HIDDEN
 62
     7
370
    18
100
AcDbLine
 10
179.4153510146
 20
94.550492734
 30
0.0
 11
178.9153500013
 21
94.050492652
 31
0.0
  0
LINE
  5
223
330
1F
100
AcDbEntity
  8
0
  6
HIDDEN
 62
     7
370
    18
100
AcDbLine
 10
178.9153500013
 20
90.7504926699
 30
0.0
 11
179.4153510146
 21
90.2504935192
 31
0.0
  0
LINE
  5
224
330
1F
100
AcDbEntity
  8
0
  6
HIDDEN
 62
     7
370
    18
100
AcDbLine
 10
178.9153500013
 20
122.0504935163
 30
0.0
 11
168.4153510742
 21
122.0504935163
 31
0.0
  0
LINE
  5
225
330
1F
100
AcDbEntity
  8
0
  6
HIDDEN
 62
     7
370
    18
100
AcDbLine
 10
168.4153510742
 20
118.7504935341
 30
0.0
 11
178.9153500013
 21
118.7504935341
 31
0.0
  0
LINE
  5
226
330
1F
100
AcDbEntity
  8
0
  6
HIDDEN
 62
     7
370
    18
100
AcDbLine
 10
178.9153500013
 20
94.050492652
 30
0.0
 11
168.4153510742
 21
94.050492652
 31
0.0
  0
LINE
  5
227
330
1F
100
AcDbEntity
  8
0
  6
HIDDEN
 62
     7
370
    18
100
AcDbLine
 10
168.4153510742
 20
90.7504926699
 30
0.0
 11
178.9153500013
 21
90.7504926699
 31
0.0
  0
LINE
  5
228
330
1F
100
AcDbEntity
  8
0
  6
HIDDEN
 62
     7
370
    18
100
AcDbLine
 10
168.4153510742
 20
94.050492652
 30
0.0
 11
167.4239283912
 21
92.4004926609
 31
0.0
  0
LINE
  5
229
330
1F
100
AcDbEntity
  8
0
  6
HIDDEN
 62
     7
370
    18
100
AcDbLine
 10
167.4239283912
 20
92.4004926609
 30
0.0
 11
168.4153510742
 21
90.7504926699
 31
0.0
  0
LINE
  5
22A
330
1F
100
AcDbEntity
  8
0
  6
HIDDEN
 62
     7
370
    18
100
AcDbLine
 10
168.4153510742
 20
122.0504935163
 30
0.0
 11
167.4239283912
 21
120.4004935252
 31
0.0
  0
LINE
  5
22B
330
1F
100
AcDbEntity
  8
0
  6
HIDDEN
 62
     7
370
    18
100
AcDbLine
 10
167.4239283912
 20
120.4004935252
 30
0.0
 11
168.4153510742
 21
118.7504935341
 31
0.0
  0
LINE
  5
22C
330
1F
100
AcDbEntity
  8
0
  6
HIDDEN
 62
     7
370
    18
100
AcDbLine
 10
178.6653494946
 20
108.801191699
 30
0.0
 11
178.6653494946
 21
109.8476385495
 31
0.0
  0
LINE
  5
22D
330
1F
100
AcDbEntity
  8
0
  6
HIDDEN
 62
     7
370
    18
100
AcDbLine
 10
176.1653481535
 20
109.8476385495
 30
0.0
 11
176.1653481535
 21
108.8012901864
 31
0.0
  0
LINE
  5
22E
330
1F
100
AcDbEntity
  8
0
  6
HIDDEN
 62
     7
370
    18
100
AcDbLine
 10
178.2992316894
 20
109.4815221413
 30
0.0
 11
200.4153488688
 21
109.4815221413
 31
0.0
  0
LINE
  5
22F
330
1F
100
AcDbEntity
  8
0
  6
HIDDEN
 62
     7
370
    18
100
AcDbLine
 10
200.4153488688
 20
111.9815223182
 30
0.0
 11
178.2992316894
 21
111.9815223182
 31
0.0
  0
LINE
  5
230
330
1F
100
AcDbEntity
  8
0
  6
HIDDEN
 62
     7
370
    18
100
AcDbLine
 10
175.4153503589
 20
109.4815221413
 30
0.0
 11
176.5314659588
 21
109.4815221413
 31
0.0
  0
LINE
  5
231
330
1F
100
AcDbEntity
  8
0
  6
HIDDEN
 62
     7
370
    18
100
AcDbLine
 10
176.5314659588
 20
111.9815223182
 30
0.0
 11
175.4153503589
 21
111.9815223182
 31
0.0
  0
LINE
  5
232
330
1F
100
AcDbEntity
  8
0
  6
HIDDEN
 62
     7
370
    18
100
AcDbLine
 10
175.4153503589
 20
111.9815223182
 30
0.0
 11
174.6642722301
 21
110.7315221133
 31
0.0
  0
LINE
  5
233
330
1F
100
AcDbEntity
  8
0
  6
HIDDEN
 62
     7
370
    18
100
AcDbLine
 10
174.6642722301
 20
110.7315221133
 30
0.0
 11
175.4153503589
 21
109.4815221413
 31
0.0
  0
LINE
  5
234
330
1F
100
AcDbEntity
  8
0
  6
HIDDEN
 62
     7
370
    18
100
AcDbLine
 10
178.6653494946
 20
111.6154054443
 30
0.0
 11
178.6653494946
 21
117.46138756
 31
0.0
  0
LINE
  5
235
330
1F
100
AcDbEntity
  8
0
  6
HIDDEN
 62
     7
370
    18
100
AcDbLine
 10
176.1653481535
 20
117.46138756
 30
0.0
 11
176.1653481535
 21
111.6154054443
 31
0.0
  0
DIMENSION
  5
236
330
1F
100
AcDbEntity
  8
VERMASSUNG
100
AcDbDimension
  2
_D
 10
84.7469373963
 20
74.9004930931
 30
0.0
 11
84.7469373963
 21
105.8688312438
 31
0.0
 70
   160
  1
HSK A %%c<>
 71
     2
 42
-1.0
  3
SLDDIMSTYLE0
100
AcDbAlignedDimension
 13
123.715349286
 23
137.9004930931
 33
0.0
 14
123.715349286
 24
74.9004930931
 34
0.0
 50
90.0
100
AcDbRotatedDimension
  0
DIMENSION
  5
243
330
1F
100
AcDbEntity
  8
VERMASSUNG
100
AcDbDimension
  2
_D_1
 10
183.415349286
 20
150.3940667551
 30
0.0
 11
153.415349286
 21
150.3940667551
 31
0.0
 70
   160
  1
<>
 71
     2
 42
-1.0
  3
SLDDIMSTYLE0
100
AcDbAlignedDimension
 13
123.415349286
 23
137.6004930931
 33
0.0
 14
183.415349286
 24
124.6004930931
 34
0.0
100
AcDbRotatedDimension
  0
DIMENSION
  5
24D
330
1F
100
AcDbEntity
  8
VERMASSUNG
100
AcDbDimension
  2
_D_2
 10
183.415349286
 20
150.5438428422
 30
0.0
 11
191.915349286
 21
150.5438428422
 31
0.0
 70
   160
  1
<>
 71
     2
 42
-1.0
  3
SLDDIMSTYLE0
100
AcDbAlignedDimension
 13
200.415349286
 23
113.6004930931
 33
0.0
 14
183.415349286
 24
124.6004930931
 34
0.0
100
AcDbRotatedDimension
  0
DIMENSION
  5
257
330
1F
100
AcDbEntity
  8
VERMASSUNG
100
AcDbDimension
  2
_D_3
 10
149.365349286
 20
144.3940667551
 30
0.0
 11
166.390349286
 21
144.3940667551
 31
0.0
 70
   160
  1
<>
 71
     2
 42
-1.0
  3
SLDDIMSTYLE0
100
AcDbAlignedDimension
 13
183.415349286
 23
124.6004930931
 33
0.0
 14
149.365349286
 24
136.2469334168
 34
0.0
100
AcDbRotatedDimension
  0
DIMENSION
  5
261
330
1F
100
AcDbEntity
  8
VERMASSUNG
100
AcDbDimension
  2
_D_4
 10
200.415349286
 20
156.3940667551
 30
0.0
 11
145.965349286
 21
156.3940667551
 31
0.0
 70
   160
  1
<>
 71
     2
 42
-1.0
  3
SLDDIMSTYLE0
100
AcDbAlignedDimension
 13
91.515349286
 23
126.0911708396
 33
0.0
 14
200.415349286
 24
113.6004930931
 34
0.0
100
AcDbRotatedDimension
  0
DIMENSION
  5
26B
330
1F
100
AcDbEntity
  8
VERMASSUNG
100
AcDbDimension
  2
_D_5
 10
220.6333341546
 20
98.4004930931
 30
0.0
 11
220.6333341546
 21
105.4473617986
 31
0.0
 70
   160
  1
%%c<>
 71
     2
 42
-1.0
  3
SLDDIMSTYLE0
100
AcDbAlignedDimension
 13
199.615349286
 23
114.4004930931
 33
0.0
 14
199.615349286
 24
98.4004930931
 34
0.0
 50
90.0
100
AcDbRotatedDimension
  0
DIMENSION
  5
276
330
1F
100
AcDbEntity
  8
VERMASSUNG
100
AcDbDimension
  2
_D_6
 10
226.6333341546
 20
87.4004930931
 30
0.0
 11
226.6333341546
 21
105.4473617986
 31
0.0
 70
   160
  1
%%c<>
 71
     2
 42
-1.0
  3
SLDDIMSTYLE0
100
AcDbAlignedDimension
 13
182.615349286
 23
125.4004930931
 33
0.0
 14
182.615349286
 24
87.4004930931
 34
0.0
 50
90.0
100
AcDbRotatedDimension
  0
LINE
  5
281
330
1F
100
AcDbEntity
  8
VERMASSUNG
  6
CENTERX2
 62
     7
370
    18
100
AcDbLine
 10
173.415349286
 20
110.7315221278
 30
0.0
 11
179.415349286
 21
110.7315221278
 31
0.0
  0
LINE
  5
282
330
1F
100
AcDbEntity
  8
VERMASSUNG
  6
CENTERX2
 62
     7
370
    18
100
AcDbLine
 10
89.3700454437
 20
106.4004930931
 30
0.0
 11
215.415349286
 21
106.4004930931
 31
0.0
  0
OLE2FRAME
  5
283
330
1F
100
AcDbEntity
  8
0
100
AcDbOle2Frame
 70
     2
  3
Paintbrush-Bild
 10
13.8511154363
 20
38.264191557
 30
0.0
 11
51.6290888628
 21
31.9806341108
 31
0.0
 71
     2
 72
     0
 73
     1
 90
    12928
310
80552BED0767C5B32B40DDAF6807D121434000000000000000006FFBDDFB85D0
310
4940DDAF6807D121434000000000000000006FFBDDFB85D04940416F4BD60AFB
310
3F4000000000000000002BED0767C5B32B40416F4BD60AFB3F40000000000000
310
0000000000000100000000010000010000000100000000000100000000320000
310
D0CF11E0A1B11AE1000000000000000000000000000000003E000300FEFF0900
310
0600000000000000000000000100000001000000000000000010000002000000
310
01000000FEFFFFFF0000000000000000FFFFFFFFFFFFFFFFFFFFFFFFFFFFFFFF
310
FFFFFFFFFFFFFFFFFFFFFFFFFFFFFFFFFFFFFFFFFFFFFFFFFFFFFFFFFFFFFFFF
310
FFFFFFFFFFFFFFFFFFFFFFFFFFFFFFFFFFFFFFFFFFFFFFFFFFFFFFFFFFFFFFFF
310
FFFFFFFFFFFFFFFFFFFFFFFFFFFFFFFFFFFFFFFFFFFFFFFFFFFFFFFFFFFFFFFF
310
FFFFFFFFFFFFFFFFFFFFFFFFFFFFFFFFFFFFFFFFFFFFFFFFFFFFFFFFFFFFFFFF
310
FFFFFFFFFFFFFFFFFFFFFFFFFFFFFFFFFFFFFFFFFFFFFFFFFFFFFFFFFFFFFFFF
310
FFFFFFFFFFFFFFFFFFFFFFFFFFFFFFFFFFFFFFFFFFFFFFFFFFFFFFFFFFFFFFFF
310
FFFFFFFFFFFFFFFFFFFFFFFFFFFFFFFFFFFFFFFFFFFFFFFFFFFFFFFFFFFFFFFF
310
FFFFFFFFFFFFFFFFFFFFFFFFFFFFFFFFFFFFFFFFFFFFFFFFFFFFFFFFFFFFFFFF
310
FFFFFFFFFFFFFFFFFFFFFFFFFFFFFFFFFFFFFFFFFFFFFFFFFFFFFFFFFFFFFFFF
310
FFFFFFFFFFFFFFFFFFFFFFFFFFFFFFFFFFFFFFFFFFFFFFFFFFFFFFFFFFFFFFFF
310
FFFFFFFFFFFFFFFFFFFFFFFFFFFFFFFFFFFFFFFFFFFFFFFFFFFFFFFFFFFFFFFF
310
FFFFFFFFFFFFFFFFFFFFFFFFFFFFFFFFFFFFFFFFFFFFFFFFFFFFFFFFFFFFFFFF
310
FFFFFFFFFFFFFFFFFFFFFFFFFFFFFFFFFFFFFFFFFFFFFFFFFFFFFFFFFFFFFFFF
310
FDFFFFFFFEFFFFFFFEFFFFFFFEFFFFFF05000000060000000700000008000000
310
090000000A0000000B0000000C0000000D0000000E0000000F00000010000000
310
11000000120000001300000014000000150000001600000017000000FEFFFFFF
310
FFFFFFFFFFFFFFFFFFFFFFFFFFFFFFFFFFFFFFFFFFFFFFFFFFFFFFFFFFFFFFFF
310
FFFFFFFFFFFFFFFFFFFFFFFFFFFFFFFFFFFFFFFFFFFFFFFFFFFFFFFFFFFFFFFF
310
FFFFFFFFFFFFFFFFFFFFFFFFFFFFFFFFFFFFFFFFFFFFFFFFFFFFFFFFFFFFFFFF
310
FFFFFFFFFFFFFFFFFFFFFFFFFFFFFFFFFFFFFFFFFFFFFFFFFFFFFFFFFFFFFFFF
310
FFFFFFFFFFFFFFFFFFFFFFFFFFFFFFFFFFFFFFFFFFFFFFFFFFFFFFFFFFFFFFFF
310
FFFFFFFFFFFFFFFFFFFFFFFFFFFFFFFFFFFFFFFFFFFFFFFFFFFFFFFFFFFFFFFF
310
FFFFFFFFFFFFFFFFFFFFFFFFFFFFFFFFFFFFFFFFFFFFFFFFFFFFFFFFFFFFFFFF
310
FFFFFFFFFFFFFFFFFFFFFFFFFFFFFFFFFFFFFFFFFFFFFFFFFFFFFFFFFFFFFFFF
310
FFFFFFFFFFFFFFFFFFFFFFFFFFFFFFFFFFFFFFFFFFFFFFFFFFFFFFFFFFFFFFFF
310
FFFFFFFFFFFFFFFFFFFFFFFFFFFFFFFFFFFFFFFFFFFFFFFFFFFFFFFFFFFFFFFF
310
FFFFFFFFFFFFFFFFFFFFFFFFFFFFFFFFFFFFFFFFFFFFFFFFFFFFFFFFFFFFFFFF
310
FFFFFFFFFFFFFFFFFFFFFFFFFFFFFFFFFFFFFFFFFFFFFFFFFFFFFFFFFFFFFFFF
310
FFFFFFFFFFFFFFFFFFFFFFFFFFFFFFFFFFFFFFFFFFFFFFFFFFFFFFFFFFFFFFFF
310
52006F006F007400200045006E00740072007900000000000000000000000000
310
0000000000000000000000000000000000000000000000000000000000000000
310
16000500FFFFFFFFFFFFFFFF020000000A00030000000000C000000000000046
310
000000000000000000000000D00E6DCA30A7D30103000000C000000000000000
310
01004F006C006500000000000000000000000000000000000000000000000000
310
0000000000000000000000000000000000000000000000000000000000000000
310
0A000200FFFFFFFFFFFFFFFFFFFFFFFF00000000000000000000000000000000
310
0000000000000000000000000000000000000000000000001400000000000000
310
010043006F006D0070004F0062006A0000000000000000000000000000000000
310
0000000000000000000000000000000000000000000000000000000000000000
310
120002010100000003000000FFFFFFFF00000000000000000000000000000000
310
0000000000000000000000000000000000000000010000004D00000000000000
310
01004F006C006500310030004E00610074006900760065000000000000000000
310
0000000000000000000000000000000000000000000000000000000000000000
310
1A000200FFFFFFFFFFFFFFFFFFFFFFFF00000000000000000000000000000000
310
0000000000000000000000000000000000000000040000002426000000000000
310
FEFFFFFF02000000FEFFFFFFFFFFFFFFFFFFFFFFFFFFFFFFFFFFFFFFFFFFFFFF
310
FFFFFFFFFFFFFFFFFFFFFFFFFFFFFFFFFFFFFFFFFFFFFFFFFFFFFFFFFFFFFFFF
310
FFFFFFFFFFFFFFFFFFFFFFFFFFFFFFFFFFFFFFFFFFFFFFFFFFFFFFFFFFFFFFFF
310
FFFFFFFFFFFFFFFFFFFFFFFFFFFFFFFFFFFFFFFFFFFFFFFFFFFFFFFFFFFFFFFF
310
FFFFFFFFFFFFFFFFFFFFFFFFFFFFFFFFFFFFFFFFFFFFFFFFFFFFFFFFFFFFFFFF
310
FFFFFFFFFFFFFFFFFFFFFFFFFFFFFFFFFFFFFFFFFFFFFFFFFFFFFFFFFFFFFFFF
310
FFFFFFFFFFFFFFFFFFFFFFFFFFFFFFFFFFFFFFFFFFFFFFFFFFFFFFFFFFFFFFFF
310
FFFFFFFFFFFFFFFFFFFFFFFFFFFFFFFFFFFFFFFFFFFFFFFFFFFFFFFFFFFFFFFF
310
FFFFFFFFFFFFFFFFFFFFFFFFFFFFFFFFFFFFFFFFFFFFFFFFFFFFFFFFFFFFFFFF
310
FFFFFFFFFFFFFFFFFFFFFFFFFFFFFFFFFFFFFFFFFFFFFFFFFFFFFFFFFFFFFFFF
310
FFFFFFFFFFFFFFFFFFFFFFFFFFFFFFFFFFFFFFFFFFFFFFFFFFFFFFFFFFFFFFFF
310
FFFFFFFFFFFFFFFFFFFFFFFFFFFFFFFFFFFFFFFFFFFFFFFFFFFFFFFFFFFFFFFF
310
FFFFFFFFFFFFFFFFFFFFFFFFFFFFFFFFFFFFFFFFFFFFFFFFFFFFFFFFFFFFFFFF
310
FFFFFFFFFFFFFFFFFFFFFFFFFFFFFFFFFFFFFFFFFFFFFFFFFFFFFFFFFFFFFFFF
310
FFFFFFFFFFFFFFFFFFFFFFFFFFFFFFFFFFFFFFFFFFFFFFFFFFFFFFFFFFFFFFFF
310
FFFFFFFFFFFFFFFFFFFFFFFFFFFFFFFFFFFFFFFFFFFFFFFFFFFFFFFFFFFFFFFF
310
0100000200000000000000000000000000000000000000000000000000000000
310
0000000000000000000000000000000000000000000000000000000000000000
310
0100FEFF030A0000FFFFFFFF0A00030000000000C00000000000004607000000
310
5042727573680007000000504272757368000700000050427275736800F439B2
310
7100000000000000000000000000000000000000000000000000000000000000
310
0000000000000000000000000000000000000000000000000000000000000000
310
0000000000000000000000000000000000000000000000000000000000000000
310
0000000000000000000000000000000000000000000000000000000000000000
310
0000000000000000000000000000000000000000000000000000000000000000
310
0000000000000000000000000000000000000000000000000000000000000000
310
0000000000000000000000000000000000000000000000000000000000000000
310
0000000000000000000000000000000000000000000000000000000000000000
310
0000000000000000000000000000000000000000000000000000000000000000
310
0000000000000000000000000000000000000000000000000000000000000000
310
0000000000000000000000000000000000000000000000000000000000000000
310
0000000000000000000000000000000000000000000000000000000000000000
310
20260000424D0E260000000000003E00000028000000B40200006E0000000100
310
01000000000000000000130B0000130B00000200000002000000000000FFFFFF
310
FFFFFFFFFFFFFFFFFFFFFFFFFFFFFFFFFFFFFFFFFFFFFFFFFFFFFFFFFFFFFFFF
310
FFFFFFFFFFFFFFFFFFFFFFFFFFFFFFFFFFFFFFFFFFFFFFFFFFFFFFFFFFFFFFFF
310
FFFFFFFFFFFFFFFFFFFFFFFFFFFFFFFFFFFFFFFFFFFFFFFFF000FFFFFFFFFFFF
310
FFFFFFFFFFFFFFFFFFFFFFFFFFFFFFFFFFFFFFFFFFFFFFFFFFFFFFFFFFFFFFFF
310
FFFFFFFFFFFFFFFFFFFFFFFFFFFFFFFFFFFFFFFFFFFFFFFFFFFFFFFFFFFFFFFF
310
FFFFFFFFFFFFFFFFFFFFFFFFFFFFFFFFF000FFFFFFFFFFFFFFFFFFFFFFFFFFFF
310
FFFFFFFFFFFFFFFFFFFFFFFFFFFFFFFFFFFFFFFFFFFFFFFFFFFFFFFFFFFFFFFF
310
FFFFFFFFFFFFFFFFFFFFFFFFFFFFFFFFFFFFFFFFFFFFFFFFFFFFFFFFFFFFFFFF
310
FFFFFFFFFFFFFFFFF000FFFFFFFFFFFFFFFFFFFFFFFFFFFFFFFFFFFFFFFFFFFF
310
FFFFFFFFFFFFFFFFFFFFFFFFFFFFFFFFFFFFFFFFFFFFFFFFFFFFFFFFFFFFFFFF
310
FFFFFFFFFFFFFFFFFFFFFFFFFFFFFFFFFFFFFFFFFFFFFFFFFFFFFFFFFFFFFFFF
310
F000FFFFFFFFFFFFFFFFFFFFFFFFFFFFFFFFFFFFFFFFFFFFFFFFFFFFFFFFFFFF
310
FFFFFFFFFFFFFFFFFFFFFFFFFFFFFFFFFFFFFFFFFFFFFFFFFFFFFFFFFFFFFFFF
310
FFFFFFFFFFFFFFFFFFFFFFFFFFFFFFFFFFFFFFFFFFFFFFFFF000FFFFFFFFFFFF
310
FFFFFFFFFFFFFFFFFFFFFFFFFFFFFFFFFFFFFFFFFFFFFFFFFFFFFFFFFFFFFFFF
310
FFFFFFFFFFFFFFFFFFFFFFFFFFFFFFFFFFFFFFFFFFFFFFFFFFFFFFFFFFFFFFFF
310
FFFFFFFFFFFFFFFFFFFFFFFFFFFFFFFFF000FFFFFFFFFFFFFFFFFFFFFFFFFFFF
310
FFFFFFFFFFFFFFFFFFFFFFFFFFFFFFFFFFFFFFFFFFFFFFFFFFFFFFFFFFFFFFFF
310
FFFFFFFFFFFFFFFFFFFFFFFFFFFFFFFFFFFFFFFFFFFFFFFFFFFFFFFFFFFFFFFF
310
FFFFFFFFFFFFFFFFF000FFFFFFFFFFFFFFFFFFFFFFFFFFFFFFFFFFFFFFFFFFFF
310
FFFFFFFFFFFFFFFFFFFFFFFFFFFFFFFFFFFFFFFFFFFFFFFFFFFFFFFFFFFFFFFF
310
FFFFFFFFFFFFFFFFFFFFFFFFFFFFFFFFFFFFFFFFFFFFFFFFFFFFFFFFFFFFFFFF
310
F000FFFFFFFFFFFFFFFFFFFFFFFFFFFFFFFFFFFFFFFFFFFFFFFFFFFFFFFFFFFF
310
FFFFFFFFFFFFFFFFFFFFFFFFFFFFFFFFFFFFFFFFFFFFFFFFFFFFFFFFFFFFFFFF
310
FFFFFFFFFFFFFFFFFFFFFFFFFFFFFFFFFFFFFFFFFFFFFFFFF000FFFFFFFFFFFF
310
FFFFFFFFFFFFFFFFFFFFFFFFFFFFFFFFFFFFFFFFFFFFFFFFFFFFFFFFFFFFFFFF
310
FFFFFFFFFFFFFFFFFFFFFFFFFFFFFFFFFFFFFFFFFFFFFFFFFFFFFFFFFFFFFFFF
310
FFFFFFFFFFFFFFFFFFFFFFFFFFFFFFFFF000FFFFFFFFFFFFFFFFFFFFFFFFFFFF
310
FFFFFFFFFFFFFFFFFFFFFFFFFFFFFFFFFFFFFFFFFFFFFFFFFFFFFFFFFFFFFFFF
310
FFFFFFFFFFFFFFFFFFFFFFFFFFFFFFFFFFFFFFFFFFFFFFFFFFFFFFFFFFFFFFFF
310
FFFFFFFFFFFFFFFFF000FFFFFFFFFFFFFFFFFFFFFFFFFFFFFFFFFFFFFFFFFFFF
310
FFFFFFFFFFFFFFFFFFFFFFFFFFFFFFFFFFFFFFFFFFFFFFFFFFFFFFFFFFFFFFFF
310
FFFFFFFFFFFFFFFFFFFFFFFFFFFFFFFFFFFFFFFFFFFFFFFFFFFFFFFFFFFFFFFF
310
F000FFFFFFFFFFFFFFFFFFFFFFFFFFFFFFFFFFFFFFFFFFFFFFFFFFFFFFFFFFFF
310
FFFFFFFFFFFFFFFFFFFFFFFFFFFFFFFFFFFFFFFFFFFFFFFFFFFFFFFFFFFFFFFF
310
FFFFFFFFFFFFFFFFFFFFFFFFFFFFFFFFFFFFFFFFFFFFFFFFF000FFFFFFFFFFFF
310
FFFFFFFFFFFFFFFFFFFFFFFFFFFFFFFFFFFFFFFFFFFFFFFFFFFFFFFFFFFFFFFF
310
FFFFFFFFFFFFFFFFFFFFFFFFFFFFFFFFFFFFFFFFFFFFFFFFFFFFFFFFFFFFFFFF
310
FFFFFFFFFFFFFFFFFFFFFFFFFFFFFFFFF000FFFFFFFFFFFFFFFFFFFFFFFFFFFF
310
FFFFFFFFFFFFFFFFFFFFFFFFFFFFFFFFFFFFFFFFFFFFFFFFFFFFFFFFFFFFFFFF
310
FFFFFFFFFFFFFFFFFFFFFFFFFFFFFFFFFFFFFFFFFFFFFFFFFFFFFFFFFFFFFFFF
310
FFFFFFFFFFFFFFFFF000FFFFFFFFFFFFFFFFFFFFFFFFFFFFFFFFFFFFFFFFFFFF
310
FFFFFFFFFFFFFFFFFFFFFFFFFFFFFFFFFFFFFFFFFFFFFFFFFFFFFFFFFFFFFFFF
310
FFFFFFFFFFFFFFFFFFFFFFFFFFFFFFFFFFFFFFFFFFFFFFFFFFFFFFFFFFFFFFFF
310
F000FFFFFFFFFFFFFFFFFFFFFFFFFFFFFFFFFFFFFFFFFFFFFFFFFFFFFFFFFFFF
310
FFFFFFFFFFFFFFFFFFFFFFFFFFFFFFFFFFFFFFFFFFFFFFFFFFFFFFFFFFFFFFFF
310
FFFFFFFFFFFFFFFFFFFFFFFFFFFFFFFFFFFFFFFFFFFFFFFFF000FFFFFFFFFFFF
310
FFFFFFFFFFFFFFFFFFFFFFFFFFFFFFFFFFFFFFFFFFFFFFFFFFFFFFFFFFFFFFFF
310
FFFFFFFFFFFFFFFFFFFFFFFFFFFFFFFFFFFFFFFFFFFFFFFFFFFFFFFFFFFFFFFF
310
FFFFFFFFFFFFFFFFFFFFFFFFFFFFFFFFF000FFFFFFFFFFFFFFFFFFFFFFFFFFFF
310
FFFFFFFFFFFFFFFFFFFFFFFFFFFFFFFFFFFFFFFFFFFFFFFFFFFFFFFFFFFFFFFF
310
FFFFFFFFFFFFFFFFFFFFFFFFFFFFFFFFFFFFFFFFFFFFFFFFFFFFFFFFFFFFFFFF
310
FFFFFFFFFFFFFFFFF000FFFFF80003FFFFFFFFFFFFFFFFFFFFFFFFFFFFFFFFFF
310
FFFFF00007FFFFFFFFFF00007FFFFFF800000000000000007FFFFFFFFFFFFFFF
310
FFFFFFFC001FFFFFFFFFFFFFFC001FFFFFFFFFFFFFFFFFFFFFFFFFFE0007FFFF
310
F000FFFF8000007FFFFFFFF8000FFFFFC0007FFFFF80007FFFFF0000007FFFFF
310
FFF8000007FFFFF800000000000000007FFFFFF0001FFFFFFFFFFFC00001FFFF
310
FFFFFFFFC00001FFFFFFFF000000000003FFFFE000007FFFF000FFFE0000000F
310
FFFFFFF0000FFFFF80007FFFFF80007FFFFC0000001FFFFFFFC0000001FFFFF8
310
00000000000000007FFFFFF0001FFFFFFFFFFE0000003FFFFFFFFFFE0000003F
310
FFFFFF000000000003FFFF0000000FFFF000FFF800000003FFFFFFF00007FFFF
310
80007FFFFF80007FFFF000000007FFFFFF000000003FFFF80000000000000000
310
7FFFFFF0001FFFFFFFFFF80000000FFFFFFFFFF80000000FFFFFFF0000000000
310
03FFFC00000003FFF000FFE000000000FFFFFFF00007FFFF80003FFFFF80007F
310
FFC000000001FFFFFC000000001FFFF800000000000000007FFFFFF0001FFFFF
310
FFFFE000000003FFFFFFFFE000000003FFFFFF000000000003FFF000000000FF
310
F000FF80000000007FFFFFF00007FFFF80003FFFFF80007FFF8000000000FFFF
310
F80000000007FFF800000000000000007FFFFFF0001FFFFFFFFFC000000001FF
310
FFFFFFC000000001FFFFFF000000000003FFC0000000007FF000FF0000000000
310
3FFFFFE00007FFFF00003FFFFF80007FFE00000000003FFFF00000000003FFF8
310
00000000000000007FFFFFF0001FFFFFFFFF8000000000FFFFFFFF8000000000
310
FFFFFF000000000003FF80000000003FF000FE00000000001FFFFFE00003FFFF
310
00003FFFFF80007FFC00000000001FFFE00000000001FFF8000001FFFE000000
310
7FFFFFF0001FFFFFFFFE00000000003FFFFFFE00000000003FFFFF0000000000
310
03FF00000000001FF000FC00000000000FFFFFE00003FFFF00001FFFFF80007F
310
F800000000001FFFC00000000000FFF8000001FFFE0000007FFFFFF0001FFFFF
310
FFFC00000000001FFFFFFC00000000001FFFFF000000000003FE00000000000F
310
F000F8000000000007FFFFE00003FFFF00001FFFFF80007FF800000000000FFF
310
800000000000FFF8000001FFFE0000007FFFFFF0001FFFFFFFF800000000000F
310
FFFFF800000000000FFFFF000000000003FC000000000007F000F80000000000
310
03FFFFC00003FFFE00001FFFFF80007FF0000000000007FF0000000000007FF8
310
000001FFFE0000007FFFFFF0001FFFFFFFF0000000000007FFFFF00000000000
310
07FFFF000000000003F8000000000003F000F0000000000003FFFFC00001FFFE
310
00001FFFFF80007FE0000000000007FE0000000000003FF8000001FFFE000000
310
7FFFFFF0001FFFFFFFF0000000000007FFFFF0000000000007FFFF0000000000
310
03F800001F800003F000E00001FFF00001FFFFC00001FFFE00000FFFFF80007F
310
E00001FFE00003FE00001FFF00003FF8000001FFFE0000007FFFFFF0001FFFFF
310
FFE000003E000003FFFFE000003E000003FFFF000000000003F00001FFF80001
310
F000E00007FFFC0001FFFFC00001FFFE00000FFFFF80007FC0000FFFFC0003FC
310
0000FFFFC0001FF8000001FFFE0000007FFFFFF0001FFFFFFFC00003FFE00001
310
FFFFC00003FFE00001FFFF0001FFFFFFFFF00007FFFE0001F000E0000FFFFF00
310
00FFFF800001FFFC00000FFFFF80007FC0001FFFFE0001FC0001FFFFE0001FF8
310
000001FFFE0000007FFFFFF0001FFFFFFF80000FFFF80000FFFF80000FFFF800
310
00FFFF0003FFFFFFFFE0000FFFFF8000F000C0003FFFFF8000FFFF800000FFFC
310
000007FFFF80007F80003FFFFF0001FC0003FFFFF0001FF8000001FFFE000000
310
7FFFFFF0001FFFFFFF80003FFFFE0000FFFF80003FFFFE0000FFFF0003FFFFFF
310
FFE0003FFFFF8000F000C0003FFFFF8000FFFF800000FFFC000007FFFF80007F
310
80007FFFFF8001F80007FFFFF8000FF8000001FFFE0000007FFFFFF0001FFFFF
310
FF00007FFFFF00007FFF00007FFFFF00007FFF0003FFFFFFFFE0003FFFFFC000
310
F000C0007FFFFFC000FFFF000000FFFC000007FFFF80007F8000FFFFFF8000F8
310
000FFFFFF8000FF8000001FFFE0000007FFFFFF0001FFFFFFF0000FFFFFF8000
310
7FFF0000FFFFFF80007FFF0003FFFFFFFFC0007FFFFFC00070008000FFFFFFC0
310
00FFFF000000FFF8000007FFFF80007F8000FFFFFF8000F8000FFFFFF8000FF8
310
000001FFFE0000007FFFFFF0001FFFFFFE0001FFFFFFC0003FFE0001FFFFFFC0
310
003FFF0003FFFFFFFFC0007FFFFFE00070008000FFFFFFC0007FFF0000007FF8
310
000003FFFF80007F0001FFFFFF8000F8000FFFFFF8000FF8000001FFFE000000
310
7FFFFFF0001FFFFFFE0001FFFFFFC0003FFE0001FFFFFFC0003FFF0003FFFFFF
310
FFC000FFFFFFE00070008000FFFFFFC0007FFF0000007FF8000003FFFF80007F
310
0001FFFFFF8000F8001FFFFFF8000FF8000001FFFE0000007FFFFFF0001FFFFF
310
FE0003FFFFFFE0003FFE0003FFFFFFE0003FFF0003FFFFFFFFC000FFFFFFE000
310
70008000FFFFFFC0007FFE0000007FF8000003FFFF80007F0001FFFFFF8000F0
310
001FFFFFF8000FF8000001FFFE0000007FFFFFF0001FFFFFFC0003FFFFFFE000
310
1FFC0003FFFFFFE0001FFF0003FFFFFFFFC000FFFFFFC00070008000FFFFFF80
310
007FFE0000007FF0000003FFFF80007F0001FFFFFF0000F0001FFFFFF8000FF8
310
000001FFFE0000007FFFFFF0001FFFFFFC0007FFFFFFF0001FFC0007FFFFFFF0
310
001FFF0003FFFFFFFFC000FFFFFFC00070008001FFFFFF0000FFFE0000003FF0
310
000001FFFF80007F0001FFFFFF0000F8001FFFFFF0000FF8000001FFFE000000
310
7FFFFFF0001FFFFFFC0007FFFFFFF0001FFC0007FFFFFFF0001FFF0003FFFFFF
310
FFC001FFFFFF80007000FFFFFFFFFE0000FFFE0008003FF0008001FFFF80007F
310
FFFFFFFFFC0000FFFFFFFFFFE0000FF8000001FFFE0000007FFFFFF0001FFFFF
310
F8000FFFFFFFF8000FF8000FFFFFFFF8000FFF0003FFFFFFFFFFFFFFFFFF0000
310
7000FFFFFFFFFC0000FFFC0008003FF0008001FFFF80007FFFFFFFFFF80001FF
310
FFFFFFFF80000FF8000001FFFE0000007FFFFFF0001FFFFFF8000FFFFFFFF800
310
0FF8000FFFFFFFF8000FFF0003FFFFFFFFFFFFFFFFFE0000F000FFFFFFFFE000
310
00FFFC000C003FE000C001FFFF80007FFFFFFFFFC00001FFFFFFFFFE00001FF8
310
000001FFFE0000007FFFFFF0001FFFFFF8000FFFFFFFF8000FF8000FFFFFFFF8
310
000FFF0003FFFFFFFFFFFFFFFFF00000F000FFFFFFFE000001FFFC000C001FE0
310
00C000FFFF80007FFFFFFFFE000001FFFFFFFFE000001FF80FFFFFFFFFFFFFC0
310
7FFFFFF0001FFFFFF8000FFFFFFFF8000FF8000FFFFFFFF8000FFF0003FFFFFF
310
FFFFFFFFFF800000F000FFFFFFC0000001FFFC001C001FE001C000FFFF80007F
310
FFFFFF80000003FFFFFFF80000001FF80FFFFFFFFFFFFFC07FFFFFF0001FFFFF
310
F8001FFFFFFFFC000FF8001FFFFFFFFC000FFF0003FFFFFFFFFFFFFFF0000001
310
F000FFFFF800000001FFF8001C001FE001C000FFFF80007FFFFFF800000003FF
310
FFFF800000003FF80FFFFFFFFFFFFFC07FFFFFF0001FFFFFF8001FFFFFFFFC00
310
0FF8001FFFFFFFFC000FFF0003FFFFFFFFFFFFFE00000001F000FFFFC0000000
310
03FFF8001E001FC001E000FFFF80007FFFFF8000000007FFFFFC000000003FF8
310
0FFFFFFFFFFFFFC07FFFFFF0001FFFFFF8001FFFFFFFFC000FF8001FFFFFFFFC
310
000FFF0003FFFFFFFFFFFFE000000003F000FFFE0000000007FFF8001E000FC0
310
01E0007FFF80007FFFFE0000000007FFFFE0000000007FF80FFFFFFFFFFFFFC0
310
7FFFFFF0001FFFFFF0001FFFFFFFFC0007F0001FFFFFFFFC0007FF0003FFFFFF
310
FFFFFF0000000003F000FFF80000000007FFF8001E000FC003E0007FFF80007F
310
FFF0000000000FFFFF8000000000FFF80FFFFFFFFFFFFFC07FFFFFF0001FFFFF
310
F0001FFFFFFFFC0007F0001FFFFFFFFC0007FF0003FFFFFFFFFFFC0000000007
310
F000FFE0000000000FFFF0003E000FC003E0007FFF80007FFFC0000000001FFF
310
FE0000000001FFF80FFFFFFFFFFFFFC07FFFFFF0001FFFFFF0001FFFFFFFFC00
310
07F0001FFFFFFFFC0007FF0003FFFFFFFFFFF0000000000FF000FFC000000000
310
1FFFF0003F000F8003F0003FFF80007FFF80000000003FFFF80000000003FFF8
310
0FFFFFFFFFFFFFC07FFFFFF0001FFFFFF0001FFFFFFFFC0007F0001FFFFFFFFC
310
0007FF0003FFFFFFFFFFE0000000001FF000FF00000000007FFFF0003F000780
310
03F0003FFF80007FFF00000000007FFFF00000000007FFF80FFFFFFFFFFFFFC0
310
7FFFFFF0001FFFFFF0001FFFFFFFFC0007F0001FFFFFFFFC0007FF0003FFFFFF
310
FFFF80000000007FF000FE0000000000FFFFE0003F00078007F0003FFF80007F
310
FE0000000001FFFFE0000000001FFFF80FFFFFFFFFFFFFC07FFFFFF0001FFFFF
310
F0001FFFFFFFFC0007F0001FFFFFFFFC0007FF0003FFFFFFFFFF0000000000FF
310
F000FC0000000003FFFFE0007F00078007F0003FFF80007FFC0000000007FFFF
310
C0000000007FFFF80FFFFFFFFFFFFFC07FFFFFF0001FFFFFF8001FFFFFFFFC00
310
0FF8001FFFFFFFFC000FFF0003FFFFFFFFFE0000000003FFF000FC000000000F
310
FFFFE0007F80070007F8001FFF80007FF8000000001FFFFF8000000001FFFFF8
310
0FFFFFFFFFFFFFC07FFFFFF0001FFFFFF8001FFFFFFFFC000FF8001FFFFFFFFC
310
000FFF0003FFFFFFFFFC000000000FFFF000F8000000007FFFFFE0007F800700
310
07F8001FFF80007FF000000000FFFFFF800000000FFFFFF80FFFFFFFFFFFFFC0
310
7FFFFFF0001FFFFFF8000FFFFFFFF8000FF8000FFFFFFFF8000FFF0003FFFFFF
310
FFFC000000007FFFF000F800000007FFFFFFC0007F8003000FF8001FFF80007F
310
F000000007FFFFFF000000007FFFFFF80FFFFFFFFFFFFFC07FFFFFF0001FFFFF
310
F8000FFFFFFFF8000FF8000FFFFFFFF8000FFF0003FFFFFFFFF80000000FFFFF
310
F000F0000000FFFFFFFFC000FF8003000FF8001FFF80007FE0000000FFFFFFFF
310
0000000FFFFFFFF8000001FFFE0000007FFFFFF0001FFFFFF8000FFFFFFFF800
310
0FF8000FFFFFFFF8000FFF0003FFFFFFFFF8000000FFFFFFF000F000000FFFFF
310
FFFFC000FFC002000FF8000FFF80007FE000001FFFFFFFFE000001FFFFFFFFF8
310
000001FFFE0000007FFFFFF0001FFFFFF8000FFFFFFFF8000FF8000FFFFFFFF8
310
000FFF0003FFFFFFFFF000001FFFFFFFF000E00000FFFFFFFFFFC000FFC00200
310
0FFC000FFF80007FE00001FFFFFFFFFE00001FFFFFFFFFF8000001FFFE000000
310
7FFFFFF0001FFFFFFC000FFFFFFFF8001FFC000FFFFFFFF8001FFF0003FFFFFF
310
FFF00001FFFFFFFFF000E00007FFFFFFFFFF8000FFC000001FFC000FFF80007F
310
C0000FFFFFFFFFFE0000FFFFFFFFFFF8000001FFFE0000007FFFFFF0001FFFFF
310
FC0007FFFFFFF0001FFC0007FFFFFFF0001FFF0003FFFFFFFFF00007FFFFFFFF
310
F000E0001FFFFFFFFFFF8000FFC000001FFC000FFF80007FC0003FFFFFFFFFFE
310
0001FFFFFFFFFFF8000001FFFE0000007FFFFFF0001FFFFFFC0007FFFFFFF000
310
1FFC0007FFFFFFF0001FFF0003FFFFFFFFF0001FFFFFFFFFF000E0003FFFFF00
310
03FF8001FFE000001FFC0007FF80007FC0007FFFFF0007FC0003FFFFF0003FF8
310
000001FFFE0000007FFFFFF0001FFFFFFC0003FFFFFFE0001FFC0003FFFFFFE0
310
001FFF0003FFFFFFFFF0003FFFFFFFFFF000E0003FFFFF0001FF8001FFE00000
310
1FFE0007FF80007FC0007FFFFE0003FC0007FFFFE0003FF8000001FFFE000000
310
7FFFFFF0001FFFFFFE0003FFFFFFE0003FFE0003FFFFFFE0003FFF0003FFFFFF
310
FFF0003FFFFF8001F000E0003FFFFF0001FF0001FFE000001FFE0007FF80007F
310
C0007FFFFE0003FC0007FFFFE0003FF8000001FFFE0000007FFFFFF0001FFFFF
310
FE0001FFFFFFC0003FFE0001FFFFFFC0003FFF0003FFFFFFFFF0003FFFFF0001
310
F000E0003FFFFF0003FF0001FFE000003FFE0007FF80007FC0007FFFFE0003FC
310
0007FFFFE0003FF8000001FFFE0000007FFFFFF0001FFFFFFF0001FFFFFFC000
310
7FFF0001FFFFFFC0007FFF0003FFFFFFFFF0003FFFFF0001F000E0003FFFFE00
310
03FF0003FFF000003FFE0003FF80007FC0007FFFFC0003FE0007FFFFE0003FF8
310
000001FFFE0000007FFFFFF0001FFFFFFF0000FFFFFF80007FFF0000FFFFFF80
310
007FFF0003FFFFFFFFF0003FFFFF0001F000E0003FFFFE0003FF0003FFF00000
310
3FFF0003FF80007FC0007FFFFC0007FE0007FFFFC0003FF8000001FFFE000000
310
7FFFFFF0001FFFFFFF80007FFFFF0000FFFF80007FFFFF0000FFFF0003FFFFFF
310
FFF0003FFFFF0003F000E0003FFFFC0003FE0003FFF000003FFF0003FF80007F
310
E0003FFFF80007FE0003FFFFC0007FF8000001FFFE0000007FFFFFF0001FFFFF
310
FF80003FFFFE0000FFFF80003FFFFE0000FFFF0003FFFFFFFFF0001FFFFE0003
310
F000F0001FFFF80003FE0003FFF000007FFF0001FF80007FE0003FFFF00007FE
310
0001FFFF80007FF8000001FFFE0000007FFFFFF0001FFFFFFFC0000FFFF80001
310
FFFFC0000FFFF80001FFFF0003FFFFFFFFF0001FFFFC0003F000F0000FFFF000
310
07FE0007FFF800007FFF0001FF80007FE0001FFFE00007FF0000FFFE00007FF8
310
000001FFFE0000007FFFFFF0001FFFFFFFC00003FFE00001FFFFC00003FFE000
310
01FFFF0003FFFFFFFFF8000FFFF80003F000F00003FFC00007FC0007FFF80000
310
7FFF8001FF80007FF00007FF80000FFF00007FF80000FFF8000001FFFE000000
310
7F80000000000001FFE000003E000003FFFFE000003E000003FFFF0003FFFFFF
310
FFF80003FFE00007F000F800000000000FFC0007FFF800007FFF8001FF80007F
310
F000000000000FFF000000000000FFF8000001FFFE0000007F80000000000001
310
FFF0000000000007FFFFF0000000000007FFFF0003FFFFFFFFFC00007E000007
310
F000F800000000000FFC0007FFF80000FFFF8000FF80007FF800000000001FFF
310
800000000001FFF8000001FFFE0000007F80000000000001FFF800000000000F
310
FFFFF800000000000FFFFF0003FFFFFFFFFC00000000000FF000FC0000000000
310
1FFC0007FFFC0000FFFF8000FF80007FF800000000003FFFC00000000001FFF8
310
000001FFFE0000007F80000000000001FFF800000000000FFFFFF80000000000
310
0FFFFF0003FFFFFFFFFE00000000001FF000FE00000000003FF8000FFFFC0000
310
FFFF8000FF80007FFC00000000003FFFC00000000003FFF8000001FFFE000000
310
7F80000000000001FFFC00000000001FFFFFFC00000000001FFFFF0003FFFFFF
310
FFFF00000000001FF000FF00000000003FF8000FFFFC0000FFFFC000FF80007F
310
FE00000000007FFFE00000000007FFF8000001FFFE0000007F80000000000001
310
FFFE00000000003FFFFFFE00000000003FFFFF0003FFFFFFFFFF80000000003F
310
F000FF80000000007FF8000FFFFC0001FFFFC0007F80007FFF0000000000FFFF
310
F0000000000FFFF800000000000000007F80000000000001FFFF8000000000FF
310
FFFFFF8000000000FFFFFF0003FFFFFFFFFFC0000000007FF000FFC000000000
310
FFF8000FFFFE0001FFFFC0007F80007FFF8000000001FFFFF8000000001FFFF8
310
00000000000000007F80000000000001FFFFC000000001FFFFFFFFC000000001
310
FFFFFF0003FFFFFFFFFFE000000000FFF000FFE000000003FFF0001FFFFE0001
310
FFFFC0007F80007FFFC000000007FFFFFE000000003FFFF80000000000000000
310
7F80000000000001FFFFE000000003FFFFFFFFE000000003FFFFFF0003FFFFFF
310
FFFFF000000003FFF000FFF80000000FFFF0001FFFFE0001FFFFE0007F80007F
310
FFF00000000FFFFFFF00000000FFFFF800000000000000007F80000000000001
310
FFFFF80000000FFFFFFFFFF80000000FFFFFFF0003FFFFFFFFFFFC0000000FFF
310
F000FFFE0000003FFFF0001FFFFE0003FFFFE0003F80007FFFFC0000003FFFFF
310
FFC0000003FFFFF800000000000000007F80000000000001FFFFFE0000003FFF
310
FFFFFFFE0000003FFFFFFF0003FFFFFFFFFFFF0000003FFFF000FFFF800000FF
310
FFF0001FFFFF0003FFFFE0003F80007FFFFF000001FFFFFFFFF800001FFFFFF8
310
00000000000000007F80000000000001FFFFFFC00001FFFFFFFFFFFFC00001FF
310
FFFFFF0003FFFFFFFFFFFFC00000FFFFF000FFFFF8000FFFFFFFFFFFFFFFFFFF
310
FFFFFFFFFFFFFFFFFFFFF0001FFFFFFFFFFF0000FFFFFFF80000000000000000
310
7FFFFFFFFFFFFFFFFFFFFFFC001FFFFFFFFFFFFFFC001FFFFFFFFFFFFFFFFFFF
310
FFFFFFFC001FFFFFF000FFFFFFFFFFFFFFFFFFFFFFFFFFFFFFFFFFFFFFFFFFFF
310
FFFFFFFFFFFFFFFFFFFFFFFFFFFFFFFFFFFFFFFFFFFFFFFFFFFFFFFFFFFFFFFF
310
FFFFFFFFFFFFFFFFFFFFFFFFFFFFFFFFFFFFFFFFFFFFFFFFFFFFFFFFFFFFFFFF
310
F000FFFFFFFFFFFFFFFFFFFFFFFFFFFFFFFFFFFFFFFFFFFFFFFFFFFFFFFFFFFF
310
FFFFFFFFFFFFFFFFFFFFFFFFFFFFFFFFFFFFFFFFFFFFFFFFFFFFFFFFFFFFFFFF
310
FFFFFFFFFFFFFFFFFFFFFFFFFFFFFFFFFFFFFFFFFFFFFFFFF000FFFFFFFFFFFF
310
FFFFFFFFFFFFFFFFFFFFFFFFFFFFFFFFFFFFFFFFFFFFFFFFFFFFFFFFFFFFFFFF
310
FFFFFFFFFFFFFFFFFFFFFFFFFFFFFFFFFFFFFFFFFFFFFFFFFFFFFFFFFFFFFFFF
310
FFFFFFFFFFFFFFFFFFFFFFFFFFFFFFFFF000FFFFFFFFFFFFFFFFFFFFFFFFFFFF
310
FFFFFFFFFFFFFFFFFFFFFFFFFFFFFFFFFFFFFFFFFFFFFFFFFFFFFFFFFFFFFFFF
310
FFFFFFFFFFFFFFFFFFFFFFFFFFFFFFFFFFFFFFFFFFFFFFFFFFFFFFFFFFFFFFFF
310
FFFFFFFFFFFFFFFFF000FFFFFFFFFFFFFFFFFFFFFFFFFFFFFFFFFFFFFFFFFFFF
310
FFFFFFFFFFFFFFFFFFFFFFFFFFFFFFFFFFFFFFFFFFFFFFFFFFFFFFFFFFFFFFFF
310
FFFFFFFFFFFFFFFFFFFFFFFFFFFFFFFFFFFFFFFFFFFFFFFFFFFFFFFFFFFFFFFF
310
F000FFFFFFFFFFFFFFFFFFFFFFFFFFFFFFFFFFFFFFFFFFFFFFFFFFFFFFFFFFFF
310
FFFFFFFFFFFFFFFFFFFFFFFFFFFFFFFFFFFFFFFFFFFFFFFFFFFFFFFFFFFFFFFF
310
FFFFFFFFFFFFFFFFFFFFFFFFFFFFFFFFFFFFFFFFFFFFFFFFF000FFFFFFFFFFFF
310
FFFFFFFFFFFFFFFFFFFFFFFFFFFFFFFFFFFFFFFFFFFFFFFFFFFFFFFFFFFFFFFF
310
FFFFFFFFFFFFFFFFFFFFFFFFFFFFFFFFFFFFFFFFFFFFFFFFFFFFFFFFFFFFFFFF
310
FFFFFFFFFFFFFFFFFFFFFFFFFFFFFFFFF000FFFFFFFFFFFFFFFFFFFFFFFFFFFF
310
FFFFFFFFFFFFFFFFFFFFFFFFFFFFFFFFFFFFFFFFFFFFFFFFFFFFFFFFFFFFFFFF
310
FFFFFFFFFFFFFFFFFFFFFFFFFFFFFFFFFFFFFFFFFFFFFFFFFFFFFFFFFFFFFFFF
310
FFFFFFFFFFFFFFFFF000FFFFFFFFFFFFFFFFFFFFFFFFFFFFFFFFFFFFFFFFFFFF
310
FFFFFFFFFFFFFFFFFFFFFFFFFFFFFFFFFFFFFFFFFFFFFFFFFFFFFFFFFFFFFFFF
310
FFFFFFFFFFFFFFFFFFFFFFFFFFFFFFFFFFFFFFFFFFFFFFFFFFFFFFFFFFFFFFFF
310
F000FFFFFFFFFFFFFFFFFFFFFFFFFFFFFFFFFFFFFFFFFFFFFFFFFFFFFFFFFFFF
310
FFFFFFFFFFFFFFFFFFFFFFFFFFFFFFFFFFFFFFFFFFFFFFFFFFFFFFFFFFFFFFFF
310
FFFFFFFFFFFFFFFFFFFFFFFFFFFFFFFFFFFFFFFFFFFFFFFFF000FFFFFFFFFFFF
310
FFFFFFFFFFFFFFFFFFFFFFFFFFFFFFFFFFFFFFFFFFFFFFFFFFFFFFFFFFFFFFFF
310
FFFFFFFFFFFFFFFFFFFFFFFFFFFFFFFFFFFFFFFFFFFFFFFFFFFFFFFFFFFFFFFF
310
FFFFFFFFFFFFFFFFFFFFFFFFFFFFFFFFF000FFFFFFFFFFFFFFFFFFFFFFFFFFFF
310
FFFFFFFFFFFFFFFFFFFFFFFFFFFFFFFFFFFFFFFFFFFFFFFFFFFFFFFFFFFFFFFF
310
FFFFFFFFFFFFFFFFFFFFFFFFFFFFFFFFFFFFFFFFFFFFFFFFFFFFFFFFFFFFFFFF
310
FFFFFFFFFFFFFFFFF000FFFFFFFFFFFFFFFFFFFFFFFFFFFFFFFFFFFFFFFFFFFF
310
FFFFFFFFFFFFFFFFFFFFFFFFFFFFFFFFFFFFFFFFFFFFFFFFFFFFFFFFFFFFFFFF
310
FFFFFFFFFFFFFFFFFFFFFFFFFFFFFFFFFFFFFFFFFFFFFFFFFFFFFFFFFFFFFFFF
310
F000FFFFFFFFFFFFFFFFFFFFFFFFFFFFFFFFFFFFFFFFFFFFFFFFFFFFFFFFFFFF
310
FFFFFFFFFFFFFFFFFFFFFFFFFFFFFFFFFFFFFFFFFFFFFFFFFFFFFFFFFFFFFFFF
310
FFFFFFFFFFFFFFFFFFFFFFFFFFFFFFFFFFFFFFFFFFFFFFFFF000FFFFFFFFFFFF
310
FFFFFFFFFFFFFFFFFFFFFFFFFFFFFFFFFFFFFFFFFFFFFFFFFFFFFFFFFFFFFFFF
310
FFFFFFFFFFFFFFFFFFFFFFFFFFFFFFFFFFFFFFFFFFFFFFFFFFFFFFFFFFFFFFFF
310
FFFFFFFFFFFFFFFFFFFFFFFFFFFFFFFFF000FFFFFFFFFFFFFFFFFFFFFFFFFFFF
310
FFFFFFFFFFFFFFFFFFFFFFFFFFFFFFFFFFFFFFFFFFFFFFFFFFFFFFFFFFFFFFFF
310
FFFFFFFFFFFFFFFFFFFFFFFFFFFFFFFFFFFFFFFFFFFFFFFFFFFFFFFFFFFFFFFF
310
FFFFFFFFFFFFFFFFF000FFFFFFFFFFFFFFFFFFFFFFFFFFFFFFFFFFFFFFFFFFFF
310
FFFFFFFFFFFFFFFFFFFFFFFFFFFFFFFFFFFFFFFFFFFFFFFFFFFFFFFFFFFFFFFF
310
FFFFFFFFFFFFFFFFFFFFFFFFFFFFFFFFFFFFFFFFFFFFFFFFFFFFFFFFFFFFFFFF
310
F000FFFFFFFFFFFFFFFFFFFFFFFFFFFFFFFFFFFFFFFFFFFFFFFFFFFFFFFFFFFF
310
FFFFFFFFFFFFFFFFFFFFFFFFFFFFFFFFFFFFFFFFFFFFFFFFFFFFFFFFFFFFFFFF
310
FFFFFFFFFFFFFFFFFFFFFFFFFFFFFFFFFFFFFFFFFFFFFFFFF000FFFFFFFFFFFF
310
FFFFFFFFFFFFFFFFFFFFFFFFFFFFFFFFFFFFFFFFFFFFFFFFFFFFFFFFFFFFFFFF
310
FFFFFFFFFFFFFFFFFFFFFFFFFFFFFFFFFFFFFFFFFFFFFFFFFFFFFFFFFFFFFFFF
310
FFFFFFFFFFFFFFFFFFFFFFFFFFFFFFFFF000FFFFFFFFFFFFFFFFFFFFFFFFFFFF
310
FFFFFFFFFFFFFFFFFFFFFFFFFFFFFFFFFFFFFFFFFFFFFFFFFFFFFFFFFFFFFFFF
310
FFFFFFFFFFFFFFFFFFFFFFFFFFFFFFFFFFFFFFFFFFFFFFFFFFFFFFFFFFFFFFFF
310
FFFFFFFFFFFFFFFFF000FFFFFFFFFFFFFFFFFFFFFFFFFFFFFFFFFFFFFFFFFFFF
310
FFFFFFFFFFFFFFFFFFFFFFFFFFFFFFFFFFFFFFFFFFFFFFFFFFFFFFFFFFFFFFFF
310
FFFFFFFFFFFFFFFFFFFFFFFFFFFFFFFFFFFFFFFFFFFFFFFFFFFFFFFFFFFFFFFF
310
F000FFFFFFFFFFFFFFFFFFFFFFFFFFFFFFFFFFFFFFFFFFFFFFFFFFFFFFFFFFFF
310
FFFFFFFFFFFFFFFFFFFFFFFFFFFFFFFFFFFFFFFFFFFFFFFFFFFFFFFFFFFFFFFF
310
FFFFFFFFFFFFFFFFFFFFFFFFFFFFFFFFFFFFFFFFFFFFFFFFF000FFFFFFFFFFFF
310
FFFFFFFFFFFFFFFFFFFFFFFFFFFFFFFFFFFFFFFFFFFFFFFFFFFFFFFFFFFFFFFF
310
FFFFFFFFFFFFFFFFFFFFFFFFFFFFFFFFFFFFFFFFFFFFFFFFFFFFFFFFFFFFFFFF
310
FFFFFFFFFFFFFFFFFFFFFFFFFFFFFFFFF0000000000000000000000000000000
310
0000000000000000000000000000000000000000000000000000000000000000
310
0000000000000000000000000000000000000000000000000000000000000000
310
0000000000000000000000000000000000000000000000000000000000000000
310
0000000000000000000000000000000000000000000000000000000000000000
310
0000000000000000000000000000000000000000000000000000000000000000
310
0000000000000000000000000000000000000000000000000000000000000000
310
0000000000000000000000000000000000000000000000000000000000000000
310
0000000000000000000000000000000000000000000000000000000000000000
310
0000000000000000000000000000000000000000000000000000000000000000
310
0000000000000000000000000000000000000000000000000000000000000000
310
0000000000000000000000000000000000000000000000000000000000000000
310
0000000000000000000000000000000000000000000000000000000000000000
310
0000000000000000000000000000000000000000000000000000000000000000
310
0000000000000000000000000000000000000000000000000000000000000000
310
0000000000000000000000000000000000000000000000000000000000000000
  1
OLE
  0
ENDSEC
  0
SECTION
  2
OBJECTS
  0
DICTIONARY
  5
C
330
0
100
AcDbDictionary
281
     1
  3
ACAD_GROUP
350
D
  3
ACAD_LAYOUT
350
1A
  3
ACAD_MLINESTYLE
350
17
  3
ACAD_PLOTSETTINGS
350
19
  3
ACAD_PLOTSTYLENAME
350
E
  3
ACAD_SCALELIST
350
47
  0
DICTIONARY
  5
D
102
{ACAD_REACTORS
330
C
102
}
330
C
100
AcDbDictionary
281
     1
  0
DICTIONARY
  5
1A
102
{ACAD_REACTORS
330
C
102
}
330
C
100
AcDbDictionary
281
     1
  3
Layout1
350
1E
  3
Layout2
350
26
  3
Model
350
22
  0
DICTIONARY
  5
17
102
{ACAD_REACTORS
330
C
102
}
330
C
100
AcDbDictionary
281
     1
  3
Standard
350
18
  0
DICTIONARY
  5
19
102
{ACAD_REACTORS
330
C
102
}
330
C
100
AcDbDictionary
281
     1
  0
ACDBDICTIONARYWDFLT
  5
E
102
{ACAD_REACTORS
330
C
102
}
330
C
100
AcDbDictionary
281
     1
  3
Normal
350
F
100
AcDbDictionaryWithDefault
340
F
  0
DICTIONARY
  5
47
102
{ACAD_REACTORS
330
C
102
}
330
C
100
AcDbDictionary
281
     1
  3
A0
350
48
  3
A1
350
49
  3
A2
350
4A
  3
A3
350
4B
  3
A4
350
4C
  3
A5
350
4D
  3
A6
350
4E
  3
A7
350
4F
  3
A8
350
50
  3
A9
350
51
  3
B0
350
52
  3
B1
350
53
  3
B2
350
54
  3
B3
350
55
  3
B4
350
56
  3
B5
350
57
  3
B6
350
58
  3
B7
350
59
  3
B8
350
5A
  3
B9
350
5B
  3
C0
350
5C
  3
C1
350
5D
  3
C2
350
5E
  3
C3
350
5F
  3
C4
350
60
  3
C5
350
61
  3
C6
350
62
  3
C7
350
63
  3
C8
350
64
  3
C9
350
65
  3
D0
350
66
  3
D1
350
67
  3
D2
350
68
  0
LAYOUT
  5
1E
102
{ACAD_REACTORS
330
1A
102
}
330
1A
100
AcDbPlotSettings
  1

  2
none_device
  4

  6

 40
0.0
 41
0.0
 42
0.0
 43
0.0
 44
0.0
 45
0.0
 46
0.0
 47
0.0
 48
0.0
 49
0.0
140
0.0
141
0.0
142
1.0
143
1.0
 70
   688
 72
     1
 73
     0
 74
     5
  7

 75
    16
147
1.0
148
0.0
149
0.0
100
AcDbLayout
  1
Layout1
 70
     1
 71
     1
 10
0.0
 20
0.0
 11
420.0
 21
297.0
 12
0.0
 22
0.0
 32
0.0
 14
1.0000000000E+20
 24
1.0000000000E+20
 34
1.0000000000E+20
 15
-1.0000000000E+20
 25
-1.0000000000E+20
 35
-1.0000000000E+20
146
0.0
 13
0.0
 23
0.0
 33
0.0
 16
1.0
 26
0.0
 36
0.0
 17
0.0
 27
1.0
 37
0.0
 76
     0
330
1B
  0
LAYOUT
  5
26
102
{ACAD_REACTORS
330
1A
102
}
330
1A
100
AcDbPlotSettings
  1

  2
none_device
  4

  6

 40
0.0
 41
0.0
 42
0.0
 43
0.0
 44
0.0
 45
0.0
 46
0.0
 47
0.0
 48
0.0
 49
0.0
140
0.0
141
0.0
142
1.0
143
1.0
 70
   688
 72
     1
 73
     0
 74
     5
  7

 75
    16
147
1.0
148
0.0
149
0.0
100
AcDbLayout
  1
Layout2
 70
     1
 71
     2
 10
0.0
 20
0.0
 11
0.0
 21
0.0
 12
0.0
 22
0.0
 32
0.0
 14
0.0
 24
0.0
 34
0.0
 15
0.0
 25
0.0
 35
0.0
146
0.0
 13
0.0
 23
0.0
 33
0.0
 16
1.0
 26
0.0
 36
0.0
 17
0.0
 27
1.0
 37
0.0
 76
     0
330
23
  0
LAYOUT
  5
22
102
{ACAD_REACTORS
330
1A
102
}
330
1A
100
AcDbPlotSettings
  1

  2
none_device
  4
Letter_(8.50_x_11.00_Inches)
  6

 40
6.35
 41
6.35
 42
6.35000508
 43
6.35000508
 44
215.9
 45
279.4
 46
0.0
 47
0.0
 48
0.0
 49
0.0
140
0.0
141
0.0
142
1.0
143
1.0
 70
  1712
 72
     1
 73
     0
 74
     0
  7

 75
     0
147
1.0
148
0.0
149
0.0
100
AcDbLayout
  1
Model
 70
     1
 71
     0
 10
0.0
 20
0.0
 11
297.0
 21
210.0
 12
0.0
 22
0.0
 32
0.0
 14
0.0
 24
0.0
 34
0.0
 15
297.0
 25
210.0
 35
0.0
146
0.0
 13
0.0
 23
0.0
 33
0.0
 16
1.0
 26
0.0
 36
0.0
 17
0.0
 27
1.0
 37
0.0
 76
     0
330
1F
331
29
  0
MLINESTYLE
  5
18
102
{ACAD_REACTORS
330
17
102
}
330
17
100
AcDbMlineStyle
  2
Standard
 70
     0
  3

 62
   256
 51
90.0
 52
90.0
 71
     2
 49
0.5
 62
   256
  6
BYLAYER
 49
-0.5
 62
   256
  6
BYLAYER
  0
ACDBPLACEHOLDER
  5
F
102
{ACAD_REACTORS
330
E
102
}
330
E
  0
SCALE
  5
48
102
{ACAD_REACTORS
330
47
102
}
330
47
100
AcDbScale
 70
     0
300
1:1
140
1.0
141
1.0
290
     1
  0
SCALE
  5
49
102
{ACAD_REACTORS
330
47
102
}
330
47
100
AcDbScale
 70
     0
300
1:2
140
1.0
141
2.0
290
     0
  0
SCALE
  5
4A
102
{ACAD_REACTORS
330
47
102
}
330
47
100
AcDbScale
 70
     0
300
1:4
140
1.0
141
4.0
290
     0
  0
SCALE
  5
4B
102
{ACAD_REACTORS
330
47
102
}
330
47
100
AcDbScale
 70
     0
300
1:5
140
1.0
141
5.0
290
     0
  0
SCALE
  5
4C
102
{ACAD_REACTORS
330
47
102
}
330
47
100
AcDbScale
 70
     0
300
1:8
140
1.0
141
8.0
290
     0
  0
SCALE
  5
4D
102
{ACAD_REACTORS
330
47
102
}
330
47
100
AcDbScale
 70
     0
300
1:10
140
1.0
141
10.0
290
     0
  0
SCALE
  5
4E
102
{ACAD_REACTORS
330
47
102
}
330
47
100
AcDbScale
 70
     0
300
1:16
140
1.0
141
16.0
290
     0
  0
SCALE
  5
4F
102
{ACAD_REACTORS
330
47
102
}
330
47
100
AcDbScale
 70
     0
300
1:20
140
1.0
141
20.0
290
     0
  0
SCALE
  5
50
102
{ACAD_REACTORS
330
47
102
}
330
47
100
AcDbScale
 70
     0
300
1:30
140
1.0
141
30.0
290
     0
  0
SCALE
  5
51
102
{ACAD_REACTORS
330
47
102
}
330
47
100
AcDbScale
 70
     0
300
1:40
140
1.0
141
40.0
290
     0
  0
SCALE
  5
52
102
{ACAD_REACTORS
330
47
102
}
330
47
100
AcDbScale
 70
     0
300
1:50
140
1.0
141
50.0
290
     0
  0
SCALE
  5
53
102
{ACAD_REACTORS
330
47
102
}
330
47
100
AcDbScale
 70
     0
300
1:100
140
1.0
141
100.0
290
     0
  0
SCALE
  5
54
102
{ACAD_REACTORS
330
47
102
}
330
47
100
AcDbScale
 70
     0
300
2:1
140
2.0
141
1.0
290
     0
  0
SCALE
  5
55
102
{ACAD_REACTORS
330
47
102
}
330
47
100
AcDbScale
 70
     0
300
4:1
140
4.0
141
1.0
290
     0
  0
SCALE
  5
56
102
{ACAD_REACTORS
330
47
102
}
330
47
100
AcDbScale
 70
     0
300
8:1
140
8.0
141
1.0
290
     0
  0
SCALE
  5
57
102
{ACAD_REACTORS
330
47
102
}
330
47
100
AcDbScale
 70
     0
300
10:1
140
10.0
141
1.0
290
     0
  0
SCALE
  5
58
102
{ACAD_REACTORS
330
47
102
}
330
47
100
AcDbScale
 70
     0
300
100:1
140
100.0
141
1.0
290
     0
  0
SCALE
  5
59
102
{ACAD_REACTORS
330
47
102
}
330
47
100
AcDbScale
 70
     0
300
1/128" = 1'-0"
140
0.0078125
141
12.0
290
     0
  0
SCALE
  5
5A
102
{ACAD_REACTORS
330
47
102
}
330
47
100
AcDbScale
 70
     0
300
1/64" = 1'-0"
140
0.015625
141
12.0
290
     0
  0
SCALE
  5
5B
102
{ACAD_REACTORS
330
47
102
}
330
47
100
AcDbScale
 70
     0
300
1/32" = 1'-0"
140
0.03125
141
12.0
290
     0
  0
SCALE
  5
5C
102
{ACAD_REACTORS
330
47
102
}
330
47
100
AcDbScale
 70
     0
300
1/16" = 1'-0"
140
0.0625
141
12.0
290
     0
  0
SCALE
  5
5D
102
{ACAD_REACTORS
330
47
102
}
330
47
100
AcDbScale
 70
     0
300
3/32" = 1'-0"
140
0.09375
141
12.0
290
     0
  0
SCALE
  5
5E
102
{ACAD_REACTORS
330
47
102
}
330
47
100
AcDbScale
 70
     0
300
1/8" = 1'-0"
140
0.125
141
12.0
290
     0
  0
SCALE
  5
5F
102
{ACAD_REACTORS
330
47
102
}
330
47
100
AcDbScale
 70
     0
300
3/16" = 1'-0"
140
0.1875
141
12.0
290
     0
  0
SCALE
  5
60
102
{ACAD_REACTORS
330
47
102
}
330
47
100
AcDbScale
 70
     0
300
1/4" = 1'-0"
140
0.25
141
12.0
290
     0
  0
SCALE
  5
61
102
{ACAD_REACTORS
330
47
102
}
330
47
100
AcDbScale
 70
     0
300
3/8" = 1'-0"
140
0.375
141
12.0
290
     0
  0
SCALE
  5
62
102
{ACAD_REACTORS
330
47
102
}
330
47
100
AcDbScale
 70
     0
300
1/2" = 1'-0"
140
0.5
141
12.0
290
     0
  0
SCALE
  5
63
102
{ACAD_REACTORS
330
47
102
}
330
47
100
AcDbScale
 70
     0
300
3/4" = 1'-0"
140
0.75
141
12.0
290
     0
  0
SCALE
  5
64
102
{ACAD_REACTORS
330
47
102
}
330
47
100
AcDbScale
 70
     0
300
1" = 1'-0"
140
1.0
141
12.0
290
     0
  0
SCALE
  5
65
102
{ACAD_REACTORS
330
47
102
}
330
47
100
AcDbScale
 70
     0
300
1-1/2" = 1'-0"
140
1.5
141
12.0
290
     0
  0
SCALE
  5
66
102
{ACAD_REACTORS
330
47
102
}
330
47
100
AcDbScale
 70
     0
300
3" = 1'-0"
140
3.0
141
12.0
290
     0
  0
SCALE
  5
67
102
{ACAD_REACTORS
330
47
102
}
330
47
100
AcDbScale
 70
     0
300
6" = 1'-0"
140
6.0
141
12.0
290
     0
  0
SCALE
  5
68
102
{ACAD_REACTORS
330
47
102
}
330
47
100
AcDbScale
 70
     0
300
1'-0" = 1'-0"
140
12.0
141
12.0
290
     0
  0
ENDSEC
  0
EOF
