  0
SECTION
  2
HEADER
  9
$ACADVER
  1
AC1015
  9
$ACADMAINTVER
 70
     6
  9
$DWGCODEPAGE
  3
ANSI_1252
  9
$INSBASE
 10
0.0
 20
0.0
 30
0.0
  9
$EXTMIN
 10
0.0
 20
0.0
 30
0.0
  9
$EXTMAX
 10
297.0
 20
210.0
 30
0.0
  9
$LIMMIN
 10
0.0
 20
0.0
  9
$LIMMAX
 10
297.0
 20
210.0
  9
$ORTHOMODE
 70
     0
  9
$REGENMODE
 70
     1
  9
$FILLMODE
 70
     1
  9
$QTEXTMODE
 70
     0
  9
$MIRRTEXT
 70
     1
  9
$LTSCALE
 40
1.0
  9
$ATTMODE
 70
     1
  9
$TEXTSIZE
 40
2.0
  9
$TRACEWID
 40
1.0
  9
$TEXTSTYLE
  7
Standard
  9
$CLAYER
  8
0
  9
$CELTYPE
  6
ByLayer
  9
$CECOLOR
 62
   256
  9
$CELTSCALE
 40
1.0
  9
$DISPSILH
 70
     0
  9
$DIMSCALE
 40
1.0
  9
$DIMASZ
 40
3.0
  9
$DIMEXO
 40
0.0
  9
$DIMDLI
 40
3.75
  9
$DIMRND
 40
0.0
  9
$DIMDLE
 40
0.0
  9
$DIMEXE
 40
1.0
  9
$DIMTP
 40
0.0
  9
$DIMTM
 40
0.0
  9
$DIMTXT
 40
2.0
  9
$DIMCEN
 40
2.5
  9
$DIMTSZ
 40
0.0
  9
$DIMTOL
 70
     0
  9
$DIMLIM
 70
     0
  9
$DIMTIH
 70
     1
  9
$DIMTOH
 70
     1
  9
$DIMSE1
 70
     0
  9
$DIMSE2
 70
     0
  9
$DIMTAD
 70
     1
  9
$DIMZIN
 70
     0
  9
$DIMBLK
  1

  9
$DIMASO
 70
     1
  9
$DIMSHO
 70
     1
  9
$DIMPOST
  1

  9
$DIMAPOST
  1

  9
$DIMALT
 70
     0
  9
$DIMALTD
 70
     3
  9
$DIMALTF
 40
0.0393700787
  9
$DIMLFAC
 40
1.0
  9
$DIMTOFL
 70
     1
  9
$DIMTVP
 40
0.0
  9
$DIMTIX
 70
     0
  9
$DIMSOXD
 70
     0
  9
$DIMSAH
 70
     0
  9
$DIMBLK1
  1

  9
$DIMBLK2
  1

  9
$DIMSTYLE
  2
ISO-25
  9
$DIMCLRD
 70
     0
  9
$DIMCLRE
 70
     0
  9
$DIMCLRT
 70
     0
  9
$DIMTFAC
 40
1.0
  9
$DIMGAP
 40
1.524
  9
$DIMJUST
 70
     0
  9
$DIMSD1
 70
     0
  9
$DIMSD2
 70
     0
  9
$DIMTOLJ
 70
     0
  9
$DIMTZIN
 70
     0
  9
$DIMALTZ
 70
     0
  9
$DIMALTTZ
 70
     0
  9
$DIMUPT
 70
     0
  9
$DIMDEC
 70
     2
  9
$DIMTDEC
 70
     3
  9
$DIMALTU
 70
     2
  9
$DIMALTTD
 70
     3
  9
$DIMTXSTY
  7
Standard
  9
$DIMAUNIT
 70
     0
  9
$DIMADEC
 70
     2
  9
$DIMALTRND
 40
0.0
  9
$DIMAZIN
 70
     0
  9
$DIMDSEP
 70
    44
  9
$DIMATFIT
 70
     3
  9
$DIMFRAC
 70
     0
  9
$DIMLDRBLK
  1

  9
$DIMLUNIT
 70
     2
  9
$DIMLWD
 70
    -2
  9
$DIMLWE
 70
    -2
  9
$DIMTMOVE
 70
     0
  9
$LUNITS
 70
     2
  9
$LUPREC
 70
     2
  9
$SKETCHINC
 40
1.0
  9
$FILLETRAD
 40
10.0
  9
$AUNITS
 70
     0
  9
$AUPREC
 70
     2
  9
$MENU
  1
.
  9
$ELEVATION
 40
0.0
  9
$PELEVATION
 40
0.0
  9
$THICKNESS
 40
0.0
  9
$LIMCHECK
 70
     0
  9
$CHAMFERA
 40
10.0
  9
$CHAMFERB
 40
10.0
  9
$CHAMFERC
 40
20.0
  9
$CHAMFERD
 40
0.0
  9
$SKPOLY
 70
     0
  9
$TDCREATE
 40
2455624.354502604
  9
$TDUCREATE
 40
2455624.312835937
  9
$TDUPDATE
 40
2455624.354502616
  9
$TDUUPDATE
 40
2455624.312835949
  9
$TDINDWG
 40
0.0000000116
  9
$TDUSRTIMER
 40
0.0000000116
  9
$USRTIMER
 70
     1
  9
$ANGBASE
 50
0.0
  9
$ANGDIR
 70
     0
  9
$PDMODE
 70
     0
  9
$PDSIZE
 40
-1.0
  9
$PLINEWID
 40
0.0
  9
$SPLFRAME
 70
     0
  9
$SPLINETYPE
 70
     6
  9
$SPLINESEGS
 70
     8
  9
$HANDSEED
  5
2B7
  9
$SURFTAB1
 70
     6
  9
$SURFTAB2
 70
     6
  9
$SURFTYPE
 70
     6
  9
$SURFU
 70
     6
  9
$SURFV
 70
     6
  9
$UCSBASE
  2

  9
$UCSNAME
  2

  9
$UCSORG
 10
0.0
 20
0.0
 30
0.0
  9
$UCSXDIR
 10
1.0
 20
0.0
 30
0.0
  9
$UCSYDIR
 10
0.0
 20
1.0
 30
0.0
  9
$UCSORTHOREF
  2

  9
$UCSORTHOVIEW
 70
     0
  9
$UCSORGTOP
 10
0.0
 20
0.0
 30
0.0
  9
$UCSORGBOTTOM
 10
0.0
 20
0.0
 30
0.0
  9
$UCSORGLEFT
 10
0.0
 20
0.0
 30
0.0
  9
$UCSORGRIGHT
 10
0.0
 20
0.0
 30
0.0
  9
$UCSORGFRONT
 10
0.0
 20
0.0
 30
0.0
  9
$UCSORGBACK
 10
0.0
 20
0.0
 30
0.0
  9
$PUCSBASE
  2

  9
$PUCSNAME
  2

  9
$PUCSORG
 10
0.0
 20
0.0
 30
0.0
  9
$PUCSXDIR
 10
1.0
 20
0.0
 30
0.0
  9
$PUCSYDIR
 10
0.0
 20
1.0
 30
0.0
  9
$PUCSORTHOREF
  2

  9
$PUCSORTHOVIEW
 70
     0
  9
$PUCSORGTOP
 10
0.0
 20
0.0
 30
0.0
  9
$PUCSORGBOTTOM
 10
0.0
 20
0.0
 30
0.0
  9
$PUCSORGLEFT
 10
0.0
 20
0.0
 30
0.0
  9
$PUCSORGRIGHT
 10
0.0
 20
0.0
 30
0.0
  9
$PUCSORGFRONT
 10
0.0
 20
0.0
 30
0.0
  9
$PUCSORGBACK
 10
0.0
 20
0.0
 30
0.0
  9
$USERI1
 70
     0
  9
$USERI2
 70
     0
  9
$USERI3
 70
     0
  9
$USERI4
 70
     0
  9
$USERI5
 70
     0
  9
$USERR1
 40
0.0
  9
$USERR2
 40
0.0
  9
$USERR3
 40
0.0
  9
$USERR4
 40
0.0
  9
$USERR5
 40
0.0
  9
$WORLDVIEW
 70
     1
  9
$SHADEDGE
 70
     3
  9
$SHADEDIF
 70
    70
  9
$TILEMODE
 70
     1
  9
$MAXACTVP
 70
    64
  9
$PINSBASE
 10
0.0
 20
0.0
 30
0.0
  9
$PLIMCHECK
 70
     0
  9
$PEXTMIN
 10
1.0000000000E+20
 20
1.0000000000E+20
 30
1.0000000000E+20
  9
$PEXTMAX
 10
-1.0000000000E+20
 20
-1.0000000000E+20
 30
-1.0000000000E+20
  9
$PLIMMIN
 10
0.0
 20
0.0
  9
$PLIMMAX
 10
420.0
 20
297.0
  9
$UNITMODE
 70
     0
  9
$VISRETAIN
 70
     1
  9
$PLINEGEN
 70
     0
  9
$PSLTSCALE
 70
     1
  9
$TREEDEPTH
 70
  3020
  9
$CMLSTYLE
  2
Standard
  9
$CMLJUST
 70
     0
  9
$CMLSCALE
 40
20.0
  9
$PROXYGRAPHICS
 70
     1
  9
$MEASUREMENT
 70
     1
  9
$CELWEIGHT
370
    -1
  9
$ENDCAPS
280
     0
  9
$JOINSTYLE
280
     0
  9
$LWDISPLAY
290
     1
  9
$INSUNITS
 70
     4
  9
$HYPERLINKBASE
  1

  9
$STYLESHEET
  1

  9
$XEDIT
290
     1
  9
$CEPSNTYPE
380
     0
  9
$PSTYLEMODE
290
     1
  9
$FINGERPRINTGUID
  2
{BC00FB1F-2D11-4B61-A03B-1AD5193B25ED}
  9
$VERSIONGUID
  2
{FAEB1C32-E019-11D5-929B-00C0DF256EC4}
  9
$EXTNAMES
290
     1
  9
$PSVPSCALE
 40
0.0
  9
$OLESTARTUP
290
     0
  0
ENDSEC
  0
SECTION
  2
CLASSES
  0
CLASS
  1
ACDBDICTIONARYWDFLT
  2
AcDbDictionaryWithDefault
  3
ObjectDBX Classes
 90
        0
280
     0
281
     0
  0
CLASS
  1
VISUALSTYLE
  2
AcDbVisualStyle
  3
ObjectDBX Classes
 90
     4095
280
     0
281
     0
  0
CLASS
  1
DICTIONARYVAR
  2
AcDbDictionaryVar
  3
ObjectDBX Classes
 90
        0
280
     0
281
     0
  0
CLASS
  1
ACDBPLACEHOLDER
  2
AcDbPlaceHolder
  3
ObjectDBX Classes
 90
        0
280
     0
281
     0
  0
CLASS
  1
LAYOUT
  2
AcDbLayout
  3
ObjectDBX Classes
 90
        0
280
     0
281
     0
  0
ENDSEC
  0
SECTION
  2
TABLES
  0
TABLE
  2
VPORT
  5
8
330
0
100
AcDbSymbolTable
 70
     1
  0
VPORT
  5
29
330
8
100
AcDbSymbolTableRecord
100
AcDbViewportTableRecord
  2
*Active
 70
     0
 10
0.0
 20
0.0
 11
1.0
 21
1.0
 12
148.5
 22
105.0
 13
0.0
 23
0.0
 14
10.0
 24
10.0
 15
10.0
 25
10.0
 16
0.0
 26
0.0
 36
1.0
 17
0.0
 27
0.0
 37
0.0
 40
210.0
 41
1.4142857143
 42
50.0
 43
0.0
 44
0.0
 50
0.0
 51
0.0
 71
     0
 72
  2000
 73
     1
 74
     3
 75
     0
 76
     0
 77
     0
 78
     0
281
     0
 65
     1
110
0.0
120
0.0
130
0.0
111
1.0
121
0.0
131
0.0
112
0.0
122
1.0
132
0.0
 79
     0
146
0.0
  0
ENDTAB
  0
TABLE
  2
LTYPE
  5
5
330
0
100
AcDbSymbolTable
 70
     6
  0
LTYPE
  5
14
330
5
100
AcDbSymbolTableRecord
100
AcDbLinetypeTableRecord
  2
ByBlock
 70
     0
  3

 72
    65
 73
     0
 40
0.0
  0
LTYPE
  5
15
330
5
100
AcDbSymbolTableRecord
100
AcDbLinetypeTableRecord
  2
ByLayer
 70
     0
  3

 72
    65
 73
     0
 40
0.0
  0
LTYPE
  5
16
330
5
100
AcDbSymbolTableRecord
100
AcDbLinetypeTableRecord
  2
Continuous
 70
     0
  3
Solid line
 72
    65
 73
     0
 40
0.0
  0
LTYPE
  5
3B
330
5
100
AcDbSymbolTableRecord
100
AcDbLinetypeTableRecord
  2
HIDDEN
 70
     0
  3
Hidden __ __ __ __ __ __ __ __ __ __ __ __ __ __
 72
    65
 73
     2
 40
1.905
 49
1.27
 74
     0
 49
-0.635
 74
     0
  0
LTYPE
  5
3C
330
5
100
AcDbSymbolTableRecord
100
AcDbLinetypeTableRecord
  2
PHANTOM
 70
     0
  3
Phantom ______  __  __  ______  __  __  ______
 72
    65
 73
     6
 40
12.7
 49
6.35
 74
     0
 49
-1.27
 74
     0
 49
1.27
 74
     0
 49
-1.27
 74
     0
 49
1.27
 74
     0
 49
-1.27
 74
     0
  0
LTYPE
  5
3D
330
5
100
AcDbSymbolTableRecord
100
AcDbLinetypeTableRecord
  2
CENTER
 70
     0
  3
Center ____ _ ____ _ ____ _ ____ _ ____ _ ____
 72
    65
 73
     4
 40
10.16
 49
6.35
 74
     0
 49
-1.27
 74
     0
 49
1.27
 74
     0
 49
-1.27
 74
     0
  0
LTYPE
  5
3E
330
5
100
AcDbSymbolTableRecord
100
AcDbLinetypeTableRecord
  2
CENTERX2
 70
     0
  3
Center (2x) ________  __  ________  __  _____
 72
    65
 73
     4
 40
20.32
 49
12.7
 74
     0
 49
-2.54
 74
     0
 49
2.54
 74
     0
 49
-2.54
 74
     0
  0
LTYPE
  5
3F
330
5
100
AcDbSymbolTableRecord
100
AcDbLinetypeTableRecord
  2
DOT2
 70
     0
  3
Dot (.5x) ........................................
 72
    65
 73
     2
 40
0.635
 49
0.0
 74
     0
 49
-0.635
 74
     0
  0
ENDTAB
  0
TABLE
  2
LAYER
  5
2
330
0
100
AcDbSymbolTable
 70
     5
  0
LAYER
  5
10
330
2
100
AcDbSymbolTableRecord
100
AcDbLayerTableRecord
  2
0
 70
     0
 62
     7
  6
Continuous
370
    -3
390
F
  0
LAYER
  5
40
330
2
100
AcDbSymbolTableRecord
100
AcDbLayerTableRecord
  2
FORMAT
 70
     0
 62
     7
  6
Continuous
370
    -3
390
F
  0
LAYER
  5
41
330
2
100
AcDbSymbolTableRecord
100
AcDbLayerTableRecord
  2
VERMASSUNG
 70
     0
 62
     7
  6
Continuous
370
    -3
390
F
  0
LAYER
  5
42
330
2
100
AcDbSymbolTableRecord
100
AcDbLayerTableRecord
  2
KOPF_DÜNN
 70
     0
 62
     7
  6
Continuous
370
    -3
390
F
  0
LAYER
  5
43
330
2
100
AcDbSymbolTableRecord
100
AcDbLayerTableRecord
  2
KOPF_DICK
 70
     0
 62
     7
  6
Continuous
370
    15
390
F
  0
ENDTAB
  0
TABLE
  2
STYLE
  5
3
330
0
100
AcDbSymbolTable
 70
     3
  0
STYLE
  5
11
330
3
100
AcDbSymbolTableRecord
100
AcDbTextStyleTableRecord
  2
Standard
 70
     0
 40
0.0
 41
1.0
 50
0.0
 71
     0
 42
2.5
  3
txt
  4

  0
STYLE
  5
44
330
3
100
AcDbSymbolTableRecord
100
AcDbTextStyleTableRecord
  2
SLDTEXTSTYLE0
 70
     0
 40
0.0
 41
0.7
 50
0.0
 71
     0
 42
0.2
  3
TXT
  4

  0
STYLE
  5
48
330
3
100
AcDbSymbolTableRecord
100
AcDbTextStyleTableRecord
  2
SLDTEXTSTYLE1
 70
     0
 40
0.0
 41
0.6526315789
 50
0.0
 71
     0
 42
0.2
  3
TXT
  4

  0
ENDTAB
  0
TABLE
  2
VIEW
  5
6
330
0
100
AcDbSymbolTable
 70
     0
  0
ENDTAB
  0
TABLE
  2
UCS
  5
7
330
0
100
AcDbSymbolTable
 70
     0
  0
ENDTAB
  0
TABLE
  2
APPID
  5
9
330
0
100
AcDbSymbolTable
 70
     1
  0
APPID
  5
12
330
9
100
AcDbSymbolTableRecord
100
AcDbRegAppTableRecord
  2
ACAD
 70
     0
  0
ENDTAB
  0
TABLE
  2
DIMSTYLE
  5
A
330
0
100
AcDbSymbolTable
 70
     4
100
AcDbDimStyleTable
  0
DIMSTYLE
105
27
330
A
100
AcDbSymbolTableRecord
100
AcDbDimStyleTableRecord
  2
ISO-25
 70
     0
 41
2.5
 42
0.625
 43
3.75
 44
1.25
 73
     0
 74
     0
 77
     1
 78
     8
140
2.5
141
2.5
143
0.0393700787
147
0.625
171
     3
172
     1
271
     2
272
     2
274
     3
278
    44
283
     0
284
     8
340
11
  0
DIMSTYLE
105
230
102
{ACAD_REACTORS
330
22F
330
245
330
24F
330
259
102
}
330
A
100
AcDbSymbolTableRecord
100
AcDbDimStyleTableRecord
  2
SLDDIMSTYLE0
 70
     0
 41
3.0
 44
0.0
 45
0.000000001
 73
     0
 74
     0
 77
     1
 78
    12
140
2.0
147
0.5
173
     1
271
     2
272
     3
284
    12
340
44
  0
DIMSTYLE
105
23B
102
{ACAD_REACTORS
330
23A
102
}
330
A
100
AcDbSymbolTableRecord
100
AcDbDimStyleTableRecord
  2
SLDDIMSTYLE1
 70
     0
 41
3.0
 44
0.0
 73
     0
 74
     0
 77
     1
 78
    12
140
2.0
147
0.5
173
     1
179
     1
272
     3
284
    12
340
44
  0
DIMSTYLE
105
29A
102
{ACAD_REACTORS
330
299
102
}
330
A
100
AcDbSymbolTableRecord
100
AcDbDimStyleTableRecord
  2
SLDDIMSTYLE2
 70
     0
 41
3.0
 44
0.0
 45
0.000000001
 73
     0
 74
     0
 77
     1
 78
    12
140
2.0
147
0.5
173
     1
271
     2
272
     3
284
    12
340
44
  0
ENDTAB
  0
TABLE
  2
BLOCK_RECORD
  5
1
330
0
100
AcDbSymbolTable
 70
     8
  0
BLOCK_RECORD
  5
1F
330
1
100
AcDbSymbolTableRecord
100
AcDbBlockTableRecord
  2
*Model_Space
340
22
  0
BLOCK_RECORD
  5
1B
330
1
100
AcDbSymbolTableRecord
100
AcDbBlockTableRecord
  2
*Paper_Space
340
1E
  0
BLOCK_RECORD
  5
23
330
1
100
AcDbSymbolTableRecord
100
AcDbBlockTableRecord
  2
*Paper_Space0
340
26
  0
BLOCK_RECORD
  5
231
330
1
100
AcDbSymbolTableRecord
100
AcDbBlockTableRecord
  2
*D1
340
0
  0
BLOCK_RECORD
  5
23C
330
1
100
AcDbSymbolTableRecord
100
AcDbBlockTableRecord
  2
*D2
340
0
  0
BLOCK_RECORD
  5
246
330
1
100
AcDbSymbolTableRecord
100
AcDbBlockTableRecord
  2
*D3
340
0
  0
BLOCK_RECORD
  5
250
330
1
100
AcDbSymbolTableRecord
100
AcDbBlockTableRecord
  2
*D4
340
0
  0
BLOCK_RECORD
  5
25A
330
1
100
AcDbSymbolTableRecord
100
AcDbBlockTableRecord
  2
*D5
340
0
  0
BLOCK_RECORD
  5
29B
330
1
100
AcDbSymbolTableRecord
100
AcDbBlockTableRecord
  2
*D6
340
0
  0
BLOCK_RECORD
  5
2A5
330
1
100
AcDbSymbolTableRecord
100
AcDbBlockTableRecord
  2
SW_CENTERMARKSYMBOL_0
340
0
102
{BLKREFS
331
2B0
102
}
  0
ENDTAB
  0
ENDSEC
  0
SECTION
  2
BLOCKS
  0
BLOCK
  5
20
330
1F
100
AcDbEntity
  8
0
100
AcDbBlockBegin
  2
*Model_Space
 70
     0
 10
0.0
 20
0.0
 30
0.0
  3
*Model_Space
  1

  0
ENDBLK
  5
21
330
1F
100
AcDbEntity
  8
0
100
AcDbBlockEnd
  0
BLOCK
  5
1C
330
1B
100
AcDbEntity
 67
     1
  8
0
100
AcDbBlockBegin
  2
*Paper_Space
 70
     0
 10
0.0
 20
0.0
 30
0.0
  3
*Paper_Space
  1

  0
ENDBLK
  5
1D
330
1B
100
AcDbEntity
 67
     1
  8
0
100
AcDbBlockEnd
  0
BLOCK
  5
24
330
23
100
AcDbEntity
  8
0
100
AcDbBlockBegin
  2
*Paper_Space0
 70
     0
 10
0.0
 20
0.0
 30
0.0
  3
*Paper_Space0
  1

  0
ENDBLK
  5
25
330
23
100
AcDbEntity
  8
0
100
AcDbBlockEnd
  0
BLOCK
  5
232
330
231
100
AcDbEntity
  8
0
100
AcDbBlockBegin
  2
*D1
 70
     1
 10
0.0
 20
0.0
 30
0.0
  3
*D1
  1

  0
SOLID
  5
234
330
231
100
AcDbEntity
  8
VERMASSUNG
100
AcDbTrace
 10
287.8664159576
 20
90.2042500843
 30
0.0
 11
288.3164159576
 21
93.2042500843
 31
0.0
 12
287.4164159576
 22
93.2042500843
 32
0.0
 13
287.4164159576
 23
93.2042500843
 33
0.0
  0
SOLID
  5
235
330
231
100
AcDbEntity
  8
VERMASSUNG
100
AcDbTrace
 10
287.8664159576
 20
117.2042500843
 30
0.0
 11
287.4164159576
 21
114.2042500843
 31
0.0
 12
288.3164159576
 22
114.2042500843
 32
0.0
 13
288.3164159576
 23
114.2042500843
 33
0.0
  0
LINE
  5
236
330
231
100
AcDbEntity
  8
VERMASSUNG
100
AcDbLine
 10
282.7048961581
 20
90.2042500843
 30
0.0
 11
288.8664159576
 21
90.2042500843
 31
0.0
  0
LINE
  5
237
330
231
100
AcDbEntity
  8
VERMASSUNG
100
AcDbLine
 10
276.9539024277
 20
117.2042500843
 30
0.0
 11
288.8664159576
 21
117.2042500843
 31
0.0
  0
LINE
  5
238
330
231
100
AcDbEntity
  8
VERMASSUNG
100
AcDbLine
 10
287.8664159576
 20
90.2042500843
 30
0.0
 11
287.8664159576
 21
117.2042500843
 31
0.0
  0
MTEXT
  5
239
330
231
100
AcDbEntity
  8
VERMASSUNG
100
AcDbMText
 10
285.2882805944
 20
102.3043741166
 30
0.0
 40
2.0
 41
0.0
 71
     1
 72
     1
  1
27
  7
SLDTEXTSTYLE0
 11
6.123233995736766E-17
 21
1.0
 31
0.0
 73
     1
 44
1.0
  0
ENDBLK
  5
233
330
231
100
AcDbEntity
  8
0
100
AcDbBlockEnd
  0
BLOCK
  5
23D
330
23C
100
AcDbEntity
  8
0
100
AcDbBlockBegin
  2
*D2
 70
     1
 10
0.0
 20
0.0
 30
0.0
  3
*D2
  1

  0
ARC
  5
23F
330
23C
100
AcDbEntity
  8
VERMASSUNG
100
AcDbCircle
 10
282.7048961581
 20
90.1002646672
 30
0.0
 40
35.83203540479224
100
AcDbArc
 50
90.0
 51
107.4599642598
  0
SOLID
  5
240
330
23C
100
AcDbEntity
  8
VERMASSUNG
100
AcDbTrace
 10
282.7048961581
 20
125.932300072
 30
0.0
 11
279.688723601
 21
126.2566503552
 31
0.0
 12
279.7263007943
 22
125.3574351671
 32
0.0
 13
279.7263007943
 23
125.3574351671
 33
0.0
  0
SOLID
  5
241
330
23C
100
AcDbEntity
  8
VERMASSUNG
100
AcDbTrace
 10
271.9538769364
 20
124.2814048903
 30
0.0
 11
274.9677210628
 21
124.6267215307
 31
0.0
 12
274.7337670502
 22
125.4957816667
 32
0.0
 13
274.7337670502
 23
125.4957816667
 33
0.0
  0
LINE
  5
242
330
23C
100
AcDbEntity
  8
VERMASSUNG
100
AcDbLine
 10
282.7048961581
 20
117.2042500843
 30
0.0
 11
282.7048961581
 21
126.932300072
 31
0.0
  0
LINE
  5
243
330
23C
100
AcDbEntity
  8
VERMASSUNG
100
AcDbLine
 10
274.1798596525
 20
117.2042500843
 30
0.0
 11
271.6538376252
 21
125.235331728
 31
0.0
  0
MTEXT
  5
244
330
23C
100
AcDbEntity
  8
VERMASSUNG
100
AcDbMText
 10
274.1077590616
 20
127.6404972593
 30
0.0
 40
2.0
 41
0.0
 71
     1
 72
     1
  1
17.5°
  7
SLDTEXTSTYLE0
 11
0.9884145986698876
 21
0.1517780653989408
 31
0.0
 73
     1
 44
1.0
  0
ENDBLK
  5
23E
330
23C
100
AcDbEntity
  8
0
100
AcDbBlockEnd
  0
BLOCK
  5
247
330
246
100
AcDbEntity
  8
0
100
AcDbBlockBegin
  2
*D3
 70
     1
 10
0.0
 20
0.0
 30
0.0
  3
*D3
  1

  0
SOLID
  5
249
330
246
100
AcDbEntity
  8
VERMASSUNG
100
AcDbTrace
 10
282.7048961581
 20
153.8873193774
 30
0.0
 11
279.7048961581
 21
154.3373193774
 31
0.0
 12
279.7048961581
 22
153.4373193774
 32
0.0
 13
279.7048961581
 23
153.4373193774
 33
0.0
  0
SOLID
  5
24A
330
246
100
AcDbEntity
  8
VERMASSUNG
100
AcDbTrace
 10
142.7048961581
 20
153.8873193774
 30
0.0
 11
145.7048961581
 21
153.4373193774
 31
0.0
 12
145.7048961581
 22
154.3373193774
 32
0.0
 13
145.7048961581
 23
154.3373193774
 33
0.0
  0
LINE
  5
24B
330
246
100
AcDbEntity
  8
VERMASSUNG
100
AcDbLine
 10
282.7048961581
 20
117.2042500843
 30
0.0
 11
282.7048961581
 21
154.8873193774
 31
0.0
  0
LINE
  5
24C
330
246
100
AcDbEntity
  8
VERMASSUNG
100
AcDbLine
 10
142.7048961581
 20
148.4042500843
 30
0.0
 11
142.7048961581
 21
154.8873193774
 31
0.0
  0
LINE
  5
24D
330
246
100
AcDbEntity
  8
VERMASSUNG
100
AcDbLine
 10
282.7048961581
 20
153.8873193774
 30
0.0
 11
142.7048961581
 21
153.8873193774
 31
0.0
  0
MTEXT
  5
24E
330
246
100
AcDbEntity
  8
VERMASSUNG
100
AcDbMText
 10
210.7052478516
 20
156.4654547405
 30
0.0
 40
2.0
 41
0.0
 71
     1
 72
     1
  1
140
  7
SLDTEXTSTYLE0
 73
     1
 44
1.0
  0
ENDBLK
  5
248
330
246
100
AcDbEntity
  8
0
100
AcDbBlockEnd
  0
BLOCK
  5
251
330
250
100
AcDbEntity
  8
0
100
AcDbBlockBegin
  2
*D4
 70
     1
 10
0.0
 20
0.0
 30
0.0
  3
*D4
  1

  0
SOLID
  5
253
330
250
100
AcDbEntity
  8
VERMASSUNG
100
AcDbTrace
 10
282.7048961581
 20
159.8873193774
 30
0.0
 11
279.7048961581
 21
160.3373193774
 31
0.0
 12
279.7048961581
 22
159.4373193774
 32
0.0
 13
279.7048961581
 23
159.4373193774
 33
0.0
  0
SOLID
  5
254
330
250
100
AcDbEntity
  8
VERMASSUNG
100
AcDbTrace
 10
110.8048961581
 20
159.8873193774
 30
0.0
 11
113.8048961581
 21
159.4373193774
 31
0.0
 12
113.8048961581
 22
160.3373193774
 32
0.0
 13
113.8048961581
 23
160.3373193774
 33
0.0
  0
LINE
  5
255
330
250
100
AcDbEntity
  8
VERMASSUNG
100
AcDbLine
 10
282.7048961581
 20
117.2042500843
 30
0.0
 11
282.7048961581
 21
160.8873193774
 31
0.0
  0
LINE
  5
256
330
250
100
AcDbEntity
  8
VERMASSUNG
100
AcDbLine
 10
110.8048961581
 20
136.8949278308
 30
0.0
 11
110.8048961581
 21
160.8873193774
 31
0.0
  0
LINE
  5
257
330
250
100
AcDbEntity
  8
VERMASSUNG
100
AcDbLine
 10
282.7048961581
 20
159.8873193774
 30
0.0
 11
110.8048961581
 21
159.8873193774
 31
0.0
  0
MTEXT
  5
258
330
250
100
AcDbEntity
  8
VERMASSUNG
100
AcDbMText
 10
194.0553098677
 20
162.4654547405
 30
0.0
 40
2.0
 41
0.0
 71
     1
 72
     1
  1
171.9
  7
SLDTEXTSTYLE0
 73
     1
 44
1.0
  0
ENDBLK
  5
252
330
250
100
AcDbEntity
  8
0
100
AcDbBlockEnd
  0
BLOCK
  5
25B
330
25A
100
AcDbEntity
  8
0
100
AcDbBlockBegin
  2
*D5
 70
     1
 10
0.0
 20
0.0
 30
0.0
  3
*D5
  1

  0
SOLID
  5
25D
330
25A
100
AcDbEntity
  8
VERMASSUNG
100
AcDbTrace
 10
105.9778473297
 20
148.7042500843
 30
0.0
 11
105.5278473297
 21
145.7042500843
 31
0.0
 12
106.4278473297
 22
145.7042500843
 32
0.0
 13
106.4278473297
 23
145.7042500843
 33
0.0
  0
SOLID
  5
25E
330
25A
100
AcDbEntity
  8
VERMASSUNG
100
AcDbTrace
 10
105.9778473297
 20
85.7042500843
 30
0.0
 11
106.4278473297
 21
88.7042500843
 31
0.0
 12
105.5278473297
 22
88.7042500843
 32
0.0
 13
105.5278473297
 23
88.7042500843
 33
0.0
  0
LINE
  5
25F
330
25A
100
AcDbEntity
  8
VERMASSUNG
100
AcDbLine
 10
143.0048961581
 20
148.7042500843
 30
0.0
 11
104.9778473297
 21
148.7042500843
 31
0.0
  0
LINE
  5
260
330
25A
100
AcDbEntity
  8
VERMASSUNG
100
AcDbLine
 10
143.0048961581
 20
85.7042500843
 30
0.0
 11
104.9778473297
 21
85.7042500843
 31
0.0
  0
LINE
  5
261
330
25A
100
AcDbEntity
  8
VERMASSUNG
100
AcDbLine
 10
105.9778473297
 20
148.7042500843
 30
0.0
 11
105.9778473297
 21
85.7042500843
 31
0.0
  0
MTEXT
  5
262
330
25A
100
AcDbEntity
  8
VERMASSUNG
100
AcDbMText
 10
103.1997118406
 20
111.0000877456
 30
0.0
 40
2.0
 41
0.0
 71
     1
 72
     1
  1
HSK 
  7
SLDTEXTSTYLE0
 11
-7.044195017643634E-15
 21
1.0
 31
0.0
 73
     1
 44
1.0
  0
MTEXT
  5
263
330
25A
100
AcDbEntity
  8
VERMASSUNG
100
AcDbMText
 10
103.3997118501
 20
117.0000877978
 30
0.0
 40
2.0
 41
0.0
 71
     1
 72
     1
  1
%%c
  7
SLDTEXTSTYLE0
 11
-7.044195017643634E-15
 21
1.0
 31
0.0
 73
     1
 44
1.0
  0
MTEXT
  5
264
330
25A
100
AcDbEntity
  8
VERMASSUNG
100
AcDbMText
 10
103.3997119666
 20
120.6086604876
 30
0.0
 40
2.0
 41
0.0
 71
     1
 72
     1
  1
63
  7
SLDTEXTSTYLE0
 11
-7.044195017643634E-15
 21
1.0
 31
0.0
 73
     1
 44
1.0
  0
ENDBLK
  5
25C
330
25A
100
AcDbEntity
  8
0
100
AcDbBlockEnd
  0
BLOCK
  5
29C
330
29B
100
AcDbEntity
  8
0
100
AcDbBlockBegin
  2
*D6
 70
     1
 10
0.0
 20
0.0
 30
0.0
  3
*D6
  1

  0
SOLID
  5
29E
330
29B
100
AcDbEntity
  8
VERMASSUNG
100
AcDbTrace
 10
19.5129611294
 20
90.202153455
 30
0.0
 11
19.9629611294
 21
93.202153455
 31
0.0
 12
19.0629611294
 22
93.202153455
 32
0.0
 13
19.0629611294
 23
93.202153455
 33
0.0
  0
SOLID
  5
29F
330
29B
100
AcDbEntity
  8
VERMASSUNG
100
AcDbTrace
 10
19.5129611294
 20
140.202153455
 30
0.0
 11
19.0629611294
 21
137.202153455
 31
0.0
 12
19.9629611294
 22
137.202153455
 32
0.0
 13
19.9629611294
 23
137.202153455
 33
0.0
  0
LINE
  5
2A0
330
29B
100
AcDbEntity
  8
VERMASSUNG
100
AcDbLine
 10
56.4243142427
 20
90.202153455
 30
0.0
 11
18.5129611294
 21
90.202153455
 31
0.0
  0
LINE
  5
2A1
330
29B
100
AcDbEntity
  8
VERMASSUNG
100
AcDbLine
 10
56.4243142427
 20
140.202153455
 30
0.0
 11
18.5129611294
 21
140.202153455
 31
0.0
  0
LINE
  5
2A2
330
29B
100
AcDbEntity
  8
VERMASSUNG
100
AcDbLine
 10
19.5129611294
 20
90.202153455
 30
0.0
 11
19.5129611294
 21
140.202153455
 31
0.0
  0
MTEXT
  5
2A3
330
29B
100
AcDbEntity
  8
VERMASSUNG
100
AcDbMText
 10
16.9348256499
 20
111.9980743421
 30
0.0
 40
2.0
 41
0.0
 71
     1
 72
     1
  1
%%c
  7
SLDTEXTSTYLE0
 11
6.123233995736766E-17
 21
1.0
 31
0.0
 73
     1
 44
1.0
  0
MTEXT
  5
2A4
330
29B
100
AcDbEntity
  8
VERMASSUNG
100
AcDbMText
 10
16.9348257663
 20
115.6064806324
 30
0.0
 40
2.0
 41
0.0
 71
     1
 72
     1
  1
50
  7
SLDTEXTSTYLE0
 11
6.123233995736766E-17
 21
1.0
 31
0.0
 73
     1
 44
1.0
  0
ENDBLK
  5
29D
330
29B
100
AcDbEntity
  8
0
100
AcDbBlockEnd
  0
BLOCK
  5
2A6
330
2A5
100
AcDbEntity
  8
0
100
AcDbBlockBegin
  2
SW_CENTERMARKSYMBOL_0
 70
     0
 10
0.0
 20
0.0
 30
0.0
  3
SW_CENTERMARKSYMBOL_0
  1

  0
LINE
  5
2A8
330
2A5
100
AcDbEntity
  8
VERMASSUNG
 62
     0
100
AcDbLine
 10
0.0
 20
0.0
 30
0.0
 11
0.0
 21
2.5
 31
0.0
  0
LINE
  5
2A9
330
2A5
100
AcDbEntity
  8
VERMASSUNG
 62
     0
100
AcDbLine
 10
0.0
 20
0.0
 30
0.0
 11
-2.5
 21
0.0
 31
0.0
  0
LINE
  5
2AA
330
2A5
100
AcDbEntity
  8
VERMASSUNG
 62
     0
100
AcDbLine
 10
0.0
 20
0.0
 30
0.0
 11
0.0
 21
-2.5
 31
0.0
  0
LINE
  5
2AB
330
2A5
100
AcDbEntity
  8
VERMASSUNG
 62
     0
100
AcDbLine
 10
0.0
 20
0.0
 30
0.0
 11
2.5
 21
0.0
 31
0.0
  0
LINE
  5
2AC
330
2A5
100
AcDbEntity
  8
VERMASSUNG
 62
     0
100
AcDbLine
 10
0.0
 20
5.0
 30
0.0
 11
0.0
 21
34.0
 31
0.0
  0
LINE
  5
2AD
330
2A5
100
AcDbEntity
  8
VERMASSUNG
 62
     0
100
AcDbLine
 10
-5.0
 20
0.0
 30
0.0
 11
-34.0
 21
0.0
 31
0.0
  0
LINE
  5
2AE
330
2A5
100
AcDbEntity
  8
VERMASSUNG
 62
     0
100
AcDbLine
 10
0.0
 20
-5.0
 30
0.0
 11
0.0
 21
-34.0
 31
0.0
  0
LINE
  5
2AF
330
2A5
100
AcDbEntity
  8
VERMASSUNG
 62
     0
100
AcDbLine
 10
5.0
 20
0.0
 30
0.0
 11
34.0
 21
0.0
 31
0.0
  0
ENDBLK
  5
2A7
330
2A5
100
AcDbEntity
  8
0
100
AcDbBlockEnd
  0
ENDSEC
  0
SECTION
  2
ENTITIES
  0
MTEXT
  5
45
330
1F
100
AcDbEntity
  8
KOPF_DÜNN
100
AcDbMText
 10
13.8892156294
 20
23.8442973028
 30
0.0
 40
3.0
 41
0.0
 71
     1
 72
     1
  1
HA6.BDB.LQC.140
  7
SLDTEXTSTYLE0
 73
     1
 44
1.0
  0
MTEXT
  5
46
330
1F
100
AcDbEntity
  8
VERMASSUNG
100
AcDbMText
 10
13.9329988022
 20
28.8834360957
 30
0.0
 40
3.0
 41
0.0
 71
     1
 72
     1
  1
Bohrstange_Boring bar
  7
SLDTEXTSTYLE0
 73
     1
 44
1.0
  0
MTEXT
  5
47
330
1F
100
AcDbEntity
  8
VERMASSUNG
100
AcDbMText
 10
98.8601118557
 20
13.8365368179
 30
0.0
 40
2.0
 41
0.0
 71
     1
 72
     1
  1
Datum: 03.03.2011
  7
SLDTEXTSTYLE0
 73
     1
 44
1.0
  0
MTEXT
  5
49
330
1F
100
AcDbEntity
  8
VERMASSUNG
100
AcDbMText
 10
13.933048693
 20
18.0482802738
 30
0.0
 40
2.0
 41
0.0
 71
     1
 72
     1
  1
DIN 69893 HSK 63 A ICTM / DC.. 11 T3..
  7
SLDTEXTSTYLE1
 73
     1
 44
1.0
  0
MTEXT
  5
4A
330
1F
100
AcDbEntity
  8
VERMASSUNG
100
AcDbMText
 10
13.9808475933
 20
13.9090973692
 30
0.0
 40
2.0
 41
0.0
 71
     1
 72
     1
  1
Gewicht: 1535g
  7
SLDTEXTSTYLE0
 73
     1
 44
1.0
  0
LINE
  5
4B
330
1F
100
AcDbEntity
  8
0
  6
Continuous
 62
     7
370
    15
100
AcDbLine
 10
274.7032243635
 20
98.4608630084
 30
0.0
 11
274.7032243635
 21
98.5549684866
 31
0.0
  0
LINE
  5
4C
330
1F
100
AcDbEntity
  8
0
  6
Continuous
 62
     7
370
    15
100
AcDbLine
 10
276.6073243374
 20
98.1265515144
 30
0.0
 11
276.6073243374
 21
98.0338014296
 31
0.0
  0
LINE
  5
4D
330
1F
100
AcDbEntity
  8
0
  6
Continuous
 62
     7
370
    15
100
AcDbLine
 10
274.455273714
 20
96.6902090066
 30
0.0
 11
274.455273714
 21
96.7830195821
 31
0.0
  0
LINE
  5
4E
330
1F
100
AcDbEntity
  8
0
  6
Continuous
 62
     7
370
    15
100
AcDbLine
 10
276.3593736879
 20
96.3546026099
 30
0.0
 11
276.3593736879
 21
96.2605132614
 31
0.0
  0
LINE
  5
4F
330
1F
100
AcDbEntity
  8
0
  6
Continuous
 62
     7
370
    15
100
AcDbLine
 10
278.1586149538
 20
97.3772761405
 30
0.0
 11
278.1586149538
 21
97.4278188817
 31
0.0
  0
LINE
  5
50
330
1F
100
AcDbEntity
  8
0
  6
Continuous
 62
     7
370
    15
100
AcDbLine
 10
272.9086149538
 20
97.4278188817
 30
0.0
 11
272.9086149538
 21
97.3772761405
 31
0.0
  0
LINE
  5
51
330
1F
100
AcDbEntity
  8
0
  6
Continuous
 62
     7
370
    15
100
AcDbLine
 10
143.0048961581
 20
85.7042500843
 30
0.0
 11
147.6548961581
 21
85.7042500843
 31
0.0
  0
LINE
  5
52
330
1F
100
AcDbEntity
  8
0
  6
Continuous
 62
     7
370
    15
100
AcDbLine
 10
147.6591003554
 20
148.7042500843
 30
0.0
 11
143.0048961581
 21
148.7042500843
 31
0.0
  0
ARC
  5
53
330
1F
100
AcDbEntity
  8
0
  6
Continuous
 62
     7
370
    15
100
AcDbCircle
 10
143.0048961581
 20
86.0042500843
 30
0.0
 40
0.2999999999999829
100
AcDbArc
 50
180.0
 51
270.0
  0
ARC
  5
54
330
1F
100
AcDbEntity
  8
0
  6
Continuous
 62
     7
370
    15
100
AcDbCircle
 10
143.0048961581
 20
148.4042500843
 30
0.0
 40
0.2999999999999829
100
AcDbArc
 50
90.0
 51
180.0
  0
ARC
  5
55
330
1F
100
AcDbEntity
  8
0
  6
Continuous
 62
     7
370
    15
100
AcDbCircle
 10
142.2048961581
 20
92.6338192226
 30
0.0
 40
0.5999999999999943
100
AcDbArc
 50
33.5573097619
 51
90.0
  0
ARC
  5
56
330
1F
100
AcDbEntity
  8
0
  6
Continuous
 62
     7
370
    15
100
AcDbCircle
 10
142.2048961581
 20
141.7746809461
 30
0.0
 40
0.5999999999999862
100
AcDbArc
 50
270.0
 51
326.4426902381
  0
LINE
  5
57
330
1F
100
AcDbEntity
  8
0
  6
Continuous
 62
     7
370
    15
100
AcDbLine
 10
140.7048961581
 20
92.9838192226
 30
0.0
 11
141.5616089314
 21
93.2133747184
 31
0.0
  0
LINE
  5
58
330
1F
100
AcDbEntity
  8
0
  6
Continuous
 62
     7
370
    15
100
AcDbLine
 10
141.5616089314
 20
141.1951254503
 30
0.0
 11
140.7048961581
 21
141.4246809461
 31
0.0
  0
LINE
  5
59
330
1F
100
AcDbEntity
  8
0
  6
Continuous
 62
     7
370
    15
100
AcDbLine
 10
129.4744739756
 20
140.8620345441
 30
0.0
 11
116.9048961581
 21
140.2322961765
 31
0.0
  0
LINE
  5
5A
330
1F
100
AcDbEntity
  8
0
  6
Continuous
 62
     7
370
    15
100
AcDbLine
 10
140.7048961581
 20
141.4246809461
 30
0.0
 11
137.8862868005
 21
141.2834680524
 31
0.0
  0
LINE
  5
5B
330
1F
100
AcDbEntity
  8
0
  6
Continuous
 62
     7
370
    15
100
AcDbLine
 10
137.8865082757
 20
93.1250210203
 30
0.0
 11
140.7048961581
 21
92.9838192226
 31
0.0
  0
LINE
  5
5C
330
1F
100
AcDbEntity
  8
0
  6
Continuous
 62
     7
370
    15
100
AcDbLine
 10
120.9048961581
 20
93.9758031906
 30
0.0
 11
129.4751729273
 21
93.5464306069
 31
0.0
  0
ARC
  5
5D
330
1F
100
AcDbEntity
  8
0
  6
Continuous
 62
     7
370
    15
100
AcDbCircle
 10
141.7169003585
 20
92.6338192226
 30
0.0
 40
0.6000000000000085
100
AcDbArc
 50
90.0
 51
105.0
  0
ARC
  5
5E
330
1F
100
AcDbEntity
  8
0
  6
Continuous
 62
     7
370
    15
100
AcDbCircle
 10
141.7169003585
 20
141.7746809461
 30
0.0
 40
0.5999999999999943
100
AcDbArc
 50
255.0
 51
270.0
  0
LINE
  5
5F
330
1F
100
AcDbEntity
  8
0
  6
Continuous
 62
     7
370
    15
100
AcDbLine
 10
141.7169003585
 20
93.2338192226
 30
0.0
 11
142.2048961581
 21
93.2338192226
 31
0.0
  0
LINE
  5
60
330
1F
100
AcDbEntity
  8
0
  6
Continuous
 62
     7
370
    15
100
AcDbLine
 10
142.2048961581
 20
141.1746809461
 30
0.0
 11
141.7169003585
 21
141.1746809461
 31
0.0
  0
ARC
  5
61
330
1F
100
AcDbEntity
  8
0
  6
Continuous
 62
     7
370
    15
100
AcDbCircle
 10
171.6548961581
 20
94.2042500843
 30
0.0
 40
3.000000000000014
100
AcDbArc
 50
90.0
 51
180.0
  0
ARC
  5
62
330
1F
100
AcDbEntity
  8
0
  6
Continuous
 62
     7
370
    15
100
AcDbCircle
 10
171.6548961581
 20
140.2042500843
 30
0.0
 40
3.000000000000028
100
AcDbArc
 50
180.0
 51
270.0
  0
LINE
  5
63
330
1F
100
AcDbEntity
  8
0
  6
Continuous
 62
     7
370
    15
100
AcDbLine
 10
171.6548961581
 20
97.2042500843
 30
0.0
 11
254.9494472961
 21
97.2042500843
 31
0.0
  0
LINE
  5
64
330
1F
100
AcDbEntity
  8
0
  6
Continuous
 62
     7
370
    15
100
AcDbLine
 10
256.7048961581
 20
137.2042500843
 30
0.0
 11
171.6548961581
 21
137.2042500843
 31
0.0
  0
LINE
  5
65
330
1F
100
AcDbEntity
  8
0
  6
Continuous
 62
     7
370
    15
100
AcDbLine
 10
111.9548961581
 20
96.3917500843
 30
0.0
 11
119.5048961581
 21
96.3917500843
 31
0.0
  0
ARC
  5
66
330
1F
100
AcDbEntity
  8
0
  6
Continuous
 62
     7
370
    15
100
AcDbCircle
 10
119.5048961581
 20
94.9917500843
 30
0.0
 40
1.400000000000006
100
AcDbArc
 50
37.6443616934
 51
90.0
  0
LINE
  5
67
330
1F
100
AcDbEntity
  8
0
  6
Continuous
 62
     7
370
    15
100
AcDbLine
 10
111.9460596162
 20
138.0654135425
 30
0.0
 11
110.8147969314
 21
136.9341508577
 31
0.0
  0
LINE
  5
68
330
1F
100
AcDbEntity
  8
0
  6
Continuous
 62
     7
370
    15
100
AcDbLine
 10
110.8023152783
 20
97.5443309641
 30
0.0
 11
111.9548961581
 21
96.3917500843
 31
0.0
  0
ARC
  5
69
330
1F
100
AcDbEntity
  8
0
  6
Continuous
 62
     7
370
    15
100
AcDbCircle
 10
115.5048961581
 20
139.4742500843
 30
0.0
 40
1.40000000000004
100
AcDbArc
 50
270.0
 51
301.7485287426
  0
LINE
  5
6A
330
1F
100
AcDbEntity
  8
0
  6
Continuous
 62
     7
370
    15
100
AcDbLine
 10
115.5048961581
 20
138.0742500843
 30
0.0
 11
112.0957845595
 21
138.0742500843
 31
0.0
  0
LINE
  5
6B
330
1F
100
AcDbEntity
  8
0
  6
Continuous
 62
     7
370
    15
100
AcDbLine
 10
267.281099847
 20
137.7042500843
 30
0.0
 11
257.2048961581
 21
137.7042500843
 31
0.0
  0
LINE
  5
6C
330
1F
100
AcDbEntity
  8
0
  6
Continuous
 62
     7
370
    15
100
AcDbLine
 10
257.2048961581
 20
137.7042500843
 30
0.0
 11
256.7048961581
 21
137.2042500843
 31
0.0
  0
CIRCLE
  5
6D
330
1F
100
AcDbEntity
  8
0
  6
Continuous
 62
     7
370
    15
100
AcDbCircle
 10
275.5314660421
 20
97.3820245877
 30
0.0
 40
2.623133344010016
  0
CIRCLE
  5
6E
330
1F
100
AcDbEntity
  8
0
  6
Continuous
 62
     7
370
    15
100
AcDbCircle
 10
275.532017578
 20
97.3613577208
 30
0.0
 40
1.798741723201251
  0
ARC
  5
6F
330
1F
100
AcDbEntity
  8
0
  6
Continuous
 62
     7
370
    15
100
AcDbCircle
 10
275.5372841989
 20
97.3595781267
 30
0.0
 40
1.671499009027286
100
AcDbArc
 50
293.3149799654
 51
351.9503208343
  0
ARC
  5
70
330
1F
100
AcDbEntity
  8
0
  6
Continuous
 62
     7
370
    15
100
AcDbCircle
 10
275.5395345146
 20
97.3578110298
 30
0.0
 40
1.669024032652505
100
AcDbArc
 50
351.9995680764
 51
52.2046175961
  0
ARC
  5
71
330
1F
100
AcDbEntity
  8
0
  6
Continuous
 62
     7
370
    15
100
AcDbCircle
 10
275.5335768524
 20
97.3507644886
 30
0.0
 40
1.678243399579474
100
AcDbArc
 50
52.1913252363
 51
110.6635337803
  0
LINE
  5
72
330
1F
100
AcDbEntity
  8
0
  6
Continuous
 62
     7
370
    15
100
AcDbLine
 10
274.8626712166
 20
98.8890744643
 30
0.0
 11
274.9413593224
 21
98.9210444971
 31
0.0
  0
ARC
  5
73
330
1F
100
AcDbEntity
  8
0
  6
Continuous
 62
     7
370
    15
100
AcDbCircle
 10
275.5300497165
 20
97.3564227482
 30
0.0
 40
1.67165048531485
100
AcDbArc
 50
113.5302556193
 51
170.0044536116
  0
LINE
  5
74
330
1F
100
AcDbEntity
  8
0
  6
Continuous
 62
     7
370
    15
100
AcDbLine
 10
273.8673196053
 20
97.5281896719
 30
0.0
 11
273.8837727998
 21
97.6465738441
 31
0.0
  0
ARC
  5
75
330
1F
100
AcDbEntity
  8
0
  6
Continuous
 62
     7
370
    15
100
AcDbCircle
 10
275.5276180273
 20
97.3583382917
 30
0.0
 40
1.668963852617009
100
AcDbArc
 50
174.1588638666
 51
230.0453218058
  0
LINE
  5
76
330
1F
100
AcDbEntity
  8
0
  6
Continuous
 62
     7
370
    15
100
AcDbLine
 10
274.5502509065
 20
96.0054081699
 30
0.0
 11
274.4558403901
 21
96.0789896146
 31
0.0
  0
ARC
  5
77
330
1F
100
AcDbEntity
  8
0
  6
Continuous
 62
     7
370
    15
100
AcDbCircle
 10
275.5336496549
 20
97.3654524629
 30
0.0
 40
1.678330592438065
100
AcDbArc
 50
234.1306715136
 51
290.4496812146
  0
LINE
  5
78
330
1F
100
AcDbEntity
  8
0
  6
Continuous
 62
     7
370
    15
100
AcDbLine
 10
276.1988394648
 20
95.8245688214
 30
0.0
 11
276.1200325748
 21
95.7928912881
 31
0.0
  0
SPLINE
  5
79
330
1F
100
AcDbEntity
  8
0
  6
Continuous
 62
     7
370
    15
100
AcDbSpline
210
0.0
220
0.0
230
1.0
 70
     8
 71
     3
 72
    11
 73
     7
 74
     0
 42
0.00000001
 43
0.00000001
 40
0.0
 40
0.0
 40
0.0
 40
0.0
 40
0.2431090893443546
 40
0.5182793655622396
 40
0.7947794085751545
 40
1.0
 40
1.0
 40
1.0
 40
1.0
 10
274.8626712165655
 20
98.88907446425861
 30
0.0
 10
274.8353063422661
 20
98.87046390608742
 30
0.0
 10
274.7769677185277
 20
98.8307884323824
 30
0.0
 10
274.7172062430059
 20
98.73945784461495
 30
0.0
 10
274.6887781625939
 20
98.64047620198079
 30
0.0
 10
274.6940584601907
 20
98.57672464576335
 30
0.0
 10
274.6963079502856
 20
98.54956547686774
 30
0.0
  0
SPLINE
  5
7A
330
1F
100
AcDbEntity
  8
0
  6
Continuous
 62
     7
370
    15
100
AcDbSpline
210
0.0
220
0.0
230
1.0
 70
     8
 71
     3
 72
    12
 73
     8
 74
     0
 42
0.00000001
 43
0.00000001
 40
0.0
 40
0.0
 40
0.0
 40
0.0
 40
0.2058179564998837
 40
0.4120215045907515
 40
0.6140779969168493
 40
0.8132130006453656
 40
0.9999999999999999
 40
0.9999999999999999
 40
0.9999999999999999
 40
0.9999999999999999
 10
274.6963079502856
 20
98.54956547686774
 30
0.0
 10
274.7000534354259
 20
98.48494776290222
 30
0.0
 10
274.7075514227208
 20
98.35559127630576
 30
0.0
 10
274.6358712903843
 20
98.16894157934078
 30
0.0
 10
274.5118302915386
 20
98.0170823940773
 30
0.0
 10
274.3502316240306
 20
97.91213902857432
 30
0.0
 10
274.2295209751793
 20
97.8889035017582
 30
0.0
 10
274.1710967865895
 20
97.8776574616316
 30
0.0
  0
SPLINE
  5
7B
330
1F
100
AcDbEntity
  8
0
  6
Continuous
 62
     7
370
    15
100
AcDbSpline
210
0.0
220
0.0
230
1.0
 70
     8
 71
     3
 72
    11
 73
     7
 74
     0
 42
0.00000001
 43
0.00000001
 40
0.0
 40
0.0
 40
0.0
 40
0.0
 40
0.2908641666076274
 40
0.5839560789892029
 40
0.874598805361774
 40
1.0
 40
1.0
 40
1.0
 40
1.0
 10
274.1710967865895
 20
97.8776574616316
 30
0.0
 10
274.1340720027977
 20
97.87017502056206
 30
0.0
 10
274.0597388602156
 20
97.85515282996634
 30
0.0
 10
273.9651878759736
 20
97.78745431231646
 30
0.0
 10
273.9086676789496
 20
97.71238753832667
 30
0.0
 10
273.8895385689959
 20
97.66181660026652
 30
0.0
 10
273.8837727997599
 20
97.64657384408993
 30
0.0
  0
SPLINE
  5
7C
330
1F
100
AcDbEntity
  8
0
  6
Continuous
 62
     7
370
    15
100
AcDbSpline
210
0.0
220
0.0
230
1.0
 70
     8
 71
     3
 72
    12
 73
     8
 74
     0
 42
0.00000001
 43
0.00000001
 40
0.0
 40
0.0
 40
0.0
 40
0.0
 40
0.009173520518854
 40
0.2576775215522031
 40
0.5061895192300296
 40
0.7560357430218565
 40
1.0
 40
1.0
 40
1.0
 40
1.0
 10
276.56238482951
 20
98.67668117310464
 30
0.0
 10
276.5612990607115
 20
98.67751724310885
 30
0.0
 10
276.5308006045952
 20
98.70100184164305
 30
0.0
 10
276.4621177168976
 20
98.73694583142087
 30
0.0
 10
276.3503026172108
 20
98.75369766621814
 30
0.0
 10
276.2385090171264
 20
98.73537937920673
 30
0.0
 10
276.1770416598969
 20
98.69568979669712
 30
0.0
 10
276.1466740619643
 20
98.67608138439363
 30
0.0
  0
SPLINE
  5
7D
330
1F
100
AcDbEntity
  8
0
  6
Continuous
 62
     7
370
    15
100
AcDbSpline
210
0.0
220
0.0
230
1.0
 70
     8
 71
     3
 72
    12
 73
     8
 74
     0
 42
0.00000001
 43
0.00000001
 40
0.0
 40
0.0
 40
0.0
 40
0.0
 40
0.2057532787805125
 40
0.4119604088044723
 40
0.6140154573249551
 40
0.8131414684041369
 40
1.0
 40
1.0
 40
1.0
 40
1.0
 10
276.1466740619643
 20
98.67608138439363
 30
0.0
 10
276.0918777654007
 20
98.64088696286802
 30
0.0
 10
275.9821643024263
 20
98.57042048784871
 30
0.0
 10
275.7833632752681
 20
98.53954965681942
 30
0.0
 10
275.5895793817776
 20
98.57071902265858
 30
0.0
 10
275.4186535493249
 20
98.65726487234963
 30
0.0
 10
275.3392241667506
 20
98.74930185856128
 30
0.0
 10
275.3007717000002
 20
98.79385777776163
 30
0.0
  0
SPLINE
  5
7E
330
1F
100
AcDbEntity
  8
0
  6
Continuous
 62
     7
370
    15
100
AcDbSpline
210
0.0
220
0.0
230
1.0
 70
     8
 71
     3
 72
    11
 73
     7
 74
     0
 42
0.00000001
 43
0.00000001
 40
0.0
 40
0.0
 40
0.0
 40
0.0
 40
0.2794069064556307
 40
0.5596240257155712
 40
0.8375007392219347
 40
1.0
 40
1.0
 40
1.0
 40
1.0
 10
275.3007717000002
 20
98.79385777776163
 30
0.0
 10
275.2759745551563
 20
98.82203309544157
 30
0.0
 10
275.2263083597147
 20
98.87846543244387
 30
0.0
 10
275.1207950294171
 20
98.92570386611841
 30
0.0
 10
275.0218132534732
 20
98.93752929961333
 30
0.0
 10
274.9630449109696
 20
98.92548781818364
 30
0.0
 10
274.9413593223552
 20
98.92104449714603
 30
0.0
  0
LINE
  5
7F
330
1F
100
AcDbEntity
  8
0
  6
Continuous
 62
     7
370
    15
100
AcDbLine
 10
276.6860571861
 20
98.4499100432
 30
0.0
 11
276.6609739391
 21
98.3709564946
 31
0.0
  0
SPLINE
  5
80
330
1F
100
AcDbEntity
  8
0
  6
Continuous
 62
     7
370
    15
100
AcDbSpline
210
0.0
220
0.0
230
1.0
 70
     8
 71
     3
 72
    11
 73
     7
 74
     0
 42
0.00000001
 43
0.00000001
 40
0.0
 40
0.0
 40
0.0
 40
0.0
 40
0.2535086227483964
 40
0.5075674742604537
 40
0.7595056251923494
 40
1.0
 40
1.0
 40
1.0
 40
1.0
 10
276.6609739391179
 20
98.27602175522986
 30
0.0
 10
276.6733920475455
 20
98.3113672356038
 30
0.0
 10
276.6982552173318
 20
98.3821349120852
 30
0.0
 10
276.6871696621317
 20
98.49637590406302
 30
0.0
 10
276.6430445861204
 20
98.60100256157337
 30
0.0
 10
276.5888516132011
 20
98.6518488462342
 30
0.0
 10
276.56238482951
 20
98.67668117310464
 30
0.0
  0
SPLINE
  5
81
330
1F
100
AcDbEntity
  8
0
  6
Continuous
 62
     7
370
    15
100
AcDbSpline
210
0.0
220
0.0
230
1.0
 70
     8
 71
     3
 72
    12
 73
     8
 74
     0
 42
0.00000001
 43
0.00000001
 40
0.0
 40
0.0
 40
0.0
 40
0.0
 40
0.0091681771491856
 40
0.2573268097002755
 40
0.5054934687429524
 40
0.7549925359452824
 40
0.9999999999999999
 40
0.9999999999999999
 40
0.9999999999999999
 40
0.9999999999999999
 10
277.1923139689651
 20
97.12551532016289
 30
0.0
 10
277.1924995432477
 20
97.12687214900737
 30
0.0
 10
277.1977081291324
 20
97.16495479424609
 30
0.0
 10
277.1945970159276
 20
97.24233816250852
 30
0.0
 10
277.1529414999775
 20
97.34766815228593
 30
0.0
 10
277.0804196207321
 20
97.43582529109918
 30
0.0
 10
277.0143833627097
 20
97.46960224306198
 30
0.0
 10
276.9816651373858
 20
97.48633732100498
 30
0.0
  0
SPLINE
  5
82
330
1F
100
AcDbEntity
  8
0
  6
Continuous
 62
     7
370
    15
100
AcDbSpline
210
0.0
220
0.0
230
1.0
 70
     8
 71
     3
 72
    12
 73
     8
 74
     0
 42
0.00000001
 43
0.00000001
 40
0.0
 40
0.0
 40
0.0
 40
0.0
 40
0.2058435564095135
 40
0.4120691620552993
 40
0.614139721772698
 40
0.8132604579561248
 40
1.0
 40
1.0
 40
1.0
 40
1.0
 10
276.9816651373858
 20
97.48633732100498
 30
0.0
 10
276.923098977665
 20
97.5164354782458
 30
0.0
 10
276.8058579584078
 20
97.57668765543302
 30
0.0
 10
276.6787096546083
 20
97.7335979179376
 30
0.0
 10
276.6089786058878
 20
97.91657910286742
 30
0.0
 10
276.599695853594
 20
98.10691005396662
 30
0.0
 10
276.6409895779236
 20
98.22087007594153
 30
0.0
 10
276.6609739391179
 20
98.27602175522986
 30
0.0
  0
ARC
  5
83
330
1F
100
AcDbEntity
  8
0
  6
Continuous
 62
     7
370
    15
100
AcDbCircle
 10
274.2011937101
 20
97.640079166
 30
0.0
 40
0.3341698797443394
100
AcDbArc
 50
180.0328975598
 51
248.907221221
  0
SPLINE
  5
84
330
1F
100
AcDbEntity
  8
0
  6
Continuous
 62
     7
370
    15
100
AcDbSpline
210
0.0
220
0.0
230
1.0
 70
     8
 71
     3
 72
    11
 73
     7
 74
     0
 42
0.00000001
 43
0.00000001
 40
0.0
 40
0.0
 40
0.0
 40
0.0
 40
0.2669010467950672
 40
0.5546143410794216
 40
0.8439070439788336
 40
1.0
 40
1.0
 40
1.0
 40
1.0
 10
273.8673196053384
 20
97.52818967189229
 30
0.0
 10
273.8719263640665
 20
97.49379858316502
 30
0.0
 10
273.8814991045527
 20
97.42233467831146
 30
0.0
 10
273.9388371010153
 20
97.32739880487432
 30
0.0
 10
274.010483411078
 20
97.26413353403493
 30
0.0
 10
274.0626501839487
 20
97.24130587255678
 30
0.0
 10
274.0809329140286
 20
97.23330553153141
 30
0.0
  0
ARC
  5
85
330
1F
100
AcDbEntity
  8
0
  6
Continuous
 62
     7
370
    15
100
AcDbCircle
 10
277.1909068574
 20
98.1265395151
 30
0.0
 40
0.5835825201393847
100
AcDbArc
 50
155.2397859016
 51
179.9988219149
  0
SPLINE
  5
86
330
1F
100
AcDbEntity
  8
0
  6
Continuous
 62
     7
370
    15
100
AcDbSpline
210
0.0
220
0.0
230
1.0
 70
     8
 71
     3
 72
    12
 73
     8
 74
     0
 42
0.00000001
 43
0.00000001
 40
0.0
 40
0.0
 40
0.0
 40
0.0
 40
0.2058401281338179
 40
0.412061993551012
 40
0.6141387330969207
 40
0.8132772113524531
 40
1.0
 40
1.0
 40
1.0
 40
1.0
 10
274.0809329140286
 20
97.23330553153141
 30
0.0
 10
274.1394984876435
 20
97.20457008152871
 30
0.0
 10
274.2567382466547
 20
97.14704589068677
 30
0.0
 10
274.3838868810059
 20
96.99232730914251
 30
0.0
 10
274.4536208229259
 20
96.80918072270036
 30
0.0
 10
274.4629019107376
 20
96.61653276837394
 30
0.0
 10
274.4216071371401
 20
96.50000853789003
 30
0.0
 10
274.4016241122966
 20
96.44362109730653
 30
0.0
  0
SPLINE
  5
87
330
1F
100
AcDbEntity
  8
0
  6
Continuous
 62
     7
370
    15
100
AcDbSpline
210
0.0
220
0.0
230
1.0
 70
     8
 71
     3
 72
    11
 73
     7
 74
     0
 42
0.00000001
 43
0.00000001
 40
0.0
 40
0.0
 40
0.0
 40
0.0
 40
0.2928993220620159
 40
0.5864344719080564
 40
0.8775178868035682
 40
1.0
 40
1.0
 40
1.0
 40
1.0
 10
274.4016241122966
 20
96.44362109730655
 30
0.0
 10
274.3892137278246
 20
96.40749246981323
 30
0.0
 10
274.3643660183359
 20
96.33515678656332
 30
0.0
 10
274.3753376467006
 20
96.21900122734075
 30
0.0
 10
274.4118503740033
 20
96.13287951407474
 30
0.0
 10
274.4457890630734
 20
96.09130297677031
 30
0.0
 10
274.4558403900676
 20
96.07898961455192
 30
0.0
  0
ARC
  5
88
330
1F
100
AcDbEntity
  8
0
  6
Continuous
 62
     7
370
    15
100
AcDbCircle
 10
276.8610574632
 20
97.2700924338
 30
0.0
 40
0.3345534763477017
100
AcDbArc
 50
275.221041838
 51
353.9119844202
  0
SPLINE
  5
89
330
1F
100
AcDbEntity
  8
0
  6
Continuous
 62
     7
370
    15
100
AcDbSpline
210
0.0
220
0.0
230
1.0
 70
     8
 71
     3
 72
    11
 73
     7
 74
     0
 42
0.00000001
 43
0.00000001
 40
0.0
 40
0.0
 40
0.0
 40
0.0
 40
0.2524782265335735
 40
0.5068902417932414
 40
0.7591786113117219
 40
1.0
 40
1.0
 40
1.0
 40
1.0
 10
276.891501264825
 20
96.8419853709609
 30
0.0
 10
276.928538290089
 20
96.84867455730179
 30
0.0
 10
277.0028960157002
 20
96.86210416399818
 30
0.0
 10
277.0972329385103
 20
96.92806775339969
 30
0.0
 10
277.1666557951127
 20
97.01809363787635
 30
0.0
 10
277.1838948725901
 20
97.09026754683575
 30
0.0
 10
277.1923139689652
 20
97.12551532016289
 30
0.0
  0
SPLINE
  5
8A
330
1F
100
AcDbEntity
  8
0
  6
Continuous
 62
     7
370
    15
100
AcDbSpline
210
0.0
220
0.0
230
1.0
 70
     8
 71
     3
 72
    12
 73
     8
 74
     0
 42
0.00000001
 43
0.00000001
 40
0.0
 40
0.0
 40
0.0
 40
0.0
 40
0.2058585741213954
 40
0.4121026961457362
 40
0.6141937841967186
 40
0.8133180967416216
 40
1.0
 40
1.0
 40
1.0
 40
1.0
 10
276.3662901011289
 20
96.17007733010402
 30
0.0
 10
276.3625450697174
 20
96.2360674245297
 30
0.0
 10
276.3550479929094
 20
96.36817120474777
 30
0.0
 10
276.4267525633781
 20
96.55703355301654
 30
0.0
 10
276.5508278203345
 20
96.70873424621637
 30
0.0
 10
276.7124286861626
 20
96.81132777760689
 30
0.0
 10
276.8331077214605
 20
96.8319882763731
 30
0.0
 10
276.891501264825
 20
96.8419853709609
 30
0.0
  0
SPLINE
  5
8B
330
1F
100
AcDbEntity
  8
0
  6
Continuous
 62
     7
370
    15
100
AcDbSpline
210
0.0
220
0.0
230
1.0
 70
     8
 71
     3
 72
    11
 73
     7
 74
     0
 42
0.00000001
 43
0.00000001
 40
0.0
 40
0.0
 40
0.0
 40
0.0
 40
0.2423611237744843
 40
0.5166847928457629
 40
0.7923341374632915
 40
0.9999999999999999
 40
0.9999999999999999
 40
0.9999999999999999
 40
0.9999999999999999
 10
276.1988394648244
 20
95.82456882142505
 30
0.0
 10
276.2262740691671
 20
95.84321590528577
 30
0.0
 10
276.2847613489787
 20
95.88296924737178
 30
0.0
 10
276.3448621925937
 20
95.97534114965143
 30
0.0
 10
276.3737926234439
 20
96.0763423638093
 30
0.0
 10
276.3685448919416
 20
96.14190643877389
 30
0.0
 10
276.3662901011288
 20
96.17007733010402
 30
0.0
  0
ARC
  5
8C
330
1F
100
AcDbEntity
  8
0
  6
Continuous
 62
     7
370
    15
100
AcDbCircle
 10
273.8704087307
 20
96.7826372699
 30
0.0
 40
0.5848651082821639
100
AcDbArc
 50
0.0374528729
 51
68.9026659079
  0
ARC
  5
8D
330
1F
100
AcDbEntity
  8
0
  6
Continuous
 62
     7
370
    15
100
AcDbCircle
 10
274.7059491607
 20
96.3996453843
 30
0.0
 40
0.3350540727109363
100
AcDbArc
 50
187.02992089
 51
308.8062910879
  0
SPLINE
  5
8E
330
1F
100
AcDbEntity
  8
0
  6
Continuous
 62
     7
370
    15
100
AcDbSpline
210
0.0
220
0.0
230
1.0
 70
     8
 71
     3
 72
    11
 73
     7
 74
     0
 42
0.00000001
 43
0.00000001
 40
0.0
 40
0.0
 40
0.0
 40
0.0
 40
0.2657596322623779
 40
0.5530029385952103
 40
0.8418208483439691
 40
1.0
 40
1.0
 40
1.0
 40
1.0
 10
274.5502509064788
 20
96.0054081698524
 30
0.0
 10
274.5823753563856
 20
95.99220684128352
 30
0.0
 10
274.6492211562837
 20
95.96473700536521
 30
0.0
 10
274.7608284441065
 20
95.96685619672849
 30
0.0
 10
274.8526875744764
 20
95.9973846383741
 30
0.0
 10
274.8993954441133
 20
96.03149189151996
 30
0.0
 10
274.9159239894502
 20
96.04356144819887
 30
0.0
  0
ARC
  5
8F
330
1F
100
AcDbEntity
  8
0
  6
Continuous
 62
     7
370
    15
100
AcDbCircle
 10
276.9446767623
 20
96.3540441967
 30
0.0
 40
0.5853033408467762
100
AcDbArc
 50
95.2125765697
 51
179.945336511
  0
SPLINE
  5
90
330
1F
100
AcDbEntity
  8
0
  6
Continuous
 62
     7
370
    15
100
AcDbSpline
210
0.0
220
0.0
230
1.0
 70
     8
 71
     3
 72
    12
 73
     8
 74
     0
 42
0.00000001
 43
0.00000001
 40
0.0
 40
0.0
 40
0.0
 40
0.0
 40
0.2057904614204054
 40
0.4120344203360363
 40
0.6141302471426525
 40
0.8132633242112308
 40
0.9999999999999999
 40
0.9999999999999999
 40
0.9999999999999999
 40
0.9999999999999999
 10
274.9159239894502
 20
96.04356144819887
 30
0.0
 10
274.9707286375306
 20
96.08012208022606
 30
0.0
 10
275.0804587059101
 20
96.1533239124221
 30
0.0
 10
275.2792902977988
 20
96.18637655614671
 30
0.0
 10
275.4730987232493
 20
96.15501894298342
 30
0.0
 10
275.6439962987244
 20
96.0661366873351
 30
0.0
 10
275.7233999711879
 20
95.97155608725022
 30
0.0
 10
275.7618263514144
 20
95.92578502921012
 30
0.0
  0
SPLINE
  5
91
330
1F
100
AcDbEntity
  8
0
  6
Continuous
 62
     7
370
    15
100
AcDbSpline
210
0.0
220
0.0
230
1.0
 70
     8
 71
     3
 72
    11
 73
     7
 74
     0
 42
0.00000001
 43
0.00000001
 40
0.0
 40
0.0
 40
0.0
 40
0.0
 40
0.2802371411012347
 40
0.561286987592231
 40
0.8399906057827622
 40
1.0
 40
1.0
 40
1.0
 40
1.0
 10
275.7618263514144
 20
95.92578502921012
 30
0.0
 10
275.7866211609922
 20
95.89681596292989
 30
0.0
 10
275.8362826866598
 20
95.8387938182495
 30
0.0
 10
275.9417880070895
 20
95.78981778685616
 30
0.0
 10
276.0403464805673
 20
95.77708214619352
 30
0.0
 10
276.0987363555392
 20
95.7886662729674
 30
0.0
 10
276.1200325748408
 20
95.79289128808026
 30
0.0
  0
ARC
  5
92
330
1F
100
AcDbEntity
  8
0
  6
Continuous
 62
     7
370
    15
100
AcDbCircle
 10
276.0351924284
 20
96.2148873877
 30
0.0
 40
0.3352849315103571
100
AcDbArc
 50
215.3805225639
 51
342.4620954344
  0
ARC
  5
93
330
1F
100
AcDbEntity
  8
0
  6
Continuous
 62
     7
370
    15
100
AcDbCircle
 10
275.5336149538
 20
97.4229377707
 30
0.0
 40
2.625004538138049
100
AcDbArc
 50
0.1065397111
 51
179.8934602889
  0
ARC
  5
94
330
1F
100
AcDbEntity
  8
0
  6
Continuous
 62
     7
370
    15
100
AcDbCircle
 10
275.2833041987
 20
95.6805790593
 30
0.0
 40
0.5871148448146604
100
AcDbArc
 50
35.4086710857
 51
128.7363927877
  0
LINE
  5
95
330
1F
100
AcDbEntity
  8
0
  6
Continuous
 62
     7
370
    15
100
AcDbLine
 10
272.146610583
 20
93.8136728409
 30
0.0
 11
271.784198142
 21
93.6843788996
 31
0.0
  0
LINE
  5
96
330
1F
100
AcDbEntity
  8
0
  6
Continuous
 62
     7
370
    15
100
AcDbLine
 10
268.5813030028
 20
103.8179194015
 30
0.0
 11
271.784198142
 21
93.6843788996
 31
0.0
  0
LINE
  5
97
330
1F
100
AcDbEntity
  8
0
  6
Continuous
 62
     7
370
    15
100
AcDbLine
 10
268.9437154441
 20
103.9472133429
 30
0.0
 11
268.5813030028
 21
103.8179194015
 31
0.0
  0
LINE
  5
98
330
1F
100
AcDbEntity
  8
0
  6
Continuous
 62
     7
370
    15
100
AcDbLine
 10
270.3632025757
 20
102.5685155543
 30
0.0
 11
268.9437154441
 21
103.9472133429
 31
0.0
  0
LINE
  5
99
330
1F
100
AcDbEntity
  8
0
  6
Continuous
 62
     7
370
    15
100
AcDbLine
 10
272.3223711596
 20
93.9978847893
 30
0.0
 11
272.146610583
 21
93.8136728409
 31
0.0
  0
SPLINE
  5
9A
330
1F
100
AcDbEntity
  8
0
  6
Continuous
 62
     7
370
    15
100
AcDbSpline
210
0.0
220
0.0
230
1.0
 70
     8
 71
     3
 72
    10
 73
     6
 74
     0
 42
0.00000001
 43
0.00000001
 40
0.0
 40
0.0
 40
0.0
 40
0.0
 40
0.35180227858103
 40
0.7034245935031406
 40
1.0
 40
1.0
 40
1.0
 40
1.0
 10
271.7655920127859
 20
93.6768980782824
 30
0.0
 10
271.7832616512961
 20
93.63582431867489
 30
0.0
 10
271.8185918894528
 20
93.55369781064861
 30
0.0
 10
271.913916115751
 20
93.4638535115264
 30
0.0
 10
271.9900219445437
 20
93.43258491161964
 30
0.0
 10
272.0248432905083
 20
93.41827832364271
 30
0.0
  0
LINE
  5
9B
330
1F
100
AcDbEntity
  8
0
  6
Continuous
 62
     7
370
    15
100
AcDbLine
 10
268.5596151772
 20
103.8201886646
 30
0.0
 11
271.7655920128
 21
93.6768980783
 31
0.0
  0
LINE
  5
9C
330
1F
100
AcDbEntity
  8
0
  6
Continuous
 62
     7
370
    15
100
AcDbLine
 10
279.2237683116
 20
101.1169066345
 30
0.0
 11
269.0557088435
 21
104.3150738716
 31
0.0
  0
SPLINE
  5
9D
330
1F
100
AcDbEntity
  8
0
  6
Continuous
 62
     7
370
    15
100
AcDbSpline
210
0.0
220
0.0
230
1.0
 70
     8
 71
     3
 72
    10
 73
     6
 74
     0
 42
0.00000001
 43
0.00000001
 40
0.0
 40
0.0
 40
0.0
 40
0.0
 40
0.3518022785811422
 40
0.7034245935035427
 40
1.0
 40
1.0
 40
1.0
 40
1.0
 10
279.4830195893596
 20
100.8582868798766
 30
0.0
 10
279.4653499508494
 20
100.8993606394841
 30
0.0
 10
279.4300197126927
 20
100.9814871475105
 30
0.0
 10
279.3346954863945
 20
101.0713314466326
 30
0.0
 10
279.2585896576019
 20
101.1026000465394
 30
0.0
 10
279.2237683116373
 20
101.1169066345163
 30
0.0
  0
LINE
  5
9E
330
1F
100
AcDbEntity
  8
0
  6
Continuous
 62
     7
370
    15
100
AcDbLine
 10
282.6889964249
 20
90.7149962936
 30
0.0
 11
279.4830195894
 21
100.8582868799
 31
0.0
  0
SPLINE
  5
9F
330
1F
100
AcDbEntity
  8
0
  6
Continuous
 62
     7
370
    15
100
AcDbSpline
210
0.0
220
0.0
230
1.0
 70
     8
 71
     3
 72
    20
 73
    16
 74
     0
 42
0.00000001
 43
0.00000001
 40
0.0
 40
0.0
 40
0.0
 40
0.0
 40
0.0783075311860672
 40
0.1588910126856859
 40
0.2369785693217986
 40
0.3174398160757251
 40
0.3936615824745069
 40
0.4721830276909927
 40
0.5469240757152989
 40
0.6238523130449595
 40
0.6983189620749485
 40
0.7748908420225616
 40
0.8503894607879834
 40
0.9279814901989367
 40
1.0
 40
1.0
 40
1.0
 40
1.0
 10
282.1929027586372
 20
90.22011108653169
 30
0.0
 10
282.214788212076
 20
90.21435851005214
 30
0.0
 10
282.2591952034256
 20
90.20268616272429
 30
0.0
 10
282.3279723168235
 20
90.19962093666739
 30
0.0
 10
282.3967282410459
 20
90.20753066607337
 30
0.0
 10
282.461957448665
 20
90.22699539426179
 30
0.0
 10
282.5229186891271
 20
90.25735060858148
 30
0.0
 10
282.5764577421203
 20
90.29673881001054
 30
0.0
 10
282.6225873717309
 20
90.34477257419854
 30
0.0
 10
282.6592933336414
 20
90.39893439954393
 30
0.0
 10
282.6865774717674
 20
90.45891100360919
 30
0.0
 10
282.7034750058834
 20
90.52220306434793
 30
0.0
 10
282.7095795079123
 20
90.58821815247266
 30
0.0
 10
282.7055412090284
 20
90.65328990969024
 30
0.0
 10
282.6943726637311
 20
90.69494476227277
 30
0.0
 10
282.6889964249101
 20
90.71499629356714
 30
0.0
  0
LINE
  5
A0
330
1F
100
AcDbEntity
  8
0
  6
Continuous
 62
     7
370
    15
100
AcDbLine
 10
272.0248432905
 20
93.4182783236
 30
0.0
 11
282.1929027586
 21
90.2201110865
 31
0.0
  0
ARC
  5
A1
330
1F
100
AcDbEntity
  8
0
  6
Continuous
 62
     7
370
    15
100
AcDbCircle
 10
268.9434135788
 20
103.9316066512
 30
0.0
 40
0.3795376924265919
100
AcDbArc
 50
72.4301999099
 51
197.4300603205
  0
ARC
  5
A2
330
1F
100
AcDbEntity
  8
0
  6
Continuous
 62
     7
370
    15
100
AcDbCircle
 10
272.1460307065
 20
93.7989500466
 30
0.0
 40
0.379538341203871
100
AcDbArc
 50
197.5699397498
 51
252.5697999314
  0
LINE
  5
A3
330
1F
100
AcDbEntity
  8
0
  6
Continuous
 62
     7
370
    15
100
AcDbLine
 10
272.0323423792
 20
93.436839129
 30
0.0
 11
282.1906279542
 21
90.2417460816
 31
0.0
  0
ARC
  5
A4
330
1F
100
AcDbEntity
  8
0
  6
Continuous
 62
     7
370
    15
100
AcDbCircle
 10
282.3051980234
 20
90.6035783069
 30
0.0
 40
0.3795376924265788
100
AcDbArc
 50
252.43019991
 51
17.4300603205
  0
LINE
  5
A5
330
1F
100
AcDbEntity
  8
0
  6
Continuous
 62
     7
370
    15
100
AcDbLine
 10
282.6673085993
 20
90.7172655566
 30
0.0
 11
279.4644134604
 21
100.8508060586
 31
0.0
  0
ARC
  5
A6
330
1F
100
AcDbEntity
  8
0
  6
Continuous
 62
     7
370
    15
100
AcDbCircle
 10
279.1025808971
 20
100.7362349125
 30
0.0
 40
0.3795383398849911
100
AcDbArc
 50
17.5699396794
 51
72.5698000901
  0
LINE
  5
A7
330
1F
100
AcDbEntity
  8
0
  6
Continuous
 62
     7
370
    15
100
AcDbLine
 10
279.216269223
 20
101.0983458292
 30
0.0
 11
269.0579836479
 21
104.2934388765
 31
0.0
  0
SPLINE
  5
A8
330
1F
100
AcDbEntity
  8
0
  6
Continuous
 62
     7
370
    15
100
AcDbSpline
210
0.0
220
0.0
230
1.0
 70
     8
 71
     3
 72
    14
 73
    10
 74
     0
 42
0.00000001
 43
0.00000001
 40
0.0
 40
0.0
 40
0.0
 40
0.0
 40
0.1588501103508013
 40
0.3173321153184923
 40
0.4720153553660969
 40
0.6236441635915837
 40
0.7746618341644264
 40
0.9277417761107895
 40
0.9999999999999999
 40
0.9999999999999999
 40
0.9999999999999999
 40
0.9999999999999999
 10
269.0557088435083
 20
104.3150738716273
 30
0.0
 10
269.0106124136721
 20
104.3245818978775
 30
0.0
 10
268.9205240565309
 20
104.3435759173074
 30
0.0
 10
268.7841831397402
 20
104.3131528889539
 30
0.0
 10
268.6682488121028
 20
104.2427626683327
 30
0.0
 10
268.5840861275342
 20
104.1384181078664
 30
0.0
 10
268.5398810713722
 20
104.0132056667525
 30
0.0
 10
268.5376323863483
 20
103.9027709487746
 30
0.0
 10
268.5542776211342
 20
103.8402401483659
 30
0.0
 10
268.5596151772353
 20
103.8201886645919
 30
0.0
  0
LINE
  5
A9
330
1F
100
AcDbEntity
  8
0
  6
Continuous
 62
     7
370
    15
100
AcDbLine
 10
268.9437154441
 20
103.9472133429
 30
0.0
 11
269.0579836479
 21
104.2934388765
 31
0.0
  0
LINE
  5
AA
330
1F
100
AcDbEntity
  8
0
  6
Continuous
 62
     7
370
    15
100
AcDbLine
 10
279.1020010191
 20
100.7521202956
 30
0.0
 11
279.216269223
 21
101.0983458292
 31
0.0
  0
LINE
  5
AB
330
1F
100
AcDbEntity
  8
0
  6
Continuous
 62
     7
370
    15
100
AcDbLine
 10
278.9262404426
 20
100.5856673787
 30
0.0
 11
279.1020010191
 21
100.7521202956
 31
0.0
  0
SPLINE
  5
AC
330
1F
100
AcDbEntity
  8
0
  6
Continuous
 62
     7
370
    15
100
AcDbSpline
210
0.0
220
0.0
230
1.0
 70
     8
 71
     3
 72
    11
 73
     7
 74
     0
 42
0.00000001
 43
0.00000001
 40
0.0
 40
0.0
 40
0.0
 40
0.0
 40
0.0072987238691063
 40
0.1268462096079198
 40
0.5874298328382972
 40
1.0
 40
1.0
 40
1.0
 40
1.0
 10
270.8493732347188
 20
102.0757105185798
 30
0.0
 10
270.8483125656689
 20
102.0768288057319
 30
0.0
 10
270.8298789530216
 20
102.0962637766986
 30
0.0
 10
270.7425759850589
 20
102.1878090545096
 30
0.0
 10
270.5787831574615
 20
102.3564746220744
 30
0.0
 10
270.4323792571428
 20
102.5004746950185
 30
0.0
 10
270.3632025756781
 20
102.5685155542801
 30
0.0
  0
ARC
  5
AD
330
1F
100
AcDbEntity
  8
0
  6
Continuous
 62
     7
370
    15
100
AcDbCircle
 10
272.3425567274
 20
100.5397586075
 30
0.0
 40
0.998783401118737
100
AcDbArc
 50
72.4301998975
 51
197.4300603423
  0
LINE
  5
AE
330
1F
100
AcDbEntity
  8
0
  6
Continuous
 62
     7
370
    15
100
AcDbLine
 10
279.1020010191
 20
100.7521202956
 30
0.0
 11
279.4644134604
 21
100.8508060586
 31
0.0
  0
LINE
  5
AF
330
1F
100
AcDbEntity
  8
0
  6
Continuous
 62
     7
370
    15
100
AcDbLine
 10
282.3048961581
 20
90.6185797936
 30
0.0
 11
282.6673085993
 21
90.7172655566
 31
0.0
  0
LINE
  5
B0
330
1F
100
AcDbEntity
  8
0
  6
Continuous
 62
     7
370
    15
100
AcDbLine
 10
280.8854090265
 20
92.0719406696
 30
0.0
 11
282.3048961581
 21
90.6185797936
 31
0.0
  0
LINE
  5
B1
330
1F
100
AcDbEntity
  8
0
  6
Continuous
 62
     7
370
    15
100
AcDbLine
 10
277.6329685071
 20
99.9227826326
 30
0.0
 11
272.6440569096
 21
101.4919486739
 31
0.0
  0
LINE
  5
B2
330
1F
100
AcDbEntity
  8
0
  6
Continuous
 62
     7
370
    15
100
AcDbLine
 10
279.8589774429
 20
94.294603324
 30
0.0
 11
278.2859796583
 21
99.2713621837
 31
0.0
  0
ARC
  5
B3
330
1F
100
AcDbEntity
  8
0
  6
Continuous
 62
     7
370
    15
100
AcDbCircle
 10
278.9060548746
 20
93.995426351
 30
0.0
 40
0.9987834011225453
100
AcDbArc
 50
252.43019991
 51
17.4300603205
  0
LINE
  5
B4
330
1F
100
AcDbEntity
  8
0
  6
Continuous
 62
     7
370
    15
100
AcDbLine
 10
273.615643095
 20
94.6124023255
 30
0.0
 11
278.6045546926
 21
93.0432362845
 31
0.0
  0
ARC
  5
B5
330
1F
100
AcDbEntity
  8
0
  6
Continuous
 62
     7
370
    15
100
AcDbCircle
 10
273.9148229
 20
95.5653257905
 30
0.0
 40
0.9987851049604146
100
AcDbArc
 50
197.5699396794
 51
252.5698000902
  0
LINE
  5
B6
330
1F
100
AcDbEntity
  8
0
  6
Continuous
 62
     7
370
    15
100
AcDbLine
 10
271.3896341592
 20
100.2405816341
 30
0.0
 11
272.9626319438
 21
95.2638227744
 31
0.0
  0
ARC
  5
B7
330
1F
100
AcDbEntity
  8
0
  6
Continuous
 62
     7
370
    15
100
AcDbCircle
 10
277.3337887021
 20
98.9698591676
 30
0.0
 40
0.998785104960101
100
AcDbArc
 50
17.5699396794
 51
72.5698000902
  0
CIRCLE
  5
B8
330
1F
100
AcDbEntity
  8
0
  6
Continuous
 62
     7
370
    15
100
AcDbCircle
 10
275.6281857718
 20
97.2625652388
 30
0.0
 40
3.046871564246866
  0
SPLINE
  5
B9
330
1F
100
AcDbEntity
  8
0
  6
Continuous
 62
     7
370
    15
100
AcDbSpline
210
0.0
220
0.0
230
1.0
 70
     8
 71
     3
 72
    11
 73
     7
 74
     0
 42
0.00000001
 43
0.00000001
 40
0.0
 40
0.0
 40
0.0
 40
0.0
 40
0.0092138098390005
 40
0.344849043110954
 40
0.6722304962507786
 40
1.0
 40
1.0
 40
1.0
 40
1.0
 10
278.4337789368753
 20
100.0926858333984
 30
0.0
 10
278.4351415000077
 20
100.09412217977
 30
0.0
 10
278.4861387096975
 20
100.1478809050391
 30
0.0
 10
278.5953958479709
 20
100.2608269039737
 30
0.0
 10
278.7686244675705
 20
100.4345102835287
 30
0.0
 10
278.8736810423252
 20
100.5352617883418
 30
0.0
 10
278.9262404425837
 20
100.5856673786677
 30
0.0
  0
ARC
  5
BA
330
1F
100
AcDbEntity
  8
0
  6
Continuous
 62
     7
370
    15
100
AcDbCircle
 10
275.6243058011
 20
97.3426745261
 30
0.0
 40
3.050004830462871
100
AcDbArc
 50
180.101972202
 51
359.898027798
  0
SPLINE
  5
BB
330
1F
100
AcDbEntity
  8
0
  6
Continuous
 62
     7
370
    15
100
AcDbSpline
210
0.0
220
0.0
230
1.0
 70
     8
 71
     3
 72
    11
 73
     7
 74
     0
 42
0.00000001
 43
0.00000001
 40
0.0
 40
0.0
 40
0.0
 40
0.0
 40
0.3277695037502879
 40
0.6551509568910151
 40
0.9907861901609706
 40
1.0
 40
1.0
 40
1.0
 40
1.0
 10
272.3223711595629
 20
93.99788478931133
 30
0.0
 10
272.3749305598216
 20
94.05234193538783
 30
0.0
 10
272.4799871345764
 20
94.16119175501218
 30
0.0
 10
272.6532157541756
 20
94.33312166223372
 30
0.0
 10
272.7624728924486
 20
94.43815765005117
 30
0.0
 10
272.8134701021377
 20
94.48614489088109
 30
0.0
 10
272.8148326652702
 20
94.48742703250376
 30
0.0
  0
LINE
  5
BC
330
1F
100
AcDbEntity
  8
0
  6
Continuous
 62
     7
370
    15
100
AcDbLine
 10
282.3048961581
 20
90.6185797936
 30
0.0
 11
282.1906279542
 21
90.2417460816
 31
0.0
  0
LINE
  5
BD
330
1F
100
AcDbEntity
  8
0
  6
Continuous
 62
     7
370
    15
100
AcDbLine
 10
272.146610583
 20
93.8136728409
 30
0.0
 11
272.0323423792
 21
93.436839129
 31
0.0
  0
SPLINE
  5
BE
330
1F
100
AcDbEntity
  8
0
  6
Continuous
 62
     7
370
    15
100
AcDbSpline
210
0.0
220
0.0
230
1.0
 70
     8
 71
     3
 72
    11
 73
     7
 74
     0
 42
0.00000001
 43
0.00000001
 40
0.0
 40
0.0
 40
0.0
 40
0.0
 40
0.412570167161341
 40
0.8731537903911135
 40
0.9927012761303556
 40
1.0
 40
1.0
 40
1.0
 40
1.0
 10
280.8854090264683
 20
92.07194066955866
 30
0.0
 10
280.8162323450031
 20
92.14191615138878
 30
0.0
 10
280.6698284446834
 20
92.2900106139981
 30
0.0
 10
280.5060356170886
 20
92.4481327194341
 30
0.0
 10
280.4187326491228
 20
92.53076804626664
 30
0.0
 10
280.4002990364764
 20
92.54811049388611
 30
0.0
 10
280.3992383674265
 20
92.54910837736082
 30
0.0
  0
LINE
  5
BF
330
1F
100
AcDbEntity
  8
0
  6
Continuous
 62
     7
370
    15
100
AcDbLine
 10
168.6548961581
 20
87.6439726837
 30
0.0
 11
168.6548961581
 21
137.0542500843
 31
0.0
  0
SPLINE
  5
C0
330
1F
100
AcDbEntity
  8
0
  6
Continuous
 62
     7
370
    15
100
AcDbSpline
210
0.0
220
0.0
230
1.0
 70
     8
 71
     3
 72
    10
 73
     6
 74
     0
 42
0.00000001
 43
0.00000001
 40
0.0
 40
0.0
 40
0.0
 40
0.0
 40
0.5
 40
0.5
 40
1.0
 40
1.0
 40
1.0
 40
1.0
 10
168.6548961580514
 20
87.6439726837482
 30
0.0
 10
168.6548961580514
 20
87.48408541555453
 30
0.0
 10
168.5935865068156
 20
87.32295816003993
 30
0.0
 10
168.3744868692805
 20
87.08885916168511
 30
0.0
 10
168.2164386629671
 20
87.01733238809389
 30
0.0
 10
168.0548961580514
 20
87.01733238809389
 30
0.0
  0
SPLINE
  5
C1
330
1F
100
AcDbEntity
  8
0
  6
Continuous
 62
     7
370
    15
100
AcDbSpline
210
0.0
220
0.0
230
1.0
 70
    24
 71
     3
 72
    12
 73
     8
 74
     0
 42
0.00000001
 43
0.00000001
 40
0.0
 40
0.0
 40
0.0
 40
0.0
 40
0.25
 40
0.25
 40
0.5
 40
0.5
 40
1.0
 40
1.0
 40
1.0
 40
1.0
 10
168.0548961580514
 20
137.054250084341
 30
0.0
 10
168.1451352257385
 20
137.054250084341
 30
0.0
 10
168.236033339845
 20
137.054250084341
 30
0.0
 10
168.3906303763335
 20
137.054250084341
 30
0.0
 10
168.4556087924416
 20
137.054250084341
 30
0.0
 10
168.6074438203779
 20
137.054250084341
 30
0.0
 10
168.6548961580514
 20
137.054250084341
 30
0.0
 10
168.6548961580514
 20
137.054250084341
 30
0.0
  0
LINE
  5
C2
330
1F
100
AcDbEntity
  8
0
  6
Continuous
 62
     7
370
    15
100
AcDbLine
 10
168.0548961581
 20
87.0173323881
 30
0.0
 11
164.0968289895
 21
87.0173323881
 31
0.0
  0
LINE
  5
C3
330
1F
100
AcDbEntity
  8
0
  6
Continuous
 62
     7
370
    15
100
AcDbLine
 10
164.0968289895
 20
87.0173323881
 30
0.0
 11
164.0968289895
 21
137.0542500843
 31
0.0
  0
LINE
  5
C4
330
1F
100
AcDbEntity
  8
0
  6
Continuous
 62
     7
370
    15
100
AcDbLine
 10
164.0968289895
 20
137.0542500843
 30
0.0
 11
168.0548961581
 21
137.0542500843
 31
0.0
  0
SPLINE
  5
C5
330
1F
100
AcDbEntity
  8
0
  6
Continuous
 62
     7
370
    15
100
AcDbSpline
210
0.0
220
0.0
230
1.0
 70
     8
 71
     3
 72
     8
 73
     4
 74
     0
 42
0.00000001
 43
0.00000001
 40
0.0
 40
0.0
 40
0.0
 40
0.0
 40
1.0
 40
1.0
 40
1.0
 40
1.0
 10
164.0968289895405
 20
87.01733238809388
 30
0.0
 10
163.6013493288747
 20
87.91285847602722
 30
0.0
 10
163.1072352808326
 20
88.80914289107947
 30
0.0
 10
162.6148961580514
 20
89.70641292528617
 30
0.0
  0
LINE
  5
C6
330
1F
100
AcDbEntity
  8
0
  6
Continuous
 62
     7
370
    15
100
AcDbLine
 10
162.6148961581
 20
89.7064129253
 30
0.0
 11
162.6148961581
 21
137.0542500843
 31
0.0
  0
SPLINE
  5
C7
330
1F
100
AcDbEntity
  8
0
  6
Continuous
 62
     7
370
    15
100
AcDbSpline
210
0.0
220
0.0
230
1.0
 70
    24
 71
     3
 72
     8
 73
     4
 74
     0
 42
0.00000001
 43
0.00000001
 40
0.0
 40
0.0
 40
0.0
 40
0.0
 40
1.0
 40
1.0
 40
1.0
 40
1.0
 10
162.6148961580514
 20
137.054250084341
 30
0.0
 10
163.0948481524163
 20
137.054250084341
 30
0.0
 10
163.59014888139
 20
137.054250084341
 30
0.0
 10
164.0968289895405
 20
137.054250084341
 30
0.0
  0
LINE
  5
C8
330
1F
100
AcDbEntity
  8
0
  6
Continuous
 62
     7
370
    15
100
AcDbLine
 10
147.6548961581
 20
137.0542500843
 30
0.0
 11
157.3129633266
 21
137.0542500843
 31
0.0
  0
LINE
  5
C9
330
1F
100
AcDbEntity
  8
0
  6
Continuous
 62
     7
370
    15
100
AcDbLine
 10
157.3129633266
 20
87.0173323881
 30
0.0
 11
157.3129633266
 21
137.0542500843
 31
0.0
  0
LINE
  5
CA
330
1F
100
AcDbEntity
  8
0
  6
Continuous
 62
     7
370
    15
100
AcDbLine
 10
157.3129633266
 20
87.0173323881
 30
0.0
 11
155.6548961581
 21
87.0173323881
 31
0.0
  0
SPLINE
  5
CB
330
1F
100
AcDbEntity
  8
0
  6
Continuous
 62
     7
370
    15
100
AcDbSpline
210
0.0
220
0.0
230
1.0
 70
     8
 71
     3
 72
    28
 73
    24
 74
     0
 42
0.00000001
 43
0.00000001
 40
0.0
 40
0.0
 40
0.0
 40
0.0
 40
0.1250000000000007
 40
0.1250000000000007
 40
0.1875000000000008
 40
0.1875000000000008
 40
0.2500000000000009
 40
0.2500000000000009
 40
0.3750000000000013
 40
0.3750000000000013
 40
0.4375000000000013
 40
0.4375000000000013
 40
0.5000000000000011
 40
0.5000000000000011
 40
0.6250000000000009
 40
0.6250000000000009
 40
0.7500000000000006
 40
0.7500000000000006
 40
0.8125000000000004
 40
0.8125000000000004
 40
0.8750000000000003
 40
0.8750000000000003
 40
1.0
 40
1.0
 40
1.0
 40
1.0
 10
155.6548961580514
 20
87.01733238809388
 30
0.0
 10
155.1231884005585
 20
87.01733238809388
 30
0.0
 10
154.6009498352482
 20
87.00154767414367
 30
0.0
 10
153.8310793489732
 20
86.95655226006745
 30
0.0
 10
153.5767197767818
 20
86.93799726499174
 30
0.0
 10
153.0725981960833
 20
86.89414454254523
 30
0.0
 10
152.8228753786554
 20
86.86879993559305
 30
0.0
 10
152.097285427209
 20
86.78539785784295
 30
0.0
 10
151.6389251656274
 20
86.71953229869183
 30
0.0
 10
150.9884272222336
 20
86.61056195820005
 30
0.0
 10
150.7767451714411
 20
86.57232232243341
 30
0.0
 10
150.3726736823031
 20
86.49456358501405
 30
0.0
 10
150.1801671684823
 20
86.4550626228387
 30
0.0
 10
149.630332197461
 20
86.3361548804727
 30
0.0
 10
149.3004034191522
 20
86.25633719904809
 30
0.0
 10
148.7159321505835
 20
86.10299403725202
 30
0.0
 10
148.46965501257
 20
86.03166028398277
 30
0.0
 10
148.169812219872
 20
85.93771677690818
 30
0.0
 10
148.0813553627998
 20
85.90852298354822
 30
0.0
 10
147.9279940094947
 20
85.85505640928481
 30
0.0
 10
147.8629057952684
 20
85.83069707500965
 30
0.0
 10
147.7073117793276
 20
85.7671069295649
 30
0.0
 10
147.6548961580514
 20
85.73700399447563
 30
0.0
 10
147.6548961580514
 20
85.72012710147871
 30
0.0
  0
LINE
  5
CC
330
1F
100
AcDbEntity
  8
0
  6
Continuous
 62
     7
370
    15
100
AcDbLine
 10
147.6548961581
 20
85.7201271015
 30
0.0
 11
147.6548961581
 21
85.7042500843
 31
0.0
  0
SPLINE
  5
CD
330
1F
100
AcDbEntity
  8
0
  6
Continuous
 62
     7
370
    15
100
AcDbSpline
210
0.0
220
0.0
230
1.0
 70
     8
 71
     3
 72
    23
 73
    19
 74
     0
 42
0.00000001
 43
0.00000001
 40
0.0
 40
0.0
 40
0.0
 40
0.0
 40
0.0518096556563024
 40
0.1565081673627768
 40
0.2099949527996023
 40
0.2617890369202371
 40
0.366399230558966
 40
0.4197730088286526
 40
0.5256601003252106
 40
0.5793827609716969
 40
0.6338669908735053
 40
0.6871878389931042
 40
0.7408884157128713
 40
0.79580450867962
 40
0.8511490593654789
 40
0.9035396802685544
 40
0.9563116917263498
 40
1.0
 40
1.0
 40
1.0
 40
1.0
 10
155.6548961580514
 20
147.6714455575053
 30
0.0
 10
155.4370821651786
 20
147.6728546286566
 30
0.0
 10
154.7791030989473
 20
147.677111193206
 30
0.0
 10
153.9040623098483
 20
147.7166849824026
 30
0.0
 10
153.0592849686069
 20
147.7796538881579
 30
0.0
 10
152.2396196054885
 20
147.8576982481013
 30
0.0
 10
151.4638489302246
 20
147.9546120929734
 30
0.0
 10
150.566084221447
 20
148.0900596900489
 30
0.0
 10
149.9085171007695
 20
148.2062137829849
 30
0.0
 10
149.3307970011068
 20
148.3199865079382
 30
0.0
 10
148.9394688403549
 20
148.4020707183598
 30
0.0
 10
148.5956635631379
 20
148.4780567059512
 30
0.0
 10
148.30056784276
 20
148.5461254523073
 30
0.0
 10
148.0552887673071
 20
148.6047121369851
 30
0.0
 10
147.8673355537797
 20
148.6508495979141
 30
0.0
 10
147.7389452524829
 20
148.6829590469067
 30
0.0
 10
147.6653963606539
 20
148.7015801414811
 30
0.0
 10
147.6610629990926
 20
148.7026835723492
 30
0.0
 10
147.6591003554245
 20
148.7031833325414
 30
0.0
  0
LINE
  5
CE
330
1F
100
AcDbEntity
  8
0
  6
Continuous
 62
     7
370
    15
100
AcDbLine
 10
157.3129633266
 20
147.6714455575
 30
0.0
 11
155.6548961581
 21
147.6714455575
 31
0.0
  0
LINE
  5
CF
330
1F
100
AcDbEntity
  8
0
  6
Continuous
 62
     7
370
    15
100
AcDbLine
 10
157.3129633266
 20
141.6629397467
 30
0.0
 11
157.3129633266
 21
147.6714455575
 31
0.0
  0
LINE
  5
D0
330
1F
100
AcDbEntity
  8
0
  6
Continuous
 62
     7
370
    15
100
AcDbLine
 10
154.9005165037
 20
141.6629397467
 30
0.0
 11
157.3129633266
 21
141.6629397467
 31
0.0
  0
SPLINE
  5
D1
330
1F
100
AcDbEntity
  8
0
  6
Continuous
 62
     7
370
    15
100
AcDbSpline
210
0.0
220
0.0
230
1.0
 70
     8
 71
     3
 72
    20
 73
    16
 74
     0
 42
0.00000001
 43
0.00000001
 40
0.0
 40
0.0
 40
0.0
 40
0.0
 40
0.2500000000000005
 40
0.2500000000000005
 40
0.3750000000000004
 40
0.3750000000000004
 40
0.5000000000000003
 40
0.5000000000000003
 40
0.6250000000000002
 40
0.6250000000000002
 40
0.7500000000000001
 40
0.7500000000000001
 40
0.8750000000000001
 40
0.8750000000000001
 40
1.0
 40
1.0
 40
1.0
 40
1.0
 10
147.6548961580514
 20
137.054250084341
 30
0.0
 10
147.9032698923395
 20
137.7081125126385
 30
0.0
 10
148.2228399846848
 20
138.3118982946356
 30
0.0
 10
148.8451462178895
 20
139.1387370308042
 30
0.0
 10
149.0765704783202
 20
139.4011656687571
 30
0.0
 10
149.5977848179699
 20
139.897828322862
 30
0.0
 10
149.884405300605
 20
140.1284152018836
 30
0.0
 10
150.5038900419126
 20
140.5449694264662
 30
0.0
 10
150.8381904213996
 20
140.7324672284337
 30
0.0
 10
151.5634508940244
 20
141.0638642060701
 30
0.0
 10
151.9453659514148
 20
141.2033681935654
 30
0.0
 10
152.7401541275865
 20
141.4288217010363
 30
0.0
 10
153.1543123217929
 20
141.51544781258
 30
0.0
 10
154.0198586623743
 20
141.6334286014341
 30
0.0
 10
154.4577462773861
 20
141.6629397467085
 30
0.0
 10
154.9005165037407
 20
141.6629397467085
 30
0.0
  0
LINE
  5
D2
330
1F
100
AcDbEntity
  8
0
  6
Continuous
 62
     7
370
    15
100
AcDbLine
 10
158.7948961581
 20
89.7064129253
 30
0.0
 11
158.7948961581
 21
137.0542500843
 31
0.0
  0
SPLINE
  5
D3
330
1F
100
AcDbEntity
  8
0
  6
Continuous
 62
     7
370
    15
100
AcDbSpline
210
0.0
220
0.0
230
1.0
 70
     8
 71
     3
 72
     8
 73
     4
 74
     0
 42
0.00000001
 43
0.00000001
 40
0.0
 40
0.0
 40
0.0
 40
0.0
 40
1.0
 40
1.0
 40
1.0
 40
1.0
 10
158.7948961580514
 20
89.70641292528617
 30
0.0
 10
158.3025570352702
 20
88.80914289107947
 30
0.0
 10
157.8084429872281
 20
87.91285847602722
 30
0.0
 10
157.3129633265624
 20
87.01733238809386
 30
0.0
  0
SPLINE
  5
D4
330
1F
100
AcDbEntity
  8
0
  6
Continuous
 62
     7
370
    15
100
AcDbSpline
210
0.0
220
0.0
230
1.0
 70
    24
 71
     3
 72
     8
 73
     4
 74
     0
 42
0.00000001
 43
0.00000001
 40
0.0
 40
0.0
 40
0.0
 40
0.0
 40
1.0
 40
1.0
 40
1.0
 40
1.0
 10
157.3129633265624
 20
137.054250084341
 30
0.0
 10
157.8196434347129
 20
137.054250084341
 30
0.0
 10
158.3149441636865
 20
137.054250084341
 30
0.0
 10
158.7948961580514
 20
137.054250084341
 30
0.0
  0
LINE
  5
D5
330
1F
100
AcDbEntity
  8
0
  6
Continuous
 62
     7
370
    15
100
AcDbLine
 10
142.7048961581
 20
86.0042500843
 30
0.0
 11
142.7048961581
 21
148.4042500684
 31
0.0
  0
SPLINE
  5
D6
330
1F
100
AcDbEntity
  8
0
  6
Continuous
 62
     7
370
    15
100
AcDbSpline
210
0.0
220
0.0
230
1.0
 70
     8
 71
     3
 72
    10
 73
     6
 74
     0
 42
0.00000001
 43
0.00000001
 40
0.0
 40
0.0
 40
0.0
 40
0.0
 40
0.5
 40
0.5
 40
1.0
 40
1.0
 40
1.0
 40
1.0
 10
159.1891936897424
 20
143.604250084341
 30
0.0
 10
159.0676534260739
 20
143.6789762515528
 30
0.0
 10
158.9663190657249
 20
143.7879212674696
 30
0.0
 10
158.8306801228365
 20
144.0383517482312
 30
0.0
 10
158.7948961580514
 20
144.1807711103301
 30
0.0
 10
158.7948961580514
 20
144.3239039353768
 30
0.0
  0
SPLINE
  5
D7
330
1F
100
AcDbEntity
  8
0
  6
Continuous
 62
     7
370
    15
100
AcDbSpline
210
0.0
220
0.0
230
1.0
 70
    24
 71
     3
 72
    12
 73
     8
 74
     0
 42
0.00000001
 43
0.00000001
 40
0.0
 40
0.0
 40
0.0
 40
0.0
 40
0.25
 40
0.25
 40
0.5
 40
0.5
 40
1.0
 40
1.0
 40
1.0
 40
1.0
 10
159.5948961580515
 20
143.6042500843411
 30
0.0
 10
159.5455527962418
 20
143.604250084341
 30
0.0
 10
159.4968620979402
 20
143.6042500843411
 30
0.0
 10
159.4140110003698
 20
143.604250084341
 30
0.0
 10
159.3778110327492
 20
143.604250084341
 30
0.0
 10
159.2820611161997
 20
143.6042500843411
 30
0.0
 10
159.2321791463877
 20
143.6042500843411
 30
0.0
 10
159.1891936897424
 20
143.6042500843411
 30
0.0
  0
SPLINE
  5
D8
330
1F
100
AcDbEntity
  8
0
  6
Continuous
 62
     7
370
    15
100
AcDbSpline
210
0.0
220
0.0
230
1.0
 70
    24
 71
     3
 72
    14
 73
    10
 74
     0
 42
0.00000001
 43
0.00000001
 40
0.0
 40
0.0
 40
0.0
 40
0.0
 40
0.1250000000000004
 40
0.1250000000000004
 40
0.2500000000000008
 40
0.2500000000000008
 40
0.5000000000000008
 40
0.5000000000000008
 40
1.0
 40
1.0
 40
1.0
 40
1.0
 10
159.5948961580515
 20
90.80425008434104
 30
0.0
 10
159.5255494363203
 20
90.80425008434104
 30
0.0
 10
159.4603513829364
 20
90.80425008434102
 30
0.0
 10
159.3559721903094
 20
90.80425008434102
 30
0.0
 10
159.3130698193004
 20
90.80425008434102
 30
0.0
 10
159.2007441616957
 20
90.80425008434104
 30
0.0
 10
159.1455204673419
 20
90.80425008434104
 30
0.0
 10
159.0014630885743
 20
90.80425008434104
 30
0.0
 10
158.9393823917428
 20
90.80425008434104
 30
0.0
 10
158.8925709603837
 20
90.80425008434104
 30
0.0
  0
SPLINE
  5
D9
330
1F
100
AcDbEntity
  8
0
  6
Continuous
 62
     7
370
    15
100
AcDbSpline
210
0.0
220
0.0
230
1.0
 70
     8
 71
     3
 72
     9
 73
     5
 74
     0
 42
0.00000001
 43
0.00000001
 40
0.0
 40
0.0
 40
0.0
 40
0.0
 40
0.5
 40
1.0
 40
1.0
 40
1.0
 40
1.0
 10
158.7948961580514
 20
137.3401167158024
 30
0.0
 10
158.7948961580514
 20
137.2918846636797
 30
0.0
 10
158.7993021327566
 20
137.1960146502402
 30
0.0
 10
158.8123213128504
 20
137.1013060202568
 30
0.0
 10
158.8210437812115
 20
137.054250084341
 30
0.0
  0
SPLINE
  5
DA
330
1F
100
AcDbEntity
  8
0
  6
Continuous
 62
     7
370
    15
100
AcDbSpline
210
0.0
220
0.0
230
1.0
 70
    24
 71
     3
 72
    14
 73
    10
 74
     0
 42
0.00000001
 43
0.00000001
 40
0.0
 40
0.0
 40
0.0
 40
0.0
 40
0.4999999999999984
 40
0.4999999999999984
 40
0.7499999999999992
 40
0.7499999999999992
 40
0.8749999999999996
 40
0.8749999999999996
 40
1.0
 40
1.0
 40
1.0
 40
1.0
 10
162.5172213557191
 20
90.80425008434104
 30
0.0
 10
162.4704366506709
 20
90.80425008434104
 30
0.0
 10
162.4083854538913
 20
90.80425008434104
 30
0.0
 10
162.2649938153407
 20
90.80425008434102
 30
0.0
 10
162.2088501617896
 20
90.80425008434104
 30
0.0
 10
162.0958991396534
 20
90.80425008434104
 30
0.0
 10
162.0528983776152
 20
90.80425008434104
 30
0.0
 10
161.9488356673087
 20
90.80425008434104
 30
0.0
 10
161.8835034289518
 20
90.80425008434104
 30
0.0
 10
161.8148961580514
 20
90.80425008434104
 30
0.0
  0
SPLINE
  5
DB
330
1F
100
AcDbEntity
  8
0
  6
Continuous
 62
     7
370
    15
100
AcDbSpline
210
0.0
220
0.0
230
1.0
 70
    24
 71
     3
 72
    12
 73
     8
 74
     0
 42
0.00000001
 43
0.00000001
 40
0.0
 40
0.0
 40
0.0
 40
0.0
 40
0.5000000000000017
 40
0.5000000000000017
 40
0.7500000000000008
 40
0.7500000000000008
 40
1.0
 40
1.0
 40
1.0
 40
1.0
 10
162.2205986263605
 20
143.6042500843411
 30
0.0
 10
162.1775130767497
 20
143.604250084341
 30
0.0
 10
162.1283608750026
 20
143.6042500843411
 30
0.0
 10
162.031888280713
 20
143.6042500843411
 30
0.0
 10
161.9957866955789
 20
143.6042500843411
 30
0.0
 10
161.9126809377162
 20
143.604250084341
 30
0.0
 10
161.8646843407522
 20
143.604250084341
 30
0.0
 10
161.8148961580514
 20
143.6042500843411
 30
0.0
  0
SPLINE
  5
DC
330
1F
100
AcDbEntity
  8
0
  6
Continuous
 62
     7
370
    15
100
AcDbSpline
210
0.0
220
0.0
230
1.0
 70
     8
 71
     3
 72
    10
 73
     6
 74
     0
 42
0.00000001
 43
0.00000001
 40
0.0
 40
0.0
 40
0.0
 40
0.0
 40
0.5
 40
0.5
 40
1.0
 40
1.0
 40
1.0
 40
1.0
 10
162.6148961580514
 20
144.3239039353768
 30
0.0
 10
162.6148961580514
 20
144.1801338775588
 30
0.0
 10
162.5788470993326
 20
144.0377145150636
 30
0.0
 10
162.4433382385585
 20
143.7878202217065
 30
0.0
 10
162.3434622454624
 20
143.6797898854582
 30
0.0
 10
162.2205986263605
 20
143.604250084341
 30
0.0
  0
SPLINE
  5
DD
330
1F
100
AcDbEntity
  8
0
  6
Continuous
 62
     7
370
    15
100
AcDbSpline
210
0.0
220
0.0
230
1.0
 70
     8
 71
     3
 72
    10
 73
     6
 74
     0
 42
0.00000001
 43
0.00000001
 40
0.0
 40
0.0
 40
0.0
 40
0.0
 40
0.5
 40
0.5
 40
1.0
 40
1.0
 40
1.0
 40
1.0
 10
162.5887485348913
 20
137.054250084341
 30
0.0
 10
162.597438177803
 20
137.1011289336592
 30
0.0
 10
162.6039772425535
 20
137.1485513990605
 30
0.0
 10
162.6127358769465
 20
137.2444881976472
 30
0.0
 10
162.6148961580514
 20
137.2924034856577
 30
0.0
 10
162.6148961580514
 20
137.3401167158022
 30
0.0
  0
LINE
  5
DE
330
1F
100
AcDbEntity
  8
0
  6
Continuous
 62
     7
370
    15
100
AcDbLine
 10
161.8148961581
 20
143.6042500843
 30
0.0
 11
159.5948961581
 21
143.6042500843
 31
0.0
  0
LINE
  5
DF
330
1F
100
AcDbEntity
  8
0
  6
Continuous
 62
     7
370
    15
100
AcDbLine
 10
161.8148961581
 20
90.8042500843
 30
0.0
 11
159.5948961581
 21
90.8042500843
 31
0.0
  0
LINE
  5
E0
330
1F
100
AcDbEntity
  8
0
  6
Continuous
 62
     7
370
    15
100
AcDbLine
 10
140.7048961581
 20
92.9838192226
 30
0.0
 11
140.7048961581
 21
141.4246809461
 31
0.0
  0
LINE
  5
E1
330
1F
100
AcDbEntity
  8
0
  6
Continuous
 62
     7
370
    15
100
AcDbLine
 10
120.9048961581
 20
93.9758031906
 30
0.0
 11
120.9048961581
 21
95.2591018251
 31
0.0
  0
SPLINE
  5
E2
330
1F
100
AcDbEntity
  8
0
  6
Continuous
 62
     7
370
    15
100
AcDbSpline
210
0.0
220
0.0
230
1.0
 70
     8
 71
     3
 72
    14
 73
    10
 74
     0
 42
0.00000001
 43
0.00000001
 40
0.0
 40
0.0
 40
0.0
 40
0.0
 40
0.25
 40
0.25
 40
0.5
 40
0.5
 40
0.75
 40
0.75
 40
1.0
 40
1.0
 40
1.0
 40
1.0
 10
120.2832919213117
 20
96.33987886705782
 30
0.0
 10
120.3217283061327
 20
96.2372544693463
 30
0.0
 10
120.3905296995245
 20
96.13805804590672
 30
0.0
 10
120.5338157116834
 20
95.94716601658021
 30
0.0
 10
120.6089977667904
 20
95.85490875054731
 30
0.0
 10
120.7411850554405
 20
95.6753014287323
 30
0.0
 10
120.7987022509103
 20
95.58799187428795
 30
0.0
 10
120.8807470492026
 20
95.41805804077221
 30
0.0
 10
120.9048961580514
 20
95.33615569890102
 30
0.0
 10
120.9048961580514
 20
95.25910182506513
 30
0.0
  0
SPLINE
  5
E3
330
1F
100
AcDbEntity
  8
0
  6
Continuous
 62
     7
370
    15
100
AcDbSpline
210
0.0
220
0.0
230
1.0
 70
     8
 71
     3
 72
    18
 73
    14
 74
     0
 42
0.00000001
 43
0.00000001
 40
0.0
 40
0.0
 40
0.0
 40
0.0
 40
0.0624999999999969
 40
0.0624999999999969
 40
0.1249999999999938
 40
0.1249999999999938
 40
0.2499999999999941
 40
0.2499999999999941
 40
0.4999999999999961
 40
0.4999999999999961
 40
0.7499999999999981
 40
0.7499999999999981
 40
1.0
 40
1.0
 40
1.0
 40
1.0
 10
119.5048961580514
 20
97.05816131854438
 30
0.0
 10
119.5414683684018
 20
97.06193872207182
 30
0.0
 10
119.5801188418372
 20
97.06138169418868
 30
0.0
 10
119.6542103355511
 20
97.05132248902683
 30
0.0
 10
119.6895606293052
 20
97.04196860760227
 30
0.0
 10
119.7841549266946
 20
97.00758418116845
 30
0.0
 10
119.8342930998335
 20
96.97687244650564
 30
0.0
 10
119.9634863714147
 20
96.88094313646761
 30
0.0
 10
120.0217665161558
 20
96.81242764235037
 30
0.0
 10
120.1219616125793
 20
96.67585569241776
 30
0.0
 10
120.1619768640259
 20
96.60709078991485
 30
0.0
 10
120.2303762848437
 20
96.47205536080718
 30
0.0
 10
120.2587380087057
 20
96.40543733475403
 30
0.0
 10
120.2832919213116
 20
96.33987886705782
 30
0.0
  0
SPLINE
  5
E4
330
1F
100
AcDbEntity
  8
0
  6
Continuous
 62
     7
370
    15
100
AcDbSpline
210
0.0
220
0.0
230
1.0
 70
     8
 71
     3
 72
    10
 73
     6
 74
     0
 42
0.00000001
 43
0.00000001
 40
0.0
 40
0.0
 40
0.0
 40
0.0
 40
0.5
 40
0.5
 40
1.0
 40
1.0
 40
1.0
 40
1.0
 10
115.5912942969294
 20
96.56196766217278
 30
0.0
 10
116.2189219526368
 20
96.66524122090838
 30
0.0
 10
116.8701226976682
 20
96.75406633265993
 30
0.0
 10
118.1788274016805
 20
96.91617403953026
 30
0.0
 10
118.8398718389717
 20
96.98947350381684
 30
0.0
 10
119.5048961580513
 20
97.05816131854453
 30
0.0
  0
SPLINE
  5
E5
330
1F
100
AcDbEntity
  8
0
  6
Continuous
 62
     7
370
    15
100
AcDbSpline
210
0.0
220
0.0
230
1.0
 70
     8
 71
     3
 72
    14
 73
    10
 74
     0
 42
0.00000001
 43
0.00000001
 40
0.0
 40
0.0
 40
0.0
 40
0.0
 40
0.5000000000000029
 40
0.5000000000000029
 40
0.7500000000000029
 40
0.7500000000000029
 40
0.8750000000000014
 40
0.8750000000000014
 40
1.0
 40
1.0
 40
1.0
 40
1.0
 10
111.9548961580514
 20
96.39761852581347
 30
0.0
 10
112.5709730618067
 20
96.40334464604261
 30
0.0
 10
113.1851050579226
 20
96.41323501144464
 30
0.0
 10
114.0990016884361
 20
96.4438699791144
 30
0.0
 10
114.4024406159838
 20
96.4566634367524
 30
0.0
 10
114.8535772316212
 20
96.48458926471177
 30
0.0
 10
115.0032834811638
 20
96.49535888487154
 30
0.0
 10
115.3001246174119
 20
96.52249160047107
 30
0.0
 10
115.4475101699151
 20
96.53830857329831
 30
0.0
 10
115.5912942969294
 20
96.56196766217278
 30
0.0
  0
SPLINE
  5
E6
330
1F
100
AcDbEntity
  8
0
  6
Continuous
 62
     7
370
    15
100
AcDbSpline
210
0.0
220
0.0
230
1.0
 70
     8
 71
     3
 72
     8
 73
     4
 74
     0
 42
0.00000001
 43
0.00000001
 40
0.0000005954826279
 40
0.0000005954826279
 40
0.0000005954826279
 40
0.0000005954826279
 40
0.0000302093805348
 40
0.0000302093805348
 40
0.0000302093805348
 40
0.0000302093805348
 10
111.9448512276418
 20
96.40943365546536
 30
0.0
 10
111.948167254962
 20
96.40548687586957
 30
0.0
 10
111.9515158063543
 20
96.40154848473964
 30
0.0
 10
111.9548961580514
 20
96.39761852581348
 30
0.0
  0
SPLINE
  5
E7
330
1F
100
AcDbEntity
  8
0
  6
Continuous
 62
     7
370
    15
100
AcDbSpline
210
0.0
220
0.0
230
1.0
 70
     8
 71
     3
 72
     8
 73
     4
 74
     0
 42
0.00000001
 43
0.00000001
 40
0.0000005099763573
 40
0.0000005099763573
 40
0.0000005099763573
 40
0.0000005099763573
 40
0.0000262827998699
 40
0.0000262827998699
 40
0.0000262827998699
 40
0.0000262827998699
 10
111.9548961580514
 20
138.0741878497361
 30
0.0
 10
111.9515274188236
 20
138.0708661807802
 30
0.0
 10
111.9481789658445
 20
138.0675382235013
 30
0.0
 10
111.9448512276332
 20
138.0642039766287
 30
0.0
  0
SPLINE
  5
E8
330
1F
100
AcDbEntity
  8
0
  6
Continuous
 62
     7
370
    15
100
AcDbSpline
210
0.0
220
0.0
230
1.0
 70
     8
 71
     3
 72
    10
 73
     6
 74
     0
 42
0.00000001
 43
0.00000001
 40
0.0
 40
0.0
 40
0.0
 40
0.0
 40
0.5
 40
0.5
 40
1.0
 40
1.0
 40
1.0
 40
1.0
 10
115.5048961580514
 20
138.0273374761688
 30
0.0
 10
114.9173106109608
 20
138.0484029964052
 30
0.0
 10
114.3265642175004
 20
138.0591614822774
 30
0.0
 10
113.1425450522016
 20
138.0725262628131
 30
0.0
 10
112.5491310639961
 20
138.0746689054777
 30
0.0
 10
111.9548961580514
 20
138.0741878497361
 30
0.0
  0
SPLINE
  5
E9
330
1F
100
AcDbEntity
  8
0
  6
Continuous
 62
     7
370
    15
100
AcDbSpline
210
0.0
220
0.0
230
1.0
 70
     8
 71
     3
 72
    18
 73
    14
 74
     0
 42
0.00000001
 43
0.00000001
 40
0.0
 40
0.0
 40
0.0
 40
0.0
 40
0.2500000000000003
 40
0.2500000000000003
 40
0.5000000000000006
 40
0.5000000000000006
 40
0.7500000000000009
 40
0.7500000000000009
 40
0.8749999999999994
 40
0.8749999999999994
 40
0.9374999999999997
 40
0.9374999999999997
 40
1.0
 40
1.0
 40
1.0
 40
1.0
 10
116.9048961580514
 20
139.048357756704
 30
0.0
 10
116.9048961580514
 20
138.9651508478468
 30
0.0
 10
116.8690470581131
 20
138.8764141925333
 30
0.0
 10
116.7441753220792
 20
138.694289001973
 30
0.0
 10
116.6537749044313
 20
138.5991589533464
 30
0.0
 10
116.4315322496891
 20
138.4099774442221
 30
0.0
 10
116.3017674632434
 20
138.3150322761273
 30
0.0
 10
116.0611300059318
 20
138.1767535685474
 30
0.0
 10
115.9733627077944
 20
138.1310431352451
 30
0.0
 10
115.8188386205876
 20
138.0732198300236
 30
0.0
 10
115.7622277345328
 20
138.0555050659857
 30
0.0
 10
115.6381837036262
 20
138.0309657627528
 30
0.0
 10
115.570469028608
 20
138.0249866242145
 30
0.0
 10
115.5048961580514
 20
138.0273374761688
 30
0.0
  0
LINE
  5
EA
330
1F
100
AcDbEntity
  8
0
  6
Continuous
 62
     7
370
    15
100
AcDbLine
 10
116.9048961581
 20
139.0483577567
 30
0.0
 11
116.9048961581
 21
140.2322961765
 31
0.0
  0
SPLINE
  5
EB
330
1F
100
AcDbEntity
  8
0
  6
Continuous
 62
     7
370
    15
100
AcDbSpline
210
0.0
220
0.0
230
1.0
 70
     8
 71
     3
 72
    18
 73
    14
 74
     0
 42
0.00000001
 43
0.00000001
 40
0.0
 40
0.0
 40
0.0
 40
0.0
 40
0.0010671296451823
 40
0.1270947795731583
 40
0.2524053457512665
 40
0.3766468878986943
 40
0.4391415999050647
 40
0.5008278021400229
 40
0.5624255708817564
 40
0.62531624391613
 40
0.7499985144706809
 40
0.8752758950341304
 40
1.0
 40
1.0
 40
1.0
 40
1.0
 10
129.4751969981241
 20
93.54691106142468
 30
0.0
 10
129.4742851654856
 20
93.54679628288807
 30
0.0
 10
129.3656862068487
 20
93.53312619802209
 30
0.0
 10
129.7533272744985
 20
93.58404569863775
 30
0.0
 10
130.6192919563337
 20
93.68362887168423
 30
0.0
 10
131.8196958811033
 20
93.75275275482784
 30
0.0
 10
132.877271795592
 20
93.75670498396683
 30
0.0
 10
133.704405882502
 20
93.72921604551138
 30
0.0
 10
134.5296777501376
 20
93.67067586910422
 30
0.0
 10
135.5840429701352
 20
93.55715470936741
 30
0.0
 10
136.7458792516082
 20
93.37400388511983
 30
0.0
 10
137.6981140329914
 20
93.16940067548474
 30
0.0
 10
137.8238190937993
 20
93.1401153247087
 30
0.0
 10
137.8865325259446
 20
93.12550505486801
 30
0.0
  0
SPLINE
  5
EC
330
1F
100
AcDbEntity
  8
0
  6
Continuous
 62
     7
370
    15
100
AcDbSpline
210
0.0
220
0.0
230
1.0
 70
     8
 71
     3
 72
    18
 73
    14
 74
     0
 42
0.00000001
 43
0.00000001
 40
0.0
 40
0.0
 40
0.0
 40
0.0
 40
0.1248907792210128
 40
0.2505384020341702
 40
0.3748721840485288
 40
0.4374907653352098
 40
0.4990776265894371
 40
0.5607931536355759
 40
0.6233901338664937
 40
0.7478191038417354
 40
0.8731940995934958
 40
0.999161464471008
 40
1.0
 40
1.0
 40
1.0
 40
1.0
 10
137.8863137604206
 20
141.2829299332597
 30
0.0
 10
137.822573007709
 20
141.2682686406616
 30
0.0
 10
137.6947052305325
 20
141.2388572073902
 30
0.0
 10
136.7427060094722
 20
141.0339041033277
 30
0.0
 10
135.5821623042678
 20
140.8506403275167
 30
0.0
 10
134.5298978521799
 20
140.7376127352676
 30
0.0
 10
133.7056707371111
 20
140.6793490877264
 30
0.0
 10
132.8780669675919
 20
140.6519026997225
 30
0.0
 10
131.8192497751066
 20
140.6558875056514
 30
0.0
 10
130.6170310770727
 20
140.7249769820329
 30
0.0
 10
129.7518471373854
 20
140.8246031985894
 30
0.0
 10
129.365706715855
 20
140.8754192721901
 30
0.0
 10
129.4737782566355
 20
140.8617470921269
 30
0.0
 10
129.4744929065558
 20
140.8616566814385
 30
0.0
  0
SPLINE
  5
ED
330
1F
100
AcDbEntity
  8
0
  6
Continuous
 62
     7
370
    15
100
AcDbSpline
210
0.0
220
0.0
230
1.0
 70
     8
 71
     3
 72
    10
 73
     6
 74
     0
 42
0.00000001
 43
0.00000001
 40
0.0
 40
0.0
 40
0.0
 40
0.0
 40
0.5
 40
0.5
 40
1.0
 40
1.0
 40
1.0
 40
1.0
 10
110.8048961580509
 20
97.55108955938817
 30
0.0
 10
110.8048961580509
 20
97.53757303352042
 30
0.0
 10
110.8102157186791
 20
97.5334022611631
 30
0.0
 10
110.8233439509608
 20
97.5515333045507
 30
0.0
 10
110.8310366056148
 20
97.57444172961264
 30
0.0
 10
110.83517377366
 20
97.61416252411423
 30
0.0
  0
LINE
  5
EE
330
1F
100
AcDbEntity
  8
0
  6
Continuous
 62
     7
370
    15
100
AcDbLine
 10
110.8048961581
 20
97.5510895594
 30
0.0
 11
110.8048961581
 21
136.8949278308
 31
0.0
  0
SPLINE
  5
EF
330
1F
100
AcDbEntity
  8
0
  6
Continuous
 62
     7
370
    15
100
AcDbSpline
210
0.0
220
0.0
230
1.0
 70
     8
 71
     3
 72
    10
 73
     6
 74
     0
 42
0.00000001
 43
0.00000001
 40
0.0
 40
0.0
 40
0.0
 40
0.0
 40
0.5
 40
0.5
 40
1.0
 40
1.0
 40
1.0
 40
1.0
 10
110.8675595327748
 20
136.8788026291218
 30
0.0
 10
110.858655243666
 20
136.924544148335
 30
0.0
 10
110.8421398634731
 20
136.941734987804
 30
0.0
 10
110.8150319174114
 20
136.9414117108682
 30
0.0
 10
110.8048961580514
 20
136.9235341685718
 30
0.0
 10
110.8048961580514
 20
136.8949278308192
 30
0.0
  0
SPLINE
  5
F0
330
1F
100
AcDbEntity
  8
0
  6
Continuous
 62
     7
370
    15
100
AcDbSpline
210
0.0
220
0.0
230
1.0
 70
     8
 71
     3
 72
    26
 73
    22
 74
     0
 42
0.00000001
 43
0.00000001
 40
0.0
 40
0.0
 40
0.0
 40
0.0
 40
0.2499999999999786
 40
0.2499999999999786
 40
0.3749999999999695
 40
0.3749999999999695
 40
0.437499999999965
 40
0.437499999999965
 40
0.4687499999999657
 40
0.4687499999999657
 40
0.4999999999999664
 40
0.4999999999999664
 40
0.531249999999967
 40
0.531249999999967
 40
0.5624999999999677
 40
0.5624999999999677
 40
0.6249999999999739
 40
0.6249999999999739
 40
0.7499999999999826
 40
0.7499999999999826
 40
1.0
 40
1.0
 40
1.0
 40
1.0
 10
111.6290498041559
 20
137.5943694179389
 30
0.0
 10
111.5904492812875
 20
137.4765947215834
 30
0.0
 10
111.5441522787332
 20
137.3522050354215
 30
0.0
 10
111.4502129302992
 20
137.146985703068
 30
0.0
 10
111.4149014633858
 20
137.0754128366215
 30
0.0
 10
111.3487214876401
 20
136.959459604021
 30
0.0
 10
111.3241831209719
 20
136.9188750692108
 30
0.0
 10
111.2808103754181
 20
136.8547333873391
 30
0.0
 10
111.2653019739929
 20
136.832866962054
 30
0.0
 10
111.2302593294059
 20
136.7872726937108
 30
0.0
 10
111.210709038686
 20
136.7636024027433
 30
0.0
 10
111.1687817583154
 20
136.7189858434034
 30
0.0
 10
111.1461296480837
 20
136.6981058308855
 30
0.0
 10
111.1051559339971
 20
136.6672324171347
 30
0.0
 10
111.0875566341016
 20
136.6573935473022
 30
0.0
 10
111.0429296482455
 20
136.6384039316061
 30
0.0
 10
111.0223704255922
 20
136.6380796069527
 30
0.0
 10
110.9712449860956
 20
136.647303047829
 30
0.0
 10
110.9503335731071
 20
136.6685499440459
 30
0.0
 10
110.8988836655461
 20
136.7425188228767
 30
0.0
 10
110.8812183662416
 20
136.8086369161914
 30
0.0
 10
110.8675595327748
 20
136.8788026291217
 30
0.0
  0
SPLINE
  5
F1
330
1F
100
AcDbEntity
  8
0
  6
Continuous
 62
     7
370
    15
100
AcDbSpline
210
0.0
220
0.0
230
1.0
 70
     8
 71
     3
 72
    10
 73
     6
 74
     0
 42
0.00000001
 43
0.00000001
 40
0.0
 40
0.0
 40
0.0
 40
0.0
 40
0.5
 40
0.5
 40
1.0
 40
1.0
 40
1.0
 40
1.0
 10
111.9448512276332
 20
138.0642039766287
 30
0.0
 10
111.8772919727149
 20
137.9965125838189
 30
0.0
 10
111.8136553173784
 20
137.9218054190653
 30
0.0
 10
111.7034345628065
 20
137.7628392866387
 30
0.0
 10
111.656618269584
 20
137.6784840206307
 30
0.0
 10
111.6290498041559
 20
137.5943694179389
 30
0.0
  0
SPLINE
  5
F2
330
1F
100
AcDbEntity
  8
0
  6
Continuous
 62
     7
370
    15
100
AcDbSpline
210
0.0
220
0.0
230
1.0
 70
     8
 71
     3
 72
     8
 73
     4
 74
     0
 42
0.00000001
 43
0.00000001
 40
0.0
 40
0.0
 40
0.0
 40
0.0
 40
1.0
 40
1.0
 40
1.0
 40
1.0
 10
111.7438057282506
 20
96.76032778137541
 30
0.0
 10
111.7795193866204
 20
96.63709627611563
 30
0.0
 10
111.8551874255687
 20
96.51615269916863
 30
0.0
 10
111.9448512276419
 20
96.40943365546538
 30
0.0
  0
SPLINE
  5
F3
330
1F
100
AcDbEntity
  8
0
  6
Continuous
 62
     7
370
    15
100
AcDbSpline
210
0.0
220
0.0
230
1.0
 70
     8
 71
     3
 72
    26
 73
    22
 74
     0
 42
0.00000001
 43
0.00000001
 40
0.0
 40
0.0
 40
0.0
 40
0.0
 40
0.2499999999999937
 40
0.2499999999999937
 40
0.3749999999999896
 40
0.3749999999999896
 40
0.4374999999999876
 40
0.4374999999999876
 40
0.4687499999999872
 40
0.4687499999999872
 40
0.4999999999999868
 40
0.4999999999999868
 40
0.5312499999999863
 40
0.5312499999999863
 40
0.5624999999999859
 40
0.5624999999999859
 40
0.6249999999999872
 40
0.6249999999999872
 40
0.7499999999999917
 40
0.7499999999999917
 40
1.0
 40
1.0
 40
1.0
 40
1.0
 10
110.83517377366
 20
97.61416252411423
 30
0.0
 10
110.8458978070525
 20
97.7171235646032
 30
0.0
 10
110.8606307976471
 20
97.81612225408425
 30
0.0
 10
110.912984356894
 20
97.93471793414938
 30
0.0
 10
110.9346896396137
 20
97.97042823409818
 30
0.0
 10
110.993545146979
 20
97.99540766691996
 30
0.0
 10
111.0170073808262
 20
97.99979311468353
 30
0.0
 10
111.0731287574867
 20
97.98004028123948
 30
0.0
 10
111.0959160676173
 20
97.96838389042905
 30
0.0
 10
111.1511686201486
 20
97.92660354099189
 30
0.0
 10
111.1825748528895
 20
97.89633195361584
 30
0.0
 10
111.2375086735099
 20
97.83468955470184
 30
0.0
 10
111.2619324917094
 20
97.80324790239499
 30
0.0
 10
111.3053475976966
 20
97.74351306498122
 30
0.0
 10
111.3249221602649
 20
97.71434805510856
 30
0.0
 10
111.3785548442129
 20
97.63051277937548
 30
0.0
 10
111.4083321922651
 20
97.57848016139927
 30
0.0
 10
111.4898662522379
 20
97.42741448743188
 30
0.0
 10
111.533109046912
 20
97.33422344556112
 30
0.0
 10
111.6461636365667
 20
97.06983690656672
 30
0.0
 10
111.7001746340459
 20
96.91087873751685
 30
0.0
 10
111.7438057282499
 20
96.76032778137599
 30
0.0
  0
LINE
  5
F4
330
1F
100
AcDbEntity
  8
0
  6
Continuous
 62
     7
370
    15
100
AcDbLine
 10
256.7048961581
 20
136.9824505041
 30
0.0
 11
254.3088580859
 21
136.9824505041
 31
0.0
  0
SPLINE
  5
F5
330
1F
100
AcDbEntity
  8
0
  6
Continuous
 62
     7
370
    15
100
AcDbSpline
210
0.0
220
0.0
230
1.0
 70
     8
 71
     3
 72
    16
 73
    12
 74
     0
 42
0.00000001
 43
0.00000001
 40
0.0
 40
0.0
 40
0.0
 40
0.0
 40
0.2500000000000005
 40
0.2500000000000005
 40
0.500000000000001
 40
0.500000000000001
 40
0.7500000000000018
 40
0.7500000000000018
 40
0.8750000000000009
 40
0.8750000000000009
 40
1.0
 40
1.0
 40
1.0
 40
1.0
 10
254.3088580859253
 20
136.9824505040943
 30
0.0
 10
253.641632119744
 20
136.9824505040943
 30
0.0
 10
252.9928560883552
 20
136.9672008301992
 30
0.0
 10
251.7322134112809
 20
136.8957159819458
 30
0.0
 10
251.1534662771052
 20
136.8410807157902
 30
0.0
 10
250.105141365749
 20
136.6676577057051
 30
0.0
 10
249.6612537269928
 20
136.5525664658809
 30
0.0
 10
249.1202307686666
 20
136.3161710106549
 30
0.0
 10
248.9643621183722
 20
136.2279543114749
 30
0.0
 10
248.702540702773
 20
136.0325212282006
 30
0.0
 10
248.5958681980812
 20
135.9249972124741
 30
0.0
 10
248.5133031281909
 20
135.8062935063658
 30
0.0
  0
ELLIPSE
  5
F6
330
1F
100
AcDbEntity
  8
0
  6
Continuous
 62
     7
370
    15
100
AcDbEllipse
 10
250.1291735521
 20
117.2042500843
 30
0.0
 11
0.4025701892336713
 21
19.99971074150079
 31
0.0
210
0.0
220
0.0
230
1.0
 40
0.2671959542
 41
0.3814836951312788
 42
2.910491863059585
  0
SPLINE
  5
F7
330
1F
100
AcDbEntity
  8
0
  6
Continuous
 62
     7
370
    15
100
AcDbSpline
210
0.0
220
0.0
230
1.0
 70
     8
 71
     3
 72
    14
 73
    10
 74
     0
 42
0.00000001
 43
0.00000001
 40
0.0
 40
0.0
 40
0.0
 40
0.0
 40
0.25
 40
0.25
 40
0.5
 40
0.5
 40
0.75
 40
0.75
 40
1.0
 40
1.0
 40
1.0
 40
1.0
 10
248.5133031281909
 20
97.76087236474577
 30
0.0
 10
248.6784259260873
 20
97.60944989743189
 30
0.0
 10
248.9380822364345
 20
97.49838081436565
 30
0.0
 10
249.6601972446823
 20
97.33528404240778
 30
0.0
 10
250.102893979448
 20
97.28746442901782
 30
0.0
 10
251.1514427453009
 20
97.22745472124222
 30
0.0
 10
251.7306850813615
 20
97.2164792820201
 30
0.0
 10
252.9909379599822
 20
97.20528730583888
 30
0.0
 10
253.641634068244
 20
97.2051414048566
 30
0.0
 10
254.3088580859253
 20
97.20514140485659
 30
0.0
  0
LINE
  5
F8
330
1F
100
AcDbEntity
  8
0
  6
Continuous
 62
     7
370
    15
100
AcDbLine
 10
254.3088580859
 20
97.2051414049
 30
0.0
 11
254.9526710997
 21
97.2051414049
 31
0.0
  0
LINE
  5
F9
330
1F
100
AcDbEntity
  8
0
  6
Continuous
 62
     7
370
    15
100
AcDbLine
 10
254.9494472961
 20
97.2139124046
 30
0.0
 11
254.9526710997
 21
97.2051414049
 31
0.0
  0
LINE
  5
FA
330
1F
100
AcDbEntity
  8
0
  6
Continuous
 62
     7
370
    15
100
AcDbLine
 10
256.7048961581
 20
137.2042500843
 30
0.0
 11
256.7048961581
 21
136.9824505041
 31
0.0
  0
ELLIPSE
  5
FB
330
1F
100
AcDbEntity
  8
0
  6
Continuous
 62
     7
370
    15
100
AcDbEllipse
 10
247.4303168164
 20
109.1602058673
 30
0.0
 11
-0.1123957365937258
 21
2.430730670485616
 31
0.0
210
0.0
220
0.0
230
0.9999999999999999
 40
0.2457894175
 41
0.0
 42
6.283185307179586
  0
LINE
  5
FC
330
1F
100
AcDbEntity
  8
0
  6
Continuous
 62
     7
370
    15
100
AcDbLine
 10
162.6148961581
 20
137.3401167158
 30
0.0
 11
162.6148961581
 21
138.2543937519
 31
0.0
  0
SPLINE
  5
FD
330
1F
100
AcDbEntity
  8
0
  6
Continuous
 62
     7
370
    15
100
AcDbSpline
210
0.0
220
0.0
230
1.0
 70
     8
 71
     3
 72
     8
 73
     4
 74
     0
 42
0.00000001
 43
0.00000001
 40
0.0
 40
0.0
 40
0.0
 40
0.0
 40
1.0
 40
1.0
 40
1.0
 40
1.0
 10
162.6148961580514
 20
138.2543937519244
 30
0.0
 10
163.0941743086413
 20
139.395404981777
 30
0.0
 10
163.5897421477812
 20
140.5317893925448
 30
0.0
 10
164.0968289895405
 20
141.6629397467085
 30
0.0
  0
LINE
  5
FE
330
1F
100
AcDbEntity
  8
0
  6
Continuous
 62
     7
370
    15
100
AcDbLine
 10
164.0968289895
 20
141.6629397467
 30
0.0
 11
168.0548961581
 21
141.6629397467
 31
0.0
  0
SPLINE
  5
FF
330
1F
100
AcDbEntity
  8
0
  6
Continuous
 62
     7
370
    15
100
AcDbSpline
210
0.0
220
0.0
230
1.0
 70
     8
 71
     3
 72
    12
 73
     8
 74
     0
 42
0.00000001
 43
0.00000001
 40
0.0
 40
0.0
 40
0.0
 40
0.0
 40
0.2499999999999987
 40
0.2499999999999987
 40
0.4999999999999973
 40
0.4999999999999973
 40
1.0
 40
1.0
 40
1.0
 40
1.0
 10
168.0548961580514
 20
141.6629397467085
 30
0.0
 10
168.1460958798771
 20
141.6629397467085
 30
0.0
 10
168.2366908890131
 20
141.6347200481206
 30
0.0
 10
168.3901036154598
 20
141.5402770408725
 30
0.0
 10
168.4553124827835
 20
141.4739900641671
 30
0.0
 10
168.6080970121234
 20
141.2483652408788
 30
0.0
 10
168.6548961580514
 20
141.0659389778463
 30
0.0
 10
168.6548961580514
 20
140.8852023455994
 30
0.0
  0
LINE
  5
100
330
1F
100
AcDbEntity
  8
0
  6
Continuous
 62
     7
370
    15
100
AcDbLine
 10
168.6548961581
 20
140.8852023456
 30
0.0
 11
168.6548961581
 21
137.0542500843
 31
0.0
  0
SPLINE
  5
101
330
1F
100
AcDbEntity
  8
0
  6
Continuous
 62
     7
370
    15
100
AcDbSpline
210
0.0
220
0.0
230
1.0
 70
     8
 71
     3
 72
     8
 73
     4
 74
     0
 42
0.00000001
 43
0.00000001
 40
0.0
 40
0.0
 40
0.0
 40
0.0
 40
1.0
 40
1.0
 40
1.0
 40
1.0
 10
157.3129633265624
 20
141.6629397467085
 30
0.0
 10
157.8200501683216
 20
140.5317893925448
 30
0.0
 10
158.3156180074616
 20
139.395404981777
 30
0.0
 10
158.7948961580514
 20
138.2543937519244
 30
0.0
  0
LINE
  5
102
330
1F
100
AcDbEntity
  8
0
  6
Continuous
 62
     7
370
    15
100
AcDbLine
 10
158.7948961581
 20
138.2543937519
 30
0.0
 11
158.7948961581
 21
137.3401167158
 31
0.0
  0
SPLINE
  5
103
330
1F
100
AcDbEntity
  8
0
  6
Continuous
 62
     7
370
    15
100
AcDbSpline
210
0.0
220
0.0
230
1.0
 70
     8
 71
     3
 72
    10
 73
     6
 74
     0
 42
0.00000001
 43
0.00000001
 40
0.0
 40
0.0
 40
0.0
 40
0.0
 40
0.5
 40
0.5
 40
1.0
 40
1.0
 40
1.0
 40
1.0
 10
168.6548961580514
 20
147.0506904081049
 30
0.0
 10
168.6548961580514
 20
147.2110956744557
 30
0.0
 10
168.5926583269446
 20
147.3701574874443
 30
0.0
 10
168.373523403202
 20
147.6010699530746
 30
0.0
 10
168.2159347082102
 20
147.6714455575053
 30
0.0
 10
168.0548961580514
 20
147.6714455575053
 30
0.0
  0
LINE
  5
104
330
1F
100
AcDbEntity
  8
0
  6
Continuous
 62
     7
370
    15
100
AcDbLine
 10
168.6548961581
 20
140.8852023456
 30
0.0
 11
168.6548961581
 21
147.0506904081
 31
0.0
  0
LINE
  5
105
330
1F
100
AcDbEntity
  8
0
  6
Continuous
 62
     7
370
    15
100
AcDbLine
 10
168.0548961581
 20
147.6714455575
 30
0.0
 11
164.0968289895
 21
147.6714455575
 31
0.0
  0
LINE
  5
106
330
1F
100
AcDbEntity
  8
0
  6
Continuous
 62
     7
370
    15
100
AcDbLine
 10
164.0968289895
 20
141.6629397467
 30
0.0
 11
164.0968289895
 21
147.6714455575
 31
0.0
  0
SPLINE
  5
107
330
1F
100
AcDbEntity
  8
0
  6
Continuous
 62
     7
370
    15
100
AcDbSpline
210
0.0
220
0.0
230
1.0
 70
     8
 71
     3
 72
     8
 73
     4
 74
     0
 42
0.00000001
 43
0.00000001
 40
0.0
 40
0.0
 40
0.0
 40
0.0
 40
1.0
 40
1.0
 40
1.0
 40
1.0
 10
164.0968289895405
 20
147.6714455575053
 30
0.0
 10
163.6016889601761
 20
146.784765909325
 30
0.0
 10
163.1076062548972
 20
145.897503273639
 30
0.0
 10
162.6148961580514
 20
145.0094842755126
 30
0.0
  0
LINE
  5
108
330
1F
100
AcDbEntity
  8
0
  6
Continuous
 62
     7
370
    15
100
AcDbLine
 10
162.6148961581
 20
138.2543937519
 30
0.0
 11
162.6148961581
 21
145.0094842755
 31
0.0
  0
SPLINE
  5
109
330
1F
100
AcDbEntity
  8
0
  6
Continuous
 62
     7
370
    15
100
AcDbSpline
210
0.0
220
0.0
230
1.0
 70
     8
 71
     3
 72
     8
 73
     4
 74
     0
 42
0.00000001
 43
0.00000001
 40
0.0
 40
0.0
 40
0.0
 40
0.0
 40
1.0
 40
1.0
 40
1.0
 40
1.0
 10
158.7948961580514
 20
145.0094842755126
 30
0.0
 10
158.3021860612057
 20
145.897503273639
 30
0.0
 10
157.8081033559267
 20
146.784765909325
 30
0.0
 10
157.3129633265624
 20
147.6714455575053
 30
0.0
  0
LINE
  5
10A
330
1F
100
AcDbEntity
  8
0
  6
Continuous
 62
     7
370
    15
100
AcDbLine
 10
158.7948961581
 20
138.2543937519
 30
0.0
 11
158.7948961581
 21
145.0094842755
 31
0.0
  0
LINE
  5
10B
330
1F
100
AcDbEntity
  8
0
  6
Continuous
 62
     7
370
    15
100
AcDbLine
 10
111.9548961581
 20
96.3917500843
 30
0.0
 11
111.9548961581
 21
96.3976185258
 31
0.0
  0
LINE
  5
10C
330
1F
100
AcDbEntity
  8
0
  6
Continuous
 62
     7
370
    15
100
AcDbLine
 10
267.2846647926
 20
137.4827646383
 30
0.0
 11
278.7296532281
 21
101.2723210158
 31
0.0
  0
ELLIPSE
  5
10D
330
1F
100
AcDbEntity
  8
0
  6
Continuous
 62
     7
370
    15
100
AcDbEllipse
 10
273.7289799529
 20
117.2042500843
 30
0.0
 11
-6.45059164660438
 21
20.49959350142531
 31
0.0
210
0.0
220
0.0
230
1.0
 40
0.0200133476
 41
4.706091478611494
 42
6.424018219359775
  0
LINE
  5
10E
330
1F
100
AcDbEntity
  8
0
  6
Continuous
 62
     7
370
    15
100
AcDbLine
 10
278.3397021224
 20
103.9786985494
 30
0.0
 11
274.1798596525
 21
117.2042500843
 31
0.0
  0
SPLINE
  5
10F
330
1F
100
AcDbEntity
  8
0
  6
Continuous
 62
     7
370
    15
100
AcDbSpline
210
0.0
220
0.0
230
1.0
 70
     8
 71
     3
 72
     9
 73
     5
 74
     0
 42
0.00000001
 43
0.00000001
 40
0.0
 40
0.0
 40
0.0
 40
0.0
 40
0.1841405296718146
 40
1.0
 40
1.0
 40
1.0
 40
1.0
 10
279.1955232712607
 20
101.1257905678791
 30
0.0
 10
279.1467676261457
 20
101.2900780675755
 30
0.0
 10
278.8819935147543
 20
102.1822635087121
 30
0.0
 10
278.5833517964066
 20
103.1715664090869
 30
0.0
 10
278.3397021222576
 20
103.9786985493809
 30
0.0
  0
SPLINE
  5
110
330
1F
100
AcDbEntity
  8
0
  6
Continuous
 62
     7
370
    15
100
AcDbSpline
210
0.0
220
0.0
230
1.0
 70
     8
 71
     3
 72
    16
 73
    12
 74
     0
 42
0.00000001
 43
0.00000001
 40
0.0
 40
0.0
 40
0.0
 40
0.0
 40
0.2500000000000017
 40
0.2500000000000017
 40
0.5000000000000034
 40
0.5000000000000034
 40
0.7500000000000051
 40
0.7500000000000051
 40
0.8750000000000026
 40
0.8750000000000026
 40
1.0
 40
1.0
 40
1.0
 40
1.0
 10
259.9481848160978
 20
97.84373443687505
 30
0.0
 10
259.531175008283
 20
97.97489683901162
 30
0.0
 10
259.1076380304542
 20
98.05875276946892
 30
0.0
 10
258.2480133892719
 20
98.13550198530749
 30
0.0
 10
257.8070665017699
 20
98.12713516268447
 30
0.0
 10
256.9497242800851
 20
98.01735402060899
 30
0.0
 10
256.5302718910184
 20
97.91724297440156
 30
0.0
 10
255.9152475293735
 20
97.69764588554037
 30
0.0
 10
255.713508101216
 20
97.61292745132222
 30
0.0
 10
255.3242067116509
 20
97.42411251691854
 30
0.0
 10
255.1354933483306
 20
97.31962684058101
 30
0.0
 10
254.9526710997139
 20
97.20514140485653
 30
0.0
  0
LINE
  5
111
330
1F
100
AcDbEntity
  8
0
  6
Continuous
 62
     7
370
    15
100
AcDbLine
 10
256.7048961581
 20
136.9824505041
 30
0.0
 11
257.2048961581
 21
137.4827646383
 31
0.0
  0
LINE
  5
112
330
1F
100
AcDbEntity
  8
0
  6
Continuous
 62
     7
370
    15
100
AcDbLine
 10
267.2846647926
 20
137.4827646383
 30
0.0
 11
257.2048961581
 21
137.4827646383
 31
0.0
  0
LINE
  5
113
330
1F
100
AcDbEntity
  8
0
  6
Continuous
 62
     7
370
    15
100
AcDbLine
 10
271.9125067893
 20
103.4165231086
 30
0.0
 11
271.2091701179
 21
105.6417881695
 31
0.0
  0
ARC
  5
114
330
1F
100
AcDbEntity
  8
0
  6
Continuous
 62
     7
370
    15
100
AcDbCircle
 10
269.7636445543
 20
105.184570704
 30
0.0
 40
1.516110802579486
100
AcDbArc
 50
17.5520811906
 51
197.3678473289
  0
LINE
  5
115
330
1F
100
AcDbEntity
  8
0
  6
Continuous
 62
     7
370
    15
100
AcDbLine
 10
268.3166562892
 20
104.7320036635
 30
0.0
 11
268.5468130943
 21
104.0038176925
 31
0.0
  0
LINE
  5
116
330
1F
100
AcDbEntity
  8
0
  6
Continuous
 62
     7
370
    15
100
AcDbLine
 10
271.6076962032
 20
94.1764597287
 30
0.0
 11
259.9481848161
 21
97.8437344369
 31
0.0
  0
LINE
  5
117
330
1F
100
AcDbEntity
  8
0
  6
Continuous
 62
     7
370
    15
100
AcDbLine
 10
257.2048961581
 20
137.4827646383
 30
0.0
 11
257.2048961581
 21
137.7042500843
 31
0.0
  0
ARC
  5
118
330
1F
100
AcDbEntity
  8
0
  6
Continuous
 62
     7
370
    15
100
AcDbCircle
 10
269.7635160543
 20
105.3363507973
 30
0.0
 40
1.249726584934521
100
AcDbArc
 50
17.5520811906
 51
197.3678473289
  0
LINE
  5
119
330
1F
100
AcDbEntity
  8
0
  6
Continuous
 62
     7
370
    15
100
AcDbLine
 10
270.955059392
 20
105.7132340836
 30
0.0
 11
271.6554200321
 21
103.4973847958
 31
0.0
  0
LINE
  5
11A
330
1F
100
AcDbEntity
  8
0
  6
Continuous
 62
     7
370
    15
100
AcDbLine
 10
268.5707670151
 20
104.9633008454
 30
0.0
 11
268.7797910612
 21
104.3019761547
 31
0.0
  0
LINE
  5
11B
330
1F
100
AcDbEntity
  8
0
  6
Continuous
 62
     7
370
    15
100
AcDbLine
 10
268.5140138838
 20
105.3905848221
 30
0.0
 11
268.5707670151
 21
105.067935556
 31
0.0
  0
LINE
  5
11C
330
1F
100
AcDbEntity
  8
0
  6
Continuous
 62
     7
370
    15
100
AcDbLine
 10
268.5707670151
 20
105.067935556
 30
0.0
 11
268.8100503395
 21
104.310874474
 31
0.0
  0
LINE
  5
11D
330
1F
100
AcDbEntity
  8
0
  6
HIDDEN
 62
     7
370
     0
100
AcDbLine
 10
147.6548961581
 20
85.7042500843
 30
0.0
 11
147.6548961581
 21
85.7201271015
 31
0.0
  0
SPLINE
  5
11E
330
1F
100
AcDbEntity
  8
0
  6
HIDDEN
 62
     7
370
     0
100
AcDbSpline
210
0.0
220
0.0
230
1.0
 70
     8
 71
     3
 72
    30
 73
    26
 74
     0
 42
0.00000001
 43
0.00000001
 40
0.0
 40
0.0
 40
0.0
 40
0.0
 40
0.1250000000000001
 40
0.1250000000000001
 40
0.1875000000000001
 40
0.1875000000000001
 40
0.2500000000000001
 40
0.2500000000000001
 40
0.375
 40
0.375
 40
0.4374999999999999
 40
0.4374999999999999
 40
0.4999999999999998
 40
0.4999999999999998
 40
0.6249999999999998
 40
0.6249999999999998
 40
0.6874999999999998
 40
0.6874999999999998
 40
0.7499999999999999
 40
0.7499999999999999
 40
0.8124999999999999
 40
0.8124999999999999
 40
0.875
 40
0.875
 40
1.0
 40
1.0
 40
1.0
 40
1.0
 10
147.6548961580514
 20
85.72012710147872
 30
0.0
 10
147.6548961580514
 20
85.73700601948731
 30
0.0
 10
147.7073137240298
 20
85.76702358431201
 30
0.0
 10
147.8606932039321
 20
85.82983397358512
 30
0.0
 10
147.9243743245999
 20
85.85373788081202
 30
0.0
 10
148.0773291920516
 20
85.90717317325442
 30
0.0
 10
148.1669014908208
 20
85.93678004142197
 30
0.0
 10
148.468125523674
 20
86.0312297401364
 30
0.0
 10
148.7134405197581
 20
86.10225713396561
 30
0.0
 10
149.1475375008283
 20
86.21627142067139
 30
0.0
 10
149.304207189932
 20
86.25572667181194
 30
0.0
 10
149.6362003537744
 20
86.33524811458263
 30
0.0
 10
149.8109058827669
 20
86.3751842570834
 30
0.0
 10
150.3605755653584
 20
86.49412065991154
 30
0.0
 10
150.7608265280697
 20
86.57228542379542
 30
0.0
 10
151.4144133947072
 20
86.68199486406431
 30
0.0
 10
151.6400895143843
 20
86.7170757007727
 30
0.0
 10
152.0998013355156
 20
86.78231598015232
 30
0.0
 10
152.3348546695587
 20
86.81265079619706
 30
0.0
 10
152.8153619518577
 20
86.86798917541893
 30
0.0
 10
153.0608154797719
 20
86.89299385197899
 30
0.0
 10
153.5624309045792
 20
86.93687366086968
 30
0.0
 10
153.8199232871797
 20
86.95581734563197
 30
0.0
 10
154.5979998036159
 20
87.00153707290217
 30
0.0
 10
155.1231620808607
 20
87.01733238809388
 30
0.0
 10
155.6548961580515
 20
87.01733238809388
 30
0.0
  0
LINE
  5
11F
330
1F
100
AcDbEntity
  8
0
  6
HIDDEN
 62
     7
370
     0
100
AcDbLine
 10
155.6548961581
 20
87.0173323881
 30
0.0
 11
157.3129633266
 21
87.0173323881
 31
0.0
  0
LINE
  5
120
330
1F
100
AcDbEntity
  8
0
  6
HIDDEN
 62
     7
370
     0
100
AcDbLine
 10
157.3129633266
 20
147.6714455575
 30
0.0
 11
157.3129633266
 21
87.0173323881
 31
0.0
  0
LINE
  5
121
330
1F
100
AcDbEntity
  8
0
  6
HIDDEN
 62
     7
370
     0
100
AcDbLine
 10
155.6548961581
 20
147.6714455575
 30
0.0
 11
157.3129633266
 21
147.6714455575
 31
0.0
  0
SPLINE
  5
122
330
1F
100
AcDbEntity
  8
0
  6
HIDDEN
 62
     7
370
     0
100
AcDbSpline
210
0.0
220
0.0
230
1.0
 70
     8
 71
     3
 72
    24
 73
    20
 74
     0
 42
0.00000001
 43
0.00000001
 40
0.0
 40
0.0
 40
0.0
 40
0.0
 40
0.0096786170083076
 40
0.0638613372413312
 40
0.1151352408388596
 40
0.2187148279308926
 40
0.271587416056589
 40
0.323364819173394
 40
0.4279240984897819
 40
0.481256822715899
 40
0.587462676753114
 40
0.6419372297031739
 40
0.6968115525260035
 40
0.7499885698670863
 40
0.8035487713823356
 40
0.858337513060983
 40
0.9135596033283189
 40
0.9566727534426872
 40
1.0
 40
1.0
 40
1.0
 40
1.0
 10
147.6591003554245
 20
148.7031833325414
 30
0.0
 10
147.6577767693398
 20
148.7035191694365
 30
0.0
 10
147.6490434991578
 20
148.7057350844995
 30
0.0
 10
147.6880241032285
 20
148.6958290141554
 30
0.0
 10
147.8068850101009
 20
148.6658723294124
 30
0.0
 10
148.0368920084705
 20
148.6088078925629
 30
0.0
 10
148.3653788725981
 20
148.5309743145396
 30
0.0
 10
148.7606468270035
 20
148.4405907908315
 30
0.0
 10
149.2509135439929
 20
148.3351353710201
 30
0.0
 10
149.972964666952
 20
148.1942735341309
 30
0.0
 10
150.6405466566939
 20
148.0777479899605
 30
0.0
 10
151.3807190420588
 20
147.9680081020836
 30
0.0
 10
151.9706534726716
 20
147.8914506325846
 30
0.0
 10
152.5843066595676
 20
147.8237146253045
 30
0.0
 10
153.2202967213667
 20
147.7662876916175
 30
0.0
 10
153.8830453533924
 20
147.7203878844508
 30
0.0
 10
154.5165842587351
 20
147.6907794129732
 30
0.0
 10
155.1092517604719
 20
147.6742791001929
 30
0.0
 10
155.4727146160408
 20
147.6723916300362
 30
0.0
 10
155.6548961580515
 20
147.6714455575053
 30
0.0
  0
SPLINE
  5
123
330
1F
100
AcDbEntity
  8
0
  6
HIDDEN
 62
     7
370
     0
100
AcDbSpline
210
0.0
220
0.0
230
1.0
 70
     8
 71
     3
 72
    76
 73
    72
 74
     0
 42
0.00000001
 43
0.00000001
 40
-0.0312500000000001
 40
-0.0312500000000001
 40
0.0
 40
0.0
 40
0.0312499999999999
 40
0.0312499999999999
 40
0.0468749999999998
 40
0.0468749999999998
 40
0.0624999999999998
 40
0.0624999999999998
 40
0.0937499999999997
 40
0.0937499999999997
 40
0.1249999999999996
 40
0.1249999999999996
 40
0.1562499999999995
 40
0.1562499999999995
 40
0.1874999999999994
 40
0.1874999999999994
 40
0.2187499999999993
 40
0.2187499999999993
 40
0.2499999999999992
 40
0.2499999999999992
 40
0.2812499999999991
 40
0.2812499999999991
 40
0.3124999999999989
 40
0.3124999999999989
 40
0.3281249999999989
 40
0.3281249999999989
 40
0.3437499999999989
 40
0.3437499999999989
 40
0.3749999999999989
 40
0.3749999999999989
 40
0.406249999999999
 40
0.406249999999999
 40
0.437499999999999
 40
0.437499999999999
 40
0.468749999999999
 40
0.468749999999999
 40
0.499999999999999
 40
0.499999999999999
 40
0.531249999999999
 40
0.531249999999999
 40
0.562499999999999
 40
0.562499999999999
 40
0.593749999999999
 40
0.593749999999999
 40
0.624999999999999
 40
0.624999999999999
 40
0.656249999999999
 40
0.656249999999999
 40
0.687499999999999
 40
0.687499999999999
 40
0.703124999999999
 40
0.703124999999999
 40
0.7187499999999989
 40
0.7187499999999989
 40
0.749999999999999
 40
0.749999999999999
 40
0.7812499999999992
 40
0.7812499999999992
 40
0.8124999999999993
 40
0.8124999999999993
 40
0.8437499999999994
 40
0.8437499999999994
 40
0.8749999999999996
 40
0.8749999999999996
 40
0.9062499999999997
 40
0.9062499999999997
 40
0.9374999999999998
 40
0.9374999999999998
 40
0.9687499999999999
 40
0.9687499999999999
 40
1.0
 40
1.0
 40
1.03125
 40
1.03125
 10
144.7048961580514
 20
117.5351340801351
 30
0.0
 10
144.7048961580514
 20
116.873366088547
 30
0.0
 10
144.7374166358358
 20
116.5481149204511
 30
0.0
 10
144.8329098801178
 20
116.068318199562
 30
0.0
 10
144.872584715529
 20
115.9097425157684
 30
0.0
 10
144.9679713288646
 20
115.5953601299753
 30
0.0
 10
145.0239155702753
 20
115.4392405063911
 30
0.0
 10
145.2122785937249
 20
114.9852999464892
 30
0.0
 10
145.3658908701433
 20
114.6983197004822
 30
0.0
 10
145.7287186639275
 20
114.1552065437429
 30
0.0
 10
145.9395537655099
 20
113.8984672521989
 30
0.0
 10
146.4000533355274
 20
113.438082617968
 30
0.0
 10
146.6514162764452
 20
113.2313058012141
 30
0.0
 10
147.1977629707986
 20
112.8657815935507
 30
0.0
 10
147.4879776105166
 20
112.7107820348359
 30
0.0
 10
148.0893644268183
 20
112.4612510137417
 30
0.0
 10
148.4049941199087
 20
112.364972740053
 30
0.0
 10
149.0506345211882
 20
112.23632373281
 30
0.0
 10
149.3753902770016
 20
112.2044374736934
 30
0.0
 10
150.028690307393
 20
112.2040643261827
 30
0.0
 10
150.3605626482237
 20
112.2366438124287
 30
0.0
 10
151.0022138818273
 20
112.3644177171351
 30
0.0
 10
151.3141387987604
 20
112.4589501614322
 30
0.0
 10
151.7686283992773
 20
112.6470697559709
 30
0.0
 10
151.9184917071113
 20
112.7179527371917
 30
0.0
 10
152.2075769410339
 20
112.8725693435261
 30
0.0
 10
152.347437855342
 20
112.956491942264
 30
0.0
 10
152.7533142990462
 20
113.2276874657397
 30
0.0
 10
153.0063524455358
 20
113.434787471181
 30
0.0
 10
153.4722520016992
 20
113.9003899242382
 30
0.0
 10
153.678758076195
 20
114.1523087766255
 30
0.0
 10
154.0408636395947
 20
114.6932123926264
 30
0.0
 10
154.1977227534098
 20
114.9857552353778
 30
0.0
 10
154.4486728702725
 20
115.5906228921353
 30
0.0
 10
154.5434839696034
 20
115.902269723582
 30
0.0
 10
154.6719058323966
 20
116.5440230288036
 30
0.0
 10
154.7047691188878
 20
116.8757508476829
 30
0.0
 10
154.7050224449963
 20
117.5288706129438
 30
0.0
 10
154.673466444427
 20
117.8538038192868
 30
0.0
 10
154.5452252230026
 20
118.5003308257399
 30
0.0
 10
154.4494191743443
 20
118.8153387796009
 30
0.0
 10
154.2002856632501
 20
119.4172974477465
 30
0.0
 10
154.0448255415554
 20
119.708773618022
 30
0.0
 10
153.6803712871956
 20
120.2543685545187
 30
0.0
 10
153.4739383797599
 20
120.5058456695238
 30
0.0
 10
153.0134692972419
 20
120.9671686935786
 30
0.0
 10
152.756672289186
 20
121.178291994525
 30
0.0
 10
152.2146270753516
 20
121.541022776241
 30
0.0
 10
151.927857495416
 20
121.6949116796266
 30
0.0
 10
151.4735503195304
 20
121.8838614063186
 30
0.0
 10
151.3174100187569
 20
121.9399342023383
 30
0.0
 10
151.0035640574108
 20
122.0354369678711
 30
0.0
 10
150.845177269717
 20
122.0752176108986
 30
0.0
 10
150.3657010297737
 20
122.1711001480239
 30
0.0
 10
150.0394610853468
 20
122.2039755960234
 30
0.0
 10
149.3785864880688
 20
122.2045211651944
 30
0.0
 10
149.0534501407239
 20
122.172354646581
 30
0.0
 10
148.4133676402374
 20
122.0455721085938
 30
0.0
 10
148.0950467161696
 20
121.9493043548025
 30
0.0
 10
147.4901304373305
 20
121.6989100333773
 30
0.0
 10
147.202981523679
 20
121.5455958716558
 30
0.0
 10
146.659029970006
 20
121.182887947636
 30
0.0
 10
146.4023840202794
 20
120.9724488749021
 30
0.0
 10
145.9417934668665
 20
120.5125678866258
 30
0.0
 10
145.7346445808756
 20
120.261286086933
 30
0.0
 10
145.3681133374623
 20
119.714365913193
 30
0.0
 10
145.2134291499578
 20
119.4252257615767
 30
0.0
 10
144.9633294966196
 20
118.8239890876574
 30
0.0
 10
144.8666427221265
 20
118.5080133940167
 30
0.0
 10
144.7374211471702
 20
117.8620396359201
 30
0.0
 10
144.7048961580514
 20
117.5351340801351
 30
0.0
 10
144.7048961580514
 20
116.873366088547
 30
0.0
  0
LINE
  5
124
330
1F
100
AcDbEntity
  8
0
  6
HIDDEN
 62
     7
370
     0
100
AcDbLine
 10
142.7048961581
 20
148.4042500684
 30
0.0
 11
142.7048961581
 21
86.0042500843
 31
0.0
  0
SPLINE
  5
125
330
1F
100
AcDbEntity
  8
0
  6
HIDDEN
 62
     7
370
     0
100
AcDbSpline
210
0.0
220
0.0
230
1.0
 70
     8
 71
     3
 72
    10
 73
     6
 74
     0
 42
0.00000001
 43
0.00000001
 40
0.0
 40
0.0
 40
0.0
 40
0.0
 40
0.5
 40
0.5
 40
1.0
 40
1.0
 40
1.0
 40
1.0
 10
158.8925709603837
 20
90.80425008434106
 30
0.0
 10
158.8604157727617
 20
90.74196403882495
 30
0.0
 10
158.8357595415675
 20
90.67543361395576
 30
0.0
 10
158.802946784642
 20
90.53857498359334
 30
0.0
 10
158.7948961580514
 20
90.46951738841501
 30
0.0
 10
158.7948961580514
 20
90.39985445601171
 30
0.0
  0
SPLINE
  5
126
330
1F
100
AcDbEntity
  8
0
  6
HIDDEN
 62
     7
370
     0
100
AcDbSpline
210
0.0
220
0.0
230
1.0
 70
    24
 71
     3
 72
    10
 73
     6
 74
     0
 42
0.00000001
 43
0.00000001
 40
0.0
 40
0.0
 40
0.0
 40
0.0
 40
0.5
 40
0.5
 40
1.0
 40
1.0
 40
1.0
 40
1.0
 10
158.7948961580514
 20
137.054250084341
 30
0.0
 10
158.7948961580514
 20
137.054250084341
 30
0.0
 10
158.7971180165361
 20
137.054250084341
 30
0.0
 10
158.8058546882597
 20
137.054250084341
 30
0.0
 10
158.8123662020541
 20
137.054250084341
 30
0.0
 10
158.8210437812116
 20
137.054250084341
 30
0.0
  0
LINE
  5
127
330
1F
100
AcDbEntity
  8
0
  6
HIDDEN
 62
     7
370
     0
100
AcDbLine
 10
158.7948961581
 20
137.3401167158
 30
0.0
 11
158.7948961581
 21
144.3239039354
 31
0.0
  0
LINE
  5
128
330
1F
100
AcDbEntity
  8
0
  6
HIDDEN
 62
     7
370
     0
100
AcDbLine
 10
158.7948961581
 20
90.399854456
 30
0.0
 11
158.7948961581
 21
137.0542500843
 31
0.0
  0
SPLINE
  5
129
330
1F
100
AcDbEntity
  8
0
  6
HIDDEN
 62
     7
370
     0
100
AcDbSpline
210
0.0
220
0.0
230
1.0
 70
     8
 71
     3
 72
    10
 73
     6
 74
     0
 42
0.00000001
 43
0.00000001
 40
0.0
 40
0.0
 40
0.0
 40
0.0
 40
0.5
 40
0.5
 40
1.0
 40
1.0
 40
1.0
 40
1.0
 10
162.6148961580514
 20
90.3998544560117
 30
0.0
 10
162.6148961580514
 20
90.47009081638247
 30
0.0
 10
162.606613545961
 20
90.54008491787997
 30
0.0
 10
162.5735136029024
 20
90.67704418243888
 30
0.0
 10
162.5491762109439
 20
90.74235209169413
 30
0.0
 10
162.5172213557192
 20
90.80425008434104
 30
0.0
  0
LINE
  5
12A
330
1F
100
AcDbEntity
  8
0
  6
HIDDEN
 62
     7
370
     0
100
AcDbLine
 10
162.6148961581
 20
137.3401167158
 30
0.0
 11
162.6148961581
 21
144.3239039354
 31
0.0
  0
SPLINE
  5
12B
330
1F
100
AcDbEntity
  8
0
  6
HIDDEN
 62
     7
370
     0
100
AcDbSpline
210
0.0
220
0.0
230
1.0
 70
    24
 71
     3
 72
    10
 73
     6
 74
     0
 42
0.00000001
 43
0.00000001
 40
0.0
 40
0.0
 40
0.0
 40
0.0
 40
0.5
 40
0.5
 40
1.0
 40
1.0
 40
1.0
 40
1.0
 10
162.5887485348913
 20
137.054250084341
 30
0.0
 10
162.5974263097989
 20
137.054250084341
 30
0.0
 10
162.6039793338058
 20
137.054250084341
 30
0.0
 10
162.6127139433029
 20
137.054250084341
 30
0.0
 10
162.6148961580514
 20
137.054250084341
 30
0.0
 10
162.6148961580514
 20
137.054250084341
 30
0.0
  0
LINE
  5
12C
330
1F
100
AcDbEntity
  8
0
  6
HIDDEN
 62
     7
370
     0
100
AcDbLine
 10
162.6148961581
 20
90.399854456
 30
0.0
 11
162.6148961581
 21
137.0542500843
 31
0.0
  0
LINE
  5
12D
330
1F
100
AcDbEntity
  8
0
  6
HIDDEN
 62
     7
370
     0
100
AcDbLine
 10
142.7048961581
 20
91.8803261632
 30
0.0
 11
142.7048961581
 21
142.5033876203
 31
0.0
  0
LINE
  5
12E
330
1F
100
AcDbEntity
  8
0
  6
HIDDEN
 62
     7
370
     0
100
AcDbLine
 10
147.6548961581
 20
137.0542500843
 30
0.0
 11
154.9005165037
 21
137.0542500843
 31
0.0
  0
LWPOLYLINE
  5
12F
330
1F
100
AcDbEntity
  8
0
  6
HIDDEN
 62
     7
370
     0
100
AcDbPolyline
 90
        2
 70
   128
 43
0.0
 10
162.6148961581
 20
137.0542500843
 10
162.6148961581
 20
137.0542500843
  0
LWPOLYLINE
  5
130
330
1F
100
AcDbEntity
  8
0
  6
HIDDEN
 62
     7
370
     0
100
AcDbPolyline
 90
        2
 70
   128
 43
0.0
 10
168.6548961581
 20
137.0542500843
 10
168.6548961581
 20
137.0542500843
  0
LWPOLYLINE
  5
131
330
1F
100
AcDbEntity
  8
0
  6
HIDDEN
 62
     7
370
     0
100
AcDbPolyline
 90
        2
 70
   128
 43
0.0
 10
158.7948961581
 20
137.0542500843
 10
158.7948961581
 20
137.0542500843
  0
LINE
  5
132
330
1F
100
AcDbEntity
  8
0
  6
HIDDEN
 62
     7
370
     0
100
AcDbLine
 10
140.7048961581
 20
141.4246809461
 30
0.0
 11
140.7048961581
 21
92.9838192226
 31
0.0
  0
SPLINE
  5
133
330
1F
100
AcDbEntity
  8
0
  6
HIDDEN
 62
     7
370
     0
100
AcDbSpline
210
0.0
220
0.0
230
1.0
 70
     8
 71
     3
 72
    14
 73
    10
 74
     0
 42
0.00000001
 43
0.00000001
 40
0.0
 40
0.0
 40
0.0
 40
0.0
 40
0.4999999999999972
 40
0.4999999999999972
 40
0.7499999999999971
 40
0.7499999999999971
 40
0.8749999999999986
 40
0.8749999999999986
 40
1.0
 40
1.0
 40
1.0
 40
1.0
 10
111.9548961580514
 20
96.39761852581347
 30
0.0
 10
112.5709730618067
 20
96.40334464604261
 30
0.0
 10
113.1851050579226
 20
96.41323501144464
 30
0.0
 10
114.0990016884362
 20
96.44386997911442
 30
0.0
 10
114.4024406159838
 20
96.4566634367524
 30
0.0
 10
114.8535772316212
 20
96.48458926471179
 30
0.0
 10
115.0032834811638
 20
96.49535888487155
 30
0.0
 10
115.3001246174119
 20
96.52249160047107
 30
0.0
 10
115.4475101699151
 20
96.53830857329831
 30
0.0
 10
115.5912942969294
 20
96.56196766217279
 30
0.0
  0
SPLINE
  5
134
330
1F
100
AcDbEntity
  8
0
  6
HIDDEN
 62
     7
370
     0
100
AcDbSpline
210
0.0
220
0.0
230
1.0
 70
     8
 71
     3
 72
    10
 73
     6
 74
     0
 42
0.00000001
 43
0.00000001
 40
0.0
 40
0.0
 40
0.0
 40
0.0
 40
0.5
 40
0.5
 40
1.0
 40
1.0
 40
1.0
 40
1.0
 10
115.5912942969295
 20
96.56196766217276
 30
0.0
 10
116.2189219526368
 20
96.66524122090837
 30
0.0
 10
116.8701226976682
 20
96.75406633265992
 30
0.0
 10
118.1788274016804
 20
96.91617403953023
 30
0.0
 10
118.8398718389715
 20
96.98947350381681
 30
0.0
 10
119.5048961580512
 20
97.0581613185445
 30
0.0
  0
SPLINE
  5
135
330
1F
100
AcDbEntity
  8
0
  6
HIDDEN
 62
     7
370
     0
100
AcDbSpline
210
0.0
220
0.0
230
1.0
 70
     8
 71
     3
 72
    18
 73
    14
 74
     0
 42
0.00000001
 43
0.00000001
 40
0.0
 40
0.0
 40
0.0
 40
0.0
 40
0.0624999999999996
 40
0.0624999999999996
 40
0.1249999999999992
 40
0.1249999999999992
 40
0.2499999999999971
 40
0.2499999999999971
 40
0.499999999999998
 40
0.499999999999998
 40
0.749999999999999
 40
0.749999999999999
 40
1.0
 40
1.0
 40
1.0
 40
1.0
 10
119.5048961580514
 20
97.05816131854439
 30
0.0
 10
119.5414683684018
 20
97.06193872207186
 30
0.0
 10
119.5801188418372
 20
97.06138169418873
 30
0.0
 10
119.6542103355511
 20
97.05132248902687
 30
0.0
 10
119.6895606293051
 20
97.0419686076023
 30
0.0
 10
119.7841549266946
 20
97.0075841811685
 30
0.0
 10
119.8342930998336
 20
96.97687244650567
 30
0.0
 10
119.9634863714147
 20
96.88094313646764
 30
0.0
 10
120.0217665161559
 20
96.81242764235037
 30
0.0
 10
120.1219616125794
 20
96.67585569241777
 30
0.0
 10
120.161976864026
 20
96.60709078991485
 30
0.0
 10
120.2303762848438
 20
96.47205536080719
 30
0.0
 10
120.2587380087057
 20
96.40543733475403
 30
0.0
 10
120.2832919213116
 20
96.33987886705782
 30
0.0
  0
SPLINE
  5
136
330
1F
100
AcDbEntity
  8
0
  6
HIDDEN
 62
     7
370
     0
100
AcDbSpline
210
0.0
220
0.0
230
1.0
 70
     8
 71
     3
 72
    14
 73
    10
 74
     0
 42
0.00000001
 43
0.00000001
 40
0.0
 40
0.0
 40
0.0
 40
0.0
 40
0.25
 40
0.25
 40
0.5
 40
0.5
 40
0.75
 40
0.75
 40
1.0
 40
1.0
 40
1.0
 40
1.0
 10
120.2832919213116
 20
96.33987886705782
 30
0.0
 10
120.3217283061326
 20
96.2372544693463
 30
0.0
 10
120.3905296995244
 20
96.13805804590672
 30
0.0
 10
120.5338157116834
 20
95.9471660165802
 30
0.0
 10
120.6089977667904
 20
95.85490875054731
 30
0.0
 10
120.7411850554405
 20
95.6753014287323
 30
0.0
 10
120.7987022509103
 20
95.58799187428795
 30
0.0
 10
120.8807470492026
 20
95.41805804077221
 30
0.0
 10
120.9048961580514
 20
95.33615569890104
 30
0.0
 10
120.9048961580514
 20
95.25910182506513
 30
0.0
  0
LINE
  5
137
330
1F
100
AcDbEntity
  8
0
  6
HIDDEN
 62
     7
370
     0
100
AcDbLine
 10
120.9048961581
 20
95.2591018251
 30
0.0
 11
120.9048961581
 21
93.9758031906
 31
0.0
  0
LINE
  5
138
330
1F
100
AcDbEntity
  8
0
  6
HIDDEN
 62
     7
370
     0
100
AcDbLine
 10
116.9048961581
 20
140.2322961765
 30
0.0
 11
116.9048961581
 21
139.0483577567
 31
0.0
  0
SPLINE
  5
139
330
1F
100
AcDbEntity
  8
0
  6
HIDDEN
 62
     7
370
     0
100
AcDbSpline
210
0.0
220
0.0
230
1.0
 70
     8
 71
     3
 72
    18
 73
    14
 74
     0
 42
0.00000001
 43
0.00000001
 40
0.0
 40
0.0
 40
0.0
 40
0.0
 40
0.249999999999998
 40
0.249999999999998
 40
0.4999999999999968
 40
0.4999999999999968
 40
0.7499999999999956
 40
0.7499999999999956
 40
0.8749999999999966
 40
0.8749999999999966
 40
0.9374999999999982
 40
0.9374999999999982
 40
1.0
 40
1.0
 40
1.0
 40
1.0
 10
116.9048961580514
 20
139.048357756704
 30
0.0
 10
116.9048961580514
 20
138.9651508478468
 30
0.0
 10
116.8690470581132
 20
138.8764141925333
 30
0.0
 10
116.7441753220792
 20
138.694289001973
 30
0.0
 10
116.6537749044314
 20
138.5991589533464
 30
0.0
 10
116.4315322496892
 20
138.4099774442221
 30
0.0
 10
116.3017674632434
 20
138.3150322761274
 30
0.0
 10
116.0611300059319
 20
138.1767535685474
 30
0.0
 10
115.9733627077945
 20
138.1310431352451
 30
0.0
 10
115.8188386205876
 20
138.0732198300236
 30
0.0
 10
115.7622277345329
 20
138.0555050659857
 30
0.0
 10
115.6381837036263
 20
138.0309657627528
 30
0.0
 10
115.570469028608
 20
138.0249866242145
 30
0.0
 10
115.5048961580514
 20
138.0273374761688
 30
0.0
  0
SPLINE
  5
13A
330
1F
100
AcDbEntity
  8
0
  6
HIDDEN
 62
     7
370
     0
100
AcDbSpline
210
0.0
220
0.0
230
1.0
 70
     8
 71
     3
 72
    10
 73
     6
 74
     0
 42
0.00000001
 43
0.00000001
 40
0.0
 40
0.0
 40
0.0
 40
0.0
 40
0.5
 40
0.5
 40
1.0
 40
1.0
 40
1.0
 40
1.0
 10
115.5048961580514
 20
138.0273374761688
 30
0.0
 10
114.9173106109608
 20
138.0484029964052
 30
0.0
 10
114.3265642175004
 20
138.0591614822774
 30
0.0
 10
113.1425450522016
 20
138.0725262628131
 30
0.0
 10
112.5491310639961
 20
138.0746689054776
 30
0.0
 10
111.9548961580514
 20
138.0741878497361
 30
0.0
  0
SPLINE
  5
13B
330
1F
100
AcDbEntity
  8
0
  6
HIDDEN
 62
     7
370
     0
100
AcDbSpline
210
0.0
220
0.0
230
1.0
 70
     8
 71
     3
 72
     8
 73
     4
 74
     0
 42
0.00000001
 43
0.00000001
 40
0.0000005099763571
 40
0.0000005099763571
 40
0.0000005099763571
 40
0.0000005099763571
 40
0.0000262827998697
 40
0.0000262827998697
 40
0.0000262827998697
 40
0.0000262827998697
 10
111.9548961580514
 20
138.0741878497361
 30
0.0
 10
111.9515274188236
 20
138.0708661807802
 30
0.0
 10
111.9481789658445
 20
138.0675382235013
 30
0.0
 10
111.9448512276332
 20
138.0642039766287
 30
0.0
  0
SPLINE
  5
13C
330
1F
100
AcDbEntity
  8
0
  6
HIDDEN
 62
     7
370
     0
100
AcDbSpline
210
0.0
220
0.0
230
1.0
 70
     8
 71
     3
 72
     8
 73
     4
 74
     0
 42
0.00000001
 43
0.00000001
 40
0.0000005954826279
 40
0.0000005954826279
 40
0.0000005954826279
 40
0.0000005954826279
 40
0.0000302093805348
 40
0.0000302093805348
 40
0.0000302093805348
 40
0.0000302093805348
 10
111.9448512276418
 20
96.40943365546536
 30
0.0
 10
111.948167254962
 20
96.40548687586956
 30
0.0
 10
111.9515158063543
 20
96.40154848473962
 30
0.0
 10
111.9548961580514
 20
96.39761852581347
 30
0.0
  0
SPLINE
  5
13D
330
1F
100
AcDbEntity
  8
0
  6
HIDDEN
 62
     7
370
     0
100
AcDbSpline
210
0.0
220
0.0
230
1.0
 70
     8
 71
     3
 72
    10
 73
     6
 74
     0
 42
0.00000001
 43
0.00000001
 40
0.0
 40
0.0
 40
0.0
 40
0.0
 40
0.2949159523317604
 40
0.5007639170797378
 40
1.0
 40
1.0
 40
1.0
 40
1.0
 10
130.700046362623
 20
93.67965046151927
 30
0.0
 10
130.5271141495357
 20
93.66190324875362
 30
0.0
 10
130.233477227795
 20
93.63176868427345
 30
0.0
 10
129.5587280957248
 20
93.56368662552167
 30
0.0
 10
129.5098237862256
 20
93.55386516498555
 30
0.0
 10
129.4751969981241
 20
93.54691106142468
 30
0.0
  0
SPLINE
  5
13E
330
1F
100
AcDbEntity
  8
0
  6
HIDDEN
 62
     7
370
     0
100
AcDbSpline
210
0.0
220
0.0
230
1.0
 70
     8
 71
     3
 72
    16
 73
    12
 74
     0
 42
0.00000001
 43
0.00000001
 40
0.0
 40
0.0
 40
0.0
 40
0.0
 40
0.0014619398999441
 40
0.1695060946944866
 40
0.3368148262131685
 40
0.5027784258718646
 40
0.5863380399920285
 40
0.668520298482347
 40
0.7507638349534445
 40
0.834194604174546
 40
1.0
 40
1.0
 40
1.0
 40
1.0
 10
137.8865325259446
 20
93.12550505486801
 30
0.0
 10
137.8874626306592
 20
93.12529680145505
 30
0.0
 10
137.995304558938
 20
93.10115064965973
 30
0.0
 10
137.6072908261417
 20
93.1896975052061
 30
0.0
 10
136.7455001974626
 20
93.37330086297067
 30
0.0
 10
135.5551945309844
 20
93.56153078345115
 30
0.0
 10
134.5037942604024
 20
93.67293576344923
 30
0.0
 10
133.6777653045492
 20
93.7305713786856
 30
0.0
 10
132.8539773601458
 20
93.75705713693853
 30
0.0
 10
131.7838218884276
 20
93.75231755002555
 30
0.0
 10
131.1330050033539
 20
93.70868031421149
 30
0.0
 10
130.700046362623
 20
93.67965046151927
 30
0.0
  0
SPLINE
  5
13F
330
1F
100
AcDbEntity
  8
0
  6
HIDDEN
 62
     7
370
     0
100
AcDbSpline
210
0.0
220
0.0
230
1.0
 70
     8
 71
     3
 72
    16
 73
    12
 74
     0
 42
0.00000001
 43
0.00000001
 40
0.0
 40
0.0
 40
0.0
 40
0.0
 40
0.1658979086808743
 40
0.2493608198222822
 40
0.3317589050038947
 40
0.4138911421869728
 40
0.4976181669650961
 40
0.6634955966468971
 40
0.8305394509979778
 40
0.9983760749348635
 40
1.0
 40
1.0
 40
1.0
 40
1.0
 10
130.6999536423412
 20
140.7288331143228
 30
0.0
 10
131.1335220545371
 20
140.6998803010357
 30
0.0
 10
131.785217881048
 20
140.656361384403
 30
0.0
 10
132.8561837849328
 20
140.6516217552002
 30
0.0
 10
133.6804068241682
 20
140.6780235099644
 30
0.0
 10
134.5074250401443
 20
140.7357170729218
 30
0.0
 10
135.5585422229802
 20
140.8473759699494
 30
0.0
 10
136.747254075166
 20
141.0355748447225
 30
0.0
 10
137.6079921628398
 20
141.2188343458338
 30
0.0
 10
137.9959967559161
 20
141.3073578117212
 30
0.0
 10
137.8873548657961
 20
141.2831618014309
 30
0.0
 10
137.8863137604206
 20
141.2829299332597
 30
0.0
  0
SPLINE
  5
140
330
1F
100
AcDbEntity
  8
0
  6
HIDDEN
 62
     7
370
     0
100
AcDbSpline
210
0.0
220
0.0
230
1.0
 70
     8
 71
     3
 72
    10
 73
     6
 74
     0
 42
0.00000001
 43
0.00000001
 40
0.0
 40
0.0
 40
0.0
 40
0.0
 40
0.4995493564858555
 40
0.5744878148481601
 40
0.9999999999999999
 40
0.9999999999999999
 40
0.9999999999999999
 40
0.9999999999999999
 10
129.4744929065558
 20
140.8616566814385
 30
0.0
 10
129.494787622614
 20
140.8558644311252
 30
0.0
 10
129.5181267920672
 20
140.8492032730587
 30
0.0
 10
130.1503054305652
 20
140.7850566999844
 30
0.0
 10
130.4473711364165
 20
140.7546698110576
 30
0.0
 10
130.6999536423412
 20
140.7288331143228
 30
0.0
  0
LINE
  5
141
330
1F
100
AcDbEntity
  8
0
  6
HIDDEN
 62
     7
370
     0
100
AcDbLine
 10
168.6548961581
 20
94.2042500843
 30
0.0
 11
168.6548961581
 21
140.1789705885
 31
0.0
  0
SPLINE
  5
142
330
1F
100
AcDbEntity
  8
0
  6
HIDDEN
 62
     7
370
     0
100
AcDbSpline
210
0.0
220
0.0
230
1.0
 70
     8
 71
     3
 72
    68
 73
    64
 74
     0
 42
0.00000001
 43
0.00000001
 40
-0.062499999999998
 40
-0.062499999999998
 40
0.0
 40
0.0
 40
0.03125
 40
0.03125
 40
0.0625000000000001
 40
0.0625000000000001
 40
0.0937500000000001
 40
0.0937500000000001
 40
0.1250000000000002
 40
0.1250000000000002
 40
0.1562500000000002
 40
0.1562500000000002
 40
0.1875000000000002
 40
0.1875000000000002
 40
0.2187500000000003
 40
0.2187500000000003
 40
0.2500000000000003
 40
0.2500000000000003
 40
0.2812500000000004
 40
0.2812500000000004
 40
0.3125000000000004
 40
0.3125000000000004
 40
0.3437500000000004
 40
0.3437500000000004
 40
0.3750000000000005
 40
0.3750000000000005
 40
0.4062500000000006
 40
0.4062500000000006
 40
0.4375000000000006
 40
0.4375000000000006
 40
0.4687500000000006
 40
0.4687500000000006
 40
0.5000000000000007
 40
0.5000000000000007
 40
0.5312500000000007
 40
0.5312500000000007
 40
0.5625000000000008
 40
0.5625000000000008
 40
0.5937500000000008
 40
0.5937500000000008
 40
0.6250000000000009
 40
0.6250000000000009
 40
0.6562500000000009
 40
0.6562500000000009
 40
0.6875000000000009
 40
0.6875000000000009
 40
0.718750000000001
 40
0.718750000000001
 40
0.7500000000000011
 40
0.7500000000000011
 40
0.7812500000000012
 40
0.7812500000000012
 40
0.8125000000000014
 40
0.8125000000000014
 40
0.8437500000000016
 40
0.8437500000000016
 40
0.8750000000000018
 40
0.8750000000000018
 40
0.9062500000000019
 40
0.9062500000000019
 40
0.937500000000002
 40
0.937500000000002
 40
1.0
 40
1.0
 40
1.03125
 40
1.03125
 10
241.035566670728
 20
122.319659590401
 30
0.0
 10
240.5395609017131
 20
122.319659590401
 30
0.0
 10
240.3770211592905
 20
122.3354903190768
 30
0.0
 10
240.0572939495931
 20
122.397401755565
 30
0.0
 10
239.8984373730079
 20
122.4442439454117
 30
0.0
 10
239.5957654747789
 20
122.5661068260169
 30
0.0
 10
239.4522376591828
 20
122.6405489295277
 30
0.0
 10
239.1806058802355
 20
122.8158550925274
 30
0.0
 10
239.0521212479124
 20
122.9175493403348
 30
0.0
 10
238.821764491952
 20
123.1388355191727
 30
0.0
 10
238.7183369919891
 20
123.2592343283943
 30
0.0
 10
238.5355719154338
 20
123.519685820664
 30
0.0
 10
238.4580055397124
 20
123.6576317080949
 30
0.0
 10
238.3332703467161
 20
123.941879722055
 30
0.0
 10
238.2851900033735
 20
124.0902869213062
 30
0.0
 10
238.220906494562
 20
124.3925130903905
 30
0.0
 10
238.2049871670057
 20
124.5437595721674
 30
0.0
 10
238.2048059198194
 20
124.8464302602982
 30
0.0
 10
238.2210699491
 20
124.9993979632263
 30
0.0
 10
238.2849101668991
 20
125.2938596753406
 30
0.0
 10
238.3321437114861
 20
125.4362737977644
 30
0.0
 10
238.4574488777145
 20
125.7116643997376
 30
0.0
 10
238.5356566553397
 20
125.8439193230617
 30
0.0
 10
238.7165085378379
 20
126.0878703318336
 30
0.0
 10
238.8198807014977
 20
126.2012079528435
 30
0.0
 10
239.0530172373748
 20
126.4097821968968
 30
0.0
 10
239.1791072743592
 20
126.5017731744539
 30
0.0
 10
239.4496494106823
 20
126.6625742201116
 30
0.0
 10
239.5958443712694
 20
126.7319391963502
 30
0.0
 10
239.8984697202191
 20
126.8428445381272
 30
0.0
 10
240.0542922187682
 20
126.8845898812102
 30
0.0
 10
240.3749253910466
 20
126.9410798611242
 30
0.0
 10
240.5407305716547
 20
126.9555247763182
 30
0.0
 10
240.8671843877645
 20
126.9556326400028
 30
0.0
 10
241.0295239900532
 20
126.9417623553667
 30
0.0
 10
241.3523859777076
 20
126.8853906791351
 30
0.0
 10
241.5101266881329
 20
126.8431437974293
 30
0.0
 10
241.8110790208054
 20
126.7331277405493
 30
0.0
 10
241.9565984987452
 20
126.6644898196038
 30
0.0
 10
242.2298017546358
 20
126.5024861726708
 30
0.0
 10
242.355632402567
 20
126.4105200653421
 30
0.0
 10
242.5863122261429
 20
126.2047067536731
 30
0.0
 10
242.691929704082
 20
126.0894998308862
 30
0.0
 10
242.8734740914059
 20
125.8450065480439
 30
0.0
 10
242.9503925483994
 20
125.7152434470067
 30
0.0
 10
243.0762203435239
 20
125.4401024959383
 30
0.0
 10
243.1244806128097
 20
125.2951000259184
 30
0.0
 10
243.1883553816079
 20
125.0016950733975
 30
0.0
 10
243.2047455420736
 20
124.8517529274822
 30
0.0
 10
243.2050447270341
 20
124.5452058071508
 30
0.0
 10
243.1889553581193
 20
124.3937277734804
 30
0.0
 10
243.1256399512048
 20
124.0942929201485
 30
0.0
 10
243.077626283714
 20
123.9447493937167
 30
0.0
 10
242.9523707447042
 20
123.6586140377408
 30
0.0
 10
242.8757002970557
 20
123.5222470723336
 30
0.0
 10
242.6944905128409
 20
123.2631184690564
 30
0.0
 10
242.5891274667537
 20
123.1400386850308
 30
0.0
 10
242.3589458484394
 20
122.9186286078201
 30
0.0
 10
242.2332805085636
 20
122.818804762516
 30
0.0
 10
241.9601522741183
 20
122.6419253904439
 30
0.0
 10
241.8150325393985
 20
122.566661785208
 30
0.0
 10
241.3640822891454
 20
122.3846514124138
 30
0.0
 10
241.035566670728
 20
122.319659590401
 30
0.0
 10
240.5395609017131
 20
122.319659590401
 30
0.0
  0
SPLINE
  5
143
330
1F
100
AcDbEntity
  8
0
  6
HIDDEN
 62
     7
370
     0
100
AcDbSpline
210
0.0
220
0.0
230
1.0
 70
     8
 71
     3
 72
    12
 73
     8
 74
     0
 42
0.00000001
 43
0.00000001
 40
0.0
 40
0.0
 40
0.0
 40
0.0
 40
0.1964207034212727
 40
0.3981744852877731
 40
0.6043471118151394
 40
0.8147732612498798
 40
1.0
 40
1.0
 40
1.0
 40
1.0
 10
256.7048961580515
 20
100.0665487784128
 30
0.0
 10
256.4284918244971
 20
99.73695746930193
 30
0.0
 10
255.8681784189988
 20
99.06882601689036
 30
0.0
 10
255.3600805267193
 20
98.2522104327855
 30
0.0
 10
255.0273366612828
 20
97.63870560916902
 30
0.0
 10
254.879709312763
 20
97.2653287025086
 30
0.0
 10
254.927209747012
 20
97.23030766574391
 30
0.0
 10
254.9494472961059
 20
97.21391240459131
 30
0.0
  0
LINE
  5
144
330
1F
100
AcDbEntity
  8
0
  6
HIDDEN
 62
     7
370
     0
100
AcDbLine
 10
256.7048961581
 20
100.0665487784
 30
0.0
 11
256.7048961581
 21
137.2042500843
 31
0.0
  0
SPLINE
  5
145
330
1F
100
AcDbEntity
  8
0
  6
HIDDEN
 62
     7
370
     0
100
AcDbSpline
210
0.0
220
0.0
230
1.0
 70
    11
 71
     3
 72
    22
 73
    18
 74
     0
 42
0.00000001
 43
0.00000001
 40
0.0
 40
0.0
 40
0.0
 40
0.0
 40
0.1250000000000001
 40
0.1250000000000001
 40
0.2500000000000001
 40
0.2500000000000001
 40
0.3750000000000001
 40
0.3750000000000001
 40
0.5000000000000001
 40
0.5000000000000001
 40
0.6250000000000001
 40
0.6250000000000001
 40
0.7500000000000001
 40
0.7500000000000001
 40
0.8750000000000001
 40
0.8750000000000001
 40
1.0
 40
1.0
 40
1.0
 40
1.0
 10
136.459898159653
 20
137.0417785601575
 30
0.0
 10
136.6188409886221
 20
137.0638522682045
 30
0.0
 10
136.7595325365125
 20
137.0805360861921
 30
0.0
 10
137.0055187739749
 20
137.1067577810745
 30
0.0
 10
137.1115568566562
 20
137.1163370869197
 30
0.0
 10
137.2820488972232
 20
137.1304163539989
 30
0.0
 10
137.3461015966869
 20
137.1349229302459
 30
0.0
 10
137.4326056477799
 20
137.1407871000839
 30
0.0
 10
137.45483914314
 20
137.1421290326022
 30
0.0
 10
137.454952949152
 20
137.1421361723517
 30
0.0
 10
137.4334950206667
 20
137.1408435368654
 30
0.0
 10
137.3475092277878
 20
137.1350221073552
 30
0.0
 10
137.2821950810382
 20
137.1304226380794
 30
0.0
 10
137.1131892471028
 20
137.1164776172695
 30
0.0
 10
137.009230209227
 20
137.1071252304112
 30
0.0
 10
136.7617197629881
 20
137.0807967599448
 30
0.0
 10
136.6188356729043
 20
137.0638515299668
 30
0.0
 10
136.4598981596533
 20
137.0417785601576
 30
0.0
  0
SPLINE
  5
146
330
1F
100
AcDbEntity
  8
0
  6
HIDDEN
 62
     7
370
     0
100
AcDbSpline
210
0.0
220
0.0
230
1.0
 70
    11
 71
     3
 72
    22
 73
    18
 74
     0
 42
0.00000001
 43
0.00000001
 40
0.0
 40
0.0
 40
0.0
 40
0.0
 40
0.125
 40
0.125
 40
0.25
 40
0.25
 40
0.375
 40
0.375
 40
0.5
 40
0.5
 40
0.625
 40
0.625
 40
0.75
 40
0.75
 40
0.875
 40
0.875
 40
1.0
 40
1.0
 40
1.0
 40
1.0
 10
136.459898159653
 20
97.36672160852457
 30
0.0
 10
136.6188409886221
 20
97.34464790047753
 30
0.0
 10
136.7595325365125
 20
97.32796408248993
 30
0.0
 10
137.0055187739749
 20
97.3017423876076
 30
0.0
 10
137.1115568566562
 20
97.29216308176231
 30
0.0
 10
137.2820488972232
 20
97.27808381468316
 30
0.0
 10
137.3461015966869
 20
97.27357723843612
 30
0.0
 10
137.4326056477799
 20
97.26771306859821
 30
0.0
 10
137.45483914314
 20
97.2663711360799
 30
0.0
 10
137.454952949152
 20
97.26636399633038
 30
0.0
 10
137.4334950206667
 20
97.26765663181664
 30
0.0
 10
137.3475092277878
 20
97.27347806132683
 30
0.0
 10
137.2821950810382
 20
97.27807753060266
 30
0.0
 10
137.1131892471028
 20
97.29202255141251
 30
0.0
 10
137.009230209227
 20
97.30137493827084
 30
0.0
 10
136.7617197629881
 20
97.32770340873725
 30
0.0
 10
136.6188356729043
 20
97.34464863871527
 30
0.0
 10
136.4598981596533
 20
97.36672160852447
 30
0.0
  0
LINE
  5
147
330
1F
100
AcDbEntity
  8
0
  6
HIDDEN
 62
     7
370
     0
100
AcDbLine
 10
142.7048961581
 20
100.2042500843
 30
0.0
 11
142.7048961581
 21
134.2042500843
 31
0.0
  0
SPLINE
  5
148
330
1F
100
AcDbEntity
  8
0
  6
HIDDEN
 62
     7
370
     0
100
AcDbSpline
210
0.0
220
0.0
230
1.0
 70
    11
 71
     3
 72
    56
 73
    52
 74
     0
 42
0.00000001
 43
0.00000001
 40
0.0
 40
0.0
 40
0.0
 40
0.0
 40
0.0625000000000001
 40
0.0625000000000001
 40
0.0937500000000001
 40
0.0937500000000001
 40
0.1250000000000002
 40
0.1250000000000002
 40
0.1562500000000002
 40
0.1562500000000002
 40
0.1875000000000003
 40
0.1875000000000003
 40
0.2187500000000004
 40
0.2187500000000004
 40
0.2500000000000004
 40
0.2500000000000004
 40
0.3125000000000004
 40
0.3125000000000004
 40
0.3437500000000005
 40
0.3437500000000005
 40
0.3750000000000006
 40
0.3750000000000006
 40
0.4062500000000006
 40
0.4062500000000006
 40
0.4375000000000006
 40
0.4375000000000006
 40
0.4687500000000006
 40
0.4687500000000006
 40
0.5000000000000007
 40
0.5000000000000007
 40
0.5625000000000008
 40
0.5625000000000008
 40
0.6250000000000008
 40
0.6250000000000008
 40
0.6875000000000009
 40
0.6875000000000009
 40
0.7187500000000009
 40
0.7187500000000009
 40
0.750000000000001
 40
0.750000000000001
 40
0.781250000000001
 40
0.781250000000001
 40
0.812500000000001
 40
0.812500000000001
 40
0.8750000000000008
 40
0.8750000000000008
 40
0.9375000000000004
 40
0.9375000000000004
 40
0.9687500000000003
 40
0.9687500000000003
 40
1.0
 40
1.0
 40
1.0
 40
1.0
 10
136.459898159653
 20
97.36672160852457
 30
0.0
 10
136.2041108491053
 20
97.40224491241811
 30
0.0
 10
135.9139210421619
 20
97.43778878138636
 30
0.0
 10
135.4272679438712
 20
97.48426048129524
 30
0.0
 10
135.25692210171
 20
97.49850639452674
 30
0.0
 10
134.9099486916189
 20
97.52279430872515
 30
0.0
 10
134.7320107943842
 20
97.53297065504718
 30
0.0
 10
134.3670915168244
 20
97.5486459826511
 30
0.0
 10
134.1787569247291
 20
97.55413294386395
 30
0.0
 10
133.8048700722736
 20
97.55959293813969
 30
0.0
 10
133.6181798581037
 20
97.55965116139885
 30
0.0
 10
133.2453013671845
 20
97.55446701942206
 30
0.0
 10
133.0575971242621
 20
97.54915154095062
 30
0.0
 10
132.6906782247146
 20
97.53364915992734
 30
0.0
 10
132.51222848265
 20
97.52354975216664
 30
0.0
 10
131.9914395792893
 20
97.48741791051275
 30
0.0
 10
131.6605558596184
 20
97.45498868949466
 30
0.0
 10
131.2240543012868
 20
97.40346219812757
 30
0.0
 10
131.0872687622342
 20
97.38573758708358
 30
0.0
 10
130.8315441527804
 20
97.35034326057428
 30
0.0
 10
130.7139204246748
 20
97.3328467391937
 30
0.0
 10
130.5038509714862
 20
97.30014434320518
 30
0.0
 10
130.4105161328011
 20
97.28481253425912
 30
0.0
 10
130.247570422122
 20
97.25721637491031
 30
0.0
 10
130.1778674592722
 20
97.2449296917967
 30
0.0
 10
130.06724439294
 20
97.22508470001024
 30
0.0
 10
130.0255627213296
 20
97.21739858748357
 30
0.0
 10
129.9693875809544
 20
97.20698120710631
 30
0.0
 10
129.9549493051938
 20
97.20426004942986
 30
0.0
 10
129.9547903100912
 20
97.20423023784926
 30
0.0
 10
130.010449647828
 20
97.21489236799722
 30
0.0
 10
130.2332744083624
 20
97.25487303973222
 30
0.0
 10
130.395186693956
 20
97.28320929136453
 30
0.0
 10
130.8189782526918
 20
97.34922020032458
 30
0.0
 10
131.0738246752391
 20
97.3856800731158
 30
0.0
 10
131.5124683353528
 20
97.43753159610216
 30
0.0
 10
131.6691658716323
 20
97.45441923016213
 30
0.0
 10
131.9923658214109
 20
97.48511265078307
 30
0.0
 10
132.1600393028312
 20
97.49907245772692
 30
0.0
 10
132.5076241690198
 20
97.52327188687809
 30
0.0
 10
132.6891876498388
 20
97.5335688357089
 30
0.0
 10
133.0553739246477
 20
97.5490747825708
 30
0.0
 10
133.24003134049
 20
97.55434076446781
 30
0.0
 10
133.7986277470484
 20
97.5622635877233
 30
0.0
 10
134.180962088519
 20
97.55654946434969
 30
0.0
 10
134.9082592328874
 20
97.52549037818741
 30
0.0
 10
135.2639533069874
 20
97.49980174213745
 30
0.0
 10
135.7472655839383
 20
97.45372973192934
 30
0.0
 10
135.9009631911549
 20
97.43712757351305
 30
0.0
 10
136.193385415998
 20
97.40250771829876
 30
0.0
 10
136.3320006392031
 20
97.38448379726037
 30
0.0
 10
136.4598981596531
 20
97.36672160852457
 30
0.0
  0
SPLINE
  5
149
330
1F
100
AcDbEntity
  8
0
  6
HIDDEN
 62
     7
370
     0
100
AcDbSpline
210
0.0
220
0.0
230
1.0
 70
    11
 71
     3
 72
    56
 73
    52
 74
     0
 42
0.00000001
 43
0.00000001
 40
0.0
 40
0.0
 40
0.0
 40
0.0
 40
0.0625000000000002
 40
0.0625000000000002
 40
0.0937500000000002
 40
0.0937500000000002
 40
0.1250000000000003
 40
0.1250000000000003
 40
0.1562500000000004
 40
0.1562500000000004
 40
0.1875000000000004
 40
0.1875000000000004
 40
0.2187500000000005
 40
0.2187500000000005
 40
0.2500000000000006
 40
0.2500000000000006
 40
0.3125000000000004
 40
0.3125000000000004
 40
0.3437500000000003
 40
0.3437500000000003
 40
0.3750000000000002
 40
0.3750000000000002
 40
0.4062500000000002
 40
0.4062500000000002
 40
0.4375000000000001
 40
0.4375000000000001
 40
0.46875
 40
0.46875
 40
0.4999999999999999
 40
0.4999999999999999
 40
0.5624999999999998
 40
0.5624999999999998
 40
0.6249999999999996
 40
0.6249999999999996
 40
0.6874999999999994
 40
0.6874999999999994
 40
0.7187499999999994
 40
0.7187499999999994
 40
0.7499999999999993
 40
0.7499999999999993
 40
0.7812499999999993
 40
0.7812499999999993
 40
0.8124999999999993
 40
0.8124999999999993
 40
0.8749999999999996
 40
0.8749999999999996
 40
0.9374999999999997
 40
0.9374999999999997
 40
0.9687499999999999
 40
0.9687499999999999
 40
1.0
 40
1.0
 40
1.0
 40
1.0
 10
136.459898159653
 20
137.0417785601575
 30
0.0
 10
136.2041108491053
 20
137.006255256264
 30
0.0
 10
135.9139210421619
 20
136.9707113872957
 30
0.0
 10
135.4272679438712
 20
136.9242396873868
 30
0.0
 10
135.25692210171
 20
136.9099937741553
 30
0.0
 10
134.9099486916189
 20
136.8857058599569
 30
0.0
 10
134.7320107943842
 20
136.8755295136349
 30
0.0
 10
134.3670915168244
 20
136.859854186031
 30
0.0
 10
134.1787569247291
 20
136.8543672248181
 30
0.0
 10
133.8048700722736
 20
136.8489072305424
 30
0.0
 10
133.6181798581037
 20
136.8488490072832
 30
0.0
 10
133.2453013671845
 20
136.85403314926
 30
0.0
 10
133.0575971242621
 20
136.8593486277314
 30
0.0
 10
132.6906782247146
 20
136.8748510087547
 30
0.0
 10
132.51222848265
 20
136.8849504165154
 30
0.0
 10
131.9914395792893
 20
136.9210822581693
 30
0.0
 10
131.6605558596184
 20
136.9535114791874
 30
0.0
 10
131.2240543012868
 20
137.0050379705545
 30
0.0
 10
131.0872687622342
 20
137.0227625815985
 30
0.0
 10
130.8315441527804
 20
137.0581569081078
 30
0.0
 10
130.7139204246748
 20
137.0756534294884
 30
0.0
 10
130.5038509714862
 20
137.1083558254769
 30
0.0
 10
130.4105161328011
 20
137.123687634423
 30
0.0
 10
130.247570422122
 20
137.1512837937718
 30
0.0
 10
130.1778674592722
 20
137.1635704768854
 30
0.0
 10
130.06724439294
 20
137.1834154686718
 30
0.0
 10
130.0255627213296
 20
137.1911015811985
 30
0.0
 10
129.9693875809544
 20
137.2015189615757
 30
0.0
 10
129.9549493051938
 20
137.2042401192522
 30
0.0
 10
129.9547903100912
 20
137.2042699308328
 30
0.0
 10
130.010449647828
 20
137.1936078006848
 30
0.0
 10
130.2332744083624
 20
137.1536271289499
 30
0.0
 10
130.395186693956
 20
137.1252908773175
 30
0.0
 10
130.8189782526918
 20
137.0592799683575
 30
0.0
 10
131.0738246752391
 20
137.0228200955663
 30
0.0
 10
131.5124683353528
 20
136.9709685725799
 30
0.0
 10
131.6691658716323
 20
136.9540809385199
 30
0.0
 10
131.9923658214109
 20
136.923387517899
 30
0.0
 10
132.1600393028312
 20
136.9094277109551
 30
0.0
 10
132.5076241690199
 20
136.885228281804
 30
0.0
 10
132.6891876498388
 20
136.8749313329732
 30
0.0
 10
133.0553739246477
 20
136.8594253861113
 30
0.0
 10
133.24003134049
 20
136.8541594042143
 30
0.0
 10
133.7986277470484
 20
136.8462365809588
 30
0.0
 10
134.180962088519
 20
136.8519507043324
 30
0.0
 10
134.9082592328874
 20
136.8830097904947
 30
0.0
 10
135.2639533069874
 20
136.9086984265446
 30
0.0
 10
135.7472655839383
 20
136.9547704367527
 30
0.0
 10
135.9009631911549
 20
136.971372595169
 30
0.0
 10
136.193385415998
 20
137.0059924503833
 30
0.0
 10
136.3320006392032
 20
137.0240163714217
 30
0.0
 10
136.4598981596531
 20
137.0417785601575
 30
0.0
  0
LINE
  5
14A
330
1F
100
AcDbEntity
  8
0
  6
HIDDEN
 62
     7
370
     0
100
AcDbLine
 10
162.5887485349
 20
137.0542500843
 30
0.0
 11
168.6548961581
 21
137.0542500843
 31
0.0
  0
LINE
  5
14B
330
1F
100
AcDbEntity
  8
0
  6
HIDDEN
 62
     7
370
     0
100
AcDbLine
 10
154.9005165037
 20
137.0542500843
 30
0.0
 11
158.8210437812
 21
137.0542500843
 31
0.0
  0
LINE
  5
14C
330
1F
100
AcDbEntity
  8
0
  6
HIDDEN
 62
     7
370
     0
100
AcDbLine
 10
123.7088707543
 20
134.2042500843
 30
0.0
 11
123.7088707543
 21
100.2042500843
 31
0.0
  0
LINE
  5
14D
330
1F
100
AcDbEntity
  8
0
  6
HIDDEN
 62
     7
370
     0
100
AcDbLine
 10
110.8048961581
 20
101.1743146865
 30
0.0
 11
110.8048961581
 21
133.2341854822
 31
0.0
  0
SPLINE
  5
14E
330
1F
100
AcDbEntity
  8
0
  6
HIDDEN
 62
     7
370
     0
100
AcDbSpline
210
0.0
220
0.0
230
1.0
 70
     8
 71
     3
 72
    22
 73
    18
 74
     0
 42
0.00000001
 43
0.00000001
 40
0.0
 40
0.0
 40
0.0
 40
0.0
 40
0.1250000000000002
 40
0.1250000000000002
 40
0.2500000000000004
 40
0.2500000000000004
 40
0.3750000000000006
 40
0.3750000000000006
 40
0.5000000000000008
 40
0.5000000000000008
 40
0.625000000000001
 40
0.625000000000001
 40
0.7500000000000011
 40
0.7500000000000011
 40
0.8750000000000013
 40
0.8750000000000013
 40
1.0
 40
1.0
 40
1.0
 40
1.0
 10
150.3647221265875
 20
122.1605218375085
 30
0.0
 10
150.4780474585588
 20
122.1454348929962
 30
0.0
 10
150.5979974550872
 20
122.1255198655187
 30
0.0
 10
150.8497102834592
 20
122.0731233425155
 30
0.0
 10
150.981527069219
 20
122.040427604194
 30
0.0
 10
151.2418570788962
 20
121.9640978355486
 30
0.0
 10
151.3740151523525
 20
121.919382418787
 30
0.0
 10
151.627420350468
 20
121.8218611418087
 30
0.0
 10
151.7491829216968
 20
121.7690672494644
 30
0.0
 10
151.9820105832391
 20
121.6574976653343
 30
0.0
 10
152.0883275890158
 20
121.6010245604195
 30
0.0
 10
152.2814870473895
 20
121.4906880657638
 30
0.0
 10
152.367871511153
 20
121.436925293689
 30
0.0
 10
152.5077671799141
 20
121.3456135305816
 30
0.0
 10
152.5636986939965
 20
121.3065974185683
 30
0.0
 10
152.6367216560679
 20
121.254732134585
 30
0.0
 10
152.6548961580513
 20
121.2412663092282
 30
0.0
 10
152.6548961580517
 20
121.2412663092279
 30
0.0
  0
LINE
  5
14F
330
1F
100
AcDbEntity
  8
0
  6
HIDDEN
 62
     7
370
     0
100
AcDbLine
 10
150.3647221266
 20
134.2042500843
 30
0.0
 11
150.3647221266
 21
100.2042500843
 31
0.0
  0
SPLINE
  5
150
330
1F
100
AcDbEntity
  8
0
  6
HIDDEN
 62
     7
370
     0
100
AcDbSpline
210
0.0
220
0.0
230
1.0
 70
     8
 71
     3
 72
    20
 73
    16
 74
     0
 42
0.00000001
 43
0.00000001
 40
0.0
 40
0.0
 40
0.0
 40
0.0
 40
0.1250000000000012
 40
0.1250000000000012
 40
0.2500000000000024
 40
0.2500000000000024
 40
0.5000000000000034
 40
0.5000000000000034
 40
0.6250000000000027
 40
0.6250000000000027
 40
0.7500000000000018
 40
0.7500000000000018
 40
0.8750000000000009
 40
0.8750000000000009
 40
1.0
 40
1.0
 40
1.0
 40
1.0
 10
152.6548961580515
 20
113.1672338594541
 30
0.0
 10
152.6548961580515
 20
113.1672338594541
 30
0.0
 10
152.6369179281477
 20
113.1539126143379
 30
0.0
 10
152.5642704899573
 20
113.1023037522606
 30
0.0
 10
152.508857905656
 20
113.0636172596601
 30
0.0
 10
152.2980720404538
 20
112.9259787598084
 30
0.0
 10
152.095209251362
 20
112.8052283635144
 30
0.0
 10
151.750353673798
 20
112.6400030766337
 30
0.0
 10
151.6262688434773
 20
112.5861685605674
 30
0.0
 10
151.3734040326698
 20
112.4889100723317
 30
0.0
 10
151.2432930793683
 20
112.4448311457465
 30
0.0
 10
150.9806134071779
 20
112.3677969189676
 30
0.0
 10
150.851867570943
 20
112.3358838705488
 30
0.0
 10
150.600125717209
 20
112.2833663171713
 30
0.0
 10
150.4778654410016
 20
112.2630410437795
 30
0.0
 10
150.3647221265868
 20
112.2479783311732
 30
0.0
  0
LINE
  5
151
330
1F
100
AcDbEntity
  8
0
  6
HIDDEN
 62
     7
370
     0
100
AcDbLine
 10
152.6548961581
 20
132.9292500843
 30
0.0
 11
152.6548961581
 21
101.4792500843
 31
0.0
  0
LINE
  5
152
330
1F
100
AcDbEntity
  8
0
  6
HIDDEN
 62
     7
370
     0
100
AcDbLine
 10
111.9548961581
 20
101.4027596483
 30
0.0
 11
119.5048961581
 21
101.4027596483
 31
0.0
  0
LINE
  5
153
330
1F
100
AcDbEntity
  8
0
  6
HIDDEN
 62
     7
370
     0
100
AcDbLine
 10
111.9548961581
 20
133.0057405204
 30
0.0
 11
111.9548961581
 21
101.4027596483
 31
0.0
  0
LINE
  5
154
330
1F
100
AcDbEntity
  8
0
  6
HIDDEN
 62
     7
370
     0
100
AcDbLine
 10
115.5048961581
 20
133.0057405204
 30
0.0
 11
111.9548961581
 21
133.0057405204
 31
0.0
  0
SPLINE
  5
155
330
1F
100
AcDbEntity
  8
0
  6
HIDDEN
 62
     7
370
     0
100
AcDbSpline
210
0.0
220
0.0
230
1.0
 70
     8
 71
     3
 72
    18
 73
    14
 74
     0
 42
0.00000001
 43
0.00000001
 40
0.0
 40
0.0
 40
0.0
 40
0.0
 40
0.2499999999999988
 40
0.2499999999999988
 40
0.374999999999999
 40
0.374999999999999
 40
0.4999999999999992
 40
0.4999999999999992
 40
0.6249999999999994
 40
0.6249999999999994
 40
0.7499999999999996
 40
0.7499999999999996
 40
1.0
 40
1.0
 40
1.0
 40
1.0
 10
116.9048961580514
 20
133.4917637067452
 30
0.0
 10
116.9048961580514
 20
133.437289186193
 30
0.0
 10
116.8699854666592
 20
133.3809081268405
 30
0.0
 10
116.7679761653262
 20
133.296831285987
 30
0.0
 10
116.7263398106481
 20
133.2694975819961
 30
0.0
 10
116.6279340151593
 20
133.2165436663971
 30
0.0
 10
116.570390803455
 20
133.1906563126799
 30
0.0
 10
116.4430926298821
 20
133.1428787678466
 30
0.0
 10
116.3735053251246
 20
133.1209308496688
 30
0.0
 10
116.2220710799697
 20
133.0814982847561
 30
0.0
 10
116.1393871768757
 20
133.0639420355302
 30
0.0
 10
115.8832757148377
 20
133.0215032701097
 30
0.0
 10
115.6953607109497
 20
133.0057405203727
 30
0.0
 10
115.5048961580514
 20
133.0057405203727
 30
0.0
  0
LINE
  5
156
330
1F
100
AcDbEntity
  8
0
  6
HIDDEN
 62
     7
370
     0
100
AcDbLine
 10
116.9048961581
 20
133.4917637067
 30
0.0
 11
116.9048961581
 21
134.2042500843
 31
0.0
  0
SPLINE
  5
157
330
1F
100
AcDbEntity
  8
0
  6
HIDDEN
 62
     7
370
     0
100
AcDbSpline
210
0.0
220
0.0
230
1.0
 70
     8
 71
     3
 72
    18
 73
    14
 74
     0
 42
0.00000001
 43
0.00000001
 40
0.0
 40
0.0
 40
0.0
 40
0.0
 40
0.2499999999999966
 40
0.2499999999999966
 40
0.3749999999999963
 40
0.3749999999999963
 40
0.4999999999999961
 40
0.4999999999999961
 40
0.6249999999999958
 40
0.6249999999999958
 40
0.7499999999999957
 40
0.7499999999999957
 40
1.0
 40
1.0
 40
1.0
 40
1.0
 10
116.9048961580514
 20
133.4917637067452
 30
0.0
 10
116.9048961580514
 20
133.437289186193
 30
0.0
 10
116.8699854666592
 20
133.3809081268405
 30
0.0
 10
116.7679761653262
 20
133.296831285987
 30
0.0
 10
116.7263398106481
 20
133.2694975819961
 30
0.0
 10
116.6279340151593
 20
133.2165436663971
 30
0.0
 10
116.5703908034551
 20
133.1906563126799
 30
0.0
 10
116.4430926298821
 20
133.1428787678466
 30
0.0
 10
116.3735053251246
 20
133.1209308496688
 30
0.0
 10
116.2220710799697
 20
133.081498284756
 30
0.0
 10
116.1393871768757
 20
133.0639420355302
 30
0.0
 10
115.8832757148377
 20
133.0215032701097
 30
0.0
 10
115.6953607109497
 20
133.0057405203727
 30
0.0
 10
115.5048961580514
 20
133.0057405203727
 30
0.0
  0
LINE
  5
158
330
1F
100
AcDbEntity
  8
0
  6
HIDDEN
 62
     7
370
     0
100
AcDbLine
 10
115.5048961581
 20
133.0057405204
 30
0.0
 11
111.9548961581
 21
133.0057405204
 31
0.0
  0
LINE
  5
159
330
1F
100
AcDbEntity
  8
0
  6
HIDDEN
 62
     7
370
     0
100
AcDbLine
 10
111.9548961581
 20
101.4027596483
 30
0.0
 11
119.5048961581
 21
101.4027596483
 31
0.0
  0
SPLINE
  5
15A
330
1F
100
AcDbEntity
  8
0
  6
HIDDEN
 62
     7
370
     0
100
AcDbSpline
210
0.0
220
0.0
230
1.0
 70
     8
 71
     3
 72
    16
 73
    12
 74
     0
 42
0.00000001
 43
0.00000001
 40
0.0
 40
0.0
 40
0.0
 40
0.0
 40
0.1250000000000004
 40
0.1250000000000004
 40
0.2500000000000008
 40
0.2500000000000008
 40
0.5000000000000006
 40
0.5000000000000006
 40
0.7500000000000002
 40
0.7500000000000002
 40
1.0
 40
1.0
 40
1.0
 40
1.0
 10
119.5048961580514
 20
101.4027596483094
 30
0.0
 10
119.6000179127172
 20
101.4027596483094
 30
0.0
 10
119.6933479814453
 20
101.3989438149166
 30
0.0
 10
119.8766097421833
 20
101.3841732621868
 30
0.0
 10
119.9674874577403
 20
101.3730152142112
 30
0.0
 10
120.2242891552601
 20
101.3305439440695
 30
0.0
 10
120.3793565201321
 20
101.2894977468667
 30
0.0
 10
120.6331029816867
 20
101.1943516302848
 30
0.0
 10
120.7339734333545
 20
101.1395888962032
 30
0.0
 10
120.8692198480494
 20
101.0283277722993
 30
0.0
 10
120.9048961580514
 20
100.9711580349706
 30
0.0
 10
120.9048961580514
 20
100.9167364619369
 30
0.0
  0
LINE
  5
15B
330
1F
100
AcDbEntity
  8
0
  6
HIDDEN
 62
     7
370
     0
100
AcDbLine
 10
120.9048961581
 20
100.9167364619
 30
0.0
 11
120.9048961581
 21
100.2042500843
 31
0.0
  0
SPLINE
  5
15C
330
1F
100
AcDbEntity
  8
0
  6
HIDDEN
 62
     7
370
     0
100
AcDbSpline
210
0.0
220
0.0
230
1.0
 70
     8
 71
     3
 72
    16
 73
    12
 74
     0
 42
0.00000001
 43
0.00000001
 40
0.0
 40
0.0
 40
0.0
 40
0.0
 40
0.1250000000000015
 40
0.1250000000000015
 40
0.2500000000000029
 40
0.2500000000000029
 40
0.5000000000000019
 40
0.5000000000000019
 40
0.7500000000000009
 40
0.7500000000000009
 40
1.0
 40
1.0
 40
1.0
 40
1.0
 10
119.5048961580514
 20
101.4027596483094
 30
0.0
 10
119.6000179127172
 20
101.4027596483094
 30
0.0
 10
119.6933479814453
 20
101.3989438149166
 30
0.0
 10
119.8766097421833
 20
101.3841732621868
 30
0.0
 10
119.9674874577403
 20
101.3730152142112
 30
0.0
 10
120.2242891552601
 20
101.3305439440695
 30
0.0
 10
120.379356520132
 20
101.2894977468667
 30
0.0
 10
120.6331029816867
 20
101.1943516302848
 30
0.0
 10
120.7339734333545
 20
101.1395888962032
 30
0.0
 10
120.8692198480494
 20
101.0283277722993
 30
0.0
 10
120.9048961580514
 20
100.9711580349706
 30
0.0
 10
120.9048961580514
 20
100.9167364619369
 30
0.0
  0
LINE
  5
15D
330
1F
100
AcDbEntity
  8
0
  6
HIDDEN
 62
     7
370
     0
100
AcDbLine
 10
111.9548961581
 20
101.4027596483
 30
0.0
 11
111.9548961581
 21
133.0057405204
 31
0.0
  0
SPLINE
  5
15E
330
1F
100
AcDbEntity
  8
0
  6
HIDDEN
 62
     7
370
     0
100
AcDbSpline
210
0.0
220
0.0
230
1.0
 70
     8
 71
     3
 72
    45
 73
    41
 74
     0
 42
0.00000001
 43
0.00000001
 40
0.0
 40
0.0
 40
0.0
 40
0.0
 40
0.0624999999999999
 40
0.0624999999999999
 40
0.1249999999999998
 40
0.1249999999999998
 40
0.1874999999999998
 40
0.1874999999999998
 40
0.2499999999999997
 40
0.2499999999999997
 40
0.3124999999999996
 40
0.3124999999999996
 40
0.3749999999999995
 40
0.3749999999999995
 40
0.4062499999999994
 40
0.4062499999999994
 40
0.4374999999999994
 40
0.4687499999999994
 40
0.4687499999999994
 40
0.4999999999999994
 40
0.4999999999999994
 40
0.5624999999999994
 40
0.5624999999999994
 40
0.5937499999999994
 40
0.5937499999999994
 40
0.6249999999999993
 40
0.6249999999999993
 40
0.6562499999999993
 40
0.6562499999999993
 40
0.6874999999999993
 40
0.6874999999999993
 40
0.7499999999999994
 40
0.7499999999999994
 40
0.8124999999999996
 40
0.8124999999999996
 40
0.8749999999999997
 40
0.8749999999999997
 40
0.9374999999999999
 40
0.9374999999999999
 40
1.0
 40
1.0
 40
1.0
 40
1.0
 10
150.3647221265875
 20
112.2479783311736
 30
0.0
 10
150.0080531627339
 20
112.2004951712014
 30
0.0
 10
149.6526760510832
 20
112.1919137152554
 30
0.0
 10
148.9444133869746
 20
112.2496654628691
 30
0.0
 10
148.5881058823336
 20
112.3176930865264
 30
0.0
 10
147.909856872899
 20
112.52413322922
 30
0.0
 10
147.5845762239606
 20
112.6620804939366
 30
0.0
 10
146.9616607085451
 20
113.0088096450701
 30
0.0
 10
146.6732446265981
 20
113.2126778426115
 30
0.0
 10
146.1445921114181
 20
113.6761067957774
 30
0.0
 10
145.9013868723083
 20
113.9396670057565
 30
0.0
 10
145.4810866894083
 20
114.5054319844471
 30
0.0
 10
145.3020310671388
 20
114.8081852910253
 30
0.0
 10
145.0810183036075
 20
115.2934019839367
 30
0.0
 10
145.0153339028606
 20
115.4608159370974
 30
0.0
 10
144.9034311199065
 20
115.7980174369612
 30
0.0
 10
144.8099874504319
 20
116.1395362230086
 30
0.0
 10
144.7530163909096
 20
116.4896366996832
 30
0.0
 10
144.7146950383506
 20
116.8441413470171
 30
0.0
 10
144.7049217492358
 20
117.0247125367625
 30
0.0
 10
144.7048451286718
 20
117.5611828270338
 30
0.0
 10
144.7427307218065
 20
117.9139144282909
 30
0.0
 10
144.8556676325146
 20
118.4357776039501
 30
0.0
 10
144.9031347712905
 20
118.6095567798842
 30
0.0
 10
145.0154471016795
 20
118.9480582365236
 30
0.0
 10
145.0801803426076
 20
119.1129590420908
 30
0.0
 10
145.2263141204595
 20
119.4343777021175
 30
0.0
 10
145.3077156211402
 20
119.5908949068328
 30
0.0
 10
145.4873068009051
 20
119.89557135788
 30
0.0
 10
145.5861408396739
 20
120.0445457859614
 30
0.0
 10
145.903375341632
 20
120.4713802720681
 30
0.0
 10
146.1415706812308
 20
120.7294167034398
 30
0.0
 10
146.6710281774147
 20
121.1942041219503
 30
0.0
 10
146.9644171861017
 20
121.401124639171
 30
0.0
 10
147.5796510652096
 20
121.7437780686176
 30
0.0
 10
147.904294253191
 20
121.8825356082368
 30
0.0
 10
148.5901490118301
 20
122.0915664709555
 30
0.0
 10
148.9392622490522
 20
122.1580049624649
 30
0.0
 10
149.6464476305934
 20
122.2164817674123
 30
0.0
 10
150.0079958840188
 20
122.2080126229672
 30
0.0
 10
150.3647221265875
 20
122.1605218375085
 30
0.0
  0
SPLINE
  5
15F
330
1F
100
AcDbEntity
  8
0
  6
HIDDEN
 62
     7
370
     0
100
AcDbSpline
210
0.0
220
0.0
230
1.0
 70
     8
 71
     3
 72
    62
 73
    58
 74
     0
 42
0.00000001
 43
0.00000001
 40
-0.0312499999999998
 40
-0.0312499999999998
 40
0.0
 40
0.0
 40
0.0312500000000024
 40
0.0312500000000024
 40
0.0625000000000047
 40
0.0625000000000047
 40
0.1250000000000067
 40
0.1250000000000067
 40
0.1875000000000086
 40
0.1875000000000086
 40
0.218750000000009
 40
0.218750000000009
 40
0.2500000000000093
 40
0.2500000000000093
 40
0.2812500000000097
 40
0.2812500000000097
 40
0.31250000000001
 40
0.31250000000001
 40
0.3437500000000104
 40
0.3437500000000104
 40
0.3750000000000108
 40
0.3750000000000108
 40
0.4375000000000093
 40
0.4375000000000093
 40
0.4687500000000086
 40
0.4687500000000086
 40
0.5000000000000079
 40
0.5000000000000079
 40
0.5312500000000072
 40
0.5312500000000072
 40
0.5625000000000064
 40
0.5625000000000064
 40
0.5937500000000058
 40
0.5937500000000058
 40
0.625000000000005
 40
0.625000000000005
 40
0.6562500000000042
 40
0.6562500000000042
 40
0.6875000000000034
 40
0.6875000000000034
 40
0.7187500000000028
 40
0.7187500000000028
 40
0.750000000000002
 40
0.750000000000002
 40
0.7812500000000012
 40
0.7812500000000012
 40
0.8125000000000006
 40
0.8125000000000006
 40
0.8750000000000004
 40
0.8750000000000004
 40
0.9062500000000003
 40
0.9062500000000003
 40
0.9375000000000002
 40
0.9375000000000002
 40
0.9687500000000002
 40
0.9687500000000002
 40
1.0
 40
1.0
 40
1.031250000000002
 40
1.031250000000002
 10
240.8461585753384
 20
113.8946049191928
 30
0.0
 10
240.5636337407646
 20
113.8946049191928
 30
0.0
 10
240.4253107097134
 20
113.9045929828236
 30
0.0
 10
240.1540827640212
 20
113.9437917437731
 30
0.0
 10
240.0198723978529
 20
113.9735503325574
 30
0.0
 10
239.6408928901486
 20
114.0898310101751
 30
0.0
 10
239.412016329689
 20
114.2052070472693
 30
0.0
 10
239.0311234775377
 20
114.5037257860451
 30
0.0
 10
238.8755254046706
 20
114.6903007121949
 30
0.0
 10
238.7163793591487
 20
115.0127855700019
 30
0.0
 10
238.6746139681984
 20
115.1298865006361
 30
0.0
 10
238.6192955543884
 20
115.3720893254828
 30
0.0
 10
238.6051897269178
 20
115.4973143652585
 30
0.0
 10
238.6046115688628
 20
115.7564395095111
 30
0.0
 10
238.6186026178059
 20
115.89010753132
 30
0.0
 10
238.6731010466824
 20
116.1522584086282
 30
0.0
 10
238.7139913856306
 20
116.2835652443895
 30
0.0
 10
238.8205993853069
 20
116.5388604967576
 30
0.0
 10
238.8853469323857
 20
116.661174588874
 30
0.0
 10
239.0369078080131
 20
116.8951286553125
 30
0.0
 10
239.1241944051526
 20
117.0068787306166
 30
0.0
 10
239.4098083595991
 20
117.3123526955679
 30
0.0
 10
239.6391945546502
 20
117.4839784582673
 30
0.0
 10
240.0154132243035
 20
117.6616557747403
 30
0.0
 10
240.1478842793542
 20
117.708563248488
 30
0.0
 10
240.4218392558061
 20
117.7721894424714
 30
0.0
 10
240.5598799191085
 20
117.7883201423783
 30
0.0
 10
240.8380974910896
 20
117.7892150721618
 30
0.0
 10
240.9799068498542
 20
117.7733534104358
 30
0.0
 10
241.2523634171853
 20
117.7114406667682
 30
0.0
 10
241.3842291482604
 20
117.6657734298488
 30
0.0
 10
241.639745568381
 20
117.5464120209808
 30
0.0
 10
241.7597323280211
 20
117.4744235522091
 30
0.0
 10
241.9848783253415
 20
117.3090423318831
 30
0.0
 10
242.0910050897253
 20
117.2145202747842
 30
0.0
 10
242.2823317374172
 20
117.0108357612313
 30
0.0
 10
242.3682680839507
 20
116.901407453247
 30
0.0
 10
242.5207650451692
 20
116.6676579447809
 30
0.0
 10
242.5869101083976
 20
116.5432922681167
 30
0.0
 10
242.6931305435934
 20
116.2909476470596
 30
0.0
 10
242.734171155422
 20
116.1616392992863
 30
0.0
 10
242.7903577433707
 20
115.8966905720511
 30
0.0
 10
242.8045753149349
 20
115.7643791876641
 30
0.0
 10
242.8052062066206
 20
115.5062565353913
 30
0.0
 10
242.7914178248208
 20
115.3779712596012
 30
0.0
 10
242.7365742530769
 20
115.1342250298696
 30
0.0
 10
242.6960730710221
 20
115.0192115449796
 30
0.0
 10
242.5364838723387
 20
114.6927931266477
 30
0.0
 10
242.3817160386598
 20
114.5064523761203
 30
0.0
 10
242.0937363247793
 20
114.2802472281289
 30
0.0
 10
241.9897874022263
 20
114.2145406288112
 30
0.0
 10
241.7653762043351
 20
114.1002724189924
 30
0.0
 10
241.6434456502867
 20
114.0514023412538
 30
0.0
 10
241.3912031968278
 20
113.9738808364043
 30
0.0
 10
241.2603260231385
 20
113.9446687979298
 30
0.0
 10
240.9881196747586
 20
113.9049151693895
 30
0.0
 10
240.8461585753384
 20
113.8946049191928
 30
0.0
 10
240.5636337407646
 20
113.8946049191928
 30
0.0
  0
SPLINE
  5
160
330
1F
100
AcDbEntity
  8
0
  6
HIDDEN
 62
     7
370
     0
100
AcDbSpline
210
0.0
220
0.0
230
1.0
 70
     8
 71
     3
 72
    10
 73
     6
 74
     0
 42
0.00000001
 43
0.00000001
 40
0.0
 40
0.0
 40
0.0
 40
0.0
 40
0.5
 40
0.5
 40
1.0
 40
1.0
 40
1.0
 40
1.0
 10
241.7675062175735
 20
114.117957954946
 30
0.0
 10
241.7205777152402
 20
114.2326599867578
 30
0.0
 10
241.6903498851676
 20
114.3372934645955
 30
0.0
 10
241.6818364054245
 20
114.5247135763487
 30
0.0
 10
241.7042977910406
 20
114.6068052639041
 30
0.0
 10
241.7448195656359
 20
114.6761380212059
 30
0.0
  0
SPLINE
  5
161
330
1F
100
AcDbEntity
  8
0
  6
HIDDEN
 62
     7
370
     0
100
AcDbSpline
210
0.0
220
0.0
230
1.0
 70
     8
 71
     3
 72
    48
 73
    44
 74
     0
 42
0.00000001
 43
0.00000001
 40
0.0
 40
0.0
 40
0.0
 40
0.0
 40
0.0312500000000013
 40
0.0312500000000013
 40
0.0625000000000026
 40
0.0625000000000026
 40
0.1250000000000026
 40
0.1250000000000026
 40
0.2500000000000024
 40
0.2500000000000024
 40
0.2812500000000027
 40
0.2812500000000027
 40
0.3125000000000029
 40
0.3125000000000029
 40
0.3437500000000031
 40
0.3437500000000031
 40
0.3750000000000033
 40
0.3750000000000033
 40
0.4375000000000037
 40
0.4375000000000037
 40
0.4687500000000038
 40
0.4687500000000038
 40
0.500000000000004
 40
0.500000000000004
 40
0.5625000000000042
 40
0.5625000000000042
 40
0.6250000000000043
 40
0.6250000000000043
 40
0.6562500000000047
 40
0.6562500000000047
 40
0.687500000000005
 40
0.687500000000005
 40
0.7187500000000053
 40
0.7187500000000053
 40
0.7500000000000056
 40
0.7500000000000056
 40
0.8125000000000041
 40
0.8125000000000041
 40
0.8750000000000028
 40
0.8750000000000028
 40
0.9375000000000013
 40
0.9375000000000013
 40
1.0
 40
1.0
 40
1.0
 40
1.0
 10
241.7448195665149
 20
114.6761380216114
 30
0.0
 10
241.8402015886379
 20
114.6239462894175
 30
0.0
 10
241.9281831364979
 20
114.5755468685705
 30
0.0
 10
242.0900542999713
 20
114.4831723291332
 30
0.0
 10
242.1607400041081
 20
114.4407426898275
 30
0.0
 10
242.3549942494333
 20
114.3120736848889
 30
0.0
 10
242.4589099051961
 20
114.2253184211113
 30
0.0
 10
242.7144104639527
 20
113.9326312286597
 30
0.0
 10
242.8145940905035
 20
113.6897910216096
 30
0.0
 10
242.8015775683257
 20
113.3066893063715
 30
0.0
 10
242.7918925810158
 20
113.2272316508221
 30
0.0
 10
242.7567733230481
 20
113.0616280399801
 30
0.0
 10
242.7308529014597
 20
112.9744446648497
 30
0.0
 10
242.6635763826462
 20
112.7997878954089
 30
0.0
 10
242.6222883497898
 20
112.7118284836086
 30
0.0
 10
242.523773231897
 20
112.5343809874677
 30
0.0
 10
242.4660424225933
 20
112.4445162400648
 30
0.0
 10
242.2779969176433
 20
112.1864603438617
 30
0.0
 10
242.1280951207863
 20
112.0231924593956
 30
0.0
 10
241.8925776057862
 20
111.8077668021243
 30
0.0
 10
241.8111343104231
 20
111.7396728590819
 30
0.0
 10
241.6490479229125
 20
111.614286807535
 30
0.0
 10
241.5679794553321
 20
111.5565401126452
 30
0.0
 10
241.325304230309
 20
111.3954707433761
 30
0.0
 10
241.1629623333325
 20
111.3040078565327
 30
0.0
 10
240.8591433715137
 20
111.1501002580127
 30
0.0
 10
240.7147918748474
 20
111.0870200428795
 30
0.0
 10
240.5244743021348
 20
110.9978984260264
 30
0.0
 10
240.4662435270358
 20
110.9693641688304
 30
0.0
 10
240.3712244096018
 20
110.9085049889714
 30
0.0
 10
240.3349802870732
 20
110.8761214978341
 30
0.0
 10
240.3073283206677
 20
110.8000506019619
 30
0.0
 10
240.3178131032203
 20
110.7573945642587
 30
0.0
 10
240.3796514714842
 20
110.6691664051614
 30
0.0
 10
240.4276501930785
 20
110.6261285688663
 30
0.0
 10
240.5963178880637
 20
110.5059584496096
 30
0.0
 10
240.7377016026942
 20
110.4399420769454
 30
0.0
 10
241.0357202282202
 20
110.3486312054201
 30
0.0
 10
241.1967728096254
 20
110.3227390897765
 30
0.0
 10
241.5190745470772
 20
110.3233017847378
 30
0.0
 10
241.6831013772891
 20
110.3488934047233
 30
0.0
 10
242.007270004992
 20
110.4689399141149
 30
0.0
 10
242.1596631201612
 20
110.5600775808472
 30
0.0
 10
242.2983137685702
 20
110.6915070716455
 30
0.0
  0
SPLINE
  5
162
330
1F
100
AcDbEntity
  8
0
  6
HIDDEN
 62
     7
370
     0
100
AcDbSpline
210
0.0
220
0.0
230
1.0
 70
     8
 71
     3
 72
    16
 73
    12
 74
     0
 42
0.00000001
 43
0.00000001
 40
0.0
 40
0.0
 40
0.0
 40
0.0
 40
0.2499999999999999
 40
0.2499999999999999
 40
0.4999999999999998
 40
0.4999999999999998
 40
0.7499999999999997
 40
0.7499999999999997
 40
0.8749999999999998
 40
0.8749999999999998
 40
1.0
 40
1.0
 40
1.0
 40
1.0
 10
242.743567385629
 20
111.4926377786446
 30
0.0
 10
242.8030445242265
 20
111.7364810238708
 30
0.0
 10
242.8168249175571
 20
111.9878880047876
 30
0.0
 10
242.7745470664652
 20
112.4886415038542
 30
0.0
 10
242.7198984260652
 20
112.7285090162227
 30
0.0
 10
242.5538151395488
 20
113.1925239133593
 30
0.0
 10
242.4460622950879
 20
113.4088393993425
 30
0.0
 10
242.2362653760078
 20
113.7101612707902
 30
0.0
 10
242.1577089900129
 20
113.8068991849247
 30
0.0
 10
241.9786568576605
 20
113.982257089966
 30
0.0
 10
241.8773639116347
 20
114.0603814041365
 30
0.0
 10
241.7675062172108
 20
114.1179579543235
 30
0.0
  0
LWPOLYLINE
  5
163
330
1F
100
AcDbEntity
  8
0
  6
HIDDEN
 62
     7
370
     0
100
AcDbPolyline
 90
       19
 70
   128
 43
0.0
 10
242.7435673856
 20
111.4926377786
 10
242.7980371148
 20
112.1169993429
 10
242.6358697746
 20
112.7250866319
 10
242.2738494507
 20
113.2539634884
 10
241.7494447244
 20
113.6488919208
 10
241.1169307284
 20
113.868997406
 10
240.4417717487
 20
113.8914993438
 10
239.7938457659
 20
113.7140688162
 10
239.2402121843
 20
113.3550696268
 10
238.838171281
 20
112.8516576738
 10
238.6293337096
 20
112.2559353681
 10
238.6353138573
 20
111.6295591089
 10
238.8554927875
 20
111.0373579355
 10
239.2670822987
 20
110.5406238149
 10
239.82748347
 20
110.1907680121
 10
240.4786955888
 20
110.024000098
 10
241.1533191402
 20
110.057580311
 10
241.7815315598
 20
110.2880331476
 10
242.2983137686
 20
110.6915070716
  0
LWPOLYLINE
  5
164
330
1F
100
AcDbEntity
  8
0
  6
HIDDEN
 62
     7
370
     0
100
AcDbPolyline
 90
        9
 70
   128
 43
0.0
 10
241.7448195665
 20
114.6761380216
 10
241.7768079032
 20
114.653445903
 10
241.8006772409
 20
114.6164538505
 10
241.816240251
 20
114.5654521811
 10
241.8233747935
 20
114.5008411605
 10
241.8220248758
 20
114.4231278616
 10
241.8122010924
 20
114.3329221855
 10
241.7939805411
 20
114.2309320742
 10
241.7675062176
 20
114.1179579549
  0
SPLINE
  5
165
330
1F
100
AcDbEntity
  8
0
  6
HIDDEN
 62
     7
370
     0
100
AcDbSpline
210
0.0
220
0.0
230
1.0
 70
     8
 71
     3
 72
    10
 73
     6
 74
     0
 42
0.00000001
 43
0.00000001
 40
0.0
 40
0.0
 40
0.0
 40
0.0
 40
0.5
 40
0.5
 40
1.0
 40
1.0
 40
1.0
 40
1.0
 10
242.2983137685702
 20
110.6915070716455
 30
0.0
 10
242.3465933914618
 20
110.8176598803153
 30
0.0
 10
242.4118516771817
 20
110.9518141718505
 30
0.0
 10
242.5608287263306
 20
111.221174777398
 30
0.0
 10
242.6463543019975
 20
111.3601139281259
 30
0.0
 10
242.743567385629
 20
111.4926377786443
 30
0.0
  0
LINE
  5
166
330
1F
100
AcDbEntity
  8
0
  6
HIDDEN
 62
     7
370
     0
100
AcDbLine
 10
111.9548961581
 20
99.2142500843
 30
0.0
 11
111.9548961581
 21
96.3917500843
 31
0.0
  0
LINE
  5
167
330
1F
100
AcDbEntity
  8
0
  6
HIDDEN
 62
     7
370
     0
100
AcDbLine
 10
120.9048961581
 20
99.2142500843
 30
0.0
 11
120.9048961581
 21
95.2591018251
 31
0.0
  0
LINE
  5
168
330
1F
100
AcDbEntity
  8
0
  6
HIDDEN
 62
     7
370
     0
100
AcDbLine
 10
111.9548961581
 20
135.1942500843
 30
0.0
 11
111.9548961581
 21
138.0741878497
 31
0.0
  0
LINE
  5
169
330
1F
100
AcDbEntity
  8
0
  6
HIDDEN
 62
     7
370
     0
100
AcDbLine
 10
110.8048961581
 20
135.1942500843
 30
0.0
 11
110.8048961581
 21
136.8949278308
 31
0.0
  0
LINE
  5
16A
330
1F
100
AcDbEntity
  8
0
  6
HIDDEN
 62
     7
370
     0
100
AcDbLine
 10
110.8048961581
 20
99.2142500843
 30
0.0
 11
110.8048961581
 21
97.5510895594
 31
0.0
  0
LINE
  5
16B
330
1F
100
AcDbEntity
  8
0
  6
HIDDEN
 62
     7
370
     0
100
AcDbLine
 10
116.9048961581
 20
135.1942500843
 30
0.0
 11
116.9048961581
 21
139.0483577567
 31
0.0
  0
LINE
  5
16C
330
1F
100
AcDbEntity
  8
0
  6
HIDDEN
 62
     7
370
     0
100
AcDbLine
 10
162.0048961581
 20
126.7042500843
 30
0.0
 11
162.0048961581
 21
107.7042500843
 31
0.0
  0
LINE
  5
16D
330
1F
100
AcDbEntity
  8
0
  6
HIDDEN
 62
     7
370
     0
100
AcDbLine
 10
164.5048961581
 20
126.7042500843
 30
0.0
 11
164.5048961581
 21
107.7042500843
 31
0.0
  0
LWPOLYLINE
  5
16E
330
1F
100
AcDbEntity
  8
0
  6
HIDDEN
 62
     7
370
     0
100
AcDbPolyline
 90
        2
 70
   128
 43
0.0
 10
168.6548961581
 20
90.8042500843
 10
168.6548961581
 20
90.8042500843
  0
LINE
  5
16F
330
1F
100
AcDbEntity
  8
0
  6
HIDDEN
 62
     7
370
     0
100
AcDbLine
 10
153.1548961581
 20
125.7042500843
 30
0.0
 11
153.1548961581
 21
108.7042500843
 31
0.0
  0
LWPOLYLINE
  5
170
330
1F
100
AcDbEntity
  8
0
  6
HIDDEN
 62
     7
370
     0
100
AcDbPolyline
 90
        2
 70
   128
 43
0.0
 10
153.1548961581
 20
108.7042500843
 10
153.1548961581
 20
108.7042500843
  0
LINE
  5
171
330
1F
100
AcDbEntity
  8
0
  6
HIDDEN
 62
     7
370
     0
100
AcDbLine
 10
152.6548961581
 20
108.2042500843
 30
0.0
 11
152.6548961581
 21
126.2042500843
 31
0.0
  0
LINE
  5
172
330
1F
100
AcDbEntity
  8
0
  6
HIDDEN
 62
     7
370
     0
100
AcDbLine
 10
168.6548961581
 20
90.8042500843
 30
0.0
 11
162.5172213557
 21
90.8042500843
 31
0.0
  0
LINE
  5
173
330
1F
100
AcDbEntity
  8
0
  6
HIDDEN
 62
     7
370
     0
100
AcDbLine
 10
162.6148961581
 20
89.7064129253
 30
0.0
 11
162.6148961581
 21
90.399854456
 31
0.0
  0
LINE
  5
174
330
1F
100
AcDbEntity
  8
0
  6
HIDDEN
 62
     7
370
     0
100
AcDbLine
 10
168.6548961581
 20
90.8042500843
 30
0.0
 11
168.6548961581
 21
87.6439726837
 31
0.0
  0
LINE
  5
175
330
1F
100
AcDbEntity
  8
0
  6
HIDDEN
 62
     7
370
     0
100
AcDbLine
 10
158.8925709604
 20
90.8042500843
 30
0.0
 11
155.6548961581
 21
90.8042500843
 31
0.0
  0
LINE
  5
176
330
1F
100
AcDbEntity
  8
0
  6
HIDDEN
 62
     7
370
     0
100
AcDbLine
 10
158.7948961581
 20
90.399854456
 30
0.0
 11
158.7948961581
 21
89.7064129253
 31
0.0
  0
LINE
  5
177
330
1F
100
AcDbEntity
  8
0
  6
HIDDEN
 62
     7
370
     0
100
AcDbLine
 10
147.6548961581
 20
85.7201271015
 30
0.0
 11
147.6548961581
 21
90.8042500843
 31
0.0
  0
LINE
  5
178
330
1F
100
AcDbEntity
  8
0
  6
HIDDEN
 62
     7
370
     0
100
AcDbLine
 10
155.6548961581
 20
90.8042500843
 30
0.0
 11
147.6548961581
 21
90.8042500843
 31
0.0
  0
LINE
  5
179
330
1F
100
AcDbEntity
  8
0
  6
HIDDEN
 62
     7
370
     0
100
AcDbLine
 10
162.0048961581
 20
108.7042500843
 30
0.0
 11
162.0048961581
 21
125.6793093944
 31
0.0
  0
LWPOLYLINE
  5
17A
330
1F
100
AcDbEntity
  8
0
  6
HIDDEN
 62
     7
370
     0
100
AcDbPolyline
 90
        2
 70
   128
 43
0.0
 10
168.6548961581
 20
143.6042500843
 10
168.6548961581
 20
143.6042500843
  0
LINE
  5
17B
330
1F
100
AcDbEntity
  8
0
  6
HIDDEN
 62
     7
370
     0
100
AcDbLine
 10
168.6548961581
 20
143.6042500843
 30
0.0
 11
162.2205986264
 21
143.6042500843
 31
0.0
  0
LINE
  5
17C
330
1F
100
AcDbEntity
  8
0
  6
HIDDEN
 62
     7
370
     0
100
AcDbLine
 10
162.6148961581
 20
145.0094842755
 30
0.0
 11
162.6148961581
 21
144.3239039354
 31
0.0
  0
LINE
  5
17D
330
1F
100
AcDbEntity
  8
0
  6
HIDDEN
 62
     7
370
     0
100
AcDbLine
 10
168.6548961581
 20
143.6042500843
 30
0.0
 11
168.6548961581
 21
147.0506904081
 31
0.0
  0
LINE
  5
17E
330
1F
100
AcDbEntity
  8
0
  6
HIDDEN
 62
     7
370
     0
100
AcDbLine
 10
155.6548961581
 20
143.6042500843
 30
0.0
 11
147.6548961581
 21
143.6042500843
 31
0.0
  0
LINE
  5
17F
330
1F
100
AcDbEntity
  8
0
  6
HIDDEN
 62
     7
370
     0
100
AcDbLine
 10
159.1891936897
 20
143.6042500843
 30
0.0
 11
155.6548961581
 21
143.6042500843
 31
0.0
  0
LINE
  5
180
330
1F
100
AcDbEntity
  8
0
  6
HIDDEN
 62
     7
370
     0
100
AcDbLine
 10
158.7948961581
 20
144.3239039354
 30
0.0
 11
158.7948961581
 21
145.0094842755
 31
0.0
  0
ELLIPSE
  5
181
330
1F
100
AcDbEntity
  8
0
  6
HIDDEN
 62
     7
370
     0
100
AcDbEllipse
 10
106.6374642937
 20
117.2042500843
 30
0.0
 11
20.07002071827051
 21
-4.263256414560601E-14
 31
0.0
210
0.0
220
0.0
230
1.0
 40
0.8164965809
 41
4.921555463185706
 42
4.980534842098405
  0
LINE
  5
182
330
1F
100
AcDbEntity
  8
0
  6
HIDDEN
 62
     7
370
     0
100
AcDbLine
 10
110.8048961581
 20
99.2142500843
 30
0.0
 11
110.8048961581
 21
101.1743146865
 31
0.0
  0
ELLIPSE
  5
183
330
1F
100
AcDbEntity
  8
0
  6
HIDDEN
 62
     7
370
     0
100
AcDbEllipse
 10
106.6374642937
 20
117.2042500843
 30
0.0
 11
20.0700207182705
 21
-1.421085471520200E-14
 31
0.0
210
0.0
220
0.0
230
1.0
 40
0.8164965809
 41
1.302650465081197
 42
1.361629843993895
  0
LINE
  5
184
330
1F
100
AcDbEntity
  8
0
  6
HIDDEN
 62
     7
370
     0
100
AcDbLine
 10
110.8048961581
 20
135.1942500843
 30
0.0
 11
110.8048961581
 21
133.2341854822
 31
0.0
  0
LINE
  5
185
330
1F
100
AcDbEntity
  8
0
  6
HIDDEN
 62
     7
370
     0
100
AcDbLine
 10
120.9048961581
 20
99.2142500843
 30
0.0
 11
120.9048961581
 21
100.9167364619
 31
0.0
  0
LINE
  5
186
330
1F
100
AcDbEntity
  8
0
  6
HIDDEN
 62
     7
370
     0
100
AcDbLine
 10
111.9548961581
 20
99.2142500843
 30
0.0
 11
111.9548961581
 21
101.4027596483
 31
0.0
  0
LINE
  5
187
330
1F
100
AcDbEntity
  8
0
  6
HIDDEN
 62
     7
370
     0
100
AcDbLine
 10
116.9048961581
 20
135.1942500843
 30
0.0
 11
116.9048961581
 21
133.4917637067
 31
0.0
  0
LINE
  5
188
330
1F
100
AcDbEntity
  8
0
  6
HIDDEN
 62
     7
370
     0
100
AcDbLine
 10
111.9548961581
 20
135.1942500843
 30
0.0
 11
111.9548961581
 21
133.0057405204
 31
0.0
  0
SPLINE
  5
189
330
1F
100
AcDbEntity
  8
0
  6
HIDDEN
 62
     7
370
     0
100
AcDbSpline
210
0.0
220
0.0
230
1.0
 70
    11
 71
     3
 72
    34
 73
    30
 74
     0
 42
0.00000001
 43
0.00000001
 40
0.0
 40
0.0
 40
0.0
 40
0.0
 40
0.0127738756313379
 40
0.0481305018861323
 40
0.0807425016923964
 40
0.1375890913626881
 40
0.1884518731192234
 40
0.2226712138150649
 40
0.262693837294915
 40
0.2986558359810539
 40
0.3315197765429493
 40
0.3878459718944505
 40
0.3881259547070388
 40
0.4440926113325822
 40
0.4768435653244633
 40
0.5126448960710603
 40
0.5530084671478317
 40
0.5873855940016048
 40
0.6380121006395928
 40
0.694979626874928
 40
0.7275539945508007
 40
0.7628079420081016
 40
0.8028703493977709
 40
0.8370831563378142
 40
0.8877749825785589
 40
0.8880089190148176
 40
0.9388397946263364
 40
0.9729712758707716
 40
1.0
 40
1.0
 40
1.0
 40
1.0
 10
130.86490807054
 20
94.136588227802
 30
0.0
 10
130.9241017231027
 20
94.14267713160552
 30
0.0
 10
131.1471366334575
 20
94.16561942448969
 30
0.0
 10
131.6704890802347
 20
94.20226417629733
 30
0.0
 10
132.5432525387006
 20
94.22994820633127
 30
0.0
 10
133.6580905081423
 20
94.21939260948284
 30
0.0
 10
134.7711556544485
 20
94.10324758567887
 30
0.0
 10
135.6655978114342
 20
93.98165662669474
 30
0.0
 10
136.3494301501322
 20
93.85989871730297
 30
0.0
 10
136.8901894373213
 20
93.74353750172808
 30
0.0
 10
137.3035839097971
 20
93.6500649198061
 30
0.0
 10
137.5317461305785
 20
93.58342681847103
 30
0.0
 10
137.3773690250182
 20
93.62464724428257
 30
0.0
 10
137.350490950732
 20
93.63712361795008
 30
0.0
 10
136.8945670077279
 20
93.74270507613628
 30
0.0
 10
136.3706338257752
 20
93.85545355722185
 30
0.0
 10
135.6844269375307
 20
93.97855165216411
 30
0.0
 10
134.7913133732344
 20
94.10054303933424
 30
0.0
 10
133.6778770927943
 20
94.21829558002922
 30
0.0
 10
132.5671265665047
 20
94.23026616778164
 30
0.0
 10
131.682374051362
 20
94.20320861841529
 30
0.0
 10
131.0151800751101
 20
94.15527654454763
 30
0.0
 10
130.473900251922
 20
94.09898235156079
 30
0.0
 10
130.0863471697935
 20
94.05390222853339
 30
0.0
 10
129.8923200724895
 20
94.01501958946038
 30
0.0
 10
130.0185473712326
 20
94.03642638975639
 30
0.0
 10
130.0477064067509
 20
94.04634769865915
 30
0.0
 10
130.4192871449669
 20
94.09397752764588
 30
0.0
 10
130.7283312333857
 20
94.12352861968606
 30
0.0
 10
130.86490807054
 20
94.136588227802
 30
0.0
  0
SPLINE
  5
18A
330
1F
100
AcDbEntity
  8
0
  6
HIDDEN
 62
     7
370
     0
100
AcDbSpline
210
0.0
220
0.0
230
1.0
 70
     8
 71
     3
 72
    38
 73
    34
 74
     0
 42
0.00000001
 43
0.00000001
 40
-0.0939221400677789
 40
-0.065775259775378
 40
-0.0344739496007944
 40
0.0
 40
0.0323124298479836
 40
0.0609695982577461
 40
0.0859698687835549
 40
0.1073131755946561
 40
0.125001929016961
 40
0.1562358721977444
 40
0.197850737299077
 40
0.249816879324835
 40
0.278262948030722
 40
0.3049884159832859
 40
0.330004216891384
 40
0.3533239044418167
 40
0.3749644360933807
 40
0.406026783832292
 40
0.4476555976010197
 40
0.4998320869201296
 40
0.5286685248934815
 40
0.5555536435543464
 40
0.5805015705746596
 40
0.6035302879119624
 40
0.62466296934292
 40
0.6685312637103242
 40
0.7183269153555462
 40
0.765237570611313
 40
0.7915712044406462
 40
0.812293703571044
 40
0.8615656629637487
 40
0.9060778599322211
 40
0.934224740224622
 40
0.9655260503992056
 40
1.0
 40
1.032312429847984
 40
1.060969598257746
 40
1.085969868783555
 10
131.6451613222328
 20
140.2072541103685
 30
0.0
 10
131.0410931037235
 20
140.2517876155844
 30
0.0
 10
130.5657780408773
 20
140.2998630018174
 30
0.0
 10
130.2461792148774
 20
140.3360257410833
 30
0.0
 10
130.0591848091634
 20
140.3624158752717
 30
0.0
 10
129.970879149611
 20
140.3784854850689
 30
0.0
 10
129.9414656537418
 20
140.3863091703188
 30
0.0
 10
130.0135977238106
 20
140.3681416717351
 30
0.0
 10
130.3347097260051
 20
140.3235350917724
 30
0.0
 10
130.9067372162197
 20
140.2627965631017
 30
0.0
 10
131.5572695639759
 20
140.2134524000818
 30
0.0
 10
132.1071456927174
 20
140.1910899396024
 30
0.0
 10
132.6625835584955
 20
140.1826077296979
 30
0.0
 10
133.203359106132
 20
140.1890588158465
 30
0.0
 10
133.8012890009313
 20
140.2125371924482
 30
0.0
 10
134.5409548580982
 20
140.2794570632854
 30
0.0
 10
135.4730044913711
 20
140.3955584972206
 30
0.0
 10
136.2623412250447
 20
140.5308733818119
 30
0.0
 10
136.8012709128821
 20
140.645985205879
 30
0.0
 10
137.115375252778
 20
140.7157592824301
 30
0.0
 10
137.3206556211439
 20
140.7663193679259
 30
0.0
 10
137.4317256072348
 20
140.7969975078327
 30
0.0
 10
137.4779971090387
 20
140.8117245250889
 30
0.0
 10
137.3520322406924
 20
140.7738649315015
 30
0.0
 10
136.8817867118194
 20
140.6633791470754
 30
0.0
 10
136.2285887482308
 20
140.5236749286993
 30
0.0
 10
135.6245697927148
 20
140.420548322554
 30
0.0
 10
134.9502317430765
 20
140.3211122967845
 30
0.0
 10
134.0648822600891
 20
140.227641962509
 30
0.0
 10
133.0954033694767
 20
140.1806334564362
 30
0.0
 10
132.3070677922097
 20
140.1843176715367
 30
0.0
 10
131.6451613222328
 20
140.2072541103685
 30
0.0
 10
131.0410931037235
 20
140.2517876155844
 30
0.0
 10
130.5657780408773
 20
140.2998630018174
 30
0.0
  0
SPLINE
  5
18B
330
1F
100
AcDbEntity
  8
0
  6
HIDDEN
 62
     7
370
     0
100
AcDbSpline
210
0.0
220
0.0
230
1.0
 70
     8
 71
     3
 72
    62
 73
    58
 74
     0
 42
0.00000001
 43
0.00000001
 40
-0.03125
 40
-0.03125
 40
0.0
 40
0.0
 40
0.031249999999999
 40
0.031249999999999
 40
0.062499999999998
 40
0.062499999999998
 40
0.1249999999999988
 40
0.1249999999999988
 40
0.1874999999999996
 40
0.1874999999999996
 40
0.2187500000000006
 40
0.2187500000000006
 40
0.2500000000000016
 40
0.2500000000000016
 40
0.2812500000000026
 40
0.2812500000000026
 40
0.3125000000000036
 40
0.3125000000000036
 40
0.3437500000000046
 40
0.3437500000000046
 40
0.3750000000000055
 40
0.3750000000000055
 40
0.4375000000000074
 40
0.4375000000000074
 40
0.468750000000007
 40
0.468750000000007
 40
0.5000000000000066
 40
0.5000000000000066
 40
0.5312500000000061
 40
0.5312500000000061
 40
0.5625000000000057
 40
0.5625000000000057
 40
0.5937500000000052
 40
0.5937500000000052
 40
0.6250000000000048
 40
0.6250000000000048
 40
0.6562500000000043
 40
0.6562500000000043
 40
0.6875000000000039
 40
0.6875000000000039
 40
0.7187500000000034
 40
0.7187500000000034
 40
0.7500000000000029
 40
0.7500000000000029
 40
0.7812500000000024
 40
0.7812500000000024
 40
0.812500000000002
 40
0.812500000000002
 40
0.875
 40
0.875
 40
0.90625
 40
0.90625
 40
0.9375
 40
0.9375
 40
0.96875
 40
0.96875
 40
1.0
 40
1.0
 40
1.031249999999999
 40
1.031249999999999
 10
240.5636337407645
 20
116.6197230603088
 30
0.0
 10
240.8461585753383
 20
116.6197230603088
 30
0.0
 10
240.9844816063895
 20
116.6358849201684
 30
0.0
 10
241.2557095520817
 20
116.6981302061741
 30
0.0
 10
241.38991991825
 20
116.7450372151557
 30
0.0
 10
241.7688994259544
 20
116.9231344970679
 30
0.0
 10
241.997775986414
 20
117.0943386580049
 30
0.0
 10
242.3786688385653
 20
117.5006175853129
 30
0.0
 10
242.5342669114324
 20
117.739867559574
 30
0.0
 10
242.6934129569543
 20
118.1183628763724
 30
0.0
 10
242.7351783479045
 20
118.2507408652475
 30
0.0
 10
242.7904967617145
 20
118.5133527177013
 30
0.0
 10
242.8046025891851
 20
118.6438997772942
 30
0.0
 10
242.8051807472401
 20
118.903241503019
 30
0.0
 10
242.791189698297
 20
119.0316307369017
 30
0.0
 10
242.7366912694205
 20
119.2736669484381
 30
0.0
 10
242.6958009304723
 20
119.3899994093196
 30
0.0
 10
242.5891929307959
 20
119.6077424326022
 30
0.0
 10
242.5244453837173
 20
119.7078193987339
 30
0.0
 10
242.3728845080898
 20
119.8926851750569
 30
0.0
 10
242.2855979109503
 20
119.9774735687623
 30
0.0
 10
241.9999839565038
 20
120.2020417836247
 30
0.0
 10
241.7705977614527
 20
120.3177300967823
 30
0.0
 10
241.3943790917993
 20
120.433786241132
 30
0.0
 10
241.2619080367486
 20
120.4635645268695
 30
0.0
 10
240.9879530602967
 20
120.5036449506017
 30
0.0
 10
240.8499123969943
 20
120.5136111475454
 30
0.0
 10
240.5716948250132
 20
120.5141675375192
 30
0.0
 10
240.4298854662487
 20
120.504367224578
 30
0.0
 10
240.1574288989175
 20
120.4653873749393
 30
0.0
 10
240.0255631678424
 20
120.4364380548511
 30
0.0
 10
239.7700467477219
 20
120.3585462858748
 30
0.0
 10
239.6500599880818
 20
120.3106868327111
 30
0.0
 10
239.4249139907614
 20
120.1968549121903
 30
0.0
 10
239.3187872263776
 20
120.1300522835627
 30
0.0
 10
239.1274605786857
 20
119.9804482591449
 30
0.0
 10
239.0415242321523
 20
119.8975178855622
 30
0.0
 10
238.8890272709337
 20
119.7130642455007
 30
0.0
 10
238.8228822077052
 20
119.6113891578608
 30
0.0
 10
238.7166617725096
 20
119.3964229793299
 30
0.0
 10
238.6756211606809
 20
119.2821242819999
 30
0.0
 10
238.6194345727322
 20
119.0379005108185
 30
0.0
 10
238.6052170011681
 20
118.9109543826405
 30
0.0
 10
238.6045861094823
 20
118.6530680660973
 30
0.0
 10
238.6183744912821
 20
118.5195788707454
 30
0.0
 10
238.673218063026
 20
118.2555901738672
 30
0.0
 10
238.7137192450808
 20
118.1257444409636
 30
0.0
 10
238.8733084437642
 20
117.7431028029006
 30
0.0
 10
239.0280762774431
 20
117.5042537672123
 30
0.0
 10
239.3160559913237
 20
117.1965039610945
 30
0.0
 10
239.4200049138767
 20
117.1035848682854
 30
0.0
 10
239.6444161117678
 20
116.9377251868487
 30
0.0
 10
239.7663466658163
 20
116.864268793123
 30
0.0
 10
240.0185891192751
 20
116.745551115003
 30
0.0
 10
240.1494662929644
 20
116.6995147062793
 30
0.0
 10
240.4216726413444
 20
116.63640449854
 30
0.0
 10
240.5636337407645
 20
116.6197230603088
 30
0.0
 10
240.8461585753383
 20
116.6197230603088
 30
0.0
  0
LINE
  5
18C
330
1F
100
AcDbEntity
  8
0
  6
HIDDEN
 62
     7
370
     0
100
AcDbLine
 10
243.7048961581
 20
121.4042500843
 30
0.0
 11
243.7048961581
 21
113.0042500843
 31
0.0
  0
LINE
  5
18D
330
1F
100
AcDbEntity
  8
0
  6
HIDDEN
 62
     7
370
     0
100
AcDbLine
 10
164.5048961581
 20
113.0042500843
 30
0.0
 11
164.5048961581
 21
121.3796295044
 31
0.0
  0
LINE
  5
18E
330
1F
100
AcDbEntity
  8
0
  6
HIDDEN
 62
     7
370
     0
100
AcDbLine
 10
278.8336402203
 20
101.1993260579
 30
0.0
 11
278.8336402203
 21
101.0946913473
 31
0.0
  0
LINE
  5
18F
330
1F
100
AcDbEntity
  8
0
  6
HIDDEN
 62
     7
370
     0
100
AcDbLine
 10
278.8336402203
 20
101.0946913473
 30
0.0
 11
278.7358307786
 21
101.2527760556
 31
0.0
  0
LINE
  5
190
330
1F
100
AcDbEntity
  8
0
  6
HIDDEN
 62
     7
370
     0
100
AcDbLine
 10
278.7296532281
 20
101.2723210158
 30
0.0
 11
278.7358307786
 21
101.2527760556
 31
0.0
  0
SPLINE
  5
191
330
1F
100
AcDbEntity
  8
0
  6
HIDDEN
 62
     7
370
     0
100
AcDbSpline
210
0.0
220
0.0
230
1.0
 70
     8
 71
     3
 72
    14
 73
    10
 74
     0
 42
0.00000001
 43
0.00000001
 40
0.0
 40
0.0
 40
0.0
 40
0.0
 40
0.1408071806912122
 40
0.2842505724317006
 40
0.4286621784580063
 40
0.5760826324560681
 40
0.7262411808456255
 40
0.8789451599960408
 40
1.0
 40
1.0
 40
1.0
 40
1.0
 10
281.8275323461077
 20
91.7270869972893
 30
0.0
 10
281.7921981193351
 20
91.89776413147209
 30
0.0
 10
281.7208681336255
 20
92.24231384018938
 30
0.0
 10
281.4881152881723
 20
93.15197585418979
 30
0.0
 10
281.1697350050803
 20
94.32762267881988
 30
0.0
 10
280.7610794098106
 20
95.78156462269216
 30
0.0
 10
280.2684828275072
 20
97.49200280706091
 30
0.0
 10
279.746434580238
 20
99.27591261615986
 30
0.0
 10
279.3644396165229
 20
100.5585946913493
 30
0.0
 10
279.1955232712607
 20
101.1257905678791
 30
0.0
  0
LINE
  5
192
330
1F
100
AcDbEntity
  8
0
  6
HIDDEN
 62
     7
370
     0
100
AcDbLine
 10
281.8275323461
 20
91.7270437011
 30
0.0
 11
278.8336402203
 21
101.1993260579
 31
0.0
  0
LINE
  5
193
330
1F
100
AcDbEntity
  8
0
  6
HIDDEN
 62
     7
370
     0
100
AcDbLine
 10
278.7358307786
 20
101.2527760556
 30
0.0
 11
271.9186843398
 21
103.3969781484
 31
0.0
  0
LINE
  5
194
330
1F
100
AcDbEntity
  8
0
  6
HIDDEN
 62
     7
370
     0
100
AcDbLine
 10
271.9186843398
 20
103.3969781484
 30
0.0
 11
271.9125067893
 21
103.4165231086
 31
0.0
  0
LINE
  5
195
330
1F
100
AcDbEntity
  8
0
  6
HIDDEN
 62
     7
370
     0
100
AcDbLine
 10
268.5468130943
 20
104.0038176925
 30
0.0
 11
271.6579271354
 21
94.1606605565
 31
0.0
  0
LINE
  5
196
330
1F
100
AcDbEntity
  8
0
  6
HIDDEN
 62
     7
370
     0
100
AcDbLine
 10
271.6579271354
 20
94.1606605565
 30
0.0
 11
271.6076962032
 21
94.1764597287
 31
0.0
  0
LINE
  5
197
330
1F
100
AcDbEntity
  8
0
  6
HIDDEN
 62
     7
370
     0
100
AcDbLine
 10
257.2048961581
 20
137.7042500843
 30
0.0
 11
257.2048961581
 21
117.2042500843
 31
0.0
  0
SPLINE
  5
198
330
1F
100
AcDbEntity
  8
0
  6
HIDDEN
 62
     7
370
     0
100
AcDbSpline
210
0.0
220
0.0
230
1.0
 70
     8
 71
     3
 72
    14
 73
    10
 74
     0
 42
0.00000001
 43
0.00000001
 40
0.0
 40
0.0
 40
0.0
 40
0.0
 40
0.2500000000000001
 40
0.2500000000000001
 40
0.5000000000000001
 40
0.5000000000000001
 40
0.75
 40
0.75
 40
1.0
 40
1.0
 40
1.0
 40
1.0
 10
259.1607874041662
 20
108.0381684974615
 30
0.0
 10
258.8658688092651
 20
108.76068660193
 30
0.0
 10
258.5950161218174
 20
109.4951170060471
 30
0.0
 10
258.1132621811441
 20
110.9936529657463
 30
0.0
 10
257.9027979624884
 20
111.7576660024746
 30
0.0
 10
257.5601139535765
 20
113.2985687674551
 30
0.0
 10
257.427106660688
 20
114.0799924433649
 30
0.0
 10
257.2498269510688
 20
115.6405496713823
 30
0.0
 10
257.2048961580516
 20
116.4218663419792
 30
0.0
 10
257.2048961580516
 20
117.204250084341
 30
0.0
  0
SPLINE
  5
199
330
1F
100
AcDbEntity
  8
0
  6
HIDDEN
 62
     7
370
     0
100
AcDbSpline
210
0.0
220
0.0
230
1.0
 70
     8
 71
     3
 72
    14
 73
    10
 74
     0
 42
0.00000001
 43
0.00000001
 40
0.0
 40
0.0
 40
0.0
 40
0.0
 40
0.4999999999999991
 40
0.4999999999999991
 40
0.6249999999999994
 40
0.6249999999999994
 40
0.7499999999999998
 40
0.7499999999999998
 40
1.0
 40
1.0
 40
1.0
 40
1.0
 10
256.7048961580515
 20
100.0665487784129
 30
0.0
 10
256.9807235499821
 20
100.9667442532426
 30
0.0
 10
257.3368754927639
 20
102.0925961864216
 30
0.0
 10
257.8594015776391
 20
103.7689143239391
 30
0.0
 10
257.9678408637108
 20
104.1178428159889
 30
0.0
 10
258.1922771086897
 20
104.8435513575438
 30
0.0
 10
258.3082682110764
 20
105.2203342683577
 30
0.0
 10
258.6621951065323
 20
106.3770266806438
 30
0.0
 10
258.9075557963462
 20
107.1880949220537
 30
0.0
 10
259.1607874041677
 20
108.0381684974603
 30
0.0
  0
LWPOLYLINE
  5
19A
330
1F
100
AcDbEntity
  8
0
  6
HIDDEN
 62
     7
370
     0
100
AcDbPolyline
 90
        2
 70
   128
 43
0.0
 10
147.6548961581
 20
90.8042500843
 10
147.6548961581
 20
90.8042500843
  0
LINE
  5
19B
330
1F
100
AcDbEntity
  8
0
  6
HIDDEN
 62
     7
370
     0
100
AcDbLine
 10
271.9186843398
 20
103.3969781484
 30
0.0
 11
271.7062818646
 21
103.3364646229
 31
0.0
  0
LINE
  5
19C
330
1F
100
AcDbEntity
  8
0
  6
HIDDEN
 62
     7
370
     0
100
AcDbLine
 10
271.6554200321
 20
103.4973847958
 30
0.0
 11
271.7062818646
 21
103.3364646229
 31
0.0
  0
LINE
  5
19D
330
1F
100
AcDbEntity
  8
0
  6
HIDDEN
 62
     7
370
     0
100
AcDbLine
 10
268.7797910612
 20
104.3019761547
 30
0.0
 11
271.9833466733
 21
94.1663460021
 31
0.0
  0
ELLIPSE
  5
19E
330
1F
100
AcDbEntity
  8
0
  6
HIDDEN
 62
     7
370
     0
100
AcDbEllipse
 10
262.7217588886
 20
123.1786024086
 30
0.0
 11
-9.233991829552281
 21
29.02209731499012
 31
0.0
210
0.0
220
0.0
230
1.0
 40
0.1180088425
 41
3.062896652406824
 42
3.149739755356548
  0
LINE
  5
19F
330
1F
100
AcDbEntity
  8
0
  6
HIDDEN
 62
     7
370
     0
100
AcDbLine
 10
278.8336402203
 20
101.0946913473
 30
0.0
 11
271.7062818646
 21
103.3364646229
 31
0.0
  0
LINE
  5
1A0
330
1F
100
AcDbEntity
  8
0
  6
HIDDEN
 62
     7
370
     0
100
AcDbLine
 10
147.6548961581
 20
85.7201271015
 30
0.0
 11
147.6548961581
 21
90.8042500843
 31
0.0
  0
LINE
  5
1A1
330
1F
100
AcDbEntity
  8
0
  6
HIDDEN
 62
     7
370
     0
100
AcDbLine
 10
147.6548961581
 20
90.8042500843
 30
0.0
 11
155.6548961581
 21
90.8042500843
 31
0.0
  0
ARC
  5
1A2
330
1F
100
AcDbEntity
  8
0
  6
HIDDEN
 62
     7
370
     0
100
AcDbCircle
 10
269.7632195129
 20
105.4403634108
 30
0.0
 40
1.250197029171029
100
AcDbArc
 50
17.5751657133
 51
182.2819260606
  0
LINE
  5
1A3
330
1F
100
AcDbEntity
  8
0
  6
HIDDEN
 62
     7
370
     0
100
AcDbLine
 10
268.8100503395
 20
104.310874474
 30
0.0
 11
271.9533721587
 21
94.365816149
 31
0.0
  0
ELLIPSE
  5
1A4
330
1F
100
AcDbEntity
  8
0
  6
HIDDEN
 62
     7
370
     0
100
AcDbEllipse
 10
262.8087135165
 20
123.1512525055
 30
0.0
 11
-9.163690104546303
 21
29.0878282027308
 31
0.0
210
0.0
220
0.0
230
1.0
 40
0.0172077412
 41
3.22049313753391
 42
3.280591012765353
  0
LINE
  5
1A5
330
1F
100
AcDbEntity
  8
0
  6
HIDDEN
 62
     7
370
     0
100
AcDbLine
 10
271.7062818646
 20
103.3364646229
 30
0.0
 11
271.7062818646
 21
103.4410993335
 31
0.0
  0
LWPOLYLINE
  5
1A6
330
1F
100
AcDbEntity
  8
0
  6
HIDDEN
 62
     7
370
     0
100
AcDbPolyline
 90
       21
 70
   128
 43
0.0
 10
240.7048961581
 20
120.4116217577
 10
241.3538318462
 20
120.5069189343
 10
241.9392451879
 20
120.7834821123
 10
242.4038318462
 20
121.214239361
 10
242.7021148423
 20
121.7570251596
 10
242.8048961581
 20
122.3587078523
 10
242.7021148423
 20
122.9603905451
 10
242.4038318462
 20
123.5031763437
 10
241.9392451879
 20
123.9339335924
 10
241.3538318462
 20
124.2104967704
 10
240.7048961581
 20
124.3057939469
 10
240.0559604699
 20
124.2104967704
 10
239.4705471282
 20
123.9339335924
 10
239.0059604699
 20
123.5031763437
 10
238.7076774738
 20
122.9603905451
 10
238.6048961581
 20
122.3587078523
 10
238.7076774738
 20
121.7570251596
 10
239.0059604699
 20
121.214239361
 10
239.4705471282
 20
120.7834821123
 10
240.0559604699
 20
120.5069189343
 10
240.7048961581
 20
120.4116217577
  0
LINE
  5
1A7
330
1F
100
AcDbEntity
  8
0
  6
HIDDEN
 62
     7
370
     0
100
AcDbLine
 10
281.469489698
 20
91.3674076244
 30
0.0
 11
281.8275715047
 21
91.7270049015
 31
0.0
  0
CIRCLE
  5
1A8
330
1F
100
AcDbEntity
  8
0
  6
HIDDEN
 62
     7
370
     0
100
AcDbCircle
 10
275.5325071721
 20
97.6390747939
 30
0.0
 40
2.398233161631136
  0
LINE
  5
1A9
330
1F
100
AcDbEntity
  8
0
  6
HIDDEN
 62
     7
370
     0
100
AcDbLine
 10
278.8336402203
 20
101.1993260579
 30
0.0
 11
271.7062818646
 21
103.4410993335
 31
0.0
  0
LINE
  5
1AA
330
1F
100
AcDbEntity
  8
0
  6
HIDDEN
 62
     7
370
     0
100
AcDbLine
 10
271.7062818646
 20
103.4410993335
 30
0.0
 11
270.955059392
 21
105.8178687942
 31
0.0
  0
LINE
  5
1AB
330
1F
100
AcDbEntity
  8
0
  6
HIDDEN
 62
     7
370
     0
100
AcDbLine
 10
271.9533721587
 20
94.365816149
 30
0.0
 11
281.4676406134
 21
91.3732862811
 31
0.0
  0
CIRCLE
  5
1AC
330
1F
100
AcDbEntity
  8
0
  6
HIDDEN
 62
     7
370
     0
100
AcDbCircle
 10
275.5327790855
 20
97.6903667021
 30
0.0
 40
1.649034632842493
  0
SPLINE
  5
1AD
330
1F
100
AcDbEntity
  8
0
  6
HIDDEN
 62
     7
370
     0
100
AcDbSpline
210
0.0
220
0.0
230
1.0
 70
     8
 71
     3
 72
    39
 73
    35
 74
     0
 42
0.00000001
 43
0.00000001
 40
0.0
 40
0.0
 40
0.0
 40
0.0
 40
0.0266257547098171
 40
0.0530400563214207
 40
0.0792443692184561
 40
0.1052401932720877
 40
0.1310290647309751
 40
0.1566125571259016
 40
0.1819922821884566
 40
0.2071698907830107
 40
0.2321470738511427
 40
0.2569255633675434
 40
0.2815071333063208
 40
0.3058936006164749
 40
0.3300868262051569
 40
0.3540887159272191
 40
0.3779012215793457
 40
0.4015263418969212
 40
0.4249661235516222
 40
0.4482226621474683
 40
0.4712981032129728
 40
0.4941946431867242
 40
0.5169145303936061
 40
0.5633478125968235
 40
0.6092095058789799
 40
0.6545208112793787
 40
0.6993037115481907
 40
0.7435809764826008
 40
0.7873761645631289
 40
0.8307136204696927
 40
0.8736184680694143
 40
0.9161165984924992
 40
0.9582346529501212
 40
1.0
 40
1.0
 40
1.0
 40
1.0
 10
278.1372465391966
 20
103.3331331663061
 30
0.0
 10
278.1841468276422
 20
103.1750105880743
 30
0.0
 10
278.2775749376716
 20
102.8600211897828
 30
0.0
 10
278.4145811397058
 20
102.3959048056318
 30
0.0
 10
278.5485997389685
 20
101.9404459276709
 30
0.0
 10
278.6794691218853
 20
101.4941715171809
 30
0.0
 10
278.8072560877003
 20
101.0570376284344
 30
0.0
 10
278.9319647509673
 20
100.6291444042679
 30
0.0
 10
279.0536136452693
 20
100.2105468720305
 30
0.0
 10
279.1722153443533
 20
99.80130513467003
 30
0.0
 10
279.2877818929401
 20
99.40147118386194
 30
0.0
 10
279.4003234050947
 20
99.01109249529001
 30
0.0
 10
279.5098484721211
 20
98.63021118334677
 30
0.0
 10
279.6163640922082
 20
98.25886433371566
 30
0.0
 10
279.7198757265167
 20
97.89708402669271
 30
0.0
 10
279.8203873250821
 20
97.54489744287746
 30
0.0
 10
279.9179013509662
 20
97.20232695453842
 30
0.0
 10
280.0124188429913
 20
96.86939020173374
 30
0.0
 10
280.1039393296242
 20
96.54610025052241
 30
0.0
 10
280.1924612953325
 20
96.23246544869201
 30
0.0
 10
280.2779806098014
 20
95.92849040354395
 30
0.0
 10
280.3604964724913
 20
95.63417282495281
 30
0.0
 10
280.467848465554
 20
95.24975589364539
 30
0.0
 10
280.5958266820224
 20
94.78876007112439
 30
0.0
 10
280.7387457373292
 20
94.26974142182144
 30
0.0
 10
280.8695384119365
 20
93.79018807429155
 30
0.0
 10
280.988185813242
 20
93.35013440526527
 30
0.0
 10
281.0946432466143
 20
92.94955556504341
 30
0.0
 10
281.1888585721106
 20
92.58834853240515
 30
0.0
 10
281.2707324152629
 20
92.26644311011488
 30
0.0
 10
281.3402613683265
 20
91.98339573004954
 30
0.0
 10
281.397016556415
 20
91.73989543334778
 30
0.0
 10
281.4420655246941
 20
91.53223167641902
 30
0.0
 10
281.4613637616819
 20
91.42543854044615
 30
0.0
 10
281.4709723081971
 20
91.37226649083571
 30
0.0
  0
ARC
  5
1AE
330
1F
100
AcDbEntity
  8
0
  6
HIDDEN
 62
     7
370
     0
100
AcDbCircle
 10
275.5320771193
 20
98.2994577969
 30
0.0
 40
1.64822380174516
100
AcDbArc
 50
282.3069422383
 51
222.7731292422
  0
SPLINE
  5
1AF
330
1F
100
AcDbEntity
  8
0
  6
HIDDEN
 62
     7
370
     0
100
AcDbSpline
210
0.0
220
0.0
230
1.0
 70
     8
 71
     3
 72
    14
 73
    10
 74
     0
 42
0.00000001
 43
0.00000001
 40
0.0
 40
0.0
 40
0.0
 40
0.0
 40
0.25
 40
0.25
 40
0.5
 40
0.5
 40
0.75
 40
0.75
 40
1.0
 40
1.0
 40
1.0
 40
1.0
 10
275.8833939925937
 20
96.68911058121948
 30
0.0
 10
275.7671099355393
 20
96.65609469072783
 30
0.0
 10
275.6388435649403
 20
96.63384496667418
 30
0.0
 10
275.3535965000582
 20
96.62935349335325
 30
0.0
 10
275.194761981156
 20
96.64882694104986
 30
0.0
 10
274.8804727044222
 20
96.7476391341731
 30
0.0
 10
274.7367730730357
 20
96.8233805793535
 30
0.0
 10
274.4996446710495
 20
96.99204577531565
 30
0.0
 10
274.4030046327943
 20
97.08513292840995
 30
0.0
 10
274.3222010247313
 20
97.1801537558071
 30
0.0
  0
LINE
  5
1B0
330
1F
100
AcDbEntity
  8
0
  6
HIDDEN
 62
     7
370
     0
100
AcDbLine
 10
116.9048961581
 20
135.1942500843
 30
0.0
 11
116.9048961581
 21
133.4917637067
 31
0.0
  0
LINE
  5
1B1
330
1F
100
AcDbEntity
  8
0
  6
HIDDEN
 62
     7
370
     0
100
AcDbLine
 10
120.9048961581
 20
99.2142500843
 30
0.0
 11
120.9048961581
 21
100.9167364619
 31
0.0
  0
LINE
  5
1B2
330
1F
100
AcDbEntity
  8
0
  6
HIDDEN
 62
     7
370
     0
100
AcDbLine
 10
116.9048961581
 20
135.1942500843
 30
0.0
 11
116.9048961581
 21
139.0483577567
 31
0.0
  0
LINE
  5
1B3
330
1F
100
AcDbEntity
  8
0
  6
HIDDEN
 62
     7
370
     0
100
AcDbLine
 10
120.9048961581
 20
99.2142500843
 30
0.0
 11
120.9048961581
 21
95.2591018251
 31
0.0
  0
LINE
  5
1B4
330
1F
100
AcDbEntity
  8
0
  6
HIDDEN
 62
     7
370
     0
100
AcDbLine
 10
111.9548961581
 20
135.1942500843
 30
0.0
 11
111.9548961581
 21
133.0057405204
 31
0.0
  0
SPLINE
  5
1B5
330
1F
100
AcDbEntity
  8
0
  6
HIDDEN
 62
     7
370
     0
100
AcDbSpline
210
0.0
220
0.0
230
1.0
 70
     8
 71
     3
 72
    10
 73
     6
 74
     0
 42
0.00000001
 43
0.00000001
 40
0.0
 40
0.0
 40
0.0
 40
0.0
 40
0.5
 40
0.5
 40
1.0
 40
1.0
 40
1.0
 40
1.0
 10
111.9448512276332
 20
138.0642039766287
 30
0.0
 10
111.877291972715
 20
137.9965125838189
 30
0.0
 10
111.8136553173785
 20
137.9218054190653
 30
0.0
 10
111.7034345628066
 20
137.7628392866387
 30
0.0
 10
111.656618269584
 20
137.6784840206307
 30
0.0
 10
111.6290498041559
 20
137.5943694179389
 30
0.0
  0
LINE
  5
1B6
330
1F
100
AcDbEntity
  8
0
  6
HIDDEN
 62
     7
370
     0
100
AcDbLine
 10
111.9548961581
 20
135.1942500843
 30
0.0
 11
111.9548961581
 21
138.0741878497
 31
0.0
  0
LINE
  5
1B7
330
1F
100
AcDbEntity
  8
0
  6
HIDDEN
 62
     7
370
     0
100
AcDbLine
 10
110.8048961581
 20
135.1942500843
 30
0.0
 11
110.8048961581
 21
136.8949278308
 31
0.0
  0
SPLINE
  5
1B8
330
1F
100
AcDbEntity
  8
0
  6
HIDDEN
 62
     7
370
     0
100
AcDbSpline
210
0.0
220
0.0
230
1.0
 70
     8
 71
     3
 72
    10
 73
     6
 74
     0
 42
0.00000001
 43
0.00000001
 40
0.0
 40
0.0
 40
0.0
 40
0.0
 40
0.5
 40
0.5
 40
1.0
 40
1.0
 40
1.0
 40
1.0
 10
110.8675595327748
 20
136.8788026291217
 30
0.0
 10
110.858655243666
 20
136.9245441483349
 30
0.0
 10
110.8421398634731
 20
136.9417349878039
 30
0.0
 10
110.8150319174114
 20
136.9414117108682
 30
0.0
 10
110.8048961580514
 20
136.9235341685718
 30
0.0
 10
110.8048961580514
 20
136.8949278308191
 30
0.0
  0
ELLIPSE
  5
1B9
330
1F
100
AcDbEntity
  8
0
  6
HIDDEN
 62
     7
370
     0
100
AcDbEllipse
 10
106.6374642937
 20
117.2042500843
 30
0.0
 11
20.07002071827053
 21
-1.421085471520200E-14
 31
0.0
210
0.0
220
0.0
230
1.0
 40
0.8164965809
 41
1.302650465081199
 42
1.361629843993898
  0
LINE
  5
1BA
330
1F
100
AcDbEntity
  8
0
  6
HIDDEN
 62
     7
370
     0
100
AcDbLine
 10
110.8048961581
 20
135.1942500843
 30
0.0
 11
110.8048961581
 21
133.2341854822
 31
0.0
  0
ELLIPSE
  5
1BB
330
1F
100
AcDbEntity
  8
0
  6
HIDDEN
 62
     7
370
     0
100
AcDbEllipse
 10
106.6374642937
 20
117.2042500843
 30
0.0
 11
20.07002071827053
 21
-2.842170943040401E-14
 31
0.0
210
0.0
220
0.0
230
1.0
 40
0.8164965809
 41
4.921555463185704
 42
4.980534842098404
  0
LINE
  5
1BC
330
1F
100
AcDbEntity
  8
0
  6
HIDDEN
 62
     7
370
     0
100
AcDbLine
 10
110.8048961581
 20
133.2341854822
 30
0.0
 11
110.8048961581
 21
101.1743146865
 31
0.0
  0
LINE
  5
1BD
330
1F
100
AcDbEntity
  8
0
  6
HIDDEN
 62
     7
370
     0
100
AcDbLine
 10
111.9548961581
 20
99.2142500843
 30
0.0
 11
111.9548961581
 21
96.3976185258
 31
0.0
  0
LINE
  5
1BE
330
1F
100
AcDbEntity
  8
0
  6
HIDDEN
 62
     7
370
     0
100
AcDbLine
 10
111.9548961581
 20
99.2142500843
 30
0.0
 11
111.9548961581
 21
101.4027596483
 31
0.0
  0
SPLINE
  5
1BF
330
1F
100
AcDbEntity
  8
0
  6
HIDDEN
 62
     7
370
     0
100
AcDbSpline
210
0.0
220
0.0
230
1.0
 70
     8
 71
     3
 72
     8
 73
     4
 74
     0
 42
0.00000001
 43
0.00000001
 40
0.0
 40
0.0
 40
0.0
 40
0.0
 40
1.0
 40
1.0
 40
1.0
 40
1.0
 10
111.7438057282505
 20
96.76032778137541
 30
0.0
 10
111.7795193866204
 20
96.63709627611563
 30
0.0
 10
111.8551874255687
 20
96.51615269916863
 30
0.0
 10
111.9448512276418
 20
96.40943365546538
 30
0.0
  0
SPLINE
  5
1C0
330
1F
100
AcDbEntity
  8
0
  6
HIDDEN
 62
     7
370
     0
100
AcDbSpline
210
0.0
220
0.0
230
1.0
 70
     8
 71
     3
 72
    10
 73
     6
 74
     0
 42
0.00000001
 43
0.00000001
 40
0.0
 40
0.0
 40
0.0
 40
0.0
 40
0.5
 40
0.5
 40
1.0
 40
1.0
 40
1.0
 40
1.0
 10
110.8048961580509
 20
97.55108955938817
 30
0.0
 10
110.8048961580509
 20
97.53757303352042
 30
0.0
 10
110.8102157186791
 20
97.5334022611631
 30
0.0
 10
110.8233439509608
 20
97.55153330455069
 30
0.0
 10
110.8310366056148
 20
97.57444172961263
 30
0.0
 10
110.83517377366
 20
97.61416252411422
 30
0.0
  0
LINE
  5
1C1
330
1F
100
AcDbEntity
  8
0
  6
HIDDEN
 62
     7
370
     0
100
AcDbLine
 10
110.8048961581
 20
99.2142500843
 30
0.0
 11
110.8048961581
 21
97.5510895594
 31
0.0
  0
LINE
  5
1C2
330
1F
100
AcDbEntity
  8
0
  6
HIDDEN
 62
     7
370
     0
100
AcDbLine
 10
110.8048961581
 20
99.2142500843
 30
0.0
 11
110.8048961581
 21
101.1743146865
 31
0.0
  0
SPLINE
  5
1C3
330
1F
100
AcDbEntity
  8
0
  6
HIDDEN
 62
     7
370
     0
100
AcDbSpline
210
0.0
220
0.0
230
1.0
 70
     8
 71
     3
 72
    10
 73
     6
 74
     0
 42
0.00000001
 43
0.00000001
 40
0.0
 40
0.0
 40
0.0
 40
0.0
 40
0.5
 40
0.5
 40
1.0
 40
1.0
 40
1.0
 40
1.0
 10
158.7948961580514
 20
144.3239039353768
 30
0.0
 10
158.7948961580514
 20
144.1802915838188
 30
0.0
 10
158.8310634331493
 20
144.0373181701002
 30
0.0
 10
158.9668193769032
 20
143.7873255433864
 30
0.0
 10
159.0670890675261
 20
143.6793232341076
 30
0.0
 10
159.1891936897425
 20
143.604250084341
 30
0.0
  0
LINE
  5
1C4
330
1F
100
AcDbEntity
  8
0
  6
HIDDEN
 62
     7
370
     0
100
AcDbLine
 10
158.7948961581
 20
144.3239039354
 30
0.0
 11
158.7948961581
 21
90.399854456
 31
0.0
  0
SPLINE
  5
1C5
330
1F
100
AcDbEntity
  8
0
  6
HIDDEN
 62
     7
370
     0
100
AcDbSpline
210
0.0
220
0.0
230
1.0
 70
     8
 71
     3
 72
    10
 73
     6
 74
     0
 42
0.00000001
 43
0.00000001
 40
0.0
 40
0.0
 40
0.0
 40
0.0
 40
0.5
 40
0.5
 40
1.0
 40
1.0
 40
1.0
 40
1.0
 10
158.7948961580514
 20
90.3998544560117
 30
0.0
 10
158.7948961580514
 20
90.4700908163822
 30
0.0
 10
158.8031787701419
 20
90.54008491787945
 30
0.0
 10
158.8362787132002
 20
90.67704418243794
 30
0.0
 10
158.8606161051586
 20
90.74235209169301
 30
0.0
 10
158.892570960383
 20
90.80425008433973
 30
0.0
  0
SPLINE
  5
1C6
330
1F
100
AcDbEntity
  8
0
  6
HIDDEN
 62
     7
370
     0
100
AcDbSpline
210
0.0
220
0.0
230
1.0
 70
    24
 71
     3
 72
    12
 73
     8
 74
     0
 42
0.00000001
 43
0.00000001
 40
0.0
 40
0.0
 40
0.0
 40
0.0
 40
0.4999999999999927
 40
0.4999999999999927
 40
0.7499999999999963
 40
0.7499999999999963
 40
1.0
 40
1.0
 40
1.0
 40
1.0
 10
159.1891936897424
 20
143.6042500843411
 30
0.0
 10
159.232317038176
 20
143.6042500843411
 30
0.0
 10
159.2820566254762
 20
143.6042500843411
 30
0.0
 10
159.3785776022981
 20
143.6042500843411
 30
0.0
 10
159.4141427331498
 20
143.6042500843411
 30
0.0
 10
159.4974910637727
 20
143.6042500843411
 30
0.0
 10
159.5459609634631
 20
143.6042500843411
 30
0.0
 10
159.5948961580526
 20
143.6042500843411
 30
0.0
  0
SPLINE
  5
1C7
330
1F
100
AcDbEntity
  8
0
  6
HIDDEN
 62
     7
370
     0
100
AcDbSpline
210
0.0
220
0.0
230
1.0
 70
    24
 71
     3
 72
    14
 73
    10
 74
     0
 42
0.00000001
 43
0.00000001
 40
0.0
 40
0.0
 40
0.0
 40
0.0
 40
0.4999999999999987
 40
0.4999999999999987
 40
0.7499999999999976
 40
0.7499999999999976
 40
0.8749999999999988
 40
0.8749999999999988
 40
1.0
 40
1.0
 40
1.0
 40
1.0
 10
158.8925709603836
 20
90.80425008434104
 30
0.0
 10
158.9397774482234
 20
90.80425008434104
 30
0.0
 10
159.0031174516528
 20
90.80425008434104
 30
0.0
 10
159.1461805579086
 20
90.80425008434104
 30
0.0
 10
159.2022612081796
 20
90.80425008434104
 30
0.0
 10
159.313696558089
 20
90.80425008434102
 30
0.0
 10
159.355641348762
 20
90.80425008434102
 30
0.0
 10
159.4606377917821
 20
90.80425008434102
 30
0.0
 10
159.5262017288628
 20
90.80425008434104
 30
0.0
 10
159.5948961580513
 20
90.80425008434104
 30
0.0
  0
LINE
  5
1C8
330
1F
100
AcDbEntity
  8
0
  6
HIDDEN
 62
     7
370
     0
100
AcDbLine
 10
162.6148961581
 20
144.3239039354
 30
0.0
 11
162.6148961581
 21
90.399854456
 31
0.0
  0
SPLINE
  5
1C9
330
1F
100
AcDbEntity
  8
0
  6
HIDDEN
 62
     7
370
     0
100
AcDbSpline
210
0.0
220
0.0
230
1.0
 70
     8
 71
     3
 72
    10
 73
     6
 74
     0
 42
0.00000001
 43
0.00000001
 40
0.0
 40
0.0
 40
0.0
 40
0.0
 40
0.5
 40
0.5
 40
1.0
 40
1.0
 40
1.0
 40
1.0
 10
162.2205986263605
 20
143.6042500843411
 30
0.0
 10
162.3419111494582
 20
143.6788362306292
 30
0.0
 10
162.4433395116833
 20
143.7876605417806
 30
0.0
 10
162.5792830779435
 20
144.0386810604023
 30
0.0
 10
162.6148961580514
 20
144.1812637535416
 30
0.0
 10
162.6148961580514
 20
144.3239039353769
 30
0.0
  0
SPLINE
  5
1CA
330
1F
100
AcDbEntity
  8
0
  6
HIDDEN
 62
     7
370
     0
100
AcDbSpline
210
0.0
220
0.0
230
1.0
 70
     8
 71
     3
 72
    10
 73
     6
 74
     0
 42
0.00000001
 43
0.00000001
 40
0.0
 40
0.0
 40
0.0
 40
0.0
 40
0.5
 40
0.5
 40
1.0
 40
1.0
 40
1.0
 40
1.0
 10
162.5172213557192
 20
90.804250084341
 30
0.0
 10
162.5493765433411
 20
90.74196403882488
 30
0.0
 10
162.5740327745354
 20
90.67543361395563
 30
0.0
 10
162.6068455314609
 20
90.53857498359315
 30
0.0
 10
162.6148961580515
 20
90.46951738841479
 30
0.0
 10
162.6148961580514
 20
90.39985445601145
 30
0.0
  0
SPLINE
  5
1CB
330
1F
100
AcDbEntity
  8
0
  6
HIDDEN
 62
     7
370
     0
100
AcDbSpline
210
0.0
220
0.0
230
1.0
 70
    24
 71
     3
 72
    12
 73
     8
 74
     0
 42
0.00000001
 43
0.00000001
 40
0.0
 40
0.0
 40
0.0
 40
0.0
 40
0.2500000000000008
 40
0.2500000000000008
 40
0.5000000000000017
 40
0.5000000000000017
 40
1.0
 40
1.0
 40
1.0
 40
1.0
 10
161.8148961580515
 20
143.6042500843411
 30
0.0
 10
161.8644312642694
 20
143.604250084341
 30
0.0
 10
161.9128361528709
 20
143.6042500843411
 30
0.0
 10
161.9957227020485
 20
143.604250084341
 30
0.0
 10
162.0322374235169
 20
143.604250084341
 30
0.0
 10
162.1285702618715
 20
143.6042500843411
 30
0.0
 10
162.1773228095342
 20
143.6042500843411
 30
0.0
 10
162.2205986263649
 20
143.6042500843411
 30
0.0
  0
SPLINE
  5
1CC
330
1F
100
AcDbEntity
  8
0
  6
HIDDEN
 62
     7
370
     0
100
AcDbSpline
210
0.0
220
0.0
230
1.0
 70
    24
 71
     3
 72
    14
 73
    10
 74
     0
 42
0.00000001
 43
0.00000001
 40
0.0
 40
0.0
 40
0.0
 40
0.0
 40
0.1249999999999987
 40
0.1249999999999987
 40
0.2499999999999973
 40
0.2499999999999973
 40
0.4999999999999982
 40
0.4999999999999982
 40
1.0
 40
1.0
 40
1.0
 40
1.0
 10
161.8148961580515
 20
90.80425008434104
 30
0.0
 10
161.8839927903954
 20
90.80425008434104
 30
0.0
 10
161.9489859560034
 20
90.80425008434104
 30
0.0
 10
162.0533071546485
 20
90.80425008434104
 30
0.0
 10
162.0960875287569
 20
90.80425008434104
 30
0.0
 10
162.2084251884032
 20
90.80425008434102
 30
0.0
 10
162.2634723705456
 20
90.80425008434104
 30
0.0
 10
162.4073491443156
 20
90.80425008434104
 30
0.0
 10
162.4703784575907
 20
90.80425008434104
 30
0.0
 10
162.5172213557191
 20
90.80425008434104
 30
0.0
  0
LINE
  5
1CD
330
1F
100
AcDbEntity
  8
0
  6
HIDDEN
 62
     7
370
     0
100
AcDbLine
 10
159.5948961581
 20
143.6042500843
 30
0.0
 11
161.8148961581
 21
143.6042500843
 31
0.0
  0
LINE
  5
1CE
330
1F
100
AcDbEntity
  8
0
  6
HIDDEN
 62
     7
370
     0
100
AcDbLine
 10
159.5948961581
 20
90.8042500843
 30
0.0
 11
161.8148961581
 21
90.8042500843
 31
0.0
  0
LINE
  5
1CF
330
1F
100
AcDbEntity
  8
0
  6
HIDDEN
 62
     7
370
     0
100
AcDbLine
 10
158.7948961581
 20
145.0094842755
 30
0.0
 11
158.7948961581
 21
144.3239039354
 31
0.0
  0
SPLINE
  5
1D0
330
1F
100
AcDbEntity
  8
0
  6
HIDDEN
 62
     7
370
     0
100
AcDbSpline
210
0.0
220
0.0
230
1.0
 70
     8
 71
     3
 72
     8
 73
     4
 74
     0
 42
0.00000001
 43
0.00000001
 40
0.0
 40
0.0
 40
0.0
 40
0.0
 40
1.0
 40
1.0
 40
1.0
 40
1.0
 10
157.3129633265624
 20
147.6714455575053
 30
0.0
 10
157.8081033559267
 20
146.784765909325
 30
0.0
 10
158.3021860612057
 20
145.897503273639
 30
0.0
 10
158.7948961580514
 20
145.0094842755126
 30
0.0
  0
LINE
  5
1D1
330
1F
100
AcDbEntity
  8
0
  6
HIDDEN
 62
     7
370
     0
100
AcDbLine
 10
155.6548961581
 20
143.6042500843
 30
0.0
 11
159.1891936897
 21
143.6042500843
 31
0.0
  0
SPLINE
  5
1D2
330
1F
100
AcDbEntity
  8
0
  6
HIDDEN
 62
     7
370
     0
100
AcDbSpline
210
0.0
220
0.0
230
1.0
 70
     8
 71
     3
 72
    12
 73
     8
 74
     0
 42
0.00000001
 43
0.00000001
 40
0.0
 40
0.0
 40
0.0
 40
0.0
 40
0.249999999999998
 40
0.249999999999998
 40
0.499999999999996
 40
0.499999999999996
 40
1.0
 40
1.0
 40
1.0
 40
1.0
 10
168.0548961580514
 20
147.6714455575053
 30
0.0
 10
168.1343891070997
 20
147.6714455575053
 30
0.0
 10
168.2154726084553
 20
147.6544428075445
 30
0.0
 10
168.361903005593
 20
147.5903822664328
 30
0.0
 10
168.4284516154668
 20
147.5432236507942
 30
0.0
 10
168.5927414894404
 20
147.3700016181019
 30
0.0
 10
168.6548961580516
 20
147.2098925278677
 30
0.0
 10
168.6548961580515
 20
147.0506904081043
 30
0.0
  0
SPLINE
  5
1D3
330
1F
100
AcDbEntity
  8
0
  6
HIDDEN
 62
     7
370
     0
100
AcDbSpline
210
0.0
220
0.0
230
1.0
 70
     8
 71
     3
 72
    12
 73
     8
 74
     0
 42
0.00000001
 43
0.00000001
 40
0.0
 40
0.0
 40
0.0
 40
0.0
 40
0.2499999999999999
 40
0.2499999999999999
 40
0.4999999999999998
 40
0.4999999999999998
 40
1.0
 40
1.0
 40
1.0
 40
1.0
 10
168.0548961580514
 20
87.01733238809389
 30
0.0
 10
168.1347771627985
 20
87.01733238809388
 30
0.0
 10
168.2153712930691
 20
87.03444947435973
 30
0.0
 10
168.361986738914
 20
87.09918558583485
 30
0.0
 10
168.428487931658
 20
87.14664282871517
 30
0.0
 10
168.5942228327952
 20
87.32346727125464
 30
0.0
 10
168.6548961580514
 20
87.48374377846035
 30
0.0
 10
168.6548961580514
 20
87.64397268374815
 30
0.0
  0
LINE
  5
1D4
330
1F
100
AcDbEntity
  8
0
  6
HIDDEN
 62
     7
370
     0
100
AcDbLine
 10
168.6548961581
 20
147.0506904081
 30
0.0
 11
168.6548961581
 21
87.6439726837
 31
0.0
  0
LINE
  5
1D5
330
1F
100
AcDbEntity
  8
0
  6
HIDDEN
 62
     7
370
     0
100
AcDbLine
 10
162.6148961581
 20
144.3239039354
 30
0.0
 11
162.6148961581
 21
145.0094842755
 31
0.0
  0
SPLINE
  5
1D6
330
1F
100
AcDbEntity
  8
0
  6
HIDDEN
 62
     7
370
     0
100
AcDbSpline
210
0.0
220
0.0
230
1.0
 70
     8
 71
     3
 72
     8
 73
     4
 74
     0
 42
0.00000001
 43
0.00000001
 40
0.0
 40
0.0
 40
0.0
 40
0.0
 40
1.0
 40
1.0
 40
1.0
 40
1.0
 10
162.6148961580514
 20
145.0094842755126
 30
0.0
 10
163.1076062548972
 20
145.897503273639
 30
0.0
 10
163.6016889601761
 20
146.784765909325
 30
0.0
 10
164.0968289895405
 20
147.6714455575053
 30
0.0
  0
LINE
  5
1D7
330
1F
100
AcDbEntity
  8
0
  6
HIDDEN
 62
     7
370
     0
100
AcDbLine
 10
164.0968289895
 20
147.6714455575
 30
0.0
 11
168.0548961581
 21
147.6714455575
 31
0.0
  0
LINE
  5
1D8
330
1F
100
AcDbEntity
  8
0
  6
HIDDEN
 62
     7
370
     0
100
AcDbLine
 10
162.2205986264
 20
143.6042500843
 30
0.0
 11
168.6548961581
 21
143.6042500843
 31
0.0
  0
LINE
  5
1D9
330
1F
100
AcDbEntity
  8
0
  6
HIDDEN
 62
     7
370
     0
100
AcDbLine
 10
168.6548961581
 20
147.0506904081
 30
0.0
 11
168.6548961581
 21
143.6042500843
 31
0.0
  0
LINE
  5
1DA
330
1F
100
AcDbEntity
  8
0
  6
HIDDEN
 62
     7
370
     0
100
AcDbLine
 10
158.7948961581
 20
145.0094842755
 30
0.0
 11
158.7948961581
 21
89.7064129253
 31
0.0
  0
LINE
  5
1DB
330
1F
100
AcDbEntity
  8
0
  6
HIDDEN
 62
     7
370
     0
100
AcDbLine
 10
164.0968289895
 20
147.6714455575
 30
0.0
 11
164.0968289895
 21
87.0173323881
 31
0.0
  0
LINE
  5
1DC
330
1F
100
AcDbEntity
  8
0
  6
HIDDEN
 62
     7
370
     0
100
AcDbLine
 10
162.6148961581
 20
145.0094842755
 30
0.0
 11
162.6148961581
 21
89.7064129253
 31
0.0
  0
SPLINE
  5
1DD
330
1F
100
AcDbEntity
  8
0
  6
HIDDEN
 62
     7
370
     0
100
AcDbSpline
210
0.0
220
0.0
230
1.0
 70
     8
 71
     3
 72
    26
 73
    22
 74
     0
 42
0.00000001
 43
0.00000001
 40
0.0
 40
0.0
 40
0.0
 40
0.0
 40
0.2500000000000102
 40
0.2500000000000102
 40
0.375000000000017
 40
0.375000000000017
 40
0.4375000000000204
 40
0.4375000000000204
 40
0.4687500000000192
 40
0.4687500000000192
 40
0.5000000000000179
 40
0.5000000000000179
 40
0.5312500000000167
 40
0.5312500000000167
 40
0.5625000000000155
 40
0.5625000000000155
 40
0.6250000000000119
 40
0.6250000000000119
 40
0.7500000000000082
 40
0.7500000000000082
 40
1.0
 40
1.0
 40
1.0
 40
1.0
 10
111.6290498041559
 20
137.5943694179389
 30
0.0
 10
111.5904492812874
 20
137.4765947215834
 30
0.0
 10
111.5441522787332
 20
137.3522050354215
 30
0.0
 10
111.4502129302992
 20
137.146985703068
 30
0.0
 10
111.4149014633858
 20
137.0754128366215
 30
0.0
 10
111.3487214876401
 20
136.959459604021
 30
0.0
 10
111.3241831209719
 20
136.9188750692108
 30
0.0
 10
111.2808103754181
 20
136.8547333873391
 30
0.0
 10
111.2653019739929
 20
136.832866962054
 30
0.0
 10
111.2302593294059
 20
136.7872726937108
 30
0.0
 10
111.210709038686
 20
136.7636024027433
 30
0.0
 10
111.1687817583154
 20
136.7189858434034
 30
0.0
 10
111.1461296480837
 20
136.6981058308855
 30
0.0
 10
111.1051559339971
 20
136.6672324171347
 30
0.0
 10
111.0875566341016
 20
136.6573935473022
 30
0.0
 10
111.0429296482455
 20
136.6384039316061
 30
0.0
 10
111.0223704255922
 20
136.6380796069527
 30
0.0
 10
110.9712449860956
 20
136.647303047829
 30
0.0
 10
110.9503335731071
 20
136.6685499440459
 30
0.0
 10
110.8988836655462
 20
136.7425188228767
 30
0.0
 10
110.8812183662416
 20
136.8086369161915
 30
0.0
 10
110.8675595327748
 20
136.8788026291217
 30
0.0
  0
SPLINE
  5
1DE
330
1F
100
AcDbEntity
  8
0
  6
HIDDEN
 62
     7
370
     0
100
AcDbSpline
210
0.0
220
0.0
230
1.0
 70
     8
 71
     3
 72
    26
 73
    22
 74
     0
 42
0.00000001
 43
0.00000001
 40
0.0
 40
0.0
 40
0.0
 40
0.0
 40
0.2499999999999934
 40
0.2499999999999934
 40
0.3749999999999898
 40
0.3749999999999898
 40
0.4374999999999873
 40
0.4374999999999873
 40
0.4687499999999867
 40
0.4687499999999867
 40
0.4999999999999861
 40
0.4999999999999861
 40
0.5312499999999856
 40
0.5312499999999856
 40
0.5624999999999849
 40
0.5624999999999849
 40
0.6249999999999869
 40
0.6249999999999869
 40
0.749999999999991
 40
0.749999999999991
 40
1.0
 40
1.0
 40
1.0
 40
1.0
 10
110.83517377366
 20
97.61416252411419
 30
0.0
 10
110.8458978070525
 20
97.71712356460316
 30
0.0
 10
110.8606307976471
 20
97.8161222540842
 30
0.0
 10
110.9129843568941
 20
97.93471793414932
 30
0.0
 10
110.9346896396137
 20
97.97042823409811
 30
0.0
 10
110.9935451469791
 20
97.99540766691987
 30
0.0
 10
111.0170073808262
 20
97.99979311468344
 30
0.0
 10
111.0731287574868
 20
97.98004028123935
 30
0.0
 10
111.0959160676174
 20
97.96838389042897
 30
0.0
 10
111.1511686201486
 20
97.92660354099179
 30
0.0
 10
111.1825748528894
 20
97.89633195361583
 30
0.0
 10
111.2375086735099
 20
97.83468955470182
 30
0.0
 10
111.2619324917093
 20
97.803247902395
 30
0.0
 10
111.3053475976966
 20
97.74351306498123
 30
0.0
 10
111.3249221602648
 20
97.71434805510859
 30
0.0
 10
111.3785548442129
 20
97.63051277937551
 30
0.0
 10
111.408332192265
 20
97.57848016139928
 30
0.0
 10
111.4898662522379
 20
97.42741448743189
 30
0.0
 10
111.5331090469119
 20
97.33422344556114
 30
0.0
 10
111.6461636365667
 20
97.06983690656674
 30
0.0
 10
111.7001746340458
 20
96.91087873751685
 30
0.0
 10
111.7438057282499
 20
96.76032778137599
 30
0.0
  0
LINE
  5
1DF
330
1F
100
AcDbEntity
  8
0
  6
HIDDEN
 62
     7
370
     0
100
AcDbLine
 10
110.8048961581
 20
136.8949278308
 30
0.0
 11
110.8048961581
 21
97.5510895594
 31
0.0
  0
LINE
  5
1E0
330
1F
100
AcDbEntity
  8
0
  6
HIDDEN
 62
     7
370
     0
100
AcDbLine
 10
162.6148961581
 20
90.399854456
 30
0.0
 11
162.6148961581
 21
89.7064129253
 31
0.0
  0
SPLINE
  5
1E1
330
1F
100
AcDbEntity
  8
0
  6
HIDDEN
 62
     7
370
     0
100
AcDbSpline
210
0.0
220
0.0
230
1.0
 70
     8
 71
     3
 72
     8
 73
     4
 74
     0
 42
0.00000001
 43
0.00000001
 40
0.0
 40
0.0
 40
0.0
 40
0.0
 40
1.0
 40
1.0
 40
1.0
 40
1.0
 10
162.6148961580514
 20
89.70641292528616
 30
0.0
 10
163.1072352808326
 20
88.80914289107947
 30
0.0
 10
163.6013493288747
 20
87.91285847602722
 30
0.0
 10
164.0968289895405
 20
87.01733238809386
 30
0.0
  0
LINE
  5
1E2
330
1F
100
AcDbEntity
  8
0
  6
HIDDEN
 62
     7
370
     0
100
AcDbLine
 10
164.0968289895
 20
87.0173323881
 30
0.0
 11
168.0548961581
 21
87.0173323881
 31
0.0
  0
LINE
  5
1E3
330
1F
100
AcDbEntity
  8
0
  6
HIDDEN
 62
     7
370
     0
100
AcDbLine
 10
162.5172213557
 20
90.8042500843
 30
0.0
 11
168.6548961581
 21
90.8042500843
 31
0.0
  0
LINE
  5
1E4
330
1F
100
AcDbEntity
  8
0
  6
HIDDEN
 62
     7
370
     0
100
AcDbLine
 10
168.6548961581
 20
87.6439726837
 30
0.0
 11
168.6548961581
 21
90.8042500843
 31
0.0
  0
LINE
  5
1E5
330
1F
100
AcDbEntity
  8
0
  6
HIDDEN
 62
     7
370
     0
100
AcDbLine
 10
158.7948961581
 20
89.7064129253
 30
0.0
 11
158.7948961581
 21
90.399854456
 31
0.0
  0
SPLINE
  5
1E6
330
1F
100
AcDbEntity
  8
0
  6
HIDDEN
 62
     7
370
     0
100
AcDbSpline
210
0.0
220
0.0
230
1.0
 70
     8
 71
     3
 72
     8
 73
     4
 74
     0
 42
0.00000001
 43
0.00000001
 40
0.0
 40
0.0
 40
0.0
 40
0.0
 40
1.0
 40
1.0
 40
1.0
 40
1.0
 10
157.3129633265624
 20
87.01733238809388
 30
0.0
 10
157.8084429872281
 20
87.91285847602722
 30
0.0
 10
158.3025570352702
 20
88.80914289107947
 30
0.0
 10
158.7948961580514
 20
89.70641292528617
 30
0.0
  0
LINE
  5
1E7
330
1F
100
AcDbEntity
  8
0
  6
HIDDEN
 62
     7
370
     0
100
AcDbLine
 10
155.6548961581
 20
90.8042500843
 30
0.0
 11
158.8925709604
 21
90.8042500843
 31
0.0
  0
ARC
  5
1E8
330
1F
100
AcDbEntity
  8
0
  6
HIDDEN
 62
     7
370
     0
100
AcDbCircle
 10
149.7048961581
 20
117.2042500843
 30
0.0
 40
5.000000000000004
100
AcDbArc
 50
306.157008201
 51
53.842991799
  0
SPLINE
  5
1E9
330
1F
100
AcDbEntity
  8
0
  6
HIDDEN
 62
     7
370
     0
100
AcDbSpline
210
0.0
220
0.0
230
1.0
 70
    24
 71
     3
 72
    10
 73
     6
 74
     0
 42
0.00000001
 43
0.00000001
 40
0.0
 40
0.0
 40
0.0
 40
0.0
 40
0.499999999999999
 40
0.499999999999999
 40
1.0
 40
1.0
 40
1.0
 40
1.0
 10
152.6548961580515
 20
113.5453568090459
 30
0.0
 10
152.6548961580515
 20
113.4556386801999
 30
0.0
 10
152.6548961580515
 20
113.3665699556414
 30
0.0
 10
152.6548961580515
 20
113.2203333358812
 30
0.0
 10
152.6548961580515
 20
113.1672338594536
 30
0.0
 10
152.6548961580515
 20
113.1672338594535
 30
0.0
  0
SPLINE
  5
1EA
330
1F
100
AcDbEntity
  8
0
  6
HIDDEN
 62
     7
370
     0
100
AcDbSpline
210
0.0
220
0.0
230
1.0
 70
    24
 71
     3
 72
    10
 73
     6
 74
     0
 42
0.00000001
 43
0.00000001
 40
0.0
 40
0.0
 40
0.0
 40
0.0
 40
0.500000000000001
 40
0.500000000000001
 40
1.0
 40
1.0
 40
1.0
 40
1.0
 10
152.6548961580514
 20
121.2412663092279
 30
0.0
 10
152.6548961580514
 20
121.2412663092279
 30
0.0
 10
152.6548961580515
 20
121.1886710654275
 30
0.0
 10
152.6548961580515
 20
121.0421469707164
 30
0.0
 10
152.6548961580515
 20
120.952756940662
 30
0.0
 10
152.6548961580515
 20
120.8631433596362
 30
0.0
  0
LINE
  5
1EB
330
1F
100
AcDbEntity
  8
0
  6
HIDDEN
 62
     7
370
     0
100
AcDbLine
 10
152.6548961581
 20
120.8631433596
 30
0.0
 11
152.6548961581
 21
113.545356809
 31
0.0
  0
LWPOLYLINE
  5
1EC
330
1F
100
AcDbEntity
  8
0
  6
HIDDEN
 62
     7
370
     0
100
AcDbPolyline
 90
        2
 70
   128
 43
0.0
 10
152.6548961581
 20
113.1672338595
 10
152.6548961581
 20
113.1672338595
  0
LWPOLYLINE
  5
1ED
330
1F
100
AcDbEntity
  8
0
  6
HIDDEN
 62
     7
370
     0
100
AcDbPolyline
 90
        2
 70
   128
 43
0.0
 10
152.6548961581
 20
121.2412663092
 10
152.6548961581
 20
121.2412663092
  0
LWPOLYLINE
  5
1EE
330
1F
100
AcDbEntity
  8
0
  6
HIDDEN
 62
     7
370
     0
100
AcDbPolyline
 90
       23
 70
   128
 43
0.0
 10
240.7048961581
 20
120.1307827557
 10
241.4092275502
 20
120.2246764079
 10
242.0564982017
 20
120.4987506591
 10
242.5942700939
 20
120.9308016434
 10
242.9789761464
 20
121.4858271597
 10
243.1794497628
 20
122.1188623414
 10
243.1794497628
 20
122.7786224429
 10
242.9789761464
 20
123.4116576247
 10
242.5942700939
 20
123.9666831409
 10
242.0564982017
 20
124.3987341253
 10
241.4092275502
 20
124.6728083764
 10
240.7048961581
 20
124.7667020286
 10
240.0005647659
 20
124.6728083764
 10
239.3532941144
 20
124.3987341253
 10
238.8155222222
 20
123.9666831409
 10
238.4308161697
 20
123.4116576247
 10
238.2303425533
 20
122.7786224429
 10
238.2303425533
 20
122.1188623414
 10
238.4308161697
 20
121.4858271597
 10
238.8155222222
 20
120.9308016434
 10
239.3532941144
 20
120.4987506591
 10
240.0005647659
 20
120.2246764079
 10
240.7048961581
 20
120.1307827557
  0
SPLINE
  5
1EF
330
1F
100
AcDbEntity
  8
0
  6
HIDDEN
 62
     7
370
     0
100
AcDbSpline
210
0.0
220
0.0
230
1.0
 70
     8
 71
     3
 72
    10
 73
     6
 74
     0
 42
0.00000001
 43
0.00000001
 40
0.0
 40
0.0
 40
0.0
 40
0.0
 40
0.5
 40
0.5
 40
1.0
 40
1.0
 40
1.0
 40
1.0
 10
274.3222010247313
 20
97.18015375580708
 30
0.0
 10
274.5846030511162
 20
97.16296499822313
 30
0.0
 10
274.8590308407519
 20
97.13076210185729
 30
0.0
 10
275.4066632849559
 20
96.95863311731237
 30
0.0
 10
275.6540112649117
 20
96.82669237909676
 30
0.0
 10
275.8833939925937
 20
96.6891105812195
 30
0.0
  0
LINE
  5
1F0
330
1F
100
AcDbEntity
  8
0
  6
HIDDEN
 62
     7
370
     0
100
AcDbLine
 10
278.3417053355
 20
103.985562403
 30
0.0
 11
278.1415860131
 21
103.3280014726
 31
0.0
  0
ELLIPSE
  5
1F1
330
1F
100
AcDbEntity
  8
0
  6
HIDDEN
 62
     7
370
     0
100
AcDbEllipse
 10
1214.7716988313
 20
-176.2703667444
 30
0.0
 11
-1136.916981765714
 21
357.5953360417699
 31
1.207922650792170E-13
210
9.668086034886818E-17
220
-3.040910224734893E-17
230
0.9999999999999999
 40
0.0209761762
 41
0.5851972803257247
 42
0.6092743722835283
  0
SPLINE
  5
1F2
330
1F
100
AcDbEntity
  8
0
  6
HIDDEN
 62
     7
370
     0
100
AcDbSpline
210
0.0
220
0.0
230
1.0
 70
     8
 71
     3
 72
    16
 73
    12
 74
     0
 42
0.00000001
 43
0.00000001
 40
0.0
 40
0.0
 40
0.0
 40
0.0
 40
0.2499999999999947
 40
0.2499999999999947
 40
0.3749999999999921
 40
0.3749999999999921
 40
0.4999999999999895
 40
0.4999999999999895
 40
0.7499999999999947
 40
0.7499999999999947
 40
1.0
 40
1.0
 40
1.0
 40
1.0
 10
262.8908707722272
 20
108.6493577859882
 30
0.0
 10
262.5799310745721
 20
108.7580836555188
 30
0.0
 10
262.2610466827842
 20
108.8180548236527
 30
0.0
 10
261.7719369277227
 20
108.8418378381452
 30
0.0
 10
261.6066275307473
 20
108.8384986284632
 30
0.0
 10
261.282047421275
 20
108.8118227261122
 30
0.0
 10
261.1215528186739
 20
108.7886216502717
 30
0.0
 10
260.6447495699309
 20
108.693306271133
 30
0.0
 10
260.3303145391073
 20
108.5944165066243
 30
0.0
 10
259.7277843409327
 20
108.3486632893997
 30
0.0
 10
259.439344235871
 20
108.2024195516242
 30
0.0
 10
259.1607874041675
 20
108.0381684974591
 30
0.0
  0
LINE
  5
1F3
330
1F
100
AcDbEntity
  8
0
  6
HIDDEN
 62
     7
370
     0
100
AcDbLine
 10
142.7048961581
 20
91.8803261632
 30
0.0
 11
142.7990569993
 21
92.550315362
 31
0.0
  0
LINE
  5
1F4
330
1F
100
AcDbEntity
  8
0
  6
HIDDEN
 62
     7
370
     0
100
AcDbLine
 10
142.7990569993
 20
141.8581848066
 30
0.0
 11
142.7048961581
 21
142.5281740055
 31
0.0
  0
ARC
  5
1F5
330
1F
100
AcDbEntity
  8
0
  6
HIDDEN
 62
     7
370
     0
100
AcDbCircle
 10
142.2048961581
 20
92.6338192226
 30
0.0
 40
0.5999999999999659
100
AcDbArc
 50
352.0
 51
0.0
  0
ARC
  5
1F6
330
1F
100
AcDbEntity
  8
0
  6
HIDDEN
 62
     7
370
     0
100
AcDbCircle
 10
142.2048961581
 20
92.6338192226
 30
0.0
 40
0.5999999999999862
100
AcDbArc
 50
0.0
 51
33.5573097619
  0
ARC
  5
1F7
330
1F
100
AcDbEntity
  8
0
  6
HIDDEN
 62
     7
370
     0
100
AcDbCircle
 10
142.2048961581
 20
141.7746809461
 30
0.0
 40
0.5999999999999701
100
AcDbArc
 50
348.75
 51
8.0
  0
LWPOLYLINE
  5
1F8
330
1F
100
AcDbEntity
  8
0
  6
HIDDEN
 62
     7
370
     0
100
AcDbPolyline
 90
        3
 70
   128
 43
0.0
 10
142.7933673263
 20
141.6576267529
 10
142.7592238776
 20
141.5450708866
 10
142.7048961581
 20
141.443018467
  0
LINE
  5
1F9
330
1F
100
AcDbEntity
  8
0
  6
HIDDEN
 62
     7
370
     0
100
AcDbLine
 10
142.8048961581
 20
92.6338192226
 30
0.0
 11
142.8048961581
 21
141.7746809461
 31
0.0
  0
LINE
  5
1FA
330
1F
100
AcDbEntity
  8
0
  6
HIDDEN
 62
     7
370
     0
100
AcDbLine
 10
142.8048961581
 20
92.6338192226
 30
0.0
 11
142.8048961581
 21
141.7746809461
 31
0.0
  0
ARC
  5
1FB
330
1F
100
AcDbEntity
  8
0
  6
HIDDEN
 62
     7
370
     0
100
AcDbCircle
 10
125.7873317233
 20
97.8042500843
 30
0.0
 40
0.6000000000000085
100
AcDbArc
 50
210.0
 51
270.0
  0
ARC
  5
1FC
330
1F
100
AcDbEntity
  8
0
  6
HIDDEN
 62
     7
370
     0
100
AcDbCircle
 10
125.7873317233
 20
136.6042500843
 30
0.0
 40
0.6000000000000032
100
AcDbArc
 50
90.0
 51
150.0
  0
ARC
  5
1FD
330
1F
100
AcDbEntity
  8
0
  6
HIDDEN
 62
     7
370
     0
100
AcDbCircle
 10
136.4598981597
 20
105.2042500843
 30
0.0
 40
7.999999999999989
100
AcDbArc
 50
277.1326612949
 51
321.3178125465
  0
ARC
  5
1FE
330
1F
100
AcDbEntity
  8
0
  6
HIDDEN
 62
     7
370
     0
100
AcDbCircle
 10
136.4598981597
 20
129.2042500843
 30
0.0
 40
7.999999999999975
100
AcDbArc
 50
38.6821874535
 51
82.8685341
  0
LINE
  5
1FF
330
1F
100
AcDbEntity
  8
0
  6
HIDDEN
 62
     7
370
     0
100
AcDbLine
 10
125.7873317233
 20
97.2042500843
 30
0.0
 11
129.9649186172
 21
97.2042500843
 31
0.0
  0
LINE
  5
200
330
1F
100
AcDbEntity
  8
0
  6
HIDDEN
 62
     7
370
     0
100
AcDbLine
 10
129.9580135392
 20
137.2042500843
 30
0.0
 11
125.7873317233
 21
137.2042500843
 31
0.0
  0
LINE
  5
201
330
1F
100
AcDbEntity
  8
0
  6
HIDDEN
 62
     7
370
     0
100
AcDbLine
 10
125.2677164811
 20
136.9042500843
 30
0.0
 11
123.7088707543
 21
134.2042500843
 31
0.0
  0
LINE
  5
202
330
1F
100
AcDbEntity
  8
0
  6
HIDDEN
 62
     7
370
     0
100
AcDbLine
 10
123.7088707543
 20
100.2042500843
 30
0.0
 11
125.2677164811
 21
97.5042500843
 31
0.0
  0
ARC
  5
203
330
1F
100
AcDbEntity
  8
0
  6
HIDDEN
 62
     7
370
     0
100
AcDbCircle
 10
151.1548961581
 20
101.4792500843
 30
0.0
 40
1.500000000000004
100
AcDbArc
 50
238.2116693829
 51
0.0
  0
ARC
  5
204
330
1F
100
AcDbEntity
  8
0
  6
HIDDEN
 62
     7
370
     0
100
AcDbCircle
 10
151.1548961581
 20
132.9292500843
 30
0.0
 40
1.500000000000016
100
AcDbArc
 50
0.0
 51
121.7883306171
  0
LINE
  5
205
330
1F
100
AcDbEntity
  8
0
  6
HIDDEN
 62
     7
370
     0
100
AcDbLine
 10
120.9048961581
 20
100.2042500843
 30
0.0
 11
123.7088707543
 21
100.2042500843
 31
0.0
  0
LINE
  5
206
330
1F
100
AcDbEntity
  8
0
  6
HIDDEN
 62
     7
370
     0
100
AcDbLine
 10
123.7088707543
 20
134.2042500843
 30
0.0
 11
116.9048961581
 21
134.2042500843
 31
0.0
  0
LINE
  5
207
330
1F
100
AcDbEntity
  8
0
  6
HIDDEN
 62
     7
370
     0
100
AcDbLine
 10
142.7048961581
 20
100.2042500843
 30
0.0
 11
150.3647221266
 21
100.2042500843
 31
0.0
  0
LINE
  5
208
330
1F
100
AcDbEntity
  8
0
  6
HIDDEN
 62
     7
370
     0
100
AcDbLine
 10
150.3647221266
 20
134.2042500843
 30
0.0
 11
142.7048961581
 21
134.2042500843
 31
0.0
  0
LINE
  5
209
330
1F
100
AcDbEntity
  8
0
  6
HIDDEN
 62
     7
370
     0
100
AcDbLine
 10
242.8048961581
 20
113.424809182
 30
0.0
 11
242.8048961581
 21
115.6311593742
 31
0.0
  0
LINE
  5
20A
330
1F
100
AcDbEntity
  8
0
  6
HIDDEN
 62
     7
370
     0
100
AcDbLine
 10
242.8048961581
 20
111.9597577765
 30
0.0
 11
242.8048961581
 21
112.0223670912
 31
0.0
  0
LINE
  5
20B
330
1F
100
AcDbEntity
  8
0
  6
HIDDEN
 62
     7
370
     0
100
AcDbLine
 10
238.6048961581
 20
115.631208782
 30
0.0
 11
238.6048961581
 21
111.9597577765
 31
0.0
  0
LINE
  5
20C
330
1F
100
AcDbEntity
  8
0
  6
HIDDEN
 62
     7
370
     0
100
AcDbLine
 10
247.40784485
 20
111.5681118504
 30
0.0
 11
241.7527820749
 21
114.6722520899
 31
0.0
  0
LINE
  5
20D
330
1F
100
AcDbEntity
  8
0
  6
HIDDEN
 62
     7
370
     0
100
AcDbLine
 10
240.5988119813
 20
110.5145402052
 30
0.0
 11
247.4527887828
 21
106.7522998843
 31
0.0
  0
LINE
  5
20E
330
1F
100
AcDbEntity
  8
0
  6
HIDDEN
 62
     7
370
     0
100
AcDbLine
 10
162.0048961581
 20
107.7042500843
 30
0.0
 11
164.5048961581
 21
107.7042500843
 31
0.0
  0
LINE
  5
20F
330
1F
100
AcDbEntity
  8
0
  6
HIDDEN
 62
     7
370
     0
100
AcDbLine
 10
164.5048961581
 20
126.7042500843
 30
0.0
 11
162.0048961581
 21
126.7042500843
 31
0.0
  0
LINE
  5
210
330
1F
100
AcDbEntity
  8
0
  6
HIDDEN
 62
     7
370
     0
100
AcDbLine
 10
152.6548961581
 20
108.2042500843
 30
0.0
 11
153.1548961581
 21
108.7042500843
 31
0.0
  0
LINE
  5
211
330
1F
100
AcDbEntity
  8
0
  6
HIDDEN
 62
     7
370
     0
100
AcDbLine
 10
153.1548961581
 20
125.7042500843
 30
0.0
 11
152.6548961581
 21
126.2042500843
 31
0.0
  0
LINE
  5
212
330
1F
100
AcDbEntity
  8
0
  6
HIDDEN
 62
     7
370
     0
100
AcDbLine
 10
153.1548961581
 20
108.7042500843
 30
0.0
 11
162.0048961581
 21
108.7042500843
 31
0.0
  0
LINE
  5
213
330
1F
100
AcDbEntity
  8
0
  6
HIDDEN
 62
     7
370
     0
100
AcDbLine
 10
162.0048961581
 20
125.7042500843
 30
0.0
 11
153.1548961581
 21
125.7042500843
 31
0.0
  0
LINE
  5
214
330
1F
100
AcDbEntity
  8
0
  6
HIDDEN
 62
     7
370
     0
100
AcDbLine
 10
147.6548961581
 20
148.7042500843
 30
0.0
 11
147.6548961581
 21
143.6042500843
 31
0.0
  0
LINE
  5
215
330
1F
100
AcDbEntity
  8
0
  6
HIDDEN
 62
     7
370
     0
100
AcDbLine
 10
137.8893339885
 20
93.1248787508
 30
0.0
 11
137.454901839
 21
93.6039447699
 31
0.0
  0
LINE
  5
216
330
1F
100
AcDbEntity
  8
0
  6
HIDDEN
 62
     7
370
     0
100
AcDbLine
 10
129.954898514
 20
94.025632729
 30
0.0
 11
129.4724647706
 21
93.5465667536
 31
0.0
  0
LINE
  5
217
330
1F
100
AcDbEntity
  8
0
  6
HIDDEN
 62
     7
370
     0
100
AcDbLine
 10
129.4723428424
 20
140.8619281247
 30
0.0
 11
129.9548935933
 21
140.3828078668
 31
0.0
  0
LINE
  5
218
330
1F
100
AcDbEntity
  8
0
  6
HIDDEN
 62
     7
370
     0
100
AcDbLine
 10
137.4548960401
 20
140.8045056444
 30
0.0
 11
137.8894384304
 21
141.283625895
 31
0.0
  0
LINE
  5
219
330
1F
100
AcDbEntity
  8
0
  6
HIDDEN
 62
     7
370
     0
100
AcDbLine
 10
164.5048961581
 20
113.0042500843
 30
0.0
 11
243.7048961581
 21
113.0042500843
 31
0.0
  0
LINE
  5
21A
330
1F
100
AcDbEntity
  8
0
  6
HIDDEN
 62
     7
370
     0
100
AcDbLine
 10
243.7048961581
 20
121.4042500843
 30
0.0
 11
164.5048961581
 21
121.4042500843
 31
0.0
  0
LINE
  5
21B
330
1F
100
AcDbEntity
  8
0
  6
HIDDEN
 62
     7
370
     0
100
AcDbLine
 10
243.7048961581
 20
113.0042500843
 30
0.0
 11
246.228510758
 21
117.2042500843
 31
0.0
  0
LINE
  5
21C
330
1F
100
AcDbEntity
  8
0
  6
HIDDEN
 62
     7
370
     0
100
AcDbLine
 10
246.228510758
 20
117.2042500843
 30
0.0
 11
243.7048961581
 21
121.4042500843
 31
0.0
  0
LINE
  5
21D
330
1F
100
AcDbEntity
  8
0
  6
HIDDEN
 62
     7
370
     0
100
AcDbLine
 10
137.4548961581
 20
137.142086275
 30
0.0
 11
137.4548961581
 21
140.8039522228
 31
0.0
  0
LINE
  5
21E
330
1F
100
AcDbEntity
  8
0
  6
HIDDEN
 62
     7
370
     0
100
AcDbLine
 10
129.9548961581
 20
140.3825526755
 30
0.0
 11
129.9548961581
 21
137.2036658231
 31
0.0
  0
LINE
  5
21F
330
1F
100
AcDbEntity
  8
0
  6
HIDDEN
 62
     7
370
     0
100
AcDbLine
 10
137.4548961581
 20
93.6044286716
 30
0.0
 11
137.4548961581
 21
97.2664138937
 31
0.0
  0
LINE
  5
220
330
1F
100
AcDbEntity
  8
0
  6
HIDDEN
 62
     7
370
     0
100
AcDbLine
 10
129.9548961581
 20
97.2061216316
 30
0.0
 11
129.9548961581
 21
94.0259559668
 31
0.0
  0
LINE
  5
221
330
1F
100
AcDbEntity
  8
0
  6
HIDDEN
 62
     7
370
     0
100
AcDbLine
 10
268.5129132035
 20
105.4429021751
 30
0.0
 11
268.5129132035
 21
105.3382674645
 31
0.0
  0
LINE
  5
222
330
1F
100
AcDbEntity
  8
0
  6
HIDDEN
 62
     7
370
     0
100
AcDbLine
 10
242.8048961581
 20
118.7772913867
 30
0.0
 11
242.8048961581
 21
122.3587078523
 31
0.0
  0
LINE
  5
223
330
1F
100
AcDbEntity
  8
0
  6
HIDDEN
 62
     7
370
     0
100
AcDbLine
 10
238.6048961581
 20
122.3587078523
 30
0.0
 11
238.6048961581
 21
118.7773407944
 31
0.0
  0
LINE
  5
224
330
1F
100
AcDbEntity
  8
0
  6
HIDDEN
 62
     7
370
     0
100
AcDbLine
 10
277.1836149538
 20
97.6873129641
 30
0.0
 11
277.1836149538
 21
98.2976821093
 31
0.0
  0
LINE
  5
225
330
1F
100
AcDbEntity
  8
0
  6
HIDDEN
 62
     7
370
     0
100
AcDbLine
 10
273.8836149538
 20
98.2976821093
 30
0.0
 11
273.8836149538
 21
97.6873129641
 31
0.0
  0
ARC
  5
226
330
1F
100
AcDbEntity
  8
0
  6
HIDDEN
 62
     7
370
     0
100
AcDbCircle
 10
115.5048961581
 20
139.4742500843
 30
0.0
 40
1.400000000000034
100
AcDbArc
 50
270.0
 51
302.5610026528
  0
ARC
  5
227
330
1F
100
AcDbEntity
  8
0
  6
HIDDEN
 62
     7
370
     0
100
AcDbCircle
 10
119.5048961581
 20
94.9917500843
 30
0.0
 40
1.399999999999991
100
AcDbArc
 50
37.6443616934
 51
90.0
  0
LINE
  5
228
330
1F
100
AcDbEntity
  8
0
  6
HIDDEN
 62
     7
370
     0
100
AcDbLine
 10
111.9460596162
 20
138.0654135425
 30
0.0
 11
110.8160637772
 21
136.9354177035
 31
0.0
  0
LINE
  5
229
330
1F
100
AcDbEntity
  8
0
  6
HIDDEN
 62
     7
370
     0
100
AcDbLine
 10
115.5048961581
 20
138.0742500843
 30
0.0
 11
112.0957845595
 21
138.0742500843
 31
0.0
  0
LINE
  5
22A
330
1F
100
AcDbEntity
  8
0
  6
HIDDEN
 62
     7
370
     0
100
AcDbLine
 10
111.9548961581
 20
96.3917500843
 30
0.0
 11
119.5048961581
 21
96.3917500843
 31
0.0
  0
LINE
  5
22B
330
1F
100
AcDbEntity
  8
0
  6
HIDDEN
 62
     7
370
     0
100
AcDbLine
 10
110.8068450019
 20
97.5398012405
 30
0.0
 11
111.9548961581
 21
96.3917500843
 31
0.0
  0
LINE
  5
22C
330
1F
100
AcDbEntity
  8
0
  6
HIDDEN
 62
     7
370
     0
100
AcDbLine
 10
243.2048961581
 20
122.4487423922
 30
0.0
 11
243.2048961581
 21
124.696367531
 31
0.0
  0
LINE
  5
22D
330
1F
100
AcDbEntity
  8
0
  6
HIDDEN
 62
     7
370
     0
100
AcDbLine
 10
238.2048961581
 20
124.6959983504
 30
0.0
 11
238.2048961581
 21
122.4487423922
 31
0.0
  0
LINE
  5
22E
330
1F
100
AcDbEntity
  8
VERMASSUNG
100
AcDbLine
 10
282.7048961581
 20
117.2042500843
 30
0.0
 11
282.7048961581
 21
90.2042500843
 31
0.0
  0
DIMENSION
  5
22F
330
1F
100
AcDbEntity
  8
VERMASSUNG
100
AcDbDimension
  2
*D1
 10
287.8664159576
 20
117.2042500843
 30
0.0
 11
287.8664159576
 21
103.7042500843
 31
0.0
 70
   160
 71
     2
 42
-1.0
  3
SLDDIMSTYLE0
100
AcDbAlignedDimension
 13
282.7048961581
 23
90.2042500843
 33
0.0
 14
276.9539024277
 24
117.2042500843
 34
0.0
 50
90.0
100
AcDbRotatedDimension
  0
DIMENSION
  5
23A
330
1F
100
AcDbEntity
  8
VERMASSUNG
100
AcDbDimension
  2
*D2
 10
274.1798596525
 20
117.2042500843
 30
0.0
 11
277.266379145
 21
125.5171715614
 31
0.0
 70
   162
 71
     1
 42
-1.0
  3
SLDDIMSTYLE1
100
AcDb2LineAngularDimension
 13
282.7048961581
 23
117.2042500843
 33
0.0
 14
282.7048961581
 24
90.2042500843
 34
0.0
 15
278.3397021224
 25
103.9786985494
 35
0.0
 16
277.266379145
 26
125.5171715614
 36
0.0
  0
DIMENSION
  5
245
330
1F
100
AcDbEntity
  8
VERMASSUNG
100
AcDbDimension
  2
*D3
 10
142.7048961581
 20
153.8873193774
 30
0.0
 11
212.7048961581
 21
153.8873193774
 31
0.0
 70
   160
 71
     2
 42
-1.0
  3
SLDDIMSTYLE0
100
AcDbAlignedDimension
 13
282.7048961581
 23
117.2042500843
 33
0.0
 14
142.7048961581
 24
148.4042500843
 34
0.0
100
AcDbRotatedDimension
  0
DIMENSION
  5
24F
330
1F
100
AcDbEntity
  8
VERMASSUNG
100
AcDbDimension
  2
*D4
 10
110.8048961581
 20
159.8873193774
 30
0.0
 11
196.7548961581
 21
159.8873193774
 31
0.0
 70
   160
 71
     2
 42
-1.0
  3
SLDDIMSTYLE0
100
AcDbAlignedDimension
 13
282.7048961581
 23
117.2042500843
 33
0.0
 14
110.8048961581
 24
136.8949278308
 34
0.0
100
AcDbRotatedDimension
  0
DIMENSION
  5
259
330
1F
100
AcDbEntity
  8
VERMASSUNG
100
AcDbDimension
  2
*D5
 10
105.9778473297
 20
85.7042500843
 30
0.0
 11
105.9778473297
 21
117.2042500843
 31
0.0
 70
   160
  1
HSK %%c<>
 71
     2
 42
-1.0
  3
SLDDIMSTYLE0
100
AcDbAlignedDimension
 13
143.0048961581
 23
148.7042500843
 33
0.0
 14
143.0048961581
 24
85.7042500843
 34
0.0
 50
90.0
100
AcDbRotatedDimension
  0
LINE
  5
265
330
1F
100
AcDbEntity
  8
VERMASSUNG
  6
CENTERX2
370
     0
100
AcDbLine
 10
108.905519506
 20
117.2042500843
 30
0.0
 11
276.9539024277
 21
117.2042500843
 31
0.0
  0
LINE
  5
266
330
1F
100
AcDbEntity
  8
0
  6
Continuous
 62
     7
370
    15
100
AcDbLine
 10
60.3347141396
 20
91.1952067231
 30
0.0
 11
59.6564353808
 21
100.895044881
 31
0.0
  0
LINE
  5
267
330
1F
100
AcDbEntity
  8
0
  6
Continuous
 62
     7
370
    15
100
AcDbLine
 10
56.3885993886
 20
90.7149962936
 30
0.0
 11
55.6793114153
 21
100.8582868799
 31
0.0
  0
SPLINE
  5
268
330
1F
100
AcDbEntity
  8
0
  6
Continuous
 62
     7
370
    15
100
AcDbSpline
210
0.0
220
0.0
230
1.0
 70
     8
 71
     3
 72
    10
 73
     6
 74
     0
 42
0.00000001
 43
0.00000001
 40
0.0
 40
0.0
 40
0.0
 40
0.0
 40
0.2780943328767276
 40
0.5601464184569049
 40
1.0
 40
1.0
 40
1.0
 40
1.0
 10
60.34339932609817
 20
91.0710027692126
 30
0.0
 10
59.98372786136942
 20
90.98339375870313
 30
0.0
 10
59.25926619864913
 20
90.80692891328972
 30
0.0
 10
57.93953310658299
 20
90.55880233718122
 30
0.0
 10
56.9973019529955
 20
90.34834295540344
 30
0.0
 10
56.42320513339515
 20
90.22011108653172
 30
0.0
  0
SPLINE
  5
269
330
1F
100
AcDbEntity
  8
0
  6
Continuous
 62
     7
370
    15
100
AcDbSpline
210
0.0
220
0.0
230
1.0
 70
    24
 71
     3
 72
    14
 73
    10
 74
     0
 42
0.00000001
 43
0.00000001
 40
0.0
 40
0.0
 40
0.0
 40
0.0
 40
0.1583203796596005
 40
0.3168008057738607
 40
0.4713744813487929
 40
0.6221259069004159
 40
0.7721262731739783
 40
0.9245922366696805
 40
1.0
 40
1.0
 40
1.0
 40
1.0
 10
60.33471413956887
 20
91.19520672314525
 30
0.0
 10
60.33550160559987
 20
91.18394543424344
 30
0.0
 10
60.33707733371318
 20
91.16141147237562
 30
0.0
 10
60.33946633103371
 20
91.1272472190219
 30
0.0
 10
60.34149860855221
 20
91.0981842964847
 30
0.0
 10
60.34297053660547
 20
91.07713474464208
 30
0.0
 10
60.34374463763398
 20
91.0660645841841
 30
0.0
 10
60.34379031385077
 20
91.06541138385212
 30
0.0
 10
60.34349654110426
 20
91.06961252985532
 30
0.0
 10
60.34339932609816
 20
91.0710027692126
 30
0.0
  0
SPLINE
  5
26A
330
1F
100
AcDbEntity
  8
0
  6
Continuous
 62
     7
370
    15
100
AcDbSpline
210
0.0
220
0.0
230
1.0
 70
    24
 71
     3
 72
    20
 73
    16
 74
     0
 42
0.00000001
 43
0.00000001
 40
0.0
 40
0.0
 40
0.0
 40
0.0
 40
0.078307531186035
 40
0.1588910126856531
 40
0.2369785693217652
 40
0.3174398160757201
 40
0.3936615824745018
 40
0.4721830276909851
 40
0.5469240757152941
 40
0.6238523130449547
 40
0.6983189620749435
 40
0.7748908420225609
 40
0.8503894607879795
 40
0.9279814901989367
 40
1.0
 40
1.0
 40
1.0
 40
1.0
 10
56.42320513339504
 20
90.22011108653169
 30
0.0
 10
56.42360739272871
 20
90.21435851005212
 30
0.0
 10
56.42442360276524
 20
90.20268616272428
 30
0.0
 10
56.4246379442513
 20
90.19962093666743
 30
0.0
 10
56.42408484209054
 20
90.20753066607337
 30
0.0
 10
56.42272373570302
 20
90.22699539426178
 30
0.0
 10
56.42060109233987
 20
90.25735060858148
 30
0.0
 10
56.41784680098533
 20
90.29673881001052
 30
0.0
 10
56.41448795299043
 20
90.34477257419854
 30
0.0
 10
56.41070058921495
 20
90.39893439954393
 30
0.0
 10
56.40650661650117
 20
90.4589110036092
 30
0.0
 10
56.40208080447307
 20
90.52220306434793
 30
0.0
 10
56.3974645798184
 20
90.58821815247268
 30
0.0
 10
56.39291431929046
 20
90.65328990969024
 30
0.0
 10
56.39000152824715
 20
90.69494476227277
 30
0.0
 10
56.38859938858904
 20
90.71499629356714
 30
0.0
  0
SPLINE
  5
26B
330
1F
100
AcDbEntity
  8
0
  6
Continuous
 62
     7
370
    15
100
AcDbSpline
210
0.0
220
0.0
230
1.0
 70
    24
 71
     3
 72
    10
 73
     6
 74
     0
 42
0.00000001
 43
0.00000001
 40
0.0
 40
0.0
 40
0.0
 40
0.0
 40
0.265712295724532
 40
0.616515762167983
 40
1.0
 40
1.0
 40
1.0
 40
1.0
 10
59.65191415888622
 20
100.9597013669773
 30
0.0
 10
59.65213337998853
 20
100.956566359155
 30
0.0
 10
59.65264202511766
 20
100.9492923949158
 30
0.0
 10
59.65415811854393
 20
100.9276112488208
 30
0.0
 10
59.65565409963512
 20
100.9062177225081
 30
0.0
 10
59.65643538082126
 20
100.8950448810117
 30
0.0
  0
SPLINE
  5
26C
330
1F
100
AcDbEntity
  8
0
  6
Continuous
 62
     7
370
    15
100
AcDbSpline
210
0.0
220
0.0
230
1.0
 70
    24
 71
     3
 72
    10
 73
     6
 74
     0
 42
0.00000001
 43
0.00000001
 40
0.0
 40
0.0
 40
0.0
 40
0.0
 40
0.3518022785811279
 40
0.7034245935034711
 40
1.0
 40
1.0
 40
1.0
 40
1.0
 10
55.6793114152718
 20
100.8582868798766
 30
0.0
 10
55.67643925820792
 20
100.8993606394841
 30
0.0
 10
55.67069641332559
 20
100.9814871475105
 30
0.0
 10
55.66441388791667
 20
101.0713314466326
 30
0.0
 10
55.66222737441125
 20
101.1026000465394
 30
0.0
 10
55.66122696032424
 20
101.1169066345163
 30
0.0
  0
LINE
  5
26D
330
1F
100
AcDbEntity
  8
0
  6
Continuous
 62
     7
370
    15
100
AcDbLine
 10
55.7398723596
 20
104.2929011347
 30
0.0
 11
55.4375893214
 21
104.3150738716
 31
0.0
  0
LINE
  5
26E
330
1F
100
AcDbEntity
  8
0
  6
Continuous
 62
     7
370
    15
100
AcDbLine
 10
55.6612269603
 20
101.1169066345
 30
0.0
 11
55.4375893214
 21
104.3150738716
 31
0.0
  0
LINE
  5
26F
330
1F
100
AcDbEntity
  8
0
  6
Continuous
 62
     7
370
    15
100
AcDbLine
 10
55.6793114152
 20
100.8582868799
 30
0.0
 11
55.6612269603
 21
101.1169066345
 31
0.0
  0
SPLINE
  5
270
330
1F
100
AcDbEntity
  8
0
  6
Continuous
 62
     7
370
    15
100
AcDbSpline
210
0.0
220
0.0
230
1.0
 70
     8
 71
     3
 72
    29
 73
    25
 74
     0
 42
0.00000001
 43
0.00000001
 40
0.0
 40
0.0
 40
0.0
 40
0.0
 40
0.019583224846073
 40
0.0391820881203508
 40
0.0588058383659236
 40
0.0784636889997558
 40
0.0981648055967472
 40
0.1179182935059532
 40
0.1377331858794878
 40
0.1576184321881229
 40
0.1775828872901319
 40
0.1976353011116622
 40
0.217784308988091
 40
0.2380384227066322
 40
0.3588927823329514
 40
0.4822651694561276
 40
0.6079289973671056
 40
0.7357230308276332
 40
0.7794195270203875
 40
0.8231854170274813
 40
0.8670739427913473
 40
0.9111379017188084
 40
0.9554294638499775
 40
1.0
 40
1.0
 40
1.0
 40
1.0
 10
60.29814364016747
 20
91.7270869972893
 30
0.0
 10
60.437444950608
 20
91.75120036136244
 30
0.0
 10
60.71615881228619
 20
91.79944634553601
 30
0.0
 10
61.13231967535898
 20
91.88282935146921
 30
0.0
 10
61.54719267503511
 20
91.97429204066616
 30
0.0
 10
61.96063763993102
 20
92.07462633988698
 30
0.0
 10
62.37269189787764
 20
92.18361943842434
 30
0.0
 10
62.78334511305768
 20
92.30132832250666
 30
0.0
 10
63.19259982723899
 20
92.42773749667732
 30
0.0
 10
63.60045496357994
 20
92.56285076365629
 30
0.0
 10
64.0069111112534
 20
92.70666737639776
 30
0.0
 10
64.4119659274167
 20
92.8591853221758
 30
0.0
 10
64.81562731279446
 20
93.02041222924633
 30
0.0
 10
65.88298068034366
 20
93.47126411936999
 30
0.0
 10
67.58000001781822
 20
94.32856877901567
 30
0.0
 10
69.79064724704259
 20
95.78208038031282
 30
0.0
 10
71.85991504441051
 20
97.4888837781998
 30
0.0
 10
73.3303538848426
 20
98.9950121622062
 30
0.0
 10
74.31309369643553
 20
100.1504406697461
 30
0.0
 10
74.88673467990279
 20
100.8749982555833
 30
0.0
 10
75.43538179622131
 20
101.6199865098381
 30
0.0
 10
75.95838041042263
 20
102.3857722418731
 30
0.0
 10
76.45826824539401
 20
103.1710498142042
 30
0.0
 10
76.76864077747884
 20
103.7089194409854
 30
0.0
 10
76.92431423589174
 20
103.9786985493809
 30
0.0
  0
LINE
  5
271
330
1F
100
AcDbEntity
  8
0
  6
Continuous
 62
     7
370
    15
100
AcDbLine
 10
76.9243142427
 20
103.985562403
 30
0.0
 11
76.9243142427
 21
103.3280014726
 31
0.0
  0
LINE
  5
272
330
1F
100
AcDbEntity
  8
0
  6
Continuous
 62
     7
370
    15
100
AcDbLine
 10
60.3226726795
 20
91.3674076244
 30
0.0
 11
60.2975271884
 21
91.7270049015
 31
0.0
  0
SPLINE
  5
273
330
1F
100
AcDbEntity
  8
0
  6
Continuous
 62
     7
370
    15
100
AcDbSpline
210
0.0
220
0.0
230
1.0
 70
     8
 71
     3
 72
    39
 73
    35
 74
     0
 42
0.00000001
 43
0.00000001
 40
0.0
 40
0.0
 40
0.0
 40
0.0
 40
0.0266257547098171
 40
0.0530400563214207
 40
0.0792443692184561
 40
0.1052401932720877
 40
0.1310290647309751
 40
0.1566125571259016
 40
0.1819922821884566
 40
0.2071698907830107
 40
0.2321470738511427
 40
0.2569255633675434
 40
0.2815071333063208
 40
0.3058936006164749
 40
0.3300868262051569
 40
0.3540887159272191
 40
0.3779012215793457
 40
0.4015263418969212
 40
0.4249661235516222
 40
0.4482226621474683
 40
0.4712981032129728
 40
0.4941946431867242
 40
0.5169145303936061
 40
0.5633478125968235
 40
0.6092095058789799
 40
0.6545208112793787
 40
0.6993037115481907
 40
0.7435809764826008
 40
0.7873761645631289
 40
0.8307136204696927
 40
0.8736184680694143
 40
0.9161165984924992
 40
0.9582346529501212
 40
1.0
 40
1.0
 40
1.0
 40
1.0
 10
76.92501411588914
 20
103.3331331663061
 30
0.0
 10
76.83031499529535
 20
103.1750105880743
 30
0.0
 10
76.64166882377366
 20
102.8600211897828
 30
0.0
 10
76.34796847784273
 20
102.3959048056318
 30
0.0
 10
76.04808806061983
 20
101.9404459276709
 30
0.0
 10
75.74139778671456
 20
101.4941715171809
 30
0.0
 10
75.42833917073946
 20
101.0570376284344
 30
0.0
 10
75.10906956890274
 20
100.6291444042679
 30
0.0
 10
74.78382087006668
 20
100.2105468720305
 30
0.0
 10
74.45280436073841
 20
99.80130513467003
 30
0.0
 10
74.116235747303
 20
99.40147118386194
 30
0.0
 10
73.77432837130206
 20
99.01109249529001
 30
0.0
 10
73.42729485071291
 20
98.63021118334677
 30
0.0
 10
73.0753464953438
 20
98.25886433371566
 30
0.0
 10
72.71869331684262
 20
97.89708402669271
 30
0.0
 10
72.3575438851308
 20
97.54489744287746
 30
0.0
 10
71.99210523461832
 20
97.20232695453842
 30
0.0
 10
71.62258274683772
 20
96.86939020173374
 30
0.0
 10
71.2491801008028
 20
96.54610025052241
 30
0.0
 10
70.87209900166631
 20
96.23246544869201
 30
0.0
 10
70.4915397425066
 20
95.92849040354395
 30
0.0
 10
70.1076987116344
 20
95.63417282495281
 30
0.0
 10
69.58517834043404
 20
95.24975589364539
 30
0.0
 10
68.91703174678602
 20
94.78876007112439
 30
0.0
 10
68.09435393730065
 20
94.26974142182144
 30
0.0
 10
67.25978560680362
 20
93.79018807429155
 30
0.0
 10
66.41480261640393
 20
93.35013440526527
 30
0.0
 10
65.56084291762103
 20
92.94955556504341
 30
0.0
 10
64.69932682074102
 20
92.58834853240515
 30
0.0
 10
63.83163058032977
 20
92.26644311011488
 30
0.0
 10
62.95915879143735
 20
91.98339573004954
 30
0.0
 10
62.08307352158192
 20
91.73989543334778
 30
0.0
 10
61.20528199910191
 20
91.53223167641902
 30
0.0
 10
60.61594203947874
 20
91.42543854044615
 30
0.0
 10
60.32251106861113
 20
91.37226649083571
 30
0.0
  0
LINE
  5
274
330
1F
100
AcDbEntity
  8
0
  6
Continuous
 62
     7
370
    15
100
AcDbLine
 10
59.6351579682
 20
101.1993260579
 30
0.0
 11
58.1388118928
 21
101.0946913473
 31
0.0
  0
LINE
  5
275
330
1F
100
AcDbEntity
  8
0
  6
Continuous
 62
     7
370
    15
100
AcDbLine
 10
58.1388118928
 20
101.0946913473
 30
0.0
 11
55.9524586143
 21
101.2527760556
 31
0.0
  0
LINE
  5
276
330
1F
100
AcDbEntity
  8
0
  6
Continuous
 62
     7
370
    15
100
AcDbLine
 10
53.419011016
 20
137.4827646383
 30
0.0
 11
55.9524586143
 21
101.2527760556
 31
0.0
  0
ARC
  5
277
330
1F
100
AcDbEntity
  8
0
  6
Continuous
 62
     7
370
    15
100
AcDbCircle
 10
56.4243142427
 20
117.2042500843
 30
0.0
 40
20.50000000000003
100
AcDbArc
 50
0.0
 51
98.4299517575
  0
LINE
  5
278
330
1F
100
AcDbEntity
  8
0
  6
Continuous
 62
     7
370
    15
100
AcDbLine
 10
76.9243142427
 20
103.9786985494
 30
0.0
 11
76.9243142427
 21
117.2042500843
 31
0.0
  0
LINE
  5
279
330
1F
100
AcDbEntity
  8
0
  6
Continuous
 62
     7
370
    15
100
AcDbLine
 10
59.6501160024
 20
100.9854162033
 30
0.0
 11
59.6351579682
 21
101.1993260579
 31
0.0
  0
SPLINE
  5
27A
330
1F
100
AcDbEntity
  8
0
  6
Continuous
 62
     7
370
    15
100
AcDbSpline
210
0.0
220
0.0
230
1.0
 70
     8
 71
     3
 72
    16
 73
    12
 74
     0
 42
0.00000001
 43
0.00000001
 40
0.0
 40
0.0
 40
0.0
 40
0.0
 40
0.2500000000000005
 40
0.2500000000000005
 40
0.500000000000001
 40
0.500000000000001
 40
0.7500000000000018
 40
0.7500000000000018
 40
0.8750000000000009
 40
0.8750000000000009
 40
1.0
 40
1.0
 40
1.0
 40
1.0
 10
53.45399638832897
 20
136.9824505040943
 30
0.0
 10
53.45399638832897
 20
136.9824505040943
 30
0.0
 10
53.34650158385504
 20
136.9672008301992
 30
0.0
 10
52.91813059810546
 20
136.8957159819458
 30
0.0
 10
52.60804454126188
 20
136.8410807157902
 30
0.0
 10
51.80427144561034
 20
136.6676577057051
 30
0.0
 10
51.32962186545399
 20
136.5525664658809
 30
0.0
 10
50.52407799226543
 20
136.3161710106549
 30
0.0
 10
50.2445055383887
 20
136.2279543114749
 30
0.0
 10
49.67245791450087
 20
136.0325212282006
 30
0.0
 10
49.37888514129461
 20
135.9249972124741
 30
0.0
 10
49.07829623803091
 20
135.8062935063658
 30
0.0
  0
SPLINE
  5
27B
330
1F
100
AcDbEntity
  8
0
  6
Continuous
 62
     7
370
    15
100
AcDbSpline
210
0.0
220
0.0
230
1.0
 70
     8
 71
     3
 72
    19
 73
    15
 74
     0
 42
0.00000001
 43
0.00000001
 40
0.0
 40
0.0
 40
0.0
 40
0.0
 40
0.0814331293636331
 40
0.163412279648065
 40
0.2471455166194011
 40
0.3314993661624767
 40
0.412937510520869
 40
0.4949551157331243
 40
0.5787978808097166
 40
0.6632708288220944
 40
0.8248744341700833
 40
0.9077509688962567
 40
0.9912214417350181
 40
1.0
 40
1.0
 40
1.0
 40
1.0
 10
51.73869124751264
 20
97.76087236474577
 30
0.0
 10
51.89245730988282
 20
97.72494285450131
 30
0.0
 10
52.20102045833086
 20
97.65284292144499
 30
0.0
 10
52.65592647216897
 20
97.5608310378075
 30
0.0
 10
53.10273270204996
 20
97.48026312556283
 30
0.0
 10
53.53054422388674
 20
97.41322754765116
 30
0.0
 10
53.93430333133098
 20
97.35857291079542
 30
0.0
 10
54.31314358080854
 20
97.31484048216939
 30
0.0
 10
54.66901080985745
 20
97.28043596963377
 30
0.0
 10
55.09617366458513
 20
97.24654972051
 30
0.0
 10
55.46172644290558
 20
97.22643160658669
 30
0.0
 10
55.74226136009516
 20
97.21559482089302
 30
0.0
 10
55.88614988109921
 20
97.21122439284954
 30
0.0
 10
55.93020920695126
 20
97.21040053858898
 30
0.0
 10
55.93440195948731
 20
97.21032213936307
 30
0.0
  0
ELLIPSE
  5
27C
330
1F
100
AcDbEntity
  8
0
  6
Continuous
 62
     7
370
    15
100
AcDbEllipse
 10
46.8899426922
 20
109.1602058673
 30
0.0
 11
-1.671891056518945
 21
2.056818332087829
 31
0.0
210
0.0
220
0.0
230
1.0
 40
0.7749617504
 41
0.0
 42
6.283185307179586
  0
ARC
  5
27D
330
1F
100
AcDbEntity
  8
0
  6
Continuous
 62
     7
370
    15
100
AcDbCircle
 10
56.4243142427
 20
117.2042500843
 30
0.0
 40
20.00000000000002
100
AcDbArc
 50
111.5492528118
 51
256.4507471882
  0
SPLINE
  5
27E
330
1F
100
AcDbEntity
  8
0
  6
Continuous
 62
     7
370
    15
100
AcDbSpline
210
0.0
220
0.0
230
1.0
 70
     8
 71
     3
 72
    25
 73
    21
 74
     0
 42
0.00000001
 43
0.00000001
 40
0.0
 40
0.0
 40
0.0
 40
0.0
 40
0.0490929142063688
 40
0.1209458974889467
 40
0.1943269826897008
 40
0.2682645515827954
 40
0.3197186604968077
 40
0.3716806399516515
 40
0.412642675164321
 40
0.4545916626567636
 40
0.4956626206205364
 40
0.5383320836105118
 40
0.5942356304489558
 40
0.6515348854384402
 40
0.7125939095377363
 40
0.7741007354280326
 40
0.8367091208555186
 40
0.8996550613586108
 40
0.9658705215397143
 40
1.0
 40
1.0
 40
1.0
 40
1.0
 10
47.32705373345335
 20
111.3303536907812
 30
0.0
 10
47.29590050958667
 20
111.3067780784659
 30
0.0
 10
47.21915105029829
 20
111.2486969146886
 30
0.0
 10
47.07718243404863
 20
111.1701702786148
 30
0.0
 10
46.90408550655419
 20
111.0905001522151
 30
0.0
 10
46.7322416442498
 20
111.0259601956684
 30
0.0
 10
46.56727988708892
 20
110.970358905149
 30
0.0
 10
46.42409924715193
 20
110.9238802010449
 30
0.0
 10
46.2828328504928
 20
110.8763867115962
 30
0.0
 10
46.14809802492771
 20
110.827274540031
 30
0.0
 10
46.01108053255499
 20
110.7714813554055
 30
0.0
 10
45.86467810185719
 20
110.7054640920053
 30
0.0
 10
45.71263232069835
 20
110.6317296428992
 30
0.0
 10
45.55512058106258
 20
110.5550640899661
 30
0.0
 10
45.40118669492642
 20
110.4848950789471
 30
0.0
 10
45.24841655637969
 20
110.4240927471797
 30
0.0
 10
45.09772721717764
 20
110.3753759047229
 30
0.0
 10
44.94603354729703
 20
110.3412094745124
 30
0.0
 10
44.81833817883992
 20
110.3230484298683
 30
0.0
 10
44.74160005297026
 20
110.3249766526201
 30
0.0
 10
44.71549976082387
 20
110.3256324827772
 30
0.0
  0
SPLINE
  5
27F
330
1F
100
AcDbEntity
  8
0
  6
Continuous
 62
     7
370
    15
100
AcDbSpline
210
0.0
220
0.0
230
1.0
 70
    24
 71
     3
 72
    10
 73
     6
 74
     0
 42
0.00000001
 43
0.00000001
 40
0.0
 40
0.0
 40
0.0
 40
0.0
 40
0.5
 40
0.5
 40
1.0
 40
1.0
 40
1.0
 40
1.0
 10
47.42431424271285
 20
87.6439726837482
 30
0.0
 10
47.42431424271285
 20
87.48408541555453
 30
0.0
 10
47.42431424271284
 20
87.32295816003993
 30
0.0
 10
47.42431424271285
 20
87.08885916168511
 30
0.0
 10
47.42431424271285
 20
87.01733238809389
 30
0.0
 10
47.42431424271285
 20
87.01733238809389
 30
0.0
  0
ARC
  5
280
330
1F
100
AcDbEntity
  8
0
  6
Continuous
 62
     7
370
    15
100
AcDbCircle
 10
56.4243142427
 20
117.2042500843
 30
0.0
 40
31.5
100
AcDbArc
 50
140.9381656697
 51
253.398450401
  0
SPLINE
  5
281
330
1F
100
AcDbEntity
  8
0
  6
Continuous
 62
     7
370
    15
100
AcDbSpline
210
0.0
220
0.0
230
1.0
 70
    24
 71
     3
 72
    12
 73
     8
 74
     0
 42
0.00000001
 43
0.00000001
 40
0.0
 40
0.0
 40
0.0
 40
0.0
 40
0.25
 40
0.25
 40
0.5
 40
0.5
 40
1.0
 40
1.0
 40
1.0
 40
1.0
 10
31.96562458034524
 20
137.054250084341
 30
0.0
 10
31.96562458034524
 20
137.054250084341
 30
0.0
 10
31.99345430064872
 20
137.054250084341
 30
0.0
 10
32.08859676190539
 20
137.054250084341
 30
0.0
 10
32.15501957820575
 20
137.054250084341
 30
0.0
 10
32.37921900972586
 20
137.054250084341
 30
0.0
 10
32.56320541227146
 20
137.054250084341
 30
0.0
 10
32.74336198145444
 20
137.054250084341
 30
0.0
  0
SPLINE
  5
282
330
1F
100
AcDbEntity
  8
0
  6
Continuous
 62
     7
370
    15
100
AcDbSpline
210
0.0
220
0.0
230
1.0
 70
    24
 71
     3
 72
    10
 73
     6
 74
     0
 42
0.00000001
 43
0.00000001
 40
0.0
 40
0.0
 40
0.0
 40
0.0
 40
0.5
 40
0.5
 40
1.0
 40
1.0
 40
1.0
 40
1.0
 10
48.42431424271285
 20
147.0506904081049
 30
0.0
 10
48.42431424271285
 20
147.2110956744557
 30
0.0
 10
48.42431424271285
 20
147.3701574874443
 30
0.0
 10
48.42431424271285
 20
147.6010699530746
 30
0.0
 10
48.42431424271285
 20
147.6714455575053
 30
0.0
 10
48.42431424271285
 20
147.6714455575053
 30
0.0
  0
SPLINE
  5
283
330
1F
100
AcDbEntity
  8
0
  6
Continuous
 62
     7
370
    15
100
AcDbSpline
210
0.0
220
0.0
230
1.0
 70
    24
 71
     3
 72
    12
 73
     8
 74
     0
 42
0.00000001
 43
0.00000001
 40
0.0
 40
0.0
 40
0.0
 40
0.0
 40
0.2499999999999987
 40
0.2499999999999987
 40
0.4999999999999973
 40
0.4999999999999973
 40
1.0
 40
1.0
 40
1.0
 40
1.0
 10
36.57431424271283
 20
141.6629397467085
 30
0.0
 10
36.57431424271283
 20
141.6629397467085
 30
0.0
 10
36.57431424271283
 20
141.6347200481206
 30
0.0
 10
36.57431424271283
 20
141.5402770408725
 30
0.0
 10
36.57431424271283
 20
141.4739900641671
 30
0.0
 10
36.57431424271283
 20
141.2483652408788
 30
0.0
 10
36.57431424271283
 20
141.0659389778463
 30
0.0
 10
36.57431424271283
 20
140.8852023455994
 30
0.0
  0
ARC
  5
284
330
1F
100
AcDbEntity
  8
0
  6
Continuous
 62
     7
370
    15
100
AcDbCircle
 10
56.4243142427
 20
117.2042500843
 30
0.0
 40
31.50000000000002
100
AcDbArc
 50
104.7124579609
 51
129.0618343303
  0
SPLINE
  5
285
330
1F
100
AcDbEntity
  8
0
  6
Continuous
 62
     7
370
    15
100
AcDbSpline
210
0.0
220
0.0
230
1.0
 70
    24
 71
     3
 72
    12
 73
     8
 74
     0
 42
0.00000001
 43
0.00000001
 40
0.0
 40
0.0
 40
0.0
 40
0.0
 40
0.249999999999998
 40
0.249999999999998
 40
0.499999999999996
 40
0.499999999999996
 40
1.0
 40
1.0
 40
1.0
 40
1.0
 10
64.42431424271285
 20
147.6714455575053
 30
0.0
 10
64.42431424271285
 20
147.6714455575053
 30
0.0
 10
64.42431424271285
 20
147.6544428075445
 30
0.0
 10
64.42431424271285
 20
147.5903822664328
 30
0.0
 10
64.42431424271285
 20
147.5432236507942
 30
0.0
 10
64.42431424271285
 20
147.3700016181019
 30
0.0
 10
64.42431424271285
 20
147.2098925278677
 30
0.0
 10
64.42431424271285
 20
147.0506904081043
 30
0.0
  0
ARC
  5
286
330
1F
100
AcDbEntity
  8
0
  6
Continuous
 62
     7
370
    15
100
AcDbCircle
 10
56.4243142427
 20
117.2042500843
 30
0.0
 40
31.50000000000001
100
AcDbArc
 50
286.601549599
 51
75.2875420391
  0
SPLINE
  5
287
330
1F
100
AcDbEntity
  8
0
  6
Continuous
 62
     7
370
    15
100
AcDbSpline
210
0.0
220
0.0
230
1.0
 70
    24
 71
     3
 72
    12
 73
     8
 74
     0
 42
0.00000001
 43
0.00000001
 40
0.0
 40
0.0
 40
0.0
 40
0.0
 40
0.2499999999999999
 40
0.2499999999999999
 40
0.4999999999999998
 40
0.4999999999999998
 40
1.0
 40
1.0
 40
1.0
 40
1.0
 10
65.42431424271287
 20
87.01733238809389
 30
0.0
 10
65.42431424271287
 20
87.01733238809388
 30
0.0
 10
65.42431424271287
 20
87.03444947435973
 30
0.0
 10
65.42431424271287
 20
87.09918558583485
 30
0.0
 10
65.42431424271287
 20
87.14664282871517
 30
0.0
 10
65.42431424271287
 20
87.32346727125464
 30
0.0
 10
65.42431424271287
 20
87.48374377846035
 30
0.0
 10
65.42431424271287
 20
87.64397268374815
 30
0.0
  0
LINE
  5
288
330
1F
100
AcDbEntity
  8
0
  6
Continuous
 62
     7
370
    15
100
AcDbLine
 10
64.4243142427
 20
143.6042500843
 30
0.0
 11
48.4243142427
 21
143.6042500843
 31
0.0
  0
LINE
  5
289
330
1F
100
AcDbEntity
  8
0
  6
Continuous
 62
     7
370
    15
100
AcDbLine
 10
65.4243142427
 20
90.8042500843
 30
0.0
 11
59.1955038025
 21
90.8042500843
 31
0.0
  0
LINE
  5
28A
330
1F
100
AcDbEntity
  8
0
  6
Continuous
 62
     7
370
    15
100
AcDbLine
 10
56.3823581555
 20
90.8042500843
 30
0.0
 11
47.4243142427
 21
90.8042500843
 31
0.0
  0
LINE
  5
28B
330
1F
100
AcDbEntity
  8
0
  6
Continuous
 62
     7
370
    15
100
AcDbLine
 10
64.4243142427
 20
147.0506904081
 30
0.0
 11
64.4243142427
 21
143.6042500843
 31
0.0
  0
LINE
  5
28C
330
1F
100
AcDbEntity
  8
0
  6
Continuous
 62
     7
370
    15
100
AcDbLine
 10
65.4243142427
 20
87.6439726837
 30
0.0
 11
65.4243142427
 21
90.8042500843
 31
0.0
  0
LINE
  5
28D
330
1F
100
AcDbEntity
  8
0
  6
Continuous
 62
     7
370
    15
100
AcDbLine
 10
48.4243142427
 20
143.6042500843
 30
0.0
 11
48.4243142427
 21
147.0506904081
 31
0.0
  0
LINE
  5
28E
330
1F
100
AcDbEntity
  8
0
  6
Continuous
 62
     7
370
    15
100
AcDbLine
 10
47.4243142427
 20
90.8042500843
 30
0.0
 11
47.4243142427
 21
87.6439726837
 31
0.0
  0
LINE
  5
28F
330
1F
100
AcDbEntity
  8
0
  6
Continuous
 62
     7
370
    15
100
AcDbLine
 10
36.5743142427
 20
140.8852023456
 30
0.0
 11
36.5743142427
 21
137.0542500843
 31
0.0
  0
LINE
  5
290
330
1F
100
AcDbEntity
  8
0
  6
Continuous
 62
     7
370
    15
100
AcDbLine
 10
32.7433619815
 20
137.0542500843
 30
0.0
 11
36.5743142427
 21
137.0542500843
 31
0.0
  0
SPLINE
  5
291
330
1F
100
AcDbEntity
  8
0
  6
Continuous
 62
     7
370
    15
100
AcDbSpline
210
0.0
220
0.0
230
1.0
 70
     8
 71
     3
 72
    30
 73
    26
 74
     0
 42
0.00000001
 43
0.00000001
 40
0.0
 40
0.0
 40
0.0
 40
0.0
 40
0.1250000000000001
 40
0.1250000000000001
 40
0.1875000000000001
 40
0.1875000000000001
 40
0.2500000000000001
 40
0.2500000000000001
 40
0.375
 40
0.375
 40
0.4374999999999999
 40
0.4374999999999999
 40
0.4999999999999998
 40
0.4999999999999998
 40
0.6249999999999998
 40
0.6249999999999998
 40
0.6874999999999998
 40
0.6874999999999998
 40
0.7499999999999999
 40
0.7499999999999999
 40
0.8124999999999999
 40
0.8124999999999999
 40
0.875
 40
0.875
 40
1.0
 40
1.0
 40
1.0
 40
1.0
 10
57.42431424271292
 20
85.72012710147872
 30
0.0
 10
57.95573217311351
 20
85.73700601948731
 30
0.0
 10
58.47739137068769
 20
85.76702358431201
 30
0.0
 10
59.24603315784671
 20
85.82983397358512
 30
0.0
 10
59.49992295701174
 20
85.85373788081202
 30
0.0
 10
60.00299573295781
 20
85.90717317325442
 30
0.0
 10
60.25245958117446
 20
85.93678004142197
 30
0.0
 10
60.97737047877133
 20
86.0312297401364
 30
0.0
 10
61.43524781566351
 20
86.10225713396561
 30
0.0
 10
62.08501504114635
 20
86.21627142067139
 30
0.0
 10
62.29640174455651
 20
86.25572667181194
 30
0.0
 10
62.70103555532668
 20
86.33524811458263
 30
0.0
 10
62.89377602682789
 20
86.3751842570834
 30
0.0
 10
63.44420690320482
 20
86.49412065991154
 30
0.0
 10
63.77439028048544
 20
86.57228542379542
 30
0.0
 10
64.21306609713587
 20
86.68199486406431
 30
0.0
 10
64.3488646556224
 20
86.7170757007727
 30
0.0
 10
64.59574168846858
 20
86.78231598015232
 30
0.0
 10
64.70752022579659
 20
86.81265079619706
 30
0.0
 10
64.90795041567019
 20
86.86798917541893
 30
0.0
 10
64.99660275887368
 20
86.89299385197899
 30
0.0
 10
65.15027030655479
 20
86.93687366086968
 30
0.0
 10
65.21551801080662
 20
86.95581734563197
 30
0.0
 10
65.3718230641709
 20
87.00153707290217
 30
0.0
 10
65.4243142427129
 20
87.01733238809388
 30
0.0
 10
65.4243142427129
 20
87.01733238809388
 30
0.0
  0
SPLINE
  5
292
330
1F
100
AcDbEntity
  8
0
  6
Continuous
 62
     7
370
    15
100
AcDbSpline
210
0.0
220
0.0
230
1.0
 70
     8
 71
     3
 72
    28
 73
    24
 74
     0
 42
0.00000001
 43
0.00000001
 40
0.0
 40
0.0
 40
0.0
 40
0.0
 40
0.1250000000000007
 40
0.1250000000000007
 40
0.1875000000000008
 40
0.1875000000000008
 40
0.2500000000000009
 40
0.2500000000000009
 40
0.3750000000000013
 40
0.3750000000000013
 40
0.4375000000000013
 40
0.4375000000000013
 40
0.5000000000000011
 40
0.5000000000000011
 40
0.6250000000000009
 40
0.6250000000000009
 40
0.7500000000000006
 40
0.7500000000000006
 40
0.8125000000000004
 40
0.8125000000000004
 40
0.8750000000000003
 40
0.8750000000000003
 40
1.0
 40
1.0
 40
1.0
 40
1.0
 10
47.4243142427129
 20
87.01733238809388
 30
0.0
 10
47.4243142427129
 20
87.01733238809388
 30
0.0
 10
47.47679058503111
 20
87.00154767414367
 30
0.0
 10
47.63058753258802
 20
86.95655226006745
 30
0.0
 10
47.69446250762202
 20
86.93799726499174
 30
0.0
 10
47.84795877627857
 20
86.89414454254523
 30
0.0
 10
47.93777375167225
 20
86.86879993559305
 30
0.0
 10
48.23975254672313
 20
86.78539785784295
 30
0.0
 10
48.48570598077887
 20
86.71953229869183
 30
0.0
 10
48.92107316020726
 20
86.61056195820005
 30
0.0
 10
49.0782883423796
 20
86.57232232243341
 30
0.0
 10
49.41045296292206
 20
86.49456358501405
 30
0.0
 10
49.58526022852494
 20
86.4550626228387
 30
0.0
 10
50.13531941911077
 20
86.3361548804727
 30
0.0
 10
50.53594280350624
 20
86.25633719904809
 30
0.0
 10
51.40852891485495
 20
86.10299403725202
 30
0.0
 10
51.86866436245653
 20
86.03166028398277
 30
0.0
 10
52.58863045642271
 20
85.93771677690818
 30
0.0
 10
52.83390416645723
 20
85.90852298354822
 30
0.0
 10
53.33536050288606
 20
85.85505640928481
 30
0.0
 10
53.59279187225859
 20
85.83069707500965
 30
0.0
 10
54.36873166812308
 20
85.7671069295649
 30
0.0
 10
54.8929600680291
 20
85.73700399447563
 30
0.0
 10
55.42431424271293
 20
85.72012710147871
 30
0.0
  0
SPLINE
  5
293
330
1F
100
AcDbEntity
  8
0
  6
Continuous
 62
     7
370
    15
100
AcDbSpline
210
0.0
220
0.0
230
1.0
 70
     8
 71
     3
 72
    50
 73
    46
 74
     0
 42
0.00000001
 43
0.00000001
 40
0.0
 40
0.0
 40
0.0
 40
0.0
 40
0.0625000000000002
 40
0.0625000000000002
 40
0.0937500000000002
 40
0.0937500000000002
 40
0.1250000000000002
 40
0.1250000000000002
 40
0.1875000000000002
 40
0.1875000000000002
 40
0.2187500000000003
 40
0.2187500000000003
 40
0.2500000000000003
 40
0.2500000000000003
 40
0.3125000000000003
 40
0.3125000000000003
 40
0.3750000000000002
 40
0.3750000000000002
 40
0.4062500000000003
 40
0.4062500000000003
 40
0.4375000000000003
 40
0.4375000000000003
 40
0.5000000000000003
 40
0.5000000000000003
 40
0.5625000000000003
 40
0.5625000000000003
 40
0.6250000000000003
 40
0.6250000000000003
 40
0.6562500000000003
 40
0.6562500000000003
 40
0.6875000000000003
 40
0.6875000000000003
 40
0.7187500000000003
 40
0.7187500000000003
 40
0.7500000000000002
 40
0.7500000000000002
 40
0.8125000000000001
 40
0.8125000000000001
 40
0.875
 40
0.875
 40
0.9374999999999999
 40
0.9374999999999999
 40
0.96875
 40
0.96875
 40
1.0
 40
1.0
 40
1.0
 40
1.0
 10
48.4243142427129
 20
147.6714455575053
 30
0.0
 10
48.4243142427129
 20
147.6714455575053
 30
0.0
 10
48.47660838466596
 20
147.6853116608865
 30
0.0
 10
48.62996091949871
 20
147.7247488037705
 30
0.0
 10
48.69365841484993
 20
147.7410015060355
 30
0.0
 10
48.84675006513975
 20
147.7793502158859
 30
0.0
 10
48.93640616710056
 20
147.8015036622939
 30
0.0
 10
49.23798755527461
 20
147.874259608156
 30
0.0
 10
49.48372898570859
 20
147.9315403110007
 30
0.0
 10
49.91888905205927
 20
148.0255327504564
 30
0.0
 10
50.07602987952043
 20
148.0583917176497
 30
0.0
 10
50.40866897224475
 20
148.1249677710979
 30
0.0
 10
50.58373492768478
 20
148.1586112089368
 30
0.0
 10
51.13459045838639
 20
148.2591720735139
 30
0.0
 10
51.53577486757305
 20
148.325734883264
 30
0.0
 10
52.40926407366045
 20
148.4504339385635
 30
0.0
 10
52.87130466664288
 20
148.5069569476342
 30
0.0
 10
53.5924200802368
 20
148.577625882249
 30
0.0
 10
53.83798071792018
 20
148.5989020923205
 30
0.0
 10
54.33976901707838
 20
148.6362078185624
 30
0.0
 10
54.59753023339504
 20
148.6522990154224
 30
0.0
 10
55.37264269761481
 20
148.6909404870301
 30
0.0
 10
55.89307188133449
 20
148.7041299055865
 30
0.0
 10
56.94120772211986
 20
148.7043686290446
 30
0.0
 10
57.47371605249363
 20
148.6909686263404
 30
0.0
 10
58.50140631466022
 20
148.6399046381453
 30
0.0
 10
59.00117049524195
 20
148.602465503391
 30
0.0
 10
59.72966549526242
 20
148.5313020204726
 30
0.0
 10
59.9690164877079
 20
148.5050335622801
 30
0.0
 10
60.43025495919477
 20
148.4493520895278
 30
0.0
 10
60.65352161426204
 20
148.4198143175919
 30
0.0
 10
61.08570922028411
 20
148.3582071725642
 30
0.0
 10
61.29462980052408
 20
148.326136229843
 30
0.0
 10
61.69805472604779
 20
148.2603192528736
 30
0.0
 10
61.89353438601715
 20
148.2263890344104
 30
0.0
 10
62.44939259955338
 20
148.1249604068302
 30
0.0
 10
62.77894998618495
 20
148.0580413781401
 30
0.0
 10
63.3583454839709
 20
147.9330158157983
 30
0.0
 10
63.60986545541527
 20
147.8744390215642
 30
0.0
 10
64.01131995202884
 20
147.7776041699192
 30
0.0
 10
64.16380294757595
 20
147.7388492103601
 30
0.0
 10
64.31911389675118
 20
147.6989216799238
 30
0.0
 10
64.35862734415731
 20
147.6886298886733
 30
0.0
 10
64.4111406914531
 20
147.6749136761343
 30
0.0
 10
64.4243142427129
 20
147.6714455575053
 30
0.0
 10
64.4243142427129
 20
147.6714455575053
 30
0.0
  0
SPLINE
  5
294
330
1F
100
AcDbEntity
  8
0
  6
Continuous
 62
     7
370
    15
100
AcDbSpline
210
0.0
220
0.0
230
1.0
 70
     8
 71
     3
 72
    20
 73
    16
 74
     0
 42
0.00000001
 43
0.00000001
 40
0.0
 40
0.0
 40
0.0
 40
0.0
 40
0.2500000000000005
 40
0.2500000000000005
 40
0.3750000000000004
 40
0.3750000000000004
 40
0.5000000000000003
 40
0.5000000000000003
 40
0.6250000000000002
 40
0.6250000000000002
 40
0.7500000000000001
 40
0.7500000000000001
 40
0.8750000000000001
 40
0.8750000000000001
 40
1.0
 40
1.0
 40
1.0
 40
1.0
 10
31.96562458034549
 20
137.054250084341
 30
0.0
 10
32.49628134818017
 20
137.7081125126385
 30
0.0
 10
33.03000934444169
 20
138.3118982946356
 30
0.0
 10
33.81298166243045
 20
139.1387370308042
 30
0.0
 10
34.0709652625271
 20
139.4011656687571
 30
0.0
 10
34.57536051893494
 20
139.897828322862
 30
0.0
 10
34.81813894136292
 20
140.1284152018836
 30
0.0
 10
35.268819020876
 20
140.5449694264662
 30
0.0
 10
35.47828288686728
 20
140.7324672284337
 30
0.0
 10
35.85657140345531
 20
141.0638642060701
 30
0.0
 10
36.02031908963979
 20
141.2033681935654
 30
0.0
 10
36.28850489183922
 20
141.4288217010363
 30
0.0
 10
36.39372929992598
 20
141.51544781258
 30
0.0
 10
36.53778852523949
 20
141.6334286014341
 30
0.0
 10
36.57431424271289
 20
141.6629397467085
 30
0.0
 10
36.57431424271289
 20
141.6629397467085
 30
0.0
  0
ARC
  5
295
330
1F
100
AcDbEntity
  8
0
  6
Continuous
 62
     7
370
    15
100
AcDbCircle
 10
56.4243142427
 20
117.2042500843
 30
0.0
 40
31.49999999999999
100
AcDbArc
 50
268.180780706
 51
271.819219294
  0
SPLINE
  5
296
330
1F
100
AcDbEntity
  8
0
  6
Continuous
 62
     7
370
    15
100
AcDbSpline
210
0.0
220
0.0
230
1.0
 70
     8
 71
     3
 72
    13
 73
     9
 74
     0
 42
0.00000001
 43
0.00000001
 40
0.0
 40
0.0
 40
0.0
 40
0.0
 40
0.0329270496317324
 40
0.2108801659782251
 40
0.3914790204876298
 40
0.7387109409821994
 40
0.9149145198740581
 40
1.0
 40
1.0
 40
1.0
 40
1.0
 10
52.67868293239885
 20
97.55812850607177
 30
0.0
 10
52.67719563792958
 20
97.55841081291634
 30
0.0
 10
52.66767031124392
 20
97.56021883747067
 30
0.0
 10
52.69175024374162
 20
97.55563348050319
 30
0.0
 10
52.74560663034642
 20
97.54541672673555
 30
0.0
 10
52.85954573479881
 20
97.52435943024525
 30
0.0
 10
52.99171892200575
 20
97.50081846972597
 30
0.0
 10
53.06346096417083
 20
97.48875152378005
 30
0.0
 10
53.08682285358853
 20
97.48482207532432
 30
0.0
  0
SPLINE
  5
297
330
1F
100
AcDbEntity
  8
0
  6
Continuous
 62
     7
370
    15
100
AcDbSpline
210
0.0
220
0.0
230
1.0
 70
     8
 71
     3
 72
    15
 73
    11
 74
     0
 42
0.00000001
 43
0.00000001
 40
0.0
 40
0.0
 40
0.0
 40
0.0
 40
0.0613379152811228
 40
0.1885797084479369
 40
0.3167136401265578
 40
0.4476828487499961
 40
0.5796425253898467
 40
0.705663412569722
 40
0.962105202011485
 40
1.0
 40
1.0
 40
1.0
 40
1.0
 10
53.45401343653118
 20
136.9822067034435
 30
0.0
 10
53.422892401833
 20
136.9775815302607
 30
0.0
 10
53.32721266405445
 20
136.963361715219
 30
0.0
 10
53.18938204274948
 20
136.9410395670013
 30
0.0
 10
53.03951875768088
 20
136.9159355994246
 30
0.0
 10
52.91349300180773
 20
136.8938004187522
 30
0.0
 10
52.81297592781917
 20
136.875569120179
 30
0.0
 10
52.71648091704383
 20
136.8576245637272
 30
0.0
 10
52.67038810947943
 20
136.8487922020477
 30
0.0
 10
52.67638458495814
 20
136.8499369319024
 30
0.0
 10
52.67715661003628
 20
136.8500843118356
 30
0.0
  0
CIRCLE
  5
298
330
1F
100
AcDbEntity
  8
VERMASSUNG
  6
CENTERX2
100
AcDbCircle
 10
56.4243142427
 20
115.202153455
 30
0.0
 40
25.0
  0
DIMENSION
  5
299
330
1F
100
AcDbEntity
  8
VERMASSUNG
100
AcDbDimension
  2
*D6
 10
19.5129611294
 20
140.202153455
 30
0.0
 11
19.5129611294
 21
115.202153455
 31
0.0
 70
   160
  1
%%c<>
 71
     2
 42
-1.0
  3
SLDDIMSTYLE2
100
AcDbAlignedDimension
 13
56.4243142427
 23
90.202153455
 33
0.0
 14
56.4243142427
 24
140.202153455
 34
0.0
 50
90.0
100
AcDbRotatedDimension
  0
INSERT
  5
2B0
330
1F
100
AcDbEntity
  8
VERMASSUNG
100
AcDbBlockReference
  2
SW_CENTERMARKSYMBOL_0
 10
56.4243142427
 20
117.2042500843
 30
0.0
  0
OLE2FRAME
  5
2B1
330
1F
100
AcDbEntity
  8
0
100
AcDbOle2Frame
 70
     2
  3
Bitmap Image
 10
13.8511154363
 20
38.264191557
 30
0.0
 11
51.6290888628
 21
31.9806341108
 31
0.0
 71
     2
 72
     0
 73
     1
 90
    12928
310
80552BED0767C5B32B40DDAF6807D121434000000000000000006FFBDDFB85D0
310
4940DDAF6807D121434000000000000000006FFBDDFB85D04940416F4BD60AFB
310
3F4000000000000000002BED0767C5B32B40416F4BD60AFB3F40000000000000
310
0000000000000100000000010000010000000100000000000100000000320000
310
D0CF11E0A1B11AE1000000000000000000000000000000003E000300FEFF0900
310
0600000000000000000000000100000001000000000000000010000002000000
310
01000000FEFFFFFF0000000000000000FFFFFFFFFFFFFFFFFFFFFFFFFFFFFFFF
310
FFFFFFFFFFFFFFFFFFFFFFFFFFFFFFFFFFFFFFFFFFFFFFFFFFFFFFFFFFFFFFFF
310
FFFFFFFFFFFFFFFFFFFFFFFFFFFFFFFFFFFFFFFFFFFFFFFFFFFFFFFFFFFFFFFF
310
FFFFFFFFFFFFFFFFFFFFFFFFFFFFFFFFFFFFFFFFFFFFFFFFFFFFFFFFFFFFFFFF
310
FFFFFFFFFFFFFFFFFFFFFFFFFFFFFFFFFFFFFFFFFFFFFFFFFFFFFFFFFFFFFFFF
310
FFFFFFFFFFFFFFFFFFFFFFFFFFFFFFFFFFFFFFFFFFFFFFFFFFFFFFFFFFFFFFFF
310
FFFFFFFFFFFFFFFFFFFFFFFFFFFFFFFFFFFFFFFFFFFFFFFFFFFFFFFFFFFFFFFF
310
FFFFFFFFFFFFFFFFFFFFFFFFFFFFFFFFFFFFFFFFFFFFFFFFFFFFFFFFFFFFFFFF
310
FFFFFFFFFFFFFFFFFFFFFFFFFFFFFFFFFFFFFFFFFFFFFFFFFFFFFFFFFFFFFFFF
310
FFFFFFFFFFFFFFFFFFFFFFFFFFFFFFFFFFFFFFFFFFFFFFFFFFFFFFFFFFFFFFFF
310
FFFFFFFFFFFFFFFFFFFFFFFFFFFFFFFFFFFFFFFFFFFFFFFFFFFFFFFFFFFFFFFF
310
FFFFFFFFFFFFFFFFFFFFFFFFFFFFFFFFFFFFFFFFFFFFFFFFFFFFFFFFFFFFFFFF
310
FFFFFFFFFFFFFFFFFFFFFFFFFFFFFFFFFFFFFFFFFFFFFFFFFFFFFFFFFFFFFFFF
310
FFFFFFFFFFFFFFFFFFFFFFFFFFFFFFFFFFFFFFFFFFFFFFFFFFFFFFFFFFFFFFFF
310
FDFFFFFFFEFFFFFFFEFFFFFFFEFFFFFF05000000060000000700000008000000
310
090000000A0000000B0000000C0000000D0000000E0000000F00000010000000
310
11000000120000001300000014000000150000001600000017000000FEFFFFFF
310
FFFFFFFFFFFFFFFFFFFFFFFFFFFFFFFFFFFFFFFFFFFFFFFFFFFFFFFFFFFFFFFF
310
FFFFFFFFFFFFFFFFFFFFFFFFFFFFFFFFFFFFFFFFFFFFFFFFFFFFFFFFFFFFFFFF
310
FFFFFFFFFFFFFFFFFFFFFFFFFFFFFFFFFFFFFFFFFFFFFFFFFFFFFFFFFFFFFFFF
310
FFFFFFFFFFFFFFFFFFFFFFFFFFFFFFFFFFFFFFFFFFFFFFFFFFFFFFFFFFFFFFFF
310
FFFFFFFFFFFFFFFFFFFFFFFFFFFFFFFFFFFFFFFFFFFFFFFFFFFFFFFFFFFFFFFF
310
FFFFFFFFFFFFFFFFFFFFFFFFFFFFFFFFFFFFFFFFFFFFFFFFFFFFFFFFFFFFFFFF
310
FFFFFFFFFFFFFFFFFFFFFFFFFFFFFFFFFFFFFFFFFFFFFFFFFFFFFFFFFFFFFFFF
310
FFFFFFFFFFFFFFFFFFFFFFFFFFFFFFFFFFFFFFFFFFFFFFFFFFFFFFFFFFFFFFFF
310
FFFFFFFFFFFFFFFFFFFFFFFFFFFFFFFFFFFFFFFFFFFFFFFFFFFFFFFFFFFFFFFF
310
FFFFFFFFFFFFFFFFFFFFFFFFFFFFFFFFFFFFFFFFFFFFFFFFFFFFFFFFFFFFFFFF
310
FFFFFFFFFFFFFFFFFFFFFFFFFFFFFFFFFFFFFFFFFFFFFFFFFFFFFFFFFFFFFFFF
310
FFFFFFFFFFFFFFFFFFFFFFFFFFFFFFFFFFFFFFFFFFFFFFFFFFFFFFFFFFFFFFFF
310
FFFFFFFFFFFFFFFFFFFFFFFFFFFFFFFFFFFFFFFFFFFFFFFFFFFFFFFFFFFFFFFF
310
52006F006F007400200045006E00740072007900000000000000000000000000
310
0000000000000000000000000000000000000000000000000000000000000000
310
16000500FFFFFFFFFFFFFFFF020000000A00030000000000C000000000000046
310
000000000000000000000000D01812DF74D9CB0103000000C000000000000000
310
01004F006C006500000000000000000000000000000000000000000000000000
310
0000000000000000000000000000000000000000000000000000000000000000
310
0A000200FFFFFFFFFFFFFFFFFFFFFFFF00000000000000000000000000000000
310
0000000000000000000000000000000000000000000000001400000000000000
310
010043006F006D0070004F0062006A0000000000000000000000000000000000
310
0000000000000000000000000000000000000000000000000000000000000000
310
120002010100000003000000FFFFFFFF00000000000000000000000000000000
310
0000000000000000000000000000000000000000010000004D00000000000000
310
01004F006C006500310030004E00610074006900760065000000000000000000
310
0000000000000000000000000000000000000000000000000000000000000000
310
1A000200FFFFFFFFFFFFFFFFFFFFFFFF00000000000000000000000000000000
310
0000000000000000000000000000000000000000040000002426000000000000
310
FEFFFFFF02000000FEFFFFFFFFFFFFFFFFFFFFFFFFFFFFFFFFFFFFFFFFFFFFFF
310
FFFFFFFFFFFFFFFFFFFFFFFFFFFFFFFFFFFFFFFFFFFFFFFFFFFFFFFFFFFFFFFF
310
FFFFFFFFFFFFFFFFFFFFFFFFFFFFFFFFFFFFFFFFFFFFFFFFFFFFFFFFFFFFFFFF
310
FFFFFFFFFFFFFFFFFFFFFFFFFFFFFFFFFFFFFFFFFFFFFFFFFFFFFFFFFFFFFFFF
310
FFFFFFFFFFFFFFFFFFFFFFFFFFFFFFFFFFFFFFFFFFFFFFFFFFFFFFFFFFFFFFFF
310
FFFFFFFFFFFFFFFFFFFFFFFFFFFFFFFFFFFFFFFFFFFFFFFFFFFFFFFFFFFFFFFF
310
FFFFFFFFFFFFFFFFFFFFFFFFFFFFFFFFFFFFFFFFFFFFFFFFFFFFFFFFFFFFFFFF
310
FFFFFFFFFFFFFFFFFFFFFFFFFFFFFFFFFFFFFFFFFFFFFFFFFFFFFFFFFFFFFFFF
310
FFFFFFFFFFFFFFFFFFFFFFFFFFFFFFFFFFFFFFFFFFFFFFFFFFFFFFFFFFFFFFFF
310
FFFFFFFFFFFFFFFFFFFFFFFFFFFFFFFFFFFFFFFFFFFFFFFFFFFFFFFFFFFFFFFF
310
FFFFFFFFFFFFFFFFFFFFFFFFFFFFFFFFFFFFFFFFFFFFFFFFFFFFFFFFFFFFFFFF
310
FFFFFFFFFFFFFFFFFFFFFFFFFFFFFFFFFFFFFFFFFFFFFFFFFFFFFFFFFFFFFFFF
310
FFFFFFFFFFFFFFFFFFFFFFFFFFFFFFFFFFFFFFFFFFFFFFFFFFFFFFFFFFFFFFFF
310
FFFFFFFFFFFFFFFFFFFFFFFFFFFFFFFFFFFFFFFFFFFFFFFFFFFFFFFFFFFFFFFF
310
FFFFFFFFFFFFFFFFFFFFFFFFFFFFFFFFFFFFFFFFFFFFFFFFFFFFFFFFFFFFFFFF
310
FFFFFFFFFFFFFFFFFFFFFFFFFFFFFFFFFFFFFFFFFFFFFFFFFFFFFFFFFFFFFFFF
310
0100000200000000000000000000000000000000FFFFFFFF7D2C8200FF10FF04
310
C0962C3100000000C802250000000000FFFFFFFFFFFFFFFFFFFFFFFFFFFFFFFF
310
0100FEFF030A0000FFFFFFFF0A00030000000000C00000000000004607000000
310
5042727573680007000000504272757368000700000050427275736800F439B2
310
71000000000000000000000000FFFFFFFFFFFFFFFFFFFFFFFFFFFFFFFFFFFFFF
310
FFFFFFFFFFFFFFFFFFFFFFFFFFFFFFFFFFFFFFFFFFFFFFFFFFFFFFFFFFFFFFFF
310
FFFFFFFFFFFFFFFFFFFFFFFFFFFFFFFFFFFFFFFFFFFFFFFFFFFFFFFFFFFFFFFF
310
FFFFFFFFFFFFFFFFFFFFFFFFFFFFFFFFFFFFFFFFFFFFFFFFFFFFFFFFFFFFFFFF
310
FFFFFFFFFFFFFFFFFFFFFFFFFFFFFFFFFFFFFFFFFFFFFFFFFFFFFFFFFFFFFFFF
310
FFFFFFFFFFFFFFFFFFFFFFFFFFFFFFFFFFFFFFFFFFFFFFFFFFFFFFFFFFFFFFFF
310
FFFFFFFFFFFFFFFFFFFFFFFFFFFFFFFFFFFFFFFFFFFFFFFFFFFFFFFFFFFFFFFF
310
FFFFFFFFFFFFFFFFFFFFFFFFFFFFFFFFFFFFFFFFFFFFFFFFFFFFFFFFFFFFFFFF
310
FFFFFFFFFFFFFFFFFFFFFFFFFFFFFFFFFFFFFFFFFFFFFFFFFFFFFFFFFFFFFFFF
310
FFFFFFFFFFFFFFFFFFFFFFFFFFFFFFFFFFFFFFFFFFFFFFFFFFFFFFFFFFFFFFFF
310
FFFFFFFFFFFFFFFFFFFFFFFFFFFFFFFFFFFFFFFFFFFFFFFFFFFFFFFFFFFFFFFF
310
FFFFFFFFFFFFFFFFFFFFFFFFFFFFFFFFFFFFFFFFFFFFFFFFFFFFFFFFFFFFFFFF
310
20260000424D0E260000000000003E00000028000000B40200006E0000000100
310
01000000000000000000130B0000130B00000200000002000000000000FFFFFF
310
FFFFFFFFFFFFFFFFFFFFFFFFFFFFFFFFFFFFFFFFFFFFFFFFFFFFFFFFFFFFFFFF
310
FFFFFFFFFFFFFFFFFFFFFFFFFFFFFFFFFFFFFFFFFFFFFFFFFFFFFFFFFFFFFFFF
310
FFFFFFFFFFFFFFFFFFFFFFFFFFFFFFFFFFFFFFFFFFFFFFFFF000FFFFFFFFFFFF
310
FFFFFFFFFFFFFFFFFFFFFFFFFFFFFFFFFFFFFFFFFFFFFFFFFFFFFFFFFFFFFFFF
310
FFFFFFFFFFFFFFFFFFFFFFFFFFFFFFFFFFFFFFFFFFFFFFFFFFFFFFFFFFFFFFFF
310
FFFFFFFFFFFFFFFFFFFFFFFFFFFFFFFFF000FFFFFFFFFFFFFFFFFFFFFFFFFFFF
310
FFFFFFFFFFFFFFFFFFFFFFFFFFFFFFFFFFFFFFFFFFFFFFFFFFFFFFFFFFFFFFFF
310
FFFFFFFFFFFFFFFFFFFFFFFFFFFFFFFFFFFFFFFFFFFFFFFFFFFFFFFFFFFFFFFF
310
FFFFFFFFFFFFFFFFF000FFFFFFFFFFFFFFFFFFFFFFFFFFFFFFFFFFFFFFFFFFFF
310
FFFFFFFFFFFFFFFFFFFFFFFFFFFFFFFFFFFFFFFFFFFFFFFFFFFFFFFFFFFFFFFF
310
FFFFFFFFFFFFFFFFFFFFFFFFFFFFFFFFFFFFFFFFFFFFFFFFFFFFFFFFFFFFFFFF
310
F000FFFFFFFFFFFFFFFFFFFFFFFFFFFFFFFFFFFFFFFFFFFFFFFFFFFFFFFFFFFF
310
FFFFFFFFFFFFFFFFFFFFFFFFFFFFFFFFFFFFFFFFFFFFFFFFFFFFFFFFFFFFFFFF
310
FFFFFFFFFFFFFFFFFFFFFFFFFFFFFFFFFFFFFFFFFFFFFFFFF000FFFFFFFFFFFF
310
FFFFFFFFFFFFFFFFFFFFFFFFFFFFFFFFFFFFFFFFFFFFFFFFFFFFFFFFFFFFFFFF
310
FFFFFFFFFFFFFFFFFFFFFFFFFFFFFFFFFFFFFFFFFFFFFFFFFFFFFFFFFFFFFFFF
310
FFFFFFFFFFFFFFFFFFFFFFFFFFFFFFFFF000FFFFFFFFFFFFFFFFFFFFFFFFFFFF
310
FFFFFFFFFFFFFFFFFFFFFFFFFFFFFFFFFFFFFFFFFFFFFFFFFFFFFFFFFFFFFFFF
310
FFFFFFFFFFFFFFFFFFFFFFFFFFFFFFFFFFFFFFFFFFFFFFFFFFFFFFFFFFFFFFFF
310
FFFFFFFFFFFFFFFFF000FFFFFFFFFFFFFFFFFFFFFFFFFFFFFFFFFFFFFFFFFFFF
310
FFFFFFFFFFFFFFFFFFFFFFFFFFFFFFFFFFFFFFFFFFFFFFFFFFFFFFFFFFFFFFFF
310
FFFFFFFFFFFFFFFFFFFFFFFFFFFFFFFFFFFFFFFFFFFFFFFFFFFFFFFFFFFFFFFF
310
F000FFFFFFFFFFFFFFFFFFFFFFFFFFFFFFFFFFFFFFFFFFFFFFFFFFFFFFFFFFFF
310
FFFFFFFFFFFFFFFFFFFFFFFFFFFFFFFFFFFFFFFFFFFFFFFFFFFFFFFFFFFFFFFF
310
FFFFFFFFFFFFFFFFFFFFFFFFFFFFFFFFFFFFFFFFFFFFFFFFF000FFFFFFFFFFFF
310
FFFFFFFFFFFFFFFFFFFFFFFFFFFFFFFFFFFFFFFFFFFFFFFFFFFFFFFFFFFFFFFF
310
FFFFFFFFFFFFFFFFFFFFFFFFFFFFFFFFFFFFFFFFFFFFFFFFFFFFFFFFFFFFFFFF
310
FFFFFFFFFFFFFFFFFFFFFFFFFFFFFFFFF000FFFFFFFFFFFFFFFFFFFFFFFFFFFF
310
FFFFFFFFFFFFFFFFFFFFFFFFFFFFFFFFFFFFFFFFFFFFFFFFFFFFFFFFFFFFFFFF
310
FFFFFFFFFFFFFFFFFFFFFFFFFFFFFFFFFFFFFFFFFFFFFFFFFFFFFFFFFFFFFFFF
310
FFFFFFFFFFFFFFFFF000FFFFFFFFFFFFFFFFFFFFFFFFFFFFFFFFFFFFFFFFFFFF
310
FFFFFFFFFFFFFFFFFFFFFFFFFFFFFFFFFFFFFFFFFFFFFFFFFFFFFFFFFFFFFFFF
310
FFFFFFFFFFFFFFFFFFFFFFFFFFFFFFFFFFFFFFFFFFFFFFFFFFFFFFFFFFFFFFFF
310
F000FFFFFFFFFFFFFFFFFFFFFFFFFFFFFFFFFFFFFFFFFFFFFFFFFFFFFFFFFFFF
310
FFFFFFFFFFFFFFFFFFFFFFFFFFFFFFFFFFFFFFFFFFFFFFFFFFFFFFFFFFFFFFFF
310
FFFFFFFFFFFFFFFFFFFFFFFFFFFFFFFFFFFFFFFFFFFFFFFFF000FFFFFFFFFFFF
310
FFFFFFFFFFFFFFFFFFFFFFFFFFFFFFFFFFFFFFFFFFFFFFFFFFFFFFFFFFFFFFFF
310
FFFFFFFFFFFFFFFFFFFFFFFFFFFFFFFFFFFFFFFFFFFFFFFFFFFFFFFFFFFFFFFF
310
FFFFFFFFFFFFFFFFFFFFFFFFFFFFFFFFF000FFFFFFFFFFFFFFFFFFFFFFFFFFFF
310
FFFFFFFFFFFFFFFFFFFFFFFFFFFFFFFFFFFFFFFFFFFFFFFFFFFFFFFFFFFFFFFF
310
FFFFFFFFFFFFFFFFFFFFFFFFFFFFFFFFFFFFFFFFFFFFFFFFFFFFFFFFFFFFFFFF
310
FFFFFFFFFFFFFFFFF000FFFFFFFFFFFFFFFFFFFFFFFFFFFFFFFFFFFFFFFFFFFF
310
FFFFFFFFFFFFFFFFFFFFFFFFFFFFFFFFFFFFFFFFFFFFFFFFFFFFFFFFFFFFFFFF
310
FFFFFFFFFFFFFFFFFFFFFFFFFFFFFFFFFFFFFFFFFFFFFFFFFFFFFFFFFFFFFFFF
310
F000FFFFFFFFFFFFFFFFFFFFFFFFFFFFFFFFFFFFFFFFFFFFFFFFFFFFFFFFFFFF
310
FFFFFFFFFFFFFFFFFFFFFFFFFFFFFFFFFFFFFFFFFFFFFFFFFFFFFFFFFFFFFFFF
310
FFFFFFFFFFFFFFFFFFFFFFFFFFFFFFFFFFFFFFFFFFFFFFFFF000FFFFFFFFFFFF
310
FFFFFFFFFFFFFFFFFFFFFFFFFFFFFFFFFFFFFFFFFFFFFFFFFFFFFFFFFFFFFFFF
310
FFFFFFFFFFFFFFFFFFFFFFFFFFFFFFFFFFFFFFFFFFFFFFFFFFFFFFFFFFFFFFFF
310
FFFFFFFFFFFFFFFFFFFFFFFFFFFFFFFFF000FFFFFFFFFFFFFFFFFFFFFFFFFFFF
310
FFFFFFFFFFFFFFFFFFFFFFFFFFFFFFFFFFFFFFFFFFFFFFFFFFFFFFFFFFFFFFFF
310
FFFFFFFFFFFFFFFFFFFFFFFFFFFFFFFFFFFFFFFFFFFFFFFFFFFFFFFFFFFFFFFF
310
FFFFFFFFFFFFFFFFF000FFFFF80003FFFFFFFFFFFFFFFFFFFFFFFFFFFFFFFFFF
310
FFFFF00007FFFFFFFFFF00007FFFFFF800000000000000007FFFFFFFFFFFFFFF
310
FFFFFFFC001FFFFFFFFFFFFFFC001FFFFFFFFFFFFFFFFFFFFFFFFFFE0007FFFF
310
F000FFFF8000007FFFFFFFF8000FFFFFC0007FFFFF80007FFFFF0000007FFFFF
310
FFF8000007FFFFF800000000000000007FFFFFF0001FFFFFFFFFFFC00001FFFF
310
FFFFFFFFC00001FFFFFFFF000000000003FFFFE000007FFFF000FFFE0000000F
310
FFFFFFF0000FFFFF80007FFFFF80007FFFFC0000001FFFFFFFC0000001FFFFF8
310
00000000000000007FFFFFF0001FFFFFFFFFFE0000003FFFFFFFFFFE0000003F
310
FFFFFF000000000003FFFF0000000FFFF000FFF800000003FFFFFFF00007FFFF
310
80007FFFFF80007FFFF000000007FFFFFF000000003FFFF80000000000000000
310
7FFFFFF0001FFFFFFFFFF80000000FFFFFFFFFF80000000FFFFFFF0000000000
310
03FFFC00000003FFF000FFE000000000FFFFFFF00007FFFF80003FFFFF80007F
310
FFC000000001FFFFFC000000001FFFF800000000000000007FFFFFF0001FFFFF
310
FFFFE000000003FFFFFFFFE000000003FFFFFF000000000003FFF000000000FF
310
F000FF80000000007FFFFFF00007FFFF80003FFFFF80007FFF8000000000FFFF
310
F80000000007FFF800000000000000007FFFFFF0001FFFFFFFFFC000000001FF
310
FFFFFFC000000001FFFFFF000000000003FFC0000000007FF000FF0000000000
310
3FFFFFE00007FFFF00003FFFFF80007FFE00000000003FFFF00000000003FFF8
310
00000000000000007FFFFFF0001FFFFFFFFF8000000000FFFFFFFF8000000000
310
FFFFFF000000000003FF80000000003FF000FE00000000001FFFFFE00003FFFF
310
00003FFFFF80007FFC00000000001FFFE00000000001FFF8000001FFFE000000
310
7FFFFFF0001FFFFFFFFE00000000003FFFFFFE00000000003FFFFF0000000000
310
03FF00000000001FF000FC00000000000FFFFFE00003FFFF00001FFFFF80007F
310
F800000000001FFFC00000000000FFF8000001FFFE0000007FFFFFF0001FFFFF
310
FFFC00000000001FFFFFFC00000000001FFFFF000000000003FE00000000000F
310
F000F8000000000007FFFFE00003FFFF00001FFFFF80007FF800000000000FFF
310
800000000000FFF8000001FFFE0000007FFFFFF0001FFFFFFFF800000000000F
310
FFFFF800000000000FFFFF000000000003FC000000000007F000F80000000000
310
03FFFFC00003FFFE00001FFFFF80007FF0000000000007FF0000000000007FF8
310
000001FFFE0000007FFFFFF0001FFFFFFFF0000000000007FFFFF00000000000
310
07FFFF000000000003F8000000000003F000F0000000000003FFFFC00001FFFE
310
00001FFFFF80007FE0000000000007FE0000000000003FF8000001FFFE000000
310
7FFFFFF0001FFFFFFFF0000000000007FFFFF0000000000007FFFF0000000000
310
03F800001F800003F000E00001FFF00001FFFFC00001FFFE00000FFFFF80007F
310
E00001FFE00003FE00001FFF00003FF8000001FFFE0000007FFFFFF0001FFFFF
310
FFE000003E000003FFFFE000003E000003FFFF000000000003F00001FFF80001
310
F000E00007FFFC0001FFFFC00001FFFE00000FFFFF80007FC0000FFFFC0003FC
310
0000FFFFC0001FF8000001FFFE0000007FFFFFF0001FFFFFFFC00003FFE00001
310
FFFFC00003FFE00001FFFF0001FFFFFFFFF00007FFFE0001F000E0000FFFFF00
310
00FFFF800001FFFC00000FFFFF80007FC0001FFFFE0001FC0001FFFFE0001FF8
310
000001FFFE0000007FFFFFF0001FFFFFFF80000FFFF80000FFFF80000FFFF800
310
00FFFF0003FFFFFFFFE0000FFFFF8000F000C0003FFFFF8000FFFF800000FFFC
310
000007FFFF80007F80003FFFFF0001FC0003FFFFF0001FF8000001FFFE000000
310
7FFFFFF0001FFFFFFF80003FFFFE0000FFFF80003FFFFE0000FFFF0003FFFFFF
310
FFE0003FFFFF8000F000C0003FFFFF8000FFFF800000FFFC000007FFFF80007F
310
80007FFFFF8001F80007FFFFF8000FF8000001FFFE0000007FFFFFF0001FFFFF
310
FF00007FFFFF00007FFF00007FFFFF00007FFF0003FFFFFFFFE0003FFFFFC000
310
F000C0007FFFFFC000FFFF000000FFFC000007FFFF80007F8000FFFFFF8000F8
310
000FFFFFF8000FF8000001FFFE0000007FFFFFF0001FFFFFFF0000FFFFFF8000
310
7FFF0000FFFFFF80007FFF0003FFFFFFFFC0007FFFFFC00070008000FFFFFFC0
310
00FFFF000000FFF8000007FFFF80007F8000FFFFFF8000F8000FFFFFF8000FF8
310
000001FFFE0000007FFFFFF0001FFFFFFE0001FFFFFFC0003FFE0001FFFFFFC0
310
003FFF0003FFFFFFFFC0007FFFFFE00070008000FFFFFFC0007FFF0000007FF8
310
000003FFFF80007F0001FFFFFF8000F8000FFFFFF8000FF8000001FFFE000000
310
7FFFFFF0001FFFFFFE0001FFFFFFC0003FFE0001FFFFFFC0003FFF0003FFFFFF
310
FFC000FFFFFFE00070008000FFFFFFC0007FFF0000007FF8000003FFFF80007F
310
0001FFFFFF8000F8001FFFFFF8000FF8000001FFFE0000007FFFFFF0001FFFFF
310
FE0003FFFFFFE0003FFE0003FFFFFFE0003FFF0003FFFFFFFFC000FFFFFFE000
310
70008000FFFFFFC0007FFE0000007FF8000003FFFF80007F0001FFFFFF8000F0
310
001FFFFFF8000FF8000001FFFE0000007FFFFFF0001FFFFFFC0003FFFFFFE000
310
1FFC0003FFFFFFE0001FFF0003FFFFFFFFC000FFFFFFC00070008000FFFFFF80
310
007FFE0000007FF0000003FFFF80007F0001FFFFFF0000F0001FFFFFF8000FF8
310
000001FFFE0000007FFFFFF0001FFFFFFC0007FFFFFFF0001FFC0007FFFFFFF0
310
001FFF0003FFFFFFFFC000FFFFFFC00070008001FFFFFF0000FFFE0000003FF0
310
000001FFFF80007F0001FFFFFF0000F8001FFFFFF0000FF8000001FFFE000000
310
7FFFFFF0001FFFFFFC0007FFFFFFF0001FFC0007FFFFFFF0001FFF0003FFFFFF
310
FFC001FFFFFF80007000FFFFFFFFFE0000FFFE0008003FF0008001FFFF80007F
310
FFFFFFFFFC0000FFFFFFFFFFE0000FF8000001FFFE0000007FFFFFF0001FFFFF
310
F8000FFFFFFFF8000FF8000FFFFFFFF8000FFF0003FFFFFFFFFFFFFFFFFF0000
310
7000FFFFFFFFFC0000FFFC0008003FF0008001FFFF80007FFFFFFFFFF80001FF
310
FFFFFFFF80000FF8000001FFFE0000007FFFFFF0001FFFFFF8000FFFFFFFF800
310
0FF8000FFFFFFFF8000FFF0003FFFFFFFFFFFFFFFFFE0000F000FFFFFFFFE000
310
00FFFC000C003FE000C001FFFF80007FFFFFFFFFC00001FFFFFFFFFE00001FF8
310
000001FFFE0000007FFFFFF0001FFFFFF8000FFFFFFFF8000FF8000FFFFFFFF8
310
000FFF0003FFFFFFFFFFFFFFFFF00000F000FFFFFFFE000001FFFC000C001FE0
310
00C000FFFF80007FFFFFFFFE000001FFFFFFFFE000001FF80FFFFFFFFFFFFFC0
310
7FFFFFF0001FFFFFF8000FFFFFFFF8000FF8000FFFFFFFF8000FFF0003FFFFFF
310
FFFFFFFFFF800000F000FFFFFFC0000001FFFC001C001FE001C000FFFF80007F
310
FFFFFF80000003FFFFFFF80000001FF80FFFFFFFFFFFFFC07FFFFFF0001FFFFF
310
F8001FFFFFFFFC000FF8001FFFFFFFFC000FFF0003FFFFFFFFFFFFFFF0000001
310
F000FFFFF800000001FFF8001C001FE001C000FFFF80007FFFFFF800000003FF
310
FFFF800000003FF80FFFFFFFFFFFFFC07FFFFFF0001FFFFFF8001FFFFFFFFC00
310
0FF8001FFFFFFFFC000FFF0003FFFFFFFFFFFFFE00000001F000FFFFC0000000
310
03FFF8001E001FC001E000FFFF80007FFFFF8000000007FFFFFC000000003FF8
310
0FFFFFFFFFFFFFC07FFFFFF0001FFFFFF8001FFFFFFFFC000FF8001FFFFFFFFC
310
000FFF0003FFFFFFFFFFFFE000000003F000FFFE0000000007FFF8001E000FC0
310
01E0007FFF80007FFFFE0000000007FFFFE0000000007FF80FFFFFFFFFFFFFC0
310
7FFFFFF0001FFFFFF0001FFFFFFFFC0007F0001FFFFFFFFC0007FF0003FFFFFF
310
FFFFFF0000000003F000FFF80000000007FFF8001E000FC003E0007FFF80007F
310
FFF0000000000FFFFF8000000000FFF80FFFFFFFFFFFFFC07FFFFFF0001FFFFF
310
F0001FFFFFFFFC0007F0001FFFFFFFFC0007FF0003FFFFFFFFFFFC0000000007
310
F000FFE0000000000FFFF0003E000FC003E0007FFF80007FFFC0000000001FFF
310
FE0000000001FFF80FFFFFFFFFFFFFC07FFFFFF0001FFFFFF0001FFFFFFFFC00
310
07F0001FFFFFFFFC0007FF0003FFFFFFFFFFF0000000000FF000FFC000000000
310
1FFFF0003F000F8003F0003FFF80007FFF80000000003FFFF80000000003FFF8
310
0FFFFFFFFFFFFFC07FFFFFF0001FFFFFF0001FFFFFFFFC0007F0001FFFFFFFFC
310
0007FF0003FFFFFFFFFFE0000000001FF000FF00000000007FFFF0003F000780
310
03F0003FFF80007FFF00000000007FFFF00000000007FFF80FFFFFFFFFFFFFC0
310
7FFFFFF0001FFFFFF0001FFFFFFFFC0007F0001FFFFFFFFC0007FF0003FFFFFF
310
FFFF80000000007FF000FE0000000000FFFFE0003F00078007F0003FFF80007F
310
FE0000000001FFFFE0000000001FFFF80FFFFFFFFFFFFFC07FFFFFF0001FFFFF
310
F0001FFFFFFFFC0007F0001FFFFFFFFC0007FF0003FFFFFFFFFF0000000000FF
310
F000FC0000000003FFFFE0007F00078007F0003FFF80007FFC0000000007FFFF
310
C0000000007FFFF80FFFFFFFFFFFFFC07FFFFFF0001FFFFFF8001FFFFFFFFC00
310
0FF8001FFFFFFFFC000FFF0003FFFFFFFFFE0000000003FFF000FC000000000F
310
FFFFE0007F80070007F8001FFF80007FF8000000001FFFFF8000000001FFFFF8
310
0FFFFFFFFFFFFFC07FFFFFF0001FFFFFF8001FFFFFFFFC000FF8001FFFFFFFFC
310
000FFF0003FFFFFFFFFC000000000FFFF000F8000000007FFFFFE0007F800700
310
07F8001FFF80007FF000000000FFFFFF800000000FFFFFF80FFFFFFFFFFFFFC0
310
7FFFFFF0001FFFFFF8000FFFFFFFF8000FF8000FFFFFFFF8000FFF0003FFFFFF
310
FFFC000000007FFFF000F800000007FFFFFFC0007F8003000FF8001FFF80007F
310
F000000007FFFFFF000000007FFFFFF80FFFFFFFFFFFFFC07FFFFFF0001FFFFF
310
F8000FFFFFFFF8000FF8000FFFFFFFF8000FFF0003FFFFFFFFF80000000FFFFF
310
F000F0000000FFFFFFFFC000FF8003000FF8001FFF80007FE0000000FFFFFFFF
310
0000000FFFFFFFF8000001FFFE0000007FFFFFF0001FFFFFF8000FFFFFFFF800
310
0FF8000FFFFFFFF8000FFF0003FFFFFFFFF8000000FFFFFFF000F000000FFFFF
310
FFFFC000FFC002000FF8000FFF80007FE000001FFFFFFFFE000001FFFFFFFFF8
310
000001FFFE0000007FFFFFF0001FFFFFF8000FFFFFFFF8000FF8000FFFFFFFF8
310
000FFF0003FFFFFFFFF000001FFFFFFFF000E00000FFFFFFFFFFC000FFC00200
310
0FFC000FFF80007FE00001FFFFFFFFFE00001FFFFFFFFFF8000001FFFE000000
310
7FFFFFF0001FFFFFFC000FFFFFFFF8001FFC000FFFFFFFF8001FFF0003FFFFFF
310
FFF00001FFFFFFFFF000E00007FFFFFFFFFF8000FFC000001FFC000FFF80007F
310
C0000FFFFFFFFFFE0000FFFFFFFFFFF8000001FFFE0000007FFFFFF0001FFFFF
310
FC0007FFFFFFF0001FFC0007FFFFFFF0001FFF0003FFFFFFFFF00007FFFFFFFF
310
F000E0001FFFFFFFFFFF8000FFC000001FFC000FFF80007FC0003FFFFFFFFFFE
310
0001FFFFFFFFFFF8000001FFFE0000007FFFFFF0001FFFFFFC0007FFFFFFF000
310
1FFC0007FFFFFFF0001FFF0003FFFFFFFFF0001FFFFFFFFFF000E0003FFFFF00
310
03FF8001FFE000001FFC0007FF80007FC0007FFFFF0007FC0003FFFFF0003FF8
310
000001FFFE0000007FFFFFF0001FFFFFFC0003FFFFFFE0001FFC0003FFFFFFE0
310
001FFF0003FFFFFFFFF0003FFFFFFFFFF000E0003FFFFF0001FF8001FFE00000
310
1FFE0007FF80007FC0007FFFFE0003FC0007FFFFE0003FF8000001FFFE000000
310
7FFFFFF0001FFFFFFE0003FFFFFFE0003FFE0003FFFFFFE0003FFF0003FFFFFF
310
FFF0003FFFFF8001F000E0003FFFFF0001FF0001FFE000001FFE0007FF80007F
310
C0007FFFFE0003FC0007FFFFE0003FF8000001FFFE0000007FFFFFF0001FFFFF
310
FE0001FFFFFFC0003FFE0001FFFFFFC0003FFF0003FFFFFFFFF0003FFFFF0001
310
F000E0003FFFFF0003FF0001FFE000003FFE0007FF80007FC0007FFFFE0003FC
310
0007FFFFE0003FF8000001FFFE0000007FFFFFF0001FFFFFFF0001FFFFFFC000
310
7FFF0001FFFFFFC0007FFF0003FFFFFFFFF0003FFFFF0001F000E0003FFFFE00
310
03FF0003FFF000003FFE0003FF80007FC0007FFFFC0003FE0007FFFFE0003FF8
310
000001FFFE0000007FFFFFF0001FFFFFFF0000FFFFFF80007FFF0000FFFFFF80
310
007FFF0003FFFFFFFFF0003FFFFF0001F000E0003FFFFE0003FF0003FFF00000
310
3FFF0003FF80007FC0007FFFFC0007FE0007FFFFC0003FF8000001FFFE000000
310
7FFFFFF0001FFFFFFF80007FFFFF0000FFFF80007FFFFF0000FFFF0003FFFFFF
310
FFF0003FFFFF0003F000E0003FFFFC0003FE0003FFF000003FFF0003FF80007F
310
E0003FFFF80007FE0003FFFFC0007FF8000001FFFE0000007FFFFFF0001FFFFF
310
FF80003FFFFE0000FFFF80003FFFFE0000FFFF0003FFFFFFFFF0001FFFFE0003
310
F000F0001FFFF80003FE0003FFF000007FFF0001FF80007FE0003FFFF00007FE
310
0001FFFF80007FF8000001FFFE0000007FFFFFF0001FFFFFFFC0000FFFF80001
310
FFFFC0000FFFF80001FFFF0003FFFFFFFFF0001FFFFC0003F000F0000FFFF000
310
07FE0007FFF800007FFF0001FF80007FE0001FFFE00007FF0000FFFE00007FF8
310
000001FFFE0000007FFFFFF0001FFFFFFFC00003FFE00001FFFFC00003FFE000
310
01FFFF0003FFFFFFFFF8000FFFF80003F000F00003FFC00007FC0007FFF80000
310
7FFF8001FF80007FF00007FF80000FFF00007FF80000FFF8000001FFFE000000
310
7F80000000000001FFE000003E000003FFFFE000003E000003FFFF0003FFFFFF
310
FFF80003FFE00007F000F800000000000FFC0007FFF800007FFF8001FF80007F
310
F000000000000FFF000000000000FFF8000001FFFE0000007F80000000000001
310
FFF0000000000007FFFFF0000000000007FFFF0003FFFFFFFFFC00007E000007
310
F000F800000000000FFC0007FFF80000FFFF8000FF80007FF800000000001FFF
310
800000000001FFF8000001FFFE0000007F80000000000001FFF800000000000F
310
FFFFF800000000000FFFFF0003FFFFFFFFFC00000000000FF000FC0000000000
310
1FFC0007FFFC0000FFFF8000FF80007FF800000000003FFFC00000000001FFF8
310
000001FFFE0000007F80000000000001FFF800000000000FFFFFF80000000000
310
0FFFFF0003FFFFFFFFFE00000000001FF000FE00000000003FF8000FFFFC0000
310
FFFF8000FF80007FFC00000000003FFFC00000000003FFF8000001FFFE000000
310
7F80000000000001FFFC00000000001FFFFFFC00000000001FFFFF0003FFFFFF
310
FFFF00000000001FF000FF00000000003FF8000FFFFC0000FFFFC000FF80007F
310
FE00000000007FFFE00000000007FFF8000001FFFE0000007F80000000000001
310
FFFE00000000003FFFFFFE00000000003FFFFF0003FFFFFFFFFF80000000003F
310
F000FF80000000007FF8000FFFFC0001FFFFC0007F80007FFF0000000000FFFF
310
F0000000000FFFF800000000000000007F80000000000001FFFF8000000000FF
310
FFFFFF8000000000FFFFFF0003FFFFFFFFFFC0000000007FF000FFC000000000
310
FFF8000FFFFE0001FFFFC0007F80007FFF8000000001FFFFF8000000001FFFF8
310
00000000000000007F80000000000001FFFFC000000001FFFFFFFFC000000001
310
FFFFFF0003FFFFFFFFFFE000000000FFF000FFE000000003FFF0001FFFFE0001
310
FFFFC0007F80007FFFC000000007FFFFFE000000003FFFF80000000000000000
310
7F80000000000001FFFFE000000003FFFFFFFFE000000003FFFFFF0003FFFFFF
310
FFFFF000000003FFF000FFF80000000FFFF0001FFFFE0001FFFFE0007F80007F
310
FFF00000000FFFFFFF00000000FFFFF800000000000000007F80000000000001
310
FFFFF80000000FFFFFFFFFF80000000FFFFFFF0003FFFFFFFFFFFC0000000FFF
310
F000FFFE0000003FFFF0001FFFFE0003FFFFE0003F80007FFFFC0000003FFFFF
310
FFC0000003FFFFF800000000000000007F80000000000001FFFFFE0000003FFF
310
FFFFFFFE0000003FFFFFFF0003FFFFFFFFFFFF0000003FFFF000FFFF800000FF
310
FFF0001FFFFF0003FFFFE0003F80007FFFFF000001FFFFFFFFF800001FFFFFF8
310
00000000000000007F80000000000001FFFFFFC00001FFFFFFFFFFFFC00001FF
310
FFFFFF0003FFFFFFFFFFFFC00000FFFFF000FFFFF8000FFFFFFFFFFFFFFFFFFF
310
FFFFFFFFFFFFFFFFFFFFF0001FFFFFFFFFFF0000FFFFFFF80000000000000000
310
7FFFFFFFFFFFFFFFFFFFFFFC001FFFFFFFFFFFFFFC001FFFFFFFFFFFFFFFFFFF
310
FFFFFFFC001FFFFFF000FFFFFFFFFFFFFFFFFFFFFFFFFFFFFFFFFFFFFFFFFFFF
310
FFFFFFFFFFFFFFFFFFFFFFFFFFFFFFFFFFFFFFFFFFFFFFFFFFFFFFFFFFFFFFFF
310
FFFFFFFFFFFFFFFFFFFFFFFFFFFFFFFFFFFFFFFFFFFFFFFFFFFFFFFFFFFFFFFF
310
F000FFFFFFFFFFFFFFFFFFFFFFFFFFFFFFFFFFFFFFFFFFFFFFFFFFFFFFFFFFFF
310
FFFFFFFFFFFFFFFFFFFFFFFFFFFFFFFFFFFFFFFFFFFFFFFFFFFFFFFFFFFFFFFF
310
FFFFFFFFFFFFFFFFFFFFFFFFFFFFFFFFFFFFFFFFFFFFFFFFF000FFFFFFFFFFFF
310
FFFFFFFFFFFFFFFFFFFFFFFFFFFFFFFFFFFFFFFFFFFFFFFFFFFFFFFFFFFFFFFF
310
FFFFFFFFFFFFFFFFFFFFFFFFFFFFFFFFFFFFFFFFFFFFFFFFFFFFFFFFFFFFFFFF
310
FFFFFFFFFFFFFFFFFFFFFFFFFFFFFFFFF000FFFFFFFFFFFFFFFFFFFFFFFFFFFF
310
FFFFFFFFFFFFFFFFFFFFFFFFFFFFFFFFFFFFFFFFFFFFFFFFFFFFFFFFFFFFFFFF
310
FFFFFFFFFFFFFFFFFFFFFFFFFFFFFFFFFFFFFFFFFFFFFFFFFFFFFFFFFFFFFFFF
310
FFFFFFFFFFFFFFFFF000FFFFFFFFFFFFFFFFFFFFFFFFFFFFFFFFFFFFFFFFFFFF
310
FFFFFFFFFFFFFFFFFFFFFFFFFFFFFFFFFFFFFFFFFFFFFFFFFFFFFFFFFFFFFFFF
310
FFFFFFFFFFFFFFFFFFFFFFFFFFFFFFFFFFFFFFFFFFFFFFFFFFFFFFFFFFFFFFFF
310
F000FFFFFFFFFFFFFFFFFFFFFFFFFFFFFFFFFFFFFFFFFFFFFFFFFFFFFFFFFFFF
310
FFFFFFFFFFFFFFFFFFFFFFFFFFFFFFFFFFFFFFFFFFFFFFFFFFFFFFFFFFFFFFFF
310
FFFFFFFFFFFFFFFFFFFFFFFFFFFFFFFFFFFFFFFFFFFFFFFFF000FFFFFFFFFFFF
310
FFFFFFFFFFFFFFFFFFFFFFFFFFFFFFFFFFFFFFFFFFFFFFFFFFFFFFFFFFFFFFFF
310
FFFFFFFFFFFFFFFFFFFFFFFFFFFFFFFFFFFFFFFFFFFFFFFFFFFFFFFFFFFFFFFF
310
FFFFFFFFFFFFFFFFFFFFFFFFFFFFFFFFF000FFFFFFFFFFFFFFFFFFFFFFFFFFFF
310
FFFFFFFFFFFFFFFFFFFFFFFFFFFFFFFFFFFFFFFFFFFFFFFFFFFFFFFFFFFFFFFF
310
FFFFFFFFFFFFFFFFFFFFFFFFFFFFFFFFFFFFFFFFFFFFFFFFFFFFFFFFFFFFFFFF
310
FFFFFFFFFFFFFFFFF000FFFFFFFFFFFFFFFFFFFFFFFFFFFFFFFFFFFFFFFFFFFF
310
FFFFFFFFFFFFFFFFFFFFFFFFFFFFFFFFFFFFFFFFFFFFFFFFFFFFFFFFFFFFFFFF
310
FFFFFFFFFFFFFFFFFFFFFFFFFFFFFFFFFFFFFFFFFFFFFFFFFFFFFFFFFFFFFFFF
310
F000FFFFFFFFFFFFFFFFFFFFFFFFFFFFFFFFFFFFFFFFFFFFFFFFFFFFFFFFFFFF
310
FFFFFFFFFFFFFFFFFFFFFFFFFFFFFFFFFFFFFFFFFFFFFFFFFFFFFFFFFFFFFFFF
310
FFFFFFFFFFFFFFFFFFFFFFFFFFFFFFFFFFFFFFFFFFFFFFFFF000FFFFFFFFFFFF
310
FFFFFFFFFFFFFFFFFFFFFFFFFFFFFFFFFFFFFFFFFFFFFFFFFFFFFFFFFFFFFFFF
310
FFFFFFFFFFFFFFFFFFFFFFFFFFFFFFFFFFFFFFFFFFFFFFFFFFFFFFFFFFFFFFFF
310
FFFFFFFFFFFFFFFFFFFFFFFFFFFFFFFFF000FFFFFFFFFFFFFFFFFFFFFFFFFFFF
310
FFFFFFFFFFFFFFFFFFFFFFFFFFFFFFFFFFFFFFFFFFFFFFFFFFFFFFFFFFFFFFFF
310
FFFFFFFFFFFFFFFFFFFFFFFFFFFFFFFFFFFFFFFFFFFFFFFFFFFFFFFFFFFFFFFF
310
FFFFFFFFFFFFFFFFF000FFFFFFFFFFFFFFFFFFFFFFFFFFFFFFFFFFFFFFFFFFFF
310
FFFFFFFFFFFFFFFFFFFFFFFFFFFFFFFFFFFFFFFFFFFFFFFFFFFFFFFFFFFFFFFF
310
FFFFFFFFFFFFFFFFFFFFFFFFFFFFFFFFFFFFFFFFFFFFFFFFFFFFFFFFFFFFFFFF
310
F000FFFFFFFFFFFFFFFFFFFFFFFFFFFFFFFFFFFFFFFFFFFFFFFFFFFFFFFFFFFF
310
FFFFFFFFFFFFFFFFFFFFFFFFFFFFFFFFFFFFFFFFFFFFFFFFFFFFFFFFFFFFFFFF
310
FFFFFFFFFFFFFFFFFFFFFFFFFFFFFFFFFFFFFFFFFFFFFFFFF000FFFFFFFFFFFF
310
FFFFFFFFFFFFFFFFFFFFFFFFFFFFFFFFFFFFFFFFFFFFFFFFFFFFFFFFFFFFFFFF
310
FFFFFFFFFFFFFFFFFFFFFFFFFFFFFFFFFFFFFFFFFFFFFFFFFFFFFFFFFFFFFFFF
310
FFFFFFFFFFFFFFFFFFFFFFFFFFFFFFFFF000FFFFFFFFFFFFFFFFFFFFFFFFFFFF
310
FFFFFFFFFFFFFFFFFFFFFFFFFFFFFFFFFFFFFFFFFFFFFFFFFFFFFFFFFFFFFFFF
310
FFFFFFFFFFFFFFFFFFFFFFFFFFFFFFFFFFFFFFFFFFFFFFFFFFFFFFFFFFFFFFFF
310
FFFFFFFFFFFFFFFFF000FFFFFFFFFFFFFFFFFFFFFFFFFFFFFFFFFFFFFFFFFFFF
310
FFFFFFFFFFFFFFFFFFFFFFFFFFFFFFFFFFFFFFFFFFFFFFFFFFFFFFFFFFFFFFFF
310
FFFFFFFFFFFFFFFFFFFFFFFFFFFFFFFFFFFFFFFFFFFFFFFFFFFFFFFFFFFFFFFF
310
F000FFFFFFFFFFFFFFFFFFFFFFFFFFFFFFFFFFFFFFFFFFFFFFFFFFFFFFFFFFFF
310
FFFFFFFFFFFFFFFFFFFFFFFFFFFFFFFFFFFFFFFFFFFFFFFFFFFFFFFFFFFFFFFF
310
FFFFFFFFFFFFFFFFFFFFFFFFFFFFFFFFFFFFFFFFFFFFFFFFF000FFFFFFFFFFFF
310
FFFFFFFFFFFFFFFFFFFFFFFFFFFFFFFFFFFFFFFFFFFFFFFFFFFFFFFFFFFFFFFF
310
FFFFFFFFFFFFFFFFFFFFFFFFFFFFFFFFFFFFFFFFFFFFFFFFFFFFFFFFFFFFFFFF
310
FFFFFFFFFFFFFFFFFFFFFFFFFFFFFFFFF000FFFFFFFFFFFFFFFFFFFFFFFFFFFF
310
FFFFFFFFFFFFFFFFFFFFFFFFFFFFFFFFFFFFFFFFFFFFFFFFFFFFFFFFFFFFFFFF
310
FFFFFFFFFFFFFFFFFFFFFFFFFFFFFFFFFFFFFFFFFFFFFFFFFFFFFFFFFFFFFFFF
310
FFFFFFFFFFFFFFFFF000FFFFFFFFFFFFFFFFFFFFFFFFFFFFFFFFFFFFFFFFFFFF
310
FFFFFFFFFFFFFFFFFFFFFFFFFFFFFFFFFFFFFFFFFFFFFFFFFFFFFFFFFFFFFFFF
310
FFFFFFFFFFFFFFFFFFFFFFFFFFFFFFFFFFFFFFFFFFFFFFFFFFFFFFFFFFFFFFFF
310
F000FFFFFFFFFFFFFFFFFFFFFFFFFFFFFFFFFFFFFFFFFFFFFFFFFFFFFFFFFFFF
310
FFFFFFFFFFFFFFFFFFFFFFFFFFFFFFFFFFFFFFFFFFFFFFFFFFFFFFFFFFFFFFFF
310
FFFFFFFFFFFFFFFFFFFFFFFFFFFFFFFFFFFFFFFFFFFFFFFFF000FFFFFFFFFFFF
310
FFFFFFFFFFFFFFFFFFFFFFFFFFFFFFFFFFFFFFFFFFFFFFFFFFFFFFFFFFFFFFFF
310
FFFFFFFFFFFFFFFFFFFFFFFFFFFFFFFFFFFFFFFFFFFFFFFFFFFFFFFFFFFFFFFF
310
FFFFFFFFFFFFFFFFFFFFFFFFFFFFFFFFF0000000000000000000000000000000
310
00000000FFFFFFFFFFFFFFFFFFFFFFFFFFFFFFFFFFFFFFFFFFFFFFFFFFFFFFFF
310
FFFFFFFFFFFFFFFFFFFFFFFFFFFFFFFFFFFFFFFFFFFFFFFFFFFFFFFFFFFFFFFF
310
FFFFFFFFFFFFFFFFFFFFFFFFFFFFFFFFFFFFFFFFFFFFFFFFFFFFFFFFFFFFFFFF
310
FFFFFFFFFFFFFFFFFFFFFFFFFFFFFFFFFFFFFFFFFFFFFFFFFFFFFFFFFFFFFFFF
310
FFFFFFFFFFFFFFFFFFFFFFFFFFFFFFFFFFFFFFFFFFFFFFFFFFFFFFFFFFFFFFFF
310
FFFFFFFFFFFFFFFFFFFFFFFFFFFFFFFFFFFFFFFFFFFFFFFFFFFFFFFFFFFFFFFF
310
FFFFFFFFFFFFFFFFFFFFFFFFFFFFFFFFFFFFFFFFFFFFFFFFFFFFFFFFFFFFFFFF
310
FFFFFFFFFFFFFFFFFFFFFFFFFFFFFFFFFFFFFFFFFFFFFFFFFFFFFFFFFFFFFFFF
310
FFFFFFFFFFFFFFFFFFFFFFFFFFFFFFFFFFFFFFFFFFFFFFFFFFFFFFFFFFFFFFFF
310
FFFFFFFFFFFFFFFFFFFFFFFFFFFFFFFFFFFFFFFFFFFFFFFFFFFFFFFFFFFFFFFF
310
FFFFFFFFFFFFFFFFFFFFFFFFFFFFFFFFFFFFFFFFFFFFFFFFFFFFFFFFFFFFFFFF
310
FFFFFFFFFFFFFFFFFFFFFFFFFFFFFFFFFFFFFFFFFFFFFFFFFFFFFFFFFFFFFFFF
310
FFFFFFFFFFFFFFFFFFFFFFFFFFFFFFFFFFFFFFFFFFFFFFFFFFFFFFFFFFFFFFFF
310
FFFFFFFFFFFFFFFFFFFFFFFFFFFFFFFFFFFFFFFFFFFFFFFFFFFFFFFFFFFFFFFF
310
FFFFFFFFFFFFFFFFFFFFFFFFFFFFFFFFFFFFFFFFFFFFFFFFFFFFFFFFFFFFFFFF
  1
OLE
  0
ENDSEC
  0
SECTION
  2
OBJECTS
  0
DICTIONARY
  5
C
330
0
100
AcDbDictionary
281
     1
  3
ACAD_GROUP
350
D
  3
ACAD_LAYOUT
350
1A
  3
ACAD_MLEADERSTYLE
350
2B3
  3
ACAD_MLINESTYLE
350
17
  3
ACAD_PLOTSETTINGS
350
19
  3
ACAD_PLOTSTYLENAME
350
E
  3
ACAD_TABLESTYLE
350
2B2
  3
ACAD_VISUALSTYLE
350
2A
  3
AcDbVariableDictionary
350
2B4
  0
DICTIONARY
  5
D
102
{ACAD_REACTORS
330
C
102
}
330
C
100
AcDbDictionary
281
     1
  0
DICTIONARY
  5
1A
102
{ACAD_REACTORS
330
C
102
}
330
C
100
AcDbDictionary
281
     1
  3
Layout1
350
1E
  3
Layout2
350
26
  3
Model
350
22
  0
DICTIONARY
  5
2B3
102
{ACAD_REACTORS
330
C
102
}
330
C
100
AcDbDictionary
281
     1
  0
DICTIONARY
  5
17
102
{ACAD_REACTORS
330
C
102
}
330
C
100
AcDbDictionary
281
     1
  3
Standard
350
18
  0
DICTIONARY
  5
19
102
{ACAD_REACTORS
330
C
102
}
330
C
100
AcDbDictionary
281
     1
  0
ACDBDICTIONARYWDFLT
  5
E
102
{ACAD_REACTORS
330
C
102
}
330
C
100
AcDbDictionary
281
     1
  3
Normal
350
F
100
AcDbDictionaryWithDefault
340
F
  0
DICTIONARY
  5
2B2
102
{ACAD_REACTORS
330
C
102
}
330
C
100
AcDbDictionary
281
     1
  0
DICTIONARY
  5
2A
102
{ACAD_REACTORS
330
C
102
}
330
C
100
AcDbDictionary
281
     1
  3
2dWireframe
350
2F
  3
3D Hidden
350
31
  3
3dWireframe
350
30
  3
Basic
350
32
  3
Brighten
350
36
  3
ColorChange
350
3A
  3
Conceptual
350
34
  3
Dim
350
35
  3
Facepattern
350
39
  3
Flat
350
2B
  3
FlatWithEdges
350
2C
  3
Gouraud
350
2D
  3
GouraudWithEdges
350
2E
  3
Linepattern
350
38
  3
Realistic
350
33
  3
Thicken
350
37
  0
DICTIONARY
  5
2B4
102
{ACAD_REACTORS
330
C
102
}
330
C
100
AcDbDictionary
281
     1
  3
PSOLHEIGHT
350
2B6
  3
PSOLWIDTH
350
2B5
  0
LAYOUT
  5
1E
102
{ACAD_REACTORS
330
1A
102
}
330
1A
100
AcDbPlotSettings
  1

  2
none_device
  4

  6

 40
0.0
 41
0.0
 42
0.0
 43
0.0
 44
0.0
 45
0.0
 46
0.0
 47
0.0
 48
0.0
 49
0.0
140
0.0
141
0.0
142
1.0
143
1.0
 70
   688
 72
     0
 73
     0
 74
     5
  7

 75
    16
147
1.0
148
0.0
149
0.0
100
AcDbLayout
  1
Layout1
 70
     1
 71
     1
 10
0.0
 20
0.0
 11
420.0
 21
297.0
 12
0.0
 22
0.0
 32
0.0
 14
1.0000000000E+20
 24
1.0000000000E+20
 34
1.0000000000E+20
 15
-1.0000000000E+20
 25
-1.0000000000E+20
 35
-1.0000000000E+20
146
0.0
 13
0.0
 23
0.0
 33
0.0
 16
1.0
 26
0.0
 36
0.0
 17
0.0
 27
1.0
 37
0.0
 76
     0
330
1B
  0
LAYOUT
  5
26
102
{ACAD_REACTORS
330
1A
102
}
330
1A
100
AcDbPlotSettings
  1

  2
none_device
  4

  6

 40
0.0
 41
0.0
 42
0.0
 43
0.0
 44
0.0
 45
0.0
 46
0.0
 47
0.0
 48
0.0
 49
0.0
140
0.0
141
0.0
142
1.0
143
1.0
 70
   688
 72
     0
 73
     0
 74
     5
  7

 75
    16
147
1.0
148
0.0
149
0.0
100
AcDbLayout
  1
Layout2
 70
     1
 71
     2
 10
0.0
 20
0.0
 11
0.0
 21
0.0
 12
0.0
 22
0.0
 32
0.0
 14
0.0
 24
0.0
 34
0.0
 15
0.0
 25
0.0
 35
0.0
146
0.0
 13
0.0
 23
0.0
 33
0.0
 16
1.0
 26
0.0
 36
0.0
 17
0.0
 27
1.0
 37
0.0
 76
     0
330
23
  0
LAYOUT
  5
22
102
{ACAD_REACTORS
330
1A
102
}
330
1A
100
AcDbPlotSettings
  1

  2
none_device
  4

  6

 40
0.0
 41
0.0
 42
0.0
 43
0.0
 44
0.0
 45
0.0
 46
0.0
 47
0.0
 48
0.0
 49
0.0
140
0.0
141
0.0
142
1.0
143
1.0
 70
  1712
 72
     0
 73
     0
 74
     0
  7

 75
     0
147
1.0
148
0.0
149
0.0
100
AcDbLayout
  1
Model
 70
     1
 71
     0
 10
0.0
 20
0.0
 11
297.0
 21
210.0
 12
0.0
 22
0.0
 32
0.0
 14
0.0
 24
0.0
 34
0.0
 15
297.0
 25
210.0
 35
0.0
146
0.0
 13
0.0
 23
0.0
 33
0.0
 16
1.0
 26
0.0
 36
0.0
 17
0.0
 27
1.0
 37
0.0
 76
     0
330
1F
331
29
  0
MLINESTYLE
  5
18
102
{ACAD_REACTORS
330
17
102
}
330
17
100
AcDbMlineStyle
  2
Standard
 70
     0
  3

 62
   256
 51
90.0
 52
90.0
 71
     2
 49
0.5
 62
   256
  6
BYLAYER
 49
-0.5
 62
   256
  6
BYLAYER
  0
ACDBPLACEHOLDER
  5
F
102
{ACAD_REACTORS
330
E
102
}
330
E
  0
VISUALSTYLE
  5
2F
102
{ACAD_REACTORS
330
2A
102
}
330
2A
100
AcDbVisualStyle
  2
2dWireframe
 70
     4
 71
     0
 72
     2
 73
     0
 90
        0
 40
-0.6
 41
-30.0
 62
     5
 63
     7
 74
     1
 91
        4
 64
     7
 65
   257
 75
     1
175
     1
 42
1.0
 92
        0
 66
   257
 43
1.0
 76
     1
 77
     6
 78
     2
 67
     7
 79
     5
170
     0
171
     0
290
     0
174
     0
 93
        1
 44
0.0
173
     0
291
     0
 45
0.0
1001
ACAD
1000
AcDbSavedByObjectVersion
1070
     0
  0
VISUALSTYLE
  5
31
102
{ACAD_REACTORS
330
2A
102
}
330
2A
100
AcDbVisualStyle
  2
3D Hidden
 70
     6
 71
     1
 72
     2
 73
     2
 90
        0
 40
-0.6
 41
-30.0
 62
     5
 63
     7
 74
     2
 91
        2
 64
     7
 65
   257
 75
     2
175
     1
 42
40.0
 92
        0
 66
   257
 43
1.0
 76
     1
 77
     6
 78
     2
 67
     7
 79
     3
170
     0
171
     0
290
     0
174
     0
 93
        1
 44
0.0
173
     0
291
     0
 45
0.0
1001
ACAD
1000
AcDbSavedByObjectVersion
1070
     0
  0
VISUALSTYLE
  5
30
102
{ACAD_REACTORS
330
2A
102
}
330
2A
100
AcDbVisualStyle
  2
3dWireframe
 70
     5
 71
     0
 72
     2
 73
     0
 90
        0
 40
-0.6
 41
-30.0
 62
     5
 63
     7
 74
     1
 91
        4
 64
     7
 65
   257
 75
     1
175
     1
 42
1.0
 92
        0
 66
   257
 43
1.0
 76
     1
 77
     6
 78
     2
 67
     7
 79
     5
170
     0
171
     0
290
     0
174
     0
 93
        1
 44
0.0
173
     0
291
     0
 45
0.0
1001
ACAD
1000
AcDbSavedByObjectVersion
1070
     0
  0
VISUALSTYLE
  5
32
102
{ACAD_REACTORS
330
2A
102
}
330
2A
100
AcDbVisualStyle
  2
Basic
 70
     7
 71
     1
 72
     0
 73
     1
 90
        0
 40
-0.6
 41
-30.0
 62
     5
 63
     7
 74
     0
 91
        4
 64
     7
 65
   257
 75
     1
175
     1
 42
1.0
 92
        8
 66
     7
 43
1.0
 76
     1
 77
     6
 78
     2
 67
     7
 79
     5
170
     0
171
     0
290
     0
174
     0
 93
        1
 44
0.0
173
     0
291
     1
 45
0.0
1001
ACAD
1000
AcDbSavedByObjectVersion
1070
     0
  0
VISUALSTYLE
  5
36
102
{ACAD_REACTORS
330
2A
102
}
330
2A
100
AcDbVisualStyle
  2
Brighten
 70
    12
 71
     2
 72
     2
 73
     0
 90
        0
 40
-0.6
 41
-30.0
 62
     5
 63
     7
 74
     1
 91
        4
 64
     7
 65
   257
 75
     1
175
     1
 42
1.0
 92
        8
 66
     7
 43
1.0
 76
     1
 77
     6
 78
     2
 67
     7
 79
     5
170
     0
171
     0
290
     0
174
     0
 93
        1
 44
50.0
173
     0
291
     1
 45
0.0
1001
ACAD
1000
AcDbSavedByObjectVersion
1070
     0
  0
VISUALSTYLE
  5
3A
102
{ACAD_REACTORS
330
2A
102
}
330
2A
100
AcDbVisualStyle
  2
ColorChange
 70
    16
 71
     2
 72
     2
 73
     3
 90
        0
 40
-0.6
 41
-30.0
 62
     5
 63
     8
 74
     1
 91
        4
 64
     7
 65
   257
 75
     1
175
     1
 42
1.0
 92
        8
 66
     8
 43
1.0
 76
     1
 77
     6
 78
     2
 67
     7
 79
     5
170
     0
171
     0
290
     0
174
     0
 93
        1
 44
0.0
173
     0
291
     1
 45
0.0
1001
ACAD
1000
AcDbSavedByObjectVersion
1070
     0
  0
VISUALSTYLE
  5
34
102
{ACAD_REACTORS
330
2A
102
}
330
2A
100
AcDbVisualStyle
  2
Conceptual
 70
     9
 71
     3
 72
     2
 73
     0
 90
        0
 40
-0.6
 41
-30.0
 62
     5
 63
     7
 74
     2
 91
        2
 64
     7
 65
   257
 75
     1
175
     1
 42
40.0
 92
        8
 66
     7
 43
1.0
 76
     1
 77
     6
 78
     2
 67
     7
 79
     3
170
     0
171
     0
290
     0
174
     0
 93
        1
 44
0.0
173
     0
291
     0
 45
0.0
1001
ACAD
1000
AcDbSavedByObjectVersion
1070
     0
  0
VISUALSTYLE
  5
35
102
{ACAD_REACTORS
330
2A
102
}
330
2A
100
AcDbVisualStyle
  2
Dim
 70
    11
 71
     2
 72
     2
 73
     0
 90
        0
 40
-0.6
 41
-30.0
 62
     5
 63
     7
 74
     1
 91
        4
 64
     7
 65
   257
 75
     1
175
     1
 42
1.0
 92
        8
 66
     7
 43
1.0
 76
     1
 77
     6
 78
     2
 67
     7
 79
     5
170
     0
171
     0
290
     0
174
     0
 93
        1
 44
-50.0
173
     0
291
     1
 45
0.0
1001
ACAD
1000
AcDbSavedByObjectVersion
1070
     0
  0
VISUALSTYLE
  5
39
102
{ACAD_REACTORS
330
2A
102
}
330
2A
100
AcDbVisualStyle
  2
Facepattern
 70
    15
 71
     2
 72
     2
 73
     0
 90
        0
 40
-0.6
 41
-30.0
 62
     5
 63
     7
 74
     1
 91
        4
 64
     7
 65
   257
 75
     1
175
     1
 42
1.0
 92
        8
 66
     7
 43
1.0
 76
     1
 77
     6
 78
     2
 67
     7
 79
     5
170
     0
171
     0
290
     0
174
     0
 93
        1
 44
0.0
173
     0
291
     1
 45
0.0
1001
ACAD
1000
AcDbSavedByObjectVersion
1070
     0
  0
VISUALSTYLE
  5
2B
102
{ACAD_REACTORS
330
2A
102
}
330
2A
100
AcDbVisualStyle
  2
Flat
 70
     0
 71
     2
 72
     1
 73
     1
 90
        2
 40
-0.6
 41
30.0
 62
     5
 63
     7
 74
     0
 91
        4
 64
     7
 65
   257
 75
     1
175
     1
 42
1.0
 92
        8
 66
     7
 43
1.0
 76
     1
 77
     6
 78
     2
 67
     7
 79
     5
170
     0
171
     0
290
     0
174
     0
 93
       13
 44
0.0
173
     0
291
     1
 45
0.0
1001
ACAD
1000
AcDbSavedByObjectVersion
1070
     0
  0
VISUALSTYLE
  5
2C
102
{ACAD_REACTORS
330
2A
102
}
330
2A
100
AcDbVisualStyle
  2
FlatWithEdges
 70
     1
 71
     2
 72
     1
 73
     1
 90
        2
 40
-0.6
 41
30.0
 62
     5
 63
     7
 74
     1
 91
        4
 64
     7
 65
   257
 75
     1
175
     1
 42
1.0
 92
        0
 66
   257
 43
1.0
 76
     1
 77
     6
 78
     2
 67
     7
 79
     5
170
     0
171
     0
290
     0
174
     0
 93
       13
 44
0.0
173
     0
291
     1
 45
0.0
1001
ACAD
1000
AcDbSavedByObjectVersion
1070
     0
  0
VISUALSTYLE
  5
2D
102
{ACAD_REACTORS
330
2A
102
}
330
2A
100
AcDbVisualStyle
  2
Gouraud
 70
     2
 71
     2
 72
     2
 73
     1
 90
        2
 40
-0.6
 41
30.0
 62
     5
 63
     7
 74
     0
 91
        4
 64
     7
 65
   257
 75
     1
175
     1
 42
1.0
 92
        0
 66
     7
 43
1.0
 76
     1
 77
     6
 78
     2
 67
     7
 79
     5
170
     0
171
     0
290
     0
174
     0
 93
       13
 44
0.0
173
     0
291
     1
 45
0.0
1001
ACAD
1000
AcDbSavedByObjectVersion
1070
     0
  0
VISUALSTYLE
  5
2E
102
{ACAD_REACTORS
330
2A
102
}
330
2A
100
AcDbVisualStyle
  2
GouraudWithEdges
 70
     3
 71
     2
 72
     2
 73
     1
 90
        2
 40
-0.6
 41
30.0
 62
     5
 63
     7
 74
     1
 91
        4
 64
     7
 65
   257
 75
     1
175
     1
 42
1.0
 92
        0
 66
   257
 43
1.0
 76
     1
 77
     6
 78
     2
 67
     7
 79
     5
170
     0
171
     0
290
     0
174
     0
 93
       13
 44
0.0
173
     0
291
     1
 45
0.0
1001
ACAD
1000
AcDbSavedByObjectVersion
1070
     0
  0
VISUALSTYLE
  5
38
102
{ACAD_REACTORS
330
2A
102
}
330
2A
100
AcDbVisualStyle
  2
Linepattern
 70
    14
 71
     2
 72
     2
 73
     0
 90
        0
 40
-0.6
 41
-30.0
 62
     5
 63
     7
 74
     1
 91
        4
 64
     7
 65
   257
 75
     7
175
     7
 42
1.0
 92
        8
 66
     7
 43
1.0
 76
     1
 77
     6
 78
     2
 67
     7
 79
     5
170
     0
171
     0
290
     0
174
     0
 93
        1
 44
0.0
173
     0
291
     1
 45
0.0
1001
ACAD
1000
AcDbSavedByObjectVersion
1070
     0
  0
VISUALSTYLE
  5
33
102
{ACAD_REACTORS
330
2A
102
}
330
2A
100
AcDbVisualStyle
  2
Realistic
 70
     8
 71
     2
 72
     2
 73
     0
 90
        0
 40
-0.6
 41
-30.0
 62
     5
 63
     7
 74
     1
 91
        0
 64
     7
 65
   257
 75
     1
175
     1
 42
1.0
 92
        8
 66
     8
 43
1.0
 76
     1
 77
     6
 78
     2
 67
     7
 79
     5
170
     0
171
     0
290
     0
174
     0
 93
       13
 44
0.0
173
     0
291
     0
 45
0.0
1001
ACAD
1000
AcDbSavedByObjectVersion
1070
     0
  0
VISUALSTYLE
  5
37
102
{ACAD_REACTORS
330
2A
102
}
330
2A
100
AcDbVisualStyle
  2
Thicken
 70
    13
 71
     2
 72
     2
 73
     0
 90
        0
 40
-0.6
 41
-30.0
 62
     5
 63
     7
 74
     1
 91
        4
 64
     7
 65
   257
 75
     1
175
     1
 42
1.0
 92
       12
 66
     7
 43
1.0
 76
     1
 77
     6
 78
     2
 67
     7
 79
     5
170
     0
171
     0
290
     0
174
     0
 93
        1
 44
0.0
173
     0
291
     1
 45
0.0
1001
ACAD
1000
AcDbSavedByObjectVersion
1070
     0
  0
DICTIONARYVAR
  5
2B6
102
{ACAD_REACTORS
330
2B4
102
}
330
2B4
100
DictionaryVariables
280
     0
  1
80.000000
  0
DICTIONARYVAR
  5
2B5
102
{ACAD_REACTORS
330
2B4
102
}
330
2B4
100
DictionaryVariables
280
     0
  1
5.000000
  0
ENDSEC
  0
EOF
