  0
SECTION
  2
HEADER
  9
$ACADVER
  1
AC1015
  9
$ACADMAINTVER
 70
     6
  9
$DWGCODEPAGE
  3
ANSI_1252
  9
$INSBASE
 10
0.0
 20
0.0
 30
0.0
  9
$EXTMIN
 10
0.0
 20
0.0
 30
0.0
  9
$EXTMAX
 10
297.0
 20
210.0
 30
0.0
  9
$LIMMIN
 10
0.0
 20
0.0
  9
$LIMMAX
 10
297.0
 20
210.0
  9
$ORTHOMODE
 70
     0
  9
$REGENMODE
 70
     1
  9
$FILLMODE
 70
     1
  9
$QTEXTMODE
 70
     0
  9
$MIRRTEXT
 70
     1
  9
$LTSCALE
 40
1.0
  9
$ATTMODE
 70
     1
  9
$TEXTSIZE
 40
2.0
  9
$TRACEWID
 40
1.0
  9
$TEXTSTYLE
  7
Standard
  9
$CLAYER
  8
0
  9
$CELTYPE
  6
ByLayer
  9
$CECOLOR
 62
   256
  9
$CELTSCALE
 40
1.0
  9
$DISPSILH
 70
     0
  9
$DIMSCALE
 40
1.0
  9
$DIMASZ
 40
3.0
  9
$DIMEXO
 40
0.0
  9
$DIMDLI
 40
3.75
  9
$DIMRND
 40
0.0
  9
$DIMDLE
 40
0.0
  9
$DIMEXE
 40
1.0
  9
$DIMTP
 40
0.0
  9
$DIMTM
 40
0.0
  9
$DIMTXT
 40
2.0
  9
$DIMCEN
 40
2.5
  9
$DIMTSZ
 40
0.0
  9
$DIMTOL
 70
     0
  9
$DIMLIM
 70
     0
  9
$DIMTIH
 70
     1
  9
$DIMTOH
 70
     1
  9
$DIMSE1
 70
     0
  9
$DIMSE2
 70
     0
  9
$DIMTAD
 70
     1
  9
$DIMZIN
 70
     0
  9
$DIMBLK
  1

  9
$DIMASO
 70
     1
  9
$DIMSHO
 70
     1
  9
$DIMPOST
  1

  9
$DIMAPOST
  1

  9
$DIMALT
 70
     0
  9
$DIMALTD
 70
     3
  9
$DIMALTF
 40
0.0393700787
  9
$DIMLFAC
 40
1.0
  9
$DIMTOFL
 70
     1
  9
$DIMTVP
 40
0.0
  9
$DIMTIX
 70
     0
  9
$DIMSOXD
 70
     0
  9
$DIMSAH
 70
     0
  9
$DIMBLK1
  1

  9
$DIMBLK2
  1

  9
$DIMSTYLE
  2
ISO-25
  9
$DIMCLRD
 70
     0
  9
$DIMCLRE
 70
     0
  9
$DIMCLRT
 70
     0
  9
$DIMTFAC
 40
1.0
  9
$DIMGAP
 40
1.524
  9
$DIMJUST
 70
     0
  9
$DIMSD1
 70
     0
  9
$DIMSD2
 70
     0
  9
$DIMTOLJ
 70
     0
  9
$DIMTZIN
 70
     0
  9
$DIMALTZ
 70
     0
  9
$DIMALTTZ
 70
     0
  9
$DIMUPT
 70
     0
  9
$DIMDEC
 70
     2
  9
$DIMTDEC
 70
     3
  9
$DIMALTU
 70
     2
  9
$DIMALTTD
 70
     3
  9
$DIMTXSTY
  7
Standard
  9
$DIMAUNIT
 70
     0
  9
$DIMADEC
 70
     2
  9
$DIMALTRND
 40
0.0
  9
$DIMAZIN
 70
     0
  9
$DIMDSEP
 70
    44
  9
$DIMATFIT
 70
     3
  9
$DIMFRAC
 70
     0
  9
$DIMLDRBLK
  1

  9
$DIMLUNIT
 70
     2
  9
$DIMLWD
 70
    -2
  9
$DIMLWE
 70
    -2
  9
$DIMTMOVE
 70
     0
  9
$LUNITS
 70
     2
  9
$LUPREC
 70
     2
  9
$SKETCHINC
 40
1.0
  9
$FILLETRAD
 40
10.0
  9
$AUNITS
 70
     0
  9
$AUPREC
 70
     2
  9
$MENU
  1
.
  9
$ELEVATION
 40
0.0
  9
$PELEVATION
 40
0.0
  9
$THICKNESS
 40
0.0
  9
$LIMCHECK
 70
     0
  9
$CHAMFERA
 40
10.0
  9
$CHAMFERB
 40
10.0
  9
$CHAMFERC
 40
20.0
  9
$CHAMFERD
 40
0.0
  9
$SKPOLY
 70
     0
  9
$TDCREATE
 40
2455624.351173727
  9
$TDUCREATE
 40
2455624.30950706
  9
$TDUPDATE
 40
2455624.351173738
  9
$TDUUPDATE
 40
2455624.309507072
  9
$TDINDWG
 40
0.0000000116
  9
$TDUSRTIMER
 40
0.0000000116
  9
$USRTIMER
 70
     1
  9
$ANGBASE
 50
0.0
  9
$ANGDIR
 70
     0
  9
$PDMODE
 70
     0
  9
$PDSIZE
 40
-1.0
  9
$PLINEWID
 40
0.0
  9
$SPLFRAME
 70
     0
  9
$SPLINETYPE
 70
     6
  9
$SPLINESEGS
 70
     8
  9
$HANDSEED
  5
2B7
  9
$SURFTAB1
 70
     6
  9
$SURFTAB2
 70
     6
  9
$SURFTYPE
 70
     6
  9
$SURFU
 70
     6
  9
$SURFV
 70
     6
  9
$UCSBASE
  2

  9
$UCSNAME
  2

  9
$UCSORG
 10
0.0
 20
0.0
 30
0.0
  9
$UCSXDIR
 10
1.0
 20
0.0
 30
0.0
  9
$UCSYDIR
 10
0.0
 20
1.0
 30
0.0
  9
$UCSORTHOREF
  2

  9
$UCSORTHOVIEW
 70
     0
  9
$UCSORGTOP
 10
0.0
 20
0.0
 30
0.0
  9
$UCSORGBOTTOM
 10
0.0
 20
0.0
 30
0.0
  9
$UCSORGLEFT
 10
0.0
 20
0.0
 30
0.0
  9
$UCSORGRIGHT
 10
0.0
 20
0.0
 30
0.0
  9
$UCSORGFRONT
 10
0.0
 20
0.0
 30
0.0
  9
$UCSORGBACK
 10
0.0
 20
0.0
 30
0.0
  9
$PUCSBASE
  2

  9
$PUCSNAME
  2

  9
$PUCSORG
 10
0.0
 20
0.0
 30
0.0
  9
$PUCSXDIR
 10
1.0
 20
0.0
 30
0.0
  9
$PUCSYDIR
 10
0.0
 20
1.0
 30
0.0
  9
$PUCSORTHOREF
  2

  9
$PUCSORTHOVIEW
 70
     0
  9
$PUCSORGTOP
 10
0.0
 20
0.0
 30
0.0
  9
$PUCSORGBOTTOM
 10
0.0
 20
0.0
 30
0.0
  9
$PUCSORGLEFT
 10
0.0
 20
0.0
 30
0.0
  9
$PUCSORGRIGHT
 10
0.0
 20
0.0
 30
0.0
  9
$PUCSORGFRONT
 10
0.0
 20
0.0
 30
0.0
  9
$PUCSORGBACK
 10
0.0
 20
0.0
 30
0.0
  9
$USERI1
 70
     0
  9
$USERI2
 70
     0
  9
$USERI3
 70
     0
  9
$USERI4
 70
     0
  9
$USERI5
 70
     0
  9
$USERR1
 40
0.0
  9
$USERR2
 40
0.0
  9
$USERR3
 40
0.0
  9
$USERR4
 40
0.0
  9
$USERR5
 40
0.0
  9
$WORLDVIEW
 70
     1
  9
$SHADEDGE
 70
     3
  9
$SHADEDIF
 70
    70
  9
$TILEMODE
 70
     1
  9
$MAXACTVP
 70
    64
  9
$PINSBASE
 10
0.0
 20
0.0
 30
0.0
  9
$PLIMCHECK
 70
     0
  9
$PEXTMIN
 10
1.0000000000E+20
 20
1.0000000000E+20
 30
1.0000000000E+20
  9
$PEXTMAX
 10
-1.0000000000E+20
 20
-1.0000000000E+20
 30
-1.0000000000E+20
  9
$PLIMMIN
 10
0.0
 20
0.0
  9
$PLIMMAX
 10
420.0
 20
297.0
  9
$UNITMODE
 70
     0
  9
$VISRETAIN
 70
     1
  9
$PLINEGEN
 70
     0
  9
$PSLTSCALE
 70
     1
  9
$TREEDEPTH
 70
  3020
  9
$CMLSTYLE
  2
Standard
  9
$CMLJUST
 70
     0
  9
$CMLSCALE
 40
20.0
  9
$PROXYGRAPHICS
 70
     1
  9
$MEASUREMENT
 70
     1
  9
$CELWEIGHT
370
    -1
  9
$ENDCAPS
280
     0
  9
$JOINSTYLE
280
     0
  9
$LWDISPLAY
290
     1
  9
$INSUNITS
 70
     4
  9
$HYPERLINKBASE
  1

  9
$STYLESHEET
  1

  9
$XEDIT
290
     1
  9
$CEPSNTYPE
380
     0
  9
$PSTYLEMODE
290
     1
  9
$FINGERPRINTGUID
  2
{5624B124-4E58-4414-BCE1-BD69240697A1}
  9
$VERSIONGUID
  2
{FAEB1C32-E019-11D5-929B-00C0DF256EC4}
  9
$EXTNAMES
290
     1
  9
$PSVPSCALE
 40
0.0
  9
$OLESTARTUP
290
     0
  0
ENDSEC
  0
SECTION
  2
CLASSES
  0
CLASS
  1
ACDBDICTIONARYWDFLT
  2
AcDbDictionaryWithDefault
  3
ObjectDBX Classes
 90
        0
280
     0
281
     0
  0
CLASS
  1
VISUALSTYLE
  2
AcDbVisualStyle
  3
ObjectDBX Classes
 90
     4095
280
     0
281
     0
  0
CLASS
  1
DICTIONARYVAR
  2
AcDbDictionaryVar
  3
ObjectDBX Classes
 90
        0
280
     0
281
     0
  0
CLASS
  1
ACDBPLACEHOLDER
  2
AcDbPlaceHolder
  3
ObjectDBX Classes
 90
        0
280
     0
281
     0
  0
CLASS
  1
LAYOUT
  2
AcDbLayout
  3
ObjectDBX Classes
 90
        0
280
     0
281
     0
  0
ENDSEC
  0
SECTION
  2
TABLES
  0
TABLE
  2
VPORT
  5
8
330
0
100
AcDbSymbolTable
 70
     1
  0
VPORT
  5
29
330
8
100
AcDbSymbolTableRecord
100
AcDbViewportTableRecord
  2
*Active
 70
     0
 10
0.0
 20
0.0
 11
1.0
 21
1.0
 12
148.5
 22
105.0
 13
0.0
 23
0.0
 14
10.0
 24
10.0
 15
10.0
 25
10.0
 16
0.0
 26
0.0
 36
1.0
 17
0.0
 27
0.0
 37
0.0
 40
210.0
 41
1.4142857143
 42
50.0
 43
0.0
 44
0.0
 50
0.0
 51
0.0
 71
     0
 72
  2000
 73
     1
 74
     3
 75
     0
 76
     0
 77
     0
 78
     0
281
     0
 65
     1
110
0.0
120
0.0
130
0.0
111
1.0
121
0.0
131
0.0
112
0.0
122
1.0
132
0.0
 79
     0
146
0.0
  0
ENDTAB
  0
TABLE
  2
LTYPE
  5
5
330
0
100
AcDbSymbolTable
 70
     6
  0
LTYPE
  5
14
330
5
100
AcDbSymbolTableRecord
100
AcDbLinetypeTableRecord
  2
ByBlock
 70
     0
  3

 72
    65
 73
     0
 40
0.0
  0
LTYPE
  5
15
330
5
100
AcDbSymbolTableRecord
100
AcDbLinetypeTableRecord
  2
ByLayer
 70
     0
  3

 72
    65
 73
     0
 40
0.0
  0
LTYPE
  5
16
330
5
100
AcDbSymbolTableRecord
100
AcDbLinetypeTableRecord
  2
Continuous
 70
     0
  3
Solid line
 72
    65
 73
     0
 40
0.0
  0
LTYPE
  5
3B
330
5
100
AcDbSymbolTableRecord
100
AcDbLinetypeTableRecord
  2
HIDDEN
 70
     0
  3
Hidden __ __ __ __ __ __ __ __ __ __ __ __ __ __
 72
    65
 73
     2
 40
1.905
 49
1.27
 74
     0
 49
-0.635
 74
     0
  0
LTYPE
  5
3C
330
5
100
AcDbSymbolTableRecord
100
AcDbLinetypeTableRecord
  2
PHANTOM
 70
     0
  3
Phantom ______  __  __  ______  __  __  ______
 72
    65
 73
     6
 40
12.7
 49
6.35
 74
     0
 49
-1.27
 74
     0
 49
1.27
 74
     0
 49
-1.27
 74
     0
 49
1.27
 74
     0
 49
-1.27
 74
     0
  0
LTYPE
  5
3D
330
5
100
AcDbSymbolTableRecord
100
AcDbLinetypeTableRecord
  2
CENTER
 70
     0
  3
Center ____ _ ____ _ ____ _ ____ _ ____ _ ____
 72
    65
 73
     4
 40
10.16
 49
6.35
 74
     0
 49
-1.27
 74
     0
 49
1.27
 74
     0
 49
-1.27
 74
     0
  0
LTYPE
  5
3E
330
5
100
AcDbSymbolTableRecord
100
AcDbLinetypeTableRecord
  2
CENTERX2
 70
     0
  3
Center (2x) ________  __  ________  __  _____
 72
    65
 73
     4
 40
20.32
 49
12.7
 74
     0
 49
-2.54
 74
     0
 49
2.54
 74
     0
 49
-2.54
 74
     0
  0
LTYPE
  5
3F
330
5
100
AcDbSymbolTableRecord
100
AcDbLinetypeTableRecord
  2
DOT2
 70
     0
  3
Dot (.5x) ........................................
 72
    65
 73
     2
 40
0.635
 49
0.0
 74
     0
 49
-0.635
 74
     0
  0
ENDTAB
  0
TABLE
  2
LAYER
  5
2
330
0
100
AcDbSymbolTable
 70
     5
  0
LAYER
  5
10
330
2
100
AcDbSymbolTableRecord
100
AcDbLayerTableRecord
  2
0
 70
     0
 62
     7
  6
Continuous
370
    -3
390
F
  0
LAYER
  5
40
330
2
100
AcDbSymbolTableRecord
100
AcDbLayerTableRecord
  2
FORMAT
 70
     0
 62
     7
  6
Continuous
370
    -3
390
F
  0
LAYER
  5
41
330
2
100
AcDbSymbolTableRecord
100
AcDbLayerTableRecord
  2
VERMASSUNG
 70
     0
 62
     7
  6
Continuous
370
    -3
390
F
  0
LAYER
  5
42
330
2
100
AcDbSymbolTableRecord
100
AcDbLayerTableRecord
  2
KOPF_DÜNN
 70
     0
 62
     7
  6
Continuous
370
    -3
390
F
  0
LAYER
  5
43
330
2
100
AcDbSymbolTableRecord
100
AcDbLayerTableRecord
  2
KOPF_DICK
 70
     0
 62
     7
  6
Continuous
370
    15
390
F
  0
ENDTAB
  0
TABLE
  2
STYLE
  5
3
330
0
100
AcDbSymbolTable
 70
     3
  0
STYLE
  5
11
330
3
100
AcDbSymbolTableRecord
100
AcDbTextStyleTableRecord
  2
Standard
 70
     0
 40
0.0
 41
1.0
 50
0.0
 71
     0
 42
2.5
  3
txt
  4

  0
STYLE
  5
44
330
3
100
AcDbSymbolTableRecord
100
AcDbTextStyleTableRecord
  2
SLDTEXTSTYLE0
 70
     0
 40
0.0
 41
0.7
 50
0.0
 71
     0
 42
0.2
  3
TXT
  4

  0
STYLE
  5
48
330
3
100
AcDbSymbolTableRecord
100
AcDbTextStyleTableRecord
  2
SLDTEXTSTYLE1
 70
     0
 40
0.0
 41
0.6526315789
 50
0.0
 71
     0
 42
0.2
  3
TXT
  4

  0
ENDTAB
  0
TABLE
  2
VIEW
  5
6
330
0
100
AcDbSymbolTable
 70
     0
  0
ENDTAB
  0
TABLE
  2
UCS
  5
7
330
0
100
AcDbSymbolTable
 70
     0
  0
ENDTAB
  0
TABLE
  2
APPID
  5
9
330
0
100
AcDbSymbolTable
 70
     1
  0
APPID
  5
12
330
9
100
AcDbSymbolTableRecord
100
AcDbRegAppTableRecord
  2
ACAD
 70
     0
  0
ENDTAB
  0
TABLE
  2
DIMSTYLE
  5
A
330
0
100
AcDbSymbolTable
 70
     4
100
AcDbDimStyleTable
  0
DIMSTYLE
105
27
330
A
100
AcDbSymbolTableRecord
100
AcDbDimStyleTableRecord
  2
ISO-25
 70
     0
 41
2.5
 42
0.625
 43
3.75
 44
1.25
 73
     0
 74
     0
 77
     1
 78
     8
140
2.5
141
2.5
143
0.0393700787
147
0.625
171
     3
172
     1
271
     2
272
     2
274
     3
278
    44
283
     0
284
     8
340
11
  0
DIMSTYLE
105
233
102
{ACAD_REACTORS
330
232
102
}
330
A
100
AcDbSymbolTableRecord
100
AcDbDimStyleTableRecord
  2
SLDDIMSTYLE0
 70
     0
 41
3.0
 44
0.0
 73
     0
 74
     0
 77
     1
 78
    12
140
2.0
147
0.5
173
     1
179
     1
272
     3
284
    12
340
44
  0
DIMSTYLE
105
23E
102
{ACAD_REACTORS
330
23D
330
248
330
252
330
25C
102
}
330
A
100
AcDbSymbolTableRecord
100
AcDbDimStyleTableRecord
  2
SLDDIMSTYLE1
 70
     0
 41
3.0
 44
0.0
 45
0.000000001
 73
     0
 74
     0
 77
     1
 78
    12
140
2.0
147
0.5
173
     1
271
     2
272
     3
284
    12
340
44
  0
DIMSTYLE
105
29A
102
{ACAD_REACTORS
330
299
102
}
330
A
100
AcDbSymbolTableRecord
100
AcDbDimStyleTableRecord
  2
SLDDIMSTYLE2
 70
     0
 41
3.0
 44
0.0
 45
0.000000001
 73
     0
 74
     0
 77
     1
 78
    12
140
2.0
147
0.5
173
     1
271
     2
272
     3
284
    12
340
44
  0
ENDTAB
  0
TABLE
  2
BLOCK_RECORD
  5
1
330
0
100
AcDbSymbolTable
 70
     8
  0
BLOCK_RECORD
  5
1F
330
1
100
AcDbSymbolTableRecord
100
AcDbBlockTableRecord
  2
*Model_Space
340
22
  0
BLOCK_RECORD
  5
1B
330
1
100
AcDbSymbolTableRecord
100
AcDbBlockTableRecord
  2
*Paper_Space
340
1E
  0
BLOCK_RECORD
  5
23
330
1
100
AcDbSymbolTableRecord
100
AcDbBlockTableRecord
  2
*Paper_Space0
340
26
  0
BLOCK_RECORD
  5
234
330
1
100
AcDbSymbolTableRecord
100
AcDbBlockTableRecord
  2
*D1
340
0
  0
BLOCK_RECORD
  5
23F
330
1
100
AcDbSymbolTableRecord
100
AcDbBlockTableRecord
  2
*D2
340
0
  0
BLOCK_RECORD
  5
249
330
1
100
AcDbSymbolTableRecord
100
AcDbBlockTableRecord
  2
*D3
340
0
  0
BLOCK_RECORD
  5
253
330
1
100
AcDbSymbolTableRecord
100
AcDbBlockTableRecord
  2
*D4
340
0
  0
BLOCK_RECORD
  5
25D
330
1
100
AcDbSymbolTableRecord
100
AcDbBlockTableRecord
  2
*D5
340
0
  0
BLOCK_RECORD
  5
29B
330
1
100
AcDbSymbolTableRecord
100
AcDbBlockTableRecord
  2
*D6
340
0
  0
BLOCK_RECORD
  5
2A5
330
1
100
AcDbSymbolTableRecord
100
AcDbBlockTableRecord
  2
SW_CENTERMARKSYMBOL_0
340
0
102
{BLKREFS
331
2B0
102
}
  0
ENDTAB
  0
ENDSEC
  0
SECTION
  2
BLOCKS
  0
BLOCK
  5
20
330
1F
100
AcDbEntity
  8
0
100
AcDbBlockBegin
  2
*Model_Space
 70
     0
 10
0.0
 20
0.0
 30
0.0
  3
*Model_Space
  1

  0
ENDBLK
  5
21
330
1F
100
AcDbEntity
  8
0
100
AcDbBlockEnd
  0
BLOCK
  5
1C
330
1B
100
AcDbEntity
 67
     1
  8
0
100
AcDbBlockBegin
  2
*Paper_Space
 70
     0
 10
0.0
 20
0.0
 30
0.0
  3
*Paper_Space
  1

  0
ENDBLK
  5
1D
330
1B
100
AcDbEntity
 67
     1
  8
0
100
AcDbBlockEnd
  0
BLOCK
  5
24
330
23
100
AcDbEntity
  8
0
100
AcDbBlockBegin
  2
*Paper_Space0
 70
     0
 10
0.0
 20
0.0
 30
0.0
  3
*Paper_Space0
  1

  0
ENDBLK
  5
25
330
23
100
AcDbEntity
  8
0
100
AcDbBlockEnd
  0
BLOCK
  5
235
330
234
100
AcDbEntity
  8
0
100
AcDbBlockBegin
  2
*D1
 70
     1
 10
0.0
 20
0.0
 30
0.0
  3
*D1
  1

  0
ARC
  5
237
330
234
100
AcDbEntity
  8
VERMASSUNG
100
AcDbCircle
 10
288.1432683887
 20
86.9209870125
 30
0.0
 40
29.39424504975726
100
AcDbArc
 50
90.0
 51
107.4599642598
  0
SOLID
  5
238
330
234
100
AcDbEntity
  8
VERMASSUNG
100
AcDbTrace
 10
288.1432683887
 20
116.3152320623
 30
0.0
 11
285.1242722164
 21
116.6121531158
 31
0.0
 12
285.1700213721
 22
115.7133166375
 32
0.0
 13
285.1700213721
 23
115.7133166375
 33
0.0
  0
SOLID
  5
239
330
234
100
AcDbEntity
  8
VERMASSUNG
100
AcDbTrace
 10
279.3238393508
 20
114.9609462402
 30
0.0
 11
282.3406977645
 21
115.2788539493
 31
0.0
 12
282.1146528341
 22
116.1500047339
 32
0.0
 13
282.1146528341
 23
116.1500047339
 33
0.0
  0
LINE
  5
23A
330
234
100
AcDbEntity
  8
VERMASSUNG
100
AcDbLine
 10
288.1432683887
 20
109.3046796774
 30
0.0
 11
288.1432683887
 21
117.3152320623
 31
0.0
  0
LINE
  5
23B
330
234
100
AcDbEntity
  8
VERMASSUNG
100
AcDbLine
 10
281.1029090408
 20
109.3046796774
 30
0.0
 11
279.0238000396
 21
115.9148730779
 31
0.0
  0
MTEXT
  5
23C
330
234
100
AcDbEntity
  8
VERMASSUNG
100
AcDbMText
 10
280.5232466577
 20
118.0980136345
 30
0.0
 40
2.0
 41
0.0
 71
     1
 72
     1
  1
17.5°
  7
SLDTEXTSTYLE0
 11
0.988414598669888
 21
0.1517780653989377
 31
0.0
 73
     1
 44
1.0
  0
ENDBLK
  5
236
330
234
100
AcDbEntity
  8
0
100
AcDbBlockEnd
  0
BLOCK
  5
240
330
23F
100
AcDbEntity
  8
0
100
AcDbBlockBegin
  2
*D2
 70
     1
 10
0.0
 20
0.0
 30
0.0
  3
*D2
  1

  0
SOLID
  5
242
330
23F
100
AcDbEntity
  8
VERMASSUNG
100
AcDbTrace
 10
288.1432683887
 20
145.1944493273
 30
0.0
 11
285.1432683887
 21
145.6444493273
 31
0.0
 12
285.1432683887
 22
144.7444493273
 32
0.0
 13
285.1432683887
 23
144.7444493273
 33
0.0
  0
SOLID
  5
243
330
23F
100
AcDbEntity
  8
VERMASSUNG
100
AcDbTrace
 10
128.1432683887
 20
145.1944493273
 30
0.0
 11
131.1432683887
 21
144.7444493273
 31
0.0
 12
131.1432683887
 22
145.6444493273
 32
0.0
 13
131.1432683887
 23
145.6444493273
 33
0.0
  0
LINE
  5
244
330
23F
100
AcDbEntity
  8
VERMASSUNG
100
AcDbLine
 10
288.1432683887
 20
109.3046796774
 30
0.0
 11
288.1432683887
 21
146.1944493273
 31
0.0
  0
LINE
  5
245
330
23F
100
AcDbEntity
  8
VERMASSUNG
100
AcDbLine
 10
128.1432683887
 20
140.5046796774
 30
0.0
 11
128.1432683887
 21
146.1944493273
 31
0.0
  0
LINE
  5
246
330
23F
100
AcDbEntity
  8
VERMASSUNG
100
AcDbLine
 10
288.1432683887
 20
145.1944493273
 30
0.0
 11
128.1432683887
 21
145.1944493273
 31
0.0
  0
MTEXT
  5
247
330
23F
100
AcDbEntity
  8
VERMASSUNG
100
AcDbMText
 10
206.2437857274
 20
147.7725846905
 30
0.0
 40
2.0
 41
0.0
 71
     1
 72
     1
  1
160
  7
SLDTEXTSTYLE0
 73
     1
 44
1.0
  0
ENDBLK
  5
241
330
23F
100
AcDbEntity
  8
0
100
AcDbBlockEnd
  0
BLOCK
  5
24A
330
249
100
AcDbEntity
  8
0
100
AcDbBlockBegin
  2
*D3
 70
     1
 10
0.0
 20
0.0
 30
0.0
  3
*D3
  1

  0
SOLID
  5
24C
330
249
100
AcDbEntity
  8
VERMASSUNG
100
AcDbTrace
 10
288.1432683887
 20
151.1944493273
 30
0.0
 11
285.1432683887
 21
151.6444493273
 31
0.0
 12
285.1432683887
 22
150.7444493273
 32
0.0
 13
285.1432683887
 23
150.7444493273
 33
0.0
  0
SOLID
  5
24D
330
249
100
AcDbEntity
  8
VERMASSUNG
100
AcDbTrace
 10
96.2432683887
 20
151.1944493273
 30
0.0
 11
99.2432683887
 21
150.7444493273
 31
0.0
 12
99.2432683887
 22
151.6444493273
 32
0.0
 13
99.2432683887
 23
151.6444493273
 33
0.0
  0
LINE
  5
24E
330
249
100
AcDbEntity
  8
VERMASSUNG
100
AcDbLine
 10
288.1432683887
 20
109.3046796774
 30
0.0
 11
288.1432683887
 21
152.1944493273
 31
0.0
  0
LINE
  5
24F
330
249
100
AcDbEntity
  8
VERMASSUNG
100
AcDbLine
 10
96.2432683887
 20
128.9953574239
 30
0.0
 11
96.2432683887
 21
152.1944493273
 31
0.0
  0
LINE
  5
250
330
249
100
AcDbEntity
  8
VERMASSUNG
100
AcDbLine
 10
288.1432683887
 20
151.1944493273
 30
0.0
 11
96.2432683887
 21
151.1944493273
 31
0.0
  0
MTEXT
  5
251
330
249
100
AcDbEntity
  8
VERMASSUNG
100
AcDbMText
 10
189.4936820983
 20
153.7725846905
 30
0.0
 40
2.0
 41
0.0
 71
     1
 72
     1
  1
191.9
  7
SLDTEXTSTYLE0
 73
     1
 44
1.0
  0
ENDBLK
  5
24B
330
249
100
AcDbEntity
  8
0
100
AcDbBlockEnd
  0
BLOCK
  5
254
330
253
100
AcDbEntity
  8
0
100
AcDbBlockBegin
  2
*D4
 70
     1
 10
0.0
 20
0.0
 30
0.0
  3
*D4
  1

  0
SOLID
  5
256
330
253
100
AcDbEntity
  8
VERMASSUNG
100
AcDbTrace
 10
292.7696767005
 20
87.3046796774
 30
0.0
 11
293.2196767005
 21
90.3046796774
 31
0.0
 12
292.3196767005
 22
90.3046796774
 32
0.0
 13
292.3196767005
 23
90.3046796774
 33
0.0
  0
SOLID
  5
257
330
253
100
AcDbEntity
  8
VERMASSUNG
100
AcDbTrace
 10
292.7696767005
 20
109.3046796774
 30
0.0
 11
292.3196767005
 21
106.3046796774
 31
0.0
 12
293.2196767005
 22
106.3046796774
 32
0.0
 13
293.2196767005
 23
106.3046796774
 33
0.0
  0
LINE
  5
258
330
253
100
AcDbEntity
  8
VERMASSUNG
100
AcDbLine
 10
288.1432683887
 20
87.3046796774
 30
0.0
 11
293.7696767005
 21
87.3046796774
 31
0.0
  0
LINE
  5
259
330
253
100
AcDbEntity
  8
VERMASSUNG
100
AcDbLine
 10
287.2856090323
 20
109.3046796774
 30
0.0
 11
293.7696767005
 21
109.3046796774
 31
0.0
  0
LINE
  5
25A
330
253
100
AcDbEntity
  8
VERMASSUNG
100
AcDbLine
 10
292.7696767005
 20
87.3046796774
 30
0.0
 11
292.7696767005
 21
109.3046796774
 31
0.0
  0
MTEXT
  5
25B
330
253
100
AcDbEntity
  8
VERMASSUNG
100
AcDbMText
 10
290.1915413374
 20
96.9048037097
 30
0.0
 40
2.0
 41
0.0
 71
     1
 72
     1
  1
22
  7
SLDTEXTSTYLE0
 11
6.123233995736766E-17
 21
1.0
 31
0.0
 73
     1
 44
1.0
  0
ENDBLK
  5
255
330
253
100
AcDbEntity
  8
0
100
AcDbBlockEnd
  0
BLOCK
  5
25E
330
25D
100
AcDbEntity
  8
0
100
AcDbBlockBegin
  2
*D5
 70
     1
 10
0.0
 20
0.0
 30
0.0
  3
*D5
  1

  0
SOLID
  5
260
330
25D
100
AcDbEntity
  8
VERMASSUNG
100
AcDbTrace
 10
91.3093967787
 20
140.8046796774
 30
0.0
 11
90.8593967787
 21
137.8046796774
 31
0.0
 12
91.7593967787
 22
137.8046796774
 32
0.0
 13
91.7593967787
 23
137.8046796774
 33
0.0
  0
SOLID
  5
261
330
25D
100
AcDbEntity
  8
VERMASSUNG
100
AcDbTrace
 10
91.3093967787
 20
77.8046796774
 30
0.0
 11
91.7593967787
 21
80.8046796774
 31
0.0
 12
90.8593967787
 22
80.8046796774
 32
0.0
 13
90.8593967787
 23
80.8046796774
 33
0.0
  0
LINE
  5
262
330
25D
100
AcDbEntity
  8
VERMASSUNG
100
AcDbLine
 10
128.4432683887
 20
140.8046796774
 30
0.0
 11
90.3093967787
 21
140.8046796774
 31
0.0
  0
LINE
  5
263
330
25D
100
AcDbEntity
  8
VERMASSUNG
100
AcDbLine
 10
128.4432683887
 20
77.8046796774
 30
0.0
 11
90.3093967787
 21
77.8046796774
 31
0.0
  0
LINE
  5
264
330
25D
100
AcDbEntity
  8
VERMASSUNG
100
AcDbLine
 10
91.3093967787
 20
140.8046796774
 30
0.0
 11
91.3093967787
 21
77.8046796774
 31
0.0
  0
MTEXT
  5
265
330
25D
100
AcDbEntity
  8
VERMASSUNG
100
AcDbMText
 10
88.5312612897
 20
103.1005173387
 30
0.0
 40
2.0
 41
0.0
 71
     1
 72
     1
  1
HSK 
  7
SLDTEXTSTYLE0
 11
-7.044195017643634E-15
 21
1.0
 31
0.0
 73
     1
 44
1.0
  0
MTEXT
  5
266
330
25D
100
AcDbEntity
  8
VERMASSUNG
100
AcDbMText
 10
88.7312612992
 20
109.1005173909
 30
0.0
 40
2.0
 41
0.0
 71
     1
 72
     1
  1
%%c
  7
SLDTEXTSTYLE0
 11
-7.044195017643634E-15
 21
1.0
 31
0.0
 73
     1
 44
1.0
  0
MTEXT
  5
267
330
25D
100
AcDbEntity
  8
VERMASSUNG
100
AcDbMText
 10
88.7312614156
 20
112.7090900806
 30
0.0
 40
2.0
 41
0.0
 71
     1
 72
     1
  1
63
  7
SLDTEXTSTYLE0
 11
-7.044195017643634E-15
 21
1.0
 31
0.0
 73
     1
 44
1.0
  0
ENDBLK
  5
25F
330
25D
100
AcDbEntity
  8
0
100
AcDbBlockEnd
  0
BLOCK
  5
29C
330
29B
100
AcDbEntity
  8
0
100
AcDbBlockBegin
  2
*D6
 70
     1
 10
0.0
 20
0.0
 30
0.0
  3
*D6
  1

  0
SOLID
  5
29E
330
29B
100
AcDbEntity
  8
VERMASSUNG
100
AcDbTrace
 10
12.6412775044
 20
87.302583048
 30
0.0
 11
13.0912775044
 21
90.302583048
 31
0.0
 12
12.1912775044
 22
90.302583048
 32
0.0
 13
12.1912775044
 23
90.302583048
 33
0.0
  0
SOLID
  5
29F
330
29B
100
AcDbEntity
  8
VERMASSUNG
100
AcDbTrace
 10
12.6412775044
 20
127.302583048
 30
0.0
 11
12.1912775044
 21
124.302583048
 31
0.0
 12
13.0912775044
 22
124.302583048
 32
0.0
 13
13.0912775044
 23
124.302583048
 33
0.0
  0
LINE
  5
2A0
330
29B
100
AcDbEntity
  8
VERMASSUNG
100
AcDbLine
 10
48.7203590323
 20
87.302583048
 30
0.0
 11
11.6412775044
 21
87.302583048
 31
0.0
  0
LINE
  5
2A1
330
29B
100
AcDbEntity
  8
VERMASSUNG
100
AcDbLine
 10
48.7203590323
 20
127.302583048
 30
0.0
 11
11.6412775044
 21
127.302583048
 31
0.0
  0
LINE
  5
2A2
330
29B
100
AcDbEntity
  8
VERMASSUNG
100
AcDbLine
 10
12.6412775044
 20
87.302583048
 30
0.0
 11
12.6412775044
 21
127.302583048
 31
0.0
  0
MTEXT
  5
2A3
330
29B
100
AcDbEntity
  8
VERMASSUNG
100
AcDbMText
 10
10.0631420248
 20
103.9995598222
 30
0.0
 40
2.0
 41
0.0
 71
     1
 72
     1
  1
%%c
  7
SLDTEXTSTYLE0
 11
6.123233995736766E-17
 21
1.0
 31
0.0
 73
     1
 44
1.0
  0
MTEXT
  5
2A4
330
29B
100
AcDbEntity
  8
VERMASSUNG
100
AcDbMText
 10
10.0631421412
 20
107.6079661125
 30
0.0
 40
2.0
 41
0.0
 71
     1
 72
     1
  1
40
  7
SLDTEXTSTYLE0
 11
6.123233995736766E-17
 21
1.0
 31
0.0
 73
     1
 44
1.0
  0
ENDBLK
  5
29D
330
29B
100
AcDbEntity
  8
0
100
AcDbBlockEnd
  0
BLOCK
  5
2A6
330
2A5
100
AcDbEntity
  8
0
100
AcDbBlockBegin
  2
SW_CENTERMARKSYMBOL_0
 70
     0
 10
0.0
 20
0.0
 30
0.0
  3
SW_CENTERMARKSYMBOL_0
  1

  0
LINE
  5
2A8
330
2A5
100
AcDbEntity
  8
VERMASSUNG
 62
     0
100
AcDbLine
 10
0.0
 20
0.0
 30
0.0
 11
0.0
 21
2.5
 31
0.0
  0
LINE
  5
2A9
330
2A5
100
AcDbEntity
  8
VERMASSUNG
 62
     0
100
AcDbLine
 10
0.0
 20
0.0
 30
0.0
 11
-2.5
 21
0.0
 31
0.0
  0
LINE
  5
2AA
330
2A5
100
AcDbEntity
  8
VERMASSUNG
 62
     0
100
AcDbLine
 10
0.0
 20
0.0
 30
0.0
 11
0.0
 21
-2.5
 31
0.0
  0
LINE
  5
2AB
330
2A5
100
AcDbEntity
  8
VERMASSUNG
 62
     0
100
AcDbLine
 10
0.0
 20
0.0
 30
0.0
 11
2.5
 21
0.0
 31
0.0
  0
LINE
  5
2AC
330
2A5
100
AcDbEntity
  8
VERMASSUNG
 62
     0
100
AcDbLine
 10
0.0
 20
5.0
 30
0.0
 11
0.0
 21
34.0
 31
0.0
  0
LINE
  5
2AD
330
2A5
100
AcDbEntity
  8
VERMASSUNG
 62
     0
100
AcDbLine
 10
-5.0
 20
0.0
 30
0.0
 11
-34.0
 21
0.0
 31
0.0
  0
LINE
  5
2AE
330
2A5
100
AcDbEntity
  8
VERMASSUNG
 62
     0
100
AcDbLine
 10
0.0
 20
-5.0
 30
0.0
 11
0.0
 21
-34.0
 31
0.0
  0
LINE
  5
2AF
330
2A5
100
AcDbEntity
  8
VERMASSUNG
 62
     0
100
AcDbLine
 10
5.0
 20
0.0
 30
0.0
 11
34.0
 21
0.0
 31
0.0
  0
ENDBLK
  5
2A7
330
2A5
100
AcDbEntity
  8
0
100
AcDbBlockEnd
  0
ENDSEC
  0
SECTION
  2
ENTITIES
  0
MTEXT
  5
45
330
1F
100
AcDbEntity
  8
KOPF_DÜNN
100
AcDbMText
 10
13.8892156294
 20
23.8442973028
 30
0.0
 40
3.0
 41
0.0
 71
     1
 72
     1
  1
HA6.BDB.LQB.160
  7
SLDTEXTSTYLE0
 73
     1
 44
1.0
  0
MTEXT
  5
46
330
1F
100
AcDbEntity
  8
VERMASSUNG
100
AcDbMText
 10
13.9329988022
 20
28.8834360957
 30
0.0
 40
3.0
 41
0.0
 71
     1
 72
     1
  1
Bohrstange_Boring bar
  7
SLDTEXTSTYLE0
 73
     1
 44
1.0
  0
MTEXT
  5
47
330
1F
100
AcDbEntity
  8
VERMASSUNG
100
AcDbMText
 10
98.8601118557
 20
13.8365368179
 30
0.0
 40
2.0
 41
0.0
 71
     1
 72
     1
  1
Datum: 03.03.2011
  7
SLDTEXTSTYLE0
 73
     1
 44
1.0
  0
MTEXT
  5
49
330
1F
100
AcDbEntity
  8
VERMASSUNG
100
AcDbMText
 10
13.933048693
 20
18.0482802738
 30
0.0
 40
2.0
 41
0.0
 71
     1
 72
     1
  1
DIN 69893 HSK 63 A ICTM / DC.. 11 T3..
  7
SLDTEXTSTYLE1
 73
     1
 44
1.0
  0
MTEXT
  5
4A
330
1F
100
AcDbEntity
  8
VERMASSUNG
100
AcDbMText
 10
13.9808475933
 20
13.9090973692
 30
0.0
 40
2.0
 41
0.0
 71
     1
 72
     1
  1
Gewicht: 1321g
  7
SLDTEXTSTYLE0
 73
     1
 44
1.0
  0
LINE
  5
4B
330
1F
100
AcDbEntity
  8
0
  6
Continuous
 62
     7
370
    15
100
AcDbLine
 10
280.1415965941
 20
95.5612926015
 30
0.0
 11
280.1415965941
 21
95.6553980796
 31
0.0
  0
LINE
  5
4C
330
1F
100
AcDbEntity
  8
0
  6
Continuous
 62
     7
370
    15
100
AcDbLine
 10
282.045696568
 20
95.2269811075
 30
0.0
 11
282.045696568
 21
95.1342310227
 31
0.0
  0
LINE
  5
4D
330
1F
100
AcDbEntity
  8
0
  6
Continuous
 62
     7
370
    15
100
AcDbLine
 10
279.8936459446
 20
93.7906385997
 30
0.0
 11
279.8936459446
 21
93.8834491752
 31
0.0
  0
LINE
  5
4E
330
1F
100
AcDbEntity
  8
0
  6
Continuous
 62
     7
370
    15
100
AcDbLine
 10
281.7977459185
 20
93.455032203
 30
0.0
 11
281.7977459185
 21
93.3609428545
 31
0.0
  0
LINE
  5
4F
330
1F
100
AcDbEntity
  8
0
  6
Continuous
 62
     7
370
    15
100
AcDbLine
 10
283.5969871844
 20
94.4777057335
 30
0.0
 11
283.5969871844
 21
94.5282484748
 31
0.0
  0
LINE
  5
50
330
1F
100
AcDbEntity
  8
0
  6
Continuous
 62
     7
370
    15
100
AcDbLine
 10
278.3469871844
 20
94.5282484748
 30
0.0
 11
278.3469871844
 21
94.4777057335
 31
0.0
  0
LINE
  5
51
330
1F
100
AcDbEntity
  8
0
  6
Continuous
 62
     7
370
    15
100
AcDbLine
 10
128.4432683887
 20
77.8046796774
 30
0.0
 11
133.0932683887
 21
77.8046796774
 31
0.0
  0
LINE
  5
52
330
1F
100
AcDbEntity
  8
0
  6
Continuous
 62
     7
370
    15
100
AcDbLine
 10
133.1212567477
 20
140.8046796774
 30
0.0
 11
128.4432683887
 21
140.8046796774
 31
0.0
  0
ARC
  5
53
330
1F
100
AcDbEntity
  8
0
  6
Continuous
 62
     7
370
    15
100
AcDbCircle
 10
128.4432683887
 20
78.1046796774
 30
0.0
 40
0.3000000000000114
100
AcDbArc
 50
180.0
 51
270.0
  0
ARC
  5
54
330
1F
100
AcDbEntity
  8
0
  6
Continuous
 62
     7
370
    15
100
AcDbCircle
 10
128.4432683887
 20
140.5046796774
 30
0.0
 40
0.2999999999999829
100
AcDbArc
 50
90.0
 51
180.0
  0
ARC
  5
55
330
1F
100
AcDbEntity
  8
0
  6
Continuous
 62
     7
370
    15
100
AcDbCircle
 10
127.6432683887
 20
84.7342488157
 30
0.0
 40
0.6000000000000218
100
AcDbArc
 50
33.5573097619
 51
90.0
  0
ARC
  5
56
330
1F
100
AcDbEntity
  8
0
  6
Continuous
 62
     7
370
    15
100
AcDbCircle
 10
127.6432683887
 20
133.8751105391
 30
0.0
 40
0.600000000000014
100
AcDbArc
 50
270.0
 51
326.4426902381
  0
LINE
  5
57
330
1F
100
AcDbEntity
  8
0
  6
Continuous
 62
     7
370
    15
100
AcDbLine
 10
126.1432683887
 20
85.0842488157
 30
0.0
 11
126.999981162
 21
85.3138043115
 31
0.0
  0
LINE
  5
58
330
1F
100
AcDbEntity
  8
0
  6
Continuous
 62
     7
370
    15
100
AcDbLine
 10
126.999981162
 20
133.2955550434
 30
0.0
 11
126.1432683887
 21
133.5251105391
 31
0.0
  0
LINE
  5
59
330
1F
100
AcDbEntity
  8
0
  6
Continuous
 62
     7
370
    15
100
AcDbLine
 10
114.9128462062
 20
132.9624641372
 30
0.0
 11
102.3432683887
 21
132.3327257696
 31
0.0
  0
LINE
  5
5A
330
1F
100
AcDbEntity
  8
0
  6
Continuous
 62
     7
370
    15
100
AcDbLine
 10
126.1432683887
 20
133.5251105391
 30
0.0
 11
123.3246590312
 21
133.3838976455
 31
0.0
  0
LINE
  5
5B
330
1F
100
AcDbEntity
  8
0
  6
Continuous
 62
     7
370
    15
100
AcDbLine
 10
123.3248805063
 20
85.2254506134
 30
0.0
 11
126.1432683887
 21
85.0842488157
 31
0.0
  0
LINE
  5
5C
330
1F
100
AcDbEntity
  8
0
  6
Continuous
 62
     7
370
    15
100
AcDbLine
 10
106.3432683887
 20
86.0762327836
 30
0.0
 11
114.9135451579
 21
85.6468602
 31
0.0
  0
ARC
  5
5D
330
1F
100
AcDbEntity
  8
0
  6
Continuous
 62
     7
370
    15
100
AcDbCircle
 10
127.1552725891
 20
84.7342488157
 30
0.0
 40
0.5999999999999943
100
AcDbArc
 50
90.0
 51
105.0
  0
ARC
  5
5E
330
1F
100
AcDbEntity
  8
0
  6
Continuous
 62
     7
370
    15
100
AcDbCircle
 10
127.1552725891
 20
133.8751105391
 30
0.0
 40
0.6000000000000318
100
AcDbArc
 50
255.0
 51
270.0
  0
LINE
  5
5F
330
1F
100
AcDbEntity
  8
0
  6
Continuous
 62
     7
370
    15
100
AcDbLine
 10
127.1552725891
 20
85.3342488157
 30
0.0
 11
127.6432683887
 21
85.3342488157
 31
0.0
  0
LINE
  5
60
330
1F
100
AcDbEntity
  8
0
  6
Continuous
 62
     7
370
    15
100
AcDbLine
 10
127.6432683887
 20
133.2751105391
 30
0.0
 11
127.1552725891
 21
133.2751105391
 31
0.0
  0
ARC
  5
61
330
1F
100
AcDbEntity
  8
0
  6
Continuous
 62
     7
370
    15
100
AcDbCircle
 10
157.0932683887
 20
90.3046796774
 30
0.0
 40
3.0
100
AcDbArc
 50
90.0
 51
180.0
  0
ARC
  5
62
330
1F
100
AcDbEntity
  8
0
  6
Continuous
 62
     7
370
    15
100
AcDbCircle
 10
157.0932683887
 20
128.3046796774
 30
0.0
 40
3.000000000000014
100
AcDbArc
 50
180.0
 51
270.0
  0
LINE
  5
63
330
1F
100
AcDbEntity
  8
0
  6
Continuous
 62
     7
370
    15
100
AcDbLine
 10
157.0932683887
 20
93.3046796774
 30
0.0
 11
259.2377279387
 21
93.3046796774
 31
0.0
  0
LINE
  5
64
330
1F
100
AcDbEntity
  8
0
  6
Continuous
 62
     7
370
    15
100
AcDbLine
 10
262.1432683887
 20
125.3046796774
 30
0.0
 11
157.0932683887
 21
125.3046796774
 31
0.0
  0
LINE
  5
65
330
1F
100
AcDbEntity
  8
0
  6
Continuous
 62
     7
370
    15
100
AcDbLine
 10
97.3932683887
 20
88.4921796774
 30
0.0
 11
104.9432683887
 21
88.4921796774
 31
0.0
  0
ARC
  5
66
330
1F
100
AcDbEntity
  8
0
  6
Continuous
 62
     7
370
    15
100
AcDbCircle
 10
104.9432683887
 20
87.0921796774
 30
0.0
 40
1.400000000000013
100
AcDbArc
 50
37.6443616934
 51
90.0
  0
LINE
  5
67
330
1F
100
AcDbEntity
  8
0
  6
Continuous
 62
     7
370
    15
100
AcDbLine
 10
97.3844318468
 20
130.1658431356
 30
0.0
 11
96.253169162
 21
129.0345804508
 31
0.0
  0
LINE
  5
68
330
1F
100
AcDbEntity
  8
0
  6
Continuous
 62
     7
370
    15
100
AcDbLine
 10
96.1703550374
 20
89.7150930287
 30
0.0
 11
97.3932683887
 21
88.4921796774
 31
0.0
  0
ARC
  5
69
330
1F
100
AcDbEntity
  8
0
  6
Continuous
 62
     7
370
    15
100
AcDbCircle
 10
100.9432683887
 20
131.5746796774
 30
0.0
 40
1.400000000000006
100
AcDbArc
 50
270.0
 51
301.7485287426
  0
LINE
  5
6A
330
1F
100
AcDbEntity
  8
0
  6
Continuous
 62
     7
370
    15
100
AcDbLine
 10
100.9432683887
 20
130.1746796774
 30
0.0
 11
97.5341567901
 21
130.1746796774
 31
0.0
  0
LINE
  5
6B
330
1F
100
AcDbEntity
  8
0
  6
Continuous
 62
     7
370
    15
100
AcDbLine
 10
262.6432683887
 20
125.8046796774
 30
0.0
 11
262.1432683887
 21
125.3046796774
 31
0.0
  0
LINE
  5
6C
330
1F
100
AcDbEntity
  8
0
  6
Continuous
 62
     7
370
    15
100
AcDbLine
 10
275.5502487095
 20
125.8046796774
 30
0.0
 11
262.6432683887
 21
125.8046796774
 31
0.0
  0
CIRCLE
  5
6D
330
1F
100
AcDbEntity
  8
0
  6
Continuous
 62
     7
370
    15
100
AcDbCircle
 10
280.9696848881
 20
94.4820852979
 30
0.0
 40
2.622746779247376
  0
CIRCLE
  5
6E
330
1F
100
AcDbEntity
  8
0
  6
Continuous
 62
     7
370
    15
100
AcDbCircle
 10
280.9703898087
 20
94.4617873139
 30
0.0
 40
1.798741723201201
  0
ARC
  5
6F
330
1F
100
AcDbEntity
  8
0
  6
Continuous
 62
     7
370
    15
100
AcDbCircle
 10
280.9756564295
 20
94.4600077198
 30
0.0
 40
1.671499009027339
100
AcDbArc
 50
293.3149799654
 51
351.9503208343
  0
ARC
  5
70
330
1F
100
AcDbEntity
  8
0
  6
Continuous
 62
     7
370
    15
100
AcDbCircle
 10
280.9779067452
 20
94.4582406229
 30
0.0
 40
1.669024032652333
100
AcDbArc
 50
351.9995680763
 51
52.2046175961
  0
ARC
  5
71
330
1F
100
AcDbEntity
  8
0
  6
Continuous
 62
     7
370
    15
100
AcDbCircle
 10
280.971949083
 20
94.4511940816
 30
0.0
 40
1.678243399579225
100
AcDbArc
 50
52.1913252363
 51
110.6635337804
  0
LINE
  5
72
330
1F
100
AcDbEntity
  8
0
  6
Continuous
 62
     7
370
    15
100
AcDbLine
 10
280.3010434472
 20
95.9895040573
 30
0.0
 11
280.379731553
 21
96.0214740902
 31
0.0
  0
ARC
  5
73
330
1F
100
AcDbEntity
  8
0
  6
Continuous
 62
     7
370
    15
100
AcDbCircle
 10
280.9684219471
 20
94.4568523412
 30
0.0
 40
1.671650485314609
100
AcDbArc
 50
113.5302556193
 51
170.0044536116
  0
LINE
  5
74
330
1F
100
AcDbEntity
  8
0
  6
Continuous
 62
     7
370
    15
100
AcDbLine
 10
279.3056918359
 20
94.628619265
 30
0.0
 11
279.3221450304
 21
94.7470034372
 31
0.0
  0
ARC
  5
75
330
1F
100
AcDbEntity
  8
0
  6
Continuous
 62
     7
370
    15
100
AcDbCircle
 10
280.9659902579
 20
94.4587678848
 30
0.0
 40
1.66896385261662
100
AcDbArc
 50
174.1588638666
 51
230.0453218058
  0
LINE
  5
76
330
1F
100
AcDbEntity
  8
0
  6
Continuous
 62
     7
370
    15
100
AcDbLine
 10
279.9886231371
 20
93.1058377629
 30
0.0
 11
279.8942126207
 21
93.1794192076
 31
0.0
  0
ARC
  5
77
330
1F
100
AcDbEntity
  8
0
  6
Continuous
 62
     7
370
    15
100
AcDbCircle
 10
280.9720218855
 20
94.465882056
 30
0.0
 40
1.678330592437866
100
AcDbArc
 50
234.1306715136
 51
290.4496812146
  0
LINE
  5
78
330
1F
100
AcDbEntity
  8
0
  6
Continuous
 62
     7
370
    15
100
AcDbLine
 10
281.6372116954
 20
92.9249984145
 30
0.0
 11
281.5584048054
 21
92.8933208812
 31
0.0
  0
SPLINE
  5
79
330
1F
100
AcDbEntity
  8
0
  6
Continuous
 62
     7
370
    15
100
AcDbSpline
210
0.0
220
0.0
230
1.0
 70
     8
 71
     3
 72
    11
 73
     7
 74
     0
 42
0.00000001
 43
0.00000001
 40
0.0
 40
0.0
 40
0.0
 40
0.0
 40
0.2431090893442914
 40
0.518279365562203
 40
0.7947794085751811
 40
1.0
 40
1.0
 40
1.0
 40
1.0
 10
280.3010434471744
 20
95.98950405733684
 30
0.0
 10
280.2736785728749
 20
95.97089349916564
 30
0.0
 10
280.2153399491366
 20
95.93121802546062
 30
0.0
 10
280.1555784736148
 20
95.83988743769318
 30
0.0
 10
280.127150393203
 20
95.74090579505899
 30
0.0
 10
280.1324306907997
 20
95.67715423884155
 30
0.0
 10
280.1346801808946
 20
95.64999506994596
 30
0.0
  0
SPLINE
  5
7A
330
1F
100
AcDbEntity
  8
0
  6
Continuous
 62
     7
370
    15
100
AcDbSpline
210
0.0
220
0.0
230
1.0
 70
     8
 71
     3
 72
    12
 73
     8
 74
     0
 42
0.00000001
 43
0.00000001
 40
0.0
 40
0.0
 40
0.0
 40
0.0
 40
0.2058179564998905
 40
0.4120215045907429
 40
0.6140779969167851
 40
0.8132130006453216
 40
1.0
 40
1.0
 40
1.0
 40
1.0
 10
280.1346801808946
 20
95.64999506994596
 30
0.0
 10
280.1384256660349
 20
95.58537735598044
 30
0.0
 10
280.1459236533298
 20
95.45602086938398
 30
0.0
 10
280.0742435209932
 20
95.26937117241904
 30
0.0
 10
279.9502025221476
 20
95.11751198715548
 30
0.0
 10
279.7886038546395
 20
95.01256862165252
 30
0.0
 10
279.6678932057882
 20
94.98933309483643
 30
0.0
 10
279.6094690171984
 20
94.97808705470983
 30
0.0
  0
SPLINE
  5
7B
330
1F
100
AcDbEntity
  8
0
  6
Continuous
 62
     7
370
    15
100
AcDbSpline
210
0.0
220
0.0
230
1.0
 70
     8
 71
     3
 72
    11
 73
     7
 74
     0
 42
0.00000001
 43
0.00000001
 40
0.0
 40
0.0
 40
0.0
 40
0.0
 40
0.2908641666075216
 40
0.583956078989142
 40
0.8745988053617079
 40
1.0
 40
1.0
 40
1.0
 40
1.0
 10
279.6094690171984
 20
94.97808705470983
 30
0.0
 10
279.5724442334066
 20
94.97060461364028
 30
0.0
 10
279.4981110908246
 20
94.95558242304456
 30
0.0
 10
279.4035601065825
 20
94.88788390539467
 30
0.0
 10
279.3470399095586
 20
94.81281713140487
 30
0.0
 10
279.3279107996048
 20
94.76224619334474
 30
0.0
 10
279.3221450303688
 20
94.74700343716815
 30
0.0
  0
SPLINE
  5
7C
330
1F
100
AcDbEntity
  8
0
  6
Continuous
 62
     7
370
    15
100
AcDbSpline
210
0.0
220
0.0
230
1.0
 70
     8
 71
     3
 72
    12
 73
     8
 74
     0
 42
0.00000001
 43
0.00000001
 40
0.0
 40
0.0
 40
0.0
 40
0.0
 40
0.0091735205190311
 40
0.2576775215524189
 40
0.5061895192299782
 40
0.7560357430219602
 40
1.0
 40
1.0
 40
1.0
 40
1.0
 10
282.0007570601189
 20
95.77711076618284
 30
0.0
 10
281.9996712913204
 20
95.77794683618707
 30
0.0
 10
281.9691728352042
 20
95.80143143472102
 30
0.0
 10
281.9004899475065
 20
95.83737542449919
 30
0.0
 10
281.7886748478198
 20
95.8541272592963
 30
0.0
 10
281.6768812477352
 20
95.83580897228501
 30
0.0
 10
281.6154138905057
 20
95.79611938977536
 30
0.0
 10
281.5850462925732
 20
95.77651097747183
 30
0.0
  0
SPLINE
  5
7D
330
1F
100
AcDbEntity
  8
0
  6
Continuous
 62
     7
370
    15
100
AcDbSpline
210
0.0
220
0.0
230
1.0
 70
     8
 71
     3
 72
    12
 73
     8
 74
     0
 42
0.00000001
 43
0.00000001
 40
0.0
 40
0.0
 40
0.0
 40
0.0
 40
0.2057532787804663
 40
0.4119604088044883
 40
0.6140154573249199
 40
0.8131414684041125
 40
1.0
 40
1.0
 40
1.0
 40
1.0
 10
281.5850462925732
 20
95.77651097747183
 30
0.0
 10
281.5302499960096
 20
95.74131655594623
 30
0.0
 10
281.4205365330353
 20
95.67085008092691
 30
0.0
 10
281.221735505877
 20
95.63997924989766
 30
0.0
 10
281.0279516123865
 20
95.67114861573678
 30
0.0
 10
280.8570257799339
 20
95.75769446542786
 30
0.0
 10
280.7775963973594
 20
95.8497314516395
 30
0.0
 10
280.739143930609
 20
95.89428737083985
 30
0.0
  0
SPLINE
  5
7E
330
1F
100
AcDbEntity
  8
0
  6
Continuous
 62
     7
370
    15
100
AcDbSpline
210
0.0
220
0.0
230
1.0
 70
     8
 71
     3
 72
    11
 73
     7
 74
     0
 42
0.00000001
 43
0.00000001
 40
0.0
 40
0.0
 40
0.0
 40
0.0
 40
0.2794069064556065
 40
0.5596240257154983
 40
0.8375007392219506
 40
1.0
 40
1.0
 40
1.0
 40
1.0
 10
280.739143930609
 20
95.89428737083985
 30
0.0
 10
280.7143467857652
 20
95.92246268851981
 30
0.0
 10
280.6646805903235
 20
95.97889502552209
 30
0.0
 10
280.5591672600261
 20
96.02613345919661
 30
0.0
 10
280.4601854840822
 20
96.03795889269156
 30
0.0
 10
280.4014171415786
 20
96.02591741126186
 30
0.0
 10
280.3797315529641
 20
96.02147409022425
 30
0.0
  0
LINE
  5
7F
330
1F
100
AcDbEntity
  8
0
  6
Continuous
 62
     7
370
    15
100
AcDbLine
 10
282.1244294167
 20
95.5503396363
 30
0.0
 11
282.0993461697
 21
95.4713860877
 31
0.0
  0
SPLINE
  5
80
330
1F
100
AcDbEntity
  8
0
  6
Continuous
 62
     7
370
    15
100
AcDbSpline
210
0.0
220
0.0
230
1.0
 70
     8
 71
     3
 72
    11
 73
     7
 74
     0
 42
0.00000001
 43
0.00000001
 40
0.0
 40
0.0
 40
0.0
 40
0.0
 40
0.253508622748422
 40
0.5075674742605116
 40
0.7595056251924189
 40
1.0
 40
1.0
 40
1.0
 40
1.0
 10
282.0993461697267
 20
95.37645134830811
 30
0.0
 10
282.1117642781544
 20
95.411796828682
 30
0.0
 10
282.1366274479408
 20
95.48256450516342
 30
0.0
 10
282.1255418927407
 20
95.59680549714122
 30
0.0
 10
282.0814168167293
 20
95.70143215465158
 30
0.0
 10
282.0272238438101
 20
95.75227843931242
 30
0.0
 10
282.0007570601189
 20
95.77711076618284
 30
0.0
  0
SPLINE
  5
81
330
1F
100
AcDbEntity
  8
0
  6
Continuous
 62
     7
370
    15
100
AcDbSpline
210
0.0
220
0.0
230
1.0
 70
     8
 71
     3
 72
    12
 73
     8
 74
     0
 42
0.00000001
 43
0.00000001
 40
0.0
 40
0.0
 40
0.0
 40
0.0
 40
0.0091681771491498
 40
0.2573268097002428
 40
0.5054934687429364
 40
0.754992535945164
 40
1.0
 40
1.0
 40
1.0
 40
1.0
 10
282.630686199574
 20
94.22594491324111
 30
0.0
 10
282.6308717738566
 20
94.22730174208557
 30
0.0
 10
282.6360803597411
 20
94.26538438732432
 30
0.0
 10
282.6329692465366
 20
94.34276775558673
 30
0.0
 10
282.5913137305863
 20
94.44809774536414
 30
0.0
 10
282.5187918513412
 20
94.53625488417741
 30
0.0
 10
282.4527555933186
 20
94.57003183614023
 30
0.0
 10
282.4200373679948
 20
94.58676691408321
 30
0.0
  0
SPLINE
  5
82
330
1F
100
AcDbEntity
  8
0
  6
Continuous
 62
     7
370
    15
100
AcDbSpline
210
0.0
220
0.0
230
1.0
 70
     8
 71
     3
 72
    12
 73
     8
 74
     0
 42
0.00000001
 43
0.00000001
 40
0.0
 40
0.0
 40
0.0
 40
0.0
 40
0.2058435564094651
 40
0.4120691620553099
 40
0.6141397217727111
 40
0.8132604579561383
 40
0.9999999999999999
 40
0.9999999999999999
 40
0.9999999999999999
 40
0.9999999999999999
 10
282.4200373679948
 20
94.58676691408321
 30
0.0
 10
282.3614712082739
 20
94.61686507132404
 30
0.0
 10
282.2442301890168
 20
94.67711724851125
 30
0.0
 10
282.1170818852171
 20
94.83402751101582
 30
0.0
 10
282.0473508364967
 20
95.01700869594565
 30
0.0
 10
282.038068084203
 20
95.20733964704482
 30
0.0
 10
282.0793618085326
 20
95.32129966901975
 30
0.0
 10
282.0993461697267
 20
95.37645134830811
 30
0.0
  0
ARC
  5
83
330
1F
100
AcDbEntity
  8
0
  6
Continuous
 62
     7
370
    15
100
AcDbCircle
 10
279.6395659407
 20
94.7405087591
 30
0.0
 40
0.3341698797442765
100
AcDbArc
 50
180.0328975598
 51
248.907221221
  0
SPLINE
  5
84
330
1F
100
AcDbEntity
  8
0
  6
Continuous
 62
     7
370
    15
100
AcDbSpline
210
0.0
220
0.0
230
1.0
 70
     8
 71
     3
 72
    11
 73
     7
 74
     0
 42
0.00000001
 43
0.00000001
 40
0.0
 40
0.0
 40
0.0
 40
0.0
 40
0.2669010467950085
 40
0.5546143410792385
 40
0.8439070439786261
 40
1.0
 40
1.0
 40
1.0
 40
1.0
 10
279.3056918359474
 20
94.6286192649705
 30
0.0
 10
279.3102985946755
 20
94.59422817624323
 30
0.0
 10
279.3198713351617
 20
94.5227642713897
 30
0.0
 10
279.3772093316241
 20
94.42782839795252
 30
0.0
 10
279.4488556416869
 20
94.36456312711314
 30
0.0
 10
279.5010224145577
 20
94.341735465635
 30
0.0
 10
279.5193051446375
 20
94.33373512460963
 30
0.0
  0
ARC
  5
85
330
1F
100
AcDbEntity
  8
0
  6
Continuous
 62
     7
370
    15
100
AcDbCircle
 10
282.6292790881
 20
95.2269691081
 30
0.0
 40
0.5835825201525155
100
AcDbArc
 50
155.2397859018
 51
179.9988219146
  0
SPLINE
  5
86
330
1F
100
AcDbEntity
  8
0
  6
Continuous
 62
     7
370
    15
100
AcDbSpline
210
0.0
220
0.0
230
1.0
 70
     8
 71
     3
 72
    12
 73
     8
 74
     0
 42
0.00000001
 43
0.00000001
 40
0.0
 40
0.0
 40
0.0
 40
0.0
 40
0.2058401281338253
 40
0.4120619935510067
 40
0.6141387330969493
 40
0.8132772113524575
 40
1.0
 40
1.0
 40
1.0
 40
1.0
 10
279.5193051446375
 20
94.33373512460963
 30
0.0
 10
279.5778707182525
 20
94.30499967460693
 30
0.0
 10
279.6951104772636
 20
94.24747548376502
 30
0.0
 10
279.8222591116149
 20
94.09275690222071
 30
0.0
 10
279.8919930535349
 20
93.90961031577861
 30
0.0
 10
279.9012741413464
 20
93.71696236145218
 30
0.0
 10
279.859979367749
 20
93.60043813096824
 30
0.0
 10
279.8399963429055
 20
93.54405069038475
 30
0.0
  0
SPLINE
  5
87
330
1F
100
AcDbEntity
  8
0
  6
Continuous
 62
     7
370
    15
100
AcDbSpline
210
0.0
220
0.0
230
1.0
 70
     8
 71
     3
 72
    11
 73
     7
 74
     0
 42
0.00000001
 43
0.00000001
 40
0.0
 40
0.0
 40
0.0
 40
0.0
 40
0.2928993220619842
 40
0.5864344719079377
 40
0.8775178868033647
 40
1.0
 40
1.0
 40
1.0
 40
1.0
 10
279.8399963429055
 20
93.54405069038475
 30
0.0
 10
279.8275859584335
 20
93.50792206289145
 30
0.0
 10
279.8027382489448
 20
93.43558637964152
 30
0.0
 10
279.8137098773095
 20
93.31943082041899
 30
0.0
 10
279.8502226046122
 20
93.23330910715293
 30
0.0
 10
279.8841612936823
 20
93.19173256984853
 30
0.0
 10
279.8942126206766
 20
93.17941920763013
 30
0.0
  0
ARC
  5
88
330
1F
100
AcDbEntity
  8
0
  6
Continuous
 62
     7
370
    15
100
AcDbCircle
 10
282.2994296938
 20
94.3705220269
 30
0.0
 40
0.3345534763481109
100
AcDbArc
 50
275.2210418381
 51
353.9119844202
  0
SPLINE
  5
89
330
1F
100
AcDbEntity
  8
0
  6
Continuous
 62
     7
370
    15
100
AcDbSpline
210
0.0
220
0.0
230
1.0
 70
     8
 71
     3
 72
    11
 73
     7
 74
     0
 42
0.00000001
 43
0.00000001
 40
0.0
 40
0.0
 40
0.0
 40
0.0
 40
0.2524782265335704
 40
0.5068902417932761
 40
0.7591786113116984
 40
1.0
 40
1.0
 40
1.0
 40
1.0
 10
282.3298734954339
 20
93.94241496403912
 30
0.0
 10
282.366910520698
 20
93.94910415038002
 30
0.0
 10
282.4412682463092
 20
93.96253375707641
 30
0.0
 10
282.5356051691193
 20
94.02849734647786
 30
0.0
 10
282.6050280257217
 20
94.11852323095457
 30
0.0
 10
282.622267103199
 20
94.19069713991398
 30
0.0
 10
282.630686199574
 20
94.22594491324111
 30
0.0
  0
SPLINE
  5
8A
330
1F
100
AcDbEntity
  8
0
  6
Continuous
 62
     7
370
    15
100
AcDbSpline
210
0.0
220
0.0
230
1.0
 70
     8
 71
     3
 72
    12
 73
     8
 74
     0
 42
0.00000001
 43
0.00000001
 40
0.0
 40
0.0
 40
0.0
 40
0.0
 40
0.2058585741213856
 40
0.4121026961457109
 40
0.614193784196738
 40
0.8133180967416312
 40
1.0
 40
1.0
 40
1.0
 40
1.0
 10
281.8046623317377
 20
93.27050692318224
 30
0.0
 10
281.8009173003264
 20
93.33649701760794
 30
0.0
 10
281.7934202235184
 20
93.46860079782599
 30
0.0
 10
281.865124793987
 20
93.6574631460948
 30
0.0
 10
281.9892000509433
 20
93.80916383929457
 30
0.0
 10
282.1508009167715
 20
93.91175737068511
 30
0.0
 10
282.2714799520695
 20
93.93241786945131
 30
0.0
 10
282.3298734954339
 20
93.94241496403912
 30
0.0
  0
SPLINE
  5
8B
330
1F
100
AcDbEntity
  8
0
  6
Continuous
 62
     7
370
    15
100
AcDbSpline
210
0.0
220
0.0
230
1.0
 70
     8
 71
     3
 72
    11
 73
     7
 74
     0
 42
0.00000001
 43
0.00000001
 40
0.0
 40
0.0
 40
0.0
 40
0.0
 40
0.2423611237745064
 40
0.5166847928458165
 40
0.7923341374633321
 40
1.0
 40
1.0
 40
1.0
 40
1.0
 10
281.6372116954333
 20
92.92499841450328
 30
0.0
 10
281.6646462997761
 20
92.94364549836399
 30
0.0
 10
281.7231335795876
 20
92.98339884045001
 30
0.0
 10
281.7832344232027
 20
93.07577074272963
 30
0.0
 10
281.8121648540527
 20
93.17677195688755
 30
0.0
 10
281.8069171225505
 20
93.24233603185212
 30
0.0
 10
281.8046623317377
 20
93.27050692318224
 30
0.0
  0
ARC
  5
8C
330
1F
100
AcDbEntity
  8
0
  6
Continuous
 62
     7
370
    15
100
AcDbCircle
 10
279.3087809613
 20
93.8830668629
 30
0.0
 40
0.5848651082824738
100
AcDbArc
 50
0.0374528729
 51
68.9026659079
  0
ARC
  5
8D
330
1F
100
AcDbEntity
  8
0
  6
Continuous
 62
     7
370
    15
100
AcDbCircle
 10
280.1443213913
 20
93.5000749774
 30
0.0
 40
0.3350540727108539
100
AcDbArc
 50
187.02992089
 51
308.8062910879
  0
SPLINE
  5
8E
330
1F
100
AcDbEntity
  8
0
  6
Continuous
 62
     7
370
    15
100
AcDbSpline
210
0.0
220
0.0
230
1.0
 70
     8
 71
     3
 72
    11
 73
     7
 74
     0
 42
0.00000001
 43
0.00000001
 40
0.0
 40
0.0
 40
0.0
 40
0.0
 40
0.2657596322626157
 40
0.5530029385954728
 40
0.841820848343931
 40
1.0
 40
1.0
 40
1.0
 40
1.0
 10
279.9886231370876
 20
93.10583776293065
 30
0.0
 10
280.0207475869944
 20
93.09263643436176
 30
0.0
 10
280.0875933868926
 20
93.06516659844347
 30
0.0
 10
280.1992006747155
 20
93.06728578980666
 30
0.0
 10
280.2910598050852
 20
93.09781423145236
 30
0.0
 10
280.3377676747222
 20
93.1319214845982
 30
0.0
 10
280.354296220059
 20
93.1439910412771
 30
0.0
  0
ARC
  5
8F
330
1F
100
AcDbEntity
  8
0
  6
Continuous
 62
     7
370
    15
100
AcDbCircle
 10
282.383048993
 20
93.4544737898
 30
0.0
 40
0.5853033408469326
100
AcDbArc
 50
95.2125765697
 51
179.945336511
  0
SPLINE
  5
90
330
1F
100
AcDbEntity
  8
0
  6
Continuous
 62
     7
370
    15
100
AcDbSpline
210
0.0
220
0.0
230
1.0
 70
     8
 71
     3
 72
    12
 73
     8
 74
     0
 42
0.00000001
 43
0.00000001
 40
0.0
 40
0.0
 40
0.0
 40
0.0
 40
0.2057904614204092
 40
0.4120344203360403
 40
0.6141302471427462
 40
0.8132633242113044
 40
1.0
 40
1.0
 40
1.0
 40
1.0
 10
280.354296220059
 20
93.1439910412771
 30
0.0
 10
280.4091008681394
 20
93.18055167330431
 30
0.0
 10
280.5188309365189
 20
93.25375350550036
 30
0.0
 10
280.7176625284077
 20
93.28680614922493
 30
0.0
 10
280.9114709538582
 20
93.25544853606166
 30
0.0
 10
281.0823685293334
 20
93.1665662804133
 30
0.0
 10
281.1617722017967
 20
93.07198568032845
 30
0.0
 10
281.2001985820233
 20
93.02621462228835
 30
0.0
  0
SPLINE
  5
91
330
1F
100
AcDbEntity
  8
0
  6
Continuous
 62
     7
370
    15
100
AcDbSpline
210
0.0
220
0.0
230
1.0
 70
     8
 71
     3
 72
    11
 73
     7
 74
     0
 42
0.00000001
 43
0.00000001
 40
0.0
 40
0.0
 40
0.0
 40
0.0
 40
0.2802371411012502
 40
0.5612869875923556
 40
0.8399906057825388
 40
0.9999999999999999
 40
0.9999999999999999
 40
0.9999999999999999
 40
0.9999999999999999
 10
281.2001985820233
 20
93.02621462228835
 30
0.0
 10
281.2249933916011
 20
92.99724555600811
 30
0.0
 10
281.2746549172687
 20
92.93922341132769
 30
0.0
 10
281.3801602376984
 20
92.8902473799344
 30
0.0
 10
281.4787187111762
 20
92.87751173927175
 30
0.0
 10
281.5371085861481
 20
92.88909586604562
 30
0.0
 10
281.5584048054497
 20
92.89332088115847
 30
0.0
  0
ARC
  5
92
330
1F
100
AcDbEntity
  8
0
  6
Continuous
 62
     7
370
    15
100
AcDbCircle
 10
281.473564659
 20
93.3153169808
 30
0.0
 40
0.3352849315105371
100
AcDbArc
 50
215.380522564
 51
342.4620954343
  0
ARC
  5
93
330
1F
100
AcDbEntity
  8
0
  6
Continuous
 62
     7
370
    15
100
AcDbCircle
 10
280.9719871844
 20
94.5234535275
 30
0.0
 40
2.625004379333357
100
AcDbArc
 50
0.1046590232
 51
179.8953409768
  0
ARC
  5
94
330
1F
100
AcDbEntity
  8
0
  6
Continuous
 62
     7
370
    15
100
AcDbCircle
 10
280.7216764293
 20
92.7810086523
 30
0.0
 40
0.587114844814593
100
AcDbArc
 50
35.4086710857
 51
128.7363927878
  0
LINE
  5
95
330
1F
100
AcDbEntity
  8
0
  6
Continuous
 62
     7
370
    15
100
AcDbLine
 10
277.5849828136
 20
90.914102434
 30
0.0
 11
277.2225703726
 21
90.7848084927
 31
0.0
  0
LINE
  5
96
330
1F
100
AcDbEntity
  8
0
  6
Continuous
 62
     7
370
    15
100
AcDbLine
 10
274.0196752334
 20
100.9183489946
 30
0.0
 11
277.2225703726
 21
90.7848084927
 31
0.0
  0
LINE
  5
97
330
1F
100
AcDbEntity
  8
0
  6
Continuous
 62
     7
370
    15
100
AcDbLine
 10
274.3820876747
 20
101.047642936
 30
0.0
 11
274.0196752334
 21
100.9183489946
 31
0.0
  0
LINE
  5
98
330
1F
100
AcDbEntity
  8
0
  6
Continuous
 62
     7
370
    15
100
AcDbLine
 10
275.8015748063
 20
99.6689451474
 30
0.0
 11
274.3820876747
 21
101.047642936
 31
0.0
  0
LINE
  5
99
330
1F
100
AcDbEntity
  8
0
  6
Continuous
 62
     7
370
    15
100
AcDbLine
 10
277.7607433902
 20
91.0983143824
 30
0.0
 11
277.5849828136
 21
90.914102434
 31
0.0
  0
SPLINE
  5
9A
330
1F
100
AcDbEntity
  8
0
  6
Continuous
 62
     7
370
    15
100
AcDbSpline
210
0.0
220
0.0
230
1.0
 70
     8
 71
     3
 72
    10
 73
     6
 74
     0
 42
0.00000001
 43
0.00000001
 40
0.0
 40
0.0
 40
0.0
 40
0.0
 40
0.351802278580983
 40
0.7034245935030968
 40
0.9999999999999999
 40
0.9999999999999999
 40
0.9999999999999999
 40
0.9999999999999999
 10
277.2039642433949
 20
90.7773276713606
 30
0.0
 10
277.221633881905
 20
90.73625391175311
 30
0.0
 10
277.2569641200618
 20
90.6541274037268
 30
0.0
 10
277.3522883463598
 20
90.56428310460457
 30
0.0
 10
277.4283941751525
 20
90.53301450469783
 30
0.0
 10
277.4632155211171
 20
90.5187079167209
 30
0.0
  0
LINE
  5
9B
330
1F
100
AcDbEntity
  8
0
  6
Continuous
 62
     7
370
    15
100
AcDbLine
 10
273.9979874078
 20
100.9206182577
 30
0.0
 11
277.2039642434
 21
90.7773276714
 31
0.0
  0
LINE
  5
9C
330
1F
100
AcDbEntity
  8
0
  6
Continuous
 62
     7
370
    15
100
AcDbLine
 10
284.6621405422
 20
98.2173362276
 30
0.0
 11
274.4940810741
 21
101.4155034647
 31
0.0
  0
SPLINE
  5
9D
330
1F
100
AcDbEntity
  8
0
  6
Continuous
 62
     7
370
    15
100
AcDbSpline
210
0.0
220
0.0
230
1.0
 70
     8
 71
     3
 72
    10
 73
     6
 74
     0
 42
0.00000001
 43
0.00000001
 40
0.0
 40
0.0
 40
0.0
 40
0.0
 40
0.3518022785810463
 40
0.7034245935032241
 40
0.9999999999999999
 40
0.9999999999999999
 40
0.9999999999999999
 40
0.9999999999999999
 10
284.9213918199684
 20
97.95871647295483
 30
0.0
 10
284.9037221814582
 20
97.99979023256233
 30
0.0
 10
284.8683919433015
 20
98.08191674058864
 30
0.0
 10
284.7730677170035
 20
98.17176103971086
 30
0.0
 10
284.6969618882108
 20
98.20302963961761
 30
0.0
 10
284.6621405422462
 20
98.21733622759454
 30
0.0
  0
LINE
  5
9E
330
1F
100
AcDbEntity
  8
0
  6
Continuous
 62
     7
370
    15
100
AcDbLine
 10
288.1273686555
 20
87.8154258866
 30
0.0
 11
284.92139182
 21
97.958716473
 31
0.0
  0
SPLINE
  5
9F
330
1F
100
AcDbEntity
  8
0
  6
Continuous
 62
     7
370
    15
100
AcDbSpline
210
0.0
220
0.0
230
1.0
 70
     8
 71
     3
 72
    20
 73
    16
 74
     0
 42
0.00000001
 43
0.00000001
 40
0.0
 40
0.0
 40
0.0
 40
0.0
 40
0.0783075311860372
 40
0.1588910126856596
 40
0.2369785693217472
 40
0.3174398160756663
 40
0.3936615824744717
 40
0.4721830276909562
 40
0.5469240757152655
 40
0.6238523130449213
 40
0.6983189620749155
 40
0.7748908420225139
 40
0.8503894607879425
 40
0.9279814901988724
 40
1.0
 40
1.0
 40
1.0
 40
1.0
 10
287.6312749892461
 20
87.32054067960988
 30
0.0
 10
287.653160442685
 20
87.31478810313031
 30
0.0
 10
287.6975674340346
 20
87.3031157558025
 30
0.0
 10
287.7663445474324
 20
87.3000505297456
 30
0.0
 10
287.8351004716548
 20
87.30796025915161
 30
0.0
 10
287.900329679274
 20
87.32742498733995
 30
0.0
 10
287.9612909197359
 20
87.35778020165974
 30
0.0
 10
288.0148299727293
 20
87.39716840308866
 30
0.0
 10
288.0609596023397
 20
87.44520216727682
 30
0.0
 10
288.0976655642503
 20
87.49936399262212
 30
0.0
 10
288.1249497023762
 20
87.55934059668742
 30
0.0
 10
288.1418472364924
 20
87.62263265742614
 30
0.0
 10
288.147951738521
 20
87.68864774555087
 30
0.0
 10
288.1439134396375
 20
87.75371950276845
 30
0.0
 10
288.1327448943401
 20
87.79537435535099
 30
0.0
 10
288.127368655519
 20
87.81542588664534
 30
0.0
  0
LINE
  5
A0
330
1F
100
AcDbEntity
  8
0
  6
Continuous
 62
     7
370
    15
100
AcDbLine
 10
277.4632155211
 20
90.5187079167
 30
0.0
 11
287.6312749892
 21
87.3205406796
 31
0.0
  0
ARC
  5
A1
330
1F
100
AcDbEntity
  8
0
  6
Continuous
 62
     7
370
    15
100
AcDbCircle
 10
274.3817858094
 20
101.0320362443
 30
0.0
 40
0.379537692426571
100
AcDbArc
 50
72.43019991
 51
197.4300603205
  0
ARC
  5
A2
330
1F
100
AcDbEntity
  8
0
  6
Continuous
 62
     7
370
    15
100
AcDbCircle
 10
277.5844029371
 20
90.8993796397
 30
0.0
 40
0.3795383412041662
100
AcDbArc
 50
197.5699397499
 51
252.5697999314
  0
LINE
  5
A3
330
1F
100
AcDbEntity
  8
0
  6
Continuous
 62
     7
370
    15
100
AcDbLine
 10
277.4707146098
 20
90.537268722
 30
0.0
 11
287.6290001848
 21
87.3421756747
 31
0.0
  0
ARC
  5
A4
330
1F
100
AcDbEntity
  8
0
  6
Continuous
 62
     7
370
    15
100
AcDbCircle
 10
287.743570254
 20
87.7040079
 30
0.0
 40
0.3795376924265788
100
AcDbArc
 50
252.43019991
 51
17.4300603205
  0
LINE
  5
A5
330
1F
100
AcDbEntity
  8
0
  6
Continuous
 62
     7
370
    15
100
AcDbLine
 10
288.1056808299
 20
87.8176951497
 30
0.0
 11
284.902785691
 21
97.9512356517
 31
0.0
  0
ARC
  5
A6
330
1F
100
AcDbEntity
  8
0
  6
Continuous
 62
     7
370
    15
100
AcDbCircle
 10
284.5409531277
 20
97.8366645055
 30
0.0
 40
0.3795383398848441
100
AcDbArc
 50
17.5699396794
 51
72.5698000902
  0
LINE
  5
A7
330
1F
100
AcDbEntity
  8
0
  6
Continuous
 62
     7
370
    15
100
AcDbLine
 10
284.6546414536
 20
98.1987754223
 30
0.0
 11
274.4963558785
 21
101.3938684696
 31
0.0
  0
SPLINE
  5
A8
330
1F
100
AcDbEntity
  8
0
  6
Continuous
 62
     7
370
    15
100
AcDbSpline
210
0.0
220
0.0
230
1.0
 70
     8
 71
     3
 72
    14
 73
    10
 74
     0
 42
0.00000001
 43
0.00000001
 40
0.0
 40
0.0
 40
0.0
 40
0.0
 40
0.1588501103508005
 40
0.3173321153184631
 40
0.4720153553660688
 40
0.6236441635915999
 40
0.7746618341644322
 40
0.9277417761108141
 40
1.0
 40
1.0
 40
1.0
 40
1.0
 10
274.4940810741172
 20
101.4155034647056
 30
0.0
 10
274.448984644281
 20
101.4250114909557
 30
0.0
 10
274.3588962871398
 20
101.4440055103856
 30
0.0
 10
274.2225553703491
 20
101.4135824820321
 30
0.0
 10
274.1066210427118
 20
101.3431922614109
 30
0.0
 10
274.022458358143
 20
101.2388477009447
 30
0.0
 10
273.9782533019811
 20
101.1136352598307
 30
0.0
 10
273.9760046169572
 20
101.0032005418528
 30
0.0
 10
273.9926498517432
 20
100.9406697414441
 30
0.0
 10
273.9979874078443
 20
100.9206182576701
 30
0.0
  0
LINE
  5
A9
330
1F
100
AcDbEntity
  8
0
  6
Continuous
 62
     7
370
    15
100
AcDbLine
 10
274.3820876747
 20
101.047642936
 30
0.0
 11
274.4963558785
 21
101.3938684696
 31
0.0
  0
LINE
  5
AA
330
1F
100
AcDbEntity
  8
0
  6
Continuous
 62
     7
370
    15
100
AcDbLine
 10
284.5403732498
 20
97.8525498886
 30
0.0
 11
284.6546414536
 21
98.1987754223
 31
0.0
  0
LINE
  5
AB
330
1F
100
AcDbEntity
  8
0
  6
Continuous
 62
     7
370
    15
100
AcDbLine
 10
284.3646126732
 20
97.6860969717
 30
0.0
 11
284.5403732498
 21
97.8525498886
 31
0.0
  0
SPLINE
  5
AC
330
1F
100
AcDbEntity
  8
0
  6
Continuous
 62
     7
370
    15
100
AcDbSpline
210
0.0
220
0.0
230
1.0
 70
     8
 71
     3
 72
    11
 73
     7
 74
     0
 42
0.00000001
 43
0.00000001
 40
0.0
 40
0.0
 40
0.0
 40
0.0
 40
0.0072987238691082
 40
0.1268462096078624
 40
0.5874298328382552
 40
1.0
 40
1.0
 40
1.0
 40
1.0
 10
276.2877454653276
 20
99.17614011165807
 30
0.0
 10
276.2866847962778
 20
99.17725839881011
 30
0.0
 10
276.2682511836306
 20
99.1966933697768
 30
0.0
 10
276.1809482156676
 20
99.2882386475878
 30
0.0
 10
276.0171553880704
 20
99.4569042151526
 30
0.0
 10
275.8707514877518
 20
99.6009042880967
 30
0.0
 10
275.801574806287
 20
99.66894514735834
 30
0.0
  0
ARC
  5
AD
330
1F
100
AcDbEntity
  8
0
  6
Continuous
 62
     7
370
    15
100
AcDbCircle
 10
277.780928958
 20
97.6401882006
 30
0.0
 40
0.9987834011187907
100
AcDbArc
 50
72.4301998975
 51
197.4300603423
  0
LINE
  5
AE
330
1F
100
AcDbEntity
  8
0
  6
Continuous
 62
     7
370
    15
100
AcDbLine
 10
284.5403732498
 20
97.8525498886
 30
0.0
 11
284.902785691
 21
97.9512356517
 31
0.0
  0
LINE
  5
AF
330
1F
100
AcDbEntity
  8
0
  6
Continuous
 62
     7
370
    15
100
AcDbLine
 10
287.7432683887
 20
87.7190093867
 30
0.0
 11
288.1056808299
 21
87.8176951497
 31
0.0
  0
LINE
  5
B0
330
1F
100
AcDbEntity
  8
0
  6
Continuous
 62
     7
370
    15
100
AcDbLine
 10
286.3237812571
 20
89.1723702626
 30
0.0
 11
287.7432683887
 21
87.7190093867
 31
0.0
  0
LINE
  5
B1
330
1F
100
AcDbEntity
  8
0
  6
Continuous
 62
     7
370
    15
100
AcDbLine
 10
283.0713407377
 20
97.0232122257
 30
0.0
 11
278.0824291402
 21
98.592378267
 31
0.0
  0
LINE
  5
B2
330
1F
100
AcDbEntity
  8
0
  6
Continuous
 62
     7
370
    15
100
AcDbLine
 10
285.2973496735
 20
91.3950329171
 30
0.0
 11
283.724351889
 21
96.3717917768
 31
0.0
  0
ARC
  5
B3
330
1F
100
AcDbEntity
  8
0
  6
Continuous
 62
     7
370
    15
100
AcDbCircle
 10
284.3444271052
 20
91.0958559441
 30
0.0
 40
0.9987834011226111
100
AcDbArc
 50
252.43019991
 51
17.4300603205
  0
LINE
  5
B4
330
1F
100
AcDbEntity
  8
0
  6
Continuous
 62
     7
370
    15
100
AcDbLine
 10
279.0540153256
 20
91.7128319186
 30
0.0
 11
284.0429269233
 21
90.1436658776
 31
0.0
  0
ARC
  5
B5
330
1F
100
AcDbEntity
  8
0
  6
Continuous
 62
     7
370
    15
100
AcDbCircle
 10
279.3531951307
 20
92.6657553836
 30
0.0
 40
0.998785104960443
100
AcDbArc
 50
197.5699396794
 51
252.5698000901
  0
LINE
  5
B6
330
1F
100
AcDbEntity
  8
0
  6
Continuous
 62
     7
370
    15
100
AcDbLine
 10
276.8280063899
 20
97.3410112272
 30
0.0
 11
278.4010041744
 21
92.3642523675
 31
0.0
  0
ARC
  5
B7
330
1F
100
AcDbEntity
  8
0
  6
Continuous
 62
     7
370
    15
100
AcDbCircle
 10
282.7721609327
 20
96.0702887607
 30
0.0
 40
0.9987851049603845
100
AcDbArc
 50
17.5699396794
 51
72.5698000901
  0
CIRCLE
  5
B8
330
1F
100
AcDbEntity
  8
0
  6
Continuous
 62
     7
370
    15
100
AcDbCircle
 10
281.0665712194
 20
94.3629462834
 30
0.0
 40
3.046913918897425
  0
SPLINE
  5
B9
330
1F
100
AcDbEntity
  8
0
  6
Continuous
 62
     7
370
    15
100
AcDbSpline
210
0.0
220
0.0
230
1.0
 70
     8
 71
     3
 72
    11
 73
     7
 74
     0
 42
0.00000001
 43
0.00000001
 40
0.0
 40
0.0
 40
0.0
 40
0.0
 40
0.0092138098389978
 40
0.3448490431109371
 40
0.672230496250737
 40
1.0
 40
1.0
 40
1.0
 40
1.0
 10
283.8721511674842
 20
97.19311542647664
 30
0.0
 10
283.8735137306166
 20
97.19455177284823
 30
0.0
 10
283.9245109403063
 20
97.24831049811739
 30
0.0
 10
284.0337680785798
 20
97.36125649705191
 30
0.0
 10
284.2069966981794
 20
97.53493987660694
 30
0.0
 10
284.3120532729341
 20
97.63569138142005
 30
0.0
 10
284.3646126731927
 20
97.68609697174597
 30
0.0
  0
ARC
  5
BA
330
1F
100
AcDbEntity
  8
0
  6
Continuous
 62
     7
370
    15
100
AcDbCircle
 10
281.0626780317
 20
94.4430003158
 30
0.0
 40
3.05000464748509
100
AcDbArc
 50
180.1000222079
 51
359.8999777921
  0
SPLINE
  5
BB
330
1F
100
AcDbEntity
  8
0
  6
Continuous
 62
     7
370
    15
100
AcDbSpline
210
0.0
220
0.0
230
1.0
 70
     8
 71
     3
 72
    11
 73
     7
 74
     0
 42
0.00000001
 43
0.00000001
 40
0.0
 40
0.0
 40
0.0
 40
0.0
 40
0.3277695037502717
 40
0.6551509568910016
 40
0.9907861901609611
 40
0.9999999999999999
 40
0.9999999999999999
 40
0.9999999999999999
 40
0.9999999999999999
 10
277.7607433901719
 20
91.0983143823895
 30
0.0
 10
277.8133027904306
 20
91.15277152846602
 30
0.0
 10
277.9183593651855
 20
91.26162134809034
 30
0.0
 10
278.0915879847843
 20
91.433551255312
 30
0.0
 10
278.2008451230577
 20
91.53858724312929
 30
0.0
 10
278.2518423327467
 20
91.5865744839593
 30
0.0
 10
278.2532048958791
 20
91.58785662558196
 30
0.0
  0
LINE
  5
BC
330
1F
100
AcDbEntity
  8
0
  6
Continuous
 62
     7
370
    15
100
AcDbLine
 10
287.7432683887
 20
87.7190093867
 30
0.0
 11
287.6290001848
 21
87.3421756747
 31
0.0
  0
LINE
  5
BD
330
1F
100
AcDbEntity
  8
0
  6
Continuous
 62
     7
370
    15
100
AcDbLine
 10
277.5849828136
 20
90.914102434
 30
0.0
 11
277.4707146098
 21
90.537268722
 31
0.0
  0
SPLINE
  5
BE
330
1F
100
AcDbEntity
  8
0
  6
Continuous
 62
     7
370
    15
100
AcDbSpline
210
0.0
220
0.0
230
1.0
 70
     8
 71
     3
 72
    11
 73
     7
 74
     0
 42
0.00000001
 43
0.00000001
 40
0.0
 40
0.0
 40
0.0
 40
0.0
 40
0.4125701671613103
 40
0.8731537903909816
 40
0.9927012761302751
 40
1.0
 40
1.0
 40
1.0
 40
1.0
 10
286.3237812570771
 20
89.17237026263686
 30
0.0
 10
286.254604575612
 20
89.24234574446699
 30
0.0
 10
286.1082006752923
 20
89.39044020707637
 30
0.0
 10
285.944407847698
 20
89.54856231251213
 30
0.0
 10
285.8571048797315
 20
89.63119763934499
 30
0.0
 10
285.8386712670853
 20
89.64854008696432
 30
0.0
 10
285.8376105980354
 20
89.64953797043904
 30
0.0
  0
LINE
  5
BF
330
1F
100
AcDbEntity
  8
0
  6
Continuous
 62
     7
370
    15
100
AcDbLine
 10
154.0932683887
 20
79.7444022768
 30
0.0
 11
154.0932683887
 21
129.1546796774
 31
0.0
  0
SPLINE
  5
C0
330
1F
100
AcDbEntity
  8
0
  6
Continuous
 62
     7
370
    15
100
AcDbSpline
210
0.0
220
0.0
230
1.0
 70
     8
 71
     3
 72
    10
 73
     6
 74
     0
 42
0.00000001
 43
0.00000001
 40
0.0
 40
0.0
 40
0.0
 40
0.0
 40
0.5
 40
0.5
 40
1.0
 40
1.0
 40
1.0
 40
1.0
 10
154.0932683886603
 20
79.74440227682643
 30
0.0
 10
154.0932683886603
 20
79.58451500863278
 30
0.0
 10
154.0319587374244
 20
79.42338775311819
 30
0.0
 10
153.8128590998894
 20
79.18928875476335
 30
0.0
 10
153.6548108935759
 20
79.11776198117215
 30
0.0
 10
153.4932683886603
 20
79.11776198117215
 30
0.0
  0
SPLINE
  5
C1
330
1F
100
AcDbEntity
  8
0
  6
Continuous
 62
     7
370
    15
100
AcDbSpline
210
0.0
220
0.0
230
1.0
 70
    24
 71
     3
 72
    12
 73
     8
 74
     0
 42
0.00000001
 43
0.00000001
 40
0.0
 40
0.0
 40
0.0
 40
0.0
 40
0.249999999999998
 40
0.249999999999998
 40
0.499999999999996
 40
0.499999999999996
 40
1.0
 40
1.0
 40
1.0
 40
1.0
 10
153.4932683886603
 20
129.1546796774193
 30
0.0
 10
153.5835074563473
 20
129.1546796774193
 30
0.0
 10
153.6744055704538
 20
129.1546796774193
 30
0.0
 10
153.8290026069423
 20
129.1546796774193
 30
0.0
 10
153.8939810230504
 20
129.1546796774193
 30
0.0
 10
154.0458160509867
 20
129.1546796774193
 30
0.0
 10
154.0932683886603
 20
129.1546796774193
 30
0.0
 10
154.0932683886603
 20
129.1546796774193
 30
0.0
  0
LINE
  5
C2
330
1F
100
AcDbEntity
  8
0
  6
Continuous
 62
     7
370
    15
100
AcDbLine
 10
153.4932683887
 20
79.1177619812
 30
0.0
 11
149.5352012201
 21
79.1177619812
 31
0.0
  0
LINE
  5
C3
330
1F
100
AcDbEntity
  8
0
  6
Continuous
 62
     7
370
    15
100
AcDbLine
 10
149.5352012201
 20
79.1177619812
 30
0.0
 11
149.5352012201
 21
129.1546796774
 31
0.0
  0
LINE
  5
C4
330
1F
100
AcDbEntity
  8
0
  6
Continuous
 62
     7
370
    15
100
AcDbLine
 10
149.5352012201
 20
129.1546796774
 30
0.0
 11
153.4932683887
 21
129.1546796774
 31
0.0
  0
SPLINE
  5
C5
330
1F
100
AcDbEntity
  8
0
  6
Continuous
 62
     7
370
    15
100
AcDbSpline
210
0.0
220
0.0
230
1.0
 70
     8
 71
     3
 72
     8
 73
     4
 74
     0
 42
0.00000001
 43
0.00000001
 40
0.0
 40
0.0
 40
0.0
 40
0.0
 40
1.0
 40
1.0
 40
1.0
 40
1.0
 10
149.5352012201494
 20
79.11776198117211
 30
0.0
 10
149.0397215594836
 20
80.01328806910546
 30
0.0
 10
148.5456075114415
 20
80.90957248415769
 30
0.0
 10
148.0532683886603
 20
81.80684251836439
 30
0.0
  0
LINE
  5
C6
330
1F
100
AcDbEntity
  8
0
  6
Continuous
 62
     7
370
    15
100
AcDbLine
 10
148.0532683887
 20
81.8068425184
 30
0.0
 11
148.0532683887
 21
129.1546796774
 31
0.0
  0
SPLINE
  5
C7
330
1F
100
AcDbEntity
  8
0
  6
Continuous
 62
     7
370
    15
100
AcDbSpline
210
0.0
220
0.0
230
1.0
 70
    24
 71
     3
 72
     8
 73
     4
 74
     0
 42
0.00000001
 43
0.00000001
 40
0.0
 40
0.0
 40
0.0
 40
0.0
 40
1.0
 40
1.0
 40
1.0
 40
1.0
 10
148.0532683886603
 20
129.1546796774193
 30
0.0
 10
148.5332203830253
 20
129.1546796774193
 30
0.0
 10
149.0285211119989
 20
129.1546796774193
 30
0.0
 10
149.5352012201494
 20
129.1546796774193
 30
0.0
  0
LINE
  5
C8
330
1F
100
AcDbEntity
  8
0
  6
Continuous
 62
     7
370
    15
100
AcDbLine
 10
133.0932683887
 20
129.1546796774
 30
0.0
 11
142.7513355572
 21
129.1546796774
 31
0.0
  0
LINE
  5
C9
330
1F
100
AcDbEntity
  8
0
  6
Continuous
 62
     7
370
    15
100
AcDbLine
 10
142.7513355572
 20
79.1177619812
 30
0.0
 11
142.7513355572
 21
129.1546796774
 31
0.0
  0
LINE
  5
CA
330
1F
100
AcDbEntity
  8
0
  6
Continuous
 62
     7
370
    15
100
AcDbLine
 10
142.7513355572
 20
79.1177619812
 30
0.0
 11
141.0932683887
 21
79.1177619812
 31
0.0
  0
SPLINE
  5
CB
330
1F
100
AcDbEntity
  8
0
  6
Continuous
 62
     7
370
    15
100
AcDbSpline
210
0.0
220
0.0
230
1.0
 70
     8
 71
     3
 72
    28
 73
    24
 74
     0
 42
0.00000001
 43
0.00000001
 40
0.0
 40
0.0
 40
0.0
 40
0.0
 40
0.125000000000001
 40
0.125000000000001
 40
0.1875000000000013
 40
0.1875000000000013
 40
0.2500000000000017
 40
0.2500000000000017
 40
0.3750000000000017
 40
0.3750000000000017
 40
0.4375000000000016
 40
0.4375000000000016
 40
0.5000000000000016
 40
0.5000000000000016
 40
0.6250000000000011
 40
0.6250000000000011
 40
0.7500000000000007
 40
0.7500000000000007
 40
0.8125000000000004
 40
0.8125000000000004
 40
0.8750000000000003
 40
0.8750000000000003
 40
1.0
 40
1.0
 40
1.0
 40
1.0
 10
141.0932683886603
 20
79.1177619811721
 30
0.0
 10
140.5615606311674
 20
79.1177619811721
 30
0.0
 10
140.039322065857
 20
79.10197726722191
 30
0.0
 10
139.269451579582
 20
79.05698185314569
 30
0.0
 10
139.0150920073907
 20
79.03842685806998
 30
0.0
 10
138.5109704266922
 20
78.9945741356235
 30
0.0
 10
138.2612476092642
 20
78.96922952867129
 30
0.0
 10
137.5356576578178
 20
78.88582745092118
 30
0.0
 10
137.0772973962363
 20
78.81996189177009
 30
0.0
 10
136.4267994528424
 20
78.71099155127831
 30
0.0
 10
136.21511740205
 20
78.67275191551165
 30
0.0
 10
135.811045912912
 20
78.5949931780923
 30
0.0
 10
135.6185393990911
 20
78.55549221591694
 30
0.0
 10
135.0687044280698
 20
78.43658447355095
 30
0.0
 10
134.738775649761
 20
78.35676679212634
 30
0.0
 10
134.1543043811923
 20
78.20342363033026
 30
0.0
 10
133.9080272431789
 20
78.13208987706102
 30
0.0
 10
133.6081844504808
 20
78.0381463699864
 30
0.0
 10
133.5197275934086
 20
78.00895257662648
 30
0.0
 10
133.3663662401035
 20
77.95548600236305
 30
0.0
 10
133.3012780258773
 20
77.93112666808788
 30
0.0
 10
133.1456840099365
 20
77.86753652264316
 30
0.0
 10
133.0932683886603
 20
77.83743358755387
 30
0.0
 10
133.0932683886603
 20
77.82055669455696
 30
0.0
  0
LINE
  5
CC
330
1F
100
AcDbEntity
  8
0
  6
Continuous
 62
     7
370
    15
100
AcDbLine
 10
133.0932683887
 20
77.8205566946
 30
0.0
 11
133.0932683887
 21
77.8046796774
 31
0.0
  0
SPLINE
  5
CD
330
1F
100
AcDbEntity
  8
0
  6
Continuous
 62
     7
370
    15
100
AcDbSpline
210
0.0
220
0.0
230
1.0
 70
     8
 71
     3
 72
    17
 73
    13
 74
     0
 42
0.00000001
 43
0.00000001
 40
0.0
 40
0.0
 40
0.0
 40
0.0
 40
0.1034796923964077
 40
0.2100239188807893
 40
0.3134862136955615
 40
0.4198361274354897
 40
0.5254127712915694
 40
0.6339610695419794
 40
0.7409508756305039
 40
0.8511696089308176
 40
0.9558996534551943
 40
1.0
 40
1.0
 40
1.0
 40
1.0
 10
141.0932683886603
 20
139.7718751505836
 30
0.0
 10
140.6580200395503
 20
139.7773233471168
 30
0.0
 10
139.7746335329853
 20
139.7883810876286
 30
0.0
 10
138.4938059477566
 20
139.8747394805303
 30
0.0
 10
137.2763894118825
 20
140.0026096570679
 30
0.0
 10
136.168583559636
 20
140.1615549556612
 30
0.0
 10
135.1803447556878
 20
140.3360486433767
 30
0.0
 10
134.3556211981563
 20
140.5052144940167
 30
0.0
 10
133.706667697497
 20
140.6530982765449
 30
0.0
 10
133.2896328820352
 20
140.7548888607758
 30
0.0
 10
133.0910361690707
 20
140.8052403833789
 30
0.0
 10
133.114348890504
 20
140.7993346991566
 30
0.0
 10
133.1212567477416
 20
140.797584769462
 30
0.0
  0
LINE
  5
CE
330
1F
100
AcDbEntity
  8
0
  6
Continuous
 62
     7
370
    15
100
AcDbLine
 10
142.7513355572
 20
139.7718751506
 30
0.0
 11
141.0932683887
 21
139.7718751506
 31
0.0
  0
LINE
  5
CF
330
1F
100
AcDbEntity
  8
0
  6
Continuous
 62
     7
370
    15
100
AcDbLine
 10
142.7513355572
 20
133.7633693398
 30
0.0
 11
142.7513355572
 21
139.7718751506
 31
0.0
  0
LINE
  5
D0
330
1F
100
AcDbEntity
  8
0
  6
Continuous
 62
     7
370
    15
100
AcDbLine
 10
140.3388887343
 20
133.7633693398
 30
0.0
 11
142.7513355572
 21
133.7633693398
 31
0.0
  0
SPLINE
  5
D1
330
1F
100
AcDbEntity
  8
0
  6
Continuous
 62
     7
370
    15
100
AcDbSpline
210
0.0
220
0.0
230
1.0
 70
     8
 71
     3
 72
    20
 73
    16
 74
     0
 42
0.00000001
 43
0.00000001
 40
0.0
 40
0.0
 40
0.0
 40
0.0
 40
0.2499999999999995
 40
0.2499999999999995
 40
0.3749999999999996
 40
0.3749999999999996
 40
0.4999999999999997
 40
0.4999999999999997
 40
0.6249999999999998
 40
0.6249999999999998
 40
0.7499999999999998
 40
0.7499999999999998
 40
0.8749999999999999
 40
0.8749999999999999
 40
1.0
 40
1.0
 40
1.0
 40
1.0
 10
133.0932683886603
 20
129.1546796774193
 30
0.0
 10
133.3416421229483
 20
129.8085421057167
 30
0.0
 10
133.6612122152937
 20
130.4123278877138
 30
0.0
 10
134.2835184484983
 20
131.2391666238824
 30
0.0
 10
134.5149427089291
 20
131.5015952618353
 30
0.0
 10
135.0361570485788
 20
131.9982579159403
 30
0.0
 10
135.3227775312139
 20
132.2288447949618
 30
0.0
 10
135.9422622725215
 20
132.6453990195444
 30
0.0
 10
136.2765626520085
 20
132.832896821512
 30
0.0
 10
137.0018231246333
 20
133.1642937991483
 30
0.0
 10
137.3837381820237
 20
133.3037977866436
 30
0.0
 10
138.1785263581954
 20
133.5292512941145
 30
0.0
 10
138.5926845524018
 20
133.6158774056582
 30
0.0
 10
139.4582308929832
 20
133.7338581945123
 30
0.0
 10
139.8961185079949
 20
133.7633693397867
 30
0.0
 10
140.3388887343496
 20
133.7633693397867
 30
0.0
  0
LINE
  5
D2
330
1F
100
AcDbEntity
  8
0
  6
Continuous
 62
     7
370
    15
100
AcDbLine
 10
144.2332683887
 20
81.8068425184
 30
0.0
 11
144.2332683887
 21
129.1546796774
 31
0.0
  0
SPLINE
  5
D3
330
1F
100
AcDbEntity
  8
0
  6
Continuous
 62
     7
370
    15
100
AcDbSpline
210
0.0
220
0.0
230
1.0
 70
     8
 71
     3
 72
     8
 73
     4
 74
     0
 42
0.00000001
 43
0.00000001
 40
0.0
 40
0.0
 40
0.0
 40
0.0
 40
1.0
 40
1.0
 40
1.0
 40
1.0
 10
144.2332683886603
 20
81.80684251836439
 30
0.0
 10
143.7409292658791
 20
80.90957248415769
 30
0.0
 10
143.246815217837
 20
80.01328806910546
 30
0.0
 10
142.7513355571712
 20
79.11776198117211
 30
0.0
  0
SPLINE
  5
D4
330
1F
100
AcDbEntity
  8
0
  6
Continuous
 62
     7
370
    15
100
AcDbSpline
210
0.0
220
0.0
230
1.0
 70
    24
 71
     3
 72
     8
 73
     4
 74
     0
 42
0.00000001
 43
0.00000001
 40
0.0
 40
0.0
 40
0.0
 40
0.0
 40
1.0
 40
1.0
 40
1.0
 40
1.0
 10
142.7513355571712
 20
129.1546796774193
 30
0.0
 10
143.2580156653218
 20
129.1546796774193
 30
0.0
 10
143.7533163942954
 20
129.1546796774193
 30
0.0
 10
144.2332683886603
 20
129.1546796774193
 30
0.0
  0
LINE
  5
D5
330
1F
100
AcDbEntity
  8
0
  6
Continuous
 62
     7
370
    15
100
AcDbLine
 10
128.1432683887
 20
78.1046796774
 30
0.0
 11
128.1432683887
 21
140.5046796732
 31
0.0
  0
SPLINE
  5
D6
330
1F
100
AcDbEntity
  8
0
  6
Continuous
 62
     7
370
    15
100
AcDbSpline
210
0.0
220
0.0
230
1.0
 70
     8
 71
     3
 72
    10
 73
     6
 74
     0
 42
0.00000001
 43
0.00000001
 40
0.0
 40
0.0
 40
0.0
 40
0.0
 40
0.5
 40
0.5
 40
1.0
 40
1.0
 40
1.0
 40
1.0
 10
144.6275659203513
 20
135.7046796774193
 30
0.0
 10
144.5060256566827
 20
135.779405844631
 30
0.0
 10
144.4046912963338
 20
135.8883508605479
 30
0.0
 10
144.2690523534454
 20
136.1387813413095
 30
0.0
 10
144.2332683886603
 20
136.2812007034084
 30
0.0
 10
144.2332683886603
 20
136.4243335284551
 30
0.0
  0
SPLINE
  5
D7
330
1F
100
AcDbEntity
  8
0
  6
Continuous
 62
     7
370
    15
100
AcDbSpline
210
0.0
220
0.0
230
1.0
 70
    24
 71
     3
 72
    12
 73
     8
 74
     0
 42
0.00000001
 43
0.00000001
 40
0.0
 40
0.0
 40
0.0
 40
0.0
 40
0.2500000000000009
 40
0.2500000000000009
 40
0.5000000000000018
 40
0.5000000000000018
 40
1.0
 40
1.0
 40
1.0
 40
1.0
 10
145.0332683886604
 20
135.7046796774193
 30
0.0
 10
144.9839250268507
 20
135.7046796774193
 30
0.0
 10
144.935234328549
 20
135.7046796774193
 30
0.0
 10
144.8523832309786
 20
135.7046796774193
 30
0.0
 10
144.816183263358
 20
135.7046796774193
 30
0.0
 10
144.7204333468086
 20
135.7046796774193
 30
0.0
 10
144.6705513769965
 20
135.7046796774193
 30
0.0
 10
144.6275659203512
 20
135.7046796774193
 30
0.0
  0
SPLINE
  5
D8
330
1F
100
AcDbEntity
  8
0
  6
Continuous
 62
     7
370
    15
100
AcDbSpline
210
0.0
220
0.0
230
1.0
 70
    24
 71
     3
 72
    14
 73
    10
 74
     0
 42
0.00000001
 43
0.00000001
 40
0.0
 40
0.0
 40
0.0
 40
0.0
 40
0.1249999999999996
 40
0.1249999999999996
 40
0.2499999999999993
 40
0.2499999999999993
 40
0.4999999999999986
 40
0.4999999999999986
 40
1.0
 40
1.0
 40
1.0
 40
1.0
 10
145.0332683886603
 20
82.90467967741925
 30
0.0
 10
144.9639216669291
 20
82.90467967741925
 30
0.0
 10
144.8987236135452
 20
82.90467967741925
 30
0.0
 10
144.7943444209182
 20
82.90467967741925
 30
0.0
 10
144.7514420499092
 20
82.90467967741925
 30
0.0
 10
144.6391163923045
 20
82.90467967741925
 30
0.0
 10
144.5838926979507
 20
82.90467967741925
 30
0.0
 10
144.4398353191831
 20
82.90467967741927
 30
0.0
 10
144.3777546223517
 20
82.90467967741927
 30
0.0
 10
144.3309431909926
 20
82.90467967741925
 30
0.0
  0
SPLINE
  5
D9
330
1F
100
AcDbEntity
  8
0
  6
Continuous
 62
     7
370
    15
100
AcDbSpline
210
0.0
220
0.0
230
1.0
 70
     8
 71
     3
 72
     9
 73
     5
 74
     0
 42
0.00000001
 43
0.00000001
 40
0.0
 40
0.0
 40
0.0
 40
0.0
 40
0.5
 40
1.0
 40
1.0
 40
1.0
 40
1.0
 10
144.2332683886603
 20
129.4405463088807
 30
0.0
 10
144.2332683886603
 20
129.392314256758
 30
0.0
 10
144.2376743633655
 20
129.2964442433184
 30
0.0
 10
144.2506935434593
 20
129.2017356133351
 30
0.0
 10
144.2594160118204
 20
129.1546796774193
 30
0.0
  0
SPLINE
  5
DA
330
1F
100
AcDbEntity
  8
0
  6
Continuous
 62
     7
370
    15
100
AcDbSpline
210
0.0
220
0.0
230
1.0
 70
    24
 71
     3
 72
    14
 73
    10
 74
     0
 42
0.00000001
 43
0.00000001
 40
0.0
 40
0.0
 40
0.0
 40
0.0
 40
0.5000000000000032
 40
0.5000000000000032
 40
0.7500000000000032
 40
0.7500000000000032
 40
0.8750000000000017
 40
0.8750000000000017
 40
1.0
 40
1.0
 40
1.0
 40
1.0
 10
147.955593586328
 20
82.90467967741925
 30
0.0
 10
147.9088088812798
 20
82.90467967741925
 30
0.0
 10
147.8467576845002
 20
82.90467967741925
 30
0.0
 10
147.7033660459496
 20
82.90467967741925
 30
0.0
 10
147.6472223923985
 20
82.90467967741925
 30
0.0
 10
147.5342713702622
 20
82.90467967741925
 30
0.0
 10
147.4912706082241
 20
82.90467967741925
 30
0.0
 10
147.3872078979176
 20
82.90467967741925
 30
0.0
 10
147.3218756595607
 20
82.90467967741925
 30
0.0
 10
147.2532683886603
 20
82.90467967741925
 30
0.0
  0
SPLINE
  5
DB
330
1F
100
AcDbEntity
  8
0
  6
Continuous
 62
     7
370
    15
100
AcDbSpline
210
0.0
220
0.0
230
1.0
 70
    24
 71
     3
 72
    12
 73
     8
 74
     0
 42
0.00000001
 43
0.00000001
 40
0.0
 40
0.0
 40
0.0
 40
0.0
 40
0.5000000000000017
 40
0.5000000000000017
 40
0.7500000000000008
 40
0.7500000000000008
 40
1.0
 40
1.0
 40
1.0
 40
1.0
 10
147.6589708569694
 20
135.7046796774193
 30
0.0
 10
147.6158853073586
 20
135.7046796774193
 30
0.0
 10
147.5667331056115
 20
135.7046796774193
 30
0.0
 10
147.470260511322
 20
135.7046796774193
 30
0.0
 10
147.4341589261877
 20
135.7046796774193
 30
0.0
 10
147.3510531683251
 20
135.7046796774193
 30
0.0
 10
147.3030565713611
 20
135.7046796774193
 30
0.0
 10
147.2532683886603
 20
135.7046796774193
 30
0.0
  0
SPLINE
  5
DC
330
1F
100
AcDbEntity
  8
0
  6
Continuous
 62
     7
370
    15
100
AcDbSpline
210
0.0
220
0.0
230
1.0
 70
     8
 71
     3
 72
    10
 73
     6
 74
     0
 42
0.00000001
 43
0.00000001
 40
0.0
 40
0.0
 40
0.0
 40
0.0
 40
0.5
 40
0.5
 40
1.0
 40
1.0
 40
1.0
 40
1.0
 10
148.0532683886603
 20
136.4243335284551
 30
0.0
 10
148.0532683886603
 20
136.2805634706371
 30
0.0
 10
148.0172193299414
 20
136.1381441081419
 30
0.0
 10
147.8817104691674
 20
135.8882498147847
 30
0.0
 10
147.7818344760712
 20
135.7802194785365
 30
0.0
 10
147.6589708569693
 20
135.7046796774193
 30
0.0
  0
SPLINE
  5
DD
330
1F
100
AcDbEntity
  8
0
  6
Continuous
 62
     7
370
    15
100
AcDbSpline
210
0.0
220
0.0
230
1.0
 70
     8
 71
     3
 72
    10
 73
     6
 74
     0
 42
0.00000001
 43
0.00000001
 40
0.0
 40
0.0
 40
0.0
 40
0.0
 40
0.5
 40
0.5
 40
1.0
 40
1.0
 40
1.0
 40
1.0
 10
148.0271207655002
 20
129.1546796774193
 30
0.0
 10
148.0358104084119
 20
129.2015585267374
 30
0.0
 10
148.0423494731623
 20
129.2489809921387
 30
0.0
 10
148.0511081075554
 20
129.3449177907255
 30
0.0
 10
148.0532683886603
 20
129.3928330787359
 30
0.0
 10
148.0532683886603
 20
129.4405463088805
 30
0.0
  0
LINE
  5
DE
330
1F
100
AcDbEntity
  8
0
  6
Continuous
 62
     7
370
    15
100
AcDbLine
 10
147.2532683887
 20
135.7046796774
 30
0.0
 11
145.0332683887
 21
135.7046796774
 31
0.0
  0
LINE
  5
DF
330
1F
100
AcDbEntity
  8
0
  6
Continuous
 62
     7
370
    15
100
AcDbLine
 10
147.2532683887
 20
82.9046796774
 30
0.0
 11
145.0332683887
 21
82.9046796774
 31
0.0
  0
LINE
  5
E0
330
1F
100
AcDbEntity
  8
0
  6
Continuous
 62
     7
370
    15
100
AcDbLine
 10
126.1432683887
 20
85.0842488157
 30
0.0
 11
126.1432683887
 21
133.5251105391
 31
0.0
  0
LINE
  5
E1
330
1F
100
AcDbEntity
  8
0
  6
Continuous
 62
     7
370
    15
100
AcDbLine
 10
106.3432683887
 20
86.0762327836
 30
0.0
 11
106.3432683887
 21
87.3595314181
 31
0.0
  0
SPLINE
  5
E2
330
1F
100
AcDbEntity
  8
0
  6
Continuous
 62
     7
370
    15
100
AcDbSpline
210
0.0
220
0.0
230
1.0
 70
     8
 71
     3
 72
    14
 73
    10
 74
     0
 42
0.00000001
 43
0.00000001
 40
0.0
 40
0.0
 40
0.0
 40
0.0
 40
0.25
 40
0.25
 40
0.5
 40
0.5
 40
0.75
 40
0.75
 40
1.0
 40
1.0
 40
1.0
 40
1.0
 10
105.7216641519205
 20
88.44030846013607
 30
0.0
 10
105.7601005367414
 20
88.33768406242454
 30
0.0
 10
105.8289019301333
 20
88.23848763898496
 30
0.0
 10
105.9721879422923
 20
88.04759560965846
 30
0.0
 10
106.0473699973992
 20
87.95533834362556
 30
0.0
 10
106.1795572860493
 20
87.77573102181054
 30
0.0
 10
106.2370744815191
 20
87.6884214673662
 30
0.0
 10
106.3191192798115
 20
87.51848763385046
 30
0.0
 10
106.3432683886602
 20
87.4365852919793
 30
0.0
 10
106.3432683886602
 20
87.35953141814339
 30
0.0
  0
SPLINE
  5
E3
330
1F
100
AcDbEntity
  8
0
  6
Continuous
 62
     7
370
    15
100
AcDbSpline
210
0.0
220
0.0
230
1.0
 70
     8
 71
     3
 72
    18
 73
    14
 74
     0
 42
0.00000001
 43
0.00000001
 40
0.0
 40
0.0
 40
0.0
 40
0.0
 40
0.0625000000000032
 40
0.0625000000000032
 40
0.1250000000000065
 40
0.1250000000000065
 40
0.2500000000000064
 40
0.2500000000000064
 40
0.5000000000000043
 40
0.5000000000000043
 40
0.7500000000000022
 40
0.7500000000000022
 40
1.0
 40
1.0
 40
1.0
 40
1.0
 10
104.9432683886603
 20
89.15859091162264
 30
0.0
 10
104.9798405990107
 20
89.16236831515008
 30
0.0
 10
105.0184910724461
 20
89.16181128726696
 30
0.0
 10
105.09258256616
 20
89.1517520821051
 30
0.0
 10
105.1279328599141
 20
89.14239820068053
 30
0.0
 10
105.2225271573035
 20
89.10801377424673
 30
0.0
 10
105.2726653304425
 20
89.07730203958391
 30
0.0
 10
105.4018586020236
 20
88.98137272954587
 30
0.0
 10
105.4601387467648
 20
88.91285723542862
 30
0.0
 10
105.5603338431882
 20
88.776285285496
 30
0.0
 10
105.6003490946349
 20
88.7075203829931
 30
0.0
 10
105.6687485154526
 20
88.57248495388542
 30
0.0
 10
105.6971102393146
 20
88.50586692783227
 30
0.0
 10
105.7216641519205
 20
88.44030846013607
 30
0.0
  0
SPLINE
  5
E4
330
1F
100
AcDbEntity
  8
0
  6
Continuous
 62
     7
370
    15
100
AcDbSpline
210
0.0
220
0.0
230
1.0
 70
     8
 71
     3
 72
    10
 73
     6
 74
     0
 42
0.00000001
 43
0.00000001
 40
0.0
 40
0.0
 40
0.0
 40
0.0
 40
0.5
 40
0.5
 40
1.0
 40
1.0
 40
1.0
 40
1.0
 10
101.0296665275385
 20
88.662397255251
 30
0.0
 10
101.6572941832458
 20
88.7656708139866
 30
0.0
 10
102.3084949282772
 20
88.85449592573814
 30
0.0
 10
103.6171996322894
 20
89.01660363260847
 30
0.0
 10
104.2782440695806
 20
89.08990309689506
 30
0.0
 10
104.9432683886602
 20
89.15859091162274
 30
0.0
  0
SPLINE
  5
E5
330
1F
100
AcDbEntity
  8
0
  6
Continuous
 62
     7
370
    15
100
AcDbSpline
210
0.0
220
0.0
230
1.0
 70
     8
 71
     3
 72
    14
 73
    10
 74
     0
 42
0.00000001
 43
0.00000001
 40
0.0
 40
0.0
 40
0.0
 40
0.0
 40
0.4999999999999989
 40
0.4999999999999989
 40
0.7499999999999997
 40
0.7499999999999997
 40
0.8749999999999998
 40
0.8749999999999998
 40
1.0
 40
1.0
 40
1.0
 40
1.0
 10
97.3932683886603
 20
88.49804811889173
 30
0.0
 10
98.00934529241562
 20
88.50377423912087
 30
0.0
 10
98.6234772885315
 20
88.5136646045229
 30
0.0
 10
99.53737391904505
 20
88.54429957219267
 30
0.0
 10
99.84081284659267
 20
88.55709302983065
 30
0.0
 10
100.2919494622302
 20
88.58501885779005
 30
0.0
 10
100.4416557117727
 20
88.59578847794981
 30
0.0
 10
100.7384968480208
 20
88.62292119354933
 30
0.0
 10
100.8858824005241
 20
88.63873816637657
 30
0.0
 10
101.0296665275384
 20
88.66239725525105
 30
0.0
  0
SPLINE
  5
E6
330
1F
100
AcDbEntity
  8
0
  6
Continuous
 62
     7
370
    15
100
AcDbSpline
210
0.0
220
0.0
230
1.0
 70
     8
 71
     3
 72
     8
 73
     4
 74
     0
 42
0.00000001
 43
0.00000001
 40
0.0000005954826279
 40
0.0000005954826279
 40
0.0000005954826279
 40
0.0000005954826279
 40
0.0000302093805348
 40
0.0000302093805348
 40
0.0000302093805348
 40
0.0000302093805348
 10
97.38322345825077
 20
88.50986324854362
 30
0.0
 10
97.38653948557094
 20
88.50591646894782
 30
0.0
 10
97.3898880369632
 20
88.5019780778179
 30
0.0
 10
97.39326838866029
 20
88.49804811889173
 30
0.0
  0
SPLINE
  5
E7
330
1F
100
AcDbEntity
  8
0
  6
Continuous
 62
     7
370
    15
100
AcDbSpline
210
0.0
220
0.0
230
1.0
 70
     8
 71
     3
 72
     8
 73
     4
 74
     0
 42
0.00000001
 43
0.00000001
 40
0.0000005099763573
 40
0.0000005099763573
 40
0.0000005099763573
 40
0.0000005099763573
 40
0.0000262827998699
 40
0.0000262827998699
 40
0.0000262827998699
 40
0.0000262827998699
 10
97.39326838866022
 20
130.1746174428144
 30
0.0
 10
97.38989964943248
 20
130.1712957738585
 30
0.0
 10
97.38655119645334
 20
130.1679678165796
 30
0.0
 10
97.383223458242
 20
130.164633569707
 30
0.0
  0
SPLINE
  5
E8
330
1F
100
AcDbEntity
  8
0
  6
Continuous
 62
     7
370
    15
100
AcDbSpline
210
0.0
220
0.0
230
1.0
 70
     8
 71
     3
 72
    10
 73
     6
 74
     0
 42
0.00000001
 43
0.00000001
 40
0.0
 40
0.0
 40
0.0
 40
0.0
 40
0.5
 40
0.5
 40
1.0
 40
1.0
 40
1.0
 40
1.0
 10
100.9432683886603
 20
130.1277670692471
 30
0.0
 10
100.3556828415697
 20
130.1488325894835
 30
0.0
 10
99.76493644810931
 20
130.1595910753557
 30
0.0
 10
98.58091728281043
 20
130.1729558558913
 30
0.0
 10
97.98750329460498
 20
130.1750984985559
 30
0.0
 10
97.39326838866027
 20
130.1746174428144
 30
0.0
  0
SPLINE
  5
E9
330
1F
100
AcDbEntity
  8
0
  6
Continuous
 62
     7
370
    15
100
AcDbSpline
210
0.0
220
0.0
230
1.0
 70
     8
 71
     3
 72
    18
 73
    14
 74
     0
 42
0.00000001
 43
0.00000001
 40
0.0
 40
0.0
 40
0.0
 40
0.0
 40
0.2500000000000006
 40
0.2500000000000006
 40
0.5000000000000012
 40
0.5000000000000012
 40
0.7500000000000018
 40
0.7500000000000018
 40
0.8750000000000017
 40
0.8750000000000017
 40
0.9375000000000009
 40
0.9375000000000009
 40
1.0
 40
1.0
 40
1.0
 40
1.0
 10
102.3432683886602
 20
131.1487873497823
 30
0.0
 10
102.3432683886602
 20
131.0655804409251
 30
0.0
 10
102.3074192887219
 20
130.9768437856115
 30
0.0
 10
102.182547552688
 20
130.7947185950513
 30
0.0
 10
102.0921471350401
 20
130.6995885464246
 30
0.0
 10
101.8699044802979
 20
130.5104070373003
 30
0.0
 10
101.7401396938522
 20
130.4154618692056
 30
0.0
 10
101.4995022365406
 20
130.2771831616257
 30
0.0
 10
101.4117349384032
 20
130.2314727283233
 30
0.0
 10
101.2572108511964
 20
130.1736494231019
 30
0.0
 10
101.2005999651417
 20
130.155934659064
 30
0.0
 10
101.0765559342351
 20
130.1313953558311
 30
0.0
 10
101.0088412592169
 20
130.1254162172928
 30
0.0
 10
100.9432683886603
 20
130.1277670692471
 30
0.0
  0
LINE
  5
EA
330
1F
100
AcDbEntity
  8
0
  6
Continuous
 62
     7
370
    15
100
AcDbLine
 10
102.3432683887
 20
131.1487873498
 30
0.0
 11
102.3432683887
 21
132.3327257696
 31
0.0
  0
SPLINE
  5
EB
330
1F
100
AcDbEntity
  8
0
  6
Continuous
 62
     7
370
    15
100
AcDbSpline
210
0.0
220
0.0
230
1.0
 70
     8
 71
     3
 72
    18
 73
    14
 74
     0
 42
0.00000001
 43
0.00000001
 40
0.0
 40
0.0
 40
0.0
 40
0.0
 40
0.0010671296451822
 40
0.1270947795731583
 40
0.2524053457512665
 40
0.3766468878986943
 40
0.4391415999050647
 40
0.5008278021400228
 40
0.5624255708817563
 40
0.6253162439161302
 40
0.749998514470681
 40
0.8752758950341305
 40
1.0
 40
1.0
 40
1.0
 40
1.0
 10
114.913569228733
 20
85.64734065450293
 30
0.0
 10
114.9126573960945
 20
85.6472258759663
 30
0.0
 10
114.8040584374577
 20
85.63355579110062
 30
0.0
 10
115.1916995051073
 20
85.68447529171588
 30
0.0
 10
116.0576641869425
 20
85.78405846476251
 30
0.0
 10
117.2580681117121
 20
85.85318234790607
 30
0.0
 10
118.3156440262008
 20
85.85713457704506
 30
0.0
 10
119.1427781131109
 20
85.82964563858961
 30
0.0
 10
119.9680499807465
 20
85.77110546218248
 30
0.0
 10
121.022415200744
 20
85.65758430244566
 30
0.0
 10
122.184251482217
 20
85.47443347819808
 30
0.0
 10
123.1364862636003
 20
85.269830268563
 30
0.0
 10
123.2621913244082
 20
85.24054491778695
 30
0.0
 10
123.3249047565534
 20
85.22593464794626
 30
0.0
  0
SPLINE
  5
EC
330
1F
100
AcDbEntity
  8
0
  6
Continuous
 62
     7
370
    15
100
AcDbSpline
210
0.0
220
0.0
230
1.0
 70
     8
 71
     3
 72
    18
 73
    14
 74
     0
 42
0.00000001
 43
0.00000001
 40
0.0
 40
0.0
 40
0.0
 40
0.0
 40
0.1248907792210128
 40
0.2505384020341702
 40
0.3748721840485287
 40
0.4374907653352096
 40
0.4990776265894368
 40
0.5607931536355756
 40
0.6233901338664933
 40
0.7478191038417351
 40
0.8731940995934953
 40
0.9991614644710074
 40
1.0
 40
1.0
 40
1.0
 40
1.0
 10
123.3246859910295
 20
133.383359526338
 30
0.0
 10
123.2609452383178
 20
133.3686982337399
 30
0.0
 10
123.1330774611414
 20
133.3392868004684
 30
0.0
 10
122.181078240081
 20
133.1343336964059
 30
0.0
 10
121.0205345348767
 20
132.9510699205949
 30
0.0
 10
119.9682700827887
 20
132.8380423283459
 30
0.0
 10
119.1440429677199
 20
132.7797786808046
 30
0.0
 10
118.3164391982008
 20
132.7523322928007
 30
0.0
 10
117.2576220057155
 20
132.7563170987297
 30
0.0
 10
116.0554033076816
 20
132.8254065751111
 30
0.0
 10
115.1902193679941
 20
132.9250327916679
 30
0.0
 10
114.804078946464
 20
132.9758488652679
 30
0.0
 10
114.9121504872443
 20
132.9621766852052
 30
0.0
 10
114.9128651371646
 20
132.9620862745168
 30
0.0
  0
SPLINE
  5
ED
330
1F
100
AcDbEntity
  8
0
  6
Continuous
 62
     7
370
    15
100
AcDbSpline
210
0.0
220
0.0
230
1.0
 70
     8
 71
     3
 72
    10
 73
     6
 74
     0
 42
0.00000001
 43
0.00000001
 40
0.0
 40
0.0
 40
0.0
 40
0.0
 40
0.5
 40
0.5
 40
1.0
 40
1.0
 40
1.0
 40
1.0
 10
96.24326838865984
 20
89.65151915246645
 30
0.0
 10
96.24326838865984
 20
89.63800262659869
 30
0.0
 10
96.2485879492881
 20
89.6338318542414
 30
0.0
 10
96.2617161815697
 20
89.65196289762899
 30
0.0
 10
96.26940883622372
 20
89.67487132269092
 30
0.0
 10
96.27354600426894
 20
89.7145921171925
 30
0.0
  0
LINE
  5
EE
330
1F
100
AcDbEntity
  8
0
  6
Continuous
 62
     7
370
    15
100
AcDbLine
 10
96.2432683887
 20
89.6515191525
 30
0.0
 11
96.2432683887
 21
128.9953574239
 31
0.0
  0
SPLINE
  5
EF
330
1F
100
AcDbEntity
  8
0
  6
Continuous
 62
     7
370
    15
100
AcDbSpline
210
0.0
220
0.0
230
1.0
 70
     8
 71
     3
 72
    10
 73
     6
 74
     0
 42
0.00000001
 43
0.00000001
 40
0.0
 40
0.0
 40
0.0
 40
0.0
 40
0.5
 40
0.5
 40
1.0
 40
1.0
 40
1.0
 40
1.0
 10
96.30593176338375
 20
128.9792322222002
 30
0.0
 10
96.297027474275
 20
129.0249737414133
 30
0.0
 10
96.280512094082
 20
129.0421645808823
 30
0.0
 10
96.2534041480204
 20
129.0418413039465
 30
0.0
 10
96.24326838866033
 20
129.0239637616501
 30
0.0
 10
96.24326838866033
 20
128.9953574238975
 30
0.0
  0
SPLINE
  5
F0
330
1F
100
AcDbEntity
  8
0
  6
Continuous
 62
     7
370
    15
100
AcDbSpline
210
0.0
220
0.0
230
1.0
 70
     8
 71
     3
 72
    26
 73
    22
 74
     0
 42
0.00000001
 43
0.00000001
 40
0.0
 40
0.0
 40
0.0
 40
0.0
 40
0.2499999999999951
 40
0.2499999999999951
 40
0.374999999999993
 40
0.374999999999993
 40
0.4374999999999914
 40
0.4374999999999914
 40
0.4687499999999911
 40
0.4687499999999911
 40
0.4999999999999908
 40
0.4999999999999908
 40
0.5312499999999905
 40
0.5312499999999905
 40
0.5624999999999902
 40
0.5624999999999902
 40
0.6249999999999918
 40
0.6249999999999918
 40
0.7499999999999948
 40
0.7499999999999948
 40
1.0
 40
1.0
 40
1.0
 40
1.0
 10
97.0674220347647
 20
129.6947990110171
 30
0.0
 10
97.02882151189623
 20
129.5770243146617
 30
0.0
 10
96.98252450934197
 20
129.4526346284997
 30
0.0
 10
96.88858516090804
 20
129.2474152961462
 30
0.0
 10
96.85327369399458
 20
129.1758424296998
 30
0.0
 10
96.7870937182489
 20
129.0598891970994
 30
0.0
 10
96.76255535158069
 20
129.0193046622892
 30
0.0
 10
96.71918260602685
 20
128.9551629804174
 30
0.0
 10
96.70367420460164
 20
128.9332965551324
 30
0.0
 10
96.66863156001459
 20
128.8877022867891
 30
0.0
 10
96.64908126929494
 20
128.8640319958219
 30
0.0
 10
96.60715398892437
 20
128.819415436482
 30
0.0
 10
96.58450187869285
 20
128.7985354239642
 30
0.0
 10
96.54352816460623
 20
128.7676620102134
 30
0.0
 10
96.52592886471095
 20
128.757823140381
 30
0.0
 10
96.48130187885474
 20
128.7388335246847
 30
0.0
 10
96.46074265620139
 20
128.7385092000313
 30
0.0
 10
96.40961721670469
 20
128.7477326409074
 30
0.0
 10
96.38870580371614
 20
128.7689795371244
 30
0.0
 10
96.33725589615516
 20
128.8429484159551
 30
0.0
 10
96.31959059685059
 20
128.9090665092699
 30
0.0
 10
96.30593176338375
 20
128.9792322222002
 30
0.0
  0
SPLINE
  5
F1
330
1F
100
AcDbEntity
  8
0
  6
Continuous
 62
     7
370
    15
100
AcDbSpline
210
0.0
220
0.0
230
1.0
 70
     8
 71
     3
 72
    10
 73
     6
 74
     0
 42
0.00000001
 43
0.00000001
 40
0.0
 40
0.0
 40
0.0
 40
0.0
 40
0.5
 40
0.5
 40
1.0
 40
1.0
 40
1.0
 40
1.0
 10
97.38322345824203
 20
130.1646335697069
 30
0.0
 10
97.31566420332379
 20
130.0969421768972
 30
0.0
 10
97.25202754798728
 20
130.0222350121435
 30
0.0
 10
97.14180679341541
 20
129.8632688797169
 30
0.0
 10
97.0949905001928
 20
129.7789136137089
 30
0.0
 10
97.06742203476472
 20
129.6947990110171
 30
0.0
  0
SPLINE
  5
F2
330
1F
100
AcDbEntity
  8
0
  6
Continuous
 62
     7
370
    15
100
AcDbSpline
210
0.0
220
0.0
230
1.0
 70
     8
 71
     3
 72
     8
 73
     4
 74
     0
 42
0.00000001
 43
0.00000001
 40
0.0
 40
0.0
 40
0.0
 40
0.0
 40
1.0
 40
1.0
 40
1.0
 40
1.0
 10
97.1821779588595
 20
88.86075737445367
 30
0.0
 10
97.21789161722941
 20
88.73752586919389
 30
0.0
 10
97.29355965617769
 20
88.61658229224689
 30
0.0
 10
97.3832234582508
 20
88.50986324854364
 30
0.0
  0
SPLINE
  5
F3
330
1F
100
AcDbEntity
  8
0
  6
Continuous
 62
     7
370
    15
100
AcDbSpline
210
0.0
220
0.0
230
1.0
 70
     8
 71
     3
 72
    26
 73
    22
 74
     0
 42
0.00000001
 43
0.00000001
 40
0.0
 40
0.0
 40
0.0
 40
0.0
 40
0.2499999999999973
 40
0.2499999999999973
 40
0.3749999999999954
 40
0.3749999999999954
 40
0.4374999999999957
 40
0.4374999999999957
 40
0.4687499999999959
 40
0.4687499999999959
 40
0.499999999999996
 40
0.499999999999996
 40
0.5312499999999961
 40
0.5312499999999961
 40
0.5624999999999962
 40
0.5624999999999962
 40
0.6249999999999978
 40
0.6249999999999978
 40
0.7499999999999982
 40
0.7499999999999982
 40
1.0
 40
1.0
 40
1.0
 40
1.0
 10
96.27354600426897
 20
89.71459211719237
 30
0.0
 10
96.28427003766149
 20
89.81755315768132
 30
0.0
 10
96.29900302825602
 20
89.91655184716238
 30
0.0
 10
96.35135658750306
 20
90.03514752722747
 30
0.0
 10
96.37306187022266
 20
90.07085782717625
 30
0.0
 10
96.43191737758808
 20
90.09583725999795
 30
0.0
 10
96.45537961143519
 20
90.10022270776152
 30
0.0
 10
96.5115009880958
 20
90.08046987431737
 30
0.0
 10
96.53428829822633
 20
90.06881348350706
 30
0.0
 10
96.58954085075752
 20
90.02703313406984
 30
0.0
 10
96.62094708349818
 20
89.99676154669405
 30
0.0
 10
96.67588090411866
 20
89.93511914778004
 30
0.0
 10
96.70030472231812
 20
89.90367749547329
 30
0.0
 10
96.74371982830537
 20
89.8439426580595
 30
0.0
 10
96.76329439087364
 20
89.8147776481869
 30
0.0
 10
96.81692707482166
 20
89.7309423724538
 30
0.0
 10
96.84670442287386
 20
89.67890975447756
 30
0.0
 10
96.92823848284672
 20
89.52784408051015
 30
0.0
 10
96.97148127752074
 20
89.43465303863942
 30
0.0
 10
97.0845358671755
 20
89.17026649964501
 30
0.0
 10
97.13854686465467
 20
89.01130833059513
 30
0.0
 10
97.18217795885872
 20
88.86075737445425
 30
0.0
  0
LINE
  5
F4
330
1F
100
AcDbEntity
  8
0
  6
Continuous
 62
     7
370
    15
100
AcDbLine
 10
148.0532683887
 20
129.4405463089
 30
0.0
 11
148.0532683887
 21
130.354823345
 31
0.0
  0
SPLINE
  5
F5
330
1F
100
AcDbEntity
  8
0
  6
Continuous
 62
     7
370
    15
100
AcDbSpline
210
0.0
220
0.0
230
1.0
 70
     8
 71
     3
 72
     8
 73
     4
 74
     0
 42
0.00000001
 43
0.00000001
 40
0.0
 40
0.0
 40
0.0
 40
0.0
 40
1.0
 40
1.0
 40
1.0
 40
1.0
 10
148.0532683886603
 20
130.3548233450026
 30
0.0
 10
148.5325465392502
 20
131.4958345748552
 30
0.0
 10
149.0281143783901
 20
132.632218985623
 30
0.0
 10
149.5352012201494
 20
133.7633693397867
 30
0.0
  0
LINE
  5
F6
330
1F
100
AcDbEntity
  8
0
  6
Continuous
 62
     7
370
    15
100
AcDbLine
 10
149.5352012201
 20
133.7633693398
 30
0.0
 11
153.4932683887
 21
133.7633693398
 31
0.0
  0
SPLINE
  5
F7
330
1F
100
AcDbEntity
  8
0
  6
Continuous
 62
     7
370
    15
100
AcDbSpline
210
0.0
220
0.0
230
1.0
 70
     8
 71
     3
 72
    12
 73
     8
 74
     0
 42
0.00000001
 43
0.00000001
 40
0.0
 40
0.0
 40
0.0
 40
0.0
 40
0.2500000000000033
 40
0.2500000000000033
 40
0.5000000000000067
 40
0.5000000000000067
 40
1.0
 40
1.0
 40
1.0
 40
1.0
 10
153.4932683886603
 20
133.7633693397867
 30
0.0
 10
153.584468110486
 20
133.7633693397867
 30
0.0
 10
153.6750631196219
 20
133.7351496411988
 30
0.0
 10
153.8284758460686
 20
133.6407066339507
 30
0.0
 10
153.8936847133923
 20
133.5744196572454
 30
0.0
 10
154.0464692427322
 20
133.3487948339571
 30
0.0
 10
154.0932683886603
 20
133.1663685709246
 30
0.0
 10
154.0932683886603
 20
132.9856319386777
 30
0.0
  0
LINE
  5
F8
330
1F
100
AcDbEntity
  8
0
  6
Continuous
 62
     7
370
    15
100
AcDbLine
 10
154.0932683887
 20
132.9856319387
 30
0.0
 11
154.0932683887
 21
129.1546796774
 31
0.0
  0
SPLINE
  5
F9
330
1F
100
AcDbEntity
  8
0
  6
Continuous
 62
     7
370
    15
100
AcDbSpline
210
0.0
220
0.0
230
1.0
 70
     8
 71
     3
 72
     8
 73
     4
 74
     0
 42
0.00000001
 43
0.00000001
 40
0.0
 40
0.0
 40
0.0
 40
0.0
 40
1.0
 40
1.0
 40
1.0
 40
1.0
 10
149.5352012201494
 20
139.7718751505835
 30
0.0
 10
149.0400611907851
 20
138.8851955024033
 30
0.0
 10
148.5459784855061
 20
137.9979328667173
 30
0.0
 10
148.0532683886603
 20
137.1099138685909
 30
0.0
  0
LINE
  5
FA
330
1F
100
AcDbEntity
  8
0
  6
Continuous
 62
     7
370
    15
100
AcDbLine
 10
149.5352012201
 20
133.7633693398
 30
0.0
 11
149.5352012201
 21
139.7718751506
 31
0.0
  0
LINE
  5
FB
330
1F
100
AcDbEntity
  8
0
  6
Continuous
 62
     7
370
    15
100
AcDbLine
 10
148.0532683887
 20
130.354823345
 30
0.0
 11
148.0532683887
 21
137.1099138686
 31
0.0
  0
SPLINE
  5
FC
330
1F
100
AcDbEntity
  8
0
  6
Continuous
 62
     7
370
    15
100
AcDbSpline
210
0.0
220
0.0
230
1.0
 70
     8
 71
     3
 72
     8
 73
     4
 74
     0
 42
0.00000001
 43
0.00000001
 40
0.0
 40
0.0
 40
0.0
 40
0.0
 40
1.0
 40
1.0
 40
1.0
 40
1.0
 10
144.2332683886603
 20
137.1099138685909
 30
0.0
 10
143.7405582918145
 20
137.9979328667173
 30
0.0
 10
143.2464755865356
 20
138.8851955024033
 30
0.0
 10
142.7513355571712
 20
139.7718751505836
 30
0.0
  0
LINE
  5
FD
330
1F
100
AcDbEntity
  8
0
  6
Continuous
 62
     7
370
    15
100
AcDbLine
 10
144.2332683887
 20
130.354823345
 30
0.0
 11
144.2332683887
 21
137.1099138686
 31
0.0
  0
SPLINE
  5
FE
330
1F
100
AcDbEntity
  8
0
  6
Continuous
 62
     7
370
    15
100
AcDbSpline
210
0.0
220
0.0
230
1.0
 70
     8
 71
     3
 72
     8
 73
     4
 74
     0
 42
0.00000001
 43
0.00000001
 40
0.0
 40
0.0
 40
0.0
 40
0.0
 40
1.0
 40
1.0
 40
1.0
 40
1.0
 10
142.7513355571712
 20
133.7633693397867
 30
0.0
 10
143.2584223989305
 20
132.632218985623
 30
0.0
 10
143.7539902380704
 20
131.4958345748553
 30
0.0
 10
144.2332683886603
 20
130.3548233450026
 30
0.0
  0
LINE
  5
FF
330
1F
100
AcDbEntity
  8
0
  6
Continuous
 62
     7
370
    15
100
AcDbLine
 10
144.2332683887
 20
130.354823345
 30
0.0
 11
144.2332683887
 21
129.4405463089
 31
0.0
  0
SPLINE
  5
100
330
1F
100
AcDbEntity
  8
0
  6
Continuous
 62
     7
370
    15
100
AcDbSpline
210
0.0
220
0.0
230
1.0
 70
     8
 71
     3
 72
    10
 73
     6
 74
     0
 42
0.00000001
 43
0.00000001
 40
0.0
 40
0.0
 40
0.0
 40
0.0
 40
0.5
 40
0.5
 40
1.0
 40
1.0
 40
1.0
 40
1.0
 10
154.0932683886603
 20
139.1511200011832
 30
0.0
 10
154.0932683886603
 20
139.311525267534
 30
0.0
 10
154.0310305575534
 20
139.4705870805226
 30
0.0
 10
153.8118956338109
 20
139.7014995461529
 30
0.0
 10
153.654306938819
 20
139.7718751505835
 30
0.0
 10
153.4932683886603
 20
139.7718751505835
 30
0.0
  0
LINE
  5
101
330
1F
100
AcDbEntity
  8
0
  6
Continuous
 62
     7
370
    15
100
AcDbLine
 10
154.0932683887
 20
132.9856319387
 30
0.0
 11
154.0932683887
 21
139.1511200012
 31
0.0
  0
LINE
  5
102
330
1F
100
AcDbEntity
  8
0
  6
Continuous
 62
     7
370
    15
100
AcDbLine
 10
153.4932683887
 20
139.7718751506
 30
0.0
 11
149.5352012201
 21
139.7718751506
 31
0.0
  0
LINE
  5
103
330
1F
100
AcDbEntity
  8
0
  6
Continuous
 62
     7
370
    15
100
AcDbLine
 10
262.1432683887
 20
125.1319895834
 30
0.0
 11
259.7472303165
 21
125.1319895834
 31
0.0
  0
SPLINE
  5
104
330
1F
100
AcDbEntity
  8
0
  6
Continuous
 62
     7
370
    15
100
AcDbSpline
210
0.0
220
0.0
230
1.0
 70
     8
 71
     3
 72
    14
 73
    10
 74
     0
 42
0.00000001
 43
0.00000001
 40
0.0
 40
0.0
 40
0.0
 40
0.0
 40
0.2500000000000001
 40
0.2500000000000001
 40
0.5000000000000001
 40
0.5000000000000001
 40
0.75
 40
0.75
 40
1.0
 40
1.0
 40
1.0
 40
1.0
 10
259.7472303165341
 20
125.131989583411
 30
0.0
 10
259.077570402507
 20
125.131989583411
 30
0.0
 10
258.426468469592
 20
125.1170839417425
 30
0.0
 10
257.161457100509
 20
125.0440963538805
 30
0.0
 10
256.5815742949223
 20
124.9876735726274
 30
0.0
 10
255.5316531665837
 20
124.8010680450479
 30
0.0
 10
255.089122499711
 20
124.675120961083
 30
0.0
 10
254.3713807102334
 20
124.321180579611
 30
0.0
 10
254.1143649301035
 20
124.1015451364187
 30
0.0
 10
253.9516753587998
 20
123.8291118168381
 30
0.0
  0
ELLIPSE
  5
105
330
1F
100
AcDbEntity
  8
0
  6
Continuous
 62
     7
370
    15
100
AcDbEllipse
 10
255.4740898287
 20
109.3046796774
 30
0.0
 11
0.3220561513869882
 21
15.99976859320064
 31
0.0
210
0.0
220
0.0
230
1.0
 40
0.2671959542
 41
0.4382210567924177
 42
2.853754501398456
  0
SPLINE
  5
106
330
1F
100
AcDbEntity
  8
0
  6
Continuous
 62
     7
370
    15
100
AcDbSpline
210
0.0
220
0.0
230
1.0
 70
     8
 71
     3
 72
    20
 73
    16
 74
     0
 42
0.00000001
 43
0.00000001
 40
0.0
 40
0.0
 40
0.0
 40
0.0
 40
0.2499999999999999
 40
0.2499999999999999
 40
0.3749999999999999
 40
0.3749999999999999
 40
0.5
 40
0.5
 40
0.6250000000000001
 40
0.6250000000000001
 40
0.75
 40
0.75
 40
0.875
 40
0.875
 40
1.0
 40
1.0
 40
1.0
 40
1.0
 10
253.9516753587997
 20
93.98757289672207
 30
0.0
 10
254.104048850177
 20
93.81175067936896
 30
0.0
 10
254.3384640625505
 20
93.67972272280603
 30
0.0
 10
254.8246987023042
 20
93.53132455302227
 30
0.0
 10
255.0072873416531
 20
93.49100664186047
 30
0.0
 10
255.4065679706991
 20
93.42569075192566
 30
0.0
 10
255.6241526776873
 20
93.40042361663716
 30
0.0
 10
256.0963482478054
 20
93.36079573089674
 30
0.0
 10
256.350062384697
 20
93.34661459385336
 30
0.0
 10
256.8769827642346
 20
93.32613202502438
 30
0.0
 10
257.1521724825996
 20
93.31966035786297
 30
0.0
 10
257.7262839686992
 20
93.31090280150399
 30
0.0
 10
258.0256477824044
 20
93.30864344753054
 30
0.0
 10
258.6274560250951
 20
93.30597435303542
 30
0.0
 10
258.9324448148695
 20
93.30552449013865
 30
0.0
 10
259.2415271948594
 20
93.30529457785619
 30
0.0
  0
LINE
  5
107
330
1F
100
AcDbEntity
  8
0
  6
Continuous
 62
     7
370
    15
100
AcDbLine
 10
259.2377279387
 20
93.3083628252
 30
0.0
 11
259.2415271949
 21
93.3052945779
 31
0.0
  0
LINE
  5
108
330
1F
100
AcDbEntity
  8
0
  6
Continuous
 62
     7
370
    15
100
AcDbLine
 10
262.1432683887
 20
125.3046796774
 30
0.0
 11
262.1432683887
 21
125.1319895834
 31
0.0
  0
ELLIPSE
  5
109
330
1F
100
AcDbEntity
  8
0
  6
Continuous
 62
     7
370
    15
100
AcDbEllipse
 10
252.9382099005
 20
102.8334512741
 30
0.0
 11
-0.08858572008301734
 21
2.32755199684469
 31
0.0
210
0.0
220
0.0
230
1.0
 40
0.2575917467
 41
0.0
 42
6.283185307179586
  0
LINE
  5
10A
330
1F
100
AcDbEntity
  8
0
  6
Continuous
 62
     7
370
    15
100
AcDbLine
 10
97.3932683887
 20
88.4921796774
 30
0.0
 11
97.3932683887
 21
88.4980481189
 31
0.0
  0
SPLINE
  5
10B
330
1F
100
AcDbEntity
  8
0
  6
Continuous
 62
     7
370
    15
100
AcDbSpline
210
0.0
220
0.0
230
1.0
 70
     8
 71
     3
 72
     8
 73
     4
 74
     0
 42
0.00000001
 43
0.00000001
 40
0.0
 40
0.0
 40
0.0
 40
0.0
 40
1.0
 40
1.0
 40
1.0
 40
1.0
 10
259.7472303165363
 20
93.77055035226925
 30
0.0
 10
259.5694312464503
 20
93.62512628277554
 30
0.0
 10
259.4008914846403
 20
93.47000426950243
 30
0.0
 10
259.2415271948594
 20
93.30529457785619
 30
0.0
  0
LINE
  5
10C
330
1F
100
AcDbEntity
  8
0
  6
Continuous
 62
     7
370
    15
100
AcDbLine
 10
262.6432683887
 20
125.6322178659
 30
0.0
 11
262.6432683887
 21
125.8046796774
 31
0.0
  0
LINE
  5
10D
330
1F
100
AcDbEntity
  8
0
  6
Continuous
 62
     7
370
    15
100
AcDbLine
 10
262.1432683887
 20
125.1319895834
 30
0.0
 11
262.6432683887
 21
125.6322178659
 31
0.0
  0
ELLIPSE
  5
10E
330
1F
100
AcDbEntity
  8
0
  6
Continuous
 62
     7
370
    15
100
AcDbEllipse
 10
280.7400058679
 20
109.3046796774
 30
0.0
 11
-5.191939617998742
 21
16.49967281822068
 31
0.0
210
0.0
220
0.0
230
1.0
 40
0.0200133476
 41
4.706091478611493
 42
6.421597792021839
  0
LINE
  5
10F
330
1F
100
AcDbEntity
  8
0
  6
Continuous
 62
     7
370
    15
100
AcDbLine
 10
275.5521606334
 20
125.6322178659
 30
0.0
 11
262.6432683887
 21
125.6322178659
 31
0.0
  0
SPLINE
  5
110
330
1F
100
AcDbEntity
  8
0
  6
Continuous
 62
     7
370
    15
100
AcDbSpline
210
0.0
220
0.0
230
1.0
 70
     8
 71
     3
 72
    17
 73
    13
 74
     0
 42
0.00000001
 43
0.00000001
 40
0.0
 40
0.0
 40
0.0
 40
0.0
 40
0.2500000000000105
 40
0.2500000000000105
 40
0.3750000000000087
 40
0.3750000000000087
 40
0.500000000000007
 40
0.6250000000000052
 40
0.6250000000000052
 40
0.7500000000000034
 40
0.7500000000000034
 40
1.0
 40
1.0
 40
1.0
 40
1.0
 10
265.3566252306919
 20
94.84946368644303
 30
0.0
 10
264.8790599222276
 20
94.99967265482077
 30
0.0
 10
264.3929659333157
 20
95.08807289183696
 30
0.0
 10
263.6514509875715
 20
95.13099713379337
 30
0.0
 10
263.4004681708544
 20
95.13002398353183
 30
0.0
 10
262.9034630162294
 20
95.0970151606014
 30
0.0
 10
262.4126666882958
 20
95.03355055533262
 30
0.0
 10
261.9339629664796
 20
94.9107688200937
 30
0.0
 10
261.4614244904729
 20
94.75774507718234
 30
0.0
 10
261.2274206084224
 20
94.66551948916633
 30
0.0
 10
260.5532216170348
 20
94.35007694571112
 30
0.0
 10
260.134461771606
 20
94.08727177271605
 30
0.0
 10
259.7472303165371
 20
93.77055035226732
 30
0.0
  0
LINE
  5
111
330
1F
100
AcDbEntity
  8
0
  6
Continuous
 62
     7
370
    15
100
AcDbLine
 10
275.5521606334
 20
125.6322178659
 30
0.0
 11
284.1680254587
 21
98.3727506089
 31
0.0
  0
LINE
  5
112
330
1F
100
AcDbEntity
  8
0
  6
Continuous
 62
     7
370
    15
100
AcDbLine
 10
277.3508790199
 20
100.5169527017
 30
0.0
 11
276.6475423485
 21
102.7422177626
 31
0.0
  0
ARC
  5
113
330
1F
100
AcDbEntity
  8
0
  6
Continuous
 62
     7
370
    15
100
AcDbCircle
 10
275.2020167849
 20
102.2850002971
 30
0.0
 40
1.516110802579516
100
AcDbArc
 50
17.5520811906
 51
197.3678473289
  0
LINE
  5
114
330
1F
100
AcDbEntity
  8
0
  6
Continuous
 62
     7
370
    15
100
AcDbLine
 10
273.7550285198
 20
101.8324332566
 30
0.0
 11
273.9851853249
 21
101.1042472856
 31
0.0
  0
LINE
  5
115
330
1F
100
AcDbEntity
  8
0
  6
Continuous
 62
     7
370
    15
100
AcDbLine
 10
277.0826084342
 20
91.1612815489
 30
0.0
 11
265.3566252307
 21
94.8494636864
 31
0.0
  0
LINE
  5
116
330
1F
100
AcDbEntity
  8
0
  6
Continuous
 62
     7
370
    15
100
AcDbLine
 10
284.4362644399
 20
98.706811144
 30
0.0
 11
281.1029090408
 21
109.3046796774
 31
0.0
  0
LINE
  5
117
330
1F
100
AcDbEntity
  8
0
  6
Continuous
 62
     7
370
    15
100
AcDbLine
 10
284.5754326739
 20
98.2446085173
 30
0.0
 11
284.4362644398
 21
98.7068111439
 31
0.0
  0
ARC
  5
118
330
1F
100
AcDbEntity
  8
0
  6
Continuous
 62
     7
370
    15
100
AcDbCircle
 10
275.2018882849
 20
102.4367803904
 30
0.0
 40
1.249726584934391
100
AcDbArc
 50
17.5520811906
 51
197.3678473289
  0
LINE
  5
119
330
1F
100
AcDbEntity
  8
0
  6
Continuous
 62
     7
370
    15
100
AcDbLine
 10
276.3934316226
 20
102.8136636767
 30
0.0
 11
277.0937922627
 21
100.5978143889
 31
0.0
  0
LINE
  5
11A
330
1F
100
AcDbEntity
  8
0
  6
Continuous
 62
     7
370
    15
100
AcDbLine
 10
274.0091392457
 20
102.0637304385
 30
0.0
 11
274.2181632918
 21
101.4024057478
 31
0.0
  0
LINE
  5
11B
330
1F
100
AcDbEntity
  8
0
  6
Continuous
 62
     7
370
    15
100
AcDbLine
 10
273.9523861143
 20
102.491014417
 30
0.0
 11
274.0091392457
 21
102.1683651491
 31
0.0
  0
LINE
  5
11C
330
1F
100
AcDbEntity
  8
0
  6
Continuous
 62
     7
370
    15
100
AcDbLine
 10
274.0091392457
 20
102.1683651491
 30
0.0
 11
274.2484225701
 21
101.4113040671
 31
0.0
  0
LINE
  5
11D
330
1F
100
AcDbEntity
  8
0
  6
HIDDEN
 62
     7
370
     0
100
AcDbLine
 10
133.0932683887
 20
77.8046796774
 30
0.0
 11
133.0932683887
 21
77.8205566946
 31
0.0
  0
SPLINE
  5
11E
330
1F
100
AcDbEntity
  8
0
  6
HIDDEN
 62
     7
370
     0
100
AcDbSpline
210
0.0
220
0.0
230
1.0
 70
     8
 71
     3
 72
    30
 73
    26
 74
     0
 42
0.00000001
 43
0.00000001
 40
0.0
 40
0.0
 40
0.0
 40
0.0
 40
0.1249999999999999
 40
0.1249999999999999
 40
0.1874999999999998
 40
0.1874999999999998
 40
0.2499999999999997
 40
0.2499999999999997
 40
0.3749999999999994
 40
0.3749999999999994
 40
0.4374999999999994
 40
0.4374999999999994
 40
0.4999999999999993
 40
0.4999999999999993
 40
0.6249999999999997
 40
0.6249999999999997
 40
0.6874999999999997
 40
0.6874999999999997
 40
0.7499999999999998
 40
0.7499999999999998
 40
0.8124999999999998
 40
0.8124999999999998
 40
0.8749999999999999
 40
0.8749999999999999
 40
1.0
 40
1.0
 40
1.0
 40
1.0
 10
133.0932683886603
 20
77.82055669455693
 30
0.0
 10
133.0932683886603
 20
77.83743561256551
 30
0.0
 10
133.1456859546387
 20
77.86745317739026
 30
0.0
 10
133.299065434541
 20
77.93026356666336
 30
0.0
 10
133.3627465552088
 20
77.95416747389025
 30
0.0
 10
133.5157014226604
 20
78.00760276633264
 30
0.0
 10
133.6052737214297
 20
78.03720963450021
 30
0.0
 10
133.9064977542828
 20
78.13165933321463
 30
0.0
 10
134.151812750367
 20
78.20268672704385
 30
0.0
 10
134.5859097314373
 20
78.31670101374962
 30
0.0
 10
134.7425794205409
 20
78.35615626489019
 30
0.0
 10
135.0745725843833
 20
78.43567770766086
 30
0.0
 10
135.2492781133758
 20
78.47561385016164
 30
0.0
 10
135.7989477959673
 20
78.59455025298979
 30
0.0
 10
136.1991987586786
 20
78.67271501687365
 30
0.0
 10
136.852785625316
 20
78.78242445714254
 30
0.0
 10
137.0784617449931
 20
78.81750529385096
 30
0.0
 10
137.5381735661244
 20
78.88274557323057
 30
0.0
 10
137.7732269001675
 20
78.91308038927531
 30
0.0
 10
138.2537341824666
 20
78.96841876849714
 30
0.0
 10
138.4991877103807
 20
78.99342344505722
 30
0.0
 10
139.0008031351881
 20
79.03730325394793
 30
0.0
 10
139.2582955177886
 20
79.05624693871022
 30
0.0
 10
140.0363720342247
 20
79.10196666598041
 30
0.0
 10
140.5615343114696
 20
79.11776198117212
 30
0.0
 10
141.0932683886603
 20
79.11776198117212
 30
0.0
  0
LINE
  5
11F
330
1F
100
AcDbEntity
  8
0
  6
HIDDEN
 62
     7
370
     0
100
AcDbLine
 10
141.0932683887
 20
79.1177619812
 30
0.0
 11
142.7513355572
 21
79.1177619812
 31
0.0
  0
LINE
  5
120
330
1F
100
AcDbEntity
  8
0
  6
HIDDEN
 62
     7
370
     0
100
AcDbLine
 10
142.7513355572
 20
139.7718751506
 30
0.0
 11
142.7513355572
 21
79.1177619812
 31
0.0
  0
LINE
  5
121
330
1F
100
AcDbEntity
  8
0
  6
HIDDEN
 62
     7
370
     0
100
AcDbLine
 10
141.0932683887
 20
139.7718751506
 30
0.0
 11
142.7513355572
 21
139.7718751506
 31
0.0
  0
SPLINE
  5
122
330
1F
100
AcDbEntity
  8
0
  6
HIDDEN
 62
     7
370
     0
100
AcDbSpline
210
0.0
220
0.0
230
1.0
 70
     8
 71
     3
 72
    17
 73
    13
 74
     0
 42
0.00000001
 43
0.00000001
 40
0.0
 40
0.0
 40
0.0
 40
0.0
 40
0.0638118569779098
 40
0.1662334015758577
 40
0.2715772286555437
 40
0.3750121755717077
 40
0.4812892574314446
 40
0.5875617939750563
 40
0.6968792516928427
 40
0.803587488316089
 40
0.9135588806005702
 40
0.9999999999999999
 40
0.9999999999999999
 40
0.9999999999999999
 40
0.9999999999999999
 10
133.1212567477416
 20
140.797584769462
 30
0.0
 10
133.1180596141032
 20
140.7983888507999
 30
0.0
 10
133.1097309049078
 20
140.8004835269662
 30
0.0
 10
133.3413667360543
 20
140.7420076878419
 30
0.0
 10
133.7764674926543
 20
140.6366979707363
 30
0.0
 10
134.4224698554263
 20
140.4908855097135
 30
0.0
 10
135.2467410559731
 20
140.3234358621113
 30
0.0
 10
136.2492733394303
 20
140.1484627573282
 30
0.0
 10
137.3920212292637
 20
139.9878746091624
 30
0.0
 10
138.6573553246581
 20
139.8605251991977
 30
0.0
 10
139.9040951405602
 20
139.7844371646428
 30
0.0
 10
140.7298526307224
 20
139.7757141487008
 30
0.0
 10
141.0932683886603
 20
139.7718751505836
 30
0.0
  0
SPLINE
  5
123
330
1F
100
AcDbEntity
  8
0
  6
HIDDEN
 62
     7
370
     0
100
AcDbSpline
210
0.0
220
0.0
230
1.0
 70
     8
 71
     3
 72
    76
 73
    72
 74
     0
 42
0.00000001
 43
0.00000001
 40
-0.0312500000000003
 40
-0.0312500000000003
 40
0.0
 40
0.0
 40
0.0312499999999997
 40
0.0312499999999997
 40
0.0468749999999996
 40
0.0468749999999996
 40
0.0624999999999994
 40
0.0624999999999994
 40
0.0937499999999991
 40
0.0937499999999991
 40
0.1249999999999989
 40
0.1249999999999989
 40
0.1562499999999986
 40
0.1562499999999986
 40
0.1874999999999983
 40
0.1874999999999983
 40
0.218749999999998
 40
0.218749999999998
 40
0.2499999999999977
 40
0.2499999999999977
 40
0.2812499999999974
 40
0.2812499999999974
 40
0.3124999999999972
 40
0.3124999999999972
 40
0.3281249999999971
 40
0.3281249999999971
 40
0.343749999999997
 40
0.343749999999997
 40
0.3749999999999969
 40
0.3749999999999969
 40
0.4062499999999969
 40
0.4062499999999969
 40
0.4374999999999969
 40
0.4374999999999969
 40
0.4687499999999969
 40
0.4687499999999969
 40
0.499999999999997
 40
0.499999999999997
 40
0.531249999999997
 40
0.531249999999997
 40
0.5624999999999971
 40
0.5624999999999971
 40
0.5937499999999971
 40
0.5937499999999971
 40
0.6249999999999972
 40
0.6249999999999972
 40
0.6562499999999972
 40
0.6562499999999972
 40
0.6874999999999973
 40
0.6874999999999973
 40
0.7031249999999973
 40
0.7031249999999973
 40
0.7187499999999974
 40
0.7187499999999974
 40
0.7499999999999977
 40
0.7499999999999977
 40
0.781249999999998
 40
0.781249999999998
 40
0.8124999999999982
 40
0.8124999999999982
 40
0.8437499999999986
 40
0.8437499999999986
 40
0.8749999999999988
 40
0.8749999999999988
 40
0.9062499999999991
 40
0.9062499999999991
 40
0.9374999999999993
 40
0.9374999999999993
 40
0.9687499999999997
 40
0.9687499999999997
 40
1.0
 40
1.0
 40
1.03125
 40
1.03125
 10
130.1432683886603
 20
109.6355636732134
 30
0.0
 10
130.1432683886603
 20
108.9737956816252
 30
0.0
 10
130.1757888664447
 20
108.6485445135294
 30
0.0
 10
130.2712821107267
 20
108.1687477926402
 30
0.0
 10
130.3109569461378
 20
108.0101721088466
 30
0.0
 10
130.4063435594735
 20
107.6957897230536
 30
0.0
 10
130.4622878008842
 20
107.5396700994694
 30
0.0
 10
130.6506508243338
 20
107.0857295395675
 30
0.0
 10
130.8042631007522
 20
106.7987492935604
 30
0.0
 10
131.1670908945363
 20
106.2556361368212
 30
0.0
 10
131.3779259961188
 20
105.9988968452772
 30
0.0
 10
131.8384255661362
 20
105.5385122110462
 30
0.0
 10
132.089788507054
 20
105.3317353942924
 30
0.0
 10
132.6361352014075
 20
104.966211186629
 30
0.0
 10
132.9263498411254
 20
104.8112116279142
 30
0.0
 10
133.5277366574271
 20
104.5616806068199
 30
0.0
 10
133.8433663505175
 20
104.4654023331312
 30
0.0
 10
134.4890067517971
 20
104.3367533258883
 30
0.0
 10
134.8137625076104
 20
104.3048670667717
 30
0.0
 10
135.4670625380018
 20
104.304493919261
 30
0.0
 10
135.7989348788325
 20
104.337073405507
 30
0.0
 10
136.4405861124361
 20
104.4648473102134
 30
0.0
 10
136.7525110293693
 20
104.5593797545105
 30
0.0
 10
137.2070006298862
 20
104.7474993490492
 30
0.0
 10
137.3568639377201
 20
104.81838233027
 30
0.0
 10
137.6459491716428
 20
104.9729989366044
 30
0.0
 10
137.7858100859508
 20
105.0569215353423
 30
0.0
 10
138.191686529655
 20
105.328117058818
 30
0.0
 10
138.4447246761446
 20
105.5352170642592
 30
0.0
 10
138.910624232308
 20
106.0008195173165
 30
0.0
 10
139.1171303068038
 20
106.2527383697037
 30
0.0
 10
139.4792358702035
 20
106.7936419857046
 30
0.0
 10
139.6360949840187
 20
107.0861848284561
 30
0.0
 10
139.8870451008813
 20
107.6910524852136
 30
0.0
 10
139.9818562002123
 20
108.0026993166602
 30
0.0
 10
140.1102780630054
 20
108.6444526218819
 30
0.0
 10
140.1431413494966
 20
108.9761804407611
 30
0.0
 10
140.1433946756051
 20
109.629300206022
 30
0.0
 10
140.1118386750358
 20
109.9542334123651
 30
0.0
 10
139.9835974536115
 20
110.6007604188182
 30
0.0
 10
139.8877914049531
 20
110.9157683726791
 30
0.0
 10
139.638657893859
 20
111.5177270408248
 30
0.0
 10
139.4831977721642
 20
111.8092032111003
 30
0.0
 10
139.1187435178045
 20
112.354798147597
 30
0.0
 10
138.9123106103687
 20
112.6062752626021
 30
0.0
 10
138.4518415278508
 20
113.0675982866569
 30
0.0
 10
138.1950445197949
 20
113.2787215876032
 30
0.0
 10
137.6529993059604
 20
113.6414523693192
 30
0.0
 10
137.3662297260249
 20
113.7953412727048
 30
0.0
 10
136.9119225501392
 20
113.9842909993969
 30
0.0
 10
136.7557822493658
 20
114.0403637954166
 30
0.0
 10
136.4419362880197
 20
114.1358665609493
 30
0.0
 10
136.2835495003259
 20
114.1756472039768
 30
0.0
 10
135.8040732603825
 20
114.2715297411021
 30
0.0
 10
135.4778333159556
 20
114.3044051891016
 30
0.0
 10
134.8169587186777
 20
114.3049507582727
 30
0.0
 10
134.4918223713327
 20
114.2727842396593
 30
0.0
 10
133.8517398708463
 20
114.1460017016721
 30
0.0
 10
133.5334189467785
 20
114.0497339478808
 30
0.0
 10
132.9285026679393
 20
113.7993396264556
 30
0.0
 10
132.6413537542878
 20
113.646025464734
 30
0.0
 10
132.0974022006148
 20
113.2833175407142
 30
0.0
 10
131.8407562508883
 20
113.0728784679804
 30
0.0
 10
131.3801656974753
 20
112.6129974797041
 30
0.0
 10
131.1730168114845
 20
112.3617156800112
 30
0.0
 10
130.8064855680711
 20
111.8147955062713
 30
0.0
 10
130.6518013805666
 20
111.525655354655
 30
0.0
 10
130.4017017272284
 20
110.9244186807357
 30
0.0
 10
130.3050149527353
 20
110.6084429870949
 30
0.0
 10
130.1757933777791
 20
109.9624692289984
 30
0.0
 10
130.1432683886603
 20
109.6355636732134
 30
0.0
 10
130.1432683886603
 20
108.9737956816252
 30
0.0
  0
LINE
  5
124
330
1F
100
AcDbEntity
  8
0
  6
HIDDEN
 62
     7
370
     0
100
AcDbLine
 10
128.1432683887
 20
140.5046796732
 30
0.0
 11
128.1432683887
 21
78.1046796774
 31
0.0
  0
SPLINE
  5
125
330
1F
100
AcDbEntity
  8
0
  6
HIDDEN
 62
     7
370
     0
100
AcDbSpline
210
0.0
220
0.0
230
1.0
 70
     8
 71
     3
 72
    10
 73
     6
 74
     0
 42
0.00000001
 43
0.00000001
 40
0.0
 40
0.0
 40
0.0
 40
0.0
 40
0.5
 40
0.5
 40
1.0
 40
1.0
 40
1.0
 40
1.0
 10
144.3309431909926
 20
82.90467967741927
 30
0.0
 10
144.2987880033706
 20
82.84239363190316
 30
0.0
 10
144.2741317721764
 20
82.77586320703398
 30
0.0
 10
144.2413190152509
 20
82.63900457667154
 30
0.0
 10
144.2332683886603
 20
82.56994698149322
 30
0.0
 10
144.2332683886603
 20
82.50028404908991
 30
0.0
  0
SPLINE
  5
126
330
1F
100
AcDbEntity
  8
0
  6
HIDDEN
 62
     7
370
     0
100
AcDbSpline
210
0.0
220
0.0
230
1.0
 70
    24
 71
     3
 72
    10
 73
     6
 74
     0
 42
0.00000001
 43
0.00000001
 40
0.0
 40
0.0
 40
0.0
 40
0.0
 40
0.5
 40
0.5
 40
1.0
 40
1.0
 40
1.0
 40
1.0
 10
144.2332683886603
 20
129.1546796774193
 30
0.0
 10
144.2332683886603
 20
129.1546796774193
 30
0.0
 10
144.235490247145
 20
129.1546796774193
 30
0.0
 10
144.2442269188686
 20
129.1546796774193
 30
0.0
 10
144.2507384326629
 20
129.1546796774193
 30
0.0
 10
144.2594160118204
 20
129.1546796774193
 30
0.0
  0
LINE
  5
127
330
1F
100
AcDbEntity
  8
0
  6
HIDDEN
 62
     7
370
     0
100
AcDbLine
 10
144.2332683887
 20
129.4405463089
 30
0.0
 11
144.2332683887
 21
136.4243335285
 31
0.0
  0
LINE
  5
128
330
1F
100
AcDbEntity
  8
0
  6
HIDDEN
 62
     7
370
     0
100
AcDbLine
 10
144.2332683887
 20
82.5002840491
 30
0.0
 11
144.2332683887
 21
129.1546796774
 31
0.0
  0
SPLINE
  5
129
330
1F
100
AcDbEntity
  8
0
  6
HIDDEN
 62
     7
370
     0
100
AcDbSpline
210
0.0
220
0.0
230
1.0
 70
     8
 71
     3
 72
    10
 73
     6
 74
     0
 42
0.00000001
 43
0.00000001
 40
0.0
 40
0.0
 40
0.0
 40
0.0
 40
0.5
 40
0.5
 40
1.0
 40
1.0
 40
1.0
 40
1.0
 10
148.0532683886603
 20
82.5002840490899
 30
0.0
 10
148.0532683886603
 20
82.57052040946067
 30
0.0
 10
148.0449857765698
 20
82.64051451095817
 30
0.0
 10
148.0118858335112
 20
82.7774737755171
 30
0.0
 10
147.9875484415527
 20
82.84278168477236
 30
0.0
 10
147.9555935863281
 20
82.90467967741927
 30
0.0
  0
LINE
  5
12A
330
1F
100
AcDbEntity
  8
0
  6
HIDDEN
 62
     7
370
     0
100
AcDbLine
 10
148.0532683887
 20
129.4405463089
 30
0.0
 11
148.0532683887
 21
136.4243335285
 31
0.0
  0
SPLINE
  5
12B
330
1F
100
AcDbEntity
  8
0
  6
HIDDEN
 62
     7
370
     0
100
AcDbSpline
210
0.0
220
0.0
230
1.0
 70
    24
 71
     3
 72
    10
 73
     6
 74
     0
 42
0.00000001
 43
0.00000001
 40
0.0
 40
0.0
 40
0.0
 40
0.0
 40
0.5
 40
0.5
 40
1.0
 40
1.0
 40
1.0
 40
1.0
 10
148.0271207655002
 20
129.1546796774193
 30
0.0
 10
148.0357985404078
 20
129.1546796774193
 30
0.0
 10
148.0423515644147
 20
129.1546796774193
 30
0.0
 10
148.0510861739118
 20
129.1546796774193
 30
0.0
 10
148.0532683886603
 20
129.1546796774193
 30
0.0
 10
148.0532683886603
 20
129.1546796774193
 30
0.0
  0
LINE
  5
12C
330
1F
100
AcDbEntity
  8
0
  6
HIDDEN
 62
     7
370
     0
100
AcDbLine
 10
148.0532683887
 20
82.5002840491
 30
0.0
 11
148.0532683887
 21
129.1546796774
 31
0.0
  0
LINE
  5
12D
330
1F
100
AcDbEntity
  8
0
  6
HIDDEN
 62
     7
370
     0
100
AcDbLine
 10
128.1432683887
 20
83.9807557563
 30
0.0
 11
128.1432683887
 21
134.6286035985
 31
0.0
  0
LINE
  5
12E
330
1F
100
AcDbEntity
  8
0
  6
HIDDEN
 62
     7
370
     0
100
AcDbLine
 10
133.0932683887
 20
129.1546796774
 30
0.0
 11
140.3388887343
 21
129.1546796774
 31
0.0
  0
LWPOLYLINE
  5
12F
330
1F
100
AcDbEntity
  8
0
  6
HIDDEN
 62
     7
370
     0
100
AcDbPolyline
 90
        2
 70
   128
 43
0.0
 10
148.0532683887
 20
129.1546796774
 10
148.0532683887
 20
129.1546796774
  0
LWPOLYLINE
  5
130
330
1F
100
AcDbEntity
  8
0
  6
HIDDEN
 62
     7
370
     0
100
AcDbPolyline
 90
        2
 70
   128
 43
0.0
 10
154.0932683887
 20
129.1546796774
 10
154.0932683887
 20
129.1546796774
  0
LWPOLYLINE
  5
131
330
1F
100
AcDbEntity
  8
0
  6
HIDDEN
 62
     7
370
     0
100
AcDbPolyline
 90
        2
 70
   128
 43
0.0
 10
144.2332683887
 20
129.1546796774
 10
144.2332683887
 20
129.1546796774
  0
LINE
  5
132
330
1F
100
AcDbEntity
  8
0
  6
HIDDEN
 62
     7
370
     0
100
AcDbLine
 10
126.1432683887
 20
133.5251105391
 30
0.0
 11
126.1432683887
 21
85.0842488157
 31
0.0
  0
SPLINE
  5
133
330
1F
100
AcDbEntity
  8
0
  6
HIDDEN
 62
     7
370
     0
100
AcDbSpline
210
0.0
220
0.0
230
1.0
 70
     8
 71
     3
 72
    14
 73
    10
 74
     0
 42
0.00000001
 43
0.00000001
 40
0.0
 40
0.0
 40
0.0
 40
0.0
 40
0.4999999999999988
 40
0.4999999999999988
 40
0.7499999999999996
 40
0.7499999999999996
 40
0.8749999999999998
 40
0.8749999999999998
 40
1.0
 40
1.0
 40
1.0
 40
1.0
 10
97.39326838866032
 20
88.49804811889169
 30
0.0
 10
98.00934529241565
 20
88.50377423912083
 30
0.0
 10
98.62347728853152
 20
88.51366460452286
 30
0.0
 10
99.53737391904507
 20
88.5442995721926
 30
0.0
 10
99.84081284659268
 20
88.55709302983058
 30
0.0
 10
100.2919494622302
 20
88.58501885778995
 30
0.0
 10
100.4416557117727
 20
88.59578847794971
 30
0.0
 10
100.7384968480208
 20
88.62292119354922
 30
0.0
 10
100.8858824005241
 20
88.63873816637644
 30
0.0
 10
101.0296665275384
 20
88.66239725525088
 30
0.0
  0
SPLINE
  5
134
330
1F
100
AcDbEntity
  8
0
  6
HIDDEN
 62
     7
370
     0
100
AcDbSpline
210
0.0
220
0.0
230
1.0
 70
     8
 71
     3
 72
    10
 73
     6
 74
     0
 42
0.00000001
 43
0.00000001
 40
0.0
 40
0.0
 40
0.0
 40
0.0
 40
0.5
 40
0.5
 40
1.0
 40
1.0
 40
1.0
 40
1.0
 10
101.0296665275385
 20
88.6623972552509
 30
0.0
 10
101.6572941832458
 20
88.7656708139865
 30
0.0
 10
102.3084949282772
 20
88.85449592573805
 30
0.0
 10
103.6171996322893
 20
89.01660363260838
 30
0.0
 10
104.2782440695805
 20
89.08990309689496
 30
0.0
 10
104.9432683886601
 20
89.15859091162265
 30
0.0
  0
SPLINE
  5
135
330
1F
100
AcDbEntity
  8
0
  6
HIDDEN
 62
     7
370
     0
100
AcDbSpline
210
0.0
220
0.0
230
1.0
 70
     8
 71
     3
 72
    18
 73
    14
 74
     0
 42
0.00000001
 43
0.00000001
 40
0.0
 40
0.0
 40
0.0
 40
0.0
 40
0.0624999999999983
 40
0.0624999999999983
 40
0.1249999999999967
 40
0.1249999999999967
 40
0.2499999999999982
 40
0.2499999999999982
 40
0.4999999999999988
 40
0.4999999999999988
 40
0.7499999999999993
 40
0.7499999999999993
 40
1.0
 40
1.0
 40
1.0
 40
1.0
 10
104.9432683886602
 20
89.1585909116226
 30
0.0
 10
104.9798405990106
 20
89.16236831515003
 30
0.0
 10
105.018491072446
 20
89.16181128726691
 30
0.0
 10
105.0925825661599
 20
89.15175208210508
 30
0.0
 10
105.127932859914
 20
89.14239820068053
 30
0.0
 10
105.2225271573034
 20
89.10801377424674
 30
0.0
 10
105.2726653304424
 20
89.07730203958391
 30
0.0
 10
105.4018586020236
 20
88.98137272954588
 30
0.0
 10
105.4601387467647
 20
88.91285723542863
 30
0.0
 10
105.5603338431882
 20
88.77628528549603
 30
0.0
 10
105.6003490946349
 20
88.70752038299312
 30
0.0
 10
105.6687485154526
 20
88.57248495388545
 30
0.0
 10
105.6971102393146
 20
88.5058669278323
 30
0.0
 10
105.7216641519205
 20
88.4403084601361
 30
0.0
  0
SPLINE
  5
136
330
1F
100
AcDbEntity
  8
0
  6
HIDDEN
 62
     7
370
     0
100
AcDbSpline
210
0.0
220
0.0
230
1.0
 70
     8
 71
     3
 72
    14
 73
    10
 74
     0
 42
0.00000001
 43
0.00000001
 40
0.0
 40
0.0
 40
0.0
 40
0.0
 40
0.25
 40
0.25
 40
0.5
 40
0.5
 40
0.75
 40
0.75
 40
1.0
 40
1.0
 40
1.0
 40
1.0
 10
105.7216641519205
 20
88.4403084601361
 30
0.0
 10
105.7601005367415
 20
88.33768406242456
 30
0.0
 10
105.8289019301333
 20
88.23848763898498
 30
0.0
 10
105.9721879422923
 20
88.04759560965847
 30
0.0
 10
106.0473699973992
 20
87.95533834362557
 30
0.0
 10
106.1795572860494
 20
87.77573102181056
 30
0.0
 10
106.2370744815192
 20
87.6884214673662
 30
0.0
 10
106.3191192798115
 20
87.51848763385046
 30
0.0
 10
106.3432683886603
 20
87.4365852919793
 30
0.0
 10
106.3432683886603
 20
87.35953141814339
 30
0.0
  0
LINE
  5
137
330
1F
100
AcDbEntity
  8
0
  6
HIDDEN
 62
     7
370
     0
100
AcDbLine
 10
106.3432683887
 20
87.3595314181
 30
0.0
 11
106.3432683887
 21
86.0762327836
 31
0.0
  0
LINE
  5
138
330
1F
100
AcDbEntity
  8
0
  6
HIDDEN
 62
     7
370
     0
100
AcDbLine
 10
102.3432683887
 20
132.3327257696
 30
0.0
 11
102.3432683887
 21
131.1487873498
 31
0.0
  0
SPLINE
  5
139
330
1F
100
AcDbEntity
  8
0
  6
HIDDEN
 62
     7
370
     0
100
AcDbSpline
210
0.0
220
0.0
230
1.0
 70
     8
 71
     3
 72
    18
 73
    14
 74
     0
 42
0.00000001
 43
0.00000001
 40
0.0
 40
0.0
 40
0.0
 40
0.0
 40
0.2499999999999998
 40
0.2499999999999998
 40
0.4999999999999988
 40
0.4999999999999988
 40
0.7499999999999979
 40
0.7499999999999979
 40
0.874999999999998
 40
0.874999999999998
 40
0.937499999999999
 40
0.937499999999999
 40
1.0
 40
1.0
 40
1.0
 40
1.0
 10
102.3432683886603
 20
131.1487873497823
 30
0.0
 10
102.3432683886603
 20
131.0655804409251
 30
0.0
 10
102.307419288722
 20
130.9768437856115
 30
0.0
 10
102.1825475526881
 20
130.7947185950513
 30
0.0
 10
102.0921471350402
 20
130.6995885464246
 30
0.0
 10
101.869904480298
 20
130.5104070373003
 30
0.0
 10
101.7401396938523
 20
130.4154618692056
 30
0.0
 10
101.4995022365407
 20
130.2771831616257
 30
0.0
 10
101.4117349384033
 20
130.2314727283233
 30
0.0
 10
101.2572108511965
 20
130.1736494231018
 30
0.0
 10
101.2005999651417
 20
130.155934659064
 30
0.0
 10
101.0765559342351
 20
130.1313953558311
 30
0.0
 10
101.0088412592168
 20
130.1254162172928
 30
0.0
 10
100.9432683886602
 20
130.1277670692471
 30
0.0
  0
SPLINE
  5
13A
330
1F
100
AcDbEntity
  8
0
  6
HIDDEN
 62
     7
370
     0
100
AcDbSpline
210
0.0
220
0.0
230
1.0
 70
     8
 71
     3
 72
    10
 73
     6
 74
     0
 42
0.00000001
 43
0.00000001
 40
0.0
 40
0.0
 40
0.0
 40
0.0
 40
0.5
 40
0.5
 40
1.0
 40
1.0
 40
1.0
 40
1.0
 10
100.9432683886602
 20
130.1277670692471
 30
0.0
 10
100.3556828415696
 20
130.1488325894834
 30
0.0
 10
99.76493644810928
 20
130.1595910753557
 30
0.0
 10
98.58091728281043
 20
130.1729558558913
 30
0.0
 10
97.98750329460499
 20
130.1750984985559
 30
0.0
 10
97.3932683886603
 20
130.1746174428144
 30
0.0
  0
SPLINE
  5
13B
330
1F
100
AcDbEntity
  8
0
  6
HIDDEN
 62
     7
370
     0
100
AcDbSpline
210
0.0
220
0.0
230
1.0
 70
     8
 71
     3
 72
     8
 73
     4
 74
     0
 42
0.00000001
 43
0.00000001
 40
0.0000005099763571
 40
0.0000005099763571
 40
0.0000005099763571
 40
0.0000005099763571
 40
0.0000262827998697
 40
0.0000262827998697
 40
0.0000262827998697
 40
0.0000262827998697
 10
97.3932683886603
 20
130.1746174428144
 30
0.0
 10
97.38989964943256
 20
130.1712957738585
 30
0.0
 10
97.38655119645342
 20
130.1679678165796
 30
0.0
 10
97.38322345824209
 20
130.164633569707
 30
0.0
  0
SPLINE
  5
13C
330
1F
100
AcDbEntity
  8
0
  6
HIDDEN
 62
     7
370
     0
100
AcDbSpline
210
0.0
220
0.0
230
1.0
 70
     8
 71
     3
 72
     8
 73
     4
 74
     0
 42
0.00000001
 43
0.00000001
 40
0.0000005954826279
 40
0.0000005954826279
 40
0.0000005954826279
 40
0.0000005954826279
 40
0.0000302093805348
 40
0.0000302093805348
 40
0.0000302093805348
 40
0.0000302093805348
 10
97.3832234582507
 20
88.50986324854362
 30
0.0
 10
97.38653948557088
 20
88.50591646894782
 30
0.0
 10
97.38988803696314
 20
88.50197807781788
 30
0.0
 10
97.39326838866022
 20
88.49804811889173
 30
0.0
  0
SPLINE
  5
13D
330
1F
100
AcDbEntity
  8
0
  6
HIDDEN
 62
     7
370
     0
100
AcDbSpline
210
0.0
220
0.0
230
1.0
 70
     8
 71
     3
 72
    10
 73
     6
 74
     0
 42
0.00000001
 43
0.00000001
 40
0.0
 40
0.0
 40
0.0
 40
0.0
 40
0.294915952331243
 40
0.5007639170797373
 40
0.9999999999999999
 40
0.9999999999999999
 40
0.9999999999999999
 40
0.9999999999999999
 10
116.1384185932319
 20
85.78008005459752
 30
0.0
 10
115.9654863801448
 20
85.76233284183189
 30
0.0
 10
115.6718494584042
 20
85.73219827735171
 30
0.0
 10
114.9971003263338
 20
85.66411621859993
 30
0.0
 10
114.9481960168344
 20
85.65429475806381
 30
0.0
 10
114.913569228733
 20
85.64734065450293
 30
0.0
  0
SPLINE
  5
13E
330
1F
100
AcDbEntity
  8
0
  6
HIDDEN
 62
     7
370
     0
100
AcDbSpline
210
0.0
220
0.0
230
1.0
 70
     8
 71
     3
 72
    16
 73
    12
 74
     0
 42
0.00000001
 43
0.00000001
 40
0.0
 40
0.0
 40
0.0
 40
0.0
 40
0.0014619398999443
 40
0.1695060946944869
 40
0.3368148262131687
 40
0.5027784258718647
 40
0.5863380399920289
 40
0.6685202984823473
 40
0.7507638349534446
 40
0.8341946041745462
 40
0.9999999999999999
 40
0.9999999999999999
 40
0.9999999999999999
 40
0.9999999999999999
 10
123.3249047565534
 20
85.22593464794626
 30
0.0
 10
123.3258348612681
 20
85.2257263945333
 30
0.0
 10
123.4336767895469
 20
85.20158024273819
 30
0.0
 10
123.0456630567505
 20
85.29012709828427
 30
0.0
 10
122.1838724280715
 20
85.47373045604891
 30
0.0
 10
120.9935667615933
 20
85.66196037652938
 30
0.0
 10
119.9421664910112
 20
85.77336535652746
 30
0.0
 10
119.1161375351581
 20
85.83100097176384
 30
0.0
 10
118.2923495907546
 20
85.85748673001677
 30
0.0
 10
117.2221941190364
 20
85.8527471431038
 30
0.0
 10
116.5713772339627
 20
85.80910990728974
 30
0.0
 10
116.1384185932319
 20
85.7800800545975
 30
0.0
  0
SPLINE
  5
13F
330
1F
100
AcDbEntity
  8
0
  6
HIDDEN
 62
     7
370
     0
100
AcDbSpline
210
0.0
220
0.0
230
1.0
 70
     8
 71
     3
 72
    16
 73
    12
 74
     0
 42
0.00000001
 43
0.00000001
 40
0.0
 40
0.0
 40
0.0
 40
0.0
 40
0.1658979086808743
 40
0.2493608198222821
 40
0.3317589050038947
 40
0.4138911421869728
 40
0.497618166965096
 40
0.663495596646897
 40
0.8305394509979778
 40
0.9983760749348635
 40
1.0
 40
1.0
 40
1.0
 40
1.0
 10
116.13832587295
 20
132.8292627074011
 30
0.0
 10
116.5718942851459
 20
132.800309894114
 30
0.0
 10
117.2235901116568
 20
132.7567909774813
 30
0.0
 10
118.2945560155416
 20
132.7520513482785
 30
0.0
 10
119.118779054777
 20
132.7784531030426
 30
0.0
 10
119.9457972707531
 20
132.8361466660001
 30
0.0
 10
120.996914453589
 20
132.9478055630277
 30
0.0
 10
122.1856263057748
 20
133.1360044378008
 30
0.0
 10
123.0463643934486
 20
133.3192639389121
 30
0.0
 10
123.4343689865249
 20
133.4077874047996
 30
0.0
 10
123.3257270964049
 20
133.3835913945092
 30
0.0
 10
123.3246859910295
 20
133.383359526338
 30
0.0
  0
SPLINE
  5
140
330
1F
100
AcDbEntity
  8
0
  6
HIDDEN
 62
     7
370
     0
100
AcDbSpline
210
0.0
220
0.0
230
1.0
 70
     8
 71
     3
 72
    10
 73
     6
 74
     0
 42
0.00000001
 43
0.00000001
 40
0.0
 40
0.0
 40
0.0
 40
0.0
 40
0.4995493564858546
 40
0.5744878148480991
 40
0.9999999999999999
 40
0.9999999999999999
 40
0.9999999999999999
 40
0.9999999999999999
 10
114.9128651371646
 20
132.9620862745168
 30
0.0
 10
114.9331598532228
 20
132.9562940242035
 30
0.0
 10
114.956499022676
 20
132.949632866137
 30
0.0
 10
115.588677661174
 20
132.8854862930626
 30
0.0
 10
115.8857433670253
 20
132.8550994041359
 30
0.0
 10
116.13832587295
 20
132.8292627074011
 30
0.0
  0
SPLINE
  5
141
330
1F
100
AcDbEntity
  8
0
  6
HIDDEN
 62
     7
370
     0
100
AcDbSpline
210
0.0
220
0.0
230
1.0
 70
    11
 71
     3
 72
    22
 73
    18
 74
     0
 42
0.00000001
 43
0.00000001
 40
0.0
 40
0.0
 40
0.0
 40
0.0
 40
0.125
 40
0.125
 40
0.25
 40
0.25
 40
0.375
 40
0.375
 40
0.5
 40
0.5
 40
0.625
 40
0.625
 40
0.75
 40
0.75
 40
0.875
 40
0.875
 40
1.0
 40
1.0
 40
1.0
 40
1.0
 10
121.8982703902619
 20
129.1422081532357
 30
0.0
 10
122.057213219231
 20
129.1642818612828
 30
0.0
 10
122.1979047671213
 20
129.1809656792704
 30
0.0
 10
122.4438910045837
 20
129.2071873741527
 30
0.0
 10
122.5499290872651
 20
129.216766679998
 30
0.0
 10
122.7204211278321
 20
129.2308459470772
 30
0.0
 10
122.7844738272958
 20
129.2353525233242
 30
0.0
 10
122.8709778783888
 20
129.2412166931621
 30
0.0
 10
122.8932113737489
 20
129.2425586256804
 30
0.0
 10
122.8933251797609
 20
129.2425657654299
 30
0.0
 10
122.8718672512756
 20
129.2412731299437
 30
0.0
 10
122.7858814583966
 20
129.2354517004335
 30
0.0
 10
122.7205673116471
 20
129.2308522311577
 30
0.0
 10
122.5515614777117
 20
129.2169072103478
 30
0.0
 10
122.4476024398359
 20
129.2075548234895
 30
0.0
 10
122.200091993597
 20
129.1812263530231
 30
0.0
 10
122.0572079035132
 20
129.1642811230451
 30
0.0
 10
121.8982703902622
 20
129.1422081532359
 30
0.0
  0
SPLINE
  5
142
330
1F
100
AcDbEntity
  8
0
  6
HIDDEN
 62
     7
370
     0
100
AcDbSpline
210
0.0
220
0.0
230
1.0
 70
    11
 71
     3
 72
    22
 73
    18
 74
     0
 42
0.00000001
 43
0.00000001
 40
0.0
 40
0.0
 40
0.0
 40
0.0
 40
0.125
 40
0.125
 40
0.25
 40
0.25
 40
0.375
 40
0.375
 40
0.5
 40
0.5
 40
0.625
 40
0.625
 40
0.75
 40
0.75
 40
0.875
 40
0.875
 40
1.0
 40
1.0
 40
1.0
 40
1.0
 10
121.8982703902619
 20
89.46715120160285
 30
0.0
 10
122.057213219231
 20
89.4450774935558
 30
0.0
 10
122.1979047671213
 20
89.42839367556817
 30
0.0
 10
122.4438910045837
 20
89.40217198068588
 30
0.0
 10
122.5499290872651
 20
89.39259267484059
 30
0.0
 10
122.7204211278321
 20
89.37851340776143
 30
0.0
 10
122.7844738272958
 20
89.37400683151438
 30
0.0
 10
122.8709778783888
 20
89.36814266167647
 30
0.0
 10
122.8932113737489
 20
89.36680072915816
 30
0.0
 10
122.8933251797609
 20
89.36679358940866
 30
0.0
 10
122.8718672512756
 20
89.3680862248949
 30
0.0
 10
122.7858814583967
 20
89.37390765440509
 30
0.0
 10
122.7205673116471
 20
89.37850712368092
 30
0.0
 10
122.5515614777117
 20
89.39245214449078
 30
0.0
 10
122.4476024398359
 20
89.4018045313491
 30
0.0
 10
122.200091993597
 20
89.42813300181552
 30
0.0
 10
122.0572079035132
 20
89.44507823179353
 30
0.0
 10
121.8982703902622
 20
89.46715120160273
 30
0.0
  0
LINE
  5
143
330
1F
100
AcDbEntity
  8
0
  6
HIDDEN
 62
     7
370
     0
100
AcDbLine
 10
128.1432683887
 20
92.3046796774
 30
0.0
 11
128.1432683887
 21
126.2769544442
 31
0.0
  0
SPLINE
  5
144
330
1F
100
AcDbEntity
  8
0
  6
HIDDEN
 62
     7
370
     0
100
AcDbSpline
210
0.0
220
0.0
230
1.0
 70
    11
 71
     3
 72
    56
 73
    52
 74
     0
 42
0.00000001
 43
0.00000001
 40
0.0
 40
0.0
 40
0.0
 40
0.0
 40
0.0625
 40
0.0625
 40
0.0937499999999999
 40
0.0937499999999999
 40
0.1249999999999999
 40
0.1249999999999999
 40
0.1562499999999998
 40
0.1562499999999998
 40
0.1874999999999998
 40
0.1874999999999998
 40
0.2187499999999997
 40
0.2187499999999997
 40
0.2499999999999997
 40
0.2499999999999997
 40
0.3124999999999998
 40
0.3124999999999998
 40
0.3437499999999998
 40
0.3437499999999998
 40
0.3749999999999997
 40
0.3749999999999997
 40
0.4062499999999997
 40
0.4062499999999997
 40
0.4374999999999996
 40
0.4374999999999996
 40
0.4687499999999996
 40
0.4687499999999996
 40
0.4999999999999996
 40
0.4999999999999996
 40
0.5624999999999996
 40
0.5624999999999996
 40
0.6249999999999994
 40
0.6249999999999994
 40
0.6874999999999994
 40
0.6874999999999994
 40
0.7187499999999994
 40
0.7187499999999994
 40
0.7499999999999994
 40
0.7499999999999994
 40
0.7812499999999994
 40
0.7812499999999994
 40
0.8124999999999994
 40
0.8124999999999994
 40
0.8749999999999997
 40
0.8749999999999997
 40
0.9374999999999999
 40
0.9374999999999999
 40
0.96875
 40
0.96875
 40
1.0
 40
1.0
 40
1.0
 40
1.0
 10
121.8982703902619
 20
89.46715120160282
 30
0.0
 10
121.6424830797142
 20
89.50267450549637
 30
0.0
 10
121.3522932727709
 20
89.5382183744646
 30
0.0
 10
120.8656401744801
 20
89.58469007437348
 30
0.0
 10
120.6952943323189
 20
89.59893598760499
 30
0.0
 10
120.3483209222278
 20
89.62322390180339
 30
0.0
 10
120.1703830249931
 20
89.63340024812544
 30
0.0
 10
119.8054637474334
 20
89.64907557572931
 30
0.0
 10
119.617129155338
 20
89.6545625369422
 30
0.0
 10
119.2432423028825
 20
89.66002253121793
 30
0.0
 10
119.0565520887126
 20
89.6600807544771
 30
0.0
 10
118.6836735977934
 20
89.65489661250028
 30
0.0
 10
118.495969354871
 20
89.64958113402888
 30
0.0
 10
118.1290504553235
 20
89.63407875300558
 30
0.0
 10
117.950600713259
 20
89.62397934524488
 30
0.0
 10
117.4298118098983
 20
89.58784750359098
 30
0.0
 10
117.0989280902273
 20
89.5554182825729
 30
0.0
 10
116.6624265318957
 20
89.5038917912058
 30
0.0
 10
116.5256409928431
 20
89.48616718016181
 30
0.0
 10
116.2699163833893
 20
89.45077285365252
 30
0.0
 10
116.1522926552837
 20
89.43327633227194
 30
0.0
 10
115.9422232020951
 20
89.40057393628342
 30
0.0
 10
115.8488883634101
 20
89.38524212733736
 30
0.0
 10
115.6859426527309
 20
89.35764596798856
 30
0.0
 10
115.6162396898811
 20
89.34535928487495
 30
0.0
 10
115.505616623549
 20
89.32551429308849
 30
0.0
 10
115.4639349519385
 20
89.3178281805618
 30
0.0
 10
115.4077598115633
 20
89.30741080018456
 30
0.0
 10
115.3933215358027
 20
89.3046896425081
 30
0.0
 10
115.3931625407001
 20
89.3046598309275
 30
0.0
 10
115.4488218784369
 20
89.31532196107547
 30
0.0
 10
115.6716466389713
 20
89.35530263281045
 30
0.0
 10
115.8335589245649
 20
89.38363888444277
 30
0.0
 10
116.2573504833007
 20
89.44964979340283
 30
0.0
 10
116.512196905848
 20
89.48610966619404
 30
0.0
 10
116.9508405659617
 20
89.5379611891804
 30
0.0
 10
117.1075381022412
 20
89.55484882324036
 30
0.0
 10
117.4307380520198
 20
89.5855422438613
 30
0.0
 10
117.59841153344
 20
89.59950205080516
 30
0.0
 10
117.9459963996287
 20
89.62370147995632
 30
0.0
 10
118.1275598804477
 20
89.63399842878714
 30
0.0
 10
118.4937461552566
 20
89.64950437564906
 30
0.0
 10
118.6784035710989
 20
89.65477035754604
 30
0.0
 10
119.2369999776573
 20
89.66269318080155
 30
0.0
 10
119.6193343191278
 20
89.65697905742792
 30
0.0
 10
120.3466314634962
 20
89.62591997126566
 30
0.0
 10
120.7023255375962
 20
89.6002313352157
 30
0.0
 10
121.1856378145472
 20
89.5541593250076
 30
0.0
 10
121.3393354217637
 20
89.5375571665913
 30
0.0
 10
121.6317576466068
 20
89.502937311377
 30
0.0
 10
121.770372869812
 20
89.48491339033859
 30
0.0
 10
121.8982703902619
 20
89.4671512016028
 30
0.0
  0
SPLINE
  5
145
330
1F
100
AcDbEntity
  8
0
  6
HIDDEN
 62
     7
370
     0
100
AcDbSpline
210
0.0
220
0.0
230
1.0
 70
    11
 71
     3
 72
    56
 73
    52
 74
     0
 42
0.00000001
 43
0.00000001
 40
0.0
 40
0.0
 40
0.0
 40
0.0
 40
0.0624999999999994
 40
0.0624999999999994
 40
0.0937499999999992
 40
0.0937499999999992
 40
0.1249999999999989
 40
0.1249999999999989
 40
0.1562499999999987
 40
0.1562499999999987
 40
0.1874999999999984
 40
0.1874999999999984
 40
0.2187499999999982
 40
0.2187499999999982
 40
0.2499999999999979
 40
0.2499999999999979
 40
0.3124999999999977
 40
0.3124999999999977
 40
0.3437499999999977
 40
0.3437499999999977
 40
0.3749999999999977
 40
0.3749999999999977
 40
0.4062499999999976
 40
0.4062499999999976
 40
0.4374999999999976
 40
0.4374999999999976
 40
0.4687499999999976
 40
0.4687499999999976
 40
0.4999999999999976
 40
0.4999999999999976
 40
0.5624999999999976
 40
0.5624999999999976
 40
0.6249999999999977
 40
0.6249999999999977
 40
0.6874999999999977
 40
0.6874999999999977
 40
0.7187499999999979
 40
0.7187499999999979
 40
0.749999999999998
 40
0.749999999999998
 40
0.7812499999999981
 40
0.7812499999999981
 40
0.8124999999999982
 40
0.8124999999999982
 40
0.8749999999999988
 40
0.8749999999999988
 40
0.9374999999999992
 40
0.9374999999999992
 40
0.9687499999999997
 40
0.9687499999999997
 40
1.0
 40
1.0
 40
1.0
 40
1.0
 10
121.8982703902619
 20
129.1422081532358
 30
0.0
 10
121.6424830797142
 20
129.1066848493422
 30
0.0
 10
121.3522932727709
 20
129.0711409803739
 30
0.0
 10
120.8656401744801
 20
129.0246692804651
 30
0.0
 10
120.6952943323189
 20
129.0104233672336
 30
0.0
 10
120.3483209222278
 20
128.9861354530352
 30
0.0
 10
120.1703830249931
 20
128.9759591067131
 30
0.0
 10
119.8054637474333
 20
128.9602837791092
 30
0.0
 10
119.617129155338
 20
128.9547968178964
 30
0.0
 10
119.2432423028825
 20
128.9493368236206
 30
0.0
 10
119.0565520887126
 20
128.9492786003615
 30
0.0
 10
118.6836735977933
 20
128.9544627423383
 30
0.0
 10
118.495969354871
 20
128.9597782208097
 30
0.0
 10
118.1290504553235
 20
128.975280601833
 30
0.0
 10
117.9506007132589
 20
128.9853800095937
 30
0.0
 10
117.4298118098982
 20
129.0215118512476
 30
0.0
 10
117.0989280902273
 20
129.0539410722656
 30
0.0
 10
116.6624265318957
 20
129.1054675636327
 30
0.0
 10
116.5256409928431
 20
129.1231921746767
 30
0.0
 10
116.2699163833893
 20
129.158586501186
 30
0.0
 10
116.1522926552837
 20
129.1760830225666
 30
0.0
 10
115.9422232020951
 20
129.2087854185551
 30
0.0
 10
115.84888836341
 20
129.2241172275012
 30
0.0
 10
115.6859426527309
 20
129.25171338685
 30
0.0
 10
115.6162396898811
 20
129.2640000699636
 30
0.0
 10
115.5056166235489
 20
129.2838450617501
 30
0.0
 10
115.4639349519385
 20
129.2915311742767
 30
0.0
 10
115.4077598115633
 20
129.301948554654
 30
0.0
 10
115.3933215358027
 20
129.3046697123305
 30
0.0
 10
115.3931625407001
 20
129.304699523911
 30
0.0
 10
115.4488218784369
 20
129.2940373937631
 30
0.0
 10
115.6716466389713
 20
129.2540567220281
 30
0.0
 10
115.833558924565
 20
129.2257204703958
 30
0.0
 10
116.2573504833007
 20
129.1597095614357
 30
0.0
 10
116.512196905848
 20
129.1232496886445
 30
0.0
 10
116.9508405659617
 20
129.0713981656582
 30
0.0
 10
117.1075381022412
 20
129.0545105315982
 30
0.0
 10
117.4307380520198
 20
129.0238171109772
 30
0.0
 10
117.5984115334401
 20
129.0098573040334
 30
0.0
 10
117.9459963996288
 20
128.9856578748822
 30
0.0
 10
118.1275598804477
 20
128.9753609260514
 30
0.0
 10
118.4937461552566
 20
128.9598549791895
 30
0.0
 10
118.6784035710989
 20
128.9545889972925
 30
0.0
 10
119.2369999776573
 20
128.946666174037
 30
0.0
 10
119.6193343191279
 20
128.9523802974106
 30
0.0
 10
120.3466314634963
 20
128.9834393835729
 30
0.0
 10
120.7023255375962
 20
129.0091280196229
 30
0.0
 10
121.1856378145472
 20
129.055200029831
 30
0.0
 10
121.3393354217637
 20
129.0718021882472
 30
0.0
 10
121.6317576466069
 20
129.1064220434616
 30
0.0
 10
121.770372869812
 20
129.1244459645
 30
0.0
 10
121.8982703902619
 20
129.1422081532358
 30
0.0
  0
LINE
  5
146
330
1F
100
AcDbEntity
  8
0
  6
HIDDEN
 62
     7
370
     0
100
AcDbLine
 10
148.0271207655
 20
129.1546796774
 30
0.0
 11
154.0932683887
 21
129.1546796774
 31
0.0
  0
LINE
  5
147
330
1F
100
AcDbEntity
  8
0
  6
HIDDEN
 62
     7
370
     0
100
AcDbLine
 10
140.3388887343
 20
129.1546796774
 30
0.0
 11
144.2594160118
 21
129.1546796774
 31
0.0
  0
LINE
  5
148
330
1F
100
AcDbEntity
  8
0
  6
HIDDEN
 62
     7
370
     0
100
AcDbLine
 10
109.1472429849
 20
126.3046796774
 30
0.0
 11
109.1472429849
 21
92.3046796774
 31
0.0
  0
LWPOLYLINE
  5
149
330
1F
100
AcDbEntity
  8
0
  6
HIDDEN
 62
     7
370
     0
100
AcDbPolyline
 90
        2
 70
   128
 43
0.0
 10
109.1472429849
 20
92.3046796774
 10
109.1472429849
 20
92.3046796774
  0
LINE
  5
14A
330
1F
100
AcDbEntity
  8
0
  6
HIDDEN
 62
     7
370
     0
100
AcDbLine
 10
154.0932683887
 20
90.3046796774
 30
0.0
 11
154.0932683887
 21
128.2777508953
 31
0.0
  0
LINE
  5
14B
330
1F
100
AcDbEntity
  8
0
  6
HIDDEN
 62
     7
370
     0
100
AcDbLine
 10
96.2432683887
 20
93.2747442796
 30
0.0
 11
96.2432683887
 21
125.3346150753
 31
0.0
  0
SPLINE
  5
14C
330
1F
100
AcDbEntity
  8
0
  6
HIDDEN
 62
     7
370
     0
100
AcDbSpline
210
0.0
220
0.0
230
1.0
 70
     8
 71
     3
 72
    22
 73
    18
 74
     0
 42
0.00000001
 43
0.00000001
 40
0.0
 40
0.0
 40
0.0
 40
0.0
 40
0.1249999999999998
 40
0.1249999999999998
 40
0.2499999999999996
 40
0.2499999999999996
 40
0.3749999999999994
 40
0.3749999999999994
 40
0.4999999999999992
 40
0.4999999999999992
 40
0.624999999999999
 40
0.624999999999999
 40
0.7499999999999989
 40
0.7499999999999989
 40
0.8749999999999987
 40
0.8749999999999987
 40
1.0
 40
1.0
 40
1.0
 40
1.0
 10
135.8030943571963
 20
114.2609514305867
 30
0.0
 10
135.9164196891677
 20
114.2458644860745
 30
0.0
 10
136.036369685696
 20
114.225949458597
 30
0.0
 10
136.2880825140681
 20
114.1735529355938
 30
0.0
 10
136.4198992998279
 20
114.1408571972723
 30
0.0
 10
136.6802293095051
 20
114.0645274286269
 30
0.0
 10
136.8123873829613
 20
114.0198120118653
 30
0.0
 10
137.0657925810768
 20
113.922290734887
 30
0.0
 10
137.1875551523056
 20
113.8694968425427
 30
0.0
 10
137.4203828138479
 20
113.7579272584126
 30
0.0
 10
137.5266998196246
 20
113.7014541534977
 30
0.0
 10
137.7198592779983
 20
113.5911176588421
 30
0.0
 10
137.8062437417618
 20
113.5373548867672
 30
0.0
 10
137.9461394105229
 20
113.4460431236599
 30
0.0
 10
138.0020709246054
 20
113.4070270116466
 30
0.0
 10
138.0750938866767
 20
113.3551617276633
 30
0.0
 10
138.0932683886602
 20
113.3416959023065
 30
0.0
 10
138.0932683886606
 20
113.3416959023062
 30
0.0
  0
LINE
  5
14D
330
1F
100
AcDbEntity
  8
0
  6
HIDDEN
 62
     7
370
     0
100
AcDbLine
 10
135.8030943572
 20
126.3046796774
 30
0.0
 11
135.8030943572
 21
92.3046796774
 31
0.0
  0
SPLINE
  5
14E
330
1F
100
AcDbEntity
  8
0
  6
HIDDEN
 62
     7
370
     0
100
AcDbSpline
210
0.0
220
0.0
230
1.0
 70
     8
 71
     3
 72
    20
 73
    16
 74
     0
 42
0.00000001
 43
0.00000001
 40
0.0
 40
0.0
 40
0.0
 40
0.0
 40
0.1249999999999997
 40
0.1249999999999997
 40
0.2499999999999994
 40
0.2499999999999994
 40
0.4999999999999985
 40
0.4999999999999985
 40
0.6249999999999989
 40
0.6249999999999989
 40
0.7499999999999992
 40
0.7499999999999992
 40
0.8749999999999997
 40
0.8749999999999997
 40
1.0
 40
1.0
 40
1.0
 40
1.0
 10
138.0932683886602
 20
105.2676634525324
 30
0.0
 10
138.0932683886602
 20
105.2676634525324
 30
0.0
 10
138.0752901587565
 20
105.2543422074161
 30
0.0
 10
138.0026427205661
 20
105.2027333453388
 30
0.0
 10
137.9472301362649
 20
105.1640468527384
 30
0.0
 10
137.7364442710626
 20
105.0264083528866
 30
0.0
 10
137.5335814819709
 20
104.9056579565927
 30
0.0
 10
137.1887259044069
 20
104.740432669712
 30
0.0
 10
137.0646410740862
 20
104.6865981536457
 30
0.0
 10
136.8117762632786
 20
104.58933966541
 30
0.0
 10
136.6816653099772
 20
104.5452607388248
 30
0.0
 10
136.4189856377867
 20
104.4682265120459
 30
0.0
 10
136.2902398015518
 20
104.4363134636271
 30
0.0
 10
136.0384979478179
 20
104.3837959102496
 30
0.0
 10
135.9162376716104
 20
104.3634706368578
 30
0.0
 10
135.8030943571957
 20
104.3484079242514
 30
0.0
  0
LINE
  5
14F
330
1F
100
AcDbEntity
  8
0
  6
HIDDEN
 62
     7
370
     0
100
AcDbLine
 10
138.0932683887
 20
125.0296796774
 30
0.0
 11
138.0932683887
 21
93.5796796774
 31
0.0
  0
LINE
  5
150
330
1F
100
AcDbEntity
  8
0
  6
HIDDEN
 62
     7
370
     0
100
AcDbLine
 10
97.3932683887
 20
93.5031892414
 30
0.0
 11
104.9432683887
 21
93.5031892414
 31
0.0
  0
LINE
  5
151
330
1F
100
AcDbEntity
  8
0
  6
HIDDEN
 62
     7
370
     0
100
AcDbLine
 10
97.3932683887
 20
125.1061701135
 30
0.0
 11
97.3932683887
 21
93.5031892414
 31
0.0
  0
LINE
  5
152
330
1F
100
AcDbEntity
  8
0
  6
HIDDEN
 62
     7
370
     0
100
AcDbLine
 10
100.9432683887
 20
125.1061701135
 30
0.0
 11
97.3932683887
 21
125.1061701135
 31
0.0
  0
SPLINE
  5
153
330
1F
100
AcDbEntity
  8
0
  6
HIDDEN
 62
     7
370
     0
100
AcDbSpline
210
0.0
220
0.0
230
1.0
 70
     8
 71
     3
 72
    18
 73
    14
 74
     0
 42
0.00000001
 43
0.00000001
 40
0.0
 40
0.0
 40
0.0
 40
0.0
 40
0.2499999999999991
 40
0.2499999999999991
 40
0.3749999999999987
 40
0.3749999999999987
 40
0.4999999999999982
 40
0.4999999999999982
 40
0.6249999999999978
 40
0.6249999999999978
 40
0.7499999999999973
 40
0.7499999999999973
 40
1.0
 40
1.0
 40
1.0
 40
1.0
 10
102.3432683886602
 20
125.5921932998234
 30
0.0
 10
102.3432683886602
 20
125.5377187792712
 30
0.0
 10
102.3083576972681
 20
125.4813377199187
 30
0.0
 10
102.2063483959351
 20
125.3972608790652
 30
0.0
 10
102.1647120412569
 20
125.3699271750743
 30
0.0
 10
102.0663062457682
 20
125.3169732594753
 30
0.0
 10
102.0087630340639
 20
125.2910859057582
 30
0.0
 10
101.881464860491
 20
125.2433083609249
 30
0.0
 10
101.8118775557335
 20
125.221360442747
 30
0.0
 10
101.6604433105785
 20
125.1819278778343
 30
0.0
 10
101.5777594074846
 20
125.1643716286084
 30
0.0
 10
101.3216479454465
 20
125.1219328631879
 30
0.0
 10
101.1337329415585
 20
125.106170113451
 30
0.0
 10
100.9432683886602
 20
125.106170113451
 30
0.0
  0
LINE
  5
154
330
1F
100
AcDbEntity
  8
0
  6
HIDDEN
 62
     7
370
     0
100
AcDbLine
 10
102.3432683887
 20
125.5921932998
 30
0.0
 11
102.3432683887
 21
126.3046796774
 31
0.0
  0
SPLINE
  5
155
330
1F
100
AcDbEntity
  8
0
  6
HIDDEN
 62
     7
370
     0
100
AcDbSpline
210
0.0
220
0.0
230
1.0
 70
     8
 71
     3
 72
    18
 73
    14
 74
     0
 42
0.00000001
 43
0.00000001
 40
0.0
 40
0.0
 40
0.0
 40
0.0
 40
0.2499999999999997
 40
0.2499999999999997
 40
0.3749999999999998
 40
0.3749999999999998
 40
0.5
 40
0.5
 40
0.6250000000000001
 40
0.6250000000000001
 40
0.7500000000000003
 40
0.7500000000000003
 40
1.0
 40
1.0
 40
1.0
 40
1.0
 10
102.3432683886602
 20
125.5921932998235
 30
0.0
 10
102.3432683886602
 20
125.5377187792712
 30
0.0
 10
102.3083576972681
 20
125.4813377199187
 30
0.0
 10
102.2063483959351
 20
125.3972608790652
 30
0.0
 10
102.164712041257
 20
125.3699271750743
 30
0.0
 10
102.0663062457682
 20
125.3169732594753
 30
0.0
 10
102.0087630340639
 20
125.2910859057582
 30
0.0
 10
101.881464860491
 20
125.2433083609249
 30
0.0
 10
101.8118775557335
 20
125.221360442747
 30
0.0
 10
101.6604433105786
 20
125.1819278778343
 30
0.0
 10
101.5777594074846
 20
125.1643716286084
 30
0.0
 10
101.3216479454465
 20
125.1219328631879
 30
0.0
 10
101.1337329415586
 20
125.106170113451
 30
0.0
 10
100.9432683886603
 20
125.106170113451
 30
0.0
  0
LINE
  5
156
330
1F
100
AcDbEntity
  8
0
  6
HIDDEN
 62
     7
370
     0
100
AcDbLine
 10
100.9432683887
 20
125.1061701135
 30
0.0
 11
97.3932683887
 21
125.1061701135
 31
0.0
  0
LINE
  5
157
330
1F
100
AcDbEntity
  8
0
  6
HIDDEN
 62
     7
370
     0
100
AcDbLine
 10
97.3932683887
 20
93.5031892414
 30
0.0
 11
104.9432683887
 21
93.5031892414
 31
0.0
  0
SPLINE
  5
158
330
1F
100
AcDbEntity
  8
0
  6
HIDDEN
 62
     7
370
     0
100
AcDbSpline
210
0.0
220
0.0
230
1.0
 70
     8
 71
     3
 72
    16
 73
    12
 74
     0
 42
0.00000001
 43
0.00000001
 40
0.0
 40
0.0
 40
0.0
 40
0.0
 40
0.1249999999999982
 40
0.1249999999999982
 40
0.2499999999999963
 40
0.2499999999999963
 40
0.4999999999999976
 40
0.4999999999999976
 40
0.7499999999999988
 40
0.7499999999999988
 40
1.0
 40
1.0
 40
1.0
 40
1.0
 10
104.9432683886603
 20
93.50318924138762
 30
0.0
 10
105.0383901433261
 20
93.50318924138762
 30
0.0
 10
105.1317202120542
 20
93.49937340799482
 30
0.0
 10
105.3149819727922
 20
93.48460285526501
 30
0.0
 10
105.4058596883492
 20
93.47344480728944
 30
0.0
 10
105.6626613858689
 20
93.43097353714772
 30
0.0
 10
105.8177287507409
 20
93.38992733994492
 30
0.0
 10
106.0714752122955
 20
93.29478122336302
 30
0.0
 10
106.1723456639634
 20
93.24001848928145
 30
0.0
 10
106.3075920786582
 20
93.12875736537757
 30
0.0
 10
106.3432683886603
 20
93.07158762804892
 30
0.0
 10
106.3432683886603
 20
93.01716605501517
 30
0.0
  0
LINE
  5
159
330
1F
100
AcDbEntity
  8
0
  6
HIDDEN
 62
     7
370
     0
100
AcDbLine
 10
106.3432683887
 20
93.017166055
 30
0.0
 11
106.3432683887
 21
92.3046796774
 31
0.0
  0
SPLINE
  5
15A
330
1F
100
AcDbEntity
  8
0
  6
HIDDEN
 62
     7
370
     0
100
AcDbSpline
210
0.0
220
0.0
230
1.0
 70
     8
 71
     3
 72
    16
 73
    12
 74
     0
 42
0.00000001
 43
0.00000001
 40
0.0
 40
0.0
 40
0.0
 40
0.0
 40
0.1249999999999987
 40
0.1249999999999987
 40
0.2499999999999973
 40
0.2499999999999973
 40
0.4999999999999982
 40
0.4999999999999982
 40
0.7499999999999991
 40
0.7499999999999991
 40
1.0
 40
1.0
 40
1.0
 40
1.0
 10
104.9432683886603
 20
93.50318924138759
 30
0.0
 10
105.0383901433261
 20
93.50318924138759
 30
0.0
 10
105.1317202120542
 20
93.49937340799481
 30
0.0
 10
105.3149819727922
 20
93.48460285526501
 30
0.0
 10
105.4058596883492
 20
93.47344480728944
 30
0.0
 10
105.662661385869
 20
93.43097353714772
 30
0.0
 10
105.8177287507409
 20
93.38992733994492
 30
0.0
 10
106.0714752122956
 20
93.29478122336302
 30
0.0
 10
106.1723456639634
 20
93.24001848928145
 30
0.0
 10
106.3075920786583
 20
93.12875736537757
 30
0.0
 10
106.3432683886603
 20
93.07158762804887
 30
0.0
 10
106.3432683886603
 20
93.01716605501512
 30
0.0
  0
LINE
  5
15B
330
1F
100
AcDbEntity
  8
0
  6
HIDDEN
 62
     7
370
     0
100
AcDbLine
 10
97.3932683887
 20
93.5031892414
 30
0.0
 11
97.3932683887
 21
125.1061701135
 31
0.0
  0
SPLINE
  5
15C
330
1F
100
AcDbEntity
  8
0
  6
HIDDEN
 62
     7
370
     0
100
AcDbSpline
210
0.0
220
0.0
230
1.0
 70
     8
 71
     3
 72
    45
 73
    41
 74
     0
 42
0.00000001
 43
0.00000001
 40
0.0
 40
0.0
 40
0.0
 40
0.0
 40
0.0625
 40
0.0625
 40
0.1250000000000001
 40
0.1250000000000001
 40
0.1875000000000001
 40
0.1875000000000001
 40
0.2500000000000001
 40
0.2500000000000001
 40
0.3125000000000002
 40
0.3125000000000002
 40
0.3750000000000003
 40
0.3750000000000003
 40
0.4062500000000003
 40
0.4062500000000003
 40
0.4375000000000003
 40
0.4687500000000003
 40
0.4687500000000003
 40
0.5000000000000003
 40
0.5000000000000003
 40
0.5625000000000003
 40
0.5625000000000003
 40
0.5937500000000003
 40
0.5937500000000003
 40
0.6250000000000004
 40
0.6250000000000004
 40
0.6562500000000004
 40
0.6562500000000004
 40
0.6875000000000004
 40
0.6875000000000004
 40
0.7500000000000003
 40
0.7500000000000003
 40
0.8125000000000002
 40
0.8125000000000002
 40
0.8750000000000001
 40
0.8750000000000001
 40
0.9375000000000001
 40
0.9375000000000001
 40
1.0
 40
1.0
 40
1.0
 40
1.0
 10
135.8030943571963
 20
104.3484079242518
 30
0.0
 10
135.4464253933428
 20
104.3009247642796
 30
0.0
 10
135.0910482816921
 20
104.2923433083336
 30
0.0
 10
134.3827856175835
 20
104.3500950559474
 30
0.0
 10
134.0264781129424
 20
104.4181226796047
 30
0.0
 10
133.3482291035079
 20
104.6245628222982
 30
0.0
 10
133.0229484545695
 20
104.7625100870148
 30
0.0
 10
132.400032939154
 20
105.1092392381484
 30
0.0
 10
132.1116168572069
 20
105.3131074356897
 30
0.0
 10
131.582964342027
 20
105.7765363888557
 30
0.0
 10
131.3397591029172
 20
106.0400965988347
 30
0.0
 10
130.9194589200171
 20
106.6058615775254
 30
0.0
 10
130.7404032977477
 20
106.9086148841036
 30
0.0
 10
130.5193905342163
 20
107.393831577015
 30
0.0
 10
130.4537061334694
 20
107.5612455301756
 30
0.0
 10
130.3418033505152
 20
107.8984470300394
 30
0.0
 10
130.2483600751721
 20
108.2399659528497
 30
0.0
 10
130.1913886215184
 20
108.5900662927614
 30
0.0
 10
130.1530672689594
 20
108.9445709400953
 30
0.0
 10
130.1432939798447
 20
109.1251421298407
 30
0.0
 10
130.1432173592806
 20
109.661612420112
 30
0.0
 10
130.1811029524154
 20
110.0143440213691
 30
0.0
 10
130.2940398631235
 20
110.5362071970284
 30
0.0
 10
130.3415070018994
 20
110.7099863729624
 30
0.0
 10
130.4538193322883
 20
111.0484878296018
 30
0.0
 10
130.5185525732164
 20
111.213388635169
 30
0.0
 10
130.6646863510683
 20
111.5348072951957
 30
0.0
 10
130.746087851749
 20
111.691324499911
 30
0.0
 10
130.9256790315139
 20
111.9960009509583
 30
0.0
 10
131.0245130702827
 20
112.1449753790396
 30
0.0
 10
131.3417475722408
 20
112.5718098651463
 30
0.0
 10
131.5799429118396
 20
112.8298462965181
 30
0.0
 10
132.1094004080235
 20
113.2946337150286
 30
0.0
 10
132.4027894167106
 20
113.5015542322493
 30
0.0
 10
133.0180232958184
 20
113.8442076616958
 30
0.0
 10
133.3426664837999
 20
113.982965201315
 30
0.0
 10
134.0285212424389
 20
114.1919960640338
 30
0.0
 10
134.3776344796611
 20
114.2584345555432
 30
0.0
 10
135.0848198612023
 20
114.3169113604906
 30
0.0
 10
135.4463681146276
 20
114.3084422160455
 30
0.0
 10
135.8030943571963
 20
114.2609514305867
 30
0.0
  0
SPLINE
  5
15D
330
1F
100
AcDbEntity
  8
0
  6
HIDDEN
 62
     7
370
     0
100
AcDbSpline
210
0.0
220
0.0
230
1.0
 70
     8
 71
     3
 72
    66
 73
    62
 74
     0
 42
0.00000001
 43
0.00000001
 40
-0.0312499999999998
 40
-0.0312499999999998
 40
0.0
 40
0.0
 40
0.0312500000000012
 40
0.0312500000000012
 40
0.0625000000000023
 40
0.0625000000000023
 40
0.0937500000000035
 40
0.0937500000000035
 40
0.1250000000000047
 40
0.1250000000000047
 40
0.1562500000000059
 40
0.1562500000000059
 40
0.187500000000007
 40
0.187500000000007
 40
0.2187500000000082
 40
0.2187500000000082
 40
0.2500000000000094
 40
0.2500000000000094
 40
0.2812500000000105
 40
0.2812500000000105
 40
0.3125000000000117
 40
0.3125000000000117
 40
0.3437500000000129
 40
0.3437500000000129
 40
0.3750000000000141
 40
0.3750000000000141
 40
0.4062500000000153
 40
0.4062500000000153
 40
0.4375000000000164
 40
0.4375000000000164
 40
0.4687500000000176
 40
0.4687500000000176
 40
0.5000000000000188
 40
0.5000000000000188
 40
0.5625000000000184
 40
0.5625000000000184
 40
0.593750000000017
 40
0.593750000000017
 40
0.6250000000000154
 40
0.6250000000000154
 40
0.656250000000014
 40
0.656250000000014
 40
0.6875000000000124
 40
0.6875000000000124
 40
0.718750000000011
 40
0.718750000000011
 40
0.7500000000000094
 40
0.7500000000000094
 40
0.781250000000008
 40
0.781250000000008
 40
0.8125000000000066
 40
0.8125000000000066
 40
0.843750000000005
 40
0.843750000000005
 40
0.8750000000000036
 40
0.8750000000000036
 40
0.9375000000000006
 40
0.9375000000000006
 40
0.9687500000000002
 40
0.9687500000000002
 40
1.0
 40
1.0
 40
1.031250000000001
 40
1.031250000000001
 10
246.3087021363817
 20
111.8105824714039
 30
0.0
 10
245.9778346409389
 20
111.8105824714039
 30
0.0
 10
245.8152168932116
 20
111.8268476254783
 30
0.0
 10
245.4953670344764
 20
111.8904386312856
 30
0.0
 10
245.3364585426199
 20
111.9385530637753
 30
0.0
 10
245.0338354932943
 20
112.0636340779955
 30
0.0
 10
244.8903454397684
 20
112.1400264648004
 30
0.0
 10
244.6187854644183
 20
112.3199019275946
 30
0.0
 10
244.4904079078587
 20
112.4241805403914
 30
0.0
 10
244.2602007913607
 20
112.6510783348137
 30
0.0
 10
244.1568061474487
 20
112.7745439177673
 30
0.0
 10
243.974036180333
 20
113.0417184907231
 30
0.0
 10
243.8965279561576
 20
113.1830962080975
 30
0.0
 10
243.7717603823569
 20
113.4746579498139
 30
0.0
 10
243.7236246026288
 20
113.6270010186929
 30
0.0
 10
243.6593029677367
 20
113.9370668957804
 30
0.0
 10
243.6433616868976
 20
114.0922705626773
 30
0.0
 10
243.6431758992368
 20
114.4029278020278
 30
0.0
 10
243.6594639110238
 20
114.5599393060634
 30
0.0
 10
243.723347805453
 20
114.8620307809569
 30
0.0
 10
243.770612238221
 20
115.0081411067981
 30
0.0
 10
243.8960203490461
 20
115.2906957506416
 30
0.0
 10
243.9741871518058
 20
115.426194973046
 30
0.0
 10
244.1549947853218
 20
115.6762637536869
 30
0.0
 10
244.2585312626476
 20
115.7926324020175
 30
0.0
 10
244.4913644690876
 20
116.0062078859354
 30
0.0
 10
244.6173348038802
 20
116.1004702360992
 30
0.0
 10
244.887790019323
 20
116.26533057321
 30
0.0
 10
245.034051271708
 20
116.3364963351023
 30
0.0
 10
245.3364933625056
 20
116.450173354654
 30
0.0
 10
245.4923128431292
 20
116.4930069434237
 30
0.0
 10
245.8131636043296
 20
116.5509914115984
 30
0.0
 10
245.9790243599244
 20
116.5658078077292
 30
0.0
 10
246.4688503933642
 20
116.5659790352492
 30
0.0
 10
246.7982926493908
 20
116.5069313335856
 30
0.0
 10
247.2497505629276
 20
116.3376627284226
 30
0.0
 10
247.3954699412668
 20
116.2671430437034
 30
0.0
 10
247.6682929761488
 20
116.1012064788071
 30
0.0
 10
247.794038197694
 20
116.0069755465264
 30
0.0
 10
248.0247041464224
 20
115.7959281639953
 30
0.0
 10
248.130274853325
 20
115.6778204138819
 30
0.0
 10
248.3116602409261
 20
115.427342209869
 30
0.0
 10
248.3886056407753
 20
115.2942978337461
 30
0.0
 10
248.5145654070484
 20
115.0118883629355
 30
0.0
 10
248.5627775238334
 20
114.8633335837077
 30
0.0
 10
248.6266964724926
 20
114.5623541260637
 30
0.0
 10
248.643130359842
 20
114.4080565176046
 30
0.0
 10
248.6434046944489
 20
114.0937943518195
 30
0.0
 10
248.6273210885188
 20
113.9384006459605
 30
0.0
 10
248.5639352021657
 20
113.631035368925
 30
0.0
 10
248.5158091799721
 20
113.4774199580693
 30
0.0
 10
248.3906034150024
 20
113.1841416188976
 30
0.0
 10
248.3139427042444
 20
113.0442691003801
 30
0.0
 10
248.1325963055577
 20
112.7783008357891
 30
0.0
 10
248.0273592779166
 20
112.6522320486268
 30
0.0
 10
247.6824147221541
 20
112.3118129736293
 30
0.0
 10
247.4040191948951
 20
112.1264831570997
 30
0.0
 10
246.9531028510192
 20
111.9396517758094
 30
0.0
 10
246.7951546697195
 20
111.8913966889681
 30
0.0
 10
246.4721540895025
 20
111.8268501395035
 30
0.0
 10
246.3087021363817
 20
111.8105824714039
 30
0.0
 10
245.9778346409389
 20
111.8105824714039
 30
0.0
  0
SPLINE
  5
15E
330
1F
100
AcDbEntity
  8
0
  6
HIDDEN
 62
     7
370
     0
100
AcDbSpline
210
0.0
220
0.0
230
1.0
 70
     8
 71
     3
 72
    14
 73
    10
 74
     0
 42
0.00000001
 43
0.00000001
 40
0.0
 40
0.0
 40
0.0
 40
0.0
 40
0.1446146964222139
 40
0.2933016269329964
 40
0.4419826401760148
 40
0.5939552882863388
 40
0.7634966898662395
 40
0.9377559224254944
 40
1.0
 40
1.0
 40
1.0
 40
1.0
 10
262.1432683886605
 20
98.30705806827835
 30
0.0
 10
261.814085377735
 20
97.90926566895858
 30
0.0
 10
261.1464498258044
 20
97.1024793547832
 30
0.0
 10
260.4404249605902
 20
95.9746947891375
 30
0.0
 10
259.890170109555
 20
94.98635210308102
 30
0.0
 10
259.4934996821091
 20
94.16089270595654
 30
0.0
 10
259.2533325365384
 20
93.56707250536392
 30
0.0
 10
259.1935671581545
 20
93.3233689419978
 30
0.0
 10
259.2285270313341
 20
93.31148935261776
 30
0.0
 10
259.2377279387419
 20
93.30836282520252
 30
0.0
  0
LINE
  5
15F
330
1F
100
AcDbEntity
  8
0
  6
HIDDEN
 62
     7
370
     0
100
AcDbLine
 10
262.1432683887
 20
98.3070580683
 30
0.0
 11
262.1432683887
 21
125.3046796774
 31
0.0
  0
SPLINE
  5
160
330
1F
100
AcDbEntity
  8
0
  6
HIDDEN
 62
     7
370
     0
100
AcDbSpline
210
0.0
220
0.0
230
1.0
 70
     8
 71
     3
 72
    62
 73
    58
 74
     0
 42
0.00000001
 43
0.00000001
 40
-0.0312500000000009
 40
-0.0312500000000009
 40
0.0
 40
0.0
 40
0.0312500000000009
 40
0.0312500000000009
 40
0.0625000000000017
 40
0.0625000000000017
 40
0.1250000000000007
 40
0.1250000000000007
 40
0.1874999999999996
 40
0.1874999999999996
 40
0.2187499999999985
 40
0.2187499999999985
 40
0.2499999999999974
 40
0.2499999999999974
 40
0.2812499999999963
 40
0.2812499999999963
 40
0.3124999999999951
 40
0.3124999999999951
 40
0.343749999999994
 40
0.343749999999994
 40
0.3749999999999928
 40
0.3749999999999928
 40
0.4374999999999906
 40
0.4374999999999906
 40
0.4687499999999909
 40
0.4687499999999909
 40
0.4999999999999912
 40
0.4999999999999912
 40
0.5312499999999916
 40
0.5312499999999916
 40
0.5624999999999919
 40
0.5624999999999919
 40
0.5937499999999921
 40
0.5937499999999921
 40
0.6249999999999925
 40
0.6249999999999925
 40
0.6562499999999928
 40
0.6562499999999928
 40
0.6874999999999931
 40
0.6874999999999931
 40
0.7187499999999934
 40
0.7187499999999934
 40
0.7499999999999937
 40
0.7499999999999937
 40
0.781249999999994
 40
0.781249999999994
 40
0.8124999999999943
 40
0.8124999999999943
 40
0.8749999999999962
 40
0.8749999999999962
 40
0.9062499999999972
 40
0.9062499999999972
 40
0.9374999999999981
 40
0.9374999999999981
 40
0.9687499999999991
 40
0.9687499999999991
 40
1.0
 40
1.0
 40
1.031250000000001
 40
1.031250000000001
 10
246.2845308059472
 20
106.1834714104142
 30
0.0
 10
246.0020059713734
 20
106.1834714104143
 30
0.0
 10
245.8636829403223
 20
106.1943366043291
 30
0.0
 10
245.5924549946302
 20
106.2368589300772
 30
0.0
 10
245.4582446284618
 20
106.2691057446919
 30
0.0
 10
245.0792651207574
 20
106.3945878822363
 30
0.0
 10
244.8503885602978
 20
106.5185407334764
 30
0.0
 10
244.4694957081466
 20
106.835566686427
 30
0.0
 10
244.3138976352795
 20
107.0322349929859
 30
0.0
 10
244.1547515897576
 20
107.3686475080816
 30
0.0
 10
244.1129861988074
 20
107.4902975919118
 30
0.0
 10
244.0576677849974
 20
107.7407859744503
 30
0.0
 10
244.0435619575268
 20
107.8697696739715
 30
0.0
 10
244.0429837994719
 20
108.1355883903618
 30
0.0
 10
244.0569748484149
 20
108.2721679415298
 30
0.0
 10
244.1114732772915
 20
108.539048664949
 30
0.0
 10
244.1523636162397
 20
108.6722326202312
 30
0.0
 10
244.258971615916
 20
108.930330151543
 30
0.0
 10
244.3237191629947
 20
109.0535605087995
 30
0.0
 10
244.4752800386222
 20
109.2886089394501
 30
0.0
 10
244.5625666357617
 20
109.4005288506648
 30
0.0
 10
244.8481805902082
 20
109.7057435800234
 30
0.0
 10
245.0775667852593
 20
109.8761711276929
 30
0.0
 10
245.4537854549126
 20
110.0522352912278
 30
0.0
 10
245.5862565099634
 20
110.0986304294778
 30
0.0
 10
245.8602114864153
 20
110.1615304102854
 30
0.0
 10
245.9982521497176
 20
110.1774574058585
 30
0.0
 10
246.2764697216987
 20
110.1783413822202
 30
0.0
 10
246.4182790804633
 20
110.1626799933109
 30
0.0
 10
246.6907356477944
 20
110.1014760358303
 30
0.0
 10
246.8226013788695
 20
110.0563117682114
 30
0.0
 10
247.0781177989901
 20
109.9380414164438
 30
0.0
 10
247.1981045586302
 20
109.8666224217774
 30
0.0
 10
247.4232505559505
 20
109.7021595468825
 30
0.0
 10
247.5293773203342
 20
109.6079873239063
 30
0.0
 10
247.7207039680263
 20
109.404489119883
 30
0.0
 10
247.8066403145596
 20
109.2949041869348
 30
0.0
 10
247.9591372757782
 20
109.0600864257891
 30
0.0
 10
248.0252823390066
 20
108.9347971968492
 30
0.0
 10
248.1315027742024
 20
108.6797088168474
 30
0.0
 10
248.172543386031
 20
108.5485783479281
 30
0.0
 10
248.2287299739797
 20
108.2788890213209
 30
0.0
 10
248.2429475455438
 20
108.1437097205956
 30
0.0
 10
248.2435784372295
 20
107.8789647890579
 30
0.0
 10
248.2297900554296
 20
107.7468539195478
 30
0.0
 10
248.1749464836857
 20
107.4947991190477
 30
0.0
 10
248.134445301631
 20
107.3753348945866
 30
0.0
 10
247.9748561029476
 20
107.0348661745453
 30
0.0
 10
247.8200882692686
 20
106.8384548191113
 30
0.0
 10
247.5321085553882
 20
106.5982368720704
 30
0.0
 10
247.4281596328352
 20
106.5281058576817
 30
0.0
 10
247.203748434944
 20
106.4057147952812
 30
0.0
 10
247.0818178808955
 20
106.3531175172394
 30
0.0
 10
246.8295754274367
 20
106.2694631745157
 30
0.0
 10
246.6986982537474
 20
106.2378095230856
 30
0.0
 10
246.4264919053674
 20
106.1946869081589
 30
0.0
 10
246.2845308059472
 20
106.1834714104142
 30
0.0
 10
246.0020059713734
 20
106.1834714104143
 30
0.0
  0
SPLINE
  5
161
330
1F
100
AcDbEntity
  8
0
  6
HIDDEN
 62
     7
370
     0
100
AcDbSpline
210
0.0
220
0.0
230
1.0
 70
     8
 71
     3
 72
     8
 73
     4
 74
     0
 42
0.00000001
 43
0.00000001
 40
0.0
 40
0.0
 40
0.0
 40
0.0
 40
1.0
 40
1.0
 40
1.0
 40
1.0
 10
247.2564903969345
 20
107.4083168163768
 30
0.0
 10
247.2006005713685
 20
107.5406924606612
 30
0.0
 10
247.1795526914863
 20
107.6511545257939
 30
0.0
 10
247.1971150318486
 20
107.742319733674
 30
0.0
  0
SPLINE
  5
162
330
1F
100
AcDbEntity
  8
0
  6
HIDDEN
 62
     7
370
     0
100
AcDbSpline
210
0.0
220
0.0
230
1.0
 70
     8
 71
     3
 72
    48
 73
    44
 74
     0
 42
0.00000001
 43
0.00000001
 40
0.0
 40
0.0
 40
0.0
 40
0.0
 40
0.0312499999999999
 40
0.0312499999999999
 40
0.0624999999999997
 40
0.0624999999999997
 40
0.1249999999999991
 40
0.1249999999999991
 40
0.1874999999999984
 40
0.1874999999999984
 40
0.2499999999999977
 40
0.2499999999999977
 40
0.3124999999999971
 40
0.3124999999999971
 40
0.3437499999999968
 40
0.3437499999999968
 40
0.3749999999999964
 40
0.3749999999999964
 40
0.4374999999999978
 40
0.4374999999999978
 40
0.4999999999999992
 40
0.4999999999999992
 40
0.5625000000000006
 40
0.5625000000000006
 40
0.625000000000002
 40
0.625000000000002
 40
0.6562500000000027
 40
0.6562500000000027
 40
0.6875000000000032
 40
0.6875000000000032
 40
0.7187500000000039
 40
0.7187500000000039
 40
0.7500000000000046
 40
0.7500000000000046
 40
0.7812500000000052
 40
0.7812500000000052
 40
0.8125000000000058
 40
0.8125000000000058
 40
0.8750000000000039
 40
0.8750000000000039
 40
0.9375000000000019
 40
0.9375000000000019
 40
1.0
 40
1.0
 40
1.0
 40
1.0
 10
247.1971150318481
 20
107.7423197336679
 30
0.0
 10
247.2894927661127
 20
107.7021510343006
 30
0.0
 10
247.3651748706154
 20
107.6703827776336
 30
0.0
 10
247.5062279830402
 20
107.6050225525807
 30
0.0
 10
247.5703977259893
 20
107.5721551809898
 30
0.0
 10
247.7482893315436
 20
107.4676482262589
 30
0.0
 10
247.8494517340906
 20
107.3894953258955
 30
0.0
 10
248.0241281987254
 20
107.2031642266406
 30
0.0
 10
248.0972267783882
 20
107.0944536661328
 30
0.0
 10
248.2027653772959
 20
106.84639552243
 30
0.0
 10
248.2364358621603
 20
106.7038113743727
 30
0.0
 10
248.2482287945119
 20
106.3869370364994
 30
0.0
 10
248.225729135955
 20
106.2091306118884
 30
0.0
 10
248.1405843896877
 20
105.9315858480258
 30
0.0
 10
248.1032231718535
 20
105.8358541063372
 30
0.0
 10
248.0127665975838
 20
105.6463515520802
 30
0.0
 10
247.9602196791503
 20
105.5532246478665
 30
0.0
 10
247.7813565328052
 20
105.2784823157215
 30
0.0
 10
247.6360490500959
 20
105.1065577077818
 30
0.0
 10
247.3274847498369
 20
104.8067824098826
 30
0.0
 10
247.1663414763098
 20
104.6794060717621
 30
0.0
 10
246.8395598775257
 20
104.460331243896
 30
0.0
 10
246.6788955869228
 20
104.3719634516192
 30
0.0
 10
246.3639435559575
 20
104.2251932315411
 30
0.0
 10
246.2087501023286
 20
104.1673041776478
 30
0.0
 10
245.9940718504001
 20
104.0984587627884
 30
0.0
 10
245.9251717407225
 20
104.0783773678144
 30
0.0
 10
245.7972520120336
 20
104.0404613436803
 30
0.0
 10
245.7371295793305
 20
104.0230713173689
 30
0.0
 10
245.6462415192867
 20
103.9791813564186
 30
0.0
 10
245.6206729723565
 20
103.951002896468
 30
0.0
 10
245.656403927778
 20
103.8741147748423
 30
0.0
 10
245.7104053336846
 20
103.8308538532372
 30
0.0
 10
245.8337829560857
 20
103.7534985556112
 30
0.0
 10
245.9046944643429
 20
103.7183139314148
 30
0.0
 10
246.053977304211
 20
103.6569275096348
 30
0.0
 10
246.1328672064662
 20
103.6307116941559
 30
0.0
 10
246.3730510850097
 20
103.5684106504514
 30
0.0
 10
246.539309515041
 20
103.5476048856788
 30
0.0
 10
246.8791677421933
 20
103.5567922369441
 30
0.0
 10
247.0528903504979
 20
103.5875620266345
 30
0.0
 10
247.3865170768904
 20
103.7127718885331
 30
0.0
 10
247.5493394161665
 20
103.8084564268038
 30
0.0
 10
247.6942771987582
 20
103.9409925578984
 30
0.0
  0
SPLINE
  5
163
330
1F
100
AcDbEntity
  8
0
  6
HIDDEN
 62
     7
370
     0
100
AcDbSpline
210
0.0
220
0.0
230
1.0
 70
     8
 71
     3
 72
    16
 73
    12
 74
     0
 42
0.00000001
 43
0.00000001
 40
0.0
 40
0.0
 40
0.0
 40
0.0
 40
0.2500000000000021
 40
0.2500000000000021
 40
0.5000000000000042
 40
0.5000000000000042
 40
0.7500000000000063
 40
0.7500000000000063
 40
0.8750000000000031
 40
0.8750000000000031
 40
1.0
 40
1.0
 40
1.0
 40
1.0
 10
248.2232852177766
 20
105.0125886243747
 30
0.0
 10
248.2546200541011
 20
105.2463035217497
 30
0.0
 10
248.2482398622625
 20
105.4773349842466
 30
0.0
 10
248.1773932893696
 20
105.9354281724398
 30
0.0
 10
248.1144321002074
 20
106.1513874716208
 30
0.0
 10
247.9453102790954
 20
106.5612937360096
 30
0.0
 10
247.8391713466824
 20
106.7542867464982
 30
0.0
 10
247.6516087024936
 20
107.0184047592776
 30
0.0
 10
247.5841402156645
 20
107.1027493868744
 30
0.0
 10
247.4337037749528
 20
107.2641658585876
 30
0.0
 10
247.3525018345405
 20
107.3404309723275
 30
0.0
 10
247.2564903969286
 20
107.4083168163856
 30
0.0
  0
LWPOLYLINE
  5
164
330
1F
100
AcDbEntity
  8
0
  6
HIDDEN
 62
     7
370
     0
100
AcDbPolyline
 90
       18
 70
   128
 43
0.0
 10
248.2232852178
 20
105.0125886244
 10
248.2030049769
 20
105.6766781935
 10
247.9548060403
 20
106.2976989604
 10
247.5061526858
 20
106.8069323112
 10
246.9066903331
 20
107.1480293896
 10
246.222752065
 20
107.2832463395
 10
245.5300185868
 20
107.197620825
 10
244.9051438319
 20
106.9006276768
 10
244.4172728743
 20
106.4251304617
 10
244.1203907298
 20
105.823744988
 10
244.0473486824
 20
105.1630171398
 10
244.206229148
 20
104.51605929
 10
244.5794513211
 20
103.9544601021
 10
245.1257165661
 20
103.5403629371
 10
245.7845782884
 20
103.319589424
 10
246.4831306102
 20
103.3165690997
 10
247.1440757182
 20
103.5316361761
 10
247.6942771988
 20
103.9409925579
  0
ARC
  5
165
330
1F
100
AcDbEntity
  8
0
  6
HIDDEN
 62
     7
370
     0
100
AcDbCircle
 10
246.8452008839
 20
107.5074812987
 30
0.0
 40
0.4230752392960692
100
AcDbArc
 50
346.4443490427
 51
33.7158720493
  0
SPLINE
  5
166
330
1F
100
AcDbEntity
  8
0
  6
HIDDEN
 62
     7
370
     0
100
AcDbSpline
210
0.0
220
0.0
230
1.0
 70
     8
 71
     3
 72
    12
 73
     8
 74
     0
 42
0.00000001
 43
0.00000001
 40
0.0
 40
0.0
 40
0.0
 40
0.0
 40
0.2500000000000003
 40
0.2500000000000003
 40
0.5000000000000006
 40
0.5000000000000006
 40
1.0
 40
1.0
 40
1.0
 40
1.0
 10
247.6942771987582
 20
103.9409925578984
 30
0.0
 10
247.7128632839832
 20
104.0255035034048
 30
0.0
 10
247.7408154499302
 20
104.1140446403835
 30
0.0
 10
247.8088741685253
 20
104.2923961219314
 30
0.0
 10
247.8488775874748
 20
104.3827652510599
 30
0.0
 10
247.9844633108522
 20
104.6587069302024
 30
0.0
 10
248.0913327934137
 20
104.8438630164015
 30
0.0
 10
248.2232852177768
 20
105.0125886243746
 30
0.0
  0
LINE
  5
167
330
1F
100
AcDbEntity
  8
0
  6
HIDDEN
 62
     7
370
     0
100
AcDbLine
 10
97.3932683887
 20
91.3146796774
 30
0.0
 11
97.3932683887
 21
88.4921796774
 31
0.0
  0
LINE
  5
168
330
1F
100
AcDbEntity
  8
0
  6
HIDDEN
 62
     7
370
     0
100
AcDbLine
 10
106.3432683887
 20
91.3146796774
 30
0.0
 11
106.3432683887
 21
87.3595314181
 31
0.0
  0
LINE
  5
169
330
1F
100
AcDbEntity
  8
0
  6
HIDDEN
 62
     7
370
     0
100
AcDbLine
 10
97.3932683887
 20
127.2946796774
 30
0.0
 11
97.3932683887
 21
130.1746174428
 31
0.0
  0
LINE
  5
16A
330
1F
100
AcDbEntity
  8
0
  6
HIDDEN
 62
     7
370
     0
100
AcDbLine
 10
96.2432683887
 20
127.2946796774
 30
0.0
 11
96.2432683887
 21
128.9953574239
 31
0.0
  0
LINE
  5
16B
330
1F
100
AcDbEntity
  8
0
  6
HIDDEN
 62
     7
370
     0
100
AcDbLine
 10
96.2432683887
 20
91.3146796774
 30
0.0
 11
96.2432683887
 21
89.6515191525
 31
0.0
  0
LINE
  5
16C
330
1F
100
AcDbEntity
  8
0
  6
HIDDEN
 62
     7
370
     0
100
AcDbLine
 10
102.3432683887
 20
127.2946796774
 30
0.0
 11
102.3432683887
 21
131.1487873498
 31
0.0
  0
LINE
  5
16D
330
1F
100
AcDbEntity
  8
0
  6
HIDDEN
 62
     7
370
     0
100
AcDbLine
 10
149.9432683887
 20
118.8046796774
 30
0.0
 11
149.9432683887
 21
99.8046796774
 31
0.0
  0
LWPOLYLINE
  5
16E
330
1F
100
AcDbEntity
  8
0
  6
HIDDEN
 62
     7
370
     0
100
AcDbPolyline
 90
        2
 70
   128
 43
0.0
 10
149.9432683887
 20
99.8046796774
 10
149.9432683887
 20
99.8046796774
  0
LINE
  5
16F
330
1F
100
AcDbEntity
  8
0
  6
HIDDEN
 62
     7
370
     0
100
AcDbLine
 10
147.4432683887
 20
118.8046796774
 30
0.0
 11
147.4432683887
 21
99.8046796774
 31
0.0
  0
LWPOLYLINE
  5
170
330
1F
100
AcDbEntity
  8
0
  6
HIDDEN
 62
     7
370
     0
100
AcDbPolyline
 90
        2
 70
   128
 43
0.0
 10
147.4432683887
 20
99.8046796774
 10
147.4432683887
 20
99.8046796774
  0
LWPOLYLINE
  5
171
330
1F
100
AcDbEntity
  8
0
  6
HIDDEN
 62
     7
370
     0
100
AcDbPolyline
 90
        2
 70
   128
 43
0.0
 10
154.0932683887
 20
82.9046796774
 10
154.0932683887
 20
82.9046796774
  0
LINE
  5
172
330
1F
100
AcDbEntity
  8
0
  6
HIDDEN
 62
     7
370
     0
100
AcDbLine
 10
154.0932683887
 20
82.9046796774
 30
0.0
 11
147.9555935863
 21
82.9046796774
 31
0.0
  0
LINE
  5
173
330
1F
100
AcDbEntity
  8
0
  6
HIDDEN
 62
     7
370
     0
100
AcDbLine
 10
148.0532683887
 20
81.8068425184
 30
0.0
 11
148.0532683887
 21
82.5002840491
 31
0.0
  0
LINE
  5
174
330
1F
100
AcDbEntity
  8
0
  6
HIDDEN
 62
     7
370
     0
100
AcDbLine
 10
154.0932683887
 20
82.9046796774
 30
0.0
 11
154.0932683887
 21
79.7444022768
 31
0.0
  0
LINE
  5
175
330
1F
100
AcDbEntity
  8
0
  6
HIDDEN
 62
     7
370
     0
100
AcDbLine
 10
144.330943191
 20
82.9046796774
 30
0.0
 11
141.0932683887
 21
82.9046796774
 31
0.0
  0
LINE
  5
176
330
1F
100
AcDbEntity
  8
0
  6
HIDDEN
 62
     7
370
     0
100
AcDbLine
 10
144.2332683887
 20
82.5002840491
 30
0.0
 11
144.2332683887
 21
81.8068425184
 31
0.0
  0
LINE
  5
177
330
1F
100
AcDbEntity
  8
0
  6
HIDDEN
 62
     7
370
     0
100
AcDbLine
 10
138.5932683887
 20
117.8046796774
 30
0.0
 11
138.5932683887
 21
100.8046796774
 31
0.0
  0
LWPOLYLINE
  5
178
330
1F
100
AcDbEntity
  8
0
  6
HIDDEN
 62
     7
370
     0
100
AcDbPolyline
 90
        2
 70
   128
 43
0.0
 10
138.5932683887
 20
100.8046796774
 10
138.5932683887
 20
100.8046796774
  0
LINE
  5
179
330
1F
100
AcDbEntity
  8
0
  6
HIDDEN
 62
     7
370
     0
100
AcDbLine
 10
138.0932683887
 20
100.3046796774
 30
0.0
 11
138.0932683887
 21
118.3046796774
 31
0.0
  0
LINE
  5
17A
330
1F
100
AcDbEntity
  8
0
  6
HIDDEN
 62
     7
370
     0
100
AcDbLine
 10
133.0932683887
 20
77.8205566946
 30
0.0
 11
133.0932683887
 21
82.9046796774
 31
0.0
  0
LINE
  5
17B
330
1F
100
AcDbEntity
  8
0
  6
HIDDEN
 62
     7
370
     0
100
AcDbLine
 10
141.0932683887
 20
82.9046796774
 30
0.0
 11
133.0932683887
 21
82.9046796774
 31
0.0
  0
LINE
  5
17C
330
1F
100
AcDbEntity
  8
0
  6
HIDDEN
 62
     7
370
     0
100
AcDbLine
 10
147.4432683887
 20
100.8046796774
 30
0.0
 11
147.4432683887
 21
117.7771167966
 31
0.0
  0
LWPOLYLINE
  5
17D
330
1F
100
AcDbEntity
  8
0
  6
HIDDEN
 62
     7
370
     0
100
AcDbPolyline
 90
        2
 70
   128
 43
0.0
 10
154.0932683887
 20
135.7046796774
 10
154.0932683887
 20
135.7046796774
  0
LINE
  5
17E
330
1F
100
AcDbEntity
  8
0
  6
HIDDEN
 62
     7
370
     0
100
AcDbLine
 10
154.0932683887
 20
135.7046796774
 30
0.0
 11
147.658970857
 21
135.7046796774
 31
0.0
  0
LINE
  5
17F
330
1F
100
AcDbEntity
  8
0
  6
HIDDEN
 62
     7
370
     0
100
AcDbLine
 10
148.0532683887
 20
137.1099138686
 30
0.0
 11
148.0532683887
 21
136.4243335285
 31
0.0
  0
LINE
  5
180
330
1F
100
AcDbEntity
  8
0
  6
HIDDEN
 62
     7
370
     0
100
AcDbLine
 10
154.0932683887
 20
135.7046796774
 30
0.0
 11
154.0932683887
 21
139.1511200012
 31
0.0
  0
LINE
  5
181
330
1F
100
AcDbEntity
  8
0
  6
HIDDEN
 62
     7
370
     0
100
AcDbLine
 10
144.6275659204
 20
135.7046796774
 30
0.0
 11
141.0932683887
 21
135.7046796774
 31
0.0
  0
LINE
  5
182
330
1F
100
AcDbEntity
  8
0
  6
HIDDEN
 62
     7
370
     0
100
AcDbLine
 10
144.2332683887
 20
136.4243335285
 30
0.0
 11
144.2332683887
 21
137.1099138686
 31
0.0
  0
LINE
  5
183
330
1F
100
AcDbEntity
  8
0
  6
HIDDEN
 62
     7
370
     0
100
AcDbLine
 10
141.0932683887
 20
135.7046796774
 30
0.0
 11
133.0932683887
 21
135.7046796774
 31
0.0
  0
ELLIPSE
  5
184
330
1F
100
AcDbEntity
  8
0
  6
HIDDEN
 62
     7
370
     0
100
AcDbEllipse
 10
92.0758365243
 20
109.3046796774
 30
0.0
 11
20.0700207182705
 21
-1.421085471520200E-14
 31
0.0
210
0.0
220
0.0
230
1.0
 40
0.8164965809
 41
1.302650465081199
 42
1.361629843993893
  0
LINE
  5
185
330
1F
100
AcDbEntity
  8
0
  6
HIDDEN
 62
     7
370
     0
100
AcDbLine
 10
96.2432683887
 20
127.2946796774
 30
0.0
 11
96.2432683887
 21
125.3346150753
 31
0.0
  0
ELLIPSE
  5
186
330
1F
100
AcDbEntity
  8
0
  6
HIDDEN
 62
     7
370
     0
100
AcDbEllipse
 10
92.0758365243
 20
109.3046796774
 30
0.0
 11
20.07002071827053
 21
-4.263256414560601E-14
 31
0.0
210
0.0
220
0.0
230
1.0
 40
0.8164965809
 41
4.921555463185704
 42
4.980534842098402
  0
LINE
  5
187
330
1F
100
AcDbEntity
  8
0
  6
HIDDEN
 62
     7
370
     0
100
AcDbLine
 10
96.2432683887
 20
91.3146796774
 30
0.0
 11
96.2432683887
 21
93.2747442796
 31
0.0
  0
LINE
  5
188
330
1F
100
AcDbEntity
  8
0
  6
HIDDEN
 62
     7
370
     0
100
AcDbLine
 10
106.3432683887
 20
91.3146796774
 30
0.0
 11
106.3432683887
 21
93.017166055
 31
0.0
  0
LINE
  5
189
330
1F
100
AcDbEntity
  8
0
  6
HIDDEN
 62
     7
370
     0
100
AcDbLine
 10
97.3932683887
 20
91.3146796774
 30
0.0
 11
97.3932683887
 21
93.5031892414
 31
0.0
  0
LINE
  5
18A
330
1F
100
AcDbEntity
  8
0
  6
HIDDEN
 62
     7
370
     0
100
AcDbLine
 10
102.3432683887
 20
127.2946796774
 30
0.0
 11
102.3432683887
 21
125.5921932998
 31
0.0
  0
LINE
  5
18B
330
1F
100
AcDbEntity
  8
0
  6
HIDDEN
 62
     7
370
     0
100
AcDbLine
 10
97.3932683887
 20
127.2946796774
 30
0.0
 11
97.3932683887
 21
125.1061701135
 31
0.0
  0
SPLINE
  5
18C
330
1F
100
AcDbEntity
  8
0
  6
HIDDEN
 62
     7
370
     0
100
AcDbSpline
210
0.0
220
0.0
230
1.0
 70
    11
 71
     3
 72
    34
 73
    30
 74
     0
 42
0.00000001
 43
0.00000001
 40
0.0
 40
0.0
 40
0.0
 40
0.0
 40
0.0127738756313334
 40
0.0481305018861278
 40
0.0807425016923919
 40
0.1375890913626837
 40
0.188451873119219
 40
0.2226712138150604
 40
0.2626938372949104
 40
0.2986558359810495
 40
0.3315197765429448
 40
0.3878459718944461
 40
0.3881259547070325
 40
0.4440926113325778
 40
0.4768435653244589
 40
0.5126448960710559
 40
0.5530084671478271
 40
0.5873855940016004
 40
0.6380121006395882
 40
0.6949796268749235
 40
0.7275539945507963
 40
0.7628079420080972
 40
0.8028703493977664
 40
0.8370831563378097
 40
0.8877749825785545
 40
0.8880089190148145
 40
0.9388397946263319
 40
0.9729712758707671
 40
1.0
 40
1.0
 40
1.0
 40
1.0
 10
116.3032803011489
 20
86.23701782088023
 30
0.0
 10
116.3624739537117
 20
86.24310672468374
 30
0.0
 10
116.5855088640664
 20
86.26604901756792
 30
0.0
 10
117.1088613108436
 20
86.30269376937555
 30
0.0
 10
117.9816247693095
 20
86.33037779940949
 30
0.0
 10
119.0964627387512
 20
86.31982220256107
 30
0.0
 10
120.2095278850573
 20
86.20367717875709
 30
0.0
 10
121.1039700420431
 20
86.08208621977298
 30
0.0
 10
121.787802380741
 20
85.96032831038119
 30
0.0
 10
122.3285616679302
 20
85.84396709480633
 30
0.0
 10
122.7419561404059
 20
85.75049451288425
 30
0.0
 10
122.9701183611875
 20
85.68385641154948
 30
0.0
 10
122.8157412556271
 20
85.72507683736058
 30
0.0
 10
122.7888631813409
 20
85.73755321102837
 30
0.0
 10
122.3329392383368
 20
85.84313466921448
 30
0.0
 10
121.8090060563841
 20
85.95588315030007
 30
0.0
 10
121.1227991681396
 20
86.07898124524233
 30
0.0
 10
120.2296856038433
 20
86.20097263241247
 30
0.0
 10
119.1162493234032
 20
86.31872517310744
 30
0.0
 10
118.0054987971136
 20
86.33069576085985
 30
0.0
 10
117.1207462819709
 20
86.3036382114935
 30
0.0
 10
116.453552305719
 20
86.25570613762586
 30
0.0
 10
115.9122724825309
 20
86.19941194463901
 30
0.0
 10
115.5247194004024
 20
86.15433182161166
 30
0.0
 10
115.3306923030983
 20
86.11544918253841
 30
0.0
 10
115.4569196018415
 20
86.1368559828348
 30
0.0
 10
115.4860786373598
 20
86.14677729173732
 30
0.0
 10
115.8576593755758
 20
86.19440712072411
 30
0.0
 10
116.1667034639946
 20
86.22395821276427
 30
0.0
 10
116.3032803011489
 20
86.23701782088023
 30
0.0
  0
SPLINE
  5
18D
330
1F
100
AcDbEntity
  8
0
  6
HIDDEN
 62
     7
370
     0
100
AcDbSpline
210
0.0
220
0.0
230
1.0
 70
     8
 71
     3
 72
    38
 73
    34
 74
     0
 42
0.00000001
 43
0.00000001
 40
-0.0939221400677788
 40
-0.065775259775378
 40
-0.0344739496007942
 40
0.0
 40
0.0323124298479836
 40
0.0609695982577461
 40
0.085969868783555
 40
0.1073131755946561
 40
0.125001929016961
 40
0.1562358721977445
 40
0.1978507372990771
 40
0.2498168793248352
 40
0.2782629480307222
 40
0.304988415983286
 40
0.3300042168913841
 40
0.3533239044418168
 40
0.3749644360933808
 40
0.4060267838322921
 40
0.4476555976010198
 40
0.4998320869201297
 40
0.5286685248934815
 40
0.5555536435543464
 40
0.5805015705746597
 40
0.6035302879119624
 40
0.62466296934292
 40
0.6685312637103242
 40
0.7183269153555463
 40
0.7652375706113131
 40
0.7915712044406463
 40
0.812293703571044
 40
0.8615656629637487
 40
0.9060778599322212
 40
0.934224740224622
 40
0.9655260503992058
 40
1.0
 40
1.032312429847984
 40
1.060969598257746
 40
1.085969868783555
 10
117.0835335528417
 20
132.3076837034467
 30
0.0
 10
116.4794653343323
 20
132.3522172086626
 30
0.0
 10
116.0041502714862
 20
132.4002925948956
 30
0.0
 10
115.6845514454863
 20
132.4364553341615
 30
0.0
 10
115.4975570397723
 20
132.4628454683499
 30
0.0
 10
115.4092513802199
 20
132.4789150781472
 30
0.0
 10
115.3798378843506
 20
132.4867387633971
 30
0.0
 10
115.4519699544195
 20
132.4685712648134
 30
0.0
 10
115.773081956614
 20
132.4239646848507
 30
0.0
 10
116.3451094468286
 20
132.36322615618
 30
0.0
 10
116.9956417945848
 20
132.31388199316
 30
0.0
 10
117.5455179233262
 20
132.2915195326807
 30
0.0
 10
118.1009557891044
 20
132.2830373227762
 30
0.0
 10
118.6417313367409
 20
132.2894884089247
 30
0.0
 10
119.2396612315402
 20
132.3129667855264
 30
0.0
 10
119.9793270887071
 20
132.3798866563636
 30
0.0
 10
120.91137672198
 20
132.4959880902988
 30
0.0
 10
121.7007134556536
 20
132.6313029748901
 30
0.0
 10
122.239643143491
 20
132.7464147989573
 30
0.0
 10
122.5537474833869
 20
132.8161888755083
 30
0.0
 10
122.7590278517527
 20
132.8667489610042
 30
0.0
 10
122.8700978378436
 20
132.897427100911
 30
0.0
 10
122.9163693396476
 20
132.9121541181671
 30
0.0
 10
122.7904044713013
 20
132.8742945245798
 30
0.0
 10
122.3201589424283
 20
132.7638087401537
 30
0.0
 10
121.6669609788397
 20
132.6241045217775
 30
0.0
 10
121.0629420233237
 20
132.5209779156322
 30
0.0
 10
120.3886039736853
 20
132.4215418898627
 30
0.0
 10
119.5032544906979
 20
132.3280715555872
 30
0.0
 10
118.5337756000856
 20
132.2810630495145
 30
0.0
 10
117.7454400228186
 20
132.284747264615
 30
0.0
 10
117.0835335528417
 20
132.3076837034467
 30
0.0
 10
116.4794653343323
 20
132.3522172086626
 30
0.0
 10
116.0041502714862
 20
132.4002925948956
 30
0.0
  0
LINE
  5
18E
330
1F
100
AcDbEntity
  8
0
  6
HIDDEN
 62
     7
370
     0
100
AcDbLine
 10
249.1432683887
 20
113.5046796774
 30
0.0
 11
249.1432683887
 21
105.1046796774
 31
0.0
  0
SPLINE
  5
18F
330
1F
100
AcDbEntity
  8
0
  6
HIDDEN
 62
     7
370
     0
100
AcDbSpline
210
0.0
220
0.0
230
1.0
 70
     8
 71
     3
 72
    62
 73
    58
 74
     0
 42
0.00000001
 43
0.00000001
 40
-0.0312500000000009
 40
-0.0312500000000009
 40
0.0
 40
0.0
 40
0.0312499999999986
 40
0.0312499999999986
 40
0.0624999999999972
 40
0.0624999999999972
 40
0.1249999999999971
 40
0.1249999999999971
 40
0.1874999999999971
 40
0.1874999999999971
 40
0.218749999999997
 40
0.218749999999997
 40
0.2499999999999971
 40
0.2499999999999971
 40
0.2812499999999971
 40
0.2812499999999971
 40
0.3124999999999971
 40
0.3124999999999971
 40
0.3437499999999971
 40
0.3437499999999971
 40
0.374999999999997
 40
0.374999999999997
 40
0.437499999999997
 40
0.437499999999997
 40
0.468749999999997
 40
0.468749999999997
 40
0.499999999999997
 40
0.499999999999997
 40
0.5312499999999969
 40
0.5312499999999969
 40
0.5624999999999968
 40
0.5624999999999968
 40
0.5937499999999968
 40
0.5937499999999968
 40
0.6249999999999967
 40
0.6249999999999967
 40
0.6562499999999966
 40
0.6562499999999966
 40
0.6874999999999964
 40
0.6874999999999964
 40
0.7187499999999963
 40
0.7187499999999963
 40
0.7499999999999962
 40
0.7499999999999962
 40
0.7812499999999962
 40
0.7812499999999962
 40
0.8124999999999961
 40
0.8124999999999961
 40
0.874999999999996
 40
0.874999999999996
 40
0.906249999999997
 40
0.906249999999997
 40
0.9374999999999981
 40
0.9374999999999981
 40
0.9687499999999991
 40
0.9687499999999991
 40
1.0
 40
1.0
 40
1.031249999999999
 40
1.031249999999999
 10
246.0020059713734
 20
108.4314505759847
 30
0.0
 10
246.2845308059472
 20
108.4314505759847
 30
0.0
 10
246.4228538369983
 20
108.4474086005866
 30
0.0
 10
246.6940817826905
 20
108.5089422518929
 30
0.0
 10
246.8282921488589
 20
108.555334982145
 30
0.0
 10
247.2072716565633
 20
108.7318102991935
 30
0.0
 10
247.4361482170229
 20
108.9018163682218
 30
0.0
 10
247.8170410691741
 20
109.3077348557908
 30
0.0
 10
247.9726391420413
 20
109.5478553741686
 30
0.0
 10
248.1317851875631
 20
109.930471517271
 30
0.0
 10
248.1735505785134
 20
110.0647238102014
 30
0.0
 10
248.2288689923234
 20
110.3320478183805
 30
0.0
 10
248.242974819794
 20
110.4654217090965
 30
0.0
 10
248.2435529778489
 20
110.7314190858647
 30
0.0
 10
248.229561928906
 20
110.8636441082883
 30
0.0
 10
248.1750635000294
 20
111.1139320283002
 30
0.0
 10
248.1341731610813
 20
111.2347634612313
 30
0.0
 10
248.0275651614049
 20
111.4618837562424
 30
0.0
 10
247.9628176143262
 20
111.5667704699108
 30
0.0
 10
247.8112567386988
 20
111.7613254438602
 30
0.0
 10
247.7239701415592
 20
111.8510043749177
 30
0.0
 10
247.4383561871128
 20
112.0894790837867
 30
0.0
 10
247.2089699920617
 20
112.2137632297271
 30
0.0
 10
246.8327513224084
 20
112.3389954278505
 30
0.0
 10
246.7002802673576
 20
112.3712605153004
 30
0.0
 10
246.4263252909058
 20
112.4147373378372
 30
0.0
 10
246.2882846276035
 20
112.4255791688376
 30
0.0
 10
246.0100670556223
 20
112.4261838800816
 30
0.0
 10
245.8682576968577
 20
112.4155225627573
 30
0.0
 10
245.5958011295266
 20
112.3732361953825
 30
0.0
 10
245.4639353984516
 20
112.3418627165596
 30
0.0
 10
245.208418978331
 20
112.2578011152582
 30
0.0
 10
245.0884322186909
 20
112.2062864042095
 30
0.0
 10
244.8632862213704
 20
112.0843470992889
 30
0.0
 10
244.7571594569867
 20
112.0130409299875
 30
0.0
 10
244.5658328092947
 20
111.854154301149
 30
0.0
 10
244.4798964627613
 20
111.766427798324
 30
0.0
 10
244.3273995015427
 20
111.5722747274354
 30
0.0
 10
244.2612544383143
 20
111.4657032086056
 30
0.0
 10
244.1550340031186
 20
111.241448706509
 30
0.0
 10
244.1139933912899
 20
111.1226998591311
 30
0.0
 10
244.0578068033412
 20
110.8701067709268
 30
0.0
 10
244.043589231777
 20
110.7393533275594
 30
0.0
 10
244.0429583400914
 20
110.4748033518982
 30
0.0
 10
244.0567467218912
 20
110.3383997133601
 30
0.0
 10
244.1115902936351
 20
110.0696466847285
 30
0.0
 10
244.1520914756898
 20
109.9379471798919
 30
0.0
 10
244.3116806743731
 20
109.551099323229
 30
0.0
 10
244.466448508052
 20
109.3113733205212
 30
0.0
 10
244.7544282219326
 20
109.003888310902
 30
0.0
 10
244.8583771444855
 20
108.9113094189373
 30
0.0
 10
245.0827883423767
 20
108.7463599985821
 30
0.0
 10
245.2047188964252
 20
108.673481204938
 30
0.0
 10
245.456961349884
 20
108.5558436972954
 30
0.0
 10
245.5878385235734
 20
108.5103114425037
 30
0.0
 10
245.8600448719532
 20
108.4479217350329
 30
0.0
 10
246.0020059713734
 20
108.4314505759847
 30
0.0
 10
246.2845308059472
 20
108.4314505759847
 30
0.0
  0
LINE
  5
190
330
1F
100
AcDbEntity
  8
0
  6
HIDDEN
 62
     7
370
     0
100
AcDbLine
 10
149.9432683887
 20
105.1046796774
 30
0.0
 11
149.9432683887
 21
113.4762807799
 31
0.0
  0
SPLINE
  5
191
330
1F
100
AcDbEntity
  8
0
  6
HIDDEN
 62
     7
370
     0
100
AcDbSpline
210
0.0
220
0.0
230
1.0
 70
     8
 71
     3
 72
    12
 73
     8
 74
     0
 42
0.00000001
 43
0.00000001
 40
0.0
 40
0.0
 40
0.0
 40
0.0
 40
0.4999999999999999
 40
0.4999999999999999
 40
0.7499999999999999
 40
0.7499999999999999
 40
1.0
 40
1.0
 40
1.0
 40
1.0
 10
263.8083269569443
 20
102.9956152284773
 30
0.0
 10
263.4482491275111
 20
104.0038147797032
 30
0.0
 10
263.1519159227446
 20
105.0471011659047
 30
0.0
 10
262.8494179309636
 20
106.6370677321494
 30
0.0
 10
262.7722372976371
 20
107.1706582327381
 30
0.0
 10
262.6692849643496
 20
108.236660758768
 30
0.0
 10
262.6432683886604
 20
108.7703292866926
 30
0.0
 10
262.6432683886604
 20
109.3046796774193
 30
0.0
  0
LINE
  5
192
330
1F
100
AcDbEntity
  8
0
  6
HIDDEN
 62
     7
370
     0
100
AcDbLine
 10
262.6432683887
 20
125.8046796774
 30
0.0
 11
262.6432683887
 21
109.3046796774
 31
0.0
  0
SPLINE
  5
193
330
1F
100
AcDbEntity
  8
0
  6
HIDDEN
 62
     7
370
     0
100
AcDbSpline
210
0.0
220
0.0
230
1.0
 70
     8
 71
     3
 72
    12
 73
     8
 74
     0
 42
0.00000001
 43
0.00000001
 40
0.0
 40
0.0
 40
0.0
 40
0.0
 40
0.4999999999999999
 40
0.4999999999999999
 40
0.75
 40
0.75
 40
1.0
 40
1.0
 40
1.0
 40
1.0
 10
262.1432683886604
 20
98.30705806827832
 30
0.0
 10
262.3799005371682
 20
98.96134925549845
 30
0.0
 10
262.6401559610526
 20
99.68084020977172
 30
0.0
 10
263.0586995787348
 20
100.8540210116765
 30
0.0
 10
263.2029437842652
 20
101.2608315281372
 30
0.0
 10
263.5000865736446
 20
102.1063593591583
 30
0.0
 10
263.6533957938323
 20
102.5462993387492
 30
0.0
 10
263.8083269569459
 20
102.9956152284761
 30
0.0
  0
LINE
  5
194
330
1F
100
AcDbEntity
  8
0
  6
HIDDEN
 62
     7
370
     0
100
AcDbLine
 10
284.1680254587
 20
98.3727506089
 30
0.0
 11
284.1742030092
 21
98.3532056486
 31
0.0
  0
LINE
  5
195
330
1F
100
AcDbEntity
  8
0
  6
HIDDEN
 62
     7
370
     0
100
AcDbLine
 10
284.1742030092
 20
98.3532056486
 30
0.0
 11
277.3570565704
 21
100.4974077414
 31
0.0
  0
LINE
  5
196
330
1F
100
AcDbEntity
  8
0
  6
HIDDEN
 62
     7
370
     0
100
AcDbLine
 10
277.3570565704
 20
100.4974077414
 30
0.0
 11
277.3508790199
 21
100.5169527017
 31
0.0
  0
LINE
  5
197
330
1F
100
AcDbEntity
  8
0
  6
HIDDEN
 62
     7
370
     0
100
AcDbLine
 10
273.9851853249
 20
101.1042472856
 30
0.0
 11
277.1328393664
 21
91.1454823767
 31
0.0
  0
LINE
  5
198
330
1F
100
AcDbEntity
  8
0
  6
HIDDEN
 62
     7
370
     0
100
AcDbLine
 10
277.1328393664
 20
91.1454823767
 30
0.0
 11
277.0826084342
 21
91.1612815489
 31
0.0
  0
LINE
  5
199
330
1F
100
AcDbEntity
  8
0
  6
HIDDEN
 62
     7
370
     0
100
AcDbLine
 10
284.2720124509
 20
98.299755651
 30
0.0
 11
284.2720124509
 21
98.1951209403
 31
0.0
  0
LINE
  5
19A
330
1F
100
AcDbEntity
  8
0
  6
HIDDEN
 62
     7
370
     0
100
AcDbLine
 10
284.2720124509
 20
98.1951209403
 30
0.0
 11
284.1742030092
 21
98.3532056486
 31
0.0
  0
SPLINE
  5
19B
330
1F
100
AcDbEntity
  8
0
  6
HIDDEN
 62
     7
370
     0
100
AcDbSpline
210
0.0
220
0.0
230
1.0
 70
     8
 71
     3
 72
    15
 73
    11
 74
     0
 42
0.00000001
 43
0.00000001
 40
0.0
 40
0.0
 40
0.0
 40
0.0
 40
0.1217795681994311
 40
0.2443523730674559
 40
0.3694995600751647
 40
0.498896009018027
 40
0.6306890403865327
 40
0.7629361490382207
 40
0.8970594592561649
 40
1.0
 40
1.0
 40
1.0
 40
1.0
 10
287.2710086776455
 20
88.81137212173607
 30
0.0
 10
287.2343876858254
 20
88.97250257133427
 30
0.0
 10
287.1609071637015
 20
89.29581302738936
 30
0.0
 10
286.9590715210935
 20
90.06642874525134
 30
0.0
 10
286.6906918713524
 20
91.04394007499906
 30
0.0
 10
286.3523016344959
 20
92.23793288628477
 30
0.0
 10
285.9545493802853
 20
93.61322795595231
 30
0.0
 10
285.499612904135
 20
95.16001677923865
 30
0.0
 10
285.0394885311588
 20
96.7062057196958
 30
0.0
 10
284.7159313322629
 20
97.77883801632075
 30
0.0
 10
284.5754326738602
 20
98.24460851733095
 30
0.0
  0
LINE
  5
19C
330
1F
100
AcDbEntity
  8
0
  6
HIDDEN
 62
     7
370
     0
100
AcDbLine
 10
287.2710086776
 20
88.8113245877
 30
0.0
 11
284.2720124509
 21
98.299755651
 31
0.0
  0
LWPOLYLINE
  5
19D
330
1F
100
AcDbEntity
  8
0
  6
HIDDEN
 62
     7
370
     0
100
AcDbPolyline
 90
        2
 70
   128
 43
0.0
 10
133.0932683887
 20
82.9046796774
 10
133.0932683887
 20
82.9046796774
  0
LINE
  5
19E
330
1F
100
AcDbEntity
  8
0
  6
HIDDEN
 62
     7
370
     0
100
AcDbLine
 10
277.3570565704
 20
100.4974077414
 30
0.0
 11
277.1446540952
 21
100.436894216
 31
0.0
  0
LINE
  5
19F
330
1F
100
AcDbEntity
  8
0
  6
HIDDEN
 62
     7
370
     0
100
AcDbLine
 10
277.0937922627
 20
100.5978143889
 30
0.0
 11
277.1446540952
 21
100.436894216
 31
0.0
  0
LINE
  5
1A0
330
1F
100
AcDbEntity
  8
0
  6
HIDDEN
 62
     7
370
     0
100
AcDbLine
 10
274.2181632918
 20
101.4024057478
 30
0.0
 11
277.4471925945
 21
91.1861801764
 31
0.0
  0
ELLIPSE
  5
1A1
330
1F
100
AcDbEntity
  8
0
  6
HIDDEN
 62
     7
370
     0
100
AcDbEllipse
 10
269.9738888327
 20
114.3626300502
 30
0.0
 11
-7.387193463641895
 21
23.21767785199217
 31
0.0
210
0.0
220
0.0
230
0.9999999999999999
 40
0.1180088425
 41
3.06593058530669
 42
3.174485344674795
  0
LINE
  5
1A2
330
1F
100
AcDbEntity
  8
0
  6
HIDDEN
 62
     7
370
     0
100
AcDbLine
 10
284.2720124509
 20
98.1951209403
 30
0.0
 11
277.1446540952
 21
100.436894216
 31
0.0
  0
LINE
  5
1A3
330
1F
100
AcDbEntity
  8
0
  6
HIDDEN
 62
     7
370
     0
100
AcDbLine
 10
133.0932683887
 20
77.8205566946
 30
0.0
 11
133.0932683887
 21
82.9046796774
 31
0.0
  0
LINE
  5
1A4
330
1F
100
AcDbEntity
  8
0
  6
HIDDEN
 62
     7
370
     0
100
AcDbLine
 10
133.0932683887
 20
82.9046796774
 30
0.0
 11
141.0932683887
 21
82.9046796774
 31
0.0
  0
ARC
  5
1A5
330
1F
100
AcDbEntity
  8
0
  6
HIDDEN
 62
     7
370
     0
100
AcDbCircle
 10
275.2015917436
 20
102.5407930039
 30
0.0
 40
1.25019702917343
100
AcDbArc
 50
17.5751657134
 51
182.2819259776
  0
LINE
  5
1A6
330
1F
100
AcDbEntity
  8
0
  6
HIDDEN
 62
     7
370
     0
100
AcDbLine
 10
274.2484225701
 20
101.4113040671
 30
0.0
 11
277.3993159342
 21
91.4422903661
 31
0.0
  0
ELLIPSE
  5
1A7
330
1F
100
AcDbEntity
  8
0
  6
HIDDEN
 62
     7
370
     0
100
AcDbEllipse
 10
270.1141530907
 20
114.3185126298
 30
0.0
 11
-7.330952083637158
 21
23.270262562185
 31
0.0
210
0.0
220
0.0
230
1.0
 40
0.0172077412
 41
3.245238726852309
 42
3.320539474954032
  0
LINE
  5
1A8
330
1F
100
AcDbEntity
  8
0
  6
HIDDEN
 62
     7
370
     0
100
AcDbLine
 10
277.1446540952
 20
100.436894216
 30
0.0
 11
277.1446540952
 21
100.5415289266
 31
0.0
  0
LWPOLYLINE
  5
1A9
330
1F
100
AcDbEntity
  8
0
  6
HIDDEN
 62
     7
370
     0
100
AcDbPolyline
 90
       20
 70
   128
 43
0.0
 10
246.1432683887
 20
110.3233604799
 10
246.825137274
 20
110.4315752972
 10
247.4331150853
 20
110.7444929943
 10
247.901317993
 20
111.2282040835
 10
248.1790089471
 20
111.8302909625
 10
248.236095824
 20
112.4855081759
 10
248.0663923746
 20
113.1228527716
 10
247.6882886011
 20
113.6732585735
 10
247.142757914
 20
114.0770805723
 10
246.4889170282
 20
114.2905583887
 10
245.7976197491
 20
114.2905583887
 10
245.1437788633
 20
114.0770805723
 10
244.5982481762
 20
113.6732585735
 10
244.2201444027
 20
113.1228527716
 10
244.0504409533
 20
112.4855081759
 10
244.1075278302
 20
111.8302909625
 10
244.3852187843
 20
111.2282040835
 10
244.853421692
 20
110.7444929943
 10
245.4613995033
 20
110.4315752972
 10
246.1432683887
 20
110.3233604799
  0
LINE
  5
1AA
330
1F
100
AcDbEntity
  8
0
  6
HIDDEN
 62
     7
370
     0
100
AcDbLine
 10
286.9109783306
 20
88.4467335842
 30
0.0
 11
287.2710735463
 21
88.8112608391
 31
0.0
  0
CIRCLE
  5
1AB
330
1F
100
AcDbEntity
  8
0
  6
HIDDEN
 62
     7
370
     0
100
AcDbCircle
 10
280.9707842516
 20
94.7392319845
 30
0.0
 40
2.397960805059121
  0
LINE
  5
1AC
330
1F
100
AcDbEntity
  8
0
  6
HIDDEN
 62
     7
370
     0
100
AcDbLine
 10
284.2720124509
 20
98.299755651
 30
0.0
 11
277.1446540952
 21
100.5415289266
 31
0.0
  0
LINE
  5
1AD
330
1F
100
AcDbEntity
  8
0
  6
HIDDEN
 62
     7
370
     0
100
AcDbLine
 10
277.1446540952
 20
100.5415289266
 30
0.0
 11
276.3934316226
 21
102.9182983873
 31
0.0
  0
LINE
  5
1AE
330
1F
100
AcDbEntity
  8
0
  6
HIDDEN
 62
     7
370
     0
100
AcDbLine
 10
277.3993159342
 20
91.4422903661
 30
0.0
 11
286.9096168638
 21
88.4510084068
 31
0.0
  0
CIRCLE
  5
1AF
330
1F
100
AcDbEntity
  8
0
  6
HIDDEN
 62
     7
370
     0
100
AcDbCircle
 10
280.9710608154
 20
94.7905515212
 30
0.0
 40
1.648789907218194
  0
SPLINE
  5
1B0
330
1F
100
AcDbEntity
  8
0
  6
HIDDEN
 62
     7
370
     0
100
AcDbSpline
210
0.0
220
0.0
230
1.0
 70
     8
 71
     3
 72
    35
 73
    31
 74
     0
 42
0.00000001
 43
0.00000001
 40
0.0
 40
0.0
 40
0.0
 40
0.0
 40
0.0309919762189715
 40
0.0617024282192595
 40
0.0921334282239633
 40
0.1222871060711508
 40
0.1521656509055503
 40
0.1817713129061768
 40
0.2111064050487769
 40
0.2401733049017175
 40
0.2689744564535784
 40
0.2975123719705134
 40
0.3257896338810296
 40
0.3538088966854757
 40
0.3815728888871816
 40
0.4090844149417198
 40
0.4363463572203222
 40
0.4633616779830015
 40
0.4901334213564323
 40
0.5166647153110286
 40
0.5677938841124569
 40
0.6182299166374379
 40
0.6679979559705764
 40
0.7171241708785878
 40
0.7656357688265705
 40
0.8135610040802627
 40
0.8609291802047364
 40
0.9077706462724179
 40
0.9541167861152193
 40
1.0
 40
1.0
 40
1.0
 40
1.0
 10
284.2372947188659
 20
98.04047699673653
 30
0.0
 10
284.2794465576085
 20
97.89765321970181
 30
0.0
 10
284.363367337166
 20
97.61330304505586
 30
0.0
 10
284.4861468080514
 20
97.19517593758019
 30
0.0
 10
284.6059450662828
 20
96.78582267932227
 30
0.0
 10
284.7226057811858
 20
96.38577214870928
 30
0.0
 10
284.8361953949645
 20
95.99498662010771
 30
0.0
 10
284.9467186097033
 20
95.6135689506906
 30
0.0
 10
285.0541936357351
 20
95.24157582829717
 30
0.0
 10
285.1586323590309
 20
94.87906728523015
 30
0.0
 10
285.2600456386873
 20
94.52609377402185
 30
0.0
 10
285.3584419632674
 20
94.18269974898575
 30
0.0
 10
285.4538278658409
 20
93.84892288770953
 30
0.0
 10
285.5462078654841
 20
93.52479447380178
 30
0.0
 10
285.6355845700444
 20
93.21033945502296
 30
0.0
 10
285.7219586068035
 20
92.90557666632002
 30
0.0
 10
285.8053290783235
 20
92.61051873052065
 30
0.0
 10
285.8856921161224
 20
92.32517308157074
 30
0.0
 10
285.9630464313032
 20
92.04953888176824
 30
0.0
 10
286.0605637930778
 20
91.70064934436098
 30
0.0
 10
286.1746280680409
 20
91.29012863813732
 30
0.0
 10
286.3004489095347
 20
90.83366021464838
 30
0.0
 10
286.4154643348832
 20
90.4124345613577
 30
0.0
 10
286.5196512602689
 20
90.0264829021839
 30
0.0
 10
286.6129710176189
 20
89.6757487166704
 30
0.0
 10
286.6953417325412
 20
89.36019842486203
 30
0.0
 10
286.7667635592401
 20
89.07945628363453
 30
0.0
 10
286.8268578290904
 20
88.83414716265669
 30
0.0
 10
286.8765640406925
 20
88.62098095479593
 30
0.0
 10
286.9002403222399
 20
88.50699784833715
 30
0.0
 10
286.9120190439411
 20
88.4502923522936
 30
0.0
  0
ARC
  5
1B1
330
1F
100
AcDbEntity
  8
0
  6
HIDDEN
 62
     7
370
     0
100
AcDbCircle
 10
280.970978791
 20
95.3967260955
 30
0.0
 40
1.649068121402291
100
AcDbArc
 50
328.902311737
 51
176.1777597434
  0
SPLINE
  5
1B2
330
1F
100
AcDbEntity
  8
0
  6
HIDDEN
 62
     7
370
     0
100
AcDbSpline
210
0.0
220
0.0
230
1.0
 70
     8
 71
     3
 72
    30
 73
    26
 74
     0
 42
0.00000001
 43
0.00000001
 40
0.0
 40
0.0
 40
0.0
 40
0.0
 40
0.1250000000000001
 40
0.1250000000000001
 40
0.2500000000000001
 40
0.2500000000000001
 40
0.3125000000000001
 40
0.3125000000000001
 40
0.3750000000000002
 40
0.3750000000000002
 40
0.4375000000000002
 40
0.4375000000000002
 40
0.5000000000000002
 40
0.5000000000000002
 40
0.5625000000000004
 40
0.5625000000000004
 40
0.6250000000000008
 40
0.6250000000000008
 40
0.687500000000001
 40
0.687500000000001
 40
0.7500000000000012
 40
0.7500000000000012
 40
0.8750000000000007
 40
0.8750000000000007
 40
1.0
 40
1.0
 40
1.0
 40
1.0
 10
282.3830559103384
 20
94.5449844221784
 30
0.0
 10
282.3038974190019
 20
94.40086042456998
 30
0.0
 10
282.2084214604805
 20
94.26996907101648
 30
0.0
 10
281.9833912638564
 20
94.03421242988392
 30
0.0
 10
281.8539444268655
 20
93.92887469416029
 30
0.0
 10
281.6235141664621
 20
93.79657403302576
 30
0.0
 10
281.5416733268716
 20
93.75749537980671
 30
0.0
 10
281.364373964921
 20
93.69182993808289
 30
0.0
 10
281.2688076779506
 20
93.6653229805697
 30
0.0
 10
281.0647873269962
 20
93.6313516033275
 30
0.0
 10
280.9535195099234
 20
93.62356293780417
 30
0.0
 10
280.7197212206062
 20
93.6366109094597
 30
0.0
 10
280.5954101591737
 20
93.65829186050237
 30
0.0
 10
280.3575208095735
 20
93.73299663318289
 30
0.0
 10
280.2421736328691
 20
93.78651578353708
 30
0.0
 10
280.0384618362613
 20
93.91128426328471
 30
0.0
 10
279.9500268294031
 20
93.98149790499119
 30
0.0
 10
279.7956990572698
 20
94.12883792046564
 30
0.0
 10
279.7293856805001
 20
94.20649752942376
 30
0.0
 10
279.6159007437698
 20
94.36282418951254
 30
0.0
 10
279.5679447373661
 20
94.44237540124647
 30
0.0
 10
279.4444566671521
 20
94.68512658654822
 30
0.0
 10
279.3907104922085
 20
94.84913631759395
 30
0.0
 10
279.3263031549318
 20
95.17636480586583
 30
0.0
 10
279.3155076402414
 20
95.34080454462207
 30
0.0
 10
279.3255787447972
 20
95.5066549680381
 30
0.0
  0
LINE
  5
1B3
330
1F
100
AcDbEntity
  8
0
  6
HIDDEN
 62
     7
370
     0
100
AcDbLine
 10
102.3432683887
 20
127.2946796774
 30
0.0
 11
102.3432683887
 21
125.5921932998
 31
0.0
  0
LINE
  5
1B4
330
1F
100
AcDbEntity
  8
0
  6
HIDDEN
 62
     7
370
     0
100
AcDbLine
 10
106.3432683887
 20
91.3146796774
 30
0.0
 11
106.3432683887
 21
93.017166055
 31
0.0
  0
LINE
  5
1B5
330
1F
100
AcDbEntity
  8
0
  6
HIDDEN
 62
     7
370
     0
100
AcDbLine
 10
102.3432683887
 20
127.2946796774
 30
0.0
 11
102.3432683887
 21
131.1487873498
 31
0.0
  0
LINE
  5
1B6
330
1F
100
AcDbEntity
  8
0
  6
HIDDEN
 62
     7
370
     0
100
AcDbLine
 10
106.3432683887
 20
91.3146796774
 30
0.0
 11
106.3432683887
 21
87.3595314181
 31
0.0
  0
LINE
  5
1B7
330
1F
100
AcDbEntity
  8
0
  6
HIDDEN
 62
     7
370
     0
100
AcDbLine
 10
97.3932683887
 20
127.2946796774
 30
0.0
 11
97.3932683887
 21
125.1061701135
 31
0.0
  0
LINE
  5
1B8
330
1F
100
AcDbEntity
  8
0
  6
HIDDEN
 62
     7
370
     0
100
AcDbLine
 10
97.3932683887
 20
127.2946796774
 30
0.0
 11
97.3932683887
 21
130.1746174428
 31
0.0
  0
LINE
  5
1B9
330
1F
100
AcDbEntity
  8
0
  6
HIDDEN
 62
     7
370
     0
100
AcDbLine
 10
97.3932683887
 20
91.3146796774
 30
0.0
 11
97.3932683887
 21
88.4980481189
 31
0.0
  0
SPLINE
  5
1BA
330
1F
100
AcDbEntity
  8
0
  6
HIDDEN
 62
     7
370
     0
100
AcDbSpline
210
0.0
220
0.0
230
1.0
 70
     8
 71
     3
 72
    10
 73
     6
 74
     0
 42
0.00000001
 43
0.00000001
 40
0.0
 40
0.0
 40
0.0
 40
0.0
 40
0.5
 40
0.5
 40
1.0
 40
1.0
 40
1.0
 40
1.0
 10
97.3832234582421
 20
130.1646335697069
 30
0.0
 10
97.31566420332385
 20
130.0969421768972
 30
0.0
 10
97.25202754798738
 20
130.0222350121435
 30
0.0
 10
97.14180679341553
 20
129.8632688797169
 30
0.0
 10
97.0949905001929
 20
129.7789136137089
 30
0.0
 10
97.06742203476483
 20
129.6947990110171
 30
0.0
  0
LINE
  5
1BB
330
1F
100
AcDbEntity
  8
0
  6
HIDDEN
 62
     7
370
     0
100
AcDbLine
 10
96.2432683887
 20
127.2946796774
 30
0.0
 11
96.2432683887
 21
128.9953574239
 31
0.0
  0
SPLINE
  5
1BC
330
1F
100
AcDbEntity
  8
0
  6
HIDDEN
 62
     7
370
     0
100
AcDbSpline
210
0.0
220
0.0
230
1.0
 70
     8
 71
     3
 72
    10
 73
     6
 74
     0
 42
0.00000001
 43
0.00000001
 40
0.0
 40
0.0
 40
0.0
 40
0.0
 40
0.5
 40
0.5
 40
1.0
 40
1.0
 40
1.0
 40
1.0
 10
96.30593176338371
 20
128.9792322222
 30
0.0
 10
96.29702747427496
 20
129.0249737414132
 30
0.0
 10
96.28051209408197
 20
129.0421645808822
 30
0.0
 10
96.25340414802037
 20
129.0418413039465
 30
0.0
 10
96.24326838866033
 20
129.02396376165
 30
0.0
 10
96.24326838866033
 20
128.9953574238974
 30
0.0
  0
ELLIPSE
  5
1BD
330
1F
100
AcDbEntity
  8
0
  6
HIDDEN
 62
     7
370
     0
100
AcDbEllipse
 10
92.0758365243
 20
109.3046796774
 30
0.0
 11
20.07002071827051
 21
0.0
 31
0.0
210
0.0
220
0.0
230
1.0
 40
0.8164965809
 41
1.302650465081198
 42
1.361629843993898
  0
LINE
  5
1BE
330
1F
100
AcDbEntity
  8
0
  6
HIDDEN
 62
     7
370
     0
100
AcDbLine
 10
96.2432683887
 20
127.2946796774
 30
0.0
 11
96.2432683887
 21
125.3346150753
 31
0.0
  0
SPLINE
  5
1BF
330
1F
100
AcDbEntity
  8
0
  6
HIDDEN
 62
     7
370
     0
100
AcDbSpline
210
0.0
220
0.0
230
1.0
 70
     8
 71
     3
 72
     8
 73
     4
 74
     0
 42
0.00000001
 43
0.00000001
 40
0.0
 40
0.0
 40
0.0
 40
0.0
 40
1.0
 40
1.0
 40
1.0
 40
1.0
 10
97.18217795885941
 20
88.8607573744537
 30
0.0
 10
97.21789161722933
 20
88.73752586919389
 30
0.0
 10
97.29355965617762
 20
88.61658229224689
 30
0.0
 10
97.38322345825074
 20
88.50986324854364
 30
0.0
  0
SPLINE
  5
1C0
330
1F
100
AcDbEntity
  8
0
  6
HIDDEN
 62
     7
370
     0
100
AcDbSpline
210
0.0
220
0.0
230
1.0
 70
     8
 71
     3
 72
    10
 73
     6
 74
     0
 42
0.00000001
 43
0.00000001
 40
0.0
 40
0.0
 40
0.0
 40
0.0
 40
0.5
 40
0.5
 40
1.0
 40
1.0
 40
1.0
 40
1.0
 10
96.24326838865984
 20
89.65151915246639
 30
0.0
 10
96.24326838865981
 20
89.63800262659863
 30
0.0
 10
96.2485879492881
 20
89.63383185424132
 30
0.0
 10
96.26171618156971
 20
89.65196289762892
 30
0.0
 10
96.26940883622373
 20
89.67487132269083
 30
0.0
 10
96.27354600426895
 20
89.71459211719242
 30
0.0
  0
LINE
  5
1C1
330
1F
100
AcDbEntity
  8
0
  6
HIDDEN
 62
     7
370
     0
100
AcDbLine
 10
96.2432683887
 20
91.3146796774
 30
0.0
 11
96.2432683887
 21
89.6515191525
 31
0.0
  0
LINE
  5
1C2
330
1F
100
AcDbEntity
  8
0
  6
HIDDEN
 62
     7
370
     0
100
AcDbLine
 10
97.3932683887
 20
91.3146796774
 30
0.0
 11
97.3932683887
 21
93.5031892414
 31
0.0
  0
ELLIPSE
  5
1C3
330
1F
100
AcDbEntity
  8
0
  6
HIDDEN
 62
     7
370
     0
100
AcDbEllipse
 10
92.0758365243
 20
109.3046796774
 30
0.0
 11
20.07002071827054
 21
-1.421085471520200E-14
 31
0.0
210
0.0
220
0.0
230
1.0
 40
0.8164965809
 41
4.921555463185703
 42
4.980534842098399
  0
LINE
  5
1C4
330
1F
100
AcDbEntity
  8
0
  6
HIDDEN
 62
     7
370
     0
100
AcDbLine
 10
96.2432683887
 20
125.3346150753
 30
0.0
 11
96.2432683887
 21
93.2747442796
 31
0.0
  0
LINE
  5
1C5
330
1F
100
AcDbEntity
  8
0
  6
HIDDEN
 62
     7
370
     0
100
AcDbLine
 10
96.2432683887
 20
91.3146796774
 30
0.0
 11
96.2432683887
 21
93.2747442796
 31
0.0
  0
SPLINE
  5
1C6
330
1F
100
AcDbEntity
  8
0
  6
HIDDEN
 62
     7
370
     0
100
AcDbSpline
210
0.0
220
0.0
230
1.0
 70
     8
 71
     3
 72
    10
 73
     6
 74
     0
 42
0.00000001
 43
0.00000001
 40
0.0
 40
0.0
 40
0.0
 40
0.0
 40
0.5
 40
0.5
 40
1.0
 40
1.0
 40
1.0
 40
1.0
 10
144.2332683886603
 20
136.4243335284551
 30
0.0
 10
144.2332683886603
 20
136.280721176897
 30
0.0
 10
144.2694356637581
 20
136.1377477631785
 30
0.0
 10
144.4051916075121
 20
135.8877551364647
 30
0.0
 10
144.505461298135
 20
135.7797528271859
 30
0.0
 10
144.6275659203513
 20
135.7046796774192
 30
0.0
  0
LINE
  5
1C7
330
1F
100
AcDbEntity
  8
0
  6
HIDDEN
 62
     7
370
     0
100
AcDbLine
 10
144.2332683887
 20
136.4243335285
 30
0.0
 11
144.2332683887
 21
82.5002840491
 31
0.0
  0
SPLINE
  5
1C8
330
1F
100
AcDbEntity
  8
0
  6
HIDDEN
 62
     7
370
     0
100
AcDbSpline
210
0.0
220
0.0
230
1.0
 70
     8
 71
     3
 72
    10
 73
     6
 74
     0
 42
0.00000001
 43
0.00000001
 40
0.0
 40
0.0
 40
0.0
 40
0.0
 40
0.5
 40
0.5
 40
1.0
 40
1.0
 40
1.0
 40
1.0
 10
144.2332683886603
 20
82.50028404908993
 30
0.0
 10
144.2332683886603
 20
82.57052040946044
 30
0.0
 10
144.2415510007507
 20
82.6405145109577
 30
0.0
 10
144.2746509438091
 20
82.77747377551617
 30
0.0
 10
144.2989883357674
 20
82.84278168477125
 30
0.0
 10
144.3309431909919
 20
82.90467967741799
 30
0.0
  0
SPLINE
  5
1C9
330
1F
100
AcDbEntity
  8
0
  6
HIDDEN
 62
     7
370
     0
100
AcDbSpline
210
0.0
220
0.0
230
1.0
 70
    24
 71
     3
 72
    12
 73
     8
 74
     0
 42
0.00000001
 43
0.00000001
 40
0.0
 40
0.0
 40
0.0
 40
0.0
 40
0.499999999999996
 40
0.499999999999996
 40
0.749999999999998
 40
0.749999999999998
 40
1.0
 40
1.0
 40
1.0
 40
1.0
 10
144.6275659203512
 20
135.7046796774193
 30
0.0
 10
144.6706892687848
 20
135.7046796774193
 30
0.0
 10
144.720428856085
 20
135.7046796774193
 30
0.0
 10
144.816949832907
 20
135.7046796774193
 30
0.0
 10
144.8525149637586
 20
135.7046796774193
 30
0.0
 10
144.9358632943816
 20
135.7046796774193
 30
0.0
 10
144.984333194072
 20
135.7046796774193
 30
0.0
 10
145.0332683886615
 20
135.7046796774193
 30
0.0
  0
SPLINE
  5
1CA
330
1F
100
AcDbEntity
  8
0
  6
HIDDEN
 62
     7
370
     0
100
AcDbSpline
210
0.0
220
0.0
230
1.0
 70
    24
 71
     3
 72
    14
 73
    10
 74
     0
 42
0.00000001
 43
0.00000001
 40
0.0
 40
0.0
 40
0.0
 40
0.0
 40
0.5000000000000016
 40
0.5000000000000016
 40
0.7500000000000008
 40
0.7500000000000008
 40
0.8750000000000003
 40
0.8750000000000003
 40
1.0
 40
1.0
 40
1.0
 40
1.0
 10
144.3309431909925
 20
82.90467967741925
 30
0.0
 10
144.3781496788323
 20
82.90467967741925
 30
0.0
 10
144.4414896822616
 20
82.90467967741925
 30
0.0
 10
144.5845527885174
 20
82.90467967741925
 30
0.0
 10
144.6406334387885
 20
82.90467967741925
 30
0.0
 10
144.7520687886978
 20
82.90467967741925
 30
0.0
 10
144.7940135793708
 20
82.90467967741924
 30
0.0
 10
144.8990100223909
 20
82.90467967741924
 30
0.0
 10
144.9645739594717
 20
82.90467967741925
 30
0.0
 10
145.0332683886602
 20
82.90467967741925
 30
0.0
  0
LINE
  5
1CB
330
1F
100
AcDbEntity
  8
0
  6
HIDDEN
 62
     7
370
     0
100
AcDbLine
 10
148.0532683887
 20
136.4243335285
 30
0.0
 11
148.0532683887
 21
82.5002840491
 31
0.0
  0
SPLINE
  5
1CC
330
1F
100
AcDbEntity
  8
0
  6
HIDDEN
 62
     7
370
     0
100
AcDbSpline
210
0.0
220
0.0
230
1.0
 70
     8
 71
     3
 72
    10
 73
     6
 74
     0
 42
0.00000001
 43
0.00000001
 40
0.0
 40
0.0
 40
0.0
 40
0.0
 40
0.5
 40
0.5
 40
1.0
 40
1.0
 40
1.0
 40
1.0
 10
147.6589708569693
 20
135.7046796774193
 30
0.0
 10
147.7802833800671
 20
135.7792658237075
 30
0.0
 10
147.8817117422923
 20
135.8880901348589
 30
0.0
 10
148.0176553085524
 20
136.1391106534805
 30
0.0
 10
148.0532683886603
 20
136.2816933466198
 30
0.0
 10
148.0532683886603
 20
136.4243335284552
 30
0.0
  0
SPLINE
  5
1CD
330
1F
100
AcDbEntity
  8
0
  6
HIDDEN
 62
     7
370
     0
100
AcDbSpline
210
0.0
220
0.0
230
1.0
 70
     8
 71
     3
 72
    10
 73
     6
 74
     0
 42
0.00000001
 43
0.00000001
 40
0.0
 40
0.0
 40
0.0
 40
0.0
 40
0.5
 40
0.5
 40
1.0
 40
1.0
 40
1.0
 40
1.0
 10
147.955593586328
 20
82.90467967741928
 30
0.0
 10
147.98774877395
 20
82.84239363190315
 30
0.0
 10
148.0124050051443
 20
82.7758632070339
 30
0.0
 10
148.0452177620697
 20
82.6390045766714
 30
0.0
 10
148.0532683886603
 20
82.56994698149303
 30
0.0
 10
148.0532683886603
 20
82.5002840490897
 30
0.0
  0
SPLINE
  5
1CE
330
1F
100
AcDbEntity
  8
0
  6
HIDDEN
 62
     7
370
     0
100
AcDbSpline
210
0.0
220
0.0
230
1.0
 70
    24
 71
     3
 72
    12
 73
     8
 74
     0
 42
0.00000001
 43
0.00000001
 40
0.0
 40
0.0
 40
0.0
 40
0.0
 40
0.25
 40
0.25
 40
0.5
 40
0.5
 40
1.0
 40
1.0
 40
1.0
 40
1.0
 10
147.2532683886603
 20
135.7046796774193
 30
0.0
 10
147.3028034948782
 20
135.7046796774193
 30
0.0
 10
147.3512083834798
 20
135.7046796774193
 30
0.0
 10
147.4340949326574
 20
135.7046796774193
 30
0.0
 10
147.4706096541258
 20
135.7046796774193
 30
0.0
 10
147.5669424924805
 20
135.7046796774193
 30
0.0
 10
147.6156950401431
 20
135.7046796774193
 30
0.0
 10
147.6589708569738
 20
135.7046796774193
 30
0.0
  0
SPLINE
  5
1CF
330
1F
100
AcDbEntity
  8
0
  6
HIDDEN
 62
     7
370
     0
100
AcDbSpline
210
0.0
220
0.0
230
1.0
 70
    24
 71
     3
 72
    14
 73
    10
 74
     0
 42
0.00000001
 43
0.00000001
 40
0.0
 40
0.0
 40
0.0
 40
0.0
 40
0.1250000000000017
 40
0.1250000000000017
 40
0.2500000000000033
 40
0.2500000000000033
 40
0.5000000000000032
 40
0.5000000000000032
 40
1.0
 40
1.0
 40
1.0
 40
1.0
 10
147.2532683886603
 20
82.90467967741927
 30
0.0
 10
147.3223650210042
 20
82.90467967741927
 30
0.0
 10
147.3873581866123
 20
82.90467967741927
 30
0.0
 10
147.4916793852574
 20
82.90467967741927
 30
0.0
 10
147.5344597593659
 20
82.90467967741927
 30
0.0
 10
147.6467974190121
 20
82.90467967741927
 30
0.0
 10
147.7018446011544
 20
82.90467967741927
 30
0.0
 10
147.8457213749245
 20
82.90467967741927
 30
0.0
 10
147.9087506881996
 20
82.90467967741927
 30
0.0
 10
147.955593586328
 20
82.90467967741927
 30
0.0
  0
LINE
  5
1D0
330
1F
100
AcDbEntity
  8
0
  6
HIDDEN
 62
     7
370
     0
100
AcDbLine
 10
145.0332683887
 20
135.7046796774
 30
0.0
 11
147.2532683887
 21
135.7046796774
 31
0.0
  0
LINE
  5
1D1
330
1F
100
AcDbEntity
  8
0
  6
HIDDEN
 62
     7
370
     0
100
AcDbLine
 10
145.0332683887
 20
82.9046796774
 30
0.0
 11
147.2532683887
 21
82.9046796774
 31
0.0
  0
LINE
  5
1D2
330
1F
100
AcDbEntity
  8
0
  6
HIDDEN
 62
     7
370
     0
100
AcDbLine
 10
144.2332683887
 20
137.1099138686
 30
0.0
 11
144.2332683887
 21
136.4243335285
 31
0.0
  0
SPLINE
  5
1D3
330
1F
100
AcDbEntity
  8
0
  6
HIDDEN
 62
     7
370
     0
100
AcDbSpline
210
0.0
220
0.0
230
1.0
 70
     8
 71
     3
 72
     8
 73
     4
 74
     0
 42
0.00000001
 43
0.00000001
 40
0.0
 40
0.0
 40
0.0
 40
0.0
 40
1.0
 40
1.0
 40
1.0
 40
1.0
 10
142.7513355571712
 20
139.7718751505836
 30
0.0
 10
143.2464755865356
 20
138.8851955024033
 30
0.0
 10
143.7405582918145
 20
137.9979328667173
 30
0.0
 10
144.2332683886603
 20
137.1099138685909
 30
0.0
  0
LINE
  5
1D4
330
1F
100
AcDbEntity
  8
0
  6
HIDDEN
 62
     7
370
     0
100
AcDbLine
 10
141.0932683887
 20
135.7046796774
 30
0.0
 11
144.6275659204
 21
135.7046796774
 31
0.0
  0
SPLINE
  5
1D5
330
1F
100
AcDbEntity
  8
0
  6
HIDDEN
 62
     7
370
     0
100
AcDbSpline
210
0.0
220
0.0
230
1.0
 70
     8
 71
     3
 72
    12
 73
     8
 74
     0
 42
0.00000001
 43
0.00000001
 40
0.0
 40
0.0
 40
0.0
 40
0.0
 40
0.249999999999998
 40
0.249999999999998
 40
0.499999999999996
 40
0.499999999999996
 40
1.0
 40
1.0
 40
1.0
 40
1.0
 10
153.4932683886603
 20
139.7718751505835
 30
0.0
 10
153.5727613377085
 20
139.7718751505835
 30
0.0
 10
153.6538448390641
 20
139.7548724006227
 30
0.0
 10
153.8002752362019
 20
139.6908118595111
 30
0.0
 10
153.8668238460756
 20
139.6436532438725
 30
0.0
 10
154.0311137200493
 20
139.4704312111803
 30
0.0
 10
154.0932683886604
 20
139.310322120946
 30
0.0
 10
154.0932683886603
 20
139.1511200011826
 30
0.0
  0
SPLINE
  5
1D6
330
1F
100
AcDbEntity
  8
0
  6
HIDDEN
 62
     7
370
     0
100
AcDbSpline
210
0.0
220
0.0
230
1.0
 70
     8
 71
     3
 72
    12
 73
     8
 74
     0
 42
0.00000001
 43
0.00000001
 40
0.0
 40
0.0
 40
0.0
 40
0.0
 40
0.2500000000000018
 40
0.2500000000000018
 40
0.5000000000000037
 40
0.5000000000000037
 40
1.0
 40
1.0
 40
1.0
 40
1.0
 10
153.4932683886603
 20
79.11776198117215
 30
0.0
 10
153.5731493934074
 20
79.11776198117215
 30
0.0
 10
153.653743523678
 20
79.13487906743799
 30
0.0
 10
153.8003589695229
 20
79.19961517891309
 30
0.0
 10
153.8668601622669
 20
79.24707242179342
 30
0.0
 10
154.0325950634041
 20
79.42389686433292
 30
0.0
 10
154.0932683886603
 20
79.5841733715386
 30
0.0
 10
154.0932683886603
 20
79.74440227682638
 30
0.0
  0
LINE
  5
1D7
330
1F
100
AcDbEntity
  8
0
  6
HIDDEN
 62
     7
370
     0
100
AcDbLine
 10
154.0932683887
 20
139.1511200012
 30
0.0
 11
154.0932683887
 21
79.7444022768
 31
0.0
  0
LINE
  5
1D8
330
1F
100
AcDbEntity
  8
0
  6
HIDDEN
 62
     7
370
     0
100
AcDbLine
 10
148.0532683887
 20
136.4243335285
 30
0.0
 11
148.0532683887
 21
137.1099138686
 31
0.0
  0
SPLINE
  5
1D9
330
1F
100
AcDbEntity
  8
0
  6
HIDDEN
 62
     7
370
     0
100
AcDbSpline
210
0.0
220
0.0
230
1.0
 70
     8
 71
     3
 72
     8
 73
     4
 74
     0
 42
0.00000001
 43
0.00000001
 40
0.0
 40
0.0
 40
0.0
 40
0.0
 40
1.0
 40
1.0
 40
1.0
 40
1.0
 10
148.0532683886603
 20
137.1099138685909
 30
0.0
 10
148.5459784855061
 20
137.9979328667173
 30
0.0
 10
149.0400611907851
 20
138.8851955024033
 30
0.0
 10
149.5352012201494
 20
139.7718751505835
 30
0.0
  0
LINE
  5
1DA
330
1F
100
AcDbEntity
  8
0
  6
HIDDEN
 62
     7
370
     0
100
AcDbLine
 10
149.5352012201
 20
139.7718751506
 30
0.0
 11
153.4932683887
 21
139.7718751506
 31
0.0
  0
LINE
  5
1DB
330
1F
100
AcDbEntity
  8
0
  6
HIDDEN
 62
     7
370
     0
100
AcDbLine
 10
147.658970857
 20
135.7046796774
 30
0.0
 11
154.0932683887
 21
135.7046796774
 31
0.0
  0
LINE
  5
1DC
330
1F
100
AcDbEntity
  8
0
  6
HIDDEN
 62
     7
370
     0
100
AcDbLine
 10
154.0932683887
 20
139.1511200012
 30
0.0
 11
154.0932683887
 21
135.7046796774
 31
0.0
  0
LINE
  5
1DD
330
1F
100
AcDbEntity
  8
0
  6
HIDDEN
 62
     7
370
     0
100
AcDbLine
 10
144.2332683887
 20
137.1099138686
 30
0.0
 11
144.2332683887
 21
81.8068425184
 31
0.0
  0
LINE
  5
1DE
330
1F
100
AcDbEntity
  8
0
  6
HIDDEN
 62
     7
370
     0
100
AcDbLine
 10
149.5352012201
 20
139.7718751506
 30
0.0
 11
149.5352012201
 21
79.1177619812
 31
0.0
  0
LINE
  5
1DF
330
1F
100
AcDbEntity
  8
0
  6
HIDDEN
 62
     7
370
     0
100
AcDbLine
 10
148.0532683887
 20
137.1099138686
 30
0.0
 11
148.0532683887
 21
81.8068425184
 31
0.0
  0
LWPOLYLINE
  5
1E0
330
1F
100
AcDbEntity
  8
0
  6
HIDDEN
 62
     7
370
     0
100
AcDbPolyline
 90
       22
 70
   128
 43
0.0
 10
246.1432683887
 20
110.0172083304
 10
246.8801563247
 20
110.1228402618
 10
247.5515685338
 20
110.4303501953
 10
248.0978470948
 20
110.9124145239
 10
248.4704527603
 20
111.5261997164
 10
248.6362778816
 20
112.217168265
 10
248.5805881691
 20
112.9239245818
 10
248.3083318981
 20
113.5836702665
 10
247.8437002331
 20
114.1377840199
 10
247.2279777365
 20
114.5370304032
 10
246.5158740541
 20
114.7459346232
 10
245.7706627232
 20
114.7459346232
 10
245.0585590409
 20
114.5370304032
 10
244.4428365442
 20
114.1377840199
 10
243.9782048792
 20
113.5836702665
 10
243.7059486082
 20
112.9239245818
 10
243.6502588957
 20
112.217168265
 10
243.816084017
 20
111.5261997164
 10
244.1886896825
 20
110.9124145239
 10
244.7349682435
 20
110.4303501953
 10
245.4063804526
 20
110.1228402618
 10
246.1432683887
 20
110.0172083304
  0
SPLINE
  5
1E1
330
1F
100
AcDbEntity
  8
0
  6
HIDDEN
 62
     7
370
     0
100
AcDbSpline
210
0.0
220
0.0
230
1.0
 70
     8
 71
     3
 72
    26
 73
    22
 74
     0
 42
0.00000001
 43
0.00000001
 40
0.0
 40
0.0
 40
0.0
 40
0.0
 40
0.2499999999999852
 40
0.2499999999999852
 40
0.3749999999999764
 40
0.3749999999999764
 40
0.437499999999975
 40
0.437499999999975
 40
0.4687499999999755
 40
0.4687499999999755
 40
0.499999999999976
 40
0.499999999999976
 40
0.5312499999999765
 40
0.5312499999999765
 40
0.562499999999977
 40
0.562499999999977
 40
0.6249999999999795
 40
0.6249999999999795
 40
0.7499999999999866
 40
0.7499999999999866
 40
1.0
 40
1.0
 40
1.0
 40
1.0
 10
97.06742203476465
 20
129.6947990110171
 30
0.0
 10
97.02882151189617
 20
129.5770243146617
 30
0.0
 10
96.98252450934189
 20
129.4526346284997
 30
0.0
 10
96.88858516090795
 20
129.2474152961462
 30
0.0
 10
96.8532736939945
 20
129.1758424296998
 30
0.0
 10
96.78709371824878
 20
129.0598891970994
 30
0.0
 10
96.7625553515806
 20
129.0193046622892
 30
0.0
 10
96.71918260602675
 20
128.9551629804174
 30
0.0
 10
96.70367420460154
 20
128.9332965551324
 30
0.0
 10
96.66863156001449
 20
128.8877022867891
 30
0.0
 10
96.64908126929491
 20
128.864031995822
 30
0.0
 10
96.60715398892431
 20
128.8194154364821
 30
0.0
 10
96.58450187869289
 20
128.7985354239644
 30
0.0
 10
96.54352816460626
 20
128.7676620102135
 30
0.0
 10
96.52592886471106
 20
128.7578231403812
 30
0.0
 10
96.48130187885478
 20
128.7388335246849
 30
0.0
 10
96.46074265620148
 20
128.7385092000314
 30
0.0
 10
96.40961721670475
 20
128.7477326409075
 30
0.0
 10
96.3887058037162
 20
128.7689795371245
 30
0.0
 10
96.33725589615517
 20
128.8429484159552
 30
0.0
 10
96.31959059685062
 20
128.90906650927
 30
0.0
 10
96.30593176338378
 20
128.9792322222002
 30
0.0
  0
SPLINE
  5
1E2
330
1F
100
AcDbEntity
  8
0
  6
HIDDEN
 62
     7
370
     0
100
AcDbSpline
210
0.0
220
0.0
230
1.0
 70
     8
 71
     3
 72
    26
 73
    22
 74
     0
 42
0.00000001
 43
0.00000001
 40
0.0
 40
0.0
 40
0.0
 40
0.0
 40
0.2499999999999895
 40
0.2499999999999895
 40
0.3749999999999851
 40
0.3749999999999851
 40
0.4374999999999835
 40
0.4374999999999835
 40
0.4687499999999837
 40
0.4687499999999837
 40
0.4999999999999838
 40
0.4999999999999838
 40
0.531249999999984
 40
0.531249999999984
 40
0.5624999999999842
 40
0.5624999999999842
 40
0.6249999999999858
 40
0.6249999999999858
 40
0.7499999999999899
 40
0.7499999999999899
 40
1.0
 40
1.0
 40
1.0
 40
1.0
 10
96.27354600426897
 20
89.71459211719238
 30
0.0
 10
96.28427003766149
 20
89.81755315768133
 30
0.0
 10
96.29900302825604
 20
89.91655184716238
 30
0.0
 10
96.35135658750306
 20
90.0351475272275
 30
0.0
 10
96.37306187022268
 20
90.07085782717627
 30
0.0
 10
96.4319173775881
 20
90.09583725999796
 30
0.0
 10
96.45537961143525
 20
90.10022270776153
 30
0.0
 10
96.51150098809588
 20
90.08046987431736
 30
0.0
 10
96.53428829822641
 20
90.06881348350701
 30
0.0
 10
96.58954085075761
 20
90.0270331340698
 30
0.0
 10
96.62094708349827
 20
89.99676154669395
 30
0.0
 10
96.67588090411874
 20
89.93511914777996
 30
0.0
 10
96.7003047223182
 20
89.90367749547318
 30
0.0
 10
96.74371982830543
 20
89.84394265805942
 30
0.0
 10
96.7632943908737
 20
89.8147776481868
 30
0.0
 10
96.81692707482172
 20
89.73094237245371
 30
0.0
 10
96.84670442287391
 20
89.6789097544775
 30
0.0
 10
96.92823848284674
 20
89.5278440805101
 30
0.0
 10
96.97148127752077
 20
89.43465303863938
 30
0.0
 10
97.08453586717552
 20
89.170266499645
 30
0.0
 10
97.13854686465467
 20
89.01130833059511
 30
0.0
 10
97.18217795885872
 20
88.86075737445425
 30
0.0
  0
LINE
  5
1E3
330
1F
100
AcDbEntity
  8
0
  6
HIDDEN
 62
     7
370
     0
100
AcDbLine
 10
96.2432683887
 20
128.9953574239
 30
0.0
 11
96.2432683887
 21
89.6515191525
 31
0.0
  0
LINE
  5
1E4
330
1F
100
AcDbEntity
  8
0
  6
HIDDEN
 62
     7
370
     0
100
AcDbLine
 10
148.0532683887
 20
82.5002840491
 30
0.0
 11
148.0532683887
 21
81.8068425184
 31
0.0
  0
SPLINE
  5
1E5
330
1F
100
AcDbEntity
  8
0
  6
HIDDEN
 62
     7
370
     0
100
AcDbSpline
210
0.0
220
0.0
230
1.0
 70
     8
 71
     3
 72
     8
 73
     4
 74
     0
 42
0.00000001
 43
0.00000001
 40
0.0
 40
0.0
 40
0.0
 40
0.0
 40
1.0
 40
1.0
 40
1.0
 40
1.0
 10
148.0532683886603
 20
81.80684251836439
 30
0.0
 10
148.5456075114415
 20
80.90957248415769
 30
0.0
 10
149.0397215594836
 20
80.01328806910546
 30
0.0
 10
149.5352012201494
 20
79.11776198117211
 30
0.0
  0
LINE
  5
1E6
330
1F
100
AcDbEntity
  8
0
  6
HIDDEN
 62
     7
370
     0
100
AcDbLine
 10
149.5352012201
 20
79.1177619812
 30
0.0
 11
153.4932683887
 21
79.1177619812
 31
0.0
  0
LINE
  5
1E7
330
1F
100
AcDbEntity
  8
0
  6
HIDDEN
 62
     7
370
     0
100
AcDbLine
 10
147.9555935863
 20
82.9046796774
 30
0.0
 11
154.0932683887
 21
82.9046796774
 31
0.0
  0
LINE
  5
1E8
330
1F
100
AcDbEntity
  8
0
  6
HIDDEN
 62
     7
370
     0
100
AcDbLine
 10
154.0932683887
 20
79.7444022768
 30
0.0
 11
154.0932683887
 21
82.9046796774
 31
0.0
  0
LINE
  5
1E9
330
1F
100
AcDbEntity
  8
0
  6
HIDDEN
 62
     7
370
     0
100
AcDbLine
 10
144.2332683887
 20
81.8068425184
 30
0.0
 11
144.2332683887
 21
82.5002840491
 31
0.0
  0
SPLINE
  5
1EA
330
1F
100
AcDbEntity
  8
0
  6
HIDDEN
 62
     7
370
     0
100
AcDbSpline
210
0.0
220
0.0
230
1.0
 70
     8
 71
     3
 72
     8
 73
     4
 74
     0
 42
0.00000001
 43
0.00000001
 40
0.0
 40
0.0
 40
0.0
 40
0.0
 40
1.0
 40
1.0
 40
1.0
 40
1.0
 10
142.7513355571712
 20
79.11776198117212
 30
0.0
 10
143.246815217837
 20
80.01328806910547
 30
0.0
 10
143.7409292658791
 20
80.9095724841577
 30
0.0
 10
144.2332683886603
 20
81.80684251836439
 30
0.0
  0
LINE
  5
1EB
330
1F
100
AcDbEntity
  8
0
  6
HIDDEN
 62
     7
370
     0
100
AcDbLine
 10
141.0932683887
 20
82.9046796774
 30
0.0
 11
144.330943191
 21
82.9046796774
 31
0.0
  0
ARC
  5
1EC
330
1F
100
AcDbEntity
  8
0
  6
HIDDEN
 62
     7
370
     0
100
AcDbCircle
 10
135.1432683887
 20
109.3046796774
 30
0.0
 40
4.999999999999977
100
AcDbArc
 50
306.157008201
 51
53.842991799
  0
SPLINE
  5
1ED
330
1F
100
AcDbEntity
  8
0
  6
HIDDEN
 62
     7
370
     0
100
AcDbSpline
210
0.0
220
0.0
230
1.0
 70
    24
 71
     3
 72
    10
 73
     6
 74
     0
 42
0.00000001
 43
0.00000001
 40
0.0
 40
0.0
 40
0.0
 40
0.0
 40
0.5
 40
0.5
 40
1.0
 40
1.0
 40
1.0
 40
1.0
 10
138.0932683886602
 20
105.6457864021241
 30
0.0
 10
138.0932683886602
 20
105.5560682732782
 30
0.0
 10
138.0932683886603
 20
105.4669995487197
 30
0.0
 10
138.0932683886603
 20
105.3207629289595
 30
0.0
 10
138.0932683886603
 20
105.2676634525318
 30
0.0
 10
138.0932683886603
 20
105.2676634525318
 30
0.0
  0
SPLINE
  5
1EE
330
1F
100
AcDbEntity
  8
0
  6
HIDDEN
 62
     7
370
     0
100
AcDbSpline
210
0.0
220
0.0
230
1.0
 70
    24
 71
     3
 72
    10
 73
     6
 74
     0
 42
0.00000001
 43
0.00000001
 40
0.0
 40
0.0
 40
0.0
 40
0.0
 40
0.500000000000001
 40
0.500000000000001
 40
1.0
 40
1.0
 40
1.0
 40
1.0
 10
138.0932683886602
 20
113.3416959023062
 30
0.0
 10
138.0932683886602
 20
113.3416959023062
 30
0.0
 10
138.0932683886603
 20
113.2891006585058
 30
0.0
 10
138.0932683886603
 20
113.1425765637946
 30
0.0
 10
138.0932683886602
 20
113.0531865337402
 30
0.0
 10
138.0932683886602
 20
112.9635729527144
 30
0.0
  0
LINE
  5
1EF
330
1F
100
AcDbEntity
  8
0
  6
HIDDEN
 62
     7
370
     0
100
AcDbLine
 10
138.0932683887
 20
112.9635729527
 30
0.0
 11
138.0932683887
 21
105.6457864021
 31
0.0
  0
LWPOLYLINE
  5
1F0
330
1F
100
AcDbEntity
  8
0
  6
HIDDEN
 62
     7
370
     0
100
AcDbPolyline
 90
        2
 70
   128
 43
0.0
 10
138.0932683887
 20
105.2676634525
 10
138.0932683887
 20
105.2676634525
  0
LWPOLYLINE
  5
1F1
330
1F
100
AcDbEntity
  8
0
  6
HIDDEN
 62
     7
370
     0
100
AcDbPolyline
 90
        2
 70
   128
 43
0.0
 10
138.0932683887
 20
113.3416959023
 10
138.0932683887
 20
113.3416959023
  0
SPLINE
  5
1F2
330
1F
100
AcDbEntity
  8
0
  6
HIDDEN
 62
     7
370
     0
100
AcDbSpline
210
0.0
220
0.0
230
1.0
 70
     8
 71
     3
 72
    22
 73
    18
 74
     0
 42
0.00000001
 43
0.00000001
 40
0.0
 40
0.0
 40
0.0
 40
0.0
 40
0.2500000000000232
 40
0.2500000000000232
 40
0.3750000000000348
 40
0.3750000000000348
 40
0.4375000000000313
 40
0.4375000000000313
 40
0.5000000000000278
 40
0.5000000000000278
 40
0.5625000000000242
 40
0.5625000000000242
 40
0.6250000000000207
 40
0.6250000000000207
 40
0.7500000000000137
 40
0.7500000000000137
 40
1.0
 40
1.0
 40
1.0
 40
1.0
 10
279.3255787447972
 20
95.50665496803808
 30
0.0
 10
279.6032446973535
 20
95.55980044654049
 30
0.0
 10
279.880772013362
 20
95.61681150888573
 30
0.0
 10
280.3048815959821
 20
95.69485949902321
 30
0.0
 10
280.4471835033191
 20
95.72018116118106
 30
0.0
 10
280.6697810265232
 20
95.74319623830714
 30
0.0
 10
280.7450297657862
 20
95.74825747679611
 30
0.0
 10
280.901225702955
 20
95.74320848793948
 30
0.0
 10
280.981636963638
 20
95.7320875141344
 30
0.0
 10
281.1364163055168
 20
95.68169229456576
 30
0.0
 10
281.2083369184066
 20
95.64332906722373
 30
0.0
 10
281.3383841548535
 20
95.55715392105915
 30
0.0
 10
281.397354486055
 20
95.50982086572091
 30
0.0
 10
281.5678093390948
 20
95.36350955089904
 30
0.0
 10
281.6725225930815
 20
95.2606922613062
 30
0.0
 10
281.9817166512377
 20
94.953567721379
 30
0.0
 10
282.1812139866943
 20
94.7478025884257
 30
0.0
 10
282.3830559103384
 20
94.54498442217843
 30
0.0
  0
LINE
  5
1F3
330
1F
100
AcDbEntity
  8
0
  6
HIDDEN
 62
     7
370
     0
100
AcDbLine
 10
284.4376802436
 20
98.711947252
 30
0.0
 11
284.2406107329
 21
98.036675197
 31
0.0
  0
ELLIPSE
  5
1F4
330
1F
100
AcDbEntity
  8
0
  6
HIDDEN
 62
     7
370
     0
100
AcDbEllipse
 10
1038.3433778573
 20
-127.3131915259
 30
0.0
 11
-909.5335854125763
 21
286.0762688334178
 31
2.842170943040401E-14
210
2.843554716143167E-17
220
-8.943853602161416E-18
230
1.0
 40
0.0209761762
 41
0.5667651897351494
 42
0.5999036513365796
  0
SPLINE
  5
1F5
330
1F
100
AcDbEntity
  8
0
  6
HIDDEN
 62
     7
370
     0
100
AcDbSpline
210
0.0
220
0.0
230
1.0
 70
     8
 71
     3
 72
    16
 73
    12
 74
     0
 42
0.00000001
 43
0.00000001
 40
0.0
 40
0.0
 40
0.0
 40
0.0
 40
0.25
 40
0.25
 40
0.375
 40
0.375
 40
0.5
 40
0.5
 40
0.75
 40
0.75
 40
1.0
 40
1.0
 40
1.0
 40
1.0
 10
267.8006288300671
 20
103.7894362043455
 30
0.0
 10
267.464771513513
 20
103.9073660611455
 30
0.0
 10
267.1193390638921
 20
103.9667069212091
 30
0.0
 10
266.588393442485
 20
103.9774153533336
 30
0.0
 10
266.4109857820445
 20
103.9677122227093
 30
0.0
 10
266.0626154495895
 20
103.9260149539392
 30
0.0
 10
265.8904524749244
 20
103.8940487640828
 30
0.0
 10
265.3791644296132
 20
103.7695569304799
 30
0.0
 10
265.0438543652156
 20
103.647543040747
 30
0.0
 10
264.4073733524858
 20
103.3558468343999
 30
0.0
 10
264.1025998590694
 20
103.1853432870723
 30
0.0
 10
263.8083269569458
 20
102.9956152284748
 30
0.0
  0
LINE
  5
1F6
330
1F
100
AcDbEntity
  8
0
  6
HIDDEN
 62
     7
370
     0
100
AcDbLine
 10
128.1432683887
 20
83.9807557563
 30
0.0
 11
128.2374292299
 21
84.6507449551
 31
0.0
  0
LINE
  5
1F7
330
1F
100
AcDbEntity
  8
0
  6
HIDDEN
 62
     7
370
     0
100
AcDbLine
 10
128.2374292299
 20
133.9586143997
 30
0.0
 11
128.1432683887
 21
134.6286035985
 31
0.0
  0
ARC
  5
1F8
330
1F
100
AcDbEntity
  8
0
  6
HIDDEN
 62
     7
370
     0
100
AcDbCircle
 10
127.6432683887
 20
84.7342488157
 30
0.0
 40
0.6000000000000174
100
AcDbArc
 50
352.0
 51
0.0
  0
ARC
  5
1F9
330
1F
100
AcDbEntity
  8
0
  6
HIDDEN
 62
     7
370
     0
100
AcDbCircle
 10
127.6432683887
 20
84.7342488157
 30
0.0
 40
0.6000000000000218
100
AcDbArc
 50
0.0
 51
33.5573097619
  0
ARC
  5
1FA
330
1F
100
AcDbEntity
  8
0
  6
HIDDEN
 62
     7
370
     0
100
AcDbCircle
 10
127.6432683887
 20
133.8751105391
 30
0.0
 40
0.6000000000000154
100
AcDbArc
 50
348.75
 51
8.0
  0
LWPOLYLINE
  5
1FB
330
1F
100
AcDbEntity
  8
0
  6
HIDDEN
 62
     7
370
     0
100
AcDbPolyline
 90
        3
 70
   128
 43
0.0
 10
128.2317395569
 20
133.7580563459
 10
128.1975961082
 20
133.6455004797
 10
128.1432683887
 20
133.5434480601
  0
LINE
  5
1FC
330
1F
100
AcDbEntity
  8
0
  6
HIDDEN
 62
     7
370
     0
100
AcDbLine
 10
128.2432683887
 20
84.7342488157
 30
0.0
 11
128.2432683887
 21
133.8751105391
 31
0.0
  0
LINE
  5
1FD
330
1F
100
AcDbEntity
  8
0
  6
HIDDEN
 62
     7
370
     0
100
AcDbLine
 10
128.2432683887
 20
84.7342488157
 30
0.0
 11
128.2432683887
 21
133.8751105391
 31
0.0
  0
ARC
  5
1FE
330
1F
100
AcDbEntity
  8
0
  6
HIDDEN
 62
     7
370
     0
100
AcDbCircle
 10
111.225703954
 20
89.9046796774
 30
0.0
 40
0.6000000000000085
100
AcDbArc
 50
210.0
 51
270.0
  0
ARC
  5
1FF
330
1F
100
AcDbEntity
  8
0
  6
HIDDEN
 62
     7
370
     0
100
AcDbCircle
 10
111.225703954
 20
128.7046796774
 30
0.0
 40
0.6000000000000227
100
AcDbArc
 50
90.0
 51
150.0
  0
ARC
  5
200
330
1F
100
AcDbEntity
  8
0
  6
HIDDEN
 62
     7
370
     0
100
AcDbCircle
 10
121.8982703903
 20
97.3046796774
 30
0.0
 40
8.000000000000004
100
AcDbArc
 50
277.0405357926
 51
321.3178125465
  0
ARC
  5
201
330
1F
100
AcDbEntity
  8
0
  6
HIDDEN
 62
     7
370
     0
100
AcDbCircle
 10
121.8982703903
 20
121.3046796774
 30
0.0
 40
8.000000000000002
100
AcDbArc
 50
38.6821874535
 51
82.9393842415
  0
LINE
  5
202
330
1F
100
AcDbEntity
  8
0
  6
HIDDEN
 62
     7
370
     0
100
AcDbLine
 10
111.225703954
 20
89.3046796774
 30
0.0
 11
115.4032405303
 21
89.3046796774
 31
0.0
  0
LINE
  5
203
330
1F
100
AcDbEntity
  8
0
  6
HIDDEN
 62
     7
370
     0
100
AcDbLine
 10
115.4032405303
 20
129.3046796774
 30
0.0
 11
111.225703954
 21
129.3046796774
 31
0.0
  0
LINE
  5
204
330
1F
100
AcDbEntity
  8
0
  6
HIDDEN
 62
     7
370
     0
100
AcDbLine
 10
110.7060887117
 20
129.0046796774
 30
0.0
 11
109.1472429849
 21
126.3046796774
 31
0.0
  0
LINE
  5
205
330
1F
100
AcDbEntity
  8
0
  6
HIDDEN
 62
     7
370
     0
100
AcDbLine
 10
109.1472429849
 20
92.3046796774
 30
0.0
 11
110.7060887117
 21
89.6046796774
 31
0.0
  0
ARC
  5
206
330
1F
100
AcDbEntity
  8
0
  6
HIDDEN
 62
     7
370
     0
100
AcDbCircle
 10
136.5932683887
 20
93.5796796774
 30
0.0
 40
1.500000000000028
100
AcDbArc
 50
238.211669383
 51
0.0
  0
ARC
  5
207
330
1F
100
AcDbEntity
  8
0
  6
HIDDEN
 62
     7
370
     0
100
AcDbCircle
 10
136.5932683887
 20
125.0296796774
 30
0.0
 40
1.500000000000028
100
AcDbArc
 50
0.0
 51
121.788330617
  0
LINE
  5
208
330
1F
100
AcDbEntity
  8
0
  6
HIDDEN
 62
     7
370
     0
100
AcDbLine
 10
106.3432683887
 20
92.3046796774
 30
0.0
 11
109.1472429849
 21
92.3046796774
 31
0.0
  0
LINE
  5
209
330
1F
100
AcDbEntity
  8
0
  6
HIDDEN
 62
     7
370
     0
100
AcDbLine
 10
109.1472429849
 20
126.3046796774
 30
0.0
 11
102.3432683887
 21
126.3046796774
 31
0.0
  0
LINE
  5
20A
330
1F
100
AcDbEntity
  8
0
  6
HIDDEN
 62
     7
370
     0
100
AcDbLine
 10
128.1432683887
 20
92.3046796774
 30
0.0
 11
135.8030943572
 21
92.3046796774
 31
0.0
  0
LINE
  5
20B
330
1F
100
AcDbEntity
  8
0
  6
HIDDEN
 62
     7
370
     0
100
AcDbLine
 10
135.8030943572
 20
126.3046796774
 30
0.0
 11
128.1432683887
 21
126.3046796774
 31
0.0
  0
LINE
  5
20C
330
1F
100
AcDbEntity
  8
0
  6
HIDDEN
 62
     7
370
     0
100
AcDbLine
 10
248.2432683887
 20
106.4945741107
 30
0.0
 11
248.2432683887
 21
108.0078036201
 31
0.0
  0
LINE
  5
20D
330
1F
100
AcDbEntity
  8
0
  6
HIDDEN
 62
     7
370
     0
100
AcDbLine
 10
248.2432683887
 20
105.2874587505
 30
0.0
 11
248.2432683887
 21
105.3179366148
 31
0.0
  0
LINE
  5
20E
330
1F
100
AcDbEntity
  8
0
  6
HIDDEN
 62
     7
370
     0
100
AcDbLine
 10
244.0432683887
 20
108.0070610454
 30
0.0
 11
244.0432683887
 21
105.2874587505
 31
0.0
  0
LINE
  5
20F
330
1F
100
AcDbEntity
  8
0
  6
HIDDEN
 62
     7
370
     0
100
AcDbLine
 10
252.9270456293
 20
105.1448010654
 30
0.0
 11
247.4050491752
 21
107.6517349951
 31
0.0
  0
LINE
  5
210
330
1F
100
AcDbEntity
  8
0
  6
HIDDEN
 62
     7
370
     0
100
AcDbLine
 10
245.9265137072
 20
103.7104134147
 30
0.0
 11
252.9493741718
 21
100.5221014828
 31
0.0
  0
LINE
  5
211
330
1F
100
AcDbEntity
  8
0
  6
HIDDEN
 62
     7
370
     0
100
AcDbLine
 10
147.4432683887
 20
99.8046796774
 30
0.0
 11
149.9432683887
 21
99.8046796774
 31
0.0
  0
LINE
  5
212
330
1F
100
AcDbEntity
  8
0
  6
HIDDEN
 62
     7
370
     0
100
AcDbLine
 10
149.9432683887
 20
118.8046796774
 30
0.0
 11
147.4432683887
 21
118.8046796774
 31
0.0
  0
LINE
  5
213
330
1F
100
AcDbEntity
  8
0
  6
HIDDEN
 62
     7
370
     0
100
AcDbLine
 10
138.0932683887
 20
100.3046796774
 30
0.0
 11
138.5932683887
 21
100.8046796774
 31
0.0
  0
LINE
  5
214
330
1F
100
AcDbEntity
  8
0
  6
HIDDEN
 62
     7
370
     0
100
AcDbLine
 10
138.5932683887
 20
117.8046796774
 30
0.0
 11
138.0932683887
 21
118.3046796774
 31
0.0
  0
LINE
  5
215
330
1F
100
AcDbEntity
  8
0
  6
HIDDEN
 62
     7
370
     0
100
AcDbLine
 10
138.5932683887
 20
100.8046796774
 30
0.0
 11
147.4432683887
 21
100.8046796774
 31
0.0
  0
LINE
  5
216
330
1F
100
AcDbEntity
  8
0
  6
HIDDEN
 62
     7
370
     0
100
AcDbLine
 10
147.4432683887
 20
117.8046796774
 30
0.0
 11
138.5932683887
 21
117.8046796774
 31
0.0
  0
LINE
  5
217
330
1F
100
AcDbEntity
  8
0
  6
HIDDEN
 62
     7
370
     0
100
AcDbLine
 10
133.0932683887
 20
140.8046796774
 30
0.0
 11
133.0932683887
 21
135.7046796774
 31
0.0
  0
LINE
  5
218
330
1F
100
AcDbEntity
  8
0
  6
HIDDEN
 62
     7
370
     0
100
AcDbLine
 10
123.3277062191
 20
85.2253083439
 30
0.0
 11
122.8932740696
 21
85.704374363
 31
0.0
  0
LINE
  5
219
330
1F
100
AcDbEntity
  8
0
  6
HIDDEN
 62
     7
370
     0
100
AcDbLine
 10
115.3932707446
 20
86.1260623221
 30
0.0
 11
114.9108370012
 21
85.6469963467
 31
0.0
  0
LINE
  5
21A
330
1F
100
AcDbEntity
  8
0
  6
HIDDEN
 62
     7
370
     0
100
AcDbLine
 10
114.910715073
 20
132.9623577177
 30
0.0
 11
115.393265824
 21
132.4832374598
 31
0.0
  0
LINE
  5
21B
330
1F
100
AcDbEntity
  8
0
  6
HIDDEN
 62
     7
370
     0
100
AcDbLine
 10
122.8932682707
 20
132.9049352375
 30
0.0
 11
123.327810661
 21
133.3840554881
 31
0.0
  0
LINE
  5
21C
330
1F
100
AcDbEntity
  8
0
  6
HIDDEN
 62
     7
370
     0
100
AcDbLine
 10
249.1432683887
 20
105.1046796774
 30
0.0
 11
251.6668829886
 21
109.3046796774
 31
0.0
  0
LINE
  5
21D
330
1F
100
AcDbEntity
  8
0
  6
HIDDEN
 62
     7
370
     0
100
AcDbLine
 10
251.6668829886
 20
109.3046796774
 30
0.0
 11
249.1432683887
 21
113.5046796774
 31
0.0
  0
LINE
  5
21E
330
1F
100
AcDbEntity
  8
0
  6
HIDDEN
 62
     7
370
     0
100
AcDbLine
 10
149.9432683887
 20
105.1046796774
 30
0.0
 11
249.1432683887
 21
105.1046796774
 31
0.0
  0
LINE
  5
21F
330
1F
100
AcDbEntity
  8
0
  6
HIDDEN
 62
     7
370
     0
100
AcDbLine
 10
249.1432683887
 20
113.5046796774
 30
0.0
 11
149.9432683887
 21
113.5046796774
 31
0.0
  0
LINE
  5
220
330
1F
100
AcDbEntity
  8
0
  6
HIDDEN
 62
     7
370
     0
100
AcDbLine
 10
122.8932683887
 20
129.2417525035
 30
0.0
 11
122.8932683887
 21
133.0049657382
 31
0.0
  0
LINE
  5
221
330
1F
100
AcDbEntity
  8
0
  6
HIDDEN
 62
     7
370
     0
100
AcDbLine
 10
115.3932683887
 20
132.4829822686
 30
0.0
 11
115.3932683887
 21
129.3028174318
 31
0.0
  0
LINE
  5
222
330
1F
100
AcDbEntity
  8
0
  6
HIDDEN
 62
     7
370
     0
100
AcDbLine
 10
122.8932683887
 20
85.6043148175
 30
0.0
 11
122.8932683887
 21
89.3676068514
 31
0.0
  0
LINE
  5
223
330
1F
100
AcDbEntity
  8
0
  6
HIDDEN
 62
     7
370
     0
100
AcDbLine
 10
115.3932683887
 20
89.306541923
 30
0.0
 11
115.3932683887
 21
86.1263855599
 31
0.0
  0
LINE
  5
224
330
1F
100
AcDbEntity
  8
0
  6
HIDDEN
 62
     7
370
     0
100
AcDbLine
 10
273.9512854341
 20
102.5433317682
 30
0.0
 11
273.9512854341
 21
102.4386970576
 31
0.0
  0
LINE
  5
225
330
1F
100
AcDbEntity
  8
0
  6
HIDDEN
 62
     7
370
     0
100
AcDbLine
 10
248.2432683887
 20
110.6014896614
 30
0.0
 11
248.2432683887
 21
112.3205791642
 31
0.0
  0
LINE
  5
226
330
1F
100
AcDbEntity
  8
0
  6
HIDDEN
 62
     7
370
     0
100
AcDbLine
 10
244.0432683887
 20
112.3205791642
 30
0.0
 11
244.0432683887
 21
110.6020517618
 31
0.0
  0
LINE
  5
227
330
1F
100
AcDbEntity
  8
0
  6
HIDDEN
 62
     7
370
     0
100
AcDbLine
 10
282.6219871844
 20
94.7877425571
 30
0.0
 11
282.6219871844
 21
95.3981117024
 31
0.0
  0
LINE
  5
228
330
1F
100
AcDbEntity
  8
0
  6
HIDDEN
 62
     7
370
     0
100
AcDbLine
 10
279.3219871844
 20
95.3888392834
 30
0.0
 11
279.3219871844
 21
94.7877425571
 31
0.0
  0
ARC
  5
229
330
1F
100
AcDbEntity
  8
0
  6
HIDDEN
 62
     7
370
     0
100
AcDbCircle
 10
100.9432683887
 20
131.5746796774
 30
0.0
 40
1.400000000000008
100
AcDbArc
 50
270.0
 51
301.7485287426
  0
ARC
  5
22A
330
1F
100
AcDbEntity
  8
0
  6
HIDDEN
 62
     7
370
     0
100
AcDbCircle
 10
104.9432683887
 20
87.0921796774
 30
0.0
 40
1.399999999999999
100
AcDbArc
 50
37.6443616934
 51
90.0
  0
LINE
  5
22B
330
1F
100
AcDbEntity
  8
0
  6
HIDDEN
 62
     7
370
     0
100
AcDbLine
 10
100.9432683887
 20
130.1746796774
 30
0.0
 11
97.5341567901
 21
130.1746796774
 31
0.0
  0
LINE
  5
22C
330
1F
100
AcDbEntity
  8
0
  6
HIDDEN
 62
     7
370
     0
100
AcDbLine
 10
97.3932683887
 20
88.4921796774
 30
0.0
 11
104.9432683887
 21
88.4921796774
 31
0.0
  0
LINE
  5
22D
330
1F
100
AcDbEntity
  8
0
  6
HIDDEN
 62
     7
370
     0
100
AcDbLine
 10
97.3844318468
 20
130.1658431356
 30
0.0
 11
96.2544360079
 21
129.0358472966
 31
0.0
  0
LINE
  5
22E
330
1F
100
AcDbEntity
  8
0
  6
HIDDEN
 62
     7
370
     0
100
AcDbLine
 10
96.1703550374
 20
89.7150930287
 30
0.0
 11
97.3932683887
 21
88.4921796774
 31
0.0
  0
LINE
  5
22F
330
1F
100
AcDbEntity
  8
0
  6
HIDDEN
 62
     7
370
     0
100
AcDbLine
 10
248.6432683887
 20
112.3948496212
 30
0.0
 11
248.6432683887
 21
114.2487933398
 31
0.0
  0
LINE
  5
230
330
1F
100
AcDbEntity
  8
0
  6
HIDDEN
 62
     7
370
     0
100
AcDbLine
 10
243.6432683887
 20
114.2474672564
 30
0.0
 11
243.6432683887
 21
112.3948496212
 31
0.0
  0
LINE
  5
231
330
1F
100
AcDbEntity
  8
VERMASSUNG
100
AcDbLine
 10
288.1432683887
 20
109.3046796774
 30
0.0
 11
288.1432683887
 21
87.3046796774
 31
0.0
  0
DIMENSION
  5
232
330
1F
100
AcDbEntity
  8
VERMASSUNG
100
AcDbDimension
  2
*D1
 10
281.1029090408
 20
109.3046796774
 30
0.0
 11
283.6818667411
 21
115.9746879366
 31
0.0
 70
   162
 71
     1
 42
-1.0
  3
SLDDIMSTYLE0
100
AcDb2LineAngularDimension
 13
288.1432683887
 23
109.3046796774
 33
0.0
 14
288.1432683887
 24
87.3046796774
 34
0.0
 15
284.4362644399
 25
98.706811144
 35
0.0
 16
283.6818667411
 26
115.9746879366
 36
0.0
  0
DIMENSION
  5
23D
330
1F
100
AcDbEntity
  8
VERMASSUNG
100
AcDbDimension
  2
*D2
 10
128.1432683887
 20
145.1944493273
 30
0.0
 11
208.1432683887
 21
145.1944493273
 31
0.0
 70
   160
 71
     2
 42
-1.0
  3
SLDDIMSTYLE1
100
AcDbAlignedDimension
 13
288.1432683887
 23
109.3046796774
 33
0.0
 14
128.1432683887
 24
140.5046796774
 34
0.0
100
AcDbRotatedDimension
  0
DIMENSION
  5
248
330
1F
100
AcDbEntity
  8
VERMASSUNG
100
AcDbDimension
  2
*D3
 10
96.2432683887
 20
151.1944493273
 30
0.0
 11
192.1932683887
 21
151.1944493273
 31
0.0
 70
   160
 71
     2
 42
-1.0
  3
SLDDIMSTYLE1
100
AcDbAlignedDimension
 13
288.1432683887
 23
109.3046796774
 33
0.0
 14
96.2432683887
 24
128.9953574239
 34
0.0
100
AcDbRotatedDimension
  0
DIMENSION
  5
252
330
1F
100
AcDbEntity
  8
VERMASSUNG
100
AcDbDimension
  2
*D4
 10
292.7696767005
 20
109.3046796774
 30
0.0
 11
292.7696767005
 21
98.3046796774
 31
0.0
 70
   160
 71
     2
 42
-1.0
  3
SLDDIMSTYLE1
100
AcDbAlignedDimension
 13
288.1432683887
 23
87.3046796774
 33
0.0
 14
287.2856090323
 24
109.3046796774
 34
0.0
 50
90.0
100
AcDbRotatedDimension
  0
DIMENSION
  5
25C
330
1F
100
AcDbEntity
  8
VERMASSUNG
100
AcDbDimension
  2
*D5
 10
91.3093967787
 20
77.8046796774
 30
0.0
 11
91.3093967787
 21
109.3046796774
 31
0.0
 70
   160
  1
HSK %%c<>
 71
     2
 42
-1.0
  3
SLDDIMSTYLE1
100
AcDbAlignedDimension
 13
128.4432683887
 23
140.8046796774
 33
0.0
 14
128.4432683887
 24
77.8046796774
 34
0.0
 50
90.0
100
AcDbRotatedDimension
  0
LINE
  5
268
330
1F
100
AcDbEntity
  8
VERMASSUNG
  6
CENTERX2
370
     0
100
AcDbLine
 10
93.0912967742
 20
109.3046796774
 30
0.0
 11
287.2856090323
 21
109.3046796774
 31
0.0
  0
LINE
  5
269
330
1F
100
AcDbEntity
  8
0
  6
Continuous
 62
     7
370
    15
100
AcDbLine
 10
52.6307589291
 20
88.2956363162
 30
0.0
 11
51.9524801704
 21
97.9954744741
 31
0.0
  0
LINE
  5
26A
330
1F
100
AcDbEntity
  8
0
  6
Continuous
 62
     7
370
    15
100
AcDbLine
 10
48.6846441781
 20
87.8154258866
 30
0.0
 11
47.9753562048
 21
97.958716473
 31
0.0
  0
SPLINE
  5
26B
330
1F
100
AcDbEntity
  8
0
  6
Continuous
 62
     7
370
    15
100
AcDbSpline
210
0.0
220
0.0
230
1.0
 70
     8
 71
     3
 72
    10
 73
     6
 74
     0
 42
0.00000001
 43
0.00000001
 40
0.0
 40
0.0
 40
0.0
 40
0.0
 40
0.278094332876727
 40
0.5601464184569047
 40
1.0
 40
1.0
 40
1.0
 40
1.0
 10
52.63944411564347
 20
88.17143236229079
 30
0.0
 10
52.27977265091472
 20
88.08382335178132
 30
0.0
 10
51.55531098819444
 20
87.90735850636794
 30
0.0
 10
50.23557789612829
 20
87.65923193025941
 30
0.0
 10
49.2933467425408
 20
87.44877254848163
 30
0.0
 10
48.71924992294046
 20
87.32054067960992
 30
0.0
  0
SPLINE
  5
26C
330
1F
100
AcDbEntity
  8
0
  6
Continuous
 62
     7
370
    15
100
AcDbSpline
210
0.0
220
0.0
230
1.0
 70
    24
 71
     3
 72
    14
 73
    10
 74
     0
 42
0.00000001
 43
0.00000001
 40
0.0
 40
0.0
 40
0.0
 40
0.0
 40
0.1583203796596316
 40
0.3168008057738467
 40
0.471374481348786
 40
0.6221259069005086
 40
0.7721262731744203
 40
0.9245922366699003
 40
1.0
 40
1.0
 40
1.0
 40
1.0
 10
52.63075892911419
 20
88.29563631622345
 30
0.0
 10
52.63154639514519
 20
88.28437502732163
 30
0.0
 10
52.6331221232585
 20
88.26184106545382
 30
0.0
 10
52.63551112057903
 20
88.22767681210011
 30
0.0
 10
52.63754339809753
 20
88.19861388956286
 30
0.0
 10
52.63901532615079
 20
88.17756433772026
 30
0.0
 10
52.6397894271793
 20
88.16649417726238
 30
0.0
 10
52.63983510339609
 20
88.16584097693028
 30
0.0
 10
52.63954133064958
 20
88.1700421229335
 30
0.0
 10
52.63944411564348
 20
88.17143236229079
 30
0.0
  0
SPLINE
  5
26D
330
1F
100
AcDbEntity
  8
0
  6
Continuous
 62
     7
370
    15
100
AcDbSpline
210
0.0
220
0.0
230
1.0
 70
    24
 71
     3
 72
    20
 73
    16
 74
     0
 42
0.00000001
 43
0.00000001
 40
0.0
 40
0.0
 40
0.0
 40
0.0
 40
0.0783075311860366
 40
0.1588910126856281
 40
0.2369785693217482
 40
0.3174398160756661
 40
0.3936615824744799
 40
0.4721830276909373
 40
0.5469240757152505
 40
0.6238523130449106
 40
0.6983189620749024
 40
0.7748908420225014
 40
0.8503894607879252
 40
0.9279814901988602
 40
1.0
 40
1.0
 40
1.0
 40
1.0
 10
48.71924992294036
 20
87.32054067960986
 30
0.0
 10
48.71965218227403
 20
87.31478810313031
 30
0.0
 10
48.72046839231056
 20
87.3031157558025
 30
0.0
 10
48.72068273379662
 20
87.3000505297456
 30
0.0
 10
48.72012963163586
 20
87.30796025915161
 30
0.0
 10
48.71876852524834
 20
87.32742498733992
 30
0.0
 10
48.71664588188519
 20
87.35778020165974
 30
0.0
 10
48.71389159053065
 20
87.39716840308867
 30
0.0
 10
48.71053274253574
 20
87.4452021672768
 30
0.0
 10
48.70674537876028
 20
87.49936399262212
 30
0.0
 10
48.70255140604648
 20
87.5593405966874
 30
0.0
 10
48.69812559401839
 20
87.62263265742614
 30
0.0
 10
48.69350936936372
 20
87.68864774555085
 30
0.0
 10
48.68895910883578
 20
87.75371950276846
 30
0.0
 10
48.68604631779247
 20
87.79537435535099
 30
0.0
 10
48.68464417813436
 20
87.81542588664534
 30
0.0
  0
SPLINE
  5
26E
330
1F
100
AcDbEntity
  8
0
  6
Continuous
 62
     7
370
    15
100
AcDbSpline
210
0.0
220
0.0
230
1.0
 70
    24
 71
     3
 72
    10
 73
     6
 74
     0
 42
0.00000001
 43
0.00000001
 40
0.0
 40
0.0
 40
0.0
 40
0.0
 40
0.26571229572463
 40
0.616515762168233
 40
1.0
 40
1.0
 40
1.0
 40
1.0
 10
51.94795894843154
 20
98.06013096005552
 30
0.0
 10
51.94817816953384
 20
98.05699595223318
 30
0.0
 10
51.94868681466298
 20
98.04972198799405
 30
0.0
 10
51.95020290808925
 20
98.02804084189906
 30
0.0
 10
51.95169888918043
 20
98.00664731558628
 30
0.0
 10
51.95248017036658
 20
97.99547447408993
 30
0.0
  0
SPLINE
  5
26F
330
1F
100
AcDbEntity
  8
0
  6
Continuous
 62
     7
370
    15
100
AcDbSpline
210
0.0
220
0.0
230
1.0
 70
    24
 71
     3
 72
    10
 73
     6
 74
     0
 42
0.00000001
 43
0.00000001
 40
0.0
 40
0.0
 40
0.0
 40
0.0
 40
0.3518022785810583
 40
0.7034245935032221
 40
1.0
 40
1.0
 40
1.0
 40
1.0
 10
47.97535620481712
 20
97.95871647295483
 30
0.0
 10
47.97248404775323
 20
97.99979023256233
 30
0.0
 10
47.96674120287091
 20
98.08191674058864
 30
0.0
 10
47.96045867746199
 20
98.17176103971084
 30
0.0
 10
47.95827216395657
 20
98.20302963961761
 30
0.0
 10
47.95727174986956
 20
98.21733622759454
 30
0.0
  0
LINE
  5
270
330
1F
100
AcDbEntity
  8
0
  6
Continuous
 62
     7
370
    15
100
AcDbLine
 10
48.0359171491
 20
101.3933307277
 30
0.0
 11
47.7336341109
 21
101.4155034647
 31
0.0
  0
LINE
  5
271
330
1F
100
AcDbEntity
  8
0
  6
Continuous
 62
     7
370
    15
100
AcDbLine
 10
47.9572717499
 20
98.2173362276
 30
0.0
 11
47.7336341109
 21
101.4155034647
 31
0.0
  0
LINE
  5
272
330
1F
100
AcDbEntity
  8
0
  6
Continuous
 62
     7
370
    15
100
AcDbLine
 10
47.9753562047
 20
97.958716473
 30
0.0
 11
47.9572717498
 21
98.2173362276
 31
0.0
  0
SPLINE
  5
273
330
1F
100
AcDbEntity
  8
0
  6
Continuous
 62
     7
370
    15
100
AcDbSpline
210
0.0
220
0.0
230
1.0
 70
     8
 71
     3
 72
    35
 73
    31
 74
     0
 42
0.00000001
 43
0.00000001
 40
0.0
 40
0.0
 40
0.0
 40
0.0
 40
0.0248118749868472
 40
0.049596237674648
 40
0.0743694959143461
 40
0.0991480796162823
 40
0.1239484081066427
 40
0.148786857588817
 40
0.1736797290306578
 40
0.1986432167888681
 40
0.223693378265023
 40
0.2488461048647648
 40
0.2741170945033618
 40
0.2995218258681995
 40
0.3250755346130741
 40
0.3507931916216159
 40
0.3766894834390352
 40
0.4027787949337761
 40
0.4290751942146498
 40
0.4555924197954201
 40
0.4823438699683837
 40
0.5389999930047543
 40
0.5955901410169047
 40
0.6522365277202282
 40
0.7090610039697144
 40
0.7661842809721319
 40
0.8237251894628913
 40
0.8817999966030752
 40
0.9405217983361431
 40
1.0
 40
1.0
 40
1.0
 40
1.0
 10
52.5953782613576
 20
88.81137212173607
 30
0.0
 10
52.73091371084337
 20
88.84171828024287
 30
0.0
 10
53.00183432323561
 20
88.90237694834491
 30
0.0
 10
53.40489142647423
 20
89.00590411934203
 30
0.0
 10
53.80508991217236
 20
89.11852367907888
 30
0.0
 10
54.20222039635503
 20
89.2411389286846
 30
0.0
 10
54.59633831018871
 20
89.37350768251723
 30
0.0
 10
54.98742816729126
 20
89.515694583213
 30
0.0
 10
55.37549353744627
 20
89.6676819312547
 30
0.0
 10
55.76053291953001
 20
89.82947407960714
 30
0.0
 10
56.14254622559159
 20
90.0010694101316
 30
0.0
 10
56.52153304305067
 20
90.18246787249585
 30
0.0
 10
56.89749310551509
 20
90.37366896319945
 30
0.0
 10
57.27042616927267
 20
90.57467227897362
 30
0.0
 10
57.64033204391298
 20
90.78547737011716
 30
0.0
 10
58.00721059780113
 20
91.00608380765044
 30
0.0
 10
58.37106170286038
 20
91.23649109715896
 30
0.0
 10
58.73188544500329
 20
91.47669899271914
 30
0.0
 10
59.08968131747702
 20
91.72670634646435
 30
0.0
 10
59.44445125542697
 20
91.98651547310008
 30
0.0
 10
59.92614877336249
 20
92.35572822515753
 30
0.0
 10
60.5228537744184
 20
92.84563107841457
 30
0.0
 10
61.21742418192483
 20
93.47141716972872
 30
0.0
 10
61.88162893234673
 20
94.12780068560447
 30
0.0
 10
62.51546424114449
 20
94.81475681459575
 30
0.0
 10
63.11886751942884
 20
95.53230564939527
 30
0.0
 10
63.69206090767688
 20
96.28032348170835
 30
0.0
 10
64.23418764741457
 20
97.05921976348179
 30
0.0
 10
64.74849365902885
 20
97.86738634439999
 30
0.0
 10
65.06240097178957
 20
98.42581169612727
 30
0.0
 10
65.22035902522079
 20
98.70681114392515
 30
0.0
  0
LINE
  5
274
330
1F
100
AcDbEntity
  8
0
  6
Continuous
 62
     7
370
    15
100
AcDbLine
 10
65.2203590323
 20
98.711947252
 30
0.0
 11
65.2203590323
 21
98.036675197
 31
0.0
  0
LINE
  5
275
330
1F
100
AcDbEntity
  8
0
  6
Continuous
 62
     7
370
    15
100
AcDbLine
 10
52.6201931789
 20
88.4467335842
 30
0.0
 11
52.5947029501
 21
88.8112608391
 31
0.0
  0
SPLINE
  5
276
330
1F
100
AcDbEntity
  8
0
  6
Continuous
 62
     7
370
    15
100
AcDbSpline
210
0.0
220
0.0
230
1.0
 70
     8
 71
     3
 72
    35
 73
    31
 74
     0
 42
0.00000001
 43
0.00000001
 40
0.0
 40
0.0
 40
0.0
 40
0.0
 40
0.0309919762189715
 40
0.0617024282192595
 40
0.0921334282239633
 40
0.1222871060711508
 40
0.1521656509055503
 40
0.1817713129061768
 40
0.2111064050487769
 40
0.2401733049017175
 40
0.2689744564535784
 40
0.2975123719705134
 40
0.3257896338810296
 40
0.3538088966854757
 40
0.3815728888871816
 40
0.4090844149417198
 40
0.4363463572203222
 40
0.4633616779830015
 40
0.4901334213564323
 40
0.5166647153110286
 40
0.5677938841124569
 40
0.6182299166374379
 40
0.6679979559705764
 40
0.7171241708785878
 40
0.7656357688265705
 40
0.8135610040802627
 40
0.8609291802047364
 40
0.9077706462724179
 40
0.9541167861152193
 40
1.0
 40
1.0
 40
1.0
 40
1.0
 10
65.2208712902583
 20
98.04047699673653
 30
0.0
 10
65.13688062145152
 20
97.89765321970181
 30
0.0
 10
64.96966223639204
 20
97.61330304505586
 30
0.0
 10
64.70801770664278
 20
97.19517593758019
 30
0.0
 10
64.44018851688182
 20
96.78582267932227
 30
0.0
 10
64.16557183276663
 20
96.38577214870928
 30
0.0
 10
63.88464379313442
 20
95.99498662010771
 30
0.0
 10
63.59759435433215
 20
95.6135689506906
 30
0.0
 10
63.30468783961048
 20
95.24157582829717
 30
0.0
 10
63.00616740656695
 20
94.87906728523015
 30
0.0
 10
62.702280060154
 20
94.52609377402185
 30
0.0
 10
62.39326981640235
 20
94.18269974898575
 30
0.0
 10
62.07937929085805
 20
93.84892288770953
 30
0.0
 10
61.76084907343935
 20
93.52479447380178
 30
0.0
 10
61.43791768120821
 20
93.21033945502296
 30
0.0
 10
61.11082142471707
 20
92.90557666632002
 30
0.0
 10
60.77979409303345
 20
92.61051873052065
 30
0.0
 10
60.44506747793077
 20
92.32517308157074
 30
0.0
 10
60.10686880253915
 20
92.04953888176824
 30
0.0
 10
59.65889704938927
 20
91.70064934436098
 30
0.0
 10
59.09487557183706
 20
91.29012863813732
 30
0.0
 10
58.40702485867134
 20
90.83366021464838
 30
0.0
 10
57.7082000305497
 20
90.4124345613577
 30
0.0
 10
56.99981147950454
 20
90.0264829021839
 30
0.0
 10
56.28323782586322
 20
89.6757487166704
 30
0.0
 10
55.55981517538154
 20
89.36019842486203
 30
0.0
 10
54.83091577133803
 20
89.07945628363453
 30
0.0
 10
54.09763649960007
 20
88.83414716265669
 30
0.0
 10
53.36193674471799
 20
88.62098095479593
 30
0.0
 10
52.86657800164016
 20
88.50699784833715
 30
0.0
 10
52.62014180492268
 20
88.4502923522936
 30
0.0
  0
LINE
  5
277
330
1F
100
AcDbEntity
  8
0
  6
Continuous
 62
     7
370
    15
100
AcDbLine
 10
51.9312027577
 20
98.299755651
 30
0.0
 11
50.4348566823
 21
98.1951209403
 31
0.0
  0
LINE
  5
278
330
1F
100
AcDbEntity
  8
0
  6
Continuous
 62
     7
370
    15
100
AcDbLine
 10
50.4348566823
 20
98.1951209403
 30
0.0
 11
48.2485034038
 21
98.3532056486
 31
0.0
  0
LINE
  5
279
330
1F
100
AcDbEntity
  8
0
  6
Continuous
 62
     7
370
    15
100
AcDbLine
 10
46.3409690465
 20
125.6322178659
 30
0.0
 11
48.2485034038
 21
98.3532056486
 31
0.0
  0
ARC
  5
27A
330
1F
100
AcDbEntity
  8
0
  6
Continuous
 62
     7
370
    15
100
AcDbCircle
 10
48.7203590323
 20
109.3046796774
 30
0.0
 40
16.50000000000002
100
AcDbArc
 50
0.0
 51
98.2912714864
  0
LINE
  5
27B
330
1F
100
AcDbEntity
  8
0
  6
Continuous
 62
     7
370
    15
100
AcDbLine
 10
65.2203590323
 20
98.706811144
 30
0.0
 11
65.2203590323
 21
109.3046796774
 31
0.0
  0
LINE
  5
27C
330
1F
100
AcDbEntity
  8
0
  6
Continuous
 62
     7
370
    15
100
AcDbLine
 10
51.9461607919
 20
98.0858457964
 30
0.0
 11
51.9312027577
 21
98.299755651
 31
0.0
  0
SPLINE
  5
27D
330
1F
100
AcDbEntity
  8
0
  6
Continuous
 62
     7
370
    15
100
AcDbSpline
210
0.0
220
0.0
230
1.0
 70
     8
 71
     3
 72
    14
 73
    10
 74
     0
 42
0.00000001
 43
0.00000001
 40
0.0
 40
0.0
 40
0.0
 40
0.0
 40
0.2500000000000001
 40
0.2500000000000001
 40
0.5000000000000001
 40
0.5000000000000001
 40
0.75
 40
0.75
 40
1.0
 40
1.0
 40
1.0
 40
1.0
 10
46.37594841555705
 20
125.131989583411
 30
0.0
 10
46.37594841555705
 20
125.131989583411
 30
0.0
 10
46.2676560632536
 20
125.1170839417425
 30
0.0
 10
45.8361532217649
 20
125.0440963538805
 30
0.0
 10
45.52416742181823
 20
124.9876735726274
 30
0.0
 10
44.71612553664291
 20
124.8010680450479
 30
0.0
 10
44.24060278534742
 20
124.675120961083
 30
0.0
 10
43.1684780950653
 20
124.321180579611
 30
0.0
 10
42.59870743396259
 20
124.1015451364187
 30
0.0
 10
42.00910944463128
 20
123.8291118168381
 30
0.0
  0
SPLINE
  5
27E
330
1F
100
AcDbEntity
  8
0
  6
Continuous
 62
     7
370
    15
100
AcDbSpline
210
0.0
220
0.0
230
1.0
 70
     8
 71
     3
 72
    14
 73
    10
 74
     0
 42
0.00000001
 43
0.00000001
 40
0.0
 40
0.0
 40
0.0
 40
0.0
 40
0.1624319160774951
 40
0.3294803724038862
 40
0.4919571530253681
 40
0.6592729440181136
 40
0.8198802287290775
 40
0.9849860220663977
 40
1.0
 40
1.0
 40
1.0
 40
1.0
 10
44.09583312480321
 20
93.98757289672207
 30
0.0
 10
44.39616069226624
 20
93.90257591777869
 30
0.0
 10
45.00535155303073
 20
93.73016622791138
 30
0.0
 10
45.86348496767354
 20
93.55511946194407
 30
0.0
 10
46.65046005187717
 20
93.43304680164444
 30
0.0
 10
47.3294706822711
 20
93.36156028243315
 30
0.0
 10
47.85909289456693
 20
93.32537164230284
 30
0.0
 10
48.19546839085945
 20
93.3124581115133
 30
0.0
 10
48.26879303291673
 20
93.31117101062857
 30
0.0
 10
48.27490504688427
 20
93.31106372365976
 30
0.0
  0
ELLIPSE
  5
27F
330
1F
100
AcDbEntity
  8
0
  6
Continuous
 62
     7
370
    15
100
AcDbEllipse
 10
39.6857284667
 20
102.8334512741
 30
0.0
 11
-1.733036295194211
 21
1.855089312013846
 31
0.0
210
0.0
220
0.0
230
1.0
 40
0.8112573031
 41
0.0
 42
6.283185307179586
  0
ARC
  5
280
330
1F
100
AcDbEntity
  8
0
  6
Continuous
 62
     7
370
    15
100
AcDbCircle
 10
48.7203590323
 20
109.3046796774
 30
0.0
 40
16.0
100
AcDbArc
 50
114.8000641757
 51
253.1999358243
  0
SPLINE
  5
281
330
1F
100
AcDbEntity
  8
0
  6
Continuous
 62
     7
370
    15
100
AcDbSpline
210
0.0
220
0.0
230
1.0
 70
     8
 71
     3
 72
    31
 73
    27
 74
     0
 42
0.00000001
 43
0.00000001
 40
0.0
 40
0.0
 40
0.0
 40
0.0
 40
0.0122843848983472
 40
0.0524624715881155
 40
0.1073575841951944
 40
0.1626806080784136
 40
0.2191506736045133
 40
0.2759433311909323
 40
0.3332638619324895
 40
0.3908622940571971
 40
0.4494851090543076
 40
0.4790931539104122
 40
0.5088879362678831
 40
0.5307081603568915
 40
0.5529184651588527
 40
0.5710733762797965
 40
0.5897704219008316
 40
0.6125961799193208
 40
0.6360661084314783
 40
0.6684381292760483
 40
0.7011576599472815
 40
0.767798888540696
 40
0.8273307339155386
 40
0.8872641059912899
 40
0.9485511707618888
 40
1.0
 40
1.0
 40
1.0
 40
1.0
 10
40.45945620806395
 20
104.716294251086
 30
0.0
 10
40.45316608382058
 20
104.7057726839754
 30
0.0
 10
40.42630308114401
 20
104.6608386135953
 30
0.0
 10
40.35924410525833
 20
104.5789575251395
 30
0.0
 10
40.25552200606781
 20
104.4736564721994
 30
0.0
 10
40.12463270899638
 20
104.3729727000338
 30
0.0
 10
39.97946010905127
 20
104.2852277665966
 30
0.0
 10
39.82054077564023
 20
104.2100903845447
 30
0.0
 10
39.64945093876909
 20
104.1468903643195
 30
0.0
 10
39.46541571585423
 20
104.0939464063189
 30
0.0
 10
39.3004092625434
 20
104.0564809140627
 30
0.0
 10
39.15851698872804
 20
104.0272812640866
 30
0.0
 10
39.05592410085146
 20
104.0061161661988
 30
0.0
 10
38.95805526438247
 20
103.9840572543485
 30
0.0
 10
38.87226111283801
 20
103.9619343160605
 30
0.0
 10
38.78948881686099
 20
103.9368271604333
 30
0.0
 10
38.70711423848245
 20
103.9078521139271
 30
0.0
 10
38.62189960090761
 20
103.8734247576853
 30
0.0
 10
38.52626101501883
 20
103.8308820628197
 30
0.0
 10
38.42668950494853
 20
103.7843147249959
 30
0.0
 10
38.28754964784431
 20
103.720107953867
 30
0.0
 10
38.12911278967969
 20
103.6540553634563
 30
0.0
 10
37.94890163206799
 20
103.5965029343704
 30
0.0
 10
37.77675872632021
 20
103.5614180634969
 30
0.0
 10
37.61407053745372
 20
103.5465033220846
 30
0.0
 10
37.51022111578017
 20
103.5569047372553
 30
0.0
 10
37.46282777039412
 20
103.5616515895126
 30
0.0
  0
SPLINE
  5
282
330
1F
100
AcDbEntity
  8
0
  6
Continuous
 62
     7
370
    15
100
AcDbSpline
210
0.0
220
0.0
230
1.0
 70
    24
 71
     3
 72
    10
 73
     6
 74
     0
 42
0.00000001
 43
0.00000001
 40
0.0
 40
0.0
 40
0.0
 40
0.0
 40
0.5
 40
0.5
 40
1.0
 40
1.0
 40
1.0
 40
1.0
 10
39.72035903225822
 20
79.74440227682643
 30
0.0
 10
39.72035903225822
 20
79.58451500863278
 30
0.0
 10
39.72035903225822
 20
79.42338775311819
 30
0.0
 10
39.72035903225822
 20
79.18928875476335
 30
0.0
 10
39.72035903225822
 20
79.11776198117215
 30
0.0
 10
39.72035903225822
 20
79.11776198117215
 30
0.0
  0
ARC
  5
283
330
1F
100
AcDbEntity
  8
0
  6
Continuous
 62
     7
370
    15
100
AcDbCircle
 10
48.7203590323
 20
109.3046796774
 30
0.0
 40
31.50000000000006
100
AcDbArc
 50
140.9381656697
 51
253.398450401
  0
SPLINE
  5
284
330
1F
100
AcDbEntity
  8
0
  6
Continuous
 62
     7
370
    15
100
AcDbSpline
210
0.0
220
0.0
230
1.0
 70
    24
 71
     3
 72
    12
 73
     8
 74
     0
 42
0.00000001
 43
0.00000001
 40
0.0
 40
0.0
 40
0.0
 40
0.0
 40
0.249999999999998
 40
0.249999999999998
 40
0.499999999999996
 40
0.499999999999996
 40
1.0
 40
1.0
 40
1.0
 40
1.0
 10
24.26166936989064
 20
129.1546796774193
 30
0.0
 10
24.26166936989064
 20
129.1546796774193
 30
0.0
 10
24.2894990901941
 20
129.1546796774193
 30
0.0
 10
24.38464155145077
 20
129.1546796774193
 30
0.0
 10
24.45106436775112
 20
129.1546796774193
 30
0.0
 10
24.67526379927122
 20
129.1546796774193
 30
0.0
 10
24.85925020181682
 20
129.1546796774193
 30
0.0
 10
25.0394067709998
 20
129.1546796774193
 30
0.0
  0
SPLINE
  5
285
330
1F
100
AcDbEntity
  8
0
  6
Continuous
 62
     7
370
    15
100
AcDbSpline
210
0.0
220
0.0
230
1.0
 70
    24
 71
     3
 72
    10
 73
     6
 74
     0
 42
0.00000001
 43
0.00000001
 40
0.0
 40
0.0
 40
0.0
 40
0.0
 40
0.5
 40
0.5
 40
1.0
 40
1.0
 40
1.0
 40
1.0
 10
40.72035903225822
 20
139.1511200011832
 30
0.0
 10
40.72035903225822
 20
139.311525267534
 30
0.0
 10
40.72035903225822
 20
139.4705870805226
 30
0.0
 10
40.72035903225822
 20
139.7014995461529
 30
0.0
 10
40.72035903225822
 20
139.7718751505835
 30
0.0
 10
40.72035903225822
 20
139.7718751505835
 30
0.0
  0
SPLINE
  5
286
330
1F
100
AcDbEntity
  8
0
  6
Continuous
 62
     7
370
    15
100
AcDbSpline
210
0.0
220
0.0
230
1.0
 70
    24
 71
     3
 72
    12
 73
     8
 74
     0
 42
0.00000001
 43
0.00000001
 40
0.0
 40
0.0
 40
0.0
 40
0.0
 40
0.2500000000000033
 40
0.2500000000000033
 40
0.5000000000000067
 40
0.5000000000000067
 40
1.0
 40
1.0
 40
1.0
 40
1.0
 10
28.87035903225817
 20
133.7633693397867
 30
0.0
 10
28.87035903225818
 20
133.7633693397867
 30
0.0
 10
28.87035903225817
 20
133.7351496411988
 30
0.0
 10
28.87035903225818
 20
133.6407066339507
 30
0.0
 10
28.87035903225817
 20
133.5744196572454
 30
0.0
 10
28.87035903225817
 20
133.3487948339571
 30
0.0
 10
28.87035903225817
 20
133.1663685709246
 30
0.0
 10
28.87035903225817
 20
132.9856319386777
 30
0.0
  0
ARC
  5
287
330
1F
100
AcDbEntity
  8
0
  6
Continuous
 62
     7
370
    15
100
AcDbCircle
 10
48.7203590323
 20
109.3046796774
 30
0.0
 40
31.50000000000003
100
AcDbArc
 50
104.7124579609
 51
129.0618343303
  0
SPLINE
  5
288
330
1F
100
AcDbEntity
  8
0
  6
Continuous
 62
     7
370
    15
100
AcDbSpline
210
0.0
220
0.0
230
1.0
 70
    24
 71
     3
 72
    12
 73
     8
 74
     0
 42
0.00000001
 43
0.00000001
 40
0.0
 40
0.0
 40
0.0
 40
0.0
 40
0.249999999999998
 40
0.249999999999998
 40
0.499999999999996
 40
0.499999999999996
 40
1.0
 40
1.0
 40
1.0
 40
1.0
 10
56.72035903225825
 20
139.7718751505835
 30
0.0
 10
56.72035903225825
 20
139.7718751505835
 30
0.0
 10
56.72035903225825
 20
139.7548724006227
 30
0.0
 10
56.72035903225825
 20
139.6908118595111
 30
0.0
 10
56.72035903225825
 20
139.6436532438725
 30
0.0
 10
56.72035903225825
 20
139.4704312111803
 30
0.0
 10
56.72035903225825
 20
139.310322120946
 30
0.0
 10
56.72035903225825
 20
139.1511200011826
 30
0.0
  0
ARC
  5
289
330
1F
100
AcDbEntity
  8
0
  6
Continuous
 62
     7
370
    15
100
AcDbCircle
 10
48.7203590323
 20
109.3046796774
 30
0.0
 40
31.50000000000004
100
AcDbArc
 50
286.601549599
 51
75.2875420391
  0
SPLINE
  5
28A
330
1F
100
AcDbEntity
  8
0
  6
Continuous
 62
     7
370
    15
100
AcDbSpline
210
0.0
220
0.0
230
1.0
 70
    24
 71
     3
 72
    12
 73
     8
 74
     0
 42
0.00000001
 43
0.00000001
 40
0.0
 40
0.0
 40
0.0
 40
0.0
 40
0.2500000000000018
 40
0.2500000000000018
 40
0.5000000000000037
 40
0.5000000000000037
 40
1.0
 40
1.0
 40
1.0
 40
1.0
 10
57.72035903225825
 20
79.11776198117215
 30
0.0
 10
57.72035903225825
 20
79.11776198117215
 30
0.0
 10
57.72035903225825
 20
79.13487906743799
 30
0.0
 10
57.72035903225825
 20
79.19961517891309
 30
0.0
 10
57.72035903225825
 20
79.24707242179342
 30
0.0
 10
57.72035903225825
 20
79.42389686433292
 30
0.0
 10
57.72035903225825
 20
79.5841733715386
 30
0.0
 10
57.72035903225825
 20
79.74440227682638
 30
0.0
  0
LINE
  5
28B
330
1F
100
AcDbEntity
  8
0
  6
Continuous
 62
     7
370
    15
100
AcDbLine
 10
56.7203590323
 20
135.7046796774
 30
0.0
 11
40.7203590323
 21
135.7046796774
 31
0.0
  0
LINE
  5
28C
330
1F
100
AcDbEntity
  8
0
  6
Continuous
 62
     7
370
    15
100
AcDbLine
 10
57.7203590323
 20
82.9046796774
 30
0.0
 11
39.7203590323
 21
82.9046796774
 31
0.0
  0
LINE
  5
28D
330
1F
100
AcDbEntity
  8
0
  6
Continuous
 62
     7
370
    15
100
AcDbLine
 10
56.7203590323
 20
139.1511200012
 30
0.0
 11
56.7203590323
 21
135.7046796774
 31
0.0
  0
LINE
  5
28E
330
1F
100
AcDbEntity
  8
0
  6
Continuous
 62
     7
370
    15
100
AcDbLine
 10
57.7203590323
 20
79.7444022768
 30
0.0
 11
57.7203590323
 21
82.9046796774
 31
0.0
  0
LINE
  5
28F
330
1F
100
AcDbEntity
  8
0
  6
Continuous
 62
     7
370
    15
100
AcDbLine
 10
40.7203590323
 20
135.7046796774
 30
0.0
 11
40.7203590323
 21
139.1511200012
 31
0.0
  0
LINE
  5
290
330
1F
100
AcDbEntity
  8
0
  6
Continuous
 62
     7
370
    15
100
AcDbLine
 10
39.7203590323
 20
82.9046796774
 30
0.0
 11
39.7203590323
 21
79.7444022768
 31
0.0
  0
LINE
  5
291
330
1F
100
AcDbEntity
  8
0
  6
Continuous
 62
     7
370
    15
100
AcDbLine
 10
28.8703590323
 20
132.9856319387
 30
0.0
 11
28.8703590323
 21
129.1546796774
 31
0.0
  0
LINE
  5
292
330
1F
100
AcDbEntity
  8
0
  6
Continuous
 62
     7
370
    15
100
AcDbLine
 10
25.039406771
 20
129.1546796774
 30
0.0
 11
28.8703590323
 21
129.1546796774
 31
0.0
  0
SPLINE
  5
293
330
1F
100
AcDbEntity
  8
0
  6
Continuous
 62
     7
370
    15
100
AcDbSpline
210
0.0
220
0.0
230
1.0
 70
     8
 71
     3
 72
    30
 73
    26
 74
     0
 42
0.00000001
 43
0.00000001
 40
0.0
 40
0.0
 40
0.0
 40
0.0
 40
0.1249999999999999
 40
0.1249999999999999
 40
0.1874999999999998
 40
0.1874999999999998
 40
0.2499999999999997
 40
0.2499999999999997
 40
0.3749999999999994
 40
0.3749999999999994
 40
0.4374999999999994
 40
0.4374999999999994
 40
0.4999999999999993
 40
0.4999999999999993
 40
0.6249999999999997
 40
0.6249999999999997
 40
0.6874999999999997
 40
0.6874999999999997
 40
0.7499999999999998
 40
0.7499999999999998
 40
0.8124999999999998
 40
0.8124999999999998
 40
0.8749999999999999
 40
0.8749999999999999
 40
1.0
 40
1.0
 40
1.0
 40
1.0
 10
49.72035903225832
 20
77.82055669455693
 30
0.0
 10
50.2517769626589
 20
77.83743561256551
 30
0.0
 10
50.77343616023308
 20
77.86745317739026
 30
0.0
 10
51.5420779473921
 20
77.93026356666336
 30
0.0
 10
51.79596774655712
 20
77.95416747389025
 30
0.0
 10
52.2990405225032
 20
78.00760276633264
 30
0.0
 10
52.54850437071983
 20
78.03720963450021
 30
0.0
 10
53.2734152683167
 20
78.13165933321463
 30
0.0
 10
53.73129260520889
 20
78.20268672704385
 30
0.0
 10
54.38105983069173
 20
78.31670101374962
 30
0.0
 10
54.59244653410189
 20
78.35615626489019
 30
0.0
 10
54.99708034487205
 20
78.43567770766086
 30
0.0
 10
55.18982081637327
 20
78.47561385016164
 30
0.0
 10
55.74025169275019
 20
78.59455025298979
 30
0.0
 10
56.07043507003083
 20
78.67271501687365
 30
0.0
 10
56.50911088668124
 20
78.78242445714254
 30
0.0
 10
56.64490944516778
 20
78.81750529385096
 30
0.0
 10
56.89178647801395
 20
78.88274557323057
 30
0.0
 10
57.00356501534196
 20
78.91308038927531
 30
0.0
 10
57.20399520521556
 20
78.96841876849714
 30
0.0
 10
57.29264754841906
 20
78.99342344505722
 30
0.0
 10
57.44631509610017
 20
79.03730325394793
 30
0.0
 10
57.51156280035201
 20
79.05624693871022
 30
0.0
 10
57.66786785371628
 20
79.10196666598041
 30
0.0
 10
57.72035903225829
 20
79.11776198117212
 30
0.0
 10
57.72035903225829
 20
79.11776198117212
 30
0.0
  0
SPLINE
  5
294
330
1F
100
AcDbEntity
  8
0
  6
Continuous
 62
     7
370
    15
100
AcDbSpline
210
0.0
220
0.0
230
1.0
 70
     8
 71
     3
 72
    28
 73
    24
 74
     0
 42
0.00000001
 43
0.00000001
 40
0.0
 40
0.0
 40
0.0
 40
0.0
 40
0.125000000000001
 40
0.125000000000001
 40
0.1875000000000013
 40
0.1875000000000013
 40
0.2500000000000017
 40
0.2500000000000017
 40
0.3750000000000017
 40
0.3750000000000017
 40
0.4375000000000016
 40
0.4375000000000016
 40
0.5000000000000016
 40
0.5000000000000016
 40
0.6250000000000011
 40
0.6250000000000011
 40
0.7500000000000007
 40
0.7500000000000007
 40
0.8125000000000004
 40
0.8125000000000004
 40
0.8750000000000003
 40
0.8750000000000003
 40
1.0
 40
1.0
 40
1.0
 40
1.0
 10
39.72035903225827
 20
79.1177619811721
 30
0.0
 10
39.72035903225828
 20
79.1177619811721
 30
0.0
 10
39.77283537457649
 20
79.10197726722191
 30
0.0
 10
39.92663232213339
 20
79.05698185314569
 30
0.0
 10
39.9905072971674
 20
79.03842685806998
 30
0.0
 10
40.14400356582393
 20
78.9945741356235
 30
0.0
 10
40.23381854121762
 20
78.96922952867129
 30
0.0
 10
40.53579733626849
 20
78.88582745092118
 30
0.0
 10
40.78175077032424
 20
78.81996189177009
 30
0.0
 10
41.21711794975263
 20
78.71099155127831
 30
0.0
 10
41.37433313192497
 20
78.67275191551165
 30
0.0
 10
41.70649775246743
 20
78.5949931780923
 30
0.0
 10
41.88130501807031
 20
78.55549221591694
 30
0.0
 10
42.43136420865614
 20
78.43658447355095
 30
0.0
 10
42.83198759305161
 20
78.35676679212634
 30
0.0
 10
43.70457370440032
 20
78.20342363033026
 30
0.0
 10
44.1647091520019
 20
78.13208987706102
 30
0.0
 10
44.88467524596808
 20
78.0381463699864
 30
0.0
 10
45.12994895600261
 20
78.00895257662648
 30
0.0
 10
45.63140529243144
 20
77.95548600236305
 30
0.0
 10
45.88883666180397
 20
77.93112666808788
 30
0.0
 10
46.66477645766847
 20
77.86753652264316
 30
0.0
 10
47.18900485757449
 20
77.83743358755387
 30
0.0
 10
47.72035903225831
 20
77.82055669455696
 30
0.0
  0
SPLINE
  5
295
330
1F
100
AcDbEntity
  8
0
  6
Continuous
 62
     7
370
    15
100
AcDbSpline
210
0.0
220
0.0
230
1.0
 70
     8
 71
     3
 72
    50
 73
    46
 74
     0
 42
0.00000001
 43
0.00000001
 40
0.0
 40
0.0
 40
0.0
 40
0.0
 40
0.0625
 40
0.0625
 40
0.0937499999999999
 40
0.0937499999999999
 40
0.1249999999999999
 40
0.1249999999999999
 40
0.1874999999999997
 40
0.1874999999999997
 40
0.2187499999999996
 40
0.2187499999999996
 40
0.2499999999999995
 40
0.2499999999999995
 40
0.3124999999999994
 40
0.3124999999999994
 40
0.3749999999999994
 40
0.3749999999999994
 40
0.4062499999999994
 40
0.4062499999999994
 40
0.4374999999999994
 40
0.4374999999999994
 40
0.4999999999999993
 40
0.4999999999999993
 40
0.5624999999999993
 40
0.5624999999999993
 40
0.6249999999999992
 40
0.6249999999999992
 40
0.6562499999999992
 40
0.6562499999999992
 40
0.6874999999999993
 40
0.6874999999999993
 40
0.7187499999999994
 40
0.7187499999999994
 40
0.7499999999999996
 40
0.7499999999999996
 40
0.8124999999999997
 40
0.8124999999999997
 40
0.8749999999999999
 40
0.8749999999999999
 40
0.9375
 40
0.9375
 40
0.96875
 40
0.96875
 40
1.0
 40
1.0
 40
1.0
 40
1.0
 10
40.72035903225827
 20
139.7718751505836
 30
0.0
 10
40.72035903225828
 20
139.7718751505835
 30
0.0
 10
40.77265317421134
 20
139.7857412539647
 30
0.0
 10
40.92600570904411
 20
139.8251783968487
 30
0.0
 10
40.98970320439532
 20
139.8414310991137
 30
0.0
 10
41.14279485468513
 20
139.8797798089641
 30
0.0
 10
41.23245095664595
 20
139.9019332553722
 30
0.0
 10
41.53403234482001
 20
139.9746892012342
 30
0.0
 10
41.77977377525398
 20
140.0319699040789
 30
0.0
 10
42.21493384160465
 20
140.1259623435347
 30
0.0
 10
42.37207466906582
 20
140.1588213107279
 30
0.0
 10
42.70471376179014
 20
140.2253973641761
 30
0.0
 10
42.87977971723017
 20
140.2590408020151
 30
0.0
 10
43.43063524793178
 20
140.3596016665921
 30
0.0
 10
43.83181965711844
 20
140.4261644763422
 30
0.0
 10
44.70530886320583
 20
140.5508635316418
 30
0.0
 10
45.16734945618826
 20
140.6073865407124
 30
0.0
 10
45.88846486978218
 20
140.6780554753273
 30
0.0
 10
46.13402550746557
 20
140.6993316853987
 30
0.0
 10
46.63581380662377
 20
140.7366374116406
 30
0.0
 10
46.89357502294041
 20
140.7527286085007
 30
0.0
 10
47.66868748716019
 20
140.7913700801084
 30
0.0
 10
48.18911667087987
 20
140.8045594986647
 30
0.0
 10
49.23725251166525
 20
140.8047982221228
 30
0.0
 10
49.769760842039
 20
140.7913982194187
 30
0.0
 10
50.7974511042056
 20
140.7403342312235
 30
0.0
 10
51.29721528478733
 20
140.7028950964693
 30
0.0
 10
52.02571028480779
 20
140.6317316135509
 30
0.0
 10
52.26506127725328
 20
140.6054631553584
 30
0.0
 10
52.72629974874015
 20
140.5497816826061
 30
0.0
 10
52.94956640380741
 20
140.5202439106702
 30
0.0
 10
53.38175400982947
 20
140.4586367656425
 30
0.0
 10
53.59067459006945
 20
140.4265658229213
 30
0.0
 10
53.99409951559316
 20
140.3607488459519
 30
0.0
 10
54.18957917556251
 20
140.3268186274887
 30
0.0
 10
54.74543738909875
 20
140.2253899999084
 30
0.0
 10
55.07499477573032
 20
140.1584709712183
 30
0.0
 10
55.65439027351627
 20
140.0334454088765
 30
0.0
 10
55.90591024496064
 20
139.9748686146424
 30
0.0
 10
56.30736474157421
 20
139.8780337629975
 30
0.0
 10
56.45984773712131
 20
139.8392788034383
 30
0.0
 10
56.61515868629655
 20
139.7993512730021
 30
0.0
 10
56.6546721337027
 20
139.7890594817515
 30
0.0
 10
56.70718548099848
 20
139.7753432692126
 30
0.0
 10
56.72035903225829
 20
139.7718751505836
 30
0.0
 10
56.72035903225829
 20
139.7718751505836
 30
0.0
  0
SPLINE
  5
296
330
1F
100
AcDbEntity
  8
0
  6
Continuous
 62
     7
370
    15
100
AcDbSpline
210
0.0
220
0.0
230
1.0
 70
     8
 71
     3
 72
    20
 73
    16
 74
     0
 42
0.00000001
 43
0.00000001
 40
0.0
 40
0.0
 40
0.0
 40
0.0
 40
0.2499999999999995
 40
0.2499999999999995
 40
0.3749999999999996
 40
0.3749999999999996
 40
0.4999999999999997
 40
0.4999999999999997
 40
0.6249999999999998
 40
0.6249999999999998
 40
0.7499999999999998
 40
0.7499999999999998
 40
0.8749999999999999
 40
0.8749999999999999
 40
1.0
 40
1.0
 40
1.0
 40
1.0
 10
24.26166936989084
 20
129.1546796774193
 30
0.0
 10
24.79232613772552
 20
129.8085421057167
 30
0.0
 10
25.32605413398708
 20
130.4123278877138
 30
0.0
 10
26.10902645197582
 20
131.2391666238824
 30
0.0
 10
26.36701005207248
 20
131.5015952618353
 30
0.0
 10
26.87140530848031
 20
131.9982579159403
 30
0.0
 10
27.11418373090831
 20
132.2288447949618
 30
0.0
 10
27.56486381042136
 20
132.6453990195444
 30
0.0
 10
27.77432767641264
 20
132.832896821512
 30
0.0
 10
28.15261619300067
 20
133.1642937991483
 30
0.0
 10
28.31636387918516
 20
133.3037977866436
 30
0.0
 10
28.58454968138459
 20
133.5292512941145
 30
0.0
 10
28.68977408947134
 20
133.6158774056582
 30
0.0
 10
28.83383331478486
 20
133.7338581945123
 30
0.0
 10
28.87035903225823
 20
133.7633693397867
 30
0.0
 10
28.87035903225823
 20
133.7633693397867
 30
0.0
  0
ARC
  5
297
330
1F
100
AcDbEntity
  8
0
  6
Continuous
 62
     7
370
    15
100
AcDbCircle
 10
48.7203590323
 20
109.3046796774
 30
0.0
 40
31.50000000000003
100
AcDbArc
 50
268.180780706
 51
271.819219294
  0
CIRCLE
  5
298
330
1F
100
AcDbEntity
  8
VERMASSUNG
  6
CENTERX2
100
AcDbCircle
 10
48.7203590323
 20
107.302583048
 30
0.0
 40
20.00000000000001
  0
DIMENSION
  5
299
330
1F
100
AcDbEntity
  8
VERMASSUNG
100
AcDbDimension
  2
*D6
 10
12.6412775044
 20
127.302583048
 30
0.0
 11
12.6412775044
 21
107.302583048
 31
0.0
 70
   160
  1
%%c<>
 71
     2
 42
-1.0
  3
SLDDIMSTYLE2
100
AcDbAlignedDimension
 13
48.7203590323
 23
87.302583048
 33
0.0
 14
48.7203590323
 24
127.302583048
 34
0.0
 50
90.0
100
AcDbRotatedDimension
  0
INSERT
  5
2B0
330
1F
100
AcDbEntity
  8
VERMASSUNG
100
AcDbBlockReference
  2
SW_CENTERMARKSYMBOL_0
 10
48.7203590323
 20
109.3046796774
 30
0.0
  0
OLE2FRAME
  5
2B1
330
1F
100
AcDbEntity
  8
0
100
AcDbOle2Frame
 70
     2
  3
Bitmap Image
 10
13.8511154363
 20
38.264191557
 30
0.0
 11
51.6290888628
 21
31.9806341108
 31
0.0
 71
     2
 72
     0
 73
     1
 90
    12928
310
80552BED0767C5B32B40DDAF6807D121434000000000000000006FFBDDFB85D0
310
4940DDAF6807D121434000000000000000006FFBDDFB85D04940416F4BD60AFB
310
3F4000000000000000002BED0767C5B32B40416F4BD60AFB3F40000000000000
310
0000000000000100000000010000010000000100000000000100000000320000
310
D0CF11E0A1B11AE1000000000000000000000000000000003E000300FEFF0900
310
0600000000000000000000000100000001000000000000000010000002000000
310
01000000FEFFFFFF0000000000000000FFFFFFFFFFFFFFFFFFFFFFFFFFFFFFFF
310
FFFFFFFFFFFFFFFFFFFFFFFFFFFFFFFFFFFFFFFFFFFFFFFFFFFFFFFFFFFFFFFF
310
FFFFFFFFFFFFFFFFFFFFFFFFFFFFFFFFFFFFFFFFFFFFFFFFFFFFFFFFFFFFFFFF
310
FFFFFFFFFFFFFFFFFFFFFFFFFFFFFFFFFFFFFFFFFFFFFFFFFFFFFFFFFFFFFFFF
310
FFFFFFFFFFFFFFFFFFFFFFFFFFFFFFFFFFFFFFFFFFFFFFFFFFFFFFFFFFFFFFFF
310
FFFFFFFFFFFFFFFFFFFFFFFFFFFFFFFFFFFFFFFFFFFFFFFFFFFFFFFFFFFFFFFF
310
FFFFFFFFFFFFFFFFFFFFFFFFFFFFFFFFFFFFFFFFFFFFFFFFFFFFFFFFFFFFFFFF
310
FFFFFFFFFFFFFFFFFFFFFFFFFFFFFFFFFFFFFFFFFFFFFFFFFFFFFFFFFFFFFFFF
310
FFFFFFFFFFFFFFFFFFFFFFFFFFFFFFFFFFFFFFFFFFFFFFFFFFFFFFFFFFFFFFFF
310
FFFFFFFFFFFFFFFFFFFFFFFFFFFFFFFFFFFFFFFFFFFFFFFFFFFFFFFFFFFFFFFF
310
FFFFFFFFFFFFFFFFFFFFFFFFFFFFFFFFFFFFFFFFFFFFFFFFFFFFFFFFFFFFFFFF
310
FFFFFFFFFFFFFFFFFFFFFFFFFFFFFFFFFFFFFFFFFFFFFFFFFFFFFFFFFFFFFFFF
310
FFFFFFFFFFFFFFFFFFFFFFFFFFFFFFFFFFFFFFFFFFFFFFFFFFFFFFFFFFFFFFFF
310
FFFFFFFFFFFFFFFFFFFFFFFFFFFFFFFFFFFFFFFFFFFFFFFFFFFFFFFFFFFFFFFF
310
FDFFFFFFFEFFFFFFFEFFFFFFFEFFFFFF05000000060000000700000008000000
310
090000000A0000000B0000000C0000000D0000000E0000000F00000010000000
310
11000000120000001300000014000000150000001600000017000000FEFFFFFF
310
FFFFFFFFFFFFFFFFFFFFFFFFFFFFFFFFFFFFFFFFFFFFFFFFFFFFFFFFFFFFFFFF
310
FFFFFFFFFFFFFFFFFFFFFFFFFFFFFFFFFFFFFFFFFFFFFFFFFFFFFFFFFFFFFFFF
310
FFFFFFFFFFFFFFFFFFFFFFFFFFFFFFFFFFFFFFFFFFFFFFFFFFFFFFFFFFFFFFFF
310
FFFFFFFFFFFFFFFFFFFFFFFFFFFFFFFFFFFFFFFFFFFFFFFFFFFFFFFFFFFFFFFF
310
FFFFFFFFFFFFFFFFFFFFFFFFFFFFFFFFFFFFFFFFFFFFFFFFFFFFFFFFFFFFFFFF
310
FFFFFFFFFFFFFFFFFFFFFFFFFFFFFFFFFFFFFFFFFFFFFFFFFFFFFFFFFFFFFFFF
310
FFFFFFFFFFFFFFFFFFFFFFFFFFFFFFFFFFFFFFFFFFFFFFFFFFFFFFFFFFFFFFFF
310
FFFFFFFFFFFFFFFFFFFFFFFFFFFFFFFFFFFFFFFFFFFFFFFFFFFFFFFFFFFFFFFF
310
FFFFFFFFFFFFFFFFFFFFFFFFFFFFFFFFFFFFFFFFFFFFFFFFFFFFFFFFFFFFFFFF
310
FFFFFFFFFFFFFFFFFFFFFFFFFFFFFFFFFFFFFFFFFFFFFFFFFFFFFFFFFFFFFFFF
310
FFFFFFFFFFFFFFFFFFFFFFFFFFFFFFFFFFFFFFFFFFFFFFFFFFFFFFFFFFFFFFFF
310
FFFFFFFFFFFFFFFFFFFFFFFFFFFFFFFFFFFFFFFFFFFFFFFFFFFFFFFFFFFFFFFF
310
FFFFFFFFFFFFFFFFFFFFFFFFFFFFFFFFFFFFFFFFFFFFFFFFFFFFFFFFFFFFFFFF
310
52006F006F007400200045006E00740072007900000000000000000000000000
310
0000000000000000000000000000000000000000000000000000000000000000
310
16000500FFFFFFFFFFFFFFFF020000000A00030000000000C000000000000046
310
000000000000000000000000F05B9C3374D9CB0103000000C000000000000000
310
01004F006C006500000000000000000000000000000000000000000000000000
310
0000000000000000000000000000000000000000000000000000000000000000
310
0A000200FFFFFFFFFFFFFFFFFFFFFFFF00000000000000000000000000000000
310
0000000000000000000000000000000000000000000000001400000000000000
310
010043006F006D0070004F0062006A0000000000000000000000000000000000
310
0000000000000000000000000000000000000000000000000000000000000000
310
120002010100000003000000FFFFFFFF00000000000000000000000000000000
310
0000000000000000000000000000000000000000010000004D00000000000000
310
01004F006C006500310030004E00610074006900760065000000000000000000
310
0000000000000000000000000000000000000000000000000000000000000000
310
1A000200FFFFFFFFFFFFFFFFFFFFFFFF00000000000000000000000000000000
310
0000000000000000000000000000000000000000040000002426000000000000
310
FEFFFFFF02000000FEFFFFFFFFFFFFFFFFFFFFFFFFFFFFFFFFFFFFFFFFFFFFFF
310
FFFFFFFFFFFFFFFFFFFFFFFFFFFFFFFFFFFFFFFFFFFFFFFFFFFFFFFFFFFFFFFF
310
FFFFFFFFFFFFFFFFFFFFFFFFFFFFFFFFFFFFFFFFFFFFFFFFFFFFFFFFFFFFFFFF
310
FFFFFFFFFFFFFFFFFFFFFFFFFFFFFFFFFFFFFFFFFFFFFFFFFFFFFFFFFFFFFFFF
310
FFFFFFFFFFFFFFFFFFFFFFFFFFFFFFFFFFFFFFFFFFFFFFFFFFFFFFFFFFFFFFFF
310
FFFFFFFFFFFFFFFFFFFFFFFFFFFFFFFFFFFFFFFFFFFFFFFFFFFFFFFFFFFFFFFF
310
FFFFFFFFFFFFFFFFFFFFFFFFFFFFFFFFFFFFFFFFFFFFFFFFFFFFFFFFFFFFFFFF
310
FFFFFFFFFFFFFFFFFFFFFFFFFFFFFFFFFFFFFFFFFFFFFFFFFFFFFFFFFFFFFFFF
310
FFFFFFFFFFFFFFFFFFFFFFFFFFFFFFFFFFFFFFFFFFFFFFFFFFFFFFFFFFFFFFFF
310
FFFFFFFFFFFFFFFFFFFFFFFFFFFFFFFFFFFFFFFFFFFFFFFFFFFFFFFFFFFFFFFF
310
FFFFFFFFFFFFFFFFFFFFFFFFFFFFFFFFFFFFFFFFFFFFFFFFFFFFFFFFFFFFFFFF
310
FFFFFFFFFFFFFFFFFFFFFFFFFFFFFFFFFFFFFFFFFFFFFFFFFFFFFFFFFFFFFFFF
310
FFFFFFFFFFFFFFFFFFFFFFFFFFFFFFFFFFFFFFFFFFFFFFFFFFFFFFFFFFFFFFFF
310
FFFFFFFFFFFFFFFFFFFFFFFFFFFFFFFFFFFFFFFFFFFFFFFFFFFFFFFFFFFFFFFF
310
FFFFFFFFFFFFFFFFFFFFFFFFFFFFFFFFFFFFFFFFFFFFFFFFFFFFFFFFFFFFFFFF
310
FFFFFFFFFFFFFFFFFFFFFFFFFFFFFFFFFFFFFFFFFFFFFFFFFFFFFFFFFFFFFFFF
310
010000020000000000000000000000000000000060000000AC6F820020100604
310
C802250000000000C802250000000000E8030000EC0400005002000087020060
310
0100FEFF030A0000FFFFFFFF0A00030000000000C00000000000004607000000
310
5042727573680007000000504272757368000700000050427275736800F439B2
310
7100000000000000000000000000500072006F00200043006100700074006900
310
6F006E0000000000000000000000000000000000000000000000000000000000
310
00000000410072006E006F00500072006F002D0042006F006C00640043006100
310
7000740069006F006E0000000000000000000000000000000000000000000000
310
0000000000000000000000000000000000000000000000000000000000000000
310
0000000000000000000000000000000000000000000000000000000000000000
310
0000000042006F006C0064002000430061007000740069006F006E0000000000
310
0000000000000000000000000000000000000000000000000000000000000000
310
000000000000FFFFFFFFFFFFFFFFFFFFFFFFFFFFFFFFFFFFFFFFFFFFFFFFFFFF
310
FFFFFFFFFFFFFFFFFFFFFFFFFFFFFFFFFFFFFFFFFFFFFFFFFFFFFFFFFFFFFFFF
310
FFFFFFFF6476000800000000FFFFFFFF20FF0020290000001D0000000C000000
310
09000000000000001400000037000000BC020000000000006000000060000000
310
20260000424D0E260000000000003E00000028000000B40200006E0000000100
310
01000000000000000000130B0000130B00000200000002000000000000FFFFFF
310
FFFFFFFFFFFFFFFFFFFFFFFFFFFFFFFFFFFFFFFFFFFFFFFFFFFFFFFFFFFFFFFF
310
FFFFFFFFFFFFFFFFFFFFFFFFFFFFFFFFFFFFFFFFFFFFFFFFFFFFFFFFFFFFFFFF
310
FFFFFFFFFFFFFFFFFFFFFFFFFFFFFFFFFFFFFFFFFFFFFFFFF000FFFFFFFFFFFF
310
FFFFFFFFFFFFFFFFFFFFFFFFFFFFFFFFFFFFFFFFFFFFFFFFFFFFFFFFFFFFFFFF
310
FFFFFFFFFFFFFFFFFFFFFFFFFFFFFFFFFFFFFFFFFFFFFFFFFFFFFFFFFFFFFFFF
310
FFFFFFFFFFFFFFFFFFFFFFFFFFFFFFFFF000FFFFFFFFFFFFFFFFFFFFFFFFFFFF
310
FFFFFFFFFFFFFFFFFFFFFFFFFFFFFFFFFFFFFFFFFFFFFFFFFFFFFFFFFFFFFFFF
310
FFFFFFFFFFFFFFFFFFFFFFFFFFFFFFFFFFFFFFFFFFFFFFFFFFFFFFFFFFFFFFFF
310
FFFFFFFFFFFFFFFFF000FFFFFFFFFFFFFFFFFFFFFFFFFFFFFFFFFFFFFFFFFFFF
310
FFFFFFFFFFFFFFFFFFFFFFFFFFFFFFFFFFFFFFFFFFFFFFFFFFFFFFFFFFFFFFFF
310
FFFFFFFFFFFFFFFFFFFFFFFFFFFFFFFFFFFFFFFFFFFFFFFFFFFFFFFFFFFFFFFF
310
F000FFFFFFFFFFFFFFFFFFFFFFFFFFFFFFFFFFFFFFFFFFFFFFFFFFFFFFFFFFFF
310
FFFFFFFFFFFFFFFFFFFFFFFFFFFFFFFFFFFFFFFFFFFFFFFFFFFFFFFFFFFFFFFF
310
FFFFFFFFFFFFFFFFFFFFFFFFFFFFFFFFFFFFFFFFFFFFFFFFF000FFFFFFFFFFFF
310
FFFFFFFFFFFFFFFFFFFFFFFFFFFFFFFFFFFFFFFFFFFFFFFFFFFFFFFFFFFFFFFF
310
FFFFFFFFFFFFFFFFFFFFFFFFFFFFFFFFFFFFFFFFFFFFFFFFFFFFFFFFFFFFFFFF
310
FFFFFFFFFFFFFFFFFFFFFFFFFFFFFFFFF000FFFFFFFFFFFFFFFFFFFFFFFFFFFF
310
FFFFFFFFFFFFFFFFFFFFFFFFFFFFFFFFFFFFFFFFFFFFFFFFFFFFFFFFFFFFFFFF
310
FFFFFFFFFFFFFFFFFFFFFFFFFFFFFFFFFFFFFFFFFFFFFFFFFFFFFFFFFFFFFFFF
310
FFFFFFFFFFFFFFFFF000FFFFFFFFFFFFFFFFFFFFFFFFFFFFFFFFFFFFFFFFFFFF
310
FFFFFFFFFFFFFFFFFFFFFFFFFFFFFFFFFFFFFFFFFFFFFFFFFFFFFFFFFFFFFFFF
310
FFFFFFFFFFFFFFFFFFFFFFFFFFFFFFFFFFFFFFFFFFFFFFFFFFFFFFFFFFFFFFFF
310
F000FFFFFFFFFFFFFFFFFFFFFFFFFFFFFFFFFFFFFFFFFFFFFFFFFFFFFFFFFFFF
310
FFFFFFFFFFFFFFFFFFFFFFFFFFFFFFFFFFFFFFFFFFFFFFFFFFFFFFFFFFFFFFFF
310
FFFFFFFFFFFFFFFFFFFFFFFFFFFFFFFFFFFFFFFFFFFFFFFFF000FFFFFFFFFFFF
310
FFFFFFFFFFFFFFFFFFFFFFFFFFFFFFFFFFFFFFFFFFFFFFFFFFFFFFFFFFFFFFFF
310
FFFFFFFFFFFFFFFFFFFFFFFFFFFFFFFFFFFFFFFFFFFFFFFFFFFFFFFFFFFFFFFF
310
FFFFFFFFFFFFFFFFFFFFFFFFFFFFFFFFF000FFFFFFFFFFFFFFFFFFFFFFFFFFFF
310
FFFFFFFFFFFFFFFFFFFFFFFFFFFFFFFFFFFFFFFFFFFFFFFFFFFFFFFFFFFFFFFF
310
FFFFFFFFFFFFFFFFFFFFFFFFFFFFFFFFFFFFFFFFFFFFFFFFFFFFFFFFFFFFFFFF
310
FFFFFFFFFFFFFFFFF000FFFFFFFFFFFFFFFFFFFFFFFFFFFFFFFFFFFFFFFFFFFF
310
FFFFFFFFFFFFFFFFFFFFFFFFFFFFFFFFFFFFFFFFFFFFFFFFFFFFFFFFFFFFFFFF
310
FFFFFFFFFFFFFFFFFFFFFFFFFFFFFFFFFFFFFFFFFFFFFFFFFFFFFFFFFFFFFFFF
310
F000FFFFFFFFFFFFFFFFFFFFFFFFFFFFFFFFFFFFFFFFFFFFFFFFFFFFFFFFFFFF
310
FFFFFFFFFFFFFFFFFFFFFFFFFFFFFFFFFFFFFFFFFFFFFFFFFFFFFFFFFFFFFFFF
310
FFFFFFFFFFFFFFFFFFFFFFFFFFFFFFFFFFFFFFFFFFFFFFFFF000FFFFFFFFFFFF
310
FFFFFFFFFFFFFFFFFFFFFFFFFFFFFFFFFFFFFFFFFFFFFFFFFFFFFFFFFFFFFFFF
310
FFFFFFFFFFFFFFFFFFFFFFFFFFFFFFFFFFFFFFFFFFFFFFFFFFFFFFFFFFFFFFFF
310
FFFFFFFFFFFFFFFFFFFFFFFFFFFFFFFFF000FFFFFFFFFFFFFFFFFFFFFFFFFFFF
310
FFFFFFFFFFFFFFFFFFFFFFFFFFFFFFFFFFFFFFFFFFFFFFFFFFFFFFFFFFFFFFFF
310
FFFFFFFFFFFFFFFFFFFFFFFFFFFFFFFFFFFFFFFFFFFFFFFFFFFFFFFFFFFFFFFF
310
FFFFFFFFFFFFFFFFF000FFFFFFFFFFFFFFFFFFFFFFFFFFFFFFFFFFFFFFFFFFFF
310
FFFFFFFFFFFFFFFFFFFFFFFFFFFFFFFFFFFFFFFFFFFFFFFFFFFFFFFFFFFFFFFF
310
FFFFFFFFFFFFFFFFFFFFFFFFFFFFFFFFFFFFFFFFFFFFFFFFFFFFFFFFFFFFFFFF
310
F000FFFFFFFFFFFFFFFFFFFFFFFFFFFFFFFFFFFFFFFFFFFFFFFFFFFFFFFFFFFF
310
FFFFFFFFFFFFFFFFFFFFFFFFFFFFFFFFFFFFFFFFFFFFFFFFFFFFFFFFFFFFFFFF
310
FFFFFFFFFFFFFFFFFFFFFFFFFFFFFFFFFFFFFFFFFFFFFFFFF000FFFFFFFFFFFF
310
FFFFFFFFFFFFFFFFFFFFFFFFFFFFFFFFFFFFFFFFFFFFFFFFFFFFFFFFFFFFFFFF
310
FFFFFFFFFFFFFFFFFFFFFFFFFFFFFFFFFFFFFFFFFFFFFFFFFFFFFFFFFFFFFFFF
310
FFFFFFFFFFFFFFFFFFFFFFFFFFFFFFFFF000FFFFFFFFFFFFFFFFFFFFFFFFFFFF
310
FFFFFFFFFFFFFFFFFFFFFFFFFFFFFFFFFFFFFFFFFFFFFFFFFFFFFFFFFFFFFFFF
310
FFFFFFFFFFFFFFFFFFFFFFFFFFFFFFFFFFFFFFFFFFFFFFFFFFFFFFFFFFFFFFFF
310
FFFFFFFFFFFFFFFFF000FFFFF80003FFFFFFFFFFFFFFFFFFFFFFFFFFFFFFFFFF
310
FFFFF00007FFFFFFFFFF00007FFFFFF800000000000000007FFFFFFFFFFFFFFF
310
FFFFFFFC001FFFFFFFFFFFFFFC001FFFFFFFFFFFFFFFFFFFFFFFFFFE0007FFFF
310
F000FFFF8000007FFFFFFFF8000FFFFFC0007FFFFF80007FFFFF0000007FFFFF
310
FFF8000007FFFFF800000000000000007FFFFFF0001FFFFFFFFFFFC00001FFFF
310
FFFFFFFFC00001FFFFFFFF000000000003FFFFE000007FFFF000FFFE0000000F
310
FFFFFFF0000FFFFF80007FFFFF80007FFFFC0000001FFFFFFFC0000001FFFFF8
310
00000000000000007FFFFFF0001FFFFFFFFFFE0000003FFFFFFFFFFE0000003F
310
FFFFFF000000000003FFFF0000000FFFF000FFF800000003FFFFFFF00007FFFF
310
80007FFFFF80007FFFF000000007FFFFFF000000003FFFF80000000000000000
310
7FFFFFF0001FFFFFFFFFF80000000FFFFFFFFFF80000000FFFFFFF0000000000
310
03FFFC00000003FFF000FFE000000000FFFFFFF00007FFFF80003FFFFF80007F
310
FFC000000001FFFFFC000000001FFFF800000000000000007FFFFFF0001FFFFF
310
FFFFE000000003FFFFFFFFE000000003FFFFFF000000000003FFF000000000FF
310
F000FF80000000007FFFFFF00007FFFF80003FFFFF80007FFF8000000000FFFF
310
F80000000007FFF800000000000000007FFFFFF0001FFFFFFFFFC000000001FF
310
FFFFFFC000000001FFFFFF000000000003FFC0000000007FF000FF0000000000
310
3FFFFFE00007FFFF00003FFFFF80007FFE00000000003FFFF00000000003FFF8
310
00000000000000007FFFFFF0001FFFFFFFFF8000000000FFFFFFFF8000000000
310
FFFFFF000000000003FF80000000003FF000FE00000000001FFFFFE00003FFFF
310
00003FFFFF80007FFC00000000001FFFE00000000001FFF8000001FFFE000000
310
7FFFFFF0001FFFFFFFFE00000000003FFFFFFE00000000003FFFFF0000000000
310
03FF00000000001FF000FC00000000000FFFFFE00003FFFF00001FFFFF80007F
310
F800000000001FFFC00000000000FFF8000001FFFE0000007FFFFFF0001FFFFF
310
FFFC00000000001FFFFFFC00000000001FFFFF000000000003FE00000000000F
310
F000F8000000000007FFFFE00003FFFF00001FFFFF80007FF800000000000FFF
310
800000000000FFF8000001FFFE0000007FFFFFF0001FFFFFFFF800000000000F
310
FFFFF800000000000FFFFF000000000003FC000000000007F000F80000000000
310
03FFFFC00003FFFE00001FFFFF80007FF0000000000007FF0000000000007FF8
310
000001FFFE0000007FFFFFF0001FFFFFFFF0000000000007FFFFF00000000000
310
07FFFF000000000003F8000000000003F000F0000000000003FFFFC00001FFFE
310
00001FFFFF80007FE0000000000007FE0000000000003FF8000001FFFE000000
310
7FFFFFF0001FFFFFFFF0000000000007FFFFF0000000000007FFFF0000000000
310
03F800001F800003F000E00001FFF00001FFFFC00001FFFE00000FFFFF80007F
310
E00001FFE00003FE00001FFF00003FF8000001FFFE0000007FFFFFF0001FFFFF
310
FFE000003E000003FFFFE000003E000003FFFF000000000003F00001FFF80001
310
F000E00007FFFC0001FFFFC00001FFFE00000FFFFF80007FC0000FFFFC0003FC
310
0000FFFFC0001FF8000001FFFE0000007FFFFFF0001FFFFFFFC00003FFE00001
310
FFFFC00003FFE00001FFFF0001FFFFFFFFF00007FFFE0001F000E0000FFFFF00
310
00FFFF800001FFFC00000FFFFF80007FC0001FFFFE0001FC0001FFFFE0001FF8
310
000001FFFE0000007FFFFFF0001FFFFFFF80000FFFF80000FFFF80000FFFF800
310
00FFFF0003FFFFFFFFE0000FFFFF8000F000C0003FFFFF8000FFFF800000FFFC
310
000007FFFF80007F80003FFFFF0001FC0003FFFFF0001FF8000001FFFE000000
310
7FFFFFF0001FFFFFFF80003FFFFE0000FFFF80003FFFFE0000FFFF0003FFFFFF
310
FFE0003FFFFF8000F000C0003FFFFF8000FFFF800000FFFC000007FFFF80007F
310
80007FFFFF8001F80007FFFFF8000FF8000001FFFE0000007FFFFFF0001FFFFF
310
FF00007FFFFF00007FFF00007FFFFF00007FFF0003FFFFFFFFE0003FFFFFC000
310
F000C0007FFFFFC000FFFF000000FFFC000007FFFF80007F8000FFFFFF8000F8
310
000FFFFFF8000FF8000001FFFE0000007FFFFFF0001FFFFFFF0000FFFFFF8000
310
7FFF0000FFFFFF80007FFF0003FFFFFFFFC0007FFFFFC00070008000FFFFFFC0
310
00FFFF000000FFF8000007FFFF80007F8000FFFFFF8000F8000FFFFFF8000FF8
310
000001FFFE0000007FFFFFF0001FFFFFFE0001FFFFFFC0003FFE0001FFFFFFC0
310
003FFF0003FFFFFFFFC0007FFFFFE00070008000FFFFFFC0007FFF0000007FF8
310
000003FFFF80007F0001FFFFFF8000F8000FFFFFF8000FF8000001FFFE000000
310
7FFFFFF0001FFFFFFE0001FFFFFFC0003FFE0001FFFFFFC0003FFF0003FFFFFF
310
FFC000FFFFFFE00070008000FFFFFFC0007FFF0000007FF8000003FFFF80007F
310
0001FFFFFF8000F8001FFFFFF8000FF8000001FFFE0000007FFFFFF0001FFFFF
310
FE0003FFFFFFE0003FFE0003FFFFFFE0003FFF0003FFFFFFFFC000FFFFFFE000
310
70008000FFFFFFC0007FFE0000007FF8000003FFFF80007F0001FFFFFF8000F0
310
001FFFFFF8000FF8000001FFFE0000007FFFFFF0001FFFFFFC0003FFFFFFE000
310
1FFC0003FFFFFFE0001FFF0003FFFFFFFFC000FFFFFFC00070008000FFFFFF80
310
007FFE0000007FF0000003FFFF80007F0001FFFFFF0000F0001FFFFFF8000FF8
310
000001FFFE0000007FFFFFF0001FFFFFFC0007FFFFFFF0001FFC0007FFFFFFF0
310
001FFF0003FFFFFFFFC000FFFFFFC00070008001FFFFFF0000FFFE0000003FF0
310
000001FFFF80007F0001FFFFFF0000F8001FFFFFF0000FF8000001FFFE000000
310
7FFFFFF0001FFFFFFC0007FFFFFFF0001FFC0007FFFFFFF0001FFF0003FFFFFF
310
FFC001FFFFFF80007000FFFFFFFFFE0000FFFE0008003FF0008001FFFF80007F
310
FFFFFFFFFC0000FFFFFFFFFFE0000FF8000001FFFE0000007FFFFFF0001FFFFF
310
F8000FFFFFFFF8000FF8000FFFFFFFF8000FFF0003FFFFFFFFFFFFFFFFFF0000
310
7000FFFFFFFFFC0000FFFC0008003FF0008001FFFF80007FFFFFFFFFF80001FF
310
FFFFFFFF80000FF8000001FFFE0000007FFFFFF0001FFFFFF8000FFFFFFFF800
310
0FF8000FFFFFFFF8000FFF0003FFFFFFFFFFFFFFFFFE0000F000FFFFFFFFE000
310
00FFFC000C003FE000C001FFFF80007FFFFFFFFFC00001FFFFFFFFFE00001FF8
310
000001FFFE0000007FFFFFF0001FFFFFF8000FFFFFFFF8000FF8000FFFFFFFF8
310
000FFF0003FFFFFFFFFFFFFFFFF00000F000FFFFFFFE000001FFFC000C001FE0
310
00C000FFFF80007FFFFFFFFE000001FFFFFFFFE000001FF80FFFFFFFFFFFFFC0
310
7FFFFFF0001FFFFFF8000FFFFFFFF8000FF8000FFFFFFFF8000FFF0003FFFFFF
310
FFFFFFFFFF800000F000FFFFFFC0000001FFFC001C001FE001C000FFFF80007F
310
FFFFFF80000003FFFFFFF80000001FF80FFFFFFFFFFFFFC07FFFFFF0001FFFFF
310
F8001FFFFFFFFC000FF8001FFFFFFFFC000FFF0003FFFFFFFFFFFFFFF0000001
310
F000FFFFF800000001FFF8001C001FE001C000FFFF80007FFFFFF800000003FF
310
FFFF800000003FF80FFFFFFFFFFFFFC07FFFFFF0001FFFFFF8001FFFFFFFFC00
310
0FF8001FFFFFFFFC000FFF0003FFFFFFFFFFFFFE00000001F000FFFFC0000000
310
03FFF8001E001FC001E000FFFF80007FFFFF8000000007FFFFFC000000003FF8
310
0FFFFFFFFFFFFFC07FFFFFF0001FFFFFF8001FFFFFFFFC000FF8001FFFFFFFFC
310
000FFF0003FFFFFFFFFFFFE000000003F000FFFE0000000007FFF8001E000FC0
310
01E0007FFF80007FFFFE0000000007FFFFE0000000007FF80FFFFFFFFFFFFFC0
310
7FFFFFF0001FFFFFF0001FFFFFFFFC0007F0001FFFFFFFFC0007FF0003FFFFFF
310
FFFFFF0000000003F000FFF80000000007FFF8001E000FC003E0007FFF80007F
310
FFF0000000000FFFFF8000000000FFF80FFFFFFFFFFFFFC07FFFFFF0001FFFFF
310
F0001FFFFFFFFC0007F0001FFFFFFFFC0007FF0003FFFFFFFFFFFC0000000007
310
F000FFE0000000000FFFF0003E000FC003E0007FFF80007FFFC0000000001FFF
310
FE0000000001FFF80FFFFFFFFFFFFFC07FFFFFF0001FFFFFF0001FFFFFFFFC00
310
07F0001FFFFFFFFC0007FF0003FFFFFFFFFFF0000000000FF000FFC000000000
310
1FFFF0003F000F8003F0003FFF80007FFF80000000003FFFF80000000003FFF8
310
0FFFFFFFFFFFFFC07FFFFFF0001FFFFFF0001FFFFFFFFC0007F0001FFFFFFFFC
310
0007FF0003FFFFFFFFFFE0000000001FF000FF00000000007FFFF0003F000780
310
03F0003FFF80007FFF00000000007FFFF00000000007FFF80FFFFFFFFFFFFFC0
310
7FFFFFF0001FFFFFF0001FFFFFFFFC0007F0001FFFFFFFFC0007FF0003FFFFFF
310
FFFF80000000007FF000FE0000000000FFFFE0003F00078007F0003FFF80007F
310
FE0000000001FFFFE0000000001FFFF80FFFFFFFFFFFFFC07FFFFFF0001FFFFF
310
F0001FFFFFFFFC0007F0001FFFFFFFFC0007FF0003FFFFFFFFFF0000000000FF
310
F000FC0000000003FFFFE0007F00078007F0003FFF80007FFC0000000007FFFF
310
C0000000007FFFF80FFFFFFFFFFFFFC07FFFFFF0001FFFFFF8001FFFFFFFFC00
310
0FF8001FFFFFFFFC000FFF0003FFFFFFFFFE0000000003FFF000FC000000000F
310
FFFFE0007F80070007F8001FFF80007FF8000000001FFFFF8000000001FFFFF8
310
0FFFFFFFFFFFFFC07FFFFFF0001FFFFFF8001FFFFFFFFC000FF8001FFFFFFFFC
310
000FFF0003FFFFFFFFFC000000000FFFF000F8000000007FFFFFE0007F800700
310
07F8001FFF80007FF000000000FFFFFF800000000FFFFFF80FFFFFFFFFFFFFC0
310
7FFFFFF0001FFFFFF8000FFFFFFFF8000FF8000FFFFFFFF8000FFF0003FFFFFF
310
FFFC000000007FFFF000F800000007FFFFFFC0007F8003000FF8001FFF80007F
310
F000000007FFFFFF000000007FFFFFF80FFFFFFFFFFFFFC07FFFFFF0001FFFFF
310
F8000FFFFFFFF8000FF8000FFFFFFFF8000FFF0003FFFFFFFFF80000000FFFFF
310
F000F0000000FFFFFFFFC000FF8003000FF8001FFF80007FE0000000FFFFFFFF
310
0000000FFFFFFFF8000001FFFE0000007FFFFFF0001FFFFFF8000FFFFFFFF800
310
0FF8000FFFFFFFF8000FFF0003FFFFFFFFF8000000FFFFFFF000F000000FFFFF
310
FFFFC000FFC002000FF8000FFF80007FE000001FFFFFFFFE000001FFFFFFFFF8
310
000001FFFE0000007FFFFFF0001FFFFFF8000FFFFFFFF8000FF8000FFFFFFFF8
310
000FFF0003FFFFFFFFF000001FFFFFFFF000E00000FFFFFFFFFFC000FFC00200
310
0FFC000FFF80007FE00001FFFFFFFFFE00001FFFFFFFFFF8000001FFFE000000
310
7FFFFFF0001FFFFFFC000FFFFFFFF8001FFC000FFFFFFFF8001FFF0003FFFFFF
310
FFF00001FFFFFFFFF000E00007FFFFFFFFFF8000FFC000001FFC000FFF80007F
310
C0000FFFFFFFFFFE0000FFFFFFFFFFF8000001FFFE0000007FFFFFF0001FFFFF
310
FC0007FFFFFFF0001FFC0007FFFFFFF0001FFF0003FFFFFFFFF00007FFFFFFFF
310
F000E0001FFFFFFFFFFF8000FFC000001FFC000FFF80007FC0003FFFFFFFFFFE
310
0001FFFFFFFFFFF8000001FFFE0000007FFFFFF0001FFFFFFC0007FFFFFFF000
310
1FFC0007FFFFFFF0001FFF0003FFFFFFFFF0001FFFFFFFFFF000E0003FFFFF00
310
03FF8001FFE000001FFC0007FF80007FC0007FFFFF0007FC0003FFFFF0003FF8
310
000001FFFE0000007FFFFFF0001FFFFFFC0003FFFFFFE0001FFC0003FFFFFFE0
310
001FFF0003FFFFFFFFF0003FFFFFFFFFF000E0003FFFFF0001FF8001FFE00000
310
1FFE0007FF80007FC0007FFFFE0003FC0007FFFFE0003FF8000001FFFE000000
310
7FFFFFF0001FFFFFFE0003FFFFFFE0003FFE0003FFFFFFE0003FFF0003FFFFFF
310
FFF0003FFFFF8001F000E0003FFFFF0001FF0001FFE000001FFE0007FF80007F
310
C0007FFFFE0003FC0007FFFFE0003FF8000001FFFE0000007FFFFFF0001FFFFF
310
FE0001FFFFFFC0003FFE0001FFFFFFC0003FFF0003FFFFFFFFF0003FFFFF0001
310
F000E0003FFFFF0003FF0001FFE000003FFE0007FF80007FC0007FFFFE0003FC
310
0007FFFFE0003FF8000001FFFE0000007FFFFFF0001FFFFFFF0001FFFFFFC000
310
7FFF0001FFFFFFC0007FFF0003FFFFFFFFF0003FFFFF0001F000E0003FFFFE00
310
03FF0003FFF000003FFE0003FF80007FC0007FFFFC0003FE0007FFFFE0003FF8
310
000001FFFE0000007FFFFFF0001FFFFFFF0000FFFFFF80007FFF0000FFFFFF80
310
007FFF0003FFFFFFFFF0003FFFFF0001F000E0003FFFFE0003FF0003FFF00000
310
3FFF0003FF80007FC0007FFFFC0007FE0007FFFFC0003FF8000001FFFE000000
310
7FFFFFF0001FFFFFFF80007FFFFF0000FFFF80007FFFFF0000FFFF0003FFFFFF
310
FFF0003FFFFF0003F000E0003FFFFC0003FE0003FFF000003FFF0003FF80007F
310
E0003FFFF80007FE0003FFFFC0007FF8000001FFFE0000007FFFFFF0001FFFFF
310
FF80003FFFFE0000FFFF80003FFFFE0000FFFF0003FFFFFFFFF0001FFFFE0003
310
F000F0001FFFF80003FE0003FFF000007FFF0001FF80007FE0003FFFF00007FE
310
0001FFFF80007FF8000001FFFE0000007FFFFFF0001FFFFFFFC0000FFFF80001
310
FFFFC0000FFFF80001FFFF0003FFFFFFFFF0001FFFFC0003F000F0000FFFF000
310
07FE0007FFF800007FFF0001FF80007FE0001FFFE00007FF0000FFFE00007FF8
310
000001FFFE0000007FFFFFF0001FFFFFFFC00003FFE00001FFFFC00003FFE000
310
01FFFF0003FFFFFFFFF8000FFFF80003F000F00003FFC00007FC0007FFF80000
310
7FFF8001FF80007FF00007FF80000FFF00007FF80000FFF8000001FFFE000000
310
7F80000000000001FFE000003E000003FFFFE000003E000003FFFF0003FFFFFF
310
FFF80003FFE00007F000F800000000000FFC0007FFF800007FFF8001FF80007F
310
F000000000000FFF000000000000FFF8000001FFFE0000007F80000000000001
310
FFF0000000000007FFFFF0000000000007FFFF0003FFFFFFFFFC00007E000007
310
F000F800000000000FFC0007FFF80000FFFF8000FF80007FF800000000001FFF
310
800000000001FFF8000001FFFE0000007F80000000000001FFF800000000000F
310
FFFFF800000000000FFFFF0003FFFFFFFFFC00000000000FF000FC0000000000
310
1FFC0007FFFC0000FFFF8000FF80007FF800000000003FFFC00000000001FFF8
310
000001FFFE0000007F80000000000001FFF800000000000FFFFFF80000000000
310
0FFFFF0003FFFFFFFFFE00000000001FF000FE00000000003FF8000FFFFC0000
310
FFFF8000FF80007FFC00000000003FFFC00000000003FFF8000001FFFE000000
310
7F80000000000001FFFC00000000001FFFFFFC00000000001FFFFF0003FFFFFF
310
FFFF00000000001FF000FF00000000003FF8000FFFFC0000FFFFC000FF80007F
310
FE00000000007FFFE00000000007FFF8000001FFFE0000007F80000000000001
310
FFFE00000000003FFFFFFE00000000003FFFFF0003FFFFFFFFFF80000000003F
310
F000FF80000000007FF8000FFFFC0001FFFFC0007F80007FFF0000000000FFFF
310
F0000000000FFFF800000000000000007F80000000000001FFFF8000000000FF
310
FFFFFF8000000000FFFFFF0003FFFFFFFFFFC0000000007FF000FFC000000000
310
FFF8000FFFFE0001FFFFC0007F80007FFF8000000001FFFFF8000000001FFFF8
310
00000000000000007F80000000000001FFFFC000000001FFFFFFFFC000000001
310
FFFFFF0003FFFFFFFFFFE000000000FFF000FFE000000003FFF0001FFFFE0001
310
FFFFC0007F80007FFFC000000007FFFFFE000000003FFFF80000000000000000
310
7F80000000000001FFFFE000000003FFFFFFFFE000000003FFFFFF0003FFFFFF
310
FFFFF000000003FFF000FFF80000000FFFF0001FFFFE0001FFFFE0007F80007F
310
FFF00000000FFFFFFF00000000FFFFF800000000000000007F80000000000001
310
FFFFF80000000FFFFFFFFFF80000000FFFFFFF0003FFFFFFFFFFFC0000000FFF
310
F000FFFE0000003FFFF0001FFFFE0003FFFFE0003F80007FFFFC0000003FFFFF
310
FFC0000003FFFFF800000000000000007F80000000000001FFFFFE0000003FFF
310
FFFFFFFE0000003FFFFFFF0003FFFFFFFFFFFF0000003FFFF000FFFF800000FF
310
FFF0001FFFFF0003FFFFE0003F80007FFFFF000001FFFFFFFFF800001FFFFFF8
310
00000000000000007F80000000000001FFFFFFC00001FFFFFFFFFFFFC00001FF
310
FFFFFF0003FFFFFFFFFFFFC00000FFFFF000FFFFF8000FFFFFFFFFFFFFFFFFFF
310
FFFFFFFFFFFFFFFFFFFFF0001FFFFFFFFFFF0000FFFFFFF80000000000000000
310
7FFFFFFFFFFFFFFFFFFFFFFC001FFFFFFFFFFFFFFC001FFFFFFFFFFFFFFFFFFF
310
FFFFFFFC001FFFFFF000FFFFFFFFFFFFFFFFFFFFFFFFFFFFFFFFFFFFFFFFFFFF
310
FFFFFFFFFFFFFFFFFFFFFFFFFFFFFFFFFFFFFFFFFFFFFFFFFFFFFFFFFFFFFFFF
310
FFFFFFFFFFFFFFFFFFFFFFFFFFFFFFFFFFFFFFFFFFFFFFFFFFFFFFFFFFFFFFFF
310
F000FFFFFFFFFFFFFFFFFFFFFFFFFFFFFFFFFFFFFFFFFFFFFFFFFFFFFFFFFFFF
310
FFFFFFFFFFFFFFFFFFFFFFFFFFFFFFFFFFFFFFFFFFFFFFFFFFFFFFFFFFFFFFFF
310
FFFFFFFFFFFFFFFFFFFFFFFFFFFFFFFFFFFFFFFFFFFFFFFFF000FFFFFFFFFFFF
310
FFFFFFFFFFFFFFFFFFFFFFFFFFFFFFFFFFFFFFFFFFFFFFFFFFFFFFFFFFFFFFFF
310
FFFFFFFFFFFFFFFFFFFFFFFFFFFFFFFFFFFFFFFFFFFFFFFFFFFFFFFFFFFFFFFF
310
FFFFFFFFFFFFFFFFFFFFFFFFFFFFFFFFF000FFFFFFFFFFFFFFFFFFFFFFFFFFFF
310
FFFFFFFFFFFFFFFFFFFFFFFFFFFFFFFFFFFFFFFFFFFFFFFFFFFFFFFFFFFFFFFF
310
FFFFFFFFFFFFFFFFFFFFFFFFFFFFFFFFFFFFFFFFFFFFFFFFFFFFFFFFFFFFFFFF
310
FFFFFFFFFFFFFFFFF000FFFFFFFFFFFFFFFFFFFFFFFFFFFFFFFFFFFFFFFFFFFF
310
FFFFFFFFFFFFFFFFFFFFFFFFFFFFFFFFFFFFFFFFFFFFFFFFFFFFFFFFFFFFFFFF
310
FFFFFFFFFFFFFFFFFFFFFFFFFFFFFFFFFFFFFFFFFFFFFFFFFFFFFFFFFFFFFFFF
310
F000FFFFFFFFFFFFFFFFFFFFFFFFFFFFFFFFFFFFFFFFFFFFFFFFFFFFFFFFFFFF
310
FFFFFFFFFFFFFFFFFFFFFFFFFFFFFFFFFFFFFFFFFFFFFFFFFFFFFFFFFFFFFFFF
310
FFFFFFFFFFFFFFFFFFFFFFFFFFFFFFFFFFFFFFFFFFFFFFFFF000FFFFFFFFFFFF
310
FFFFFFFFFFFFFFFFFFFFFFFFFFFFFFFFFFFFFFFFFFFFFFFFFFFFFFFFFFFFFFFF
310
FFFFFFFFFFFFFFFFFFFFFFFFFFFFFFFFFFFFFFFFFFFFFFFFFFFFFFFFFFFFFFFF
310
FFFFFFFFFFFFFFFFFFFFFFFFFFFFFFFFF000FFFFFFFFFFFFFFFFFFFFFFFFFFFF
310
FFFFFFFFFFFFFFFFFFFFFFFFFFFFFFFFFFFFFFFFFFFFFFFFFFFFFFFFFFFFFFFF
310
FFFFFFFFFFFFFFFFFFFFFFFFFFFFFFFFFFFFFFFFFFFFFFFFFFFFFFFFFFFFFFFF
310
FFFFFFFFFFFFFFFFF000FFFFFFFFFFFFFFFFFFFFFFFFFFFFFFFFFFFFFFFFFFFF
310
FFFFFFFFFFFFFFFFFFFFFFFFFFFFFFFFFFFFFFFFFFFFFFFFFFFFFFFFFFFFFFFF
310
FFFFFFFFFFFFFFFFFFFFFFFFFFFFFFFFFFFFFFFFFFFFFFFFFFFFFFFFFFFFFFFF
310
F000FFFFFFFFFFFFFFFFFFFFFFFFFFFFFFFFFFFFFFFFFFFFFFFFFFFFFFFFFFFF
310
FFFFFFFFFFFFFFFFFFFFFFFFFFFFFFFFFFFFFFFFFFFFFFFFFFFFFFFFFFFFFFFF
310
FFFFFFFFFFFFFFFFFFFFFFFFFFFFFFFFFFFFFFFFFFFFFFFFF000FFFFFFFFFFFF
310
FFFFFFFFFFFFFFFFFFFFFFFFFFFFFFFFFFFFFFFFFFFFFFFFFFFFFFFFFFFFFFFF
310
FFFFFFFFFFFFFFFFFFFFFFFFFFFFFFFFFFFFFFFFFFFFFFFFFFFFFFFFFFFFFFFF
310
FFFFFFFFFFFFFFFFFFFFFFFFFFFFFFFFF000FFFFFFFFFFFFFFFFFFFFFFFFFFFF
310
FFFFFFFFFFFFFFFFFFFFFFFFFFFFFFFFFFFFFFFFFFFFFFFFFFFFFFFFFFFFFFFF
310
FFFFFFFFFFFFFFFFFFFFFFFFFFFFFFFFFFFFFFFFFFFFFFFFFFFFFFFFFFFFFFFF
310
FFFFFFFFFFFFFFFFF000FFFFFFFFFFFFFFFFFFFFFFFFFFFFFFFFFFFFFFFFFFFF
310
FFFFFFFFFFFFFFFFFFFFFFFFFFFFFFFFFFFFFFFFFFFFFFFFFFFFFFFFFFFFFFFF
310
FFFFFFFFFFFFFFFFFFFFFFFFFFFFFFFFFFFFFFFFFFFFFFFFFFFFFFFFFFFFFFFF
310
F000FFFFFFFFFFFFFFFFFFFFFFFFFFFFFFFFFFFFFFFFFFFFFFFFFFFFFFFFFFFF
310
FFFFFFFFFFFFFFFFFFFFFFFFFFFFFFFFFFFFFFFFFFFFFFFFFFFFFFFFFFFFFFFF
310
FFFFFFFFFFFFFFFFFFFFFFFFFFFFFFFFFFFFFFFFFFFFFFFFF000FFFFFFFFFFFF
310
FFFFFFFFFFFFFFFFFFFFFFFFFFFFFFFFFFFFFFFFFFFFFFFFFFFFFFFFFFFFFFFF
310
FFFFFFFFFFFFFFFFFFFFFFFFFFFFFFFFFFFFFFFFFFFFFFFFFFFFFFFFFFFFFFFF
310
FFFFFFFFFFFFFFFFFFFFFFFFFFFFFFFFF000FFFFFFFFFFFFFFFFFFFFFFFFFFFF
310
FFFFFFFFFFFFFFFFFFFFFFFFFFFFFFFFFFFFFFFFFFFFFFFFFFFFFFFFFFFFFFFF
310
FFFFFFFFFFFFFFFFFFFFFFFFFFFFFFFFFFFFFFFFFFFFFFFFFFFFFFFFFFFFFFFF
310
FFFFFFFFFFFFFFFFF000FFFFFFFFFFFFFFFFFFFFFFFFFFFFFFFFFFFFFFFFFFFF
310
FFFFFFFFFFFFFFFFFFFFFFFFFFFFFFFFFFFFFFFFFFFFFFFFFFFFFFFFFFFFFFFF
310
FFFFFFFFFFFFFFFFFFFFFFFFFFFFFFFFFFFFFFFFFFFFFFFFFFFFFFFFFFFFFFFF
310
F000FFFFFFFFFFFFFFFFFFFFFFFFFFFFFFFFFFFFFFFFFFFFFFFFFFFFFFFFFFFF
310
FFFFFFFFFFFFFFFFFFFFFFFFFFFFFFFFFFFFFFFFFFFFFFFFFFFFFFFFFFFFFFFF
310
FFFFFFFFFFFFFFFFFFFFFFFFFFFFFFFFFFFFFFFFFFFFFFFFF000FFFFFFFFFFFF
310
FFFFFFFFFFFFFFFFFFFFFFFFFFFFFFFFFFFFFFFFFFFFFFFFFFFFFFFFFFFFFFFF
310
FFFFFFFFFFFFFFFFFFFFFFFFFFFFFFFFFFFFFFFFFFFFFFFFFFFFFFFFFFFFFFFF
310
FFFFFFFFFFFFFFFFFFFFFFFFFFFFFFFFF000FFFFFFFFFFFFFFFFFFFFFFFFFFFF
310
FFFFFFFFFFFFFFFFFFFFFFFFFFFFFFFFFFFFFFFFFFFFFFFFFFFFFFFFFFFFFFFF
310
FFFFFFFFFFFFFFFFFFFFFFFFFFFFFFFFFFFFFFFFFFFFFFFFFFFFFFFFFFFFFFFF
310
FFFFFFFFFFFFFFFFF000FFFFFFFFFFFFFFFFFFFFFFFFFFFFFFFFFFFFFFFFFFFF
310
FFFFFFFFFFFFFFFFFFFFFFFFFFFFFFFFFFFFFFFFFFFFFFFFFFFFFFFFFFFFFFFF
310
FFFFFFFFFFFFFFFFFFFFFFFFFFFFFFFFFFFFFFFFFFFFFFFFFFFFFFFFFFFFFFFF
310
F000FFFFFFFFFFFFFFFFFFFFFFFFFFFFFFFFFFFFFFFFFFFFFFFFFFFFFFFFFFFF
310
FFFFFFFFFFFFFFFFFFFFFFFFFFFFFFFFFFFFFFFFFFFFFFFFFFFFFFFFFFFFFFFF
310
FFFFFFFFFFFFFFFFFFFFFFFFFFFFFFFFFFFFFFFFFFFFFFFFF000FFFFFFFFFFFF
310
FFFFFFFFFFFFFFFFFFFFFFFFFFFFFFFFFFFFFFFFFFFFFFFFFFFFFFFFFFFFFFFF
310
FFFFFFFFFFFFFFFFFFFFFFFFFFFFFFFFFFFFFFFFFFFFFFFFFFFFFFFFFFFFFFFF
310
FFFFFFFFFFFFFFFFFFFFFFFFFFFFFFFFF0000000000000000000000000000000
310
00000000000000000000000090010000FF000000030201124700610072006100
310
6D006F006E00640020005000720065006D0072002000500072006F0000000000
310
0000000000000000000000000000000000000000000000004700610072006100
310
6D006F006E0064005000720065006D007200500072006F002D00490074000000
310
0000000000000000000000000000000000000000000000000000000000000000
310
0000000000000000000000000000000000000000000000000000000000000000
310
0000000000000000000000000000000000000000000000004900740061006C00
310
6900630000000000000000000000000000000000000000000000000000000000
310
0000000000000000000000000000000000000000000000000000FFFFFFFFFFFF
310
FFFFFFFFFFFFFFFFFFFFFFFFFFFFFFFFFFFFFFFFFFFFFFFFFFFFFFFFFFFFFFFF
310
FFFFFFFFFFFFFFFFFFFFFFFFFFFFFFFFFFFFFFFFFFFFFFFF6476000800000000
310
FFFFFFFF20FF20202C0000001E0000000E0000000C0000000000000012000000
310
3100000090010000000000006000000060000000200004FB20002000FF00001B
310
00FFFFFF01002200E80300005905000034020000BF0200E07BE0005000000000
310
000000009F01000000000000616C000800000000E40100007001000002000000
  1
OLE
  0
ENDSEC
  0
SECTION
  2
OBJECTS
  0
DICTIONARY
  5
C
330
0
100
AcDbDictionary
281
     1
  3
ACAD_GROUP
350
D
  3
ACAD_LAYOUT
350
1A
  3
ACAD_MLEADERSTYLE
350
2B3
  3
ACAD_MLINESTYLE
350
17
  3
ACAD_PLOTSETTINGS
350
19
  3
ACAD_PLOTSTYLENAME
350
E
  3
ACAD_TABLESTYLE
350
2B2
  3
ACAD_VISUALSTYLE
350
2A
  3
AcDbVariableDictionary
350
2B4
  0
DICTIONARY
  5
D
102
{ACAD_REACTORS
330
C
102
}
330
C
100
AcDbDictionary
281
     1
  0
DICTIONARY
  5
1A
102
{ACAD_REACTORS
330
C
102
}
330
C
100
AcDbDictionary
281
     1
  3
Layout1
350
1E
  3
Layout2
350
26
  3
Model
350
22
  0
DICTIONARY
  5
2B3
102
{ACAD_REACTORS
330
C
102
}
330
C
100
AcDbDictionary
281
     1
  0
DICTIONARY
  5
17
102
{ACAD_REACTORS
330
C
102
}
330
C
100
AcDbDictionary
281
     1
  3
Standard
350
18
  0
DICTIONARY
  5
19
102
{ACAD_REACTORS
330
C
102
}
330
C
100
AcDbDictionary
281
     1
  0
ACDBDICTIONARYWDFLT
  5
E
102
{ACAD_REACTORS
330
C
102
}
330
C
100
AcDbDictionary
281
     1
  3
Normal
350
F
100
AcDbDictionaryWithDefault
340
F
  0
DICTIONARY
  5
2B2
102
{ACAD_REACTORS
330
C
102
}
330
C
100
AcDbDictionary
281
     1
  0
DICTIONARY
  5
2A
102
{ACAD_REACTORS
330
C
102
}
330
C
100
AcDbDictionary
281
     1
  3
2dWireframe
350
2F
  3
3D Hidden
350
31
  3
3dWireframe
350
30
  3
Basic
350
32
  3
Brighten
350
36
  3
ColorChange
350
3A
  3
Conceptual
350
34
  3
Dim
350
35
  3
Facepattern
350
39
  3
Flat
350
2B
  3
FlatWithEdges
350
2C
  3
Gouraud
350
2D
  3
GouraudWithEdges
350
2E
  3
Linepattern
350
38
  3
Realistic
350
33
  3
Thicken
350
37
  0
DICTIONARY
  5
2B4
102
{ACAD_REACTORS
330
C
102
}
330
C
100
AcDbDictionary
281
     1
  3
PSOLHEIGHT
350
2B6
  3
PSOLWIDTH
350
2B5
  0
LAYOUT
  5
1E
102
{ACAD_REACTORS
330
1A
102
}
330
1A
100
AcDbPlotSettings
  1

  2
none_device
  4

  6

 40
0.0
 41
0.0
 42
0.0
 43
0.0
 44
0.0
 45
0.0
 46
0.0
 47
0.0
 48
0.0
 49
0.0
140
0.0
141
0.0
142
1.0
143
1.0
 70
   688
 72
     0
 73
     0
 74
     5
  7

 75
    16
147
1.0
148
0.0
149
0.0
100
AcDbLayout
  1
Layout1
 70
     1
 71
     1
 10
0.0
 20
0.0
 11
420.0
 21
297.0
 12
0.0
 22
0.0
 32
0.0
 14
1.0000000000E+20
 24
1.0000000000E+20
 34
1.0000000000E+20
 15
-1.0000000000E+20
 25
-1.0000000000E+20
 35
-1.0000000000E+20
146
0.0
 13
0.0
 23
0.0
 33
0.0
 16
1.0
 26
0.0
 36
0.0
 17
0.0
 27
1.0
 37
0.0
 76
     0
330
1B
  0
LAYOUT
  5
26
102
{ACAD_REACTORS
330
1A
102
}
330
1A
100
AcDbPlotSettings
  1

  2
none_device
  4

  6

 40
0.0
 41
0.0
 42
0.0
 43
0.0
 44
0.0
 45
0.0
 46
0.0
 47
0.0
 48
0.0
 49
0.0
140
0.0
141
0.0
142
1.0
143
1.0
 70
   688
 72
     0
 73
     0
 74
     5
  7

 75
    16
147
1.0
148
0.0
149
0.0
100
AcDbLayout
  1
Layout2
 70
     1
 71
     2
 10
0.0
 20
0.0
 11
0.0
 21
0.0
 12
0.0
 22
0.0
 32
0.0
 14
0.0
 24
0.0
 34
0.0
 15
0.0
 25
0.0
 35
0.0
146
0.0
 13
0.0
 23
0.0
 33
0.0
 16
1.0
 26
0.0
 36
0.0
 17
0.0
 27
1.0
 37
0.0
 76
     0
330
23
  0
LAYOUT
  5
22
102
{ACAD_REACTORS
330
1A
102
}
330
1A
100
AcDbPlotSettings
  1

  2
none_device
  4

  6

 40
0.0
 41
0.0
 42
0.0
 43
0.0
 44
0.0
 45
0.0
 46
0.0
 47
0.0
 48
0.0
 49
0.0
140
0.0
141
0.0
142
1.0
143
1.0
 70
  1712
 72
     0
 73
     0
 74
     0
  7

 75
     0
147
1.0
148
0.0
149
0.0
100
AcDbLayout
  1
Model
 70
     1
 71
     0
 10
0.0
 20
0.0
 11
297.0
 21
210.0
 12
0.0
 22
0.0
 32
0.0
 14
0.0
 24
0.0
 34
0.0
 15
297.0
 25
210.0
 35
0.0
146
0.0
 13
0.0
 23
0.0
 33
0.0
 16
1.0
 26
0.0
 36
0.0
 17
0.0
 27
1.0
 37
0.0
 76
     0
330
1F
331
29
  0
MLINESTYLE
  5
18
102
{ACAD_REACTORS
330
17
102
}
330
17
100
AcDbMlineStyle
  2
Standard
 70
     0
  3

 62
   256
 51
90.0
 52
90.0
 71
     2
 49
0.5
 62
   256
  6
BYLAYER
 49
-0.5
 62
   256
  6
BYLAYER
  0
ACDBPLACEHOLDER
  5
F
102
{ACAD_REACTORS
330
E
102
}
330
E
  0
VISUALSTYLE
  5
2F
102
{ACAD_REACTORS
330
2A
102
}
330
2A
100
AcDbVisualStyle
  2
2dWireframe
 70
     4
 71
     0
 72
     2
 73
     0
 90
        0
 40
-0.6
 41
-30.0
 62
     5
 63
     7
 74
     1
 91
        4
 64
     7
 65
   257
 75
     1
175
     1
 42
1.0
 92
        0
 66
   257
 43
1.0
 76
     1
 77
     6
 78
     2
 67
     7
 79
     5
170
     0
171
     0
290
     0
174
     0
 93
        1
 44
0.0
173
     0
291
     0
 45
0.0
1001
ACAD
1000
AcDbSavedByObjectVersion
1070
     0
  0
VISUALSTYLE
  5
31
102
{ACAD_REACTORS
330
2A
102
}
330
2A
100
AcDbVisualStyle
  2
3D Hidden
 70
     6
 71
     1
 72
     2
 73
     2
 90
        0
 40
-0.6
 41
-30.0
 62
     5
 63
     7
 74
     2
 91
        2
 64
     7
 65
   257
 75
     2
175
     1
 42
40.0
 92
        0
 66
   257
 43
1.0
 76
     1
 77
     6
 78
     2
 67
     7
 79
     3
170
     0
171
     0
290
     0
174
     0
 93
        1
 44
0.0
173
     0
291
     0
 45
0.0
1001
ACAD
1000
AcDbSavedByObjectVersion
1070
     0
  0
VISUALSTYLE
  5
30
102
{ACAD_REACTORS
330
2A
102
}
330
2A
100
AcDbVisualStyle
  2
3dWireframe
 70
     5
 71
     0
 72
     2
 73
     0
 90
        0
 40
-0.6
 41
-30.0
 62
     5
 63
     7
 74
     1
 91
        4
 64
     7
 65
   257
 75
     1
175
     1
 42
1.0
 92
        0
 66
   257
 43
1.0
 76
     1
 77
     6
 78
     2
 67
     7
 79
     5
170
     0
171
     0
290
     0
174
     0
 93
        1
 44
0.0
173
     0
291
     0
 45
0.0
1001
ACAD
1000
AcDbSavedByObjectVersion
1070
     0
  0
VISUALSTYLE
  5
32
102
{ACAD_REACTORS
330
2A
102
}
330
2A
100
AcDbVisualStyle
  2
Basic
 70
     7
 71
     1
 72
     0
 73
     1
 90
        0
 40
-0.6
 41
-30.0
 62
     5
 63
     7
 74
     0
 91
        4
 64
     7
 65
   257
 75
     1
175
     1
 42
1.0
 92
        8
 66
     7
 43
1.0
 76
     1
 77
     6
 78
     2
 67
     7
 79
     5
170
     0
171
     0
290
     0
174
     0
 93
        1
 44
0.0
173
     0
291
     1
 45
0.0
1001
ACAD
1000
AcDbSavedByObjectVersion
1070
     0
  0
VISUALSTYLE
  5
36
102
{ACAD_REACTORS
330
2A
102
}
330
2A
100
AcDbVisualStyle
  2
Brighten
 70
    12
 71
     2
 72
     2
 73
     0
 90
        0
 40
-0.6
 41
-30.0
 62
     5
 63
     7
 74
     1
 91
        4
 64
     7
 65
   257
 75
     1
175
     1
 42
1.0
 92
        8
 66
     7
 43
1.0
 76
     1
 77
     6
 78
     2
 67
     7
 79
     5
170
     0
171
     0
290
     0
174
     0
 93
        1
 44
50.0
173
     0
291
     1
 45
0.0
1001
ACAD
1000
AcDbSavedByObjectVersion
1070
     0
  0
VISUALSTYLE
  5
3A
102
{ACAD_REACTORS
330
2A
102
}
330
2A
100
AcDbVisualStyle
  2
ColorChange
 70
    16
 71
     2
 72
     2
 73
     3
 90
        0
 40
-0.6
 41
-30.0
 62
     5
 63
     8
 74
     1
 91
        4
 64
     7
 65
   257
 75
     1
175
     1
 42
1.0
 92
        8
 66
     8
 43
1.0
 76
     1
 77
     6
 78
     2
 67
     7
 79
     5
170
     0
171
     0
290
     0
174
     0
 93
        1
 44
0.0
173
     0
291
     1
 45
0.0
1001
ACAD
1000
AcDbSavedByObjectVersion
1070
     0
  0
VISUALSTYLE
  5
34
102
{ACAD_REACTORS
330
2A
102
}
330
2A
100
AcDbVisualStyle
  2
Conceptual
 70
     9
 71
     3
 72
     2
 73
     0
 90
        0
 40
-0.6
 41
-30.0
 62
     5
 63
     7
 74
     2
 91
        2
 64
     7
 65
   257
 75
     1
175
     1
 42
40.0
 92
        8
 66
     7
 43
1.0
 76
     1
 77
     6
 78
     2
 67
     7
 79
     3
170
     0
171
     0
290
     0
174
     0
 93
        1
 44
0.0
173
     0
291
     0
 45
0.0
1001
ACAD
1000
AcDbSavedByObjectVersion
1070
     0
  0
VISUALSTYLE
  5
35
102
{ACAD_REACTORS
330
2A
102
}
330
2A
100
AcDbVisualStyle
  2
Dim
 70
    11
 71
     2
 72
     2
 73
     0
 90
        0
 40
-0.6
 41
-30.0
 62
     5
 63
     7
 74
     1
 91
        4
 64
     7
 65
   257
 75
     1
175
     1
 42
1.0
 92
        8
 66
     7
 43
1.0
 76
     1
 77
     6
 78
     2
 67
     7
 79
     5
170
     0
171
     0
290
     0
174
     0
 93
        1
 44
-50.0
173
     0
291
     1
 45
0.0
1001
ACAD
1000
AcDbSavedByObjectVersion
1070
     0
  0
VISUALSTYLE
  5
39
102
{ACAD_REACTORS
330
2A
102
}
330
2A
100
AcDbVisualStyle
  2
Facepattern
 70
    15
 71
     2
 72
     2
 73
     0
 90
        0
 40
-0.6
 41
-30.0
 62
     5
 63
     7
 74
     1
 91
        4
 64
     7
 65
   257
 75
     1
175
     1
 42
1.0
 92
        8
 66
     7
 43
1.0
 76
     1
 77
     6
 78
     2
 67
     7
 79
     5
170
     0
171
     0
290
     0
174
     0
 93
        1
 44
0.0
173
     0
291
     1
 45
0.0
1001
ACAD
1000
AcDbSavedByObjectVersion
1070
     0
  0
VISUALSTYLE
  5
2B
102
{ACAD_REACTORS
330
2A
102
}
330
2A
100
AcDbVisualStyle
  2
Flat
 70
     0
 71
     2
 72
     1
 73
     1
 90
        2
 40
-0.6
 41
30.0
 62
     5
 63
     7
 74
     0
 91
        4
 64
     7
 65
   257
 75
     1
175
     1
 42
1.0
 92
        8
 66
     7
 43
1.0
 76
     1
 77
     6
 78
     2
 67
     7
 79
     5
170
     0
171
     0
290
     0
174
     0
 93
       13
 44
0.0
173
     0
291
     1
 45
0.0
1001
ACAD
1000
AcDbSavedByObjectVersion
1070
     0
  0
VISUALSTYLE
  5
2C
102
{ACAD_REACTORS
330
2A
102
}
330
2A
100
AcDbVisualStyle
  2
FlatWithEdges
 70
     1
 71
     2
 72
     1
 73
     1
 90
        2
 40
-0.6
 41
30.0
 62
     5
 63
     7
 74
     1
 91
        4
 64
     7
 65
   257
 75
     1
175
     1
 42
1.0
 92
        0
 66
   257
 43
1.0
 76
     1
 77
     6
 78
     2
 67
     7
 79
     5
170
     0
171
     0
290
     0
174
     0
 93
       13
 44
0.0
173
     0
291
     1
 45
0.0
1001
ACAD
1000
AcDbSavedByObjectVersion
1070
     0
  0
VISUALSTYLE
  5
2D
102
{ACAD_REACTORS
330
2A
102
}
330
2A
100
AcDbVisualStyle
  2
Gouraud
 70
     2
 71
     2
 72
     2
 73
     1
 90
        2
 40
-0.6
 41
30.0
 62
     5
 63
     7
 74
     0
 91
        4
 64
     7
 65
   257
 75
     1
175
     1
 42
1.0
 92
        0
 66
     7
 43
1.0
 76
     1
 77
     6
 78
     2
 67
     7
 79
     5
170
     0
171
     0
290
     0
174
     0
 93
       13
 44
0.0
173
     0
291
     1
 45
0.0
1001
ACAD
1000
AcDbSavedByObjectVersion
1070
     0
  0
VISUALSTYLE
  5
2E
102
{ACAD_REACTORS
330
2A
102
}
330
2A
100
AcDbVisualStyle
  2
GouraudWithEdges
 70
     3
 71
     2
 72
     2
 73
     1
 90
        2
 40
-0.6
 41
30.0
 62
     5
 63
     7
 74
     1
 91
        4
 64
     7
 65
   257
 75
     1
175
     1
 42
1.0
 92
        0
 66
   257
 43
1.0
 76
     1
 77
     6
 78
     2
 67
     7
 79
     5
170
     0
171
     0
290
     0
174
     0
 93
       13
 44
0.0
173
     0
291
     1
 45
0.0
1001
ACAD
1000
AcDbSavedByObjectVersion
1070
     0
  0
VISUALSTYLE
  5
38
102
{ACAD_REACTORS
330
2A
102
}
330
2A
100
AcDbVisualStyle
  2
Linepattern
 70
    14
 71
     2
 72
     2
 73
     0
 90
        0
 40
-0.6
 41
-30.0
 62
     5
 63
     7
 74
     1
 91
        4
 64
     7
 65
   257
 75
     7
175
     7
 42
1.0
 92
        8
 66
     7
 43
1.0
 76
     1
 77
     6
 78
     2
 67
     7
 79
     5
170
     0
171
     0
290
     0
174
     0
 93
        1
 44
0.0
173
     0
291
     1
 45
0.0
1001
ACAD
1000
AcDbSavedByObjectVersion
1070
     0
  0
VISUALSTYLE
  5
33
102
{ACAD_REACTORS
330
2A
102
}
330
2A
100
AcDbVisualStyle
  2
Realistic
 70
     8
 71
     2
 72
     2
 73
     0
 90
        0
 40
-0.6
 41
-30.0
 62
     5
 63
     7
 74
     1
 91
        0
 64
     7
 65
   257
 75
     1
175
     1
 42
1.0
 92
        8
 66
     8
 43
1.0
 76
     1
 77
     6
 78
     2
 67
     7
 79
     5
170
     0
171
     0
290
     0
174
     0
 93
       13
 44
0.0
173
     0
291
     0
 45
0.0
1001
ACAD
1000
AcDbSavedByObjectVersion
1070
     0
  0
VISUALSTYLE
  5
37
102
{ACAD_REACTORS
330
2A
102
}
330
2A
100
AcDbVisualStyle
  2
Thicken
 70
    13
 71
     2
 72
     2
 73
     0
 90
        0
 40
-0.6
 41
-30.0
 62
     5
 63
     7
 74
     1
 91
        4
 64
     7
 65
   257
 75
     1
175
     1
 42
1.0
 92
       12
 66
     7
 43
1.0
 76
     1
 77
     6
 78
     2
 67
     7
 79
     5
170
     0
171
     0
290
     0
174
     0
 93
        1
 44
0.0
173
     0
291
     1
 45
0.0
1001
ACAD
1000
AcDbSavedByObjectVersion
1070
     0
  0
DICTIONARYVAR
  5
2B6
102
{ACAD_REACTORS
330
2B4
102
}
330
2B4
100
DictionaryVariables
280
     0
  1
80.000000
  0
DICTIONARYVAR
  5
2B5
102
{ACAD_REACTORS
330
2B4
102
}
330
2B4
100
DictionaryVariables
280
     0
  1
5.000000
  0
ENDSEC
  0
EOF
