  0
SECTION
  2
HEADER
  9
$ACADVER
  1
AC1015
  9
$ACADMAINTVER
 70
     6
  9
$DWGCODEPAGE
  3
ANSI_1252
  9
$INSBASE
 10
0.0
 20
0.0
 30
0.0
  9
$EXTMIN
 10
0.0
 20
0.0
 30
0.0
  9
$EXTMAX
 10
297.0
 20
210.0
 30
0.0
  9
$LIMMIN
 10
0.0
 20
0.0
  9
$LIMMAX
 10
297.0
 20
210.0
  9
$ORTHOMODE
 70
     0
  9
$REGENMODE
 70
     1
  9
$FILLMODE
 70
     1
  9
$QTEXTMODE
 70
     0
  9
$MIRRTEXT
 70
     1
  9
$LTSCALE
 40
1.0
  9
$ATTMODE
 70
     1
  9
$TEXTSIZE
 40
2.0
  9
$TRACEWID
 40
1.0
  9
$TEXTSTYLE
  7
Standard
  9
$CLAYER
  8
0
  9
$CELTYPE
  6
ByLayer
  9
$CECOLOR
 62
   256
  9
$CELTSCALE
 40
1.0
  9
$DISPSILH
 70
     0
  9
$DIMSCALE
 40
1.0
  9
$DIMASZ
 40
3.0
  9
$DIMEXO
 40
0.0
  9
$DIMDLI
 40
3.75
  9
$DIMRND
 40
0.0
  9
$DIMDLE
 40
0.0
  9
$DIMEXE
 40
1.0
  9
$DIMTP
 40
0.0
  9
$DIMTM
 40
0.0
  9
$DIMTXT
 40
2.0
  9
$DIMCEN
 40
2.5
  9
$DIMTSZ
 40
0.0
  9
$DIMTOL
 70
     0
  9
$DIMLIM
 70
     0
  9
$DIMTIH
 70
     1
  9
$DIMTOH
 70
     1
  9
$DIMSE1
 70
     0
  9
$DIMSE2
 70
     0
  9
$DIMTAD
 70
     1
  9
$DIMZIN
 70
     0
  9
$DIMBLK
  1

  9
$DIMASO
 70
     1
  9
$DIMSHO
 70
     1
  9
$DIMPOST
  1

  9
$DIMAPOST
  1

  9
$DIMALT
 70
     0
  9
$DIMALTD
 70
     3
  9
$DIMALTF
 40
0.0393700787
  9
$DIMLFAC
 40
1.0
  9
$DIMTOFL
 70
     1
  9
$DIMTVP
 40
0.0
  9
$DIMTIX
 70
     0
  9
$DIMSOXD
 70
     0
  9
$DIMSAH
 70
     0
  9
$DIMBLK1
  1

  9
$DIMBLK2
  1

  9
$DIMSTYLE
  2
ISO-25
  9
$DIMCLRD
 70
     0
  9
$DIMCLRE
 70
     0
  9
$DIMCLRT
 70
     0
  9
$DIMTFAC
 40
1.0
  9
$DIMGAP
 40
1.524
  9
$DIMJUST
 70
     0
  9
$DIMSD1
 70
     0
  9
$DIMSD2
 70
     0
  9
$DIMTOLJ
 70
     0
  9
$DIMTZIN
 70
     0
  9
$DIMALTZ
 70
     0
  9
$DIMALTTZ
 70
     0
  9
$DIMUPT
 70
     0
  9
$DIMDEC
 70
     2
  9
$DIMTDEC
 70
     3
  9
$DIMALTU
 70
     2
  9
$DIMALTTD
 70
     3
  9
$DIMTXSTY
  7
Standard
  9
$DIMAUNIT
 70
     0
  9
$DIMADEC
 70
     2
  9
$DIMALTRND
 40
0.0
  9
$DIMAZIN
 70
     0
  9
$DIMDSEP
 70
    44
  9
$DIMATFIT
 70
     3
  9
$DIMFRAC
 70
     0
  9
$DIMLDRBLK
  1

  9
$DIMLUNIT
 70
     2
  9
$DIMLWD
 70
    -2
  9
$DIMLWE
 70
    -2
  9
$DIMTMOVE
 70
     0
  9
$LUNITS
 70
     2
  9
$LUPREC
 70
     2
  9
$SKETCHINC
 40
1.0
  9
$FILLETRAD
 40
10.0
  9
$AUNITS
 70
     0
  9
$AUPREC
 70
     2
  9
$MENU
  1
.
  9
$ELEVATION
 40
0.0
  9
$PELEVATION
 40
0.0
  9
$THICKNESS
 40
0.0
  9
$LIMCHECK
 70
     0
  9
$CHAMFERA
 40
10.0
  9
$CHAMFERB
 40
10.0
  9
$CHAMFERC
 40
20.0
  9
$CHAMFERD
 40
0.0
  9
$SKPOLY
 70
     0
  9
$TDCREATE
 40
2456044.586620903
  9
$TDUCREATE
 40
2456044.50328757
  9
$TDUPDATE
 40
2456044.586621979
  9
$TDUUPDATE
 40
2456044.503288646
  9
$TDINDWG
 40
0.0000000116
  9
$TDUSRTIMER
 40
0.0000000116
  9
$USRTIMER
 70
     1
  9
$ANGBASE
 50
0.0
  9
$ANGDIR
 70
     0
  9
$PDMODE
 70
     0
  9
$PDSIZE
 40
-1.0
  9
$PLINEWID
 40
0.0
  9
$SPLFRAME
 70
     0
  9
$SPLINETYPE
 70
     6
  9
$SPLINESEGS
 70
     8
  9
$HANDSEED
  5
251
  9
$SURFTAB1
 70
     6
  9
$SURFTAB2
 70
     6
  9
$SURFTYPE
 70
     6
  9
$SURFU
 70
     6
  9
$SURFV
 70
     6
  9
$UCSBASE
  2

  9
$UCSNAME
  2

  9
$UCSORG
 10
0.0
 20
0.0
 30
0.0
  9
$UCSXDIR
 10
1.0
 20
0.0
 30
0.0
  9
$UCSYDIR
 10
0.0
 20
1.0
 30
0.0
  9
$UCSORTHOREF
  2

  9
$UCSORTHOVIEW
 70
     0
  9
$UCSORGTOP
 10
0.0
 20
0.0
 30
0.0
  9
$UCSORGBOTTOM
 10
0.0
 20
0.0
 30
0.0
  9
$UCSORGLEFT
 10
0.0
 20
0.0
 30
0.0
  9
$UCSORGRIGHT
 10
0.0
 20
0.0
 30
0.0
  9
$UCSORGFRONT
 10
0.0
 20
0.0
 30
0.0
  9
$UCSORGBACK
 10
0.0
 20
0.0
 30
0.0
  9
$PUCSBASE
  2

  9
$PUCSNAME
  2

  9
$PUCSORG
 10
0.0
 20
0.0
 30
0.0
  9
$PUCSXDIR
 10
1.0
 20
0.0
 30
0.0
  9
$PUCSYDIR
 10
0.0
 20
1.0
 30
0.0
  9
$PUCSORTHOREF
  2

  9
$PUCSORTHOVIEW
 70
     0
  9
$PUCSORGTOP
 10
0.0
 20
0.0
 30
0.0
  9
$PUCSORGBOTTOM
 10
0.0
 20
0.0
 30
0.0
  9
$PUCSORGLEFT
 10
0.0
 20
0.0
 30
0.0
  9
$PUCSORGRIGHT
 10
0.0
 20
0.0
 30
0.0
  9
$PUCSORGFRONT
 10
0.0
 20
0.0
 30
0.0
  9
$PUCSORGBACK
 10
0.0
 20
0.0
 30
0.0
  9
$USERI1
 70
     0
  9
$USERI2
 70
     0
  9
$USERI3
 70
     0
  9
$USERI4
 70
     0
  9
$USERI5
 70
     0
  9
$USERR1
 40
0.0
  9
$USERR2
 40
0.0
  9
$USERR3
 40
0.0
  9
$USERR4
 40
0.0
  9
$USERR5
 40
0.0
  9
$WORLDVIEW
 70
     1
  9
$SHADEDGE
 70
     3
  9
$SHADEDIF
 70
    70
  9
$TILEMODE
 70
     1
  9
$MAXACTVP
 70
    64
  9
$PINSBASE
 10
0.0
 20
0.0
 30
0.0
  9
$PLIMCHECK
 70
     0
  9
$PEXTMIN
 10
1.0000000000E+20
 20
1.0000000000E+20
 30
1.0000000000E+20
  9
$PEXTMAX
 10
-1.0000000000E+20
 20
-1.0000000000E+20
 30
-1.0000000000E+20
  9
$PLIMMIN
 10
0.0
 20
0.0
  9
$PLIMMAX
 10
420.0
 20
297.0
  9
$UNITMODE
 70
     0
  9
$VISRETAIN
 70
     1
  9
$PLINEGEN
 70
     0
  9
$PSLTSCALE
 70
     1
  9
$TREEDEPTH
 70
  3020
  9
$CMLSTYLE
  2
Standard
  9
$CMLJUST
 70
     0
  9
$CMLSCALE
 40
20.0
  9
$PROXYGRAPHICS
 70
     1
  9
$MEASUREMENT
 70
     1
  9
$CELWEIGHT
370
    -1
  9
$ENDCAPS
280
     0
  9
$JOINSTYLE
280
     0
  9
$LWDISPLAY
290
     1
  9
$INSUNITS
 70
     4
  9
$HYPERLINKBASE
  1

  9
$STYLESHEET
  1

  9
$XEDIT
290
     1
  9
$CEPSNTYPE
380
     0
  9
$PSTYLEMODE
290
     1
  9
$FINGERPRINTGUID
  2
{A9AFBE98-DB38-4E07-AAFF-668C7FFC4B5E}
  9
$VERSIONGUID
  2
{FAEB1C32-E019-11D5-929B-00C0DF256EC4}
  9
$EXTNAMES
290
     1
  9
$PSVPSCALE
 40
0.0
  9
$OLESTARTUP
290
     0
  0
ENDSEC
  0
SECTION
  2
CLASSES
  0
CLASS
  1
ACDBDICTIONARYWDFLT
  2
AcDbDictionaryWithDefault
  3
ObjectDBX Classes
 90
        0
280
     0
281
     0
  0
CLASS
  1
VISUALSTYLE
  2
AcDbVisualStyle
  3
ObjectDBX Classes
 90
     4095
280
     0
281
     0
  0
CLASS
  1
MATERIAL
  2
AcDbMaterial
  3
ObjectDBX Classes
 90
     1153
280
     0
281
     0
  0
CLASS
  1
ACDBPLACEHOLDER
  2
AcDbPlaceHolder
  3
ObjectDBX Classes
 90
        0
280
     0
281
     0
  0
CLASS
  1
LAYOUT
  2
AcDbLayout
  3
ObjectDBX Classes
 90
        0
280
     0
281
     0
  0
ENDSEC
  0
SECTION
  2
TABLES
  0
TABLE
  2
VPORT
  5
8
330
0
100
AcDbSymbolTable
 70
     1
  0
VPORT
  5
29
330
8
100
AcDbSymbolTableRecord
100
AcDbViewportTableRecord
  2
*Active
 70
     0
 10
0.0
 20
0.0
 11
1.0
 21
1.0
 12
148.5
 22
105.0
 13
0.0
 23
0.0
 14
10.0
 24
10.0
 15
10.0
 25
10.0
 16
0.0
 26
0.0
 36
1.0
 17
0.0
 27
0.0
 37
0.0
 40
210.0
 41
1.4142857143
 42
50.0
 43
0.0
 44
0.0
 50
0.0
 51
0.0
 71
     0
 72
  2000
 73
     1
 74
     3
 75
     0
 76
     0
 77
     0
 78
     0
281
     0
 65
     1
110
0.0
120
0.0
130
0.0
111
1.0
121
0.0
131
0.0
112
0.0
122
1.0
132
0.0
 79
     0
146
0.0
  0
ENDTAB
  0
TABLE
  2
LTYPE
  5
5
330
0
100
AcDbSymbolTable
 70
     6
  0
LTYPE
  5
14
330
5
100
AcDbSymbolTableRecord
100
AcDbLinetypeTableRecord
  2
ByBlock
 70
     0
  3

 72
    65
 73
     0
 40
0.0
  0
LTYPE
  5
15
330
5
100
AcDbSymbolTableRecord
100
AcDbLinetypeTableRecord
  2
ByLayer
 70
     0
  3

 72
    65
 73
     0
 40
0.0
  0
LTYPE
  5
16
330
5
100
AcDbSymbolTableRecord
100
AcDbLinetypeTableRecord
  2
Continuous
 70
     0
  3
Solid line
 72
    65
 73
     0
 40
0.0
  0
LTYPE
  5
3F
330
5
100
AcDbSymbolTableRecord
100
AcDbLinetypeTableRecord
  2
HIDDEN
 70
     0
  3
Hidden __ __ __ __ __ __ __ __ __ __ __ __ __ __
 72
    65
 73
     2
 40
1.905
 49
1.27
 74
     0
 49
-0.635
 74
     0
  0
LTYPE
  5
40
330
5
100
AcDbSymbolTableRecord
100
AcDbLinetypeTableRecord
  2
PHANTOM
 70
     0
  3
Phantom ______  __  __  ______  __  __  ______
 72
    65
 73
     6
 40
12.7
 49
6.35
 74
     0
 49
-1.27
 74
     0
 49
1.27
 74
     0
 49
-1.27
 74
     0
 49
1.27
 74
     0
 49
-1.27
 74
     0
  0
LTYPE
  5
41
330
5
100
AcDbSymbolTableRecord
100
AcDbLinetypeTableRecord
  2
CENTER
 70
     0
  3
Center ____ _ ____ _ ____ _ ____ _ ____ _ ____
 72
    65
 73
     4
 40
10.16
 49
6.35
 74
     0
 49
-1.27
 74
     0
 49
1.27
 74
     0
 49
-1.27
 74
     0
  0
LTYPE
  5
42
330
5
100
AcDbSymbolTableRecord
100
AcDbLinetypeTableRecord
  2
CENTERX2
 70
     0
  3
Center (2x) ________  __  ________  __  _____
 72
    65
 73
     4
 40
20.32
 49
12.7
 74
     0
 49
-2.54
 74
     0
 49
2.54
 74
     0
 49
-2.54
 74
     0
  0
LTYPE
  5
43
330
5
100
AcDbSymbolTableRecord
100
AcDbLinetypeTableRecord
  2
DOT2
 70
     0
  3
Dot (.5x) ........................................
 72
    65
 73
     2
 40
0.635
 49
0.0
 74
     0
 49
-0.635
 74
     0
  0
ENDTAB
  0
TABLE
  2
LAYER
  5
2
330
0
100
AcDbSymbolTable
 70
     5
  0
LAYER
  5
10
330
2
100
AcDbSymbolTableRecord
100
AcDbLayerTableRecord
  2
0
 70
     0
 62
     7
  6
Continuous
370
    -3
390
F
  0
LAYER
  5
44
330
2
100
AcDbSymbolTableRecord
100
AcDbLayerTableRecord
  2
FORMAT
 70
     0
 62
     7
  6
Continuous
370
    -3
390
F
  0
LAYER
  5
45
330
2
100
AcDbSymbolTableRecord
100
AcDbLayerTableRecord
  2
VERMASSUNG
 70
     0
 62
     7
  6
Continuous
370
    -3
390
F
  0
LAYER
  5
46
330
2
100
AcDbSymbolTableRecord
100
AcDbLayerTableRecord
  2
KOPF_DÜNN
 70
     0
 62
     7
  6
Continuous
370
    -3
390
F
  0
LAYER
  5
47
330
2
100
AcDbSymbolTableRecord
100
AcDbLayerTableRecord
  2
KOPF_DICK
 70
     0
 62
     7
  6
Continuous
370
    15
390
F
  0
ENDTAB
  0
TABLE
  2
STYLE
  5
3
330
0
100
AcDbSymbolTable
 70
     3
  0
STYLE
  5
11
330
3
100
AcDbSymbolTableRecord
100
AcDbTextStyleTableRecord
  2
Standard
 70
     0
 40
0.0
 41
1.0
 50
0.0
 71
     0
 42
2.0
  3
txt
  4

  0
STYLE
  5
48
330
3
100
AcDbSymbolTableRecord
100
AcDbTextStyleTableRecord
  2
SLDTEXTSTYLE0
 70
     0
 40
0.0
 41
0.7
 50
0.0
 71
     0
 42
0.2
  3
TXT
  4

  0
STYLE
  5
4C
330
3
100
AcDbSymbolTableRecord
100
AcDbTextStyleTableRecord
  2
SLDTEXTSTYLE1
 70
     0
 40
0.0
 41
0.6526315789
 50
0.0
 71
     0
 42
0.2
  3
TXT
  4

  0
ENDTAB
  0
TABLE
  2
VIEW
  5
6
330
0
100
AcDbSymbolTable
 70
     0
  0
ENDTAB
  0
TABLE
  2
UCS
  5
7
330
0
100
AcDbSymbolTable
 70
     0
  0
ENDTAB
  0
TABLE
  2
APPID
  5
9
330
0
100
AcDbSymbolTable
 70
     1
  0
APPID
  5
12
330
9
100
AcDbSymbolTableRecord
100
AcDbRegAppTableRecord
  2
ACAD
 70
     0
  0
ENDTAB
  0
TABLE
  2
DIMSTYLE
  5
A
330
0
100
AcDbSymbolTable
 70
     3
100
AcDbDimStyleTable
  0
DIMSTYLE
105
27
330
A
100
AcDbSymbolTableRecord
100
AcDbDimStyleTableRecord
  2
ISO-25
 70
     0
 41
2.5
 42
0.625
 43
3.75
 44
1.25
 73
     0
 74
     0
 77
     1
 78
     8
140
2.5
141
2.5
143
0.0393700787
147
0.625
171
     3
172
     1
178
     0
271
     2
272
     2
274
     3
278
    44
283
     0
284
     8
340
11
  0
DIMSTYLE
105
1CF
102
{ACAD_REACTORS
330
1CE
330
1E6
330
1F2
330
1FC
330
239
102
}
330
A
100
AcDbSymbolTableRecord
100
AcDbDimStyleTableRecord
  2
SLDDIMSTYLE0
 70
     0
 41
3.0
 44
0.0
 45
0.000000001
 73
     0
 74
     0
 77
     1
 78
    12
 79
     3
140
2.0
147
0.5
173
     1
178
     0
271
     2
272
     3
276
     2
284
    12
340
48
  0
DIMSTYLE
105
1DA
102
{ACAD_REACTORS
330
1D9
102
}
330
A
100
AcDbSymbolTableRecord
100
AcDbDimStyleTableRecord
  2
SLDDIMSTYLE1
 70
     0
 41
3.0
 44
0.0
 73
     0
 74
     0
 77
     1
 78
    12
 79
     3
140
2.0
147
0.5
173
     1
178
     0
179
     1
272
     3
276
     2
284
    12
340
48
  0
ENDTAB
  0
TABLE
  2
BLOCK_RECORD
  5
1
330
0
100
AcDbSymbolTable
 70
     8
  0
BLOCK_RECORD
  5
1F
330
1
100
AcDbSymbolTableRecord
100
AcDbBlockTableRecord
  2
*Model_Space
340
22
  0
BLOCK_RECORD
  5
1B
330
1
100
AcDbSymbolTableRecord
100
AcDbBlockTableRecord
  2
*Paper_Space
340
1E
  0
BLOCK_RECORD
  5
23
330
1
100
AcDbSymbolTableRecord
100
AcDbBlockTableRecord
  2
*Paper_Space0
340
26
  0
BLOCK_RECORD
  5
1D0
330
1
100
AcDbSymbolTableRecord
100
AcDbBlockTableRecord
  2
_D
340
0
  0
BLOCK_RECORD
  5
1DB
330
1
100
AcDbSymbolTableRecord
100
AcDbBlockTableRecord
  2
_D_1
340
0
  0
BLOCK_RECORD
  5
1E7
330
1
100
AcDbSymbolTableRecord
100
AcDbBlockTableRecord
  2
_D_2
340
0
  0
BLOCK_RECORD
  5
1F3
330
1
100
AcDbSymbolTableRecord
100
AcDbBlockTableRecord
  2
_D_3
340
0
  0
BLOCK_RECORD
  5
1FD
330
1
100
AcDbSymbolTableRecord
100
AcDbBlockTableRecord
  2
_D_4
340
0
  0
BLOCK_RECORD
  5
23A
330
1
100
AcDbSymbolTableRecord
100
AcDbBlockTableRecord
  2
_D_5
340
0
  0
BLOCK_RECORD
  5
244
330
1
100
AcDbSymbolTableRecord
100
AcDbBlockTableRecord
  2
SW_CENTERMARKSYMBOL_0
340
0
102
{BLKREFS
331
24F
102
}
  0
ENDTAB
  0
ENDSEC
  0
SECTION
  2
BLOCKS
  0
BLOCK
  5
20
330
1F
100
AcDbEntity
  8
0
100
AcDbBlockBegin
  2
*Model_Space
 70
     0
 10
0.0
 20
0.0
 30
0.0
  3
*Model_Space
  1

  0
ENDBLK
  5
21
330
1F
100
AcDbEntity
  8
0
100
AcDbBlockEnd
  0
BLOCK
  5
1C
330
1B
100
AcDbEntity
 67
     1
  8
0
100
AcDbBlockBegin
  2
*Paper_Space
 70
     0
 10
0.0
 20
0.0
 30
0.0
  3
*Paper_Space
  1

  0
ENDBLK
  5
1D
330
1B
100
AcDbEntity
 67
     1
  8
0
100
AcDbBlockEnd
  0
BLOCK
  5
24
330
23
100
AcDbEntity
  8
0
100
AcDbBlockBegin
  2
*Paper_Space0
 70
     0
 10
0.0
 20
0.0
 30
0.0
  3
*Paper_Space0
  1

  0
ENDBLK
  5
25
330
23
100
AcDbEntity
  8
0
100
AcDbBlockEnd
  0
BLOCK
  5
1D1
330
1D0
100
AcDbEntity
  8
0
100
AcDbBlockBegin
  2
_D
 70
     0
 10
0.0
 20
0.0
 30
0.0
  3
_D
  1

  0
SOLID
  5
1D3
330
1D0
100
AcDbEntity
  8
VERMASSUNG
100
AcDbTrace
 10
291.1737134251
 20
128.2021428571
 30
0.0
 11
290.7237134251
 21
125.2021428571
 31
0.0
 12
291.6237134251
 22
125.2021428571
 32
0.0
 13
291.6237134251
 23
125.2021428571
 33
0.0
  0
SOLID
  5
1D4
330
1D0
100
AcDbEntity
  8
VERMASSUNG
100
AcDbTrace
 10
291.1737134251
 20
106.2021428571
 30
0.0
 11
291.6237134251
 21
109.2021428571
 31
0.0
 12
290.7237134251
 22
109.2021428571
 32
0.0
 13
290.7237134251
 23
109.2021428571
 33
0.0
  0
LINE
  5
1D5
330
1D0
100
AcDbEntity
  8
VERMASSUNG
100
AcDbLine
 10
285.8075687393
 20
128.2021428571
 30
0.0
 11
292.1737134251
 21
128.2021428571
 31
0.0
  0
LINE
  5
1D6
330
1D0
100
AcDbEntity
  8
VERMASSUNG
100
AcDbLine
 10
285.4107142857
 20
106.2021428571
 30
0.0
 11
292.1737134251
 21
106.2021428571
 31
0.0
  0
LINE
  5
1D7
330
1D0
100
AcDbEntity
  8
VERMASSUNG
100
AcDbLine
 10
291.1737134251
 20
128.2021428571
 30
0.0
 11
291.1737134251
 21
106.2021428571
 31
0.0
  0
MTEXT
  5
1D8
330
1D0
100
AcDbEntity
  8
VERMASSUNG
100
AcDbMText
 10
288.595578062
 20
115.8038539155
 30
0.0
 40
2.0
 41
0.0
 71
     1
 72
     1
  1
22
  7
SLDTEXTSTYLE0
 11
-7.044195017643634E-15
 21
1.0
 31
0.0
 73
     1
 44
1.0
  0
ENDBLK
  5
1D2
330
1D0
100
AcDbEntity
  8
0
100
AcDbBlockEnd
  0
BLOCK
  5
1DC
330
1DB
100
AcDbEntity
  8
0
100
AcDbBlockBegin
  2
_D_1
 70
     0
 10
0.0
 20
0.0
 30
0.0
  3
_D_1
  1

  0
ARC
  5
1DE
330
1DB
100
AcDbEntity
  8
VERMASSUNG
100
AcDbCircle
 10
285.8075687393
 20
128.2021428571
 30
0.0
 40
37.43814613546725
100
AcDbArc
 50
264.9878526278
 51
270.0
  0
ARC
  5
1DF
330
1DB
100
AcDbEntity
  8
VERMASSUNG
100
AcDbCircle
 10
285.8075687393
 20
128.2021428571
 30
0.0
 40
37.43814613546725
100
AcDbArc
 50
252.1728325519
 51
264.9878526278
  0
ARC
  5
1E0
330
1DB
100
AcDbEntity
  8
VERMASSUNG
100
AcDbCircle
 10
285.8075687393
 20
128.2021428571
 30
0.0
 40
37.43814613546725
100
AcDbArc
 50
270.0
 51
279.1555542726
  0
SOLID
  5
1E1
330
1DB
100
AcDbEntity
  8
VERMASSUNG
100
AcDbTrace
 10
282.5367122603
 20
90.9071527921
 30
0.0
 11
279.6182494678
 21
91.7348453249
 31
0.0
 12
279.5038465982
 22
90.8421460567
 32
0.0
 13
279.5038465982
 23
90.8421460567
 33
0.0
  0
SOLID
  5
1E2
330
1DB
100
AcDbEntity
  8
VERMASSUNG
100
AcDbTrace
 10
285.8075687393
 20
90.7639967217
 30
0.0
 11
288.8231578827
 21
90.4342663497
 31
0.0
 12
288.7871848755
 22
91.3335471417
 32
0.0
 13
288.7871848755
 23
91.3335471417
 33
0.0
  0
LINE
  5
1E3
330
1DB
100
AcDbEntity
  8
VERMASSUNG
100
AcDbLine
 10
284.7128683708
 20
115.7201401674
 30
0.0
 11
282.4493453146
 21
89.9109765944
 31
0.0
  0
LINE
  5
1E4
330
1DB
100
AcDbEntity
  8
VERMASSUNG
100
AcDbLine
 10
285.8075687393
 20
98.672343084
 30
0.0
 11
285.8075687393
 21
89.7639967217
 31
0.0
  0
MTEXT
  5
1E5
330
1DB
100
AcDbEntity
  8
VERMASSUNG
100
AcDbMText
 10
274.9701810576
 20
94.996550252
 30
0.1
 40
2.0
 41
0.0
 71
     1
 72
     1
  1
5°
  7
SLDTEXTSTYLE0
 11
0.9683042066351653
 21
-0.2497738245145861
 31
0.0
 73
     1
 44
1.0
  0
ENDBLK
  5
1DD
330
1DB
100
AcDbEntity
  8
0
100
AcDbBlockEnd
  0
BLOCK
  5
1E8
330
1E7
100
AcDbEntity
  8
0
100
AcDbBlockBegin
  2
_D_2
 70
     0
 10
0.0
 20
0.0
 30
0.0
  3
_D_2
  1

  0
SOLID
  5
1EA
330
1E7
100
AcDbEntity
  8
VERMASSUNG
100
AcDbTrace
 10
90.1292857143
 20
137.7021428571
 30
0.0
 11
89.6792857143
 21
134.7021428571
 31
0.0
 12
90.5792857143
 22
134.7021428571
 32
0.0
 13
90.5792857143
 23
134.7021428571
 33
0.0
  0
SOLID
  5
1EB
330
1E7
100
AcDbEntity
  8
VERMASSUNG
100
AcDbTrace
 10
90.1292857143
 20
74.7021428571
 30
0.0
 11
90.5792857143
 21
77.7021428571
 31
0.0
 12
89.6792857143
 22
77.7021428571
 32
0.0
 13
89.6792857143
 23
77.7021428571
 33
0.0
  0
LINE
  5
1EC
330
1E7
100
AcDbEntity
  8
VERMASSUNG
100
AcDbLine
 10
126.1075687393
 20
137.7021428571
 30
0.0
 11
89.1292857143
 21
137.7021428571
 31
0.0
  0
LINE
  5
1ED
330
1E7
100
AcDbEntity
  8
VERMASSUNG
100
AcDbLine
 10
126.1075687393
 20
74.7021428571
 30
0.0
 11
89.1292857143
 21
74.7021428571
 31
0.0
  0
LINE
  5
1EE
330
1E7
100
AcDbEntity
  8
VERMASSUNG
100
AcDbLine
 10
90.1292857143
 20
137.7021428571
 30
0.0
 11
90.1292857143
 21
74.7021428571
 31
0.0
  0
MTEXT
  5
1EF
330
1E7
100
AcDbEntity
  8
VERMASSUNG
100
AcDbMText
 10
87.3511502252
 20
99.9997159489
 30
0.0
 40
2.0
 41
0.0
 71
     1
 72
     1
  1
HSK
  7
SLDTEXTSTYLE0
 11
-7.044195017643634E-15
 21
1.0
 31
0.0
 73
     1
 44
1.0
  0
MTEXT
  5
1F0
330
1E7
100
AcDbEntity
  8
VERMASSUNG
100
AcDbMText
 10
87.5511502347
 20
105.9997160011
 30
0.0
 40
2.0
 41
0.0
 71
     1
 72
     1
  1
%%c
  7
SLDTEXTSTYLE0
 11
-7.044195017643634E-15
 21
1.0
 31
0.0
 73
     1
 44
1.0
  0
MTEXT
  5
1F1
330
1E7
100
AcDbEntity
  8
VERMASSUNG
100
AcDbMText
 10
87.5511503512
 20
109.607991882
 30
0.0
 40
2.0
 41
0.0
 71
     1
 72
     1
  1
63
  7
SLDTEXTSTYLE0
 11
-7.044195017643634E-15
 21
1.0
 31
0.0
 73
     1
 44
1.0
  0
ENDBLK
  5
1E9
330
1E7
100
AcDbEntity
  8
0
100
AcDbBlockEnd
  0
BLOCK
  5
1F4
330
1F3
100
AcDbEntity
  8
0
100
AcDbBlockBegin
  2
_D_3
 70
     0
 10
0.0
 20
0.0
 30
0.0
  3
_D_3
  1

  0
SOLID
  5
1F6
330
1F3
100
AcDbEntity
  8
VERMASSUNG
100
AcDbTrace
 10
93.9075687393
 20
149.7362245709
 30
0.0
 11
96.9075687393
 21
149.2862245709
 31
0.0
 12
96.9075687393
 22
150.1862245709
 32
0.0
 13
96.9075687393
 23
150.1862245709
 33
0.0
  0
SOLID
  5
1F7
330
1F3
100
AcDbEntity
  8
VERMASSUNG
100
AcDbTrace
 10
285.8075687393
 20
149.7362245709
 30
0.0
 11
282.8075687393
 21
150.1862245709
 31
0.0
 12
282.8075687393
 22
149.2862245709
 32
0.0
 13
282.8075687393
 23
149.2862245709
 33
0.0
  0
LINE
  5
1F8
330
1F3
100
AcDbEntity
  8
VERMASSUNG
100
AcDbLine
 10
93.9075687393
 20
125.8928206036
 30
0.0
 11
93.9075687393
 21
150.7362245709
 31
0.0
  0
LINE
  5
1F9
330
1F3
100
AcDbEntity
  8
VERMASSUNG
100
AcDbLine
 10
285.8075687393
 20
128.2021428571
 30
0.0
 11
285.8075687393
 21
150.7362245709
 31
0.0
  0
LINE
  5
1FA
330
1F3
100
AcDbEntity
  8
VERMASSUNG
100
AcDbLine
 10
93.9075687393
 20
149.7362245709
 30
0.0
 11
285.8075687393
 21
149.7362245709
 31
0.0
  0
MTEXT
  5
1FB
330
1F3
100
AcDbEntity
  8
VERMASSUNG
100
AcDbMText
 10
187.1590344879
 20
152.314359934
 30
0.0
 40
2.0
 41
0.0
 71
     1
 72
     1
  1
191.9
  7
SLDTEXTSTYLE0
 73
     1
 44
1.0
  0
ENDBLK
  5
1F5
330
1F3
100
AcDbEntity
  8
0
100
AcDbBlockEnd
  0
BLOCK
  5
1FE
330
1FD
100
AcDbEntity
  8
0
100
AcDbBlockBegin
  2
_D_4
 70
     0
 10
0.0
 20
0.0
 30
0.0
  3
_D_4
  1

  0
SOLID
  5
200
330
1FD
100
AcDbEntity
  8
VERMASSUNG
100
AcDbTrace
 10
125.8075687393
 20
143.7362245709
 30
0.0
 11
128.8075687393
 21
143.2862245709
 31
0.0
 12
128.8075687393
 22
144.1862245709
 32
0.0
 13
128.8075687393
 23
144.1862245709
 33
0.0
  0
SOLID
  5
201
330
1FD
100
AcDbEntity
  8
VERMASSUNG
100
AcDbTrace
 10
285.8075687393
 20
143.7362245709
 30
0.0
 11
282.8075687393
 21
144.1862245709
 31
0.0
 12
282.8075687393
 22
143.2862245709
 32
0.0
 13
282.8075687393
 23
143.2862245709
 33
0.0
  0
LINE
  5
202
330
1FD
100
AcDbEntity
  8
VERMASSUNG
100
AcDbLine
 10
125.8075687393
 20
137.4021428571
 30
0.0
 11
125.8075687393
 21
144.7362245709
 31
0.0
  0
LINE
  5
203
330
1FD
100
AcDbEntity
  8
VERMASSUNG
100
AcDbLine
 10
285.8075687393
 20
128.2021428571
 30
0.0
 11
285.8075687393
 21
144.7362245709
 31
0.0
  0
LINE
  5
204
330
1FD
100
AcDbEntity
  8
VERMASSUNG
100
AcDbLine
 10
125.8075687393
 20
143.7362245709
 30
0.0
 11
285.8075687393
 21
143.7362245709
 31
0.0
  0
MTEXT
  5
205
330
1FD
100
AcDbEntity
  8
VERMASSUNG
100
AcDbMText
 10
203.909724149
 20
146.314359934
 30
0.0
 40
2.0
 41
0.0
 71
     1
 72
     1
  1
160
  7
SLDTEXTSTYLE0
 73
     1
 44
1.0
  0
ENDBLK
  5
1FF
330
1FD
100
AcDbEntity
  8
0
100
AcDbBlockEnd
  0
BLOCK
  5
23B
330
23A
100
AcDbEntity
  8
0
100
AcDbBlockBegin
  2
_D_5
 70
     0
 10
0.0
 20
0.0
 30
0.0
  3
_D_5
  1

  0
SOLID
  5
23D
330
23A
100
AcDbEntity
  8
VERMASSUNG
100
AcDbTrace
 10
13.326209264
 20
88.1422639283
 30
0.0
 11
13.776209264
 21
91.1422639283
 31
0.0
 12
12.876209264
 22
91.1422639283
 32
0.0
 13
12.876209264
 23
91.1422639283
 33
0.0
  0
SOLID
  5
23E
330
23A
100
AcDbEntity
  8
VERMASSUNG
100
AcDbTrace
 10
13.326209264
 20
128.1422639283
 30
0.0
 11
12.876209264
 21
125.1422639283
 31
0.0
 12
13.776209264
 22
125.1422639283
 32
0.0
 13
13.776209264
 23
125.1422639283
 33
0.0
  0
LINE
  5
23F
330
23A
100
AcDbEntity
  8
VERMASSUNG
100
AcDbLine
 10
49.4354525897
 20
88.1422639283
 30
0.0
 11
12.326209264
 21
88.1422639283
 31
0.0
  0
LINE
  5
240
330
23A
100
AcDbEntity
  8
VERMASSUNG
100
AcDbLine
 10
49.4354525897
 20
128.1422639283
 30
0.0
 11
12.326209264
 21
128.1422639283
 31
0.0
  0
LINE
  5
241
330
23A
100
AcDbEntity
  8
VERMASSUNG
100
AcDbLine
 10
13.326209264
 20
88.1422639283
 30
0.0
 11
13.326209264
 21
128.1422639283
 31
0.0
  0
MTEXT
  5
242
330
23A
100
AcDbEntity
  8
VERMASSUNG
100
AcDbMText
 10
10.7480737844
 20
104.8391272798
 30
0.0
 40
2.0
 41
0.0
 71
     1
 72
     1
  1
%%c
  7
SLDTEXTSTYLE0
 11
6.123233995736766E-17
 21
1.0
 31
0.0
 73
     1
 44
1.0
  0
MTEXT
  5
243
330
23A
100
AcDbEntity
  8
VERMASSUNG
100
AcDbMText
 10
10.7480739009
 20
108.4480666852
 30
0.0
 40
2.0
 41
0.0
 71
     1
 72
     1
  1
40
  7
SLDTEXTSTYLE0
 11
6.123233995736766E-17
 21
1.0
 31
0.0
 73
     1
 44
1.0
  0
ENDBLK
  5
23C
330
23A
100
AcDbEntity
  8
0
100
AcDbBlockEnd
  0
BLOCK
  5
245
330
244
100
AcDbEntity
  8
0
100
AcDbBlockBegin
  2
SW_CENTERMARKSYMBOL_0
 70
     0
 10
0.0
 20
0.0
 30
0.0
  3
SW_CENTERMARKSYMBOL_0
  1

  0
LINE
  5
247
330
244
100
AcDbEntity
  8
VERMASSUNG
 62
     0
100
AcDbLine
 10
0.0
 20
0.0
 30
0.0
 11
0.0
 21
2.5
 31
0.0
  0
LINE
  5
248
330
244
100
AcDbEntity
  8
VERMASSUNG
 62
     0
100
AcDbLine
 10
0.0
 20
0.0
 30
0.0
 11
-2.5
 21
0.0
 31
0.0
  0
LINE
  5
249
330
244
100
AcDbEntity
  8
VERMASSUNG
 62
     0
100
AcDbLine
 10
0.0
 20
0.0
 30
0.0
 11
0.0
 21
-2.5
 31
0.0
  0
LINE
  5
24A
330
244
100
AcDbEntity
  8
VERMASSUNG
 62
     0
100
AcDbLine
 10
0.0
 20
0.0
 30
0.0
 11
2.5
 21
0.0
 31
0.0
  0
LINE
  5
24B
330
244
100
AcDbEntity
  8
VERMASSUNG
 62
     0
100
AcDbLine
 10
0.0
 20
5.0
 30
0.0
 11
0.0
 21
34.0
 31
0.0
  0
LINE
  5
24C
330
244
100
AcDbEntity
  8
VERMASSUNG
 62
     0
100
AcDbLine
 10
-5.0
 20
0.0
 30
0.0
 11
-34.0
 21
0.0
 31
0.0
  0
LINE
  5
24D
330
244
100
AcDbEntity
  8
VERMASSUNG
 62
     0
100
AcDbLine
 10
0.0
 20
-5.0
 30
0.0
 11
0.0
 21
-34.0
 31
0.0
  0
LINE
  5
24E
330
244
100
AcDbEntity
  8
VERMASSUNG
 62
     0
100
AcDbLine
 10
5.0
 20
0.0
 30
0.0
 11
34.0
 21
0.0
 31
0.0
  0
ENDBLK
  5
246
330
244
100
AcDbEntity
  8
0
100
AcDbBlockEnd
  0
ENDSEC
  0
SECTION
  2
ENTITIES
  0
MTEXT
  5
49
330
1F
100
AcDbEntity
  8
KOPF_DÜNN
100
AcDbMText
 10
13.8892156294
 20
23.8442973028
 30
0.0
 40
3.0
 41
0.0
 71
     1
 72
     1
  1
HA6.BCC.RLB.160
  7
SLDTEXTSTYLE0
 73
     1
 44
1.0
  0
MTEXT
  5
4A
330
1F
100
AcDbEntity
  8
VERMASSUNG
100
AcDbMText
 10
13.9329988022
 20
28.8834360957
 30
0.0
 40
3.0
 41
0.0
 71
     1
 72
     1
  1
Bohrstange_Boring bar
  7
SLDTEXTSTYLE0
 73
     1
 44
1.0
  0
MTEXT
  5
4B
330
1F
100
AcDbEntity
  8
VERMASSUNG
100
AcDbMText
 10
98.8601118557
 20
13.8365368179
 30
0.0
 40
2.0
 41
0.0
 71
     1
 72
     1
  1
Datum: 06.02.2009
  7
SLDTEXTSTYLE0
 73
     1
 44
1.0
  0
MTEXT
  5
4D
330
1F
100
AcDbEntity
  8
VERMASSUNG
100
AcDbMText
 10
13.933048693
 20
18.0482802738
 30
0.0
 40
2.0
 41
0.0
 71
     1
 72
     1
  1
DIN 69893 HSK 63 A ICTM / CC.. 12 04..
  7
SLDTEXTSTYLE1
 73
     1
 44
1.0
  0
MTEXT
  5
4E
330
1F
100
AcDbEntity
  8
VERMASSUNG
100
AcDbMText
 10
13.9808475933
 20
13.9090973692
 30
0.0
 40
2.0
 41
0.0
 71
     1
 72
     1
  1
Gewicht: 1334g
  7
SLDTEXTSTYLE0
 73
     1
 44
1.0
  0
LINE
  5
4F
330
1F
100
AcDbEntity
  8
0
  6
Continuous
 62
     7
370
    15
100
AcDbLine
 10
277.4045772901
 20
121.0569660256
 30
0.0
 11
277.4045772901
 21
121.1685747928
 31
0.0
  0
LINE
  5
50
330
1F
100
AcDbEntity
  8
0
  6
Continuous
 62
     7
370
    15
100
AcDbLine
 10
280.2428343301
 20
121.2800271114
 30
0.0
 11
280.2428343301
 21
121.1683830131
 31
0.0
  0
LINE
  5
51
330
1F
100
AcDbEntity
  8
0
  6
Continuous
 62
     7
370
    15
100
AcDbLine
 10
275.3221695299
 20
121.1988814922
 30
0.0
 11
275.3221695299
 21
121.1849301975
 31
0.0
  0
LINE
  5
52
330
1F
100
AcDbEntity
  8
0
  6
Continuous
 62
     7
370
    15
100
AcDbLine
 10
282.3221695299
 20
121.1849301975
 30
0.0
 11
282.3221695299
 21
121.1988814922
 31
0.0
  0
LINE
  5
53
330
1F
100
AcDbEntity
  8
0
  6
Continuous
 62
     7
370
    15
100
AcDbLine
 10
126.1075687393
 20
74.7021428571
 30
0.0
 11
130.7575687393
 21
74.7021428571
 31
0.0
  0
LINE
  5
54
330
1F
100
AcDbEntity
  8
0
  6
Continuous
 62
     7
370
    15
100
AcDbLine
 10
130.7855570984
 20
137.7021428571
 30
0.0
 11
126.1075687393
 21
137.7021428571
 31
0.0
  0
ARC
  5
55
330
1F
100
AcDbEntity
  8
0
  6
Continuous
 62
     7
370
    15
100
AcDbCircle
 10
126.1075687393
 20
75.0021428571
 30
0.0
 40
0.2999999999999972
100
AcDbArc
 50
180.0
 51
270.0
  0
ARC
  5
56
330
1F
100
AcDbEntity
  8
0
  6
Continuous
 62
     7
370
    15
100
AcDbCircle
 10
126.1075687393
 20
137.4021428571
 30
0.0
 40
0.3000000000000114
100
AcDbArc
 50
90.0
 51
180.0
  0
ARC
  5
57
330
1F
100
AcDbEntity
  8
0
  6
Continuous
 62
     7
370
    15
100
AcDbCircle
 10
125.3075687393
 20
81.6317119954
 30
0.0
 40
0.6000000000000019
100
AcDbArc
 50
33.5573097619
 51
90.0
  0
ARC
  5
58
330
1F
100
AcDbEntity
  8
0
  6
Continuous
 62
     7
370
    15
100
AcDbCircle
 10
125.3075687393
 20
130.7725737189
 30
0.0
 40
0.6000000000000019
100
AcDbArc
 50
270.0
 51
326.4426902381
  0
LINE
  5
59
330
1F
100
AcDbEntity
  8
0
  6
Continuous
 62
     7
370
    15
100
AcDbLine
 10
123.8075687393
 20
81.9817119954
 30
0.0
 11
124.6642815127
 21
82.2112674912
 31
0.0
  0
LINE
  5
5A
330
1F
100
AcDbEntity
  8
0
  6
Continuous
 62
     7
370
    15
100
AcDbLine
 10
124.6642815127
 20
130.1930182231
 30
0.0
 11
123.8075687393
 21
130.4225737189
 31
0.0
  0
LINE
  5
5B
330
1F
100
AcDbEntity
  8
0
  6
Continuous
 62
     7
370
    15
100
AcDbLine
 10
112.5771465568
 20
129.8599273169
 30
0.0
 11
100.0075687393
 21
129.2301889493
 31
0.0
  0
LINE
  5
5C
330
1F
100
AcDbEntity
  8
0
  6
Continuous
 62
     7
370
    15
100
AcDbLine
 10
123.8075687393
 20
130.4225737189
 30
0.0
 11
120.9889593818
 21
130.2813608252
 31
0.0
  0
LINE
  5
5D
330
1F
100
AcDbEntity
  8
0
  6
Continuous
 62
     7
370
    15
100
AcDbLine
 10
120.989180857
 20
82.1229137931
 30
0.0
 11
123.8075687393
 21
81.9817119954
 31
0.0
  0
LINE
  5
5E
330
1F
100
AcDbEntity
  8
0
  6
Continuous
 62
     7
370
    15
100
AcDbLine
 10
104.0075687393
 20
82.9736959634
 30
0.0
 11
112.5778455085
 21
82.5443233797
 31
0.0
  0
ARC
  5
5F
330
1F
100
AcDbEntity
  8
0
  6
Continuous
 62
     7
370
    15
100
AcDbCircle
 10
124.8195729397
 20
81.6317119954
 30
0.0
 40
0.6000000000000008
100
AcDbArc
 50
90.0
 51
105.0
  0
ARC
  5
60
330
1F
100
AcDbEntity
  8
0
  6
Continuous
 62
     7
370
    15
100
AcDbCircle
 10
124.8195729397
 20
130.7725737189
 30
0.0
 40
0.6000000000000008
100
AcDbArc
 50
255.0
 51
270.0
  0
LINE
  5
61
330
1F
100
AcDbEntity
  8
0
  6
Continuous
 62
     7
370
    15
100
AcDbLine
 10
124.8195729397
 20
82.2317119954
 30
0.0
 11
125.3075687393
 21
82.2317119954
 31
0.0
  0
LINE
  5
62
330
1F
100
AcDbEntity
  8
0
  6
Continuous
 62
     7
370
    15
100
AcDbLine
 10
125.3075687393
 20
130.1725737189
 30
0.0
 11
124.8195729397
 21
130.1725737189
 31
0.0
  0
ARC
  5
63
330
1F
100
AcDbEntity
  8
0
  6
Continuous
 62
     7
370
    15
100
AcDbCircle
 10
154.7575687393
 20
87.2021428571
 30
0.0
 40
3.0
100
AcDbArc
 50
90.0
 51
180.0
  0
ARC
  5
64
330
1F
100
AcDbEntity
  8
0
  6
Continuous
 62
     7
370
    15
100
AcDbCircle
 10
154.7575687393
 20
125.2021428571
 30
0.0
 40
3.0
100
AcDbArc
 50
180.0
 51
270.0
  0
LINE
  5
65
330
1F
100
AcDbEntity
  8
0
  6
Continuous
 62
     7
370
    15
100
AcDbLine
 10
154.7575687393
 20
90.2021428571
 30
0.0
 11
259.8075687393
 21
90.2021428571
 31
0.0
  0
LINE
  5
66
330
1F
100
AcDbEntity
  8
0
  6
Continuous
 62
     7
370
    15
100
AcDbLine
 10
259.8075687393
 20
122.2021428571
 30
0.0
 11
154.7575687393
 21
122.2021428571
 31
0.0
  0
LINE
  5
67
330
1F
100
AcDbEntity
  8
0
  6
Continuous
 62
     7
370
    15
100
AcDbLine
 10
95.0575687393
 20
85.3896428571
 30
0.0
 11
102.6075687393
 21
85.3896428571
 31
0.0
  0
ARC
  5
68
330
1F
100
AcDbEntity
  8
0
  6
Continuous
 62
     7
370
    15
100
AcDbCircle
 10
102.6075687393
 20
83.9896428571
 30
0.0
 40
1.400000000000013
100
AcDbArc
 50
37.6443616934
 51
90.0
  0
LINE
  5
69
330
1F
100
AcDbEntity
  8
0
  6
Continuous
 62
     7
370
    15
100
AcDbLine
 10
95.0487321975
 20
127.0633063153
 30
0.0
 11
93.9174695127
 21
125.9320436305
 31
0.0
  0
LINE
  5
6A
330
1F
100
AcDbEntity
  8
0
  6
Continuous
 62
     7
370
    15
100
AcDbLine
 10
93.834655388
 20
86.6125562084
 30
0.0
 11
95.0575687393
 21
85.3896428571
 31
0.0
  0
ARC
  5
6B
330
1F
100
AcDbEntity
  8
0
  6
Continuous
 62
     7
370
    15
100
AcDbCircle
 10
98.6075687393
 20
128.4721428571
 30
0.0
 40
1.40000000000002
100
AcDbArc
 50
270.0
 51
301.7485287426
  0
LINE
  5
6C
330
1F
100
AcDbEntity
  8
0
  6
Continuous
 62
     7
370
    15
100
AcDbLine
 10
98.6075687393
 20
127.0721428571
 30
0.0
 11
95.1818344732
 21
127.0721428571
 31
0.0
  0
LINE
  5
6D
330
1F
100
AcDbEntity
  8
0
  6
Continuous
 62
     7
370
    15
100
AcDbLine
 10
260.3075687393
 20
89.7021428571
 30
0.0
 11
267.3188760022
 21
89.7021428571
 31
0.0
  0
LINE
  5
6E
330
1F
100
AcDbEntity
  8
0
  6
Continuous
 62
     7
370
    15
100
AcDbLine
 10
259.9912956744
 20
122.3858697923
 30
0.0
 11
259.8075687393
 21
122.2021428571
 31
0.0
  0
LINE
  5
6F
330
1F
100
AcDbEntity
  8
0
  6
Continuous
 62
     7
370
    15
100
AcDbLine
 10
259.8075687393
 20
90.2021428571
 30
0.0
 11
260.3075687393
 21
89.7021428571
 31
0.0
  0
CIRCLE
  5
70
330
1F
100
AcDbEntity
  8
0
  6
Continuous
 62
     7
370
    15
100
AcDbCircle
 10
278.8281086246
 20
121.199976387
 30
0.0
 40
3.494029506979951
  0
CIRCLE
  5
71
330
1F
100
AcDbEntity
  8
0
  6
Continuous
 62
     7
370
    15
100
AcDbCircle
 10
278.8269579018
 20
121.2346820578
 30
0.0
 40
2.629160218477414
  0
CIRCLE
  5
72
330
1F
100
AcDbEntity
  8
0
  6
Continuous
 62
     7
370
    15
100
AcDbCircle
 10
278.8255831612
 20
121.2346190749
 30
0.0
 40
1.99656255526239
  0
SPLINE
  5
73
330
1F
100
AcDbEntity
  8
0
  6
Continuous
 62
     7
370
    15
100
AcDbSpline
210
0.0
220
0.0
230
1.0
 70
     8
 71
     3
 72
    15
 73
    11
 74
     0
 42
0.00000001
 43
0.00000001
 12
1.0
 22
0.0
 32
0.0
 13
1.0
 23
0.0
 33
0.0
 40
0.0
 40
0.0
 40
0.0
 40
0.0
 40
0.126247080373029
 40
0.2533633350513265
 40
0.379418551735736
 40
0.5042689738351267
 40
0.6284502821607535
 40
0.7526361292231099
 40
0.8774891912115093
 40
1.0
 40
1.0
 40
1.0
 40
1.0
 10
279.1629119322239
 20
122.9019825515062
 30
0.0
 10
279.1474964387128
 20
122.9439274386573
 30
0.0
 10
279.1165593205166
 20
123.0281059912667
 30
0.0
 10
279.0205283542412
 20
123.1260486452114
 30
0.0
 10
278.9003820367145
 20
123.187729998192
 30
0.0
 10
278.7668590572446
 20
123.2052911906743
 30
0.0
 10
278.63572467481
 20
123.1778725098897
 30
0.0
 10
278.5218164575543
 20
123.1086637634719
 30
0.0
 10
278.4344096669789
 20
123.0068552232104
 30
0.0
 10
278.4088143862751
 20
122.9231654652186
 30
0.0
 10
278.3961379249538
 20
122.8817168094118
 30
0.0
  0
SPLINE
  5
74
330
1F
100
AcDbEntity
  8
0
  6
Continuous
 62
     7
370
    15
100
AcDbSpline
210
0.0
220
0.0
230
1.0
 70
     8
 71
     3
 72
    12
 73
     8
 74
     0
 42
0.00000001
 43
0.00000001
 12
1.0
 22
0.0
 32
0.0
 13
1.0
 23
0.0
 33
0.0
 40
0.0
 40
0.0
 40
0.0
 40
0.0
 40
0.2058748011360237
 40
0.4120995812663165
 40
0.6141693366125685
 40
0.8132901286728609
 40
1.0
 40
1.0
 40
1.0
 40
1.0
 10
278.3961379249539
 20
122.8817168094118
 30
0.0
 10
278.3732487449348
 20
122.807437780747
 30
0.0
 10
278.3274314741987
 20
122.6587534520156
 30
0.0
 10
278.1707987189264
 20
122.4801855393519
 30
0.0
 10
277.9713866709558
 20
122.3641920046752
 30
0.0
 10
277.7505005451713
 20
122.3177943714072
 30
0.0
 10
277.608506393643
 20
122.344805376827
 30
0.0
 10
277.5397930634781
 20
122.3578764513292
 30
0.0
  0
SPLINE
  5
75
330
1F
100
AcDbEntity
  8
0
  6
Continuous
 62
     7
370
    15
100
AcDbSpline
210
0.0
220
0.0
230
1.0
 70
     8
 71
     3
 72
    15
 73
    11
 74
     0
 42
0.00000001
 43
0.00000001
 12
1.0
 22
0.0
 32
0.0
 13
1.0
 23
0.0
 33
0.0
 40
0.0
 40
0.0
 40
0.0
 40
0.0
 40
0.1268765508970897
 40
0.2539936290345441
 40
0.3800496379883694
 40
0.5049006370991477
 40
0.6290821973265632
 40
0.7532679407718268
 40
0.8781205851189456
 40
1.0
 40
1.0
 40
1.0
 40
1.0
 10
277.5397930634781
 20
122.3578764513292
 30
0.0
 10
277.4958504126427
 20
122.3657839409742
 30
0.0
 10
277.4078818063384
 20
122.3816139109511
 30
0.0
 10
277.2755618677623
 20
122.3478498917759
 30
0.0
 10
277.1626229778109
 20
122.2750262202525
 30
0.0
 10
277.0809726948681
 20
122.1684171849965
 30
0.0
 10
277.0392215406226
 20
122.0412318295549
 30
0.0
 10
277.0420029525848
 20
121.9078940256374
 30
0.0
 10
277.085942146298
 20
121.7812650249413
 30
0.0
 10
277.1448791378431
 20
121.7170487670702
 30
0.0
 10
277.1739925253245
 20
121.6853275551625
 30
0.0
  0
SPLINE
  5
76
330
1F
100
AcDbEntity
  8
0
  6
Continuous
 62
     7
370
    15
100
AcDbSpline
210
0.0
220
0.0
230
1.0
 70
     8
 71
     3
 72
    12
 73
     8
 74
     0
 42
0.00000001
 43
0.00000001
 12
1.0
 22
0.0
 32
0.0
 13
1.0
 23
0.0
 33
0.0
 40
0.0
 40
0.0
 40
0.0
 40
0.0
 40
0.2057949882088022
 40
0.4120010155283598
 40
0.6140549927930808
 40
0.8131810826684401
 40
1.0
 40
1.0
 40
1.0
 40
1.0
 10
277.1739925253245
 20
121.6853275551625
 30
0.0
 10
277.2263192093105
 20
121.6280369385892
 30
0.0
 10
277.331077090584
 20
121.5133412775631
 30
0.0
 10
277.4066815650888
 20
121.2881481756674
 30
0.0
 10
277.407793183712
 20
121.057941653276
 30
0.0
 10
277.3388397333645
 20
120.8445557990796
 30
0.0
 10
277.2456809771882
 20
120.7361098041942
 30
0.0
 10
277.2005869413961
 20
120.6836158919137
 30
0.0
  0
SPLINE
  5
77
330
1F
100
AcDbEntity
  8
0
  6
Continuous
 62
     7
370
    15
100
AcDbSpline
210
0.0
220
0.0
230
1.0
 70
     8
 71
     3
 72
    15
 73
    11
 74
     0
 42
0.00000001
 43
0.00000001
 12
1.0
 22
0.0
 32
0.0
 13
1.0
 23
0.0
 33
0.0
 40
0.0
 40
0.0
 40
0.0
 40
0.0
 40
0.1268036956060746
 40
0.2539263442698813
 40
0.3799872671766493
 40
0.5048410097957132
 40
0.6290227167746473
 40
0.7532063308915686
 40
0.8780553361591095
 40
1.0
 40
1.0
 40
1.0
 40
1.0
 10
277.2005869413961
 20
120.6836158919137
 30
0.0
 10
277.1721726352993
 20
120.6498632829355
 30
0.0
 10
277.1152725517675
 20
120.582273166051
 30
0.0
 10
277.0792942526401
 20
120.451622926665
 30
0.0
 10
277.0865786258126
 20
120.3179589848752
 30
0.0
 10
277.1384604387379
 20
120.1942069747563
 30
0.0
 10
277.2277805065285
 20
120.0944131018582
 30
0.0
 10
277.3443438591714
 20
120.0297992905367
 30
0.0
 10
277.4753825161848
 20
120.0039097589728
 30
0.0
 10
277.5598323894931
 20
120.0222637275376
 30
0.0
 10
277.6015604105124
 20
120.0313327143349
 30
0.0
  0
SPLINE
  5
78
330
1F
100
AcDbEntity
  8
0
  6
Continuous
 62
     7
370
    15
100
AcDbSpline
210
0.0
220
0.0
230
1.0
 70
     8
 71
     3
 72
    12
 73
     8
 74
     0
 42
0.00000001
 43
0.00000001
 12
1.0
 22
0.0
 32
0.0
 13
1.0
 23
0.0
 33
0.0
 40
0.0
 40
0.0
 40
0.0
 40
0.0
 40
0.2058497400954445
 40
0.4120524486336785
 40
0.6141081262894987
 40
0.8132431903674988
 40
1.0
 40
1.0
 40
1.0
 40
1.0
 10
277.6015604105124
 20
120.0313327143349
 30
0.0
 10
277.6767863300059
 20
120.0474959094857
 30
0.0
 10
277.8273671581069
 20
120.0798500146526
 30
0.0
 10
278.0595701328282
 20
120.0319031445311
 30
0.0
 10
278.2600556730989
 20
119.9177927779427
 30
0.0
 10
278.4119832837976
 20
119.7522120580468
 30
0.0
 10
278.4608500531266
 20
119.6182795543045
 30
0.0
 10
278.4844996880597
 20
119.5534613790357
 30
0.0
  0
SPLINE
  5
79
330
1F
100
AcDbEntity
  8
0
  6
Continuous
 62
     7
370
    15
100
AcDbSpline
210
0.0
220
0.0
230
1.0
 70
     8
 71
     3
 72
    15
 73
    11
 74
     0
 42
0.00000001
 43
0.00000001
 12
1.0
 22
0.0
 32
0.0
 13
1.0
 23
0.0
 33
0.0
 40
0.0
 40
0.0
 40
0.0
 40
0.0
 40
0.1262564375372758
 40
0.2533820972841448
 40
0.3794454811308022
 40
0.5043002379034047
 40
0.6284814530465911
 40
0.7526634909000696
 40
0.8775104621121778
 40
1.0
 40
1.0
 40
1.0
 40
1.0
 10
278.4844996880597
 20
119.5534613790357
 30
0.0
 10
278.4999161214507
 20
119.5124466648957
 30
0.0
 10
278.5308551238606
 20
119.4301348676441
 30
0.0
 10
278.6268929084534
 20
119.3342383890423
 30
0.0
 10
278.7470469685579
 20
119.273845787973
 30
0.0
 10
278.8805753151069
 20
119.2566999088338
 30
0.0
 10
279.0117096848896
 20
119.2836620343482
 30
0.0
 10
279.1256128052199
 20
119.3515616952692
 30
0.0
 10
279.2130081899575
 20
119.4513358133825
 30
0.0
 10
279.2385998339068
 20
119.5331900614739
 30
0.0
 10
279.2512736953298
 20
119.5737270976736
 30
0.0
  0
SPLINE
  5
7A
330
1F
100
AcDbEntity
  8
0
  6
Continuous
 62
     7
370
    15
100
AcDbSpline
210
0.0
220
0.0
230
1.0
 70
     8
 71
     3
 72
    12
 73
     8
 74
     0
 42
0.00000001
 43
0.00000001
 12
1.0
 22
0.0
 32
0.0
 13
1.0
 23
0.0
 33
0.0
 40
0.0
 40
0.0
 40
0.0
 40
0.0
 40
0.2058713741444328
 40
0.4120924153877148
 40
0.6141683533433024
 40
0.8133068872803431
 40
1.0
 40
1.0
 40
1.0
 40
1.0
 10
279.2512736953298
 20
119.5737270976736
 30
0.0
 10
279.2741625811545
 20
119.6464028533323
 30
0.0
 10
279.3199792289728
 20
119.7918778025038
 30
0.0
 10
279.4766104545047
 20
119.9678699198275
 30
0.0
 10
279.6760259062625
 20
120.0840584201349
 30
0.0
 10
279.8969161953399
 20
120.1331761456407
 30
0.0
 10
280.0389111706617
 20
120.1091790010135
 30
0.0
 10
280.1076185568055
 20
120.0975674557562
 30
0.0
  0
SPLINE
  5
7B
330
1F
100
AcDbEntity
  8
0
  6
Continuous
 62
     7
370
    15
100
AcDbSpline
210
0.0
220
0.0
230
1.0
 70
     8
 71
     3
 72
    15
 73
    11
 74
     0
 42
0.00000001
 43
0.00000001
 12
1.0
 22
0.0
 32
0.0
 13
1.0
 23
0.0
 33
0.0
 40
0.0
 40
0.0
 40
0.0
 40
0.0
 40
0.126870250342555
 40
0.2539810595566238
 40
0.3800301963394507
 40
0.5048749967545163
 40
0.6290527571813415
 40
0.7532384607996329
 40
0.8780953942141885
 40
1.0
 40
1.0
 40
1.0
 40
1.0
 10
280.1076185568055
 20
120.0975674557562
 30
0.0
 10
280.151559797037
 20
120.0905965904138
 30
0.0
 10
280.2395255945514
 20
120.0766416422606
 30
0.0
 10
280.3718420880094
 20
120.1124505519432
 30
0.0
 10
280.4847790686784
 20
120.1865516311186
 30
0.0
 10
280.566430399619
 20
120.293558244586
 30
0.0
 10
280.6081865571251
 20
120.4202685495732
 30
0.0
 10
280.6054128150139
 20
120.5522849891212
 30
0.0
 10
280.5614789249611
 20
120.6768904200273
 30
0.0
 10
280.5025373066744
 20
120.7392899122209
 30
0.0
 10
280.4734190949591
 20
120.7701163753793
 30
0.0
  0
SPLINE
  5
7C
330
1F
100
AcDbEntity
  8
0
  6
Continuous
 62
     7
370
    15
100
AcDbSpline
210
0.0
220
0.0
230
1.0
 70
     8
 71
     3
 72
    12
 73
     8
 74
     0
 42
0.00000001
 43
0.00000001
 12
1.0
 22
0.0
 32
0.0
 13
1.0
 23
0.0
 33
0.0
 40
0.0
 40
0.0
 40
0.0
 40
0.0
 40
0.2058321750920783
 40
0.4120750343576224
 40
0.6141697879283572
 40
0.8133029339856461
 40
1.0
 40
1.0
 40
1.0
 40
1.0
 10
280.4734190949591
 20
120.7701163753793
 30
0.0
 10
280.421085793751
 20
120.8258137466756
 30
0.0
 10
280.3163147739446
 20
120.9373196187789
 30
0.0
 10
280.240714960166
 20
121.1599734402853
 30
0.0
 10
280.2396300813803
 20
121.390403729068
 30
0.0
 10
280.3086158305204
 20
121.6064823499029
 30
0.0
 10
280.4017557582002
 20
121.7179100079622
 30
0.0
 10
280.4468246788876
 20
121.7718280687612
 30
0.0
  0
SPLINE
  5
7D
330
1F
100
AcDbEntity
  8
0
  6
Continuous
 62
     7
370
    15
100
AcDbSpline
210
0.0
220
0.0
230
1.0
 70
     8
 71
     3
 72
    15
 73
    11
 74
     0
 42
0.00000001
 43
0.00000001
 12
1.0
 22
0.0
 32
0.0
 13
1.0
 23
0.0
 33
0.0
 40
0.0
 40
0.0
 40
0.0
 40
0.0
 40
0.1267880291974492
 40
0.2538950064075828
 40
0.3799409022877048
 40
0.5047841289691722
 40
0.6289621452108674
 40
0.7531495391280235
 40
0.8780089278148201
 40
1.0
 40
1.0
 40
1.0
 40
1.0
 10
280.4468246788876
 20
121.7718280687612
 30
0.0
 10
280.4752370107483
 20
121.8065137137966
 30
0.0
 10
280.5321331485422
 20
121.8759722590889
 30
0.0
 10
280.5681139171452
 20
122.0086590175661
 30
0.0
 10
280.5608387363628
 20
122.143596164178
 30
0.0
 10
280.5089717733002
 20
122.2677492848727
 30
0.0
 10
280.4196665562297
 20
122.3670801060234
 30
0.0
 10
280.3031117104081
 20
122.4303882393415
 30
0.0
 10
280.1720604133283
 20
122.4542631018294
 30
0.0
 10
280.087593786682
 20
122.434083705648
 30
0.0
 10
280.0458512097712
 20
122.4241112463399
 30
0.0
  0
SPLINE
  5
7E
330
1F
100
AcDbEntity
  8
0
  6
Continuous
 62
     7
370
    15
100
AcDbSpline
210
0.0
220
0.0
230
1.0
 70
     8
 71
     3
 72
    12
 73
     8
 74
     0
 42
0.00000001
 43
0.00000001
 12
1.0
 22
0.0
 32
0.0
 13
1.0
 23
0.0
 33
0.0
 40
0.0
 40
0.0
 40
0.0
 40
0.0
 40
0.2058903596432651
 40
0.4121336430767105
 40
0.6142239121176221
 40
0.8133482777366846
 40
1.0
 40
1.0
 40
1.0
 40
1.0
 10
280.0458512097712
 20
122.4241112463399
 30
0.0
 10
279.9706135166479
 20
122.4063441308835
 30
0.0
 10
279.8200091628681
 20
122.3707794447431
 30
0.0
 10
279.5877756380653
 20
122.4161743452903
 30
0.0
 10
279.3872794636313
 20
122.5305145956274
 30
0.0
 10
279.2353934857955
 20
122.6988261963058
 30
0.0
 10
279.186546015975
 20
122.8357392926798
 30
0.0
 10
279.1629119322239
 20
122.9019825515062
 30
0.0
  0
LWPOLYLINE
  5
7F
330
1F
100
AcDbEntity
  8
0
  6
Continuous
 62
     7
370
    15
100
AcDbPolyline
 90
        3
 70
   128
 43
0.0
 10
277.0890948939
 20
120.3523707549
 10
277.1240476544
 20
120.4621037937
 10
277.2005869414
 20
120.5685765272
  0
ARC
  5
80
330
1F
100
AcDbEntity
  8
0
  6
Continuous
 62
     7
370
    15
100
AcDbCircle
 10
280.2125447966
 20
120.3615858981
 30
0.0
 40
0.392647625919031
100
AcDbArc
 50
7.1883442327
 51
48.3638416507
  0
ARC
  5
81
330
1F
100
AcDbEntity
  8
0
  6
Continuous
 62
     7
370
    15
100
AcDbCircle
 10
276.7175962385
 20
121.0571079657
 30
0.0
 40
0.6869810662754615
100
AcDbArc
 50
314.6732371703
 51
359.9881618794
  0
ARC
  5
82
330
1F
100
AcDbEntity
  8
0
  6
Continuous
 62
     7
370
    15
100
AcDbCircle
 10
280.9298931689
 20
121.1685415363
 30
0.0
 40
0.6870588570064817
100
AcDbArc
 50
180.013219703
 51
228.3645622672
  0
ARC
  5
83
330
1F
100
AcDbEntity
  8
0
  6
Continuous
 62
     7
370
    15
100
AcDbCircle
 10
277.4359849395
 20
121.8629772059
 30
0.0
 40
0.3938143975481552
100
AcDbArc
 50
74.7164226437
 51
174.1164835502
  0
ARC
  5
84
330
1F
100
AcDbEntity
  8
0
  6
Continuous
 62
     7
370
    15
100
AcDbCircle
 10
280.1695782596
 20
121.9351212722
 30
0.0
 40
0.393887599648339
100
AcDbArc
 50
6.9299873419
 51
108.307555759
  0
ARC
  5
85
330
1F
100
AcDbEntity
  8
0
  6
Continuous
 62
     7
370
    15
100
AcDbCircle
 10
277.7212536698
 20
122.9080944185
 30
0.0
 40
0.6895360957960688
100
AcDbArc
 50
254.7421546755
 51
348.1674797951
  0
ARC
  5
86
330
1F
100
AcDbEntity
  8
0
  6
Continuous
 62
     7
370
    15
100
AcDbCircle
 10
279.8295214483
 20
122.9639805894
 30
0.0
 40
0.6897129701928788
100
AcDbArc
 50
194.8717374618
 51
288.2794474723
  0
ARC
  5
87
330
1F
100
AcDbEntity
  8
0
  6
Continuous
 62
     7
370
    15
100
AcDbCircle
 10
278.7819304631
 20
122.6857805885
 30
0.0
 40
0.3941883688610245
100
AcDbArc
 50
14.8732623077
 51
168.1534626332
  0
ARC
  5
88
330
1F
100
AcDbEntity
  8
0
  6
Continuous
 62
     7
370
    15
100
AcDbCircle
 10
278.8221695299
 20
121.1913894493
 30
0.0
 40
3.500005960271242
100
AcDbArc
 50
180.105739271
 51
359.894260729
  0
LINE
  5
89
330
1F
100
AcDbEntity
  8
0
  6
Continuous
 62
     7
370
    15
100
AcDbLine
 10
285.3326812952
 20
128.1606967964
 30
0.0
 11
273.2950862711
 21
127.1101091237
 31
0.0
  0
ARC
  5
8A
330
1F
100
AcDbEntity
  8
0
  6
Continuous
 62
     7
370
    15
100
AcDbCircle
 10
285.3679859275
 20
127.7627461739
 30
0.0
 40
0.3995135980507007
100
AcDbArc
 50
355.069953794
 51
95.0697859756
  0
LINE
  5
8B
330
1F
100
AcDbEntity
  8
0
  6
Continuous
 62
     7
370
    15
100
AcDbLine
 10
284.7128683708
 20
115.7201401674
 30
0.0
 11
285.7660214715
 21
127.7284122149
 31
0.0
  0
ARC
  5
8C
330
1F
100
AcDbEntity
  8
0
  6
Continuous
 62
     7
370
    15
100
AcDbCircle
 10
284.3149176461
 20
115.7554459835
 30
0.0
 40
0.3995138043828673
100
AcDbArc
 50
274.9302140244
 51
354.9300462061
  0
LINE
  5
8D
330
1F
100
AcDbEntity
  8
0
  6
Continuous
 62
     7
370
    15
100
AcDbLine
 10
272.3116577646
 20
114.3068226618
 30
0.0
 11
284.3492527886
 21
115.3574103345
 31
0.0
  0
ARC
  5
8E
330
1F
100
AcDbEntity
  8
0
  6
Continuous
 62
     7
370
    15
100
AcDbCircle
 10
272.2763531323
 20
114.7047732843
 30
0.0
 40
0.3995135980506503
100
AcDbArc
 50
175.069953794
 51
275.0697859756
  0
LINE
  5
8F
330
1F
100
AcDbEntity
  8
0
  6
Continuous
 62
     7
370
    15
100
AcDbLine
 10
272.931470689
 20
126.7473792908
 30
0.0
 11
271.8783175883
 21
114.7391072433
 31
0.0
  0
ARC
  5
90
330
1F
100
AcDbEntity
  8
0
  6
Continuous
 62
     7
370
    15
100
AcDbCircle
 10
273.3294214136
 20
126.7120734747
 30
0.0
 40
0.3995138043828685
100
AcDbArc
 50
94.9302140243
 51
174.9300462061
  0
ARC
  5
91
330
1F
100
AcDbEntity
  8
0
  6
Continuous
 62
     7
370
    15
100
AcDbCircle
 10
272.276375249
 20
114.7047511136
 30
0.0
 40
0.3795379181480002
100
AcDbArc
 50
175.0699537939
 51
275.0697859756
  0
LINE
  5
92
330
1F
100
AcDbEntity
  8
0
  6
Continuous
 62
     7
370
    15
100
AcDbLine
 10
272.3099146497
 20
114.3266980222
 30
0.0
 11
284.3475096738
 21
115.3772856952
 31
0.0
  0
ARC
  5
93
330
1F
100
AcDbEntity
  8
0
  6
Continuous
 62
     7
370
    15
100
AcDbCircle
 10
284.314891288
 20
115.7554195622
 30
0.0
 40
0.3795381146164684
100
AcDbArc
 50
274.930214074
 51
354.9300461054
  0
LINE
  5
94
330
1F
100
AcDbEntity
  8
0
  6
Continuous
 62
     7
370
    15
100
AcDbLine
 10
284.6929444768
 20
115.7218790361
 30
0.0
 11
285.7460975775
 21
127.7301510837
 31
0.0
  0
ARC
  5
95
330
1F
100
AcDbEntity
  8
0
  6
Continuous
 62
     7
370
    15
100
AcDbCircle
 10
285.3679638107
 20
127.7627683446
 30
0.0
 40
0.3795379181480002
100
AcDbArc
 50
355.0699537939
 51
95.0697859756
  0
LINE
  5
96
330
1F
100
AcDbEntity
  8
0
  6
Continuous
 62
     7
370
    15
100
AcDbLine
 10
285.33442441
 20
128.140821436
 30
0.0
 11
273.296829386
 21
127.0902337633
 31
0.0
  0
ARC
  5
97
330
1F
100
AcDbEntity
  8
0
  6
Continuous
 62
     7
370
    15
100
AcDbCircle
 10
273.3294477713
 20
126.7120998968
 30
0.0
 40
0.3795381141636467
100
AcDbArc
 50
94.9302140243
 51
174.9300462061
  0
LINE
  5
98
330
1F
100
AcDbEntity
  8
0
  6
Continuous
 62
     7
370
    15
100
AcDbLine
 10
272.9513945829
 20
126.7456404221
 30
0.0
 11
271.8982414822
 21
114.7373683746
 31
0.0
  0
LINE
  5
99
330
1F
100
AcDbEntity
  8
0
  6
Continuous
 62
     7
370
    15
100
AcDbLine
 10
284.3143904915
 20
115.7396134525
 30
0.0
 11
284.3475096738
 21
115.3772856952
 31
0.0
  0
LINE
  5
9A
330
1F
100
AcDbEntity
  8
0
  6
Continuous
 62
     7
370
    15
100
AcDbLine
 10
272.2767954675
 20
114.6890257798
 30
0.0
 11
272.3099146497
 21
114.3266980222
 31
0.0
  0
LINE
  5
9B
330
1F
100
AcDbEntity
  8
0
  6
Continuous
 62
     7
370
    15
100
AcDbLine
 10
273.195795812
 20
115.5721423673
 30
0.0
 11
272.2767954675
 21
114.6890257798
 31
0.0
  0
LINE
  5
9C
330
1F
100
AcDbEntity
  8
0
  6
Continuous
 62
     7
370
    15
100
AcDbLine
 10
283.7406961623
 20
116.2868795671
 30
0.0
 11
284.3143904915
 21
115.7396134525
 31
0.0
  0
LINE
  5
9D
330
1F
100
AcDbEntity
  8
0
  6
Continuous
 62
     7
370
    15
100
AcDbLine
 10
272.2767954675
 20
114.6890257798
 30
0.0
 11
271.8982414822
 21
114.7373683746
 31
0.0
  0
LINE
  5
9E
330
1F
100
AcDbEntity
  8
0
  6
Continuous
 62
     7
370
    15
100
AcDbLine
 10
273.3299485682
 20
126.6972978274
 30
0.0
 11
272.9513945829
 21
126.7456404221
 31
0.0
  0
LINE
  5
9F
330
1F
100
AcDbEntity
  8
0
  6
Continuous
 62
     7
370
    15
100
AcDbLine
 10
273.9036428975
 20
126.0999702646
 30
0.0
 11
273.3299485682
 21
126.6972978274
 31
0.0
  0
LINE
  5
A0
330
1F
100
AcDbEntity
  8
0
  6
Continuous
 62
     7
370
    15
100
AcDbLine
 10
284.3143904915
 20
115.7396134525
 30
0.0
 11
284.6929444768
 21
115.7218790361
 31
0.0
  0
LINE
  5
A1
330
1F
100
AcDbEntity
  8
0
  6
Continuous
 62
     7
370
    15
100
AcDbLine
 10
275.2461159234
 20
116.5857057559
 30
0.0
 11
281.9831228865
 21
117.1736817139
 31
0.0
  0
LINE
  5
A2
330
1F
100
AcDbEntity
  8
0
  6
Continuous
 62
     7
370
    15
100
AcDbLine
 10
285.3675435923
 20
127.7478855001
 30
0.0
 11
285.7460975775
 21
127.7301510837
 31
0.0
  0
LINE
  5
A3
330
1F
100
AcDbEntity
  8
0
  6
Continuous
 62
     7
370
    15
100
AcDbLine
 10
284.4485432477
 20
126.7974786759
 30
0.0
 11
285.3675435923
 21
127.7478855001
 31
0.0
  0
ARC
  5
A4
330
1F
100
AcDbEntity
  8
0
  6
Continuous
 62
     7
370
    15
100
AcDbCircle
 10
275.1578543421
 20
117.580582312
 30
0.0
 40
0.9987839949360886
100
AcDbArc
 50
175.0699537786
 51
275.0697860058
  0
LINE
  5
A5
330
1F
100
AcDbEntity
  8
0
  6
Continuous
 62
     7
370
    15
100
AcDbLine
 10
282.3982231363
 20
125.8818137023
 30
0.0
 11
275.6612161733
 21
125.2938377443
 31
0.0
  0
ARC
  5
A6
330
1F
100
AcDbEntity
  8
0
  6
Continuous
 62
     7
370
    15
100
AcDbCircle
 10
282.4864847171
 20
124.886937146
 30
0.0
 40
0.9987839951264298
100
AcDbArc
 50
355.069953794
 51
95.0697859756
  0
LINE
  5
A7
330
1F
100
AcDbEntity
  8
0
  6
Continuous
 62
     7
370
    15
100
AcDbLine
 10
282.8921618418
 20
118.080506296
 30
0.0
 11
283.4815735772
 21
124.8011022487
 31
0.0
  0
ARC
  5
A8
330
1F
100
AcDbEntity
  8
0
  6
Continuous
 62
     7
370
    15
100
AcDbCircle
 10
281.8972850302
 20
118.1687708364
 30
0.0
 40
0.9987845109568532
100
AcDbArc
 50
274.9302140243
 51
354.9300462061
  0
LINE
  5
A9
330
1F
100
AcDbEntity
  8
0
  6
Continuous
 62
     7
370
    15
100
AcDbLine
 10
274.7521772179
 20
124.3870131622
 30
0.0
 11
274.1627654823
 21
117.6664172095
 31
0.0
  0
ARC
  5
AA
330
1F
100
AcDbEntity
  8
0
  6
Continuous
 62
     7
370
    15
100
AcDbCircle
 10
275.7470540295
 20
124.2987486218
 30
0.0
 40
0.9987845109570801
100
AcDbArc
 50
94.9302140243
 51
174.9300462061
  0
CIRCLE
  5
AB
330
1F
100
AcDbEntity
  8
0
  6
Continuous
 62
     7
370
    15
100
AcDbCircle
 10
278.8153788998
 20
121.2313955497
 30
0.0
 40
3.793371553280773
  0
LINE
  5
AC
330
1F
100
AcDbEntity
  8
0
  6
Continuous
 62
     7
370
    15
100
AcDbLine
 10
275.0366296771
 20
121.4839248401
 30
0.0
 11
275.0221695299
 21
121.1535397843
 31
0.0
  0
ARC
  5
AD
330
1F
100
AcDbEntity
  8
0
  6
Continuous
 62
     7
370
    15
100
AcDbCircle
 10
278.8218759464
 20
121.1459914453
 30
0.0
 40
3.800301079939808
100
AcDbArc
 50
0.1138036805
 51
174.8983606714
  0
SPLINE
  5
AE
330
1F
100
AcDbEntity
  8
0
  6
Continuous
 62
     7
370
    15
100
AcDbSpline
210
0.0
220
0.0
230
1.0
 70
     8
 71
     3
 72
    11
 73
     7
 74
     0
 42
0.00000001
 43
0.00000001
 12
1.0
 22
0.0
 32
0.0
 13
1.0
 23
0.0
 33
0.0
 40
0.0
 40
0.0
 40
0.0
 40
0.0
 40
0.0076282660081557
 40
0.320988865231249
 40
0.6632168868587065
 40
1.0
 40
1.0
 40
1.0
 40
1.0
 10
273.6847233895894
 20
116.0651355521757
 30
0.0
 10
273.6836078289151
 20
116.0639594485354
 30
0.0
 10
273.6366662887887
 20
116.0144703284007
 30
0.0
 10
273.5326103160788
 20
115.9064083111125
 30
0.0
 10
273.3631624519896
 20
115.7348314182638
 30
0.0
 10
273.2512856497971
 20
115.6260813664605
 30
0.0
 10
273.1957958120001
 20
115.5721423673408
 30
0.0
  0
SPLINE
  5
AF
330
1F
100
AcDbEntity
  8
0
  6
Continuous
 62
     7
370
    15
100
AcDbSpline
210
0.0
220
0.0
230
1.0
 70
     8
 71
     3
 72
    11
 73
     7
 74
     0
 42
0.00000001
 43
0.00000001
 12
1.0
 22
0.0
 32
0.0
 13
1.0
 23
0.0
 33
0.0
 40
0.0
 40
0.0
 40
0.0
 40
0.0
 40
0.3372314186521259
 40
0.673632148307157
 40
0.9918835608968823
 40
1.0
 40
1.0
 40
1.0
 40
1.0
 10
283.7406961623002
 20
116.2868795671232
 30
0.0
 10
283.6857923496805
 20
116.3398983900668
 30
0.0
 10
283.5761199668608
 20
116.4458054367558
 30
0.0
 10
283.4046677978072
 20
116.6186750825008
 30
0.0
 10
283.2991891536125
 20
116.7280124832871
 30
0.0
 10
283.2512329512024
 20
116.7785691396061
 30
0.0
 10
283.2500403288456
 20
116.7798264326273
 30
0.0
  0
LINE
  5
B0
330
1F
100
AcDbEntity
  8
0
  6
Continuous
 62
     7
370
    15
100
AcDbLine
 10
273.3299485682
 20
126.6972978274
 30
0.0
 11
273.296829386
 21
127.0902337633
 31
0.0
  0
LINE
  5
B1
330
1F
100
AcDbEntity
  8
0
  6
Continuous
 62
     7
370
    15
100
AcDbLine
 10
285.3675435923
 20
127.7478855001
 30
0.0
 11
285.33442441
 21
128.140821436
 31
0.0
  0
SPLINE
  5
B2
330
1F
100
AcDbEntity
  8
0
  6
Continuous
 62
     7
370
    15
100
AcDbSpline
210
0.0
220
0.0
230
1.0
 70
     8
 71
     3
 72
    11
 73
     7
 74
     0
 42
0.00000001
 43
0.00000001
 12
1.0
 22
0.0
 32
0.0
 13
1.0
 23
0.0
 33
0.0
 40
0.0
 40
0.0
 40
0.0
 40
0.0
 40
0.0081164391031239
 40
0.3263678516928467
 40
0.6627685813478776
 40
1.0
 40
1.0
 40
1.0
 40
1.0
 10
274.3942987309044
 20
125.6139958891242
 30
0.0
 10
274.3931061085476
 20
125.6151180304804
 30
0.0
 10
274.3451499061376
 20
125.6602401411836
 30
0.0
 10
274.2396712619426
 20
125.7613461474355
 30
0.0
 10
274.0682190928892
 20
125.930545542064
 30
0.0
 10
273.9585467100695
 20
126.0434489481897
 30
0.0
 10
273.9036428974498
 20
126.0999702646293
 30
0.0
  0
SPLINE
  5
B3
330
1F
100
AcDbEntity
  8
0
  6
Continuous
 62
     7
370
    15
100
AcDbSpline
210
0.0
220
0.0
230
1.0
 70
     8
 71
     3
 72
    11
 73
     7
 74
     0
 42
0.00000001
 43
0.00000001
 12
1.0
 22
0.0
 32
0.0
 13
1.0
 23
0.0
 33
0.0
 40
0.0
 40
0.0
 40
0.0
 40
0.0
 40
0.3367831131414376
 40
0.6790111347689569
 40
0.9923717339918416
 40
1.0
 40
1.0
 40
1.0
 40
1.0
 10
284.4485432477497
 20
126.7974786758972
 30
0.0
 10
284.3930534099528
 20
126.7407083403351
 30
0.0
 10
284.2811766077605
 20
126.6262498402884
 30
0.0
 10
284.1117287436707
 20
126.4597565379192
 30
0.0
 10
284.0076727709618
 20
126.3602135600274
 30
0.0
 10
283.9607312308348
 20
126.3160482943742
 30
0.0
 10
283.9596156701606
 20
126.3149987115655
 30
0.0
  0
LINE
  5
B4
330
1F
100
AcDbEntity
  8
0
  6
Continuous
 62
     7
370
    15
100
AcDbLine
 10
151.7575687393
 20
76.6418654566
 30
0.0
 11
151.7575687393
 21
126.0521428571
 31
0.0
  0
SPLINE
  5
B5
330
1F
100
AcDbEntity
  8
0
  6
Continuous
 62
     7
370
    15
100
AcDbSpline
210
0.0
220
0.0
230
1.0
 70
     8
 71
     3
 72
    10
 73
     6
 74
     0
 42
0.00000001
 43
0.00000001
 12
1.0
 22
0.0
 32
0.0
 13
1.0
 23
0.0
 33
0.0
 40
0.0
 40
0.0
 40
0.0
 40
0.0
 40
0.5
 40
0.5
 40
1.0
 40
1.0
 40
1.0
 40
1.0
 10
151.7575687393028
 20
76.64186545655001
 30
0.0
 10
151.7575687393027
 20
76.48197818835635
 30
0.0
 10
151.6962590880669
 20
76.32085093284176
 30
0.0
 10
151.4771594505318
 20
76.08675193448693
 30
0.0
 10
151.3191112442184
 20
76.01522516089571
 30
0.0
 10
151.1575687393027
 20
76.01522516089571
 30
0.0
  0
SPLINE
  5
B6
330
1F
100
AcDbEntity
  8
0
  6
Continuous
 62
     7
370
    15
100
AcDbSpline
210
0.0
220
0.0
230
1.0
 70
    24
 71
     3
 72
    12
 73
     8
 74
     0
 42
0.00000001
 43
0.00000001
 12
1.0
 22
0.0
 32
0.0
 13
1.0
 23
0.0
 33
0.0
 40
0.0
 40
0.0
 40
0.0
 40
0.0
 40
0.249999999999998
 40
0.249999999999998
 40
0.499999999999996
 40
0.499999999999996
 40
1.0
 40
1.0
 40
1.0
 40
1.0
 10
151.1575687393027
 20
126.0521428571429
 30
0.0
 10
151.2478078069898
 20
126.0521428571429
 30
0.0
 10
151.3387059210963
 20
126.0521428571429
 30
0.0
 10
151.4933029575848
 20
126.0521428571429
 30
0.0
 10
151.5582813736929
 20
126.0521428571429
 30
0.0
 10
151.7101164016292
 20
126.0521428571429
 30
0.0
 10
151.7575687393027
 20
126.0521428571429
 30
0.0
 10
151.7575687393027
 20
126.0521428571429
 30
0.0
  0
LINE
  5
B7
330
1F
100
AcDbEntity
  8
0
  6
Continuous
 62
     7
370
    15
100
AcDbLine
 10
151.1575687393
 20
76.0152251609
 30
0.0
 11
147.1995015708
 21
76.0152251609
 31
0.0
  0
LINE
  5
B8
330
1F
100
AcDbEntity
  8
0
  6
Continuous
 62
     7
370
    15
100
AcDbLine
 10
147.1995015708
 20
76.0152251609
 30
0.0
 11
147.1995015708
 21
126.0521428571
 31
0.0
  0
LINE
  5
B9
330
1F
100
AcDbEntity
  8
0
  6
Continuous
 62
     7
370
    15
100
AcDbLine
 10
147.1995015708
 20
126.0521428571
 30
0.0
 11
151.1575687393
 21
126.0521428571
 31
0.0
  0
SPLINE
  5
BA
330
1F
100
AcDbEntity
  8
0
  6
Continuous
 62
     7
370
    15
100
AcDbSpline
210
0.0
220
0.0
230
1.0
 70
     8
 71
     3
 72
     8
 73
     4
 74
     0
 42
0.00000001
 43
0.00000001
 12
1.0
 22
0.0
 32
0.0
 13
1.0
 23
0.0
 33
0.0
 40
0.0
 40
0.0
 40
0.0
 40
0.0
 40
1.0
 40
1.0
 40
1.0
 40
1.0
 10
147.1995015707918
 20
76.0152251608957
 30
0.0
 10
146.704021910126
 20
76.91075124882904
 30
0.0
 10
146.2099078620839
 20
77.80703566388128
 30
0.0
 10
145.7175687393027
 20
78.70430569808798
 30
0.0
  0
LINE
  5
BB
330
1F
100
AcDbEntity
  8
0
  6
Continuous
 62
     7
370
    15
100
AcDbLine
 10
145.7175687393
 20
78.7043056981
 30
0.0
 11
145.7175687393
 21
126.0521428571
 31
0.0
  0
SPLINE
  5
BC
330
1F
100
AcDbEntity
  8
0
  6
Continuous
 62
     7
370
    15
100
AcDbSpline
210
0.0
220
0.0
230
1.0
 70
    24
 71
     3
 72
     8
 73
     4
 74
     0
 42
0.00000001
 43
0.00000001
 12
1.0
 22
0.0
 32
0.0
 13
1.0
 23
0.0
 33
0.0
 40
0.0
 40
0.0
 40
0.0
 40
0.0
 40
1.0
 40
1.0
 40
1.0
 40
1.0
 10
145.7175687393027
 20
126.0521428571429
 30
0.0
 10
146.1975207336677
 20
126.0521428571429
 30
0.0
 10
146.6928214626413
 20
126.0521428571429
 30
0.0
 10
147.1995015707918
 20
126.0521428571429
 30
0.0
  0
LINE
  5
BD
330
1F
100
AcDbEntity
  8
0
  6
Continuous
 62
     7
370
    15
100
AcDbLine
 10
130.7575687393
 20
126.0521428571
 30
0.0
 11
140.4156359078
 21
126.0521428571
 31
0.0
  0
LINE
  5
BE
330
1F
100
AcDbEntity
  8
0
  6
Continuous
 62
     7
370
    15
100
AcDbLine
 10
140.4156359078
 20
76.0152251609
 30
0.0
 11
140.4156359078
 21
126.0521428571
 31
0.0
  0
LINE
  5
BF
330
1F
100
AcDbEntity
  8
0
  6
Continuous
 62
     7
370
    15
100
AcDbLine
 10
140.4156359078
 20
76.0152251609
 30
0.0
 11
138.7575687393
 21
76.0152251609
 31
0.0
  0
SPLINE
  5
C0
330
1F
100
AcDbEntity
  8
0
  6
Continuous
 62
     7
370
    15
100
AcDbSpline
210
0.0
220
0.0
230
1.0
 70
     8
 71
     3
 72
    28
 73
    24
 74
     0
 42
0.00000001
 43
0.00000001
 12
1.0
 22
0.0
 32
0.0
 13
1.0
 23
0.0
 33
0.0
 40
0.0
 40
0.0
 40
0.0
 40
0.0
 40
0.1250000000000009
 40
0.1250000000000009
 40
0.1875000000000011
 40
0.1875000000000011
 40
0.2500000000000014
 40
0.2500000000000014
 40
0.3750000000000018
 40
0.3750000000000018
 40
0.4375000000000018
 40
0.4375000000000018
 40
0.5000000000000017
 40
0.5000000000000017
 40
0.6250000000000013
 40
0.6250000000000013
 40
0.7500000000000009
 40
0.7500000000000009
 40
0.8125000000000007
 40
0.8125000000000007
 40
0.8750000000000004
 40
0.8750000000000004
 40
1.0
 40
1.0
 40
1.0
 40
1.0
 10
138.7575687393028
 20
76.0152251608957
 30
0.0
 10
138.2258609818098
 20
76.0152251608957
 30
0.0
 10
137.7036224164995
 20
75.9994404469455
 30
0.0
 10
136.9337519302245
 20
75.95444503286929
 30
0.0
 10
136.6793923580332
 20
75.93589003779356
 30
0.0
 10
136.1752707773346
 20
75.89203731534707
 30
0.0
 10
135.9255479599067
 20
75.86669270839485
 30
0.0
 10
135.1999580084603
 20
75.78329063064477
 30
0.0
 10
134.7415977468788
 20
75.71742507149366
 30
0.0
 10
134.0910998034849
 20
75.60845473100188
 30
0.0
 10
133.8794177526924
 20
75.57021509523523
 30
0.0
 10
133.4753462635544
 20
75.49245635781587
 30
0.0
 10
133.2828397497336
 20
75.45295539564053
 30
0.0
 10
132.7330047787123
 20
75.33404765327454
 30
0.0
 10
132.4030760004035
 20
75.25422997184991
 30
0.0
 10
131.8186047318348
 20
75.10088681005385
 30
0.0
 10
131.5723275938214
 20
75.02955305678461
 30
0.0
 10
131.2724848011233
 20
74.93560954970998
 30
0.0
 10
131.1840279440511
 20
74.90641575635004
 30
0.0
 10
131.030666590746
 20
74.85294918208663
 30
0.0
 10
130.9655783765197
 20
74.82858984781146
 30
0.0
 10
130.8099843605789
 20
74.76499970236674
 30
0.0
 10
130.7575687393027
 20
74.73489676727746
 30
0.0
 10
130.7575687393027
 20
74.71801987428053
 30
0.0
  0
LINE
  5
C1
330
1F
100
AcDbEntity
  8
0
  6
Continuous
 62
     7
370
    15
100
AcDbLine
 10
130.7575687393
 20
74.7180198743
 30
0.0
 11
130.7575687393
 21
74.7021428571
 31
0.0
  0
SPLINE
  5
C2
330
1F
100
AcDbEntity
  8
0
  6
Continuous
 62
     7
370
    15
100
AcDbSpline
210
0.0
220
0.0
230
1.0
 70
     8
 71
     3
 72
    17
 73
    13
 74
     0
 42
0.00000001
 43
0.00000001
 12
1.0
 22
0.0
 32
0.0
 13
1.0
 23
0.0
 33
0.0
 40
0.0
 40
0.0
 40
0.0
 40
0.0
 40
0.1034796923964057
 40
0.2100239188807851
 40
0.3134862136955585
 40
0.4198361274354881
 40
0.525412771291568
 40
0.6339610695419791
 40
0.7409508756305032
 40
0.8511696089308176
 40
0.9558996534551939
 40
1.0
 40
1.0
 40
1.0
 40
1.0
 10
138.7575687393028
 20
136.6693383303071
 30
0.0
 10
138.3223203901927
 20
136.6747865268404
 30
0.0
 10
137.4389338836277
 20
136.6858442673522
 30
0.0
 10
136.1581062983991
 20
136.7722026602538
 30
0.0
 10
134.940689762525
 20
136.9000728367915
 30
0.0
 10
133.8328839102785
 20
137.0590181353848
 30
0.0
 10
132.8446451063303
 20
137.2335118231003
 30
0.0
 10
132.0199215487987
 20
137.4026776737402
 30
0.0
 10
131.3709680481394
 20
137.5505614562685
 30
0.0
 10
130.9539332326777
 20
137.6523520404993
 30
0.0
 10
130.7553365197132
 20
137.7027035631025
 30
0.0
 10
130.7786492411465
 20
137.6967978788801
 30
0.0
 10
130.785557098384
 20
137.6950479491855
 30
0.0
  0
LINE
  5
C3
330
1F
100
AcDbEntity
  8
0
  6
Continuous
 62
     7
370
    15
100
AcDbLine
 10
140.4156359078
 20
136.6693383303
 30
0.0
 11
138.7575687393
 21
136.6693383303
 31
0.0
  0
LINE
  5
C4
330
1F
100
AcDbEntity
  8
0
  6
Continuous
 62
     7
370
    15
100
AcDbLine
 10
140.4156359078
 20
130.6608325195
 30
0.0
 11
140.4156359078
 21
136.6693383303
 31
0.0
  0
LINE
  5
C5
330
1F
100
AcDbEntity
  8
0
  6
Continuous
 62
     7
370
    15
100
AcDbLine
 10
138.003189085
 20
130.6608325195
 30
0.0
 11
140.4156359078
 21
130.6608325195
 31
0.0
  0
SPLINE
  5
C6
330
1F
100
AcDbEntity
  8
0
  6
Continuous
 62
     7
370
    15
100
AcDbSpline
210
0.0
220
0.0
230
1.0
 70
     8
 71
     3
 72
    20
 73
    16
 74
     0
 42
0.00000001
 43
0.00000001
 12
1.0
 22
0.0
 32
0.0
 13
1.0
 23
0.0
 33
0.0
 40
0.0
 40
0.0
 40
0.0
 40
0.0
 40
0.2500000000000005
 40
0.2500000000000005
 40
0.3750000000000004
 40
0.3750000000000004
 40
0.5000000000000003
 40
0.5000000000000003
 40
0.6250000000000002
 40
0.6250000000000002
 40
0.7500000000000001
 40
0.7500000000000001
 40
0.8750000000000001
 40
0.8750000000000001
 40
1.0
 40
1.0
 40
1.0
 40
1.0
 10
130.7575687393027
 20
126.0521428571429
 30
0.0
 10
131.0059424735908
 20
126.7060052854403
 30
0.0
 10
131.3255125659361
 20
127.3097910674374
 30
0.0
 10
131.9478187991408
 20
128.136629803606
 30
0.0
 10
132.1792430595715
 20
128.3990584415589
 30
0.0
 10
132.7004573992212
 20
128.8957210956638
 30
0.0
 10
132.9870778818563
 20
129.1263079746854
 30
0.0
 10
133.6065626231639
 20
129.542862199268
 30
0.0
 10
133.9408630026509
 20
129.7303600012355
 30
0.0
 10
134.6661234752757
 20
130.0617569788719
 30
0.0
 10
135.0480385326662
 20
130.2012609663672
 30
0.0
 10
135.8428267088379
 20
130.4267144738382
 30
0.0
 10
136.2569849030442
 20
130.5133405853818
 30
0.0
 10
137.1225312436256
 20
130.6313213742359
 30
0.0
 10
137.5604188586374
 20
130.6608325195103
 30
0.0
 10
138.003189084992
 20
130.6608325195103
 30
0.0
  0
LINE
  5
C7
330
1F
100
AcDbEntity
  8
0
  6
Continuous
 62
     7
370
    15
100
AcDbLine
 10
141.8975687393
 20
78.7043056981
 30
0.0
 11
141.8975687393
 21
126.0521428571
 31
0.0
  0
SPLINE
  5
C8
330
1F
100
AcDbEntity
  8
0
  6
Continuous
 62
     7
370
    15
100
AcDbSpline
210
0.0
220
0.0
230
1.0
 70
     8
 71
     3
 72
     8
 73
     4
 74
     0
 42
0.00000001
 43
0.00000001
 12
1.0
 22
0.0
 32
0.0
 13
1.0
 23
0.0
 33
0.0
 40
0.0
 40
0.0
 40
0.0
 40
0.0
 40
1.0
 40
1.0
 40
1.0
 40
1.0
 10
141.8975687393028
 20
78.70430569808798
 30
0.0
 10
141.4052296165216
 20
77.80703566388128
 30
0.0
 10
140.9111155684794
 20
76.91075124882904
 30
0.0
 10
140.4156359078137
 20
76.01522516089571
 30
0.0
  0
SPLINE
  5
C9
330
1F
100
AcDbEntity
  8
0
  6
Continuous
 62
     7
370
    15
100
AcDbSpline
210
0.0
220
0.0
230
1.0
 70
    24
 71
     3
 72
     8
 73
     4
 74
     0
 42
0.00000001
 43
0.00000001
 12
1.0
 22
0.0
 32
0.0
 13
1.0
 23
0.0
 33
0.0
 40
0.0
 40
0.0
 40
0.0
 40
0.0
 40
1.0
 40
1.0
 40
1.0
 40
1.0
 10
140.4156359078137
 20
126.0521428571429
 30
0.0
 10
140.9223160159642
 20
126.0521428571429
 30
0.0
 10
141.4176167449378
 20
126.0521428571429
 30
0.0
 10
141.8975687393028
 20
126.0521428571429
 30
0.0
  0
LINE
  5
CA
330
1F
100
AcDbEntity
  8
0
  6
Continuous
 62
     7
370
    15
100
AcDbLine
 10
125.8075687393
 20
75.0021428571
 30
0.0
 11
125.8075687393
 21
137.4021428513
 31
0.0
  0
SPLINE
  5
CB
330
1F
100
AcDbEntity
  8
0
  6
Continuous
 62
     7
370
    15
100
AcDbSpline
210
0.0
220
0.0
230
1.0
 70
    24
 71
     3
 72
    14
 73
    10
 74
     0
 42
0.00000001
 43
0.00000001
 12
1.0
 22
0.0
 32
0.0
 13
1.0
 23
0.0
 33
0.0
 40
0.0
 40
0.0
 40
0.0
 40
0.0
 40
0.5000000000000003
 40
0.5000000000000003
 40
0.750000000000002
 40
0.750000000000002
 40
0.875000000000001
 40
0.875000000000001
 40
1.0
 40
1.0
 40
1.0
 40
1.0
 10
145.6198939369705
 20
79.80214285714284
 30
0.0
 10
145.5731092319223
 20
79.80214285714284
 30
0.0
 10
145.5110580351426
 20
79.80214285714285
 30
0.0
 10
145.3676663965921
 20
79.80214285714284
 30
0.0
 10
145.3115227430409
 20
79.80214285714284
 30
0.0
 10
145.1985717209047
 20
79.80214285714284
 30
0.0
 10
145.1555709588666
 20
79.80214285714284
 30
0.0
 10
145.0515082485601
 20
79.80214285714284
 30
0.0
 10
144.9861760102031
 20
79.80214285714285
 30
0.0
 10
144.9175687393028
 20
79.80214285714284
 30
0.0
  0
SPLINE
  5
CC
330
1F
100
AcDbEntity
  8
0
  6
Continuous
 62
     7
370
    15
100
AcDbSpline
210
0.0
220
0.0
230
1.0
 70
    24
 71
     3
 72
    12
 73
     8
 74
     0
 42
0.00000001
 43
0.00000001
 12
1.0
 22
0.0
 32
0.0
 13
1.0
 23
0.0
 33
0.0
 40
0.0
 40
0.0
 40
0.0
 40
0.0
 40
0.4999999999999942
 40
0.4999999999999942
 40
0.7499999999999971
 40
0.7499999999999971
 40
1.0
 40
1.0
 40
1.0
 40
1.0
 10
145.3232712076118
 20
132.6021428571429
 30
0.0
 10
145.280185658001
 20
132.6021428571429
 30
0.0
 10
145.231033456254
 20
132.6021428571429
 30
0.0
 10
145.1345608619644
 20
132.6021428571429
 30
0.0
 10
145.0984592768302
 20
132.6021428571429
 30
0.0
 10
145.0153535189676
 20
132.6021428571429
 30
0.0
 10
144.9673569220035
 20
132.6021428571429
 30
0.0
 10
144.9175687393027
 20
132.6021428571429
 30
0.0
  0
SPLINE
  5
CD
330
1F
100
AcDbEntity
  8
0
  6
Continuous
 62
     7
370
    15
100
AcDbSpline
210
0.0
220
0.0
230
1.0
 70
     8
 71
     3
 72
    10
 73
     6
 74
     0
 42
0.00000001
 43
0.00000001
 12
1.0
 22
0.0
 32
0.0
 13
1.0
 23
0.0
 33
0.0
 40
0.0
 40
0.0
 40
0.0
 40
0.0
 40
0.5
 40
0.5
 40
1.0
 40
1.0
 40
1.0
 40
1.0
 10
145.7175687393027
 20
133.3217967081787
 30
0.0
 10
145.7175687393027
 20
133.1780266503607
 30
0.0
 10
145.6815196805839
 20
133.0356072878655
 30
0.0
 10
145.5460108198098
 20
132.7857129945083
 30
0.0
 10
145.4461348267137
 20
132.67768265826
 30
0.0
 10
145.3232712076118
 20
132.6021428571428
 30
0.0
  0
SPLINE
  5
CE
330
1F
100
AcDbEntity
  8
0
  6
Continuous
 62
     7
370
    15
100
AcDbSpline
210
0.0
220
0.0
230
1.0
 70
     8
 71
     3
 72
    10
 73
     6
 74
     0
 42
0.00000001
 43
0.00000001
 12
1.0
 22
0.0
 32
0.0
 13
1.0
 23
0.0
 33
0.0
 40
0.0
 40
0.0
 40
0.0
 40
0.0
 40
0.5
 40
0.5
 40
1.0
 40
1.0
 40
1.0
 40
1.0
 10
145.6914211161426
 20
126.0521428571429
 30
0.0
 10
145.7001107590543
 20
126.099021706461
 30
0.0
 10
145.7066498238048
 20
126.1464441718623
 30
0.0
 10
145.7154084581978
 20
126.242380970449
 30
0.0
 10
145.7175687393027
 20
126.2902962584595
 30
0.0
 10
145.7175687393027
 20
126.338009488604
 30
0.0
  0
SPLINE
  5
CF
330
1F
100
AcDbEntity
  8
0
  6
Continuous
 62
     7
370
    15
100
AcDbSpline
210
0.0
220
0.0
230
1.0
 70
     8
 71
     3
 72
    10
 73
     6
 74
     0
 42
0.00000001
 43
0.00000001
 12
1.0
 22
0.0
 32
0.0
 13
1.0
 23
0.0
 33
0.0
 40
0.0
 40
0.0
 40
0.0
 40
0.0
 40
0.5
 40
0.5
 40
1.0
 40
1.0
 40
1.0
 40
1.0
 10
142.2918662709937
 20
132.6021428571429
 30
0.0
 10
142.1703260073252
 20
132.6768690243546
 30
0.0
 10
142.0689916469763
 20
132.7858140402714
 30
0.0
 10
141.9333527040878
 20
133.036244521033
 30
0.0
 10
141.8975687393028
 20
133.1786638831319
 30
0.0
 10
141.8975687393028
 20
133.3217967081787
 30
0.0
  0
SPLINE
  5
D0
330
1F
100
AcDbEntity
  8
0
  6
Continuous
 62
     7
370
    15
100
AcDbSpline
210
0.0
220
0.0
230
1.0
 70
    24
 71
     3
 72
    12
 73
     8
 74
     0
 42
0.00000001
 43
0.00000001
 12
1.0
 22
0.0
 32
0.0
 13
1.0
 23
0.0
 33
0.0
 40
0.0
 40
0.0
 40
0.0
 40
0.0
 40
0.2499999999999991
 40
0.2499999999999991
 40
0.4999999999999982
 40
0.4999999999999982
 40
1.0
 40
1.0
 40
1.0
 40
1.0
 10
142.6975687393028
 20
132.6021428571429
 30
0.0
 10
142.6482253774931
 20
132.6021428571429
 30
0.0
 10
142.5995346791915
 20
132.6021428571429
 30
0.0
 10
142.5166835816211
 20
132.6021428571429
 30
0.0
 10
142.4804836140005
 20
132.6021428571429
 30
0.0
 10
142.3847336974511
 20
132.6021428571429
 30
0.0
 10
142.3348517276389
 20
132.6021428571429
 30
0.0
 10
142.2918662709937
 20
132.6021428571429
 30
0.0
  0
SPLINE
  5
D1
330
1F
100
AcDbEntity
  8
0
  6
Continuous
 62
     7
370
    15
100
AcDbSpline
210
0.0
220
0.0
230
1.0
 70
    24
 71
     3
 72
    14
 73
    10
 74
     0
 42
0.00000001
 43
0.00000001
 12
1.0
 22
0.0
 32
0.0
 13
1.0
 23
0.0
 33
0.0
 40
0.0
 40
0.0
 40
0.0
 40
0.0
 40
0.1250000000000019
 40
0.1250000000000019
 40
0.2500000000000039
 40
0.2500000000000039
 40
0.5000000000000043
 40
0.5000000000000043
 40
1.0
 40
1.0
 40
1.0
 40
1.0
 10
142.6975687393027
 20
79.80214285714284
 30
0.0
 10
142.6282220175716
 20
79.80214285714284
 30
0.0
 10
142.5630239641876
 20
79.80214285714284
 30
0.0
 10
142.4586447715606
 20
79.80214285714285
 30
0.0
 10
142.4157424005517
 20
79.80214285714284
 30
0.0
 10
142.303416742947
 20
79.80214285714284
 30
0.0
 10
142.2481930485932
 20
79.80214285714284
 30
0.0
 10
142.1041356698256
 20
79.80214285714284
 30
0.0
 10
142.0420549729941
 20
79.80214285714284
 30
0.0
 10
141.995243541635
 20
79.80214285714284
 30
0.0
  0
SPLINE
  5
D2
330
1F
100
AcDbEntity
  8
0
  6
Continuous
 62
     7
370
    15
100
AcDbSpline
210
0.0
220
0.0
230
1.0
 70
     8
 71
     3
 72
     9
 73
     5
 74
     0
 42
0.00000001
 43
0.00000001
 12
1.0
 22
0.0
 32
0.0
 13
1.0
 23
0.0
 33
0.0
 40
0.0
 40
0.0
 40
0.0
 40
0.0
 40
0.5
 40
1.0
 40
1.0
 40
1.0
 40
1.0
 10
141.8975687393028
 20
126.3380094886042
 30
0.0
 10
141.8975687393028
 20
126.2897774364815
 30
0.0
 10
141.9019747140079
 20
126.193907423042
 30
0.0
 10
141.9149938941017
 20
126.0991987930586
 30
0.0
 10
141.9237163624628
 20
126.0521428571429
 30
0.0
  0
LINE
  5
D3
330
1F
100
AcDbEntity
  8
0
  6
Continuous
 62
     7
370
    15
100
AcDbLine
 10
144.9175687393
 20
132.6021428571
 30
0.0
 11
142.6975687393
 21
132.6021428571
 31
0.0
  0
LINE
  5
D4
330
1F
100
AcDbEntity
  8
0
  6
Continuous
 62
     7
370
    15
100
AcDbLine
 10
144.9175687393
 20
79.8021428571
 30
0.0
 11
142.6975687393
 21
79.8021428571
 31
0.0
  0
LINE
  5
D5
330
1F
100
AcDbEntity
  8
0
  6
Continuous
 62
     7
370
    15
100
AcDbLine
 10
123.8075687393
 20
81.9817119954
 30
0.0
 11
123.8075687393
 21
130.4225737189
 31
0.0
  0
LINE
  5
D6
330
1F
100
AcDbEntity
  8
0
  6
Continuous
 62
     7
370
    15
100
AcDbLine
 10
104.0075687393
 20
82.9736959634
 30
0.0
 11
104.0075687393
 21
84.2569945979
 31
0.0
  0
SPLINE
  5
D7
330
1F
100
AcDbEntity
  8
0
  6
Continuous
 62
     7
370
    15
100
AcDbSpline
210
0.0
220
0.0
230
1.0
 70
     8
 71
     3
 72
    14
 73
    10
 74
     0
 42
0.00000001
 43
0.00000001
 12
1.0
 22
0.0
 32
0.0
 13
1.0
 23
0.0
 33
0.0
 40
0.0
 40
0.0
 40
0.0
 40
0.0
 40
0.25
 40
0.25
 40
0.5
 40
0.5
 40
0.75
 40
0.75
 40
1.0
 40
1.0
 40
1.0
 40
1.0
 10
103.385964502563
 20
85.33777163985964
 30
0.0
 10
103.424400887384
 20
85.23514724214812
 30
0.0
 10
103.4932022807758
 20
85.13595081870855
 30
0.0
 10
103.6364882929348
 20
84.94505878938202
 30
0.0
 10
103.7116703480417
 20
84.85280152334911
 30
0.0
 10
103.8438576366918
 20
84.67319420153412
 30
0.0
 10
103.9013748321616
 20
84.58588464708977
 30
0.0
 10
103.983419630454
 20
84.41595081357403
 30
0.0
 10
104.0075687393028
 20
84.33404847170287
 30
0.0
 10
104.0075687393028
 20
84.25699459786695
 30
0.0
  0
SPLINE
  5
D8
330
1F
100
AcDbEntity
  8
0
  6
Continuous
 62
     7
370
    15
100
AcDbSpline
210
0.0
220
0.0
230
1.0
 70
     8
 71
     3
 72
    18
 73
    14
 74
     0
 42
0.00000001
 43
0.00000001
 12
1.0
 22
0.0
 32
0.0
 13
1.0
 23
0.0
 33
0.0
 40
0.0
 40
0.0
 40
0.0
 40
0.0
 40
0.0625000000000002
 40
0.0625000000000002
 40
0.1250000000000004
 40
0.1250000000000004
 40
0.2500000000000027
 40
0.2500000000000027
 40
0.5000000000000018
 40
0.5000000000000018
 40
0.7500000000000009
 40
0.7500000000000009
 40
1.0
 40
1.0
 40
1.0
 40
1.0
 10
102.6075687393028
 20
86.0560540913462
 30
0.0
 10
102.6441409496532
 20
86.05983149487365
 30
0.0
 10
102.6827914230886
 20
86.05927446699052
 30
0.0
 10
102.7568829168025
 20
86.04921526182865
 30
0.0
 10
102.7922332105565
 20
86.03986138040409
 30
0.0
 10
102.8868275079459
 20
86.00547695397027
 30
0.0
 10
102.9369656810849
 20
85.97476521930747
 30
0.0
 10
103.0661589526661
 20
85.87883590926944
 30
0.0
 10
103.1244390974072
 20
85.81032041515219
 30
0.0
 10
103.2246341938307
 20
85.67374846521957
 30
0.0
 10
103.2646494452773
 20
85.60498356271667
 30
0.0
 10
103.3330488660951
 20
85.46994813360901
 30
0.0
 10
103.361410589957
 20
85.40333010755586
 30
0.0
 10
103.385964502563
 20
85.33777163985964
 30
0.0
  0
SPLINE
  5
D9
330
1F
100
AcDbEntity
  8
0
  6
Continuous
 62
     7
370
    15
100
AcDbSpline
210
0.0
220
0.0
230
1.0
 70
     8
 71
     3
 72
    10
 73
     6
 74
     0
 42
0.00000001
 43
0.00000001
 12
1.0
 22
0.0
 32
0.0
 13
1.0
 23
0.0
 33
0.0
 40
0.0
 40
0.0
 40
0.0
 40
0.0
 40
0.5
 40
0.5
 40
1.0
 40
1.0
 40
1.0
 40
1.0
 10
98.69396687818082
 20
85.55986043497458
 30
0.0
 10
99.32159453388815
 20
85.6631339937102
 30
0.0
 10
99.97279527891959
 20
85.75195910546174
 30
0.0
 10
101.2814999829318
 20
85.91406681233207
 30
0.0
 10
101.942544420223
 20
85.98736627661866
 30
0.0
 10
102.6075687393027
 20
86.05605409134634
 30
0.0
  0
SPLINE
  5
DA
330
1F
100
AcDbEntity
  8
0
  6
Continuous
 62
     7
370
    15
100
AcDbSpline
210
0.0
220
0.0
230
1.0
 70
     8
 71
     3
 72
    14
 73
    10
 74
     0
 42
0.00000001
 43
0.00000001
 12
1.0
 22
0.0
 32
0.0
 13
1.0
 23
0.0
 33
0.0
 40
0.0
 40
0.0
 40
0.0
 40
0.0
 40
0.4999999999999989
 40
0.4999999999999989
 40
0.7499999999999983
 40
0.7499999999999983
 40
0.8749999999999991
 40
0.8749999999999991
 40
1.0
 40
1.0
 40
1.0
 40
1.0
 10
95.05756873930275
 20
85.39551129861529
 30
0.0
 10
95.67364564305807
 20
85.40123741884443
 30
0.0
 10
96.28777763917394
 20
85.41112778424645
 30
0.0
 10
97.20167426968749
 20
85.44176275191623
 30
0.0
 10
97.5051131972351
 20
85.45455620955421
 30
0.0
 10
97.95624981287261
 20
85.4824820375136
 30
0.0
 10
98.10595606241512
 20
85.49325165767337
 30
0.0
 10
98.4027971986632
 20
85.52038437327289
 30
0.0
 10
98.55018275116649
 20
85.53620134610013
 30
0.0
 10
98.69396687818079
 20
85.55986043497458
 30
0.0
  0
SPLINE
  5
DB
330
1F
100
AcDbEntity
  8
0
  6
Continuous
 62
     7
370
    15
100
AcDbSpline
210
0.0
220
0.0
230
1.0
 70
     8
 71
     3
 72
     8
 73
     4
 74
     0
 42
0.00000001
 43
0.00000001
 12
1.0
 22
0.0
 32
0.0
 13
1.0
 23
0.0
 33
0.0
 40
0.0000005954826279
 40
0.0000005954826279
 40
0.0000005954826279
 40
0.0000005954826279
 40
0.0000302093805348
 40
0.0000302093805348
 40
0.0000302093805348
 40
0.0000302093805348
 10
95.04752380889315
 20
85.4073264282672
 30
0.0
 10
95.05083983621333
 20
85.40337964867139
 30
0.0
 10
95.05418838760559
 20
85.39944125754145
 30
0.0
 10
95.05756873930268
 20
85.39551129861529
 30
0.0
  0
SPLINE
  5
DC
330
1F
100
AcDbEntity
  8
0
  6
Continuous
 62
     7
370
    15
100
AcDbSpline
210
0.0
220
0.0
230
1.0
 70
     8
 71
     3
 72
     8
 73
     4
 74
     0
 42
0.00000001
 43
0.00000001
 12
1.0
 22
0.0
 32
0.0
 13
1.0
 23
0.0
 33
0.0
 40
0.0000005099763573
 40
0.0000005099763573
 40
0.0000005099763573
 40
0.0000005099763573
 40
0.0000262827998699
 40
0.0000262827998699
 40
0.0000262827998699
 40
0.0000262827998699
 10
95.05756873930271
 20
127.0720806225379
 30
0.0
 10
95.05420000007497
 20
127.068758953582
 30
0.0
 10
95.05085154709583
 20
127.0654309963032
 30
0.0
 10
95.0475238088845
 20
127.0620967494305
 30
0.0
  0
SPLINE
  5
DD
330
1F
100
AcDbEntity
  8
0
  6
Continuous
 62
     7
370
    15
100
AcDbSpline
210
0.0
220
0.0
230
1.0
 70
     8
 71
     3
 72
    10
 73
     6
 74
     0
 42
0.00000001
 43
0.00000001
 12
1.0
 22
0.0
 32
0.0
 13
1.0
 23
0.0
 33
0.0
 40
0.0
 40
0.0
 40
0.0
 40
0.0
 40
0.5
 40
0.5
 40
1.0
 40
1.0
 40
1.0
 40
1.0
 10
98.60756873930276
 20
127.0252302489706
 30
0.0
 10
98.01998319221217
 20
127.046295769207
 30
0.0
 10
97.42923679875177
 20
127.0570542550792
 30
0.0
 10
96.24521763345291
 20
127.0704190356149
 30
0.0
 10
95.65180364524744
 20
127.0725616782795
 30
0.0
 10
95.05756873930274
 20
127.0720806225379
 30
0.0
  0
SPLINE
  5
DE
330
1F
100
AcDbEntity
  8
0
  6
Continuous
 62
     7
370
    15
100
AcDbSpline
210
0.0
220
0.0
230
1.0
 70
     8
 71
     3
 72
    18
 73
    14
 74
     0
 42
0.00000001
 43
0.00000001
 12
1.0
 22
0.0
 32
0.0
 13
1.0
 23
0.0
 33
0.0
 40
0.0
 40
0.0
 40
0.0
 40
0.0
 40
0.2499999999999985
 40
0.2499999999999985
 40
0.4999999999999978
 40
0.4999999999999978
 40
0.749999999999997
 40
0.749999999999997
 40
0.8749999999999972
 40
0.8749999999999972
 40
0.9374999999999986
 40
0.9374999999999986
 40
1.0
 40
1.0
 40
1.0
 40
1.0
 10
100.0075687393028
 20
128.0462505295059
 30
0.0
 10
100.0075687393028
 20
127.9630436206486
 30
0.0
 10
99.9717196393645
 20
127.8743069653351
 30
0.0
 10
99.84684790333057
 20
127.6921817747748
 30
0.0
 10
99.7564474856827
 20
127.5970517261482
 30
0.0
 10
99.53420483094052
 20
127.4078702170239
 30
0.0
 10
99.40444004449475
 20
127.3129250489292
 30
0.0
 10
99.16380258718323
 20
127.1746463413493
 30
0.0
 10
99.07603528904579
 20
127.1289359080469
 30
0.0
 10
98.92151120183895
 20
127.0711126028254
 30
0.0
 10
98.86490031578423
 20
127.0533978387875
 30
0.0
 10
98.74085628487762
 20
127.0288585355546
 30
0.0
 10
98.67314160985933
 20
127.0228793970164
 30
0.0
 10
98.60756873930275
 20
127.0252302489706
 30
0.0
  0
LINE
  5
DF
330
1F
100
AcDbEntity
  8
0
  6
Continuous
 62
     7
370
    15
100
AcDbLine
 10
100.0075687393
 20
128.0462505295
 30
0.0
 11
100.0075687393
 21
129.2301889493
 31
0.0
  0
SPLINE
  5
E0
330
1F
100
AcDbEntity
  8
0
  6
Continuous
 62
     7
370
    15
100
AcDbSpline
210
0.0
220
0.0
230
1.0
 70
     8
 71
     3
 72
    18
 73
    14
 74
     0
 42
0.00000001
 43
0.00000001
 12
1.0
 22
0.0
 32
0.0
 13
1.0
 23
0.0
 33
0.0
 40
0.0
 40
0.0
 40
0.0
 40
0.0
 40
0.0010671296451824
 40
0.1270947795731585
 40
0.2524053457512666
 40
0.3766468878986943
 40
0.4391415999050647
 40
0.5008278021400228
 40
0.5624255708817562
 40
0.62531624391613
 40
0.7499985144706808
 40
0.8752758950341304
 40
1.0
 40
1.0
 40
1.0
 40
1.0
 10
112.5778695793754
 20
82.5448038342265
 30
0.0
 10
112.5769577467369
 20
82.54468905568986
 30
0.0
 10
112.4683587881002
 20
82.53101897082418
 30
0.0
 10
112.8559998557497
 20
82.58193847143944
 30
0.0
 10
113.721964537585
 20
82.68152164448607
 30
0.0
 10
114.9223684623546
 20
82.75064552762963
 30
0.0
 10
115.9799443768432
 20
82.75459775676862
 30
0.0
 10
116.8070784637533
 20
82.72710881831317
 30
0.0
 10
117.6323503313889
 20
82.66856864190603
 30
0.0
 10
118.6867155513865
 20
82.55504748216923
 30
0.0
 10
119.8485518328595
 20
82.37189665792164
 30
0.0
 10
120.8007866142427
 20
82.16729344828654
 30
0.0
 10
120.9264916750507
 20
82.1380080975105
 30
0.0
 10
120.9892051071959
 20
82.12339782766982
 30
0.0
  0
SPLINE
  5
E1
330
1F
100
AcDbEntity
  8
0
  6
Continuous
 62
     7
370
    15
100
AcDbSpline
210
0.0
220
0.0
230
1.0
 70
     8
 71
     3
 72
    18
 73
    14
 74
     0
 42
0.00000001
 43
0.00000001
 12
1.0
 22
0.0
 32
0.0
 13
1.0
 23
0.0
 33
0.0
 40
0.0
 40
0.0
 40
0.0
 40
0.0
 40
0.1248907792210126
 40
0.2505384020341702
 40
0.3748721840485287
 40
0.4374907653352098
 40
0.4990776265894369
 40
0.5607931536355758
 40
0.6233901338664936
 40
0.7478191038417353
 40
0.8731940995934956
 40
0.999161464471008
 40
1.0
 40
1.0
 40
1.0
 40
1.0
 10
120.988986341672
 20
130.2808227060615
 30
0.0
 10
120.9252455889603
 20
130.2661614134634
 30
0.0
 10
120.7973778117838
 20
130.236749980192
 30
0.0
 10
119.8453785907235
 20
130.0317968761295
 30
0.0
 10
118.6848348855191
 20
129.8485331003185
 30
0.0
 10
117.6325704334312
 20
129.7355055080694
 30
0.0
 10
116.8083433183624
 20
129.6772418605282
 30
0.0
 10
115.9807395488432
 20
129.6497954725243
 30
0.0
 10
114.921922356358
 20
129.6537802784533
 30
0.0
 10
113.719703658324
 20
129.7228697548347
 30
0.0
 10
112.8545197186367
 20
129.8224959713913
 30
0.0
 10
112.4683792971063
 20
129.8733120449919
 30
0.0
 10
112.5764508378868
 20
129.8596398649287
 30
0.0
 10
112.5771654878071
 20
129.8595494542404
 30
0.0
  0
SPLINE
  5
E2
330
1F
100
AcDbEntity
  8
0
  6
Continuous
 62
     7
370
    15
100
AcDbSpline
210
0.0
220
0.0
230
1.0
 70
     8
 71
     3
 72
    10
 73
     6
 74
     0
 42
0.00000001
 43
0.00000001
 12
1.0
 22
0.0
 32
0.0
 13
1.0
 23
0.0
 33
0.0
 40
0.0
 40
0.0
 40
0.0
 40
0.0
 40
0.5
 40
0.5
 40
1.0
 40
1.0
 40
1.0
 40
1.0
 10
93.9075687393023
 20
86.54898233218995
 30
0.0
 10
93.90756873930228
 20
86.53546580632218
 30
0.0
 10
93.91288829993054
 20
86.5312950339649
 30
0.0
 10
93.92601653221216
 20
86.54942607735248
 30
0.0
 10
93.93370918686618
 20
86.5723345024144
 30
0.0
 10
93.9378463549114
 20
86.61205529691598
 30
0.0
  0
LINE
  5
E3
330
1F
100
AcDbEntity
  8
0
  6
Continuous
 62
     7
370
    15
100
AcDbLine
 10
93.9075687393
 20
86.5489823322
 30
0.0
 11
93.9075687393
 21
125.8928206036
 31
0.0
  0
SPLINE
  5
E4
330
1F
100
AcDbEntity
  8
0
  6
Continuous
 62
     7
370
    15
100
AcDbSpline
210
0.0
220
0.0
230
1.0
 70
     8
 71
     3
 72
    10
 73
     6
 74
     0
 42
0.00000001
 43
0.00000001
 12
1.0
 22
0.0
 32
0.0
 13
1.0
 23
0.0
 33
0.0
 40
0.0
 40
0.0
 40
0.0
 40
0.0
 40
0.5
 40
0.5
 40
1.0
 40
1.0
 40
1.0
 40
1.0
 10
93.97023211402617
 20
125.8766954019236
 30
0.0
 10
93.96132782491742
 20
125.9224369211368
 30
0.0
 10
93.94481244472442
 20
125.9396277606058
 30
0.0
 10
93.91770449866283
 20
125.9393044836701
 30
0.0
 10
93.90756873930276
 20
125.9214269413736
 30
0.0
 10
93.90756873930276
 20
125.892820603621
 30
0.0
  0
SPLINE
  5
E5
330
1F
100
AcDbEntity
  8
0
  6
Continuous
 62
     7
370
    15
100
AcDbSpline
210
0.0
220
0.0
230
1.0
 70
     8
 71
     3
 72
    26
 73
    22
 74
     0
 42
0.00000001
 43
0.00000001
 12
1.0
 22
0.0
 32
0.0
 13
1.0
 23
0.0
 33
0.0
 40
0.0
 40
0.0
 40
0.0
 40
0.0
 40
0.2499999999999966
 40
0.2499999999999966
 40
0.374999999999997
 40
0.374999999999997
 40
0.4374999999999974
 40
0.4374999999999974
 40
0.4687499999999976
 40
0.4687499999999976
 40
0.4999999999999978
 40
0.4999999999999978
 40
0.5312499999999979
 40
0.5312499999999979
 40
0.5624999999999981
 40
0.5624999999999981
 40
0.6249999999999986
 40
0.6249999999999986
 40
0.7499999999999992
 40
0.7499999999999992
 40
1.0
 40
1.0
 40
1.0
 40
1.0
 10
94.73172238540722
 20
126.5922621907407
 30
0.0
 10
94.69312186253876
 20
126.4744874943852
 30
0.0
 10
94.64682485998449
 20
126.3500978082233
 30
0.0
 10
94.55288551155056
 20
126.1448784758698
 30
0.0
 10
94.51757404463709
 20
126.0733056094234
 30
0.0
 10
94.45139406889142
 20
125.9573523768229
 30
0.0
 10
94.42685570222321
 20
125.9167678420127
 30
0.0
 10
94.38348295666937
 20
125.8526261601409
 30
0.0
 10
94.36797455524415
 20
125.8307597348559
 30
0.0
 10
94.33293191065712
 20
125.7851654665126
 30
0.0
 10
94.31338161993737
 20
125.7614951755453
 30
0.0
 10
94.2714543395668
 20
125.7168786162054
 30
0.0
 10
94.24880222933518
 20
125.6959986036875
 30
0.0
 10
94.2078285152486
 20
125.6651251899367
 30
0.0
 10
94.1902292153532
 20
125.6552863201043
 30
0.0
 10
94.14560222949703
 20
125.6362967044082
 30
0.0
 10
94.12504300684371
 20
125.6359723797547
 30
0.0
 10
94.07391756734704
 20
125.6451958206309
 30
0.0
 10
94.05300615435851
 20
125.6664427168479
 30
0.0
 10
94.00155624679755
 20
125.7404115956786
 30
0.0
 10
93.98389094749298
 20
125.8065296889934
 30
0.0
 10
93.97023211402617
 20
125.8766954019236
 30
0.0
  0
SPLINE
  5
E6
330
1F
100
AcDbEntity
  8
0
  6
Continuous
 62
     7
370
    15
100
AcDbSpline
210
0.0
220
0.0
230
1.0
 70
     8
 71
     3
 72
    10
 73
     6
 74
     0
 42
0.00000001
 43
0.00000001
 12
1.0
 22
0.0
 32
0.0
 13
1.0
 23
0.0
 33
0.0
 40
0.0
 40
0.0
 40
0.0
 40
0.0
 40
0.5
 40
0.5
 40
1.0
 40
1.0
 40
1.0
 40
1.0
 10
95.04752380888452
 20
127.0620967494305
 30
0.0
 10
94.97996455396627
 20
126.9944053566207
 30
0.0
 10
94.91632789862979
 20
126.9196981918671
 30
0.0
 10
94.80610714405792
 20
126.7607320594405
 30
0.0
 10
94.75929085083531
 20
126.6763767934325
 30
0.0
 10
94.73172238540724
 20
126.5922621907407
 30
0.0
  0
SPLINE
  5
E7
330
1F
100
AcDbEntity
  8
0
  6
Continuous
 62
     7
370
    15
100
AcDbSpline
210
0.0
220
0.0
230
1.0
 70
     8
 71
     3
 72
     8
 73
     4
 74
     0
 42
0.00000001
 43
0.00000001
 12
1.0
 22
0.0
 32
0.0
 13
1.0
 23
0.0
 33
0.0
 40
0.0
 40
0.0
 40
0.0
 40
0.0
 40
1.0
 40
1.0
 40
1.0
 40
1.0
 10
94.84647830950188
 20
85.75822055417726
 30
0.0
 10
94.88219196787178
 20
85.63498904891746
 30
0.0
 10
94.95786000682008
 20
85.51404547197046
 30
0.0
 10
95.0475238088932
 20
85.40732642826721
 30
0.0
  0
SPLINE
  5
E8
330
1F
100
AcDbEntity
  8
0
  6
Continuous
 62
     7
370
    15
100
AcDbSpline
210
0.0
220
0.0
230
1.0
 70
     8
 71
     3
 72
    26
 73
    22
 74
     0
 42
0.00000001
 43
0.00000001
 12
1.0
 22
0.0
 32
0.0
 13
1.0
 23
0.0
 33
0.0
 40
0.0
 40
0.0
 40
0.0
 40
0.0
 40
0.2499999999999948
 40
0.2499999999999948
 40
0.3749999999999912
 40
0.3749999999999912
 40
0.4374999999999888
 40
0.4374999999999888
 40
0.4687499999999878
 40
0.4687499999999878
 40
0.4999999999999868
 40
0.4999999999999868
 40
0.5312499999999858
 40
0.5312499999999858
 40
0.5624999999999848
 40
0.5624999999999848
 40
0.6249999999999869
 40
0.6249999999999869
 40
0.7499999999999909
 40
0.7499999999999909
 40
1.0
 40
1.0
 40
1.0
 40
1.0
 10
93.9378463549114
 20
86.61205529691598
 30
0.0
 10
93.94857038830392
 20
86.71501633740498
 30
0.0
 10
93.96330337889847
 20
86.81401502688603
 30
0.0
 10
94.01565693814548
 20
86.93261070695114
 30
0.0
 10
94.03736222086509
 20
86.96832100689994
 30
0.0
 10
94.0962177282305
 20
86.99330043972166
 30
0.0
 10
94.11967996207765
 20
86.99768588748522
 30
0.0
 10
94.17580133873828
 20
86.97793305404107
 30
0.0
 10
94.19858864886888
 20
86.9662766632307
 30
0.0
 10
94.25384120140009
 20
86.92449631379345
 30
0.0
 10
94.28524743414087
 20
86.8942247264175
 30
0.0
 10
94.34018125476132
 20
86.83258232750352
 30
0.0
 10
94.36460507296079
 20
86.8011406751967
 30
0.0
 10
94.40802017894801
 20
86.74140583778293
 30
0.0
 10
94.42759474151627
 20
86.71224082791029
 30
0.0
 10
94.48122742546425
 20
86.62840555217721
 30
0.0
 10
94.51100477351646
 20
86.576372934201
 30
0.0
 10
94.59253883348929
 20
86.42530726023364
 30
0.0
 10
94.63578162816331
 20
86.3321162183629
 30
0.0
 10
94.74883621781802
 20
86.06772967936851
 30
0.0
 10
94.80284721529719
 20
85.90877151031867
 30
0.0
 10
94.84647830950121
 20
85.75822055417783
 30
0.0
  0
LINE
  5
E9
330
1F
100
AcDbEntity
  8
0
  6
Continuous
 62
     7
370
    15
100
AcDbLine
 10
145.7175687393
 20
126.3380094886
 30
0.0
 11
145.7175687393
 21
127.2522865247
 31
0.0
  0
SPLINE
  5
EA
330
1F
100
AcDbEntity
  8
0
  6
Continuous
 62
     7
370
    15
100
AcDbSpline
210
0.0
220
0.0
230
1.0
 70
     8
 71
     3
 72
     8
 73
     4
 74
     0
 42
0.00000001
 43
0.00000001
 12
1.0
 22
0.0
 32
0.0
 13
1.0
 23
0.0
 33
0.0
 40
0.0
 40
0.0
 40
0.0
 40
0.0
 40
1.0
 40
1.0
 40
1.0
 40
1.0
 10
145.7175687393027
 20
127.2522865247262
 30
0.0
 10
146.1968468898926
 20
128.3932977545788
 30
0.0
 10
146.6924147290325
 20
129.5296821653466
 30
0.0
 10
147.1995015707918
 20
130.6608325195103
 30
0.0
  0
LINE
  5
EB
330
1F
100
AcDbEntity
  8
0
  6
Continuous
 62
     7
370
    15
100
AcDbLine
 10
147.1995015708
 20
130.6608325195
 30
0.0
 11
151.1575687393
 21
130.6608325195
 31
0.0
  0
SPLINE
  5
EC
330
1F
100
AcDbEntity
  8
0
  6
Continuous
 62
     7
370
    15
100
AcDbSpline
210
0.0
220
0.0
230
1.0
 70
     8
 71
     3
 72
    12
 73
     8
 74
     0
 42
0.00000001
 43
0.00000001
 12
1.0
 22
0.0
 32
0.0
 13
1.0
 23
0.0
 33
0.0
 40
0.0
 40
0.0
 40
0.0
 40
0.0
 40
0.2500000000000013
 40
0.2500000000000013
 40
0.5000000000000027
 40
0.5000000000000027
 40
1.0
 40
1.0
 40
1.0
 40
1.0
 10
151.1575687393027
 20
130.6608325195103
 30
0.0
 10
151.2487684611284
 20
130.6608325195103
 30
0.0
 10
151.3393634702644
 20
130.6326128209224
 30
0.0
 10
151.4927761967111
 20
130.5381698136743
 30
0.0
 10
151.5579850640348
 20
130.471882836969
 30
0.0
 10
151.7107695933747
 20
130.2462580136807
 30
0.0
 10
151.7575687393027
 20
130.0638317506481
 30
0.0
 10
151.7575687393027
 20
129.8830951184012
 30
0.0
  0
LINE
  5
ED
330
1F
100
AcDbEntity
  8
0
  6
Continuous
 62
     7
370
    15
100
AcDbLine
 10
151.7575687393
 20
129.8830951184
 30
0.0
 11
151.7575687393
 21
126.0521428571
 31
0.0
  0
SPLINE
  5
EE
330
1F
100
AcDbEntity
  8
0
  6
Continuous
 62
     7
370
    15
100
AcDbSpline
210
0.0
220
0.0
230
1.0
 70
     8
 71
     3
 72
    10
 73
     6
 74
     0
 42
0.00000001
 43
0.00000001
 12
1.0
 22
0.0
 32
0.0
 13
1.0
 23
0.0
 33
0.0
 40
0.0
 40
0.0
 40
0.0
 40
0.0
 40
0.5
 40
0.5
 40
1.0
 40
1.0
 40
1.0
 40
1.0
 10
151.7575687393027
 20
136.0485831809068
 30
0.0
 10
151.7575687393027
 20
136.2089884472576
 30
0.0
 10
151.6953309081959
 20
136.3680502602462
 30
0.0
 10
151.4761959844533
 20
136.5989627258764
 30
0.0
 10
151.3186072894615
 20
136.6693383303071
 30
0.0
 10
151.1575687393027
 20
136.6693383303071
 30
0.0
  0
LINE
  5
EF
330
1F
100
AcDbEntity
  8
0
  6
Continuous
 62
     7
370
    15
100
AcDbLine
 10
151.7575687393
 20
129.8830951184
 30
0.0
 11
151.7575687393
 21
136.0485831809
 31
0.0
  0
LINE
  5
F0
330
1F
100
AcDbEntity
  8
0
  6
Continuous
 62
     7
370
    15
100
AcDbLine
 10
151.1575687393
 20
136.6693383303
 30
0.0
 11
147.1995015708
 21
136.6693383303
 31
0.0
  0
LINE
  5
F1
330
1F
100
AcDbEntity
  8
0
  6
Continuous
 62
     7
370
    15
100
AcDbLine
 10
147.1995015708
 20
130.6608325195
 30
0.0
 11
147.1995015708
 21
136.6693383303
 31
0.0
  0
SPLINE
  5
F2
330
1F
100
AcDbEntity
  8
0
  6
Continuous
 62
     7
370
    15
100
AcDbSpline
210
0.0
220
0.0
230
1.0
 70
     8
 71
     3
 72
     8
 73
     4
 74
     0
 42
0.00000001
 43
0.00000001
 12
1.0
 22
0.0
 32
0.0
 13
1.0
 23
0.0
 33
0.0
 40
0.0
 40
0.0
 40
0.0
 40
0.0
 40
1.0
 40
1.0
 40
1.0
 40
1.0
 10
147.1995015707918
 20
136.6693383303071
 30
0.0
 10
146.7043615414275
 20
135.7826586821269
 30
0.0
 10
146.2102788361485
 20
134.8953960464409
 30
0.0
 10
145.7175687393027
 20
134.0073770483145
 30
0.0
  0
LINE
  5
F3
330
1F
100
AcDbEntity
  8
0
  6
Continuous
 62
     7
370
    15
100
AcDbLine
 10
145.7175687393
 20
127.2522865247
 30
0.0
 11
145.7175687393
 21
134.0073770483
 31
0.0
  0
SPLINE
  5
F4
330
1F
100
AcDbEntity
  8
0
  6
Continuous
 62
     7
370
    15
100
AcDbSpline
210
0.0
220
0.0
230
1.0
 70
     8
 71
     3
 72
     8
 73
     4
 74
     0
 42
0.00000001
 43
0.00000001
 12
1.0
 22
0.0
 32
0.0
 13
1.0
 23
0.0
 33
0.0
 40
0.0
 40
0.0
 40
0.0
 40
0.0
 40
1.0
 40
1.0
 40
1.0
 40
1.0
 10
140.4156359078137
 20
130.6608325195103
 30
0.0
 10
140.922722749573
 20
129.5296821653466
 30
0.0
 10
141.4182905887129
 20
128.3932977545788
 30
0.0
 10
141.8975687393027
 20
127.2522865247262
 30
0.0
  0
LINE
  5
F5
330
1F
100
AcDbEntity
  8
0
  6
Continuous
 62
     7
370
    15
100
AcDbLine
 10
141.8975687393
 20
127.2522865247
 30
0.0
 11
141.8975687393
 21
126.3380094886
 31
0.0
  0
SPLINE
  5
F6
330
1F
100
AcDbEntity
  8
0
  6
Continuous
 62
     7
370
    15
100
AcDbSpline
210
0.0
220
0.0
230
1.0
 70
     8
 71
     3
 72
     8
 73
     4
 74
     0
 42
0.00000001
 43
0.00000001
 12
1.0
 22
0.0
 32
0.0
 13
1.0
 23
0.0
 33
0.0
 40
0.0
 40
0.0
 40
0.0
 40
0.0
 40
1.0
 40
1.0
 40
1.0
 40
1.0
 10
141.8975687393028
 20
134.0073770483145
 30
0.0
 10
141.404858642457
 20
134.8953960464409
 30
0.0
 10
140.910775937178
 20
135.7826586821269
 30
0.0
 10
140.4156359078137
 20
136.6693383303071
 30
0.0
  0
LINE
  5
F7
330
1F
100
AcDbEntity
  8
0
  6
Continuous
 62
     7
370
    15
100
AcDbLine
 10
141.8975687393
 20
127.2522865247
 30
0.0
 11
141.8975687393
 21
134.0073770483
 31
0.0
  0
ELLIPSE
  5
F8
330
1F
100
AcDbEntity
  8
0
  6
Continuous
 62
     7
370
    15
100
AcDbEllipse
 10
253.1383901793
 20
106.2021428571
 30
0.0
 11
-0.3220561513869029
 21
15.99976859320063
 31
0.0
210
0.0
220
0.0
230
1.0
 40
0.2671959542
 41
0.2878381521913606
 42
2.703371596797383
  0
ELLIPSE
  5
F9
330
1F
100
AcDbEntity
  8
0
  6
Continuous
 62
     7
370
    15
100
AcDbEllipse
 10
250.6025102512
 20
112.6733712605
 30
0.0
 11
0.08858572008304579
 21
2.32755199684469
 31
0.0
210
0.0
220
0.0
230
1.0
 40
0.2575917467
 41
0.0
 42
6.283185307179586
  0
SPLINE
  5
FA
330
1F
100
AcDbEntity
  8
0
  6
Continuous
 62
     7
370
    15
100
AcDbSpline
210
0.0
220
0.0
230
1.0
 70
     8
 71
     3
 72
    14
 73
    10
 74
     0
 42
0.00000001
 43
0.00000001
 12
1.0
 22
0.0
 32
0.0
 13
1.0
 23
0.0
 33
0.0
 40
0.0
 40
0.0
 40
0.0
 40
0.0
 40
0.2500000000000001
 40
0.2500000000000001
 40
0.5
 40
0.5
 40
0.75
 40
0.75
 40
1.0
 40
1.0
 40
1.0
 40
1.0
 10
257.4115306671767
 20
122.2017013665735
 30
0.0
 10
256.7418707531496
 20
122.2017013665735
 30
0.0
 10
256.0907688202345
 20
122.2020121680654
 30
0.0
 10
254.8257574511514
 20
122.1897884789144
 30
0.0
 10
254.2458746455647
 20
122.1773348315239
 30
0.0
 10
253.1959535172262
 20
122.1050030309767
 30
0.0
 10
252.7534228503535
 20
122.04646163125
 30
0.0
 10
252.0356810608756
 20
121.8451766910025
 30
0.0
 10
251.7786652807458
 20
121.706975474587
 30
0.0
 10
251.615975709442
 20
121.5192496378401
 30
0.0
  0
SPLINE
  5
FB
330
1F
100
AcDbEntity
  8
0
  6
Continuous
 62
     7
370
    15
100
AcDbSpline
210
0.0
220
0.0
230
1.0
 70
     8
 71
     3
 72
    14
 73
    10
 74
     0
 42
0.00000001
 43
0.00000001
 12
1.0
 22
0.0
 32
0.0
 13
1.0
 23
0.0
 33
0.0
 40
0.0
 40
0.0
 40
0.0
 40
0.0
 40
0.25
 40
0.25
 40
0.5
 40
0.5
 40
0.75
 40
0.75
 40
1.0
 40
1.0
 40
1.0
 40
1.0
 10
251.615975709442
 20
91.67771071772387
 30
0.0
 10
251.7786618245957
 20
91.40528318567101
 30
0.0
 10
252.0348317497634
 20
91.18615763203626
 30
0.0
 10
252.753163590595
 20
90.83173271585912
 30
0.0
 10
253.1951302445811
 20
90.70593183888164
 30
0.0
 10
254.2456876342301
 20
90.51915120309032
 30
0.0
 10
254.8271427853183
 20
90.46262478574782
 30
0.0
 10
256.0910606794561
 20
90.38974324692997
 30
0.0
 10
256.7418659683149
 20
90.37483295115115
 30
0.0
 10
257.4115306671767
 20
90.37483295115115
 30
0.0
  0
LINE
  5
FC
330
1F
100
AcDbEntity
  8
0
  6
Continuous
 62
     7
370
    15
100
AcDbLine
 10
257.4115306672
 20
90.3748329512
 30
0.0
 11
259.8075687393
 21
90.3748329512
 31
0.0
  0
LINE
  5
FD
330
1F
100
AcDbEntity
  8
0
  6
Continuous
 62
     7
370
    15
100
AcDbLine
 10
259.8075687393
 20
90.3748329512
 30
0.0
 11
259.8075687393
 21
90.2021428571
 31
0.0
  0
LINE
  5
FE
330
1F
100
AcDbEntity
  8
0
  6
Continuous
 62
     7
370
    15
100
AcDbLine
 10
259.8075687393
 20
122.2021428571
 30
0.0
 11
259.8075687393
 21
122.2017013666
 31
0.0
  0
LINE
  5
FF
330
1F
100
AcDbEntity
  8
0
  6
Continuous
 62
     7
370
    15
100
AcDbLine
 10
259.8075687393
 20
122.2017013666
 30
0.0
 11
257.4115306672
 21
122.2017013666
 31
0.0
  0
LINE
  5
100
330
1F
100
AcDbEntity
  8
0
  6
Continuous
 62
     7
370
    15
100
AcDbLine
 10
95.0575687393
 20
85.3896428571
 30
0.0
 11
95.0575687393
 21
85.3955112986
 31
0.0
  0
LINE
  5
101
330
1F
100
AcDbEntity
  8
0
  6
Continuous
 62
     7
370
    15
100
AcDbLine
 10
267.3231219544
 20
89.8746046687
 30
0.0
 11
260.3075687393
 21
89.8746046687
 31
0.0
  0
ELLIPSE
  5
102
330
1F
100
AcDbEntity
  8
0
  6
Continuous
 62
     7
370
    15
100
AcDbEllipse
 10
278.8441568215
 20
106.2021428571
 30
0.0
 11
11.54074050226263
 21
16.49565463945619
 31
0.0
210
0.0
220
0.0
230
1.0
 40
0.032810104
 41
3.019833342111493
 42
4.73533965552154
  0
LINE
  5
103
330
1F
100
AcDbEntity
  8
0
  6
Continuous
 62
     7
370
    15
100
AcDbLine
 10
260.3075687393
 20
89.8746046687
 30
0.0
 11
260.3075687393
 21
89.7021428571
 31
0.0
  0
LINE
  5
104
330
1F
100
AcDbEntity
  8
0
  6
Continuous
 62
     7
370
    15
100
AcDbLine
 10
260.3075687393
 20
89.8746046687
 30
0.0
 11
259.8075687393
 21
90.3748329512
 31
0.0
  0
SPLINE
  5
105
330
1F
100
AcDbEntity
  8
0
  6
Continuous
 62
     7
370
    15
100
AcDbSpline
210
0.0
220
0.0
230
1.0
 70
     8
 71
     3
 72
     8
 73
     4
 74
     0
 42
0.00000001
 43
0.00000001
 12
1.0
 22
0.0
 32
0.0
 13
1.0
 23
0.0
 33
0.0
 40
0.0
 40
0.0
 40
0.0
 40
0.0
 40
1.0
 40
1.0
 40
1.0
 40
1.0
 10
259.8075687393028
 20
122.2017013665735
 30
0.0
 10
260.9124007919193
 20
123.3071381576236
 30
0.0
 10
262.017566544716
 20
124.4122432659791
 30
0.0
 10
263.1229190559526
 20
125.5171627449994
 30
0.0
  0
ARC
  5
106
330
1F
100
AcDbEntity
  8
0
  6
Continuous
 62
     7
370
    15
100
AcDbCircle
 10
273.1033478141
 20
115.5057974852
 30
0.0
 40
2.097312844755602
100
AcDbArc
 50
118.349648527
 51
333.0427634639
  0
LINE
  5
107
330
1F
100
AcDbEntity
  8
0
  6
Continuous
 62
     7
370
    15
100
AcDbLine
 10
283.876214842
 20
115.3161256897
 30
0.0
 11
283.6899123186
 21
113.1918653301
 31
0.0
  0
LINE
  5
108
330
1F
100
AcDbEntity
  8
0
  6
Continuous
 62
     7
370
    15
100
AcDbLine
 10
283.6899123186
 20
113.1918653301
 30
0.0
 11
267.3231219544
 21
89.8746046687
 31
0.0
  0
LINE
  5
109
330
1F
100
AcDbEntity
  8
0
  6
Continuous
 62
     7
370
    15
100
AcDbLine
 10
272.8985499329
 20
126.3720099404
 30
0.0
 11
263.122919056
 21
125.517162745
 31
0.0
  0
LINE
  5
10A
330
1F
100
AcDbEntity
  8
0
  6
Continuous
 62
     7
370
    15
100
AcDbLine
 10
283.6899123186
 20
111.9857055628
 30
0.0
 11
283.6899123186
 21
113.1918653301
 31
0.0
  0
LINE
  5
10B
330
1F
100
AcDbEntity
  8
0
  6
Continuous
 62
     7
370
    15
100
AcDbLine
 10
279.650082966
 20
106.2021428571
 30
0.0
 11
283.6899123186
 21
111.9857055628
 31
0.0
  0
LINE
  5
10C
330
1F
100
AcDbEntity
  8
0
  6
Continuous
 62
     7
370
    15
100
AcDbLine
 10
283.6899123186
 20
111.9857055628
 30
0.0
 11
283.9813775788
 21
115.3253038249
 31
0.0
  0
LINE
  5
10D
330
1F
100
AcDbEntity
  8
0
  6
Continuous
 62
     7
370
    15
100
AcDbLine
 10
283.9002275327
 20
115.3182214103
 30
0.0
 11
283.9002275327
 21
115.2788095409
 31
0.0
  0
LINE
  5
10E
330
1F
100
AcDbEntity
  8
0
  6
Continuous
 62
     7
370
    15
100
AcDbLine
 10
283.9002275327
 20
115.2788095409
 30
0.0
 11
283.9037107055
 21
115.3185254062
 31
0.0
  0
ARC
  5
10F
330
1F
100
AcDbEntity
  8
0
  6
Continuous
 62
     7
370
    15
100
AcDbCircle
 10
273.0957529337
 20
115.1706461355
 30
0.0
 40
2.093974347060588
100
AcDbArc
 50
119.124678179
 51
175.3878079389
  0
ARC
  5
110
330
1F
100
AcDbEntity
  8
0
  6
HIDDEN
 62
     7
370
     0
100
AcDbCircle
 10
277.4776153548
 20
120.2897788542
 30
0.0
 40
0.3935300428226385
100
AcDbArc
 50
170.8481011633
 51
288.3582200892
  0
ARC
  5
111
330
1F
100
AcDbEntity
  8
0
  6
HIDDEN
 62
     7
370
     0
100
AcDbCircle
 10
280.2114685415
 20
120.3621812437
 30
0.0
 40
0.393641593725934
100
AcDbArc
 50
254.7032327779
 51
7.0827687034
  0
ARC
  5
112
330
1F
100
AcDbEntity
  8
0
  6
HIDDEN
 62
     7
370
     0
100
AcDbCircle
 10
276.7175184514
 20
121.0568075024
 30
0.0
 40
0.6870588570048488
100
AcDbArc
 50
0.013219703
 51
48.3645622673
  0
ARC
  5
113
330
1F
100
AcDbEntity
  8
0
  6
HIDDEN
 62
     7
370
     0
100
AcDbCircle
 10
280.9298153817
 20
121.1682410731
 30
0.0
 40
0.6869810662754767
100
AcDbArc
 50
134.6732371703
 51
179.9881618794
  0
ARC
  5
114
330
1F
100
AcDbEntity
  8
0
  6
HIDDEN
 62
     7
370
     0
100
AcDbCircle
 10
277.4347663145
 20
121.8636939785
 30
0.0
 40
0.3925291585993511
100
AcDbArc
 50
174.2023230796
 51
228.3680990662
  0
ARC
  5
115
330
1F
100
AcDbEntity
  8
0
  6
HIDDEN
 62
     7
370
     0
100
AcDbCircle
 10
280.1709292443
 20
121.9358829871
 30
0.0
 40
0.3924550271823761
100
AcDbArc
 50
314.6681004361
 51
6.8433921394
  0
ARC
  5
116
330
1F
100
AcDbEntity
  8
0
  6
HIDDEN
 62
     7
370
     0
100
AcDbCircle
 10
278.8221695299
 20
121.1790395883
 30
0.0
 40
3.500004957036001
100
AcDbArc
 50
0.0964304933
 51
179.9035695067
  0
ARC
  5
117
330
1F
100
AcDbEntity
  8
0
  6
HIDDEN
 62
     7
370
     0
100
AcDbCircle
 10
279.9261579505
 20
119.3172546202
 30
0.0
 40
0.689536095796013
100
AcDbArc
 50
74.7421546755
 51
168.1674797951
  0
ARC
  5
118
330
1F
100
AcDbEntity
  8
0
  6
HIDDEN
 62
     7
370
     0
100
AcDbCircle
 10
277.817890172
 20
119.2613684493
 30
0.0
 40
0.6897129701929688
100
AcDbArc
 50
14.8717374618
 51
108.2794474723
  0
ARC
  5
119
330
1F
100
AcDbEntity
  8
0
  6
HIDDEN
 62
     7
370
     0
100
AcDbCircle
 10
278.8654811571
 20
119.5395684502
 30
0.0
 40
0.3941883688609987
100
AcDbArc
 50
194.8732623077
 51
348.1534626332
  0
CIRCLE
  5
11A
330
1F
100
AcDbEntity
  8
0
  6
HIDDEN
 62
     7
370
     0
100
AcDbCircle
 10
278.8264277923
 20
120.9556936203
 30
0.0
 40
2.495714841216055
  0
CIRCLE
  5
11B
330
1F
100
AcDbEntity
  8
0
  6
HIDDEN
 62
     7
370
     0
100
AcDbCircle
 10
278.8264277923
 20
120.5859843094
 30
0.0
 40
2.495714841216055
  0
CIRCLE
  5
11C
330
1F
100
AcDbEntity
  8
0
  6
HIDDEN
 62
     7
370
     0
100
AcDbCircle
 10
278.8249024131
 20
120.5230202732
 30
0.0
 40
1.597245833345023
  0
LINE
  5
11D
330
1F
100
AcDbEntity
  8
0
  6
HIDDEN
 62
     7
370
     0
100
AcDbLine
 10
272.2767954675
 20
114.4770815139
 30
0.0
 11
272.3116577646
 21
114.3068226618
 31
0.0
  0
LINE
  5
11E
330
1F
100
AcDbEntity
  8
0
  6
HIDDEN
 62
     7
370
     0
100
AcDbLine
 10
272.2767954675
 20
114.4770815139
 30
0.0
 11
271.8783175883
 21
114.7391072433
 31
0.0
  0
LINE
  5
11F
330
1F
100
AcDbEntity
  8
0
  6
HIDDEN
 62
     7
370
     0
100
AcDbLine
 10
272.4797070246
 20
114.5747063287
 30
0.0
 11
272.2767954675
 21
114.4770815139
 31
0.0
  0
LINE
  5
120
330
1F
100
AcDbEntity
  8
0
  6
HIDDEN
 62
     7
370
     0
100
AcDbLine
 10
284.3143904915
 20
115.5276691866
 30
0.0
 11
284.3492527886
 21
115.3574103345
 31
0.0
  0
LINE
  5
121
330
1F
100
AcDbEntity
  8
0
  6
HIDDEN
 62
     7
370
     0
100
AcDbLine
 10
284.3143904915
 20
115.5276691866
 30
0.0
 11
284.7128683708
 21
115.7201401674
 31
0.0
  0
LINE
  5
122
330
1F
100
AcDbEntity
  8
0
  6
HIDDEN
 62
     7
370
     0
100
AcDbLine
 10
284.1441274788
 20
115.5927249872
 30
0.0
 11
284.3143904915
 21
115.5276691866
 31
0.0
  0
ARC
  5
123
330
1F
100
AcDbEntity
  8
0
  6
HIDDEN
 62
     7
370
     0
100
AcDbCircle
 10
278.8221695299
 20
121.1601352201
 30
0.0
 40
3.800005723650054
100
AcDbArc
 50
180.0994448043
 51
359.9005551957
  0
LINE
  5
124
330
1F
100
AcDbEntity
  8
0
  6
HIDDEN
 62
     7
370
     0
100
AcDbLine
 10
285.1646320351
 20
127.2287314995
 30
0.0
 11
285.3675435923
 21
127.5359412341
 31
0.0
  0
LINE
  5
125
330
1F
100
AcDbEntity
  8
0
  6
HIDDEN
 62
     7
370
     0
100
AcDbLine
 10
273.5002115809
 20
126.2107128409
 30
0.0
 11
273.3299485682
 21
126.4853535614
 31
0.0
  0
LINE
  5
126
330
1F
100
AcDbEntity
  8
0
  6
HIDDEN
 62
     7
370
     0
100
AcDbLine
 10
273.3299485682
 20
126.4853535614
 30
0.0
 11
273.2950862711
 21
127.1101091237
 31
0.0
  0
LINE
  5
127
330
1F
100
AcDbEntity
  8
0
  6
HIDDEN
 62
     7
370
     0
100
AcDbLine
 10
273.3299485682
 20
126.4853535614
 30
0.0
 11
272.931470689
 21
126.7473792908
 31
0.0
  0
LINE
  5
128
330
1F
100
AcDbEntity
  8
0
  6
HIDDEN
 62
     7
370
     0
100
AcDbLine
 10
285.3675435923
 20
127.5359412341
 30
0.0
 11
285.3326812952
 21
128.1606967964
 31
0.0
  0
LINE
  5
129
330
1F
100
AcDbEntity
  8
0
  6
HIDDEN
 62
     7
370
     0
100
AcDbLine
 10
285.3675435923
 20
127.5359412341
 30
0.0
 11
285.7660214715
 21
127.7284122149
 31
0.0
  0
CIRCLE
  5
12A
330
1F
100
AcDbEntity
  8
0
  6
HIDDEN
 62
     7
370
     0
100
AcDbCircle
 10
278.8171972714
 20
121.0468704027
 30
0.0
 40
2.745158453354382
  0
CIRCLE
  5
12B
330
1F
100
AcDbEntity
  8
0
  6
HIDDEN
 62
     7
370
     0
100
AcDbCircle
 10
278.8171972714
 20
120.8998584892
 30
0.0
 40
2.745158453354376
  0
LINE
  5
12C
330
1F
100
AcDbEntity
  8
0
  6
HIDDEN
 62
     7
370
     0
100
AcDbLine
 10
285.1646320351
 20
127.2287314995
 30
0.0
 11
273.5002115809
 21
126.2107128409
 31
0.0
  0
LINE
  5
12D
330
1F
100
AcDbEntity
  8
0
  6
HIDDEN
 62
     7
370
     0
100
AcDbLine
 10
284.1441274788
 20
115.5927249872
 30
0.0
 11
285.1646320351
 21
127.2287314995
 31
0.0
  0
LINE
  5
12E
330
1F
100
AcDbEntity
  8
0
  6
HIDDEN
 62
     7
370
     0
100
AcDbLine
 10
273.5002115809
 20
126.2107128409
 30
0.0
 11
272.4797070246
 21
114.5747063287
 31
0.0
  0
LINE
  5
12F
330
1F
100
AcDbEntity
  8
0
  6
HIDDEN
 62
     7
370
     0
100
AcDbLine
 10
272.4797070246
 20
114.5747063287
 30
0.0
 11
284.1441274788
 21
115.5927249872
 31
0.0
  0
LINE
  5
130
330
1F
100
AcDbEntity
  8
0
  6
HIDDEN
 62
     7
370
     0
100
AcDbLine
 10
140.4156359078
 20
130.6608325195
 30
0.0
 11
140.4156359078
 21
126.0521428571
 31
0.0
  0
LINE
  5
131
330
1F
100
AcDbEntity
  8
0
  6
HIDDEN
 62
     7
370
     0
100
AcDbLine
 10
113.8027189439
 20
82.6775432343
 30
0.0
 11
113.2685735148
 21
82.6229286348
 31
0.0
  0
LINE
  5
132
330
1F
100
AcDbEntity
  8
0
  6
HIDDEN
 62
     7
370
     0
100
AcDbLine
 10
113.0309198427
 20
129.8054760377
 30
0.0
 11
113.8026262236
 21
129.7267258871
 31
0.0
  0
SPLINE
  5
133
330
1F
100
AcDbEntity
  8
0
  6
HIDDEN
 62
     7
370
     0
100
AcDbSpline
210
0.0
220
0.0
230
1.0
 70
     8
 71
     3
 72
    15
 73
    11
 74
     0
 42
0.00000001
 43
0.00000001
 12
1.0
 22
0.0
 32
0.0
 13
1.0
 23
0.0
 33
0.0
 40
0.0
 40
0.0
 40
0.0
 40
0.0
 40
0.1409172169897697
 40
0.28188982911719
 40
0.4212989265166058
 40
0.5593768372264382
 40
0.6988856205980565
 40
0.8403671979046413
 40
0.9813164454670271
 40
1.0
 40
1.0
 40
1.0
 40
1.0
 10
119.5625707409043
 20
86.36461438132639
 30
0.0
 10
119.2465290546318
 20
86.404968198648
 30
0.0
 10
118.6143214447998
 20
86.48569169654284
 30
0.0
 10
117.3801583231225
 20
86.5622467941451
 30
0.0
 10
116.109436322264
 20
86.55757074300607
 30
0.0
 10
114.9208769172366
 20
86.47677473127385
 30
0.0
 10
113.9277542444555
 20
86.3523779347621
 30
0.0
 10
113.2883452381589
 20
86.2459743961
 30
0.0
 10
113.0073251315754
 20
86.19289373542284
 30
0.0
 10
113.0738858692686
 20
86.20514977543708
 30
0.0
 10
113.0816761927868
 20
86.20658423244691
 30
0.0
  0
SPLINE
  5
134
330
1F
100
AcDbEntity
  8
0
  6
HIDDEN
 62
     7
370
     0
100
AcDbSpline
210
0.0
220
0.0
230
1.0
 70
     8
 71
     3
 72
    15
 73
    11
 74
     0
 42
0.00000001
 43
0.00000001
 12
1.0
 22
0.0
 32
0.0
 13
1.0
 23
0.0
 33
0.0
 40
0.0
 40
0.0
 40
0.0
 40
0.0
 40
0.1201202395113834
 40
0.2584739316900707
 40
0.3987301965958647
 40
0.5404022890432716
 40
0.6807395403003651
 40
0.8190356063860885
 40
0.9577823106998862
 40
0.9999999999999999
 40
0.9999999999999999
 40
0.9999999999999999
 40
0.9999999999999999
 10
113.0816761927868
 20
126.1977014818388
 30
0.0
 10
113.1023853292573
 20
126.1936768879852
 30
0.0
 10
113.1469471112451
 20
126.1850167937243
 30
0.0
 10
113.7093867171178
 20
126.0857256671157
 30
0.0
 10
114.6028489294391
 20
125.9618080771344
 30
0.0
 10
115.7618280836313
 20
125.8620976403129
 30
0.0
 10
117.0348649637566
 20
125.8349591512373
 30
0.0
 10
118.2691502384002
 20
125.8902979854012
 30
0.0
 10
119.0971130351663
 20
125.9767765843854
 30
0.0
 10
119.4745235798302
 20
126.0277740026753
 30
0.0
 10
119.5625707409044
 20
126.0396713329593
 30
0.0
  0
SPLINE
  5
135
330
1F
100
AcDbEntity
  8
0
  6
HIDDEN
 62
     7
370
     0
100
AcDbSpline
210
0.0
220
0.0
230
1.0
 70
     8
 71
     3
 72
    10
 73
     6
 74
     0
 42
0.00000001
 43
0.00000001
 12
1.0
 22
0.0
 32
0.0
 13
1.0
 23
0.0
 33
0.0
 40
0.0
 40
0.0
 40
0.0
 40
0.0
 40
0.4474814261792005
 40
0.8949460971320717
 40
1.0
 40
1.0
 40
1.0
 40
1.0
 10
119.5625707409043
 20
126.0396713329593
 30
0.0
 10
119.8092815057252
 20
126.0691840888026
 30
0.0
 10
120.302693797677
 20
126.1282084954311
 30
0.0
 10
120.5917123432407
 20
126.1421464570525
 30
0.0
 10
120.5312981277111
 20
126.1382530857038
 30
0.0
 10
120.5198111851344
 20
126.1375128140191
 30
0.0
  0
SPLINE
  5
136
330
1F
100
AcDbEntity
  8
0
  6
HIDDEN
 62
     7
370
     0
100
AcDbSpline
210
0.0
220
0.0
230
1.0
 70
     8
 71
     3
 72
    10
 73
     6
 74
     0
 42
0.00000001
 43
0.00000001
 12
1.0
 22
0.0
 32
0.0
 13
1.0
 23
0.0
 33
0.0
 40
0.0
 40
0.0
 40
0.0
 40
0.0
 40
0.3453885670320262
 40
0.796670241335531
 40
1.0
 40
1.0
 40
1.0
 40
1.0
 10
120.5198131544851
 20
86.26677276639498
 30
0.0
 10
120.5102529691411
 20
86.26732844021696
 30
0.0
 10
120.4882015294232
 20
86.26861015258413
 30
0.0
 10
120.0712963501891
 20
86.29856494690547
 30
0.0
 10
119.6831373442696
 20
86.34896084272525
 30
0.0
 10
119.5625707409043
 20
86.36461438132639
 30
0.0
  0
LINE
  5
137
330
1F
100
AcDbEntity
  8
0
  6
HIDDEN
 62
     7
370
     0
100
AcDbLine
 10
106.8115433355
 20
89.2021428571
 30
0.0
 11
106.8115433355
 21
123.2021428571
 31
0.0
  0
LINE
  5
138
330
1F
100
AcDbEntity
  8
0
  6
HIDDEN
 62
     7
370
     0
100
AcDbLine
 10
133.4673947078
 20
89.2021428571
 30
0.0
 11
133.4673947078
 21
123.2021428571
 31
0.0
  0
LINE
  5
139
330
1F
100
AcDbEntity
  8
0
  6
HIDDEN
 62
     7
370
     0
100
AcDbLine
 10
135.7575687393
 20
90.4771428571
 30
0.0
 11
135.7575687393
 21
121.9271428571
 31
0.0
  0
SPLINE
  5
13A
330
1F
100
AcDbEntity
  8
0
  6
HIDDEN
 62
     7
370
     0
100
AcDbSpline
210
0.0
220
0.0
230
1.0
 70
     8
 71
     3
 72
    18
 73
    14
 74
     0
 42
0.00000001
 43
0.00000001
 12
1.0
 22
0.0
 32
0.0
 13
1.0
 23
0.0
 33
0.0
 40
0.0
 40
0.0
 40
0.0
 40
0.0
 40
0.2500000000000024
 40
0.2500000000000024
 40
0.3750000000000027
 40
0.3750000000000027
 40
0.5000000000000031
 40
0.5000000000000031
 40
0.6250000000000036
 40
0.6250000000000036
 40
0.7500000000000038
 40
0.7500000000000038
 40
1.0
 40
1.0
 40
1.0
 40
1.0
 10
100.0075687393028
 20
122.489656479547
 30
0.0
 10
100.0075687393028
 20
122.4351819589948
 30
0.0
 10
99.97265804791058
 20
122.3788008996423
 30
0.0
 10
99.87064874657752
 20
122.2947240587888
 30
0.0
 10
99.82901239189943
 20
122.2673903547979
 30
0.0
 10
99.73060659641067
 20
122.2144364391989
 30
0.0
 10
99.67306338470638
 20
122.1885490854817
 30
0.0
 10
99.54576521113343
 20
122.1407715406485
 30
0.0
 10
99.47617790637597
 20
122.1188236224706
 30
0.0
 10
99.32474366122102
 20
122.0793910575579
 30
0.0
 10
99.24205975812706
 20
122.061834808332
 30
0.0
 10
98.985948296089
 20
122.0193960429115
 30
0.0
 10
98.79803329220104
 20
122.0036332931745
 30
0.0
 10
98.60756873930275
 20
122.0036332931745
 30
0.0
  0
LINE
  5
13B
330
1F
100
AcDbEntity
  8
0
  6
HIDDEN
 62
     7
370
     0
100
AcDbLine
 10
98.6075687393
 20
122.0036332932
 30
0.0
 11
95.0575687393
 21
122.0036332932
 31
0.0
  0
LINE
  5
13C
330
1F
100
AcDbEntity
  8
0
  6
HIDDEN
 62
     7
370
     0
100
AcDbLine
 10
95.0575687393
 20
90.4006524211
 30
0.0
 11
102.6075687393
 21
90.4006524211
 31
0.0
  0
SPLINE
  5
13D
330
1F
100
AcDbEntity
  8
0
  6
HIDDEN
 62
     7
370
     0
100
AcDbSpline
210
0.0
220
0.0
230
1.0
 70
     8
 71
     3
 72
    16
 73
    12
 74
     0
 42
0.00000001
 43
0.00000001
 12
1.0
 22
0.0
 32
0.0
 13
1.0
 23
0.0
 33
0.0
 40
0.0
 40
0.0
 40
0.0
 40
0.0
 40
0.1249999999999988
 40
0.1249999999999988
 40
0.2499999999999977
 40
0.2499999999999977
 40
0.4999999999999984
 40
0.4999999999999984
 40
0.7499999999999992
 40
0.7499999999999992
 40
1.0
 40
1.0
 40
1.0
 40
1.0
 10
102.6075687393027
 20
90.40065242111119
 30
0.0
 10
102.7026904939686
 20
90.40065242111119
 30
0.0
 10
102.7960205626967
 20
90.39683658771841
 30
0.0
 10
102.9792823234347
 20
90.3820660349886
 30
0.0
 10
103.0701600389917
 20
90.37090798701301
 30
0.0
 10
103.3269617365114
 20
90.3284367168713
 30
0.0
 10
103.4820291013834
 20
90.28739051966849
 30
0.0
 10
103.735775562938
 20
90.19224440308659
 30
0.0
 10
103.8366460146059
 20
90.13748166900503
 30
0.0
 10
103.9718924293007
 20
90.02622054510115
 30
0.0
 10
104.0075687393027
 20
89.96905080777246
 30
0.0
 10
104.0075687393028
 20
89.91462923473873
 30
0.0
  0
LINE
  5
13E
330
1F
100
AcDbEntity
  8
0
  6
HIDDEN
 62
     7
370
     0
100
AcDbLine
 10
95.0575687393
 20
90.4006524211
 30
0.0
 11
95.0575687393
 21
122.0036332932
 31
0.0
  0
SPLINE
  5
13F
330
1F
100
AcDbEntity
  8
0
  6
HIDDEN
 62
     7
370
     0
100
AcDbSpline
210
0.0
220
0.0
230
1.0
 70
     8
 71
     3
 72
    66
 73
    62
 74
     0
 42
0.00000001
 43
0.00000001
 12
1.0
 22
0.0
 32
0.0
 13
1.0
 23
0.0
 33
0.0
 40
-0.0312499999999996
 40
-0.0312499999999996
 40
0.0
 40
0.0
 40
0.0312499999999994
 40
0.0312499999999994
 40
0.0624999999999988
 40
0.0624999999999988
 40
0.0937499999999982
 40
0.0937499999999982
 40
0.1249999999999976
 40
0.1249999999999976
 40
0.1562499999999971
 40
0.1562499999999971
 40
0.1874999999999964
 40
0.1874999999999964
 40
0.2187499999999959
 40
0.2187499999999959
 40
0.2499999999999953
 40
0.2499999999999953
 40
0.2812499999999947
 40
0.2812499999999947
 40
0.3124999999999941
 40
0.3124999999999941
 40
0.3437499999999935
 40
0.3437499999999935
 40
0.3749999999999929
 40
0.3749999999999929
 40
0.4062499999999923
 40
0.4062499999999923
 40
0.4374999999999917
 40
0.4374999999999917
 40
0.4687499999999912
 40
0.4687499999999912
 40
0.4999999999999906
 40
0.4999999999999906
 40
0.562499999999992
 40
0.562499999999992
 40
0.5937499999999928
 40
0.5937499999999928
 40
0.6249999999999936
 40
0.6249999999999936
 40
0.6562499999999942
 40
0.6562499999999942
 40
0.687499999999995
 40
0.687499999999995
 40
0.7187499999999958
 40
0.7187499999999958
 40
0.7499999999999964
 40
0.7499999999999964
 40
0.7812499999999972
 40
0.7812499999999972
 40
0.812499999999998
 40
0.812499999999998
 40
0.8437499999999988
 40
0.8437499999999988
 40
0.8749999999999994
 40
0.8749999999999994
 40
0.937500000000001
 40
0.937500000000001
 40
0.9687500000000004
 40
0.9687500000000004
 40
1.0
 40
1.0
 40
1.031249999999999
 40
1.031249999999999
 10
243.9730024870241
 20
98.9409574816826
 30
0.0
 10
243.6421349915814
 20
98.9409574816826
 30
0.0
 10
243.479517243854
 20
98.95561806796921
 30
0.0
 10
243.159667385119
 20
99.01310812079943
 30
0.0
 10
243.0007588932623
 20
99.05665348692058
 30
0.0
 10
242.6981358439367
 20
99.17041609053905
 30
0.0
 10
242.5546457904109
 20
99.24011042406921
 30
0.0
 10
242.2830858150608
 20
99.4052944450524
 30
0.0
 10
242.1547082585011
 20
99.50153555107332
 30
0.0
 10
241.9245011420032
 20
99.71261536682488
 30
0.0
 10
241.8211064980912
 20
99.82822094432014
 30
0.0
 10
241.6383365309755
 20
100.0806704837439
 30
0.0
 10
241.5608283068
 20
100.2153345974901
 30
0.0
 10
241.4360607329993
 20
100.4957477109896
 30
0.0
 10
241.3879249532712
 20
100.6435779638971
 30
0.0
 10
241.3236033183791
 20
100.9475493444258
 30
0.0
 10
241.30766203754
 20
101.1011989320078
 30
0.0
 10
241.3074762498792
 20
101.4118382302534
 30
0.0
 10
241.3237642616662
 20
101.5704369342517
 30
0.0
 10
241.3876481560953
 20
101.8785815692966
 30
0.0
 10
241.4349125888633
 20
102.0291262956004
 30
0.0
 10
241.5603206996884
 20
102.3228907365002
 30
0.0
 10
241.6384875024481
 20
102.4651562554914
 30
0.0
 10
241.8192951359641
 20
102.729797693618
 30
0.0
 10
241.92283161329
 20
102.8540531220453
 30
0.0
 10
242.1556648197299
 20
103.0836302143404
 30
0.0
 10
242.2816351545224
 20
103.1857737238149
 30
0.0
 10
242.5520903699653
 20
103.3652866774402
 30
0.0
 10
242.6983516223501
 20
103.44328715461
 30
0.0
 10
243.0007937131479
 20
103.5682743428565
 30
0.0
 10
243.1566131937715
 20
103.6156020499241
 30
0.0
 10
243.4774639549719
 20
103.6797385601637
 30
0.0
 10
243.6433247105666
 20
103.6961766143356
 30
0.0
 10
244.1331507440065
 20
103.6963663978279
 30
0.0
 10
244.4625930000331
 20
103.6306837277849
 30
0.0
 10
244.9140509135698
 20
103.4445674515023
 30
0.0
 10
245.059770291909
 20
103.3672655565683
 30
0.0
 10
245.3325933267911
 20
103.1865701659456
 30
0.0
 10
245.4583385483362
 20
103.0844659048811
 30
0.0
 10
245.6890044970646
 20
102.8575854963486
 30
0.0
 10
245.7945752039673
 20
102.7314530823175
 30
0.0
 10
245.9759605915684
 20
102.4663624183726
 30
0.0
 10
246.0529059914176
 20
102.3266596663719
 30
0.0
 10
246.1788657576906
 20
102.0329988904877
 30
0.0
 10
246.2270778744758
 20
101.8799228797689
 30
0.0
 10
246.290996823135
 20
101.5728878906768
 30
0.0
 10
246.3074307104843
 20
101.4169892064665
 30
0.0
 10
246.3077050450913
 20
101.1027005487979
 30
0.0
 10
246.2916214391611
 20
100.9488741551293
 30
0.0
 10
246.2282355528081
 20
100.6475160400698
 30
0.0
 10
246.1801095306145
 20
100.4984154920684
 30
0.0
 10
246.0549037656447
 20
100.2163287956628
 30
0.0
 10
245.9782430548867
 20
100.0830973766251
 30
0.0
 10
245.7968966562001
 20
99.8317543417306
 30
0.0
 10
245.6916596285591
 20
99.71369368819657
 30
0.0
 10
245.3467150727964
 20
99.39699158911323
 30
0.0
 10
245.0683195455375
 20
99.22758204655783
 30
0.0
 10
244.6174032016616
 20
99.05765079583676
 30
0.0
 10
244.459455020362
 20
99.01397485826544
 30
0.0
 10
244.1364544401449
 20
98.95561975328856
 30
0.0
 10
243.9730024870241
 20
98.9409574816826
 30
0.0
 10
243.6421349915814
 20
98.9409574816826
 30
0.0
  0
LINE
  5
140
330
1F
100
AcDbEntity
  8
0
  6
HIDDEN
 62
     7
370
     0
100
AcDbLine
 10
259.8075687393
 20
90.3748329512
 30
0.0
 11
259.8075687393
 21
122.2017013666
 31
0.0
  0
SPLINE
  5
141
330
1F
100
AcDbEntity
  8
0
  6
HIDDEN
 62
     7
370
     0
100
AcDbSpline
210
0.0
220
0.0
230
1.0
 70
     8
 71
     3
 72
    62
 73
    58
 74
     0
 42
0.00000001
 43
0.00000001
 12
1.0
 22
0.0
 32
0.0
 13
1.0
 23
0.0
 33
0.0
 40
-0.031250000000001
 40
-0.031250000000001
 40
0.0
 40
0.0
 40
0.0312500000000009
 40
0.0312500000000009
 40
0.0625000000000017
 40
0.0625000000000017
 40
0.1250000000000006
 40
0.1250000000000006
 40
0.1874999999999995
 40
0.1874999999999995
 40
0.2187499999999984
 40
0.2187499999999984
 40
0.2499999999999973
 40
0.2499999999999973
 40
0.2812499999999961
 40
0.2812499999999961
 40
0.312499999999995
 40
0.312499999999995
 40
0.3437499999999939
 40
0.3437499999999939
 40
0.3749999999999928
 40
0.3749999999999928
 40
0.4374999999999906
 40
0.4374999999999906
 40
0.468749999999991
 40
0.468749999999991
 40
0.4999999999999913
 40
0.4999999999999913
 40
0.5312499999999917
 40
0.5312499999999917
 40
0.5624999999999919
 40
0.5624999999999919
 40
0.5937499999999922
 40
0.5937499999999922
 40
0.6249999999999926
 40
0.6249999999999926
 40
0.6562499999999928
 40
0.6562499999999928
 40
0.6874999999999931
 40
0.6874999999999931
 40
0.7187499999999934
 40
0.7187499999999934
 40
0.7499999999999937
 40
0.7499999999999937
 40
0.781249999999994
 40
0.781249999999994
 40
0.8124999999999943
 40
0.8124999999999943
 40
0.8749999999999961
 40
0.8749999999999961
 40
0.9062499999999971
 40
0.9062499999999971
 40
0.9374999999999981
 40
0.9374999999999981
 40
0.968749999999999
 40
0.968749999999999
 40
1.0
 40
1.0
 40
1.031250000000001
 40
1.031250000000001
 10
243.9488311565896
 20
105.3289137557082
 30
0.0
 10
243.6663063220159
 20
105.3289137557082
 30
0.0
 10
243.5279832909648
 20
105.3448717803101
 30
0.0
 10
243.2567553452725
 20
105.4064054316164
 30
0.0
 10
243.1225449791041
 20
105.4527981618685
 30
0.0
 10
242.7435654713998
 20
105.629273478917
 30
0.0
 10
242.5146889109402
 20
105.7992795479453
 30
0.0
 10
242.1337960587889
 20
106.2051980355143
 30
0.0
 10
241.9781979859219
 20
106.4453185538922
 30
0.0
 10
241.8190519404
 20
106.8279346969947
 30
0.0
 10
241.7772865494497
 20
106.962186989925
 30
0.0
 10
241.7219681356396
 20
107.2295109981041
 30
0.0
 10
241.7078623081691
 20
107.3628848888202
 30
0.0
 10
241.7072841501142
 20
107.6288822655883
 30
0.0
 10
241.7212751990573
 20
107.7611072880119
 30
0.0
 10
241.7757736279338
 20
108.0113952080238
 30
0.0
 10
241.8166639668819
 20
108.132226640955
 30
0.0
 10
241.9232719665583
 20
108.359346935966
 30
0.0
 10
241.9880195136371
 20
108.4642336496345
 30
0.0
 10
242.1395803892644
 20
108.6587886235838
 30
0.0
 10
242.2268669864039
 20
108.7484675546413
 30
0.0
 10
242.5124809408505
 20
108.9869422635103
 30
0.0
 10
242.7418671359015
 20
109.1112264094507
 30
0.0
 10
243.1180858055549
 20
109.2364586075741
 30
0.0
 10
243.2505568606057
 20
109.268723695024
 30
0.0
 10
243.5245118370574
 20
109.3122005175607
 30
0.0
 10
243.6625525003598
 20
109.3230423485612
 30
0.0
 10
243.940770072341
 20
109.3236470598052
 30
0.0
 10
244.0825794311055
 20
109.3129857424809
 30
0.0
 10
244.3550359984367
 20
109.2706993751061
 30
0.0
 10
244.4869017295118
 20
109.2393258962832
 30
0.0
 10
244.7424181496324
 20
109.1552642949817
 30
0.0
 10
244.8624049092724
 20
109.103749583933
 30
0.0
 10
245.0875509065928
 20
108.9818102790124
 30
0.0
 10
245.1936776709767
 20
108.910504109711
 30
0.0
 10
245.3850043186686
 20
108.7516174808725
 30
0.0
 10
245.470940665202
 20
108.6638909780475
 30
0.0
 10
245.6234376264206
 20
108.4697379071589
 30
0.0
 10
245.6895826896489
 20
108.3631663883291
 30
0.0
 10
245.7958031248447
 20
108.1389118862325
 30
0.0
 10
245.8368437366734
 20
108.0201630388546
 30
0.0
 10
245.893030324622
 20
107.7675699506502
 30
0.0
 10
245.9072478961862
 20
107.6368165072828
 30
0.0
 10
245.9078787878719
 20
107.3722665316217
 30
0.0
 10
245.894090406072
 20
107.2358628930835
 30
0.0
 10
245.8392468343282
 20
106.9671098644519
 30
0.0
 10
245.7987456522734
 20
106.8354103596153
 30
0.0
 10
245.6391564535901
 20
106.4485625029524
 30
0.0
 10
245.4843886199111
 20
106.2088365002446
 30
0.0
 10
245.1964089060306
 20
105.9013514906254
 30
0.0
 10
245.0924599834776
 20
105.8087725986607
 30
0.0
 10
244.8680487855864
 20
105.6438231783055
 30
0.0
 10
244.746118231538
 20
105.5709443846615
 30
0.0
 10
244.4938757780791
 20
105.4533068770188
 30
0.0
 10
244.3629986043898
 20
105.4077746222271
 30
0.0
 10
244.0907922560099
 20
105.3453849147563
 30
0.0
 10
243.9488311565896
 20
105.3289137557082
 30
0.0
 10
243.6663063220159
 20
105.3289137557082
 30
0.0
  0
SPLINE
  5
142
330
1F
100
AcDbEntity
  8
0
  6
HIDDEN
 62
     7
370
     0
100
AcDbSpline
210
0.0
220
0.0
230
1.0
 70
     8
 71
     3
 72
     8
 73
     4
 74
     0
 42
0.00000001
 43
0.00000001
 12
1.0
 22
0.0
 32
0.0
 13
1.0
 23
0.0
 33
0.0
 40
0.0
 40
0.0
 40
0.0
 40
0.0
 40
1.0
 40
1.0
 40
1.0
 40
1.0
 10
244.8614153824903
 20
107.7645028008928
 30
0.0
 10
244.8438530421298
 20
107.8556680087704
 30
0.0
 10
244.8649009220112
 20
107.9661300738994
 30
0.0
 10
244.9207907475743
 20
108.0985057181786
 30
0.0
  0
SPLINE
  5
143
330
1F
100
AcDbEntity
  8
0
  6
HIDDEN
 62
     7
370
     0
100
AcDbSpline
210
0.0
220
0.0
230
1.0
 70
     8
 71
     3
 72
    16
 73
    12
 74
     0
 42
0.00000001
 43
0.00000001
 12
1.0
 22
0.0
 32
0.0
 13
1.0
 23
0.0
 33
0.0
 40
0.0
 40
0.0
 40
0.0
 40
0.0
 40
0.125
 40
0.125
 40
0.25
 40
0.25
 40
0.5
 40
0.5
 40
0.75
 40
0.75
 40
1.0
 40
1.0
 40
1.0
 40
1.0
 10
244.9207907475727
 20
108.0985057181793
 30
0.0
 10
245.0177038166269
 20
108.1670290697369
 30
0.0
 10
245.0977780969372
 20
108.2425058864588
 30
0.0
 10
245.2469996448347
 20
108.402436339154
 30
0.0
 10
245.3153591335845
 20
108.4876834862184
 30
0.0
 10
245.5035636927616
 20
108.7525854832956
 30
0.0
 10
245.6076558568822
 20
108.9417601432525
 30
0.0
 10
245.7769442821757
 20
109.3501530616681
 30
0.0
 10
245.8412432912947
 20
109.5704387934186
 30
0.0
 10
245.911925305441
 20
110.0235845730718
 30
0.0
 10
245.9188725377342
 20
110.2608760350445
 30
0.0
 10
245.887585568419
 20
110.4942339101883
 30
0.0
  0
SPLINE
  5
144
330
1F
100
AcDbEntity
  8
0
  6
HIDDEN
 62
     7
370
     0
100
AcDbSpline
210
0.0
220
0.0
230
1.0
 70
     8
 71
     3
 72
    50
 73
    46
 74
     0
 42
0.00000001
 43
0.00000001
 12
1.0
 22
0.0
 32
0.0
 13
1.0
 23
0.0
 33
0.0
 40
0.0
 40
0.0
 40
0.0
 40
0.0
 40
0.0624999999999952
 40
0.0624999999999952
 40
0.1249999999999903
 40
0.1249999999999903
 40
0.1874999999999855
 40
0.1874999999999855
 40
0.2187499999999845
 40
0.2187499999999845
 40
0.2499999999999835
 40
0.2499999999999835
 40
0.2812499999999825
 40
0.2812499999999825
 40
0.2968749999999819
 40
0.2968749999999819
 40
0.3124999999999813
 40
0.3124999999999813
 40
0.3437499999999812
 40
0.3437499999999812
 40
0.3749999999999811
 40
0.3749999999999811
 40
0.4374999999999832
 40
0.4374999999999832
 40
0.4999999999999852
 40
0.4999999999999852
 40
0.5624999999999872
 40
0.5624999999999872
 40
0.5937499999999883
 40
0.5937499999999883
 40
0.6249999999999893
 40
0.6249999999999893
 40
0.6874999999999912
 40
0.6874999999999912
 40
0.7499999999999931
 40
0.7499999999999931
 40
0.8124999999999949
 40
0.8124999999999949
 40
0.8749999999999968
 40
0.8749999999999968
 40
0.9374999999999986
 40
0.9374999999999986
 40
0.9687499999999993
 40
0.9687499999999993
 40
1.0
 40
1.0
 40
1.0
 40
1.0
 10
245.3585775494009
 20
111.5658299766633
 30
0.0
 10
245.2136450009765
 20
111.6983613214539
 30
0.0
 10
245.0554561636186
 20
111.7918162726437
 30
0.0
 10
244.7196500836398
 20
111.9188206471106
 30
0.0
 10
244.5488016313617
 20
111.9493253966882
 30
0.0
 10
244.2091869736671
 20
111.9596098794691
 30
0.0
 10
244.0394001283393
 20
111.9387402217854
 30
0.0
 10
243.7993255402363
 20
111.8767701267805
 30
0.0
 10
243.7212567319518
 20
111.8509568000649
 30
0.0
 10
243.5717961498523
 20
111.7898175854868
 30
0.0
 10
243.5001097965039
 20
111.7544118350588
 30
0.0
 10
243.3761188950179
 20
111.6770324373137
 30
0.0
 10
243.3221708852608
 20
111.6338487908459
 30
0.0
 10
243.2942926481652
 20
111.5768198197491
 30
0.0
 10
243.2946677713904
 20
111.5594879637053
 30
0.0
 10
243.3134186466109
 20
111.5301785395652
 30
0.0
 10
243.3312782351473
 20
111.5179050589626
 30
0.0
 10
243.3975191696354
 20
111.4851309020443
 30
0.0
 10
243.4569793945381
 20
111.4677460811395
 30
0.0
 10
243.5855352112983
 20
111.4295844745133
 30
0.0
 10
243.6552133135493
 20
111.4093245406277
 30
0.0
 10
243.8703330531751
 20
111.3404910907617
 30
0.0
 10
244.0230165639552
 20
111.2838136460889
 30
0.0
 10
244.3399588815042
 20
111.1366125846133
 30
0.0
 10
244.5024053189173
 20
111.0472403674354
 30
0.0
 10
244.8264761497063
 20
110.8304315424055
 30
0.0
 10
244.9905481159556
 20
110.7009666754335
 30
0.0
 10
245.2206162449253
 20
110.4778616385108
 30
0.0
 10
245.295943962768
 20
110.397346779243
 30
0.0
 10
245.4369007134832
 20
110.2286317717366
 30
0.0
 10
245.5023803291218
 20
110.1408363714174
 30
0.0
 10
245.6820714422397
 20
109.8659199584218
 30
0.0
 10
245.774684981147
 20
109.6725671009599
 30
0.0
 10
245.8900147405516
 20
109.2988336023321
 30
0.0
 10
245.9123984539832
 20
109.1214713828094
 30
0.0
 10
245.9009835961395
 20
108.8046117930468
 30
0.0
 10
245.8675777772214
 20
108.6620443833424
 30
0.0
 10
245.7620496597661
 20
108.4131872082982
 30
0.0
 10
245.6905931647461
 20
108.3064199018087
 30
0.0
 10
245.5154100114194
 20
108.1186529553532
 30
0.0
 10
245.4129440138869
 20
108.0394515603283
 30
0.0
 10
245.2354959532229
 20
107.9351018249286
 30
0.0
 10
245.1722806146398
 20
107.902662409246
 30
0.0
 10
245.0312539002159
 20
107.8372147274342
 30
0.0
 10
244.9533210831686
 20
107.8044662454414
 30
0.0
 10
244.8614153824916
 20
107.7645028008947
 30
0.0
  0
LWPOLYLINE
  5
145
330
1F
100
AcDbEntity
  8
0
  6
HIDDEN
 62
     7
370
     0
100
AcDbPolyline
 90
       18
 70
   128
 43
0.0
 10
245.3585775494
 20
111.5658299767
 10
244.8083760688
 20
111.9751863585
 10
244.1474309608
 20
112.1902534349
 10
243.4488786391
 20
112.1872331106
 10
242.7900169167
 20
111.9664595974
 10
242.2437516718
 20
111.5523624324
 10
241.8705294987
 20
110.9907632445
 10
241.711649033
 20
110.3438053948
 10
241.7846910805
 20
109.6830775466
 10
242.0815732249
 20
109.0816920728
 10
242.5694441825
 20
108.6061948578
 10
243.1943189375
 20
108.3092017096
 10
243.8870524156
 20
108.2235761951
 10
244.5709906838
 20
108.358793145
 10
245.1704530365
 20
108.6998902234
 10
245.619106391
 20
109.2091235742
 10
245.8673053276
 20
109.8301443411
 10
245.8875855684
 20
110.4942339102
  0
ARC
  5
146
330
1F
100
AcDbEntity
  8
0
  6
HIDDEN
 62
     7
370
     0
100
AcDbCircle
 10
244.5095012345
 20
107.9993412359
 30
0.0
 40
0.4230752392810654
100
AcDbArc
 50
326.2841279515
 51
13.5556509585
  0
SPLINE
  5
147
330
1F
100
AcDbEntity
  8
0
  6
HIDDEN
 62
     7
370
     0
100
AcDbSpline
210
0.0
220
0.0
230
1.0
 70
     8
 71
     3
 72
    14
 73
    10
 74
     0
 42
0.00000001
 43
0.00000001
 12
1.0
 22
0.0
 32
0.0
 13
1.0
 23
0.0
 33
0.0
 40
0.0
 40
0.0
 40
0.0
 40
0.0
 40
0.25
 40
0.25
 40
0.5
 40
0.5
 40
0.75
 40
0.75
 40
1.0
 40
1.0
 40
1.0
 40
1.0
 10
245.8875855684192
 20
110.4942339101883
 30
0.0
 10
245.821659291312
 20
110.578532862936
 30
0.0
 10
245.7627702500543
 20
110.6664405379115
 30
0.0
 10
245.6541627046764
 20
110.846406260895
 30
0.0
 10
245.6039366607086
 20
110.9393973596933
 30
0.0
 10
245.5135353482178
 20
111.1232796617807
 30
0.0
 10
245.4734334716761
 20
111.2137858476113
 30
0.0
 10
245.4051140387737
 20
111.3927446202591
 30
0.0
 10
245.3771626714351
 20
111.4813234107869
 30
0.0
 10
245.358577549401
 20
111.5658299766633
 30
0.0
  0
LINE
  5
148
330
1F
100
AcDbEntity
  8
0
  6
HIDDEN
 62
     7
370
     0
100
AcDbLine
 10
95.0575687393
 20
88.2121428571
 30
0.0
 11
95.0575687393
 21
85.3955112986
 31
0.0
  0
LINE
  5
149
330
1F
100
AcDbEntity
  8
0
  6
HIDDEN
 62
     7
370
     0
100
AcDbLine
 10
104.0075687393
 20
88.2121428571
 30
0.0
 11
104.0075687393
 21
84.2569945979
 31
0.0
  0
LINE
  5
14A
330
1F
100
AcDbEntity
  8
0
  6
HIDDEN
 62
     7
370
     0
100
AcDbLine
 10
95.0575687393
 20
124.1921428571
 30
0.0
 11
95.0575687393
 21
127.0720806225
 31
0.0
  0
LINE
  5
14B
330
1F
100
AcDbEntity
  8
0
  6
HIDDEN
 62
     7
370
     0
100
AcDbLine
 10
100.0075687393
 20
124.1921428571
 30
0.0
 11
100.0075687393
 21
128.0462505295
 31
0.0
  0
LINE
  5
14C
330
1F
100
AcDbEntity
  8
0
  6
HIDDEN
 62
     7
370
     0
100
AcDbLine
 10
145.1075687393
 20
96.7021428571
 30
0.0
 11
145.1075687393
 21
115.7021428571
 31
0.0
  0
LINE
  5
14D
330
1F
100
AcDbEntity
  8
0
  6
HIDDEN
 62
     7
370
     0
100
AcDbLine
 10
147.6075687393
 20
96.7021428571
 30
0.0
 11
147.6075687393
 21
115.7021428571
 31
0.0
  0
LINE
  5
14E
330
1F
100
AcDbEntity
  8
0
  6
HIDDEN
 62
     7
370
     0
100
AcDbLine
 10
136.2575687393
 20
97.7021428571
 30
0.0
 11
136.2575687393
 21
114.7021428571
 31
0.0
  0
LINE
  5
14F
330
1F
100
AcDbEntity
  8
0
  6
HIDDEN
 62
     7
370
     0
100
AcDbLine
 10
151.7575687393
 20
79.8021428571
 30
0.0
 11
145.619893937
 21
79.8021428571
 31
0.0
  0
LINE
  5
150
330
1F
100
AcDbEntity
  8
0
  6
HIDDEN
 62
     7
370
     0
100
AcDbLine
 10
130.7575687393
 20
74.7180198743
 30
0.0
 11
130.7575687393
 21
79.8021428571
 31
0.0
  0
LINE
  5
151
330
1F
100
AcDbEntity
  8
0
  6
HIDDEN
 62
     7
370
     0
100
AcDbLine
 10
138.7575687393
 20
79.8021428571
 30
0.0
 11
130.7575687393
 21
79.8021428571
 31
0.0
  0
LINE
  5
152
330
1F
100
AcDbEntity
  8
0
  6
HIDDEN
 62
     7
370
     0
100
AcDbLine
 10
141.9952435416
 20
79.8021428571
 30
0.0
 11
138.7575687393
 21
79.8021428571
 31
0.0
  0
LINE
  5
153
330
1F
100
AcDbEntity
  8
0
  6
HIDDEN
 62
     7
370
     0
100
AcDbLine
 10
151.7575687393
 20
132.6021428571
 30
0.0
 11
145.3232712076
 21
132.6021428571
 31
0.0
  0
LINE
  5
154
330
1F
100
AcDbEntity
  8
0
  6
HIDDEN
 62
     7
370
     0
100
AcDbLine
 10
142.291866271
 20
132.6021428571
 30
0.0
 11
138.7575687393
 21
132.6021428571
 31
0.0
  0
LINE
  5
155
330
1F
100
AcDbEntity
  8
0
  6
HIDDEN
 62
     7
370
     0
100
AcDbLine
 10
138.7575687393
 20
132.6021428571
 30
0.0
 11
130.7575687393
 21
132.6021428571
 31
0.0
  0
ELLIPSE
  5
156
330
1F
100
AcDbEntity
  8
0
  6
HIDDEN
 62
     7
370
     0
100
AcDbEllipse
 10
89.740136875
 20
106.2021428571
 30
0.0
 11
20.07002071827054
 21
-2.842170943040401E-14
 31
0.0
210
0.0
220
0.0
230
1.0
 40
0.8164965809
 41
4.921555463185703
 42
4.980534842098402
  0
ELLIPSE
  5
157
330
1F
100
AcDbEntity
  8
0
  6
HIDDEN
 62
     7
370
     0
100
AcDbEllipse
 10
89.740136875
 20
106.2021428571
 30
0.0
 11
20.07002071827051
 21
-1.421085471520200E-14
 31
0.0
210
0.0
220
0.0
230
1.0
 40
0.8164965809
 41
1.302650465081198
 42
1.361629843993897
  0
LINE
  5
158
330
1F
100
AcDbEntity
  8
0
  6
HIDDEN
 62
     7
370
     0
100
AcDbLine
 10
104.0075687393
 20
88.2121428571
 30
0.0
 11
104.0075687393
 21
89.9146292347
 31
0.0
  0
LINE
  5
159
330
1F
100
AcDbEntity
  8
0
  6
HIDDEN
 62
     7
370
     0
100
AcDbLine
 10
95.0575687393
 20
88.2121428571
 30
0.0
 11
95.0575687393
 21
90.4006524211
 31
0.0
  0
LINE
  5
15A
330
1F
100
AcDbEntity
  8
0
  6
HIDDEN
 62
     7
370
     0
100
AcDbLine
 10
95.0575687393
 20
124.1921428571
 30
0.0
 11
95.0575687393
 21
122.0036332932
 31
0.0
  0
LINE
  5
15B
330
1F
100
AcDbEntity
  8
0
  6
HIDDEN
 62
     7
370
     0
100
AcDbLine
 10
100.0075687393
 20
124.1921428571
 30
0.0
 11
100.0075687393
 21
122.4896564795
 31
0.0
  0
SPLINE
  5
15C
330
1F
100
AcDbEntity
  8
0
  6
HIDDEN
 62
     7
370
     0
100
AcDbSpline
210
0.0
220
0.0
230
1.0
 70
     8
 71
     3
 72
    20
 73
    16
 74
     0
 42
0.00000001
 43
0.00000001
 12
1.0
 22
0.0
 32
0.0
 13
1.0
 23
0.0
 33
0.0
 40
0.0
 40
0.0
 40
0.0
 40
0.0
 40
0.1119595197708822
 40
0.1774767634665812
 40
0.2490961890178671
 40
0.3298422315093636
 40
0.3986125823881488
 40
0.499889301646013
 40
0.613851029296048
 40
0.6790150176727684
 40
0.7495394203319377
 40
0.8296829944286189
 40
0.8981246285367549
 40
0.9995320175861917
 40
1.0
 40
1.0
 40
1.0
 40
1.0
 10
120.5564091891658
 20
82.60214909537493
 30
0.0
 10
120.5130854508652
 20
82.61557841341367
 30
0.0
 10
120.4444092286859
 20
82.63686639237211
 30
0.0
 10
119.9992301026296
 20
82.74017720401922
 30
0.0
 10
119.472671818964
 20
82.85348043407946
 30
0.0
 10
118.7872467978404
 20
82.9764133018711
 30
0.0
 10
117.8939294005415
 20
83.09844776105525
 30
0.0
 10
116.7805700134212
 20
83.21618406883954
 30
0.0
 10
115.6697959327998
 20
83.22815957121178
 30
0.0
 10
114.7850476308887
 20
83.2011012810813
 30
0.0
 10
114.117851036215
 20
83.15316921667592
 30
0.0
 10
113.5765785339617
 20
83.09687570431308
 30
0.0
 10
113.1889985749135
 20
83.05179279367715
 30
0.0
 10
112.9950620548732
 20
83.01291961897323
 30
0.0
 10
113.0581645150911
 20
83.02362567621405
 30
0.0
 10
113.0584543873264
 20
83.02367485636856
 30
0.0
  0
LINE
  5
15D
330
1F
100
AcDbEntity
  8
0
  6
HIDDEN
 62
     7
370
     0
100
AcDbLine
 10
113.9675806518
 20
83.1344810006
 30
0.0
 11
114.1514259648
 21
83.1526703431
 31
0.0
  0
LINE
  5
15E
330
1F
100
AcDbEntity
  8
0
  6
HIDDEN
 62
     7
370
     0
100
AcDbLine
 10
114.1514232664
 20
129.2515459399
 30
0.0
 11
113.9773499838
 21
129.2687554661
 31
0.0
  0
SPLINE
  5
15F
330
1F
100
AcDbEntity
  8
0
  6
HIDDEN
 62
     7
370
     0
100
AcDbSpline
210
0.0
220
0.0
230
1.0
 70
     8
 71
     3
 72
    20
 73
    16
 74
     0
 42
0.00000001
 43
0.00000001
 12
1.0
 22
0.0
 32
0.0
 13
1.0
 23
0.0
 33
0.0
 40
0.0
 40
0.0
 40
0.0
 40
0.0
 40
0.0004889684280516
 40
0.1018319933948303
 40
0.1702475582166556
 40
0.2503692056770156
 40
0.3209568221774108
 40
0.386181619669181
 40
0.5002554836816944
 40
0.6012243489345913
 40
0.6697680558674146
 40
0.7502401907580722
 40
0.8220490693813252
 40
0.8877204546058781
 40
1.0
 40
1.0
 40
1.0
 40
1.0
 10
113.0584877720878
 20
129.3805443113354
 30
0.0
 10
113.058184131091
 20
129.3805958984856
 30
0.0
 10
112.994948211928
 20
129.3913393781003
 30
0.0
 10
113.1881522457218
 20
129.3524833874383
 30
0.0
 10
113.5750993006369
 20
129.3074598970348
 30
0.0
 10
114.1161062239535
 20
129.2511969349429
 30
0.0
 10
114.7836064854024
 20
129.2032657423502
 30
0.0
 10
115.6694343367519
 20
129.1761922866217
 30
0.0
 10
116.780240908866
 20
129.1880182901999
 30
0.0
 10
117.8923112749149
 20
129.30546736535
 30
0.0
 10
118.7834115811072
 20
129.4271717535922
 30
0.0
 10
119.4688960318965
 20
129.5499927991693
 30
0.0
 10
119.9968839314236
 20
129.6634310508547
 30
0.0
 10
120.4442678829201
 20
129.7671716064953
 30
0.0
 10
120.5130783492757
 20
129.7885943997687
 30
0.0
 10
120.5564948565899
 20
129.8021112804135
 30
0.0
  0
SPLINE
  5
160
330
1F
100
AcDbEntity
  8
0
  6
HIDDEN
 62
     7
370
     0
100
AcDbSpline
210
0.0
220
0.0
230
1.0
 70
     8
 71
     3
 72
    62
 73
    58
 74
     0
 42
0.00000001
 43
0.00000001
 12
1.0
 22
0.0
 32
0.0
 13
1.0
 23
0.0
 33
0.0
 40
-0.0312500000000002
 40
-0.0312500000000002
 40
0.0
 40
0.0
 40
0.0312499999999983
 40
0.0312499999999983
 40
0.0624999999999966
 40
0.0624999999999966
 40
0.1249999999999961
 40
0.1249999999999961
 40
0.1874999999999955
 40
0.1874999999999955
 40
0.2187499999999947
 40
0.2187499999999947
 40
0.2499999999999938
 40
0.2499999999999938
 40
0.2812499999999931
 40
0.2812499999999931
 40
0.3124999999999922
 40
0.3124999999999922
 40
0.3437499999999915
 40
0.3437499999999915
 40
0.3749999999999906
 40
0.3749999999999906
 40
0.4374999999999891
 40
0.4374999999999891
 40
0.4687499999999897
 40
0.4687499999999897
 40
0.4999999999999903
 40
0.4999999999999903
 40
0.531249999999991
 40
0.531249999999991
 40
0.5624999999999917
 40
0.5624999999999917
 40
0.5937499999999922
 40
0.5937499999999922
 40
0.6249999999999929
 40
0.6249999999999929
 40
0.6562499999999936
 40
0.6562499999999936
 40
0.6874999999999942
 40
0.6874999999999942
 40
0.7187499999999949
 40
0.7187499999999949
 40
0.7499999999999954
 40
0.7499999999999954
 40
0.7812499999999961
 40
0.7812499999999961
 40
0.8124999999999968
 40
0.8124999999999968
 40
0.8749999999999992
 40
0.8749999999999992
 40
0.9062499999999994
 40
0.9062499999999994
 40
0.9374999999999996
 40
0.9374999999999996
 40
0.9687499999999998
 40
0.9687499999999998
 40
1.0
 40
1.0
 40
1.031249999999998
 40
1.031249999999998
 10
243.6663063220158
 20
103.0809345901378
 30
0.0
 10
243.9488311565897
 20
103.0809345901378
 30
0.0
 10
244.0871541876408
 20
103.0917997840527
 30
0.0
 10
244.358382133333
 20
103.1343221098008
 30
0.0
 10
244.4925924995014
 20
103.1665689244155
 30
0.0
 10
244.8715720072057
 20
103.2920510619599
 30
0.0
 10
245.1004485676653
 20
103.4160039132
 30
0.0
 10
245.4813414198166
 20
103.7330298661506
 30
0.0
 10
245.6369394926837
 20
103.9296981727094
 30
0.0
 10
245.7960855382055
 20
104.2661106878051
 30
0.0
 10
245.8378509291558
 20
104.3877607716353
 30
0.0
 10
245.8931693429659
 20
104.6382491541738
 30
0.0
 10
245.9072751704364
 20
104.7672328536951
 30
0.0
 10
245.9078533284913
 20
105.0330515700853
 30
0.0
 10
245.8938622795484
 20
105.1696311212533
 30
0.0
 10
245.8393638506717
 20
105.4365118446726
 30
0.0
 10
245.7984735117236
 20
105.5696957999547
 30
0.0
 10
245.6918655120473
 20
105.8277933312666
 30
0.0
 10
245.6271179649686
 20
105.9510236885231
 30
0.0
 10
245.4755570893411
 20
106.1860721191736
 30
0.0
 10
245.3882704922016
 20
106.2979920303884
 30
0.0
 10
245.1026565377551
 20
106.603206759747
 30
0.0
 10
244.873270342704
 20
106.7736343074165
 30
0.0
 10
244.4970516730507
 20
106.9496984709515
 30
0.0
 10
244.3645806179999
 20
106.9960936092014
 30
0.0
 10
244.0906256415481
 20
107.058993590009
 30
0.0
 10
243.9525849782457
 20
107.0749205855821
 30
0.0
 10
243.6743674062646
 20
107.0758045619439
 30
0.0
 10
243.5325580475
 20
107.0601431730346
 30
0.0
 10
243.2601014801689
 20
106.998939215554
 30
0.0
 10
243.1282357490939
 20
106.9537749479351
 30
0.0
 10
242.8727193289732
 20
106.8355045961675
 30
0.0
 10
242.7527325693331
 20
106.7640856015011
 30
0.0
 10
242.5275865720127
 20
106.5996227266063
 30
0.0
 10
242.421459807629
 20
106.50545050363
 30
0.0
 10
242.2301331599369
 20
106.3019522996068
 30
0.0
 10
242.1441968134036
 20
106.1923673666585
 30
0.0
 10
241.991699852185
 20
105.9575496055128
 30
0.0
 10
241.9255547889566
 20
105.8322603765729
 30
0.0
 10
241.8193343537608
 20
105.5771719965711
 30
0.0
 10
241.7782937419322
 20
105.4460415276518
 30
0.0
 10
241.7221071539835
 20
105.1763522010446
 30
0.0
 10
241.7078895824193
 20
105.0411729003194
 30
0.0
 10
241.7072586907337
 20
104.7764279687816
 30
0.0
 10
241.7210470725335
 20
104.6443170992715
 30
0.0
 10
241.7758906442774
 20
104.3922622987714
 30
0.0
 10
241.8163918263322
 20
104.2727980743103
 30
0.0
 10
241.9759810250155
 20
103.932329354269
 30
0.0
 10
242.1307488586943
 20
103.735917998835
 30
0.0
 10
242.418728572575
 20
103.4957000517941
 30
0.0
 10
242.522677495128
 20
103.4255690374054
 30
0.0
 10
242.7470886930192
 20
103.3031779750048
 30
0.0
 10
242.8690192470676
 20
103.250580696963
 30
0.0
 10
243.1212617005264
 20
103.1669263542393
 30
0.0
 10
243.2521388742157
 20
103.1352727028092
 30
0.0
 10
243.5243452225957
 20
103.0921500878825
 30
0.0
 10
243.6663063220158
 20
103.0809345901378
 30
0.0
 10
243.9488311565897
 20
103.0809345901378
 30
0.0
  0
LINE
  5
161
330
1F
100
AcDbEntity
  8
0
  6
HIDDEN
 62
     7
370
     0
100
AcDbLine
 10
246.8075687393
 20
106.2021428571
 30
0.0
 11
246.8075687393
 21
102.0021428571
 31
0.0
  0
LINE
  5
162
330
1F
100
AcDbEntity
  8
0
  6
HIDDEN
 62
     7
370
     0
100
AcDbLine
 10
246.8075687393
 20
110.4021428571
 30
0.0
 11
246.8075687393
 21
106.2021428571
 31
0.0
  0
LINE
  5
163
330
1F
100
AcDbEntity
  8
0
  6
HIDDEN
 62
     7
370
     0
100
AcDbLine
 10
260.3075687393
 20
89.8746046687
 30
0.0
 11
260.3075687393
 21
106.2021428571
 31
0.0
  0
SPLINE
  5
164
330
1F
100
AcDbEntity
  8
0
  6
HIDDEN
 62
     7
370
     0
100
AcDbSpline
210
0.0
220
0.0
230
1.0
 70
     8
 71
     3
 72
    14
 73
    10
 74
     0
 42
0.00000001
 43
0.00000001
 12
1.0
 22
0.0
 32
0.0
 13
1.0
 23
0.0
 33
0.0
 40
0.0
 40
0.0
 40
0.0
 40
0.0
 40
0.5000000000000008
 40
0.5000000000000008
 40
0.625000000000001
 40
0.625000000000001
 40
0.750000000000001
 40
0.750000000000001
 40
1.0
 40
1.0
 40
1.0
 40
1.0
 10
263.1229190559526
 20
116.2436944232559
 30
0.0
 10
262.3141591344644
 20
114.6880104133934
 30
0.0
 10
261.6126215895617
 20
113.084601922063
 30
0.0
 10
260.9785220081162
 20
110.9722615292528
 30
0.0
 10
260.8638344052372
 20
110.5428041371442
 30
0.0
 10
260.6654621377812
 20
109.6826186457719
 30
0.0
 10
260.5814631210199
 20
109.2511405736023
 30
0.0
 10
260.3780707635821
 20
107.9522727724731
 30
0.0
 10
260.3075687393028
 20
107.0804233138912
 30
0.0
 10
260.3075687393028
 20
106.2021428571429
 30
0.0
  0
LINE
  5
165
330
1F
100
AcDbEntity
  8
0
  6
HIDDEN
 62
     7
370
     0
100
AcDbLine
 10
263.122919056
 20
125.517162745
 30
0.0
 11
263.122919056
 21
116.2436944233
 31
0.0
  0
LINE
  5
166
330
1F
100
AcDbEntity
  8
0
  6
HIDDEN
 62
     7
370
     0
100
AcDbLine
 10
272.1481114602
 20
117.3728175617
 30
0.0
 11
272.1074367308
 21
117.3515716543
 31
0.0
  0
LINE
  5
167
330
1F
100
AcDbEntity
  8
0
  6
HIDDEN
 62
     7
370
     0
100
AcDbLine
 10
274.9727773788
 20
114.5550323873
 30
0.0
 11
283.8776252842
 21
115.3322078462
 31
0.0
  0
LINE
  5
168
330
1F
100
AcDbEntity
  8
0
  6
HIDDEN
 62
     7
370
     0
100
AcDbLine
 10
283.8776252842
 20
115.3322078462
 30
0.0
 11
283.876214842
 21
115.3161256897
 31
0.0
  0
LINE
  5
169
330
1F
100
AcDbEntity
  8
0
  6
HIDDEN
 62
     7
370
     0
100
AcDbLine
 10
272.9376613034
 20
126.3754301028
 30
0.0
 11
272.8985499329
 21
126.3720099404
 31
0.0
  0
LINE
  5
16A
330
1F
100
AcDbEntity
  8
0
  6
HIDDEN
 62
     7
370
     0
100
AcDbLine
 10
272.9376613034
 20
126.3754301028
 30
0.0
 11
272.1481114602
 21
117.3728175617
 31
0.0
  0
LINE
  5
16B
330
1F
100
AcDbEntity
  8
0
  6
HIDDEN
 62
     7
370
     0
100
AcDbLine
 10
283.9813775788
 20
115.3253038249
 30
0.0
 11
284.3429827112
 21
119.4685621696
 31
0.0
  0
LINE
  5
16C
330
1F
100
AcDbEntity
  8
0
  6
HIDDEN
 62
     7
370
     0
100
AcDbLine
 10
283.8776252842
 20
115.3322078462
 30
0.0
 11
283.9002275327
 21
115.4448299484
 31
0.0
  0
LINE
  5
16D
330
1F
100
AcDbEntity
  8
0
  6
HIDDEN
 62
     7
370
     0
100
AcDbLine
 10
283.9002275327
 20
115.4448299484
 30
0.0
 11
283.9002275327
 21
115.3182214103
 31
0.0
  0
LINE
  5
16E
330
1F
100
AcDbEntity
  8
0
  6
HIDDEN
 62
     7
370
     0
100
AcDbLine
 10
283.9037107055
 20
115.3185254062
 30
0.0
 11
284.9195943717
 21
126.9018435617
 31
0.0
  0
ELLIPSE
  5
16F
330
1F
100
AcDbEntity
  8
0
  6
HIDDEN
 62
     7
370
     0
100
AcDbEllipse
 10
283.0985559428
 20
106.3629718785
 30
0.0
 11
1.838352079209471
 21
21.0629861457559
 31
0.0
210
0.0
220
0.0
230
1.0
 40
0.0060565887
 41
5.384479419231463
 42
6.060164275095032
  0
ELLIPSE
  5
170
330
1F
100
AcDbEntity
  8
0
  6
HIDDEN
 62
     7
370
     0
100
AcDbEllipse
 10
273.1018426182
 20
114.8740282254
 30
0.0
 11
2.099281448397733
 21
0.1276543563555208
 31
0.0
210
0.0
220
0.0
230
1.0
 40
0.4303093993
 41
5.785598212635358
 42
5.9235214467411
  0
ELLIPSE
  5
171
330
1F
100
AcDbEntity
  8
0
  6
HIDDEN
 62
     7
370
     0
100
AcDbEllipse
 10
273.1018426182
 20
114.8740282254
 30
0.0
 11
-1.616902374425252
 21
2.3181968380283
 31
0.0
210
0.0
220
0.0
230
1.0
 40
0.57803977
 41
5.737920332829622
 42
5.875843566935383
  0
LINE
  5
172
330
1F
100
AcDbEntity
  8
0
  6
HIDDEN
 62
     7
370
     0
100
AcDbLine
 10
272.4143964422
 20
117.3408059608
 30
0.0
 11
272.4143964422
 21
117.1747855533
 31
0.0
  0
ARC
  5
173
330
1F
100
AcDbEntity
  8
0
  6
HIDDEN
 62
     7
370
     0
100
AcDbCircle
 10
273.1034202209
 20
115.1937449762
 30
0.0
 40
2.097445001810097
100
AcDbArc
 50
340.961604152
 51
109.1781356176
  0
LINE
  5
174
330
1F
100
AcDbEntity
  8
0
  6
HIDDEN
 62
     7
370
     0
100
AcDbLine
 10
275.0861353776
 20
114.5095548396
 30
0.0
 11
275.0861353776
 21
114.6755752471
 31
0.0
  0
ARC
  5
175
330
1F
100
AcDbEntity
  8
0
  6
HIDDEN
 62
     7
370
     0
100
AcDbCircle
 10
273.1033036333
 20
115.1726429215
 30
0.0
 40
2.095918706042346
100
AcDbArc
 50
269.9600604706
 51
119.3315601813
  0
ARC
  5
176
330
1F
100
AcDbEntity
  8
0
  6
HIDDEN
 62
     7
370
     0
100
AcDbCircle
 10
273.0992223206
 20
115.1738971248
 30
0.0
 40
2.097174037095631
100
AcDbArc
 50
175.4839607061
 51
270.0715877791
  0
LINE
  5
177
330
1F
100
AcDbEntity
  8
0
  6
HIDDEN
 62
     7
370
     0
100
AcDbLine
 10
275.0861353776
 20
114.6755752471
 30
0.0
 11
283.9002275327
 21
115.4448299484
 31
0.0
  0
LINE
  5
178
330
1F
100
AcDbEntity
  8
0
  6
HIDDEN
 62
     7
370
     0
100
AcDbLine
 10
273.1977796681
 20
126.2731054412
 30
0.0
 11
272.4143964422
 21
117.3408059608
 31
0.0
  0
ELLIPSE
  5
179
330
1F
100
AcDbEntity
  8
0
  6
HIDDEN
 62
     7
370
     0
100
AcDbEllipse
 10
271.3681931745
 20
106.3400639346
 30
0.0
 11
1.602996432070199
 21
20.03438624540841
 31
0.0
210
0.0
220
0.0
230
1.0
 40
0.1282539226
 41
6.192300582825162
 42
6.296181616471596
  0
LINE
  5
17A
330
1F
100
AcDbEntity
  8
0
  6
HIDDEN
 62
     7
370
     0
100
AcDbLine
 10
273.1764857726
 20
125.8642875813
 30
0.0
 11
272.4143964422
 21
117.1747855533
 31
0.0
  0
ELLIPSE
  5
17B
330
1F
100
AcDbEntity
  8
0
  6
HIDDEN
 62
     7
370
     0
100
AcDbEllipse
 10
271.4457606801
 20
106.3551874586
 30
0.0
 11
1.749372463795339
 21
20.04349894963873
 31
0.0
210
0.0
220
0.0
230
1.0
 40
0.0060565887
 41
6.0522774633731
 42
6.171712900566503
  0
LWPOLYLINE
  5
17C
330
1F
100
AcDbEntity
  8
0
  6
HIDDEN
 62
     7
370
     0
100
AcDbPolyline
 90
       20
 70
   128
 43
0.0
 10
243.8075687393
 20
101.1147542292
 10
244.4894376246
 20
101.2229690464
 10
245.097415436
 20
101.5358867436
 10
245.5656183437
 20
102.0195978327
 10
245.8433092978
 20
102.6216847118
 10
245.9003961746
 20
103.2769019251
 10
245.7306927253
 20
103.9142465209
 10
245.3525889517
 20
104.4646523227
 10
244.8070582647
 20
104.8684743216
 10
244.1532173789
 20
105.0819521379
 10
243.4619200997
 20
105.0819521379
 10
242.8080792139
 20
104.8684743216
 10
242.2625485269
 20
104.4646523227
 10
241.8844447533
 20
103.9142465209
 10
241.714741304
 20
103.2769019251
 10
241.7718281808
 20
102.6216847118
 10
242.049519135
 20
102.0195978327
 10
242.5177220427
 20
101.5358867436
 10
243.125699854
 20
101.2229690464
 10
243.8075687393
 20
101.1147542292
  0
CIRCLE
  5
17D
330
1F
100
AcDbEntity
  8
0
  6
HIDDEN
 62
     7
370
     0
100
AcDbCircle
 10
278.8208988386
 20
120.906813591
 30
0.0
 40
2.997787096987111
  0
LINE
  5
17E
330
1F
100
AcDbEntity
  8
0
  6
HIDDEN
 62
     7
370
     0
100
AcDbLine
 10
275.0861353776
 20
114.5095548396
 30
0.0
 11
283.9002275327
 21
115.2788095409
 31
0.0
  0
LINE
  5
17F
330
1F
100
AcDbEntity
  8
0
  6
HIDDEN
 62
     7
370
     0
100
AcDbLine
 10
273.1764857726
 20
125.8642875813
 30
0.0
 11
284.9195943717
 21
126.9018435617
 31
0.0
  0
CIRCLE
  5
180
330
1F
100
AcDbEntity
  8
0
  6
HIDDEN
 62
     7
370
     0
100
AcDbCircle
 10
278.8211060203
 20
120.8425152318
 30
0.0
 40
2.098461919109369
  0
ARC
  5
181
330
1F
100
AcDbEntity
  8
0
  6
HIDDEN
 62
     7
370
     0
100
AcDbCircle
 10
278.8218941244
 20
120.0713577513
 30
0.0
 40
2.101933073233089
100
AcDbArc
 50
214.2394359619
 51
340.4430330785
  0
SPLINE
  5
182
330
1F
100
AcDbEntity
  8
0
  6
HIDDEN
 62
     7
370
     0
100
AcDbSpline
210
0.0
220
0.0
230
1.0
 70
     8
 71
     3
 72
    38
 73
    34
 74
     0
 42
0.00000001
 43
0.00000001
 12
1.0
 22
0.0
 32
0.0
 13
1.0
 23
0.0
 33
0.0
 40
0.0
 40
0.0
 40
0.0
 40
0.0
 40
0.1249999999999925
 40
0.1249999999999925
 40
0.249999999999985
 40
0.249999999999985
 40
0.3124999999999813
 40
0.3124999999999813
 40
0.3749999999999775
 40
0.3749999999999775
 40
0.4374999999999736
 40
0.4374999999999736
 40
0.4687499999999751
 40
0.4687499999999751
 40
0.4999999999999766
 40
0.4999999999999766
 40
0.5312499999999781
 40
0.5312499999999781
 40
0.5624999999999797
 40
0.5624999999999797
 40
0.6249999999999826
 40
0.6249999999999826
 40
0.6874999999999855
 40
0.6874999999999855
 40
0.7499999999999883
 40
0.7499999999999883
 40
0.8124999999999913
 40
0.8124999999999913
 40
0.8749999999999942
 40
0.8749999999999942
 40
0.9374999999999971
 40
0.9374999999999971
 40
1.0
 40
1.0
 40
1.0
 40
1.0
 10
280.8025648590367
 20
119.3677484239752
 30
0.0
 10
280.9223439694882
 20
119.7276608105479
 30
0.0
 10
280.9461372257518
 20
120.0927337290549
 30
0.0
 10
280.8555340619341
 20
120.7699388038775
 30
0.0
 10
280.7399442173744
 20
121.0926078487527
 30
0.0
 10
280.4742751770678
 20
121.5214423861098
 30
0.0
 10
280.3701243343455
 20
121.6560657884347
 30
0.0
 10
280.1228854036422
 20
121.9069089131894
 30
0.0
 10
279.9805480733259
 20
122.0221730053689
 30
0.0
 10
279.6519520005087
 20
122.2187042969792
 30
0.0
 10
279.4651311414628
 20
122.3005616850056
 30
0.0
 10
279.145861465515
 20
122.3773214627073
 30
0.0
 10
279.0333717971376
 20
122.3947976379517
 30
0.0
 10
278.8022865490378
 20
122.4088696088508
 30
0.0
 10
278.6816314241266
 20
122.4052497168745
 30
0.0
 10
278.4474967731636
 20
122.3759629747535
 30
0.0
 10
278.3304359907697
 20
122.3499266173722
 30
0.0
 10
278.1105983583043
 20
122.2800748481865
 30
0.0
 10
278.0061974692019
 20
122.2360186574222
 30
0.0
 10
277.7167267057256
 20
122.0859412044409
 30
0.0
 10
277.5543377009392
 20
121.9628410107212
 30
0.0
 10
277.2789834964458
 20
121.6948902458947
 30
0.0
 10
277.1668860958512
 20
121.5512002840831
 30
0.0
 10
276.9796710545168
 20
121.2471704968392
 30
0.0
 10
276.9059440805731
 20
121.0878742211432
 30
0.0
 10
276.7954846076921
 20
120.7637371628089
 30
0.0
 10
276.7580736160147
 20
120.597609188218
 30
0.0
 10
276.7185086280212
 20
120.2567546333879
 30
0.0
 10
276.7168204161499
 20
120.0821547932782
 30
0.0
 10
276.7513096531059
 20
119.7367211171307
 30
0.0
 10
276.7871790640656
 20
119.5643546713047
 30
0.0
 10
276.9017734693963
 20
119.2216215639459
 30
0.0
 10
276.981462112389
 20
119.0502703002957
 30
0.0
 10
277.0842397080118
 20
118.8886998238265
 30
0.0
  0
LINE
  5
183
330
1F
100
AcDbEntity
  8
0
  6
HIDDEN
 62
     7
370
     0
100
AcDbLine
 10
141.8975687393
 20
126.3380094886
 30
0.0
 11
141.8975687393
 21
126.0521428571
 31
0.0
  0
LINE
  5
184
330
1F
100
AcDbEntity
  8
0
  6
HIDDEN
 62
     7
370
     0
100
AcDbLine
 10
145.7175687393
 20
126.3380094886
 30
0.0
 11
145.7175687393
 21
126.0521428571
 31
0.0
  0
LINE
  5
185
330
1F
100
AcDbEntity
  8
0
  6
HIDDEN
 62
     7
370
     0
100
AcDbLine
 10
147.1995015708
 20
130.6608325195
 30
0.0
 11
147.1995015708
 21
126.0521428571
 31
0.0
  0
SPLINE
  5
186
330
1F
100
AcDbEntity
  8
0
  6
HIDDEN
 62
     7
370
     0
100
AcDbSpline
210
0.0
220
0.0
230
1.0
 70
     8
 71
     3
 72
    26
 73
    22
 74
     0
 42
0.00000001
 43
0.00000001
 12
1.0
 22
0.0
 32
0.0
 13
1.0
 23
0.0
 33
0.0
 40
0.0
 40
0.0
 40
0.0
 40
0.0
 40
0.2499999999999921
 40
0.2499999999999921
 40
0.3749999999999878
 40
0.3749999999999878
 40
0.437499999999985
 40
0.437499999999985
 40
0.4687499999999841
 40
0.4687499999999841
 40
0.4999999999999832
 40
0.4999999999999832
 40
0.5312499999999823
 40
0.5312499999999823
 40
0.5624999999999815
 40
0.5624999999999815
 40
0.6249999999999838
 40
0.6249999999999838
 40
0.7499999999999886
 40
0.7499999999999886
 40
1.0
 40
1.0
 40
1.0
 40
1.0
 10
93.9378463549114
 20
86.612055296916
 30
0.0
 10
93.94857038830392
 20
86.71501633740498
 30
0.0
 10
93.96330337889847
 20
86.81401502688603
 30
0.0
 10
94.01565693814548
 20
86.93261070695115
 30
0.0
 10
94.03736222086509
 20
86.96832100689994
 30
0.0
 10
94.09621772823049
 20
86.99330043972166
 30
0.0
 10
94.11967996207765
 20
86.99768588748523
 30
0.0
 10
94.17580133873827
 20
86.9779330540411
 30
0.0
 10
94.19858864886886
 20
86.9662766632307
 30
0.0
 10
94.25384120140009
 20
86.92449631379347
 30
0.0
 10
94.28524743414089
 20
86.8942247264175
 30
0.0
 10
94.3401812547613
 20
86.83258232750352
 30
0.0
 10
94.36460507296081
 20
86.80114067519669
 30
0.0
 10
94.40802017894801
 20
86.74140583778293
 30
0.0
 10
94.4275947415163
 20
86.7122408279103
 30
0.0
 10
94.48122742546428
 20
86.62840555217721
 30
0.0
 10
94.51100477351646
 20
86.576372934201
 30
0.0
 10
94.5925388334893
 20
86.42530726023365
 30
0.0
 10
94.63578162816331
 20
86.3321162183629
 30
0.0
 10
94.74883621781802
 20
86.06772967936851
 30
0.0
 10
94.80284721529719
 20
85.90877151031867
 30
0.0
 10
94.84647830950121
 20
85.75822055417783
 30
0.0
  0
LWPOLYLINE
  5
187
330
1F
100
AcDbEntity
  8
0
  6
HIDDEN
 62
     7
370
     0
100
AcDbPolyline
 90
       22
 70
   128
 43
0.0
 10
243.8075687393
 20
100.6600611656
 10
244.5444566753
 20
100.765693097
 10
245.2158688845
 20
101.0732030306
 10
245.7621474455
 20
101.5552673591
 10
246.1347531109
 20
102.1690525516
 10
246.3005782323
 20
102.8600211002
 10
246.2448885198
 20
103.566777417
 10
245.9726322488
 20
104.2265231018
 10
245.5080005837
 20
104.7806368551
 10
244.8922780871
 20
105.1798832384
 10
244.1801744047
 20
105.3887874584
 10
243.4349630739
 20
105.3887874584
 10
242.7228593915
 20
105.1798832384
 10
242.1071368949
 20
104.7806368551
 10
241.6425052298
 20
104.2265231018
 10
241.3702489588
 20
103.566777417
 10
241.3145592463
 20
102.8600211002
 10
241.4803843677
 20
102.1690525516
 10
241.8529900331
 20
101.5552673591
 10
242.3992685941
 20
101.0732030306
 10
243.0706808033
 20
100.765693097
 10
243.8075687393
 20
100.6600611656
  0
ELLIPSE
  5
188
330
1F
100
AcDbEntity
  8
0
  6
HIDDEN
 62
     7
370
     0
100
AcDbEllipse
 10
278.8221695299
 20
120.2413493652
 30
0.0
 11
0.0
 21
1.679494004487722
 31
0.0
210
0.0
220
0.0
230
1.0
 40
0.9907856253
 41
2.87734756560808
 42
3.690810969271184
  0
SPLINE
  5
189
330
1F
100
AcDbEntity
  8
0
  6
HIDDEN
 62
     7
370
     0
100
AcDbSpline
210
0.0
220
0.0
230
1.0
 70
     8
 71
     3
 72
     8
 73
     4
 74
     0
 42
0.00000001
 43
0.00000001
 12
1.0
 22
0.0
 32
0.0
 13
1.0
 23
0.0
 33
0.0
 40
0.0
 40
0.0
 40
0.0
 40
0.0
 40
1.0
 40
1.0
 40
1.0
 40
1.0
 10
277.0842397080118
 20
118.8886998238265
 30
0.0
 10
277.497661587319
 20
118.7514450461928
 30
0.0
 10
277.9250514948125
 20
118.6441481518406
 30
0.0
 10
278.3875601190691
 20
118.6201506911059
 30
0.0
  0
SPLINE
  5
18A
330
1F
100
AcDbEntity
  8
0
  6
HIDDEN
 62
     7
370
     0
100
AcDbSpline
210
0.0
220
0.0
230
1.0
 70
     8
 71
     3
 72
     8
 73
     4
 74
     0
 42
0.00000001
 43
0.00000001
 12
1.0
 22
0.0
 32
0.0
 13
1.0
 23
0.0
 33
0.0
 40
0.0
 40
0.0
 40
0.0
 40
0.0
 40
1.0
 40
1.0
 40
1.0
 40
1.0
 10
278.3875601190677
 20
118.6201506911027
 30
0.0
 10
273.2919992548665
 20
117.8787902157199
 30
0.0
 10
268.2019638255515
 20
117.0984374958546
 30
0.0
 10
263.1229190559526
 20
116.2436944232559
 30
0.0
  0
SPLINE
  5
18B
330
1F
100
AcDbEntity
  8
0
  6
HIDDEN
 62
     7
370
     0
100
AcDbSpline
210
0.0
220
0.0
230
1.0
 70
     8
 71
     3
 72
     8
 73
     4
 74
     0
 42
0.00000001
 43
0.00000001
 12
1.0
 22
0.0
 32
0.0
 13
1.0
 23
0.0
 33
0.0
 40
0.0
 40
0.0
 40
0.0
 40
0.0
 40
1.0
 40
1.0
 40
1.0
 40
1.0
 10
284.342982711168
 20
119.468562169563
 30
0.0
 10
282.7917822284338
 20
119.2519787948795
 30
0.0
 10
281.2410370488314
 20
119.032247484588
 30
0.0
 10
279.6908215816824
 20
118.8088537775828
 30
0.0
  0
CIRCLE
  5
18C
330
1F
100
AcDbEntity
  8
0
  6
HIDDEN
 62
     7
370
     0
100
AcDbCircle
 10
132.8075687393
 20
106.2021428571
 30
0.0
 40
5.000000000000014
  0
LINE
  5
18D
330
1F
100
AcDbEntity
  8
0
  6
HIDDEN
 62
     7
370
     0
100
AcDbLine
 10
277.0840210278
 20
120.4077451506
 30
0.0
 11
277.0840210278
 21
120.2894968138
 31
0.0
  0
LINE
  5
18E
330
1F
100
AcDbEntity
  8
0
  6
HIDDEN
 62
     7
370
     0
100
AcDbLine
 10
280.6051818177
 20
120.3617050142
 30
0.0
 11
280.6051818177
 21
120.4799846303
 31
0.0
  0
LINE
  5
18F
330
1F
100
AcDbEntity
  8
0
  6
HIDDEN
 62
     7
370
     0
100
AcDbLine
 10
277.0422298026
 20
121.9818610314
 30
0.0
 11
277.0422298026
 21
121.8636440245
 31
0.0
  0
LINE
  5
190
330
1F
100
AcDbEntity
  8
0
  6
HIDDEN
 62
     7
370
     0
100
AcDbLine
 10
280.5633905925
 20
121.9358522249
 30
0.0
 11
280.5633905925
 21
122.0541005617
 31
0.0
  0
SPLINE
  5
191
330
1F
100
AcDbEntity
  8
0
  6
HIDDEN
 62
     7
370
     0
100
AcDbSpline
210
0.0
220
0.0
230
1.0
 70
    11
 71
     3
 72
    30
 73
    26
 74
     0
 42
0.00000001
 43
0.00000001
 12
1.0
 22
0.0
 32
0.0
 13
1.0
 23
0.0
 33
0.0
 40
0.0
 40
0.0
 40
0.0
 40
0.0
 40
0.0187507444931364
 40
0.0649181514311592
 40
0.1112072864073729
 40
0.1574590458306626
 40
0.2036587628720631
 40
0.2498099791771848
 40
0.2959315986765499
 40
0.3420476569269023
 40
0.3881821661728333
 40
0.4343592639069126
 40
0.4805898068759856
 40
0.5268671676910744
 40
0.5731687388401435
 40
0.6194536611512926
 40
0.6656966143120093
 40
0.711886866390259
 40
0.7580310158041661
 40
0.8041501503769828
 40
0.8502673787553972
 40
0.8964080478035305
 40
0.9425944161708089
 40
0.9865432734177334
 40
1.0
 40
1.0
 40
1.0
 40
1.0
 10
281.1005593451794
 20
121.0672718944006
 30
0.0
 10
281.0996395959058
 20
120.9784869661
 30
0.0
 10
281.0964552731375
 20
120.6710989889275
 30
0.0
 10
280.9657357799779
 20
120.1514356029356
 30
0.0
 10
280.6312000975215
 20
119.5759861725511
 30
0.0
 10
280.1424306351509
 20
119.1198214926721
 30
0.0
 10
279.5436448146647
 20
118.8223238666911
 30
0.0
 10
278.8845509927767
 20
118.7081844483411
 30
0.0
 10
278.2206615422436
 20
118.7867046490875
 30
0.0
 10
277.6074025061969
 20
119.0509911312798
 30
0.0
 10
277.0958167989656
 20
119.4787784065238
 30
0.0
 10
276.7283978836408
 20
120.0344099216893
 30
0.0
 10
276.5358062701337
 20
120.6717562658977
 30
0.0
 10
276.5344016279809
 20
121.3377914548524
 30
0.0
 10
276.7246991637164
 20
121.9767426502612
 30
0.0
 10
277.0909910518828
 20
122.5348066927373
 30
0.0
 10
277.6025039859391
 20
122.9649094885682
 30
0.0
 10
278.2161239999402
 20
123.2309149592461
 30
0.0
 10
278.880186993939
 20
123.3106933027589
 30
0.0
 10
279.5390379828799
 20
123.1978654759827
 30
0.0
 10
280.1375121259472
 20
122.9021900204661
 30
0.0
 10
280.6264164878231
 20
122.4484498177295
 30
0.0
 10
280.95740666055
 20
121.8841499627571
 30
0.0
 10
281.0831865720097
 20
121.4022160231153
 30
0.0
 10
281.0972602619691
 20
121.1308776607703
 30
0.0
 10
281.1005593451794
 20
121.0672718944006
 30
0.0
  0
LINE
  5
192
330
1F
100
AcDbEntity
  8
0
  6
HIDDEN
 62
     7
370
     0
100
AcDbLine
 10
276.3221695299
 20
120.9547338341
 30
0.0
 11
276.3221695299
 21
120.5850245233
 31
0.0
  0
LINE
  5
193
330
1F
100
AcDbEntity
  8
0
  6
HIDDEN
 62
     7
370
     0
100
AcDbLine
 10
281.3221695299
 20
120.5850245233
 30
0.0
 11
281.3221695299
 21
120.9547338341
 31
0.0
  0
LINE
  5
194
330
1F
100
AcDbEntity
  8
0
  6
HIDDEN
 62
     7
370
     0
100
AcDbLine
 10
275.0221695299
 20
121.2337597291
 30
0.0
 11
275.0221695299
 21
121.1535397843
 31
0.0
  0
LINE
  5
195
330
1F
100
AcDbEntity
  8
0
  6
HIDDEN
 62
     7
370
     0
100
AcDbLine
 10
282.6221695299
 20
121.1535397843
 30
0.0
 11
282.6221695299
 21
121.2337597291
 31
0.0
  0
LINE
  5
196
330
1F
100
AcDbEntity
  8
0
  6
HIDDEN
 62
     7
370
     0
100
AcDbLine
 10
276.0721695299
 20
121.0487308276
 30
0.0
 11
276.0721695299
 21
120.9017189141
 31
0.0
  0
LINE
  5
197
330
1F
100
AcDbEntity
  8
0
  6
HIDDEN
 62
     7
370
     0
100
AcDbLine
 10
281.5721695299
 20
120.9017189141
 30
0.0
 11
281.5721695299
 21
121.0487308276
 31
0.0
  0
LINE
  5
198
330
1F
100
AcDbEntity
  8
0
  6
HIDDEN
 62
     7
370
     0
100
AcDbLine
 10
125.8075687393
 20
80.878218936
 30
0.0
 11
125.9017295805
 21
81.5482081348
 31
0.0
  0
LINE
  5
199
330
1F
100
AcDbEntity
  8
0
  6
HIDDEN
 62
     7
370
     0
100
AcDbLine
 10
125.9017295805
 20
130.8560775794
 30
0.0
 11
125.8075687393
 21
131.5260667783
 31
0.0
  0
ARC
  5
19A
330
1F
100
AcDbEntity
  8
0
  6
HIDDEN
 62
     7
370
     0
100
AcDbCircle
 10
125.3075687393
 20
81.6317119954
 30
0.0
 40
0.5999999999999943
100
AcDbArc
 50
352.0
 51
0.0
  0
ARC
  5
19B
330
1F
100
AcDbEntity
  8
0
  6
HIDDEN
 62
     7
370
     0
100
AcDbCircle
 10
125.3075687393
 20
81.6317119954
 30
0.0
 40
0.6000000000000019
100
AcDbArc
 50
0.0
 51
33.5573097619
  0
ARC
  5
19C
330
1F
100
AcDbEntity
  8
0
  6
HIDDEN
 62
     7
370
     0
100
AcDbCircle
 10
125.3075687393
 20
130.7725737189
 30
0.0
 40
0.5999999999999895
100
AcDbArc
 50
348.75
 51
8.0
  0
LWPOLYLINE
  5
19D
330
1F
100
AcDbEntity
  8
0
  6
HIDDEN
 62
     7
370
     0
100
AcDbPolyline
 90
        3
 70
   128
 43
0.0
 10
125.8960399075
 20
130.6555195257
 10
125.8618964588
 20
130.5429636594
 10
125.8075687393
 20
130.4409112398
  0
LINE
  5
19E
330
1F
100
AcDbEntity
  8
0
  6
HIDDEN
 62
     7
370
     0
100
AcDbLine
 10
125.9075687393
 20
81.6317119954
 30
0.0
 11
125.9075687393
 21
130.7725737189
 31
0.0
  0
LINE
  5
19F
330
1F
100
AcDbEntity
  8
0
  6
HIDDEN
 62
     7
370
     0
100
AcDbLine
 10
108.8900043046
 20
86.2021428571
 30
0.0
 11
113.0816761928
 21
86.2021428571
 31
0.0
  0
LINE
  5
1A0
330
1F
100
AcDbEntity
  8
0
  6
HIDDEN
 62
     7
370
     0
100
AcDbLine
 10
113.0816761928
 20
126.2021428571
 30
0.0
 11
108.8900043046
 21
126.2021428571
 31
0.0
  0
ARC
  5
1A1
330
1F
100
AcDbEntity
  8
0
  6
HIDDEN
 62
     7
370
     0
100
AcDbCircle
 10
119.5625707409
 20
94.2021428571
 30
0.0
 40
8.000000000000016
100
AcDbArc
 50
276.8676784538
 51
321.3178125465
  0
ARC
  5
1A2
330
1F
100
AcDbEntity
  8
0
  6
HIDDEN
 62
     7
370
     0
100
AcDbCircle
 10
119.5625707409
 20
118.2021428571
 30
0.0
 40
8.000000000000025
100
AcDbArc
 50
38.6821874535
 51
83.1186603066
  0
ARC
  5
1A3
330
1F
100
AcDbEntity
  8
0
  6
HIDDEN
 62
     7
370
     0
100
AcDbCircle
 10
108.8900043046
 20
86.8021428571
 30
0.0
 40
0.6000000000000085
100
AcDbArc
 50
210.0
 51
270.0
  0
ARC
  5
1A4
330
1F
100
AcDbEntity
  8
0
  6
HIDDEN
 62
     7
370
     0
100
AcDbCircle
 10
108.8900043046
 20
125.6021428571
 30
0.0
 40
0.6000000000000227
100
AcDbArc
 50
90.0
 51
150.0
  0
LINE
  5
1A5
330
1F
100
AcDbEntity
  8
0
  6
HIDDEN
 62
     7
370
     0
100
AcDbLine
 10
108.3703890623
 20
125.9021428571
 30
0.0
 11
106.8115433355
 21
123.2021428571
 31
0.0
  0
LINE
  5
1A6
330
1F
100
AcDbEntity
  8
0
  6
HIDDEN
 62
     7
370
     0
100
AcDbLine
 10
106.8115433355
 20
89.2021428571
 30
0.0
 11
108.3703890623
 21
86.5021428571
 31
0.0
  0
ARC
  5
1A7
330
1F
100
AcDbEntity
  8
0
  6
HIDDEN
 62
     7
370
     0
100
AcDbCircle
 10
134.2575687393
 20
90.4771428571
 30
0.0
 40
1.5
100
AcDbArc
 50
238.2116693829
 51
0.0
  0
ARC
  5
1A8
330
1F
100
AcDbEntity
  8
0
  6
HIDDEN
 62
     7
370
     0
100
AcDbCircle
 10
134.2575687393
 20
121.9271428571
 30
0.0
 40
1.500000000000001
100
AcDbArc
 50
0.0
 51
121.7883306171
  0
LINE
  5
1A9
330
1F
100
AcDbEntity
  8
0
  6
HIDDEN
 62
     7
370
     0
100
AcDbLine
 10
104.0075687393
 20
89.2021428571
 30
0.0
 11
106.8115433355
 21
89.2021428571
 31
0.0
  0
LINE
  5
1AA
330
1F
100
AcDbEntity
  8
0
  6
HIDDEN
 62
     7
370
     0
100
AcDbLine
 10
106.8115433355
 20
123.2021428571
 30
0.0
 11
100.0075687393
 21
123.2021428571
 31
0.0
  0
LINE
  5
1AB
330
1F
100
AcDbEntity
  8
0
  6
HIDDEN
 62
     7
370
     0
100
AcDbLine
 10
125.8075687393
 20
89.2021428571
 30
0.0
 11
133.4673947078
 21
89.2021428571
 31
0.0
  0
LINE
  5
1AC
330
1F
100
AcDbEntity
  8
0
  6
HIDDEN
 62
     7
370
     0
100
AcDbLine
 10
133.4673947078
 20
123.2021428571
 30
0.0
 11
125.8075687393
 21
123.2021428571
 31
0.0
  0
LINE
  5
1AD
330
1F
100
AcDbEntity
  8
0
  6
HIDDEN
 62
     7
370
     0
100
AcDbLine
 10
241.7075687393
 20
110.219363784
 30
0.0
 11
241.7075687393
 21
107.4974358027
 31
0.0
  0
LINE
  5
1AE
330
1F
100
AcDbEntity
  8
0
  6
HIDDEN
 62
     7
370
     0
100
AcDbLine
 10
245.9075687393
 20
110.1875345143
 30
0.0
 11
245.9075687393
 21
110.219363784
 31
0.0
  0
LINE
  5
1AF
330
1F
100
AcDbEntity
  8
0
  6
HIDDEN
 62
     7
370
     0
100
AcDbLine
 10
245.9075687393
 20
107.4958426526
 30
0.0
 11
245.9075687393
 21
109.0165130359
 31
0.0
  0
LINE
  5
1B0
330
1F
100
AcDbEntity
  8
0
  6
HIDDEN
 62
     7
370
     0
100
AcDbLine
 10
250.6136745224
 20
114.9847210518
 30
0.0
 11
243.589252902
 21
111.79570037
 31
0.0
  0
LINE
  5
1B1
330
1F
100
AcDbEntity
  8
0
  6
HIDDEN
 62
     7
370
     0
100
AcDbLine
 10
245.0567626542
 20
107.8493732193
 30
0.0
 11
250.5913459799
 21
110.3620214692
 31
0.0
  0
LINE
  5
1B2
330
1F
100
AcDbEntity
  8
0
  6
HIDDEN
 62
     7
370
     0
100
AcDbLine
 10
145.1075687393
 20
96.7021428571
 30
0.0
 11
147.6075687393
 21
96.7021428571
 31
0.0
  0
LINE
  5
1B3
330
1F
100
AcDbEntity
  8
0
  6
HIDDEN
 62
     7
370
     0
100
AcDbLine
 10
147.6075687393
 20
115.7021428571
 30
0.0
 11
145.1075687393
 21
115.7021428571
 31
0.0
  0
LINE
  5
1B4
330
1F
100
AcDbEntity
  8
0
  6
HIDDEN
 62
     7
370
     0
100
AcDbLine
 10
135.7575687393
 20
97.2021428571
 30
0.0
 11
136.2575687393
 21
97.7021428571
 31
0.0
  0
LINE
  5
1B5
330
1F
100
AcDbEntity
  8
0
  6
HIDDEN
 62
     7
370
     0
100
AcDbLine
 10
136.2575687393
 20
114.7021428571
 30
0.0
 11
135.7575687393
 21
115.2021428571
 31
0.0
  0
LINE
  5
1B6
330
1F
100
AcDbEntity
  8
0
  6
HIDDEN
 62
     7
370
     0
100
AcDbLine
 10
136.2575687393
 20
97.7021428571
 30
0.0
 11
145.1075687393
 21
97.7021428571
 31
0.0
  0
LINE
  5
1B7
330
1F
100
AcDbEntity
  8
0
  6
HIDDEN
 62
     7
370
     0
100
AcDbLine
 10
145.1075687393
 20
114.7021428571
 30
0.0
 11
136.2575687393
 21
114.7021428571
 31
0.0
  0
LINE
  5
1B8
330
1F
100
AcDbEntity
  8
0
  6
HIDDEN
 62
     7
370
     0
100
AcDbLine
 10
130.7575687393
 20
137.7021428571
 30
0.0
 11
130.7575687393
 21
132.6021428571
 31
0.0
  0
LINE
  5
1B9
330
1F
100
AcDbEntity
  8
0
  6
HIDDEN
 62
     7
370
     0
100
AcDbLine
 10
120.9920065698
 20
82.1227715236
 30
0.0
 11
120.5575744203
 21
82.6018375427
 31
0.0
  0
LINE
  5
1BA
330
1F
100
AcDbEntity
  8
0
  6
HIDDEN
 62
     7
370
     0
100
AcDbLine
 10
113.0575710952
 20
83.0235255018
 30
0.0
 11
112.5751373519
 21
82.5444595264
 31
0.0
  0
LINE
  5
1BB
330
1F
100
AcDbEntity
  8
0
  6
HIDDEN
 62
     7
370
     0
100
AcDbLine
 10
112.5750154236
 20
129.8598208975
 30
0.0
 11
113.0575661746
 21
129.3807006396
 31
0.0
  0
LINE
  5
1BC
330
1F
100
AcDbEntity
  8
0
  6
HIDDEN
 62
     7
370
     0
100
AcDbLine
 10
120.5575686213
 20
129.8023984172
 30
0.0
 11
120.9921110116
 21
130.2815186678
 31
0.0
  0
LINE
  5
1BD
330
1F
100
AcDbEntity
  8
0
  6
HIDDEN
 62
     7
370
     0
100
AcDbLine
 10
147.6075687393
 20
102.0021428571
 30
0.0
 11
246.8075687393
 21
102.0021428571
 31
0.0
  0
LINE
  5
1BE
330
1F
100
AcDbEntity
  8
0
  6
HIDDEN
 62
     7
370
     0
100
AcDbLine
 10
246.8075687393
 20
110.4021428571
 30
0.0
 11
147.6075687393
 21
110.4021428571
 31
0.0
  0
LINE
  5
1BF
330
1F
100
AcDbEntity
  8
0
  6
HIDDEN
 62
     7
370
     0
100
AcDbLine
 10
246.8075687393
 20
102.0021428571
 30
0.0
 11
249.3311833392
 21
106.2021428571
 31
0.0
  0
LINE
  5
1C0
330
1F
100
AcDbEntity
  8
0
  6
HIDDEN
 62
     7
370
     0
100
AcDbLine
 10
249.3311833392
 20
106.2021428571
 30
0.0
 11
246.8075687393
 21
110.4021428571
 31
0.0
  0
LINE
  5
1C1
330
1F
100
AcDbEntity
  8
0
  6
HIDDEN
 62
     7
370
     0
100
AcDbLine
 10
120.5575687393
 20
82.5017779973
 30
0.0
 11
120.5575687393
 21
86.2667425189
 31
0.0
  0
LINE
  5
1C2
330
1F
100
AcDbEntity
  8
0
  6
HIDDEN
 62
     7
370
     0
100
AcDbLine
 10
113.0575687393
 20
86.2065206252
 30
0.0
 11
113.0575687393
 21
83.0238487396
 31
0.0
  0
LINE
  5
1C3
330
1F
100
AcDbEntity
  8
0
  6
HIDDEN
 62
     7
370
     0
100
AcDbLine
 10
120.5575687393
 20
126.1375431954
 30
0.0
 11
120.5575687393
 21
129.9024289179
 31
0.0
  0
LINE
  5
1C4
330
1F
100
AcDbEntity
  8
0
  6
HIDDEN
 62
     7
370
     0
100
AcDbLine
 10
113.0575687393
 20
129.3804454483
 30
0.0
 11
113.0575687393
 21
126.1977650891
 31
0.0
  0
LINE
  5
1C5
330
1F
100
AcDbEntity
  8
0
  6
HIDDEN
 62
     7
370
     0
100
AcDbLine
 10
271.0018426182
 20
115.5064403042
 30
0.0
 11
271.0018426182
 21
115.1716092302
 31
0.0
  0
LINE
  5
1C6
330
1F
100
AcDbEntity
  8
0
  6
HIDDEN
 62
     7
370
     0
100
AcDbLine
 10
275.2018426182
 20
115.1716092302
 30
0.0
 11
275.2018426182
 21
115.1953264313
 31
0.0
  0
LINE
  5
1C7
330
1F
100
AcDbEntity
  8
0
  6
HIDDEN
 62
     7
370
     0
100
AcDbLine
 10
241.7075687393
 20
104.9047707728
 30
0.0
 11
241.7075687393
 21
103.1119729134
 31
0.0
  0
LINE
  5
1C8
330
1F
100
AcDbEntity
  8
0
  6
HIDDEN
 62
     7
370
     0
100
AcDbLine
 10
245.9075687393
 20
103.1119729134
 30
0.0
 11
245.9075687393
 21
104.9053328731
 31
0.0
  0
LINE
  5
1C9
330
1F
100
AcDbEntity
  8
0
  6
HIDDEN
 62
     7
370
     0
100
AcDbLine
 10
276.7221695299
 20
120.8389380877
 30
0.0
 11
276.7221695299
 21
120.1492036473
 31
0.0
  0
LINE
  5
1CA
330
1F
100
AcDbEntity
  8
0
  6
HIDDEN
 62
     7
370
     0
100
AcDbLine
 10
280.9221695299
 20
120.1120857511
 30
0.0
 11
280.9221695299
 21
120.8389380877
 31
0.0
  0
LINE
  5
1CB
330
1F
100
AcDbEntity
  8
0
  6
HIDDEN
 62
     7
370
     0
100
AcDbLine
 10
241.3075687393
 20
103.0377024564
 30
0.0
 11
241.3075687393
 21
101.2593552781
 31
0.0
  0
LINE
  5
1CC
330
1F
100
AcDbEntity
  8
0
  6
HIDDEN
 62
     7
370
     0
100
AcDbLine
 10
246.3075687393
 20
101.2580291947
 30
0.0
 11
246.3075687393
 21
103.0377024564
 31
0.0
  0
LINE
  5
1CD
330
1F
100
AcDbEntity
  8
VERMASSUNG
100
AcDbLine
 10
285.8075687393
 20
128.2021428571
 30
0.0
 11
285.8075687393
 21
98.672343084
 31
0.0
  0
DIMENSION
  5
1CE
330
1F
100
AcDbEntity
  8
VERMASSUNG
100
AcDbDimension
  2
_D
 10
291.1737134251
 20
106.2021428571
 30
0.0
 11
291.1737134251
 21
117.2021428571
 31
0.0
 70
   160
  1
<>
 71
     2
 42
-1.0
  3
SLDDIMSTYLE0
100
AcDbAlignedDimension
 13
285.8075687393
 23
128.2021428571
 33
0.0
 14
285.4107142857
 24
106.2021428571
 34
0.0
 50
90.0
100
AcDbRotatedDimension
  0
DIMENSION
  5
1D9
330
1F
100
AcDbEntity
  8
VERMASSUNG
100
AcDbDimension
  2
_D_1
 10
285.8075687393
 20
98.672343084
 30
0.0
 11
276.4564997963
 21
91.9506284655
 31
0.0
 70
   162
  1
<>
 71
     1
 42
-1.0
  3
SLDDIMSTYLE1
100
AcDb2LineAngularDimension
 13
284.7128683708
 23
115.7201401674
 33
0.0
 14
285.7660214715
 24
127.7284122149
 34
0.0
 15
285.8075687393
 25
128.2021428571
 35
0.0
 16
284.1705748659
 26
90.7998028619
 36
0.0
  0
DIMENSION
  5
1E6
330
1F
100
AcDbEntity
  8
VERMASSUNG
100
AcDbDimension
  2
_D_2
 10
90.1292857143
 20
74.7021428571
 30
0.0
 11
90.1292857143
 21
106.2021428571
 31
0.0
 70
   160
  1
HSK %%c<>
 71
     2
 42
-1.0
  3
SLDDIMSTYLE0
100
AcDbAlignedDimension
 13
126.1075687393
 23
137.7021428571
 33
0.0
 14
126.1075687393
 24
74.7021428571
 34
0.0
 50
90.0
100
AcDbRotatedDimension
  0
DIMENSION
  5
1F2
330
1F
100
AcDbEntity
  8
VERMASSUNG
100
AcDbDimension
  2
_D_3
 10
285.8075687393
 20
149.7362245709
 30
0.0
 11
189.8575687393
 21
149.7362245709
 31
0.0
 70
   160
  1
<>
 71
     2
 42
-1.0
  3
SLDDIMSTYLE0
100
AcDbAlignedDimension
 13
93.9075687393
 23
125.8928206036
 33
0.0
 14
285.8075687393
 24
128.2021428571
 34
0.0
100
AcDbRotatedDimension
  0
DIMENSION
  5
1FC
330
1F
100
AcDbEntity
  8
VERMASSUNG
100
AcDbDimension
  2
_D_4
 10
285.8075687393
 20
143.7362245709
 30
0.0
 11
205.8075687393
 21
143.7362245709
 31
0.0
 70
   160
  1
<>
 71
     2
 42
-1.0
  3
SLDDIMSTYLE0
100
AcDbAlignedDimension
 13
125.8075687393
 23
137.4021428571
 33
0.0
 14
285.8075687393
 24
128.2021428571
 34
0.0
100
AcDbRotatedDimension
  0
LINE
  5
206
330
1F
100
AcDbEntity
  8
VERMASSUNG
  6
CENTERX2
370
     0
100
AcDbLine
 10
92.8007142857
 20
106.2021428571
 30
0.0
 11
285.4107142857
 21
106.2021428571
 31
0.0
  0
LINE
  5
207
330
1F
100
AcDbEntity
  8
0
  6
Continuous
 62
     7
370
    15
100
AcDbLine
 10
52.6587480625
 20
127.5359416233
 30
0.0
 11
49.4368477192
 21
128.1622150765
 31
0.0
  0
LINE
  5
208
330
1F
100
AcDbEntity
  8
0
  6
Continuous
 62
     7
370
    15
100
AcDbLine
 10
48.4678780839
 20
114.3053039761
 30
0.0
 11
48.76971682
 21
114.32112249
 31
0.0
  0
LWPOLYLINE
  5
209
330
1F
100
AcDbEntity
  8
0
  6
Continuous
 62
     7
370
    15
100
AcDbPolyline
 90
        9
 70
   128
 43
0.0
 10
49.4065132579
 20
127.7284124718
 10
49.4125871491
 20
127.8152732031
 10
49.4184883782
 20
127.8996640669
 10
49.4239371809
 20
127.977585964
 10
49.42867524
 20
128.0453434066
 10
49.4324779351
 20
128.0997251944
 10
49.4351649871
 20
128.1381515638
 10
49.4366090087
 20
128.158800848
 10
49.4368477192
 20
128.1622150765
  0
LINE
  5
20A
330
1F
100
AcDbEntity
  8
0
  6
Continuous
 62
     7
370
    15
100
AcDbLine
 10
54.1431954542
 20
127.2287318335
 30
0.0
 11
52.6587480625
 21
127.5359416233
 31
0.0
  0
LINE
  5
20B
330
1F
100
AcDbEntity
  8
0
  6
Continuous
 62
     7
370
    15
100
AcDbLine
 10
53.3295268605
 20
115.5927251877
 30
0.0
 11
54.1431954542
 21
127.2287318335
 31
0.0
  0
LINE
  5
20C
330
1F
100
AcDbEntity
  8
0
  6
Continuous
 62
     7
370
    15
100
AcDbLine
 10
53.3295268605
 20
115.5927251877
 30
0.0
 11
51.8190478387
 21
115.5276695119
 31
0.0
  0
LINE
  5
20D
330
1F
100
AcDbEntity
  8
0
  6
Continuous
 62
     7
370
    15
100
AcDbLine
 10
48.5668130631
 20
115.7201403604
 30
0.0
 11
49.4065132579
 21
127.7284124718
 31
0.0
  0
LWPOLYLINE
  5
20E
330
1F
100
AcDbEntity
  8
0
  6
Continuous
 62
     7
370
    15
100
AcDbPolyline
 90
        9
 70
   128
 43
0.0
 10
48.541448551
 20
115.3574107067
 10
48.5422931441
 20
115.3694880979
 10
48.5439566027
 20
115.3932778017
 10
48.5463884605
 20
115.4280552493
 10
48.5495148522
 20
115.4727633895
 10
48.5532406664
 20
115.5260462166
 10
48.5574528056
 20
115.5862822981
 10
48.5620232129
 20
115.6516425164
 10
48.5668130631
 20
115.7201403604
  0
LINE
  5
20F
330
1F
100
AcDbEntity
  8
0
  6
Continuous
 62
     7
370
    15
100
AcDbLine
 10
53.3281960005
 20
115.5736954735
 30
0.0
 11
53.3295268605
 21
115.5927251877
 31
0.0
  0
LINE
  5
210
330
1F
100
AcDbEntity
  8
0
  6
Continuous
 62
     7
370
    15
100
AcDbLine
 10
48.4679843129
 20
114.3068229632
 30
0.0
 11
48.541448551
 21
115.3574107067
 31
0.0
  0
LINE
  5
211
330
1F
100
AcDbEntity
  8
0
  6
Continuous
 62
     7
370
    15
100
AcDbLine
 10
48.4678780839
 20
114.3053039761
 30
0.0
 11
48.4679843129
 21
114.3068229632
 31
0.0
  0
LINE
  5
212
330
1F
100
AcDbEntity
  8
0
  6
Continuous
 62
     7
370
    15
100
AcDbLine
 10
65.939639643
 20
111.9857054056
 30
0.0
 11
65.939639643
 21
119.4685619177
 31
0.0
  0
LINE
  5
213
330
1F
100
AcDbEntity
  8
0
  6
Continuous
 62
     7
370
    15
100
AcDbLine
 10
65.939639643
 20
111.9857054056
 30
0.0
 11
48.6907514341
 21
113.1918654629
 31
0.0
  0
LINE
  5
214
330
1F
100
AcDbEntity
  8
0
  6
Continuous
 62
     7
370
    15
100
AcDbLine
 10
48.8404187553
 20
115.3322081865
 30
0.0
 11
48.6907514341
 21
113.1918654629
 31
0.0
  0
LINE
  5
215
330
1F
100
AcDbEntity
  8
0
  6
Continuous
 62
     7
370
    15
100
AcDbLine
 10
48.8404187553
 20
115.3322081865
 30
0.0
 11
50.9333732251
 21
115.4448302315
 31
0.0
  0
LINE
  5
216
330
1F
100
AcDbEntity
  8
0
  6
Continuous
 62
     7
370
    15
100
AcDbLine
 10
50.9333732251
 20
115.4448302315
 30
0.0
 11
53.3075755874
 21
115.2788098754
 31
0.0
  0
LINE
  5
217
330
1F
100
AcDbEntity
  8
0
  6
Continuous
 62
     7
370
    15
100
AcDbLine
 10
53.3075755874
 20
115.2788098754
 30
0.0
 11
53.3281960005
 21
115.5736954735
 31
0.0
  0
ELLIPSE
  5
218
330
1F
100
AcDbEntity
  8
0
  6
Continuous
 62
     7
370
    15
100
AcDbEllipse
 10
49.4508859932
 20
106.3629718785
 30
0.0
 11
1.469280054756403
 21
21.01168370084883
 31
0.0
210
0.0
220
0.0
230
1.0
 40
0.9999707057
 41
5.453761939202483
 42
6.129446794955863
  0
ARC
  5
219
330
1F
100
AcDbEntity
  8
0
  6
Continuous
 62
     7
370
    15
100
AcDbCircle
 10
49.4396397325
 20
106.2021428571
 30
0.0
 40
16.50000000000002
100
AcDbArc
 50
261.7087285136
 51
0.0
  0
LINE
  5
21A
330
1F
100
AcDbEntity
  8
0
  6
Continuous
 62
     7
370
    15
100
AcDbLine
 10
48.6907514341
 20
113.1918654629
 30
0.0
 11
47.060249787
 21
89.8746052609
 31
0.0
  0
LINE
  5
21B
330
1F
100
AcDbEntity
  8
0
  6
Continuous
 62
     7
370
    15
100
AcDbLine
 10
65.939639643
 20
106.2021428571
 30
0.0
 11
65.939639643
 21
111.9857054056
 31
0.0
  0
SPLINE
  5
21C
330
1F
100
AcDbEntity
  8
0
  6
Continuous
 62
     7
370
    15
100
AcDbSpline
210
0.0
220
0.0
230
1.0
 70
     8
 71
     3
 72
    11
 73
     7
 74
     0
 42
0.00000001
 43
0.00000001
 12
1.0
 22
0.0
 32
0.0
 13
1.0
 23
0.0
 33
0.0
 40
0.0
 40
0.0
 40
0.0
 40
0.0
 40
0.0330977169059896
 40
0.3600388070378546
 40
0.6841617194321803
 40
1.0
 40
1.0
 40
1.0
 40
1.0
 10
49.0196710515117
 20
122.1963116751398
 30
0.0
 10
49.00927520805502
 20
122.196157632955
 30
0.0
 10
48.89618864420147
 20
122.1944819534932
 30
0.0
 10
48.06586800263727
 20
122.1582526999709
 30
0.0
 10
46.62549336387901
 20
121.9932603947302
 30
0.0
 10
45.41334295866334
 20
121.6758835797896
 30
0.0
 10
44.81511371604183
 20
121.5192494766201
 30
0.0
  0
SPLINE
  5
21D
330
1F
100
AcDbEntity
  8
0
  6
Continuous
 62
     7
370
    15
100
AcDbSpline
210
0.0
220
0.0
230
1.0
 70
     8
 71
     3
 72
    14
 73
    10
 74
     0
 42
0.00000001
 43
0.00000001
 12
1.0
 22
0.0
 32
0.0
 13
1.0
 23
0.0
 33
0.0
 40
0.0
 40
0.0
 40
0.0
 40
0.0
 40
0.25
 40
0.25
 40
0.5
 40
0.5
 40
0.75
 40
0.75
 40
1.0
 40
1.0
 40
1.0
 40
1.0
 10
42.72839014482978
 20
91.67771071772387
 30
0.0
 10
43.31797560884033
 20
91.40528318567101
 30
0.0
 10
43.8862950966554
 20
91.18615763203626
 30
0.0
 10
44.95969095894122
 20
90.83173271585912
 30
0.0
 10
45.43468429638641
 20
90.70593183888164
 30
0.0
 10
46.24339244128745
 20
90.51915120309032
 30
0.0
 10
46.55600963301581
 20
90.46262478574782
 30
0.0
 10
46.9869330159674
 20
90.38974324692997
 30
0.0
 10
47.09522911575569
 20
90.37483295115115
 30
0.0
 10
47.09522911575569
 20
90.37483295115115
 30
0.0
  0
ELLIPSE
  5
21E
330
1F
100
AcDbEntity
  8
0
  6
Continuous
 62
     7
370
    15
100
AcDbEllipse
 10
40.4050091669
 20
112.6733712605
 30
0.0
 11
1.733036295194211
 21
1.855089312013846
 31
0.0
210
0.0
220
0.0
230
1.0
 40
0.8112573031
 41
0.0
 42
6.283185307179586
  0
ARC
  5
21F
330
1F
100
AcDbEntity
  8
0
  6
Continuous
 62
     7
370
    15
100
AcDbCircle
 10
49.4396397325
 20
106.2021428571
 30
0.0
 40
16.00000000000001
100
AcDbArc
 50
106.8000641757
 51
245.1999358243
  0
SPLINE
  5
220
330
1F
100
AcDbEntity
  8
0
  6
Continuous
 62
     7
370
    15
100
AcDbSpline
210
0.0
220
0.0
230
1.0
 70
     8
 71
     3
 72
    17
 73
    13
 74
     0
 42
0.00000001
 43
0.00000001
 12
1.0
 22
0.0
 32
0.0
 13
1.0
 23
0.0
 33
0.0
 40
0.0
 40
0.0
 40
0.0
 40
0.0
 40
0.1018803377645454
 40
0.2931024943202689
 40
0.3632855327219977
 40
0.4103831031661682
 40
0.4465396896699789
 40
0.4826045038049409
 40
0.5830769465882825
 40
0.806521540539824
 40
0.992716765796856
 40
1.0
 40
1.0
 40
1.0
 40
1.0
 10
38.13120531312206
 20
111.9046090954329
 30
0.0
 10
38.22584104570621
 20
111.9271184955321
 30
0.0
 10
38.49810132556851
 20
111.9918764405828
 30
0.0
 10
38.85676365743424
 20
111.8561204106195
 30
0.0
 10
39.18544355822613
 20
111.7037089620741
 30
0.0
 10
39.37649728065097
 20
111.6164152259199
 30
0.0
 10
39.54776191974225
 20
111.5557408147697
 30
0.0
 10
39.79389218234669
 20
111.4929774719781
 30
0.0
 10
40.24086487583934
 20
111.4147898895964
 30
0.0
 10
40.74300427276443
 20
111.2186627162596
 30
0.0
 10
41.11253124077751
 20
110.9717747281613
 30
0.0
 10
41.1836543850677
 20
110.7797359184486
 30
0.0
 10
41.18633171937444
 20
110.7725068779077
 30
0.0
  0
SPLINE
  5
221
330
1F
100
AcDbEntity
  8
0
  6
Continuous
 62
     7
370
    15
100
AcDbSpline
210
0.0
220
0.0
230
1.0
 70
    24
 71
     3
 72
    10
 73
     6
 74
     0
 42
0.00000001
 43
0.00000001
 12
1.0
 22
0.0
 32
0.0
 13
1.0
 23
0.0
 33
0.0
 40
0.0
 40
0.0
 40
0.0
 40
0.0
 40
0.5
 40
0.5
 40
1.0
 40
1.0
 40
1.0
 40
1.0
 10
40.43963973245599
 20
76.64186545655001
 30
0.0
 10
40.43963973245599
 20
76.48197818835635
 30
0.0
 10
40.43963973245599
 20
76.32085093284176
 30
0.0
 10
40.43963973245599
 20
76.08675193448693
 30
0.0
 10
40.43963973245599
 20
76.01522516089571
 30
0.0
 10
40.43963973245599
 20
76.01522516089571
 30
0.0
  0
ARC
  5
222
330
1F
100
AcDbEntity
  8
0
  6
Continuous
 62
     7
370
    15
100
AcDbCircle
 10
49.4396397325
 20
106.2021428571
 30
0.0
 40
31.5
100
AcDbArc
 50
140.9381656697
 51
253.398450401
  0
SPLINE
  5
223
330
1F
100
AcDbEntity
  8
0
  6
Continuous
 62
     7
370
    15
100
AcDbSpline
210
0.0
220
0.0
230
1.0
 70
    24
 71
     3
 72
    12
 73
     8
 74
     0
 42
0.00000001
 43
0.00000001
 12
1.0
 22
0.0
 32
0.0
 13
1.0
 23
0.0
 33
0.0
 40
0.0
 40
0.0
 40
0.0
 40
0.0
 40
0.249999999999998
 40
0.249999999999998
 40
0.499999999999996
 40
0.499999999999996
 40
1.0
 40
1.0
 40
1.0
 40
1.0
 10
24.98095007008838
 20
126.0521428571429
 30
0.0
 10
24.98095007008838
 20
126.0521428571429
 30
0.0
 10
25.00877979039186
 20
126.0521428571429
 30
0.0
 10
25.10392225164854
 20
126.0521428571429
 30
0.0
 10
25.17034506794888
 20
126.0521428571429
 30
0.0
 10
25.394544499469
 20
126.0521428571429
 30
0.0
 10
25.57853090201461
 20
126.0521428571429
 30
0.0
 10
25.75868747119759
 20
126.0521428571429
 30
0.0
  0
SPLINE
  5
224
330
1F
100
AcDbEntity
  8
0
  6
Continuous
 62
     7
370
    15
100
AcDbSpline
210
0.0
220
0.0
230
1.0
 70
    24
 71
     3
 72
    10
 73
     6
 74
     0
 42
0.00000001
 43
0.00000001
 12
1.0
 22
0.0
 32
0.0
 13
1.0
 23
0.0
 33
0.0
 40
0.0
 40
0.0
 40
0.0
 40
0.0
 40
0.5
 40
0.5
 40
1.0
 40
1.0
 40
1.0
 40
1.0
 10
41.43963973245599
 20
136.0485831809068
 30
0.0
 10
41.43963973245599
 20
136.2089884472576
 30
0.0
 10
41.43963973245599
 20
136.3680502602462
 30
0.0
 10
41.43963973245599
 20
136.5989627258764
 30
0.0
 10
41.43963973245599
 20
136.6693383303071
 30
0.0
 10
41.43963973245599
 20
136.6693383303071
 30
0.0
  0
SPLINE
  5
225
330
1F
100
AcDbEntity
  8
0
  6
Continuous
 62
     7
370
    15
100
AcDbSpline
210
0.0
220
0.0
230
1.0
 70
    24
 71
     3
 72
    12
 73
     8
 74
     0
 42
0.00000001
 43
0.00000001
 12
1.0
 22
0.0
 32
0.0
 13
1.0
 23
0.0
 33
0.0
 40
0.0
 40
0.0
 40
0.0
 40
0.0
 40
0.2500000000000013
 40
0.2500000000000013
 40
0.5000000000000027
 40
0.5000000000000027
 40
1.0
 40
1.0
 40
1.0
 40
1.0
 10
29.58963973245598
 20
130.6608325195103
 30
0.0
 10
29.58963973245598
 20
130.6608325195103
 30
0.0
 10
29.58963973245598
 20
130.6326128209224
 30
0.0
 10
29.58963973245597
 20
130.5381698136743
 30
0.0
 10
29.58963973245598
 20
130.471882836969
 30
0.0
 10
29.58963973245598
 20
130.2462580136807
 30
0.0
 10
29.58963973245598
 20
130.0638317506481
 30
0.0
 10
29.58963973245598
 20
129.8830951184012
 30
0.0
  0
ARC
  5
226
330
1F
100
AcDbEntity
  8
0
  6
Continuous
 62
     7
370
    15
100
AcDbCircle
 10
49.4396397325
 20
106.2021428571
 30
0.0
 40
31.50000000000002
100
AcDbArc
 50
104.7124579609
 51
129.0618343303
  0
SPLINE
  5
227
330
1F
100
AcDbEntity
  8
0
  6
Continuous
 62
     7
370
    15
100
AcDbSpline
210
0.0
220
0.0
230
1.0
 70
    24
 71
     3
 72
    12
 73
     8
 74
     0
 42
0.00000001
 43
0.00000001
 12
1.0
 22
0.0
 32
0.0
 13
1.0
 23
0.0
 33
0.0
 40
0.0
 40
0.0
 40
0.0
 40
0.0
 40
0.2500000000000038
 40
0.2500000000000038
 40
0.5000000000000077
 40
0.5000000000000077
 40
1.0
 40
1.0
 40
1.0
 40
1.0
 10
57.439639732456
 20
136.6693383303071
 30
0.0
 10
57.439639732456
 20
136.6693383303071
 30
0.0
 10
57.439639732456
 20
136.6523355803463
 30
0.0
 10
57.439639732456
 20
136.5882750392346
 30
0.0
 10
57.439639732456
 20
136.5411164235961
 30
0.0
 10
57.439639732456
 20
136.3678943909038
 30
0.0
 10
57.439639732456
 20
136.2077853006695
 30
0.0
 10
57.439639732456
 20
136.0485831809062
 30
0.0
  0
ARC
  5
228
330
1F
100
AcDbEntity
  8
0
  6
Continuous
 62
     7
370
    15
100
AcDbCircle
 10
49.4396397325
 20
106.2021428571
 30
0.0
 40
31.50000000000001
100
AcDbArc
 50
286.601549599
 51
75.2875420391
  0
SPLINE
  5
229
330
1F
100
AcDbEntity
  8
0
  6
Continuous
 62
     7
370
    15
100
AcDbSpline
210
0.0
220
0.0
230
1.0
 70
    24
 71
     3
 72
    12
 73
     8
 74
     0
 42
0.00000001
 43
0.00000001
 12
1.0
 22
0.0
 32
0.0
 13
1.0
 23
0.0
 33
0.0
 40
0.0
 40
0.0
 40
0.0
 40
0.0
 40
0.249999999999998
 40
0.249999999999998
 40
0.499999999999996
 40
0.499999999999996
 40
1.0
 40
1.0
 40
1.0
 40
1.0
 10
58.439639732456
 20
76.01522516089571
 30
0.0
 10
58.439639732456
 20
76.01522516089572
 30
0.0
 10
58.439639732456
 20
76.03234224716155
 30
0.0
 10
58.439639732456
 20
76.09707835863667
 30
0.0
 10
58.439639732456
 20
76.14453560151699
 30
0.0
 10
58.43963973245601
 20
76.32136004405646
 30
0.0
 10
58.439639732456
 20
76.48163655126218
 30
0.0
 10
58.439639732456
 20
76.64186545654995
 30
0.0
  0
LINE
  5
22A
330
1F
100
AcDbEntity
  8
0
  6
Continuous
 62
     7
370
    15
100
AcDbLine
 10
57.4396401124
 20
132.6021427141
 30
0.0
 11
41.4396393525
 21
132.6021427141
 31
0.0
  0
LINE
  5
22B
330
1F
100
AcDbEntity
  8
0
  6
Continuous
 62
     7
370
    15
100
AcDbLine
 10
58.439639345
 20
79.8021430002
 30
0.0
 11
40.4396401199
 21
79.8021430002
 31
0.0
  0
LINE
  5
22C
330
1F
100
AcDbEntity
  8
0
  6
Continuous
 62
     7
370
    15
100
AcDbLine
 10
57.4396401124
 20
136.0485838578
 30
0.0
 11
57.4396401124
 21
132.6021427141
 31
0.0
  0
LINE
  5
22D
330
1F
100
AcDbEntity
  8
0
  6
Continuous
 62
     7
370
    15
100
AcDbLine
 10
58.439639345
 20
76.6418656187
 30
0.0
 11
58.439639345
 21
79.8021430002
 31
0.0
  0
LINE
  5
22E
330
1F
100
AcDbEntity
  8
0
  6
Continuous
 62
     7
370
    15
100
AcDbLine
 10
41.4396393525
 20
132.6021427141
 30
0.0
 11
41.4396393525
 21
136.0485838578
 31
0.0
  0
LINE
  5
22F
330
1F
100
AcDbEntity
  8
0
  6
Continuous
 62
     7
370
    15
100
AcDbLine
 10
40.4396401199
 20
79.8021430002
 30
0.0
 11
40.4396401199
 21
76.6418656187
 31
0.0
  0
LINE
  5
230
330
1F
100
AcDbEntity
  8
0
  6
Continuous
 62
     7
370
    15
100
AcDbLine
 10
29.5896389934
 20
129.8830943034
 30
0.0
 11
29.5896389934
 21
126.0521435962
 31
0.0
  0
LINE
  5
231
330
1F
100
AcDbEntity
  8
0
  6
Continuous
 62
     7
370
    15
100
AcDbLine
 10
25.7586882862
 20
126.0521435962
 30
0.0
 11
29.5896389934
 21
126.0521435962
 31
0.0
  0
SPLINE
  5
232
330
1F
100
AcDbEntity
  8
0
  6
Continuous
 62
     7
370
    15
100
AcDbSpline
210
0.0
220
0.0
230
1.0
 70
     8
 71
     3
 72
    30
 73
    26
 74
     0
 42
0.00000001
 43
0.00000001
 12
1.0
 22
0.0
 32
0.0
 13
1.0
 23
0.0
 33
0.0
 40
0.0
 40
0.0
 40
0.0
 40
0.0
 40
0.125
 40
0.125
 40
0.1875000000000001
 40
0.1875000000000001
 40
0.2500000000000001
 40
0.2500000000000001
 40
0.3750000000000001
 40
0.3750000000000001
 40
0.4375000000000001
 40
0.4375000000000001
 40
0.5000000000000001
 40
0.5000000000000001
 40
0.6249999999999997
 40
0.6249999999999997
 40
0.6874999999999997
 40
0.6874999999999997
 40
0.7499999999999997
 40
0.7499999999999997
 40
0.8124999999999997
 40
0.8124999999999997
 40
0.8749999999999997
 40
0.8749999999999997
 40
1.0
 40
1.0
 40
1.0
 40
1.0
 10
50.43963973245599
 20
74.7180198742805
 30
0.0
 10
50.97105766285658
 20
74.73489879228912
 30
0.0
 10
51.49271686043075
 20
74.76491635711382
 30
0.0
 10
52.26135864758978
 20
74.82772674638696
 30
0.0
 10
52.5152484467548
 20
74.85163065361385
 30
0.0
 10
53.01832122270088
 20
74.90506594605623
 30
0.0
 10
53.26778507091752
 20
74.9346728142238
 30
0.0
 10
53.99269596851439
 20
75.02912251293823
 30
0.0
 10
54.45057330540656
 20
75.10014990676744
 30
0.0
 10
55.10034053088941
 20
75.21416419347321
 30
0.0
 10
55.31172723429958
 20
75.25361944461379
 30
0.0
 10
55.71636104506975
 20
75.33314088738445
 30
0.0
 10
55.90910151657096
 20
75.37307702988522
 30
0.0
 10
56.45953239294789
 20
75.49201343271338
 30
0.0
 10
56.78971577022852
 20
75.57017819659723
 30
0.0
 10
57.22839158687894
 20
75.67988763686611
 30
0.0
 10
57.36419014536548
 20
75.71496847357453
 30
0.0
 10
57.61106717821165
 20
75.78020875295414
 30
0.0
 10
57.72284571553965
 20
75.81054356899888
 30
0.0
 10
57.92327590541326
 20
75.86588194822073
 30
0.0
 10
58.01192824861676
 20
75.89088662478082
 30
0.0
 10
58.16559579629788
 20
75.9347664336715
 30
0.0
 10
58.23084350054971
 20
75.95371011843382
 30
0.0
 10
58.38714855391398
 20
75.99942984570399
 30
0.0
 10
58.439639732456
 20
76.01522516089571
 30
0.0
 10
58.439639732456
 20
76.01522516089571
 30
0.0
  0
SPLINE
  5
233
330
1F
100
AcDbEntity
  8
0
  6
Continuous
 62
     7
370
    15
100
AcDbSpline
210
0.0
220
0.0
230
1.0
 70
     8
 71
     3
 72
    28
 73
    24
 74
     0
 42
0.00000001
 43
0.00000001
 12
1.0
 22
0.0
 32
0.0
 13
1.0
 23
0.0
 33
0.0
 40
0.0
 40
0.0
 40
0.0
 40
0.0
 40
0.1250000000000009
 40
0.1250000000000009
 40
0.1875000000000011
 40
0.1875000000000011
 40
0.2500000000000014
 40
0.2500000000000014
 40
0.3750000000000018
 40
0.3750000000000018
 40
0.4375000000000018
 40
0.4375000000000018
 40
0.5000000000000017
 40
0.5000000000000017
 40
0.6250000000000013
 40
0.6250000000000013
 40
0.7500000000000009
 40
0.7500000000000009
 40
0.8125000000000007
 40
0.8125000000000007
 40
0.8750000000000004
 40
0.8750000000000004
 40
1.0
 40
1.0
 40
1.0
 40
1.0
 10
40.43963973245599
 20
76.0152251608957
 30
0.0
 10
40.43963973245599
 20
76.0152251608957
 30
0.0
 10
40.4921160747742
 20
75.9994404469455
 30
0.0
 10
40.6459130223311
 20
75.95444503286929
 30
0.0
 10
40.7097879973651
 20
75.93589003779356
 30
0.0
 10
40.86328426602164
 20
75.89203731534707
 30
0.0
 10
40.95309924141533
 20
75.86669270839485
 30
0.0
 10
41.25507803646621
 20
75.78329063064477
 30
0.0
 10
41.50103147052195
 20
75.71742507149366
 30
0.0
 10
41.93639864995033
 20
75.60845473100188
 30
0.0
 10
42.09361383212268
 20
75.57021509523523
 30
0.0
 10
42.42577845266513
 20
75.49245635781587
 30
0.0
 10
42.60058571826801
 20
75.45295539564053
 30
0.0
 10
43.15064490885384
 20
75.33404765327454
 30
0.0
 10
43.55126829324931
 20
75.25422997184991
 30
0.0
 10
44.42385440459802
 20
75.10088681005385
 30
0.0
 10
44.88398985219959
 20
75.02955305678461
 30
0.0
 10
45.60395594616577
 20
74.93560954970998
 30
0.0
 10
45.84922965620029
 20
74.90641575635004
 30
0.0
 10
46.35068599262912
 20
74.85294918208663
 30
0.0
 10
46.60811736200165
 20
74.82858984781146
 30
0.0
 10
47.38405715786615
 20
74.76499970236674
 30
0.0
 10
47.90828555777217
 20
74.73489676727746
 30
0.0
 10
48.43963973245599
 20
74.71801987428053
 30
0.0
  0
SPLINE
  5
234
330
1F
100
AcDbEntity
  8
0
  6
Continuous
 62
     7
370
    15
100
AcDbSpline
210
0.0
220
0.0
230
1.0
 70
     8
 71
     3
 72
    50
 73
    46
 74
     0
 42
0.00000001
 43
0.00000001
 12
1.0
 22
0.0
 32
0.0
 13
1.0
 23
0.0
 33
0.0
 40
0.0
 40
0.0
 40
0.0
 40
0.0
 40
0.0624999999999995
 40
0.0624999999999995
 40
0.0937499999999993
 40
0.0937499999999993
 40
0.1249999999999991
 40
0.1249999999999991
 40
0.1874999999999989
 40
0.1874999999999989
 40
0.2187499999999988
 40
0.2187499999999988
 40
0.2499999999999987
 40
0.2499999999999987
 40
0.3124999999999988
 40
0.3124999999999988
 40
0.3749999999999988
 40
0.3749999999999988
 40
0.4062499999999989
 40
0.4062499999999989
 40
0.437499999999999
 40
0.437499999999999
 40
0.499999999999999
 40
0.499999999999999
 40
0.562499999999999
 40
0.562499999999999
 40
0.624999999999999
 40
0.624999999999999
 40
0.6562499999999991
 40
0.6562499999999991
 40
0.6874999999999991
 40
0.6874999999999991
 40
0.7187499999999992
 40
0.7187499999999992
 40
0.7499999999999992
 40
0.7499999999999992
 40
0.8124999999999994
 40
0.8124999999999994
 40
0.8749999999999996
 40
0.8749999999999996
 40
0.9374999999999997
 40
0.9374999999999997
 40
0.9687499999999998
 40
0.9687499999999998
 40
1.0
 40
1.0
 40
1.0
 40
1.0
 10
41.43963973245599
 20
136.6693383303071
 30
0.0
 10
41.43963973245599
 20
136.6693383303071
 30
0.0
 10
41.49193387440906
 20
136.6832044336883
 30
0.0
 10
41.64528640924181
 20
136.7226415765723
 30
0.0
 10
41.70898390459303
 20
136.7388942788373
 30
0.0
 10
41.86207555488284
 20
136.7772429886877
 30
0.0
 10
41.95173165684366
 20
136.7993964350958
 30
0.0
 10
42.25331304501771
 20
136.8721523809578
 30
0.0
 10
42.49905447545168
 20
136.9294330838025
 30
0.0
 10
42.93421454180235
 20
137.0234255232583
 30
0.0
 10
43.09135536926352
 20
137.0562844904515
 30
0.0
 10
43.42399446198783
 20
137.1228605438997
 30
0.0
 10
43.59906041742786
 20
137.1565039817386
 30
0.0
 10
44.14991594812947
 20
137.2570648463157
 30
0.0
 10
44.55110035731612
 20
137.3236276560658
 30
0.0
 10
45.42458956340352
 20
137.4483267113654
 30
0.0
 10
45.88663015638595
 20
137.504849720436
 30
0.0
 10
46.60774556997987
 20
137.5755186550508
 30
0.0
 10
46.85330620766326
 20
137.5967948651223
 30
0.0
 10
47.35509450682144
 20
137.6341005913642
 30
0.0
 10
47.61285572313811
 20
137.6501917882242
 30
0.0
 10
48.38796818735788
 20
137.6888332598319
 30
0.0
 10
48.90839737107756
 20
137.7020226783883
 30
0.0
 10
49.95653321186293
 20
137.7022614018464
 30
0.0
 10
50.4890415422367
 20
137.6888613991422
 30
0.0
 10
51.51673180440329
 20
137.6377974109471
 30
0.0
 10
52.01649598498503
 20
137.6003582761929
 30
0.0
 10
52.74499098500549
 20
137.5291947932744
 30
0.0
 10
52.98434197745097
 20
137.5029263350819
 30
0.0
 10
53.44558044893784
 20
137.4472448623297
 30
0.0
 10
53.66884710400511
 20
137.4177070903937
 30
0.0
 10
54.10103471002718
 20
137.3560999453661
 30
0.0
 10
54.30995529026715
 20
137.3240290026448
 30
0.0
 10
54.71338021579086
 20
137.2582120256754
 30
0.0
 10
54.90885987576023
 20
137.2242818072122
 30
0.0
 10
55.46471808929646
 20
137.122853179632
 30
0.0
 10
55.79427547592803
 20
137.0559341509419
 30
0.0
 10
56.37367097371398
 20
136.9309085886001
 30
0.0
 10
56.62519094515835
 20
136.872331794366
 30
0.0
 10
57.02664544177192
 20
136.7754969427211
 30
0.0
 10
57.17912843731903
 20
136.7367419831619
 30
0.0
 10
57.33443938649427
 20
136.6968144527256
 30
0.0
 10
57.37395283390042
 20
136.6865226614751
 30
0.0
 10
57.42646618119619
 20
136.6728064489361
 30
0.0
 10
57.439639732456
 20
136.6693383303071
 30
0.0
 10
57.439639732456
 20
136.6693383303071
 30
0.0
  0
SPLINE
  5
235
330
1F
100
AcDbEntity
  8
0
  6
Continuous
 62
     7
370
    15
100
AcDbSpline
210
0.0
220
0.0
230
1.0
 70
     8
 71
     3
 72
    20
 73
    16
 74
     0
 42
0.00000001
 43
0.00000001
 12
1.0
 22
0.0
 32
0.0
 13
1.0
 23
0.0
 33
0.0
 40
0.0
 40
0.0
 40
0.0
 40
0.0
 40
0.2500000000000005
 40
0.2500000000000005
 40
0.3750000000000004
 40
0.3750000000000004
 40
0.5000000000000003
 40
0.5000000000000003
 40
0.6250000000000002
 40
0.6250000000000002
 40
0.7500000000000001
 40
0.7500000000000001
 40
0.8750000000000001
 40
0.8750000000000001
 40
1.0
 40
1.0
 40
1.0
 40
1.0
 10
24.98095007008856
 20
126.0521428571429
 30
0.0
 10
25.51160683792323
 20
126.7060052854403
 30
0.0
 10
26.04533483418477
 20
127.3097910674374
 30
0.0
 10
26.82830715217352
 20
128.136629803606
 30
0.0
 10
27.08629075227019
 20
128.3990584415589
 30
0.0
 10
27.59068600867801
 20
128.8957210956638
 30
0.0
 10
27.83346443110601
 20
129.1263079746854
 30
0.0
 10
28.28414451061908
 20
129.542862199268
 30
0.0
 10
28.49360837661035
 20
129.7303600012355
 30
0.0
 10
28.87189689319839
 20
130.0617569788719
 30
0.0
 10
29.03564457938288
 20
130.2012609663672
 30
0.0
 10
29.30383038158232
 20
130.4267144738382
 30
0.0
 10
29.40905478966907
 20
130.5133405853818
 30
0.0
 10
29.55311401498258
 20
130.6313213742359
 30
0.0
 10
29.58963973245597
 20
130.6608325195103
 30
0.0
 10
29.58963973245598
 20
130.6608325195103
 30
0.0
  0
ARC
  5
236
330
1F
100
AcDbEntity
  8
0
  6
Continuous
 62
     7
370
    15
100
AcDbCircle
 10
49.4396397325
 20
106.2021428571
 30
0.0
 40
31.50000000000003
100
AcDbArc
 50
268.180780706
 51
271.819219294
  0
CIRCLE
  5
237
330
1F
100
AcDbEntity
  8
VERMASSUNG
  6
CENTERX2
100
AcDbCircle
 10
49.4354525897
 20
108.1422639283
 30
0.0
 40
20.00000000000001
  0
POINT
  5
238
330
1F
100
AcDbEntity
  8
VERMASSUNG
100
AcDbPoint
 10
49.4354525897
 20
128.1422639283
 30
0.0
  0
DIMENSION
  5
239
330
1F
100
AcDbEntity
  8
VERMASSUNG
100
AcDbDimension
  2
_D_5
 10
13.326209264
 20
128.1422639283
 30
0.0
 11
13.326209264
 21
108.1422639283
 31
0.0
 70
   160
  1
%%c<>
 71
     2
 42
-1.0
  3
SLDDIMSTYLE0
100
AcDbAlignedDimension
 13
49.4354525897
 23
88.1422639283
 33
0.0
 14
49.4354525897
 24
128.1422639283
 34
0.0
 50
90.0
100
AcDbRotatedDimension
  0
INSERT
  5
24F
330
1F
100
AcDbEntity
  8
VERMASSUNG
100
AcDbBlockReference
  2
SW_CENTERMARKSYMBOL_0
 10
49.4396397325
 20
106.2021428571
 30
0.0
  0
OLE2FRAME
  5
250
330
1F
100
AcDbEntity
  8
0
100
AcDbOle2Frame
 70
     2
  3
Paintbrush-Bild
 10
13.8511154363
 20
38.264191557
 30
0.0
 11
51.6290888628
 21
31.9806341108
 31
0.0
 71
     2
 72
     0
 73
     1
 90
    12928
310
80552BED0767C5B32B40DDAF6807D121434000000000000000006FFBDDFB85D0
310
4940DDAF6807D121434000000000000000006FFBDDFB85D04940416F4BD60AFB
310
3F4000000000000000002BED0767C5B32B40416F4BD60AFB3F40000000000000
310
0000000000000100000000010000010000000100000000000100000000320000
310
D0CF11E0A1B11AE1000000000000000000000000000000003E000300FEFF0900
310
0600000000000000000000000100000001000000000000000010000002000000
310
01000000FEFFFFFF0000000000000000FFFFFFFFFFFFFFFFFFFFFFFFFFFFFFFF
310
FFFFFFFFFFFFFFFFFFFFFFFFFFFFFFFFFFFFFFFFFFFFFFFFFFFFFFFFFFFFFFFF
310
FFFFFFFFFFFFFFFFFFFFFFFFFFFFFFFFFFFFFFFFFFFFFFFFFFFFFFFFFFFFFFFF
310
FFFFFFFFFFFFFFFFFFFFFFFFFFFFFFFFFFFFFFFFFFFFFFFFFFFFFFFFFFFFFFFF
310
FFFFFFFFFFFFFFFFFFFFFFFFFFFFFFFFFFFFFFFFFFFFFFFFFFFFFFFFFFFFFFFF
310
FFFFFFFFFFFFFFFFFFFFFFFFFFFFFFFFFFFFFFFFFFFFFFFFFFFFFFFFFFFFFFFF
310
FFFFFFFFFFFFFFFFFFFFFFFFFFFFFFFFFFFFFFFFFFFFFFFFFFFFFFFFFFFFFFFF
310
FFFFFFFFFFFFFFFFFFFFFFFFFFFFFFFFFFFFFFFFFFFFFFFFFFFFFFFFFFFFFFFF
310
FFFFFFFFFFFFFFFFFFFFFFFFFFFFFFFFFFFFFFFFFFFFFFFFFFFFFFFFFFFFFFFF
310
FFFFFFFFFFFFFFFFFFFFFFFFFFFFFFFFFFFFFFFFFFFFFFFFFFFFFFFFFFFFFFFF
310
FFFFFFFFFFFFFFFFFFFFFFFFFFFFFFFFFFFFFFFFFFFFFFFFFFFFFFFFFFFFFFFF
310
FFFFFFFFFFFFFFFFFFFFFFFFFFFFFFFFFFFFFFFFFFFFFFFFFFFFFFFFFFFFFFFF
310
FFFFFFFFFFFFFFFFFFFFFFFFFFFFFFFFFFFFFFFFFFFFFFFFFFFFFFFFFFFFFFFF
310
FFFFFFFFFFFFFFFFFFFFFFFFFFFFFFFFFFFFFFFFFFFFFFFFFFFFFFFFFFFFFFFF
310
FDFFFFFFFEFFFFFFFEFFFFFFFEFFFFFF05000000060000000700000008000000
310
090000000A0000000B0000000C0000000D0000000E0000000F00000010000000
310
11000000120000001300000014000000150000001600000017000000FEFFFFFF
310
FFFFFFFFFFFFFFFFFFFFFFFFFFFFFFFFFFFFFFFFFFFFFFFFFFFFFFFFFFFFFFFF
310
FFFFFFFFFFFFFFFFFFFFFFFFFFFFFFFFFFFFFFFFFFFFFFFFFFFFFFFFFFFFFFFF
310
FFFFFFFFFFFFFFFFFFFFFFFFFFFFFFFFFFFFFFFFFFFFFFFFFFFFFFFFFFFFFFFF
310
FFFFFFFFFFFFFFFFFFFFFFFFFFFFFFFFFFFFFFFFFFFFFFFFFFFFFFFFFFFFFFFF
310
FFFFFFFFFFFFFFFFFFFFFFFFFFFFFFFFFFFFFFFFFFFFFFFFFFFFFFFFFFFFFFFF
310
FFFFFFFFFFFFFFFFFFFFFFFFFFFFFFFFFFFFFFFFFFFFFFFFFFFFFFFFFFFFFFFF
310
FFFFFFFFFFFFFFFFFFFFFFFFFFFFFFFFFFFFFFFFFFFFFFFFFFFFFFFFFFFFFFFF
310
FFFFFFFFFFFFFFFFFFFFFFFFFFFFFFFFFFFFFFFFFFFFFFFFFFFFFFFFFFFFFFFF
310
FFFFFFFFFFFFFFFFFFFFFFFFFFFFFFFFFFFFFFFFFFFFFFFFFFFFFFFFFFFFFFFF
310
FFFFFFFFFFFFFFFFFFFFFFFFFFFFFFFFFFFFFFFFFFFFFFFFFFFFFFFFFFFFFFFF
310
FFFFFFFFFFFFFFFFFFFFFFFFFFFFFFFFFFFFFFFFFFFFFFFFFFFFFFFFFFFFFFFF
310
FFFFFFFFFFFFFFFFFFFFFFFFFFFFFFFFFFFFFFFFFFFFFFFFFFFFFFFFFFFFFFFF
310
FFFFFFFFFFFFFFFFFFFFFFFFFFFFFFFFFFFFFFFFFFFFFFFFFFFFFFFFFFFFFFFF
310
52006F006F007400200045006E00740072007900000000000000000000000000
310
0000000000000000000000000000000000000000000000000000000000000000
310
16000500FFFFFFFFFFFFFFFF020000000A00030000000000C000000000000046
310
000000000000000000000000B08B77C4A423CD0103000000C000000000000000
310
01004F006C006500000000000000000000000000000000000000000000000000
310
0000000000000000000000000000000000000000000000000000000000000000
310
0A000200FFFFFFFFFFFFFFFFFFFFFFFF00000000000000000000000000000000
310
0000000000000000000000000000000000000000000000001400000000000000
310
010043006F006D0070004F0062006A0000000000000000000000000000000000
310
0000000000000000000000000000000000000000000000000000000000000000
310
120002010100000003000000FFFFFFFF00000000000000000000000000000000
310
0000000000000000000000000000000000000000010000004D00000000000000
310
01004F006C006500310030004E00610074006900760065000000000000000000
310
0000000000000000000000000000000000000000000000000000000000000000
310
1A000200FFFFFFFFFFFFFFFFFFFFFFFF00000000000000000000000000000000
310
0000000000000000000000000000000000000000040000002426000000000000
310
FEFFFFFF02000000FEFFFFFFFFFFFFFFFFFFFFFFFFFFFFFFFFFFFFFFFFFFFFFF
310
FFFFFFFFFFFFFFFFFFFFFFFFFFFFFFFFFFFFFFFFFFFFFFFFFFFFFFFFFFFFFFFF
310
FFFFFFFFFFFFFFFFFFFFFFFFFFFFFFFFFFFFFFFFFFFFFFFFFFFFFFFFFFFFFFFF
310
FFFFFFFFFFFFFFFFFFFFFFFFFFFFFFFFFFFFFFFFFFFFFFFFFFFFFFFFFFFFFFFF
310
FFFFFFFFFFFFFFFFFFFFFFFFFFFFFFFFFFFFFFFFFFFFFFFFFFFFFFFFFFFFFFFF
310
FFFFFFFFFFFFFFFFFFFFFFFFFFFFFFFFFFFFFFFFFFFFFFFFFFFFFFFFFFFFFFFF
310
FFFFFFFFFFFFFFFFFFFFFFFFFFFFFFFFFFFFFFFFFFFFFFFFFFFFFFFFFFFFFFFF
310
FFFFFFFFFFFFFFFFFFFFFFFFFFFFFFFFFFFFFFFFFFFFFFFFFFFFFFFFFFFFFFFF
310
FFFFFFFFFFFFFFFFFFFFFFFFFFFFFFFFFFFFFFFFFFFFFFFFFFFFFFFFFFFFFFFF
310
FFFFFFFFFFFFFFFFFFFFFFFFFFFFFFFFFFFFFFFFFFFFFFFFFFFFFFFFFFFFFFFF
310
FFFFFFFFFFFFFFFFFFFFFFFFFFFFFFFFFFFFFFFFFFFFFFFFFFFFFFFFFFFFFFFF
310
FFFFFFFFFFFFFFFFFFFFFFFFFFFFFFFFFFFFFFFFFFFFFFFFFFFFFFFFFFFFFFFF
310
FFFFFFFFFFFFFFFFFFFFFFFFFFFFFFFFFFFFFFFFFFFFFFFFFFFFFFFFFFFFFFFF
310
FFFFFFFFFFFFFFFFFFFFFFFFFFFFFFFFFFFFFFFFFFFFFFFFFFFFFFFFFFFFFFFF
310
FFFFFFFFFFFFFFFFFFFFFFFFFFFFFFFFFFFFFFFFFFFFFFFFFFFFFFFFFFFFFFFF
310
FFFFFFFFFFFFFFFFFFFFFFFFFFFFFFFFFFFFFFFFFFFFFFFFFFFFFFFFFFFFFFFF
310
0100000200000000000000000000000000000000000000000000000000000000
310
0000000000000000000000000000000000000000000000000000000000000000
310
0100FEFF030A0000FFFFFFFF0A00030000000000C00000000000004607000000
310
5042727573680007000000504272757368000700000050427275736800F439B2
310
7100000000000000000000000000000000000000000000000000000000000000
310
0000000000000000000000000000000000000000000000000000000000000000
310
0000000000000000000000000000000000000000000000000000000000000000
310
0000000000000000000000000000000000000000000000000000000000000000
310
0000000000000000000000000000000000000000000000000000000000000000
310
0000000000000000000000000000000000000000000000000000000000000000
310
0000000000000000000000000000000000000000000000000000000000000000
310
0000000000000000000000000000000000000000000000000000000000000000
310
0000000000000000000000000000000000000000000000000000000000000000
310
0000000000000000000000000000000000000000000000000000000000000000
310
0000000000000000000000000000000000000000000000000000000000000000
310
0000000000000000000000000000000000000000000000000000000000000000
310
20260000424D0E260000000000003E00000028000000B40200006E0000000100
310
01000000000000000000130B0000130B00000200000002000000000000FFFFFF
310
FFFFFFFFFFFFFFFFFFFFFFFFFFFFFFFFFFFFFFFFFFFFFFFFFFFFFFFFFFFFFFFF
310
FFFFFFFFFFFFFFFFFFFFFFFFFFFFFFFFFFFFFFFFFFFFFFFFFFFFFFFFFFFFFFFF
310
FFFFFFFFFFFFFFFFFFFFFFFFFFFFFFFFFFFFFFFFFFFFFFFFF000FFFFFFFFFFFF
310
FFFFFFFFFFFFFFFFFFFFFFFFFFFFFFFFFFFFFFFFFFFFFFFFFFFFFFFFFFFFFFFF
310
FFFFFFFFFFFFFFFFFFFFFFFFFFFFFFFFFFFFFFFFFFFFFFFFFFFFFFFFFFFFFFFF
310
FFFFFFFFFFFFFFFFFFFFFFFFFFFFFFFFF000FFFFFFFFFFFFFFFFFFFFFFFFFFFF
310
FFFFFFFFFFFFFFFFFFFFFFFFFFFFFFFFFFFFFFFFFFFFFFFFFFFFFFFFFFFFFFFF
310
FFFFFFFFFFFFFFFFFFFFFFFFFFFFFFFFFFFFFFFFFFFFFFFFFFFFFFFFFFFFFFFF
310
FFFFFFFFFFFFFFFFF000FFFFFFFFFFFFFFFFFFFFFFFFFFFFFFFFFFFFFFFFFFFF
310
FFFFFFFFFFFFFFFFFFFFFFFFFFFFFFFFFFFFFFFFFFFFFFFFFFFFFFFFFFFFFFFF
310
FFFFFFFFFFFFFFFFFFFFFFFFFFFFFFFFFFFFFFFFFFFFFFFFFFFFFFFFFFFFFFFF
310
F000FFFFFFFFFFFFFFFFFFFFFFFFFFFFFFFFFFFFFFFFFFFFFFFFFFFFFFFFFFFF
310
FFFFFFFFFFFFFFFFFFFFFFFFFFFFFFFFFFFFFFFFFFFFFFFFFFFFFFFFFFFFFFFF
310
FFFFFFFFFFFFFFFFFFFFFFFFFFFFFFFFFFFFFFFFFFFFFFFFF000FFFFFFFFFFFF
310
FFFFFFFFFFFFFFFFFFFFFFFFFFFFFFFFFFFFFFFFFFFFFFFFFFFFFFFFFFFFFFFF
310
FFFFFFFFFFFFFFFFFFFFFFFFFFFFFFFFFFFFFFFFFFFFFFFFFFFFFFFFFFFFFFFF
310
FFFFFFFFFFFFFFFFFFFFFFFFFFFFFFFFF000FFFFFFFFFFFFFFFFFFFFFFFFFFFF
310
FFFFFFFFFFFFFFFFFFFFFFFFFFFFFFFFFFFFFFFFFFFFFFFFFFFFFFFFFFFFFFFF
310
FFFFFFFFFFFFFFFFFFFFFFFFFFFFFFFFFFFFFFFFFFFFFFFFFFFFFFFFFFFFFFFF
310
FFFFFFFFFFFFFFFFF000FFFFFFFFFFFFFFFFFFFFFFFFFFFFFFFFFFFFFFFFFFFF
310
FFFFFFFFFFFFFFFFFFFFFFFFFFFFFFFFFFFFFFFFFFFFFFFFFFFFFFFFFFFFFFFF
310
FFFFFFFFFFFFFFFFFFFFFFFFFFFFFFFFFFFFFFFFFFFFFFFFFFFFFFFFFFFFFFFF
310
F000FFFFFFFFFFFFFFFFFFFFFFFFFFFFFFFFFFFFFFFFFFFFFFFFFFFFFFFFFFFF
310
FFFFFFFFFFFFFFFFFFFFFFFFFFFFFFFFFFFFFFFFFFFFFFFFFFFFFFFFFFFFFFFF
310
FFFFFFFFFFFFFFFFFFFFFFFFFFFFFFFFFFFFFFFFFFFFFFFFF000FFFFFFFFFFFF
310
FFFFFFFFFFFFFFFFFFFFFFFFFFFFFFFFFFFFFFFFFFFFFFFFFFFFFFFFFFFFFFFF
310
FFFFFFFFFFFFFFFFFFFFFFFFFFFFFFFFFFFFFFFFFFFFFFFFFFFFFFFFFFFFFFFF
310
FFFFFFFFFFFFFFFFFFFFFFFFFFFFFFFFF000FFFFFFFFFFFFFFFFFFFFFFFFFFFF
310
FFFFFFFFFFFFFFFFFFFFFFFFFFFFFFFFFFFFFFFFFFFFFFFFFFFFFFFFFFFFFFFF
310
FFFFFFFFFFFFFFFFFFFFFFFFFFFFFFFFFFFFFFFFFFFFFFFFFFFFFFFFFFFFFFFF
310
FFFFFFFFFFFFFFFFF000FFFFFFFFFFFFFFFFFFFFFFFFFFFFFFFFFFFFFFFFFFFF
310
FFFFFFFFFFFFFFFFFFFFFFFFFFFFFFFFFFFFFFFFFFFFFFFFFFFFFFFFFFFFFFFF
310
FFFFFFFFFFFFFFFFFFFFFFFFFFFFFFFFFFFFFFFFFFFFFFFFFFFFFFFFFFFFFFFF
310
F000FFFFFFFFFFFFFFFFFFFFFFFFFFFFFFFFFFFFFFFFFFFFFFFFFFFFFFFFFFFF
310
FFFFFFFFFFFFFFFFFFFFFFFFFFFFFFFFFFFFFFFFFFFFFFFFFFFFFFFFFFFFFFFF
310
FFFFFFFFFFFFFFFFFFFFFFFFFFFFFFFFFFFFFFFFFFFFFFFFF000FFFFFFFFFFFF
310
FFFFFFFFFFFFFFFFFFFFFFFFFFFFFFFFFFFFFFFFFFFFFFFFFFFFFFFFFFFFFFFF
310
FFFFFFFFFFFFFFFFFFFFFFFFFFFFFFFFFFFFFFFFFFFFFFFFFFFFFFFFFFFFFFFF
310
FFFFFFFFFFFFFFFFFFFFFFFFFFFFFFFFF000FFFFFFFFFFFFFFFFFFFFFFFFFFFF
310
FFFFFFFFFFFFFFFFFFFFFFFFFFFFFFFFFFFFFFFFFFFFFFFFFFFFFFFFFFFFFFFF
310
FFFFFFFFFFFFFFFFFFFFFFFFFFFFFFFFFFFFFFFFFFFFFFFFFFFFFFFFFFFFFFFF
310
FFFFFFFFFFFFFFFFF000FFFFFFFFFFFFFFFFFFFFFFFFFFFFFFFFFFFFFFFFFFFF
310
FFFFFFFFFFFFFFFFFFFFFFFFFFFFFFFFFFFFFFFFFFFFFFFFFFFFFFFFFFFFFFFF
310
FFFFFFFFFFFFFFFFFFFFFFFFFFFFFFFFFFFFFFFFFFFFFFFFFFFFFFFFFFFFFFFF
310
F000FFFFFFFFFFFFFFFFFFFFFFFFFFFFFFFFFFFFFFFFFFFFFFFFFFFFFFFFFFFF
310
FFFFFFFFFFFFFFFFFFFFFFFFFFFFFFFFFFFFFFFFFFFFFFFFFFFFFFFFFFFFFFFF
310
FFFFFFFFFFFFFFFFFFFFFFFFFFFFFFFFFFFFFFFFFFFFFFFFF000FFFFFFFFFFFF
310
FFFFFFFFFFFFFFFFFFFFFFFFFFFFFFFFFFFFFFFFFFFFFFFFFFFFFFFFFFFFFFFF
310
FFFFFFFFFFFFFFFFFFFFFFFFFFFFFFFFFFFFFFFFFFFFFFFFFFFFFFFFFFFFFFFF
310
FFFFFFFFFFFFFFFFFFFFFFFFFFFFFFFFF000FFFFFFFFFFFFFFFFFFFFFFFFFFFF
310
FFFFFFFFFFFFFFFFFFFFFFFFFFFFFFFFFFFFFFFFFFFFFFFFFFFFFFFFFFFFFFFF
310
FFFFFFFFFFFFFFFFFFFFFFFFFFFFFFFFFFFFFFFFFFFFFFFFFFFFFFFFFFFFFFFF
310
FFFFFFFFFFFFFFFFF000FFFFF80003FFFFFFFFFFFFFFFFFFFFFFFFFFFFFFFFFF
310
FFFFF00007FFFFFFFFFF00007FFFFFF800000000000000007FFFFFFFFFFFFFFF
310
FFFFFFFC001FFFFFFFFFFFFFFC001FFFFFFFFFFFFFFFFFFFFFFFFFFE0007FFFF
310
F000FFFF8000007FFFFFFFF8000FFFFFC0007FFFFF80007FFFFF0000007FFFFF
310
FFF8000007FFFFF800000000000000007FFFFFF0001FFFFFFFFFFFC00001FFFF
310
FFFFFFFFC00001FFFFFFFF000000000003FFFFE000007FFFF000FFFE0000000F
310
FFFFFFF0000FFFFF80007FFFFF80007FFFFC0000001FFFFFFFC0000001FFFFF8
310
00000000000000007FFFFFF0001FFFFFFFFFFE0000003FFFFFFFFFFE0000003F
310
FFFFFF000000000003FFFF0000000FFFF000FFF800000003FFFFFFF00007FFFF
310
80007FFFFF80007FFFF000000007FFFFFF000000003FFFF80000000000000000
310
7FFFFFF0001FFFFFFFFFF80000000FFFFFFFFFF80000000FFFFFFF0000000000
310
03FFFC00000003FFF000FFE000000000FFFFFFF00007FFFF80003FFFFF80007F
310
FFC000000001FFFFFC000000001FFFF800000000000000007FFFFFF0001FFFFF
310
FFFFE000000003FFFFFFFFE000000003FFFFFF000000000003FFF000000000FF
310
F000FF80000000007FFFFFF00007FFFF80003FFFFF80007FFF8000000000FFFF
310
F80000000007FFF800000000000000007FFFFFF0001FFFFFFFFFC000000001FF
310
FFFFFFC000000001FFFFFF000000000003FFC0000000007FF000FF0000000000
310
3FFFFFE00007FFFF00003FFFFF80007FFE00000000003FFFF00000000003FFF8
310
00000000000000007FFFFFF0001FFFFFFFFF8000000000FFFFFFFF8000000000
310
FFFFFF000000000003FF80000000003FF000FE00000000001FFFFFE00003FFFF
310
00003FFFFF80007FFC00000000001FFFE00000000001FFF8000001FFFE000000
310
7FFFFFF0001FFFFFFFFE00000000003FFFFFFE00000000003FFFFF0000000000
310
03FF00000000001FF000FC00000000000FFFFFE00003FFFF00001FFFFF80007F
310
F800000000001FFFC00000000000FFF8000001FFFE0000007FFFFFF0001FFFFF
310
FFFC00000000001FFFFFFC00000000001FFFFF000000000003FE00000000000F
310
F000F8000000000007FFFFE00003FFFF00001FFFFF80007FF800000000000FFF
310
800000000000FFF8000001FFFE0000007FFFFFF0001FFFFFFFF800000000000F
310
FFFFF800000000000FFFFF000000000003FC000000000007F000F80000000000
310
03FFFFC00003FFFE00001FFFFF80007FF0000000000007FF0000000000007FF8
310
000001FFFE0000007FFFFFF0001FFFFFFFF0000000000007FFFFF00000000000
310
07FFFF000000000003F8000000000003F000F0000000000003FFFFC00001FFFE
310
00001FFFFF80007FE0000000000007FE0000000000003FF8000001FFFE000000
310
7FFFFFF0001FFFFFFFF0000000000007FFFFF0000000000007FFFF0000000000
310
03F800001F800003F000E00001FFF00001FFFFC00001FFFE00000FFFFF80007F
310
E00001FFE00003FE00001FFF00003FF8000001FFFE0000007FFFFFF0001FFFFF
310
FFE000003E000003FFFFE000003E000003FFFF000000000003F00001FFF80001
310
F000E00007FFFC0001FFFFC00001FFFE00000FFFFF80007FC0000FFFFC0003FC
310
0000FFFFC0001FF8000001FFFE0000007FFFFFF0001FFFFFFFC00003FFE00001
310
FFFFC00003FFE00001FFFF0001FFFFFFFFF00007FFFE0001F000E0000FFFFF00
310
00FFFF800001FFFC00000FFFFF80007FC0001FFFFE0001FC0001FFFFE0001FF8
310
000001FFFE0000007FFFFFF0001FFFFFFF80000FFFF80000FFFF80000FFFF800
310
00FFFF0003FFFFFFFFE0000FFFFF8000F000C0003FFFFF8000FFFF800000FFFC
310
000007FFFF80007F80003FFFFF0001FC0003FFFFF0001FF8000001FFFE000000
310
7FFFFFF0001FFFFFFF80003FFFFE0000FFFF80003FFFFE0000FFFF0003FFFFFF
310
FFE0003FFFFF8000F000C0003FFFFF8000FFFF800000FFFC000007FFFF80007F
310
80007FFFFF8001F80007FFFFF8000FF8000001FFFE0000007FFFFFF0001FFFFF
310
FF00007FFFFF00007FFF00007FFFFF00007FFF0003FFFFFFFFE0003FFFFFC000
310
F000C0007FFFFFC000FFFF000000FFFC000007FFFF80007F8000FFFFFF8000F8
310
000FFFFFF8000FF8000001FFFE0000007FFFFFF0001FFFFFFF0000FFFFFF8000
310
7FFF0000FFFFFF80007FFF0003FFFFFFFFC0007FFFFFC00070008000FFFFFFC0
310
00FFFF000000FFF8000007FFFF80007F8000FFFFFF8000F8000FFFFFF8000FF8
310
000001FFFE0000007FFFFFF0001FFFFFFE0001FFFFFFC0003FFE0001FFFFFFC0
310
003FFF0003FFFFFFFFC0007FFFFFE00070008000FFFFFFC0007FFF0000007FF8
310
000003FFFF80007F0001FFFFFF8000F8000FFFFFF8000FF8000001FFFE000000
310
7FFFFFF0001FFFFFFE0001FFFFFFC0003FFE0001FFFFFFC0003FFF0003FFFFFF
310
FFC000FFFFFFE00070008000FFFFFFC0007FFF0000007FF8000003FFFF80007F
310
0001FFFFFF8000F8001FFFFFF8000FF8000001FFFE0000007FFFFFF0001FFFFF
310
FE0003FFFFFFE0003FFE0003FFFFFFE0003FFF0003FFFFFFFFC000FFFFFFE000
310
70008000FFFFFFC0007FFE0000007FF8000003FFFF80007F0001FFFFFF8000F0
310
001FFFFFF8000FF8000001FFFE0000007FFFFFF0001FFFFFFC0003FFFFFFE000
310
1FFC0003FFFFFFE0001FFF0003FFFFFFFFC000FFFFFFC00070008000FFFFFF80
310
007FFE0000007FF0000003FFFF80007F0001FFFFFF0000F0001FFFFFF8000FF8
310
000001FFFE0000007FFFFFF0001FFFFFFC0007FFFFFFF0001FFC0007FFFFFFF0
310
001FFF0003FFFFFFFFC000FFFFFFC00070008001FFFFFF0000FFFE0000003FF0
310
000001FFFF80007F0001FFFFFF0000F8001FFFFFF0000FF8000001FFFE000000
310
7FFFFFF0001FFFFFFC0007FFFFFFF0001FFC0007FFFFFFF0001FFF0003FFFFFF
310
FFC001FFFFFF80007000FFFFFFFFFE0000FFFE0008003FF0008001FFFF80007F
310
FFFFFFFFFC0000FFFFFFFFFFE0000FF8000001FFFE0000007FFFFFF0001FFFFF
310
F8000FFFFFFFF8000FF8000FFFFFFFF8000FFF0003FFFFFFFFFFFFFFFFFF0000
310
7000FFFFFFFFFC0000FFFC0008003FF0008001FFFF80007FFFFFFFFFF80001FF
310
FFFFFFFF80000FF8000001FFFE0000007FFFFFF0001FFFFFF8000FFFFFFFF800
310
0FF8000FFFFFFFF8000FFF0003FFFFFFFFFFFFFFFFFE0000F000FFFFFFFFE000
310
00FFFC000C003FE000C001FFFF80007FFFFFFFFFC00001FFFFFFFFFE00001FF8
310
000001FFFE0000007FFFFFF0001FFFFFF8000FFFFFFFF8000FF8000FFFFFFFF8
310
000FFF0003FFFFFFFFFFFFFFFFF00000F000FFFFFFFE000001FFFC000C001FE0
310
00C000FFFF80007FFFFFFFFE000001FFFFFFFFE000001FF80FFFFFFFFFFFFFC0
310
7FFFFFF0001FFFFFF8000FFFFFFFF8000FF8000FFFFFFFF8000FFF0003FFFFFF
310
FFFFFFFFFF800000F000FFFFFFC0000001FFFC001C001FE001C000FFFF80007F
310
FFFFFF80000003FFFFFFF80000001FF80FFFFFFFFFFFFFC07FFFFFF0001FFFFF
310
F8001FFFFFFFFC000FF8001FFFFFFFFC000FFF0003FFFFFFFFFFFFFFF0000001
310
F000FFFFF800000001FFF8001C001FE001C000FFFF80007FFFFFF800000003FF
310
FFFF800000003FF80FFFFFFFFFFFFFC07FFFFFF0001FFFFFF8001FFFFFFFFC00
310
0FF8001FFFFFFFFC000FFF0003FFFFFFFFFFFFFE00000001F000FFFFC0000000
310
03FFF8001E001FC001E000FFFF80007FFFFF8000000007FFFFFC000000003FF8
310
0FFFFFFFFFFFFFC07FFFFFF0001FFFFFF8001FFFFFFFFC000FF8001FFFFFFFFC
310
000FFF0003FFFFFFFFFFFFE000000003F000FFFE0000000007FFF8001E000FC0
310
01E0007FFF80007FFFFE0000000007FFFFE0000000007FF80FFFFFFFFFFFFFC0
310
7FFFFFF0001FFFFFF0001FFFFFFFFC0007F0001FFFFFFFFC0007FF0003FFFFFF
310
FFFFFF0000000003F000FFF80000000007FFF8001E000FC003E0007FFF80007F
310
FFF0000000000FFFFF8000000000FFF80FFFFFFFFFFFFFC07FFFFFF0001FFFFF
310
F0001FFFFFFFFC0007F0001FFFFFFFFC0007FF0003FFFFFFFFFFFC0000000007
310
F000FFE0000000000FFFF0003E000FC003E0007FFF80007FFFC0000000001FFF
310
FE0000000001FFF80FFFFFFFFFFFFFC07FFFFFF0001FFFFFF0001FFFFFFFFC00
310
07F0001FFFFFFFFC0007FF0003FFFFFFFFFFF0000000000FF000FFC000000000
310
1FFFF0003F000F8003F0003FFF80007FFF80000000003FFFF80000000003FFF8
310
0FFFFFFFFFFFFFC07FFFFFF0001FFFFFF0001FFFFFFFFC0007F0001FFFFFFFFC
310
0007FF0003FFFFFFFFFFE0000000001FF000FF00000000007FFFF0003F000780
310
03F0003FFF80007FFF00000000007FFFF00000000007FFF80FFFFFFFFFFFFFC0
310
7FFFFFF0001FFFFFF0001FFFFFFFFC0007F0001FFFFFFFFC0007FF0003FFFFFF
310
FFFF80000000007FF000FE0000000000FFFFE0003F00078007F0003FFF80007F
310
FE0000000001FFFFE0000000001FFFF80FFFFFFFFFFFFFC07FFFFFF0001FFFFF
310
F0001FFFFFFFFC0007F0001FFFFFFFFC0007FF0003FFFFFFFFFF0000000000FF
310
F000FC0000000003FFFFE0007F00078007F0003FFF80007FFC0000000007FFFF
310
C0000000007FFFF80FFFFFFFFFFFFFC07FFFFFF0001FFFFFF8001FFFFFFFFC00
310
0FF8001FFFFFFFFC000FFF0003FFFFFFFFFE0000000003FFF000FC000000000F
310
FFFFE0007F80070007F8001FFF80007FF8000000001FFFFF8000000001FFFFF8
310
0FFFFFFFFFFFFFC07FFFFFF0001FFFFFF8001FFFFFFFFC000FF8001FFFFFFFFC
310
000FFF0003FFFFFFFFFC000000000FFFF000F8000000007FFFFFE0007F800700
310
07F8001FFF80007FF000000000FFFFFF800000000FFFFFF80FFFFFFFFFFFFFC0
310
7FFFFFF0001FFFFFF8000FFFFFFFF8000FF8000FFFFFFFF8000FFF0003FFFFFF
310
FFFC000000007FFFF000F800000007FFFFFFC0007F8003000FF8001FFF80007F
310
F000000007FFFFFF000000007FFFFFF80FFFFFFFFFFFFFC07FFFFFF0001FFFFF
310
F8000FFFFFFFF8000FF8000FFFFFFFF8000FFF0003FFFFFFFFF80000000FFFFF
310
F000F0000000FFFFFFFFC000FF8003000FF8001FFF80007FE0000000FFFFFFFF
310
0000000FFFFFFFF8000001FFFE0000007FFFFFF0001FFFFFF8000FFFFFFFF800
310
0FF8000FFFFFFFF8000FFF0003FFFFFFFFF8000000FFFFFFF000F000000FFFFF
310
FFFFC000FFC002000FF8000FFF80007FE000001FFFFFFFFE000001FFFFFFFFF8
310
000001FFFE0000007FFFFFF0001FFFFFF8000FFFFFFFF8000FF8000FFFFFFFF8
310
000FFF0003FFFFFFFFF000001FFFFFFFF000E00000FFFFFFFFFFC000FFC00200
310
0FFC000FFF80007FE00001FFFFFFFFFE00001FFFFFFFFFF8000001FFFE000000
310
7FFFFFF0001FFFFFFC000FFFFFFFF8001FFC000FFFFFFFF8001FFF0003FFFFFF
310
FFF00001FFFFFFFFF000E00007FFFFFFFFFF8000FFC000001FFC000FFF80007F
310
C0000FFFFFFFFFFE0000FFFFFFFFFFF8000001FFFE0000007FFFFFF0001FFFFF
310
FC0007FFFFFFF0001FFC0007FFFFFFF0001FFF0003FFFFFFFFF00007FFFFFFFF
310
F000E0001FFFFFFFFFFF8000FFC000001FFC000FFF80007FC0003FFFFFFFFFFE
310
0001FFFFFFFFFFF8000001FFFE0000007FFFFFF0001FFFFFFC0007FFFFFFF000
310
1FFC0007FFFFFFF0001FFF0003FFFFFFFFF0001FFFFFFFFFF000E0003FFFFF00
310
03FF8001FFE000001FFC0007FF80007FC0007FFFFF0007FC0003FFFFF0003FF8
310
000001FFFE0000007FFFFFF0001FFFFFFC0003FFFFFFE0001FFC0003FFFFFFE0
310
001FFF0003FFFFFFFFF0003FFFFFFFFFF000E0003FFFFF0001FF8001FFE00000
310
1FFE0007FF80007FC0007FFFFE0003FC0007FFFFE0003FF8000001FFFE000000
310
7FFFFFF0001FFFFFFE0003FFFFFFE0003FFE0003FFFFFFE0003FFF0003FFFFFF
310
FFF0003FFFFF8001F000E0003FFFFF0001FF0001FFE000001FFE0007FF80007F
310
C0007FFFFE0003FC0007FFFFE0003FF8000001FFFE0000007FFFFFF0001FFFFF
310
FE0001FFFFFFC0003FFE0001FFFFFFC0003FFF0003FFFFFFFFF0003FFFFF0001
310
F000E0003FFFFF0003FF0001FFE000003FFE0007FF80007FC0007FFFFE0003FC
310
0007FFFFE0003FF8000001FFFE0000007FFFFFF0001FFFFFFF0001FFFFFFC000
310
7FFF0001FFFFFFC0007FFF0003FFFFFFFFF0003FFFFF0001F000E0003FFFFE00
310
03FF0003FFF000003FFE0003FF80007FC0007FFFFC0003FE0007FFFFE0003FF8
310
000001FFFE0000007FFFFFF0001FFFFFFF0000FFFFFF80007FFF0000FFFFFF80
310
007FFF0003FFFFFFFFF0003FFFFF0001F000E0003FFFFE0003FF0003FFF00000
310
3FFF0003FF80007FC0007FFFFC0007FE0007FFFFC0003FF8000001FFFE000000
310
7FFFFFF0001FFFFFFF80007FFFFF0000FFFF80007FFFFF0000FFFF0003FFFFFF
310
FFF0003FFFFF0003F000E0003FFFFC0003FE0003FFF000003FFF0003FF80007F
310
E0003FFFF80007FE0003FFFFC0007FF8000001FFFE0000007FFFFFF0001FFFFF
310
FF80003FFFFE0000FFFF80003FFFFE0000FFFF0003FFFFFFFFF0001FFFFE0003
310
F000F0001FFFF80003FE0003FFF000007FFF0001FF80007FE0003FFFF00007FE
310
0001FFFF80007FF8000001FFFE0000007FFFFFF0001FFFFFFFC0000FFFF80001
310
FFFFC0000FFFF80001FFFF0003FFFFFFFFF0001FFFFC0003F000F0000FFFF000
310
07FE0007FFF800007FFF0001FF80007FE0001FFFE00007FF0000FFFE00007FF8
310
000001FFFE0000007FFFFFF0001FFFFFFFC00003FFE00001FFFFC00003FFE000
310
01FFFF0003FFFFFFFFF8000FFFF80003F000F00003FFC00007FC0007FFF80000
310
7FFF8001FF80007FF00007FF80000FFF00007FF80000FFF8000001FFFE000000
310
7F80000000000001FFE000003E000003FFFFE000003E000003FFFF0003FFFFFF
310
FFF80003FFE00007F000F800000000000FFC0007FFF800007FFF8001FF80007F
310
F000000000000FFF000000000000FFF8000001FFFE0000007F80000000000001
310
FFF0000000000007FFFFF0000000000007FFFF0003FFFFFFFFFC00007E000007
310
F000F800000000000FFC0007FFF80000FFFF8000FF80007FF800000000001FFF
310
800000000001FFF8000001FFFE0000007F80000000000001FFF800000000000F
310
FFFFF800000000000FFFFF0003FFFFFFFFFC00000000000FF000FC0000000000
310
1FFC0007FFFC0000FFFF8000FF80007FF800000000003FFFC00000000001FFF8
310
000001FFFE0000007F80000000000001FFF800000000000FFFFFF80000000000
310
0FFFFF0003FFFFFFFFFE00000000001FF000FE00000000003FF8000FFFFC0000
310
FFFF8000FF80007FFC00000000003FFFC00000000003FFF8000001FFFE000000
310
7F80000000000001FFFC00000000001FFFFFFC00000000001FFFFF0003FFFFFF
310
FFFF00000000001FF000FF00000000003FF8000FFFFC0000FFFFC000FF80007F
310
FE00000000007FFFE00000000007FFF8000001FFFE0000007F80000000000001
310
FFFE00000000003FFFFFFE00000000003FFFFF0003FFFFFFFFFF80000000003F
310
F000FF80000000007FF8000FFFFC0001FFFFC0007F80007FFF0000000000FFFF
310
F0000000000FFFF800000000000000007F80000000000001FFFF8000000000FF
310
FFFFFF8000000000FFFFFF0003FFFFFFFFFFC0000000007FF000FFC000000000
310
FFF8000FFFFE0001FFFFC0007F80007FFF8000000001FFFFF8000000001FFFF8
310
00000000000000007F80000000000001FFFFC000000001FFFFFFFFC000000001
310
FFFFFF0003FFFFFFFFFFE000000000FFF000FFE000000003FFF0001FFFFE0001
310
FFFFC0007F80007FFFC000000007FFFFFE000000003FFFF80000000000000000
310
7F80000000000001FFFFE000000003FFFFFFFFE000000003FFFFFF0003FFFFFF
310
FFFFF000000003FFF000FFF80000000FFFF0001FFFFE0001FFFFE0007F80007F
310
FFF00000000FFFFFFF00000000FFFFF800000000000000007F80000000000001
310
FFFFF80000000FFFFFFFFFF80000000FFFFFFF0003FFFFFFFFFFFC0000000FFF
310
F000FFFE0000003FFFF0001FFFFE0003FFFFE0003F80007FFFFC0000003FFFFF
310
FFC0000003FFFFF800000000000000007F80000000000001FFFFFE0000003FFF
310
FFFFFFFE0000003FFFFFFF0003FFFFFFFFFFFF0000003FFFF000FFFF800000FF
310
FFF0001FFFFF0003FFFFE0003F80007FFFFF000001FFFFFFFFF800001FFFFFF8
310
00000000000000007F80000000000001FFFFFFC00001FFFFFFFFFFFFC00001FF
310
FFFFFF0003FFFFFFFFFFFFC00000FFFFF000FFFFF8000FFFFFFFFFFFFFFFFFFF
310
FFFFFFFFFFFFFFFFFFFFF0001FFFFFFFFFFF0000FFFFFFF80000000000000000
310
7FFFFFFFFFFFFFFFFFFFFFFC001FFFFFFFFFFFFFFC001FFFFFFFFFFFFFFFFFFF
310
FFFFFFFC001FFFFFF000FFFFFFFFFFFFFFFFFFFFFFFFFFFFFFFFFFFFFFFFFFFF
310
FFFFFFFFFFFFFFFFFFFFFFFFFFFFFFFFFFFFFFFFFFFFFFFFFFFFFFFFFFFFFFFF
310
FFFFFFFFFFFFFFFFFFFFFFFFFFFFFFFFFFFFFFFFFFFFFFFFFFFFFFFFFFFFFFFF
310
F000FFFFFFFFFFFFFFFFFFFFFFFFFFFFFFFFFFFFFFFFFFFFFFFFFFFFFFFFFFFF
310
FFFFFFFFFFFFFFFFFFFFFFFFFFFFFFFFFFFFFFFFFFFFFFFFFFFFFFFFFFFFFFFF
310
FFFFFFFFFFFFFFFFFFFFFFFFFFFFFFFFFFFFFFFFFFFFFFFFF000FFFFFFFFFFFF
310
FFFFFFFFFFFFFFFFFFFFFFFFFFFFFFFFFFFFFFFFFFFFFFFFFFFFFFFFFFFFFFFF
310
FFFFFFFFFFFFFFFFFFFFFFFFFFFFFFFFFFFFFFFFFFFFFFFFFFFFFFFFFFFFFFFF
310
FFFFFFFFFFFFFFFFFFFFFFFFFFFFFFFFF000FFFFFFFFFFFFFFFFFFFFFFFFFFFF
310
FFFFFFFFFFFFFFFFFFFFFFFFFFFFFFFFFFFFFFFFFFFFFFFFFFFFFFFFFFFFFFFF
310
FFFFFFFFFFFFFFFFFFFFFFFFFFFFFFFFFFFFFFFFFFFFFFFFFFFFFFFFFFFFFFFF
310
FFFFFFFFFFFFFFFFF000FFFFFFFFFFFFFFFFFFFFFFFFFFFFFFFFFFFFFFFFFFFF
310
FFFFFFFFFFFFFFFFFFFFFFFFFFFFFFFFFFFFFFFFFFFFFFFFFFFFFFFFFFFFFFFF
310
FFFFFFFFFFFFFFFFFFFFFFFFFFFFFFFFFFFFFFFFFFFFFFFFFFFFFFFFFFFFFFFF
310
F000FFFFFFFFFFFFFFFFFFFFFFFFFFFFFFFFFFFFFFFFFFFFFFFFFFFFFFFFFFFF
310
FFFFFFFFFFFFFFFFFFFFFFFFFFFFFFFFFFFFFFFFFFFFFFFFFFFFFFFFFFFFFFFF
310
FFFFFFFFFFFFFFFFFFFFFFFFFFFFFFFFFFFFFFFFFFFFFFFFF000FFFFFFFFFFFF
310
FFFFFFFFFFFFFFFFFFFFFFFFFFFFFFFFFFFFFFFFFFFFFFFFFFFFFFFFFFFFFFFF
310
FFFFFFFFFFFFFFFFFFFFFFFFFFFFFFFFFFFFFFFFFFFFFFFFFFFFFFFFFFFFFFFF
310
FFFFFFFFFFFFFFFFFFFFFFFFFFFFFFFFF000FFFFFFFFFFFFFFFFFFFFFFFFFFFF
310
FFFFFFFFFFFFFFFFFFFFFFFFFFFFFFFFFFFFFFFFFFFFFFFFFFFFFFFFFFFFFFFF
310
FFFFFFFFFFFFFFFFFFFFFFFFFFFFFFFFFFFFFFFFFFFFFFFFFFFFFFFFFFFFFFFF
310
FFFFFFFFFFFFFFFFF000FFFFFFFFFFFFFFFFFFFFFFFFFFFFFFFFFFFFFFFFFFFF
310
FFFFFFFFFFFFFFFFFFFFFFFFFFFFFFFFFFFFFFFFFFFFFFFFFFFFFFFFFFFFFFFF
310
FFFFFFFFFFFFFFFFFFFFFFFFFFFFFFFFFFFFFFFFFFFFFFFFFFFFFFFFFFFFFFFF
310
F000FFFFFFFFFFFFFFFFFFFFFFFFFFFFFFFFFFFFFFFFFFFFFFFFFFFFFFFFFFFF
310
FFFFFFFFFFFFFFFFFFFFFFFFFFFFFFFFFFFFFFFFFFFFFFFFFFFFFFFFFFFFFFFF
310
FFFFFFFFFFFFFFFFFFFFFFFFFFFFFFFFFFFFFFFFFFFFFFFFF000FFFFFFFFFFFF
310
FFFFFFFFFFFFFFFFFFFFFFFFFFFFFFFFFFFFFFFFFFFFFFFFFFFFFFFFFFFFFFFF
310
FFFFFFFFFFFFFFFFFFFFFFFFFFFFFFFFFFFFFFFFFFFFFFFFFFFFFFFFFFFFFFFF
310
FFFFFFFFFFFFFFFFFFFFFFFFFFFFFFFFF000FFFFFFFFFFFFFFFFFFFFFFFFFFFF
310
FFFFFFFFFFFFFFFFFFFFFFFFFFFFFFFFFFFFFFFFFFFFFFFFFFFFFFFFFFFFFFFF
310
FFFFFFFFFFFFFFFFFFFFFFFFFFFFFFFFFFFFFFFFFFFFFFFFFFFFFFFFFFFFFFFF
310
FFFFFFFFFFFFFFFFF000FFFFFFFFFFFFFFFFFFFFFFFFFFFFFFFFFFFFFFFFFFFF
310
FFFFFFFFFFFFFFFFFFFFFFFFFFFFFFFFFFFFFFFFFFFFFFFFFFFFFFFFFFFFFFFF
310
FFFFFFFFFFFFFFFFFFFFFFFFFFFFFFFFFFFFFFFFFFFFFFFFFFFFFFFFFFFFFFFF
310
F000FFFFFFFFFFFFFFFFFFFFFFFFFFFFFFFFFFFFFFFFFFFFFFFFFFFFFFFFFFFF
310
FFFFFFFFFFFFFFFFFFFFFFFFFFFFFFFFFFFFFFFFFFFFFFFFFFFFFFFFFFFFFFFF
310
FFFFFFFFFFFFFFFFFFFFFFFFFFFFFFFFFFFFFFFFFFFFFFFFF000FFFFFFFFFFFF
310
FFFFFFFFFFFFFFFFFFFFFFFFFFFFFFFFFFFFFFFFFFFFFFFFFFFFFFFFFFFFFFFF
310
FFFFFFFFFFFFFFFFFFFFFFFFFFFFFFFFFFFFFFFFFFFFFFFFFFFFFFFFFFFFFFFF
310
FFFFFFFFFFFFFFFFFFFFFFFFFFFFFFFFF000FFFFFFFFFFFFFFFFFFFFFFFFFFFF
310
FFFFFFFFFFFFFFFFFFFFFFFFFFFFFFFFFFFFFFFFFFFFFFFFFFFFFFFFFFFFFFFF
310
FFFFFFFFFFFFFFFFFFFFFFFFFFFFFFFFFFFFFFFFFFFFFFFFFFFFFFFFFFFFFFFF
310
FFFFFFFFFFFFFFFFF000FFFFFFFFFFFFFFFFFFFFFFFFFFFFFFFFFFFFFFFFFFFF
310
FFFFFFFFFFFFFFFFFFFFFFFFFFFFFFFFFFFFFFFFFFFFFFFFFFFFFFFFFFFFFFFF
310
FFFFFFFFFFFFFFFFFFFFFFFFFFFFFFFFFFFFFFFFFFFFFFFFFFFFFFFFFFFFFFFF
310
F000FFFFFFFFFFFFFFFFFFFFFFFFFFFFFFFFFFFFFFFFFFFFFFFFFFFFFFFFFFFF
310
FFFFFFFFFFFFFFFFFFFFFFFFFFFFFFFFFFFFFFFFFFFFFFFFFFFFFFFFFFFFFFFF
310
FFFFFFFFFFFFFFFFFFFFFFFFFFFFFFFFFFFFFFFFFFFFFFFFF000FFFFFFFFFFFF
310
FFFFFFFFFFFFFFFFFFFFFFFFFFFFFFFFFFFFFFFFFFFFFFFFFFFFFFFFFFFFFFFF
310
FFFFFFFFFFFFFFFFFFFFFFFFFFFFFFFFFFFFFFFFFFFFFFFFFFFFFFFFFFFFFFFF
310
FFFFFFFFFFFFFFFFFFFFFFFFFFFFFFFFF000FFFFFFFFFFFFFFFFFFFFFFFFFFFF
310
FFFFFFFFFFFFFFFFFFFFFFFFFFFFFFFFFFFFFFFFFFFFFFFFFFFFFFFFFFFFFFFF
310
FFFFFFFFFFFFFFFFFFFFFFFFFFFFFFFFFFFFFFFFFFFFFFFFFFFFFFFFFFFFFFFF
310
FFFFFFFFFFFFFFFFF000FFFFFFFFFFFFFFFFFFFFFFFFFFFFFFFFFFFFFFFFFFFF
310
FFFFFFFFFFFFFFFFFFFFFFFFFFFFFFFFFFFFFFFFFFFFFFFFFFFFFFFFFFFFFFFF
310
FFFFFFFFFFFFFFFFFFFFFFFFFFFFFFFFFFFFFFFFFFFFFFFFFFFFFFFFFFFFFFFF
310
F000FFFFFFFFFFFFFFFFFFFFFFFFFFFFFFFFFFFFFFFFFFFFFFFFFFFFFFFFFFFF
310
FFFFFFFFFFFFFFFFFFFFFFFFFFFFFFFFFFFFFFFFFFFFFFFFFFFFFFFFFFFFFFFF
310
FFFFFFFFFFFFFFFFFFFFFFFFFFFFFFFFFFFFFFFFFFFFFFFFF000FFFFFFFFFFFF
310
FFFFFFFFFFFFFFFFFFFFFFFFFFFFFFFFFFFFFFFFFFFFFFFFFFFFFFFFFFFFFFFF
310
FFFFFFFFFFFFFFFFFFFFFFFFFFFFFFFFFFFFFFFFFFFFFFFFFFFFFFFFFFFFFFFF
310
FFFFFFFFFFFFFFFFFFFFFFFFFFFFFFFFF0000000000000000000000000000000
310
0000000000000000000000000000000000000000000000000000000000000000
310
0000000000000000000000000000000000000000000000000000000000000000
310
0000000000000000000000000000000000000000000000000000000000000000
310
0000000000000000000000000000000000000000000000000000000000000000
310
0000000000000000000000000000000000000000000000000000000000000000
310
0000000000000000000000000000000000000000000000000000000000000000
310
0000000000000000000000000000000000000000000000000000000000000000
310
0000000000000000000000000000000000000000000000000000000000000000
310
0000000000000000000000000000000000000000000000000000000000000000
310
0000000000000000000000000000000000000000000000000000000000000000
310
0000000000000000000000000000000000000000000000000000000000000000
310
0000000000000000000000000000000000000000000000000000000000000000
310
0000000000000000000000000000000000000000000000000000000000000000
310
0000000000000000000000000000000000000000000000000000000000000000
310
0000000000000000000000000000000000000000000000000000000000000000
  1
OLE
  0
ENDSEC
  0
SECTION
  2
OBJECTS
  0
DICTIONARY
  5
C
330
0
100
AcDbDictionary
281
     1
  3
ACAD_GROUP
350
D
  3
ACAD_LAYOUT
350
1A
  3
ACAD_MLINESTYLE
350
17
  3
ACAD_PLOTSETTINGS
350
19
  3
ACAD_PLOTSTYLENAME
350
E
  0
DICTIONARY
  5
D
102
{ACAD_REACTORS
330
C
102
}
330
C
100
AcDbDictionary
281
     1
  0
DICTIONARY
  5
1A
102
{ACAD_REACTORS
330
C
102
}
330
C
100
AcDbDictionary
281
     1
  3
Layout1
350
1E
  3
Layout2
350
26
  3
Model
350
22
  0
DICTIONARY
  5
17
102
{ACAD_REACTORS
330
C
102
}
330
C
100
AcDbDictionary
281
     1
  3
Standard
350
18
  0
DICTIONARY
  5
19
102
{ACAD_REACTORS
330
C
102
}
330
C
100
AcDbDictionary
281
     1
  0
ACDBDICTIONARYWDFLT
  5
E
102
{ACAD_REACTORS
330
C
102
}
330
C
100
AcDbDictionary
281
     1
  3
Normal
350
F
100
AcDbDictionaryWithDefault
340
F
  0
LAYOUT
  5
1E
102
{ACAD_REACTORS
330
1A
102
}
330
1A
100
AcDbPlotSettings
  1

  2
none_device
  4

  6

 40
0.0
 41
0.0
 42
0.0
 43
0.0
 44
0.0
 45
0.0
 46
0.0
 47
0.0
 48
0.0
 49
0.0
140
0.0
141
0.0
142
1.0
143
1.0
 70
   688
 72
     0
 73
     0
 74
     5
  7

 75
    16
147
1.0
148
0.0
149
0.0
100
AcDbLayout
  1
Layout1
 70
     1
 71
     1
 10
0.0
 20
0.0
 11
420.0
 21
297.0
 12
0.0
 22
0.0
 32
0.0
 14
1.0000000000E+20
 24
1.0000000000E+20
 34
1.0000000000E+20
 15
-1.0000000000E+20
 25
-1.0000000000E+20
 35
-1.0000000000E+20
146
0.0
 13
0.0
 23
0.0
 33
0.0
 16
1.0
 26
0.0
 36
0.0
 17
0.0
 27
1.0
 37
0.0
 76
     0
330
1B
  0
LAYOUT
  5
26
102
{ACAD_REACTORS
330
1A
102
}
330
1A
100
AcDbPlotSettings
  1

  2
none_device
  4

  6

 40
0.0
 41
0.0
 42
0.0
 43
0.0
 44
0.0
 45
0.0
 46
0.0
 47
0.0
 48
0.0
 49
0.0
140
0.0
141
0.0
142
1.0
143
1.0
 70
   688
 72
     0
 73
     0
 74
     5
  7

 75
    16
147
1.0
148
0.0
149
0.0
100
AcDbLayout
  1
Layout2
 70
     1
 71
     2
 10
0.0
 20
0.0
 11
0.0
 21
0.0
 12
0.0
 22
0.0
 32
0.0
 14
0.0
 24
0.0
 34
0.0
 15
0.0
 25
0.0
 35
0.0
146
0.0
 13
0.0
 23
0.0
 33
0.0
 16
1.0
 26
0.0
 36
0.0
 17
0.0
 27
1.0
 37
0.0
 76
     0
330
23
  0
LAYOUT
  5
22
102
{ACAD_REACTORS
330
1A
102
}
330
1A
100
AcDbPlotSettings
  1

  2
none_device
  4

  6

 40
0.0
 41
0.0
 42
0.0
 43
0.0
 44
0.0
 45
0.0
 46
0.0
 47
0.0
 48
0.0
 49
0.0
140
0.0
141
0.0
142
1.0
143
1.0
 70
  1712
 72
     0
 73
     0
 74
     0
  7

 75
     0
147
1.0
148
0.0
149
0.0
100
AcDbLayout
  1
Model
 70
     1
 71
     0
 10
0.0
 20
0.0
 11
297.0
 21
210.0
 12
0.0
 22
0.0
 32
0.0
 14
0.0
 24
0.0
 34
0.0
 15
297.0
 25
210.0
 35
0.0
146
0.0
 13
0.0
 23
0.0
 33
0.0
 16
1.0
 26
0.0
 36
0.0
 17
0.0
 27
1.0
 37
0.0
 76
     0
330
1F
331
29
  0
MLINESTYLE
  5
18
102
{ACAD_REACTORS
330
17
102
}
330
17
100
AcDbMlineStyle
  2
Standard
 70
     0
  3

 62
   256
 51
90.0
 52
90.0
 71
     2
 49
0.5
 62
   256
  6
BYLAYER
 49
-0.5
 62
   256
  6
BYLAYER
  0
ACDBPLACEHOLDER
  5
F
102
{ACAD_REACTORS
330
E
102
}
330
E
  0
ENDSEC
  0
EOF
