  0
SECTION
  2
HEADER
  9
$ACADVER
  1
AC1015
  9
$ACADMAINTVER
 70
     6
  9
$DWGCODEPAGE
  3
ANSI_1252
  9
$INSBASE
 10
0.0
 20
0.0
 30
0.0
  9
$EXTMIN
 10
0.0
 20
0.0
 30
0.0
  9
$EXTMAX
 10
297.0
 20
210.0
 30
0.0
  9
$LIMMIN
 10
0.0
 20
0.0
  9
$LIMMAX
 10
297.0
 20
210.0
  9
$ORTHOMODE
 70
     0
  9
$REGENMODE
 70
     1
  9
$FILLMODE
 70
     1
  9
$QTEXTMODE
 70
     0
  9
$MIRRTEXT
 70
     1
  9
$LTSCALE
 40
1.0
  9
$ATTMODE
 70
     1
  9
$TEXTSIZE
 40
2.0
  9
$TRACEWID
 40
1.0
  9
$TEXTSTYLE
  7
Standard
  9
$CLAYER
  8
0
  9
$CELTYPE
  6
ByLayer
  9
$CECOLOR
 62
   256
  9
$CELTSCALE
 40
1.0
  9
$DISPSILH
 70
     0
  9
$DIMSCALE
 40
1.0
  9
$DIMASZ
 40
3.0
  9
$DIMEXO
 40
0.0
  9
$DIMDLI
 40
3.75
  9
$DIMRND
 40
0.0
  9
$DIMDLE
 40
0.0
  9
$DIMEXE
 40
1.0
  9
$DIMTP
 40
0.0
  9
$DIMTM
 40
0.0
  9
$DIMTXT
 40
2.0
  9
$DIMCEN
 40
2.5
  9
$DIMTSZ
 40
0.0
  9
$DIMTOL
 70
     0
  9
$DIMLIM
 70
     0
  9
$DIMTIH
 70
     1
  9
$DIMTOH
 70
     1
  9
$DIMSE1
 70
     0
  9
$DIMSE2
 70
     0
  9
$DIMTAD
 70
     1
  9
$DIMZIN
 70
     0
  9
$DIMBLK
  1

  9
$DIMASO
 70
     1
  9
$DIMSHO
 70
     1
  9
$DIMPOST
  1

  9
$DIMAPOST
  1

  9
$DIMALT
 70
     0
  9
$DIMALTD
 70
     3
  9
$DIMALTF
 40
0.0393700787
  9
$DIMLFAC
 40
1.0
  9
$DIMTOFL
 70
     1
  9
$DIMTVP
 40
0.0
  9
$DIMTIX
 70
     0
  9
$DIMSOXD
 70
     0
  9
$DIMSAH
 70
     0
  9
$DIMBLK1
  1

  9
$DIMBLK2
  1

  9
$DIMSTYLE
  2
ISO-25
  9
$DIMCLRD
 70
     0
  9
$DIMCLRE
 70
     0
  9
$DIMCLRT
 70
     0
  9
$DIMTFAC
 40
1.0
  9
$DIMGAP
 40
1.524
  9
$DIMJUST
 70
     0
  9
$DIMSD1
 70
     0
  9
$DIMSD2
 70
     0
  9
$DIMTOLJ
 70
     0
  9
$DIMTZIN
 70
     0
  9
$DIMALTZ
 70
     0
  9
$DIMALTTZ
 70
     0
  9
$DIMUPT
 70
     0
  9
$DIMDEC
 70
     2
  9
$DIMTDEC
 70
     3
  9
$DIMALTU
 70
     2
  9
$DIMALTTD
 70
     3
  9
$DIMTXSTY
  7
Standard
  9
$DIMAUNIT
 70
     0
  9
$DIMADEC
 70
     2
  9
$DIMALTRND
 40
0.0
  9
$DIMAZIN
 70
     0
  9
$DIMDSEP
 70
    44
  9
$DIMATFIT
 70
     3
  9
$DIMFRAC
 70
     0
  9
$DIMLDRBLK
  1

  9
$DIMLUNIT
 70
     2
  9
$DIMLWD
 70
    -2
  9
$DIMLWE
 70
    -2
  9
$DIMTMOVE
 70
     0
  9
$LUNITS
 70
     2
  9
$LUPREC
 70
     2
  9
$SKETCHINC
 40
1.0
  9
$FILLETRAD
 40
10.0
  9
$AUNITS
 70
     0
  9
$AUPREC
 70
     2
  9
$MENU
  1
.
  9
$ELEVATION
 40
0.0
  9
$PELEVATION
 40
0.0
  9
$THICKNESS
 40
0.0
  9
$LIMCHECK
 70
     0
  9
$CHAMFERA
 40
10.0
  9
$CHAMFERB
 40
10.0
  9
$CHAMFERC
 40
20.0
  9
$CHAMFERD
 40
0.0
  9
$SKPOLY
 70
     0
  9
$TDCREATE
 40
2455617.479756192
  9
$TDUCREATE
 40
2455617.438089525
  9
$TDUPDATE
 40
2455617.479756203
  9
$TDUUPDATE
 40
2455617.438089537
  9
$TDINDWG
 40
0.0000000116
  9
$TDUSRTIMER
 40
0.0000000116
  9
$USRTIMER
 70
     1
  9
$ANGBASE
 50
0.0
  9
$ANGDIR
 70
     0
  9
$PDMODE
 70
     0
  9
$PDSIZE
 40
-1.0
  9
$PLINEWID
 40
0.0
  9
$SPLFRAME
 70
     0
  9
$SPLINETYPE
 70
     6
  9
$SPLINESEGS
 70
     8
  9
$HANDSEED
  5
2A7
  9
$SURFTAB1
 70
     6
  9
$SURFTAB2
 70
     6
  9
$SURFTYPE
 70
     6
  9
$SURFU
 70
     6
  9
$SURFV
 70
     6
  9
$UCSBASE
  2

  9
$UCSNAME
  2

  9
$UCSORG
 10
0.0
 20
0.0
 30
0.0
  9
$UCSXDIR
 10
1.0
 20
0.0
 30
0.0
  9
$UCSYDIR
 10
0.0
 20
1.0
 30
0.0
  9
$UCSORTHOREF
  2

  9
$UCSORTHOVIEW
 70
     0
  9
$UCSORGTOP
 10
0.0
 20
0.0
 30
0.0
  9
$UCSORGBOTTOM
 10
0.0
 20
0.0
 30
0.0
  9
$UCSORGLEFT
 10
0.0
 20
0.0
 30
0.0
  9
$UCSORGRIGHT
 10
0.0
 20
0.0
 30
0.0
  9
$UCSORGFRONT
 10
0.0
 20
0.0
 30
0.0
  9
$UCSORGBACK
 10
0.0
 20
0.0
 30
0.0
  9
$PUCSBASE
  2

  9
$PUCSNAME
  2

  9
$PUCSORG
 10
0.0
 20
0.0
 30
0.0
  9
$PUCSXDIR
 10
1.0
 20
0.0
 30
0.0
  9
$PUCSYDIR
 10
0.0
 20
1.0
 30
0.0
  9
$PUCSORTHOREF
  2

  9
$PUCSORTHOVIEW
 70
     0
  9
$PUCSORGTOP
 10
0.0
 20
0.0
 30
0.0
  9
$PUCSORGBOTTOM
 10
0.0
 20
0.0
 30
0.0
  9
$PUCSORGLEFT
 10
0.0
 20
0.0
 30
0.0
  9
$PUCSORGRIGHT
 10
0.0
 20
0.0
 30
0.0
  9
$PUCSORGFRONT
 10
0.0
 20
0.0
 30
0.0
  9
$PUCSORGBACK
 10
0.0
 20
0.0
 30
0.0
  9
$USERI1
 70
     0
  9
$USERI2
 70
     0
  9
$USERI3
 70
     0
  9
$USERI4
 70
     0
  9
$USERI5
 70
     0
  9
$USERR1
 40
0.0
  9
$USERR2
 40
0.0
  9
$USERR3
 40
0.0
  9
$USERR4
 40
0.0
  9
$USERR5
 40
0.0
  9
$WORLDVIEW
 70
     1
  9
$SHADEDGE
 70
     3
  9
$SHADEDIF
 70
    70
  9
$TILEMODE
 70
     1
  9
$MAXACTVP
 70
    64
  9
$PINSBASE
 10
0.0
 20
0.0
 30
0.0
  9
$PLIMCHECK
 70
     0
  9
$PEXTMIN
 10
1.0000000000E+20
 20
1.0000000000E+20
 30
1.0000000000E+20
  9
$PEXTMAX
 10
-1.0000000000E+20
 20
-1.0000000000E+20
 30
-1.0000000000E+20
  9
$PLIMMIN
 10
0.0
 20
0.0
  9
$PLIMMAX
 10
420.0
 20
297.0
  9
$UNITMODE
 70
     0
  9
$VISRETAIN
 70
     1
  9
$PLINEGEN
 70
     0
  9
$PSLTSCALE
 70
     1
  9
$TREEDEPTH
 70
  3020
  9
$CMLSTYLE
  2
Standard
  9
$CMLJUST
 70
     0
  9
$CMLSCALE
 40
20.0
  9
$PROXYGRAPHICS
 70
     1
  9
$MEASUREMENT
 70
     1
  9
$CELWEIGHT
370
    -1
  9
$ENDCAPS
280
     0
  9
$JOINSTYLE
280
     0
  9
$LWDISPLAY
290
     1
  9
$INSUNITS
 70
     4
  9
$HYPERLINKBASE
  1

  9
$STYLESHEET
  1

  9
$XEDIT
290
     1
  9
$CEPSNTYPE
380
     0
  9
$PSTYLEMODE
290
     1
  9
$FINGERPRINTGUID
  2
{F656795E-57ED-466D-9317-B8B85B58BDFB}
  9
$VERSIONGUID
  2
{FAEB1C32-E019-11D5-929B-00C0DF256EC4}
  9
$EXTNAMES
290
     1
  9
$PSVPSCALE
 40
0.0
  9
$OLESTARTUP
290
     0
  0
ENDSEC
  0
SECTION
  2
CLASSES
  0
CLASS
  1
ACDBDICTIONARYWDFLT
  2
AcDbDictionaryWithDefault
  3
ObjectDBX Classes
 90
        0
280
     0
281
     0
  0
CLASS
  1
VISUALSTYLE
  2
AcDbVisualStyle
  3
ObjectDBX Classes
 90
     4095
280
     0
281
     0
  0
CLASS
  1
DICTIONARYVAR
  2
AcDbDictionaryVar
  3
ObjectDBX Classes
 90
        0
280
     0
281
     0
  0
CLASS
  1
ACDBPLACEHOLDER
  2
AcDbPlaceHolder
  3
ObjectDBX Classes
 90
        0
280
     0
281
     0
  0
CLASS
  1
LAYOUT
  2
AcDbLayout
  3
ObjectDBX Classes
 90
        0
280
     0
281
     0
  0
ENDSEC
  0
SECTION
  2
TABLES
  0
TABLE
  2
VPORT
  5
8
330
0
100
AcDbSymbolTable
 70
     1
  0
VPORT
  5
29
330
8
100
AcDbSymbolTableRecord
100
AcDbViewportTableRecord
  2
*Active
 70
     0
 10
0.0
 20
0.0
 11
1.0
 21
1.0
 12
148.5
 22
105.0
 13
0.0
 23
0.0
 14
10.0
 24
10.0
 15
10.0
 25
10.0
 16
0.0
 26
0.0
 36
1.0
 17
0.0
 27
0.0
 37
0.0
 40
210.0
 41
1.4142857143
 42
50.0
 43
0.0
 44
0.0
 50
0.0
 51
0.0
 71
     0
 72
  2000
 73
     1
 74
     3
 75
     0
 76
     0
 77
     0
 78
     0
281
     0
 65
     1
110
0.0
120
0.0
130
0.0
111
1.0
121
0.0
131
0.0
112
0.0
122
1.0
132
0.0
 79
     0
146
0.0
  0
ENDTAB
  0
TABLE
  2
LTYPE
  5
5
330
0
100
AcDbSymbolTable
 70
     6
  0
LTYPE
  5
14
330
5
100
AcDbSymbolTableRecord
100
AcDbLinetypeTableRecord
  2
ByBlock
 70
     0
  3

 72
    65
 73
     0
 40
0.0
  0
LTYPE
  5
15
330
5
100
AcDbSymbolTableRecord
100
AcDbLinetypeTableRecord
  2
ByLayer
 70
     0
  3

 72
    65
 73
     0
 40
0.0
  0
LTYPE
  5
16
330
5
100
AcDbSymbolTableRecord
100
AcDbLinetypeTableRecord
  2
Continuous
 70
     0
  3
Solid line
 72
    65
 73
     0
 40
0.0
  0
LTYPE
  5
3B
330
5
100
AcDbSymbolTableRecord
100
AcDbLinetypeTableRecord
  2
HIDDEN
 70
     0
  3
Hidden __ __ __ __ __ __ __ __ __ __ __ __ __ __
 72
    65
 73
     2
 40
1.905
 49
1.27
 74
     0
 49
-0.635
 74
     0
  0
LTYPE
  5
3C
330
5
100
AcDbSymbolTableRecord
100
AcDbLinetypeTableRecord
  2
PHANTOM
 70
     0
  3
Phantom ______  __  __  ______  __  __  ______
 72
    65
 73
     6
 40
12.7
 49
6.35
 74
     0
 49
-1.27
 74
     0
 49
1.27
 74
     0
 49
-1.27
 74
     0
 49
1.27
 74
     0
 49
-1.27
 74
     0
  0
LTYPE
  5
3D
330
5
100
AcDbSymbolTableRecord
100
AcDbLinetypeTableRecord
  2
CENTER
 70
     0
  3
Center ____ _ ____ _ ____ _ ____ _ ____ _ ____
 72
    65
 73
     4
 40
10.16
 49
6.35
 74
     0
 49
-1.27
 74
     0
 49
1.27
 74
     0
 49
-1.27
 74
     0
  0
LTYPE
  5
3E
330
5
100
AcDbSymbolTableRecord
100
AcDbLinetypeTableRecord
  2
CENTERX2
 70
     0
  3
Center (2x) ________  __  ________  __  _____
 72
    65
 73
     4
 40
20.32
 49
12.7
 74
     0
 49
-2.54
 74
     0
 49
2.54
 74
     0
 49
-2.54
 74
     0
  0
LTYPE
  5
3F
330
5
100
AcDbSymbolTableRecord
100
AcDbLinetypeTableRecord
  2
DOT2
 70
     0
  3
Dot (.5x) ........................................
 72
    65
 73
     2
 40
0.635
 49
0.0
 74
     0
 49
-0.635
 74
     0
  0
ENDTAB
  0
TABLE
  2
LAYER
  5
2
330
0
100
AcDbSymbolTable
 70
     5
  0
LAYER
  5
10
330
2
100
AcDbSymbolTableRecord
100
AcDbLayerTableRecord
  2
0
 70
     0
 62
     7
  6
Continuous
370
    -3
390
F
  0
LAYER
  5
40
330
2
100
AcDbSymbolTableRecord
100
AcDbLayerTableRecord
  2
FORMAT
 70
     0
 62
     7
  6
Continuous
370
    -3
390
F
  0
LAYER
  5
41
330
2
100
AcDbSymbolTableRecord
100
AcDbLayerTableRecord
  2
VERMASSUNG
 70
     0
 62
     7
  6
Continuous
370
    -3
390
F
  0
LAYER
  5
42
330
2
100
AcDbSymbolTableRecord
100
AcDbLayerTableRecord
  2
KOPF_DÜNN
 70
     0
 62
     7
  6
Continuous
370
    -3
390
F
  0
LAYER
  5
43
330
2
100
AcDbSymbolTableRecord
100
AcDbLayerTableRecord
  2
KOPF_DICK
 70
     0
 62
     7
  6
Continuous
370
    15
390
F
  0
ENDTAB
  0
TABLE
  2
STYLE
  5
3
330
0
100
AcDbSymbolTable
 70
     3
  0
STYLE
  5
11
330
3
100
AcDbSymbolTableRecord
100
AcDbTextStyleTableRecord
  2
Standard
 70
     0
 40
0.0
 41
1.0
 50
0.0
 71
     0
 42
2.5
  3
txt
  4

  0
STYLE
  5
44
330
3
100
AcDbSymbolTableRecord
100
AcDbTextStyleTableRecord
  2
SLDTEXTSTYLE0
 70
     0
 40
0.0
 41
0.7
 50
0.0
 71
     0
 42
0.2
  3
TXT
  4

  0
STYLE
  5
48
330
3
100
AcDbSymbolTableRecord
100
AcDbTextStyleTableRecord
  2
SLDTEXTSTYLE1
 70
     0
 40
0.0
 41
0.6526315789
 50
0.0
 71
     0
 42
0.2
  3
TXT
  4

  0
ENDTAB
  0
TABLE
  2
VIEW
  5
6
330
0
100
AcDbSymbolTable
 70
     0
  0
ENDTAB
  0
TABLE
  2
UCS
  5
7
330
0
100
AcDbSymbolTable
 70
     0
  0
ENDTAB
  0
TABLE
  2
APPID
  5
9
330
0
100
AcDbSymbolTable
 70
     1
  0
APPID
  5
12
330
9
100
AcDbSymbolTableRecord
100
AcDbRegAppTableRecord
  2
ACAD
 70
     0
  0
ENDTAB
  0
TABLE
  2
DIMSTYLE
  5
A
330
0
100
AcDbSymbolTable
 70
     4
100
AcDbDimStyleTable
  0
DIMSTYLE
105
27
330
A
100
AcDbSymbolTableRecord
100
AcDbDimStyleTableRecord
  2
ISO-25
 70
     0
 41
2.5
 42
0.625
 43
3.75
 44
1.25
 73
     0
 74
     0
 77
     1
 78
     8
140
2.5
141
2.5
143
0.0393700787
147
0.625
171
     3
172
     1
271
     2
272
     2
274
     3
278
    44
283
     0
284
     8
340
11
  0
DIMSTYLE
105
21C
102
{ACAD_REACTORS
330
21B
102
}
330
A
100
AcDbSymbolTableRecord
100
AcDbDimStyleTableRecord
  2
SLDDIMSTYLE0
 70
     0
 41
3.0
 44
0.0
 73
     0
 74
     0
 77
     1
 78
    12
140
2.0
147
0.5
173
     1
272
     3
284
    12
340
44
  0
DIMSTYLE
105
228
102
{ACAD_REACTORS
330
227
330
234
330
23E
330
248
102
}
330
A
100
AcDbSymbolTableRecord
100
AcDbDimStyleTableRecord
  2
SLDDIMSTYLE1
 70
     0
 41
3.0
 44
0.0
 45
0.000000001
 73
     0
 74
     0
 77
     1
 78
    12
140
2.0
147
0.5
173
     1
271
     2
272
     3
284
    12
340
44
  0
DIMSTYLE
105
28A
102
{ACAD_REACTORS
330
289
102
}
330
A
100
AcDbSymbolTableRecord
100
AcDbDimStyleTableRecord
  2
SLDDIMSTYLE2
 70
     0
 41
3.0
 44
0.0
 45
0.000000001
 73
     0
 74
     0
 77
     1
 78
    12
140
2.0
147
0.5
173
     1
271
     2
272
     3
284
    12
340
44
  0
ENDTAB
  0
TABLE
  2
BLOCK_RECORD
  5
1
330
0
100
AcDbSymbolTable
 70
     8
  0
BLOCK_RECORD
  5
1F
330
1
100
AcDbSymbolTableRecord
100
AcDbBlockTableRecord
  2
*Model_Space
340
22
  0
BLOCK_RECORD
  5
1B
330
1
100
AcDbSymbolTableRecord
100
AcDbBlockTableRecord
  2
*Paper_Space
340
1E
  0
BLOCK_RECORD
  5
23
330
1
100
AcDbSymbolTableRecord
100
AcDbBlockTableRecord
  2
*Paper_Space0
340
26
  0
BLOCK_RECORD
  5
21D
330
1
100
AcDbSymbolTableRecord
100
AcDbBlockTableRecord
  2
*D1
340
0
  0
BLOCK_RECORD
  5
229
330
1
100
AcDbSymbolTableRecord
100
AcDbBlockTableRecord
  2
*D2
340
0
  0
BLOCK_RECORD
  5
235
330
1
100
AcDbSymbolTableRecord
100
AcDbBlockTableRecord
  2
*D3
340
0
  0
BLOCK_RECORD
  5
23F
330
1
100
AcDbSymbolTableRecord
100
AcDbBlockTableRecord
  2
*D4
340
0
  0
BLOCK_RECORD
  5
249
330
1
100
AcDbSymbolTableRecord
100
AcDbBlockTableRecord
  2
*D5
340
0
  0
BLOCK_RECORD
  5
28B
330
1
100
AcDbSymbolTableRecord
100
AcDbBlockTableRecord
  2
*D6
340
0
  0
BLOCK_RECORD
  5
295
330
1
100
AcDbSymbolTableRecord
100
AcDbBlockTableRecord
  2
SW_CENTERMARKSYMBOL_0
340
0
102
{BLKREFS
331
2A0
102
}
  0
ENDTAB
  0
ENDSEC
  0
SECTION
  2
BLOCKS
  0
BLOCK
  5
20
330
1F
100
AcDbEntity
  8
0
100
AcDbBlockBegin
  2
*Model_Space
 70
     0
 10
0.0
 20
0.0
 30
0.0
  3
*Model_Space
  1

  0
ENDBLK
  5
21
330
1F
100
AcDbEntity
  8
0
100
AcDbBlockEnd
  0
BLOCK
  5
1C
330
1B
100
AcDbEntity
 67
     1
  8
0
100
AcDbBlockBegin
  2
*Paper_Space
 70
     0
 10
0.0
 20
0.0
 30
0.0
  3
*Paper_Space
  1

  0
ENDBLK
  5
1D
330
1B
100
AcDbEntity
 67
     1
  8
0
100
AcDbBlockEnd
  0
BLOCK
  5
24
330
23
100
AcDbEntity
  8
0
100
AcDbBlockBegin
  2
*Paper_Space0
 70
     0
 10
0.0
 20
0.0
 30
0.0
  3
*Paper_Space0
  1

  0
ENDBLK
  5
25
330
23
100
AcDbEntity
  8
0
100
AcDbBlockEnd
  0
BLOCK
  5
21E
330
21D
100
AcDbEntity
  8
0
100
AcDbBlockBegin
  2
*D1
 70
     1
 10
0.0
 20
0.0
 30
0.0
  3
*D1
  1

  0
ARC
  5
220
330
21D
100
AcDbEntity
  8
VERMASSUNG
100
AcDbCircle
 10
286.816061274
 20
80.2447559772
 30
0.0
 40
35.83462137104142
100
AcDbArc
 50
90.0
 51
94.9878817692
  0
ARC
  5
221
330
21D
100
AcDbEntity
  8
VERMASSUNG
100
AcDbCircle
 10
286.816061274
 20
80.2447559772
 30
0.0
 40
35.83462137104142
100
AcDbArc
 50
80.4373154888
 51
90.0
  0
ARC
  5
222
330
21D
100
AcDbEntity
  8
VERMASSUNG
100
AcDbCircle
 10
286.816061274
 20
80.2447559772
 30
0.0
 40
35.83462137104142
100
AcDbArc
 50
94.9878817692
 51
104.5505662804
  0
SOLID
  5
223
330
21D
100
AcDbEntity
  8
VERMASSUNG
100
AcDbTrace
 10
286.816061274
 20
116.0793773482
 30
0.0
 11
289.7946583623
 21
115.5045213788
 31
0.0
 12
289.832232858
 22
116.4037366796
 32
0.0
 13
289.832232858
 23
116.4037366796
 33
0.0
  0
SOLID
  5
224
330
21D
100
AcDbEntity
  8
VERMASSUNG
100
AcDbTrace
 10
283.7004185921
 20
115.9436755615
 30
0.0
 11
280.6674674837
 21
116.0045654127
 31
0.0
 12
280.7830820015
 22
115.1120222579
 32
0.0
 13
280.7830820015
 23
115.1120222579
 33
0.0
  0
LINE
  5
225
330
21D
100
AcDbEntity
  8
VERMASSUNG
100
AcDbLine
 10
284.6985674478
 20
104.5069225793
 30
0.0
 11
283.6134735495
 21
116.939888671
 31
0.0
  0
MTEXT
  5
226
330
21D
100
AcDbEntity
  8
VERMASSUNG
100
AcDbMText
 10
283.846099434
 20
118.5645740027
 30
0.0
 40
2.0
 41
0.0
 71
     1
 72
     1
  1
5°
  7
SLDTEXTSTYLE0
 11
0.9990528288117134
 21
0.04351373626009646
 31
0.0
 73
     1
 44
1.0
  0
ENDBLK
  5
21F
330
21D
100
AcDbEntity
  8
0
100
AcDbBlockEnd
  0
BLOCK
  5
22A
330
229
100
AcDbEntity
  8
0
100
AcDbBlockBegin
  2
*D2
 70
     1
 10
0.0
 20
0.0
 30
0.0
  3
*D2
  1

  0
SOLID
  5
22C
330
229
100
AcDbEntity
  8
VERMASSUNG
100
AcDbTrace
 10
88.6204887097
 20
141.7923482873
 30
0.0
 11
88.1704887097
 21
138.7923482873
 31
0.0
 12
89.0704887097
 22
138.7923482873
 32
0.0
 13
89.0704887097
 23
138.7923482873
 33
0.0
  0
SOLID
  5
22D
330
229
100
AcDbEntity
  8
VERMASSUNG
100
AcDbTrace
 10
88.6204887097
 20
78.7923482873
 30
0.0
 11
89.0704887097
 21
81.7923482873
 31
0.0
 12
88.1704887097
 22
81.7923482873
 32
0.0
 13
88.1704887097
 23
81.7923482873
 33
0.0
  0
LINE
  5
22E
330
229
100
AcDbEntity
  8
VERMASSUNG
100
AcDbLine
 10
127.116061274
 20
141.7923482873
 30
0.0
 11
87.6204887097
 21
141.7923482873
 31
0.0
  0
LINE
  5
22F
330
229
100
AcDbEntity
  8
VERMASSUNG
100
AcDbLine
 10
127.116061274
 20
78.7923482873
 30
0.0
 11
87.6204887097
 21
78.7923482873
 31
0.0
  0
LINE
  5
230
330
229
100
AcDbEntity
  8
VERMASSUNG
100
AcDbLine
 10
88.6204887097
 20
141.7923482873
 30
0.0
 11
88.6204887097
 21
78.7923482873
 31
0.0
  0
MTEXT
  5
231
330
229
100
AcDbEntity
  8
VERMASSUNG
100
AcDbMText
 10
85.8423532206
 20
104.0881859486
 30
0.0
 40
2.0
 41
0.0
 71
     1
 72
     1
  1
HSK 
  7
SLDTEXTSTYLE0
 11
-7.044195017643634E-15
 21
1.0
 31
0.0
 73
     1
 44
1.0
  0
MTEXT
  5
232
330
229
100
AcDbEntity
  8
VERMASSUNG
100
AcDbMText
 10
86.0423532301
 20
110.0881860008
 30
0.0
 40
2.0
 41
0.0
 71
     1
 72
     1
  1
%%c
  7
SLDTEXTSTYLE0
 11
-7.044195017643634E-15
 21
1.0
 31
0.0
 73
     1
 44
1.0
  0
MTEXT
  5
233
330
229
100
AcDbEntity
  8
VERMASSUNG
100
AcDbMText
 10
86.0423533465
 20
113.6967586906
 30
0.0
 40
2.0
 41
0.0
 71
     1
 72
     1
  1
63
  7
SLDTEXTSTYLE0
 11
-7.044195017643634E-15
 21
1.0
 31
0.0
 73
     1
 44
1.0
  0
ENDBLK
  5
22B
330
229
100
AcDbEntity
  8
0
100
AcDbBlockEnd
  0
BLOCK
  5
236
330
235
100
AcDbEntity
  8
0
100
AcDbBlockBegin
  2
*D3
 70
     1
 10
0.0
 20
0.0
 30
0.0
  3
*D3
  1

  0
SOLID
  5
238
330
235
100
AcDbEntity
  8
VERMASSUNG
100
AcDbTrace
 10
292.8851129032
 20
88.2923482873
 30
0.0
 11
293.3351129032
 21
91.2923482873
 31
0.0
 12
292.4351129032
 22
91.2923482873
 32
0.0
 13
292.4351129032
 23
91.2923482873
 33
0.0
  0
SOLID
  5
239
330
235
100
AcDbEntity
  8
VERMASSUNG
100
AcDbTrace
 10
292.8851129032
 20
110.2923482873
 30
0.0
 11
292.4351129032
 21
107.2923482873
 31
0.0
 12
293.3351129032
 22
107.2923482873
 32
0.0
 13
293.3351129032
 23
107.2923482873
 33
0.0
  0
LINE
  5
23A
330
235
100
AcDbEntity
  8
VERMASSUNG
100
AcDbLine
 10
286.816061274
 20
88.2923482873
 30
0.0
 11
293.8851129032
 21
88.2923482873
 31
0.0
  0
LINE
  5
23B
330
235
100
AcDbEntity
  8
VERMASSUNG
100
AcDbLine
 10
287.6533676648
 20
110.2923482873
 30
0.0
 11
293.8851129032
 21
110.2923482873
 31
0.0
  0
LINE
  5
23C
330
235
100
AcDbEntity
  8
VERMASSUNG
100
AcDbLine
 10
292.8851129032
 20
88.2923482873
 30
0.0
 11
292.8851129032
 21
110.2923482873
 31
0.0
  0
MTEXT
  5
23D
330
235
100
AcDbEntity
  8
VERMASSUNG
100
AcDbMText
 10
290.3069775401
 20
97.8924723196
 30
0.0
 40
2.0
 41
0.0
 71
     1
 72
     1
  1
22
  7
SLDTEXTSTYLE0
 11
6.123233995736766E-17
 21
1.0
 31
0.0
 73
     1
 44
1.0
  0
ENDBLK
  5
237
330
235
100
AcDbEntity
  8
0
100
AcDbBlockEnd
  0
BLOCK
  5
240
330
23F
100
AcDbEntity
  8
0
100
AcDbBlockBegin
  2
*D4
 70
     1
 10
0.0
 20
0.0
 30
0.0
  3
*D4
  1

  0
SOLID
  5
242
330
23F
100
AcDbEntity
  8
VERMASSUNG
100
AcDbTrace
 10
286.816061274
 20
148.5354096774
 30
0.0
 11
283.816061274
 21
148.9854096774
 31
0.0
 12
283.816061274
 22
148.0854096774
 32
0.0
 13
283.816061274
 23
148.0854096774
 33
0.0
  0
SOLID
  5
243
330
23F
100
AcDbEntity
  8
VERMASSUNG
100
AcDbTrace
 10
126.816061274
 20
148.5354096774
 30
0.0
 11
129.816061274
 21
148.0854096774
 31
0.0
 12
129.816061274
 22
148.9854096774
 32
0.0
 13
129.816061274
 23
148.9854096774
 33
0.0
  0
LINE
  5
244
330
23F
100
AcDbEntity
  8
VERMASSUNG
100
AcDbLine
 10
286.816061274
 20
88.2923482873
 30
0.0
 11
286.816061274
 21
149.5354096774
 31
0.0
  0
LINE
  5
245
330
23F
100
AcDbEntity
  8
VERMASSUNG
100
AcDbLine
 10
126.816061274
 20
141.4923482873
 30
0.0
 11
126.816061274
 21
149.5354096774
 31
0.0
  0
LINE
  5
246
330
23F
100
AcDbEntity
  8
VERMASSUNG
100
AcDbLine
 10
286.816061274
 20
148.5354096774
 30
0.0
 11
126.816061274
 21
148.5354096774
 31
0.0
  0
MTEXT
  5
247
330
23F
100
AcDbEntity
  8
VERMASSUNG
100
AcDbMText
 10
204.9165786127
 20
151.1135450405
 30
0.0
 40
2.0
 41
0.0
 71
     1
 72
     1
  1
160
  7
SLDTEXTSTYLE0
 73
     1
 44
1.0
  0
ENDBLK
  5
241
330
23F
100
AcDbEntity
  8
0
100
AcDbBlockEnd
  0
BLOCK
  5
24A
330
249
100
AcDbEntity
  8
0
100
AcDbBlockBegin
  2
*D5
 70
     1
 10
0.0
 20
0.0
 30
0.0
  3
*D5
  1

  0
SOLID
  5
24C
330
249
100
AcDbEntity
  8
VERMASSUNG
100
AcDbTrace
 10
286.816061274
 20
154.5354096774
 30
0.0
 11
283.816061274
 21
154.9854096774
 31
0.0
 12
283.816061274
 22
154.0854096774
 32
0.0
 13
283.816061274
 23
154.0854096774
 33
0.0
  0
SOLID
  5
24D
330
249
100
AcDbEntity
  8
VERMASSUNG
100
AcDbTrace
 10
94.916061274
 20
154.5354096774
 30
0.0
 11
97.916061274
 21
154.0854096774
 31
0.0
 12
97.916061274
 22
154.9854096774
 32
0.0
 13
97.916061274
 23
154.9854096774
 33
0.0
  0
LINE
  5
24E
330
249
100
AcDbEntity
  8
VERMASSUNG
100
AcDbLine
 10
286.816061274
 20
88.2923482873
 30
0.0
 11
286.816061274
 21
155.5354096774
 31
0.0
  0
LINE
  5
24F
330
249
100
AcDbEntity
  8
VERMASSUNG
100
AcDbLine
 10
94.916061274
 20
130.268408792
 30
0.0
 11
94.916061274
 21
155.5354096774
 31
0.0
  0
LINE
  5
250
330
249
100
AcDbEntity
  8
VERMASSUNG
100
AcDbLine
 10
286.816061274
 20
154.5354096774
 30
0.0
 11
94.916061274
 21
154.5354096774
 31
0.0
  0
MTEXT
  5
251
330
249
100
AcDbEntity
  8
VERMASSUNG
100
AcDbMText
 10
188.1664749836
 20
157.1135450405
 30
0.0
 40
2.0
 41
0.0
 71
     1
 72
     1
  1
191.9
  7
SLDTEXTSTYLE0
 73
     1
 44
1.0
  0
ENDBLK
  5
24B
330
249
100
AcDbEntity
  8
0
100
AcDbBlockEnd
  0
BLOCK
  5
28C
330
28B
100
AcDbEntity
  8
0
100
AcDbBlockBegin
  2
*D6
 70
     1
 10
0.0
 20
0.0
 30
0.0
  3
*D6
  1

  0
SOLID
  5
28E
330
28B
100
AcDbEntity
  8
VERMASSUNG
100
AcDbTrace
 10
11.556430728
 20
88.3536692488
 30
0.0
 11
12.006430728
 21
91.3536692488
 31
0.0
 12
11.106430728
 22
91.3536692488
 32
0.0
 13
11.106430728
 23
91.3536692488
 33
0.0
  0
SOLID
  5
28F
330
28B
100
AcDbEntity
  8
VERMASSUNG
100
AcDbTrace
 10
11.556430728
 20
128.3536692488
 30
0.0
 11
11.106430728
 21
125.3536692488
 31
0.0
 12
12.006430728
 22
125.3536692488
 32
0.0
 13
12.006430728
 23
125.3536692488
 33
0.0
  0
LINE
  5
290
330
28B
100
AcDbEntity
  8
VERMASSUNG
100
AcDbLine
 10
46.6544394007
 20
88.3536692488
 30
0.0
 11
10.556430728
 21
88.3536692488
 31
0.0
  0
LINE
  5
291
330
28B
100
AcDbEntity
  8
VERMASSUNG
100
AcDbLine
 10
46.6544394007
 20
128.3536692488
 30
0.0
 11
10.556430728
 21
128.3536692488
 31
0.0
  0
LINE
  5
292
330
28B
100
AcDbEntity
  8
VERMASSUNG
100
AcDbLine
 10
11.556430728
 20
88.3536692488
 30
0.0
 11
11.556430728
 21
128.3536692488
 31
0.0
  0
MTEXT
  5
293
330
28B
100
AcDbEntity
  8
VERMASSUNG
100
AcDbMText
 10
8.9782952485
 20
105.050646023
 30
0.0
 40
2.0
 41
0.0
 71
     1
 72
     1
  1
%%c
  7
SLDTEXTSTYLE0
 11
6.123233995736766E-17
 21
1.0
 31
0.0
 73
     1
 44
1.0
  0
MTEXT
  5
294
330
28B
100
AcDbEntity
  8
VERMASSUNG
100
AcDbMText
 10
8.9782953649
 20
108.6590523133
 30
0.0
 40
2.0
 41
0.0
 71
     1
 72
     1
  1
40
  7
SLDTEXTSTYLE0
 11
6.123233995736766E-17
 21
1.0
 31
0.0
 73
     1
 44
1.0
  0
ENDBLK
  5
28D
330
28B
100
AcDbEntity
  8
0
100
AcDbBlockEnd
  0
BLOCK
  5
296
330
295
100
AcDbEntity
  8
0
100
AcDbBlockBegin
  2
SW_CENTERMARKSYMBOL_0
 70
     0
 10
0.0
 20
0.0
 30
0.0
  3
SW_CENTERMARKSYMBOL_0
  1

  0
LINE
  5
298
330
295
100
AcDbEntity
  8
VERMASSUNG
 62
     0
100
AcDbLine
 10
0.0
 20
0.0
 30
0.0
 11
0.0
 21
2.5
 31
0.0
  0
LINE
  5
299
330
295
100
AcDbEntity
  8
VERMASSUNG
 62
     0
100
AcDbLine
 10
0.0
 20
0.0
 30
0.0
 11
-2.5
 21
0.0
 31
0.0
  0
LINE
  5
29A
330
295
100
AcDbEntity
  8
VERMASSUNG
 62
     0
100
AcDbLine
 10
0.0
 20
0.0
 30
0.0
 11
0.0
 21
-2.5
 31
0.0
  0
LINE
  5
29B
330
295
100
AcDbEntity
  8
VERMASSUNG
 62
     0
100
AcDbLine
 10
0.0
 20
0.0
 30
0.0
 11
2.5
 21
0.0
 31
0.0
  0
LINE
  5
29C
330
295
100
AcDbEntity
  8
VERMASSUNG
 62
     0
100
AcDbLine
 10
0.0
 20
5.0
 30
0.0
 11
0.0
 21
34.0
 31
0.0
  0
LINE
  5
29D
330
295
100
AcDbEntity
  8
VERMASSUNG
 62
     0
100
AcDbLine
 10
-5.0
 20
0.0
 30
0.0
 11
-34.0
 21
0.0
 31
0.0
  0
LINE
  5
29E
330
295
100
AcDbEntity
  8
VERMASSUNG
 62
     0
100
AcDbLine
 10
0.0
 20
-5.0
 30
0.0
 11
0.0
 21
-34.0
 31
0.0
  0
LINE
  5
29F
330
295
100
AcDbEntity
  8
VERMASSUNG
 62
     0
100
AcDbLine
 10
5.0
 20
0.0
 30
0.0
 11
34.0
 21
0.0
 31
0.0
  0
ENDBLK
  5
297
330
295
100
AcDbEntity
  8
0
100
AcDbBlockEnd
  0
ENDSEC
  0
SECTION
  2
ENTITIES
  0
MTEXT
  5
45
330
1F
100
AcDbEntity
  8
KOPF_DÜNN
100
AcDbMText
 10
13.8892156294
 20
23.8442973028
 30
0.0
 40
3.0
 41
0.0
 71
     1
 72
     1
  1
HA6.BCC.LLB.160
  7
SLDTEXTSTYLE0
 73
     1
 44
1.0
  0
MTEXT
  5
46
330
1F
100
AcDbEntity
  8
VERMASSUNG
100
AcDbMText
 10
13.9329988022
 20
28.8834360957
 30
0.0
 40
3.0
 41
0.0
 71
     1
 72
     1
  1
Bohrstange_Boring bar
  7
SLDTEXTSTYLE0
 73
     1
 44
1.0
  0
MTEXT
  5
47
330
1F
100
AcDbEntity
  8
VERMASSUNG
100
AcDbMText
 10
98.8601118557
 20
13.8365368179
 30
0.0
 40
2.0
 41
0.0
 71
     1
 72
     1
  1
Datum: 24.02.2011
  7
SLDTEXTSTYLE0
 73
     1
 44
1.0
  0
MTEXT
  5
49
330
1F
100
AcDbEntity
  8
VERMASSUNG
100
AcDbMText
 10
13.933048693
 20
18.0482802738
 30
0.0
 40
2.0
 41
0.0
 71
     1
 72
     1
  1
DIN 69893 HSK 63 A ICTM / CC.. 12 04..
  7
SLDTEXTSTYLE1
 73
     1
 44
1.0
  0
MTEXT
  5
4A
330
1F
100
AcDbEntity
  8
VERMASSUNG
100
AcDbMText
 10
13.9808475933
 20
13.9090973692
 30
0.0
 40
2.0
 41
0.0
 71
     1
 72
     1
  1
Gewicht: 1335g
  7
SLDTEXTSTYLE0
 73
     1
 44
1.0
  0
LINE
  5
4B
330
1F
100
AcDbEntity
  8
0
  6
Continuous
 62
     7
370
    15
100
AcDbLine
 10
280.8066097521
 20
96.6355398629
 30
0.0
 11
280.8066097521
 21
96.5220244186
 31
0.0
  0
LINE
  5
4C
330
1F
100
AcDbEntity
  8
0
  6
Continuous
 62
     7
370
    15
100
AcDbLine
 10
278.5412164415
 20
96.2651785062
 30
0.0
 11
278.5412164415
 21
96.3779133931
 31
0.0
  0
LINE
  5
4D
330
1F
100
AcDbEntity
  8
0
  6
Continuous
 62
     7
370
    15
100
AcDbLine
 10
280.9557136734
 20
94.5365738651
 30
0.0
 11
280.9557136734
 21
94.4238621387
 31
0.0
  0
LINE
  5
4E
330
1F
100
AcDbEntity
  8
0
  6
Continuous
 62
     7
370
    15
100
AcDbLine
 10
278.6903203629
 20
94.165361811
 30
0.0
 11
278.6903203629
 21
94.2789473953
 31
0.0
  0
LINE
  5
4F
330
1F
100
AcDbEntity
  8
0
  6
Continuous
 62
     7
370
    15
100
AcDbLine
 10
283.2508999246
 20
95.3751774956
 30
0.0
 11
283.2508999246
 21
95.3891287904
 31
0.0
  0
LINE
  5
50
330
1F
100
AcDbEntity
  8
0
  6
Continuous
 62
     7
370
    15
100
AcDbLine
 10
276.2508999246
 20
95.3891287904
 30
0.0
 11
276.2508999246
 21
95.3751774956
 31
0.0
  0
LINE
  5
51
330
1F
100
AcDbEntity
  8
0
  6
Continuous
 62
     7
370
    15
100
AcDbLine
 10
127.116061274
 20
78.7923482873
 30
0.0
 11
131.766061274
 21
78.7923482873
 31
0.0
  0
LINE
  5
52
330
1F
100
AcDbEntity
  8
0
  6
Continuous
 62
     7
370
    15
100
AcDbLine
 10
131.7702654713
 20
141.7923482873
 30
0.0
 11
127.116061274
 21
141.7923482873
 31
0.0
  0
ARC
  5
53
330
1F
100
AcDbEntity
  8
0
  6
Continuous
 62
     7
370
    15
100
AcDbCircle
 10
127.116061274
 20
79.0923482873
 30
0.0
 40
0.3000000000000398
100
AcDbArc
 50
180.0
 51
270.0
  0
ARC
  5
54
330
1F
100
AcDbEntity
  8
0
  6
Continuous
 62
     7
370
    15
100
AcDbCircle
 10
127.116061274
 20
141.4923482873
 30
0.0
 40
0.3000000000000114
100
AcDbArc
 50
90.0
 51
180.0
  0
ARC
  5
55
330
1F
100
AcDbEntity
  8
0
  6
Continuous
 62
     7
370
    15
100
AcDbCircle
 10
126.316061274
 20
85.7219174256
 30
0.0
 40
0.6000000000000059
100
AcDbArc
 50
33.5573097619
 51
90.0
  0
ARC
  5
56
330
1F
100
AcDbEntity
  8
0
  6
Continuous
 62
     7
370
    15
100
AcDbCircle
 10
126.316061274
 20
134.8627791491
 30
0.0
 40
0.6000000000000136
100
AcDbArc
 50
270.0
 51
326.4426902381
  0
LINE
  5
57
330
1F
100
AcDbEntity
  8
0
  6
Continuous
 62
     7
370
    15
100
AcDbLine
 10
124.816061274
 20
86.0719174256
 30
0.0
 11
125.6727740473
 21
86.3014729214
 31
0.0
  0
LINE
  5
58
330
1F
100
AcDbEntity
  8
0
  6
Continuous
 62
     7
370
    15
100
AcDbLine
 10
125.6727740473
 20
134.2832236533
 30
0.0
 11
124.816061274
 21
134.5127791491
 31
0.0
  0
LINE
  5
59
330
1F
100
AcDbEntity
  8
0
  6
Continuous
 62
     7
370
    15
100
AcDbLine
 10
113.5856390915
 20
133.9501327471
 30
0.0
 11
101.016061274
 21
133.3203943795
 31
0.0
  0
LINE
  5
5A
330
1F
100
AcDbEntity
  8
0
  6
Continuous
 62
     7
370
    15
100
AcDbLine
 10
124.816061274
 20
134.5127791491
 30
0.0
 11
121.9974519165
 21
134.3715662554
 31
0.0
  0
LINE
  5
5B
330
1F
100
AcDbEntity
  8
0
  6
Continuous
 62
     7
370
    15
100
AcDbLine
 10
121.9976733916
 20
86.2131192233
 30
0.0
 11
124.816061274
 21
86.0719174256
 31
0.0
  0
LINE
  5
5C
330
1F
100
AcDbEntity
  8
0
  6
Continuous
 62
     7
370
    15
100
AcDbLine
 10
105.016061274
 20
87.0639013936
 30
0.0
 11
113.5863380432
 21
86.6345288099
 31
0.0
  0
ARC
  5
5D
330
1F
100
AcDbEntity
  8
0
  6
Continuous
 62
     7
370
    15
100
AcDbCircle
 10
125.8280654744
 20
85.7219174256
 30
0.0
 40
0.5999999999999801
100
AcDbArc
 50
90.0
 51
105.0
  0
ARC
  5
5E
330
1F
100
AcDbEntity
  8
0
  6
Continuous
 62
     7
370
    15
100
AcDbCircle
 10
125.8280654744
 20
134.8627791491
 30
0.0
 40
0.5999999999999943
100
AcDbArc
 50
255.0
 51
270.0
  0
LINE
  5
5F
330
1F
100
AcDbEntity
  8
0
  6
Continuous
 62
     7
370
    15
100
AcDbLine
 10
125.8280654744
 20
86.3219174256
 30
0.0
 11
126.316061274
 21
86.3219174256
 31
0.0
  0
LINE
  5
60
330
1F
100
AcDbEntity
  8
0
  6
Continuous
 62
     7
370
    15
100
AcDbLine
 10
126.316061274
 20
134.2627791491
 30
0.0
 11
125.8280654744
 21
134.2627791491
 31
0.0
  0
ARC
  5
61
330
1F
100
AcDbEntity
  8
0
  6
Continuous
 62
     7
370
    15
100
AcDbCircle
 10
155.766061274
 20
91.2923482873
 30
0.0
 40
3.0
100
AcDbArc
 50
90.0
 51
180.0
  0
ARC
  5
62
330
1F
100
AcDbEntity
  8
0
  6
Continuous
 62
     7
370
    15
100
AcDbCircle
 10
155.766061274
 20
129.2923482873
 30
0.0
 40
3.0
100
AcDbArc
 50
180.0
 51
270.0
  0
LINE
  5
63
330
1F
100
AcDbEntity
  8
0
  6
Continuous
 62
     7
370
    15
100
AcDbLine
 10
155.766061274
 20
94.2923482873
 30
0.0
 11
260.816061274
 21
94.2923482873
 31
0.0
  0
LINE
  5
64
330
1F
100
AcDbEntity
  8
0
  6
Continuous
 62
     7
370
    15
100
AcDbLine
 10
260.816061274
 20
126.2923482873
 30
0.0
 11
155.766061274
 21
126.2923482873
 31
0.0
  0
LINE
  5
65
330
1F
100
AcDbEntity
  8
0
  6
Continuous
 62
     7
370
    15
100
AcDbLine
 10
96.066061274
 20
89.4798482873
 30
0.0
 11
103.616061274
 21
89.4798482873
 31
0.0
  0
ARC
  5
66
330
1F
100
AcDbEntity
  8
0
  6
Continuous
 62
     7
370
    15
100
AcDbCircle
 10
103.616061274
 20
88.0798482873
 30
0.0
 40
1.399999999999994
100
AcDbArc
 50
37.6443616934
 51
90.0
  0
LINE
  5
67
330
1F
100
AcDbEntity
  8
0
  6
Continuous
 62
     7
370
    15
100
AcDbLine
 10
95.087001339
 20
90.0451088044
 30
0.0
 11
96.066061274
 21
89.4798482873
 31
0.0
  0
ARC
  5
68
330
1F
100
AcDbEntity
  8
0
  6
Continuous
 62
     7
370
    15
100
AcDbCircle
 10
99.616061274
 20
132.5623482873
 30
0.0
 40
1.400000000000008
100
AcDbArc
 50
270.0
 51
302.5610026528
  0
LINE
  5
69
330
1F
100
AcDbEntity
  8
0
  6
Continuous
 62
     7
370
    15
100
AcDbLine
 10
99.616061274
 20
131.1623482873
 30
0.0
 11
96.2137166781
 21
131.1623482873
 31
0.0
  0
LINE
  5
6A
330
1F
100
AcDbEntity
  8
0
  6
Continuous
 62
     7
370
    15
100
AcDbLine
 10
96.0496014295
 20
131.1528451917
 30
0.0
 11
95.1652978682
 21
130.6422922926
 31
0.0
  0
LINE
  5
6B
330
1F
100
AcDbEntity
  8
0
  6
Continuous
 62
     7
370
    15
100
AcDbLine
 10
268.3262298207
 20
126.7923482873
 30
0.0
 11
261.316061274
 21
126.7923482873
 31
0.0
  0
LINE
  5
6C
330
1F
100
AcDbEntity
  8
0
  6
Continuous
 62
     7
370
    15
100
AcDbLine
 10
261.316061274
 20
126.7923482873
 30
0.0
 11
260.816061274
 21
126.2923482873
 31
0.0
  0
LINE
  5
6D
330
1F
100
AcDbEntity
  8
0
  6
Continuous
 62
     7
370
    15
100
AcDbLine
 10
260.816061274
 20
94.2923482873
 30
0.0
 11
260.9929365956
 21
94.1154729657
 31
0.0
  0
CIRCLE
  5
6E
330
1F
100
AcDbEntity
  8
0
  6
Continuous
 62
     7
370
    15
100
AcDbCircle
 10
279.7502913181
 20
95.3811766249
 30
0.0
 40
3.497542719602912
  0
CIRCLE
  5
6F
330
1F
100
AcDbEntity
  8
0
  6
Continuous
 62
     7
370
    15
100
AcDbCircle
 10
279.7503259353
 20
95.3451132303
 30
0.0
 40
2.632431960724257
  0
CIRCLE
  5
70
330
1F
100
AcDbEntity
  8
0
  6
Continuous
 62
     7
370
    15
100
AcDbCircle
 10
279.7503141887
 20
95.34375057
 30
0.0
 40
1.998635686478488
  0
SPLINE
  5
71
330
1F
100
AcDbEntity
  8
0
  6
Continuous
 62
     7
370
    15
100
AcDbSpline
210
0.0
220
0.0
230
1.0
 70
     8
 71
     3
 72
    15
 73
    11
 74
     0
 42
0.00000001
 43
0.00000001
 40
0.0
 40
0.0
 40
0.0
 40
0.0
 40
0.1262470803729751
 40
0.2533633350513395
 40
0.3794185517357182
 40
0.5042689738351073
 40
0.6284502821607736
 40
0.7526361292231484
 40
0.8774891912115134
 40
1.0
 40
1.0
 40
1.0
 40
1.0
 10
281.4402073425869
 20
95.07826730013296
 30
0.0
 10
281.4810648801076
 20
95.09500006010845
 30
0.0
 10
281.5630612473714
 20
95.12858078022867
 30
0.0
 10
281.6558728046621
 20
95.22755012404056
 30
0.0
 10
281.7116843184783
 20
95.34934549778673
 30
0.0
 10
281.7231588621945
 20
95.48297775168048
 30
0.0
 10
281.6901308944049
 20
95.61269505533751
 30
0.0
 10
281.6164399022224
 20
95.72383955851059
 30
0.0
 10
281.5116333361183
 20
95.80750480935232
 30
0.0
 10
281.4276043825279
 20
95.83026395146855
 30
0.0
 10
281.3859877348191
 20
95.8415357709919
 30
0.0
  0
SPLINE
  5
72
330
1F
100
AcDbEntity
  8
0
  6
Continuous
 62
     7
370
    15
100
AcDbSpline
210
0.0
220
0.0
230
1.0
 70
     8
 71
     3
 72
    12
 73
     8
 74
     0
 42
0.00000001
 43
0.00000001
 40
0.0
 40
0.0
 40
0.0
 40
0.0
 40
0.2058748011360297
 40
0.412099581266319
 40
0.6141693366125394
 40
0.8132901286728281
 40
1.0
 40
1.0
 40
1.0
 40
1.0
 10
281.3859877348192
 20
95.8415357709919
 30
0.0
 10
281.3113900424356
 20
95.86189671871567
 30
0.0
 10
281.1620678445506
 20
95.90265322696655
 30
0.0
 10
280.977598432671
 20
96.0521949883168
 30
0.0
 10
280.8525151854469
 20
96.24569348516758
 30
0.0
 10
280.7949113148368
 20
96.46235062597374
 30
0.0
 10
280.81416786655
 20
96.60348076543681
 30
0.0
 10
280.8234864320082
 20
96.67177598580159
 30
0.0
  0
SPLINE
  5
73
330
1F
100
AcDbEntity
  8
0
  6
Continuous
 62
     7
370
    15
100
AcDbSpline
210
0.0
220
0.0
230
1.0
 70
     8
 71
     3
 72
    23
 73
    19
 74
     0
 42
0.00000001
 43
0.00000001
 40
0.0
 40
0.0
 40
0.0
 40
0.0
 40
0.0625415897567667
 40
0.1268766342576576
 40
0.1895183544881033
 40
0.2540059658422922
 40
0.3161227144820398
 40
0.3800751997669719
 40
0.4416034412085419
 40
0.5049353255902874
 40
0.5661404248701478
 40
0.6291209679675615
 40
0.6903347836860235
 40
0.7533059380537659
 40
0.8148536299082042
 40
0.8781541077289372
 40
0.9382805140940499
 40
1.0
 40
1.0
 40
1.0
 40
1.0
 10
280.8234864320082
 20
96.67177598580159
 30
0.0
 10
280.8272647800332
 20
96.69303618721041
 30
0.0
 10
280.8349298247232
 20
96.73616625168239
 30
0.0
 10
280.8322872411745
 20
96.80212418712078
 30
0.0
 10
280.8190579625604
 20
96.86746650846928
 30
0.0
 10
280.7948417797077
 20
96.92917546542606
 30
0.0
 10
280.7602134416744
 20
96.98647608496995
 30
0.0
 10
280.7169177074383
 20
97.03654733288445
 30
0.0
 10
280.6654059098884
 20
97.07905142990789
 30
0.0
 10
280.6082536006263
 20
97.11201350953591
 30
0.0
 10
280.5459288831493
 20
97.13527460428811
 30
0.0
 10
280.4813546425868
 20
97.14783019492941
 30
0.0
 10
280.4150857209949
 20
97.14962570099227
 30
0.0
 10
280.3500741313829
 20
97.14059825512396
 30
0.0
 10
280.2869271607464
 20
97.12087782181096
 30
0.0
 10
280.2291831881722
 20
97.09143407690755
 30
0.0
 10
280.1766452640975
 20
97.05353918974197
 30
0.0
 10
280.1481789245553
 20
97.02235356444977
 30
0.0
 10
280.1337596625726
 20
97.00655688288083
 30
0.0
  0
SPLINE
  5
74
330
1F
100
AcDbEntity
  8
0
  6
Continuous
 62
     7
370
    15
100
AcDbSpline
210
0.0
220
0.0
230
1.0
 70
     8
 71
     3
 72
    12
 73
     8
 74
     0
 42
0.00000001
 43
0.00000001
 40
0.0
 40
0.0
 40
0.0
 40
0.0
 40
0.2057949882087847
 40
0.4120010155283805
 40
0.614054992793037
 40
0.8131810826684365
 40
1.0
 40
1.0
 40
1.0
 40
1.0
 10
280.1337596625726
 20
97.00655688288083
 30
0.0
 10
280.079502577943
 20
96.95270927480948
 30
0.0
 10
279.9708800397482
 20
96.84490650758822
 30
0.0
 10
279.7499899015058
 20
96.76093541586042
 30
0.0
 10
279.5193962792008
 20
96.74953564629864
 30
0.0
 10
279.3012805899181
 20
96.80738537492353
 30
0.0
 10
279.1870419989148
 20
96.89385076761316
 30
0.0
 10
279.1317441469147
 20
96.93570484202085
 30
0.0
  0
SPLINE
  5
75
330
1F
100
AcDbEntity
  8
0
  6
Continuous
 62
     7
370
    15
100
AcDbSpline
210
0.0
220
0.0
230
1.0
 70
     8
 71
     3
 72
    23
 73
    19
 74
     0
 42
0.00000001
 43
0.00000001
 40
0.0
 40
0.0
 40
0.0
 40
0.0
 40
0.0625065224135064
 40
0.1268032294230283
 40
0.1894476925804603
 40
0.253938143271518
 40
0.3160572949800741
 40
0.3800123143128945
 40
0.4415418845482882
 40
0.5048752096398569
 40
0.5660803612052916
 40
0.6290610219319251
 40
0.6902737759323274
 40
0.7532438799216148
 40
0.814789775542019
 40
0.8780884206730402
 40
0.9382463322174062
 40
1.0
 40
1.0
 40
1.0
 40
1.0
 10
279.1317441469147
 20
96.93570484202085
 30
0.0
 10
279.1149815501426
 20
96.94947343156004
 30
0.0
 10
279.0809762764185
 20
96.97740494255687
 30
0.0
 10
279.0218718673022
 20
97.00778008114317
 30
0.0
 10
278.9580571233847
 20
97.02874810927335
 30
0.0
 10
278.8919714460296
 20
97.03846048917161
 30
0.0
 10
278.8245868869068
 20
97.03702057048733
 30
0.0
 10
278.759237271048
 20
97.02453137356355
 30
0.0
 10
278.6964392173729
 20
97.00121262143847
 30
0.0
 10
278.6391995983478
 20
96.96830404022752
 30
0.0
 10
278.5878890595741
 20
96.92612986638588
 30
0.0
 10
278.54483924814
 20
96.87671166816871
 30
0.0
 10
278.5103749135596
 20
96.82050143032545
 30
0.0
 10
278.4860193710877
 20
96.7600137173374
 30
0.0
 10
278.4719638246277
 20
96.69583813376417
 30
0.0
 10
278.4691191176848
 20
96.63149525551565
 30
0.0
 10
278.4762817578871
 20
96.56744583076068
 30
0.0
 10
278.4895274498268
 20
96.5274679012003
 30
0.0
 10
278.4962369852468
 20
96.50721729174764
 30
0.0
  0
SPLINE
  5
76
330
1F
100
AcDbEntity
  8
0
  6
Continuous
 62
     7
370
    15
100
AcDbSpline
210
0.0
220
0.0
230
1.0
 70
     8
 71
     3
 72
    12
 73
     8
 74
     0
 42
0.00000001
 43
0.00000001
 40
0.0
 40
0.0
 40
0.0
 40
0.0
 40
0.2058497400954359
 40
0.4120524486336973
 40
0.6141081262895464
 40
0.8132431903675409
 40
1.0
 40
1.0
 40
1.0
 40
1.0
 10
278.4962369852468
 20
96.50721729174764
 30
0.0
 10
278.5165542614053
 20
96.43379913913802
 30
0.0
 10
278.5572236515476
 20
96.28683694456385
 30
0.0
 10
278.5207674190025
 20
96.05464446778628
 30
0.0
 10
278.4152621273925
 20
95.84968863644907
 30
0.0
 10
278.2547967941306
 20
95.68952747618619
 30
0.0
 10
278.1213202707361
 20
95.63332493317253
 30
0.0
 10
278.0567227723998
 20
95.606125066211
 30
0.0
  0
SPLINE
  5
77
330
1F
100
AcDbEntity
  8
0
  6
Continuous
 62
     7
370
    15
100
AcDbSpline
210
0.0
220
0.0
230
1.0
 70
     8
 71
     3
 72
    15
 73
    11
 74
     0
 42
0.00000001
 43
0.00000001
 40
0.0
 40
0.0
 40
0.0
 40
0.0
 40
0.1262564375372771
 40
0.2533820972841784
 40
0.3794454811308302
 40
0.5043002379034444
 40
0.62848145304662
 40
0.7526634909001386
 40
0.8775104621122162
 40
1.0
 40
1.0
 40
1.0
 40
1.0
 10
278.0567227723998
 20
95.606125066211
 30
0.0
 10
278.0158633562329
 20
95.58845919425919
 30
0.0
 10
277.9338632240882
 20
95.55300582829372
 30
0.0
 10
277.8410497316505
 20
95.45198118162814
 30
0.0
 10
277.7852405305965
 20
95.32889139413261
 30
0.0
 10
277.7737727694112
 20
95.19484530283125
 30
0.0
 10
277.8068091091676
 20
95.06559329734873
 30
0.0
 10
277.8805063323044
 20
94.95576969160585
 30
0.0
 10
277.9853108757893
 20
94.87414864708799
 30
0.0
 10
278.0693321554664
 20
94.8532208052003
 30
0.0
 10
278.1109423801673
 20
94.84285661880848
 30
0.0
  0
SPLINE
  5
78
330
1F
100
AcDbEntity
  8
0
  6
Continuous
 62
     7
370
    15
100
AcDbSpline
210
0.0
220
0.0
230
1.0
 70
     8
 71
     3
 72
    12
 73
     8
 74
     0
 42
0.00000001
 43
0.00000001
 40
0.0
 40
0.0
 40
0.0
 40
0.0
 40
0.2058713741444637
 40
0.4120924153877067
 40
0.6141683533432822
 40
0.8133068872803227
 40
0.9999999999999999
 40
0.9999999999999999
 40
0.9999999999999999
 40
0.9999999999999999
 10
278.1109423801673
 20
94.84285661880848
 30
0.0
 10
278.185539312891
 20
94.82409845873528
 30
0.0
 10
278.3348598792612
 20
94.78655027834881
 30
0.0
 10
278.5193293629429
 20
94.63958598231659
 30
0.0
 10
278.6444167731057
 20
94.44589331142627
 30
0.0
 10
278.7020195363236
 20
94.22651058247415
 30
0.0
 10
278.6827619088232
 20
94.08236460146657
 30
0.0
 10
278.6734436829784
 20
94.01261640399878
 30
0.0
  0
SPLINE
  5
79
330
1F
100
AcDbEntity
  8
0
  6
Continuous
 62
     7
370
    15
100
AcDbSpline
210
0.0
220
0.0
230
1.0
 70
     8
 71
     3
 72
    15
 73
    11
 74
     0
 42
0.00000001
 43
0.00000001
 40
0.0
 40
0.0
 40
0.0
 40
0.0
 40
0.1268702503425118
 40
0.2539810595565893
 40
0.3800301963393964
 40
0.5048749967544738
 40
0.6290527571813684
 40
0.753238460799593
 40
0.8780953942141803
 40
1.0
 40
1.0
 40
1.0
 40
1.0
 10
278.6734436829784
 20
94.01261640399878
 30
0.0
 10
278.6679383927299
 20
93.9680278275635
 30
0.0
 10
278.6569173736436
 20
93.87876613022641
 30
0.0
 10
278.6976092660719
 20
93.74741738718575
 30
0.0
 10
278.7761750540186
 20
93.63747639178563
 30
0.0
 10
278.8867498392248
 20
93.56062916749582
 30
0.0
 10
279.0157291477598
 20
93.52486916647301
 30
0.0
 10
279.1484775488502
 20
93.534165898631
 30
0.0
 10
279.2723399598469
 20
93.5845269118917
 30
0.0
 10
279.3331360824554
 20
93.64698170209876
 30
0.0
 10
279.3631704524139
 20
93.67783548346311
 30
0.0
  0
SPLINE
  5
7A
330
1F
100
AcDbEntity
  8
0
  6
Continuous
 62
     7
370
    15
100
AcDbSpline
210
0.0
220
0.0
230
1.0
 70
     8
 71
     3
 72
    12
 73
     8
 74
     0
 42
0.00000001
 43
0.00000001
 40
0.0
 40
0.0
 40
0.0
 40
0.0
 40
0.2058321750920781
 40
0.4120750343576317
 40
0.6141697879284072
 40
0.8133029339856942
 40
1.0
 40
1.0
 40
1.0
 40
1.0
 10
279.3631704524139
 20
93.67783548346311
 30
0.0
 10
279.4174360914125
 20
93.73329215670324
 30
0.0
 10
279.5260756422734
 20
93.84431615244426
 30
0.0
 10
279.7470031731082
 20
93.93086065510073
 30
0.0
 10
279.9776316507649
 20
93.94204512057128
 30
0.0
 10
280.1957204850226
 20
93.88144094377458
 30
0.0
 10
280.3099244815244
 20
93.79197744820512
 30
0.0
 10
280.3651859680718
 20
93.74868749419005
 30
0.0
  0
SPLINE
  5
7B
330
1F
100
AcDbEntity
  8
0
  6
Continuous
 62
     7
370
    15
100
AcDbSpline
210
0.0
220
0.0
230
1.0
 70
     8
 71
     3
 72
    15
 73
    11
 74
     0
 42
0.00000001
 43
0.00000001
 40
0.0
 40
0.0
 40
0.0
 40
0.0
 40
0.1267880291974859
 40
0.2538950064075473
 40
0.3799409022876657
 40
0.5047841289692424
 40
0.6289621452108435
 40
0.7531495391280665
 40
0.8780089278148426
 40
1.0
 40
1.0
 40
1.0
 40
1.0
 10
280.3651859680718
 20
93.74868749419005
 30
0.0
 10
280.4007114037302
 20
93.72141890465974
 30
0.0
 10
280.4718516428456
 20
93.66681312872531
 30
0.0
 10
280.6053009241392
 20
93.63575983282772
 30
0.0
 10
280.7394728675895
 20
93.64831402070787
 30
0.0
 10
280.8613115314658
 20
93.70528918286058
 30
0.0
 10
280.9570722956863
 20
93.79893244087766
 30
0.0
 10
281.0159775287056
 20
93.91858201220477
 30
0.0
 10
281.0351077764876
 20
94.05130613741579
 30
0.0
 10
281.0120754695236
 20
94.13554501761075
 30
0.0
 10
281.0006931297398
 20
94.17717504446328
 30
0.0
  0
SPLINE
  5
7C
330
1F
100
AcDbEntity
  8
0
  6
Continuous
 62
     7
370
    15
100
AcDbSpline
210
0.0
220
0.0
230
1.0
 70
     8
 71
     3
 72
    12
 73
     8
 74
     0
 42
0.00000001
 43
0.00000001
 40
0.0
 40
0.0
 40
0.0
 40
0.0
 40
0.2058903596432858
 40
0.4121336430767122
 40
0.6142239121175853
 40
0.8133482777366613
 40
1.0
 40
1.0
 40
1.0
 40
1.0
 10
281.0006931297398
 20
94.17717504446328
 30
0.0
 10
280.9803739127539
 20
94.25220737034874
 30
0.0
 10
280.939700648909
 20
94.4024006376259
 30
0.0
 10
280.9761795548109
 20
94.63720058171918
 30
0.0
 10
281.0817234116789
 20
94.84197783108111
 30
0.0
 10
281.2422001335995
 20
94.99937657398516
 30
0.0
 10
281.3756430675411
 20
95.05254337539502
 30
0.0
 10
281.4402073425869
 20
95.07826730013296
 30
0.0
  0
LINE
  5
7D
330
1F
100
AcDbEntity
  8
0
  6
Continuous
 62
     7
370
    15
100
AcDbLine
 10
278.4962369852
 20
96.622272849
 30
0.0
 11
278.4726101378
 21
96.7216153329
 31
0.0
  0
LWPOLYLINE
  5
7E
330
1F
100
AcDbEntity
  8
0
  6
Continuous
 62
     7
370
    15
100
AcDbPolyline
 90
        3
 70
   128
 43
0.0
 10
280.823486432
 20
96.7867888626
 10
280.8067176933
 20
96.6477101158
 10
280.8066097521
 20
96.6355398629
  0
LWPOLYLINE
  5
7F
330
1F
100
AcDbEntity
  8
0
  6
Continuous
 62
     7
370
    15
100
AcDbPolyline
 90
        3
 70
   128
 43
0.0
 10
278.5412164415
 20
96.3779133931
 10
278.5324988519
 20
96.4869428984
 10
278.4962369852
 20
96.622272849
  0
ARC
  5
80
330
1F
100
AcDbEntity
  8
0
  6
Continuous
 62
     7
370
    15
100
AcDbCircle
 10
281.3238543329
 20
95.5689342068
 30
0.0
 40
0.3932529485366216
100
AcDbArc
 50
287.2099058644
 51
350.8225768564
  0
ARC
  5
81
330
1F
100
AcDbEntity
  8
0
  6
Continuous
 62
     7
370
    15
100
AcDbCircle
 10
278.1732963381
 20
95.3464666806
 30
0.0
 40
0.3934997807059255
100
AcDbArc
 50
190.0838783123
 51
260.8824821377
  0
ARC
  5
82
330
1F
100
AcDbEntity
  8
0
  6
Continuous
 62
     7
370
    15
100
AcDbCircle
 10
281.6435318065
 20
94.5362090815
 30
0.0
 40
0.6878182297767181
100
AcDbArc
 50
107.1939899236
 51
179.9696132474
  0
ARC
  5
83
330
1F
100
AcDbEntity
  8
0
  6
Continuous
 62
     7
370
    15
100
AcDbCircle
 10
278.0018742286
 20
94.2781865991
 30
0.0
 40
0.6884465546414587
100
AcDbArc
 50
0.063317071
 51
80.8844257922
  0
ARC
  5
84
330
1F
100
AcDbEntity
  8
0
  6
Continuous
 62
     7
370
    15
100
AcDbCircle
 10
280.6323181635
 20
94.1536398506
 30
0.0
 40
0.3942077676053616
100
AcDbArc
 50
227.3402557278
 51
351.7855004194
  0
ARC
  5
85
330
1F
100
AcDbEntity
  8
0
  6
Continuous
 62
     7
370
    15
100
AcDbCircle
 10
279.0578627213
 20
94.0422290723
 30
0.0
 40
0.3941739647011518
100
AcDbArc
 50
187.7862994006
 51
320.7643177271
  0
ARC
  5
86
330
1F
100
AcDbEntity
  8
0
  6
Continuous
 62
     7
370
    15
100
AcDbCircle
 10
279.8975987094
 20
93.3555586379
 30
0.0
 40
0.6905716781605356
100
AcDbArc
 50
47.3824271302
 51
140.7047323313
  0
ARC
  5
87
330
1F
100
AcDbEntity
  8
0
  6
Continuous
 62
     7
370
    15
100
AcDbCircle
 10
279.7508999246
 20
95.3832432752
 30
0.0
 40
3.5000049484663
100
AcDbArc
 50
0.096347103
 51
179.903652897
  0
LINE
  5
88
330
1F
100
AcDbEntity
  8
0
  6
Continuous
 62
     7
370
    15
100
AcDbLine
 10
272.8868101229
 20
101.7553839012
 30
0.0
 11
273.9399632236
 21
89.7471118537
 31
0.0
  0
ARC
  5
89
330
1F
100
AcDbEntity
  8
0
  6
Continuous
 62
     7
370
    15
100
AcDbCircle
 10
273.2848456669
 20
101.7897178602
 30
0.0
 40
0.3995135980506466
100
AcDbArc
 50
84.9302140244
 51
184.930046206
  0
LINE
  5
8A
330
1F
100
AcDbEntity
  8
0
  6
Continuous
 62
     7
370
    15
100
AcDbLine
 10
285.3577453233
 20
101.13708081
 30
0.0
 11
273.3201502992
 21
102.1876684827
 31
0.0
  0
ARC
  5
8B
330
1F
100
AcDbEntity
  8
0
  6
Continuous
 62
     7
370
    15
100
AcDbCircle
 10
285.3234101808
 20
100.739045161
 30
0.0
 40
0.3995138043830485
100
AcDbArc
 50
5.0699537939
 51
85.0697859756
  0
LINE
  5
8C
330
1F
100
AcDbEntity
  8
0
  6
Continuous
 62
     7
370
    15
100
AcDbLine
 10
286.7745140061
 20
88.7660789296
 30
0.0
 11
285.7213609054
 21
100.7743509771
 31
0.0
  0
ARC
  5
8D
330
1F
100
AcDbEntity
  8
0
  6
Continuous
 62
     7
370
    15
100
AcDbCircle
 10
286.3764784621
 20
88.7317449706
 30
0.0
 40
0.3995135980504383
100
AcDbArc
 50
264.9302140244
 51
4.9300462061
  0
LINE
  5
8E
330
1F
100
AcDbEntity
  8
0
  6
Continuous
 62
     7
370
    15
100
AcDbLine
 10
274.3035788058
 20
89.3843820208
 30
0.0
 11
286.3411738298
 21
88.3337943481
 31
0.0
  0
ARC
  5
8F
330
1F
100
AcDbEntity
  8
0
  6
Continuous
 62
     7
370
    15
100
AcDbCircle
 10
274.3379139483
 20
89.7824176698
 30
0.0
 40
0.3995138043827427
100
AcDbArc
 50
185.0699537939
 51
265.0697859757
  0
ARC
  5
90
330
1F
100
AcDbEntity
  8
0
  6
Continuous
 62
     7
370
    15
100
AcDbCircle
 10
286.3764563454
 20
88.7317227999
 30
0.0
 40
0.3795379181480851
100
AcDbArc
 50
264.9302140244
 51
4.930046206
  0
LINE
  5
91
330
1F
100
AcDbEntity
  8
0
  6
Continuous
 62
     7
370
    15
100
AcDbLine
 10
286.7545901122
 20
88.7643400608
 30
0.0
 11
285.7014370112
 21
100.7726121084
 31
0.0
  0
ARC
  5
92
330
1F
100
AcDbEntity
  8
0
  6
Continuous
 62
     7
370
    15
100
AcDbCircle
 10
285.3233838224
 20
100.7390715827
 30
0.0
 40
0.3795381145906955
100
AcDbArc
 50
5.069953842
 51
85.0697858764
  0
LINE
  5
93
330
1F
100
AcDbEntity
  8
0
  6
Continuous
 62
     7
370
    15
100
AcDbLine
 10
285.3560022084
 20
101.1172054496
 30
0.0
 11
273.3184071844
 21
102.1677931223
 31
0.0
  0
ARC
  5
94
330
1F
100
AcDbEntity
  8
0
  6
Continuous
 62
     7
370
    15
100
AcDbCircle
 10
273.2848677837
 20
101.7897400309
 30
0.0
 40
0.3795379181480522
100
AcDbArc
 50
84.9302140244
 51
184.9300462061
  0
LINE
  5
95
330
1F
100
AcDbEntity
  8
0
  6
Continuous
 62
     7
370
    15
100
AcDbLine
 10
272.9067340169
 20
101.7571227699
 30
0.0
 11
273.9598871176
 21
89.7488507224
 31
0.0
  0
ARC
  5
96
330
1F
100
AcDbEntity
  8
0
  6
Continuous
 62
     7
370
    15
100
AcDbCircle
 10
274.337940306
 20
89.7823912477
 30
0.0
 40
0.3795381141637796
100
AcDbArc
 50
185.0699537939
 51
265.0697859756
  0
LINE
  5
97
330
1F
100
AcDbEntity
  8
0
  6
Continuous
 62
     7
370
    15
100
AcDbLine
 10
274.3053219206
 20
89.4042573812
 30
0.0
 11
286.3429169447
 21
88.3536697085
 31
0.0
  0
LINE
  5
98
330
1F
100
AcDbEntity
  8
0
  6
Continuous
 62
     7
370
    15
100
AcDbLine
 10
273.2852880021
 20
101.8054653647
 30
0.0
 11
272.9067340169
 21
101.7571227699
 31
0.0
  0
LINE
  5
99
330
1F
100
AcDbEntity
  8
0
  6
Continuous
 62
     7
370
    15
100
AcDbLine
 10
273.2852880021
 20
101.8054653647
 30
0.0
 11
273.3184071844
 21
102.1677931223
 31
0.0
  0
LINE
  5
9A
330
1F
100
AcDbEntity
  8
0
  6
Continuous
 62
     7
370
    15
100
AcDbLine
 10
285.3228830262
 20
100.754877692
 30
0.0
 11
285.3560022084
 21
101.1172054496
 31
0.0
  0
LINE
  5
9B
330
1F
100
AcDbEntity
  8
0
  6
Continuous
 62
     7
370
    15
100
AcDbLine
 10
284.7491886969
 20
100.2076115774
 30
0.0
 11
285.3228830262
 21
100.754877692
 31
0.0
  0
LINE
  5
9C
330
1F
100
AcDbEntity
  8
0
  6
Continuous
 62
     7
370
    15
100
AcDbLine
 10
274.2042883466
 20
100.9223487772
 30
0.0
 11
273.2852880021
 21
101.8054653647
 31
0.0
  0
LINE
  5
9D
330
1F
100
AcDbEntity
  8
0
  6
Continuous
 62
     7
370
    15
100
AcDbLine
 10
274.3384411029
 20
89.7971933171
 30
0.0
 11
273.9598871176
 21
89.7488507224
 31
0.0
  0
LINE
  5
9E
330
1F
100
AcDbEntity
  8
0
  6
Continuous
 62
     7
370
    15
100
AcDbLine
 10
274.9121354321
 20
90.3945208799
 30
0.0
 11
274.3384411029
 21
89.7971933171
 31
0.0
  0
LINE
  5
9F
330
1F
100
AcDbEntity
  8
0
  6
Continuous
 62
     7
370
    15
100
AcDbLine
 10
285.3228830262
 20
100.754877692
 30
0.0
 11
285.7014370112
 21
100.7726121084
 31
0.0
  0
LINE
  5
A0
330
1F
100
AcDbEntity
  8
0
  6
Continuous
 62
     7
370
    15
100
AcDbLine
 10
286.3760361269
 20
88.7466056444
 30
0.0
 11
286.7545901122
 21
88.7643400608
 31
0.0
  0
LINE
  5
A1
330
1F
100
AcDbEntity
  8
0
  6
Continuous
 62
     7
370
    15
100
AcDbLine
 10
285.4570357824
 20
89.6970124686
 30
0.0
 11
286.3760361269
 21
88.7466056444
 31
0.0
  0
ARC
  5
A2
330
1F
100
AcDbEntity
  8
0
  6
Continuous
 62
     7
370
    15
100
AcDbCircle
 10
276.1663468772
 20
98.9139088323
 30
0.0
 40
0.9987839951264039
100
AcDbArc
 50
84.9302140244
 51
184.9300462061
  0
LINE
  5
A3
330
1F
100
AcDbEntity
  8
0
  6
Continuous
 62
     7
370
    15
100
AcDbLine
 10
282.9916154211
 20
99.3208094306
 30
0.0
 11
276.2546084581
 21
99.9087853886
 31
0.0
  0
ARC
  5
A4
330
1F
100
AcDbEntity
  8
0
  6
Continuous
 62
     7
370
    15
100
AcDbCircle
 10
282.9057775649
 20
98.3257203081
 30
0.0
 40
0.9987845109572462
100
AcDbArc
 50
5.0699537939
 51
85.0697859756
  0
LINE
  5
A5
330
1F
100
AcDbEntity
  8
0
  6
Continuous
 62
     7
370
    15
100
AcDbLine
 10
275.1712580172
 20
98.828073935
 30
0.0
 11
275.7606697526
 21
92.1074779823
 31
0.0
  0
LINE
  5
A6
330
1F
100
AcDbEntity
  8
0
  6
Continuous
 62
     7
370
    15
100
AcDbLine
 10
284.4900661118
 20
91.6933888958
 30
0.0
 11
283.9006543764
 21
98.4139848485
 31
0.0
  0
ARC
  5
A7
330
1F
100
AcDbEntity
  8
0
  6
Continuous
 62
     7
370
    15
100
AcDbCircle
 10
283.494977252
 20
91.607553998
 30
0.0
 40
0.998783994938129
100
AcDbArc
 50
264.9302140086
 51
4.9300462354
  0
LINE
  5
A8
330
1F
100
AcDbEntity
  8
0
  6
Continuous
 62
     7
370
    15
100
AcDbLine
 10
276.6697087079
 20
91.2006534002
 30
0.0
 11
283.4067156709
 21
90.6126774419
 31
0.0
  0
ARC
  5
A9
330
1F
100
AcDbEntity
  8
0
  6
Continuous
 62
     7
370
    15
100
AcDbCircle
 10
276.7555465642
 20
92.1957425227
 30
0.0
 40
0.9987845109572009
100
AcDbArc
 50
185.0699537939
 51
265.0697859757
  0
CIRCLE
  5
AA
330
1F
100
AcDbEntity
  8
0
  6
Continuous
 62
     7
370
    15
100
AcDbCircle
 10
279.8283036441
 20
95.2675386275
 30
0.0
 40
3.797390066527465
  0
ARC
  5
AB
330
1F
100
AcDbEntity
  8
0
  6
Continuous
 62
     7
370
    15
100
AcDbCircle
 10
279.8351721681
 20
95.3452500707
 30
0.0
 40
3.795492330751078
100
AcDbArc
 50
264.9256990214
 51
359.9351077544
  0
ARC
  5
AC
330
1F
100
AcDbEntity
  8
0
  6
Continuous
 62
     7
370
    15
100
AcDbCircle
 10
279.8251931123
 20
95.3451603952
 30
0.0
 40
3.794533382222078
100
AcDbArc
 50
180.0635545844
 51
265.0756682306
  0
SPLINE
  5
AD
330
1F
100
AcDbEntity
  8
0
  6
Continuous
 62
     7
370
    15
100
AcDbSpline
210
0.0
220
0.0
230
1.0
 70
     8
 71
     3
 72
    11
 73
     7
 74
     0
 42
0.00000001
 43
0.00000001
 40
0.0
 40
0.0
 40
0.0
 40
0.0
 40
0.3367831131413956
 40
0.6790111347689832
 40
0.9923717339918071
 40
1.0
 40
1.0
 40
1.0
 40
1.0
 10
274.204288346645
 20
100.9223487771568
 30
0.0
 10
274.2597781844419
 20
100.8684097780369
 30
0.0
 10
274.3716549866342
 20
100.7596597262332
 30
0.0
 10
274.5411028507239
 20
100.5880828333852
 30
0.0
 10
274.6451588234331
 20
100.4800208160957
 30
0.0
 10
274.6921003635599
 20
100.4305316959619
 30
0.0
 10
274.6932159242341
 20
100.4293555923216
 30
0.0
  0
SPLINE
  5
AE
330
1F
100
AcDbEntity
  8
0
  6
Continuous
 62
     7
370
    15
100
AcDbSpline
210
0.0
220
0.0
230
1.0
 70
     8
 71
     3
 72
    11
 73
     7
 74
     0
 42
0.00000001
 43
0.00000001
 40
0.0
 40
0.0
 40
0.0
 40
0.0
 40
0.3372314186521309
 40
0.6736321483071602
 40
0.9918835608968573
 40
0.9999999999999999
 40
0.9999999999999999
 40
0.9999999999999999
 40
0.9999999999999999
 10
284.749188696945
 20
100.2076115773738
 30
0.0
 10
284.6942848843253
 20
100.1545927544302
 30
0.0
 10
284.5846125015055
 20
100.0486857077412
 30
0.0
 10
284.4131603324522
 20
99.87581606199628
 30
0.0
 10
284.3076816882569
 20
99.76647866120985
 30
0.0
 10
284.2597254858471
 20
99.71592200489086
 30
0.0
 10
284.2585328634904
 20
99.71466471186967
 30
0.0
  0
LINE
  5
AF
330
1F
100
AcDbEntity
  8
0
  6
Continuous
 62
     7
370
    15
100
AcDbLine
 10
286.3760361269
 20
88.7466056444
 30
0.0
 11
286.3429169447
 21
88.3536697085
 31
0.0
  0
LINE
  5
B0
330
1F
100
AcDbEntity
  8
0
  6
Continuous
 62
     7
370
    15
100
AcDbLine
 10
274.3384411029
 20
89.7971933171
 30
0.0
 11
274.3053219206
 21
89.4042573812
 31
0.0
  0
SPLINE
  5
B1
330
1F
100
AcDbEntity
  8
0
  6
Continuous
 62
     7
370
    15
100
AcDbSpline
210
0.0
220
0.0
230
1.0
 70
     8
 71
     3
 72
    11
 73
     7
 74
     0
 42
0.00000001
 43
0.00000001
 40
0.0
 40
0.0
 40
0.0
 40
0.0
 40
0.0081164391031863
 40
0.3263678516928559
 40
0.66276858134785
 40
1.0
 40
1.0
 40
1.0
 40
1.0
 10
275.402791265549
 20
90.88049525537302
 30
0.0
 10
275.4015986431921
 20
90.87937311401681
 30
0.0
 10
275.3536424407815
 20
90.83425100331404
 30
0.0
 10
275.2481637965874
 20
90.73314499706149
 30
0.0
 10
275.0767116275338
 20
90.56394560243324
 30
0.0
 10
274.967039244714
 20
90.4510421963076
 30
0.0
 10
274.9121354320944
 20
90.39452087986791
 30
0.0
  0
SPLINE
  5
B2
330
1F
100
AcDbEntity
  8
0
  6
Continuous
 62
     7
370
    15
100
AcDbSpline
210
0.0
220
0.0
230
1.0
 70
     8
 71
     3
 72
    14
 73
    10
 74
     0
 42
0.00000001
 43
0.00000001
 40
0.0
 40
0.0
 40
0.0
 40
0.0
 40
0.0076078452721201
 40
0.1629874631620756
 40
0.3207220632347077
 40
0.4900060525181807
 40
0.6629673458728425
 40
0.8292185822131343
 40
1.0
 40
1.0
 40
1.0
 40
1.0
 10
284.9681082048053
 20
90.17949243293148
 30
0.0
 10
284.9692237544749
 20
90.17844285704712
 30
0.0
 10
284.9931228486571
 20
90.1559571591036
 30
0.0
 10
285.0419252063277
 20
90.10964511439455
 30
0.0
 10
285.1191429898548
 20
90.03527240583946
 30
0.0
 10
285.2022833135559
 20
89.95402212110855
 30
0.0
 10
285.2884161516799
 20
89.86854499686962
 30
0.0
 10
285.3748812611183
 20
89.78150868940676
 30
0.0
 10
285.4294066433114
 20
89.72542913758394
 30
0.0
 10
285.4570357823941
 20
89.69701246859988
 30
0.0
  0
LINE
  5
B3
330
1F
100
AcDbEntity
  8
0
  6
Continuous
 62
     7
370
    15
100
AcDbLine
 10
142.906061274
 20
82.7945111283
 30
0.0
 11
142.906061274
 21
130.1423482873
 31
0.0
  0
SPLINE
  5
B4
330
1F
100
AcDbEntity
  8
0
  6
Continuous
 62
     7
370
    15
100
AcDbSpline
210
0.0
220
0.0
230
1.0
 70
     8
 71
     3
 72
     8
 73
     4
 74
     0
 42
0.00000001
 43
0.00000001
 40
0.0
 40
0.0
 40
0.0
 40
0.0
 40
1.0
 40
1.0
 40
1.0
 40
1.0
 10
142.9060612739632
 20
82.79451112828502
 30
0.0
 10
142.413722151182
 20
81.89724109407832
 30
0.0
 10
141.9196081031399
 20
81.00095667902609
 30
0.0
 10
141.4241284424741
 20
80.10543059109274
 30
0.0
  0
LINE
  5
B5
330
1F
100
AcDbEntity
  8
0
  6
Continuous
 62
     7
370
    15
100
AcDbLine
 10
141.4241284425
 20
80.1054305911
 30
0.0
 11
141.4241284425
 21
130.1423482873
 31
0.0
  0
SPLINE
  5
B6
330
1F
100
AcDbEntity
  8
0
  6
Continuous
 62
     7
370
    15
100
AcDbSpline
210
0.0
220
0.0
230
1.0
 70
    24
 71
     3
 72
     8
 73
     4
 74
     0
 42
0.00000001
 43
0.00000001
 40
0.0
 40
0.0
 40
0.0
 40
0.0
 40
1.0
 40
1.0
 40
1.0
 40
1.0
 10
141.4241284424741
 20
130.14234828734
 30
0.0
 10
141.9308085506246
 20
130.14234828734
 30
0.0
 10
142.4261092795983
 20
130.14234828734
 30
0.0
 10
142.9060612739632
 20
130.14234828734
 30
0.0
  0
LINE
  5
B7
330
1F
100
AcDbEntity
  8
0
  6
Continuous
 62
     7
370
    15
100
AcDbLine
 10
152.766061274
 20
80.7320708867
 30
0.0
 11
152.766061274
 21
130.1423482873
 31
0.0
  0
SPLINE
  5
B8
330
1F
100
AcDbEntity
  8
0
  6
Continuous
 62
     7
370
    15
100
AcDbSpline
210
0.0
220
0.0
230
1.0
 70
     8
 71
     3
 72
    10
 73
     6
 74
     0
 42
0.00000001
 43
0.00000001
 40
0.0
 40
0.0
 40
0.0
 40
0.0
 40
0.5
 40
0.5
 40
1.0
 40
1.0
 40
1.0
 40
1.0
 10
152.7660612739632
 20
80.73207088674704
 30
0.0
 10
152.7660612739632
 20
80.5721836185534
 30
0.0
 10
152.7047516227273
 20
80.4110563630388
 30
0.0
 10
152.4856519851922
 20
80.176957364684
 30
0.0
 10
152.3276037788788
 20
80.1054305910928
 30
0.0
 10
152.1660612739632
 20
80.1054305910928
 30
0.0
  0
SPLINE
  5
B9
330
1F
100
AcDbEntity
  8
0
  6
Continuous
 62
     7
370
    15
100
AcDbSpline
210
0.0
220
0.0
230
1.0
 70
    24
 71
     3
 72
    12
 73
     8
 74
     0
 42
0.00000001
 43
0.00000001
 40
0.0
 40
0.0
 40
0.0
 40
0.0
 40
0.2500000000000007
 40
0.2500000000000007
 40
0.5000000000000013
 40
0.5000000000000013
 40
1.0
 40
1.0
 40
1.0
 40
1.0
 10
152.1660612739632
 20
130.14234828734
 30
0.0
 10
152.2563003416502
 20
130.14234828734
 30
0.0
 10
152.3471984557567
 20
130.14234828734
 30
0.0
 10
152.5017954922452
 20
130.14234828734
 30
0.0
 10
152.5667739083533
 20
130.14234828734
 30
0.0
 10
152.7186089362896
 20
130.14234828734
 30
0.0
 10
152.7660612739632
 20
130.14234828734
 30
0.0
 10
152.7660612739632
 20
130.14234828734
 30
0.0
  0
LINE
  5
BA
330
1F
100
AcDbEntity
  8
0
  6
Continuous
 62
     7
370
    15
100
AcDbLine
 10
152.166061274
 20
80.1054305911
 30
0.0
 11
148.2079941055
 21
80.1054305911
 31
0.0
  0
LINE
  5
BB
330
1F
100
AcDbEntity
  8
0
  6
Continuous
 62
     7
370
    15
100
AcDbLine
 10
148.2079941055
 20
80.1054305911
 30
0.0
 11
148.2079941055
 21
130.1423482873
 31
0.0
  0
LINE
  5
BC
330
1F
100
AcDbEntity
  8
0
  6
Continuous
 62
     7
370
    15
100
AcDbLine
 10
148.2079941055
 20
130.1423482873
 30
0.0
 11
152.166061274
 21
130.1423482873
 31
0.0
  0
LINE
  5
BD
330
1F
100
AcDbEntity
  8
0
  6
Continuous
 62
     7
370
    15
100
AcDbLine
 10
131.766061274
 20
130.1423482873
 30
0.0
 11
141.4241284425
 21
130.1423482873
 31
0.0
  0
LINE
  5
BE
330
1F
100
AcDbEntity
  8
0
  6
Continuous
 62
     7
370
    15
100
AcDbLine
 10
141.4241284425
 20
80.1054305911
 30
0.0
 11
139.766061274
 21
80.1054305911
 31
0.0
  0
SPLINE
  5
BF
330
1F
100
AcDbEntity
  8
0
  6
Continuous
 62
     7
370
    15
100
AcDbSpline
210
0.0
220
0.0
230
1.0
 70
     8
 71
     3
 72
    28
 73
    24
 74
     0
 42
0.00000001
 43
0.00000001
 40
0.0
 40
0.0
 40
0.0
 40
0.0
 40
0.125
 40
0.125
 40
0.1875000000000002
 40
0.1875000000000002
 40
0.2500000000000004
 40
0.2500000000000004
 40
0.3750000000000009
 40
0.3750000000000009
 40
0.4375000000000009
 40
0.4375000000000009
 40
0.5000000000000009
 40
0.5000000000000009
 40
0.6250000000000008
 40
0.6250000000000008
 40
0.7500000000000007
 40
0.7500000000000007
 40
0.8125000000000004
 40
0.8125000000000004
 40
0.8750000000000002
 40
0.8750000000000002
 40
1.0
 40
1.0
 40
1.0
 40
1.0
 10
139.7660612739632
 20
80.10543059109273
 30
0.0
 10
139.2343535164703
 20
80.10543059109271
 30
0.0
 10
138.7121149511599
 20
80.08964587714256
 30
0.0
 10
137.9422444648849
 20
80.04465046306636
 30
0.0
 10
137.6878848926936
 20
80.02609546799064
 30
0.0
 10
137.1837633119951
 20
79.98224274554414
 30
0.0
 10
136.9340404945671
 20
79.95689813859194
 30
0.0
 10
136.2084505431207
 20
79.87349606084183
 30
0.0
 10
135.7500902815392
 20
79.80763050169074
 30
0.0
 10
135.0995923381453
 20
79.69866016119894
 30
0.0
 10
134.8879102873529
 20
79.6604205254323
 30
0.0
 10
134.4838387982149
 20
79.58266178801294
 30
0.0
 10
134.291332284394
 20
79.54316082583759
 30
0.0
 10
133.7414973133727
 20
79.4242530834716
 30
0.0
 10
133.4115685350639
 20
79.34443540204697
 30
0.0
 10
132.8270972664952
 20
79.19109224025092
 30
0.0
 10
132.5808201284818
 20
79.11975848698167
 30
0.0
 10
132.2809773357837
 20
79.02581497990704
 30
0.0
 10
132.1925204787115
 20
78.9966211865471
 30
0.0
 10
132.0391591254064
 20
78.94315461228369
 30
0.0
 10
131.9740709111802
 20
78.91879527800852
 30
0.0
 10
131.8184768952394
 20
78.85520513256381
 30
0.0
 10
131.7660612739632
 20
78.82510219747444
 30
0.0
 10
131.7660612739632
 20
78.8082253044775
 30
0.0
  0
LINE
  5
C0
330
1F
100
AcDbEntity
  8
0
  6
Continuous
 62
     7
370
    15
100
AcDbLine
 10
131.766061274
 20
78.8082253045
 30
0.0
 11
131.766061274
 21
78.7923482873
 31
0.0
  0
SPLINE
  5
C1
330
1F
100
AcDbEntity
  8
0
  6
Continuous
 62
     7
370
    15
100
AcDbSpline
210
0.0
220
0.0
230
1.0
 70
     8
 71
     3
 72
    23
 73
    19
 74
     0
 42
0.00000001
 43
0.00000001
 40
0.0
 40
0.0
 40
0.0
 40
0.0
 40
0.1038035146324083
 40
0.1565103724816375
 40
0.2099973402771691
 40
0.3137613544584515
 40
0.3664029152074514
 40
0.4197768754505556
 40
0.4724008945937181
 40
0.5257538543460543
 40
0.5794766981554433
 40
0.6339611138166611
 40
0.6872821437292168
 40
0.7409829035365936
 40
0.7958991837351527
 40
0.8512439231136124
 40
0.9563115427747292
 40
1.0
 40
1.0
 40
1.0
 40
1.0
 10
139.7660612739632
 20
140.7595437605042
 30
0.0
 10
139.3290614311103
 20
140.7647860055166
 30
0.0
 10
138.6701722940562
 20
140.7726900319114
 30
0.0
 10
137.8062121954565
 20
140.8204582723965
 30
0.0
 10
136.9614727142844
 20
140.883266709627
 30
0.0
 10
136.1526337761887
 20
140.9689961145262
 30
0.0
 10
135.3984018605338
 20
141.0693692269806
 30
0.0
 10
134.8583291739497
 20
141.1508398530416
 30
0.0
 10
134.3500510937495
 20
141.2359411098337
 30
0.0
 10
133.8780526117839
 20
141.3222096091963
 30
0.0
 10
133.4419247269958
 20
141.4080905296699
 30
0.0
 10
133.050649661614
 20
141.4901659414529
 30
0.0
 10
132.706803114039
 20
141.5661609811388
 30
0.0
 10
132.4118212582799
 20
141.6342019192449
 30
0.0
 10
132.1661174447702
 20
141.6928933925129
 30
0.0
 10
131.9193753646645
 20
141.7534589742409
 30
0.0
 10
131.7800605326244
 20
141.7887965095479
 30
0.0
 10
131.7724891308342
 20
141.7907173888251
 30
0.0
 10
131.7702654713362
 20
141.7912815355403
 30
0.0
  0
LINE
  5
C2
330
1F
100
AcDbEntity
  8
0
  6
Continuous
 62
     7
370
    15
100
AcDbLine
 10
141.4241284425
 20
140.7595437605
 30
0.0
 11
139.766061274
 21
140.7595437605
 31
0.0
  0
LINE
  5
C3
330
1F
100
AcDbEntity
  8
0
  6
Continuous
 62
     7
370
    15
100
AcDbLine
 10
141.4241284425
 20
134.7510379497
 30
0.0
 11
141.4241284425
 21
140.7595437605
 31
0.0
  0
LINE
  5
C4
330
1F
100
AcDbEntity
  8
0
  6
Continuous
 62
     7
370
    15
100
AcDbLine
 10
139.0116816197
 20
134.7510379497
 30
0.0
 11
141.4241284425
 21
134.7510379497
 31
0.0
  0
SPLINE
  5
C5
330
1F
100
AcDbEntity
  8
0
  6
Continuous
 62
     7
370
    15
100
AcDbSpline
210
0.0
220
0.0
230
1.0
 70
     8
 71
     3
 72
    20
 73
    16
 74
     0
 42
0.00000001
 43
0.00000001
 40
0.0
 40
0.0
 40
0.0
 40
0.0
 40
0.2499999999999997
 40
0.2499999999999997
 40
0.3749999999999999
 40
0.3749999999999999
 40
0.5000000000000001
 40
0.5000000000000001
 40
0.6250000000000001
 40
0.6250000000000001
 40
0.75
 40
0.75
 40
0.875
 40
0.875
 40
1.0
 40
1.0
 40
1.0
 40
1.0
 10
131.7660612739632
 20
130.14234828734
 30
0.0
 10
132.0144350082513
 20
130.7962107156374
 30
0.0
 10
132.3340051005966
 20
131.3999964976344
 30
0.0
 10
132.9563113338013
 20
132.2268352338031
 30
0.0
 10
133.187735594232
 20
132.489263871756
 30
0.0
 10
133.7089499338817
 20
132.9859265258609
 30
0.0
 10
133.9955704165168
 20
133.2165134048824
 30
0.0
 10
134.6150551578244
 20
133.6330676294651
 30
0.0
 10
134.9493555373114
 20
133.8205654314326
 30
0.0
 10
135.6746160099362
 20
134.151962409069
 30
0.0
 10
136.0565310673266
 20
134.2914663965643
 30
0.0
 10
136.8513192434983
 20
134.5169199040352
 30
0.0
 10
137.2654774377047
 20
134.6035460155788
 30
0.0
 10
138.1310237782861
 20
134.721526804433
 30
0.0
 10
138.5689113932979
 20
134.7510379497074
 30
0.0
 10
139.0116816196525
 20
134.7510379497074
 30
0.0
  0
SPLINE
  5
C6
330
1F
100
AcDbEntity
  8
0
  6
Continuous
 62
     7
370
    15
100
AcDbSpline
210
0.0
220
0.0
230
1.0
 70
     8
 71
     3
 72
     8
 73
     4
 74
     0
 42
0.00000001
 43
0.00000001
 40
0.0
 40
0.0
 40
0.0
 40
0.0
 40
1.0
 40
1.0
 40
1.0
 40
1.0
 10
148.2079941054523
 20
80.10543059109273
 30
0.0
 10
147.7125144447865
 20
81.00095667902607
 30
0.0
 10
147.2184003967444
 20
81.89724109407832
 30
0.0
 10
146.7260612739632
 20
82.79451112828501
 30
0.0
  0
LINE
  5
C7
330
1F
100
AcDbEntity
  8
0
  6
Continuous
 62
     7
370
    15
100
AcDbLine
 10
146.726061274
 20
82.7945111283
 30
0.0
 11
146.726061274
 21
130.1423482873
 31
0.0
  0
SPLINE
  5
C8
330
1F
100
AcDbEntity
  8
0
  6
Continuous
 62
     7
370
    15
100
AcDbSpline
210
0.0
220
0.0
230
1.0
 70
    24
 71
     3
 72
     8
 73
     4
 74
     0
 42
0.00000001
 43
0.00000001
 40
0.0
 40
0.0
 40
0.0
 40
0.0
 40
1.0
 40
1.0
 40
1.0
 40
1.0
 10
146.7260612739632
 20
130.14234828734
 30
0.0
 10
147.2060132683281
 20
130.14234828734
 30
0.0
 10
147.7013139973018
 20
130.14234828734
 30
0.0
 10
148.2079941054523
 20
130.14234828734
 30
0.0
  0
LINE
  5
C9
330
1F
100
AcDbEntity
  8
0
  6
Continuous
 62
     7
370
    15
100
AcDbLine
 10
126.816061274
 20
79.0923482873
 30
0.0
 11
126.816061274
 21
141.4921715477
 31
0.0
  0
SPLINE
  5
CA
330
1F
100
AcDbEntity
  8
0
  6
Continuous
 62
     7
370
    15
100
AcDbSpline
210
0.0
220
0.0
230
1.0
 70
    24
 71
     3
 72
    14
 73
    10
 74
     0
 42
0.00000001
 43
0.00000001
 40
0.0
 40
0.0
 40
0.0
 40
0.0
 40
0.4999999999999994
 40
0.4999999999999994
 40
0.7499999999999981
 40
0.7499999999999981
 40
0.874999999999999
 40
0.874999999999999
 40
1.0
 40
1.0
 40
1.0
 40
1.0
 10
146.6283864716309
 20
83.89234828733989
 30
0.0
 10
146.5816017665827
 20
83.89234828733989
 30
0.0
 10
146.5195505698031
 20
83.89234828733989
 30
0.0
 10
146.3761589312525
 20
83.89234828733989
 30
0.0
 10
146.3200152777014
 20
83.89234828733989
 30
0.0
 10
146.2070642555652
 20
83.89234828733989
 30
0.0
 10
146.1640634935271
 20
83.89234828733989
 30
0.0
 10
146.0600007832206
 20
83.89234828733989
 30
0.0
 10
145.9946685448636
 20
83.89234828733989
 30
0.0
 10
145.9260612739632
 20
83.89234828733989
 30
0.0
  0
SPLINE
  5
CB
330
1F
100
AcDbEntity
  8
0
  6
Continuous
 62
     7
370
    15
100
AcDbSpline
210
0.0
220
0.0
230
1.0
 70
    24
 71
     3
 72
    12
 73
     8
 74
     0
 42
0.00000001
 43
0.00000001
 40
0.0
 40
0.0
 40
0.0
 40
0.0
 40
0.4999999999999942
 40
0.4999999999999942
 40
0.7499999999999971
 40
0.7499999999999971
 40
1.0
 40
1.0
 40
1.0
 40
1.0
 10
146.3317637422723
 20
136.69234828734
 30
0.0
 10
146.2886781926616
 20
136.69234828734
 30
0.0
 10
146.2395259909145
 20
136.69234828734
 30
0.0
 10
146.1430533966249
 20
136.69234828734
 30
0.0
 10
146.1069518114907
 20
136.69234828734
 30
0.0
 10
146.0238460536281
 20
136.69234828734
 30
0.0
 10
145.975849456664
 20
136.69234828734
 30
0.0
 10
145.9260612739631
 20
136.69234828734
 30
0.0
  0
SPLINE
  5
CC
330
1F
100
AcDbEntity
  8
0
  6
Continuous
 62
     7
370
    15
100
AcDbSpline
210
0.0
220
0.0
230
1.0
 70
     8
 71
     3
 72
    10
 73
     6
 74
     0
 42
0.00000001
 43
0.00000001
 40
0.0
 40
0.0
 40
0.0
 40
0.0
 40
0.5
 40
0.5
 40
1.0
 40
1.0
 40
1.0
 40
1.0
 10
146.7260612739632
 20
137.4120021383758
 30
0.0
 10
146.7260612739632
 20
137.2682320805578
 30
0.0
 10
146.6900122152443
 20
137.1258127180626
 30
0.0
 10
146.5545033544703
 20
136.8759184247054
 30
0.0
 10
146.4546273613742
 20
136.7678880884571
 30
0.0
 10
146.3317637422722
 20
136.6923482873399
 30
0.0
  0
SPLINE
  5
CD
330
1F
100
AcDbEntity
  8
0
  6
Continuous
 62
     7
370
    15
100
AcDbSpline
210
0.0
220
0.0
230
1.0
 70
     8
 71
     3
 72
    10
 73
     6
 74
     0
 42
0.00000001
 43
0.00000001
 40
0.0
 40
0.0
 40
0.0
 40
0.0
 40
0.5
 40
0.5
 40
1.0
 40
1.0
 40
1.0
 40
1.0
 10
146.6999136508031
 20
130.14234828734
 30
0.0
 10
146.7086032937147
 20
130.1892271366581
 30
0.0
 10
146.7151423584652
 20
130.2366496020594
 30
0.0
 10
146.7239009928583
 20
130.3325864006461
 30
0.0
 10
146.7260612739632
 20
130.3805016886566
 30
0.0
 10
146.7260612739632
 20
130.4282149188012
 30
0.0
  0
SPLINE
  5
CE
330
1F
100
AcDbEntity
  8
0
  6
Continuous
 62
     7
370
    15
100
AcDbSpline
210
0.0
220
0.0
230
1.0
 70
     8
 71
     3
 72
    10
 73
     6
 74
     0
 42
0.00000001
 43
0.00000001
 40
0.0
 40
0.0
 40
0.0
 40
0.0
 40
0.5
 40
0.5
 40
1.0
 40
1.0
 40
1.0
 40
1.0
 10
143.3003588056541
 20
136.6923482873399
 30
0.0
 10
143.1788185419856
 20
136.7670744545517
 30
0.0
 10
143.0774841816367
 20
136.8760194704685
 30
0.0
 10
142.9418452387482
 20
137.1264499512301
 30
0.0
 10
142.9060612739632
 20
137.2688693133291
 30
0.0
 10
142.9060612739632
 20
137.4120021383758
 30
0.0
  0
SPLINE
  5
CF
330
1F
100
AcDbEntity
  8
0
  6
Continuous
 62
     7
370
    15
100
AcDbSpline
210
0.0
220
0.0
230
1.0
 70
    24
 71
     3
 72
    12
 73
     8
 74
     0
 42
0.00000001
 43
0.00000001
 40
0.0
 40
0.0
 40
0.0
 40
0.0
 40
0.2499999999999983
 40
0.2499999999999983
 40
0.4999999999999967
 40
0.4999999999999967
 40
1.0
 40
1.0
 40
1.0
 40
1.0
 10
143.7060612739632
 20
136.69234828734
 30
0.0
 10
143.6567179121536
 20
136.69234828734
 30
0.0
 10
143.6080272138518
 20
136.69234828734
 30
0.0
 10
143.5251761162815
 20
136.69234828734
 30
0.0
 10
143.4889761486608
 20
136.69234828734
 30
0.0
 10
143.3932262321115
 20
136.69234828734
 30
0.0
 10
143.3433442622993
 20
136.69234828734
 30
0.0
 10
143.3003588056541
 20
136.69234828734
 30
0.0
  0
SPLINE
  5
D0
330
1F
100
AcDbEntity
  8
0
  6
Continuous
 62
     7
370
    15
100
AcDbSpline
210
0.0
220
0.0
230
1.0
 70
    24
 71
     3
 72
    14
 73
    10
 74
     0
 42
0.00000001
 43
0.00000001
 40
0.0
 40
0.0
 40
0.0
 40
0.0
 40
0.1250000000000009
 40
0.1250000000000009
 40
0.2500000000000018
 40
0.2500000000000018
 40
0.5000000000000002
 40
0.5000000000000002
 40
1.0
 40
1.0
 40
1.0
 40
1.0
 10
143.7060612739632
 20
83.89234828733989
 30
0.0
 10
143.636714552232
 20
83.89234828733989
 30
0.0
 10
143.571516498848
 20
83.89234828733989
 30
0.0
 10
143.467137306221
 20
83.89234828733989
 30
0.0
 10
143.424234935212
 20
83.89234828733989
 30
0.0
 10
143.3119092776073
 20
83.89234828733989
 30
0.0
 10
143.2566855832536
 20
83.89234828733989
 30
0.0
 10
143.112628204486
 20
83.89234828733989
 30
0.0
 10
143.0505475076545
 20
83.89234828733989
 30
0.0
 10
143.0037360762955
 20
83.89234828733989
 30
0.0
  0
SPLINE
  5
D1
330
1F
100
AcDbEntity
  8
0
  6
Continuous
 62
     7
370
    15
100
AcDbSpline
210
0.0
220
0.0
230
1.0
 70
     8
 71
     3
 72
     9
 73
     5
 74
     0
 42
0.00000001
 43
0.00000001
 40
0.0
 40
0.0
 40
0.0
 40
0.0
 40
0.5
 40
1.0
 40
1.0
 40
1.0
 40
1.0
 10
142.9060612739632
 20
130.4282149188014
 30
0.0
 10
142.9060612739632
 20
130.3799828666786
 30
0.0
 10
142.9104672486683
 20
130.2841128532391
 30
0.0
 10
142.9234864287622
 20
130.1894042232557
 30
0.0
 10
142.9322088971233
 20
130.14234828734
 30
0.0
  0
LINE
  5
D2
330
1F
100
AcDbEntity
  8
0
  6
Continuous
 62
     7
370
    15
100
AcDbLine
 10
145.926061274
 20
136.6923482873
 30
0.0
 11
143.706061274
 21
136.6923482873
 31
0.0
  0
LINE
  5
D3
330
1F
100
AcDbEntity
  8
0
  6
Continuous
 62
     7
370
    15
100
AcDbLine
 10
145.926061274
 20
83.8923482873
 30
0.0
 11
143.706061274
 21
83.8923482873
 31
0.0
  0
LINE
  5
D4
330
1F
100
AcDbEntity
  8
0
  6
Continuous
 62
     7
370
    15
100
AcDbLine
 10
124.816061274
 20
86.0719174256
 30
0.0
 11
124.816061274
 21
134.5127791491
 31
0.0
  0
LINE
  5
D5
330
1F
100
AcDbEntity
  8
0
  6
Continuous
 62
     7
370
    15
100
AcDbLine
 10
105.016061274
 20
87.0639013936
 30
0.0
 11
105.016061274
 21
88.3472000281
 31
0.0
  0
SPLINE
  5
D6
330
1F
100
AcDbEntity
  8
0
  6
Continuous
 62
     7
370
    15
100
AcDbSpline
210
0.0
220
0.0
230
1.0
 70
     8
 71
     3
 72
    14
 73
    10
 74
     0
 42
0.00000001
 43
0.00000001
 40
0.0
 40
0.0
 40
0.0
 40
0.0
 40
0.25
 40
0.25
 40
0.5
 40
0.5
 40
0.75
 40
0.75
 40
1.0
 40
1.0
 40
1.0
 40
1.0
 10
104.3944570372233
 20
89.42797707005671
 30
0.0
 10
104.4328934220443
 20
89.32535267234519
 30
0.0
 10
104.5016948154362
 20
89.22615624890562
 30
0.0
 10
104.6449808275952
 20
89.0352642195791
 30
0.0
 10
104.7201628827021
 20
88.9430069535462
 30
0.0
 10
104.8523501713522
 20
88.76339963173119
 30
0.0
 10
104.9098673668221
 20
88.67609007728684
 30
0.0
 10
104.9919121651144
 20
88.5061562437711
 30
0.0
 10
105.0160612739632
 20
88.42425390189993
 30
0.0
 10
105.0160612739632
 20
88.34720002806402
 30
0.0
  0
SPLINE
  5
D7
330
1F
100
AcDbEntity
  8
0
  6
Continuous
 62
     7
370
    15
100
AcDbSpline
210
0.0
220
0.0
230
1.0
 70
     8
 71
     3
 72
    18
 73
    14
 74
     0
 42
0.00000001
 43
0.00000001
 40
0.0
 40
0.0
 40
0.0
 40
0.0
 40
0.0624999999999969
 40
0.0624999999999969
 40
0.1249999999999939
 40
0.1249999999999939
 40
0.2499999999999938
 40
0.2499999999999938
 40
0.4999999999999959
 40
0.4999999999999959
 40
0.7499999999999979
 40
0.7499999999999979
 40
1.0
 40
1.0
 40
1.0
 40
1.0
 10
103.6160612739632
 20
90.14625952154317
 30
0.0
 10
103.6526334843136
 20
90.15003692507062
 30
0.0
 10
103.691283957749
 20
90.14947989718749
 30
0.0
 10
103.7653754514628
 20
90.13942069202562
 30
0.0
 10
103.8007257452169
 20
90.1300668106011
 30
0.0
 10
103.8953200426063
 20
90.09568238416729
 30
0.0
 10
103.9454582157452
 20
90.0649706495045
 30
0.0
 10
104.0746514873264
 20
89.96904133946649
 30
0.0
 10
104.1329316320676
 20
89.90052584534925
 30
0.0
 10
104.2331267284911
 20
89.76395389541663
 30
0.0
 10
104.2731419799377
 20
89.69518899291374
 30
0.0
 10
104.3415414007555
 20
89.56015356380607
 30
0.0
 10
104.3699031246174
 20
89.4935355377529
 30
0.0
 10
104.3944570372233
 20
89.42797707005671
 30
0.0
  0
SPLINE
  5
D8
330
1F
100
AcDbEntity
  8
0
  6
Continuous
 62
     7
370
    15
100
AcDbSpline
210
0.0
220
0.0
230
1.0
 70
     8
 71
     3
 72
    10
 73
     6
 74
     0
 42
0.00000001
 43
0.00000001
 40
0.0
 40
0.0
 40
0.0
 40
0.0
 40
0.5
 40
0.5
 40
1.0
 40
1.0
 40
1.0
 40
1.0
 10
99.7024594128414
 20
89.65006586517151
 30
0.0
 10
100.3300870685487
 20
89.75333942390715
 30
0.0
 10
100.9812878135801
 20
89.84216453565868
 30
0.0
 10
102.2899925175924
 20
90.00427224252904
 30
0.0
 10
102.9510369548835
 20
90.07757170681562
 30
0.0
 10
103.6160612739632
 20
90.14625952154331
 30
0.0
  0
SPLINE
  5
D9
330
1F
100
AcDbEntity
  8
0
  6
Continuous
 62
     7
370
    15
100
AcDbSpline
210
0.0
220
0.0
230
1.0
 70
     8
 71
     3
 72
    14
 73
    10
 74
     0
 42
0.00000001
 43
0.00000001
 40
0.0
 40
0.0
 40
0.0
 40
0.0
 40
0.5000000000000002
 40
0.5000000000000002
 40
0.7499999999999988
 40
0.7499999999999988
 40
0.8749999999999993
 40
0.8749999999999993
 40
1.0
 40
1.0
 40
1.0
 40
1.0
 10
96.06606127396321
 20
89.48571672881232
 30
0.0
 10
96.68213817771853
 20
89.49144284904145
 30
0.0
 10
97.29627017383442
 20
89.50133321444348
 30
0.0
 10
98.21016680434796
 20
89.53196818211325
 30
0.0
 10
98.5136057318956
 20
89.54476163975121
 30
0.0
 10
98.96474234753309
 20
89.57268746771058
 30
0.0
 10
99.11444859707561
 20
89.58345708787034
 30
0.0
 10
99.4112897333237
 20
89.61058980346985
 30
0.0
 10
99.558675285827
 20
89.62640677629706
 30
0.0
 10
99.70245941284129
 20
89.65006586517148
 30
0.0
  0
SPLINE
  5
DA
330
1F
100
AcDbEntity
  8
0
  6
Continuous
 62
     7
370
    15
100
AcDbSpline
210
0.0
220
0.0
230
1.0
 70
     8
 71
     3
 72
     8
 73
     4
 74
     0
 42
0.00000001
 43
0.00000001
 40
0.0000003682006999
 40
0.0000003682006999
 40
0.0000003682006999
 40
0.0000003682006999
 40
0.0000187826246626
 40
0.0000187826246626
 40
0.0000187826246626
 40
0.0000187826246626
 10
96.05601634354491
 20
89.49246113327092
 30
0.0
 10
96.05935073897236
 20
89.4902083754171
 30
0.0
 10
96.06269915308147
 20
89.48796024728655
 30
0.0
 10
96.06606127396306
 20
89.48571672881235
 30
0.0
  0
SPLINE
  5
DB
330
1F
100
AcDbEntity
  8
0
  6
Continuous
 62
     7
370
    15
100
AcDbSpline
210
0.0
220
0.0
230
1.0
 70
     8
 71
     3
 72
     8
 73
     4
 74
     0
 42
0.00000001
 43
0.00000001
 40
0.0000003292049707
 40
0.0000003292049707
 40
0.0000003292049707
 40
0.0000003292049707
 40
0.0000169050949325
 40
0.0000169050949325
 40
0.0000169050949325
 40
0.0000169050949325
 10
96.06606127396311
 20
131.162286052735
 30
0.0
 10
96.06270469182631
 20
131.1603740586382
 30
0.0
 10
96.05935632770077
 20
131.1584587683831
 30
0.0
 10
96.05601634353172
 20
131.1565401597677
 30
0.0
  0
SPLINE
  5
DC
330
1F
100
AcDbEntity
  8
0
  6
Continuous
 62
     7
370
    15
100
AcDbSpline
210
0.0
220
0.0
230
1.0
 70
     8
 71
     3
 72
    10
 73
     6
 74
     0
 42
0.00000001
 43
0.00000001
 40
0.0
 40
0.0
 40
0.0
 40
0.0
 40
0.5
 40
0.5
 40
1.0
 40
1.0
 40
1.0
 40
1.0
 10
99.61606127396323
 20
131.1154356791677
 30
0.0
 10
99.02847572687263
 20
131.1365011994042
 30
0.0
 10
98.43772933341226
 20
131.1472596852764
 30
0.0
 10
97.25371016811336
 20
131.160624465812
 30
0.0
 10
96.66029617990792
 20
131.1627671084766
 30
0.0
 10
96.0660612739632
 20
131.1622860527351
 30
0.0
  0
SPLINE
  5
DD
330
1F
100
AcDbEntity
  8
0
  6
Continuous
 62
     7
370
    15
100
AcDbSpline
210
0.0
220
0.0
230
1.0
 70
     8
 71
     3
 72
    18
 73
    14
 74
     0
 42
0.00000001
 43
0.00000001
 40
0.0
 40
0.0
 40
0.0
 40
0.0
 40
0.2499999999999999
 40
0.2499999999999999
 40
0.4999999999999998
 40
0.4999999999999998
 40
0.7499999999999997
 40
0.7499999999999997
 40
0.8749999999999981
 40
0.8749999999999981
 40
0.937499999999999
 40
0.937499999999999
 40
1.0
 40
1.0
 40
1.0
 40
1.0
 10
101.0160612739632
 20
132.1364559597029
 30
0.0
 10
101.0160612739632
 20
132.0532490508457
 30
0.0
 10
100.9802121740249
 20
131.9645123955322
 30
0.0
 10
100.855340437991
 20
131.7823872049719
 30
0.0
 10
100.7649400203431
 20
131.6872571563453
 30
0.0
 10
100.5426973656009
 20
131.498075647221
 30
0.0
 10
100.4129325791552
 20
131.4031304791263
 30
0.0
 10
100.1722951218436
 20
131.2648517715463
 30
0.0
 10
100.0845278237062
 20
131.219141338244
 30
0.0
 10
99.93000373649933
 20
131.1613180330225
 30
0.0
 10
99.87339285044462
 20
131.1436032689847
 30
0.0
 10
99.74934881953803
 20
131.1190639657518
 30
0.0
 10
99.6816341445198
 20
131.1130848272135
 30
0.0
 10
99.6160612739632
 20
131.1154356791677
 30
0.0
  0
LINE
  5
DE
330
1F
100
AcDbEntity
  8
0
  6
Continuous
 62
     7
370
    15
100
AcDbLine
 10
101.016061274
 20
132.1364559597
 30
0.0
 11
101.016061274
 21
133.3203943795
 31
0.0
  0
SPLINE
  5
DF
330
1F
100
AcDbEntity
  8
0
  6
Continuous
 62
     7
370
    15
100
AcDbSpline
210
0.0
220
0.0
230
1.0
 70
     8
 71
     3
 72
    18
 73
    14
 74
     0
 42
0.00000001
 43
0.00000001
 40
0.0
 40
0.0
 40
0.0
 40
0.0
 40
0.0010671296451827
 40
0.1270947795731589
 40
0.252405345751267
 40
0.3766468878986947
 40
0.4391415999050652
 40
0.5008278021400231
 40
0.5624255708817565
 40
0.6253162439161303
 40
0.749998514470681
 40
0.8752758950341305
 40
1.0
 40
1.0
 40
1.0
 40
1.0
 10
113.5863621140359
 20
86.6350092644235
 30
0.0
 10
113.5854502813974
 20
86.63489448588687
 30
0.0
 10
113.4768513227605
 20
86.62122440102084
 30
0.0
 10
113.8644923904103
 20
86.6721439016366
 30
0.0
 10
114.7304570722454
 20
86.77172707468303
 30
0.0
 10
115.930860997015
 20
86.84085095782665
 30
0.0
 10
116.9884369115037
 20
86.84480318696563
 30
0.0
 10
117.8155709984138
 20
86.8173142485102
 30
0.0
 10
118.6408428660494
 20
86.75877407210304
 30
0.0
 10
119.6952080860469
 20
86.64525291236625
 30
0.0
 10
120.8570443675199
 20
86.46210208811867
 30
0.0
 10
121.8092791489032
 20
86.25749887848356
 30
0.0
 10
121.9349842097111
 20
86.22821352770751
 30
0.0
 10
121.9976976418563
 20
86.21360325786684
 30
0.0
  0
SPLINE
  5
E0
330
1F
100
AcDbEntity
  8
0
  6
Continuous
 62
     7
370
    15
100
AcDbSpline
210
0.0
220
0.0
230
1.0
 70
     8
 71
     3
 72
    18
 73
    14
 74
     0
 42
0.00000001
 43
0.00000001
 40
0.0
 40
0.0
 40
0.0
 40
0.0
 40
0.1248907792210127
 40
0.2505384020341702
 40
0.3748721840485286
 40
0.4374907653352095
 40
0.4990776265894366
 40
0.5607931536355754
 40
0.623390133866493
 40
0.7478191038417348
 40
0.873194099593495
 40
0.9991614644710073
 40
1.0
 40
1.0
 40
1.0
 40
1.0
 10
121.9974788763324
 20
134.3710281362587
 30
0.0
 10
121.9337381236208
 20
134.3563668436606
 30
0.0
 10
121.8058703464443
 20
134.3269554103891
 30
0.0
 10
120.8538711253839
 20
134.1220023063266
 30
0.0
 10
119.6933274201796
 20
133.9387385305156
 30
0.0
 10
118.6410629680916
 20
133.8257109382666
 30
0.0
 10
117.8168358530228
 20
133.7674472907254
 30
0.0
 10
116.9892320835037
 20
133.7400009027214
 30
0.0
 10
115.9304148910184
 20
133.7439857086504
 30
0.0
 10
114.7281961929845
 20
133.8130751850318
 30
0.0
 10
113.8630122532971
 20
133.9127014015886
 30
0.0
 10
113.4768718317668
 20
133.9635174751886
 30
0.0
 10
113.5849433725472
 20
133.9498452951259
 30
0.0
 10
113.5856580224675
 20
133.9497548844375
 30
0.0
  0
SPLINE
  5
E1
330
1F
100
AcDbEntity
  8
0
  6
Continuous
 62
     7
370
    15
100
AcDbSpline
210
0.0
220
0.0
230
1.0
 70
     8
 71
     3
 72
    22
 73
    18
 74
     0
 42
0.00000001
 43
0.00000001
 40
0.0
 40
0.0
 40
0.0
 40
0.0
 40
0.1249999999999995
 40
0.1249999999999995
 40
0.2499999999999989
 40
0.2499999999999989
 40
0.3124999999999987
 40
0.3124999999999987
 40
0.3749999999999984
 40
0.3749999999999984
 40
0.499999999999999
 40
0.499999999999999
 40
0.6249999999999996
 40
0.6249999999999996
 40
0.7500000000000001
 40
0.7500000000000001
 40
1.0
 40
1.0
 40
1.0
 40
1.0
 10
96.05601634353224
 20
131.1565401597687
 30
0.0
 10
95.99539662265586
 20
131.1217179831214
 30
0.0
 10
95.93320728268931
 20
131.0832141794207
 30
0.0
 10
95.79947781645981
 20
130.997279691622
 30
0.0
 10
95.72722327474756
 20
130.9489730904198
 30
0.0
 10
95.60532533391184
 20
130.87262137225
 30
0.0
 10
95.5615187807598
 20
130.846206911643
 30
0.0
 10
95.47512361158495
 20
130.7976979871124
 30
0.0
 10
95.4327836352933
 20
130.7757638643861
 30
0.0
 10
95.31881288892428
 20
130.7193940744414
 30
0.0
 10
95.26039416293408
 20
130.6930372499077
 30
0.0
 10
95.16048659174659
 20
130.6408974254036
 30
0.0
 10
95.11907260095123
 20
130.615736835691
 30
0.0
 10
95.04704763307394
 20
130.5606299923639
 30
0.0
 10
95.01669909176097
 20
130.5307735888691
 30
0.0
 10
94.94320736172887
 20
130.4333668868763
 30
0.0
 10
94.91606127396322
 20
130.357035203066
 30
0.0
 10
94.91606127396321
 20
130.2684087919959
 30
0.0
  0
SPLINE
  5
E2
330
1F
100
AcDbEntity
  8
0
  6
Continuous
 62
     7
370
    15
100
AcDbSpline
210
0.0
220
0.0
230
1.0
 70
     8
 71
     3
 72
    22
 73
    18
 74
     0
 42
0.00000001
 43
0.00000001
 40
0.0
 40
0.0
 40
0.0
 40
0.0
 40
0.2499999999999978
 40
0.2499999999999978
 40
0.4999999999999956
 40
0.4999999999999956
 40
0.5624999999999963
 40
0.5624999999999963
 40
0.6249999999999971
 40
0.6249999999999971
 40
0.6874999999999979
 40
0.6874999999999979
 40
0.7499999999999987
 40
0.7499999999999987
 40
0.8749999999999993
 40
0.8749999999999993
 40
1.0
 40
1.0
 40
1.0
 40
1.0
 10
94.91606127396307
 20
90.33323052534057
 30
0.0
 10
94.91606127396307
 20
90.2432571403228
 30
0.0
 10
94.94755949230877
 20
90.16820909780768
 30
0.0
 10
95.05408692148534
 20
90.05518188409619
 30
0.0
 10
95.12724714062226
 20
90.0183683013034
 30
0.0
 10
95.2481756169466
 20
89.98272462504958
 30
0.0
 10
95.27402610475055
 20
89.97597441126341
 30
0.0
 10
95.33162066252483
 20
89.96090540254896
 30
0.0
 10
95.36356640304842
 20
89.9527723791223
 30
0.0
 10
95.4394234436207
 20
89.92748680453786
 30
0.0
 10
95.48663449426664
 20
89.90811158642079
 30
0.0
 10
95.58286048786563
 20
89.85235310777104
 30
0.0
 10
95.6272814177895
 20
89.8198679646602
 30
0.0
 10
95.74350242767535
 20
89.73095758303863
 30
0.0
 10
95.80865466708721
 20
89.67645949971046
 30
0.0
 10
95.93520910745308
 20
89.57783202065414
 30
0.0
 10
95.99588318442277
 20
89.53308782240597
 30
0.0
 10
96.05601634354521
 20
89.49246113326963
 30
0.0
  0
LINE
  5
E3
330
1F
100
AcDbEntity
  8
0
  6
Continuous
 62
     7
370
    15
100
AcDbLine
 10
94.916061274
 20
90.3332305253
 30
0.0
 11
94.916061274
 21
130.268408792
 31
0.0
  0
SPLINE
  5
E4
330
1F
100
AcDbEntity
  8
0
  6
Continuous
 62
     7
370
    15
100
AcDbSpline
210
0.0
220
0.0
230
1.0
 70
     8
 71
     3
 72
    10
 73
     6
 74
     0
 42
0.00000001
 43
0.00000001
 40
0.0
 40
0.0
 40
0.0
 40
0.0
 40
0.5
 40
0.5
 40
1.0
 40
1.0
 40
1.0
 40
1.0
 10
152.7660612739632
 20
140.1387886111039
 30
0.0
 10
152.7660612739632
 20
140.2991938774547
 30
0.0
 10
152.7038234428563
 20
140.4582556904432
 30
0.0
 10
152.4846885191137
 20
140.6891681560735
 30
0.0
 10
152.3270998241219
 20
140.7595437605042
 30
0.0
 10
152.1660612739632
 20
140.7595437605042
 30
0.0
  0
SPLINE
  5
E5
330
1F
100
AcDbEntity
  8
0
  6
Continuous
 62
     7
370
    15
100
AcDbSpline
210
0.0
220
0.0
230
1.0
 70
     8
 71
     3
 72
    12
 73
     8
 74
     0
 42
0.00000001
 43
0.00000001
 40
0.0
 40
0.0
 40
0.0
 40
0.0
 40
0.25
 40
0.25
 40
0.5
 40
0.5
 40
1.0
 40
1.0
 40
1.0
 40
1.0
 10
152.1660612739632
 20
134.7510379497073
 30
0.0
 10
152.2572609957889
 20
134.7510379497073
 30
0.0
 10
152.3478560049248
 20
134.7228182511195
 30
0.0
 10
152.5012687313715
 20
134.6283752438714
 30
0.0
 10
152.5664775986952
 20
134.562088267166
 30
0.0
 10
152.7192621280351
 20
134.3364634438778
 30
0.0
 10
152.7660612739632
 20
134.1540371808452
 30
0.0
 10
152.7660612739632
 20
133.9733005485984
 30
0.0
  0
LINE
  5
E6
330
1F
100
AcDbEntity
  8
0
  6
Continuous
 62
     7
370
    15
100
AcDbLine
 10
152.766061274
 20
133.9733005486
 30
0.0
 11
152.766061274
 21
140.1387886111
 31
0.0
  0
LINE
  5
E7
330
1F
100
AcDbEntity
  8
0
  6
Continuous
 62
     7
370
    15
100
AcDbLine
 10
152.166061274
 20
140.7595437605
 30
0.0
 11
148.2079941055
 21
140.7595437605
 31
0.0
  0
LINE
  5
E8
330
1F
100
AcDbEntity
  8
0
  6
Continuous
 62
     7
370
    15
100
AcDbLine
 10
148.2079941055
 20
134.7510379497
 30
0.0
 11
152.166061274
 21
134.7510379497
 31
0.0
  0
LINE
  5
E9
330
1F
100
AcDbEntity
  8
0
  6
Continuous
 62
     7
370
    15
100
AcDbLine
 10
148.2079941055
 20
134.7510379497
 30
0.0
 11
148.2079941055
 21
140.7595437605
 31
0.0
  0
SPLINE
  5
EA
330
1F
100
AcDbEntity
  8
0
  6
Continuous
 62
     7
370
    15
100
AcDbSpline
210
0.0
220
0.0
230
1.0
 70
     8
 71
     3
 72
     8
 73
     4
 74
     0
 42
0.00000001
 43
0.00000001
 40
0.0
 40
0.0
 40
0.0
 40
0.0
 40
1.0
 40
1.0
 40
1.0
 40
1.0
 10
148.2079941054523
 20
140.7595437605042
 30
0.0
 10
147.712854076088
 20
139.872864112324
 30
0.0
 10
147.218771370809
 20
138.985601476638
 30
0.0
 10
146.7260612739632
 20
138.0975824785116
 30
0.0
  0
SPLINE
  5
EB
330
1F
100
AcDbEntity
  8
0
  6
Continuous
 62
     7
370
    15
100
AcDbSpline
210
0.0
220
0.0
230
1.0
 70
     8
 71
     3
 72
     8
 73
     4
 74
     0
 42
0.00000001
 43
0.00000001
 40
0.0
 40
0.0
 40
0.0
 40
0.0
 40
1.0
 40
1.0
 40
1.0
 40
1.0
 10
146.7260612739632
 20
131.3424919549233
 30
0.0
 10
147.205339424553
 20
132.4835031847759
 30
0.0
 10
147.700907263693
 20
133.6198875955437
 30
0.0
 10
148.2079941054523
 20
134.7510379497074
 30
0.0
  0
LINE
  5
EC
330
1F
100
AcDbEntity
  8
0
  6
Continuous
 62
     7
370
    15
100
AcDbLine
 10
146.726061274
 20
131.3424919549
 30
0.0
 11
146.726061274
 21
138.0975824785
 31
0.0
  0
LINE
  5
ED
330
1F
100
AcDbEntity
  8
0
  6
Continuous
 62
     7
370
    15
100
AcDbLine
 10
146.726061274
 20
130.4282149188
 30
0.0
 11
146.726061274
 21
131.3424919549
 31
0.0
  0
LINE
  5
EE
330
1F
100
AcDbEntity
  8
0
  6
Continuous
 62
     7
370
    15
100
AcDbLine
 10
152.766061274
 20
133.9733005486
 30
0.0
 11
152.766061274
 21
130.1423482873
 31
0.0
  0
SPLINE
  5
EF
330
1F
100
AcDbEntity
  8
0
  6
Continuous
 62
     7
370
    15
100
AcDbSpline
210
0.0
220
0.0
230
1.0
 70
     8
 71
     3
 72
     8
 73
     4
 74
     0
 42
0.00000001
 43
0.00000001
 40
0.0
 40
0.0
 40
0.0
 40
0.0
 40
1.0
 40
1.0
 40
1.0
 40
1.0
 10
141.4241284424741
 20
134.7510379497074
 30
0.0
 10
141.9312152842334
 20
133.6198875955437
 30
0.0
 10
142.4267831233733
 20
132.4835031847759
 30
0.0
 10
142.9060612739632
 20
131.3424919549233
 30
0.0
  0
LINE
  5
F0
330
1F
100
AcDbEntity
  8
0
  6
Continuous
 62
     7
370
    15
100
AcDbLine
 10
142.906061274
 20
131.3424919549
 30
0.0
 11
142.906061274
 21
130.4282149188
 31
0.0
  0
SPLINE
  5
F1
330
1F
100
AcDbEntity
  8
0
  6
Continuous
 62
     7
370
    15
100
AcDbSpline
210
0.0
220
0.0
230
1.0
 70
     8
 71
     3
 72
     8
 73
     4
 74
     0
 42
0.00000001
 43
0.00000001
 40
0.0
 40
0.0
 40
0.0
 40
0.0
 40
1.0
 40
1.0
 40
1.0
 40
1.0
 10
142.9060612739632
 20
138.0975824785116
 30
0.0
 10
142.4133511771174
 20
138.985601476638
 30
0.0
 10
141.9192684718384
 20
139.872864112324
 30
0.0
 10
141.4241284424741
 20
140.7595437605042
 30
0.0
  0
LINE
  5
F2
330
1F
100
AcDbEntity
  8
0
  6
Continuous
 62
     7
370
    15
100
AcDbLine
 10
142.906061274
 20
131.3424919549
 30
0.0
 11
142.906061274
 21
138.0975824785
 31
0.0
  0
LINE
  5
F3
330
1F
100
AcDbEntity
  8
0
  6
Continuous
 62
     7
370
    15
100
AcDbLine
 10
258.4200232018
 20
126.1196581933
 30
0.0
 11
260.816061274
 21
126.1196581933
 31
0.0
  0
SPLINE
  5
F4
330
1F
100
AcDbEntity
  8
0
  6
Continuous
 62
     7
370
    15
100
AcDbSpline
210
0.0
220
0.0
230
1.0
 70
     8
 71
     3
 72
    14
 73
    10
 74
     0
 42
0.00000001
 43
0.00000001
 40
0.0
 40
0.0
 40
0.0
 40
0.0
 40
0.25
 40
0.25
 40
0.5
 40
0.5
 40
0.75
 40
0.75
 40
1.0
 40
1.0
 40
1.0
 40
1.0
 10
252.6244682441025
 20
124.816780426759
 30
0.0
 10
252.7871543592561
 20
125.0892079588119
 30
0.0
 10
253.0433242844239
 20
125.3083335124466
 30
0.0
 10
253.7616561252554
 20
125.6627584286237
 30
0.0
 10
254.2036227792415
 20
125.7885593056012
 30
0.0
 10
255.2541801688905
 20
125.9753399413925
 30
0.0
 10
255.8356353199785
 20
126.031866358735
 30
0.0
 10
257.0995532141164
 20
126.1047478975528
 30
0.0
 10
257.7503585029751
 20
126.1196581933316
 30
0.0
 10
258.4200232018369
 20
126.1196581933316
 30
0.0
  0
ELLIPSE
  5
F5
330
1F
100
AcDbEntity
  8
0
  6
Continuous
 62
     7
370
    15
100
AcDbEllipse
 10
254.146882714
 20
110.2923482873
 30
0.0
 11
0.3220561513868745
 21
15.99976859320063
 31
0.0
210
0.0
220
0.0
230
0.9999999999999999
 40
0.2671959542
 41
0.4382210567924029
 42
2.853754501398428
  0
SPLINE
  5
F6
330
1F
100
AcDbEntity
  8
0
  6
Continuous
 62
     7
370
    15
100
AcDbSpline
210
0.0
220
0.0
230
1.0
 70
     8
 71
     3
 72
    14
 73
    10
 74
     0
 42
0.00000001
 43
0.00000001
 40
0.0
 40
0.0
 40
0.0
 40
0.0
 40
0.25
 40
0.25
 40
0.5
 40
0.5
 40
0.75
 40
0.75
 40
1.0
 40
1.0
 40
1.0
 40
1.0
 10
258.4200232018369
 20
94.29278977790928
 30
0.0
 10
257.7503632878098
 20
94.29278977790928
 30
0.0
 10
257.0992613548948
 20
94.29247897641734
 30
0.0
 10
255.8342499858117
 20
94.30470266556841
 30
0.0
 10
255.2543671802251
 20
94.3171563129589
 30
0.0
 10
254.2044460518865
 20
94.3894881135061
 30
0.0
 10
253.7619153850139
 20
94.4480295132328
 30
0.0
 10
253.0441735955362
 20
94.64931445348029
 30
0.0
 10
252.7871578154062
 20
94.78751566989575
 30
0.0
 10
252.6244682441025
 20
94.97524150664265
 30
0.0
  0
LINE
  5
F7
330
1F
100
AcDbEntity
  8
0
  6
Continuous
 62
     7
370
    15
100
AcDbLine
 10
260.816061274
 20
94.2927897779
 30
0.0
 11
258.4200232018
 21
94.2927897779
 31
0.0
  0
LINE
  5
F8
330
1F
100
AcDbEntity
  8
0
  6
Continuous
 62
     7
370
    15
100
AcDbLine
 10
260.816061274
 20
94.2927897779
 30
0.0
 11
260.816061274
 21
94.2923482873
 31
0.0
  0
LINE
  5
F9
330
1F
100
AcDbEntity
  8
0
  6
Continuous
 62
     7
370
    15
100
AcDbLine
 10
260.816061274
 20
126.2923482873
 30
0.0
 11
260.816061274
 21
126.1196581933
 31
0.0
  0
ELLIPSE
  5
FA
330
1F
100
AcDbEntity
  8
0
  6
Continuous
 62
     7
370
    15
100
AcDbEllipse
 10
251.6110027858
 20
103.821119884
 30
0.0
 11
-0.08858572008301735
 21
2.327551996844676
 31
0.0
210
0.0
220
0.0
230
1.0
 40
0.2575917467
 41
0.0
 42
6.283185307179586
  0
LINE
  5
FB
330
1F
100
AcDbEntity
  8
0
  6
Continuous
 62
     7
370
    15
100
AcDbLine
 10
96.066061274
 20
89.4798482873
 30
0.0
 11
96.066061274
 21
89.4857167288
 31
0.0
  0
LINE
  5
FC
330
1F
100
AcDbEntity
  8
0
  6
Continuous
 62
     7
370
    15
100
AcDbLine
 10
284.6985674478
 20
103.3007718773
 30
0.0
 11
268.3304757729
 21
126.6198864758
 31
0.0
  0
ELLIPSE
  5
FD
330
1F
100
AcDbEntity
  8
0
  6
Continuous
 62
     7
370
    15
100
AcDbEllipse
 10
279.85151064
 20
110.2923482873
 30
0.0
 11
-11.540740502262
 21
16.49565463945564
 31
0.0
210
0.0
220
0.0
230
1.0
 40
0.032810104
 41
4.689438305247844
 42
6.404944618658343
  0
LINE
  5
FE
330
1F
100
AcDbEntity
  8
0
  6
Continuous
 62
     7
370
    15
100
AcDbLine
 10
284.6985674478
 20
104.5069225793
 30
0.0
 11
280.6574367845
 21
110.2923482873
 31
0.0
  0
LINE
  5
FF
330
1F
100
AcDbEntity
  8
0
  6
Continuous
 62
     7
370
    15
100
AcDbLine
 10
284.6985674478
 20
104.5069225793
 30
0.0
 11
284.6985674478
 21
103.3007718773
 31
0.0
  0
LINE
  5
100
330
1F
100
AcDbEntity
  8
0
  6
Continuous
 62
     7
370
    15
100
AcDbLine
 10
268.3304757729
 20
126.6198864758
 30
0.0
 11
261.316061274
 21
126.6198864758
 31
0.0
  0
LINE
  5
101
330
1F
100
AcDbEntity
  8
0
  6
Continuous
 62
     7
370
    15
100
AcDbLine
 10
261.316061274
 20
126.7923482873
 30
0.0
 11
261.316061274
 21
126.6198864758
 31
0.0
  0
SPLINE
  5
102
330
1F
100
AcDbEntity
  8
0
  6
Continuous
 62
     7
370
    15
100
AcDbSpline
210
0.0
220
0.0
230
1.0
 70
     8
 71
     3
 72
     8
 73
     4
 74
     0
 42
0.00000001
 43
0.00000001
 40
0.0
 40
0.0
 40
0.0
 40
0.0
 40
1.0
 40
1.0
 40
1.0
 40
1.0
 10
260.8160612739632
 20
94.2927897779093
 30
0.0
 10
261.9208933265797
 20
93.18735298685925
 30
0.0
 10
263.0260590793763
 20
92.08224787850384
 30
0.0
 10
264.1314115906128
 20
90.97732839948358
 30
0.0
  0
LINE
  5
103
330
1F
100
AcDbEntity
  8
0
  6
Continuous
 62
     7
370
    15
100
AcDbLine
 10
261.316061274
 20
126.6198864758
 30
0.0
 11
260.816061274
 21
126.1196581933
 31
0.0
  0
LINE
  5
104
330
1F
100
AcDbEntity
  8
0
  6
Continuous
 62
     7
370
    15
100
AcDbLine
 10
284.8847073767
 20
101.1783654548
 30
0.0
 11
284.6985674478
 21
103.3007718773
 31
0.0
  0
ARC
  5
105
330
1F
100
AcDbEntity
  8
0
  6
Continuous
 62
     7
370
    15
100
AcDbCircle
 10
273.9472361682
 20
101.1534565801
 30
0.0
 40
2.097193745951978
100
AcDbArc
 50
22.2505797902
 51
246.4160971843
  0
LINE
  5
106
330
1F
100
AcDbEntity
  8
0
  6
Continuous
 62
     7
370
    15
100
AcDbLine
 10
273.9070424675
 20
90.1224812041
 30
0.0
 11
264.1314115906
 21
90.9773283995
 31
0.0
  0
LINE
  5
107
330
1F
100
AcDbEntity
  8
0
  6
Continuous
 62
     7
370
    15
100
AcDbLine
 10
284.9074160915
 20
101.2305498095
 30
0.0
 11
284.9074160915
 21
101.1763835394
 31
0.0
  0
LINE
  5
108
330
1F
100
AcDbEntity
  8
0
  6
Continuous
 62
     7
370
    15
100
AcDbLine
 10
284.9898701135
 20
101.1691873196
 30
0.0
 11
284.6985674478
 21
104.5069225793
 31
0.0
  0
LINE
  5
109
330
1F
100
AcDbEntity
  8
0
  6
Continuous
 62
     7
370
    15
100
AcDbLine
 10
284.9074160915
 20
101.2305498095
 30
0.0
 11
284.9122032402
 21
101.1759657383
 31
0.0
  0
ARC
  5
10A
330
1F
100
AcDbEntity
  8
0
  6
Continuous
 62
     7
370
    15
100
AcDbCircle
 10
273.940221982
 20
101.4680334024
 30
0.0
 40
2.094992609094723
100
AcDbArc
 50
184.3368379875
 51
245.742680042
  0
LINE
  5
10B
330
1F
100
AcDbEntity
  8
0
  6
HIDDEN
 62
     7
370
     0
100
AcDbLine
 10
131.766061274
 20
78.7923482873
 30
0.0
 11
131.766061274
 21
78.8082253045
 31
0.0
  0
SPLINE
  5
10C
330
1F
100
AcDbEntity
  8
0
  6
HIDDEN
 62
     7
370
     0
100
AcDbSpline
210
0.0
220
0.0
230
1.0
 70
     8
 71
     3
 72
    30
 73
    26
 74
     0
 42
0.00000001
 43
0.00000001
 40
0.0
 40
0.0
 40
0.0
 40
0.0
 40
0.1249999999999997
 40
0.1249999999999997
 40
0.1874999999999994
 40
0.1874999999999994
 40
0.2499999999999992
 40
0.2499999999999992
 40
0.3749999999999988
 40
0.3749999999999988
 40
0.4374999999999986
 40
0.4374999999999986
 40
0.4999999999999984
 40
0.4999999999999984
 40
0.6249999999999983
 40
0.6249999999999983
 40
0.6874999999999986
 40
0.6874999999999986
 40
0.7499999999999989
 40
0.7499999999999989
 40
0.8124999999999991
 40
0.8124999999999991
 40
0.8749999999999994
 40
0.8749999999999994
 40
1.0
 40
1.0
 40
1.0
 40
1.0
 10
131.7660612739632
 20
78.8082253044775
 30
0.0
 10
131.7660612739632
 20
78.82510422248612
 30
0.0
 10
131.8184788399416
 20
78.8551217873109
 30
0.0
 10
131.9718583198439
 20
78.91793217658402
 30
0.0
 10
132.0355394405117
 20
78.94183608381091
 30
0.0
 10
132.1884943079633
 20
78.9952713762533
 30
0.0
 10
132.2780666067326
 20
79.02487824442086
 30
0.0
 10
132.5792906395857
 20
79.11932794313527
 30
0.0
 10
132.8246056356699
 20
79.1903553369645
 30
0.0
 10
133.2587026167401
 20
79.30436962367027
 30
0.0
 10
133.4153723058438
 20
79.34382487481085
 30
0.0
 10
133.7473654696861
 20
79.42334631758149
 30
0.0
 10
133.9220709986786
 20
79.46328246008228
 30
0.0
 10
134.4717406812702
 20
79.58221886291044
 30
0.0
 10
134.8719916439815
 20
79.66038362679431
 30
0.0
 10
135.525578510619
 20
79.7700930670632
 30
0.0
 10
135.751254630296
 20
79.8051739037716
 30
0.0
 10
136.2109664514273
 20
79.87041418315121
 30
0.0
 10
136.4460197854704
 20
79.90074899919595
 30
0.0
 10
136.9265270677695
 20
79.9560873784178
 30
0.0
 10
137.1719805956836
 20
79.98109205497789
 30
0.0
 10
137.6735960204909
 20
80.02497186386857
 30
0.0
 10
137.9310884030915
 20
80.04391554863086
 30
0.0
 10
138.7091649195276
 20
80.08963527590106
 30
0.0
 10
139.2343271967725
 20
80.10543059109271
 30
0.0
 10
139.7660612739632
 20
80.10543059109271
 30
0.0
  0
LINE
  5
10D
330
1F
100
AcDbEntity
  8
0
  6
HIDDEN
 62
     7
370
     0
100
AcDbLine
 10
139.766061274
 20
80.1054305911
 30
0.0
 11
141.4241284425
 21
80.1054305911
 31
0.0
  0
LINE
  5
10E
330
1F
100
AcDbEntity
  8
0
  6
HIDDEN
 62
     7
370
     0
100
AcDbLine
 10
141.4241284425
 20
140.7595437605
 30
0.0
 11
141.4241284425
 21
80.1054305911
 31
0.0
  0
LINE
  5
10F
330
1F
100
AcDbEntity
  8
0
  6
HIDDEN
 62
     7
370
     0
100
AcDbLine
 10
139.766061274
 20
140.7595437605
 30
0.0
 11
141.4241284425
 21
140.7595437605
 31
0.0
  0
SPLINE
  5
110
330
1F
100
AcDbEntity
  8
0
  6
HIDDEN
 62
     7
370
     0
100
AcDbSpline
210
0.0
220
0.0
230
1.0
 70
     8
 71
     3
 72
    24
 73
    20
 74
     0
 42
0.00000001
 43
0.00000001
 40
0.0
 40
0.0
 40
0.0
 40
0.0
 40
0.0096782392558602
 40
0.0638588447595615
 40
0.1665790800528671
 40
0.2187074878800866
 40
0.2715780124103788
 40
0.375300930957874
 40
0.4279095660942191
 40
0.4812402087660091
 40
0.5342053343802426
 40
0.5875322920461712
 40
0.6420047188767983
 40
0.696876899977341
 40
0.7500518418412724
 40
0.8036099529238494
 40
0.8583965562204061
 40
0.9136164911922341
 40
1.0
 40
1.0
 40
1.0
 40
1.0
 10
131.7702654713362
 20
141.7912815355403
 30
0.0
 10
131.7689466109915
 20
141.791616128766
 30
0.0
 10
131.760244522131
 20
141.7938238378645
 30
0.0
 10
131.8151156261273
 20
141.7798933647151
 30
0.0
 10
131.9672221285772
 20
141.7415211804273
 30
0.0
 10
132.2292156261109
 20
141.6776666828287
 30
0.0
 10
132.558378153453
 20
141.5996911931261
 30
0.0
 10
132.9869694394764
 20
141.5030023209471
 30
0.0
 10
133.503997081194
 20
141.3955448559591
 30
0.0
 10
133.9387136901464
 20
141.3107455271681
 30
0.0
 10
134.4155400735984
 20
141.2245137996403
 30
0.0
 10
134.9331711277737
 20
141.1389472886437
 30
0.0
 10
135.4919140771109
 20
141.0561019034261
 30
0.0
 10
136.0818103483829
 20
140.9795451231398
 30
0.0
 10
136.6954756877727
 20
140.9118312884653
 30
0.0
 10
137.3314542183789
 20
140.8543142860968
 30
0.0
 10
137.994237700808
 20
140.8087614338598
 30
0.0
 10
138.8066649023945
 20
140.7692267958875
 30
0.0
 10
139.4025491344613
 20
140.763212630862
 30
0.0
 10
139.7660612739632
 20
140.7595437605042
 30
0.0
  0
SPLINE
  5
111
330
1F
100
AcDbEntity
  8
0
  6
HIDDEN
 62
     7
370
     0
100
AcDbSpline
210
0.0
220
0.0
230
1.0
 70
     8
 71
     3
 72
    76
 73
    72
 74
     0
 42
0.00000001
 43
0.00000001
 40
-0.0312499999999999
 40
-0.0312499999999999
 40
0.0
 40
0.0
 40
0.03125
 40
0.03125
 40
0.046875
 40
0.046875
 40
0.0625
 40
0.0625
 40
0.0937500000000001
 40
0.0937500000000001
 40
0.1250000000000001
 40
0.1250000000000001
 40
0.1562500000000001
 40
0.1562500000000001
 40
0.1875000000000001
 40
0.1875000000000001
 40
0.2187500000000001
 40
0.2187500000000001
 40
0.2500000000000002
 40
0.2500000000000002
 40
0.2812500000000002
 40
0.2812500000000002
 40
0.3125000000000002
 40
0.3125000000000002
 40
0.3281250000000002
 40
0.3281250000000002
 40
0.3437500000000003
 40
0.3437500000000003
 40
0.3750000000000004
 40
0.3750000000000004
 40
0.4062500000000004
 40
0.4062500000000004
 40
0.4375000000000005
 40
0.4375000000000005
 40
0.4687500000000006
 40
0.4687500000000006
 40
0.5000000000000007
 40
0.5000000000000007
 40
0.5312500000000007
 40
0.5312500000000007
 40
0.5625000000000007
 40
0.5625000000000007
 40
0.5937500000000008
 40
0.5937500000000008
 40
0.6250000000000008
 40
0.6250000000000008
 40
0.6562500000000008
 40
0.6562500000000008
 40
0.6875000000000008
 40
0.6875000000000008
 40
0.7031250000000008
 40
0.7031250000000008
 40
0.7187500000000008
 40
0.7187500000000008
 40
0.7500000000000008
 40
0.7500000000000008
 40
0.7812500000000007
 40
0.7812500000000007
 40
0.8125000000000006
 40
0.8125000000000006
 40
0.8437500000000004
 40
0.8437500000000004
 40
0.8750000000000003
 40
0.8750000000000003
 40
0.9062500000000002
 40
0.9062500000000002
 40
0.9375000000000002
 40
0.9375000000000002
 40
0.9687500000000001
 40
0.9687500000000001
 40
1.0
 40
1.0
 40
1.03125
 40
1.03125
 10
128.8160612739632
 20
110.623232283134
 30
0.0
 10
128.8160612739632
 20
109.9614642915459
 30
0.0
 10
128.8485817517476
 20
109.63621312345
 30
0.0
 10
128.9440749960296
 20
109.1564164025609
 30
0.0
 10
128.9837498314407
 20
108.9978407187673
 30
0.0
 10
129.0791364447764
 20
108.6834583329742
 30
0.0
 10
129.1350806861871
 20
108.5273387093901
 30
0.0
 10
129.3234437096367
 20
108.0733981494881
 30
0.0
 10
129.4770559860551
 20
107.7864179034811
 30
0.0
 10
129.8398837798392
 20
107.2433047467418
 30
0.0
 10
130.0507188814217
 20
106.9865654551978
 30
0.0
 10
130.5112184514391
 20
106.5261808209669
 30
0.0
 10
130.762581392357
 20
106.319404004213
 30
0.0
 10
131.3089280867104
 20
105.9538797965496
 30
0.0
 10
131.5991427264283
 20
105.7988802378348
 30
0.0
 10
132.20052954273
 20
105.5493492167406
 30
0.0
 10
132.5161592358205
 20
105.4530709430519
 30
0.0
 10
133.1617996371
 20
105.3244219358089
 30
0.0
 10
133.4865553929133
 20
105.2925356766923
 30
0.0
 10
134.1398554233047
 20
105.2921625291816
 30
0.0
 10
134.4717277641354
 20
105.3247420154276
 30
0.0
 10
135.1133789977391
 20
105.452515920134
 30
0.0
 10
135.4253039146722
 20
105.5470483644311
 30
0.0
 10
135.8797935151891
 20
105.7351679589698
 30
0.0
 10
136.029656823023
 20
105.8060509401906
 30
0.0
 10
136.3187420569457
 20
105.960667546525
 30
0.0
 10
136.4586029712537
 20
106.0445901452629
 30
0.0
 10
136.8644794149579
 20
106.3157856687386
 30
0.0
 10
137.1175175614475
 20
106.5228856741798
 30
0.0
 10
137.583417117611
 20
106.9884881272371
 30
0.0
 10
137.7899231921068
 20
107.2404069796244
 30
0.0
 10
138.1520287555064
 20
107.7813105956253
 30
0.0
 10
138.3088878693216
 20
108.0738534383767
 30
0.0
 10
138.5598379861842
 20
108.6787210951342
 30
0.0
 10
138.6546490855152
 20
108.9903679265809
 30
0.0
 10
138.7830709483083
 20
109.6321212318025
 30
0.0
 10
138.8159342347995
 20
109.9638490506818
 30
0.0
 10
138.816187560908
 20
110.6169688159427
 30
0.0
 10
138.7846315603388
 20
110.9419020222857
 30
0.0
 10
138.6563903389144
 20
111.5884290287388
 30
0.0
 10
138.560584290256
 20
111.9034369825998
 30
0.0
 10
138.3114507791619
 20
112.5053956507454
 30
0.0
 10
138.1559906574672
 20
112.7968718210209
 30
0.0
 10
137.7915364031074
 20
113.3424667575176
 30
0.0
 10
137.5851034956717
 20
113.5939438725227
 30
0.0
 10
137.1246344131537
 20
114.0552668965775
 30
0.0
 10
136.8678374050978
 20
114.2663901975238
 30
0.0
 10
136.3257921912633
 20
114.6291209792399
 30
0.0
 10
136.0390226113278
 20
114.7830098826255
 30
0.0
 10
135.5847154354421
 20
114.9719596093175
 30
0.0
 10
135.4285751346687
 20
115.0280324053373
 30
0.0
 10
135.1147291733226
 20
115.12353517087
 30
0.0
 10
134.9563423856288
 20
115.1633158138975
 30
0.0
 10
134.4768661456854
 20
115.2591983510228
 30
0.0
 10
134.1506262012585
 20
115.2920737990223
 30
0.0
 10
133.4897516039806
 20
115.2926193681934
 30
0.0
 10
133.1646152566357
 20
115.2604528495799
 30
0.0
 10
132.5245327561492
 20
115.1336703115927
 30
0.0
 10
132.2062118320814
 20
115.0374025578014
 30
0.0
 10
131.6012955532423
 20
114.7870082363763
 30
0.0
 10
131.3141466395908
 20
114.6336940746547
 30
0.0
 10
130.7701950859177
 20
114.2709861506349
 30
0.0
 10
130.5135491361912
 20
114.060547077901
 30
0.0
 10
130.0529585827783
 20
113.6006660896247
 30
0.0
 10
129.8458096967874
 20
113.3493842899319
 30
0.0
 10
129.479278453374
 20
112.8024641161919
 30
0.0
 10
129.3245942658696
 20
112.5133239645756
 30
0.0
 10
129.0744946125313
 20
111.9120872906564
 30
0.0
 10
128.9778078380382
 20
111.5961115970156
 30
0.0
 10
128.848586263082
 20
110.950137838919
 30
0.0
 10
128.8160612739632
 20
110.623232283134
 30
0.0
 10
128.8160612739632
 20
109.9614642915459
 30
0.0
  0
LINE
  5
112
330
1F
100
AcDbEntity
  8
0
  6
HIDDEN
 62
     7
370
     0
100
AcDbLine
 10
126.816061274
 20
79.0923482873
 30
0.0
 11
126.816061274
 21
141.4923482873
 31
0.0
  0
SPLINE
  5
113
330
1F
100
AcDbEntity
  8
0
  6
HIDDEN
 62
     7
370
     0
100
AcDbSpline
210
0.0
220
0.0
230
1.0
 70
     8
 71
     3
 72
    10
 73
     6
 74
     0
 42
0.00000001
 43
0.00000001
 40
0.0
 40
0.0
 40
0.0
 40
0.0
 40
0.5
 40
0.5
 40
1.0
 40
1.0
 40
1.0
 40
1.0
 10
146.7260612739632
 20
83.48795265901055
 30
0.0
 10
146.7260612739632
 20
83.55818901938132
 30
0.0
 10
146.7177786618727
 20
83.62818312087882
 30
0.0
 10
146.6846787188141
 20
83.76514238543774
 30
0.0
 10
146.6603413268556
 20
83.83045029469301
 30
0.0
 10
146.628386471631
 20
83.89234828733991
 30
0.0
  0
LINE
  5
114
330
1F
100
AcDbEntity
  8
0
  6
HIDDEN
 62
     7
370
     0
100
AcDbLine
 10
146.726061274
 20
130.4282149188
 30
0.0
 11
146.726061274
 21
137.4120021384
 31
0.0
  0
SPLINE
  5
115
330
1F
100
AcDbEntity
  8
0
  6
HIDDEN
 62
     7
370
     0
100
AcDbSpline
210
0.0
220
0.0
230
1.0
 70
    24
 71
     3
 72
    10
 73
     6
 74
     0
 42
0.00000001
 43
0.00000001
 40
0.0
 40
0.0
 40
0.0
 40
0.0
 40
0.5
 40
0.5
 40
1.0
 40
1.0
 40
1.0
 40
1.0
 10
146.6999136508031
 20
130.14234828734
 30
0.0
 10
146.7085914257108
 20
130.14234828734
 30
0.0
 10
146.7151444497176
 20
130.14234828734
 30
0.0
 10
146.7238790592146
 20
130.14234828734
 30
0.0
 10
146.7260612739632
 20
130.14234828734
 30
0.0
 10
146.7260612739632
 20
130.14234828734
 30
0.0
  0
LINE
  5
116
330
1F
100
AcDbEntity
  8
0
  6
HIDDEN
 62
     7
370
     0
100
AcDbLine
 10
146.726061274
 20
83.487952659
 30
0.0
 11
146.726061274
 21
130.1423482873
 31
0.0
  0
SPLINE
  5
117
330
1F
100
AcDbEntity
  8
0
  6
HIDDEN
 62
     7
370
     0
100
AcDbSpline
210
0.0
220
0.0
230
1.0
 70
     8
 71
     3
 72
    10
 73
     6
 74
     0
 42
0.00000001
 43
0.00000001
 40
0.0
 40
0.0
 40
0.0
 40
0.0
 40
0.5
 40
0.5
 40
1.0
 40
1.0
 40
1.0
 40
1.0
 10
143.0037360762955
 20
83.89234828733993
 30
0.0
 10
142.9715808886735
 20
83.83006224182382
 30
0.0
 10
142.9469246574793
 20
83.76353181695461
 30
0.0
 10
142.9141119005538
 20
83.62667318659217
 30
0.0
 10
142.9060612739632
 20
83.55761559141386
 30
0.0
 10
142.9060612739632
 20
83.48795265901056
 30
0.0
  0
SPLINE
  5
118
330
1F
100
AcDbEntity
  8
0
  6
HIDDEN
 62
     7
370
     0
100
AcDbSpline
210
0.0
220
0.0
230
1.0
 70
    24
 71
     3
 72
    10
 73
     6
 74
     0
 42
0.00000001
 43
0.00000001
 40
0.0
 40
0.0
 40
0.0
 40
0.0
 40
0.5
 40
0.5
 40
1.0
 40
1.0
 40
1.0
 40
1.0
 10
142.9060612739632
 20
130.14234828734
 30
0.0
 10
142.9060612739632
 20
130.14234828734
 30
0.0
 10
142.9082831324478
 20
130.14234828734
 30
0.0
 10
142.9170198041715
 20
130.14234828734
 30
0.0
 10
142.9235313179658
 20
130.14234828734
 30
0.0
 10
142.9322088971233
 20
130.14234828734
 30
0.0
  0
LINE
  5
119
330
1F
100
AcDbEntity
  8
0
  6
HIDDEN
 62
     7
370
     0
100
AcDbLine
 10
142.906061274
 20
130.4282149188
 30
0.0
 11
142.906061274
 21
137.4120021384
 31
0.0
  0
LINE
  5
11A
330
1F
100
AcDbEntity
  8
0
  6
HIDDEN
 62
     7
370
     0
100
AcDbLine
 10
142.906061274
 20
83.487952659
 30
0.0
 11
142.906061274
 21
130.1423482873
 31
0.0
  0
LINE
  5
11B
330
1F
100
AcDbEntity
  8
0
  6
HIDDEN
 62
     7
370
     0
100
AcDbLine
 10
126.816061274
 20
84.9684243662
 30
0.0
 11
126.816061274
 21
135.6162722085
 31
0.0
  0
LINE
  5
11C
330
1F
100
AcDbEntity
  8
0
  6
HIDDEN
 62
     7
370
     0
100
AcDbLine
 10
131.766061274
 20
130.1423482873
 30
0.0
 11
139.0116816197
 21
130.1423482873
 31
0.0
  0
LWPOLYLINE
  5
11D
330
1F
100
AcDbEntity
  8
0
  6
HIDDEN
 62
     7
370
     0
100
AcDbPolyline
 90
        2
 70
   128
 43
0.0
 10
146.726061274
 20
130.1423482873
 10
146.726061274
 20
130.1423482873
  0
LWPOLYLINE
  5
11E
330
1F
100
AcDbEntity
  8
0
  6
HIDDEN
 62
     7
370
     0
100
AcDbPolyline
 90
        2
 70
   128
 43
0.0
 10
152.766061274
 20
130.1423482873
 10
152.766061274
 20
130.1423482873
  0
LWPOLYLINE
  5
11F
330
1F
100
AcDbEntity
  8
0
  6
HIDDEN
 62
     7
370
     0
100
AcDbPolyline
 90
        2
 70
   128
 43
0.0
 10
142.906061274
 20
130.1423482873
 10
142.906061274
 20
130.1423482873
  0
LINE
  5
120
330
1F
100
AcDbEntity
  8
0
  6
HIDDEN
 62
     7
370
     0
100
AcDbLine
 10
124.816061274
 20
134.5127791491
 30
0.0
 11
124.816061274
 21
86.0719174256
 31
0.0
  0
SPLINE
  5
121
330
1F
100
AcDbEntity
  8
0
  6
HIDDEN
 62
     7
370
     0
100
AcDbSpline
210
0.0
220
0.0
230
1.0
 70
     8
 71
     3
 72
    14
 73
    10
 74
     0
 42
0.00000001
 43
0.00000001
 40
0.0
 40
0.0
 40
0.0
 40
0.0
 40
0.5000000000000012
 40
0.5000000000000012
 40
0.7500000000000004
 40
0.7500000000000004
 40
0.8750000000000002
 40
0.8750000000000002
 40
1.0
 40
1.0
 40
1.0
 40
1.0
 10
96.06606127396321
 20
89.48571672881233
 30
0.0
 10
96.68213817771854
 20
89.49144284904146
 30
0.0
 10
97.29627017383442
 20
89.50133321444349
 30
0.0
 10
98.21016680434796
 20
89.53196818211326
 30
0.0
 10
98.5136057318956
 20
89.54476163975124
 30
0.0
 10
98.96474234753308
 20
89.57268746771062
 30
0.0
 10
99.1144485970756
 20
89.58345708787037
 30
0.0
 10
99.4112897333237
 20
89.61058980346989
 30
0.0
 10
99.558675285827
 20
89.6264067762971
 30
0.0
 10
99.70245941284128
 20
89.65006586517154
 30
0.0
  0
SPLINE
  5
122
330
1F
100
AcDbEntity
  8
0
  6
HIDDEN
 62
     7
370
     0
100
AcDbSpline
210
0.0
220
0.0
230
1.0
 70
     8
 71
     3
 72
    10
 73
     6
 74
     0
 42
0.00000001
 43
0.00000001
 40
0.0
 40
0.0
 40
0.0
 40
0.0
 40
0.5
 40
0.5
 40
1.0
 40
1.0
 40
1.0
 40
1.0
 10
99.70245941284136
 20
89.65006586517157
 30
0.0
 10
100.3300870685487
 20
89.75333942390719
 30
0.0
 10
100.98128781358
 20
89.84216453565871
 30
0.0
 10
102.2899925175922
 20
90.00427224252905
 30
0.0
 10
102.9510369548834
 20
90.07757170681565
 30
0.0
 10
103.616061273963
 20
90.14625952154333
 30
0.0
  0
SPLINE
  5
123
330
1F
100
AcDbEntity
  8
0
  6
HIDDEN
 62
     7
370
     0
100
AcDbSpline
210
0.0
220
0.0
230
1.0
 70
     8
 71
     3
 72
    18
 73
    14
 74
     0
 42
0.00000001
 43
0.00000001
 40
0.0
 40
0.0
 40
0.0
 40
0.0
 40
0.0625000000000017
 40
0.0625000000000017
 40
0.1250000000000034
 40
0.1250000000000034
 40
0.2500000000000038
 40
0.2500000000000038
 40
0.5000000000000026
 40
0.5000000000000026
 40
0.7500000000000013
 40
0.7500000000000013
 40
1.0
 40
1.0
 40
1.0
 40
1.0
 10
103.6160612739631
 20
90.14625952154317
 30
0.0
 10
103.6526334843135
 20
90.15003692507062
 30
0.0
 10
103.6912839577489
 20
90.14947989718749
 30
0.0
 10
103.7653754514628
 20
90.13942069202567
 30
0.0
 10
103.8007257452168
 20
90.13006681060112
 30
0.0
 10
103.8953200426063
 20
90.09568238416732
 30
0.0
 10
103.9454582157452
 20
90.06497064950453
 30
0.0
 10
104.0746514873264
 20
89.96904133946651
 30
0.0
 10
104.1329316320676
 20
89.90052584534928
 30
0.0
 10
104.2331267284911
 20
89.76395389541666
 30
0.0
 10
104.2731419799377
 20
89.69518899291376
 30
0.0
 10
104.3415414007555
 20
89.56015356380608
 30
0.0
 10
104.3699031246174
 20
89.49353553775292
 30
0.0
 10
104.3944570372234
 20
89.4279770700567
 30
0.0
  0
SPLINE
  5
124
330
1F
100
AcDbEntity
  8
0
  6
HIDDEN
 62
     7
370
     0
100
AcDbSpline
210
0.0
220
0.0
230
1.0
 70
     8
 71
     3
 72
    14
 73
    10
 74
     0
 42
0.00000001
 43
0.00000001
 40
0.0
 40
0.0
 40
0.0
 40
0.0
 40
0.25
 40
0.25
 40
0.5
 40
0.5
 40
0.75
 40
0.75
 40
1.0
 40
1.0
 40
1.0
 40
1.0
 10
104.3944570372234
 20
89.42797707005671
 30
0.0
 10
104.4328934220443
 20
89.32535267234518
 30
0.0
 10
104.5016948154362
 20
89.22615624890562
 30
0.0
 10
104.6449808275952
 20
89.03526421957909
 30
0.0
 10
104.7201628827021
 20
88.94300695354619
 30
0.0
 10
104.8523501713522
 20
88.76339963173119
 30
0.0
 10
104.9098673668221
 20
88.67609007728684
 30
0.0
 10
104.9919121651144
 20
88.5061562437711
 30
0.0
 10
105.0160612739632
 20
88.42425390189993
 30
0.0
 10
105.0160612739632
 20
88.34720002806402
 30
0.0
  0
LINE
  5
125
330
1F
100
AcDbEntity
  8
0
  6
HIDDEN
 62
     7
370
     0
100
AcDbLine
 10
105.016061274
 20
88.3472000281
 30
0.0
 11
105.016061274
 21
87.0639013936
 31
0.0
  0
LINE
  5
126
330
1F
100
AcDbEntity
  8
0
  6
HIDDEN
 62
     7
370
     0
100
AcDbLine
 10
101.016061274
 20
133.3203943795
 30
0.0
 11
101.016061274
 21
132.1364559597
 31
0.0
  0
SPLINE
  5
127
330
1F
100
AcDbEntity
  8
0
  6
HIDDEN
 62
     7
370
     0
100
AcDbSpline
210
0.0
220
0.0
230
1.0
 70
     8
 71
     3
 72
    18
 73
    14
 74
     0
 42
0.00000001
 43
0.00000001
 40
0.0
 40
0.0
 40
0.0
 40
0.0
 40
0.2500000000000018
 40
0.2500000000000018
 40
0.5000000000000029
 40
0.5000000000000029
 40
0.7500000000000039
 40
0.7500000000000039
 40
0.8750000000000029
 40
0.8750000000000029
 40
0.9375000000000014
 40
0.9375000000000014
 40
1.0
 40
1.0
 40
1.0
 40
1.0
 10
101.0160612739632
 20
132.1364559597029
 30
0.0
 10
101.0160612739632
 20
132.0532490508457
 30
0.0
 10
100.9802121740249
 20
131.9645123955322
 30
0.0
 10
100.855340437991
 20
131.7823872049719
 30
0.0
 10
100.7649400203431
 20
131.6872571563453
 30
0.0
 10
100.5426973656009
 20
131.498075647221
 30
0.0
 10
100.4129325791552
 20
131.4031304791263
 30
0.0
 10
100.1722951218436
 20
131.2648517715463
 30
0.0
 10
100.0845278237062
 20
131.219141338244
 30
0.0
 10
99.93000373649933
 20
131.1613180330226
 30
0.0
 10
99.87339285044463
 20
131.1436032689847
 30
0.0
 10
99.74934881953803
 20
131.1190639657518
 30
0.0
 10
99.68163414451982
 20
131.1130848272135
 30
0.0
 10
99.61606127396323
 20
131.1154356791678
 30
0.0
  0
SPLINE
  5
128
330
1F
100
AcDbEntity
  8
0
  6
HIDDEN
 62
     7
370
     0
100
AcDbSpline
210
0.0
220
0.0
230
1.0
 70
     8
 71
     3
 72
    10
 73
     6
 74
     0
 42
0.00000001
 43
0.00000001
 40
0.0
 40
0.0
 40
0.0
 40
0.0
 40
0.5
 40
0.5
 40
1.0
 40
1.0
 40
1.0
 40
1.0
 10
99.61606127396324
 20
131.1154356791678
 30
0.0
 10
99.02847572687266
 20
131.1365011994042
 30
0.0
 10
98.43772933341226
 20
131.1472596852764
 30
0.0
 10
97.25371016811339
 20
131.160624465812
 30
0.0
 10
96.66029617990793
 20
131.1627671084766
 30
0.0
 10
96.06606127396321
 20
131.1622860527351
 30
0.0
  0
SPLINE
  5
129
330
1F
100
AcDbEntity
  8
0
  6
HIDDEN
 62
     7
370
     0
100
AcDbSpline
210
0.0
220
0.0
230
1.0
 70
     8
 71
     3
 72
     8
 73
     4
 74
     0
 42
0.00000001
 43
0.00000001
 40
0.0000003292049693
 40
0.0000003292049693
 40
0.0000003292049693
 40
0.0000003292049693
 40
0.000016905094931
 40
0.000016905094931
 40
0.000016905094931
 40
0.000016905094931
 10
96.06606127396311
 20
131.162286052735
 30
0.0
 10
96.0627046918263
 20
131.1603740586382
 30
0.0
 10
96.05935632770077
 20
131.1584587683831
 30
0.0
 10
96.05601634353172
 20
131.1565401597677
 30
0.0
  0
SPLINE
  5
12A
330
1F
100
AcDbEntity
  8
0
  6
HIDDEN
 62
     7
370
     0
100
AcDbSpline
210
0.0
220
0.0
230
1.0
 70
     8
 71
     3
 72
     8
 73
     4
 74
     0
 42
0.00000001
 43
0.00000001
 40
0.0000003682006999
 40
0.0000003682006999
 40
0.0000003682006999
 40
0.0000003682006999
 40
0.0000187826246626
 40
0.0000187826246626
 40
0.0000187826246626
 40
0.0000187826246626
 10
96.05601634354494
 20
89.49246113327092
 30
0.0
 10
96.05935073897238
 20
89.4902083754171
 30
0.0
 10
96.0626991530815
 20
89.48796024728655
 30
0.0
 10
96.0660612739631
 20
89.48571672881233
 30
0.0
  0
SPLINE
  5
12B
330
1F
100
AcDbEntity
  8
0
  6
HIDDEN
 62
     7
370
     0
100
AcDbSpline
210
0.0
220
0.0
230
1.0
 70
     8
 71
     3
 72
    10
 73
     6
 74
     0
 42
0.00000001
 43
0.00000001
 40
0.0
 40
0.0
 40
0.0
 40
0.0
 40
0.2949159523328205
 40
0.5007639170797383
 40
1.0
 40
1.0
 40
1.0
 40
1.0
 10
114.8112114785348
 20
86.76774866451808
 30
0.0
 10
114.6382792654468
 20
86.75000145175238
 30
0.0
 10
114.3446423437061
 20
86.7198668872722
 30
0.0
 10
113.6698932116362
 20
86.65178482852046
 30
0.0
 10
113.6209889021372
 20
86.64196336798437
 30
0.0
 10
113.5863621140359
 20
86.6350092644235
 30
0.0
  0
SPLINE
  5
12C
330
1F
100
AcDbEntity
  8
0
  6
HIDDEN
 62
     7
370
     0
100
AcDbSpline
210
0.0
220
0.0
230
1.0
 70
     8
 71
     3
 72
    16
 73
    12
 74
     0
 42
0.00000001
 43
0.00000001
 40
0.0
 40
0.0
 40
0.0
 40
0.0
 40
0.0014619398999444
 40
0.1695060946944872
 40
0.3368148262131691
 40
0.502778425871865
 40
0.5863380399920293
 40
0.6685202984823475
 40
0.7507638349534448
 40
0.8341946041745462
 40
1.0
 40
1.0
 40
1.0
 40
1.0
 10
121.9976976418563
 20
86.21360325786684
 30
0.0
 10
121.998627746571
 20
86.21339500445387
 30
0.0
 10
122.1064696748499
 20
86.18924885265893
 30
0.0
 10
121.7184559420534
 20
86.27779570820476
 30
0.0
 10
120.8566653133744
 20
86.46139906596953
 30
0.0
 10
119.6663596468962
 20
86.64962898644995
 30
0.0
 10
118.6149593763141
 20
86.76103396644805
 30
0.0
 10
117.788930420461
 20
86.81866958168442
 30
0.0
 10
116.9651424760575
 20
86.84515533993735
 30
0.0
 10
115.8949870043394
 20
86.84041575302437
 30
0.0
 10
115.2441701192657
 20
86.79677851721033
 30
0.0
 10
114.8112114785348
 20
86.76774866451808
 30
0.0
  0
SPLINE
  5
12D
330
1F
100
AcDbEntity
  8
0
  6
HIDDEN
 62
     7
370
     0
100
AcDbSpline
210
0.0
220
0.0
230
1.0
 70
     8
 71
     3
 72
    16
 73
    12
 74
     0
 42
0.00000001
 43
0.00000001
 40
0.0
 40
0.0
 40
0.0
 40
0.0
 40
0.1658979086808742
 40
0.2493608198222819
 40
0.3317589050038945
 40
0.4138911421869724
 40
0.4976181669650955
 40
0.6634955966468964
 40
0.8305394509979773
 40
0.9983760749348632
 40
1.0
 40
1.0
 40
1.0
 40
1.0
 10
114.8111187582529
 20
133.8169313173217
 30
0.0
 10
115.2446871704488
 20
133.7879785040347
 30
0.0
 10
115.8963829969598
 20
133.7444595874019
 30
0.0
 10
116.9673489008445
 20
133.7397199581992
 30
0.0
 10
117.7915719400799
 20
133.7661217129634
 30
0.0
 10
118.618590156056
 20
133.8238152759208
 30
0.0
 10
119.669707338892
 20
133.9354741729483
 30
0.0
 10
120.8584191910777
 20
134.1236730477215
 30
0.0
 10
121.7191572787516
 20
134.3069325488327
 30
0.0
 10
122.1071618718278
 20
134.3954560147203
 30
0.0
 10
121.9985199817078
 20
134.3712600044299
 30
0.0
 10
121.9974788763324
 20
134.3710281362587
 30
0.0
  0
SPLINE
  5
12E
330
1F
100
AcDbEntity
  8
0
  6
HIDDEN
 62
     7
370
     0
100
AcDbSpline
210
0.0
220
0.0
230
1.0
 70
     8
 71
     3
 72
    10
 73
     6
 74
     0
 42
0.00000001
 43
0.00000001
 40
0.0
 40
0.0
 40
0.0
 40
0.0
 40
0.4995493564858547
 40
0.5744878148518612
 40
0.9999999999999999
 40
0.9999999999999999
 40
0.9999999999999999
 40
0.9999999999999999
 10
113.5856580224675
 20
133.9497548844375
 30
0.0
 10
113.6059527385263
 20
133.9439626341241
 30
0.0
 10
113.6292919079802
 20
133.9373014760575
 30
0.0
 10
114.2614705464795
 20
133.8731549029831
 30
0.0
 10
114.5585362523306
 20
133.8427680140563
 30
0.0
 10
114.8111187582529
 20
133.8169313173217
 30
0.0
  0
SPLINE
  5
12F
330
1F
100
AcDbEntity
  8
0
  6
HIDDEN
 62
     7
370
     0
100
AcDbSpline
210
0.0
220
0.0
230
1.0
 70
    11
 71
     3
 72
    56
 73
    52
 74
     0
 42
0.00000001
 43
0.00000001
 40
0.0
 40
0.0
 40
0.0
 40
0.0
 40
0.0625
 40
0.0625
 40
0.09375
 40
0.09375
 40
0.125
 40
0.125
 40
0.15625
 40
0.15625
 40
0.1874999999999999
 40
0.1874999999999999
 40
0.2187499999999999
 40
0.2187499999999999
 40
0.2499999999999999
 40
0.2499999999999999
 40
0.3125000000000002
 40
0.3125000000000002
 40
0.3437500000000002
 40
0.3437500000000002
 40
0.3750000000000002
 40
0.3750000000000002
 40
0.4062500000000002
 40
0.4062500000000002
 40
0.4375000000000002
 40
0.4375000000000002
 40
0.4687500000000002
 40
0.4687500000000002
 40
0.5000000000000002
 40
0.5000000000000002
 40
0.5625000000000002
 40
0.5625000000000002
 40
0.6250000000000002
 40
0.6250000000000002
 40
0.6875000000000002
 40
0.6875000000000002
 40
0.7187500000000002
 40
0.7187500000000002
 40
0.7500000000000003
 40
0.7500000000000003
 40
0.7812500000000003
 40
0.7812500000000003
 40
0.8125000000000003
 40
0.8125000000000003
 40
0.8750000000000003
 40
0.8750000000000003
 40
0.9375000000000002
 40
0.9375000000000002
 40
0.9687500000000001
 40
0.9687500000000001
 40
1.0
 40
1.0
 40
1.0
 40
1.0
 10
120.5710632755648
 20
90.45481981152344
 30
0.0
 10
120.315275965017
 20
90.49034311541698
 30
0.0
 10
120.0250861580737
 20
90.52588698438525
 30
0.0
 10
119.538433059783
 20
90.57235868429414
 30
0.0
 10
119.3680872176218
 20
90.58660459752562
 30
0.0
 10
119.0211138075307
 20
90.61089251172403
 30
0.0
 10
118.843175910296
 20
90.62106885804607
 30
0.0
 10
118.4782566327362
 20
90.63674418564997
 30
0.0
 10
118.2899220406409
 20
90.64223114686285
 30
0.0
 10
117.9160351881854
 20
90.64769114113858
 30
0.0
 10
117.7293449740155
 20
90.64774936439775
 30
0.0
 10
117.3564664830962
 20
90.64256522242096
 30
0.0
 10
117.1687622401739
 20
90.63724974394951
 30
0.0
 10
116.8018433406263
 20
90.62174736292621
 30
0.0
 10
116.6233935985618
 20
90.61164795516554
 30
0.0
 10
116.1026046952011
 20
90.57551611351161
 30
0.0
 10
115.7717209755301
 20
90.54308689249355
 30
0.0
 10
115.3352194171986
 20
90.49156040112646
 30
0.0
 10
115.198433878146
 20
90.47383579008248
 30
0.0
 10
114.9427092686922
 20
90.43844146357317
 30
0.0
 10
114.8250855405866
 20
90.42094494219258
 30
0.0
 10
114.615016087398
 20
90.38824254620407
 30
0.0
 10
114.5216812487129
 20
90.37291073725802
 30
0.0
 10
114.3587355380338
 20
90.34531457790922
 30
0.0
 10
114.289032575184
 20
90.33302789479559
 30
0.0
 10
114.1784095088518
 20
90.31318290300914
 30
0.0
 10
114.1367278372414
 20
90.30549679048245
 30
0.0
 10
114.0805526968662
 20
90.29507941010522
 30
0.0
 10
114.0661144211056
 20
90.29235825242874
 30
0.0
 10
114.065955426003
 20
90.29232844084815
 30
0.0
 10
114.1216147637398
 20
90.30299057099613
 30
0.0
 10
114.3444395242742
 20
90.34297124273111
 30
0.0
 10
114.5063518098678
 20
90.37130749436342
 30
0.0
 10
114.9301433686036
 20
90.43731840332347
 30
0.0
 10
115.1849897911509
 20
90.47377827611469
 30
0.0
 10
115.6236334512646
 20
90.52562979910104
 30
0.0
 10
115.7803309875441
 20
90.54251743316102
 30
0.0
 10
116.1035309373227
 20
90.57321085378194
 30
0.0
 10
116.2712044187429
 20
90.58717066072582
 30
0.0
 10
116.6187892849316
 20
90.61137008987698
 30
0.0
 10
116.8003527657506
 20
90.62166703870778
 30
0.0
 10
117.1665390405595
 20
90.6371729855697
 30
0.0
 10
117.3511964564018
 20
90.6424389674667
 30
0.0
 10
117.9097928629602
 20
90.6503617907222
 30
0.0
 10
118.2921272044307
 20
90.64464766734858
 30
0.0
 10
119.0194243487991
 20
90.61358858118632
 30
0.0
 10
119.3751184228991
 20
90.58789994513634
 30
0.0
 10
119.8584306998501
 20
90.54182793492825
 30
0.0
 10
120.0121283070666
 20
90.52522577651196
 30
0.0
 10
120.3045505319097
 20
90.49060592129766
 30
0.0
 10
120.4431657551149
 20
90.47258200025924
 30
0.0
 10
120.5710632755648
 20
90.45481981152342
 30
0.0
  0
SPLINE
  5
130
330
1F
100
AcDbEntity
  8
0
  6
HIDDEN
 62
     7
370
     0
100
AcDbSpline
210
0.0
220
0.0
230
1.0
 70
    11
 71
     3
 72
    56
 73
    52
 74
     0
 42
0.00000001
 43
0.00000001
 40
0.0
 40
0.0
 40
0.0
 40
0.0
 40
0.0624999999999999
 40
0.0624999999999999
 40
0.0937499999999999
 40
0.0937499999999999
 40
0.1249999999999998
 40
0.1249999999999998
 40
0.1562499999999998
 40
0.1562499999999998
 40
0.1874999999999997
 40
0.1874999999999997
 40
0.2187499999999996
 40
0.2187499999999996
 40
0.2499999999999995
 40
0.2499999999999995
 40
0.3124999999999997
 40
0.3124999999999997
 40
0.3437499999999998
 40
0.3437499999999998
 40
0.3749999999999998
 40
0.3749999999999998
 40
0.4062499999999999
 40
0.4062499999999999
 40
0.4374999999999999
 40
0.4374999999999999
 40
0.4687500000000001
 40
0.4687500000000001
 40
0.5000000000000001
 40
0.5000000000000001
 40
0.5625000000000001
 40
0.5625000000000001
 40
0.6250000000000001
 40
0.6250000000000001
 40
0.6875000000000002
 40
0.6875000000000002
 40
0.71875
 40
0.71875
 40
0.7499999999999999
 40
0.7499999999999999
 40
0.7812499999999998
 40
0.7812499999999998
 40
0.8124999999999996
 40
0.8124999999999996
 40
0.8749999999999997
 40
0.8749999999999997
 40
0.9374999999999999
 40
0.9374999999999999
 40
0.9687499999999999
 40
0.9687499999999999
 40
1.0
 40
1.0
 40
1.0
 40
1.0
 10
120.5710632755648
 20
130.1298767631565
 30
0.0
 10
120.3152759650171
 20
130.0943534592629
 30
0.0
 10
120.0250861580737
 20
130.0588095902946
 30
0.0
 10
119.538433059783
 20
130.0123378903857
 30
0.0
 10
119.3680872176218
 20
129.9980919771542
 30
0.0
 10
119.0211138075307
 20
129.9738040629558
 30
0.0
 10
118.843175910296
 20
129.9636277166338
 30
0.0
 10
118.4782566327362
 20
129.9479523890299
 30
0.0
 10
118.2899220406409
 20
129.942465427817
 30
0.0
 10
117.9160351881854
 20
129.9370054335413
 30
0.0
 10
117.7293449740155
 20
129.9369472102821
 30
0.0
 10
117.3564664830962
 20
129.9421313522589
 30
0.0
 10
117.1687622401739
 20
129.9474468307303
 30
0.0
 10
116.8018433406263
 20
129.9629492117536
 30
0.0
 10
116.6233935985618
 20
129.9730486195143
 30
0.0
 10
116.1026046952011
 20
130.0091804611682
 30
0.0
 10
115.7717209755302
 20
130.0416096821863
 30
0.0
 10
115.3352194171986
 20
130.0931361735534
 30
0.0
 10
115.198433878146
 20
130.1108607845974
 30
0.0
 10
114.9427092686922
 20
130.1462551111067
 30
0.0
 10
114.8250855405866
 20
130.1637516324873
 30
0.0
 10
114.615016087398
 20
130.1964540284758
 30
0.0
 10
114.5216812487129
 20
130.2117858374218
 30
0.0
 10
114.3587355380338
 20
130.2393819967706
 30
0.0
 10
114.289032575184
 20
130.2516686798842
 30
0.0
 10
114.1784095088518
 20
130.2715136716707
 30
0.0
 10
114.1367278372414
 20
130.2791997841974
 30
0.0
 10
114.0805526968662
 20
130.2896171645747
 30
0.0
 10
114.0661144211056
 20
130.2923383222511
 30
0.0
 10
114.065955426003
 20
130.2923681338317
 30
0.0
 10
114.1216147637398
 20
130.2817060036837
 30
0.0
 10
114.3444395242742
 20
130.2417253319487
 30
0.0
 10
114.5063518098679
 20
130.2133890803164
 30
0.0
 10
114.9301433686036
 20
130.1473781713564
 30
0.0
 10
115.1849897911509
 20
130.1109182985652
 30
0.0
 10
115.6236334512646
 20
130.0590667755788
 30
0.0
 10
115.7803309875441
 20
130.0421791415188
 30
0.0
 10
116.1035309373227
 20
130.0114857208979
 30
0.0
 10
116.2712044187429
 20
129.997525913954
 30
0.0
 10
116.6187892849317
 20
129.9733264848029
 30
0.0
 10
116.8003527657506
 20
129.9630295359721
 30
0.0
 10
117.1665390405595
 20
129.9475235891101
 30
0.0
 10
117.3511964564018
 20
129.9422576072132
 30
0.0
 10
117.9097928629602
 20
129.9343347839577
 30
0.0
 10
118.2921272044307
 20
129.9400489073313
 30
0.0
 10
119.0194243487991
 20
129.9711079934935
 30
0.0
 10
119.3751184228991
 20
129.9967966295435
 30
0.0
 10
119.8584306998501
 20
130.0428686397516
 30
0.0
 10
120.0121283070666
 20
130.0594707981679
 30
0.0
 10
120.3045505319097
 20
130.0940906533822
 30
0.0
 10
120.4431657551149
 20
130.1121145744206
 30
0.0
 10
120.5710632755648
 20
130.1298767631564
 30
0.0
  0
SPLINE
  5
131
330
1F
100
AcDbEntity
  8
0
  6
HIDDEN
 62
     7
370
     0
100
AcDbSpline
210
0.0
220
0.0
230
1.0
 70
    11
 71
     3
 72
    22
 73
    18
 74
     0
 42
0.00000001
 43
0.00000001
 40
0.0
 40
0.0
 40
0.0
 40
0.0
 40
0.125
 40
0.125
 40
0.25
 40
0.25
 40
0.375
 40
0.375
 40
0.5
 40
0.5
 40
0.625
 40
0.625
 40
0.75
 40
0.75
 40
0.875
 40
0.875
 40
1.0
 40
1.0
 40
1.0
 40
1.0
 10
120.5710632755648
 20
130.1298767631564
 30
0.0
 10
120.7300061045339
 20
130.1519504712034
 30
0.0
 10
120.8706976524242
 20
130.168634289191
 30
0.0
 10
121.1166838898866
 20
130.1948559840733
 30
0.0
 10
121.222721972568
 20
130.2044352899186
 30
0.0
 10
121.393214013135
 20
130.2185145569978
 30
0.0
 10
121.4572667125987
 20
130.2230211332449
 30
0.0
 10
121.5437707636917
 20
130.2288853030827
 30
0.0
 10
121.5660042590518
 20
130.230227235601
 30
0.0
 10
121.5661180650637
 20
130.2302343753506
 30
0.0
 10
121.5446601365785
 20
130.2289417398643
 30
0.0
 10
121.4586743436995
 20
130.2231203103541
 30
0.0
 10
121.39336019695
 20
130.2185208410783
 30
0.0
 10
121.2243543630146
 20
130.2045758202684
 30
0.0
 10
121.1203953251388
 20
130.1952234334101
 30
0.0
 10
120.8728848788998
 20
130.1688949629437
 30
0.0
 10
120.7300007888161
 20
130.1519497329657
 30
0.0
 10
120.5710632755651
 20
130.1298767631565
 30
0.0
  0
SPLINE
  5
132
330
1F
100
AcDbEntity
  8
0
  6
HIDDEN
 62
     7
370
     0
100
AcDbSpline
210
0.0
220
0.0
230
1.0
 70
    11
 71
     3
 72
    22
 73
    18
 74
     0
 42
0.00000001
 43
0.00000001
 40
0.0
 40
0.0
 40
0.0
 40
0.0
 40
0.125
 40
0.125
 40
0.2500000000000001
 40
0.2500000000000001
 40
0.3750000000000001
 40
0.3750000000000001
 40
0.5000000000000001
 40
0.5000000000000001
 40
0.6250000000000001
 40
0.6250000000000001
 40
0.7500000000000002
 40
0.7500000000000002
 40
0.8750000000000002
 40
0.8750000000000002
 40
1.0
 40
1.0
 40
1.0
 40
1.0
 10
120.5710632755648
 20
90.45481981152346
 30
0.0
 10
120.7300061045339
 20
90.43274610347643
 30
0.0
 10
120.8706976524242
 20
90.41606228548882
 30
0.0
 10
121.1166838898866
 20
90.38984059060651
 30
0.0
 10
121.222721972568
 20
90.3802612847612
 30
0.0
 10
121.393214013135
 20
90.36618201768204
 30
0.0
 10
121.4572667125987
 20
90.36167544143501
 30
0.0
 10
121.5437707636917
 20
90.3558112715971
 30
0.0
 10
121.5660042590518
 20
90.35446933907882
 30
0.0
 10
121.5661180650637
 20
90.3544621993293
 30
0.0
 10
121.5446601365785
 20
90.35575483481551
 30
0.0
 10
121.4586743436995
 20
90.36157626432572
 30
0.0
 10
121.39336019695
 20
90.36617573360157
 30
0.0
 10
121.2243543630146
 20
90.38012075441142
 30
0.0
 10
121.1203953251388
 20
90.38947314126975
 30
0.0
 10
120.8728848788998
 20
90.41580161173617
 30
0.0
 10
120.7300007888161
 20
90.43274684171416
 30
0.0
 10
120.5710632755651
 20
90.45481981152336
 30
0.0
  0
LINE
  5
133
330
1F
100
AcDbEntity
  8
0
  6
HIDDEN
 62
     7
370
     0
100
AcDbLine
 10
126.816061274
 20
93.2923482873
 30
0.0
 11
126.816061274
 21
127.2923482873
 31
0.0
  0
LINE
  5
134
330
1F
100
AcDbEntity
  8
0
  6
HIDDEN
 62
     7
370
     0
100
AcDbLine
 10
146.6999136508
 20
130.1423482873
 30
0.0
 11
152.766061274
 21
130.1423482873
 31
0.0
  0
LINE
  5
135
330
1F
100
AcDbEntity
  8
0
  6
HIDDEN
 62
     7
370
     0
100
AcDbLine
 10
139.0116816197
 20
130.1423482873
 30
0.0
 11
142.9322088971
 21
130.1423482873
 31
0.0
  0
LINE
  5
136
330
1F
100
AcDbEntity
  8
0
  6
HIDDEN
 62
     7
370
     0
100
AcDbLine
 10
107.8200358702
 20
127.2923482873
 30
0.0
 11
107.8200358702
 21
93.2923482873
 31
0.0
  0
LWPOLYLINE
  5
137
330
1F
100
AcDbEntity
  8
0
  6
HIDDEN
 62
     7
370
     0
100
AcDbPolyline
 90
        2
 70
   128
 43
0.0
 10
107.8200358702
 20
93.2923482873
 10
107.8200358702
 20
93.2923482873
  0
LINE
  5
138
330
1F
100
AcDbEntity
  8
0
  6
HIDDEN
 62
     7
370
     0
100
AcDbLine
 10
152.766061274
 20
91.2923482873
 30
0.0
 11
152.766061274
 21
129.2654195052
 31
0.0
  0
LINE
  5
139
330
1F
100
AcDbEntity
  8
0
  6
HIDDEN
 62
     7
370
     0
100
AcDbLine
 10
94.916061274
 20
94.0462556096
 30
0.0
 11
94.916061274
 21
126.5384409651
 31
0.0
  0
LINE
  5
13A
330
1F
100
AcDbEntity
  8
0
  6
HIDDEN
 62
     7
370
     0
100
AcDbLine
 10
134.4758872425
 20
127.2923482873
 30
0.0
 11
134.4758872425
 21
93.2923482873
 31
0.0
  0
LWPOLYLINE
  5
13B
330
1F
100
AcDbEntity
  8
0
  6
HIDDEN
 62
     7
370
     0
100
AcDbPolyline
 90
        2
 70
   128
 43
0.0
 10
134.4758872425
 20
93.2923482873
 10
134.4758872425
 20
93.2923482873
  0
LINE
  5
13C
330
1F
100
AcDbEntity
  8
0
  6
HIDDEN
 62
     7
370
     0
100
AcDbLine
 10
136.766061274
 20
126.0173482873
 30
0.0
 11
136.766061274
 21
94.5673482873
 31
0.0
  0
LWPOLYLINE
  5
13D
330
1F
100
AcDbEntity
  8
0
  6
HIDDEN
 62
     7
370
     0
100
AcDbPolyline
 90
        2
 70
   128
 43
0.0
 10
136.766061274
 20
94.5673482873
 10
136.766061274
 20
94.5673482873
  0
LINE
  5
13E
330
1F
100
AcDbEntity
  8
0
  6
HIDDEN
 62
     7
370
     0
100
AcDbLine
 10
96.066061274
 20
94.4908578513
 30
0.0
 11
103.616061274
 21
94.4908578513
 31
0.0
  0
LINE
  5
13F
330
1F
100
AcDbEntity
  8
0
  6
HIDDEN
 62
     7
370
     0
100
AcDbLine
 10
96.066061274
 20
126.0938387234
 30
0.0
 11
96.066061274
 21
94.4908578513
 31
0.0
  0
LINE
  5
140
330
1F
100
AcDbEntity
  8
0
  6
HIDDEN
 62
     7
370
     0
100
AcDbLine
 10
99.616061274
 20
126.0938387234
 30
0.0
 11
96.066061274
 21
126.0938387234
 31
0.0
  0
SPLINE
  5
141
330
1F
100
AcDbEntity
  8
0
  6
HIDDEN
 62
     7
370
     0
100
AcDbSpline
210
0.0
220
0.0
230
1.0
 70
     8
 71
     3
 72
    18
 73
    14
 74
     0
 42
0.00000001
 43
0.00000001
 40
0.0
 40
0.0
 40
0.0
 40
0.0
 40
0.2500000000000015
 40
0.2500000000000015
 40
0.3750000000000014
 40
0.3750000000000014
 40
0.5000000000000014
 40
0.5000000000000014
 40
0.6250000000000014
 40
0.6250000000000014
 40
0.7500000000000013
 40
0.7500000000000013
 40
1.0
 40
1.0
 40
1.0
 40
1.0
 10
101.0160612739632
 20
126.5798619097441
 30
0.0
 10
101.0160612739632
 20
126.5253873891919
 30
0.0
 10
100.981150582571
 20
126.4690063298394
 30
0.0
 10
100.879141281238
 20
126.3849294889859
 30
0.0
 10
100.8375049265599
 20
126.357595784995
 30
0.0
 10
100.7390991310711
 20
126.304641869396
 30
0.0
 10
100.6815559193668
 20
126.2787545156788
 30
0.0
 10
100.5542577457939
 20
126.2309769708455
 30
0.0
 10
100.4846704410364
 20
126.2090290526677
 30
0.0
 10
100.3332361958815
 20
126.1695964877549
 30
0.0
 10
100.2505522927875
 20
126.1520402385291
 30
0.0
 10
99.99444083074944
 20
126.1096014731086
 30
0.0
 10
99.80652582686147
 20
126.0938387233716
 30
0.0
 10
99.6160612739632
 20
126.0938387233716
 30
0.0
  0
LINE
  5
142
330
1F
100
AcDbEntity
  8
0
  6
HIDDEN
 62
     7
370
     0
100
AcDbLine
 10
101.016061274
 20
126.5798619097
 30
0.0
 11
101.016061274
 21
127.2923482873
 31
0.0
  0
SPLINE
  5
143
330
1F
100
AcDbEntity
  8
0
  6
HIDDEN
 62
     7
370
     0
100
AcDbSpline
210
0.0
220
0.0
230
1.0
 70
     8
 71
     3
 72
    18
 73
    14
 74
     0
 42
0.00000001
 43
0.00000001
 40
0.0
 40
0.0
 40
0.0
 40
0.0
 40
0.2499999999999981
 40
0.2499999999999981
 40
0.3749999999999984
 40
0.3749999999999984
 40
0.4999999999999988
 40
0.4999999999999988
 40
0.6249999999999991
 40
0.6249999999999991
 40
0.7499999999999994
 40
0.7499999999999994
 40
1.0
 40
1.0
 40
1.0
 40
1.0
 10
101.0160612739632
 20
126.5798619097441
 30
0.0
 10
101.0160612739632
 20
126.5253873891919
 30
0.0
 10
100.981150582571
 20
126.4690063298394
 30
0.0
 10
100.8791412812379
 20
126.3849294889859
 30
0.0
 10
100.8375049265599
 20
126.357595784995
 30
0.0
 10
100.7390991310711
 20
126.304641869396
 30
0.0
 10
100.6815559193668
 20
126.2787545156788
 30
0.0
 10
100.5542577457939
 20
126.2309769708455
 30
0.0
 10
100.4846704410364
 20
126.2090290526677
 30
0.0
 10
100.3332361958815
 20
126.1695964877549
 30
0.0
 10
100.2505522927875
 20
126.1520402385291
 30
0.0
 10
99.99444083074945
 20
126.1096014731086
 30
0.0
 10
99.80652582686147
 20
126.0938387233716
 30
0.0
 10
99.6160612739632
 20
126.0938387233716
 30
0.0
  0
LINE
  5
144
330
1F
100
AcDbEntity
  8
0
  6
HIDDEN
 62
     7
370
     0
100
AcDbLine
 10
99.616061274
 20
126.0938387234
 30
0.0
 11
96.066061274
 21
126.0938387234
 31
0.0
  0
LINE
  5
145
330
1F
100
AcDbEntity
  8
0
  6
HIDDEN
 62
     7
370
     0
100
AcDbLine
 10
96.066061274
 20
94.4908578513
 30
0.0
 11
103.616061274
 21
94.4908578513
 31
0.0
  0
SPLINE
  5
146
330
1F
100
AcDbEntity
  8
0
  6
HIDDEN
 62
     7
370
     0
100
AcDbSpline
210
0.0
220
0.0
230
1.0
 70
     8
 71
     3
 72
    16
 73
    12
 74
     0
 42
0.00000001
 43
0.00000001
 40
0.0
 40
0.0
 40
0.0
 40
0.0
 40
0.1250000000000001
 40
0.1250000000000001
 40
0.2500000000000002
 40
0.2500000000000002
 40
0.5000000000000001
 40
0.5000000000000001
 40
0.75
 40
0.75
 40
1.0
 40
1.0
 40
1.0
 40
1.0
 10
103.6160612739632
 20
94.49085785130825
 30
0.0
 10
103.711183028629
 20
94.49085785130826
 30
0.0
 10
103.8045130973571
 20
94.48704201791547
 30
0.0
 10
103.9877748580951
 20
94.47227146518567
 30
0.0
 10
104.0786525736521
 20
94.46111341721009
 30
0.0
 10
104.3354542711719
 20
94.41864214706837
 30
0.0
 10
104.4905216360439
 20
94.37759594986555
 30
0.0
 10
104.7442680975985
 20
94.28244983328366
 30
0.0
 10
104.8451385492663
 20
94.2276870992021
 30
0.0
 10
104.9803849639612
 20
94.11642597529823
 30
0.0
 10
105.0160612739632
 20
94.05925623796948
 30
0.0
 10
105.0160612739632
 20
94.00483466493576
 30
0.0
  0
LINE
  5
147
330
1F
100
AcDbEntity
  8
0
  6
HIDDEN
 62
     7
370
     0
100
AcDbLine
 10
105.016061274
 20
94.0048346649
 30
0.0
 11
105.016061274
 21
93.2923482873
 31
0.0
  0
SPLINE
  5
148
330
1F
100
AcDbEntity
  8
0
  6
HIDDEN
 62
     7
370
     0
100
AcDbSpline
210
0.0
220
0.0
230
1.0
 70
     8
 71
     3
 72
    16
 73
    12
 74
     0
 42
0.00000001
 43
0.00000001
 40
0.0
 40
0.0
 40
0.0
 40
0.0
 40
0.1250000000000013
 40
0.1250000000000013
 40
0.2500000000000026
 40
0.2500000000000026
 40
0.5000000000000017
 40
0.5000000000000017
 40
0.7500000000000008
 40
0.7500000000000008
 40
1.0
 40
1.0
 40
1.0
 40
1.0
 10
103.6160612739632
 20
94.49085785130825
 30
0.0
 10
103.711183028629
 20
94.49085785130825
 30
0.0
 10
103.8045130973571
 20
94.48704201791547
 30
0.0
 10
103.9877748580951
 20
94.47227146518567
 30
0.0
 10
104.0786525736521
 20
94.46111341721009
 30
0.0
 10
104.3354542711719
 20
94.41864214706837
 30
0.0
 10
104.4905216360438
 20
94.37759594986555
 30
0.0
 10
104.7442680975985
 20
94.28244983328366
 30
0.0
 10
104.8451385492663
 20
94.2276870992021
 30
0.0
 10
104.9803849639612
 20
94.11642597529823
 30
0.0
 10
105.0160612739632
 20
94.0592562379695
 30
0.0
 10
105.0160612739632
 20
94.00483466493579
 30
0.0
  0
LINE
  5
149
330
1F
100
AcDbEntity
  8
0
  6
HIDDEN
 62
     7
370
     0
100
AcDbLine
 10
96.066061274
 20
94.4908578513
 30
0.0
 11
96.066061274
 21
126.0938387234
 31
0.0
  0
LINE
  5
14A
330
1F
100
AcDbEntity
  8
0
  6
HIDDEN
 62
     7
370
     0
100
AcDbLine
 10
260.816061274
 20
94.2923482873
 30
0.0
 11
260.816061274
 21
126.2923482873
 31
0.0
  0
SPLINE
  5
14B
330
1F
100
AcDbEntity
  8
0
  6
HIDDEN
 62
     7
370
     0
100
AcDbSpline
210
0.0
220
0.0
230
1.0
 70
     8
 71
     3
 72
    66
 73
    62
 74
     0
 42
0.00000001
 43
0.00000001
 40
-0.0312500000000008
 40
-0.0312500000000008
 40
0.0
 40
0.0
 40
0.0312499999999993
 40
0.0312499999999993
 40
0.0624999999999986
 40
0.0624999999999986
 40
0.0937499999999979
 40
0.0937499999999979
 40
0.1249999999999972
 40
0.1249999999999972
 40
0.1562499999999964
 40
0.1562499999999964
 40
0.1874999999999958
 40
0.1874999999999958
 40
0.2187499999999951
 40
0.2187499999999951
 40
0.2499999999999943
 40
0.2499999999999943
 40
0.2812499999999936
 40
0.2812499999999936
 40
0.3124999999999929
 40
0.3124999999999929
 40
0.3437499999999922
 40
0.3437499999999922
 40
0.3749999999999915
 40
0.3749999999999915
 40
0.4062499999999908
 40
0.4062499999999908
 40
0.4374999999999901
 40
0.4374999999999901
 40
0.4687499999999894
 40
0.4687499999999894
 40
0.4999999999999887
 40
0.4999999999999887
 40
0.5624999999999899
 40
0.5624999999999899
 40
0.5937499999999906
 40
0.5937499999999906
 40
0.6249999999999911
 40
0.6249999999999911
 40
0.6562499999999918
 40
0.6562499999999918
 40
0.6874999999999925
 40
0.6874999999999925
 40
0.718749999999993
 40
0.718749999999993
 40
0.7499999999999937
 40
0.7499999999999937
 40
0.7812499999999946
 40
0.7812499999999946
 40
0.8124999999999953
 40
0.8124999999999953
 40
0.8437499999999962
 40
0.8437499999999962
 40
0.874999999999997
 40
0.874999999999997
 40
0.9374999999999986
 40
0.9374999999999986
 40
0.9687499999999992
 40
0.9687499999999992
 40
1.0
 40
1.0
 40
1.031249999999999
 40
1.031249999999999
 10
244.6506275262419
 20
112.7982510813244
 30
0.0
 10
244.9814950216845
 20
112.7982510813244
 30
0.0
 10
245.1441127694119
 20
112.8145162353987
 30
0.0
 10
245.4639626281471
 20
112.878107241206
 30
0.0
 10
245.6228711200037
 20
112.9262216736957
 30
0.0
 10
245.9254941693292
 20
113.0513026879159
 30
0.0
 10
246.0689842228551
 20
113.1276950747208
 30
0.0
 10
246.3405441982052
 20
113.307570537515
 30
0.0
 10
246.4689217547649
 20
113.4118491503117
 30
0.0
 10
246.6991288712628
 20
113.6387469447341
 30
0.0
 10
246.8025235151748
 20
113.7622125276877
 30
0.0
 10
246.9852934822905
 20
114.0293871006435
 30
0.0
 10
247.062801706466
 20
114.1707648180179
 30
0.0
 10
247.1875692802667
 20
114.4623265597343
 30
0.0
 10
247.2357050599947
 20
114.6146696286132
 30
0.0
 10
247.3000266948869
 20
114.9247355057008
 30
0.0
 10
247.315967975726
 20
115.0799391725977
 30
0.0
 10
247.3161537633868
 20
115.3905964119481
 30
0.0
 10
247.2998657515998
 20
115.5476079159837
 30
0.0
 10
247.2359818571707
 20
115.8496993908772
 30
0.0
 10
247.1887174244027
 20
115.9958097167184
 30
0.0
 10
247.0633093135777
 20
116.278364360562
 30
0.0
 10
246.9851425108179
 20
116.4138635829664
 30
0.0
 10
246.8043348773019
 20
116.6639323636072
 30
0.0
 10
246.7007983999761
 20
116.7803010119379
 30
0.0
 10
246.467965193536
 20
116.9938764958557
 30
0.0
 10
246.3419948587436
 20
117.0881388460196
 30
0.0
 10
246.0715396433007
 20
117.2529991831304
 30
0.0
 10
245.9252783909158
 20
117.3241649450227
 30
0.0
 10
245.6228363001181
 20
117.4378419645744
 30
0.0
 10
245.4670168194945
 20
117.4806755533441
 30
0.0
 10
245.1461660582941
 20
117.5386600215188
 30
0.0
 10
244.9803053026993
 20
117.5534764176496
 30
0.0
 10
244.4904792692595
 20
117.5536476451696
 30
0.0
 10
244.161037013233
 20
117.494599943506
 30
0.0
 10
243.7095790996962
 20
117.3253313383431
 30
0.0
 10
243.563859721357
 20
117.2548116536239
 30
0.0
 10
243.2910366864748
 20
117.0888750887276
 30
0.0
 10
243.1652914649297
 20
116.9946441564469
 30
0.0
 10
242.9346255162014
 20
116.7835967739158
 30
0.0
 10
242.8290548092988
 20
116.6654890238024
 30
0.0
 10
242.6476694216976
 20
116.4150108197895
 30
0.0
 10
242.5707240218485
 20
116.2819664436666
 30
0.0
 10
242.4447642555754
 20
115.999556972856
 30
0.0
 10
242.3965521387903
 20
115.8510021936282
 30
0.0
 10
242.332633190131
 20
115.5500227359842
 30
0.0
 10
242.3161993027817
 20
115.3957251275252
 30
0.0
 10
242.3159249681747
 20
115.0814629617401
 30
0.0
 10
242.3320085741049
 20
114.926069255881
 30
0.0
 10
242.3953944604579
 20
114.6187039788455
 30
0.0
 10
242.4435204826516
 20
114.4650885679898
 30
0.0
 10
242.5687262476213
 20
114.1718102288181
 30
0.0
 10
242.6453869583792
 20
114.0319377103006
 30
0.0
 10
242.8267333570658
 20
113.7659694457095
 30
0.0
 10
242.9319703847069
 20
113.6399006585473
 30
0.0
 10
243.2769149404695
 20
113.2994815835498
 30
0.0
 10
243.5553104677285
 20
113.1141517670202
 30
0.0
 10
244.0062268116044
 20
112.9273203857299
 30
0.0
 10
244.164174992904
 20
112.8790652988885
 30
0.0
 10
244.487175573121
 20
112.814518749424
 30
0.0
 10
244.6506275262419
 20
112.7982510813244
 30
0.0
 10
244.9814950216845
 20
112.7982510813244
 30
0.0
  0
SPLINE
  5
14C
330
1F
100
AcDbEntity
  8
0
  6
HIDDEN
 62
     7
370
     0
100
AcDbSpline
210
0.0
220
0.0
230
1.0
 70
     8
 71
     3
 72
     8
 73
     4
 74
     0
 42
0.00000001
 43
0.00000001
 40
0.0
 40
0.0
 40
0.0
 40
0.0
 40
1.0
 40
1.0
 40
1.0
 40
1.0
 10
245.888181136482
 20
108.4237837896241
 30
0.0
 10
245.833617928566
 20
108.551123496846
 30
0.0
 10
245.8129566210008
 20
108.6582303177758
 30
0.0
 10
245.8297087376883
 20
108.7475819603327
 30
0.0
  0
SPLINE
  5
14D
330
1F
100
AcDbEntity
  8
0
  6
HIDDEN
 62
     7
370
     0
100
AcDbSpline
210
0.0
220
0.0
230
1.0
 70
     8
 71
     3
 72
    52
 73
    48
 74
     0
 42
0.00000001
 43
0.00000001
 40
0.0
 40
0.0
 40
0.0
 40
0.0
 40
0.0312499999999966
 40
0.0312499999999966
 40
0.0624999999999931
 40
0.0624999999999931
 40
0.1249999999999888
 40
0.1249999999999888
 40
0.1874999999999845
 40
0.1874999999999845
 40
0.2499999999999802
 40
0.2499999999999802
 40
0.3124999999999759
 40
0.3124999999999759
 40
0.3437499999999737
 40
0.3437499999999737
 40
0.3749999999999715
 40
0.3749999999999715
 40
0.4374999999999695
 40
0.4374999999999695
 40
0.4999999999999675
 40
0.4999999999999675
 40
0.5624999999999654
 40
0.5624999999999654
 40
0.6249999999999633
 40
0.6249999999999633
 40
0.6562499999999636
 40
0.6562499999999636
 40
0.6874999999999639
 40
0.6874999999999639
 40
0.7031249999999649
 40
0.7031249999999649
 40
0.7187499999999658
 40
0.7187499999999658
 40
0.7343749999999668
 40
0.7343749999999668
 40
0.7499999999999677
 40
0.7499999999999677
 40
0.7812499999999718
 40
0.7812499999999718
 40
0.8124999999999758
 40
0.8124999999999758
 40
0.8749999999999839
 40
0.8749999999999839
 40
0.937499999999992
 40
0.937499999999992
 40
1.0
 40
1.0
 40
1.0
 40
1.0
 10
245.8297087376915
 20
108.7475819603386
 30
0.0
 10
245.9262089616704
 20
108.7050439728919
 30
0.0
 10
246.0056532669893
 20
108.6720856105933
 30
0.0
 10
246.1529576916831
 20
108.6053884393725
 30
0.0
 10
246.2181099493693
 20
108.5730834744692
 30
0.0
 10
246.4006879988442
 20
108.4695230756506
 30
0.0
 10
246.5051669487047
 20
108.3918276240073
 30
0.0
 10
246.6856804871788
 20
108.2058547249197
 30
0.0
 10
246.7593199689547
 20
108.1001947871845
 30
0.0
 10
246.8693325750646
 20
107.8547422401175
 30
0.0
 10
246.9057214479759
 20
107.7125132322567
 30
0.0
 10
246.9225896870282
 20
107.3964111293778
 30
0.0
 10
246.9027266996156
 20
107.2185732995652
 30
0.0
 10
246.820604818727
 20
106.9394171394503
 30
0.0
 10
246.7839317457409
 20
106.8425930302821
 30
0.0
 10
246.6953961989238
 20
106.6525888013249
 30
0.0
 10
246.6434554750724
 20
106.5585501728513
 30
0.0
 10
246.4645278761978
 20
106.2792475306497
 30
0.0
 10
246.3191106278787
 20
106.1055599403395
 30
0.0
 10
246.0102629953145
 20
105.8028805140186
 30
0.0
 10
245.8462872919259
 20
105.6724277610501
 30
0.0
 10
245.5186945220456
 20
105.4517161254309
 30
0.0
 10
245.3566936633579
 20
105.3621455503248
 30
0.0
 10
245.0377950457307
 20
105.2131775399239
 30
0.0
 10
244.882155057692
 20
105.1551477516267
 30
0.0
 10
244.6656249285351
 20
105.0857405073515
 30
0.0
 10
244.5959511348663
 20
105.0654674098291
 30
0.0
 10
244.4663889457589
 20
105.0270272703082
 30
0.0
 10
244.4056564082219
 20
105.0092986802936
 30
0.0
 10
244.3391280913832
 20
104.9762099321212
 30
0.0
 10
244.3214479711075
 20
104.9639158324216
 30
0.0
 10
244.303028185157
 20
104.9344587563078
 30
0.0
 10
244.3029286356468
 20
104.9169611597954
 30
0.0
 10
244.3219380327474
 20
104.8789241905787
 30
0.0
 10
244.3408369621457
 20
104.858091071609
 30
0.0
 10
244.388174695547
 20
104.8174790312731
 30
0.0
 10
244.4167662908788
 20
104.797322128365
 30
0.0
 10
244.5103872538854
 20
104.7391092527139
 30
0.0
 10
244.5813504081902
 20
104.7042098994587
 30
0.0
 10
244.7297612700545
 20
104.6435589920052
 30
0.0
 10
244.8076192053807
 20
104.6177746665944
 30
0.0
 10
245.0481445773495
 20
104.5556812685253
 30
0.0
 10
245.2169413637521
 20
104.53501942222
 30
0.0
 10
245.554859893046
 20
104.5449330208807
 30
0.0
 10
245.7284129470296
 20
104.575967482017
 30
0.0
 10
246.0608337866073
 20
104.7013037043619
 30
0.0
 10
246.2225369316979
 20
104.7964950446276
 30
0.0
 10
246.3670700840615
 20
104.9286611678195
 30
0.0
  0
SPLINE
  5
14E
330
1F
100
AcDbEntity
  8
0
  6
HIDDEN
 62
     7
370
     0
100
AcDbSpline
210
0.0
220
0.0
230
1.0
 70
     8
 71
     3
 72
    16
 73
    12
 74
     0
 42
0.00000001
 43
0.00000001
 40
0.0
 40
0.0
 40
0.0
 40
0.0
 40
0.249999999999998
 40
0.249999999999998
 40
0.499999999999996
 40
0.499999999999996
 40
0.749999999999994
 40
0.749999999999994
 40
0.874999999999997
 40
0.874999999999997
 40
1.0
 40
1.0
 40
1.0
 40
1.0
 10
246.8960781030795
 20
106.0002572342945
 30
0.0
 10
246.9279743697209
 20
106.2381596317256
 30
0.0
 10
246.9208314054335
 20
106.4732841963385
 30
0.0
 10
246.846521472081
 20
106.9394353698904
 30
0.0
 10
246.7812012746496
 20
107.158163033281
 30
0.0
 10
246.605772747544
 20
107.5738381817528
 30
0.0
 10
246.4961887721582
 20
107.7686894757622
 30
0.0
 10
246.3017682710491
 20
108.0351032714992
 30
0.0
 10
246.2316289072503
 20
108.1202539674984
 30
0.0
 10
246.0744165637026
 20
108.282369072317
 30
0.0
 10
245.9900718802247
 20
108.3580151251051
 30
0.0
 10
245.8881811364803
 20
108.423783789617
 30
0.0
  0
SPLINE
  5
14F
330
1F
100
AcDbEntity
  8
0
  6
HIDDEN
 62
     7
370
     0
100
AcDbSpline
210
0.0
220
0.0
230
1.0
 70
     8
 71
     3
 72
    62
 73
    58
 74
     0
 42
0.00000001
 43
0.00000001
 40
-0.0312500000000011
 40
-0.0312500000000011
 40
0.0
 40
0.0
 40
0.0312499999999991
 40
0.0312499999999991
 40
0.0624999999999982
 40
0.0624999999999982
 40
0.1249999999999992
 40
0.1249999999999992
 40
0.1875000000000002
 40
0.1875000000000002
 40
0.2187500000000001
 40
0.2187500000000001
 40
0.2499999999999999
 40
0.2499999999999999
 40
0.2812499999999997
 40
0.2812499999999997
 40
0.3124999999999996
 40
0.3124999999999996
 40
0.3437499999999993
 40
0.3437499999999993
 40
0.3749999999999992
 40
0.3749999999999992
 40
0.4375000000000009
 40
0.4375000000000009
 40
0.4687500000000004
 40
0.4687500000000004
 40
0.4999999999999999
 40
0.4999999999999999
 40
0.5312499999999994
 40
0.5312499999999994
 40
0.5624999999999989
 40
0.5624999999999989
 40
0.5937499999999984
 40
0.5937499999999984
 40
0.624999999999998
 40
0.624999999999998
 40
0.6562499999999976
 40
0.6562499999999976
 40
0.687499999999997
 40
0.687499999999997
 40
0.7187499999999966
 40
0.7187499999999966
 40
0.7499999999999961
 40
0.7499999999999961
 40
0.7812499999999957
 40
0.7812499999999957
 40
0.8124999999999951
 40
0.8124999999999951
 40
0.8749999999999953
 40
0.8749999999999953
 40
0.9062499999999966
 40
0.9062499999999966
 40
0.9374999999999977
 40
0.9374999999999977
 40
0.9687499999999989
 40
0.9687499999999989
 40
1.0
 40
1.0
 40
1.031249999999999
 40
1.031249999999999
 10
244.6747988566763
 20
107.1711400203349
 30
0.0
 10
244.9573236912501
 20
107.1711400203349
 30
0.0
 10
245.0956467223012
 20
107.1820052142498
 30
0.0
 10
245.3668746679934
 20
107.2245275399979
 30
0.0
 10
245.5010850341619
 20
107.2567743546126
 30
0.0
 10
245.8800645418661
 20
107.3822564921569
 30
0.0
 10
246.1089411023258
 20
107.506209343397
 30
0.0
 10
246.489833954477
 20
107.8232352963476
 30
0.0
 10
246.6454320273441
 20
108.0199036029065
 30
0.0
 10
246.804578072866
 20
108.3563161180022
 30
0.0
 10
246.8463434638162
 20
108.4779662018324
 30
0.0
 10
246.9016618776263
 20
108.7284545843709
 30
0.0
 10
246.9157677050969
 20
108.8574382838922
 30
0.0
 10
246.9163458631517
 20
109.1232570002824
 30
0.0
 10
246.9023548142087
 20
109.2598365514504
 30
0.0
 10
246.8478563853322
 20
109.5267172748697
 30
0.0
 10
246.806966046384
 20
109.6599012301518
 30
0.0
 10
246.7003580467076
 20
109.9179987614637
 30
0.0
 10
246.635610499629
 20
110.0412291187202
 30
0.0
 10
246.4840496240016
 20
110.2762775493707
 30
0.0
 10
246.396763026862
 20
110.3881974605855
 30
0.0
 10
246.1111490724155
 20
110.6934121899441
 30
0.0
 10
245.8817628773644
 20
110.8638397376136
 30
0.0
 10
245.5055442077111
 20
111.0399039011485
 30
0.0
 10
245.3730731526604
 20
111.0862990393985
 30
0.0
 10
245.0991181762085
 20
111.1491990202061
 30
0.0
 10
244.9610775129062
 20
111.1651260157792
 30
0.0
 10
244.682859940925
 20
111.1660099921409
 30
0.0
 10
244.5410505821605
 20
111.1503486032316
 30
0.0
 10
244.2685940148293
 20
111.0891446457511
 30
0.0
 10
244.1367282837543
 20
111.0439803781322
 30
0.0
 10
243.8812118636336
 20
110.9257100263645
 30
0.0
 10
243.7612251039935
 20
110.8542910316982
 30
0.0
 10
243.5360791066731
 20
110.6898281568034
 30
0.0
 10
243.4299523422895
 20
110.5956559338271
 30
0.0
 10
243.2386256945974
 20
110.3921577298038
 30
0.0
 10
243.152689348064
 20
110.2825727968556
 30
0.0
 10
243.0001923868454
 20
110.0477550357099
 30
0.0
 10
242.934047323617
 20
109.92246580677
 30
0.0
 10
242.8278268884213
 20
109.6673774267682
 30
0.0
 10
242.7867862765927
 20
109.5362469578489
 30
0.0
 10
242.730599688644
 20
109.2665576312417
 30
0.0
 10
242.7163821170798
 20
109.1313783305164
 30
0.0
 10
242.7157512253941
 20
108.8666333989786
 30
0.0
 10
242.7295396071939
 20
108.7345225294686
 30
0.0
 10
242.7843831789378
 20
108.4824677289684
 30
0.0
 10
242.8248843609927
 20
108.3630035045074
 30
0.0
 10
242.9844735596759
 20
108.022534784466
 30
0.0
 10
243.1392413933549
 20
107.826123429032
 30
0.0
 10
243.4272211072354
 20
107.5859054819911
 30
0.0
 10
243.5311700297885
 20
107.5157744676024
 30
0.0
 10
243.7555812276796
 20
107.3933834052019
 30
0.0
 10
243.877511781728
 20
107.3407861271601
 30
0.0
 10
244.1297542351869
 20
107.2571317844364
 30
0.0
 10
244.2606314088762
 20
107.2254781330063
 30
0.0
 10
244.5328377572561
 20
107.1823555180795
 30
0.0
 10
244.6747988566763
 20
107.1711400203349
 30
0.0
 10
244.9573236912501
 20
107.1711400203349
 30
0.0
  0
LWPOLYLINE
  5
150
330
1F
100
AcDbEntity
  8
0
  6
HIDDEN
 62
     7
370
     0
100
AcDbPolyline
 90
       18
 70
   128
 43
0.0
 10
246.8960781031
 20
106.0002572343
 10
246.8757978622
 20
106.6643468034
 10
246.6275989256
 20
107.2853675703
 10
246.1789455711
 20
107.7946009211
 10
245.5794832184
 20
108.1356979995
 10
244.8955449503
 20
108.2709149494
 10
244.2028114721
 20
108.1852894349
 10
243.5779367172
 20
107.8882962867
 10
243.0900657596
 20
107.4127990717
 10
242.7931836151
 20
106.8114135979
 10
242.7201415677
 20
106.1506857497
 10
242.8790220333
 20
105.5037278999
 10
243.2522442064
 20
104.9421287121
 10
243.7985094514
 20
104.528031547
 10
244.4573711737
 20
104.3072580339
 10
245.1559234955
 20
104.3042377096
 10
245.8168686035
 20
104.519304786
 10
246.3670700841
 20
104.9286611678
  0
ARC
  5
151
330
1F
100
AcDbEntity
  8
0
  6
HIDDEN
 62
     7
370
     0
100
AcDbCircle
 10
245.4794742974
 20
108.5171569827
 30
0.0
 40
0.4192372043137278
100
AcDbArc
 50
347.131062173
 51
33.3415730959
  0
SPLINE
  5
152
330
1F
100
AcDbEntity
  8
0
  6
HIDDEN
 62
     7
370
     0
100
AcDbSpline
210
0.0
220
0.0
230
1.0
 70
     8
 71
     3
 72
    12
 73
     8
 74
     0
 42
0.00000001
 43
0.00000001
 40
0.0
 40
0.0
 40
0.0
 40
0.0
 40
0.2499999999999996
 40
0.2499999999999996
 40
0.4999999999999991
 40
0.4999999999999991
 40
1.0
 40
1.0
 40
1.0
 40
1.0
 10
246.3670700840615
 20
104.9286611678195
 30
0.0
 10
246.3856561692865
 20
105.0131721133258
 30
0.0
 10
246.4136083352334
 20
105.1017132503044
 30
0.0
 10
246.4816670538285
 20
105.2800647318521
 30
0.0
 10
246.5216704727779
 20
105.3704338609804
 30
0.0
 10
246.6572561961553
 20
105.6463755401226
 30
0.0
 10
246.7641256787167
 20
105.8315316263215
 30
0.0
 10
246.8960781030796
 20
106.0002572342945
 30
0.0
  0
LINE
  5
153
330
1F
100
AcDbEntity
  8
0
  6
HIDDEN
 62
     7
370
     0
100
AcDbLine
 10
96.066061274
 20
92.3023482873
 30
0.0
 11
96.066061274
 21
89.4798482873
 31
0.0
  0
LINE
  5
154
330
1F
100
AcDbEntity
  8
0
  6
HIDDEN
 62
     7
370
     0
100
AcDbLine
 10
105.016061274
 20
92.3023482873
 30
0.0
 11
105.016061274
 21
88.3472000281
 31
0.0
  0
LINE
  5
155
330
1F
100
AcDbEntity
  8
0
  6
HIDDEN
 62
     7
370
     0
100
AcDbLine
 10
94.916061274
 20
92.3023482873
 30
0.0
 11
94.916061274
 21
90.3332305253
 31
0.0
  0
LINE
  5
156
330
1F
100
AcDbEntity
  8
0
  6
HIDDEN
 62
     7
370
     0
100
AcDbLine
 10
101.016061274
 20
128.2823482873
 30
0.0
 11
101.016061274
 21
132.1364559597
 31
0.0
  0
LINE
  5
157
330
1F
100
AcDbEntity
  8
0
  6
HIDDEN
 62
     7
370
     0
100
AcDbLine
 10
96.066061274
 20
128.2823482873
 30
0.0
 11
96.066061274
 21
131.1622860527
 31
0.0
  0
LINE
  5
158
330
1F
100
AcDbEntity
  8
0
  6
HIDDEN
 62
     7
370
     0
100
AcDbLine
 10
94.916061274
 20
128.2823482873
 30
0.0
 11
94.916061274
 21
130.268408792
 31
0.0
  0
LINE
  5
159
330
1F
100
AcDbEntity
  8
0
  6
HIDDEN
 62
     7
370
     0
100
AcDbLine
 10
146.116061274
 20
119.7923482873
 30
0.0
 11
146.116061274
 21
100.7923482873
 31
0.0
  0
LWPOLYLINE
  5
15A
330
1F
100
AcDbEntity
  8
0
  6
HIDDEN
 62
     7
370
     0
100
AcDbPolyline
 90
        2
 70
   128
 43
0.0
 10
146.116061274
 20
100.7923482873
 10
146.116061274
 20
100.7923482873
  0
LINE
  5
15B
330
1F
100
AcDbEntity
  8
0
  6
HIDDEN
 62
     7
370
     0
100
AcDbLine
 10
148.616061274
 20
119.7923482873
 30
0.0
 11
148.616061274
 21
100.7923482873
 31
0.0
  0
LWPOLYLINE
  5
15C
330
1F
100
AcDbEntity
  8
0
  6
HIDDEN
 62
     7
370
     0
100
AcDbPolyline
 90
        2
 70
   128
 43
0.0
 10
148.616061274
 20
100.7923482873
 10
148.616061274
 20
100.7923482873
  0
LWPOLYLINE
  5
15D
330
1F
100
AcDbEntity
  8
0
  6
HIDDEN
 62
     7
370
     0
100
AcDbPolyline
 90
        2
 70
   128
 43
0.0
 10
152.766061274
 20
83.8923482873
 10
152.766061274
 20
83.8923482873
  0
LINE
  5
15E
330
1F
100
AcDbEntity
  8
0
  6
HIDDEN
 62
     7
370
     0
100
AcDbLine
 10
152.766061274
 20
83.8923482873
 30
0.0
 11
146.6283864716
 21
83.8923482873
 31
0.0
  0
LINE
  5
15F
330
1F
100
AcDbEntity
  8
0
  6
HIDDEN
 62
     7
370
     0
100
AcDbLine
 10
146.726061274
 20
82.7945111283
 30
0.0
 11
146.726061274
 21
83.487952659
 31
0.0
  0
LINE
  5
160
330
1F
100
AcDbEntity
  8
0
  6
HIDDEN
 62
     7
370
     0
100
AcDbLine
 10
152.766061274
 20
83.8923482873
 30
0.0
 11
152.766061274
 21
80.7320708867
 31
0.0
  0
LINE
  5
161
330
1F
100
AcDbEntity
  8
0
  6
HIDDEN
 62
     7
370
     0
100
AcDbLine
 10
137.266061274
 20
118.7923482873
 30
0.0
 11
137.266061274
 21
101.7923482873
 31
0.0
  0
LWPOLYLINE
  5
162
330
1F
100
AcDbEntity
  8
0
  6
HIDDEN
 62
     7
370
     0
100
AcDbPolyline
 90
        2
 70
   128
 43
0.0
 10
137.266061274
 20
101.7923482873
 10
137.266061274
 20
101.7923482873
  0
LINE
  5
163
330
1F
100
AcDbEntity
  8
0
  6
HIDDEN
 62
     7
370
     0
100
AcDbLine
 10
136.766061274
 20
101.2923482873
 30
0.0
 11
136.766061274
 21
119.2923482873
 31
0.0
  0
LINE
  5
164
330
1F
100
AcDbEntity
  8
0
  6
HIDDEN
 62
     7
370
     0
100
AcDbLine
 10
131.766061274
 20
78.8082253045
 30
0.0
 11
131.766061274
 21
83.8923482873
 31
0.0
  0
LINE
  5
165
330
1F
100
AcDbEntity
  8
0
  6
HIDDEN
 62
     7
370
     0
100
AcDbLine
 10
139.766061274
 20
83.8923482873
 30
0.0
 11
131.766061274
 21
83.8923482873
 31
0.0
  0
LINE
  5
166
330
1F
100
AcDbEntity
  8
0
  6
HIDDEN
 62
     7
370
     0
100
AcDbLine
 10
143.0037360763
 20
83.8923482873
 30
0.0
 11
139.766061274
 21
83.8923482873
 31
0.0
  0
LINE
  5
167
330
1F
100
AcDbEntity
  8
0
  6
HIDDEN
 62
     7
370
     0
100
AcDbLine
 10
142.906061274
 20
83.487952659
 30
0.0
 11
142.906061274
 21
82.7945111283
 31
0.0
  0
LINE
  5
168
330
1F
100
AcDbEntity
  8
0
  6
HIDDEN
 62
     7
370
     0
100
AcDbLine
 10
146.116061274
 20
101.7923482873
 30
0.0
 11
146.116061274
 21
118.7647854065
 31
0.0
  0
LWPOLYLINE
  5
169
330
1F
100
AcDbEntity
  8
0
  6
HIDDEN
 62
     7
370
     0
100
AcDbPolyline
 90
        2
 70
   128
 43
0.0
 10
152.766061274
 20
136.6923482873
 10
152.766061274
 20
136.6923482873
  0
LINE
  5
16A
330
1F
100
AcDbEntity
  8
0
  6
HIDDEN
 62
     7
370
     0
100
AcDbLine
 10
143.3003588057
 20
136.6923482873
 30
0.0
 11
139.766061274
 21
136.6923482873
 31
0.0
  0
LINE
  5
16B
330
1F
100
AcDbEntity
  8
0
  6
HIDDEN
 62
     7
370
     0
100
AcDbLine
 10
142.906061274
 20
137.4120021384
 30
0.0
 11
142.906061274
 21
138.0975824785
 31
0.0
  0
LINE
  5
16C
330
1F
100
AcDbEntity
  8
0
  6
HIDDEN
 62
     7
370
     0
100
AcDbLine
 10
152.766061274
 20
136.6923482873
 30
0.0
 11
146.3317637423
 21
136.6923482873
 31
0.0
  0
LINE
  5
16D
330
1F
100
AcDbEntity
  8
0
  6
HIDDEN
 62
     7
370
     0
100
AcDbLine
 10
146.726061274
 20
138.0975824785
 30
0.0
 11
146.726061274
 21
137.4120021384
 31
0.0
  0
LINE
  5
16E
330
1F
100
AcDbEntity
  8
0
  6
HIDDEN
 62
     7
370
     0
100
AcDbLine
 10
152.766061274
 20
136.6923482873
 30
0.0
 11
152.766061274
 21
140.1387886111
 31
0.0
  0
LINE
  5
16F
330
1F
100
AcDbEntity
  8
0
  6
HIDDEN
 62
     7
370
     0
100
AcDbLine
 10
139.766061274
 20
136.6923482873
 30
0.0
 11
131.766061274
 21
136.6923482873
 31
0.0
  0
SPLINE
  5
170
330
1F
100
AcDbEntity
  8
0
  6
HIDDEN
 62
     7
370
     0
100
AcDbSpline
210
0.0
220
0.0
230
1.0
 70
     8
 71
     3
 72
     8
 73
     4
 74
     0
 42
0.00000001
 43
0.00000001
 40
0.0000002432046719
 40
0.0000002432046719
 40
0.0000002432046719
 40
0.0000002432046719
 40
0.0014006019039539
 40
0.0014006019039539
 40
0.0014006019039539
 40
0.0014006019039539
 10
94.91606127396318
 20
94.04625560961185
 30
0.0
 10
95.29992080144211
 20
94.19262912141508
 30
0.0
 10
95.68327420139825
 20
94.34078632333251
 30
0.0
 10
96.06606127396319
 20
94.49085785130828
 30
0.0
  0
LINE
  5
171
330
1F
100
AcDbEntity
  8
0
  6
HIDDEN
 62
     7
370
     0
100
AcDbLine
 10
94.916061274
 20
92.3023482873
 30
0.0
 11
94.916061274
 21
94.0462556096
 31
0.0
  0
SPLINE
  5
172
330
1F
100
AcDbEntity
  8
0
  6
HIDDEN
 62
     7
370
     0
100
AcDbSpline
210
0.0
220
0.0
230
1.0
 70
     8
 71
     3
 72
     8
 73
     4
 74
     0
 42
0.00000001
 43
0.00000001
 40
0.0000002438860713
 40
0.0000002438860713
 40
0.0000002438860713
 40
0.0000002438860713
 40
0.0014006025853533
 40
0.0014006025853533
 40
0.0014006025853533
 40
0.0014006025853533
 10
96.06606127396317
 20
126.0938387233716
 30
0.0
 10
95.68327420139825
 20
126.2439102513473
 30
0.0
 10
95.29992080144211
 20
126.3920674532648
 30
0.0
 10
94.91606127396318
 20
126.538440965068
 30
0.0
  0
LINE
  5
173
330
1F
100
AcDbEntity
  8
0
  6
HIDDEN
 62
     7
370
     0
100
AcDbLine
 10
94.916061274
 20
128.2823482873
 30
0.0
 11
94.916061274
 21
126.5384409651
 31
0.0
  0
LINE
  5
174
330
1F
100
AcDbEntity
  8
0
  6
HIDDEN
 62
     7
370
     0
100
AcDbLine
 10
96.066061274
 20
92.3023482873
 30
0.0
 11
96.066061274
 21
94.4908578513
 31
0.0
  0
LINE
  5
175
330
1F
100
AcDbEntity
  8
0
  6
HIDDEN
 62
     7
370
     0
100
AcDbLine
 10
101.016061274
 20
128.2823482873
 30
0.0
 11
101.016061274
 21
126.5798619097
 31
0.0
  0
LINE
  5
176
330
1F
100
AcDbEntity
  8
0
  6
HIDDEN
 62
     7
370
     0
100
AcDbLine
 10
96.066061274
 20
128.2823482873
 30
0.0
 11
96.066061274
 21
126.0938387234
 31
0.0
  0
LINE
  5
177
330
1F
100
AcDbEntity
  8
0
  6
HIDDEN
 62
     7
370
     0
100
AcDbLine
 10
105.016061274
 20
92.3023482873
 30
0.0
 11
105.016061274
 21
94.0048346649
 31
0.0
  0
SPLINE
  5
178
330
1F
100
AcDbEntity
  8
0
  6
HIDDEN
 62
     7
370
     0
100
AcDbSpline
210
0.0
220
0.0
230
1.0
 70
    11
 71
     3
 72
    34
 73
    30
 74
     0
 42
0.00000001
 43
0.00000001
 40
0.0
 40
0.0
 40
0.0
 40
0.0
 40
0.0127738756313434
 40
0.0481305018861378
 40
0.0807425016924019
 40
0.1375890913626934
 40
0.1884518731192287
 40
0.2226712138150702
 40
0.2626938372949202
 40
0.2986558359810592
 40
0.3315197765429546
 40
0.3878459718944559
 40
0.3881259547070441
 40
0.4440926113325876
 40
0.4768435653244688
 40
0.5126448960710658
 40
0.5530084671478369
 40
0.5873855940016102
 40
0.638012100639598
 40
0.6949796268749331
 40
0.7275539945508058
 40
0.7628079420081068
 40
0.8028703493977759
 40
0.8370831563378194
 40
0.8877749825785642
 40
0.8880089190148229
 40
0.9388397946263417
 40
0.972971275870777
 40
0.9999999999999999
 40
0.9999999999999999
 40
0.9999999999999999
 40
0.9999999999999999
 10
114.9760731864517
 20
87.22468643080079
 30
0.0
 10
115.0352668390144
 20
87.23077533460433
 30
0.0
 10
115.2583017493692
 20
87.25371762748848
 30
0.0
 10
115.7816541961465
 20
87.29036237929614
 30
0.0
 10
116.6544176546123
 20
87.31804640933008
 30
0.0
 10
117.7692556240541
 20
87.30749081248165
 30
0.0
 10
118.8823207703602
 20
87.19134578867768
 30
0.0
 10
119.7767629273459
 20
87.06975482969355
 30
0.0
 10
120.4605952660439
 20
86.94799692030178
 30
0.0
 10
121.0013545532331
 20
86.83163570472689
 30
0.0
 10
121.4147490257088
 20
86.73816312280488
 30
0.0
 10
121.6429112464904
 20
86.67152502146982
 30
0.0
 10
121.4885341409299
 20
86.71274544728139
 30
0.0
 10
121.4616560666438
 20
86.72522182094889
 30
0.0
 10
121.0057321236397
 20
86.83080327913507
 30
0.0
 10
120.481798941687
 20
86.94355176022064
 30
0.0
 10
119.7955920534424
 20
87.06664985516291
 30
0.0
 10
118.9024784891462
 20
87.18864124233305
 30
0.0
 10
117.7890422087061
 20
87.30639378302803
 30
0.0
 10
116.6782916824165
 20
87.31836437078044
 30
0.0
 10
115.7935391672738
 20
87.2913068214141
 30
0.0
 10
115.1263451910219
 20
87.24337474754644
 30
0.0
 10
114.5850653678338
 20
87.1870805545596
 30
0.0
 10
114.1975122857053
 20
87.14200043153221
 30
0.0
 10
114.0034851884013
 20
87.10311779245909
 30
0.0
 10
114.1297124871443
 20
87.12452459275528
 30
0.0
 10
114.1588715226627
 20
87.13444590165794
 30
0.0
 10
114.5304522608786
 20
87.18207573064468
 30
0.0
 10
114.8394963492974
 20
87.21162682268485
 30
0.0
 10
114.9760731864517
 20
87.22468643080079
 30
0.0
  0
SPLINE
  5
179
330
1F
100
AcDbEntity
  8
0
  6
HIDDEN
 62
     7
370
     0
100
AcDbSpline
210
0.0
220
0.0
230
1.0
 70
     8
 71
     3
 72
    38
 73
    34
 74
     0
 42
0.00000001
 43
0.00000001
 40
-0.0939221400677789
 40
-0.065775259775378
 40
-0.0344739496007943
 40
0.0
 40
0.0323124298479835
 40
0.0609695982577461
 40
0.0859698687835549
 40
0.1073131755946561
 40
0.1250019290169611
 40
0.1562358721977445
 40
0.1978507372990772
 40
0.2498168793248352
 40
0.2782629480307222
 40
0.3049884159832861
 40
0.3300042168913842
 40
0.3533239044418168
 40
0.3749644360933808
 40
0.406026783832292
 40
0.4476555976010197
 40
0.4998320869201295
 40
0.5286685248934814
 40
0.5555536435543463
 40
0.5805015705746596
 40
0.6035302879119624
 40
0.62466296934292
 40
0.6685312637103243
 40
0.7183269153555465
 40
0.7652375706113133
 40
0.7915712044406464
 40
0.8122937035710441
 40
0.8615656629637487
 40
0.9060778599322211
 40
0.934224740224622
 40
0.9655260503992057
 40
1.0
 40
1.032312429847984
 40
1.060969598257746
 40
1.085969868783555
 10
115.7563264381446
 20
133.2953523133675
 30
0.0
 10
115.1522582196352
 20
133.3398858185833
 30
0.0
 10
114.6769431567891
 20
133.3879612048163
 30
0.0
 10
114.3573443307892
 20
133.4241239440822
 30
0.0
 10
114.1703499250752
 20
133.4505140782706
 30
0.0
 10
114.0820442655228
 20
133.4665836880679
 30
0.0
 10
114.0526307696535
 20
133.4744073733178
 30
0.0
 10
114.1247628397224
 20
133.4562398747341
 30
0.0
 10
114.4458748419169
 20
133.4116332947714
 30
0.0
 10
115.0179023321315
 20
133.3508947661007
 30
0.0
 10
115.6684346798877
 20
133.3015506030808
 30
0.0
 10
116.2183108086291
 20
133.2791881426014
 30
0.0
 10
116.7737486744073
 20
133.2707059326969
 30
0.0
 10
117.3145242220438
 20
133.2771570188454
 30
0.0
 10
117.9124541168431
 20
133.3006353954472
 30
0.0
 10
118.65211997401
 20
133.3675552662843
 30
0.0
 10
119.5841696072829
 20
133.4836567002195
 30
0.0
 10
120.3735063409565
 20
133.6189715848108
 30
0.0
 10
120.9124360287939
 20
133.734083408878
 30
0.0
 10
121.2265403686898
 20
133.803857485429
 30
0.0
 10
121.4318207370556
 20
133.8544175709249
 30
0.0
 10
121.5428907231465
 20
133.8850957108316
 30
0.0
 10
121.5891622249505
 20
133.8998227280878
 30
0.0
 10
121.4631973566042
 20
133.8619631345005
 30
0.0
 10
120.9929518277311
 20
133.7514773500744
 30
0.0
 10
120.3397538641425
 20
133.6117731316982
 30
0.0
 10
119.7357349086265
 20
133.5086465255529
 30
0.0
 10
119.0613968589882
 20
133.4092104997834
 30
0.0
 10
118.1760473760008
 20
133.3157401655079
 30
0.0
 10
117.2065684853885
 20
133.2687316594352
 30
0.0
 10
116.4182329081215
 20
133.2724158745357
 30
0.0
 10
115.7563264381446
 20
133.2953523133675
 30
0.0
 10
115.1522582196352
 20
133.3398858185833
 30
0.0
 10
114.6769431567891
 20
133.3879612048163
 30
0.0
  0
LINE
  5
17A
330
1F
100
AcDbEntity
  8
0
  6
HIDDEN
 62
     7
370
     0
100
AcDbLine
 10
247.816061274
 20
114.4923482873
 30
0.0
 11
247.816061274
 21
106.0923482873
 31
0.0
  0
SPLINE
  5
17B
330
1F
100
AcDbEntity
  8
0
  6
HIDDEN
 62
     7
370
     0
100
AcDbSpline
210
0.0
220
0.0
230
1.0
 70
     8
 71
     3
 72
    62
 73
    58
 74
     0
 42
0.00000001
 43
0.00000001
 40
-0.0312500000000002
 40
-0.0312500000000002
 40
0.0
 40
0.0
 40
0.0312499999999984
 40
0.0312499999999984
 40
0.0624999999999968
 40
0.0624999999999968
 40
0.1249999999999963
 40
0.1249999999999963
 40
0.1874999999999959
 40
0.1874999999999959
 40
0.218749999999995
 40
0.218749999999995
 40
0.2499999999999942
 40
0.2499999999999942
 40
0.2812499999999934
 40
0.2812499999999934
 40
0.3124999999999925
 40
0.3124999999999925
 40
0.3437499999999918
 40
0.3437499999999918
 40
0.3749999999999911
 40
0.3749999999999911
 40
0.4374999999999896
 40
0.4374999999999896
 40
0.4687499999999902
 40
0.4687499999999902
 40
0.4999999999999909
 40
0.4999999999999909
 40
0.5312499999999915
 40
0.5312499999999915
 40
0.5624999999999921
 40
0.5624999999999921
 40
0.5937499999999927
 40
0.5937499999999927
 40
0.6249999999999932
 40
0.6249999999999932
 40
0.6562499999999939
 40
0.6562499999999939
 40
0.6874999999999944
 40
0.6874999999999944
 40
0.7187499999999951
 40
0.7187499999999951
 40
0.7499999999999957
 40
0.7499999999999957
 40
0.7812499999999962
 40
0.7812499999999962
 40
0.8124999999999969
 40
0.8124999999999969
 40
0.8749999999999992
 40
0.8749999999999992
 40
0.9062499999999994
 40
0.9062499999999994
 40
0.9374999999999996
 40
0.9374999999999996
 40
0.9687499999999998
 40
0.9687499999999998
 40
1.0
 40
1.0
 40
1.031249999999998
 40
1.031249999999998
 10
244.9573236912501
 20
109.4191191859053
 30
0.0
 10
244.6747988566763
 20
109.4191191859053
 30
0.0
 10
244.5364758256252
 20
109.4350772105072
 30
0.0
 10
244.265247879933
 20
109.4966108618135
 30
0.0
 10
244.1310375137646
 20
109.5430035920655
 30
0.0
 10
243.7520580060603
 20
109.7194789091141
 30
0.0
 10
243.5231814456007
 20
109.8894849781424
 30
0.0
 10
243.1422885934493
 20
110.2954034657114
 30
0.0
 10
242.9866905205824
 20
110.5355239840892
 30
0.0
 10
242.8275444750604
 20
110.9181401271917
 30
0.0
 10
242.7857790841103
 20
111.052392420122
 30
0.0
 10
242.7304606703001
 20
111.3197164283012
 30
0.0
 10
242.7163548428296
 20
111.4530903190172
 30
0.0
 10
242.7157766847746
 20
111.7190876957854
 30
0.0
 10
242.7297677337177
 20
111.8513127182089
 30
0.0
 10
242.7842661625942
 20
112.1016006382208
 30
0.0
 10
242.8251565015424
 20
112.222432071152
 30
0.0
 10
242.9317645012187
 20
112.449552366163
 30
0.0
 10
242.9965120482974
 20
112.5544390798315
 30
0.0
 10
243.1480729239248
 20
112.7489940537808
 30
0.0
 10
243.2353595210644
 20
112.8386729848384
 30
0.0
 10
243.5209734755109
 20
113.0771476937074
 30
0.0
 10
243.750359670562
 20
113.2014318396477
 30
0.0
 10
244.1265783402153
 20
113.3266640377712
 30
0.0
 10
244.2590493952661
 20
113.3589291252211
 30
0.0
 10
244.533004371718
 20
113.4024059477578
 30
0.0
 10
244.6710450350203
 20
113.4132477787583
 30
0.0
 10
244.9492626070015
 20
113.4138524900022
 30
0.0
 10
245.091071965766
 20
113.403191172678
 30
0.0
 10
245.3635285330971
 20
113.3609048053031
 30
0.0
 10
245.4953942641722
 20
113.3295313264803
 30
0.0
 10
245.7509106842928
 20
113.2454697251788
 30
0.0
 10
245.8708974439329
 20
113.1939550141301
 30
0.0
 10
246.0960434412533
 20
113.0720157092095
 30
0.0
 10
246.2021702056371
 20
113.0007095399081
 30
0.0
 10
246.393496853329
 20
112.8418229110695
 30
0.0
 10
246.4794331998624
 20
112.7540964082446
 30
0.0
 10
246.6319301610811
 20
112.5599433373559
 30
0.0
 10
246.6980752243094
 20
112.4533718185261
 30
0.0
 10
246.8042956595052
 20
112.2291173164295
 30
0.0
 10
246.8453362713338
 20
112.1103684690517
 30
0.0
 10
246.9015228592825
 20
111.8577753808473
 30
0.0
 10
246.9157404308466
 20
111.7270219374798
 30
0.0
 10
246.9163713225323
 20
111.4624719618187
 30
0.0
 10
246.9025829407325
 20
111.3260683232805
 30
0.0
 10
246.8477393689886
 20
111.057315294649
 30
0.0
 10
246.8072381869338
 20
110.9256157898124
 30
0.0
 10
246.6476489882505
 20
110.5387679331495
 30
0.0
 10
246.4928811545716
 20
110.2990419304417
 30
0.0
 10
246.2049014406911
 20
109.9915569208225
 30
0.0
 10
246.100952518138
 20
109.8989780288578
 30
0.0
 10
245.8765413202469
 20
109.7340286085026
 30
0.0
 10
245.7546107661984
 20
109.6611498148585
 30
0.0
 10
245.5023683127396
 20
109.5435123072159
 30
0.0
 10
245.3714911390503
 20
109.4979800524242
 30
0.0
 10
245.0992847906703
 20
109.4355903449534
 30
0.0
 10
244.9573236912501
 20
109.4191191859053
 30
0.0
 10
244.6747988566763
 20
109.4191191859053
 30
0.0
  0
LINE
  5
17C
330
1F
100
AcDbEntity
  8
0
  6
HIDDEN
 62
     7
370
     0
100
AcDbLine
 10
148.616061274
 20
106.0923482873
 30
0.0
 11
148.616061274
 21
114.4639493899
 31
0.0
  0
LINE
  5
17D
330
1F
100
AcDbEntity
  8
0
  6
HIDDEN
 62
     7
370
     0
100
AcDbLine
 10
261.316061274
 20
110.2923482873
 30
0.0
 11
261.316061274
 21
126.7923482873
 31
0.0
  0
LINE
  5
17E
330
1F
100
AcDbEntity
  8
0
  6
HIDDEN
 62
     7
370
     0
100
AcDbLine
 10
284.8861178188
 20
101.1622832983
 30
0.0
 11
284.8847073767
 21
101.1783654548
 31
0.0
  0
LINE
  5
17F
330
1F
100
AcDbEntity
  8
0
  6
HIDDEN
 62
     7
370
     0
100
AcDbLine
 10
275.8882658891
 20
101.9475757342
 30
0.0
 11
284.8861178188
 21
101.1622832983
 31
0.0
  0
LINE
  5
180
330
1F
100
AcDbEntity
  8
0
  6
HIDDEN
 62
     7
370
     0
100
AcDbLine
 10
273.148467197
 20
99.214451054
 30
0.0
 11
273.1081666389
 21
99.2314305832
 31
0.0
  0
LINE
  5
181
330
1F
100
AcDbEntity
  8
0
  6
HIDDEN
 62
     7
370
     0
100
AcDbLine
 10
273.946153838
 20
90.1190610416
 30
0.0
 11
273.148467197
 21
99.214451054
 31
0.0
  0
LINE
  5
182
330
1F
100
AcDbEntity
  8
0
  6
HIDDEN
 62
     7
370
     0
100
AcDbLine
 10
273.946153838
 20
90.1190610416
 30
0.0
 11
273.9070424675
 21
90.1224812041
 31
0.0
  0
LINE
  5
183
330
1F
100
AcDbEntity
  8
0
  6
HIDDEN
 62
     7
370
     0
100
AcDbLine
 10
264.1314115906
 20
100.2507967212
 30
0.0
 11
264.1314115906
 21
90.9773283995
 31
0.0
  0
SPLINE
  5
184
330
1F
100
AcDbEntity
  8
0
  6
HIDDEN
 62
     7
370
     0
100
AcDbSpline
210
0.0
220
0.0
230
1.0
 70
     8
 71
     3
 72
    14
 73
    10
 74
     0
 42
0.00000001
 43
0.00000001
 40
0.0
 40
0.0
 40
0.0
 40
0.0
 40
0.25
 40
0.25
 40
0.5
 40
0.5
 40
0.75
 40
0.75
 40
1.0
 40
1.0
 40
1.0
 40
1.0
 10
264.1314115906131
 20
100.2507967212269
 30
0.0
 10
263.7295131672636
 20
101.0238653837335
 30
0.0
 10
263.3542268689725
 20
101.8102783137621
 30
0.0
 10
262.675491742175
 20
103.4191260402728
 30
0.0
 10
262.3719758867876
 20
104.2415272270891
 30
0.0
 10
261.8625248513096
 20
105.9352600274825
 30
0.0
 10
261.6598165647504
 20
106.7990258515709
 30
0.0
 10
261.3862386910292
 20
108.5424942998969
 30
0.0
 10
261.3160612739632
 20
109.4163197212592
 30
0.0
 10
261.3160612739632
 20
110.2923482873399
 30
0.0
  0
LWPOLYLINE
  5
185
330
1F
100
AcDbEntity
  8
0
  6
HIDDEN
 62
     7
370
     0
100
AcDbPolyline
 90
        2
 70
   128
 43
0.0
 10
131.766061274
 20
83.8923482873
 10
131.766061274
 20
83.8923482873
  0
LINE
  5
186
330
1F
100
AcDbEntity
  8
0
  6
HIDDEN
 62
     7
370
     0
100
AcDbLine
 10
284.9074160915
 20
101.1763835394
 30
0.0
 11
284.9074160915
 21
101.0561586251
 31
0.0
  0
LINE
  5
187
330
1F
100
AcDbEntity
  8
0
  6
HIDDEN
 62
     7
370
     0
100
AcDbLine
 10
284.9074160915
 20
101.0561586251
 30
0.0
 11
284.8861178188
 21
101.1622832983
 31
0.0
  0
LINE
  5
188
330
1F
100
AcDbEntity
  8
0
  6
HIDDEN
 62
     7
370
     0
100
AcDbLine
 10
285.2385882644
 20
98.3193838675
 30
0.0
 11
284.9898701135
 21
101.1691873196
 31
0.0
  0
SPLINE
  5
189
330
1F
100
AcDbEntity
  8
0
  6
HIDDEN
 62
     7
370
     0
100
AcDbSpline
210
0.0
220
0.0
230
1.0
 70
     8
 71
     3
 72
    31
 73
    27
 74
     0
 42
0.00000001
 43
0.00000001
 40
0.0
 40
0.0
 40
0.0
 40
0.0
 40
0.0312103663445035
 40
0.0623482054452088
 40
0.0934296178306916
 40
0.1244707918323808
 40
0.1554879787848044
 40
0.186497467735636
 40
0.2175155598602909
 40
0.2485585427811876
 40
0.2796426649935381
 40
0.3107841105975769
 40
0.3419989745315739
 40
0.3733032384909495
 40
0.4047127477066369
 40
0.4362431887408839
 40
0.4679100684414405
 40
0.4997286941760116
 40
0.5632242231230308
 40
0.6261906370349622
 40
0.6887528319831037
 40
0.7510381357365823
 40
0.8131755782469605
 40
0.875295110850897
 40
0.937526797082799
 40
1.0
 40
1.0
 40
1.0
 40
1.0
 10
285.8570590349959
 20
90.40255152137675
 30
0.0
 10
285.8548910187409
 20
90.43772252894466
 30
0.0
 10
285.8505600243086
 20
90.50798281302315
 30
0.0
 10
285.8429489090734
 20
90.6258919412655
 30
0.0
 10
285.834531911127
 20
90.75279589328855
 30
0.0
 10
285.8252288857557
 20
90.88959825191277
 30
0.0
 10
285.8150612581733
 20
91.03605742760169
 30
0.0
 10
285.8040233043664
 20
91.1922379305149
 30
0.0
 10
285.7921165675821
 20
91.35812233468815
 30
0.0
 10
285.7793406488717
 20
91.53371511229709
 30
0.0
 10
285.7656956730737
 20
91.71901483076486
 30
0.0
 10
285.7511816281041
 20
91.9140216019171
 30
0.0
 10
285.735798540361
 20
92.11873510611954
 30
0.0
 10
285.7195464331236
 20
92.33315505583496
 30
0.0
 10
285.7024253156798
 20
92.55728133964215
 30
0.0
 10
285.6844352673318
 20
92.7911129955845
 30
0.0
 10
285.6655761086444
 20
93.03465221694054
 30
0.0
 10
285.6393376125705
 20
93.37146984550397
 30
0.0
 10
285.6047398964557
 20
93.81201961522426
 30
0.0
 10
285.560424216994
 20
94.3708043345509
 30
0.0
 10
285.5134568758799
 20
94.95784814028642
 30
0.0
 10
285.4638344967655
 20
95.57318418809808
 30
0.0
 10
285.4115721939985
 20
96.21665390784652
 30
0.0
 10
285.3566156296137
 20
96.8888227882056
 30
0.0
 10
285.2991710738409
 20
97.58753783029826
 30
0.0
 10
285.2588085909484
 20
98.07512042041586
 30
0.0
 10
285.2385882643743
 20
98.31938386749603
 30
0.0
  0
LINE
  5
18A
330
1F
100
AcDbEntity
  8
0
  6
HIDDEN
 62
     7
370
     0
100
AcDbLine
 10
284.9122032402
 20
101.1759657383
 30
0.0
 11
285.857059035
 21
90.4025222358
 31
0.0
  0
ARC
  5
18B
330
1F
100
AcDbEntity
  8
0
  6
HIDDEN
 62
     7
370
     0
100
AcDbCircle
 10
273.9422238076
 20
101.4687160385
 30
0.0
 40
2.097040390565339
100
AcDbArc
 50
270.0847512088
 51
184.3512997373
  0
LWPOLYLINE
  5
18C
330
1F
100
AcDbEntity
  8
0
  6
HIDDEN
 62
     7
370
     0
100
AcDbPolyline
 90
        3
 70
   128
 43
0.0
 10
273.0795249946
 20
99.5580086046
 10
273.2634568374
 20
99.4851845629
 10
273.9453257227
 20
99.3716779421
  0
ELLIPSE
  5
18D
330
1F
100
AcDbEntity
  8
0
  6
HIDDEN
 62
     7
370
     0
100
AcDbEllipse
 10
273.9453257227
 20
101.6998522614
 30
0.0
 11
2.099281448397733
 21
-0.1276543563555492
 31
0.0
210
0.0
220
0.0
230
1.0
 40
0.4303093993
 41
0.290121868075234
 42
0.4153692678995952
  0
LINE
  5
18E
330
1F
100
AcDbEntity
  8
0
  6
HIDDEN
 62
     7
370
     0
100
AcDbLine
 10
275.972590161
 20
102.0103416168
 30
0.0
 11
275.972590161
 21
101.8359504325
 31
0.0
  0
ARC
  5
18F
330
1F
100
AcDbEntity
  8
0
  6
HIDDEN
 62
     7
370
     0
100
AcDbCircle
 10
273.9471253519
 20
101.4655762123
 30
0.0
 40
2.097445360183229
100
AcDbArc
 50
254.8063337048
 51
15.0539265256
  0
LINE
  5
190
330
1F
100
AcDbEntity
  8
0
  6
HIDDEN
 62
     7
370
     0
100
AcDbLine
 10
273.3974216277
 20
99.2670548803
 30
0.0
 11
273.3974216277
 21
99.4414460647
 31
0.0
  0
ELLIPSE
  5
191
330
1F
100
AcDbEntity
  8
0
  6
HIDDEN
 62
     7
370
     0
100
AcDbEllipse
 10
273.9453257227
 20
101.6998522614
 30
0.0
 11
1.616902374425194
 21
2.318196838028328
 31
0.0
210
0.0
220
0.0
230
0.9999999999999998
 40
0.57803977
 41
3.631152220478786
 42
3.756399620303072
  0
LINE
  5
192
330
1F
100
AcDbEntity
  8
0
  6
HIDDEN
 62
     7
370
     0
100
AcDbLine
 10
284.9074160915
 20
101.0561586251
 30
0.0
 11
275.972590161
 21
101.8359504325
 31
0.0
  0
LINE
  5
193
330
1F
100
AcDbEntity
  8
0
  6
HIDDEN
 62
     7
370
     0
100
AcDbLine
 10
273.3974216277
 20
99.2670548803
 30
0.0
 11
274.1917793227
 21
90.209622207
 31
0.0
  0
ELLIPSE
  5
194
330
1F
100
AcDbEntity
  8
0
  6
HIDDEN
 62
     7
370
     0
100
AcDbEllipse
 10
272.3766857092
 20
110.1544272099
 30
0.0
 11
-1.60299643207054
 21
20.03438624540714
 31
0.0
210
0.0
220
0.0
230
1.0
 40
0.1282539226
 41
3.128596344297714
 42
3.226485769758115
  0
LINE
  5
195
330
1F
100
AcDbEntity
  8
0
  6
HIDDEN
 62
     7
370
     0
100
AcDbLine
 10
131.766061274
 20
78.8082253045
 30
0.0
 11
131.766061274
 21
83.8923482873
 31
0.0
  0
LINE
  5
196
330
1F
100
AcDbEntity
  8
0
  6
HIDDEN
 62
     7
370
     0
100
AcDbLine
 10
131.766061274
 20
83.8923482873
 30
0.0
 11
139.766061274
 21
83.8923482873
 31
0.0
  0
LINE
  5
197
330
1F
100
AcDbEntity
  8
0
  6
HIDDEN
 62
     7
370
     0
100
AcDbLine
 10
273.3974216277
 20
99.4414460647
 30
0.0
 11
274.1700722997
 21
90.6315214105
 31
0.0
  0
ELLIPSE
  5
198
330
1F
100
AcDbEntity
  8
0
  6
HIDDEN
 62
     7
370
     0
100
AcDbEllipse
 10
272.4394619188
 20
110.1393135669
 30
0.0
 11
-1.749259518893268
 21
20.04220487928933
 31
0.0
210
0.0
220
0.0
230
0.9999999999999997
 40
0.0060565887
 41
3.247075635563107
 42
3.37251102494434
  0
LWPOLYLINE
  5
199
330
1F
100
AcDbEntity
  8
0
  6
HIDDEN
 62
     7
370
     0
100
AcDbPolyline
 90
       20
 70
   128
 43
0.0
 10
244.816061274
 20
111.3110290899
 10
245.4979301593
 20
111.4192439071
 10
246.1059079706
 20
111.7321616042
 10
246.5741108783
 20
112.2158726934
 10
246.8518018324
 20
112.8179595725
 10
246.9088887093
 20
113.4731767858
 10
246.7391852599
 20
114.1105213816
 10
246.3610814864
 20
114.6609271834
 10
245.8155507993
 20
115.0647491823
 10
245.1617099136
 20
115.2782269986
 10
244.4704126344
 20
115.2782269986
 10
243.8165717486
 20
115.0647491823
 10
243.2710410615
 20
114.6609271834
 10
242.892937288
 20
114.1105213816
 10
242.7232338386
 20
113.4731767858
 10
242.7803207155
 20
112.8179595725
 10
243.0580116696
 20
112.2158726934
 10
243.5262145773
 20
111.7321616042
 10
244.1341923886
 20
111.4192439071
 10
244.816061274
 20
111.3110290899
  0
LINE
  5
19A
330
1F
100
AcDbEntity
  8
0
  6
HIDDEN
 62
     7
370
     0
100
AcDbLine
 10
285.1236406562
 20
89.6611989118
 30
0.0
 11
285.8570952854
 21
90.4024865607
 31
0.0
  0
CIRCLE
  5
19B
330
1F
100
AcDbEntity
  8
0
  6
HIDDEN
 62
     7
370
     0
100
AcDbCircle
 10
279.7496292333
 20
95.6774347507
 30
0.0
 40
2.997787096987423
  0
LINE
  5
19C
330
1F
100
AcDbEntity
  8
0
  6
HIDDEN
 62
     7
370
     0
100
AcDbLine
 10
284.9074160915
 20
101.2305498095
 30
0.0
 11
275.972590161
 21
102.0103416168
 31
0.0
  0
LINE
  5
19D
330
1F
100
AcDbEntity
  8
0
  6
HIDDEN
 62
     7
370
     0
100
AcDbLine
 10
274.1700722997
 20
90.6315214105
 30
0.0
 11
285.123470233
 21
89.6636990648
 31
0.0
  0
CIRCLE
  5
19E
330
1F
100
AcDbEntity
  8
0
  6
HIDDEN
 62
     7
370
     0
100
AcDbCircle
 10
279.7477710172
 20
95.7382110701
 30
0.0
 40
2.097331976021462
  0
SPLINE
  5
19F
330
1F
100
AcDbEntity
  8
0
  6
HIDDEN
 62
     7
370
     0
100
AcDbSpline
210
0.0
220
0.0
230
1.0
 70
     8
 71
     3
 72
    42
 73
    38
 74
     0
 42
0.00000001
 43
0.00000001
 40
0.0
 40
0.0
 40
0.0
 40
0.0
 40
0.0304508697684099
 40
0.0607916691468334
 40
0.0910223424048572
 40
0.1211428352088748
 40
0.1511530946306665
 40
0.1810530691561532
 40
0.2108427086942703
 40
0.2405219645860453
 40
0.2700907896137991
 40
0.2995491380105343
 40
0.3288969654694907
 40
0.3581342291538689
 40
0.3872608877067327
 40
0.4162769012610942
 40
0.445182231450183
 40
0.4739768414178994
 40
0.5026606958294704
 40
0.5312337608822847
 40
0.5596960043169528
 40
0.5880473954285507
 40
0.6162879050780857
 40
0.6444175057041702
 40
0.6724361713349198
 40
0.7003438776000714
 40
0.7281406017433326
 40
0.7558263226349614
 40
0.7834010207845882
 40
0.8108646783542788
 40
0.8382172791718501
 40
0.8654588087444419
 40
0.8925892542723395
 40
0.9196086046630745
 40
0.946516850545792
 40
0.9733139842859009
 40
1.0
 40
1.0
 40
1.0
 40
1.0
 10
284.5623455786831
 20
97.13646419594971
 30
0.0
 10
284.5713720242479
 20
97.02345021026709
 30
0.0
 10
284.5893922875942
 20
96.79783074918655
 30
0.0
 10
284.6156840384651
 20
96.4671267436462
 30
0.0
 10
284.6413720361998
 20
96.14296787175216
 30
0.0
 10
284.6664072948554
 20
95.82592815707368
 30
0.0
 10
284.6908028687371
 20
95.51594432653712
 30
0.0
 10
284.7145552791726
 20
95.2131164080695
 30
0.0
 10
284.7376654532293
 20
94.91749445857712
 30
0.0
 10
284.7601331439523
 20
94.62913547653382
 30
0.0
 10
284.7819584172287
 20
94.34808831894593
 30
0.0
 10
284.8031412555854
 20
94.07439780606968
 30
0.0
 10
284.8236816637616
 20
93.80810371591828
 30
0.0
 10
284.843579640579
 20
93.54924114298888
 30
0.0
 10
284.8628351864366
 20
93.2978404958901
 30
0.0
 10
284.8814483013135
 20
93.05392759344379
 30
0.0
 10
284.8994189853015
 20
92.81752373666792
 30
0.0
 10
284.9167472384633
 20
92.58864578916531
 30
0.0
 10
284.9334330608694
 20
92.36730625711583
 30
0.0
 10
284.9494764525894
 20
92.15351337108139
 30
0.0
 10
284.9648774136932
 20
91.94727116890716
 30
0.0
 10
284.9796359442522
 20
91.74857957976383
 30
0.0
 10
284.993752044335
 20
91.55743450925092
 30
0.0
 10
285.007225714022
 20
91.37382792523736
 30
0.0
 10
285.0200569533534
 20
91.19774794521848
 30
0.0
 10
285.0322457625184
 20
91.02917892183785
 30
0.0
 10
285.0437921411581
 20
90.86810153856776
 30
0.0
 10
285.0546960909467
 20
90.71449287062167
 30
0.0
 10
285.0649576060191
 20
90.56832657734208
 30
0.0
 10
285.0745767084804
 20
90.42957260894772
 30
0.0
 10
285.083553316681
 20
90.2981987164645
 30
0.0
 10
285.0918877338406
 20
90.1741652741414
 30
0.0
 10
285.0995788355847
 20
90.0574449090913
 30
0.0
 10
285.106630792787
 20
89.94795011521909
 30
0.0
 10
285.1130281356332
 20
89.84580216801629
 30
0.0
 10
285.1188282420134
 20
89.75033413355987
 30
0.0
 10
285.1221618757351
 20
89.69251730403471
 30
0.0
 10
285.1238252295726
 20
89.66366895017012
 30
0.0
  0
LINE
  5
1A0
330
1F
100
AcDbEntity
  8
0
  6
HIDDEN
 62
     7
370
     0
100
AcDbLine
 10
101.016061274
 20
128.2823482873
 30
0.0
 11
101.016061274
 21
126.5798619097
 31
0.0
  0
LINE
  5
1A1
330
1F
100
AcDbEntity
  8
0
  6
HIDDEN
 62
     7
370
     0
100
AcDbLine
 10
105.016061274
 20
92.3023482873
 30
0.0
 11
105.016061274
 21
94.0048346649
 31
0.0
  0
LINE
  5
1A2
330
1F
100
AcDbEntity
  8
0
  6
HIDDEN
 62
     7
370
     0
100
AcDbLine
 10
105.016061274
 20
92.3023482873
 30
0.0
 11
105.016061274
 21
88.3472000281
 31
0.0
  0
LINE
  5
1A3
330
1F
100
AcDbEntity
  8
0
  6
HIDDEN
 62
     7
370
     0
100
AcDbLine
 10
101.016061274
 20
128.2823482873
 30
0.0
 11
101.016061274
 21
132.1364559597
 31
0.0
  0
ARC
  5
1A4
330
1F
100
AcDbEntity
  8
0
  6
HIDDEN
 62
     7
370
     0
100
AcDbCircle
 10
279.7506070377
 20
96.5028996376
 30
0.0
 40
2.101773154353339
100
AcDbArc
 50
17.4693799113
 51
147.8416927012
  0
SPLINE
  5
1A5
330
1F
100
AcDbEntity
  8
0
  6
HIDDEN
 62
     7
370
     0
100
AcDbSpline
210
0.0
220
0.0
230
1.0
 70
     8
 71
     3
 72
    40
 73
    36
 74
     0
 42
0.00000001
 43
0.00000001
 40
0.0
 40
0.0
 40
0.0
 40
0.0
 40
0.0624999999999969
 40
0.0624999999999969
 40
0.1249999999999934
 40
0.1249999999999934
 40
0.249999999999987
 40
0.249999999999987
 40
0.3124999999999847
 40
0.3124999999999847
 40
0.3749999999999824
 40
0.3749999999999824
 40
0.4374999999999801
 40
0.4374999999999801
 40
0.4687499999999788
 40
0.4687499999999788
 40
0.4999999999999775
 40
0.4999999999999775
 40
0.5312499999999761
 40
0.5312499999999761
 40
0.5624999999999748
 40
0.5624999999999748
 40
0.6249999999999787
 40
0.6249999999999787
 40
0.6874999999999826
 40
0.6874999999999826
 40
0.749999999999986
 40
0.749999999999986
 40
0.8124999999999896
 40
0.8124999999999896
 40
0.8749999999999931
 40
0.8749999999999931
 40
0.9374999999999967
 40
0.9374999999999967
 40
1.0
 40
1.0
 40
1.0
 40
1.0
 10
277.9712864436086
 20
97.62159021855133
 30
0.0
 10
277.8772404704445
 20
97.46159523613248
 30
0.0
 10
277.8055564253216
 20
97.29511599980667
 30
0.0
 10
277.7016637841795
 20
96.9536369532413
 30
0.0
 10
277.6707905297252
 20
96.7832201491644
 30
0.0
 10
277.6319810242827
 20
96.27414742241017
 30
0.0
 10
277.6784513270052
 20
95.93374971742831
 30
0.0
 10
277.8496593479197
 20
95.45794799040111
 30
0.0
 10
277.9236936943607
 20
95.30401605785842
 30
0.0
 10
278.1131474099439
 20
95.00572992886849
 30
0.0
 10
278.2267190691957
 20
94.86420133683023
 30
0.0
 10
278.5019983067254
 20
94.60304231283133
 30
0.0
 10
278.6636823221355
 20
94.48352042939722
 30
0.0
 10
278.949802868789
 20
94.338566421453
 30
0.0
 10
279.0526154686884
 20
94.29621292873783
 30
0.0
 10
279.2677274740523
 20
94.22931874922335
 30
0.0
 10
279.3827694157224
 20
94.20423274095428
 30
0.0
 10
279.6118388942202
 20
94.17608673738937
 30
0.0
 10
279.7285109613227
 20
94.17250268260138
 30
0.0
 10
279.9560808881775
 20
94.18581585584207
 30
0.0
 10
280.0654302520572
 20
94.20231318613509
 30
0.0
 10
280.3810149435632
 20
94.2762513252404
 30
0.0
 10
280.5642561510329
 20
94.35469964253173
 30
0.0
 10
280.8908404119659
 20
94.54551953103106
 30
0.0
 10
281.0303177935137
 20
94.65576260114507
 30
0.0
 10
281.2770553914494
 20
94.89909689560504
 30
0.0
 10
281.3835568583638
 20
95.03254972427153
 30
0.0
 10
281.5624361681694
 20
95.31167642360056
 30
0.0
 10
281.6359365125943
 20
95.4585301012012
 30
0.0
 10
281.7527821690087
 20
95.7670473228837
 30
0.0
 10
281.7960871886553
 20
95.92991655348544
 30
0.0
 10
281.8478461563079
 20
96.26118630804055
 30
0.0
 10
281.8568986898711
 20
96.43050589535969
 30
0.0
 10
281.837160166102
 20
96.77684829015871
 30
0.0
 10
281.8079448084649
 20
96.9555735228296
 30
0.0
 10
281.7554411978438
 20
97.13384367827322
 30
0.0
  0
LINE
  5
1A6
330
1F
100
AcDbEntity
  8
0
  6
HIDDEN
 62
     7
370
     0
100
AcDbLine
 10
96.066061274
 20
128.2823482873
 30
0.0
 11
96.066061274
 21
131.1622860527
 31
0.0
  0
LINE
  5
1A7
330
1F
100
AcDbEntity
  8
0
  6
HIDDEN
 62
     7
370
     0
100
AcDbLine
 10
94.916061274
 20
128.2823482873
 30
0.0
 11
94.916061274
 21
130.268408792
 31
0.0
  0
SPLINE
  5
1A8
330
1F
100
AcDbEntity
  8
0
  6
HIDDEN
 62
     7
370
     0
100
AcDbSpline
210
0.0
220
0.0
230
1.0
 70
     8
 71
     3
 72
    22
 73
    18
 74
     0
 42
0.00000001
 43
0.00000001
 40
0.0
 40
0.0
 40
0.0
 40
0.0
 40
0.1249999999999975
 40
0.1249999999999975
 40
0.2499999999999951
 40
0.2499999999999951
 40
0.3124999999999956
 40
0.3124999999999956
 40
0.3749999999999961
 40
0.3749999999999961
 40
0.4999999999999972
 40
0.4999999999999972
 40
0.6249999999999983
 40
0.6249999999999983
 40
0.7499999999999993
 40
0.7499999999999993
 40
1.0
 40
1.0
 40
1.0
 40
1.0
 10
96.05601634353224
 20
131.1565401597687
 30
0.0
 10
95.99539662265586
 20
131.1217179831214
 30
0.0
 10
95.9332072826893
 20
131.0832141794207
 30
0.0
 10
95.7994778164598
 20
130.997279691622
 30
0.0
 10
95.72722327474756
 20
130.9489730904198
 30
0.0
 10
95.60532533391184
 20
130.87262137225
 30
0.0
 10
95.56151878075981
 20
130.846206911643
 30
0.0
 10
95.47512361158495
 20
130.7976979871124
 30
0.0
 10
95.43278363529333
 20
130.7757638643861
 30
0.0
 10
95.3188128889243
 20
130.7193940744414
 30
0.0
 10
95.26039416293409
 20
130.6930372499077
 30
0.0
 10
95.16048659174662
 20
130.6408974254036
 30
0.0
 10
95.11907260095123
 20
130.615736835691
 30
0.0
 10
95.04704763307394
 20
130.560629992364
 30
0.0
 10
95.01669909176098
 20
130.5307735888691
 30
0.0
 10
94.94320736172888
 20
130.4333668868764
 30
0.0
 10
94.91606127396321
 20
130.357035203066
 30
0.0
 10
94.91606127396321
 20
130.2684087919959
 30
0.0
  0
LINE
  5
1A9
330
1F
100
AcDbEntity
  8
0
  6
HIDDEN
 62
     7
370
     0
100
AcDbLine
 10
96.066061274
 20
92.3023482873
 30
0.0
 11
96.066061274
 21
89.4857167288
 31
0.0
  0
SPLINE
  5
1AA
330
1F
100
AcDbEntity
  8
0
  6
HIDDEN
 62
     7
370
     0
100
AcDbSpline
210
0.0
220
0.0
230
1.0
 70
     8
 71
     3
 72
    22
 73
    18
 74
     0
 42
0.00000001
 43
0.00000001
 40
0.0
 40
0.0
 40
0.0
 40
0.0
 40
0.2500000000000032
 40
0.2500000000000032
 40
0.5000000000000064
 40
0.5000000000000064
 40
0.5625000000000053
 40
0.5625000000000053
 40
0.6250000000000042
 40
0.6250000000000042
 40
0.6875000000000032
 40
0.6875000000000032
 40
0.7500000000000021
 40
0.7500000000000021
 40
0.875000000000001
 40
0.875000000000001
 40
1.0
 40
1.0
 40
1.0
 40
1.0
 10
94.91606127396307
 20
90.33323052534057
 30
0.0
 10
94.91606127396305
 20
90.24325714032281
 30
0.0
 10
94.94755949230877
 20
90.1682090978077
 30
0.0
 10
95.05408692148532
 20
90.0551818840962
 30
0.0
 10
95.12724714062225
 20
90.01836830130343
 30
0.0
 10
95.2481756169466
 20
89.98272462504961
 30
0.0
 10
95.27402610475052
 20
89.97597441126345
 30
0.0
 10
95.33162066252478
 20
89.96090540254902
 30
0.0
 10
95.3635664030484
 20
89.95277237912235
 30
0.0
 10
95.43942344362064
 20
89.92748680453793
 30
0.0
 10
95.48663449426667
 20
89.90811158642084
 30
0.0
 10
95.58286048786564
 20
89.85235310777108
 30
0.0
 10
95.62728141778958
 20
89.8198679646602
 30
0.0
 10
95.7435024276754
 20
89.73095758303863
 30
0.0
 10
95.80865466708724
 20
89.67645949971045
 30
0.0
 10
95.93520910745312
 20
89.57783202065414
 30
0.0
 10
95.9958831844228
 20
89.53308782240599
 30
0.0
 10
96.05601634354524
 20
89.49246113326964
 30
0.0
  0
LINE
  5
1AB
330
1F
100
AcDbEntity
  8
0
  6
HIDDEN
 62
     7
370
     0
100
AcDbLine
 10
94.916061274
 20
92.3023482873
 30
0.0
 11
94.916061274
 21
90.3332305253
 31
0.0
  0
LINE
  5
1AC
330
1F
100
AcDbEntity
  8
0
  6
HIDDEN
 62
     7
370
     0
100
AcDbLine
 10
96.066061274
 20
128.2823482873
 30
0.0
 11
96.066061274
 21
126.0938387234
 31
0.0
  0
SPLINE
  5
1AD
330
1F
100
AcDbEntity
  8
0
  6
HIDDEN
 62
     7
370
     0
100
AcDbSpline
210
0.0
220
0.0
230
1.0
 70
     8
 71
     3
 72
     8
 73
     4
 74
     0
 42
0.00000001
 43
0.00000001
 40
0.0000002438860713
 40
0.0000002438860713
 40
0.0000002438860713
 40
0.0000002438860713
 40
0.0014006025853533
 40
0.0014006025853533
 40
0.0014006025853533
 40
0.0014006025853533
 10
96.06606127396317
 20
126.0938387233716
 30
0.0
 10
95.68327420139823
 20
126.2439102513473
 30
0.0
 10
95.29992080144211
 20
126.3920674532648
 30
0.0
 10
94.91606127396318
 20
126.538440965068
 30
0.0
  0
LINE
  5
1AE
330
1F
100
AcDbEntity
  8
0
  6
HIDDEN
 62
     7
370
     0
100
AcDbLine
 10
94.916061274
 20
128.2823482873
 30
0.0
 11
94.916061274
 21
126.5384409651
 31
0.0
  0
SPLINE
  5
1AF
330
1F
100
AcDbEntity
  8
0
  6
HIDDEN
 62
     7
370
     0
100
AcDbSpline
210
0.0
220
0.0
230
1.0
 70
     8
 71
     3
 72
     8
 73
     4
 74
     0
 42
0.00000001
 43
0.00000001
 40
0.0000002432046719
 40
0.0000002432046719
 40
0.0000002432046719
 40
0.0000002432046719
 40
0.0014006019039539
 40
0.0014006019039539
 40
0.0014006019039539
 40
0.0014006019039539
 10
94.91606127396318
 20
94.04625560961186
 30
0.0
 10
95.29992080144213
 20
94.19262912141508
 30
0.0
 10
95.68327420139825
 20
94.34078632333251
 30
0.0
 10
96.06606127396319
 20
94.49085785130828
 30
0.0
  0
LINE
  5
1B0
330
1F
100
AcDbEntity
  8
0
  6
HIDDEN
 62
     7
370
     0
100
AcDbLine
 10
94.916061274
 20
126.5384409651
 30
0.0
 11
94.916061274
 21
94.0462556096
 31
0.0
  0
LINE
  5
1B1
330
1F
100
AcDbEntity
  8
0
  6
HIDDEN
 62
     7
370
     0
100
AcDbLine
 10
96.066061274
 20
92.3023482873
 30
0.0
 11
96.066061274
 21
94.4908578513
 31
0.0
  0
LINE
  5
1B2
330
1F
100
AcDbEntity
  8
0
  6
HIDDEN
 62
     7
370
     0
100
AcDbLine
 10
94.916061274
 20
92.3023482873
 30
0.0
 11
94.916061274
 21
94.0462556096
 31
0.0
  0
SPLINE
  5
1B3
330
1F
100
AcDbEntity
  8
0
  6
HIDDEN
 62
     7
370
     0
100
AcDbSpline
210
0.0
220
0.0
230
1.0
 70
     8
 71
     3
 72
    10
 73
     6
 74
     0
 42
0.00000001
 43
0.00000001
 40
0.0
 40
0.0
 40
0.0
 40
0.0
 40
0.5
 40
0.5
 40
1.0
 40
1.0
 40
1.0
 40
1.0
 10
142.9060612739632
 20
137.4120021383758
 30
0.0
 10
142.9060612739632
 20
137.2683897868177
 30
0.0
 10
142.942228549061
 20
137.1254163730991
 30
0.0
 10
143.0779844928149
 20
136.8754237463854
 30
0.0
 10
143.1782541834378
 20
136.7674214371066
 30
0.0
 10
143.3003588056542
 20
136.6923482873399
 30
0.0
  0
LINE
  5
1B4
330
1F
100
AcDbEntity
  8
0
  6
HIDDEN
 62
     7
370
     0
100
AcDbLine
 10
142.906061274
 20
137.4120021384
 30
0.0
 11
142.906061274
 21
83.487952659
 31
0.0
  0
SPLINE
  5
1B5
330
1F
100
AcDbEntity
  8
0
  6
HIDDEN
 62
     7
370
     0
100
AcDbSpline
210
0.0
220
0.0
230
1.0
 70
     8
 71
     3
 72
    10
 73
     6
 74
     0
 42
0.00000001
 43
0.00000001
 40
0.0
 40
0.0
 40
0.0
 40
0.0
 40
0.5
 40
0.5
 40
1.0
 40
1.0
 40
1.0
 40
1.0
 10
142.9060612739632
 20
83.48795265901055
 30
0.0
 10
142.9060612739632
 20
83.55818901938106
 30
0.0
 10
142.9143438860536
 20
83.62818312087832
 30
0.0
 10
142.947443829112
 20
83.76514238543677
 30
0.0
 10
142.9717812210703
 20
83.83045029469187
 30
0.0
 10
143.0037360762947
 20
83.8923482873386
 30
0.0
  0
SPLINE
  5
1B6
330
1F
100
AcDbEntity
  8
0
  6
HIDDEN
 62
     7
370
     0
100
AcDbSpline
210
0.0
220
0.0
230
1.0
 70
    24
 71
     3
 72
    12
 73
     8
 74
     0
 42
0.00000001
 43
0.00000001
 40
0.0
 40
0.0
 40
0.0
 40
0.0
 40
0.4999999999999942
 40
0.4999999999999942
 40
0.7499999999999971
 40
0.7499999999999971
 40
1.0
 40
1.0
 40
1.0
 40
1.0
 10
143.3003588056541
 20
136.69234828734
 30
0.0
 10
143.3434821540877
 20
136.69234828734
 30
0.0
 10
143.3932217413879
 20
136.69234828734
 30
0.0
 10
143.4897427182098
 20
136.69234828734
 30
0.0
 10
143.5253078490615
 20
136.69234828734
 30
0.0
 10
143.6086561796843
 20
136.69234828734
 30
0.0
 10
143.6571260793748
 20
136.69234828734
 30
0.0
 10
143.7060612739644
 20
136.69234828734
 30
0.0
  0
SPLINE
  5
1B7
330
1F
100
AcDbEntity
  8
0
  6
HIDDEN
 62
     7
370
     0
100
AcDbSpline
210
0.0
220
0.0
230
1.0
 70
    24
 71
     3
 72
    14
 73
    10
 74
     0
 42
0.00000001
 43
0.00000001
 40
0.0
 40
0.0
 40
0.0
 40
0.0
 40
0.5
 40
0.5
 40
0.75
 40
0.75
 40
0.875
 40
0.875
 40
1.0
 40
1.0
 40
1.0
 40
1.0
 10
143.0037360762954
 20
83.89234828733989
 30
0.0
 10
143.0509425641351
 20
83.89234828733989
 30
0.0
 10
143.1142825675645
 20
83.89234828733989
 30
0.0
 10
143.2573456738203
 20
83.89234828733989
 30
0.0
 10
143.3134263240913
 20
83.89234828733989
 30
0.0
 10
143.4248616740007
 20
83.89234828733989
 30
0.0
 10
143.4668064646737
 20
83.89234828733989
 30
0.0
 10
143.5718029076938
 20
83.89234828733989
 30
0.0
 10
143.6373668447746
 20
83.89234828733989
 30
0.0
 10
143.7060612739631
 20
83.89234828733989
 30
0.0
  0
LINE
  5
1B8
330
1F
100
AcDbEntity
  8
0
  6
HIDDEN
 62
     7
370
     0
100
AcDbLine
 10
146.726061274
 20
137.4120021384
 30
0.0
 11
146.726061274
 21
83.487952659
 31
0.0
  0
SPLINE
  5
1B9
330
1F
100
AcDbEntity
  8
0
  6
HIDDEN
 62
     7
370
     0
100
AcDbSpline
210
0.0
220
0.0
230
1.0
 70
     8
 71
     3
 72
    10
 73
     6
 74
     0
 42
0.00000001
 43
0.00000001
 40
0.0
 40
0.0
 40
0.0
 40
0.0
 40
0.5
 40
0.5
 40
1.0
 40
1.0
 40
1.0
 40
1.0
 10
146.3317637422723
 20
136.69234828734
 30
0.0
 10
146.45307626537
 20
136.7669344336282
 30
0.0
 10
146.5545046275952
 20
136.8757587447795
 30
0.0
 10
146.6904481938553
 20
137.1267792634013
 30
0.0
 10
146.7260612739632
 20
137.2693619565405
 30
0.0
 10
146.7260612739632
 20
137.4120021383758
 30
0.0
  0
SPLINE
  5
1BA
330
1F
100
AcDbEntity
  8
0
  6
HIDDEN
 62
     7
370
     0
100
AcDbSpline
210
0.0
220
0.0
230
1.0
 70
     8
 71
     3
 72
    10
 73
     6
 74
     0
 42
0.00000001
 43
0.00000001
 40
0.0
 40
0.0
 40
0.0
 40
0.0
 40
0.5
 40
0.5
 40
1.0
 40
1.0
 40
1.0
 40
1.0
 10
146.6283864716309
 20
83.89234828733989
 30
0.0
 10
146.6605416592529
 20
83.83006224182374
 30
0.0
 10
146.6851978904471
 20
83.76353181695451
 30
0.0
 10
146.7180106473726
 20
83.626673186592
 30
0.0
 10
146.7260612739632
 20
83.55761559141364
 30
0.0
 10
146.7260612739632
 20
83.48795265901032
 30
0.0
  0
SPLINE
  5
1BB
330
1F
100
AcDbEntity
  8
0
  6
HIDDEN
 62
     7
370
     0
100
AcDbSpline
210
0.0
220
0.0
230
1.0
 70
    24
 71
     3
 72
    12
 73
     8
 74
     0
 42
0.00000001
 43
0.00000001
 40
0.0
 40
0.0
 40
0.0
 40
0.0
 40
0.25
 40
0.25
 40
0.5
 40
0.5
 40
1.0
 40
1.0
 40
1.0
 40
1.0
 10
145.9260612739631
 20
136.69234828734
 30
0.0
 10
145.9755963801811
 20
136.69234828734
 30
0.0
 10
146.0240012687828
 20
136.69234828734
 30
0.0
 10
146.1068878179604
 20
136.69234828734
 30
0.0
 10
146.1434025394288
 20
136.69234828734
 30
0.0
 10
146.2397353777834
 20
136.69234828734
 30
0.0
 10
146.288487925446
 20
136.69234828734
 30
0.0
 10
146.3317637422767
 20
136.69234828734
 30
0.0
  0
SPLINE
  5
1BC
330
1F
100
AcDbEntity
  8
0
  6
HIDDEN
 62
     7
370
     0
100
AcDbSpline
210
0.0
220
0.0
230
1.0
 70
    24
 71
     3
 72
    14
 73
    10
 74
     0
 42
0.00000001
 43
0.00000001
 40
0.0
 40
0.0
 40
0.0
 40
0.0
 40
0.125000000000001
 40
0.125000000000001
 40
0.250000000000002
 40
0.250000000000002
 40
0.5000000000000013
 40
0.5000000000000013
 40
1.0
 40
1.0
 40
1.0
 40
1.0
 10
145.9260612739632
 20
83.89234828733989
 30
0.0
 10
145.9951579063072
 20
83.89234828733989
 30
0.0
 10
146.0601510719152
 20
83.89234828733989
 30
0.0
 10
146.1644722705603
 20
83.89234828733989
 30
0.0
 10
146.2072526446688
 20
83.89234828733989
 30
0.0
 10
146.319590304315
 20
83.89234828733989
 30
0.0
 10
146.3746374864574
 20
83.89234828733989
 30
0.0
 10
146.5185142602274
 20
83.89234828733989
 30
0.0
 10
146.5815435735025
 20
83.89234828733989
 30
0.0
 10
146.6283864716309
 20
83.89234828733989
 30
0.0
  0
LINE
  5
1BD
330
1F
100
AcDbEntity
  8
0
  6
HIDDEN
 62
     7
370
     0
100
AcDbLine
 10
143.706061274
 20
136.6923482873
 30
0.0
 11
145.926061274
 21
136.6923482873
 31
0.0
  0
LINE
  5
1BE
330
1F
100
AcDbEntity
  8
0
  6
HIDDEN
 62
     7
370
     0
100
AcDbLine
 10
143.706061274
 20
83.8923482873
 30
0.0
 11
145.926061274
 21
83.8923482873
 31
0.0
  0
LINE
  5
1BF
330
1F
100
AcDbEntity
  8
0
  6
HIDDEN
 62
     7
370
     0
100
AcDbLine
 10
146.726061274
 20
137.4120021384
 30
0.0
 11
146.726061274
 21
138.0975824785
 31
0.0
  0
SPLINE
  5
1C0
330
1F
100
AcDbEntity
  8
0
  6
HIDDEN
 62
     7
370
     0
100
AcDbSpline
210
0.0
220
0.0
230
1.0
 70
     8
 71
     3
 72
     8
 73
     4
 74
     0
 42
0.00000001
 43
0.00000001
 40
0.0
 40
0.0
 40
0.0
 40
0.0
 40
1.0
 40
1.0
 40
1.0
 40
1.0
 10
146.7260612739632
 20
138.0975824785116
 30
0.0
 10
147.218771370809
 20
138.985601476638
 30
0.0
 10
147.712854076088
 20
139.872864112324
 30
0.0
 10
148.2079941054523
 20
140.7595437605042
 30
0.0
  0
LINE
  5
1C1
330
1F
100
AcDbEntity
  8
0
  6
HIDDEN
 62
     7
370
     0
100
AcDbLine
 10
148.2079941055
 20
140.7595437605
 30
0.0
 11
152.166061274
 21
140.7595437605
 31
0.0
  0
SPLINE
  5
1C2
330
1F
100
AcDbEntity
  8
0
  6
HIDDEN
 62
     7
370
     0
100
AcDbSpline
210
0.0
220
0.0
230
1.0
 70
     8
 71
     3
 72
    12
 73
     8
 74
     0
 42
0.00000001
 43
0.00000001
 40
0.0
 40
0.0
 40
0.0
 40
0.0
 40
0.2499999999999999
 40
0.2499999999999999
 40
0.4999999999999998
 40
0.4999999999999998
 40
1.0
 40
1.0
 40
1.0
 40
1.0
 10
152.1660612739632
 20
140.7595437605042
 30
0.0
 10
152.2455542230115
 20
140.7595437605042
 30
0.0
 10
152.326637724367
 20
140.7425410105434
 30
0.0
 10
152.4730681215048
 20
140.6784804694317
 30
0.0
 10
152.5396167313785
 20
140.6313218537931
 30
0.0
 10
152.7039066053522
 20
140.4580998211009
 30
0.0
 10
152.7660612739634
 20
140.2979907308667
 30
0.0
 10
152.7660612739632
 20
140.1387886111033
 30
0.0
  0
LINE
  5
1C3
330
1F
100
AcDbEntity
  8
0
  6
HIDDEN
 62
     7
370
     0
100
AcDbLine
 10
146.3317637423
 20
136.6923482873
 30
0.0
 11
152.766061274
 21
136.6923482873
 31
0.0
  0
LINE
  5
1C4
330
1F
100
AcDbEntity
  8
0
  6
HIDDEN
 62
     7
370
     0
100
AcDbLine
 10
152.766061274
 20
140.1387886111
 30
0.0
 11
152.766061274
 21
136.6923482873
 31
0.0
  0
SPLINE
  5
1C5
330
1F
100
AcDbEntity
  8
0
  6
HIDDEN
 62
     7
370
     0
100
AcDbSpline
210
0.0
220
0.0
230
1.0
 70
     8
 71
     3
 72
    12
 73
     8
 74
     0
 42
0.00000001
 43
0.00000001
 40
0.0
 40
0.0
 40
0.0
 40
0.0
 40
0.2500000000000001
 40
0.2500000000000001
 40
0.5000000000000002
 40
0.5000000000000002
 40
1.0
 40
1.0
 40
1.0
 40
1.0
 10
152.1660612739632
 20
80.1054305910928
 30
0.0
 10
152.2459422787103
 20
80.1054305910928
 30
0.0
 10
152.3265364089809
 20
80.12254767735863
 30
0.0
 10
152.4731518548258
 20
80.18728378883372
 30
0.0
 10
152.5396530475698
 20
80.23474103171405
 30
0.0
 10
152.705387948707
 20
80.41156547425352
 30
0.0
 10
152.7660612739632
 20
80.57184198145923
 30
0.0
 10
152.7660612739632
 20
80.73207088674697
 30
0.0
  0
LINE
  5
1C6
330
1F
100
AcDbEntity
  8
0
  6
HIDDEN
 62
     7
370
     0
100
AcDbLine
 10
152.766061274
 20
140.1387886111
 30
0.0
 11
152.766061274
 21
80.7320708867
 31
0.0
  0
LINE
  5
1C7
330
1F
100
AcDbEntity
  8
0
  6
HIDDEN
 62
     7
370
     0
100
AcDbLine
 10
148.2079941055
 20
140.7595437605
 30
0.0
 11
148.2079941055
 21
80.1054305911
 31
0.0
  0
LINE
  5
1C8
330
1F
100
AcDbEntity
  8
0
  6
HIDDEN
 62
     7
370
     0
100
AcDbLine
 10
146.726061274
 20
138.0975824785
 30
0.0
 11
146.726061274
 21
82.7945111283
 31
0.0
  0
SPLINE
  5
1C9
330
1F
100
AcDbEntity
  8
0
  6
HIDDEN
 62
     7
370
     0
100
AcDbSpline
210
0.0
220
0.0
230
1.0
 70
     8
 71
     3
 72
     8
 73
     4
 74
     0
 42
0.00000001
 43
0.00000001
 40
0.0
 40
0.0
 40
0.0
 40
0.0
 40
1.0
 40
1.0
 40
1.0
 40
1.0
 10
141.4241284424741
 20
140.7595437605042
 30
0.0
 10
141.9192684718384
 20
139.872864112324
 30
0.0
 10
142.4133511771174
 20
138.985601476638
 30
0.0
 10
142.9060612739632
 20
138.0975824785116
 30
0.0
  0
LINE
  5
1CA
330
1F
100
AcDbEntity
  8
0
  6
HIDDEN
 62
     7
370
     0
100
AcDbLine
 10
142.906061274
 20
138.0975824785
 30
0.0
 11
142.906061274
 21
137.4120021384
 31
0.0
  0
LINE
  5
1CB
330
1F
100
AcDbEntity
  8
0
  6
HIDDEN
 62
     7
370
     0
100
AcDbLine
 10
139.766061274
 20
136.6923482873
 30
0.0
 11
143.3003588057
 21
136.6923482873
 31
0.0
  0
LINE
  5
1CC
330
1F
100
AcDbEntity
  8
0
  6
HIDDEN
 62
     7
370
     0
100
AcDbLine
 10
142.906061274
 20
138.0975824785
 30
0.0
 11
142.906061274
 21
82.7945111283
 31
0.0
  0
LINE
  5
1CD
330
1F
100
AcDbEntity
  8
0
  6
HIDDEN
 62
     7
370
     0
100
AcDbLine
 10
94.916061274
 20
130.268408792
 30
0.0
 11
94.916061274
 21
90.3332305253
 31
0.0
  0
LWPOLYLINE
  5
1CE
330
1F
100
AcDbEntity
  8
0
  6
HIDDEN
 62
     7
370
     0
100
AcDbPolyline
 90
       22
 70
   128
 43
0.0
 10
244.816061274
 20
111.0048769404
 10
245.55294921
 20
111.1105088717
 10
246.2243614191
 20
111.4180188053
 10
246.7706399801
 20
111.9000831338
 10
247.1432456456
 20
112.5138683264
 10
247.3090707669
 20
113.2048368749
 10
247.2533810544
 20
113.9115931917
 10
246.9811247834
 20
114.5713388765
 10
246.5164931184
 20
115.1254526298
 10
245.9007706218
 20
115.5246990131
 10
245.1886669394
 20
115.7336032331
 10
244.4434556085
 20
115.7336032331
 10
243.7313519262
 20
115.5246990131
 10
243.1156294295
 20
115.1254526298
 10
242.6509977645
 20
114.5713388765
 10
242.3787414935
 20
113.9115931917
 10
242.323051781
 20
113.2048368749
 10
242.4888769024
 20
112.5138683264
 10
242.8614825678
 20
111.9000831338
 10
243.4077611288
 20
111.4180188053
 10
244.0791733379
 20
111.1105088717
 10
244.816061274
 20
111.0048769404
  0
LINE
  5
1CF
330
1F
100
AcDbEntity
  8
0
  6
HIDDEN
 62
     7
370
     0
100
AcDbLine
 10
142.906061274
 20
82.7945111283
 30
0.0
 11
142.906061274
 21
83.487952659
 31
0.0
  0
SPLINE
  5
1D0
330
1F
100
AcDbEntity
  8
0
  6
HIDDEN
 62
     7
370
     0
100
AcDbSpline
210
0.0
220
0.0
230
1.0
 70
     8
 71
     3
 72
     8
 73
     4
 74
     0
 42
0.00000001
 43
0.00000001
 40
0.0
 40
0.0
 40
0.0
 40
0.0
 40
1.0
 40
1.0
 40
1.0
 40
1.0
 10
141.4241284424741
 20
80.10543059109273
 30
0.0
 10
141.9196081031399
 20
81.00095667902607
 30
0.0
 10
142.413722151182
 20
81.89724109407831
 30
0.0
 10
142.9060612739632
 20
82.79451112828501
 30
0.0
  0
LINE
  5
1D1
330
1F
100
AcDbEntity
  8
0
  6
HIDDEN
 62
     7
370
     0
100
AcDbLine
 10
139.766061274
 20
83.8923482873
 30
0.0
 11
143.0037360763
 21
83.8923482873
 31
0.0
  0
LINE
  5
1D2
330
1F
100
AcDbEntity
  8
0
  6
HIDDEN
 62
     7
370
     0
100
AcDbLine
 10
146.726061274
 20
83.487952659
 30
0.0
 11
146.726061274
 21
82.7945111283
 31
0.0
  0
SPLINE
  5
1D3
330
1F
100
AcDbEntity
  8
0
  6
HIDDEN
 62
     7
370
     0
100
AcDbSpline
210
0.0
220
0.0
230
1.0
 70
     8
 71
     3
 72
     8
 73
     4
 74
     0
 42
0.00000001
 43
0.00000001
 40
0.0
 40
0.0
 40
0.0
 40
0.0
 40
1.0
 40
1.0
 40
1.0
 40
1.0
 10
146.7260612739632
 20
82.79451112828501
 30
0.0
 10
147.2184003967444
 20
81.89724109407831
 30
0.0
 10
147.7125144447865
 20
81.00095667902607
 30
0.0
 10
148.2079941054523
 20
80.10543059109273
 30
0.0
  0
LINE
  5
1D4
330
1F
100
AcDbEntity
  8
0
  6
HIDDEN
 62
     7
370
     0
100
AcDbLine
 10
148.2079941055
 20
80.1054305911
 30
0.0
 11
152.166061274
 21
80.1054305911
 31
0.0
  0
LINE
  5
1D5
330
1F
100
AcDbEntity
  8
0
  6
HIDDEN
 62
     7
370
     0
100
AcDbLine
 10
146.6283864716
 20
83.8923482873
 30
0.0
 11
152.766061274
 21
83.8923482873
 31
0.0
  0
LINE
  5
1D6
330
1F
100
AcDbEntity
  8
0
  6
HIDDEN
 62
     7
370
     0
100
AcDbLine
 10
152.766061274
 20
80.7320708867
 30
0.0
 11
152.766061274
 21
83.8923482873
 31
0.0
  0
ELLIPSE
  5
1D7
330
1F
100
AcDbEntity
  8
0
  6
HIDDEN
 62
     7
370
     0
100
AcDbEllipse
 10
279.7508999246
 20
96.3341964775
 30
0.0
 11
0.0
 21
-1.670061040409124
 31
0.0
210
0.0
220
0.0
230
1.0
 40
0.9907856253
 41
2.509294593486441
 42
3.488730725949231
  0
SPLINE
  5
1D8
330
1F
100
AcDbEntity
  8
0
  6
HIDDEN
 62
     7
370
     0
100
AcDbSpline
210
0.0
220
0.0
230
1.0
 70
     8
 71
     3
 72
     8
 73
     4
 74
     0
 42
0.00000001
 43
0.00000001
 40
0.0
 40
0.0
 40
0.0
 40
0.0
 40
1.0
 40
1.0
 40
1.0
 40
1.0
 10
281.7554411978438
 20
97.13384367827325
 30
0.0
 10
281.437088391291
 20
97.34153526523389
 30
0.0
 10
281.0968039583228
 20
97.53715836077066
 30
0.0
 10
280.7288115152398
 20
97.68138709832893
 30
0.0
  0
SPLINE
  5
1D9
330
1F
100
AcDbEntity
  8
0
  6
HIDDEN
 62
     7
370
     0
100
AcDbSpline
210
0.0
220
0.0
230
1.0
 70
     8
 71
     3
 72
     8
 73
     4
 74
     0
 42
0.00000001
 43
0.00000001
 40
0.0
 40
0.0
 40
0.0
 40
0.0
 40
1.0
 40
1.0
 40
1.0
 40
1.0
 10
279.1879671285242
 20
97.90463873286234
 30
0.0
 10
278.7579629847415
 20
97.86526309536052
 30
0.0
 10
278.358406688359
 20
97.75610739814044
 30
0.0
 10
277.9712864436085
 20
97.62159021855138
 30
0.0
  0
SPLINE
  5
1DA
330
1F
100
AcDbEntity
  8
0
  6
HIDDEN
 62
     7
370
     0
100
AcDbSpline
210
0.0
220
0.0
230
1.0
 70
     8
 71
     3
 72
     9
 73
     5
 74
     0
 42
0.00000001
 43
0.00000001
 40
0.0
 40
0.0
 40
0.0
 40
0.0
 40
0.4931442212723579
 40
1.0
 40
1.0
 40
1.0
 40
1.0
 10
285.2396794015227
 20
98.3213754419353
 30
0.0
 10
285.1308404224097
 20
98.12475950769304
 30
0.0
 10
284.9101362664687
 20
97.72606085979046
 30
0.0
 10
284.6803517957686
 20
97.33252492498413
 30
0.0
 10
284.5638842089324
 20
97.13305896229058
 30
0.0
  0
SPLINE
  5
1DB
330
1F
100
AcDbEntity
  8
0
  6
HIDDEN
 62
     7
370
     0
100
AcDbSpline
210
0.0
220
0.0
230
1.0
 70
     8
 71
     3
 72
     8
 73
     4
 74
     0
 42
0.00000001
 43
0.00000001
 40
0.0
 40
0.0
 40
0.0
 40
0.0
 40
1.0
 40
1.0
 40
1.0
 40
1.0
 10
264.1314115906131
 20
100.2507967212269
 30
0.0
 10
269.1413182274654
 20
99.40768877741688
 30
0.0
 10
274.1619310311244
 20
98.63702623483933
 30
0.0
 10
279.1879671285242
 20
97.90463873286237
 30
0.0
  0
SPLINE
  5
1DC
330
1F
100
AcDbEntity
  8
0
  6
HIDDEN
 62
     7
370
     0
100
AcDbSpline
210
0.0
220
0.0
230
1.0
 70
     8
 71
     3
 72
     8
 73
     4
 74
     0
 42
0.00000001
 43
0.00000001
 40
0.0
 40
0.0
 40
0.0
 40
0.0
 40
1.0
 40
1.0
 40
1.0
 40
1.0
 10
280.728811515241
 20
97.68138709833107
 30
0.0
 10
282.0061319262582
 20
97.49735808491651
 30
0.0
 10
283.2838119145921
 20
97.31581516518243
 30
0.0
 10
284.5618090812516
 20
97.13646519532107
 30
0.0
  0
CIRCLE
  5
1DD
330
1F
100
AcDbEntity
  8
0
  6
HIDDEN
 62
     7
370
     0
100
AcDbCircle
 10
133.816061274
 20
110.2923482873
 30
0.0
 40
5.000000000000028
  0
LINE
  5
1DE
330
1F
100
AcDbEntity
  8
0
  6
HIDDEN
 62
     7
370
     0
100
AcDbLine
 10
126.816061274
 20
84.9684243662
 30
0.0
 11
126.9102221152
 21
85.638413565
 31
0.0
  0
LINE
  5
1DF
330
1F
100
AcDbEntity
  8
0
  6
HIDDEN
 62
     7
370
     0
100
AcDbLine
 10
126.9102221152
 20
134.9462830096
 30
0.0
 11
126.816061274
 21
135.6162722085
 31
0.0
  0
ARC
  5
1E0
330
1F
100
AcDbEntity
  8
0
  6
HIDDEN
 62
     7
370
     0
100
AcDbCircle
 10
126.316061274
 20
85.7219174256
 30
0.0
 40
0.6000000000000231
100
AcDbArc
 50
352.0
 51
0.0
  0
ARC
  5
1E1
330
1F
100
AcDbEntity
  8
0
  6
HIDDEN
 62
     7
370
     0
100
AcDbCircle
 10
126.316061274
 20
85.7219174256
 30
0.0
 40
0.6000000000000227
100
AcDbArc
 50
0.0
 51
33.5573097619
  0
ARC
  5
1E2
330
1F
100
AcDbEntity
  8
0
  6
HIDDEN
 62
     7
370
     0
100
AcDbCircle
 10
126.316061274
 20
134.8627791491
 30
0.0
 40
0.6000000000000172
100
AcDbArc
 50
348.75
 51
8.0
  0
LWPOLYLINE
  5
1E3
330
1F
100
AcDbEntity
  8
0
  6
HIDDEN
 62
     7
370
     0
100
AcDbPolyline
 90
        3
 70
   128
 43
0.0
 10
126.9045324422
 20
134.7457249559
 10
126.8703889935
 20
134.6331690896
 10
126.816061274
 20
134.53111667
  0
LINE
  5
1E4
330
1F
100
AcDbEntity
  8
0
  6
HIDDEN
 62
     7
370
     0
100
AcDbLine
 10
126.916061274
 20
85.7219174256
 30
0.0
 11
126.916061274
 21
134.8627791491
 31
0.0
  0
LINE
  5
1E5
330
1F
100
AcDbEntity
  8
0
  6
HIDDEN
 62
     7
370
     0
100
AcDbLine
 10
126.916061274
 20
85.7219174256
 30
0.0
 11
126.916061274
 21
134.8627791491
 31
0.0
  0
LINE
  5
1E6
330
1F
100
AcDbEntity
  8
0
  6
HIDDEN
 62
     7
370
     0
100
AcDbLine
 10
109.8984968393
 20
90.2923482873
 30
0.0
 11
114.0760334156
 21
90.2923482873
 31
0.0
  0
LINE
  5
1E7
330
1F
100
AcDbEntity
  8
0
  6
HIDDEN
 62
     7
370
     0
100
AcDbLine
 10
114.0760334156
 20
130.2923482873
 30
0.0
 11
109.8984968393
 21
130.2923482873
 31
0.0
  0
ARC
  5
1E8
330
1F
100
AcDbEntity
  8
0
  6
HIDDEN
 62
     7
370
     0
100
AcDbCircle
 10
120.5710632756
 20
98.2923482873
 30
0.0
 40
8.000000000000021
100
AcDbArc
 50
277.0402132727
 51
321.3178125465
  0
ARC
  5
1E9
330
1F
100
AcDbEntity
  8
0
  6
HIDDEN
 62
     7
370
     0
100
AcDbCircle
 10
120.5710632756
 20
122.2923482873
 30
0.0
 40
8.00000000000003
100
AcDbArc
 50
38.6821874535
 51
82.9406578148
  0
ARC
  5
1EA
330
1F
100
AcDbEntity
  8
0
  6
HIDDEN
 62
     7
370
     0
100
AcDbCircle
 10
109.8984968393
 20
90.8923482873
 30
0.0
 40
0.600000000000037
100
AcDbArc
 50
210.0
 51
270.0
  0
ARC
  5
1EB
330
1F
100
AcDbEntity
  8
0
  6
HIDDEN
 62
     7
370
     0
100
AcDbCircle
 10
109.8984968393
 20
129.6923482873
 30
0.0
 40
0.6000000000000512
100
AcDbArc
 50
90.0
 51
150.0
  0
LINE
  5
1EC
330
1F
100
AcDbEntity
  8
0
  6
HIDDEN
 62
     7
370
     0
100
AcDbLine
 10
109.378881597
 20
129.9923482873
 30
0.0
 11
107.8200358702
 21
127.2923482873
 31
0.0
  0
LINE
  5
1ED
330
1F
100
AcDbEntity
  8
0
  6
HIDDEN
 62
     7
370
     0
100
AcDbLine
 10
107.8200358702
 20
93.2923482873
 30
0.0
 11
109.378881597
 21
90.5923482873
 31
0.0
  0
ARC
  5
1EE
330
1F
100
AcDbEntity
  8
0
  6
HIDDEN
 62
     7
370
     0
100
AcDbCircle
 10
135.266061274
 20
94.5673482873
 30
0.0
 40
1.500000000000013
100
AcDbArc
 50
238.2116693829
 51
360.0
  0
ARC
  5
1EF
330
1F
100
AcDbEntity
  8
0
  6
HIDDEN
 62
     7
370
     0
100
AcDbCircle
 10
135.266061274
 20
126.0173482873
 30
0.0
 40
1.500000000000025
100
AcDbArc
 50
0.0
 51
121.7883306171
  0
LINE
  5
1F0
330
1F
100
AcDbEntity
  8
0
  6
HIDDEN
 62
     7
370
     0
100
AcDbLine
 10
126.816061274
 20
93.2923482873
 30
0.0
 11
134.4758872425
 21
93.2923482873
 31
0.0
  0
LINE
  5
1F1
330
1F
100
AcDbEntity
  8
0
  6
HIDDEN
 62
     7
370
     0
100
AcDbLine
 10
134.4758872425
 20
127.2923482873
 30
0.0
 11
126.816061274
 21
127.2923482873
 31
0.0
  0
LINE
  5
1F2
330
1F
100
AcDbEntity
  8
0
  6
HIDDEN
 62
     7
370
     0
100
AcDbLine
 10
105.016061274
 20
93.2923482873
 30
0.0
 11
107.8200358702
 21
93.2923482873
 31
0.0
  0
LINE
  5
1F3
330
1F
100
AcDbEntity
  8
0
  6
HIDDEN
 62
     7
370
     0
100
AcDbLine
 10
107.8200358702
 20
127.2923482873
 30
0.0
 11
101.016061274
 21
127.2923482873
 31
0.0
  0
LINE
  5
1F4
330
1F
100
AcDbEntity
  8
0
  6
HIDDEN
 62
     7
370
     0
100
AcDbLine
 10
246.916061274
 20
107.4821442641
 30
0.0
 11
246.916061274
 21
108.9947296554
 31
0.0
  0
LINE
  5
1F5
330
1F
100
AcDbEntity
  8
0
  6
HIDDEN
 62
     7
370
     0
100
AcDbLine
 10
246.916061274
 20
106.2751273605
 30
0.0
 11
246.916061274
 21
106.3051691319
 31
0.0
  0
LINE
  5
1F6
330
1F
100
AcDbEntity
  8
0
  6
HIDDEN
 62
     7
370
     0
100
AcDbLine
 10
242.716061274
 20
108.994682342
 30
0.0
 11
242.716061274
 21
106.2751273605
 31
0.0
  0
LINE
  5
1F7
330
1F
100
AcDbEntity
  8
0
  6
HIDDEN
 62
     7
370
     0
100
AcDbLine
 10
251.5998385146
 20
106.1324696753
 30
0.0
 11
246.0818019502
 21
108.6376058527
 31
0.0
  0
LINE
  5
1F8
330
1F
100
AcDbEntity
  8
0
  6
HIDDEN
 62
     7
370
     0
100
AcDbLine
 10
244.5983710666
 20
104.6985067445
 30
0.0
 11
251.6221670571
 21
101.5097700927
 31
0.0
  0
LINE
  5
1F9
330
1F
100
AcDbEntity
  8
0
  6
HIDDEN
 62
     7
370
     0
100
AcDbLine
 10
146.116061274
 20
100.7923482873
 30
0.0
 11
148.616061274
 21
100.7923482873
 31
0.0
  0
LINE
  5
1FA
330
1F
100
AcDbEntity
  8
0
  6
HIDDEN
 62
     7
370
     0
100
AcDbLine
 10
148.616061274
 20
119.7923482873
 30
0.0
 11
146.116061274
 21
119.7923482873
 31
0.0
  0
LINE
  5
1FB
330
1F
100
AcDbEntity
  8
0
  6
HIDDEN
 62
     7
370
     0
100
AcDbLine
 10
136.766061274
 20
101.2923482873
 30
0.0
 11
137.266061274
 21
101.7923482873
 31
0.0
  0
LINE
  5
1FC
330
1F
100
AcDbEntity
  8
0
  6
HIDDEN
 62
     7
370
     0
100
AcDbLine
 10
137.266061274
 20
118.7923482873
 30
0.0
 11
136.766061274
 21
119.2923482873
 31
0.0
  0
LINE
  5
1FD
330
1F
100
AcDbEntity
  8
0
  6
HIDDEN
 62
     7
370
     0
100
AcDbLine
 10
137.266061274
 20
101.7923482873
 30
0.0
 11
146.116061274
 21
101.7923482873
 31
0.0
  0
LINE
  5
1FE
330
1F
100
AcDbEntity
  8
0
  6
HIDDEN
 62
     7
370
     0
100
AcDbLine
 10
146.116061274
 20
118.7923482873
 30
0.0
 11
137.266061274
 21
118.7923482873
 31
0.0
  0
LINE
  5
1FF
330
1F
100
AcDbEntity
  8
0
  6
HIDDEN
 62
     7
370
     0
100
AcDbLine
 10
131.766061274
 20
141.7923482873
 30
0.0
 11
131.766061274
 21
136.6923482873
 31
0.0
  0
LINE
  5
200
330
1F
100
AcDbEntity
  8
0
  6
HIDDEN
 62
     7
370
     0
100
AcDbLine
 10
122.0004991044
 20
86.2129769538
 30
0.0
 11
121.5660669549
 21
86.6920429729
 31
0.0
  0
LINE
  5
201
330
1F
100
AcDbEntity
  8
0
  6
HIDDEN
 62
     7
370
     0
100
AcDbLine
 10
114.0660636299
 20
87.113730932
 30
0.0
 11
113.5836298865
 21
86.6346649566
 31
0.0
  0
LINE
  5
202
330
1F
100
AcDbEntity
  8
0
  6
HIDDEN
 62
     7
370
     0
100
AcDbLine
 10
113.5835079583
 20
133.9500263277
 30
0.0
 11
114.0660587093
 21
133.4709060698
 31
0.0
  0
LINE
  5
203
330
1F
100
AcDbEntity
  8
0
  6
HIDDEN
 62
     7
370
     0
100
AcDbLine
 10
121.566061156
 20
133.8926038474
 30
0.0
 11
122.0006035463
 21
134.371724098
 31
0.0
  0
LINE
  5
204
330
1F
100
AcDbEntity
  8
0
  6
HIDDEN
 62
     7
370
     0
100
AcDbLine
 10
247.816061274
 20
106.0923482873
 30
0.0
 11
250.3396758739
 21
110.2923482873
 31
0.0
  0
LINE
  5
205
330
1F
100
AcDbEntity
  8
0
  6
HIDDEN
 62
     7
370
     0
100
AcDbLine
 10
250.3396758739
 20
110.2923482873
 30
0.0
 11
247.816061274
 21
114.4923482873
 31
0.0
  0
LINE
  5
206
330
1F
100
AcDbEntity
  8
0
  6
HIDDEN
 62
     7
370
     0
100
AcDbLine
 10
148.616061274
 20
106.0923482873
 30
0.0
 11
247.816061274
 21
106.0923482873
 31
0.0
  0
LINE
  5
207
330
1F
100
AcDbEntity
  8
0
  6
HIDDEN
 62
     7
370
     0
100
AcDbLine
 10
247.816061274
 20
114.4923482873
 30
0.0
 11
148.616061274
 21
114.4923482873
 31
0.0
  0
LINE
  5
208
330
1F
100
AcDbEntity
  8
0
  6
HIDDEN
 62
     7
370
     0
100
AcDbLine
 10
121.566061274
 20
86.5919834275
 30
0.0
 11
121.566061274
 21
90.3552754613
 31
0.0
  0
LINE
  5
209
330
1F
100
AcDbEntity
  8
0
  6
HIDDEN
 62
     7
370
     0
100
AcDbLine
 10
114.066061274
 20
90.2942105329
 30
0.0
 11
114.066061274
 21
87.1140541698
 31
0.0
  0
LINE
  5
20A
330
1F
100
AcDbEntity
  8
0
  6
HIDDEN
 62
     7
370
     0
100
AcDbLine
 10
121.566061274
 20
130.2294211134
 30
0.0
 11
121.566061274
 21
133.9926343481
 31
0.0
  0
LINE
  5
20B
330
1F
100
AcDbEntity
  8
0
  6
HIDDEN
 62
     7
370
     0
100
AcDbLine
 10
114.066061274
 20
133.4706508785
 30
0.0
 11
114.066061274
 21
130.2904860418
 31
0.0
  0
LINE
  5
20C
330
1F
100
AcDbEntity
  8
0
  6
HIDDEN
 62
     7
370
     0
100
AcDbLine
 10
276.0453257227
 20
101.4637721887
 30
0.0
 11
276.0453257227
 21
101.4665624476
 31
0.0
  0
LINE
  5
20D
330
1F
100
AcDbEntity
  8
0
  6
HIDDEN
 62
     7
370
     0
100
AcDbLine
 10
271.8453257227
 20
101.4665624476
 30
0.0
 11
271.8453257227
 21
101.1526583158
 31
0.0
  0
LINE
  5
20E
330
1F
100
AcDbEntity
  8
0
  6
HIDDEN
 62
     7
370
     0
100
AcDbLine
 10
246.916061274
 20
111.5892243447
 30
0.0
 11
246.916061274
 21
113.3082477741
 31
0.0
  0
LINE
  5
20F
330
1F
100
AcDbEntity
  8
0
  6
HIDDEN
 62
     7
370
     0
100
AcDbLine
 10
242.716061274
 20
113.3082477741
 30
0.0
 11
242.716061274
 21
111.5899669193
 31
0.0
  0
ARC
  5
210
330
1F
100
AcDbEntity
  8
0
  6
HIDDEN
 62
     7
370
     0
100
AcDbCircle
 10
103.616061274
 20
88.0798482873
 30
0.0
 40
1.399999999999997
100
AcDbArc
 50
37.6443616934
 51
90.0
  0
ARC
  5
211
330
1F
100
AcDbEntity
  8
0
  6
HIDDEN
 62
     7
370
     0
100
AcDbCircle
 10
99.616061274
 20
132.5623482873
 30
0.0
 40
1.400000000000001
100
AcDbArc
 50
270.0
 51
302.5610026528
  0
LINE
  5
212
330
1F
100
AcDbEntity
  8
0
  6
HIDDEN
 62
     7
370
     0
100
AcDbLine
 10
281.8508999246
 20
95.7351209001
 30
0.0
 11
281.8508999246
 21
96.4675077861
 31
0.0
  0
LINE
  5
213
330
1F
100
AcDbEntity
  8
0
  6
HIDDEN
 62
     7
370
     0
100
AcDbLine
 10
277.6508999246
 20
96.4306587271
 30
0.0
 11
277.6508999246
 21
95.7351209001
 31
0.0
  0
LINE
  5
214
330
1F
100
AcDbEntity
  8
0
  6
HIDDEN
 62
     7
370
     0
100
AcDbLine
 10
96.0496014295
 20
131.1528451917
 30
0.0
 11
95.1674258433
 21
130.6435208795
 31
0.0
  0
LINE
  5
215
330
1F
100
AcDbEntity
  8
0
  6
HIDDEN
 62
     7
370
     0
100
AcDbLine
 10
96.2137166781
 20
131.1623482873
 30
0.0
 11
96.2069496754
 21
131.1623482873
 31
0.0
  0
LINE
  5
216
330
1F
100
AcDbEntity
  8
0
  6
HIDDEN
 62
     7
370
     0
100
AcDbLine
 10
96.066061274
 20
89.4798482873
 30
0.0
 11
103.616061274
 21
89.4798482873
 31
0.0
  0
LINE
  5
217
330
1F
100
AcDbEntity
  8
0
  6
HIDDEN
 62
     7
370
     0
100
AcDbLine
 10
95.087001339
 20
90.0451088044
 30
0.0
 11
96.066061274
 21
89.4798482873
 31
0.0
  0
LINE
  5
218
330
1F
100
AcDbEntity
  8
0
  6
HIDDEN
 62
     7
370
     0
100
AcDbLine
 10
247.316061274
 20
113.3825182311
 30
0.0
 11
247.316061274
 21
115.2362189225
 31
0.0
  0
LINE
  5
219
330
1F
100
AcDbEntity
  8
0
  6
HIDDEN
 62
     7
370
     0
100
AcDbLine
 10
242.316061274
 20
115.2365417082
 30
0.0
 11
242.316061274
 21
113.3825182311
 31
0.0
  0
LINE
  5
21A
330
1F
100
AcDbEntity
  8
VERMASSUNG
100
AcDbLine
 10
286.816061274
 20
156.4655715905
 30
0.0
 11
286.816061274
 21
88.328473249
 31
0.0
  0
DIMENSION
  5
21B
330
1F
100
AcDbEntity
  8
VERMASSUNG
100
AcDbDimension
  2
*D1
 10
284.6985674478
 20
104.5069225793
 30
0.0
 11
285.2567630106
 21
116.0454358273
 31
0.0
 70
   162
 71
     1
 42
-1.0
  3
SLDDIMSTYLE0
100
AcDb2LineAngularDimension
 13
286.816061274
 23
88.328473249
 33
0.0
 14
286.816061274
 24
156.4655715905
 34
0.0
 15
285.2385882644
 25
98.3193838675
 35
0.0
 16
285.2567630106
 26
116.0454358273
 36
0.0
  0
DIMENSION
  5
227
330
1F
100
AcDbEntity
  8
VERMASSUNG
100
AcDbDimension
  2
*D2
 10
88.6204887097
 20
78.7923482873
 30
0.0
 11
88.6204887097
 21
110.2923482873
 31
0.0
 70
   160
  1
HSK %%c<>
 71
     2
 42
-1.0
  3
SLDDIMSTYLE1
100
AcDbAlignedDimension
 13
127.116061274
 23
141.7923482873
 33
0.0
 14
127.116061274
 24
78.7923482873
 34
0.0
 50
90.0
100
AcDbRotatedDimension
  0
DIMENSION
  5
234
330
1F
100
AcDbEntity
  8
VERMASSUNG
100
AcDbDimension
  2
*D3
 10
292.8851129032
 20
110.2923482873
 30
0.0
 11
292.8851129032
 21
99.2923482873
 31
0.0
 70
   160
 71
     2
 42
-1.0
  3
SLDDIMSTYLE1
100
AcDbAlignedDimension
 13
286.816061274
 23
88.2923482873
 33
0.0
 14
287.6533676648
 24
110.2923482873
 34
0.0
 50
90.0
100
AcDbRotatedDimension
  0
DIMENSION
  5
23E
330
1F
100
AcDbEntity
  8
VERMASSUNG
100
AcDbDimension
  2
*D4
 10
126.816061274
 20
148.5354096774
 30
0.0
 11
206.816061274
 21
148.5354096774
 31
0.0
 70
   160
 71
     2
 42
-1.0
  3
SLDDIMSTYLE1
100
AcDbAlignedDimension
 13
286.816061274
 23
88.2923482873
 33
0.0
 14
126.816061274
 24
141.4923482873
 34
0.0
100
AcDbRotatedDimension
  0
DIMENSION
  5
248
330
1F
100
AcDbEntity
  8
VERMASSUNG
100
AcDbDimension
  2
*D5
 10
94.916061274
 20
154.5354096774
 30
0.0
 11
190.866061274
 21
154.5354096774
 31
0.0
 70
   160
 71
     2
 42
-1.0
  3
SLDDIMSTYLE1
100
AcDbAlignedDimension
 13
286.816061274
 23
88.2923482873
 33
0.0
 14
94.916061274
 24
130.268408792
 34
0.0
100
AcDbRotatedDimension
  0
LINE
  5
252
330
1F
100
AcDbEntity
  8
VERMASSUNG
  6
CENTERX2
370
     0
100
AcDbLine
 10
90.5936940829
 20
110.2923482873
 30
0.0
 11
287.6533676648
 21
110.2923482873
 31
0.0
  0
LINE
  5
253
330
1F
100
AcDbEntity
  8
0
  6
Continuous
 62
     7
370
    15
100
AcDbLine
 10
46.6516473876
 20
88.3322759352
 30
0.0
 11
49.8735476818
 21
88.9585499104
 31
0.0
  0
LINE
  5
254
330
1F
100
AcDbEntity
  8
0
  6
Continuous
 62
     7
370
    15
100
AcDbLine
 10
45.9845165012
 20
102.1733681986
 30
0.0
 11
45.6826777807
 21
102.1891868956
 31
0.0
  0
LINE
  5
255
330
1F
100
AcDbEntity
  8
0
  6
Continuous
 62
     7
370
    15
100
AcDbLine
 10
49.0338475006
 20
100.9668219579
 30
0.0
 11
45.7816127459
 21
100.7743509771
 31
0.0
  0
LINE
  5
256
330
1F
100
AcDbEntity
  8
0
  6
Continuous
 62
     7
370
    15
100
AcDbLine
 10
50.5443264435
 20
100.9017661573
 30
0.0
 11
49.0338475006
 21
100.9668219579
 31
0.0
  0
LINE
  5
257
330
1F
100
AcDbEntity
  8
0
  6
Continuous
 62
     7
370
    15
100
AcDbLine
 10
51.3579952826
 20
89.265759645
 30
0.0
 11
50.5443264435
 21
100.9017661573
 31
0.0
  0
LINE
  5
258
330
1F
100
AcDbEntity
  8
0
  6
Continuous
 62
     7
370
    15
100
AcDbLine
 10
51.3579952826
 20
89.265759645
 30
0.0
 11
49.8735476818
 21
88.9585499104
 31
0.0
  0
LINE
  5
259
330
1F
100
AcDbEntity
  8
0
  6
Continuous
 62
     7
370
    15
100
AcDbLine
 10
49.8735476818
 20
88.9585499104
 30
0.0
 11
46.6213129272
 21
88.7660789296
 31
0.0
  0
LINE
  5
25A
330
1F
100
AcDbEntity
  8
0
  6
Continuous
 62
     7
370
    15
100
AcDbLine
 10
46.6213129272
 20
88.7660789296
 30
0.0
 11
45.7816127459
 21
100.7743509771
 31
0.0
  0
LINE
  5
25B
330
1F
100
AcDbEntity
  8
0
  6
Continuous
 62
     7
370
    15
100
AcDbLine
 10
46.6516473876
 20
88.3322759352
 30
0.0
 11
46.6213129272
 21
88.7660789296
 31
0.0
  0
LINE
  5
25C
330
1F
100
AcDbEntity
  8
0
  6
Continuous
 62
     7
370
    15
100
AcDbLine
 10
49.0338475006
 20
100.9668219579
 30
0.0
 11
45.7562482051
 21
101.13708081
 31
0.0
  0
LINE
  5
25D
330
1F
100
AcDbEntity
  8
0
  6
Continuous
 62
     7
370
    15
100
AcDbLine
 10
45.7816127459
 20
100.7743509771
 30
0.0
 11
45.7562482051
 21
101.13708081
 31
0.0
  0
LINE
  5
25E
330
1F
100
AcDbEntity
  8
0
  6
Continuous
 62
     7
370
    15
100
AcDbLine
 10
45.9846129012
 20
102.1719896139
 30
0.0
 11
45.6827839585
 21
102.1876684827
 31
0.0
  0
LINE
  5
25F
330
1F
100
AcDbEntity
  8
0
  6
Continuous
 62
     7
370
    15
100
AcDbLine
 10
45.7562482051
 20
101.13708081
 30
0.0
 11
45.6827839585
 21
102.1876684827
 31
0.0
  0
LINE
  5
260
330
1F
100
AcDbEntity
  8
0
  6
Continuous
 62
     7
370
    15
100
AcDbLine
 10
45.6827839585
 20
102.1876684827
 30
0.0
 11
45.6826777807
 21
102.1891868956
 31
0.0
  0
SPLINE
  5
261
330
1F
100
AcDbEntity
  8
0
  6
Continuous
 62
     7
370
    15
100
AcDbSpline
210
0.0
220
0.0
230
1.0
 70
     8
 71
     3
 72
    42
 73
    38
 74
     0
 42
0.00000001
 43
0.00000001
 40
0.0
 40
0.0
 40
0.0
 40
0.0
 40
0.0304508697684099
 40
0.0607916691468334
 40
0.0910223424048572
 40
0.1211428352088748
 40
0.1511530946306665
 40
0.1810530691561532
 40
0.2108427086942703
 40
0.2405219645860453
 40
0.2700907896137991
 40
0.2995491380105343
 40
0.3288969654694907
 40
0.3581342291538689
 40
0.3872608877067327
 40
0.4162769012610942
 40
0.445182231450183
 40
0.4739768414178994
 40
0.5026606958294704
 40
0.5312337608822847
 40
0.5596960043169528
 40
0.5880473954285507
 40
0.6162879050780857
 40
0.6444175057041702
 40
0.6724361713349198
 40
0.7003438776000714
 40
0.7281406017433326
 40
0.7558263226349614
 40
0.7834010207845882
 40
0.8108646783542788
 40
0.8382172791718501
 40
0.8654588087444419
 40
0.8925892542723395
 40
0.9196086046630745
 40
0.946516850545792
 40
0.9733139842859009
 40
1.0
 40
1.0
 40
1.0
 40
1.0
 10
63.15449863477658
 20
97.13646419594971
 30
0.0
 10
63.06430297844455
 20
97.02345021026709
 30
0.0
 10
62.88423769492651
 20
96.79783074918655
 30
0.0
 10
62.60583648859766
 20
96.4671267436462
 30
0.0
 10
62.32220678902728
 20
96.14296787175216
 30
0.0
 10
62.03290245141199
 20
95.82592815707368
 30
0.0
 10
61.73828533960366
 20
95.51594432653712
 30
0.0
 10
61.43850181324068
 20
95.2131164080695
 30
0.0
 10
61.13375532111513
 20
94.91749445857712
 30
0.0
 10
60.82423360514363
 20
94.62913547653382
 30
0.0
 10
60.51012794749913
 20
94.34808831894593
 30
0.0
 10
60.19162789474733
 20
94.07439780606968
 30
0.0
 10
59.86892252062091
 20
93.80810371591828
 30
0.0
 10
59.54219995058214
 20
93.54924114298888
 30
0.0
 10
59.21164735363185
 20
93.2978404958901
 30
0.0
 10
58.87745081371904
 20
93.05392759344379
 30
0.0
 10
58.53979523733079
 20
92.81752373666792
 30
0.0
 10
58.19886425554149
 20
92.58864578916531
 30
0.0
 10
57.85484013163245
 20
92.36730625711583
 30
0.0
 10
57.50790367131265
 20
92.15351337108139
 30
0.0
 10
57.15823413631854
 20
91.94727116890716
 30
0.0
 10
56.80600916117335
 20
91.74857957976383
 30
0.0
 10
56.45140467313148
 20
91.55743450925092
 30
0.0
 10
56.09459481532939
 20
91.37382792523736
 30
0.0
 10
55.73575187292465
 20
91.19774794521848
 30
0.0
 10
55.37504620294594
 20
91.02917892183785
 30
0.0
 10
55.01264616506057
 20
90.86810153856776
 30
0.0
 10
54.64871806350104
 20
90.71449287062167
 30
0.0
 10
54.28342606202803
 20
90.56832657734208
 30
0.0
 10
53.91693221321074
 20
90.42957260894772
 30
0.0
 10
53.54939607778596
 20
90.2981987164645
 30
0.0
 10
53.18097587858225
 20
90.1741652741414
 30
0.0
 10
52.81182397602885
 20
90.0574449090913
 30
0.0
 10
52.4421034199846
 20
89.94795011521909
 30
0.0
 10
52.07192633965999
 20
89.84580216801629
 30
0.0
 10
51.70158225407256
 20
89.75033413355987
 30
0.0
 10
51.45380668057995
 20
89.69251730403471
 30
0.0
 10
51.33017628642273
 20
89.66366895017012
 30
0.0
  0
SPLINE
  5
262
330
1F
100
AcDbEntity
  8
0
  6
Continuous
 62
     7
370
    15
100
AcDbSpline
210
0.0
220
0.0
230
1.0
 70
     8
 71
     3
 72
    31
 73
    27
 74
     0
 42
0.00000001
 43
0.00000001
 40
0.0
 40
0.0
 40
0.0
 40
0.0
 40
0.0312103663445035
 40
0.0623482054452088
 40
0.0934296178306916
 40
0.1244707918323808
 40
0.1554879787848044
 40
0.186497467735636
 40
0.2175155598602909
 40
0.2485585427811876
 40
0.2796426649935381
 40
0.3107841105975769
 40
0.3419989745315739
 40
0.3733032384909495
 40
0.4047127477066369
 40
0.4362431887408839
 40
0.4679100684414405
 40
0.4997286941760116
 40
0.5632242231230308
 40
0.6261906370349622
 40
0.6887528319831037
 40
0.7510381357365823
 40
0.8131755782469605
 40
0.875295110850897
 40
0.937526797082799
 40
1.0
 40
1.0
 40
1.0
 40
1.0
 10
51.27892390195637
 20
90.40255152137675
 30
0.0
 10
51.4266491670242
 20
90.43772252894466
 30
0.0
 10
51.72175641037507
 20
90.50798281302315
 30
0.0
 10
52.16080472615347
 20
90.6258919412655
 30
0.0
 10
52.59643588672534
 20
90.75279589328855
 30
0.0
 10
53.02843949539825
 20
90.88959825191277
 30
0.0
 10
53.45687132162217
 20
91.03605742760169
 30
0.0
 10
53.88171598673467
 20
91.1922379305149
 30
0.0
 10
54.3029771590176
 20
91.35812233468815
 30
0.0
 10
54.72065342315717
 20
91.53371511229709
 30
0.0
 10
55.13474474791505
 20
91.71901483076486
 30
0.0
 10
55.54525075254902
 20
91.9140216019171
 30
0.0
 10
55.95217119145367
 20
92.11873510611954
 30
0.0
 10
56.35550576716778
 20
92.33315505583496
 30
0.0
 10
56.75525440817096
 20
92.55728133964215
 30
0.0
 10
57.1514163519977
 20
92.7911129955845
 30
0.0
 10
57.5439935624175
 20
93.03465221694054
 30
0.0
 10
58.06136167667233
 20
93.37146984550397
 30
0.0
 10
58.6924559036534
 20
93.81201961522426
 30
0.0
 10
59.42203713136563
 20
94.3708043345509
 30
0.0
 10
60.12125009980954
 20
94.95784814028642
 30
0.0
 10
60.79001572047662
 20
95.57318418809808
 30
0.0
 10
61.42854291905611
 20
96.21665390784652
 30
0.0
 10
62.03601493100457
 20
96.8888227882056
 30
0.0
 10
62.61544115777158
 20
97.58753783029826
 30
0.0
 10
62.97454149011296
 20
98.07512042041586
 30
0.0
 10
63.15443939213645
 20
98.31938386749603
 30
0.0
  0
SPLINE
  5
263
330
1F
100
AcDbEntity
  8
0
  6
Continuous
 62
     7
370
    15
100
AcDbSpline
210
0.0
220
0.0
230
1.0
 70
    24
 71
     3
 72
     9
 73
     5
 74
     0
 42
0.00000001
 43
0.00000001
 40
0.0
 40
0.0
 40
0.0
 40
0.0
 40
0.4931442212723579
 40
1.0
 40
1.0
 40
1.0
 40
1.0
 10
63.15443940070364
 20
98.3213754419353
 30
0.0
 10
63.15443940070364
 20
98.12475950769304
 30
0.0
 10
63.15443940070364
 20
97.72606085979046
 30
0.0
 10
63.15443940070364
 20
97.33252492498413
 30
0.0
 10
63.15443940070364
 20
97.13305896229058
 30
0.0
  0
LINE
  5
264
330
1F
100
AcDbEntity
  8
0
  6
Continuous
 62
     7
370
    15
100
AcDbLine
 10
50.5213356508
 20
101.2305498095
 30
0.0
 11
48.0274255253
 21
101.0561586251
 31
0.0
  0
LINE
  5
265
330
1F
100
AcDbEntity
  8
0
  6
Continuous
 62
     7
370
    15
100
AcDbLine
 10
48.0274255253
 20
101.0561586251
 30
0.0
 11
46.0552184449
 21
101.1622832983
 31
0.0
  0
LINE
  5
266
330
1F
100
AcDbEntity
  8
0
  6
Continuous
 62
     7
370
    15
100
AcDbLine
 10
46.0552184449
 20
101.1622832983
 30
0.0
 11
45.9056807562
 21
103.3007718773
 31
0.0
  0
LINE
  5
267
330
1F
100
AcDbEntity
  8
0
  6
Continuous
 62
     7
370
    15
100
AcDbLine
 10
63.1544394007
 20
104.5069225793
 30
0.0
 11
45.9056807562
 21
103.3007718773
 31
0.0
  0
LINE
  5
268
330
1F
100
AcDbEntity
  8
0
  6
Continuous
 62
     7
370
    15
100
AcDbLine
 10
63.1544394007
 20
98.3193838675
 30
0.0
 11
63.1544394007
 21
104.5069225793
 31
0.0
  0
LINE
  5
269
330
1F
100
AcDbEntity
  8
0
  6
Continuous
 62
     7
370
    15
100
AcDbLine
 10
50.5213356508
 20
101.2305498095
 30
0.0
 11
50.5443264435
 21
100.9017661573
 31
0.0
  0
ARC
  5
26A
330
1F
100
AcDbEntity
  8
0
  6
Continuous
 62
     7
370
    15
100
AcDbCircle
 10
46.6544394007
 20
110.2923482873
 30
0.0
 40
16.50000000000006
100
AcDbArc
 50
0.0
 51
98.2912714864
  0
LINE
  5
26B
330
1F
100
AcDbEntity
  8
0
  6
Continuous
 62
     7
370
    15
100
AcDbLine
 10
45.9056807562
 20
103.3007718773
 30
0.0
 11
44.275049415
 21
126.6198864758
 31
0.0
  0
LINE
  5
26C
330
1F
100
AcDbEntity
  8
0
  6
Continuous
 62
     7
370
    15
100
AcDbLine
 10
63.1544394007
 20
104.5069225793
 30
0.0
 11
63.1544394007
 21
110.2923482873
 31
0.0
  0
SPLINE
  5
26D
330
1F
100
AcDbEntity
  8
0
  6
Continuous
 62
     7
370
    15
100
AcDbSpline
210
0.0
220
0.0
230
1.0
 70
     8
 71
     3
 72
    14
 73
    10
 74
     0
 42
0.00000001
 43
0.00000001
 40
0.0
 40
0.0
 40
0.0
 40
0.0
 40
0.25
 40
0.25
 40
0.5
 40
0.5
 40
0.75
 40
0.75
 40
1.0
 40
1.0
 40
1.0
 40
1.0
 10
39.94318981307765
 20
124.816780426759
 30
0.0
 10
40.53277527708818
 20
125.0892079588119
 30
0.0
 10
41.10109476490324
 20
125.3083335124466
 30
0.0
 10
42.174490627189
 20
125.6627584286237
 30
0.0
 10
42.64948396463419
 20
125.7885593056012
 30
0.0
 10
43.45819210953519
 20
125.9753399413925
 30
0.0
 10
43.77080930126353
 20
126.031866358735
 30
0.0
 10
44.2017326842151
 20
126.1047478975528
 30
0.0
 10
44.3100287840034
 20
126.1196581933316
 30
0.0
 10
44.3100287840034
 20
126.1196581933316
 30
0.0
  0
SPLINE
  5
26E
330
1F
100
AcDbEntity
  8
0
  6
Continuous
 62
     7
370
    15
100
AcDbSpline
210
0.0
220
0.0
230
1.0
 70
     8
 71
     3
 72
    18
 73
    14
 74
     0
 42
0.00000001
 43
0.00000001
 40
0.0
 40
0.0
 40
0.0
 40
0.0
 40
0.0193397387767972
 40
0.1826392453372885
 40
0.2664559182712766
 40
0.3509062917152764
 40
0.4319185692329163
 40
0.5135152356797144
 40
0.5960237926218679
 40
0.6797843091768727
 40
0.75886888137258
 40
0.9185348963509264
 40
1.0
 40
1.0
 40
1.0
 40
1.0
 10
46.23448460090334
 20
94.29798171974464
 30
0.0
 10
46.22337916523539
 20
94.29823683605764
 30
0.0
 10
46.11850244415115
 20
94.30064608529402
 30
0.0
 10
45.88455862181218
 20
94.30944462613537
 30
0.0
 10
45.53947218998907
 20
94.33040846585119
 30
0.0
 10
45.2415719792828
 20
94.35381544262569
 30
0.0
 10
44.91458811361786
 20
94.3860198699854
 30
0.0
 10
44.56087833039726
 20
94.42845238943436
 30
0.0
 10
44.17654596970037
 20
94.48367879775246
 30
0.0
 10
43.77263148248354
 20
94.552107308468
 30
0.0
 10
43.21645845121423
 20
94.66176445437806
 30
0.0
 10
42.633618854661
 20
94.79892913343521
 30
0.0
 10
42.18236698292073
 20
94.93071740881969
 30
0.0
 10
42.02991349324917
 20
94.97524150664266
 30
0.0
  0
ELLIPSE
  5
26F
330
1F
100
AcDbEntity
  8
0
  6
Continuous
 62
     7
370
    15
100
AcDbEllipse
 10
37.6198088352
 20
103.821119884
 30
0.0
 11
-1.733036295194182
 21
1.855089312013817
 31
0.0
210
0.0
220
0.0
230
1.0
 40
0.8112573031
 41
0.0
 42
6.283185307179586
  0
ARC
  5
270
330
1F
100
AcDbEntity
  8
0
  6
Continuous
 62
     7
370
    15
100
AcDbCircle
 10
46.6544394007
 20
110.2923482873
 30
0.0
 40
16.00000000000004
100
AcDbArc
 50
114.8000641757
 51
253.1999358243
  0
SPLINE
  5
271
330
1F
100
AcDbEntity
  8
0
  6
Continuous
 62
     7
370
    15
100
AcDbSpline
210
0.0
220
0.0
230
1.0
 70
     8
 71
     3
 72
    31
 73
    27
 74
     0
 42
0.00000001
 43
0.00000001
 40
0.0
 40
0.0
 40
0.0
 40
0.0
 40
0.0275918516103483
 40
0.0797817848306943
 40
0.1323796546488839
 40
0.1860688742930752
 40
0.240063045946628
 40
0.2946082489174361
 40
0.3493995664612143
 40
0.4049511712728424
 40
0.4608261250304822
 40
0.4915058931095307
 40
0.5224828392942703
 40
0.5428274276942983
 40
0.5636242802426649
 40
0.5840233822927073
 40
0.6051920796326931
 40
0.6336795880518348
 40
0.6628637644735598
 40
0.7096176734730444
 40
0.75680007677488
 40
0.8047990571938144
 40
0.8530089183338858
 40
0.9039731585323856
 40
0.9552158154973467
 40
1.0
 40
1.0
 40
1.0
 40
1.0
 10
38.39413457453552
 20
105.7045391413546
 30
0.0
 10
38.37918655337891
 20
105.6815717917951
 30
0.0
 10
38.33596437951386
 20
105.6151617455768
 30
0.0
 10
38.24889910473901
 20
105.5181934974311
 30
0.0
 10
38.13231139150316
 20
105.4144661820232
 30
0.0
 10
38.00106220133934
 20
105.3235041198757
 30
0.0
 10
37.85682129531838
 20
105.244210273888
 30
0.0
 10
37.7009858828234
 20
105.1764489849871
 30
0.0
 10
37.53357020278951
 20
105.1190412555936
 30
0.0
 10
37.35445806805146
 20
105.0706483190261
 30
0.0
 10
37.19116628555074
 20
105.0350552887576
 30
0.0
 10
37.04732643896844
 20
105.0057361787413
 30
0.0
 10
36.94125095664268
 20
104.9832325171147
 30
0.0
 10
36.84339001469255
 20
104.9595448815406
 30
0.0
 10
36.75739407456716
 20
104.9353571749088
 30
0.0
 10
36.67036517359144
 20
104.9063426467286
 30
0.0
 10
36.57667709130218
 20
104.8700047357756
 30
0.0
 10
36.4791897073157
 20
104.8271953904981
 30
0.0
 10
36.36059049007746
 20
104.771962077566
 30
0.0
 10
36.23109159770826
 20
104.7119710442212
 30
0.0
 10
36.08900460833803
 20
104.6527866093635
 30
0.0
 10
35.94923784615553
 20
104.6043464087156
 30
0.0
 10
35.80801263335312
 20
104.5672403028979
 30
0.0
 10
35.66539732576096
 20
104.5442201232039
 30
0.0
 10
35.52735248619378
 20
104.5355475016239
 30
0.0
 10
35.43890783742653
 20
104.5443854122425
 30
0.0
 10
35.39765977169692
 20
104.5485071620962
 30
0.0
  0
SPLINE
  5
272
330
1F
100
AcDbEntity
  8
0
  6
Continuous
 62
     7
370
    15
100
AcDbSpline
210
0.0
220
0.0
230
1.0
 70
    24
 71
     3
 72
    10
 73
     6
 74
     0
 42
0.00000001
 43
0.00000001
 40
0.0
 40
0.0
 40
0.0
 40
0.0
 40
0.5
 40
0.5
 40
1.0
 40
1.0
 40
1.0
 40
1.0
 10
37.65443940070404
 20
80.73207088674704
 30
0.0
 10
37.65443940070404
 20
80.5721836185534
 30
0.0
 10
37.65443940070404
 20
80.4110563630388
 30
0.0
 10
37.65443940070404
 20
80.176957364684
 30
0.0
 10
37.65443940070404
 20
80.1054305910928
 30
0.0
 10
37.65443940070404
 20
80.1054305910928
 30
0.0
  0
ARC
  5
273
330
1F
100
AcDbEntity
  8
0
  6
Continuous
 62
     7
370
    15
100
AcDbCircle
 10
46.6544394007
 20
110.2923482873
 30
0.0
 40
31.50000000000006
100
AcDbArc
 50
140.9381656697
 51
253.398450401
  0
SPLINE
  5
274
330
1F
100
AcDbEntity
  8
0
  6
Continuous
 62
     7
370
    15
100
AcDbSpline
210
0.0
220
0.0
230
1.0
 70
    24
 71
     3
 72
    12
 73
     8
 74
     0
 42
0.00000001
 43
0.00000001
 40
0.0
 40
0.0
 40
0.0
 40
0.0
 40
0.2500000000000007
 40
0.2500000000000007
 40
0.5000000000000013
 40
0.5000000000000013
 40
1.0
 40
1.0
 40
1.0
 40
1.0
 10
22.19574973833648
 20
130.14234828734
 30
0.0
 10
22.19574973833648
 20
130.14234828734
 30
0.0
 10
22.22357945863996
 20
130.14234828734
 30
0.0
 10
22.31872191989662
 20
130.14234828734
 30
0.0
 10
22.38514473619695
 20
130.14234828734
 30
0.0
 10
22.60934416771707
 20
130.14234828734
 30
0.0
 10
22.79333057026265
 20
130.14234828734
 30
0.0
 10
22.97348713944562
 20
130.14234828734
 30
0.0
  0
SPLINE
  5
275
330
1F
100
AcDbEntity
  8
0
  6
Continuous
 62
     7
370
    15
100
AcDbSpline
210
0.0
220
0.0
230
1.0
 70
    24
 71
     3
 72
    10
 73
     6
 74
     0
 42
0.00000001
 43
0.00000001
 40
0.0
 40
0.0
 40
0.0
 40
0.0
 40
0.5
 40
0.5
 40
1.0
 40
1.0
 40
1.0
 40
1.0
 10
38.65443940070404
 20
140.1387886111039
 30
0.0
 10
38.65443940070404
 20
140.2991938774547
 30
0.0
 10
38.65443940070404
 20
140.4582556904432
 30
0.0
 10
38.65443940070404
 20
140.6891681560735
 30
0.0
 10
38.65443940070404
 20
140.7595437605042
 30
0.0
 10
38.65443940070404
 20
140.7595437605042
 30
0.0
  0
SPLINE
  5
276
330
1F
100
AcDbEntity
  8
0
  6
Continuous
 62
     7
370
    15
100
AcDbSpline
210
0.0
220
0.0
230
1.0
 70
    24
 71
     3
 72
    12
 73
     8
 74
     0
 42
0.00000001
 43
0.00000001
 40
0.0
 40
0.0
 40
0.0
 40
0.0
 40
0.25
 40
0.25
 40
0.5
 40
0.5
 40
1.0
 40
1.0
 40
1.0
 40
1.0
 10
26.80443940070401
 20
134.7510379497073
 30
0.0
 10
26.80443940070401
 20
134.7510379497073
 30
0.0
 10
26.80443940070401
 20
134.7228182511195
 30
0.0
 10
26.80443940070401
 20
134.6283752438714
 30
0.0
 10
26.80443940070401
 20
134.562088267166
 30
0.0
 10
26.804439400704
 20
134.3364634438778
 30
0.0
 10
26.80443940070401
 20
134.1540371808452
 30
0.0
 10
26.80443940070401
 20
133.9733005485984
 30
0.0
  0
ARC
  5
277
330
1F
100
AcDbEntity
  8
0
  6
Continuous
 62
     7
370
    15
100
AcDbCircle
 10
46.6544394007
 20
110.2923482873
 30
0.0
 40
31.50000000000006
100
AcDbArc
 50
104.7124579609
 51
129.0618343303
  0
SPLINE
  5
278
330
1F
100
AcDbEntity
  8
0
  6
Continuous
 62
     7
370
    15
100
AcDbSpline
210
0.0
220
0.0
230
1.0
 70
    24
 71
     3
 72
    12
 73
     8
 74
     0
 42
0.00000001
 43
0.00000001
 40
0.0
 40
0.0
 40
0.0
 40
0.0
 40
0.2499999999999999
 40
0.2499999999999999
 40
0.4999999999999998
 40
0.4999999999999998
 40
1.0
 40
1.0
 40
1.0
 40
1.0
 10
54.65443940070407
 20
140.7595437605042
 30
0.0
 10
54.65443940070407
 20
140.7595437605042
 30
0.0
 10
54.65443940070407
 20
140.7425410105434
 30
0.0
 10
54.65443940070406
 20
140.6784804694317
 30
0.0
 10
54.65443940070406
 20
140.6313218537931
 30
0.0
 10
54.65443940070406
 20
140.4580998211009
 30
0.0
 10
54.65443940070407
 20
140.2979907308667
 30
0.0
 10
54.65443940070406
 20
140.1387886111033
 30
0.0
  0
ARC
  5
279
330
1F
100
AcDbEntity
  8
0
  6
Continuous
 62
     7
370
    15
100
AcDbCircle
 10
46.6544394007
 20
110.2923482873
 30
0.0
 40
31.50000000000007
100
AcDbArc
 50
286.601549599
 51
75.2875420391
  0
SPLINE
  5
27A
330
1F
100
AcDbEntity
  8
0
  6
Continuous
 62
     7
370
    15
100
AcDbSpline
210
0.0
220
0.0
230
1.0
 70
    24
 71
     3
 72
    12
 73
     8
 74
     0
 42
0.00000001
 43
0.00000001
 40
0.0
 40
0.0
 40
0.0
 40
0.0
 40
0.2500000000000001
 40
0.2500000000000001
 40
0.5000000000000002
 40
0.5000000000000002
 40
1.0
 40
1.0
 40
1.0
 40
1.0
 10
55.65443940070408
 20
80.1054305910928
 30
0.0
 10
55.65443940070408
 20
80.1054305910928
 30
0.0
 10
55.65443940070408
 20
80.12254767735863
 30
0.0
 10
55.65443940070408
 20
80.18728378883372
 30
0.0
 10
55.65443940070408
 20
80.23474103171405
 30
0.0
 10
55.65443940070408
 20
80.41156547425352
 30
0.0
 10
55.65443940070407
 20
80.57184198145923
 30
0.0
 10
55.65443940070408
 20
80.73207088674697
 30
0.0
  0
LINE
  5
27B
330
1F
100
AcDbEntity
  8
0
  6
Continuous
 62
     7
370
    15
100
AcDbLine
 10
54.6544394007
 20
136.6923482873
 30
0.0
 11
38.6544394007
 21
136.6923482873
 31
0.0
  0
LINE
  5
27C
330
1F
100
AcDbEntity
  8
0
  6
Continuous
 62
     7
370
    15
100
AcDbLine
 10
55.6544394007
 20
83.8923482873
 30
0.0
 11
37.6544394007
 21
83.8923482873
 31
0.0
  0
LINE
  5
27D
330
1F
100
AcDbEntity
  8
0
  6
Continuous
 62
     7
370
    15
100
AcDbLine
 10
54.6544394007
 20
140.1387886111
 30
0.0
 11
54.6544394007
 21
136.6923482873
 31
0.0
  0
LINE
  5
27E
330
1F
100
AcDbEntity
  8
0
  6
Continuous
 62
     7
370
    15
100
AcDbLine
 10
55.6544394007
 20
80.7320708867
 30
0.0
 11
55.6544394007
 21
83.8923482873
 31
0.0
  0
LINE
  5
27F
330
1F
100
AcDbEntity
  8
0
  6
Continuous
 62
     7
370
    15
100
AcDbLine
 10
38.6544394007
 20
136.6923482873
 30
0.0
 11
38.6544394007
 21
140.1387886111
 31
0.0
  0
LINE
  5
280
330
1F
100
AcDbEntity
  8
0
  6
Continuous
 62
     7
370
    15
100
AcDbLine
 10
37.6544394007
 20
83.8923482873
 30
0.0
 11
37.6544394007
 21
80.7320708867
 31
0.0
  0
LINE
  5
281
330
1F
100
AcDbEntity
  8
0
  6
Continuous
 62
     7
370
    15
100
AcDbLine
 10
26.8044394007
 20
133.9733005486
 30
0.0
 11
26.8044394007
 21
130.1423482873
 31
0.0
  0
LINE
  5
282
330
1F
100
AcDbEntity
  8
0
  6
Continuous
 62
     7
370
    15
100
AcDbLine
 10
22.9734871394
 20
130.1423482873
 30
0.0
 11
26.8044394007
 21
130.1423482873
 31
0.0
  0
SPLINE
  5
283
330
1F
100
AcDbEntity
  8
0
  6
Continuous
 62
     7
370
    15
100
AcDbSpline
210
0.0
220
0.0
230
1.0
 70
     8
 71
     3
 72
    30
 73
    26
 74
     0
 42
0.00000001
 43
0.00000001
 40
0.0
 40
0.0
 40
0.0
 40
0.0
 40
0.1249999999999997
 40
0.1249999999999997
 40
0.1874999999999994
 40
0.1874999999999994
 40
0.2499999999999992
 40
0.2499999999999992
 40
0.3749999999999988
 40
0.3749999999999988
 40
0.4374999999999986
 40
0.4374999999999986
 40
0.4999999999999984
 40
0.4999999999999984
 40
0.6249999999999983
 40
0.6249999999999983
 40
0.6874999999999986
 40
0.6874999999999986
 40
0.7499999999999989
 40
0.7499999999999989
 40
0.8124999999999991
 40
0.8124999999999991
 40
0.8749999999999994
 40
0.8749999999999994
 40
1.0
 40
1.0
 40
1.0
 40
1.0
 10
47.65443940070413
 20
78.8082253044775
 30
0.0
 10
48.18585733110473
 20
78.82510422248612
 30
0.0
 10
48.70751652867889
 20
78.8551217873109
 30
0.0
 10
49.47615831583792
 20
78.91793217658402
 30
0.0
 10
49.73004811500294
 20
78.94183608381091
 30
0.0
 10
50.23312089094902
 20
78.9952713762533
 30
0.0
 10
50.48258473916566
 20
79.02487824442086
 30
0.0
 10
51.20749563676252
 20
79.11932794313527
 30
0.0
 10
51.6653729736547
 20
79.1903553369645
 30
0.0
 10
52.31514019913755
 20
79.30436962367027
 30
0.0
 10
52.52652690254772
 20
79.34382487481085
 30
0.0
 10
52.93116071331787
 20
79.42334631758149
 30
0.0
 10
53.12390118481909
 20
79.46328246008228
 30
0.0
 10
53.67433206119602
 20
79.58221886291044
 30
0.0
 10
54.00451543847664
 20
79.66038362679431
 30
0.0
 10
54.44319125512707
 20
79.7700930670632
 30
0.0
 10
54.5789898136136
 20
79.8051739037716
 30
0.0
 10
54.82586684645977
 20
79.87041418315121
 30
0.0
 10
54.93764538378778
 20
79.90074899919595
 30
0.0
 10
55.13807557366138
 20
79.9560873784178
 30
0.0
 10
55.22672791686488
 20
79.98109205497789
 30
0.0
 10
55.38039546454599
 20
80.02497186386857
 30
0.0
 10
55.44564316879784
 20
80.04391554863086
 30
0.0
 10
55.60194822216211
 20
80.08963527590106
 30
0.0
 10
55.65443940070412
 20
80.10543059109271
 30
0.0
 10
55.65443940070412
 20
80.10543059109271
 30
0.0
  0
SPLINE
  5
284
330
1F
100
AcDbEntity
  8
0
  6
Continuous
 62
     7
370
    15
100
AcDbSpline
210
0.0
220
0.0
230
1.0
 70
     8
 71
     3
 72
    28
 73
    24
 74
     0
 42
0.00000001
 43
0.00000001
 40
0.0
 40
0.0
 40
0.0
 40
0.0
 40
0.125
 40
0.125
 40
0.1875000000000002
 40
0.1875000000000002
 40
0.2500000000000004
 40
0.2500000000000004
 40
0.3750000000000009
 40
0.3750000000000009
 40
0.4375000000000009
 40
0.4375000000000009
 40
0.5000000000000009
 40
0.5000000000000009
 40
0.6250000000000008
 40
0.6250000000000008
 40
0.7500000000000007
 40
0.7500000000000007
 40
0.8125000000000004
 40
0.8125000000000004
 40
0.8750000000000002
 40
0.8750000000000002
 40
1.0
 40
1.0
 40
1.0
 40
1.0
 10
37.65443940070408
 20
80.10543059109273
 30
0.0
 10
37.65443940070408
 20
80.10543059109271
 30
0.0
 10
37.70691574302232
 20
80.08964587714256
 30
0.0
 10
37.86071269057923
 20
80.04465046306636
 30
0.0
 10
37.92458766561322
 20
80.02609546799064
 30
0.0
 10
38.07808393426976
 20
79.98224274554414
 30
0.0
 10
38.16789890966346
 20
79.95689813859194
 30
0.0
 10
38.46987770471434
 20
79.87349606084183
 30
0.0
 10
38.71583113877008
 20
79.80763050169074
 30
0.0
 10
39.15119831819847
 20
79.69866016119894
 30
0.0
 10
39.30841350037081
 20
79.6604205254323
 30
0.0
 10
39.64057812091327
 20
79.58266178801294
 30
0.0
 10
39.81538538651616
 20
79.54316082583759
 30
0.0
 10
40.36544457710198
 20
79.4242530834716
 30
0.0
 10
40.76606796149746
 20
79.34443540204697
 30
0.0
 10
41.63865407284617
 20
79.19109224025092
 30
0.0
 10
42.09878952044774
 20
79.11975848698167
 30
0.0
 10
42.81875561441392
 20
79.02581497990704
 30
0.0
 10
43.06402932444844
 20
78.9966211865471
 30
0.0
 10
43.56548566087728
 20
78.94315461228369
 30
0.0
 10
43.8229170302498
 20
78.91879527800852
 30
0.0
 10
44.59885682611429
 20
78.85520513256381
 30
0.0
 10
45.12308522602032
 20
78.82510219747444
 30
0.0
 10
45.65443940070413
 20
78.8082253044775
 30
0.0
  0
SPLINE
  5
285
330
1F
100
AcDbEntity
  8
0
  6
Continuous
 62
     7
370
    15
100
AcDbSpline
210
0.0
220
0.0
230
1.0
 70
     8
 71
     3
 72
    50
 73
    46
 74
     0
 42
0.00000001
 43
0.00000001
 40
0.0
 40
0.0
 40
0.0
 40
0.0
 40
0.0624999999999996
 40
0.0624999999999996
 40
0.0937499999999995
 40
0.0937499999999995
 40
0.1249999999999994
 40
0.1249999999999994
 40
0.1874999999999992
 40
0.1874999999999992
 40
0.2187499999999991
 40
0.2187499999999991
 40
0.2499999999999992
 40
0.2499999999999992
 40
0.3124999999999992
 40
0.3124999999999992
 40
0.3749999999999992
 40
0.3749999999999992
 40
0.4062499999999992
 40
0.4062499999999992
 40
0.4374999999999992
 40
0.4374999999999992
 40
0.4999999999999993
 40
0.4999999999999993
 40
0.5624999999999994
 40
0.5624999999999994
 40
0.6249999999999996
 40
0.6249999999999996
 40
0.6562499999999997
 40
0.6562499999999997
 40
0.6874999999999997
 40
0.6874999999999997
 40
0.7187499999999997
 40
0.7187499999999997
 40
0.7499999999999997
 40
0.7499999999999997
 40
0.8124999999999997
 40
0.8124999999999997
 40
0.8749999999999997
 40
0.8749999999999997
 40
0.9374999999999998
 40
0.9374999999999998
 40
0.9687499999999999
 40
0.9687499999999999
 40
1.0
 40
1.0
 40
1.0
 40
1.0
 10
38.65443940070409
 20
140.7595437605042
 30
0.0
 10
38.65443940070409
 20
140.7595437605042
 30
0.0
 10
38.70673354265718
 20
140.7734098638854
 30
0.0
 10
38.86008607748993
 20
140.8128470067694
 30
0.0
 10
38.92378357284115
 20
140.8290997090344
 30
0.0
 10
39.07687522313096
 20
140.8674484188848
 30
0.0
 10
39.16653132509178
 20
140.8896018652928
 30
0.0
 10
39.46811271326583
 20
140.9623578111549
 30
0.0
 10
39.71385414369981
 20
141.0196385139996
 30
0.0
 10
40.14901421005048
 20
141.1136309534554
 30
0.0
 10
40.30615503751166
 20
141.1464899206486
 30
0.0
 10
40.63879413023596
 20
141.2130659740968
 30
0.0
 10
40.813860085676
 20
141.2467094119357
 30
0.0
 10
41.3647156163776
 20
141.3472702765128
 30
0.0
 10
41.76590002556426
 20
141.4138330862629
 30
0.0
 10
42.63938923165166
 20
141.5385321415625
 30
0.0
 10
43.1014298246341
 20
141.5950551506331
 30
0.0
 10
43.82254523822801
 20
141.6657240852479
 30
0.0
 10
44.06810587591139
 20
141.6870002953194
 30
0.0
 10
44.5698941750696
 20
141.7243060215613
 30
0.0
 10
44.82765539138625
 20
141.7403972184214
 30
0.0
 10
45.60276785560602
 20
141.779038690029
 30
0.0
 10
46.1231970393257
 20
141.7922281085854
 30
0.0
 10
47.17133288011107
 20
141.7924668320435
 30
0.0
 10
47.70384121048482
 20
141.7790668293393
 30
0.0
 10
48.73153147265143
 20
141.7280028411442
 30
0.0
 10
49.23129565323315
 20
141.69056370639
 30
0.0
 10
49.95979065325362
 20
141.6194002234715
 30
0.0
 10
50.19914164569911
 20
141.593131765279
 30
0.0
 10
50.66038011718597
 20
141.5374502925267
 30
0.0
 10
50.88364677225324
 20
141.5079125205908
 30
0.0
 10
51.31583437827531
 20
141.4463053755631
 30
0.0
 10
51.52475495851529
 20
141.4142344328419
 30
0.0
 10
51.928179884039
 20
141.3484174558725
 30
0.0
 10
52.12365954400835
 20
141.3144872374093
 30
0.0
 10
52.6795177575446
 20
141.2130586098291
 30
0.0
 10
53.00907514417616
 20
141.146139581139
 30
0.0
 10
53.58847064196211
 20
141.0211140187972
 30
0.0
 10
53.83999061340648
 20
140.9625372245631
 30
0.0
 10
54.24144511002005
 20
140.8657023729182
 30
0.0
 10
54.39392810556716
 20
140.826947413359
 30
0.0
 10
54.54923905474239
 20
140.7870198829227
 30
0.0
 10
54.58875250214854
 20
140.7767280916722
 30
0.0
 10
54.64126584944431
 20
140.7630118791332
 30
0.0
 10
54.65443940070411
 20
140.7595437605042
 30
0.0
 10
54.65443940070411
 20
140.7595437605042
 30
0.0
  0
SPLINE
  5
286
330
1F
100
AcDbEntity
  8
0
  6
Continuous
 62
     7
370
    15
100
AcDbSpline
210
0.0
220
0.0
230
1.0
 70
     8
 71
     3
 72
    20
 73
    16
 74
     0
 42
0.00000001
 43
0.00000001
 40
0.0
 40
0.0
 40
0.0
 40
0.0
 40
0.2499999999999997
 40
0.2499999999999997
 40
0.3749999999999999
 40
0.3749999999999999
 40
0.5000000000000001
 40
0.5000000000000001
 40
0.6250000000000001
 40
0.6250000000000001
 40
0.75
 40
0.75
 40
0.875
 40
0.875
 40
1.0
 40
1.0
 40
1.0
 40
1.0
 10
22.19574973833666
 20
130.14234828734
 30
0.0
 10
22.72640650617133
 20
130.7962107156374
 30
0.0
 10
23.26013450243289
 20
131.3999964976344
 30
0.0
 10
24.04310682042164
 20
132.2268352338031
 30
0.0
 10
24.30109042051831
 20
132.489263871756
 30
0.0
 10
24.80548567692614
 20
132.9859265258609
 30
0.0
 10
25.04826409935411
 20
133.2165134048824
 30
0.0
 10
25.49894417886718
 20
133.6330676294651
 30
0.0
 10
25.70840804485845
 20
133.8205654314326
 30
0.0
 10
26.08669656144649
 20
134.151962409069
 30
0.0
 10
26.25044424763097
 20
134.2914663965643
 30
0.0
 10
26.5186300498304
 20
134.5169199040352
 30
0.0
 10
26.62385445791714
 20
134.6035460155788
 30
0.0
 10
26.76791368323066
 20
134.721526804433
 30
0.0
 10
26.80443940070407
 20
134.7510379497074
 30
0.0
 10
26.80443940070408
 20
134.7510379497074
 30
0.0
  0
ARC
  5
287
330
1F
100
AcDbEntity
  8
0
  6
Continuous
 62
     7
370
    15
100
AcDbCircle
 10
46.6544394007
 20
110.2923482873
 30
0.0
 40
31.5000000000001
100
AcDbArc
 50
268.180780706
 51
271.819219294
  0
CIRCLE
  5
288
330
1F
100
AcDbEntity
  8
VERMASSUNG
  6
CENTERX2
100
AcDbCircle
 10
46.6544394007
 20
108.3536692488
 30
0.0
 40
20.00000000000001
  0
DIMENSION
  5
289
330
1F
100
AcDbEntity
  8
VERMASSUNG
100
AcDbDimension
  2
*D6
 10
11.556430728
 20
128.3536692488
 30
0.0
 11
11.556430728
 21
108.3536692488
 31
0.0
 70
   160
  1
%%c<>
 71
     2
 42
-1.0
  3
SLDDIMSTYLE2
100
AcDbAlignedDimension
 13
46.6544394007
 23
88.3536692488
 33
0.0
 14
46.6544394007
 24
128.3536692488
 34
0.0
 50
90.0
100
AcDbRotatedDimension
  0
INSERT
  5
2A0
330
1F
100
AcDbEntity
  8
VERMASSUNG
100
AcDbBlockReference
  2
SW_CENTERMARKSYMBOL_0
 10
46.6544394007
 20
110.2923482873
 30
0.0
  0
OLE2FRAME
  5
2A1
330
1F
100
AcDbEntity
  8
0
100
AcDbOle2Frame
 70
     2
  3
Bitmap Image
 10
13.8511154363
 20
38.264191557
 30
0.0
 11
51.6290888628
 21
31.9806341108
 31
0.0
 71
     2
 72
     0
 73
     1
 90
    12928
310
80552BED0767C5B32B40DDAF6807D121434000000000000000006FFBDDFB85D0
310
4940DDAF6807D121434000000000000000006FFBDDFB85D04940416F4BD60AFB
310
3F4000000000000000002BED0767C5B32B40416F4BD60AFB3F40000000000000
310
0000000000000100000000010000010000000100000000000100000000320000
310
D0CF11E0A1B11AE1000000000000000000000000000000003E000300FEFF0900
310
0600000000000000000000000100000001000000000000000010000002000000
310
01000000FEFFFFFF0000000000000000FFFFFFFFFFFFFFFFFFFFFFFFFFFFFFFF
310
FFFFFFFFFFFFFFFFFFFFFFFFFFFFFFFFFFFFFFFFFFFFFFFFFFFFFFFFFFFFFFFF
310
FFFFFFFFFFFFFFFFFFFFFFFFFFFFFFFFFFFFFFFFFFFFFFFFFFFFFFFFFFFFFFFF
310
FFFFFFFFFFFFFFFFFFFFFFFFFFFFFFFFFFFFFFFFFFFFFFFFFFFFFFFFFFFFFFFF
310
FFFFFFFFFFFFFFFFFFFFFFFFFFFFFFFFFFFFFFFFFFFFFFFFFFFFFFFFFFFFFFFF
310
FFFFFFFFFFFFFFFFFFFFFFFFFFFFFFFFFFFFFFFFFFFFFFFFFFFFFFFFFFFFFFFF
310
FFFFFFFFFFFFFFFFFFFFFFFFFFFFFFFFFFFFFFFFFFFFFFFFFFFFFFFFFFFFFFFF
310
FFFFFFFFFFFFFFFFFFFFFFFFFFFFFFFFFFFFFFFFFFFFFFFFFFFFFFFFFFFFFFFF
310
FFFFFFFFFFFFFFFFFFFFFFFFFFFFFFFFFFFFFFFFFFFFFFFFFFFFFFFFFFFFFFFF
310
FFFFFFFFFFFFFFFFFFFFFFFFFFFFFFFFFFFFFFFFFFFFFFFFFFFFFFFFFFFFFFFF
310
FFFFFFFFFFFFFFFFFFFFFFFFFFFFFFFFFFFFFFFFFFFFFFFFFFFFFFFFFFFFFFFF
310
FFFFFFFFFFFFFFFFFFFFFFFFFFFFFFFFFFFFFFFFFFFFFFFFFFFFFFFFFFFFFFFF
310
FFFFFFFFFFFFFFFFFFFFFFFFFFFFFFFFFFFFFFFFFFFFFFFFFFFFFFFFFFFFFFFF
310
FFFFFFFFFFFFFFFFFFFFFFFFFFFFFFFFFFFFFFFFFFFFFFFFFFFFFFFFFFFFFFFF
310
FDFFFFFFFEFFFFFFFEFFFFFFFEFFFFFF05000000060000000700000008000000
310
090000000A0000000B0000000C0000000D0000000E0000000F00000010000000
310
11000000120000001300000014000000150000001600000017000000FEFFFFFF
310
FFFFFFFFFFFFFFFFFFFFFFFFFFFFFFFFFFFFFFFFFFFFFFFFFFFFFFFFFFFFFFFF
310
FFFFFFFFFFFFFFFFFFFFFFFFFFFFFFFFFFFFFFFFFFFFFFFFFFFFFFFFFFFFFFFF
310
FFFFFFFFFFFFFFFFFFFFFFFFFFFFFFFFFFFFFFFFFFFFFFFFFFFFFFFFFFFFFFFF
310
FFFFFFFFFFFFFFFFFFFFFFFFFFFFFFFFFFFFFFFFFFFFFFFFFFFFFFFFFFFFFFFF
310
FFFFFFFFFFFFFFFFFFFFFFFFFFFFFFFFFFFFFFFFFFFFFFFFFFFFFFFFFFFFFFFF
310
FFFFFFFFFFFFFFFFFFFFFFFFFFFFFFFFFFFFFFFFFFFFFFFFFFFFFFFFFFFFFFFF
310
FFFFFFFFFFFFFFFFFFFFFFFFFFFFFFFFFFFFFFFFFFFFFFFFFFFFFFFFFFFFFFFF
310
FFFFFFFFFFFFFFFFFFFFFFFFFFFFFFFFFFFFFFFFFFFFFFFFFFFFFFFFFFFFFFFF
310
FFFFFFFFFFFFFFFFFFFFFFFFFFFFFFFFFFFFFFFFFFFFFFFFFFFFFFFFFFFFFFFF
310
FFFFFFFFFFFFFFFFFFFFFFFFFFFFFFFFFFFFFFFFFFFFFFFFFFFFFFFFFFFFFFFF
310
FFFFFFFFFFFFFFFFFFFFFFFFFFFFFFFFFFFFFFFFFFFFFFFFFFFFFFFFFFFFFFFF
310
FFFFFFFFFFFFFFFFFFFFFFFFFFFFFFFFFFFFFFFFFFFFFFFFFFFFFFFFFFFFFFFF
310
FFFFFFFFFFFFFFFFFFFFFFFFFFFFFFFFFFFFFFFFFFFFFFFFFFFFFFFFFFFFFFFF
310
52006F006F007400200045006E00740072007900000000000000000000000000
310
0000000000000000000000000000000000000000000000000000000000000000
310
16000500FFFFFFFFFFFFFFFF020000000A00030000000000C000000000000046
310
000000000000000000000000306285E80DD4CB0103000000C000000000000000
310
01004F006C006500000000000000000000000000000000000000000000000000
310
0000000000000000000000000000000000000000000000000000000000000000
310
0A000200FFFFFFFFFFFFFFFFFFFFFFFF00000000000000000000000000000000
310
0000000000000000000000000000000000000000000000001400000000000000
310
010043006F006D0070004F0062006A0000000000000000000000000000000000
310
0000000000000000000000000000000000000000000000000000000000000000
310
120002010100000003000000FFFFFFFF00000000000000000000000000000000
310
0000000000000000000000000000000000000000010000004D00000000000000
310
01004F006C006500310030004E00610074006900760065000000000000000000
310
0000000000000000000000000000000000000000000000000000000000000000
310
1A000200FFFFFFFFFFFFFFFFFFFFFFFF00000000000000000000000000000000
310
0000000000000000000000000000000000000000040000002426000000000000
310
FEFFFFFF02000000FEFFFFFFFFFFFFFFFFFFFFFFFFFFFFFFFFFFFFFFFFFFFFFF
310
FFFFFFFFFFFFFFFFFFFFFFFFFFFFFFFFFFFFFFFFFFFFFFFFFFFFFFFFFFFFFFFF
310
FFFFFFFFFFFFFFFFFFFFFFFFFFFFFFFFFFFFFFFFFFFFFFFFFFFFFFFFFFFFFFFF
310
FFFFFFFFFFFFFFFFFFFFFFFFFFFFFFFFFFFFFFFFFFFFFFFFFFFFFFFFFFFFFFFF
310
FFFFFFFFFFFFFFFFFFFFFFFFFFFFFFFFFFFFFFFFFFFFFFFFFFFFFFFFFFFFFFFF
310
FFFFFFFFFFFFFFFFFFFFFFFFFFFFFFFFFFFFFFFFFFFFFFFFFFFFFFFFFFFFFFFF
310
FFFFFFFFFFFFFFFFFFFFFFFFFFFFFFFFFFFFFFFFFFFFFFFFFFFFFFFFFFFFFFFF
310
FFFFFFFFFFFFFFFFFFFFFFFFFFFFFFFFFFFFFFFFFFFFFFFFFFFFFFFFFFFFFFFF
310
FFFFFFFFFFFFFFFFFFFFFFFFFFFFFFFFFFFFFFFFFFFFFFFFFFFFFFFFFFFFFFFF
310
FFFFFFFFFFFFFFFFFFFFFFFFFFFFFFFFFFFFFFFFFFFFFFFFFFFFFFFFFFFFFFFF
310
FFFFFFFFFFFFFFFFFFFFFFFFFFFFFFFFFFFFFFFFFFFFFFFFFFFFFFFFFFFFFFFF
310
FFFFFFFFFFFFFFFFFFFFFFFFFFFFFFFFFFFFFFFFFFFFFFFFFFFFFFFFFFFFFFFF
310
FFFFFFFFFFFFFFFFFFFFFFFFFFFFFFFFFFFFFFFFFFFFFFFFFFFFFFFFFFFFFFFF
310
FFFFFFFFFFFFFFFFFFFFFFFFFFFFFFFFFFFFFFFFFFFFFFFFFFFFFFFFFFFFFFFF
310
FFFFFFFFFFFFFFFFFFFFFFFFFFFFFFFFFFFFFFFFFFFFFFFFFFFFFFFFFFFFFFFF
310
FFFFFFFFFFFFFFFFFFFFFFFFFFFFFFFFFFFFFFFFFFFFFFFFFFFFFFFFFFFFFFFF
310
0100000200000000000000000000000000000000610072004E0082005C003104
310
A807250000000000A807250000000000680061007200650064005C003B004300
310
0100FEFF030A0000FFFFFFFF0A00030000000000C00000000000004607000000
310
5042727573680007000000504272757368000700000050427275736800F439B2
310
71000000000000000000000000004100540049002E004100430045005C004300
310
6F00720065002D005300740061007400690063003B0043003A005C0050007200
310
6F006700720061006D002000460069006C006500730020002800780038003600
310
29005C0043006F006D006D006F006E002000460069006C00650073005C004100
310
750074006F006400650073006B0020005300680061007200650064005C003B00
310
43003A005C00500072006F006700720061006D002000460069006C0065007300
310
5C004E006F0072006D0061006E005C004E0070006D005C00420069006E000000
310
43003A005C00500072006F006700720061006D002000460069006C0065007300
310
5C0053006F006C006900640057006F0072006B007300200043006F0072007000
310
5C0053006F006C006900640057006F0072006B00730020002800320029005C00
310
730065007400750070005C0069003300380036005C0073007700610063007400
310
770069007A002E006500780065000000220043003A005C00500072006F006700
310
20260000424D0E260000000000003E00000028000000B40200006E0000000100
310
01000000000000000000130B0000130B00000200000002000000000000FFFFFF
310
FFFFFFFFFFFFFFFFFFFFFFFFFFFFFFFFFFFFFFFFFFFFFFFFFFFFFFFFFFFFFFFF
310
FFFFFFFFFFFFFFFFFFFFFFFFFFFFFFFFFFFFFFFFFFFFFFFFFFFFFFFFFFFFFFFF
310
FFFFFFFFFFFFFFFFFFFFFFFFFFFFFFFFFFFFFFFFFFFFFFFFF000FFFFFFFFFFFF
310
FFFFFFFFFFFFFFFFFFFFFFFFFFFFFFFFFFFFFFFFFFFFFFFFFFFFFFFFFFFFFFFF
310
FFFFFFFFFFFFFFFFFFFFFFFFFFFFFFFFFFFFFFFFFFFFFFFFFFFFFFFFFFFFFFFF
310
FFFFFFFFFFFFFFFFFFFFFFFFFFFFFFFFF000FFFFFFFFFFFFFFFFFFFFFFFFFFFF
310
FFFFFFFFFFFFFFFFFFFFFFFFFFFFFFFFFFFFFFFFFFFFFFFFFFFFFFFFFFFFFFFF
310
FFFFFFFFFFFFFFFFFFFFFFFFFFFFFFFFFFFFFFFFFFFFFFFFFFFFFFFFFFFFFFFF
310
FFFFFFFFFFFFFFFFF000FFFFFFFFFFFFFFFFFFFFFFFFFFFFFFFFFFFFFFFFFFFF
310
FFFFFFFFFFFFFFFFFFFFFFFFFFFFFFFFFFFFFFFFFFFFFFFFFFFFFFFFFFFFFFFF
310
FFFFFFFFFFFFFFFFFFFFFFFFFFFFFFFFFFFFFFFFFFFFFFFFFFFFFFFFFFFFFFFF
310
F000FFFFFFFFFFFFFFFFFFFFFFFFFFFFFFFFFFFFFFFFFFFFFFFFFFFFFFFFFFFF
310
FFFFFFFFFFFFFFFFFFFFFFFFFFFFFFFFFFFFFFFFFFFFFFFFFFFFFFFFFFFFFFFF
310
FFFFFFFFFFFFFFFFFFFFFFFFFFFFFFFFFFFFFFFFFFFFFFFFF000FFFFFFFFFFFF
310
FFFFFFFFFFFFFFFFFFFFFFFFFFFFFFFFFFFFFFFFFFFFFFFFFFFFFFFFFFFFFFFF
310
FFFFFFFFFFFFFFFFFFFFFFFFFFFFFFFFFFFFFFFFFFFFFFFFFFFFFFFFFFFFFFFF
310
FFFFFFFFFFFFFFFFFFFFFFFFFFFFFFFFF000FFFFFFFFFFFFFFFFFFFFFFFFFFFF
310
FFFFFFFFFFFFFFFFFFFFFFFFFFFFFFFFFFFFFFFFFFFFFFFFFFFFFFFFFFFFFFFF
310
FFFFFFFFFFFFFFFFFFFFFFFFFFFFFFFFFFFFFFFFFFFFFFFFFFFFFFFFFFFFFFFF
310
FFFFFFFFFFFFFFFFF000FFFFFFFFFFFFFFFFFFFFFFFFFFFFFFFFFFFFFFFFFFFF
310
FFFFFFFFFFFFFFFFFFFFFFFFFFFFFFFFFFFFFFFFFFFFFFFFFFFFFFFFFFFFFFFF
310
FFFFFFFFFFFFFFFFFFFFFFFFFFFFFFFFFFFFFFFFFFFFFFFFFFFFFFFFFFFFFFFF
310
F000FFFFFFFFFFFFFFFFFFFFFFFFFFFFFFFFFFFFFFFFFFFFFFFFFFFFFFFFFFFF
310
FFFFFFFFFFFFFFFFFFFFFFFFFFFFFFFFFFFFFFFFFFFFFFFFFFFFFFFFFFFFFFFF
310
FFFFFFFFFFFFFFFFFFFFFFFFFFFFFFFFFFFFFFFFFFFFFFFFF000FFFFFFFFFFFF
310
FFFFFFFFFFFFFFFFFFFFFFFFFFFFFFFFFFFFFFFFFFFFFFFFFFFFFFFFFFFFFFFF
310
FFFFFFFFFFFFFFFFFFFFFFFFFFFFFFFFFFFFFFFFFFFFFFFFFFFFFFFFFFFFFFFF
310
FFFFFFFFFFFFFFFFFFFFFFFFFFFFFFFFF000FFFFFFFFFFFFFFFFFFFFFFFFFFFF
310
FFFFFFFFFFFFFFFFFFFFFFFFFFFFFFFFFFFFFFFFFFFFFFFFFFFFFFFFFFFFFFFF
310
FFFFFFFFFFFFFFFFFFFFFFFFFFFFFFFFFFFFFFFFFFFFFFFFFFFFFFFFFFFFFFFF
310
FFFFFFFFFFFFFFFFF000FFFFFFFFFFFFFFFFFFFFFFFFFFFFFFFFFFFFFFFFFFFF
310
FFFFFFFFFFFFFFFFFFFFFFFFFFFFFFFFFFFFFFFFFFFFFFFFFFFFFFFFFFFFFFFF
310
FFFFFFFFFFFFFFFFFFFFFFFFFFFFFFFFFFFFFFFFFFFFFFFFFFFFFFFFFFFFFFFF
310
F000FFFFFFFFFFFFFFFFFFFFFFFFFFFFFFFFFFFFFFFFFFFFFFFFFFFFFFFFFFFF
310
FFFFFFFFFFFFFFFFFFFFFFFFFFFFFFFFFFFFFFFFFFFFFFFFFFFFFFFFFFFFFFFF
310
FFFFFFFFFFFFFFFFFFFFFFFFFFFFFFFFFFFFFFFFFFFFFFFFF000FFFFFFFFFFFF
310
FFFFFFFFFFFFFFFFFFFFFFFFFFFFFFFFFFFFFFFFFFFFFFFFFFFFFFFFFFFFFFFF
310
FFFFFFFFFFFFFFFFFFFFFFFFFFFFFFFFFFFFFFFFFFFFFFFFFFFFFFFFFFFFFFFF
310
FFFFFFFFFFFFFFFFFFFFFFFFFFFFFFFFF000FFFFFFFFFFFFFFFFFFFFFFFFFFFF
310
FFFFFFFFFFFFFFFFFFFFFFFFFFFFFFFFFFFFFFFFFFFFFFFFFFFFFFFFFFFFFFFF
310
FFFFFFFFFFFFFFFFFFFFFFFFFFFFFFFFFFFFFFFFFFFFFFFFFFFFFFFFFFFFFFFF
310
FFFFFFFFFFFFFFFFF000FFFFFFFFFFFFFFFFFFFFFFFFFFFFFFFFFFFFFFFFFFFF
310
FFFFFFFFFFFFFFFFFFFFFFFFFFFFFFFFFFFFFFFFFFFFFFFFFFFFFFFFFFFFFFFF
310
FFFFFFFFFFFFFFFFFFFFFFFFFFFFFFFFFFFFFFFFFFFFFFFFFFFFFFFFFFFFFFFF
310
F000FFFFFFFFFFFFFFFFFFFFFFFFFFFFFFFFFFFFFFFFFFFFFFFFFFFFFFFFFFFF
310
FFFFFFFFFFFFFFFFFFFFFFFFFFFFFFFFFFFFFFFFFFFFFFFFFFFFFFFFFFFFFFFF
310
FFFFFFFFFFFFFFFFFFFFFFFFFFFFFFFFFFFFFFFFFFFFFFFFF000FFFFFFFFFFFF
310
FFFFFFFFFFFFFFFFFFFFFFFFFFFFFFFFFFFFFFFFFFFFFFFFFFFFFFFFFFFFFFFF
310
FFFFFFFFFFFFFFFFFFFFFFFFFFFFFFFFFFFFFFFFFFFFFFFFFFFFFFFFFFFFFFFF
310
FFFFFFFFFFFFFFFFFFFFFFFFFFFFFFFFF000FFFFFFFFFFFFFFFFFFFFFFFFFFFF
310
FFFFFFFFFFFFFFFFFFFFFFFFFFFFFFFFFFFFFFFFFFFFFFFFFFFFFFFFFFFFFFFF
310
FFFFFFFFFFFFFFFFFFFFFFFFFFFFFFFFFFFFFFFFFFFFFFFFFFFFFFFFFFFFFFFF
310
FFFFFFFFFFFFFFFFF000FFFFF80003FFFFFFFFFFFFFFFFFFFFFFFFFFFFFFFFFF
310
FFFFF00007FFFFFFFFFF00007FFFFFF800000000000000007FFFFFFFFFFFFFFF
310
FFFFFFFC001FFFFFFFFFFFFFFC001FFFFFFFFFFFFFFFFFFFFFFFFFFE0007FFFF
310
F000FFFF8000007FFFFFFFF8000FFFFFC0007FFFFF80007FFFFF0000007FFFFF
310
FFF8000007FFFFF800000000000000007FFFFFF0001FFFFFFFFFFFC00001FFFF
310
FFFFFFFFC00001FFFFFFFF000000000003FFFFE000007FFFF000FFFE0000000F
310
FFFFFFF0000FFFFF80007FFFFF80007FFFFC0000001FFFFFFFC0000001FFFFF8
310
00000000000000007FFFFFF0001FFFFFFFFFFE0000003FFFFFFFFFFE0000003F
310
FFFFFF000000000003FFFF0000000FFFF000FFF800000003FFFFFFF00007FFFF
310
80007FFFFF80007FFFF000000007FFFFFF000000003FFFF80000000000000000
310
7FFFFFF0001FFFFFFFFFF80000000FFFFFFFFFF80000000FFFFFFF0000000000
310
03FFFC00000003FFF000FFE000000000FFFFFFF00007FFFF80003FFFFF80007F
310
FFC000000001FFFFFC000000001FFFF800000000000000007FFFFFF0001FFFFF
310
FFFFE000000003FFFFFFFFE000000003FFFFFF000000000003FFF000000000FF
310
F000FF80000000007FFFFFF00007FFFF80003FFFFF80007FFF8000000000FFFF
310
F80000000007FFF800000000000000007FFFFFF0001FFFFFFFFFC000000001FF
310
FFFFFFC000000001FFFFFF000000000003FFC0000000007FF000FF0000000000
310
3FFFFFE00007FFFF00003FFFFF80007FFE00000000003FFFF00000000003FFF8
310
00000000000000007FFFFFF0001FFFFFFFFF8000000000FFFFFFFF8000000000
310
FFFFFF000000000003FF80000000003FF000FE00000000001FFFFFE00003FFFF
310
00003FFFFF80007FFC00000000001FFFE00000000001FFF8000001FFFE000000
310
7FFFFFF0001FFFFFFFFE00000000003FFFFFFE00000000003FFFFF0000000000
310
03FF00000000001FF000FC00000000000FFFFFE00003FFFF00001FFFFF80007F
310
F800000000001FFFC00000000000FFF8000001FFFE0000007FFFFFF0001FFFFF
310
FFFC00000000001FFFFFFC00000000001FFFFF000000000003FE00000000000F
310
F000F8000000000007FFFFE00003FFFF00001FFFFF80007FF800000000000FFF
310
800000000000FFF8000001FFFE0000007FFFFFF0001FFFFFFFF800000000000F
310
FFFFF800000000000FFFFF000000000003FC000000000007F000F80000000000
310
03FFFFC00003FFFE00001FFFFF80007FF0000000000007FF0000000000007FF8
310
000001FFFE0000007FFFFFF0001FFFFFFFF0000000000007FFFFF00000000000
310
07FFFF000000000003F8000000000003F000F0000000000003FFFFC00001FFFE
310
00001FFFFF80007FE0000000000007FE0000000000003FF8000001FFFE000000
310
7FFFFFF0001FFFFFFFF0000000000007FFFFF0000000000007FFFF0000000000
310
03F800001F800003F000E00001FFF00001FFFFC00001FFFE00000FFFFF80007F
310
E00001FFE00003FE00001FFF00003FF8000001FFFE0000007FFFFFF0001FFFFF
310
FFE000003E000003FFFFE000003E000003FFFF000000000003F00001FFF80001
310
F000E00007FFFC0001FFFFC00001FFFE00000FFFFF80007FC0000FFFFC0003FC
310
0000FFFFC0001FF8000001FFFE0000007FFFFFF0001FFFFFFFC00003FFE00001
310
FFFFC00003FFE00001FFFF0001FFFFFFFFF00007FFFE0001F000E0000FFFFF00
310
00FFFF800001FFFC00000FFFFF80007FC0001FFFFE0001FC0001FFFFE0001FF8
310
000001FFFE0000007FFFFFF0001FFFFFFF80000FFFF80000FFFF80000FFFF800
310
00FFFF0003FFFFFFFFE0000FFFFF8000F000C0003FFFFF8000FFFF800000FFFC
310
000007FFFF80007F80003FFFFF0001FC0003FFFFF0001FF8000001FFFE000000
310
7FFFFFF0001FFFFFFF80003FFFFE0000FFFF80003FFFFE0000FFFF0003FFFFFF
310
FFE0003FFFFF8000F000C0003FFFFF8000FFFF800000FFFC000007FFFF80007F
310
80007FFFFF8001F80007FFFFF8000FF8000001FFFE0000007FFFFFF0001FFFFF
310
FF00007FFFFF00007FFF00007FFFFF00007FFF0003FFFFFFFFE0003FFFFFC000
310
F000C0007FFFFFC000FFFF000000FFFC000007FFFF80007F8000FFFFFF8000F8
310
000FFFFFF8000FF8000001FFFE0000007FFFFFF0001FFFFFFF0000FFFFFF8000
310
7FFF0000FFFFFF80007FFF0003FFFFFFFFC0007FFFFFC00070008000FFFFFFC0
310
00FFFF000000FFF8000007FFFF80007F8000FFFFFF8000F8000FFFFFF8000FF8
310
000001FFFE0000007FFFFFF0001FFFFFFE0001FFFFFFC0003FFE0001FFFFFFC0
310
003FFF0003FFFFFFFFC0007FFFFFE00070008000FFFFFFC0007FFF0000007FF8
310
000003FFFF80007F0001FFFFFF8000F8000FFFFFF8000FF8000001FFFE000000
310
7FFFFFF0001FFFFFFE0001FFFFFFC0003FFE0001FFFFFFC0003FFF0003FFFFFF
310
FFC000FFFFFFE00070008000FFFFFFC0007FFF0000007FF8000003FFFF80007F
310
0001FFFFFF8000F8001FFFFFF8000FF8000001FFFE0000007FFFFFF0001FFFFF
310
FE0003FFFFFFE0003FFE0003FFFFFFE0003FFF0003FFFFFFFFC000FFFFFFE000
310
70008000FFFFFFC0007FFE0000007FF8000003FFFF80007F0001FFFFFF8000F0
310
001FFFFFF8000FF8000001FFFE0000007FFFFFF0001FFFFFFC0003FFFFFFE000
310
1FFC0003FFFFFFE0001FFF0003FFFFFFFFC000FFFFFFC00070008000FFFFFF80
310
007FFE0000007FF0000003FFFF80007F0001FFFFFF0000F0001FFFFFF8000FF8
310
000001FFFE0000007FFFFFF0001FFFFFFC0007FFFFFFF0001FFC0007FFFFFFF0
310
001FFF0003FFFFFFFFC000FFFFFFC00070008001FFFFFF0000FFFE0000003FF0
310
000001FFFF80007F0001FFFFFF0000F8001FFFFFF0000FF8000001FFFE000000
310
7FFFFFF0001FFFFFFC0007FFFFFFF0001FFC0007FFFFFFF0001FFF0003FFFFFF
310
FFC001FFFFFF80007000FFFFFFFFFE0000FFFE0008003FF0008001FFFF80007F
310
FFFFFFFFFC0000FFFFFFFFFFE0000FF8000001FFFE0000007FFFFFF0001FFFFF
310
F8000FFFFFFFF8000FF8000FFFFFFFF8000FFF0003FFFFFFFFFFFFFFFFFF0000
310
7000FFFFFFFFFC0000FFFC0008003FF0008001FFFF80007FFFFFFFFFF80001FF
310
FFFFFFFF80000FF8000001FFFE0000007FFFFFF0001FFFFFF8000FFFFFFFF800
310
0FF8000FFFFFFFF8000FFF0003FFFFFFFFFFFFFFFFFE0000F000FFFFFFFFE000
310
00FFFC000C003FE000C001FFFF80007FFFFFFFFFC00001FFFFFFFFFE00001FF8
310
000001FFFE0000007FFFFFF0001FFFFFF8000FFFFFFFF8000FF8000FFFFFFFF8
310
000FFF0003FFFFFFFFFFFFFFFFF00000F000FFFFFFFE000001FFFC000C001FE0
310
00C000FFFF80007FFFFFFFFE000001FFFFFFFFE000001FF80FFFFFFFFFFFFFC0
310
7FFFFFF0001FFFFFF8000FFFFFFFF8000FF8000FFFFFFFF8000FFF0003FFFFFF
310
FFFFFFFFFF800000F000FFFFFFC0000001FFFC001C001FE001C000FFFF80007F
310
FFFFFF80000003FFFFFFF80000001FF80FFFFFFFFFFFFFC07FFFFFF0001FFFFF
310
F8001FFFFFFFFC000FF8001FFFFFFFFC000FFF0003FFFFFFFFFFFFFFF0000001
310
F000FFFFF800000001FFF8001C001FE001C000FFFF80007FFFFFF800000003FF
310
FFFF800000003FF80FFFFFFFFFFFFFC07FFFFFF0001FFFFFF8001FFFFFFFFC00
310
0FF8001FFFFFFFFC000FFF0003FFFFFFFFFFFFFE00000001F000FFFFC0000000
310
03FFF8001E001FC001E000FFFF80007FFFFF8000000007FFFFFC000000003FF8
310
0FFFFFFFFFFFFFC07FFFFFF0001FFFFFF8001FFFFFFFFC000FF8001FFFFFFFFC
310
000FFF0003FFFFFFFFFFFFE000000003F000FFFE0000000007FFF8001E000FC0
310
01E0007FFF80007FFFFE0000000007FFFFE0000000007FF80FFFFFFFFFFFFFC0
310
7FFFFFF0001FFFFFF0001FFFFFFFFC0007F0001FFFFFFFFC0007FF0003FFFFFF
310
FFFFFF0000000003F000FFF80000000007FFF8001E000FC003E0007FFF80007F
310
FFF0000000000FFFFF8000000000FFF80FFFFFFFFFFFFFC07FFFFFF0001FFFFF
310
F0001FFFFFFFFC0007F0001FFFFFFFFC0007FF0003FFFFFFFFFFFC0000000007
310
F000FFE0000000000FFFF0003E000FC003E0007FFF80007FFFC0000000001FFF
310
FE0000000001FFF80FFFFFFFFFFFFFC07FFFFFF0001FFFFFF0001FFFFFFFFC00
310
07F0001FFFFFFFFC0007FF0003FFFFFFFFFFF0000000000FF000FFC000000000
310
1FFFF0003F000F8003F0003FFF80007FFF80000000003FFFF80000000003FFF8
310
0FFFFFFFFFFFFFC07FFFFFF0001FFFFFF0001FFFFFFFFC0007F0001FFFFFFFFC
310
0007FF0003FFFFFFFFFFE0000000001FF000FF00000000007FFFF0003F000780
310
03F0003FFF80007FFF00000000007FFFF00000000007FFF80FFFFFFFFFFFFFC0
310
7FFFFFF0001FFFFFF0001FFFFFFFFC0007F0001FFFFFFFFC0007FF0003FFFFFF
310
FFFF80000000007FF000FE0000000000FFFFE0003F00078007F0003FFF80007F
310
FE0000000001FFFFE0000000001FFFF80FFFFFFFFFFFFFC07FFFFFF0001FFFFF
310
F0001FFFFFFFFC0007F0001FFFFFFFFC0007FF0003FFFFFFFFFF0000000000FF
310
F000FC0000000003FFFFE0007F00078007F0003FFF80007FFC0000000007FFFF
310
C0000000007FFFF80FFFFFFFFFFFFFC07FFFFFF0001FFFFFF8001FFFFFFFFC00
310
0FF8001FFFFFFFFC000FFF0003FFFFFFFFFE0000000003FFF000FC000000000F
310
FFFFE0007F80070007F8001FFF80007FF8000000001FFFFF8000000001FFFFF8
310
0FFFFFFFFFFFFFC07FFFFFF0001FFFFFF8001FFFFFFFFC000FF8001FFFFFFFFC
310
000FFF0003FFFFFFFFFC000000000FFFF000F8000000007FFFFFE0007F800700
310
07F8001FFF80007FF000000000FFFFFF800000000FFFFFF80FFFFFFFFFFFFFC0
310
7FFFFFF0001FFFFFF8000FFFFFFFF8000FF8000FFFFFFFF8000FFF0003FFFFFF
310
FFFC000000007FFFF000F800000007FFFFFFC0007F8003000FF8001FFF80007F
310
F000000007FFFFFF000000007FFFFFF80FFFFFFFFFFFFFC07FFFFFF0001FFFFF
310
F8000FFFFFFFF8000FF8000FFFFFFFF8000FFF0003FFFFFFFFF80000000FFFFF
310
F000F0000000FFFFFFFFC000FF8003000FF8001FFF80007FE0000000FFFFFFFF
310
0000000FFFFFFFF8000001FFFE0000007FFFFFF0001FFFFFF8000FFFFFFFF800
310
0FF8000FFFFFFFF8000FFF0003FFFFFFFFF8000000FFFFFFF000F000000FFFFF
310
FFFFC000FFC002000FF8000FFF80007FE000001FFFFFFFFE000001FFFFFFFFF8
310
000001FFFE0000007FFFFFF0001FFFFFF8000FFFFFFFF8000FF8000FFFFFFFF8
310
000FFF0003FFFFFFFFF000001FFFFFFFF000E00000FFFFFFFFFFC000FFC00200
310
0FFC000FFF80007FE00001FFFFFFFFFE00001FFFFFFFFFF8000001FFFE000000
310
7FFFFFF0001FFFFFFC000FFFFFFFF8001FFC000FFFFFFFF8001FFF0003FFFFFF
310
FFF00001FFFFFFFFF000E00007FFFFFFFFFF8000FFC000001FFC000FFF80007F
310
C0000FFFFFFFFFFE0000FFFFFFFFFFF8000001FFFE0000007FFFFFF0001FFFFF
310
FC0007FFFFFFF0001FFC0007FFFFFFF0001FFF0003FFFFFFFFF00007FFFFFFFF
310
F000E0001FFFFFFFFFFF8000FFC000001FFC000FFF80007FC0003FFFFFFFFFFE
310
0001FFFFFFFFFFF8000001FFFE0000007FFFFFF0001FFFFFFC0007FFFFFFF000
310
1FFC0007FFFFFFF0001FFF0003FFFFFFFFF0001FFFFFFFFFF000E0003FFFFF00
310
03FF8001FFE000001FFC0007FF80007FC0007FFFFF0007FC0003FFFFF0003FF8
310
000001FFFE0000007FFFFFF0001FFFFFFC0003FFFFFFE0001FFC0003FFFFFFE0
310
001FFF0003FFFFFFFFF0003FFFFFFFFFF000E0003FFFFF0001FF8001FFE00000
310
1FFE0007FF80007FC0007FFFFE0003FC0007FFFFE0003FF8000001FFFE000000
310
7FFFFFF0001FFFFFFE0003FFFFFFE0003FFE0003FFFFFFE0003FFF0003FFFFFF
310
FFF0003FFFFF8001F000E0003FFFFF0001FF0001FFE000001FFE0007FF80007F
310
C0007FFFFE0003FC0007FFFFE0003FF8000001FFFE0000007FFFFFF0001FFFFF
310
FE0001FFFFFFC0003FFE0001FFFFFFC0003FFF0003FFFFFFFFF0003FFFFF0001
310
F000E0003FFFFF0003FF0001FFE000003FFE0007FF80007FC0007FFFFE0003FC
310
0007FFFFE0003FF8000001FFFE0000007FFFFFF0001FFFFFFF0001FFFFFFC000
310
7FFF0001FFFFFFC0007FFF0003FFFFFFFFF0003FFFFF0001F000E0003FFFFE00
310
03FF0003FFF000003FFE0003FF80007FC0007FFFFC0003FE0007FFFFE0003FF8
310
000001FFFE0000007FFFFFF0001FFFFFFF0000FFFFFF80007FFF0000FFFFFF80
310
007FFF0003FFFFFFFFF0003FFFFF0001F000E0003FFFFE0003FF0003FFF00000
310
3FFF0003FF80007FC0007FFFFC0007FE0007FFFFC0003FF8000001FFFE000000
310
7FFFFFF0001FFFFFFF80007FFFFF0000FFFF80007FFFFF0000FFFF0003FFFFFF
310
FFF0003FFFFF0003F000E0003FFFFC0003FE0003FFF000003FFF0003FF80007F
310
E0003FFFF80007FE0003FFFFC0007FF8000001FFFE0000007FFFFFF0001FFFFF
310
FF80003FFFFE0000FFFF80003FFFFE0000FFFF0003FFFFFFFFF0001FFFFE0003
310
F000F0001FFFF80003FE0003FFF000007FFF0001FF80007FE0003FFFF00007FE
310
0001FFFF80007FF8000001FFFE0000007FFFFFF0001FFFFFFFC0000FFFF80001
310
FFFFC0000FFFF80001FFFF0003FFFFFFFFF0001FFFFC0003F000F0000FFFF000
310
07FE0007FFF800007FFF0001FF80007FE0001FFFE00007FF0000FFFE00007FF8
310
000001FFFE0000007FFFFFF0001FFFFFFFC00003FFE00001FFFFC00003FFE000
310
01FFFF0003FFFFFFFFF8000FFFF80003F000F00003FFC00007FC0007FFF80000
310
7FFF8001FF80007FF00007FF80000FFF00007FF80000FFF8000001FFFE000000
310
7F80000000000001FFE000003E000003FFFFE000003E000003FFFF0003FFFFFF
310
FFF80003FFE00007F000F800000000000FFC0007FFF800007FFF8001FF80007F
310
F000000000000FFF000000000000FFF8000001FFFE0000007F80000000000001
310
FFF0000000000007FFFFF0000000000007FFFF0003FFFFFFFFFC00007E000007
310
F000F800000000000FFC0007FFF80000FFFF8000FF80007FF800000000001FFF
310
800000000001FFF8000001FFFE0000007F80000000000001FFF800000000000F
310
FFFFF800000000000FFFFF0003FFFFFFFFFC00000000000FF000FC0000000000
310
1FFC0007FFFC0000FFFF8000FF80007FF800000000003FFFC00000000001FFF8
310
000001FFFE0000007F80000000000001FFF800000000000FFFFFF80000000000
310
0FFFFF0003FFFFFFFFFE00000000001FF000FE00000000003FF8000FFFFC0000
310
FFFF8000FF80007FFC00000000003FFFC00000000003FFF8000001FFFE000000
310
7F80000000000001FFFC00000000001FFFFFFC00000000001FFFFF0003FFFFFF
310
FFFF00000000001FF000FF00000000003FF8000FFFFC0000FFFFC000FF80007F
310
FE00000000007FFFE00000000007FFF8000001FFFE0000007F80000000000001
310
FFFE00000000003FFFFFFE00000000003FFFFF0003FFFFFFFFFF80000000003F
310
F000FF80000000007FF8000FFFFC0001FFFFC0007F80007FFF0000000000FFFF
310
F0000000000FFFF800000000000000007F80000000000001FFFF8000000000FF
310
FFFFFF8000000000FFFFFF0003FFFFFFFFFFC0000000007FF000FFC000000000
310
FFF8000FFFFE0001FFFFC0007F80007FFF8000000001FFFFF8000000001FFFF8
310
00000000000000007F80000000000001FFFFC000000001FFFFFFFFC000000001
310
FFFFFF0003FFFFFFFFFFE000000000FFF000FFE000000003FFF0001FFFFE0001
310
FFFFC0007F80007FFFC000000007FFFFFE000000003FFFF80000000000000000
310
7F80000000000001FFFFE000000003FFFFFFFFE000000003FFFFFF0003FFFFFF
310
FFFFF000000003FFF000FFF80000000FFFF0001FFFFE0001FFFFE0007F80007F
310
FFF00000000FFFFFFF00000000FFFFF800000000000000007F80000000000001
310
FFFFF80000000FFFFFFFFFF80000000FFFFFFF0003FFFFFFFFFFFC0000000FFF
310
F000FFFE0000003FFFF0001FFFFE0003FFFFE0003F80007FFFFC0000003FFFFF
310
FFC0000003FFFFF800000000000000007F80000000000001FFFFFE0000003FFF
310
FFFFFFFE0000003FFFFFFF0003FFFFFFFFFFFF0000003FFFF000FFFF800000FF
310
FFF0001FFFFF0003FFFFE0003F80007FFFFF000001FFFFFFFFF800001FFFFFF8
310
00000000000000007F80000000000001FFFFFFC00001FFFFFFFFFFFFC00001FF
310
FFFFFF0003FFFFFFFFFFFFC00000FFFFF000FFFFF8000FFFFFFFFFFFFFFFFFFF
310
FFFFFFFFFFFFFFFFFFFFF0001FFFFFFFFFFF0000FFFFFFF80000000000000000
310
7FFFFFFFFFFFFFFFFFFFFFFC001FFFFFFFFFFFFFFC001FFFFFFFFFFFFFFFFFFF
310
FFFFFFFC001FFFFFF000FFFFFFFFFFFFFFFFFFFFFFFFFFFFFFFFFFFFFFFFFFFF
310
FFFFFFFFFFFFFFFFFFFFFFFFFFFFFFFFFFFFFFFFFFFFFFFFFFFFFFFFFFFFFFFF
310
FFFFFFFFFFFFFFFFFFFFFFFFFFFFFFFFFFFFFFFFFFFFFFFFFFFFFFFFFFFFFFFF
310
F000FFFFFFFFFFFFFFFFFFFFFFFFFFFFFFFFFFFFFFFFFFFFFFFFFFFFFFFFFFFF
310
FFFFFFFFFFFFFFFFFFFFFFFFFFFFFFFFFFFFFFFFFFFFFFFFFFFFFFFFFFFFFFFF
310
FFFFFFFFFFFFFFFFFFFFFFFFFFFFFFFFFFFFFFFFFFFFFFFFF000FFFFFFFFFFFF
310
FFFFFFFFFFFFFFFFFFFFFFFFFFFFFFFFFFFFFFFFFFFFFFFFFFFFFFFFFFFFFFFF
310
FFFFFFFFFFFFFFFFFFFFFFFFFFFFFFFFFFFFFFFFFFFFFFFFFFFFFFFFFFFFFFFF
310
FFFFFFFFFFFFFFFFFFFFFFFFFFFFFFFFF000FFFFFFFFFFFFFFFFFFFFFFFFFFFF
310
FFFFFFFFFFFFFFFFFFFFFFFFFFFFFFFFFFFFFFFFFFFFFFFFFFFFFFFFFFFFFFFF
310
FFFFFFFFFFFFFFFFFFFFFFFFFFFFFFFFFFFFFFFFFFFFFFFFFFFFFFFFFFFFFFFF
310
FFFFFFFFFFFFFFFFF000FFFFFFFFFFFFFFFFFFFFFFFFFFFFFFFFFFFFFFFFFFFF
310
FFFFFFFFFFFFFFFFFFFFFFFFFFFFFFFFFFFFFFFFFFFFFFFFFFFFFFFFFFFFFFFF
310
FFFFFFFFFFFFFFFFFFFFFFFFFFFFFFFFFFFFFFFFFFFFFFFFFFFFFFFFFFFFFFFF
310
F000FFFFFFFFFFFFFFFFFFFFFFFFFFFFFFFFFFFFFFFFFFFFFFFFFFFFFFFFFFFF
310
FFFFFFFFFFFFFFFFFFFFFFFFFFFFFFFFFFFFFFFFFFFFFFFFFFFFFFFFFFFFFFFF
310
FFFFFFFFFFFFFFFFFFFFFFFFFFFFFFFFFFFFFFFFFFFFFFFFF000FFFFFFFFFFFF
310
FFFFFFFFFFFFFFFFFFFFFFFFFFFFFFFFFFFFFFFFFFFFFFFFFFFFFFFFFFFFFFFF
310
FFFFFFFFFFFFFFFFFFFFFFFFFFFFFFFFFFFFFFFFFFFFFFFFFFFFFFFFFFFFFFFF
310
FFFFFFFFFFFFFFFFFFFFFFFFFFFFFFFFF000FFFFFFFFFFFFFFFFFFFFFFFFFFFF
310
FFFFFFFFFFFFFFFFFFFFFFFFFFFFFFFFFFFFFFFFFFFFFFFFFFFFFFFFFFFFFFFF
310
FFFFFFFFFFFFFFFFFFFFFFFFFFFFFFFFFFFFFFFFFFFFFFFFFFFFFFFFFFFFFFFF
310
FFFFFFFFFFFFFFFFF000FFFFFFFFFFFFFFFFFFFFFFFFFFFFFFFFFFFFFFFFFFFF
310
FFFFFFFFFFFFFFFFFFFFFFFFFFFFFFFFFFFFFFFFFFFFFFFFFFFFFFFFFFFFFFFF
310
FFFFFFFFFFFFFFFFFFFFFFFFFFFFFFFFFFFFFFFFFFFFFFFFFFFFFFFFFFFFFFFF
310
F000FFFFFFFFFFFFFFFFFFFFFFFFFFFFFFFFFFFFFFFFFFFFFFFFFFFFFFFFFFFF
310
FFFFFFFFFFFFFFFFFFFFFFFFFFFFFFFFFFFFFFFFFFFFFFFFFFFFFFFFFFFFFFFF
310
FFFFFFFFFFFFFFFFFFFFFFFFFFFFFFFFFFFFFFFFFFFFFFFFF000FFFFFFFFFFFF
310
FFFFFFFFFFFFFFFFFFFFFFFFFFFFFFFFFFFFFFFFFFFFFFFFFFFFFFFFFFFFFFFF
310
FFFFFFFFFFFFFFFFFFFFFFFFFFFFFFFFFFFFFFFFFFFFFFFFFFFFFFFFFFFFFFFF
310
FFFFFFFFFFFFFFFFFFFFFFFFFFFFFFFFF000FFFFFFFFFFFFFFFFFFFFFFFFFFFF
310
FFFFFFFFFFFFFFFFFFFFFFFFFFFFFFFFFFFFFFFFFFFFFFFFFFFFFFFFFFFFFFFF
310
FFFFFFFFFFFFFFFFFFFFFFFFFFFFFFFFFFFFFFFFFFFFFFFFFFFFFFFFFFFFFFFF
310
FFFFFFFFFFFFFFFFF000FFFFFFFFFFFFFFFFFFFFFFFFFFFFFFFFFFFFFFFFFFFF
310
FFFFFFFFFFFFFFFFFFFFFFFFFFFFFFFFFFFFFFFFFFFFFFFFFFFFFFFFFFFFFFFF
310
FFFFFFFFFFFFFFFFFFFFFFFFFFFFFFFFFFFFFFFFFFFFFFFFFFFFFFFFFFFFFFFF
310
F000FFFFFFFFFFFFFFFFFFFFFFFFFFFFFFFFFFFFFFFFFFFFFFFFFFFFFFFFFFFF
310
FFFFFFFFFFFFFFFFFFFFFFFFFFFFFFFFFFFFFFFFFFFFFFFFFFFFFFFFFFFFFFFF
310
FFFFFFFFFFFFFFFFFFFFFFFFFFFFFFFFFFFFFFFFFFFFFFFFF000FFFFFFFFFFFF
310
FFFFFFFFFFFFFFFFFFFFFFFFFFFFFFFFFFFFFFFFFFFFFFFFFFFFFFFFFFFFFFFF
310
FFFFFFFFFFFFFFFFFFFFFFFFFFFFFFFFFFFFFFFFFFFFFFFFFFFFFFFFFFFFFFFF
310
FFFFFFFFFFFFFFFFFFFFFFFFFFFFFFFFF000FFFFFFFFFFFFFFFFFFFFFFFFFFFF
310
FFFFFFFFFFFFFFFFFFFFFFFFFFFFFFFFFFFFFFFFFFFFFFFFFFFFFFFFFFFFFFFF
310
FFFFFFFFFFFFFFFFFFFFFFFFFFFFFFFFFFFFFFFFFFFFFFFFFFFFFFFFFFFFFFFF
310
FFFFFFFFFFFFFFFFF000FFFFFFFFFFFFFFFFFFFFFFFFFFFFFFFFFFFFFFFFFFFF
310
FFFFFFFFFFFFFFFFFFFFFFFFFFFFFFFFFFFFFFFFFFFFFFFFFFFFFFFFFFFFFFFF
310
FFFFFFFFFFFFFFFFFFFFFFFFFFFFFFFFFFFFFFFFFFFFFFFFFFFFFFFFFFFFFFFF
310
F000FFFFFFFFFFFFFFFFFFFFFFFFFFFFFFFFFFFFFFFFFFFFFFFFFFFFFFFFFFFF
310
FFFFFFFFFFFFFFFFFFFFFFFFFFFFFFFFFFFFFFFFFFFFFFFFFFFFFFFFFFFFFFFF
310
FFFFFFFFFFFFFFFFFFFFFFFFFFFFFFFFFFFFFFFFFFFFFFFFF000FFFFFFFFFFFF
310
FFFFFFFFFFFFFFFFFFFFFFFFFFFFFFFFFFFFFFFFFFFFFFFFFFFFFFFFFFFFFFFF
310
FFFFFFFFFFFFFFFFFFFFFFFFFFFFFFFFFFFFFFFFFFFFFFFFFFFFFFFFFFFFFFFF
310
FFFFFFFFFFFFFFFFFFFFFFFFFFFFFFFFF000FFFFFFFFFFFFFFFFFFFFFFFFFFFF
310
FFFFFFFFFFFFFFFFFFFFFFFFFFFFFFFFFFFFFFFFFFFFFFFFFFFFFFFFFFFFFFFF
310
FFFFFFFFFFFFFFFFFFFFFFFFFFFFFFFFFFFFFFFFFFFFFFFFFFFFFFFFFFFFFFFF
310
FFFFFFFFFFFFFFFFF000FFFFFFFFFFFFFFFFFFFFFFFFFFFFFFFFFFFFFFFFFFFF
310
FFFFFFFFFFFFFFFFFFFFFFFFFFFFFFFFFFFFFFFFFFFFFFFFFFFFFFFFFFFFFFFF
310
FFFFFFFFFFFFFFFFFFFFFFFFFFFFFFFFFFFFFFFFFFFFFFFFFFFFFFFFFFFFFFFF
310
F000FFFFFFFFFFFFFFFFFFFFFFFFFFFFFFFFFFFFFFFFFFFFFFFFFFFFFFFFFFFF
310
FFFFFFFFFFFFFFFFFFFFFFFFFFFFFFFFFFFFFFFFFFFFFFFFFFFFFFFFFFFFFFFF
310
FFFFFFFFFFFFFFFFFFFFFFFFFFFFFFFFFFFFFFFFFFFFFFFFF000FFFFFFFFFFFF
310
FFFFFFFFFFFFFFFFFFFFFFFFFFFFFFFFFFFFFFFFFFFFFFFFFFFFFFFFFFFFFFFF
310
FFFFFFFFFFFFFFFFFFFFFFFFFFFFFFFFFFFFFFFFFFFFFFFFFFFFFFFFFFFFFFFF
310
FFFFFFFFFFFFFFFFFFFFFFFFFFFFFFFFF0000000000000000000000000000000
310
000000002F2DED3DB4C3B23D9A95EE3D22CFB23D5248F13D58C2B23DF6B1F33D
310
CA87B23DF52FF53D7C53B23D95B3F63DD60FB23D3AC7F73D39D6B13DE27AF83D
310
FAACB13D9FF7F83D9A8BB13D05F7F83DC38BB13D077FF83DCDABB13D49CEF73D
310
87D4B13D57BEF63DAD0DB23D7039F53DE451B23D98BAF33D9F86B23D6F54F13D
310
A5C1B23D8C9FEE3D52CFB23D8D36ED3D39C4B23DB3E1EB3D2CADB23D46B1EA3D
310
4D8FB23D1F01EA3DEE79B23D7A9BE93DAF68B23DEE9BE93DC368B23D91FEE93D
310
7D79B23DA0ACEA3DAE8EB23D9378EB3DDBA2B23DCA23ED3D357F083EF6D8EB3D
310
BD8A083EB37DEB3D408F083E7BACEA3D9899083E85FEE93D30A4083EF39BE93D
310
8EAC083E799BE93D99AC083EA500EA3DFEA3083E81B0EA3D5199083EAFE0EB3D
310
658A083ED435ED3DDD7E083E419FEE3D4F79083E1F55F13D2280083EAEB9F33D
310
8B9D083E8E37F53DD5B7083EC0BBF63DD7D9083E0DCDF73D84F6083E9B7EF83D
310
F60A093E10F7F83D111B093E9EF7F83D241B093E576BF83D2009093EAAD8F63D
310
98DC083E3372F53DAEBB083E4239F43D41A4083EA9AFF23DEE8D083EB22FF13D
310
7E7F083EE87BEE3D4679083ECA23ED3D357F083E7EC37D3EC6DCE33D7EC37D3E
310
F4E0E13D7EC37D3E23E5DF3D7EC37D3EB204DE3D7EC37D3E8859DC3D7EC37D3E
  1
OLE
  0
ENDSEC
  0
SECTION
  2
OBJECTS
  0
DICTIONARY
  5
C
330
0
100
AcDbDictionary
281
     1
  3
ACAD_GROUP
350
D
  3
ACAD_LAYOUT
350
1A
  3
ACAD_MLEADERSTYLE
350
2A3
  3
ACAD_MLINESTYLE
350
17
  3
ACAD_PLOTSETTINGS
350
19
  3
ACAD_PLOTSTYLENAME
350
E
  3
ACAD_TABLESTYLE
350
2A2
  3
ACAD_VISUALSTYLE
350
2A
  3
AcDbVariableDictionary
350
2A4
  0
DICTIONARY
  5
D
102
{ACAD_REACTORS
330
C
102
}
330
C
100
AcDbDictionary
281
     1
  0
DICTIONARY
  5
1A
102
{ACAD_REACTORS
330
C
102
}
330
C
100
AcDbDictionary
281
     1
  3
Layout1
350
1E
  3
Layout2
350
26
  3
Model
350
22
  0
DICTIONARY
  5
2A3
102
{ACAD_REACTORS
330
C
102
}
330
C
100
AcDbDictionary
281
     1
  0
DICTIONARY
  5
17
102
{ACAD_REACTORS
330
C
102
}
330
C
100
AcDbDictionary
281
     1
  3
Standard
350
18
  0
DICTIONARY
  5
19
102
{ACAD_REACTORS
330
C
102
}
330
C
100
AcDbDictionary
281
     1
  0
ACDBDICTIONARYWDFLT
  5
E
102
{ACAD_REACTORS
330
C
102
}
330
C
100
AcDbDictionary
281
     1
  3
Normal
350
F
100
AcDbDictionaryWithDefault
340
F
  0
DICTIONARY
  5
2A2
102
{ACAD_REACTORS
330
C
102
}
330
C
100
AcDbDictionary
281
     1
  0
DICTIONARY
  5
2A
102
{ACAD_REACTORS
330
C
102
}
330
C
100
AcDbDictionary
281
     1
  3
2dWireframe
350
2F
  3
3D Hidden
350
31
  3
3dWireframe
350
30
  3
Basic
350
32
  3
Brighten
350
36
  3
ColorChange
350
3A
  3
Conceptual
350
34
  3
Dim
350
35
  3
Facepattern
350
39
  3
Flat
350
2B
  3
FlatWithEdges
350
2C
  3
Gouraud
350
2D
  3
GouraudWithEdges
350
2E
  3
Linepattern
350
38
  3
Realistic
350
33
  3
Thicken
350
37
  0
DICTIONARY
  5
2A4
102
{ACAD_REACTORS
330
C
102
}
330
C
100
AcDbDictionary
281
     1
  3
PSOLHEIGHT
350
2A6
  3
PSOLWIDTH
350
2A5
  0
LAYOUT
  5
1E
102
{ACAD_REACTORS
330
1A
102
}
330
1A
100
AcDbPlotSettings
  1

  2
none_device
  4

  6

 40
0.0
 41
0.0
 42
0.0
 43
0.0
 44
0.0
 45
0.0
 46
0.0
 47
0.0
 48
0.0
 49
0.0
140
0.0
141
0.0
142
1.0
143
1.0
 70
   688
 72
     0
 73
     0
 74
     5
  7

 75
    16
147
1.0
148
0.0
149
0.0
100
AcDbLayout
  1
Layout1
 70
     1
 71
     1
 10
0.0
 20
0.0
 11
420.0
 21
297.0
 12
0.0
 22
0.0
 32
0.0
 14
1.0000000000E+20
 24
1.0000000000E+20
 34
1.0000000000E+20
 15
-1.0000000000E+20
 25
-1.0000000000E+20
 35
-1.0000000000E+20
146
0.0
 13
0.0
 23
0.0
 33
0.0
 16
1.0
 26
0.0
 36
0.0
 17
0.0
 27
1.0
 37
0.0
 76
     0
330
1B
  0
LAYOUT
  5
26
102
{ACAD_REACTORS
330
1A
102
}
330
1A
100
AcDbPlotSettings
  1

  2
none_device
  4

  6

 40
0.0
 41
0.0
 42
0.0
 43
0.0
 44
0.0
 45
0.0
 46
0.0
 47
0.0
 48
0.0
 49
0.0
140
0.0
141
0.0
142
1.0
143
1.0
 70
   688
 72
     0
 73
     0
 74
     5
  7

 75
    16
147
1.0
148
0.0
149
0.0
100
AcDbLayout
  1
Layout2
 70
     1
 71
     2
 10
0.0
 20
0.0
 11
0.0
 21
0.0
 12
0.0
 22
0.0
 32
0.0
 14
0.0
 24
0.0
 34
0.0
 15
0.0
 25
0.0
 35
0.0
146
0.0
 13
0.0
 23
0.0
 33
0.0
 16
1.0
 26
0.0
 36
0.0
 17
0.0
 27
1.0
 37
0.0
 76
     0
330
23
  0
LAYOUT
  5
22
102
{ACAD_REACTORS
330
1A
102
}
330
1A
100
AcDbPlotSettings
  1

  2
none_device
  4

  6

 40
0.0
 41
0.0
 42
0.0
 43
0.0
 44
0.0
 45
0.0
 46
0.0
 47
0.0
 48
0.0
 49
0.0
140
0.0
141
0.0
142
1.0
143
1.0
 70
  1712
 72
     0
 73
     0
 74
     0
  7

 75
     0
147
1.0
148
0.0
149
0.0
100
AcDbLayout
  1
Model
 70
     1
 71
     0
 10
0.0
 20
0.0
 11
297.0
 21
210.0
 12
0.0
 22
0.0
 32
0.0
 14
0.0
 24
0.0
 34
0.0
 15
297.0
 25
210.0
 35
0.0
146
0.0
 13
0.0
 23
0.0
 33
0.0
 16
1.0
 26
0.0
 36
0.0
 17
0.0
 27
1.0
 37
0.0
 76
     0
330
1F
331
29
  0
MLINESTYLE
  5
18
102
{ACAD_REACTORS
330
17
102
}
330
17
100
AcDbMlineStyle
  2
Standard
 70
     0
  3

 62
   256
 51
90.0
 52
90.0
 71
     2
 49
0.5
 62
   256
  6
BYLAYER
 49
-0.5
 62
   256
  6
BYLAYER
  0
ACDBPLACEHOLDER
  5
F
102
{ACAD_REACTORS
330
E
102
}
330
E
  0
VISUALSTYLE
  5
2F
102
{ACAD_REACTORS
330
2A
102
}
330
2A
100
AcDbVisualStyle
  2
2dWireframe
 70
     4
 71
     0
 72
     2
 73
     0
 90
        0
 40
-0.6
 41
-30.0
 62
     5
 63
     7
 74
     1
 91
        4
 64
     7
 65
   257
 75
     1
175
     1
 42
1.0
 92
        0
 66
   257
 43
1.0
 76
     1
 77
     6
 78
     2
 67
     7
 79
     5
170
     0
171
     0
290
     0
174
     0
 93
        1
 44
0.0
173
     0
291
     0
 45
0.0
1001
ACAD
1000
AcDbSavedByObjectVersion
1070
     0
  0
VISUALSTYLE
  5
31
102
{ACAD_REACTORS
330
2A
102
}
330
2A
100
AcDbVisualStyle
  2
3D Hidden
 70
     6
 71
     1
 72
     2
 73
     2
 90
        0
 40
-0.6
 41
-30.0
 62
     5
 63
     7
 74
     2
 91
        2
 64
     7
 65
   257
 75
     2
175
     1
 42
40.0
 92
        0
 66
   257
 43
1.0
 76
     1
 77
     6
 78
     2
 67
     7
 79
     3
170
     0
171
     0
290
     0
174
     0
 93
        1
 44
0.0
173
     0
291
     0
 45
0.0
1001
ACAD
1000
AcDbSavedByObjectVersion
1070
     0
  0
VISUALSTYLE
  5
30
102
{ACAD_REACTORS
330
2A
102
}
330
2A
100
AcDbVisualStyle
  2
3dWireframe
 70
     5
 71
     0
 72
     2
 73
     0
 90
        0
 40
-0.6
 41
-30.0
 62
     5
 63
     7
 74
     1
 91
        4
 64
     7
 65
   257
 75
     1
175
     1
 42
1.0
 92
        0
 66
   257
 43
1.0
 76
     1
 77
     6
 78
     2
 67
     7
 79
     5
170
     0
171
     0
290
     0
174
     0
 93
        1
 44
0.0
173
     0
291
     0
 45
0.0
1001
ACAD
1000
AcDbSavedByObjectVersion
1070
     0
  0
VISUALSTYLE
  5
32
102
{ACAD_REACTORS
330
2A
102
}
330
2A
100
AcDbVisualStyle
  2
Basic
 70
     7
 71
     1
 72
     0
 73
     1
 90
        0
 40
-0.6
 41
-30.0
 62
     5
 63
     7
 74
     0
 91
        4
 64
     7
 65
   257
 75
     1
175
     1
 42
1.0
 92
        8
 66
     7
 43
1.0
 76
     1
 77
     6
 78
     2
 67
     7
 79
     5
170
     0
171
     0
290
     0
174
     0
 93
        1
 44
0.0
173
     0
291
     1
 45
0.0
1001
ACAD
1000
AcDbSavedByObjectVersion
1070
     0
  0
VISUALSTYLE
  5
36
102
{ACAD_REACTORS
330
2A
102
}
330
2A
100
AcDbVisualStyle
  2
Brighten
 70
    12
 71
     2
 72
     2
 73
     0
 90
        0
 40
-0.6
 41
-30.0
 62
     5
 63
     7
 74
     1
 91
        4
 64
     7
 65
   257
 75
     1
175
     1
 42
1.0
 92
        8
 66
     7
 43
1.0
 76
     1
 77
     6
 78
     2
 67
     7
 79
     5
170
     0
171
     0
290
     0
174
     0
 93
        1
 44
50.0
173
     0
291
     1
 45
0.0
1001
ACAD
1000
AcDbSavedByObjectVersion
1070
     0
  0
VISUALSTYLE
  5
3A
102
{ACAD_REACTORS
330
2A
102
}
330
2A
100
AcDbVisualStyle
  2
ColorChange
 70
    16
 71
     2
 72
     2
 73
     3
 90
        0
 40
-0.6
 41
-30.0
 62
     5
 63
     8
 74
     1
 91
        4
 64
     7
 65
   257
 75
     1
175
     1
 42
1.0
 92
        8
 66
     8
 43
1.0
 76
     1
 77
     6
 78
     2
 67
     7
 79
     5
170
     0
171
     0
290
     0
174
     0
 93
        1
 44
0.0
173
     0
291
     1
 45
0.0
1001
ACAD
1000
AcDbSavedByObjectVersion
1070
     0
  0
VISUALSTYLE
  5
34
102
{ACAD_REACTORS
330
2A
102
}
330
2A
100
AcDbVisualStyle
  2
Conceptual
 70
     9
 71
     3
 72
     2
 73
     0
 90
        0
 40
-0.6
 41
-30.0
 62
     5
 63
     7
 74
     2
 91
        2
 64
     7
 65
   257
 75
     1
175
     1
 42
40.0
 92
        8
 66
     7
 43
1.0
 76
     1
 77
     6
 78
     2
 67
     7
 79
     3
170
     0
171
     0
290
     0
174
     0
 93
        1
 44
0.0
173
     0
291
     0
 45
0.0
1001
ACAD
1000
AcDbSavedByObjectVersion
1070
     0
  0
VISUALSTYLE
  5
35
102
{ACAD_REACTORS
330
2A
102
}
330
2A
100
AcDbVisualStyle
  2
Dim
 70
    11
 71
     2
 72
     2
 73
     0
 90
        0
 40
-0.6
 41
-30.0
 62
     5
 63
     7
 74
     1
 91
        4
 64
     7
 65
   257
 75
     1
175
     1
 42
1.0
 92
        8
 66
     7
 43
1.0
 76
     1
 77
     6
 78
     2
 67
     7
 79
     5
170
     0
171
     0
290
     0
174
     0
 93
        1
 44
-50.0
173
     0
291
     1
 45
0.0
1001
ACAD
1000
AcDbSavedByObjectVersion
1070
     0
  0
VISUALSTYLE
  5
39
102
{ACAD_REACTORS
330
2A
102
}
330
2A
100
AcDbVisualStyle
  2
Facepattern
 70
    15
 71
     2
 72
     2
 73
     0
 90
        0
 40
-0.6
 41
-30.0
 62
     5
 63
     7
 74
     1
 91
        4
 64
     7
 65
   257
 75
     1
175
     1
 42
1.0
 92
        8
 66
     7
 43
1.0
 76
     1
 77
     6
 78
     2
 67
     7
 79
     5
170
     0
171
     0
290
     0
174
     0
 93
        1
 44
0.0
173
     0
291
     1
 45
0.0
1001
ACAD
1000
AcDbSavedByObjectVersion
1070
     0
  0
VISUALSTYLE
  5
2B
102
{ACAD_REACTORS
330
2A
102
}
330
2A
100
AcDbVisualStyle
  2
Flat
 70
     0
 71
     2
 72
     1
 73
     1
 90
        2
 40
-0.6
 41
30.0
 62
     5
 63
     7
 74
     0
 91
        4
 64
     7
 65
   257
 75
     1
175
     1
 42
1.0
 92
        8
 66
     7
 43
1.0
 76
     1
 77
     6
 78
     2
 67
     7
 79
     5
170
     0
171
     0
290
     0
174
     0
 93
       13
 44
0.0
173
     0
291
     1
 45
0.0
1001
ACAD
1000
AcDbSavedByObjectVersion
1070
     0
  0
VISUALSTYLE
  5
2C
102
{ACAD_REACTORS
330
2A
102
}
330
2A
100
AcDbVisualStyle
  2
FlatWithEdges
 70
     1
 71
     2
 72
     1
 73
     1
 90
        2
 40
-0.6
 41
30.0
 62
     5
 63
     7
 74
     1
 91
        4
 64
     7
 65
   257
 75
     1
175
     1
 42
1.0
 92
        0
 66
   257
 43
1.0
 76
     1
 77
     6
 78
     2
 67
     7
 79
     5
170
     0
171
     0
290
     0
174
     0
 93
       13
 44
0.0
173
     0
291
     1
 45
0.0
1001
ACAD
1000
AcDbSavedByObjectVersion
1070
     0
  0
VISUALSTYLE
  5
2D
102
{ACAD_REACTORS
330
2A
102
}
330
2A
100
AcDbVisualStyle
  2
Gouraud
 70
     2
 71
     2
 72
     2
 73
     1
 90
        2
 40
-0.6
 41
30.0
 62
     5
 63
     7
 74
     0
 91
        4
 64
     7
 65
   257
 75
     1
175
     1
 42
1.0
 92
        0
 66
     7
 43
1.0
 76
     1
 77
     6
 78
     2
 67
     7
 79
     5
170
     0
171
     0
290
     0
174
     0
 93
       13
 44
0.0
173
     0
291
     1
 45
0.0
1001
ACAD
1000
AcDbSavedByObjectVersion
1070
     0
  0
VISUALSTYLE
  5
2E
102
{ACAD_REACTORS
330
2A
102
}
330
2A
100
AcDbVisualStyle
  2
GouraudWithEdges
 70
     3
 71
     2
 72
     2
 73
     1
 90
        2
 40
-0.6
 41
30.0
 62
     5
 63
     7
 74
     1
 91
        4
 64
     7
 65
   257
 75
     1
175
     1
 42
1.0
 92
        0
 66
   257
 43
1.0
 76
     1
 77
     6
 78
     2
 67
     7
 79
     5
170
     0
171
     0
290
     0
174
     0
 93
       13
 44
0.0
173
     0
291
     1
 45
0.0
1001
ACAD
1000
AcDbSavedByObjectVersion
1070
     0
  0
VISUALSTYLE
  5
38
102
{ACAD_REACTORS
330
2A
102
}
330
2A
100
AcDbVisualStyle
  2
Linepattern
 70
    14
 71
     2
 72
     2
 73
     0
 90
        0
 40
-0.6
 41
-30.0
 62
     5
 63
     7
 74
     1
 91
        4
 64
     7
 65
   257
 75
     7
175
     7
 42
1.0
 92
        8
 66
     7
 43
1.0
 76
     1
 77
     6
 78
     2
 67
     7
 79
     5
170
     0
171
     0
290
     0
174
     0
 93
        1
 44
0.0
173
     0
291
     1
 45
0.0
1001
ACAD
1000
AcDbSavedByObjectVersion
1070
     0
  0
VISUALSTYLE
  5
33
102
{ACAD_REACTORS
330
2A
102
}
330
2A
100
AcDbVisualStyle
  2
Realistic
 70
     8
 71
     2
 72
     2
 73
     0
 90
        0
 40
-0.6
 41
-30.0
 62
     5
 63
     7
 74
     1
 91
        0
 64
     7
 65
   257
 75
     1
175
     1
 42
1.0
 92
        8
 66
     8
 43
1.0
 76
     1
 77
     6
 78
     2
 67
     7
 79
     5
170
     0
171
     0
290
     0
174
     0
 93
       13
 44
0.0
173
     0
291
     0
 45
0.0
1001
ACAD
1000
AcDbSavedByObjectVersion
1070
     0
  0
VISUALSTYLE
  5
37
102
{ACAD_REACTORS
330
2A
102
}
330
2A
100
AcDbVisualStyle
  2
Thicken
 70
    13
 71
     2
 72
     2
 73
     0
 90
        0
 40
-0.6
 41
-30.0
 62
     5
 63
     7
 74
     1
 91
        4
 64
     7
 65
   257
 75
     1
175
     1
 42
1.0
 92
       12
 66
     7
 43
1.0
 76
     1
 77
     6
 78
     2
 67
     7
 79
     5
170
     0
171
     0
290
     0
174
     0
 93
        1
 44
0.0
173
     0
291
     1
 45
0.0
1001
ACAD
1000
AcDbSavedByObjectVersion
1070
     0
  0
DICTIONARYVAR
  5
2A6
102
{ACAD_REACTORS
330
2A4
102
}
330
2A4
100
DictionaryVariables
280
     0
  1
80.000000
  0
DICTIONARYVAR
  5
2A5
102
{ACAD_REACTORS
330
2A4
102
}
330
2A4
100
DictionaryVariables
280
     0
  1
5.000000
  0
ENDSEC
  0
EOF
