  0
SECTION
  2
HEADER
  9
$ACADVER
  1
AC1015
  9
$ACADMAINTVER
 70
     6
  9
$DWGCODEPAGE
  3
ANSI_1252
  9
$INSBASE
 10
0.0
 20
0.0
 30
0.0
  9
$EXTMIN
 10
0.0
 20
0.0
 30
0.0
  9
$EXTMAX
 10
297.0
 20
210.0
 30
0.0
  9
$LIMMIN
 10
0.0
 20
0.0
  9
$LIMMAX
 10
297.0
 20
210.0
  9
$ORTHOMODE
 70
     0
  9
$REGENMODE
 70
     1
  9
$FILLMODE
 70
     1
  9
$QTEXTMODE
 70
     0
  9
$MIRRTEXT
 70
     1
  9
$LTSCALE
 40
1.0
  9
$ATTMODE
 70
     1
  9
$TEXTSIZE
 40
2.0
  9
$TRACEWID
 40
1.0
  9
$TEXTSTYLE
  7
Standard
  9
$CLAYER
  8
0
  9
$CELTYPE
  6
ByLayer
  9
$CECOLOR
 62
   256
  9
$CELTSCALE
 40
1.0
  9
$DISPSILH
 70
     0
  9
$DIMSCALE
 40
1.0
  9
$DIMASZ
 40
3.0
  9
$DIMEXO
 40
0.0
  9
$DIMDLI
 40
3.75
  9
$DIMRND
 40
0.0
  9
$DIMDLE
 40
0.0
  9
$DIMEXE
 40
1.0
  9
$DIMTP
 40
0.0
  9
$DIMTM
 40
0.0
  9
$DIMTXT
 40
2.0
  9
$DIMCEN
 40
2.5
  9
$DIMTSZ
 40
0.0
  9
$DIMTOL
 70
     0
  9
$DIMLIM
 70
     0
  9
$DIMTIH
 70
     1
  9
$DIMTOH
 70
     1
  9
$DIMSE1
 70
     0
  9
$DIMSE2
 70
     0
  9
$DIMTAD
 70
     1
  9
$DIMZIN
 70
     0
  9
$DIMBLK
  1

  9
$DIMASO
 70
     1
  9
$DIMSHO
 70
     1
  9
$DIMPOST
  1

  9
$DIMAPOST
  1

  9
$DIMALT
 70
     0
  9
$DIMALTD
 70
     3
  9
$DIMALTF
 40
0.0393700787
  9
$DIMLFAC
 40
1.0
  9
$DIMTOFL
 70
     1
  9
$DIMTVP
 40
0.0
  9
$DIMTIX
 70
     0
  9
$DIMSOXD
 70
     0
  9
$DIMSAH
 70
     0
  9
$DIMBLK1
  1

  9
$DIMBLK2
  1

  9
$DIMSTYLE
  2
ISO-25
  9
$DIMCLRD
 70
     0
  9
$DIMCLRE
 70
     0
  9
$DIMCLRT
 70
     0
  9
$DIMTFAC
 40
1.0
  9
$DIMGAP
 40
1.524
  9
$DIMJUST
 70
     0
  9
$DIMSD1
 70
     0
  9
$DIMSD2
 70
     0
  9
$DIMTOLJ
 70
     0
  9
$DIMTZIN
 70
     0
  9
$DIMALTZ
 70
     0
  9
$DIMALTTZ
 70
     0
  9
$DIMUPT
 70
     0
  9
$DIMDEC
 70
     2
  9
$DIMTDEC
 70
     3
  9
$DIMALTU
 70
     2
  9
$DIMALTTD
 70
     3
  9
$DIMTXSTY
  7
Standard
  9
$DIMAUNIT
 70
     0
  9
$DIMADEC
 70
     2
  9
$DIMALTRND
 40
0.0
  9
$DIMAZIN
 70
     0
  9
$DIMDSEP
 70
    44
  9
$DIMATFIT
 70
     3
  9
$DIMFRAC
 70
     0
  9
$DIMLDRBLK
  1

  9
$DIMLUNIT
 70
     2
  9
$DIMLWD
 70
    -2
  9
$DIMLWE
 70
    -2
  9
$DIMTMOVE
 70
     0
  9
$LUNITS
 70
     2
  9
$LUPREC
 70
     2
  9
$SKETCHINC
 40
1.0
  9
$FILLETRAD
 40
10.0
  9
$AUNITS
 70
     0
  9
$AUPREC
 70
     2
  9
$MENU
  1
.
  9
$ELEVATION
 40
0.0
  9
$PELEVATION
 40
0.0
  9
$THICKNESS
 40
0.0
  9
$LIMCHECK
 70
     0
  9
$CHAMFERA
 40
10.0
  9
$CHAMFERB
 40
10.0
  9
$CHAMFERC
 40
20.0
  9
$CHAMFERD
 40
0.0
  9
$SKPOLY
 70
     0
  9
$TDCREATE
 40
2455617.47259044
  9
$TDUCREATE
 40
2455617.430923773
  9
$TDUPDATE
 40
2455617.472590452
  9
$TDUUPDATE
 40
2455617.430923785
  9
$TDINDWG
 40
0.0000000116
  9
$TDUSRTIMER
 40
0.0000000116
  9
$USRTIMER
 70
     1
  9
$ANGBASE
 50
0.0
  9
$ANGDIR
 70
     0
  9
$PDMODE
 70
     0
  9
$PDSIZE
 40
-1.0
  9
$PLINEWID
 40
0.0
  9
$SPLFRAME
 70
     0
  9
$SPLINETYPE
 70
     6
  9
$SPLINESEGS
 70
     8
  9
$HANDSEED
  5
2A3
  9
$SURFTAB1
 70
     6
  9
$SURFTAB2
 70
     6
  9
$SURFTYPE
 70
     6
  9
$SURFU
 70
     6
  9
$SURFV
 70
     6
  9
$UCSBASE
  2

  9
$UCSNAME
  2

  9
$UCSORG
 10
0.0
 20
0.0
 30
0.0
  9
$UCSXDIR
 10
1.0
 20
0.0
 30
0.0
  9
$UCSYDIR
 10
0.0
 20
1.0
 30
0.0
  9
$UCSORTHOREF
  2

  9
$UCSORTHOVIEW
 70
     0
  9
$UCSORGTOP
 10
0.0
 20
0.0
 30
0.0
  9
$UCSORGBOTTOM
 10
0.0
 20
0.0
 30
0.0
  9
$UCSORGLEFT
 10
0.0
 20
0.0
 30
0.0
  9
$UCSORGRIGHT
 10
0.0
 20
0.0
 30
0.0
  9
$UCSORGFRONT
 10
0.0
 20
0.0
 30
0.0
  9
$UCSORGBACK
 10
0.0
 20
0.0
 30
0.0
  9
$PUCSBASE
  2

  9
$PUCSNAME
  2

  9
$PUCSORG
 10
0.0
 20
0.0
 30
0.0
  9
$PUCSXDIR
 10
1.0
 20
0.0
 30
0.0
  9
$PUCSYDIR
 10
0.0
 20
1.0
 30
0.0
  9
$PUCSORTHOREF
  2

  9
$PUCSORTHOVIEW
 70
     0
  9
$PUCSORGTOP
 10
0.0
 20
0.0
 30
0.0
  9
$PUCSORGBOTTOM
 10
0.0
 20
0.0
 30
0.0
  9
$PUCSORGLEFT
 10
0.0
 20
0.0
 30
0.0
  9
$PUCSORGRIGHT
 10
0.0
 20
0.0
 30
0.0
  9
$PUCSORGFRONT
 10
0.0
 20
0.0
 30
0.0
  9
$PUCSORGBACK
 10
0.0
 20
0.0
 30
0.0
  9
$USERI1
 70
     0
  9
$USERI2
 70
     0
  9
$USERI3
 70
     0
  9
$USERI4
 70
     0
  9
$USERI5
 70
     0
  9
$USERR1
 40
0.0
  9
$USERR2
 40
0.0
  9
$USERR3
 40
0.0
  9
$USERR4
 40
0.0
  9
$USERR5
 40
0.0
  9
$WORLDVIEW
 70
     1
  9
$SHADEDGE
 70
     3
  9
$SHADEDIF
 70
    70
  9
$TILEMODE
 70
     1
  9
$MAXACTVP
 70
    64
  9
$PINSBASE
 10
0.0
 20
0.0
 30
0.0
  9
$PLIMCHECK
 70
     0
  9
$PEXTMIN
 10
1.0000000000E+20
 20
1.0000000000E+20
 30
1.0000000000E+20
  9
$PEXTMAX
 10
-1.0000000000E+20
 20
-1.0000000000E+20
 30
-1.0000000000E+20
  9
$PLIMMIN
 10
0.0
 20
0.0
  9
$PLIMMAX
 10
420.0
 20
297.0
  9
$UNITMODE
 70
     0
  9
$VISRETAIN
 70
     1
  9
$PLINEGEN
 70
     0
  9
$PSLTSCALE
 70
     1
  9
$TREEDEPTH
 70
  3020
  9
$CMLSTYLE
  2
Standard
  9
$CMLJUST
 70
     0
  9
$CMLSCALE
 40
20.0
  9
$PROXYGRAPHICS
 70
     1
  9
$MEASUREMENT
 70
     1
  9
$CELWEIGHT
370
    -1
  9
$ENDCAPS
280
     0
  9
$JOINSTYLE
280
     0
  9
$LWDISPLAY
290
     1
  9
$INSUNITS
 70
     4
  9
$HYPERLINKBASE
  1

  9
$STYLESHEET
  1

  9
$XEDIT
290
     1
  9
$CEPSNTYPE
380
     0
  9
$PSTYLEMODE
290
     1
  9
$FINGERPRINTGUID
  2
{CAE1F771-D2CB-400A-A70E-61735F0F0879}
  9
$VERSIONGUID
  2
{FAEB1C32-E019-11D5-929B-00C0DF256EC4}
  9
$EXTNAMES
290
     1
  9
$PSVPSCALE
 40
0.0
  9
$OLESTARTUP
290
     0
  0
ENDSEC
  0
SECTION
  2
CLASSES
  0
CLASS
  1
ACDBDICTIONARYWDFLT
  2
AcDbDictionaryWithDefault
  3
ObjectDBX Classes
 90
        0
280
     0
281
     0
  0
CLASS
  1
VISUALSTYLE
  2
AcDbVisualStyle
  3
ObjectDBX Classes
 90
     4095
280
     0
281
     0
  0
CLASS
  1
DICTIONARYVAR
  2
AcDbDictionaryVar
  3
ObjectDBX Classes
 90
        0
280
     0
281
     0
  0
CLASS
  1
ACDBPLACEHOLDER
  2
AcDbPlaceHolder
  3
ObjectDBX Classes
 90
        0
280
     0
281
     0
  0
CLASS
  1
LAYOUT
  2
AcDbLayout
  3
ObjectDBX Classes
 90
        0
280
     0
281
     0
  0
ENDSEC
  0
SECTION
  2
TABLES
  0
TABLE
  2
VPORT
  5
8
330
0
100
AcDbSymbolTable
 70
     1
  0
VPORT
  5
29
330
8
100
AcDbSymbolTableRecord
100
AcDbViewportTableRecord
  2
*Active
 70
     0
 10
0.0
 20
0.0
 11
1.0
 21
1.0
 12
148.5
 22
105.0
 13
0.0
 23
0.0
 14
10.0
 24
10.0
 15
10.0
 25
10.0
 16
0.0
 26
0.0
 36
1.0
 17
0.0
 27
0.0
 37
0.0
 40
210.0
 41
1.4142857143
 42
50.0
 43
0.0
 44
0.0
 50
0.0
 51
0.0
 71
     0
 72
  2000
 73
     1
 74
     3
 75
     0
 76
     0
 77
     0
 78
     0
281
     0
 65
     1
110
0.0
120
0.0
130
0.0
111
1.0
121
0.0
131
0.0
112
0.0
122
1.0
132
0.0
 79
     0
146
0.0
  0
ENDTAB
  0
TABLE
  2
LTYPE
  5
5
330
0
100
AcDbSymbolTable
 70
     6
  0
LTYPE
  5
14
330
5
100
AcDbSymbolTableRecord
100
AcDbLinetypeTableRecord
  2
ByBlock
 70
     0
  3

 72
    65
 73
     0
 40
0.0
  0
LTYPE
  5
15
330
5
100
AcDbSymbolTableRecord
100
AcDbLinetypeTableRecord
  2
ByLayer
 70
     0
  3

 72
    65
 73
     0
 40
0.0
  0
LTYPE
  5
16
330
5
100
AcDbSymbolTableRecord
100
AcDbLinetypeTableRecord
  2
Continuous
 70
     0
  3
Solid line
 72
    65
 73
     0
 40
0.0
  0
LTYPE
  5
3B
330
5
100
AcDbSymbolTableRecord
100
AcDbLinetypeTableRecord
  2
HIDDEN
 70
     0
  3
Hidden __ __ __ __ __ __ __ __ __ __ __ __ __ __
 72
    65
 73
     2
 40
1.905
 49
1.27
 74
     0
 49
-0.635
 74
     0
  0
LTYPE
  5
3C
330
5
100
AcDbSymbolTableRecord
100
AcDbLinetypeTableRecord
  2
PHANTOM
 70
     0
  3
Phantom ______  __  __  ______  __  __  ______
 72
    65
 73
     6
 40
12.7
 49
6.35
 74
     0
 49
-1.27
 74
     0
 49
1.27
 74
     0
 49
-1.27
 74
     0
 49
1.27
 74
     0
 49
-1.27
 74
     0
  0
LTYPE
  5
3D
330
5
100
AcDbSymbolTableRecord
100
AcDbLinetypeTableRecord
  2
CENTER
 70
     0
  3
Center ____ _ ____ _ ____ _ ____ _ ____ _ ____
 72
    65
 73
     4
 40
10.16
 49
6.35
 74
     0
 49
-1.27
 74
     0
 49
1.27
 74
     0
 49
-1.27
 74
     0
  0
LTYPE
  5
3E
330
5
100
AcDbSymbolTableRecord
100
AcDbLinetypeTableRecord
  2
CENTERX2
 70
     0
  3
Center (2x) ________  __  ________  __  _____
 72
    65
 73
     4
 40
20.32
 49
12.7
 74
     0
 49
-2.54
 74
     0
 49
2.54
 74
     0
 49
-2.54
 74
     0
  0
LTYPE
  5
3F
330
5
100
AcDbSymbolTableRecord
100
AcDbLinetypeTableRecord
  2
DOT2
 70
     0
  3
Dot (.5x) ........................................
 72
    65
 73
     2
 40
0.635
 49
0.0
 74
     0
 49
-0.635
 74
     0
  0
ENDTAB
  0
TABLE
  2
LAYER
  5
2
330
0
100
AcDbSymbolTable
 70
     5
  0
LAYER
  5
10
330
2
100
AcDbSymbolTableRecord
100
AcDbLayerTableRecord
  2
0
 70
     0
 62
     7
  6
Continuous
370
    -3
390
F
  0
LAYER
  5
40
330
2
100
AcDbSymbolTableRecord
100
AcDbLayerTableRecord
  2
FORMAT
 70
     0
 62
     7
  6
Continuous
370
    -3
390
F
  0
LAYER
  5
41
330
2
100
AcDbSymbolTableRecord
100
AcDbLayerTableRecord
  2
VERMASSUNG
 70
     0
 62
     7
  6
Continuous
370
    -3
390
F
  0
LAYER
  5
42
330
2
100
AcDbSymbolTableRecord
100
AcDbLayerTableRecord
  2
KOPF_DÜNN
 70
     0
 62
     7
  6
Continuous
370
    -3
390
F
  0
LAYER
  5
43
330
2
100
AcDbSymbolTableRecord
100
AcDbLayerTableRecord
  2
KOPF_DICK
 70
     0
 62
     7
  6
Continuous
370
    15
390
F
  0
ENDTAB
  0
TABLE
  2
STYLE
  5
3
330
0
100
AcDbSymbolTable
 70
     3
  0
STYLE
  5
11
330
3
100
AcDbSymbolTableRecord
100
AcDbTextStyleTableRecord
  2
Standard
 70
     0
 40
0.0
 41
1.0
 50
0.0
 71
     0
 42
2.5
  3
txt
  4

  0
STYLE
  5
44
330
3
100
AcDbSymbolTableRecord
100
AcDbTextStyleTableRecord
  2
SLDTEXTSTYLE0
 70
     0
 40
0.0
 41
0.7
 50
0.0
 71
     0
 42
0.2
  3
TXT
  4

  0
STYLE
  5
48
330
3
100
AcDbSymbolTableRecord
100
AcDbTextStyleTableRecord
  2
SLDTEXTSTYLE1
 70
     0
 40
0.0
 41
0.6526315789
 50
0.0
 71
     0
 42
0.2
  3
TXT
  4

  0
ENDTAB
  0
TABLE
  2
VIEW
  5
6
330
0
100
AcDbSymbolTable
 70
     0
  0
ENDTAB
  0
TABLE
  2
UCS
  5
7
330
0
100
AcDbSymbolTable
 70
     0
  0
ENDTAB
  0
TABLE
  2
APPID
  5
9
330
0
100
AcDbSymbolTable
 70
     1
  0
APPID
  5
12
330
9
100
AcDbSymbolTableRecord
100
AcDbRegAppTableRecord
  2
ACAD
 70
     0
  0
ENDTAB
  0
TABLE
  2
DIMSTYLE
  5
A
330
0
100
AcDbSymbolTable
 70
     4
100
AcDbDimStyleTable
  0
DIMSTYLE
105
27
330
A
100
AcDbSymbolTableRecord
100
AcDbDimStyleTableRecord
  2
ISO-25
 70
     0
 41
2.5
 42
0.625
 43
3.75
 44
1.25
 73
     0
 74
     0
 77
     1
 78
     8
140
2.5
141
2.5
143
0.0393700787
147
0.625
171
     3
172
     1
271
     2
272
     2
274
     3
278
    44
283
     0
284
     8
340
11
  0
DIMSTYLE
105
218
102
{ACAD_REACTORS
330
217
102
}
330
A
100
AcDbSymbolTableRecord
100
AcDbDimStyleTableRecord
  2
SLDDIMSTYLE0
 70
     0
 41
3.0
 44
0.0
 73
     0
 74
     0
 77
     1
 78
    12
140
2.0
147
0.5
173
     1
272
     3
284
    12
340
44
  0
DIMSTYLE
105
224
102
{ACAD_REACTORS
330
223
330
230
330
23A
330
244
102
}
330
A
100
AcDbSymbolTableRecord
100
AcDbDimStyleTableRecord
  2
SLDDIMSTYLE1
 70
     0
 41
3.0
 44
0.0
 45
0.000000001
 73
     0
 74
     0
 77
     1
 78
    12
140
2.0
147
0.5
173
     1
271
     2
272
     3
284
    12
340
44
  0
DIMSTYLE
105
286
102
{ACAD_REACTORS
330
285
102
}
330
A
100
AcDbSymbolTableRecord
100
AcDbDimStyleTableRecord
  2
SLDDIMSTYLE2
 70
     0
 41
3.0
 44
0.0
 45
0.000000001
 73
     0
 74
     0
 77
     1
 78
    12
140
2.0
147
0.5
173
     1
271
     2
272
     3
284
    12
340
44
  0
ENDTAB
  0
TABLE
  2
BLOCK_RECORD
  5
1
330
0
100
AcDbSymbolTable
 70
     8
  0
BLOCK_RECORD
  5
1F
330
1
100
AcDbSymbolTableRecord
100
AcDbBlockTableRecord
  2
*Model_Space
340
22
  0
BLOCK_RECORD
  5
1B
330
1
100
AcDbSymbolTableRecord
100
AcDbBlockTableRecord
  2
*Paper_Space
340
1E
  0
BLOCK_RECORD
  5
23
330
1
100
AcDbSymbolTableRecord
100
AcDbBlockTableRecord
  2
*Paper_Space0
340
26
  0
BLOCK_RECORD
  5
219
330
1
100
AcDbSymbolTableRecord
100
AcDbBlockTableRecord
  2
*D1
340
0
  0
BLOCK_RECORD
  5
225
330
1
100
AcDbSymbolTableRecord
100
AcDbBlockTableRecord
  2
*D2
340
0
  0
BLOCK_RECORD
  5
231
330
1
100
AcDbSymbolTableRecord
100
AcDbBlockTableRecord
  2
*D3
340
0
  0
BLOCK_RECORD
  5
23B
330
1
100
AcDbSymbolTableRecord
100
AcDbBlockTableRecord
  2
*D4
340
0
  0
BLOCK_RECORD
  5
245
330
1
100
AcDbSymbolTableRecord
100
AcDbBlockTableRecord
  2
*D5
340
0
  0
BLOCK_RECORD
  5
287
330
1
100
AcDbSymbolTableRecord
100
AcDbBlockTableRecord
  2
*D6
340
0
  0
BLOCK_RECORD
  5
291
330
1
100
AcDbSymbolTableRecord
100
AcDbBlockTableRecord
  2
SW_CENTERMARKSYMBOL_0
340
0
102
{BLKREFS
331
29C
102
}
  0
ENDTAB
  0
ENDSEC
  0
SECTION
  2
BLOCKS
  0
BLOCK
  5
20
330
1F
100
AcDbEntity
  8
0
100
AcDbBlockBegin
  2
*Model_Space
 70
     0
 10
0.0
 20
0.0
 30
0.0
  3
*Model_Space
  1

  0
ENDBLK
  5
21
330
1F
100
AcDbEntity
  8
0
100
AcDbBlockEnd
  0
BLOCK
  5
1C
330
1B
100
AcDbEntity
 67
     1
  8
0
100
AcDbBlockBegin
  2
*Paper_Space
 70
     0
 10
0.0
 20
0.0
 30
0.0
  3
*Paper_Space
  1

  0
ENDBLK
  5
1D
330
1B
100
AcDbEntity
 67
     1
  8
0
100
AcDbBlockEnd
  0
BLOCK
  5
24
330
23
100
AcDbEntity
  8
0
100
AcDbBlockBegin
  2
*Paper_Space0
 70
     0
 10
0.0
 20
0.0
 30
0.0
  3
*Paper_Space0
  1

  0
ENDBLK
  5
25
330
23
100
AcDbEntity
  8
0
100
AcDbBlockEnd
  0
BLOCK
  5
21A
330
219
100
AcDbEntity
  8
0
100
AcDbBlockBegin
  2
*D1
 70
     1
 10
0.0
 20
0.0
 30
0.0
  3
*D1
  1

  0
ARC
  5
21C
330
219
100
AcDbEntity
  8
VERMASSUNG
100
AcDbCircle
 10
276.9733896247
 20
85.0911254318
 30
0.0
 40
36.89147787733637
100
AcDbArc
 50
90.0
 51
94.9878817692
  0
ARC
  5
21D
330
219
100
AcDbEntity
  8
VERMASSUNG
100
AcDbCircle
 10
276.9733896247
 20
85.0911254318
 30
0.0
 40
36.89147787733636
100
AcDbArc
 50
80.7095883251
 51
90.0
  0
ARC
  5
21E
330
219
100
AcDbEntity
  8
VERMASSUNG
100
AcDbCircle
 10
276.9733896247
 20
85.0911254318
 30
0.0
 40
36.89147787733637
100
AcDbArc
 50
94.9878817692
 51
104.2782934441
  0
SOLID
  5
21F
330
219
100
AcDbEntity
  8
VERMASSUNG
100
AcDbTrace
 10
276.9733896247
 20
121.9826033091
 30
0.0
 11
279.9526692839
 21
121.4112954127
 31
0.0
 12
279.9891727404
 22
122.3105548289
 32
0.0
 13
279.9891727404
 23
122.3105548289
 33
0.0
  0
SOLID
  5
220
330
219
100
AcDbEntity
  8
VERMASSUNG
100
AcDbTrace
 10
273.7658585089
 20
121.8428993225
 30
0.0
 11
270.7329820748
 21
121.9074015343
 31
0.0
 12
270.8475334449
 22
121.0147213096
 32
0.0
 13
270.8475334449
 23
121.0147213096
 33
0.0
  0
LINE
  5
221
330
219
100
AcDbEntity
  8
VERMASSUNG
100
AcDbLine
 10
274.8558957986
 20
109.3532920338
 30
0.0
 11
273.6789134663
 21
122.839112432
 31
0.0
  0
MTEXT
  5
222
330
219
100
AcDbEntity
  8
VERMASSUNG
100
AcDbMText
 10
273.9574400095
 20
124.4667989396
 30
0.0
 40
2.0
 41
0.0
 71
     1
 72
     1
  1
5°
  7
SLDTEXTSTYLE0
 11
0.9990528288117131
 21
0.04351373626010312
 31
0.0
 73
     1
 44
1.0
  0
ENDBLK
  5
21B
330
219
100
AcDbEntity
  8
0
100
AcDbBlockEnd
  0
BLOCK
  5
226
330
225
100
AcDbEntity
  8
0
100
AcDbBlockBegin
  2
*D2
 70
     1
 10
0.0
 20
0.0
 30
0.0
  3
*D2
  1

  0
SOLID
  5
228
330
225
100
AcDbEntity
  8
VERMASSUNG
100
AcDbTrace
 10
109.8947065234
 20
146.6387177419
 30
0.0
 11
109.4447065234
 21
143.6387177419
 31
0.0
 12
110.3447065234
 22
143.6387177419
 32
0.0
 13
110.3447065234
 23
143.6387177419
 33
0.0
  0
SOLID
  5
229
330
225
100
AcDbEntity
  8
VERMASSUNG
100
AcDbTrace
 10
109.8947065234
 20
83.6387177419
 30
0.0
 11
110.3447065234
 21
86.6387177419
 31
0.0
 12
109.4447065234
 22
86.6387177419
 32
0.0
 13
109.4447065234
 23
86.6387177419
 33
0.0
  0
LINE
  5
22A
330
225
100
AcDbEntity
  8
VERMASSUNG
100
AcDbLine
 10
152.2733896247
 20
146.6387177419
 30
0.0
 11
108.8947065234
 21
146.6387177419
 31
0.0
  0
LINE
  5
22B
330
225
100
AcDbEntity
  8
VERMASSUNG
100
AcDbLine
 10
152.2733896247
 20
83.6387177419
 30
0.0
 11
108.8947065234
 21
83.6387177419
 31
0.0
  0
LINE
  5
22C
330
225
100
AcDbEntity
  8
VERMASSUNG
100
AcDbLine
 10
109.8947065234
 20
146.6387177419
 30
0.0
 11
109.8947065234
 21
83.6387177419
 31
0.0
  0
MTEXT
  5
22D
330
225
100
AcDbEntity
  8
VERMASSUNG
100
AcDbMText
 10
107.1165710344
 20
108.9345554032
 30
0.0
 40
2.0
 41
0.0
 71
     1
 72
     1
  1
HSK 
  7
SLDTEXTSTYLE0
 11
-7.044195017643634E-15
 21
1.0
 31
0.0
 73
     1
 44
1.0
  0
MTEXT
  5
22E
330
225
100
AcDbEntity
  8
VERMASSUNG
100
AcDbMText
 10
107.3165710439
 20
114.9345554554
 30
0.0
 40
2.0
 41
0.0
 71
     1
 72
     1
  1
%%c
  7
SLDTEXTSTYLE0
 11
-7.044195017643634E-15
 21
1.0
 31
0.0
 73
     1
 44
1.0
  0
MTEXT
  5
22F
330
225
100
AcDbEntity
  8
VERMASSUNG
100
AcDbMText
 10
107.3165711603
 20
118.5431281452
 30
0.0
 40
2.0
 41
0.0
 71
     1
 72
     1
  1
63
  7
SLDTEXTSTYLE0
 11
-7.044195017643634E-15
 21
1.0
 31
0.0
 73
     1
 44
1.0
  0
ENDBLK
  5
227
330
225
100
AcDbEntity
  8
0
100
AcDbBlockEnd
  0
BLOCK
  5
232
330
231
100
AcDbEntity
  8
0
100
AcDbBlockBegin
  2
*D3
 70
     1
 10
0.0
 20
0.0
 30
0.0
  3
*D3
  1

  0
SOLID
  5
234
330
231
100
AcDbEntity
  8
VERMASSUNG
100
AcDbTrace
 10
282.7691920875
 20
93.1387177419
 30
0.0
 11
283.2191920875
 21
96.1387177419
 31
0.0
 12
282.3191920875
 22
96.1387177419
 32
0.0
 13
282.3191920875
 23
96.1387177419
 33
0.0
  0
SOLID
  5
235
330
231
100
AcDbEntity
  8
VERMASSUNG
100
AcDbTrace
 10
282.7691920875
 20
115.1387177419
 30
0.0
 11
282.3191920875
 21
112.1387177419
 31
0.0
 12
283.2191920875
 22
112.1387177419
 32
0.0
 13
283.2191920875
 23
112.1387177419
 33
0.0
  0
LINE
  5
236
330
231
100
AcDbEntity
  8
VERMASSUNG
100
AcDbLine
 10
276.9733896247
 20
93.1387177419
 30
0.0
 11
283.7691920875
 21
93.1387177419
 31
0.0
  0
LINE
  5
237
330
231
100
AcDbEntity
  8
VERMASSUNG
100
AcDbLine
 10
275.8106960156
 20
115.1387177419
 30
0.0
 11
283.7691920875
 21
115.1387177419
 31
0.0
  0
LINE
  5
238
330
231
100
AcDbEntity
  8
VERMASSUNG
100
AcDbLine
 10
282.7691920875
 20
93.1387177419
 30
0.0
 11
282.7691920875
 21
115.1387177419
 31
0.0
  0
MTEXT
  5
239
330
231
100
AcDbEntity
  8
VERMASSUNG
100
AcDbMText
 10
280.1910567244
 20
102.7388417742
 30
0.0
 40
2.0
 41
0.0
 71
     1
 72
     1
  1
22
  7
SLDTEXTSTYLE0
 11
6.123233995736766E-17
 21
1.0
 31
0.0
 73
     1
 44
1.0
  0
ENDBLK
  5
233
330
231
100
AcDbEntity
  8
0
100
AcDbBlockEnd
  0
BLOCK
  5
23C
330
23B
100
AcDbEntity
  8
0
100
AcDbBlockBegin
  2
*D4
 70
     1
 10
0.0
 20
0.0
 30
0.0
  3
*D4
  1

  0
SOLID
  5
23E
330
23B
100
AcDbEntity
  8
VERMASSUNG
100
AcDbTrace
 10
276.9733896247
 20
154.1170439605
 30
0.0
 11
273.9733896247
 21
154.5670439605
 31
0.0
 12
273.9733896247
 22
153.6670439605
 32
0.0
 13
273.9733896247
 23
153.6670439605
 33
0.0
  0
SOLID
  5
23F
330
23B
100
AcDbEntity
  8
VERMASSUNG
100
AcDbTrace
 10
151.9733896247
 20
154.1170439605
 30
0.0
 11
154.9733896247
 21
153.6670439605
 31
0.0
 12
154.9733896247
 22
154.5670439605
 32
0.0
 13
154.9733896247
 23
154.5670439605
 33
0.0
  0
LINE
  5
240
330
23B
100
AcDbEntity
  8
VERMASSUNG
100
AcDbLine
 10
276.9733896247
 20
93.1387177419
 30
0.0
 11
276.9733896247
 21
155.1170439605
 31
0.0
  0
LINE
  5
241
330
23B
100
AcDbEntity
  8
VERMASSUNG
100
AcDbLine
 10
151.9733896247
 20
146.3387177419
 30
0.0
 11
151.9733896247
 21
155.1170439605
 31
0.0
  0
LINE
  5
242
330
23B
100
AcDbEntity
  8
VERMASSUNG
100
AcDbLine
 10
276.9733896247
 20
154.1170439605
 30
0.0
 11
151.9733896247
 21
154.1170439605
 31
0.0
  0
MTEXT
  5
243
330
23B
100
AcDbEntity
  8
VERMASSUNG
100
AcDbMText
 10
212.5739069634
 20
156.6951793236
 30
0.0
 40
2.0
 41
0.0
 71
     1
 72
     1
  1
125
  7
SLDTEXTSTYLE0
 73
     1
 44
1.0
  0
ENDBLK
  5
23D
330
23B
100
AcDbEntity
  8
0
100
AcDbBlockEnd
  0
BLOCK
  5
246
330
245
100
AcDbEntity
  8
0
100
AcDbBlockBegin
  2
*D5
 70
     1
 10
0.0
 20
0.0
 30
0.0
  3
*D5
  1

  0
SOLID
  5
248
330
245
100
AcDbEntity
  8
VERMASSUNG
100
AcDbTrace
 10
276.9733896247
 20
160.1170439605
 30
0.0
 11
273.9733896247
 21
160.5670439605
 31
0.0
 12
273.9733896247
 22
159.6670439605
 32
0.0
 13
273.9733896247
 23
159.6670439605
 33
0.0
  0
SOLID
  5
249
330
245
100
AcDbEntity
  8
VERMASSUNG
100
AcDbTrace
 10
120.0733896247
 20
160.1170439605
 30
0.0
 11
123.0733896247
 21
159.6670439605
 31
0.0
 12
123.0733896247
 22
160.5670439605
 32
0.0
 13
123.0733896247
 23
160.5670439605
 33
0.0
  0
LINE
  5
24A
330
245
100
AcDbEntity
  8
VERMASSUNG
100
AcDbLine
 10
276.9733896247
 20
93.1387177419
 30
0.0
 11
276.9733896247
 21
161.1170439605
 31
0.0
  0
LINE
  5
24B
330
245
100
AcDbEntity
  8
VERMASSUNG
100
AcDbLine
 10
120.0733896247
 20
135.1147782466
 30
0.0
 11
120.0733896247
 21
161.1170439605
 31
0.0
  0
LINE
  5
24C
330
245
100
AcDbEntity
  8
VERMASSUNG
100
AcDbLine
 10
276.9733896247
 20
160.1170439605
 30
0.0
 11
120.0733896247
 21
160.1170439605
 31
0.0
  0
MTEXT
  5
24D
330
245
100
AcDbEntity
  8
VERMASSUNG
100
AcDbMText
 10
195.6234720441
 20
162.6951793236
 30
0.0
 40
2.0
 41
0.0
 71
     1
 72
     1
  1
156.9
  7
SLDTEXTSTYLE0
 73
     1
 44
1.0
  0
ENDBLK
  5
247
330
245
100
AcDbEntity
  8
0
100
AcDbBlockEnd
  0
BLOCK
  5
288
330
287
100
AcDbEntity
  8
0
100
AcDbBlockBegin
  2
*D6
 70
     1
 10
0.0
 20
0.0
 30
0.0
  3
*D6
  1

  0
SOLID
  5
28A
330
287
100
AcDbEntity
  8
VERMASSUNG
100
AcDbTrace
 10
21.0930260608
 20
93.1786451949
 30
0.0
 11
21.5430260608
 21
96.1786451949
 31
0.0
 12
20.6430260608
 22
96.1786451949
 32
0.0
 13
20.6430260608
 23
96.1786451949
 33
0.0
  0
SOLID
  5
28B
330
287
100
AcDbEntity
  8
VERMASSUNG
100
AcDbTrace
 10
21.0930260608
 20
133.1786451949
 30
0.0
 11
20.6430260608
 21
130.1786451949
 31
0.0
 12
21.5430260608
 22
130.1786451949
 32
0.0
 13
21.5430260608
 23
130.1786451949
 33
0.0
  0
LINE
  5
28C
330
287
100
AcDbEntity
  8
VERMASSUNG
100
AcDbLine
 10
58.4730725806
 20
93.1786451949
 30
0.0
 11
20.0930260608
 21
93.1786451949
 31
0.0
  0
LINE
  5
28D
330
287
100
AcDbEntity
  8
VERMASSUNG
100
AcDbLine
 10
58.4730725806
 20
133.1786451949
 30
0.0
 11
20.0930260608
 21
133.1786451949
 31
0.0
  0
LINE
  5
28E
330
287
100
AcDbEntity
  8
VERMASSUNG
100
AcDbLine
 10
21.0930260608
 20
93.1786451949
 30
0.0
 11
21.0930260608
 21
133.1786451949
 31
0.0
  0
MTEXT
  5
28F
330
287
100
AcDbEntity
  8
VERMASSUNG
100
AcDbMText
 10
18.5148905813
 20
109.8756219691
 30
0.0
 40
2.0
 41
0.0
 71
     1
 72
     1
  1
%%c
  7
SLDTEXTSTYLE0
 11
6.123233995736766E-17
 21
1.0
 31
0.0
 73
     1
 44
1.0
  0
MTEXT
  5
290
330
287
100
AcDbEntity
  8
VERMASSUNG
100
AcDbMText
 10
18.5148906977
 20
113.4840282594
 30
0.0
 40
2.0
 41
0.0
 71
     1
 72
     1
  1
40
  7
SLDTEXTSTYLE0
 11
6.123233995736766E-17
 21
1.0
 31
0.0
 73
     1
 44
1.0
  0
ENDBLK
  5
289
330
287
100
AcDbEntity
  8
0
100
AcDbBlockEnd
  0
BLOCK
  5
292
330
291
100
AcDbEntity
  8
0
100
AcDbBlockBegin
  2
SW_CENTERMARKSYMBOL_0
 70
     0
 10
0.0
 20
0.0
 30
0.0
  3
SW_CENTERMARKSYMBOL_0
  1

  0
LINE
  5
294
330
291
100
AcDbEntity
  8
VERMASSUNG
 62
     0
100
AcDbLine
 10
0.0
 20
0.0
 30
0.0
 11
0.0
 21
2.5
 31
0.0
  0
LINE
  5
295
330
291
100
AcDbEntity
  8
VERMASSUNG
 62
     0
100
AcDbLine
 10
0.0
 20
0.0
 30
0.0
 11
-2.5
 21
0.0
 31
0.0
  0
LINE
  5
296
330
291
100
AcDbEntity
  8
VERMASSUNG
 62
     0
100
AcDbLine
 10
0.0
 20
0.0
 30
0.0
 11
0.0
 21
-2.5
 31
0.0
  0
LINE
  5
297
330
291
100
AcDbEntity
  8
VERMASSUNG
 62
     0
100
AcDbLine
 10
0.0
 20
0.0
 30
0.0
 11
2.5
 21
0.0
 31
0.0
  0
LINE
  5
298
330
291
100
AcDbEntity
  8
VERMASSUNG
 62
     0
100
AcDbLine
 10
0.0
 20
5.0
 30
0.0
 11
0.0
 21
34.0
 31
0.0
  0
LINE
  5
299
330
291
100
AcDbEntity
  8
VERMASSUNG
 62
     0
100
AcDbLine
 10
-5.0
 20
0.0
 30
0.0
 11
-34.0
 21
0.0
 31
0.0
  0
LINE
  5
29A
330
291
100
AcDbEntity
  8
VERMASSUNG
 62
     0
100
AcDbLine
 10
0.0
 20
-5.0
 30
0.0
 11
0.0
 21
-34.0
 31
0.0
  0
LINE
  5
29B
330
291
100
AcDbEntity
  8
VERMASSUNG
 62
     0
100
AcDbLine
 10
5.0
 20
0.0
 30
0.0
 11
34.0
 21
0.0
 31
0.0
  0
ENDBLK
  5
293
330
291
100
AcDbEntity
  8
0
100
AcDbBlockEnd
  0
ENDSEC
  0
SECTION
  2
ENTITIES
  0
MTEXT
  5
45
330
1F
100
AcDbEntity
  8
KOPF_DÜNN
100
AcDbMText
 10
13.8892156294
 20
23.8442973028
 30
0.0
 40
3.0
 41
0.0
 71
     1
 72
     1
  1
HA6.BCC.LLB.125
  7
SLDTEXTSTYLE0
 73
     1
 44
1.0
  0
MTEXT
  5
46
330
1F
100
AcDbEntity
  8
VERMASSUNG
100
AcDbMText
 10
13.9329988022
 20
28.8834360957
 30
0.0
 40
3.0
 41
0.0
 71
     1
 72
     1
  1
Bohrstange_Boring bar
  7
SLDTEXTSTYLE0
 73
     1
 44
1.0
  0
MTEXT
  5
47
330
1F
100
AcDbEntity
  8
VERMASSUNG
100
AcDbMText
 10
98.8601118557
 20
13.8365368179
 30
0.0
 40
2.0
 41
0.0
 71
     1
 72
     1
  1
Datum: 24.02.2011
  7
SLDTEXTSTYLE0
 73
     1
 44
1.0
  0
MTEXT
  5
49
330
1F
100
AcDbEntity
  8
VERMASSUNG
100
AcDbMText
 10
13.933048693
 20
18.0482802738
 30
0.0
 40
2.0
 41
0.0
 71
     1
 72
     1
  1
DIN 69893 HSK 63 A ICTM / CC.. 12 04..
  7
SLDTEXTSTYLE1
 73
     1
 44
1.0
  0
MTEXT
  5
4A
330
1F
100
AcDbEntity
  8
VERMASSUNG
100
AcDbMText
 10
13.9808475933
 20
13.9090973692
 30
0.0
 40
2.0
 41
0.0
 71
     1
 72
     1
  1
Gewicht: 1129g
  7
SLDTEXTSTYLE0
 73
     1
 44
1.0
  0
LINE
  5
4B
330
1F
100
AcDbEntity
  8
0
  6
Continuous
 62
     7
370
    15
100
AcDbLine
 10
270.9639381028
 20
101.4819093175
 30
0.0
 11
270.9639381028
 21
101.3683938732
 31
0.0
  0
LINE
  5
4C
330
1F
100
AcDbEntity
  8
0
  6
Continuous
 62
     7
370
    15
100
AcDbLine
 10
268.6985447923
 20
101.1115479608
 30
0.0
 11
268.6985447923
 21
101.2242828477
 31
0.0
  0
LINE
  5
4D
330
1F
100
AcDbEntity
  8
0
  6
Continuous
 62
     7
370
    15
100
AcDbLine
 10
271.1130420242
 20
99.3829433197
 30
0.0
 11
271.1130420242
 21
99.2702315933
 31
0.0
  0
LINE
  5
4E
330
1F
100
AcDbEntity
  8
0
  6
Continuous
 62
     7
370
    15
100
AcDbLine
 10
268.8476487137
 20
99.0117312656
 30
0.0
 11
268.8476487137
 21
99.1253168499
 31
0.0
  0
LINE
  5
4F
330
1F
100
AcDbEntity
  8
0
  6
Continuous
 62
     7
370
    15
100
AcDbLine
 10
273.4082282754
 20
100.2215469502
 30
0.0
 11
273.4082282754
 21
100.235498245
 31
0.0
  0
LINE
  5
50
330
1F
100
AcDbEntity
  8
0
  6
Continuous
 62
     7
370
    15
100
AcDbLine
 10
266.4082282754
 20
100.235498245
 30
0.0
 11
266.4082282754
 21
100.2215469502
 31
0.0
  0
LINE
  5
51
330
1F
100
AcDbEntity
  8
0
  6
Continuous
 62
     7
370
    15
100
AcDbLine
 10
152.2733896247
 20
83.6387177419
 30
0.0
 11
156.9233896247
 21
83.6387177419
 31
0.0
  0
LINE
  5
52
330
1F
100
AcDbEntity
  8
0
  6
Continuous
 62
     7
370
    15
100
AcDbLine
 10
156.9275938221
 20
146.6387177419
 30
0.0
 11
152.2733896247
 21
146.6387177419
 31
0.0
  0
ARC
  5
53
330
1F
100
AcDbEntity
  8
0
  6
Continuous
 62
     7
370
    15
100
AcDbCircle
 10
152.2733896247
 20
83.9387177419
 30
0.0
 40
0.3000000000000682
100
AcDbArc
 50
180.0
 51
270.0
  0
ARC
  5
54
330
1F
100
AcDbEntity
  8
0
  6
Continuous
 62
     7
370
    15
100
AcDbCircle
 10
152.2733896247
 20
146.3387177419
 30
0.0
 40
0.3000000000000966
100
AcDbArc
 50
90.0
 51
180.0
  0
ARC
  5
55
330
1F
100
AcDbEntity
  8
0
  6
Continuous
 62
     7
370
    15
100
AcDbCircle
 10
151.4733896247
 20
90.5682868802
 30
0.0
 40
0.6000000000000019
100
AcDbArc
 50
33.5573097619
 51
90.0
  0
ARC
  5
56
330
1F
100
AcDbEntity
  8
0
  6
Continuous
 62
     7
370
    15
100
AcDbCircle
 10
151.4733896247
 20
139.7091486037
 30
0.0
 40
0.6000000000000019
100
AcDbArc
 50
270.0
 51
326.4426902381
  0
LINE
  5
57
330
1F
100
AcDbEntity
  8
0
  6
Continuous
 62
     7
370
    15
100
AcDbLine
 10
149.9733896247
 20
90.9182868802
 30
0.0
 11
150.8301023981
 21
91.147842376
 31
0.0
  0
LINE
  5
58
330
1F
100
AcDbEntity
  8
0
  6
Continuous
 62
     7
370
    15
100
AcDbLine
 10
150.8301023981
 20
139.1295931079
 30
0.0
 11
149.9733896247
 21
139.3591486037
 31
0.0
  0
LINE
  5
59
330
1F
100
AcDbEntity
  8
0
  6
Continuous
 62
     7
370
    15
100
AcDbLine
 10
138.7429674422
 20
138.7965022017
 30
0.0
 11
126.1733896247
 21
138.1667638341
 31
0.0
  0
LINE
  5
5A
330
1F
100
AcDbEntity
  8
0
  6
Continuous
 62
     7
370
    15
100
AcDbLine
 10
149.9733896247
 20
139.3591486037
 30
0.0
 11
147.1547802672
 21
139.21793571
 31
0.0
  0
LINE
  5
5B
330
1F
100
AcDbEntity
  8
0
  6
Continuous
 62
     7
370
    15
100
AcDbLine
 10
147.1550017424
 20
91.0594886779
 30
0.0
 11
149.9733896247
 21
90.9182868802
 31
0.0
  0
LINE
  5
5C
330
1F
100
AcDbEntity
  8
0
  6
Continuous
 62
     7
370
    15
100
AcDbLine
 10
130.1733896247
 20
91.9102708481
 30
0.0
 11
138.7436663939
 21
91.4808982645
 31
0.0
  0
ARC
  5
5D
330
1F
100
AcDbEntity
  8
0
  6
Continuous
 62
     7
370
    15
100
AcDbCircle
 10
150.9853938252
 20
90.5682868802
 30
0.0
 40
0.5999999999999385
100
AcDbArc
 50
90.0
 51
105.0
  0
ARC
  5
5E
330
1F
100
AcDbEntity
  8
0
  6
Continuous
 62
     7
370
    15
100
AcDbCircle
 10
150.9853938252
 20
139.7091486037
 30
0.0
 40
0.5999999999999385
100
AcDbArc
 50
255.0
 51
270.0
  0
LINE
  5
5F
330
1F
100
AcDbEntity
  8
0
  6
Continuous
 62
     7
370
    15
100
AcDbLine
 10
150.9853938252
 20
91.1682868802
 30
0.0
 11
151.4733896247
 21
91.1682868802
 31
0.0
  0
LINE
  5
60
330
1F
100
AcDbEntity
  8
0
  6
Continuous
 62
     7
370
    15
100
AcDbLine
 10
151.4733896247
 20
139.1091486037
 30
0.0
 11
150.9853938252
 21
139.1091486037
 31
0.0
  0
ARC
  5
61
330
1F
100
AcDbEntity
  8
0
  6
Continuous
 62
     7
370
    15
100
AcDbCircle
 10
180.9233896247
 20
96.1387177419
 30
0.0
 40
3.0
100
AcDbArc
 50
90.0
 51
180.0
  0
ARC
  5
62
330
1F
100
AcDbEntity
  8
0
  6
Continuous
 62
     7
370
    15
100
AcDbCircle
 10
180.9233896247
 20
134.1387177419
 30
0.0
 40
3.0
100
AcDbArc
 50
180.0
 51
270.0
  0
LINE
  5
63
330
1F
100
AcDbEntity
  8
0
  6
Continuous
 62
     7
370
    15
100
AcDbLine
 10
180.9233896247
 20
99.1387177419
 30
0.0
 11
250.9733896247
 21
99.1387177419
 31
0.0
  0
LINE
  5
64
330
1F
100
AcDbEntity
  8
0
  6
Continuous
 62
     7
370
    15
100
AcDbLine
 10
250.9733896247
 20
131.1387177419
 30
0.0
 11
180.9233896247
 21
131.1387177419
 31
0.0
  0
LINE
  5
65
330
1F
100
AcDbEntity
  8
0
  6
Continuous
 62
     7
370
    15
100
AcDbLine
 10
121.2233896247
 20
94.3262177419
 30
0.0
 11
128.7733896247
 21
94.3262177419
 31
0.0
  0
ARC
  5
66
330
1F
100
AcDbEntity
  8
0
  6
Continuous
 62
     7
370
    15
100
AcDbCircle
 10
128.7733896247
 20
92.9262177419
 30
0.0
 40
1.400000000000014
100
AcDbArc
 50
37.6438857999
 51
90.0
  0
LINE
  5
67
330
1F
100
AcDbEntity
  8
0
  6
Continuous
 62
     7
370
    15
100
AcDbLine
 10
120.2418705483
 20
94.8928980449
 30
0.0
 11
121.2233896247
 21
94.3262177419
 31
0.0
  0
ARC
  5
68
330
1F
100
AcDbEntity
  8
0
  6
Continuous
 62
     7
370
    15
100
AcDbCircle
 10
124.7733896247
 20
137.4087177419
 30
0.0
 40
1.399999999999977
100
AcDbArc
 50
270.0
 51
301.7485287426
  0
LINE
  5
69
330
1F
100
AcDbEntity
  8
0
  6
Continuous
 62
     7
370
    15
100
AcDbLine
 10
124.7733896247
 20
136.0087177419
 30
0.0
 11
121.3642780261
 21
136.0087177419
 31
0.0
  0
LINE
  5
6A
330
1F
100
AcDbEntity
  8
0
  6
Continuous
 62
     7
370
    15
100
AcDbLine
 10
121.2062583054
 20
135.9988269701
 30
0.0
 11
120.324754194
 21
135.4898903341
 31
0.0
  0
LINE
  5
6B
330
1F
100
AcDbEntity
  8
0
  6
Continuous
 62
     7
370
    15
100
AcDbLine
 10
258.4835581714
 20
131.6387177419
 30
0.0
 11
251.4733896247
 21
131.6387177419
 31
0.0
  0
LINE
  5
6C
330
1F
100
AcDbEntity
  8
0
  6
Continuous
 62
     7
370
    15
100
AcDbLine
 10
251.4733896247
 20
131.6387177419
 30
0.0
 11
250.9733896247
 21
131.1387177419
 31
0.0
  0
LINE
  5
6D
330
1F
100
AcDbEntity
  8
0
  6
Continuous
 62
     7
370
    15
100
AcDbLine
 10
250.9733896247
 20
99.1387177419
 30
0.0
 11
251.3735339191
 21
98.7385734476
 31
0.0
  0
CIRCLE
  5
6E
330
1F
100
AcDbEntity
  8
0
  6
Continuous
 62
     7
370
    15
100
AcDbCircle
 10
269.9077192026
 20
100.2275289319
 30
0.0
 40
3.497518650123074
  0
CIRCLE
  5
6F
330
1F
100
AcDbEntity
  8
0
  6
Continuous
 62
     7
370
    15
100
AcDbCircle
 10
269.9076827481
 20
100.1911917425
 30
0.0
 40
2.632139739570782
  0
CIRCLE
  5
70
330
1F
100
AcDbEntity
  8
0
  6
Continuous
 62
     7
370
    15
100
AcDbCircle
 10
269.9076680558
 20
100.1898486583
 30
0.0
 40
1.998363199041439
  0
SPLINE
  5
71
330
1F
100
AcDbEntity
  8
0
  6
Continuous
 62
     7
370
    15
100
AcDbSpline
210
0.0
220
0.0
230
1.0
 70
     8
 71
     3
 72
    15
 73
    11
 74
     0
 42
0.00000001
 43
0.00000001
 40
0.0
 40
0.0
 40
0.0
 40
0.0
 40
0.1262470803729897
 40
0.2533633350512937
 40
0.3794185517357126
 40
0.5042689738350845
 40
0.6284502821607377
 40
0.7526361292230725
 40
0.8774891912114577
 40
1.0
 40
1.0
 40
1.0
 40
1.0
 10
271.5975356933415
 20
99.92463675472847
 30
0.0
 10
271.6383932308623
 20
99.94136951470395
 30
0.0
 10
271.7203895981261
 20
99.97495023482415
 30
0.0
 10
271.8132011554167
 20
100.0739195786361
 30
0.0
 10
271.8690126692331
 20
100.1957149523822
 30
0.0
 10
271.880487212949
 20
100.329347206276
 30
0.0
 10
271.8474592451597
 20
100.459064509933
 30
0.0
 10
271.773768252977
 20
100.5702090131062
 30
0.0
 10
271.668961686873
 20
100.6538742639478
 30
0.0
 10
271.5849327332826
 20
100.6766334060641
 30
0.0
 10
271.5433160855738
 20
100.6879052255874
 30
0.0
  0
SPLINE
  5
72
330
1F
100
AcDbEntity
  8
0
  6
Continuous
 62
     7
370
    15
100
AcDbSpline
210
0.0
220
0.0
230
1.0
 70
     8
 71
     3
 72
    12
 73
     8
 74
     0
 42
0.00000001
 43
0.00000001
 40
0.0
 40
0.0
 40
0.0
 40
0.0
 40
0.2058748011360198
 40
0.4120995812662988
 40
0.6141693366125482
 40
0.8132901286728279
 40
1.0
 40
1.0
 40
1.0
 40
1.0
 10
271.5433160855738
 20
100.6879052255874
 30
0.0
 10
271.4687183931902
 20
100.7082661733112
 30
0.0
 10
271.3193961953053
 20
100.7490226815621
 30
0.0
 10
271.1349267834257
 20
100.8985644429123
 30
0.0
 10
271.0098435362014
 20
101.0920629397631
 30
0.0
 10
270.9522396655915
 20
101.3087200805693
 30
0.0
 10
270.9714962173046
 20
101.4498502200323
 30
0.0
 10
270.9808147827629
 20
101.5181454403971
 30
0.0
  0
SPLINE
  5
73
330
1F
100
AcDbEntity
  8
0
  6
Continuous
 62
     7
370
    15
100
AcDbSpline
210
0.0
220
0.0
230
1.0
 70
     8
 71
     3
 72
    15
 73
    11
 74
     0
 42
0.00000001
 43
0.00000001
 40
0.0
 40
0.0
 40
0.0
 40
0.0
 40
0.12687655089707
 40
0.2539936290345326
 40
0.3800496379884256
 40
0.5049006370991307
 40
0.6290821973265928
 40
0.7532679407718565
 40
0.8781205851189873
 40
0.9999999999999999
 40
0.9999999999999999
 40
0.9999999999999999
 40
0.9999999999999999
 10
270.9808147827629
 20
101.5181454403971
 30
0.0
 10
270.9863200989055
 20
101.5617988904113
 30
0.0
 10
270.9973411679381
 20
101.6491885468181
 30
0.0
 10
270.9566459963175
 20
101.7784925723674
 30
0.0
 10
270.8780748596691
 20
101.8871525737253
 30
0.0
 10
270.7674932268134
 20
101.9635939867659
 30
0.0
 10
270.6385082356464
 20
101.9998178957291
 30
0.0
 10
270.5057582734127
 20
101.9918329024945
 30
0.0
 10
270.3819056349737
 20
101.9435001188826
 30
0.0
 10
270.321116374799
 20
101.8828740744751
 30
0.0
 10
270.2910880133273
 20
101.8529263374763
 30
0.0
  0
SPLINE
  5
74
330
1F
100
AcDbEntity
  8
0
  6
Continuous
 62
     7
370
    15
100
AcDbSpline
210
0.0
220
0.0
230
1.0
 70
     8
 71
     3
 72
    12
 73
     8
 74
     0
 42
0.00000001
 43
0.00000001
 40
0.0
 40
0.0
 40
0.0
 40
0.0
 40
0.2057949882088344
 40
0.4120010155283546
 40
0.6140549927931025
 40
0.8131810826684136
 40
1.0
 40
1.0
 40
1.0
 40
1.0
 10
270.2910880133273
 20
101.8529263374763
 30
0.0
 10
270.2368309286977
 20
101.799078729405
 30
0.0
 10
270.1282083905028
 20
101.6912759621838
 30
0.0
 10
269.9073182522605
 20
101.6073048704559
 30
0.0
 10
269.6767246299555
 20
101.5959051008941
 30
0.0
 10
269.4586089406727
 20
101.6537548295191
 30
0.0
 10
269.3443703496695
 20
101.7402202222087
 30
0.0
 10
269.2890724976695
 20
101.7820742966164
 30
0.0
  0
SPLINE
  5
75
330
1F
100
AcDbEntity
  8
0
  6
Continuous
 62
     7
370
    15
100
AcDbSpline
210
0.0
220
0.0
230
1.0
 70
     8
 71
     3
 72
    15
 73
    11
 74
     0
 42
0.00000001
 43
0.00000001
 40
0.0
 40
0.0
 40
0.0
 40
0.0
 40
0.1268036956060387
 40
0.2539263442698468
 40
0.3799872671766143
 40
0.5048410097957321
 40
0.6290227167746635
 40
0.7532063308915233
 40
0.8780553361591298
 40
1.0
 40
1.0
 40
1.0
 40
1.0
 10
269.2890724976694
 20
101.7820742966164
 30
0.0
 10
269.2535440257149
 20
101.808408742646
 30
0.0
 10
269.1823977159975
 20
101.8611438745105
 30
0.0
 10
269.0489369856178
 20
101.8901461379981
 30
0.0
 10
268.9147554632046
 20
101.8762991718197
 30
0.0
 10
268.7929135630726
 20
101.8189040401303
 30
0.0
 10
268.6971590410177
 20
101.7257148574525
 30
0.0
 10
268.6382675041685
 20
101.6073763752245
 30
0.0
 10
268.6191551282269
 20
101.4766987348078
 30
0.0
 10
268.6421856099333
 20
101.3943008482051
 30
0.0
 10
268.6535653360015
 20
101.3535867463432
 30
0.0
  0
SPLINE
  5
76
330
1F
100
AcDbEntity
  8
0
  6
Continuous
 62
     7
370
    15
100
AcDbSpline
210
0.0
220
0.0
230
1.0
 70
     8
 71
     3
 72
    12
 73
     8
 74
     0
 42
0.00000001
 43
0.00000001
 40
0.0
 40
0.0
 40
0.0
 40
0.0
 40
0.2058497400954435
 40
0.4120524486337342
 40
0.6141081262895507
 40
0.8132431903674835
 40
1.0
 40
1.0
 40
1.0
 40
1.0
 10
268.6535653360015
 20
101.3535867463431
 30
0.0
 10
268.67388261216
 20
101.2801685937335
 30
0.0
 10
268.7145520023025
 20
101.1332063991593
 30
0.0
 10
268.678095769757
 20
100.9010139223818
 30
0.0
 10
268.572590478147
 20
100.6960580910446
 30
0.0
 10
268.4121251448854
 20
100.5358969307816
 30
0.0
 10
268.2786486214908
 20
100.479694387768
 30
0.0
 10
268.2140511231545
 20
100.4524945208065
 30
0.0
  0
SPLINE
  5
77
330
1F
100
AcDbEntity
  8
0
  6
Continuous
 62
     7
370
    15
100
AcDbSpline
210
0.0
220
0.0
230
1.0
 70
     8
 71
     3
 72
    15
 73
    11
 74
     0
 42
0.00000001
 43
0.00000001
 40
0.0
 40
0.0
 40
0.0
 40
0.0
 40
0.126256437537261
 40
0.2533820972841662
 40
0.3794454811308056
 40
0.5043002379034025
 40
0.6284814530465777
 40
0.7526634909000349
 40
0.8775104621121594
 40
1.0
 40
1.0
 40
1.0
 40
1.0
 10
268.2140511231545
 20
100.4524945208065
 30
0.0
 10
268.1731917069876
 20
100.4348286488547
 30
0.0
 10
268.0911915748428
 20
100.3993752828892
 30
0.0
 10
267.9983780824052
 20
100.2983506362236
 30
0.0
 10
267.9425688813512
 20
100.1752608487281
 30
0.0
 10
267.9311011201658
 20
100.0412147574267
 30
0.0
 10
267.9641374599224
 20
99.91196275194427
 30
0.0
 10
268.0378346830589
 20
99.8021391462013
 30
0.0
 10
268.142639226544
 20
99.72051810168351
 30
0.0
 10
268.2266605062212
 20
99.6995902597958
 30
0.0
 10
268.2682707309221
 20
99.689226073404
 30
0.0
  0
SPLINE
  5
78
330
1F
100
AcDbEntity
  8
0
  6
Continuous
 62
     7
370
    15
100
AcDbSpline
210
0.0
220
0.0
230
1.0
 70
     8
 71
     3
 72
    12
 73
     8
 74
     0
 42
0.00000001
 43
0.00000001
 40
0.0
 40
0.0
 40
0.0
 40
0.0
 40
0.2058713741443854
 40
0.4120924153877113
 40
0.6141683533432555
 40
0.8133068872803118
 40
1.0
 40
1.0
 40
1.0
 40
1.0
 10
268.2682707309221
 20
99.689226073404
 30
0.0
 10
268.3428676636458
 20
99.67046791333078
 30
0.0
 10
268.4921882300159
 20
99.63291973294426
 30
0.0
 10
268.6766577136976
 20
99.48595543691216
 30
0.0
 10
268.8017451238603
 20
99.29226276602175
 30
0.0
 10
268.8593478870783
 20
99.07288003706967
 30
0.0
 10
268.8400902595779
 20
98.92873405606208
 30
0.0
 10
268.8307720337331
 20
98.8589858585943
 30
0.0
  0
SPLINE
  5
79
330
1F
100
AcDbEntity
  8
0
  6
Continuous
 62
     7
370
    15
100
AcDbSpline
210
0.0
220
0.0
230
1.0
 70
     8
 71
     3
 72
    23
 73
    19
 74
     0
 42
0.00000001
 43
0.00000001
 40
0.0
 40
0.0
 40
0.0
 40
0.0
 40
0.0625384906972677
 40
0.126870332246565
 40
0.1895089567155518
 40
0.2539934004620586
 40
0.3161067687092176
 40
0.3800557579598225
 40
0.441580968572648
 40
0.5049096679479405
 40
0.5661129323447285
 40
0.6290914837165537
 40
0.6903053232551548
 40
0.7532763836340131
 40
0.8148262267669044
 40
0.878128817189512
 40
0.9382674905198541
 40
1.0
 40
1.0
 40
1.0
 40
1.0
 10
268.8307720337331
 20
98.8589858585943
 30
0.0
 10
268.8269937722569
 20
98.83725425348575
 30
0.0
 10
268.819328904054
 20
98.79316786877082
 30
0.0
 10
268.8219708553021
 20
98.72594364891246
 30
0.0
 10
268.8351989234077
 20
98.65947498108247
 30
0.0
 10
268.8594132918697
 20
98.59683364197858
 30
0.0
 10
268.8940391648212
 20
98.53879050941177
 30
0.0
 10
268.9373318713546
 20
98.48819349326445
 30
0.0
 10
268.9888401504274
 20
98.44537496525439
 30
0.0
 10
269.0459889936295
 20
98.41231833192123
 30
0.0
 10
269.1083103196755
 20
98.38918012174956
 30
0.0
 10
269.1728821882262
 20
98.37695906723626
 30
0.0
 10
269.2391494815324
 20
98.37571077388372
 30
0.0
 10
269.3041611637653
 20
98.38548080221345
 30
0.0
 10
269.3673093207001
 20
98.40614089177978
 30
0.0
 10
269.4250586942139
 20
98.43668542841668
 30
0.0
 10
269.4776048664901
 20
98.47582787601041
 30
0.0
 10
269.5060767056627
 20
98.5079392660329
 30
0.0
 10
269.5204988031686
 20
98.52420493805863
 30
0.0
  0
SPLINE
  5
7A
330
1F
100
AcDbEntity
  8
0
  6
Continuous
 62
     7
370
    15
100
AcDbSpline
210
0.0
220
0.0
230
1.0
 70
     8
 71
     3
 72
    17
 73
    13
 74
     0
 42
0.00000001
 43
0.00000001
 40
0.0
 40
0.0
 40
0.0
 40
0.0
 40
0.1014817686704309
 40
0.205842151471116
 40
0.3074597074819254
 40
0.4121400223276009
 40
0.5117207941371136
 40
0.6142797099135593
 40
0.7124639813083419
 40
0.8134115617249391
 40
0.905628740447594
 40
1.0
 40
1.0
 40
1.0
 40
1.0
 10
269.5204988031686
 20
98.52420493805863
 30
0.0
 10
269.5457931951664
 20
98.55271760033415
 30
0.0
 10
269.5970994754686
 20
98.61055171008462
 30
0.0
 10
269.6907173244057
 20
98.67943873857715
 30
0.0
 10
269.7948345662632
 20
98.73323037619413
 30
0.0
 10
269.9053197740472
 20
98.76782882237303
 30
0.0
 10
270.0203695402485
 20
98.78336360032424
 30
0.0
 10
270.1339584622954
 20
98.77942379818714
 30
0.0
 10
270.2456750611375
 20
98.75666990128285
 30
0.0
 10
270.3481405281324
 20
98.71713549711122
 30
0.0
 10
270.4424401803104
 20
98.663625972076
 30
0.0
 10
270.495618300046
 20
98.61808852642547
 30
0.0
 10
270.5225143188266
 20
98.59505694878557
 30
0.0
  0
SPLINE
  5
7B
330
1F
100
AcDbEntity
  8
0
  6
Continuous
 62
     7
370
    15
100
AcDbSpline
210
0.0
220
0.0
230
1.0
 70
     8
 71
     3
 72
    23
 73
    19
 74
     0
 42
0.00000001
 43
0.00000001
 40
0.0
 40
0.0
 40
0.0
 40
0.0
 40
0.0624988066047381
 40
0.1267875659925542
 40
0.1894243117293215
 40
0.2539068068159238
 40
0.3160185992639244
 40
0.3799659197983646
 40
0.4414903780363423
 40
0.5048182513710897
 40
0.5660216610165454
 40
0.6290003214445631
 40
0.6902150064541328
 40
0.7531869152440661
 40
0.8147379738802347
 40
0.8780418128575646
 40
0.9382223043076727
 40
1.0
 40
1.0
 40
1.0
 40
1.0
 10
270.5225143188266
 20
98.59505694878557
 30
0.0
 10
270.5392754987412
 20
98.58081760371113
 30
0.0
 10
270.5732778952665
 20
98.55193110168983
 30
0.0
 10
270.6323771771865
 20
98.52028924339676
 30
0.0
 10
270.6961863846099
 20
98.4981927752195
 30
0.0
 10
270.762266438987
 20
98.48754413148569
 30
0.0
 10
270.8296454053111
 20
98.48823609749677
 30
0.0
 10
270.8949906788319
 20
98.50019290746157
 30
0.0
 10
270.9577857214803
 20
98.523189793926
 30
0.0
 10
271.0150250721269
 20
98.55599703825382
 30
0.0
 10
271.0663373437825
 20
98.59828799659753
 30
0.0
 10
271.1093916873169
 20
98.64803714996285
 30
0.0
 10
271.1438621628245
 20
98.70479285825643
 30
0.0
 10
271.1682253349687
 20
98.7660245463033
 30
0.0
 10
271.182288880439
 20
98.83114313027944
 30
0.0
 10
271.1851412637718
 20
98.89659650020465
 30
0.0
 10
271.1779825560032
 20
98.96190750010047
 30
0.0
 10
271.1647330124471
 20
99.0028202305801
 30
0.0
 10
271.1580214804945
 20
99.02354449905879
 30
0.0
  0
SPLINE
  5
7C
330
1F
100
AcDbEntity
  8
0
  6
Continuous
 62
     7
370
    15
100
AcDbSpline
210
0.0
220
0.0
230
1.0
 70
     8
 71
     3
 72
    12
 73
     8
 74
     0
 42
0.00000001
 43
0.00000001
 40
0.0
 40
0.0
 40
0.0
 40
0.0
 40
0.2058903596432943
 40
0.4121336430767379
 40
0.61422391211762
 40
0.8133482777366594
 40
1.0
 40
1.0
 40
1.0
 40
1.0
 10
271.1580214804945
 20
99.02354449905879
 30
0.0
 10
271.1377022635085
 20
99.09857682494426
 30
0.0
 10
271.0970289996636
 20
99.2487700922214
 30
0.0
 10
271.1335079055656
 20
99.48357003631469
 30
0.0
 10
271.2390517624336
 20
99.6883472856766
 30
0.0
 10
271.3995284843542
 20
99.84574602858069
 30
0.0
 10
271.5329714182959
 20
99.89891282999054
 30
0.0
 10
271.5975356933415
 20
99.92463675472847
 30
0.0
  0
LWPOLYLINE
  5
7D
330
1F
100
AcDbEntity
  8
0
  6
Continuous
 62
     7
370
    15
100
AcDbPolyline
 90
        3
 70
   128
 43
0.0
 10
268.6985447923
 20
101.2242828477
 10
268.6898272027
 20
101.333312353
 10
268.653565336
 20
101.4686423036
  0
ARC
  5
7E
330
1F
100
AcDbEntity
  8
0
  6
Continuous
 62
     7
370
    15
100
AcDbCircle
 10
271.4811826836
 20
100.4153036614
 30
0.0
 40
0.3932529485371232
100
AcDbArc
 50
287.2099058645
 51
350.8225768563
  0
ARC
  5
7F
330
1F
100
AcDbEntity
  8
0
  6
Continuous
 62
     7
370
    15
100
AcDbCircle
 10
268.3306246889
 20
100.1928361352
 30
0.0
 40
0.3934997807060411
100
AcDbArc
 50
190.0838783124
 51
260.8824821377
  0
ARC
  5
80
330
1F
100
AcDbEntity
  8
0
  6
Continuous
 62
     7
370
    15
100
AcDbCircle
 10
271.8008601572
 20
99.3825785361
 30
0.0
 40
0.6878182297753965
100
AcDbArc
 50
107.1939899236
 51
179.9696132475
  0
ARC
  5
81
330
1F
100
AcDbEntity
  8
0
  6
Continuous
 62
     7
370
    15
100
AcDbCircle
 10
268.1592025794
 20
99.1245560537
 30
0.0
 40
0.688446554640959
100
AcDbArc
 50
0.063317071
 51
80.8844257922
  0
ARC
  5
82
330
1F
100
AcDbEntity
  8
0
  6
Continuous
 62
     7
370
    15
100
AcDbCircle
 10
270.7896414581
 20
98.9999858566
 30
0.0
 40
0.3941870976111048
100
AcDbArc
 50
227.3384865758
 51
353.4365507585
  0
ARC
  5
83
330
1F
100
AcDbEntity
  8
0
  6
Continuous
 62
     7
370
    15
100
AcDbCircle
 10
269.215193114
 20
98.8885878343
 30
0.0
 40
0.3941656199046236
100
AcDbArc
 50
187.0439764925
 51
320.765333857
  0
ARC
  5
84
330
1F
100
AcDbEntity
  8
0
  6
Continuous
 62
     7
370
    15
100
AcDbCircle
 10
270.0549270601
 20
98.2019280925
 30
0.0
 40
0.6905716781606407
100
AcDbArc
 50
47.3824271302
 51
140.7047323313
  0
ARC
  5
85
330
1F
100
AcDbEntity
  8
0
  6
Continuous
 62
     7
370
    15
100
AcDbCircle
 10
269.9082282754
 20
100.2292612715
 30
0.0
 40
3.500005557115338
100
AcDbArc
 50
0.102100537
 51
179.897899463
  0
LINE
  5
86
330
1F
100
AcDbEntity
  8
0
  6
Continuous
 62
     7
370
    15
100
AcDbLine
 10
263.0441384737
 20
106.6017533558
 30
0.0
 11
264.0972915744
 21
94.5934813083
 31
0.0
  0
ARC
  5
87
330
1F
100
AcDbEntity
  8
0
  6
Continuous
 62
     7
370
    15
100
AcDbCircle
 10
263.4421740177
 20
106.6360873148
 30
0.0
 40
0.3995135980505985
100
AcDbArc
 50
84.9302140244
 51
184.9300462061
  0
LINE
  5
88
330
1F
100
AcDbEntity
  8
0
  6
Continuous
 62
     7
370
    15
100
AcDbLine
 10
275.515073674
 20
105.9834502646
 30
0.0
 11
263.47747865
 21
107.0340379373
 31
0.0
  0
ARC
  5
89
330
1F
100
AcDbEntity
  8
0
  6
Continuous
 62
     7
370
    15
100
AcDbCircle
 10
275.4807385315
 20
105.5854146156
 30
0.0
 40
0.3995138043827453
100
AcDbArc
 50
5.0699537939
 51
85.0697859757
  0
LINE
  5
8A
330
1F
100
AcDbEntity
  8
0
  6
Continuous
 62
     7
370
    15
100
AcDbLine
 10
276.9318423569
 20
93.6124483842
 30
0.0
 11
275.8786892562
 21
105.6207204317
 31
0.0
  0
ARC
  5
8B
330
1F
100
AcDbEntity
  8
0
  6
Continuous
 62
     7
370
    15
100
AcDbCircle
 10
276.5338068129
 20
93.5781144252
 30
0.0
 40
0.3995135980506454
100
AcDbArc
 50
264.9302140244
 51
4.930046206
  0
LINE
  5
8C
330
1F
100
AcDbEntity
  8
0
  6
Continuous
 62
     7
370
    15
100
AcDbLine
 10
264.4609071565
 20
94.2307514754
 30
0.0
 11
276.4985021806
 21
93.1801638027
 31
0.0
  0
ARC
  5
8D
330
1F
100
AcDbEntity
  8
0
  6
Continuous
 62
     7
370
    15
100
AcDbCircle
 10
264.495242299
 20
94.6287871244
 30
0.0
 40
0.3995138043829856
100
AcDbArc
 50
185.0699537939
 51
265.0697859756
  0
ARC
  5
8E
330
1F
100
AcDbEntity
  8
0
  6
Continuous
 62
     7
370
    15
100
AcDbCircle
 10
276.5337846961
 20
93.5780922544
 30
0.0
 40
0.3795379181480619
100
AcDbArc
 50
264.9302140244
 51
4.930046206
  0
LINE
  5
8F
330
1F
100
AcDbEntity
  8
0
  6
Continuous
 62
     7
370
    15
100
AcDbLine
 10
276.9119184629
 20
93.6107095154
 30
0.0
 11
275.8587653619
 21
105.618981563
 31
0.0
  0
ARC
  5
90
330
1F
100
AcDbEntity
  8
0
  6
Continuous
 62
     7
370
    15
100
AcDbCircle
 10
275.4807121731
 20
105.5854410373
 30
0.0
 40
0.3795381145906291
100
AcDbArc
 50
5.069953842
 51
85.0697858765
  0
LINE
  5
91
330
1F
100
AcDbEntity
  8
0
  6
Continuous
 62
     7
370
    15
100
AcDbLine
 10
275.5133305592
 20
105.9635749042
 30
0.0
 11
263.4757355351
 21
107.0141625769
 31
0.0
  0
ARC
  5
92
330
1F
100
AcDbEntity
  8
0
  6
Continuous
 62
     7
370
    15
100
AcDbCircle
 10
263.4421961344
 20
106.6361094855
 30
0.0
 40
0.379537918148066
100
AcDbArc
 50
84.9302140244
 51
184.930046206
  0
LINE
  5
93
330
1F
100
AcDbEntity
  8
0
  6
Continuous
 62
     7
370
    15
100
AcDbLine
 10
263.0640623676
 20
106.6034922245
 30
0.0
 11
264.1172154683
 21
94.595220177
 31
0.0
  0
ARC
  5
94
330
1F
100
AcDbEntity
  8
0
  6
Continuous
 62
     7
370
    15
100
AcDbCircle
 10
264.4952686567
 20
94.6287607023
 30
0.0
 40
0.379538114163734
100
AcDbArc
 50
185.0699537939
 51
265.0697859757
  0
LINE
  5
95
330
1F
100
AcDbEntity
  8
0
  6
Continuous
 62
     7
370
    15
100
AcDbLine
 10
264.4626502714
 20
94.2506268358
 30
0.0
 11
276.5002452954
 21
93.2000391631
 31
0.0
  0
LINE
  5
96
330
1F
100
AcDbEntity
  8
0
  6
Continuous
 62
     7
370
    15
100
AcDbLine
 10
263.4426163529
 20
106.6518348193
 30
0.0
 11
263.0640623676
 21
106.6034922245
 31
0.0
  0
LINE
  5
97
330
1F
100
AcDbEntity
  8
0
  6
Continuous
 62
     7
370
    15
100
AcDbLine
 10
263.4426163529
 20
106.6518348193
 30
0.0
 11
263.4757355351
 21
107.0141625769
 31
0.0
  0
LINE
  5
98
330
1F
100
AcDbEntity
  8
0
  6
Continuous
 62
     7
370
    15
100
AcDbLine
 10
275.4802113769
 20
105.6012471466
 30
0.0
 11
275.5133305592
 21
105.9635749042
 31
0.0
  0
LINE
  5
99
330
1F
100
AcDbEntity
  8
0
  6
Continuous
 62
     7
370
    15
100
AcDbLine
 10
274.9065170477
 20
105.053981032
 30
0.0
 11
275.4802113769
 21
105.6012471466
 31
0.0
  0
LINE
  5
9A
330
1F
100
AcDbEntity
  8
0
  6
Continuous
 62
     7
370
    15
100
AcDbLine
 10
264.3616166974
 20
105.7687182318
 30
0.0
 11
263.4426163529
 21
106.6518348193
 31
0.0
  0
LINE
  5
9B
330
1F
100
AcDbEntity
  8
0
  6
Continuous
 62
     7
370
    15
100
AcDbLine
 10
264.4957694536
 20
94.6435627717
 30
0.0
 11
264.1172154683
 21
94.595220177
 31
0.0
  0
LINE
  5
9C
330
1F
100
AcDbEntity
  8
0
  6
Continuous
 62
     7
370
    15
100
AcDbLine
 10
265.0694637829
 20
95.2408903345
 30
0.0
 11
264.4957694536
 21
94.6435627717
 31
0.0
  0
LINE
  5
9D
330
1F
100
AcDbEntity
  8
0
  6
Continuous
 62
     7
370
    15
100
AcDbLine
 10
275.4802113769
 20
105.6012471466
 30
0.0
 11
275.8587653619
 21
105.618981563
 31
0.0
  0
LINE
  5
9E
330
1F
100
AcDbEntity
  8
0
  6
Continuous
 62
     7
370
    15
100
AcDbLine
 10
276.5333644777
 20
93.592975099
 30
0.0
 11
276.9119184629
 21
93.6107095154
 31
0.0
  0
LINE
  5
9F
330
1F
100
AcDbEntity
  8
0
  6
Continuous
 62
     7
370
    15
100
AcDbLine
 10
275.6143641331
 20
94.5433819232
 30
0.0
 11
276.5333644777
 21
93.592975099
 31
0.0
  0
ARC
  5
A0
330
1F
100
AcDbEntity
  8
0
  6
Continuous
 62
     7
370
    15
100
AcDbCircle
 10
266.323675228
 20
103.7602782869
 30
0.0
 40
0.9987839951264089
100
AcDbArc
 50
84.9302140244
 51
184.9300462061
  0
LINE
  5
A1
330
1F
100
AcDbEntity
  8
0
  6
Continuous
 62
     7
370
    15
100
AcDbLine
 10
273.1489437719
 20
104.1671788852
 30
0.0
 11
266.4119368088
 21
104.7551548432
 31
0.0
  0
ARC
  5
A2
330
1F
100
AcDbEntity
  8
0
  6
Continuous
 62
     7
370
    15
100
AcDbCircle
 10
273.0631059156
 20
103.1720897627
 30
0.0
 40
0.9987845109569196
100
AcDbArc
 50
5.0699537939
 51
85.0697859757
  0
LINE
  5
A3
330
1F
100
AcDbEntity
  8
0
  6
Continuous
 62
     7
370
    15
100
AcDbLine
 10
265.328586368
 20
103.6744433896
 30
0.0
 11
265.9179981033
 21
96.9538474369
 31
0.0
  0
LINE
  5
A4
330
1F
100
AcDbEntity
  8
0
  6
Continuous
 62
     7
370
    15
100
AcDbLine
 10
274.6473944626
 20
96.5397583504
 30
0.0
 11
274.0579827272
 21
103.2603543031
 31
0.0
  0
ARC
  5
A5
330
1F
100
AcDbEntity
  8
0
  6
Continuous
 62
     7
370
    15
100
AcDbCircle
 10
273.6523056028
 20
96.4539234526
 30
0.0
 40
0.9987839949381461
100
AcDbArc
 50
264.9302140086
 51
4.9300462354
  0
LINE
  5
A6
330
1F
100
AcDbEntity
  8
0
  6
Continuous
 62
     7
370
    15
100
AcDbLine
 10
266.8270370587
 20
96.0470228548
 30
0.0
 11
273.5640440217
 21
95.4590468965
 31
0.0
  0
ARC
  5
A7
330
1F
100
AcDbEntity
  8
0
  6
Continuous
 62
     7
370
    15
100
AcDbCircle
 10
266.9128749149
 20
97.0421119773
 30
0.0
 40
0.9987845109572638
100
AcDbArc
 50
185.0699537939
 51
265.0697859756
  0
CIRCLE
  5
A8
330
1F
100
AcDbEntity
  8
0
  6
Continuous
 62
     7
370
    15
100
AcDbCircle
 10
269.9855842948
 20
100.1132234776
 30
0.0
 40
3.796703903104325
  0
ARC
  5
A9
330
1F
100
AcDbEntity
  8
0
  6
Continuous
 62
     7
370
    15
100
AcDbCircle
 10
269.9921011073
 20
100.1920564709
 30
0.0
 40
3.795892262055591
100
AcDbArc
 50
264.9322875135
 51
359.9285192623
  0
ARC
  5
AA
330
1F
100
AcDbEntity
  8
0
  6
Continuous
 62
     7
370
    15
100
AcDbCircle
 10
269.9828458123
 20
100.1918277869
 30
0.0
 40
3.794858073411861
100
AcDbArc
 50
180.0680474831
 51
265.0711753319
  0
SPLINE
  5
AB
330
1F
100
AcDbEntity
  8
0
  6
Continuous
 62
     7
370
    15
100
AcDbSpline
210
0.0
220
0.0
230
1.0
 70
     8
 71
     3
 72
    11
 73
     7
 74
     0
 42
0.00000001
 43
0.00000001
 40
0.0
 40
0.0
 40
0.0
 40
0.0
 40
0.3367831131414344
 40
0.6790111347689759
 40
0.9923717339918963
 40
0.9999999999999999
 40
0.9999999999999999
 40
0.9999999999999999
 40
0.9999999999999999
 10
264.3616166973997
 20
105.7687182317526
 30
0.0
 10
264.4171065351966
 20
105.7147792326327
 30
0.0
 10
264.5289833373889
 20
105.6060291808292
 30
0.0
 10
264.6984312014786
 20
105.4344522879807
 30
0.0
 10
264.8024871741878
 20
105.326390270692
 30
0.0
 10
264.8494287143146
 20
105.2769011505577
 30
0.0
 10
264.8505442749887
 20
105.2757250469174
 30
0.0
  0
SPLINE
  5
AC
330
1F
100
AcDbEntity
  8
0
  6
Continuous
 62
     7
370
    15
100
AcDbSpline
210
0.0
220
0.0
230
1.0
 70
     8
 71
     3
 72
    11
 73
     7
 74
     0
 42
0.00000001
 43
0.00000001
 40
0.0
 40
0.0
 40
0.0
 40
0.0
 40
0.3372314186521235
 40
0.6736321483071553
 40
0.99188356089688
 40
1.0
 40
1.0
 40
1.0
 40
1.0
 10
274.9065170476997
 20
105.0539810319696
 30
0.0
 10
274.8516132350799
 20
105.000962209026
 30
0.0
 10
274.7419408522601
 20
104.895055162337
 30
0.0
 10
274.5704886832067
 20
104.722185516592
 30
0.0
 10
274.4650100390119
 20
104.6128481158058
 30
0.0
 10
274.4170538366018
 20
104.5622914594866
 30
0.0
 10
274.415861214245
 20
104.5610341664655
 30
0.0
  0
LINE
  5
AD
330
1F
100
AcDbEntity
  8
0
  6
Continuous
 62
     7
370
    15
100
AcDbLine
 10
276.5333644777
 20
93.592975099
 30
0.0
 11
276.5002452954
 21
93.2000391631
 31
0.0
  0
LINE
  5
AE
330
1F
100
AcDbEntity
  8
0
  6
Continuous
 62
     7
370
    15
100
AcDbLine
 10
264.4957694536
 20
94.6435627717
 30
0.0
 11
264.4626502714
 21
94.2506268358
 31
0.0
  0
SPLINE
  5
AF
330
1F
100
AcDbEntity
  8
0
  6
Continuous
 62
     7
370
    15
100
AcDbSpline
210
0.0
220
0.0
230
1.0
 70
     8
 71
     3
 72
    11
 73
     7
 74
     0
 42
0.00000001
 43
0.00000001
 40
0.0
 40
0.0
 40
0.0
 40
0.0
 40
0.008116439103091
 40
0.3263678516928418
 40
0.6627685813478452
 40
1.0
 40
1.0
 40
1.0
 40
1.0
 10
265.5601196163037
 20
95.72686470996884
 30
0.0
 10
265.5589269939468
 20
95.72574256861262
 30
0.0
 10
265.5109707915373
 20
95.68062045790917
 30
0.0
 10
265.4054921473416
 20
95.57951445165762
 30
0.0
 10
265.2340399782885
 20
95.41031505702897
 30
0.0
 10
265.1243675954687
 20
95.29741165090337
 30
0.0
 10
265.069463782849
 20
95.24089033446373
 30
0.0
  0
SPLINE
  5
B0
330
1F
100
AcDbEntity
  8
0
  6
Continuous
 62
     7
370
    15
100
AcDbSpline
210
0.0
220
0.0
230
1.0
 70
     8
 71
     3
 72
    14
 73
    10
 74
     0
 42
0.00000001
 43
0.00000001
 40
0.0
 40
0.0
 40
0.0
 40
0.0
 40
0.0076078452721606
 40
0.1629874631621359
 40
0.3207220632347823
 40
0.4900060525182201
 40
0.6629673458728399
 40
0.8292185822131215
 40
1.0
 40
1.0
 40
1.0
 40
1.0
 10
275.1254365555599
 20
95.02586188752728
 30
0.0
 10
275.1265521052295
 20
95.02481231164292
 30
0.0
 10
275.150451199412
 20
95.00232661369942
 30
0.0
 10
275.1992535570822
 20
94.95601456899028
 30
0.0
 10
275.2764713406095
 20
94.8816418604353
 30
0.0
 10
275.3596116643106
 20
94.80039157570427
 30
0.0
 10
275.4457445024345
 20
94.71491445146546
 30
0.0
 10
275.5322096118729
 20
94.62787814400254
 30
0.0
 10
275.586734994066
 20
94.57179859217973
 30
0.0
 10
275.6143641331488
 20
94.54338192319568
 30
0.0
  0
LINE
  5
B1
330
1F
100
AcDbEntity
  8
0
  6
Continuous
 62
     7
370
    15
100
AcDbLine
 10
168.0633896247
 20
87.6408805829
 30
0.0
 11
168.0633896247
 21
134.9887177419
 31
0.0
  0
SPLINE
  5
B2
330
1F
100
AcDbEntity
  8
0
  6
Continuous
 62
     7
370
    15
100
AcDbSpline
210
0.0
220
0.0
230
1.0
 70
     8
 71
     3
 72
     8
 73
     4
 74
     0
 42
0.00000001
 43
0.00000001
 40
0.0
 40
0.0
 40
0.0
 40
0.0
 40
1.0
 40
1.0
 40
1.0
 40
1.0
 10
168.0633896247178
 20
87.64088058288053
 30
0.0
 10
167.5710505019367
 20
86.74361054867383
 30
0.0
 10
167.0769364538945
 20
85.84732613362158
 30
0.0
 10
166.5814567932288
 20
84.95180004568823
 30
0.0
  0
LINE
  5
B3
330
1F
100
AcDbEntity
  8
0
  6
Continuous
 62
     7
370
    15
100
AcDbLine
 10
166.5814567932
 20
84.9518000457
 30
0.0
 11
166.5814567932
 21
134.9887177419
 31
0.0
  0
SPLINE
  5
B4
330
1F
100
AcDbEntity
  8
0
  6
Continuous
 62
     7
370
    15
100
AcDbSpline
210
0.0
220
0.0
230
1.0
 70
    24
 71
     3
 72
     8
 73
     4
 74
     0
 42
0.00000001
 43
0.00000001
 40
0.0
 40
0.0
 40
0.0
 40
0.0
 40
1.0
 40
1.0
 40
1.0
 40
1.0
 10
166.5814567932288
 20
134.9887177419355
 30
0.0
 10
167.0881369013793
 20
134.9887177419355
 30
0.0
 10
167.5834376303529
 20
134.9887177419355
 30
0.0
 10
168.0633896247178
 20
134.9887177419355
 30
0.0
  0
LINE
  5
B5
330
1F
100
AcDbEntity
  8
0
  6
Continuous
 62
     7
370
    15
100
AcDbLine
 10
177.9233896247
 20
85.5784403413
 30
0.0
 11
177.9233896247
 21
134.9887177419
 31
0.0
  0
SPLINE
  5
B6
330
1F
100
AcDbEntity
  8
0
  6
Continuous
 62
     7
370
    15
100
AcDbSpline
210
0.0
220
0.0
230
1.0
 70
     8
 71
     3
 72
    10
 73
     6
 74
     0
 42
0.00000001
 43
0.00000001
 40
0.0
 40
0.0
 40
0.0
 40
0.0
 40
0.5
 40
0.5
 40
1.0
 40
1.0
 40
1.0
 40
1.0
 10
177.9233896247179
 20
85.57844034134251
 30
0.0
 10
177.9233896247179
 20
85.41855307314889
 30
0.0
 10
177.862079973482
 20
85.25742581763431
 30
0.0
 10
177.6429803359469
 20
85.02332681927952
 30
0.0
 10
177.4849321296335
 20
84.95180004568833
 30
0.0
 10
177.3233896247179
 20
84.95180004568833
 30
0.0
  0
SPLINE
  5
B7
330
1F
100
AcDbEntity
  8
0
  6
Continuous
 62
     7
370
    15
100
AcDbSpline
210
0.0
220
0.0
230
1.0
 70
    24
 71
     3
 72
    12
 73
     8
 74
     0
 42
0.00000001
 43
0.00000001
 40
0.0
 40
0.0
 40
0.0
 40
0.0
 40
0.2500000000000033
 40
0.2500000000000033
 40
0.5000000000000067
 40
0.5000000000000067
 40
1.0
 40
1.0
 40
1.0
 40
1.0
 10
177.3233896247179
 20
134.9887177419355
 30
0.0
 10
177.4136286924049
 20
134.9887177419355
 30
0.0
 10
177.5045268065113
 20
134.9887177419355
 30
0.0
 10
177.6591238429999
 20
134.9887177419355
 30
0.0
 10
177.724102259108
 20
134.9887177419355
 30
0.0
 10
177.8759372870443
 20
134.9887177419355
 30
0.0
 10
177.9233896247179
 20
134.9887177419355
 30
0.0
 10
177.9233896247179
 20
134.9887177419355
 30
0.0
  0
LINE
  5
B8
330
1F
100
AcDbEntity
  8
0
  6
Continuous
 62
     7
370
    15
100
AcDbLine
 10
177.3233896247
 20
84.9518000457
 30
0.0
 11
173.3653224562
 21
84.9518000457
 31
0.0
  0
LINE
  5
B9
330
1F
100
AcDbEntity
  8
0
  6
Continuous
 62
     7
370
    15
100
AcDbLine
 10
173.3653224562
 20
84.9518000457
 30
0.0
 11
173.3653224562
 21
134.9887177419
 31
0.0
  0
LINE
  5
BA
330
1F
100
AcDbEntity
  8
0
  6
Continuous
 62
     7
370
    15
100
AcDbLine
 10
173.3653224562
 20
134.9887177419
 30
0.0
 11
177.3233896247
 21
134.9887177419
 31
0.0
  0
LINE
  5
BB
330
1F
100
AcDbEntity
  8
0
  6
Continuous
 62
     7
370
    15
100
AcDbLine
 10
156.9233896247
 20
134.9887177419
 30
0.0
 11
166.5814567932
 21
134.9887177419
 31
0.0
  0
LINE
  5
BC
330
1F
100
AcDbEntity
  8
0
  6
Continuous
 62
     7
370
    15
100
AcDbLine
 10
166.5814567932
 20
84.9518000457
 30
0.0
 11
164.9233896247
 21
84.9518000457
 31
0.0
  0
SPLINE
  5
BD
330
1F
100
AcDbEntity
  8
0
  6
Continuous
 62
     7
370
    15
100
AcDbSpline
210
0.0
220
0.0
230
1.0
 70
     8
 71
     3
 72
    28
 73
    24
 74
     0
 42
0.00000001
 43
0.00000001
 40
0.0
 40
0.0
 40
0.0
 40
0.0
 40
0.1250000000000002
 40
0.1250000000000002
 40
0.1875000000000004
 40
0.1875000000000004
 40
0.2500000000000005
 40
0.2500000000000005
 40
0.3750000000000011
 40
0.3750000000000011
 40
0.4375000000000012
 40
0.4375000000000012
 40
0.5000000000000011
 40
0.5000000000000011
 40
0.6250000000000007
 40
0.6250000000000007
 40
0.7500000000000002
 40
0.7500000000000002
 40
0.8125000000000002
 40
0.8125000000000002
 40
0.8750000000000001
 40
0.8750000000000001
 40
1.0
 40
1.0
 40
1.0
 40
1.0
 10
164.9233896247179
 20
84.9518000456882
 30
0.0
 10
164.3916818672249
 20
84.9518000456882
 30
0.0
 10
163.8694433019146
 20
84.93601533173809
 30
0.0
 10
163.0995728156396
 20
84.8910199176619
 30
0.0
 10
162.8452132434483
 20
84.87246492258619
 30
0.0
 10
162.3410916627497
 20
84.82861220013966
 30
0.0
 10
162.0913688453218
 20
84.80326759318747
 30
0.0
 10
161.3657788938754
 20
84.71986551543736
 30
0.0
 10
160.9074186322939
 20
84.65399995628627
 30
0.0
 10
160.2569206889
 20
84.54502961579449
 30
0.0
 10
160.0452386381075
 20
84.50678998002783
 30
0.0
 10
159.6411671489695
 20
84.42903124260847
 30
0.0
 10
159.4486606351487
 20
84.38953028043312
 30
0.0
 10
158.8988256641274
 20
84.27062253806713
 30
0.0
 10
158.5688968858186
 20
84.19080485664252
 30
0.0
 10
157.9844256172499
 20
84.03746169484646
 30
0.0
 10
157.7381484792365
 20
83.96612794157721
 30
0.0
 10
157.4383056865384
 20
83.87218443450259
 30
0.0
 10
157.3498488294662
 20
83.84299064114265
 30
0.0
 10
157.1964874761611
 20
83.78952406687922
 30
0.0
 10
157.1313992619349
 20
83.76516473260406
 30
0.0
 10
156.9758052459941
 20
83.70157458715933
 30
0.0
 10
156.9233896247179
 20
83.67147165206991
 30
0.0
 10
156.9233896247179
 20
83.65459475907299
 30
0.0
  0
LINE
  5
BE
330
1F
100
AcDbEntity
  8
0
  6
Continuous
 62
     7
370
    15
100
AcDbLine
 10
156.9233896247
 20
83.6545947591
 30
0.0
 11
156.9233896247
 21
83.6387177419
 31
0.0
  0
SPLINE
  5
BF
330
1F
100
AcDbEntity
  8
0
  6
Continuous
 62
     7
370
    15
100
AcDbSpline
210
0.0
220
0.0
230
1.0
 70
     8
 71
     3
 72
    23
 73
    19
 74
     0
 42
0.00000001
 43
0.00000001
 40
0.0
 40
0.0
 40
0.0
 40
0.0
 40
0.0517619521913362
 40
0.1565080754797601
 40
0.2099948740593994
 40
0.2617439796566978
 40
0.3663990748700994
 40
0.4197728662548313
 40
0.5256599837700464
 40
0.5793826576173061
 40
0.6338669009070212
 40
0.68718776212866
 40
0.740888352043774
 40
0.7958044585045473
 40
0.8511490227897115
 40
0.9035396565662507
 40
0.9563116809912253
 40
1.0
 40
1.0
 40
1.0
 40
1.0
 10
164.9233896247179
 20
145.6059132150998
 30
0.0
 10
164.7057763942796
 20
145.6073197936721
 30
0.0
 10
164.0477983534027
 20
145.6115727419485
 30
0.0
 10
163.1727469844662
 20
145.6511381875056
 30
0.0
 10
162.3279593904198
 20
145.7141080899486
 30
0.0
 10
161.508284466504
 20
145.7921458780757
 30
0.0
 10
160.732494836645
 20
145.8890567318923
 30
0.0
 10
159.8345777891392
 20
146.0245273407018
 30
0.0
 10
159.177010551055
 20
146.1406814417049
 30
0.0
 10
158.5992904709378
 20
146.2544541653151
 30
0.0
 10
158.2079623061888
 20
146.3365383760117
 30
0.0
 10
157.8641570300269
 20
146.4125243635303
 30
0.0
 10
157.5690613093652
 20
146.480593109906
 30
0.0
 10
157.3237822339903
 20
146.5391797945783
 30
0.0
 10
157.1358290204419
 20
146.5853172555091
 30
0.0
 10
157.0074387191505
 20
146.617426704501
 30
0.0
 10
156.9338898273201
 20
146.6360477990756
 30
0.0
 10
156.929556465759
 20
146.6371512299436
 30
0.0
 10
156.9275938220909
 20
146.6376509901358
 30
0.0
  0
LINE
  5
C0
330
1F
100
AcDbEntity
  8
0
  6
Continuous
 62
     7
370
    15
100
AcDbLine
 10
166.5814567932
 20
145.6059132151
 30
0.0
 11
164.9233896247
 21
145.6059132151
 31
0.0
  0
LINE
  5
C1
330
1F
100
AcDbEntity
  8
0
  6
Continuous
 62
     7
370
    15
100
AcDbLine
 10
166.5814567932
 20
139.5974074043
 30
0.0
 11
166.5814567932
 21
145.6059132151
 31
0.0
  0
LINE
  5
C2
330
1F
100
AcDbEntity
  8
0
  6
Continuous
 62
     7
370
    15
100
AcDbLine
 10
164.1690099704
 20
139.5974074043
 30
0.0
 11
166.5814567932
 21
139.5974074043
 31
0.0
  0
SPLINE
  5
C3
330
1F
100
AcDbEntity
  8
0
  6
Continuous
 62
     7
370
    15
100
AcDbSpline
210
0.0
220
0.0
230
1.0
 70
     8
 71
     3
 72
    20
 73
    16
 74
     0
 42
0.00000001
 43
0.00000001
 40
0.0
 40
0.0
 40
0.0
 40
0.0
 40
0.2499999999999996
 40
0.2499999999999996
 40
0.3749999999999998
 40
0.3749999999999998
 40
0.5
 40
0.5
 40
0.625
 40
0.625
 40
0.75
 40
0.75
 40
0.8750000000000001
 40
0.8750000000000001
 40
1.0
 40
1.0
 40
1.0
 40
1.0
 10
156.9233896247179
 20
134.9887177419355
 30
0.0
 10
157.171763359006
 20
135.6425801702329
 30
0.0
 10
157.4913334513512
 20
136.24636595223
 30
0.0
 10
158.113639684556
 20
137.0732046883986
 30
0.0
 10
158.3450639449867
 20
137.3356333263515
 30
0.0
 10
158.8662782846365
 20
137.8322959804564
 30
0.0
 10
159.1528987672715
 20
138.0628828594779
 30
0.0
 10
159.7723835085791
 20
138.4794370840606
 30
0.0
 10
160.1066838880661
 20
138.6669348860281
 30
0.0
 10
160.8319443606909
 20
138.9983318636645
 30
0.0
 10
161.2138594180813
 20
139.1378358511597
 30
0.0
 10
162.008647594253
 20
139.3632893586307
 30
0.0
 10
162.4228057884594
 20
139.4499154701743
 30
0.0
 10
163.2883521290408
 20
139.5678962590285
 30
0.0
 10
163.7262397440525
 20
139.597407404303
 30
0.0
 10
164.1690099704072
 20
139.597407404303
 30
0.0
  0
SPLINE
  5
C4
330
1F
100
AcDbEntity
  8
0
  6
Continuous
 62
     7
370
    15
100
AcDbSpline
210
0.0
220
0.0
230
1.0
 70
     8
 71
     3
 72
     8
 73
     4
 74
     0
 42
0.00000001
 43
0.00000001
 40
0.0
 40
0.0
 40
0.0
 40
0.0
 40
1.0
 40
1.0
 40
1.0
 40
1.0
 10
173.365322456207
 20
84.95180004568823
 30
0.0
 10
172.8698427955412
 20
85.84732613362158
 30
0.0
 10
172.3757287474991
 20
86.74361054867381
 30
0.0
 10
171.8833896247179
 20
87.64088058288051
 30
0.0
  0
LINE
  5
C5
330
1F
100
AcDbEntity
  8
0
  6
Continuous
 62
     7
370
    15
100
AcDbLine
 10
171.8833896247
 20
87.6408805829
 30
0.0
 11
171.8833896247
 21
134.9887177419
 31
0.0
  0
SPLINE
  5
C6
330
1F
100
AcDbEntity
  8
0
  6
Continuous
 62
     7
370
    15
100
AcDbSpline
210
0.0
220
0.0
230
1.0
 70
    24
 71
     3
 72
     8
 73
     4
 74
     0
 42
0.00000001
 43
0.00000001
 40
0.0
 40
0.0
 40
0.0
 40
0.0
 40
1.0
 40
1.0
 40
1.0
 40
1.0
 10
171.8833896247179
 20
134.9887177419355
 30
0.0
 10
172.3633416190828
 20
134.9887177419355
 30
0.0
 10
172.8586423480565
 20
134.9887177419355
 30
0.0
 10
173.365322456207
 20
134.9887177419355
 30
0.0
  0
LINE
  5
C7
330
1F
100
AcDbEntity
  8
0
  6
Continuous
 62
     7
370
    15
100
AcDbLine
 10
151.9733896247
 20
83.9387177419
 30
0.0
 11
151.9733896247
 21
146.3387177419
 31
0.0
  0
SPLINE
  5
C8
330
1F
100
AcDbEntity
  8
0
  6
Continuous
 62
     7
370
    15
100
AcDbSpline
210
0.0
220
0.0
230
1.0
 70
    24
 71
     3
 72
    14
 73
    10
 74
     0
 42
0.00000001
 43
0.00000001
 40
0.0
 40
0.0
 40
0.0
 40
0.0
 40
0.4999999999999987
 40
0.4999999999999987
 40
0.749999999999998
 40
0.749999999999998
 40
0.874999999999999
 40
0.874999999999999
 40
1.0
 40
1.0
 40
1.0
 40
1.0
 10
171.7857148223856
 20
88.73871774193537
 30
0.0
 10
171.7389301173374
 20
88.73871774193537
 30
0.0
 10
171.6768789205578
 20
88.73871774193539
 30
0.0
 10
171.5334872820073
 20
88.73871774193537
 30
0.0
 10
171.4773436284561
 20
88.73871774193537
 30
0.0
 10
171.36439260632
 20
88.73871774193537
 30
0.0
 10
171.3213918442818
 20
88.73871774193537
 30
0.0
 10
171.2173291339754
 20
88.73871774193537
 30
0.0
 10
171.1519968956183
 20
88.73871774193537
 30
0.0
 10
171.0833896247179
 20
88.73871774193537
 30
0.0
  0
SPLINE
  5
C9
330
1F
100
AcDbEntity
  8
0
  6
Continuous
 62
     7
370
    15
100
AcDbSpline
210
0.0
220
0.0
230
1.0
 70
    24
 71
     3
 72
    12
 73
     8
 74
     0
 42
0.00000001
 43
0.00000001
 40
0.0
 40
0.0
 40
0.0
 40
0.0
 40
0.4999999999999983
 40
0.4999999999999983
 40
0.7499999999999991
 40
0.7499999999999991
 40
1.0
 40
1.0
 40
1.0
 40
1.0
 10
171.4890920930271
 20
141.5387177419356
 30
0.0
 10
171.4460065434163
 20
141.5387177419356
 30
0.0
 10
171.3968543416692
 20
141.5387177419356
 30
0.0
 10
171.3003817473797
 20
141.5387177419356
 30
0.0
 10
171.2642801622455
 20
141.5387177419356
 30
0.0
 10
171.1811744043829
 20
141.5387177419356
 30
0.0
 10
171.1331778074186
 20
141.5387177419356
 30
0.0
 10
171.0833896247178
 20
141.5387177419356
 30
0.0
  0
SPLINE
  5
CA
330
1F
100
AcDbEntity
  8
0
  6
Continuous
 62
     7
370
    15
100
AcDbSpline
210
0.0
220
0.0
230
1.0
 70
     8
 71
     3
 72
    10
 73
     6
 74
     0
 42
0.00000001
 43
0.00000001
 40
0.0
 40
0.0
 40
0.0
 40
0.0
 40
0.5
 40
0.5
 40
1.0
 40
1.0
 40
1.0
 40
1.0
 10
171.8833896247179
 20
142.2583715929714
 30
0.0
 10
171.8833896247179
 20
142.1146015351534
 30
0.0
 10
171.847340565999
 20
141.9721821726582
 30
0.0
 10
171.711831705225
 20
141.7222878793009
 30
0.0
 10
171.6119557121288
 20
141.6142575430527
 30
0.0
 10
171.4890920930269
 20
141.5387177419354
 30
0.0
  0
SPLINE
  5
CB
330
1F
100
AcDbEntity
  8
0
  6
Continuous
 62
     7
370
    15
100
AcDbSpline
210
0.0
220
0.0
230
1.0
 70
     8
 71
     3
 72
    10
 73
     6
 74
     0
 42
0.00000001
 43
0.00000001
 40
0.0
 40
0.0
 40
0.0
 40
0.0
 40
0.5
 40
0.5
 40
1.0
 40
1.0
 40
1.0
 40
1.0
 10
171.8572420015578
 20
134.9887177419355
 30
0.0
 10
171.8659316444694
 20
135.0355965912537
 30
0.0
 10
171.8724707092199
 20
135.083019056655
 30
0.0
 10
171.8812293436129
 20
135.1789558552417
 30
0.0
 10
171.8833896247179
 20
135.2268711432522
 30
0.0
 10
171.8833896247179
 20
135.2745843733967
 30
0.0
  0
SPLINE
  5
CC
330
1F
100
AcDbEntity
  8
0
  6
Continuous
 62
     7
370
    15
100
AcDbSpline
210
0.0
220
0.0
230
1.0
 70
     8
 71
     3
 72
    10
 73
     6
 74
     0
 42
0.00000001
 43
0.00000001
 40
0.0
 40
0.0
 40
0.0
 40
0.0
 40
0.5
 40
0.5
 40
1.0
 40
1.0
 40
1.0
 40
1.0
 10
168.4576871564088
 20
141.5387177419355
 30
0.0
 10
168.3361468927403
 20
141.6134439091473
 30
0.0
 10
168.2348125323913
 20
141.7223889250641
 30
0.0
 10
168.0991735895029
 20
141.9728194058257
 30
0.0
 10
168.0633896247178
 20
142.1152387679247
 30
0.0
 10
168.0633896247179
 20
142.2583715929714
 30
0.0
  0
SPLINE
  5
CD
330
1F
100
AcDbEntity
  8
0
  6
Continuous
 62
     7
370
    15
100
AcDbSpline
210
0.0
220
0.0
230
1.0
 70
    24
 71
     3
 72
    12
 73
     8
 74
     0
 42
0.00000001
 43
0.00000001
 40
0.0
 40
0.0
 40
0.0
 40
0.0
 40
0.25
 40
0.25
 40
0.5
 40
0.5
 40
1.0
 40
1.0
 40
1.0
 40
1.0
 10
168.8633896247179
 20
141.5387177419356
 30
0.0
 10
168.8140462629083
 20
141.5387177419356
 30
0.0
 10
168.7653555646064
 20
141.5387177419356
 30
0.0
 10
168.682504467036
 20
141.5387177419356
 30
0.0
 10
168.6463044994154
 20
141.5387177419356
 30
0.0
 10
168.5505545828661
 20
141.5387177419356
 30
0.0
 10
168.5006726130539
 20
141.5387177419356
 30
0.0
 10
168.4576871564087
 20
141.5387177419356
 30
0.0
  0
SPLINE
  5
CE
330
1F
100
AcDbEntity
  8
0
  6
Continuous
 62
     7
370
    15
100
AcDbSpline
210
0.0
220
0.0
230
1.0
 70
    24
 71
     3
 72
    14
 73
    10
 74
     0
 42
0.00000001
 43
0.00000001
 40
0.0
 40
0.0
 40
0.0
 40
0.0
 40
0.125
 40
0.125
 40
0.25
 40
0.25
 40
0.5
 40
0.5
 40
1.0
 40
1.0
 40
1.0
 40
1.0
 10
168.8633896247178
 20
88.73871774193537
 30
0.0
 10
168.7940429029867
 20
88.73871774193537
 30
0.0
 10
168.7288448496026
 20
88.73871774193537
 30
0.0
 10
168.6244656569757
 20
88.73871774193539
 30
0.0
 10
168.5815632859667
 20
88.73871774193539
 30
0.0
 10
168.469237628362
 20
88.73871774193537
 30
0.0
 10
168.4140139340082
 20
88.73871774193537
 30
0.0
 10
168.2699565552407
 20
88.73871774193537
 30
0.0
 10
168.2078758584092
 20
88.73871774193537
 30
0.0
 10
168.1610644270501
 20
88.73871774193537
 30
0.0
  0
SPLINE
  5
CF
330
1F
100
AcDbEntity
  8
0
  6
Continuous
 62
     7
370
    15
100
AcDbSpline
210
0.0
220
0.0
230
1.0
 70
     8
 71
     3
 72
     9
 73
     5
 74
     0
 42
0.00000001
 43
0.00000001
 40
0.0
 40
0.0
 40
0.0
 40
0.0
 40
0.5
 40
1.0
 40
1.0
 40
1.0
 40
1.0
 10
168.0633896247179
 20
135.2745843733969
 30
0.0
 10
168.0633896247179
 20
135.2263523212742
 30
0.0
 10
168.067795599423
 20
135.1304823078347
 30
0.0
 10
168.0808147795168
 20
135.0357736778513
 30
0.0
 10
168.0895372478779
 20
134.9887177419355
 30
0.0
  0
LINE
  5
D0
330
1F
100
AcDbEntity
  8
0
  6
Continuous
 62
     7
370
    15
100
AcDbLine
 10
171.0833896247
 20
141.5387177419
 30
0.0
 11
168.8633896247
 21
141.5387177419
 31
0.0
  0
LINE
  5
D1
330
1F
100
AcDbEntity
  8
0
  6
Continuous
 62
     7
370
    15
100
AcDbLine
 10
171.0833896247
 20
88.7387177419
 30
0.0
 11
168.8633896247
 21
88.7387177419
 31
0.0
  0
LINE
  5
D2
330
1F
100
AcDbEntity
  8
0
  6
Continuous
 62
     7
370
    15
100
AcDbLine
 10
149.9733896247
 20
90.9182868802
 30
0.0
 11
149.9733896247
 21
139.3591486037
 31
0.0
  0
LINE
  5
D3
330
1F
100
AcDbEntity
  8
0
  6
Continuous
 62
     7
370
    15
100
AcDbLine
 10
130.1733896247
 20
91.9102708481
 30
0.0
 11
130.1733896247
 21
93.1935694827
 31
0.0
  0
SPLINE
  5
D4
330
1F
100
AcDbEntity
  8
0
  6
Continuous
 62
     7
370
    15
100
AcDbSpline
210
0.0
220
0.0
230
1.0
 70
     8
 71
     3
 72
    14
 73
    10
 74
     0
 42
0.00000001
 43
0.00000001
 40
0.0
 40
0.0
 40
0.0
 40
0.0
 40
0.25
 40
0.25
 40
0.5
 40
0.5
 40
0.75
 40
0.75
 40
1.0
 40
1.0
 40
1.0
 40
1.0
 10
129.551785387978
 20
94.27434652465224
 30
0.0
 10
129.590221772799
 20
94.17172212694072
 30
0.0
 10
129.6590231661908
 20
94.07252570350116
 30
0.0
 10
129.8023091783498
 20
93.88163367417464
 30
0.0
 10
129.8774912334568
 20
93.78937640814172
 30
0.0
 10
130.0096785221069
 20
93.60976908632674
 30
0.0
 10
130.0671957175767
 20
93.52245953188238
 30
0.0
 10
130.1492405158691
 20
93.35252569836663
 30
0.0
 10
130.1733896247179
 20
93.27062335649546
 30
0.0
 10
130.1733896247179
 20
93.19356948265956
 30
0.0
  0
SPLINE
  5
D5
330
1F
100
AcDbEntity
  8
0
  6
Continuous
 62
     7
370
    15
100
AcDbSpline
210
0.0
220
0.0
230
1.0
 70
     8
 71
     3
 72
    18
 73
    14
 74
     0
 42
0.00000001
 43
0.00000001
 40
0.0
 40
0.0
 40
0.0
 40
0.0
 40
0.0624999999999992
 40
0.0624999999999992
 40
0.1249999999999984
 40
0.1249999999999984
 40
0.2499999999999981
 40
0.2499999999999981
 40
0.4999999999999988
 40
0.4999999999999988
 40
0.7499999999999994
 40
0.7499999999999994
 40
1.0
 40
1.0
 40
1.0
 40
1.0
 10
128.773389624718
 20
94.99262897613859
 30
0.0
 10
128.8099618350683
 20
94.99640637966603
 30
0.0
 10
128.8486123085036
 20
94.99584935178291
 30
0.0
 10
128.9227038022175
 20
94.98579014662106
 30
0.0
 10
128.9580540959714
 20
94.97643626519653
 30
0.0
 10
129.0526483933609
 20
94.94205183876275
 30
0.0
 10
129.1027865664998
 20
94.91134010409999
 30
0.0
 10
129.231979838081
 20
94.81541079406198
 30
0.0
 10
129.2902599828221
 20
94.74689529994477
 30
0.0
 10
129.3904550792457
 20
94.61032335001215
 30
0.0
 10
129.4304703306923
 20
94.54155844750927
 30
0.0
 10
129.4988697515101
 20
94.4065230184016
 30
0.0
 10
129.527231475372
 20
94.33990499234845
 30
0.0
 10
129.551785387978
 20
94.27434652465224
 30
0.0
  0
SPLINE
  5
D6
330
1F
100
AcDbEntity
  8
0
  6
Continuous
 62
     7
370
    15
100
AcDbSpline
210
0.0
220
0.0
230
1.0
 70
     8
 71
     3
 72
    10
 73
     6
 74
     0
 42
0.00000001
 43
0.00000001
 40
0.0
 40
0.0
 40
0.0
 40
0.0
 40
0.5
 40
0.5
 40
1.0
 40
1.0
 40
1.0
 40
1.0
 10
124.8597877635962
 20
94.49643531976695
 30
0.0
 10
125.4874154193035
 20
94.59970887850257
 30
0.0
 10
126.1386161643349
 20
94.68853399025409
 30
0.0
 10
127.4473208683471
 20
94.85064169712446
 30
0.0
 10
128.1083653056383
 20
94.92394116141105
 30
0.0
 10
128.7733896247179
 20
94.99262897613875
 30
0.0
  0
SPLINE
  5
D7
330
1F
100
AcDbEntity
  8
0
  6
Continuous
 62
     7
370
    15
100
AcDbSpline
210
0.0
220
0.0
230
1.0
 70
     8
 71
     3
 72
    14
 73
    10
 74
     0
 42
0.00000001
 43
0.00000001
 40
0.0
 40
0.0
 40
0.0
 40
0.0
 40
0.5000000000000012
 40
0.5000000000000012
 40
0.7500000000000021
 40
0.7500000000000021
 40
0.875000000000001
 40
0.875000000000001
 40
1.0
 40
1.0
 40
1.0
 40
1.0
 10
121.2233896247179
 20
94.33208618340782
 30
0.0
 10
121.8394665284732
 20
94.33781230363695
 30
0.0
 10
122.4535985245891
 20
94.34770266903898
 30
0.0
 10
123.3674951551027
 20
94.37833763670874
 30
0.0
 10
123.6709340826503
 20
94.3911310943467
 30
0.0
 10
124.1220706982878
 20
94.41905692230607
 30
0.0
 10
124.2717769478303
 20
94.4298265424658
 30
0.0
 10
124.5686180840784
 20
94.4569592580653
 30
0.0
 10
124.7160036365817
 20
94.4727762308925
 30
0.0
 10
124.859787763596
 20
94.49643531976693
 30
0.0
  0
SPLINE
  5
D8
330
1F
100
AcDbEntity
  8
0
  6
Continuous
 62
     7
370
    15
100
AcDbSpline
210
0.0
220
0.0
230
1.0
 70
     8
 71
     3
 72
     8
 73
     4
 74
     0
 42
0.00000001
 43
0.00000001
 40
0.0000003682006999
 40
0.0000003682006999
 40
0.0000003682006999
 40
0.0000003682006999
 40
0.0000187826246626
 40
0.0000187826246626
 40
0.0000187826246626
 40
0.0000187826246626
 10
121.2133446942996
 20
94.33883058786645
 30
0.0
 10
121.216679089727
 20
94.33657783001262
 30
0.0
 10
121.2200275038361
 20
94.33432970188208
 30
0.0
 10
121.2233896247177
 20
94.33208618340788
 30
0.0
  0
SPLINE
  5
D9
330
1F
100
AcDbEntity
  8
0
  6
Continuous
 62
     7
370
    15
100
AcDbSpline
210
0.0
220
0.0
230
1.0
 70
     8
 71
     3
 72
     8
 73
     4
 74
     0
 42
0.00000001
 43
0.00000001
 40
0.0000003292049707
 40
0.0000003292049707
 40
0.0000003292049707
 40
0.0000003292049707
 40
0.0000169050949325
 40
0.0000169050949325
 40
0.0000169050949325
 40
0.0000169050949325
 10
121.2233896247177
 20
136.0086555073306
 30
0.0
 10
121.2200330425809
 20
136.0067435132337
 30
0.0
 10
121.2166846784554
 20
136.0048282229786
 30
0.0
 10
121.2133446942864
 20
136.0029096143633
 30
0.0
  0
SPLINE
  5
DA
330
1F
100
AcDbEntity
  8
0
  6
Continuous
 62
     7
370
    15
100
AcDbSpline
210
0.0
220
0.0
230
1.0
 70
     8
 71
     3
 72
    10
 73
     6
 74
     0
 42
0.00000001
 43
0.00000001
 40
0.0
 40
0.0
 40
0.0
 40
0.0
 40
0.5
 40
0.5
 40
1.0
 40
1.0
 40
1.0
 40
1.0
 10
124.7733896247179
 20
135.9618051337634
 30
0.0
 10
124.1858040776273
 20
135.9828706539998
 30
0.0
 10
123.5950576841669
 20
135.993629139872
 30
0.0
 10
122.4110385188681
 20
136.0069939204076
 30
0.0
 10
121.8176245306626
 20
136.0091365630722
 30
0.0
 10
121.2233896247179
 20
136.0086555073306
 30
0.0
  0
SPLINE
  5
DB
330
1F
100
AcDbEntity
  8
0
  6
Continuous
 62
     7
370
    15
100
AcDbSpline
210
0.0
220
0.0
230
1.0
 70
     8
 71
     3
 72
    18
 73
    14
 74
     0
 42
0.00000001
 43
0.00000001
 40
0.0
 40
0.0
 40
0.0
 40
0.0
 40
0.2499999999999999
 40
0.2499999999999999
 40
0.4999999999999998
 40
0.4999999999999998
 40
0.7499999999999997
 40
0.7499999999999997
 40
0.8750000000000011
 40
0.8750000000000011
 40
0.9375000000000006
 40
0.9375000000000006
 40
1.0
 40
1.0
 40
1.0
 40
1.0
 10
126.1733896247179
 20
136.9828254142984
 30
0.0
 10
126.1733896247179
 20
136.8996185054413
 30
0.0
 10
126.1375405247796
 20
136.8108818501277
 30
0.0
 10
126.0126687887456
 20
136.6287566595674
 30
0.0
 10
125.9222683710978
 20
136.5336266109408
 30
0.0
 10
125.7000257163556
 20
136.3444451018165
 30
0.0
 10
125.5702609299098
 20
136.2494999337218
 30
0.0
 10
125.3296234725982
 20
136.1112212261419
 30
0.0
 10
125.2418561744608
 20
136.0655107928395
 30
0.0
 10
125.0873320872539
 20
136.0076874876181
 30
0.0
 10
125.0307212011992
 20
135.9899727235803
 30
0.0
 10
124.9066771702927
 20
135.9654334203474
 30
0.0
 10
124.8389624952745
 20
135.9594542818091
 30
0.0
 10
124.7733896247179
 20
135.9618051337634
 30
0.0
  0
LINE
  5
DC
330
1F
100
AcDbEntity
  8
0
  6
Continuous
 62
     7
370
    15
100
AcDbLine
 10
126.1733896247
 20
136.9828254143
 30
0.0
 11
126.1733896247
 21
138.1667638341
 31
0.0
  0
SPLINE
  5
DD
330
1F
100
AcDbEntity
  8
0
  6
Continuous
 62
     7
370
    15
100
AcDbSpline
210
0.0
220
0.0
230
1.0
 70
     8
 71
     3
 72
    18
 73
    14
 74
     0
 42
0.00000001
 43
0.00000001
 40
0.0
 40
0.0
 40
0.0
 40
0.0
 40
0.0010671296451827
 40
0.127094779573159
 40
0.2524053457512672
 40
0.3766468878986948
 40
0.4391415999050651
 40
0.500827802140023
 40
0.5624255708817563
 40
0.6253162439161299
 40
0.7499985144706807
 40
0.8752758950341303
 40
1.0
 40
1.0
 40
1.0
 40
1.0
 10
138.7436904647905
 20
91.48137871901899
 30
0.0
 10
138.7427786321521
 20
91.48126394048235
 30
0.0
 10
138.6341796735152
 20
91.46759385561637
 30
0.0
 10
139.0218207411649
 20
91.51851335623206
 30
0.0
 10
139.8877854230001
 20
91.61809652927852
 30
0.0
 10
141.0881893477697
 20
91.68722041242214
 30
0.0
 10
142.1457652622584
 20
91.69117264156112
 30
0.0
 10
142.9728993491685
 20
91.66368370310568
 30
0.0
 10
143.798171216804
 20
91.60514352669851
 30
0.0
 10
144.8525364368016
 20
91.49162236696172
 30
0.0
 10
146.0143727182746
 20
91.30847154271413
 30
0.0
 10
146.9666074996578
 20
91.10386833307903
 30
0.0
 10
147.0923125604658
 20
91.07458298230299
 30
0.0
 10
147.155025992611
 20
91.05997271246231
 30
0.0
  0
SPLINE
  5
DE
330
1F
100
AcDbEntity
  8
0
  6
Continuous
 62
     7
370
    15
100
AcDbSpline
210
0.0
220
0.0
230
1.0
 70
     8
 71
     3
 72
    18
 73
    14
 74
     0
 42
0.00000001
 43
0.00000001
 40
0.0
 40
0.0
 40
0.0
 40
0.0
 40
0.1248907792210126
 40
0.2505384020341702
 40
0.3748721840485287
 40
0.4374907653352095
 40
0.4990776265894366
 40
0.5607931536355752
 40
0.6233901338664929
 40
0.7478191038417344
 40
0.8731940995934948
 40
0.9991614644710073
 40
0.9999999999999999
 40
0.9999999999999999
 40
0.9999999999999999
 40
0.9999999999999999
 10
147.1548072270871
 20
139.2173975908542
 30
0.0
 10
147.0910664743754
 20
139.2027362982562
 30
0.0
 10
146.9631986971989
 20
139.1733248649847
 30
0.0
 10
146.0111994761386
 20
138.9683717609222
 30
0.0
 10
144.8506557709343
 20
138.7851079851112
 30
0.0
 10
143.7983913188463
 20
138.6720803928621
 30
0.0
 10
142.9741642037775
 20
138.6138167453209
 30
0.0
 10
142.1465604342584
 20
138.586370357317
 30
0.0
 10
141.0877432417731
 20
138.590355163246
 30
0.0
 10
139.8855245437391
 20
138.6594446396274
 30
0.0
 10
139.0203406040518
 20
138.7590708561841
 30
0.0
 10
138.6342001825215
 20
138.8098869297844
 30
0.0
 10
138.7422717233019
 20
138.7962147497215
 30
0.0
 10
138.7429863732222
 20
138.7961243390331
 30
0.0
  0
SPLINE
  5
DF
330
1F
100
AcDbEntity
  8
0
  6
Continuous
 62
     7
370
    15
100
AcDbSpline
210
0.0
220
0.0
230
1.0
 70
     8
 71
     3
 72
    22
 73
    18
 74
     0
 42
0.00000001
 43
0.00000001
 40
0.0
 40
0.0
 40
0.0
 40
0.0
 40
0.1249999999999927
 40
0.1249999999999927
 40
0.2499999999999853
 40
0.2499999999999853
 40
0.3124999999999831
 40
0.3124999999999831
 40
0.3749999999999809
 40
0.3749999999999809
 40
0.499999999999984
 40
0.499999999999984
 40
0.6249999999999871
 40
0.6249999999999871
 40
0.7499999999999902
 40
0.7499999999999902
 40
1.0
 40
1.0
 40
1.0
 40
1.0
 10
121.2133446942869
 20
136.0029096143642
 30
0.0
 10
121.1527249734105
 20
135.9680874377169
 30
0.0
 10
121.0905356334439
 20
135.9295836340162
 30
0.0
 10
120.9568061672144
 20
135.8436491462175
 30
0.0
 10
120.8845516255022
 20
135.7953425450154
 30
0.0
 10
120.7626536846664
 20
135.7189908268455
 30
0.0
 10
120.7188471315145
 20
135.6925763662385
 30
0.0
 10
120.6324519623396
 20
135.6440674417079
 30
0.0
 10
120.590111986048
 20
135.6221333189816
 30
0.0
 10
120.476141239679
 20
135.565763529037
 30
0.0
 10
120.4177225136888
 20
135.5394067045033
 30
0.0
 10
120.3178149425013
 20
135.4872668799992
 30
0.0
 10
120.2764009517059
 20
135.4621062902866
 30
0.0
 10
120.2043759838286
 20
135.4069994469595
 30
0.0
 10
120.1740274425157
 20
135.3771430434646
 30
0.0
 10
120.1005357124836
 20
135.2797363414719
 30
0.0
 10
120.0733896247179
 20
135.2034046576616
 30
0.0
 10
120.0733896247179
 20
135.1147782465914
 30
0.0
  0
SPLINE
  5
E0
330
1F
100
AcDbEntity
  8
0
  6
Continuous
 62
     7
370
    15
100
AcDbSpline
210
0.0
220
0.0
230
1.0
 70
     8
 71
     3
 72
    22
 73
    18
 74
     0
 42
0.00000001
 43
0.00000001
 40
0.0
 40
0.0
 40
0.0
 40
0.0
 40
0.2499999999999951
 40
0.2499999999999951
 40
0.4999999999999902
 40
0.4999999999999902
 40
0.5624999999999905
 40
0.5624999999999905
 40
0.6249999999999907
 40
0.6249999999999907
 40
0.6874999999999909
 40
0.6874999999999909
 40
0.7499999999999911
 40
0.7499999999999911
 40
0.8749999999999956
 40
0.8749999999999956
 40
1.0
 40
1.0
 40
1.0
 40
1.0
 10
120.0733896247177
 20
95.17959997993609
 30
0.0
 10
120.0733896247177
 20
95.08962659491831
 30
0.0
 10
120.1048878430635
 20
95.01457855240321
 30
0.0
 10
120.21141527224
 20
94.90155133869169
 30
0.0
 10
120.2845754913769
 20
94.8647377558989
 30
0.0
 10
120.4055039677013
 20
94.82909407964507
 30
0.0
 10
120.4313544555052
 20
94.82234386585891
 30
0.0
 10
120.4889490132795
 20
94.80727485714446
 30
0.0
 10
120.5208947538031
 20
94.7991418337178
 30
0.0
 10
120.5967517943754
 20
94.77385625913334
 30
0.0
 10
120.6439628450213
 20
94.7544810410163
 30
0.0
 10
120.7401888386203
 20
94.69872256236656
 30
0.0
 10
120.7846097685441
 20
94.66623741925578
 30
0.0
 10
120.9008307784299
 20
94.57732703763418
 30
0.0
 10
120.9659830178418
 20
94.52282895430601
 30
0.0
 10
121.0925374582077
 20
94.42420147524967
 30
0.0
 10
121.1532115351774
 20
94.37945727700152
 30
0.0
 10
121.2133446942999
 20
94.33883058786516
 30
0.0
  0
LINE
  5
E1
330
1F
100
AcDbEntity
  8
0
  6
Continuous
 62
     7
370
    15
100
AcDbLine
 10
120.0733896247
 20
95.1795999799
 30
0.0
 11
120.0733896247
 21
135.1147782466
 31
0.0
  0
LINE
  5
E2
330
1F
100
AcDbEntity
  8
0
  6
Continuous
 62
     7
370
    15
100
AcDbLine
 10
177.3233896247
 20
145.6059132151
 30
0.0
 11
173.3653224562
 21
145.6059132151
 31
0.0
  0
LINE
  5
E3
330
1F
100
AcDbEntity
  8
0
  6
Continuous
 62
     7
370
    15
100
AcDbLine
 10
173.3653224562
 20
139.5974074043
 30
0.0
 11
177.3233896247
 21
139.5974074043
 31
0.0
  0
LINE
  5
E4
330
1F
100
AcDbEntity
  8
0
  6
Continuous
 62
     7
370
    15
100
AcDbLine
 10
173.3653224562
 20
139.5974074043
 30
0.0
 11
173.3653224562
 21
145.6059132151
 31
0.0
  0
SPLINE
  5
E5
330
1F
100
AcDbEntity
  8
0
  6
Continuous
 62
     7
370
    15
100
AcDbSpline
210
0.0
220
0.0
230
1.0
 70
     8
 71
     3
 72
     8
 73
     4
 74
     0
 42
0.00000001
 43
0.00000001
 40
0.0
 40
0.0
 40
0.0
 40
0.0
 40
1.0
 40
1.0
 40
1.0
 40
1.0
 10
173.365322456207
 20
145.6059132150998
 30
0.0
 10
172.8701824268427
 20
144.7192335669195
 30
0.0
 10
172.3760997215637
 20
143.8319709312335
 30
0.0
 10
171.8833896247179
 20
142.9439519331072
 30
0.0
  0
SPLINE
  5
E6
330
1F
100
AcDbEntity
  8
0
  6
Continuous
 62
     7
370
    15
100
AcDbSpline
210
0.0
220
0.0
230
1.0
 70
     8
 71
     3
 72
     8
 73
     4
 74
     0
 42
0.00000001
 43
0.00000001
 40
0.0
 40
0.0
 40
0.0
 40
0.0
 40
1.0
 40
1.0
 40
1.0
 40
1.0
 10
171.8833896247179
 20
136.1888614095189
 30
0.0
 10
172.3626677753078
 20
137.3298726393715
 30
0.0
 10
172.8582356144477
 20
138.4662570501393
 30
0.0
 10
173.365322456207
 20
139.597407404303
 30
0.0
  0
LINE
  5
E7
330
1F
100
AcDbEntity
  8
0
  6
Continuous
 62
     7
370
    15
100
AcDbLine
 10
171.8833896247
 20
136.1888614095
 30
0.0
 11
171.8833896247
 21
142.9439519331
 31
0.0
  0
LINE
  5
E8
330
1F
100
AcDbEntity
  8
0
  6
Continuous
 62
     7
370
    15
100
AcDbLine
 10
171.8833896247
 20
135.2745843734
 30
0.0
 11
171.8833896247
 21
136.1888614095
 31
0.0
  0
SPLINE
  5
E9
330
1F
100
AcDbEntity
  8
0
  6
Continuous
 62
     7
370
    15
100
AcDbSpline
210
0.0
220
0.0
230
1.0
 70
     8
 71
     3
 72
    12
 73
     8
 74
     0
 42
0.00000001
 43
0.00000001
 40
0.0
 40
0.0
 40
0.0
 40
0.0
 40
0.249999999999998
 40
0.249999999999998
 40
0.499999999999996
 40
0.499999999999996
 40
1.0
 40
1.0
 40
1.0
 40
1.0
 10
177.3233896247179
 20
139.5974074043028
 30
0.0
 10
177.4145893465436
 20
139.5974074043028
 30
0.0
 10
177.5051843556795
 20
139.569187705715
 30
0.0
 10
177.6585970821262
 20
139.4747446984669
 30
0.0
 10
177.7238059494498
 20
139.4084577217616
 30
0.0
 10
177.8765904787898
 20
139.1828328984733
 30
0.0
 10
177.9233896247179
 20
139.0004066354408
 30
0.0
 10
177.9233896247179
 20
138.8196700031939
 30
0.0
  0
LINE
  5
EA
330
1F
100
AcDbEntity
  8
0
  6
Continuous
 62
     7
370
    15
100
AcDbLine
 10
177.9233896247
 20
138.8196700032
 30
0.0
 11
177.9233896247
 21
134.9887177419
 31
0.0
  0
SPLINE
  5
EB
330
1F
100
AcDbEntity
  8
0
  6
Continuous
 62
     7
370
    15
100
AcDbSpline
210
0.0
220
0.0
230
1.0
 70
     8
 71
     3
 72
    10
 73
     6
 74
     0
 42
0.00000001
 43
0.00000001
 40
0.0
 40
0.0
 40
0.0
 40
0.0
 40
0.5
 40
0.5
 40
1.0
 40
1.0
 40
1.0
 40
1.0
 10
177.9233896247179
 20
144.9851580656995
 30
0.0
 10
177.9233896247179
 20
145.1455633320502
 30
0.0
 10
177.861151793611
 20
145.3046251450388
 30
0.0
 10
177.6420168698684
 20
145.5355376106691
 30
0.0
 10
177.4844281748767
 20
145.6059132150997
 30
0.0
 10
177.3233896247179
 20
145.6059132150997
 30
0.0
  0
LINE
  5
EC
330
1F
100
AcDbEntity
  8
0
  6
Continuous
 62
     7
370
    15
100
AcDbLine
 10
177.9233896247
 20
138.8196700032
 30
0.0
 11
177.9233896247
 21
144.9851580657
 31
0.0
  0
SPLINE
  5
ED
330
1F
100
AcDbEntity
  8
0
  6
Continuous
 62
     7
370
    15
100
AcDbSpline
210
0.0
220
0.0
230
1.0
 70
     8
 71
     3
 72
     8
 73
     4
 74
     0
 42
0.00000001
 43
0.00000001
 40
0.0
 40
0.0
 40
0.0
 40
0.0
 40
1.0
 40
1.0
 40
1.0
 40
1.0
 10
166.5814567932288
 20
139.597407404303
 30
0.0
 10
167.088543634988
 20
138.4662570501393
 30
0.0
 10
167.584111474128
 20
137.3298726393715
 30
0.0
 10
168.0633896247178
 20
136.1888614095189
 30
0.0
  0
LINE
  5
EE
330
1F
100
AcDbEntity
  8
0
  6
Continuous
 62
     7
370
    15
100
AcDbLine
 10
168.0633896247
 20
136.1888614095
 30
0.0
 11
168.0633896247
 21
135.2745843734
 31
0.0
  0
SPLINE
  5
EF
330
1F
100
AcDbEntity
  8
0
  6
Continuous
 62
     7
370
    15
100
AcDbSpline
210
0.0
220
0.0
230
1.0
 70
     8
 71
     3
 72
     8
 73
     4
 74
     0
 42
0.00000001
 43
0.00000001
 40
0.0
 40
0.0
 40
0.0
 40
0.0
 40
1.0
 40
1.0
 40
1.0
 40
1.0
 10
168.0633896247178
 20
142.9439519331071
 30
0.0
 10
167.5706795278721
 20
143.8319709312335
 30
0.0
 10
167.0765968225931
 20
144.7192335669195
 30
0.0
 10
166.5814567932288
 20
145.6059132150998
 30
0.0
  0
LINE
  5
F0
330
1F
100
AcDbEntity
  8
0
  6
Continuous
 62
     7
370
    15
100
AcDbLine
 10
168.0633896247
 20
136.1888614095
 30
0.0
 11
168.0633896247
 21
142.9439519331
 31
0.0
  0
LINE
  5
F1
330
1F
100
AcDbEntity
  8
0
  6
Continuous
 62
     7
370
    15
100
AcDbLine
 10
248.5773515526
 20
130.9660276479
 30
0.0
 11
250.9733896247
 21
130.9660276479
 31
0.0
  0
SPLINE
  5
F2
330
1F
100
AcDbEntity
  8
0
  6
Continuous
 62
     7
370
    15
100
AcDbSpline
210
0.0
220
0.0
230
1.0
 70
     8
 71
     3
 72
    14
 73
    10
 74
     0
 42
0.00000001
 43
0.00000001
 40
0.0
 40
0.0
 40
0.0
 40
0.0
 40
0.25
 40
0.25
 40
0.5
 40
0.5
 40
0.75
 40
0.75
 40
1.0
 40
1.0
 40
1.0
 40
1.0
 10
242.7817965948572
 20
129.6631498813545
 30
0.0
 10
242.9444827100109
 20
129.9355774134074
 30
0.0
 10
243.2006526351786
 20
130.1547029670421
 30
0.0
 10
243.9189844760101
 20
130.5091278832192
 30
0.0
 10
244.3609511299962
 20
130.6349287601967
 30
0.0
 10
245.4115085196452
 20
130.821709395988
 30
0.0
 10
245.9929636707332
 20
130.8782358133305
 30
0.0
 10
247.2568815648711
 20
130.9511173521483
 30
0.0
 10
247.9076868537299
 20
130.9660276479273
 30
0.0
 10
248.5773515525916
 20
130.9660276479272
 30
0.0
  0
ELLIPSE
  5
F3
330
1F
100
AcDbEntity
  8
0
  6
Continuous
 62
     7
370
    15
100
AcDbEllipse
 10
244.3042110647
 20
115.1387177419
 30
0.0
 11
0.3220561513869029
 21
15.99976859320063
 31
0.0
210
0.0
220
0.0
230
0.9999999999999999
 40
0.2671959542
 41
0.4382210567924062
 42
2.853754501398437
  0
SPLINE
  5
F4
330
1F
100
AcDbEntity
  8
0
  6
Continuous
 62
     7
370
    15
100
AcDbSpline
210
0.0
220
0.0
230
1.0
 70
     8
 71
     3
 72
    14
 73
    10
 74
     0
 42
0.00000001
 43
0.00000001
 40
0.0
 40
0.0
 40
0.0
 40
0.0
 40
0.25
 40
0.25
 40
0.5
 40
0.5
 40
0.75
 40
0.75
 40
1.0
 40
1.0
 40
1.0
 40
1.0
 10
248.5773515525916
 20
99.1391592325048
 30
0.0
 10
247.9076916385645
 20
99.1391592325048
 30
0.0
 10
247.2565897056495
 20
99.13884843101287
 30
0.0
 10
245.9915783365664
 20
99.15107212016395
 30
0.0
 10
245.4116955309798
 20
99.16352576755442
 30
0.0
 10
244.3617744026413
 20
99.23585756810164
 30
0.0
 10
243.9192437357686
 20
99.29439896782833
 30
0.0
 10
243.2015019462909
 20
99.49568390807583
 30
0.0
 10
242.9444861661608
 20
99.63388512449126
 30
0.0
 10
242.7817965948572
 20
99.82161096123815
 30
0.0
  0
LINE
  5
F5
330
1F
100
AcDbEntity
  8
0
  6
Continuous
 62
     7
370
    15
100
AcDbLine
 10
250.9733896247
 20
99.1391592325
 30
0.0
 11
248.5773515526
 21
99.1391592325
 31
0.0
  0
LINE
  5
F6
330
1F
100
AcDbEntity
  8
0
  6
Continuous
 62
     7
370
    15
100
AcDbLine
 10
250.9733896247
 20
99.1391592325
 30
0.0
 11
250.9733896247
 21
99.1387177419
 31
0.0
  0
LINE
  5
F7
330
1F
100
AcDbEntity
  8
0
  6
Continuous
 62
     7
370
    15
100
AcDbLine
 10
250.9733896247
 20
131.1387177419
 30
0.0
 11
250.9733896247
 21
130.9660276479
 31
0.0
  0
ELLIPSE
  5
F8
330
1F
100
AcDbEntity
  8
0
  6
Continuous
 62
     7
370
    15
100
AcDbEllipse
 10
241.7683311366
 20
108.6674893386
 30
0.0
 11
-0.08858572008301734
 21
2.32755199684469
 31
0.0
210
0.0
220
0.0
230
1.0
 40
0.2575917467
 41
0.0
 42
6.283185307179586
  0
LINE
  5
F9
330
1F
100
AcDbEntity
  8
0
  6
Continuous
 62
     7
370
    15
100
AcDbLine
 10
121.2233896247
 20
94.3262177419
 30
0.0
 11
121.2233896247
 21
94.3320861834
 31
0.0
  0
LINE
  5
FA
330
1F
100
AcDbEntity
  8
0
  6
Continuous
 62
     7
370
    15
100
AcDbLine
 10
274.8558957986
 20
108.1471413319
 30
0.0
 11
258.4878041236
 21
131.4662559304
 31
0.0
  0
ELLIPSE
  5
FB
330
1F
100
AcDbEntity
  8
0
  6
Continuous
 62
     7
370
    15
100
AcDbEllipse
 10
270.0088389908
 20
115.1387177419
 30
0.0
 11
-11.54074050226257
 21
16.49565463945643
 31
0.0
210
0.0
220
0.0
230
0.9999999999999999
 40
0.032810104
 41
4.689438305247843
 42
6.40494461865834
  0
LINE
  5
FC
330
1F
100
AcDbEntity
  8
0
  6
Continuous
 62
     7
370
    15
100
AcDbLine
 10
274.8558957986
 20
109.3532920338
 30
0.0
 11
270.8147651352
 21
115.1387177419
 31
0.0
  0
LINE
  5
FD
330
1F
100
AcDbEntity
  8
0
  6
Continuous
 62
     7
370
    15
100
AcDbLine
 10
274.8558957986
 20
109.3532920338
 30
0.0
 11
274.8558957986
 21
108.1471413319
 31
0.0
  0
LINE
  5
FE
330
1F
100
AcDbEntity
  8
0
  6
Continuous
 62
     7
370
    15
100
AcDbLine
 10
258.4878041236
 20
131.4662559304
 30
0.0
 11
251.4733896247
 21
131.4662559304
 31
0.0
  0
LINE
  5
FF
330
1F
100
AcDbEntity
  8
0
  6
Continuous
 62
     7
370
    15
100
AcDbLine
 10
251.4733896247
 20
131.6387177419
 30
0.0
 11
251.4733896247
 21
131.4662559304
 31
0.0
  0
LINE
  5
100
330
1F
100
AcDbEntity
  8
0
  6
Continuous
 62
     7
370
    15
100
AcDbLine
 10
251.4733896247
 20
131.4662559304
 30
0.0
 11
250.9733896247
 21
130.9660276479
 31
0.0
  0
SPLINE
  5
101
330
1F
100
AcDbEntity
  8
0
  6
Continuous
 62
     7
370
    15
100
AcDbSpline
210
0.0
220
0.0
230
1.0
 70
     8
 71
     3
 72
     8
 73
     4
 74
     0
 42
0.00000001
 43
0.00000001
 40
0.0
 40
0.0
 40
0.0
 40
0.0
 40
1.0
 40
1.0
 40
1.0
 40
1.0
 10
250.9733896247179
 20
99.13915923250482
 30
0.0
 10
252.0782216773344
 20
98.03372244145477
 30
0.0
 10
253.183387430131
 20
96.92861733309935
 30
0.0
 10
254.2887399413676
 20
95.8236978540791
 30
0.0
  0
LINE
  5
102
330
1F
100
AcDbEntity
  8
0
  6
Continuous
 62
     7
370
    15
100
AcDbLine
 10
275.0420357274
 20
106.0247349094
 30
0.0
 11
274.8558957986
 21
108.1471413319
 31
0.0
  0
ARC
  5
103
330
1F
100
AcDbEntity
  8
0
  6
Continuous
 62
     7
370
    15
100
AcDbCircle
 10
264.1043264372
 20
106.0000697223
 30
0.0
 40
2.097321848855361
100
AcDbArc
 50
22.2419555064
 51
246.4247214681
  0
LINE
  5
104
330
1F
100
AcDbEntity
  8
0
  6
Continuous
 62
     7
370
    15
100
AcDbLine
 10
264.0643708183
 20
94.9688506587
 30
0.0
 11
254.2887399414
 21
95.8236978541
 31
0.0
  0
LINE
  5
105
330
1F
100
AcDbEntity
  8
0
  6
Continuous
 62
     7
370
    15
100
AcDbLine
 10
275.0647444422
 20
106.076919264
 30
0.0
 11
275.0647444422
 21
106.022752994
 31
0.0
  0
LINE
  5
106
330
1F
100
AcDbEntity
  8
0
  6
Continuous
 62
     7
370
    15
100
AcDbLine
 10
275.1471984642
 20
106.0155567742
 30
0.0
 11
274.8558957986
 21
109.3532920338
 31
0.0
  0
LINE
  5
107
330
1F
100
AcDbEntity
  8
0
  6
Continuous
 62
     7
370
    15
100
AcDbLine
 10
275.0647444422
 20
106.076919264
 30
0.0
 11
275.0695315909
 21
106.0223351929
 31
0.0
  0
ARC
  5
108
330
1F
100
AcDbEntity
  8
0
  6
Continuous
 62
     7
370
    15
100
AcDbCircle
 10
264.0979026401
 20
106.3146499097
 30
0.0
 40
2.095362601231812
100
AcDbArc
 50
184.3428457253
 51
245.7366724385
  0
LINE
  5
109
330
1F
100
AcDbEntity
  8
0
  6
HIDDEN
 62
     7
370
     0
100
AcDbLine
 10
156.9233896247
 20
83.6387177419
 30
0.0
 11
156.9233896247
 21
83.6545947591
 31
0.0
  0
SPLINE
  5
10A
330
1F
100
AcDbEntity
  8
0
  6
HIDDEN
 62
     7
370
     0
100
AcDbSpline
210
0.0
220
0.0
230
1.0
 70
     8
 71
     3
 72
    30
 73
    26
 74
     0
 42
0.00000001
 43
0.00000001
 40
0.0
 40
0.0
 40
0.0
 40
0.0
 40
0.1249999999999996
 40
0.1249999999999996
 40
0.1874999999999994
 40
0.1874999999999994
 40
0.2499999999999992
 40
0.2499999999999992
 40
0.3749999999999988
 40
0.3749999999999988
 40
0.4374999999999987
 40
0.4374999999999987
 40
0.4999999999999986
 40
0.4999999999999986
 40
0.6249999999999986
 40
0.6249999999999986
 40
0.6874999999999988
 40
0.6874999999999988
 40
0.749999999999999
 40
0.749999999999999
 40
0.8124999999999993
 40
0.8124999999999993
 40
0.8749999999999996
 40
0.8749999999999996
 40
1.0
 40
1.0
 40
1.0
 40
1.0
 10
156.9233896247179
 20
83.65459475907296
 30
0.0
 10
156.9233896247179
 20
83.67147367708158
 30
0.0
 10
156.9758071906963
 20
83.70149124190644
 30
0.0
 10
157.1291866705986
 20
83.76430163117955
 30
0.0
 10
157.1928677912663
 20
83.78820553840644
 30
0.0
 10
157.345822658718
 20
83.84164083084883
 30
0.0
 10
157.4353949574873
 20
83.8712476990164
 30
0.0
 10
157.7366189903404
 20
83.96569739773082
 30
0.0
 10
157.9819339864246
 20
84.03672479156005
 30
0.0
 10
158.4160309674948
 20
84.15073907826581
 30
0.0
 10
158.5727006565984
 20
84.19019432940638
 30
0.0
 10
158.9046938204408
 20
84.26971577217704
 30
0.0
 10
159.0793993494333
 20
84.30965191467783
 30
0.0
 10
159.6290690320249
 20
84.42858831750597
 30
0.0
 10
160.0293199947361
 20
84.50675308138985
 30
0.0
 10
160.6829068613737
 20
84.61646252165872
 30
0.0
 10
160.9085829810507
 20
84.65154335836714
 30
0.0
 10
161.368294802182
 20
84.71678363774676
 30
0.0
 10
161.6033481362251
 20
84.7471184537915
 30
0.0
 10
162.0838554185241
 20
84.80245683301334
 30
0.0
 10
162.3293089464383
 20
84.82746150957341
 30
0.0
 10
162.8309243712456
 20
84.8713413184641
 30
0.0
 10
163.0884167538461
 20
84.89028500322641
 30
0.0
 10
163.8664932702823
 20
84.93600473049659
 30
0.0
 10
164.3916555475272
 20
84.95180004568819
 30
0.0
 10
164.9233896247179
 20
84.95180004568819
 30
0.0
  0
LINE
  5
10B
330
1F
100
AcDbEntity
  8
0
  6
HIDDEN
 62
     7
370
     0
100
AcDbLine
 10
164.9233896247
 20
84.9518000457
 30
0.0
 11
166.5814567932
 21
84.9518000457
 31
0.0
  0
LINE
  5
10C
330
1F
100
AcDbEntity
  8
0
  6
HIDDEN
 62
     7
370
     0
100
AcDbLine
 10
166.5814567932
 20
145.6059132151
 30
0.0
 11
166.5814567932
 21
84.9518000457
 31
0.0
  0
LINE
  5
10D
330
1F
100
AcDbEntity
  8
0
  6
HIDDEN
 62
     7
370
     0
100
AcDbLine
 10
164.9233896247
 20
145.6059132151
 30
0.0
 11
166.5814567932
 21
145.6059132151
 31
0.0
  0
SPLINE
  5
10E
330
1F
100
AcDbEntity
  8
0
  6
HIDDEN
 62
     7
370
     0
100
AcDbSpline
210
0.0
220
0.0
230
1.0
 70
     8
 71
     3
 72
    24
 73
    20
 74
     0
 42
0.00000001
 43
0.00000001
 40
0.0
 40
0.0
 40
0.0
 40
0.0
 40
0.0096786192490793
 40
0.0638613520263618
 40
0.1150897520283912
 40
0.2187147589296631
 40
0.2715873592962997
 40
0.323320492927479
 40
0.4279239660440801
 40
0.4812567026176672
 40
0.5874625812434192
 40
0.6419371468053032
 40
0.6968114823325107
 40
0.7499885119850143
 40
0.8035487259003986
 40
0.8583374802636093
 40
0.9135595833158369
 40
0.9566727434116623
 40
1.0
 40
1.0
 40
1.0
 40
1.0
 10
156.9275938220909
 20
146.6376509901358
 30
0.0
 10
156.9262702296536
 20
146.6379868286726
 30
0.0
 10
156.9175369175559
 20
146.640202754568
 30
0.0
 10
156.9565035314855
 20
146.630300233406
 30
0.0
 10
157.0753356264293
 20
146.6003507972428
 30
0.0
 10
157.3053137877813
 20
146.5432925516886
 30
0.0
 10
157.6338025416624
 20
146.4654585052583
 30
0.0
 10
158.0290423584003
 20
146.3750802819933
 30
0.0
 10
158.5192863525715
 20
146.2696265691303
 30
0.0
 10
159.2414580903011
 20
146.1287411993967
 30
0.0
 10
159.9090401304779
 20
146.0122156462945
 30
0.0
 10
160.6492125073516
 20
145.9024757599213
 30
0.0
 10
161.2391469396945
 20
145.8259182901162
 30
0.0
 10
161.8528001261392
 20
145.7581822829156
 30
0.0
 10
162.4887901880594
 20
145.7007553492073
 30
0.0
 10
163.1515388200516
 20
145.6548555420464
 30
0.0
 10
163.785077725403
 20
145.6252470705676
 30
0.0
 10
164.377745227138
 20
145.6087467577873
 30
0.0
 10
164.7412080827071
 20
145.6068592876307
 30
0.0
 10
164.9233896247179
 20
145.6059132150998
 30
0.0
  0
SPLINE
  5
10F
330
1F
100
AcDbEntity
  8
0
  6
HIDDEN
 62
     7
370
     0
100
AcDbSpline
210
0.0
220
0.0
230
1.0
 70
     8
 71
     3
 72
    76
 73
    72
 74
     0
 42
0.00000001
 43
0.00000001
 40
-0.0312499999999999
 40
-0.0312499999999999
 40
0.0
 40
0.0
 40
0.0312500000000001
 40
0.0312500000000001
 40
0.0468750000000002
 40
0.0468750000000002
 40
0.0625000000000002
 40
0.0625000000000002
 40
0.0937500000000003
 40
0.0937500000000003
 40
0.1250000000000004
 40
0.1250000000000004
 40
0.1562500000000005
 40
0.1562500000000005
 40
0.1875000000000006
 40
0.1875000000000006
 40
0.2187500000000007
 40
0.2187500000000007
 40
0.2500000000000008
 40
0.2500000000000008
 40
0.2812500000000009
 40
0.2812500000000009
 40
0.3125000000000011
 40
0.3125000000000011
 40
0.3281250000000011
 40
0.3281250000000011
 40
0.3437500000000011
 40
0.3437500000000011
 40
0.3750000000000011
 40
0.3750000000000011
 40
0.4062500000000011
 40
0.4062500000000011
 40
0.4375000000000011
 40
0.4375000000000011
 40
0.4687500000000011
 40
0.4687500000000011
 40
0.500000000000001
 40
0.500000000000001
 40
0.5312500000000011
 40
0.5312500000000011
 40
0.5625000000000011
 40
0.5625000000000011
 40
0.5937500000000011
 40
0.5937500000000011
 40
0.6250000000000011
 40
0.6250000000000011
 40
0.6562500000000011
 40
0.6562500000000011
 40
0.6875000000000011
 40
0.6875000000000011
 40
0.703125000000001
 40
0.703125000000001
 40
0.7187500000000011
 40
0.7187500000000011
 40
0.7500000000000009
 40
0.7500000000000009
 40
0.7812500000000008
 40
0.7812500000000008
 40
0.8125000000000007
 40
0.8125000000000007
 40
0.8437500000000006
 40
0.8437500000000006
 40
0.8750000000000004
 40
0.8750000000000004
 40
0.9062500000000003
 40
0.9062500000000003
 40
0.9375000000000002
 40
0.9375000000000002
 40
0.9687500000000001
 40
0.9687500000000001
 40
1.0
 40
1.0
 40
1.03125
 40
1.03125
 10
153.9733896247179
 20
115.4696017377295
 30
0.0
 10
153.9733896247179
 20
114.8078337461414
 30
0.0
 10
154.0059101025023
 20
114.4825825780455
 30
0.0
 10
154.1014033467843
 20
114.0027858571564
 30
0.0
 10
154.1410781821954
 20
113.8442101733628
 30
0.0
 10
154.2364647955311
 20
113.5298277875697
 30
0.0
 10
154.2924090369417
 20
113.3737081639856
 30
0.0
 10
154.4807720603914
 20
112.9197676040836
 30
0.0
 10
154.6343843368098
 20
112.6327873580766
 30
0.0
 10
154.9972121305939
 20
112.0896742013373
 30
0.0
 10
155.2080472321764
 20
111.8329349097934
 30
0.0
 10
155.6685468021938
 20
111.3725502755624
 30
0.0
 10
155.9199097431116
 20
111.1657734588086
 30
0.0
 10
156.4662564374651
 20
110.8002492511451
 30
0.0
 10
156.756471077183
 20
110.6452496924303
 30
0.0
 10
157.3578578934847
 20
110.3957186713361
 30
0.0
 10
157.6734875865751
 20
110.2994403976474
 30
0.0
 10
158.3191279878547
 20
110.1707913904044
 30
0.0
 10
158.643883743668
 20
110.1389051312879
 30
0.0
 10
159.2971837740594
 20
110.1385319837771
 30
0.0
 10
159.6290561148901
 20
110.1711114700232
 30
0.0
 10
160.2707073484937
 20
110.2988853747295
 30
0.0
 10
160.5826322654268
 20
110.3934178190266
 30
0.0
 10
161.0371218659438
 20
110.5815374135654
 30
0.0
 10
161.1869851737777
 20
110.6524203947861
 30
0.0
 10
161.4760704077003
 20
110.8070370011206
 30
0.0
 10
161.6159313220084
 20
110.8909595998584
 30
0.0
 10
162.0218077657126
 20
111.1621551233341
 30
0.0
 10
162.2748459122022
 20
111.3692551287754
 30
0.0
 10
162.7407454683656
 20
111.8348575818327
 30
0.0
 10
162.9472515428614
 20
112.0867764342199
 30
0.0
 10
163.3093571062611
 20
112.6276800502208
 30
0.0
 10
163.4662162200763
 20
112.9202228929722
 30
0.0
 10
163.7171663369389
 20
113.5250905497297
 30
0.0
 10
163.8119774362698
 20
113.8367373811764
 30
0.0
 10
163.940399299063
 20
114.478490686398
 30
0.0
 10
163.9732625855542
 20
114.8102185052773
 30
0.0
 10
163.9735159116627
 20
115.4633382705382
 30
0.0
 10
163.9419599110935
 20
115.7882714768813
 30
0.0
 10
163.8137186896691
 20
116.4347984833343
 30
0.0
 10
163.7179126410107
 20
116.7498064371953
 30
0.0
 10
163.4687791299166
 20
117.3517651053409
 30
0.0
 10
163.3133190082218
 20
117.6432412756164
 30
0.0
 10
162.9488647538621
 20
118.1888362121131
 30
0.0
 10
162.7424318464263
 20
118.4403133271183
 30
0.0
 10
162.2819627639084
 20
118.901636351173
 30
0.0
 10
162.0251657558525
 20
119.1127596521194
 30
0.0
 10
161.483120542018
 20
119.4754904338354
 30
0.0
 10
161.1963509620825
 20
119.629379337221
 30
0.0
 10
160.7420437861968
 20
119.818329063913
 30
0.0
 10
160.5859034854234
 20
119.8744018599328
 30
0.0
 10
160.2720575240773
 20
119.9699046254655
 30
0.0
 10
160.1136707363835
 20
120.009685268493
 30
0.0
 10
159.6341944964401
 20
120.1055678056183
 30
0.0
 10
159.3079545520132
 20
120.1384432536178
 30
0.0
 10
158.6470799547353
 20
120.1389888227889
 30
0.0
 10
158.3219436073904
 20
120.1068223041755
 30
0.0
 10
157.6818611069039
 20
119.9800397661882
 30
0.0
 10
157.3635401828361
 20
119.8837720123969
 30
0.0
 10
156.7586239039969
 20
119.6333776909718
 30
0.0
 10
156.4714749903455
 20
119.4800635292502
 30
0.0
 10
155.9275234366724
 20
119.1173556052304
 30
0.0
 10
155.6708774869459
 20
118.9069165324966
 30
0.0
 10
155.210286933533
 20
118.4470355442202
 30
0.0
 10
155.0031380475421
 20
118.1957537445274
 30
0.0
 10
154.6366068041287
 20
117.6488335707875
 30
0.0
 10
154.4819226166242
 20
117.3596934191712
 30
0.0
 10
154.231822963286
 20
116.7584567452519
 30
0.0
 10
154.1351361887929
 20
116.4424810516111
 30
0.0
 10
154.0059146138367
 20
115.7965072935145
 30
0.0
 10
153.9733896247179
 20
115.4696017377295
 30
0.0
 10
153.9733896247179
 20
114.8078337461414
 30
0.0
  0
LINE
  5
110
330
1F
100
AcDbEntity
  8
0
  6
HIDDEN
 62
     7
370
     0
100
AcDbLine
 10
151.9733896247
 20
146.3387177393
 30
0.0
 11
151.9733896247
 21
83.9387177419
 31
0.0
  0
SPLINE
  5
111
330
1F
100
AcDbEntity
  8
0
  6
HIDDEN
 62
     7
370
     0
100
AcDbSpline
210
0.0
220
0.0
230
1.0
 70
     8
 71
     3
 72
    10
 73
     6
 74
     0
 42
0.00000001
 43
0.00000001
 40
0.0
 40
0.0
 40
0.0
 40
0.0
 40
0.5
 40
0.5
 40
1.0
 40
1.0
 40
1.0
 40
1.0
 10
171.8833896247179
 20
88.33432211360604
 30
0.0
 10
171.8833896247179
 20
88.4045584739768
 30
0.0
 10
171.8751070126274
 20
88.4745525754743
 30
0.0
 10
171.8420070695688
 20
88.61151184003323
 30
0.0
 10
171.8176696776103
 20
88.6768197492885
 30
0.0
 10
171.7857148223857
 20
88.7387177419354
 30
0.0
  0
LINE
  5
112
330
1F
100
AcDbEntity
  8
0
  6
HIDDEN
 62
     7
370
     0
100
AcDbLine
 10
171.8833896247
 20
135.2745843734
 30
0.0
 11
171.8833896247
 21
142.258371593
 31
0.0
  0
SPLINE
  5
113
330
1F
100
AcDbEntity
  8
0
  6
HIDDEN
 62
     7
370
     0
100
AcDbSpline
210
0.0
220
0.0
230
1.0
 70
    24
 71
     3
 72
    10
 73
     6
 74
     0
 42
0.00000001
 43
0.00000001
 40
0.0
 40
0.0
 40
0.0
 40
0.0
 40
0.5
 40
0.5
 40
1.0
 40
1.0
 40
1.0
 40
1.0
 10
171.8572420015578
 20
134.9887177419355
 30
0.0
 10
171.8659197764654
 20
134.9887177419355
 30
0.0
 10
171.8724728004723
 20
134.9887177419355
 30
0.0
 10
171.8812074099693
 20
134.9887177419355
 30
0.0
 10
171.8833896247179
 20
134.9887177419355
 30
0.0
 10
171.8833896247179
 20
134.9887177419355
 30
0.0
  0
LINE
  5
114
330
1F
100
AcDbEntity
  8
0
  6
HIDDEN
 62
     7
370
     0
100
AcDbLine
 10
171.8833896247
 20
88.3343221136
 30
0.0
 11
171.8833896247
 21
134.9887177419
 31
0.0
  0
SPLINE
  5
115
330
1F
100
AcDbEntity
  8
0
  6
HIDDEN
 62
     7
370
     0
100
AcDbSpline
210
0.0
220
0.0
230
1.0
 70
     8
 71
     3
 72
    10
 73
     6
 74
     0
 42
0.00000001
 43
0.00000001
 40
0.0
 40
0.0
 40
0.0
 40
0.0
 40
0.5
 40
0.5
 40
1.0
 40
1.0
 40
1.0
 40
1.0
 10
168.1610644270501
 20
88.73871774193543
 30
0.0
 10
168.1289092394282
 20
88.67643169641933
 30
0.0
 10
168.1042530082339
 20
88.6099012715501
 30
0.0
 10
168.0714402513084
 20
88.47304264118767
 30
0.0
 10
168.0633896247179
 20
88.40398504600935
 30
0.0
 10
168.0633896247179
 20
88.33432211360606
 30
0.0
  0
SPLINE
  5
116
330
1F
100
AcDbEntity
  8
0
  6
HIDDEN
 62
     7
370
     0
100
AcDbSpline
210
0.0
220
0.0
230
1.0
 70
    24
 71
     3
 72
    10
 73
     6
 74
     0
 42
0.00000001
 43
0.00000001
 40
0.0
 40
0.0
 40
0.0
 40
0.0
 40
0.5
 40
0.5
 40
1.0
 40
1.0
 40
1.0
 40
1.0
 10
168.0633896247179
 20
134.9887177419355
 30
0.0
 10
168.0633896247179
 20
134.9887177419355
 30
0.0
 10
168.0656114832025
 20
134.9887177419355
 30
0.0
 10
168.0743481549261
 20
134.9887177419355
 30
0.0
 10
168.0808596687205
 20
134.9887177419355
 30
0.0
 10
168.089537247878
 20
134.9887177419355
 30
0.0
  0
LINE
  5
117
330
1F
100
AcDbEntity
  8
0
  6
HIDDEN
 62
     7
370
     0
100
AcDbLine
 10
168.0633896247
 20
135.2745843734
 30
0.0
 11
168.0633896247
 21
142.258371593
 31
0.0
  0
LINE
  5
118
330
1F
100
AcDbEntity
  8
0
  6
HIDDEN
 62
     7
370
     0
100
AcDbLine
 10
168.0633896247
 20
88.3343221136
 30
0.0
 11
168.0633896247
 21
134.9887177419
 31
0.0
  0
LINE
  5
119
330
1F
100
AcDbEntity
  8
0
  6
HIDDEN
 62
     7
370
     0
100
AcDbLine
 10
151.9733896247
 20
89.8147938208
 30
0.0
 11
151.9733896247
 21
140.4626416631
 31
0.0
  0
LINE
  5
11A
330
1F
100
AcDbEntity
  8
0
  6
HIDDEN
 62
     7
370
     0
100
AcDbLine
 10
156.9233896247
 20
134.9887177419
 30
0.0
 11
164.1690099704
 21
134.9887177419
 31
0.0
  0
LWPOLYLINE
  5
11B
330
1F
100
AcDbEntity
  8
0
  6
HIDDEN
 62
     7
370
     0
100
AcDbPolyline
 90
        2
 70
   128
 43
0.0
 10
171.8833896247
 20
134.9887177419
 10
171.8833896247
 20
134.9887177419
  0
LWPOLYLINE
  5
11C
330
1F
100
AcDbEntity
  8
0
  6
HIDDEN
 62
     7
370
     0
100
AcDbPolyline
 90
        2
 70
   128
 43
0.0
 10
177.9233896247
 20
134.9887177419
 10
177.9233896247
 20
134.9887177419
  0
LWPOLYLINE
  5
11D
330
1F
100
AcDbEntity
  8
0
  6
HIDDEN
 62
     7
370
     0
100
AcDbPolyline
 90
        2
 70
   128
 43
0.0
 10
168.0633896247
 20
134.9887177419
 10
168.0633896247
 20
134.9887177419
  0
LINE
  5
11E
330
1F
100
AcDbEntity
  8
0
  6
HIDDEN
 62
     7
370
     0
100
AcDbLine
 10
149.9733896247
 20
139.3591486037
 30
0.0
 11
149.9733896247
 21
90.9182868802
 31
0.0
  0
SPLINE
  5
11F
330
1F
100
AcDbEntity
  8
0
  6
HIDDEN
 62
     7
370
     0
100
AcDbSpline
210
0.0
220
0.0
230
1.0
 70
     8
 71
     3
 72
    14
 73
    10
 74
     0
 42
0.00000001
 43
0.00000001
 40
0.0
 40
0.0
 40
0.0
 40
0.0
 40
0.4999999999999999
 40
0.4999999999999999
 40
0.7499999999999986
 40
0.7499999999999986
 40
0.8749999999999992
 40
0.8749999999999992
 40
1.0
 40
1.0
 40
1.0
 40
1.0
 10
121.2233896247179
 20
94.33208618340782
 30
0.0
 10
121.8394665284732
 20
94.33781230363697
 30
0.0
 10
122.4535985245891
 20
94.34770266903898
 30
0.0
 10
123.3674951551026
 20
94.37833763670874
 30
0.0
 10
123.6709340826503
 20
94.39113109434672
 30
0.0
 10
124.1220706982878
 20
94.41905692230608
 30
0.0
 10
124.2717769478303
 20
94.42982654246583
 30
0.0
 10
124.5686180840784
 20
94.45695925806533
 30
0.0
 10
124.7160036365817
 20
94.47277623089253
 30
0.0
 10
124.859787763596
 20
94.49643531976696
 30
0.0
  0
SPLINE
  5
120
330
1F
100
AcDbEntity
  8
0
  6
HIDDEN
 62
     7
370
     0
100
AcDbSpline
210
0.0
220
0.0
230
1.0
 70
     8
 71
     3
 72
    10
 73
     6
 74
     0
 42
0.00000001
 43
0.00000001
 40
0.0
 40
0.0
 40
0.0
 40
0.0
 40
0.5
 40
0.5
 40
1.0
 40
1.0
 40
1.0
 40
1.0
 10
124.8597877635962
 20
94.49643531976697
 30
0.0
 10
125.4874154193035
 20
94.5997088785026
 30
0.0
 10
126.1386161643348
 20
94.68853399025411
 30
0.0
 10
127.4473208683469
 20
94.85064169712447
 30
0.0
 10
128.1083653056381
 20
94.92394116141107
 30
0.0
 10
128.7733896247177
 20
94.99262897613875
 30
0.0
  0
SPLINE
  5
121
330
1F
100
AcDbEntity
  8
0
  6
HIDDEN
 62
     7
370
     0
100
AcDbSpline
210
0.0
220
0.0
230
1.0
 70
     8
 71
     3
 72
    18
 73
    14
 74
     0
 42
0.00000001
 43
0.00000001
 40
0.0
 40
0.0
 40
0.0
 40
0.0
 40
0.0624999999999998
 40
0.0624999999999998
 40
0.1249999999999997
 40
0.1249999999999997
 40
0.2499999999999993
 40
0.2499999999999993
 40
0.4999999999999996
 40
0.4999999999999996
 40
0.7499999999999998
 40
0.7499999999999998
 40
1.0
 40
1.0
 40
1.0
 40
1.0
 10
128.7733896247179
 20
94.99262897613863
 30
0.0
 10
128.8099618350682
 20
94.99640637966608
 30
0.0
 10
128.8486123085036
 20
94.99584935178295
 30
0.0
 10
128.9227038022174
 20
94.98579014662111
 30
0.0
 10
128.9580540959714
 20
94.9764362651966
 30
0.0
 10
129.0526483933609
 20
94.94205183876281
 30
0.0
 10
129.1027865664998
 20
94.91134010410005
 30
0.0
 10
129.231979838081
 20
94.81541079406202
 30
0.0
 10
129.2902599828222
 20
94.74689529994478
 30
0.0
 10
129.3904550792457
 20
94.61032335001218
 30
0.0
 10
129.4304703306923
 20
94.54155844750929
 30
0.0
 10
129.4988697515101
 20
94.4065230184016
 30
0.0
 10
129.527231475372
 20
94.33990499234845
 30
0.0
 10
129.551785387978
 20
94.27434652465223
 30
0.0
  0
SPLINE
  5
122
330
1F
100
AcDbEntity
  8
0
  6
HIDDEN
 62
     7
370
     0
100
AcDbSpline
210
0.0
220
0.0
230
1.0
 70
     8
 71
     3
 72
    14
 73
    10
 74
     0
 42
0.00000001
 43
0.00000001
 40
0.0
 40
0.0
 40
0.0
 40
0.0
 40
0.25
 40
0.25
 40
0.5
 40
0.5
 40
0.75
 40
0.75
 40
1.0
 40
1.0
 40
1.0
 40
1.0
 10
129.551785387978
 20
94.27434652465224
 30
0.0
 10
129.590221772799
 20
94.17172212694072
 30
0.0
 10
129.6590231661908
 20
94.07252570350116
 30
0.0
 10
129.8023091783498
 20
93.88163367417462
 30
0.0
 10
129.8774912334568
 20
93.78937640814172
 30
0.0
 10
130.0096785221069
 20
93.60976908632674
 30
0.0
 10
130.0671957175767
 20
93.52245953188238
 30
0.0
 10
130.1492405158691
 20
93.35252569836662
 30
0.0
 10
130.1733896247179
 20
93.27062335649546
 30
0.0
 10
130.1733896247179
 20
93.19356948265956
 30
0.0
  0
LINE
  5
123
330
1F
100
AcDbEntity
  8
0
  6
HIDDEN
 62
     7
370
     0
100
AcDbLine
 10
130.1733896247
 20
93.1935694827
 30
0.0
 11
130.1733896247
 21
91.9102708481
 31
0.0
  0
LINE
  5
124
330
1F
100
AcDbEntity
  8
0
  6
HIDDEN
 62
     7
370
     0
100
AcDbLine
 10
126.1733896247
 20
138.1667638341
 30
0.0
 11
126.1733896247
 21
136.9828254143
 31
0.0
  0
SPLINE
  5
125
330
1F
100
AcDbEntity
  8
0
  6
HIDDEN
 62
     7
370
     0
100
AcDbSpline
210
0.0
220
0.0
230
1.0
 70
     8
 71
     3
 72
    18
 73
    14
 74
     0
 42
0.00000001
 43
0.00000001
 40
0.0
 40
0.0
 40
0.0
 40
0.0
 40
0.2500000000000006
 40
0.2500000000000006
 40
0.5000000000000011
 40
0.5000000000000011
 40
0.7500000000000017
 40
0.7500000000000017
 40
0.8750000000000009
 40
0.8750000000000009
 40
0.9375000000000006
 40
0.9375000000000006
 40
1.0
 40
1.0
 40
1.0
 40
1.0
 10
126.1733896247179
 20
136.9828254142984
 30
0.0
 10
126.1733896247179
 20
136.8996185054413
 30
0.0
 10
126.1375405247796
 20
136.8108818501277
 30
0.0
 10
126.0126687887457
 20
136.6287566595675
 30
0.0
 10
125.9222683710978
 20
136.5336266109408
 30
0.0
 10
125.7000257163556
 20
136.3444451018165
 30
0.0
 10
125.5702609299098
 20
136.2494999337218
 30
0.0
 10
125.3296234725982
 20
136.1112212261419
 30
0.0
 10
125.2418561744608
 20
136.0655107928395
 30
0.0
 10
125.0873320872539
 20
136.0076874876181
 30
0.0
 10
125.0307212011993
 20
135.9899727235803
 30
0.0
 10
124.9066771702927
 20
135.9654334203474
 30
0.0
 10
124.8389624952745
 20
135.9594542818091
 30
0.0
 10
124.7733896247179
 20
135.9618051337634
 30
0.0
  0
SPLINE
  5
126
330
1F
100
AcDbEntity
  8
0
  6
HIDDEN
 62
     7
370
     0
100
AcDbSpline
210
0.0
220
0.0
230
1.0
 70
     8
 71
     3
 72
    10
 73
     6
 74
     0
 42
0.00000001
 43
0.00000001
 40
0.0
 40
0.0
 40
0.0
 40
0.0
 40
0.5
 40
0.5
 40
1.0
 40
1.0
 40
1.0
 40
1.0
 10
124.773389624718
 20
135.9618051337634
 30
0.0
 10
124.1858040776274
 20
135.9828706539998
 30
0.0
 10
123.595057684167
 20
135.993629139872
 30
0.0
 10
122.4110385188681
 20
136.0069939204076
 30
0.0
 10
121.8176245306626
 20
136.0091365630722
 30
0.0
 10
121.2233896247179
 20
136.0086555073306
 30
0.0
  0
SPLINE
  5
127
330
1F
100
AcDbEntity
  8
0
  6
HIDDEN
 62
     7
370
     0
100
AcDbSpline
210
0.0
220
0.0
230
1.0
 70
     8
 71
     3
 72
     8
 73
     4
 74
     0
 42
0.00000001
 43
0.00000001
 40
0.0000003292049693
 40
0.0000003292049693
 40
0.0000003292049693
 40
0.0000003292049693
 40
0.000016905094931
 40
0.000016905094931
 40
0.000016905094931
 40
0.000016905094931
 10
121.2233896247178
 20
136.0086555073306
 30
0.0
 10
121.2200330425809
 20
136.0067435132337
 30
0.0
 10
121.2166846784554
 20
136.0048282229786
 30
0.0
 10
121.2133446942864
 20
136.0029096143633
 30
0.0
  0
SPLINE
  5
128
330
1F
100
AcDbEntity
  8
0
  6
HIDDEN
 62
     7
370
     0
100
AcDbSpline
210
0.0
220
0.0
230
1.0
 70
     8
 71
     3
 72
     8
 73
     4
 74
     0
 42
0.00000001
 43
0.00000001
 40
0.0000003682006999
 40
0.0000003682006999
 40
0.0000003682006999
 40
0.0000003682006999
 40
0.0000187826246626
 40
0.0000187826246626
 40
0.0000187826246626
 40
0.0000187826246626
 10
121.2133446942996
 20
94.33883058786644
 30
0.0
 10
121.216679089727
 20
94.33657783001262
 30
0.0
 10
121.2200275038361
 20
94.33432970188207
 30
0.0
 10
121.2233896247177
 20
94.33208618340787
 30
0.0
  0
SPLINE
  5
129
330
1F
100
AcDbEntity
  8
0
  6
HIDDEN
 62
     7
370
     0
100
AcDbSpline
210
0.0
220
0.0
230
1.0
 70
     8
 71
     3
 72
    10
 73
     6
 74
     0
 42
0.00000001
 43
0.00000001
 40
0.0
 40
0.0
 40
0.0
 40
0.0
 40
0.2949159523312477
 40
0.5007639170797382
 40
0.9999999999999999
 40
0.9999999999999999
 40
0.9999999999999999
 40
0.9999999999999999
 10
139.9685398292895
 20
91.61411811911357
 30
0.0
 10
139.7956076162024
 20
91.59637090634796
 30
0.0
 10
139.5019706944617
 20
91.56623634186778
 30
0.0
 10
138.8272215623913
 20
91.498154283116
 30
0.0
 10
138.778317252892
 20
91.48833282257988
 30
0.0
 10
138.7436904647905
 20
91.48137871901899
 30
0.0
  0
SPLINE
  5
12A
330
1F
100
AcDbEntity
  8
0
  6
HIDDEN
 62
     7
370
     0
100
AcDbSpline
210
0.0
220
0.0
230
1.0
 70
     8
 71
     3
 72
    16
 73
    12
 74
     0
 42
0.00000001
 43
0.00000001
 40
0.0
 40
0.0
 40
0.0
 40
0.0
 40
0.0014619398999444
 40
0.1695060946944874
 40
0.3368148262131694
 40
0.5027784258718655
 40
0.5863380399920295
 40
0.6685202984823476
 40
0.7507638349534449
 40
0.8341946041745462
 40
1.0
 40
1.0
 40
1.0
 40
1.0
 10
147.155025992611
 20
91.05997271246231
 30
0.0
 10
147.1559560973257
 20
91.05976445904935
 30
0.0
 10
147.2637980256045
 20
91.03561830725434
 30
0.0
 10
146.8757842928081
 20
91.12416516280028
 30
0.0
 10
146.0139936641291
 20
91.30776852056499
 30
0.0
 10
144.8236879976509
 20
91.49599844104543
 30
0.0
 10
143.7722877270688
 20
91.60740342104354
 30
0.0
 10
142.9462587712157
 20
91.66503903627991
 30
0.0
 10
142.1224708268122
 20
91.69152479453281
 30
0.0
 10
141.052315355094
 20
91.68678520761986
 30
0.0
 10
140.4014984700203
 20
91.64314797180582
 30
0.0
 10
139.9685398292895
 20
91.61411811911357
 30
0.0
  0
SPLINE
  5
12B
330
1F
100
AcDbEntity
  8
0
  6
HIDDEN
 62
     7
370
     0
100
AcDbSpline
210
0.0
220
0.0
230
1.0
 70
     8
 71
     3
 72
    16
 73
    12
 74
     0
 42
0.00000001
 43
0.00000001
 40
0.0
 40
0.0
 40
0.0
 40
0.0
 40
0.1658979086808741
 40
0.2493608198222818
 40
0.3317589050038942
 40
0.4138911421869721
 40
0.4976181669650951
 40
0.663495596646896
 40
0.8305394509979768
 40
0.9983760749348629
 40
0.9999999999999999
 40
0.9999999999999999
 40
0.9999999999999999
 40
0.9999999999999999
 10
139.9684471090076
 20
138.6633007719173
 30
0.0
 10
140.4020155212035
 20
138.6343479586303
 30
0.0
 10
141.0537113477144
 20
138.5908290419976
 30
0.0
 10
142.1246772515992
 20
138.5860894127947
 30
0.0
 10
142.9489002908346
 20
138.6124911675589
 30
0.0
 10
143.7759185068107
 20
138.6701847305164
 30
0.0
 10
144.8270356896466
 20
138.7818436275439
 30
0.0
 10
146.0157475418324
 20
138.970042502317
 30
0.0
 10
146.8764856295062
 20
139.1533020034284
 30
0.0
 10
147.2644902225825
 20
139.2418254693158
 30
0.0
 10
147.1558483324625
 20
139.2176294590254
 30
0.0
 10
147.1548072270871
 20
139.2173975908542
 30
0.0
  0
SPLINE
  5
12C
330
1F
100
AcDbEntity
  8
0
  6
HIDDEN
 62
     7
370
     0
100
AcDbSpline
210
0.0
220
0.0
230
1.0
 70
     8
 71
     3
 72
    10
 73
     6
 74
     0
 42
0.00000001
 43
0.00000001
 40
0.0
 40
0.0
 40
0.0
 40
0.0
 40
0.4995493564858551
 40
0.5744878148481145
 40
1.0
 40
1.0
 40
1.0
 40
1.0
 10
138.7429863732222
 20
138.7961243390331
 30
0.0
 10
138.7632810892804
 20
138.7903320887198
 30
0.0
 10
138.7866202587336
 20
138.7836709306533
 30
0.0
 10
139.4187988972316
 20
138.719524357579
 30
0.0
 10
139.7158646030828
 20
138.6891374686521
 30
0.0
 10
139.9684471090076
 20
138.6633007719173
 30
0.0
  0
SPLINE
  5
12D
330
1F
100
AcDbEntity
  8
0
  6
HIDDEN
 62
     7
370
     0
100
AcDbSpline
210
0.0
220
0.0
230
1.0
 70
    11
 71
     3
 72
    56
 73
    52
 74
     0
 42
0.00000001
 43
0.00000001
 40
0.0
 40
0.0
 40
0.0
 40
0.0
 40
0.062499999999999
 40
0.062499999999999
 40
0.0937499999999986
 40
0.0937499999999986
 40
0.1249999999999981
 40
0.1249999999999981
 40
0.156249999999998
 40
0.156249999999998
 40
0.1874999999999978
 40
0.1874999999999978
 40
0.2187499999999976
 40
0.2187499999999976
 40
0.2499999999999974
 40
0.2499999999999974
 40
0.3124999999999973
 40
0.3124999999999973
 40
0.3437499999999974
 40
0.3437499999999974
 40
0.3749999999999974
 40
0.3749999999999974
 40
0.4062499999999976
 40
0.4062499999999976
 40
0.4374999999999976
 40
0.4374999999999976
 40
0.4687499999999977
 40
0.4687499999999977
 40
0.4999999999999978
 40
0.4999999999999978
 40
0.562499999999998
 40
0.562499999999998
 40
0.6249999999999983
 40
0.6249999999999983
 40
0.6874999999999986
 40
0.6874999999999986
 40
0.7187499999999987
 40
0.7187499999999987
 40
0.7499999999999987
 40
0.7499999999999987
 40
0.7812499999999988
 40
0.7812499999999988
 40
0.8124999999999989
 40
0.8124999999999989
 40
0.8749999999999993
 40
0.8749999999999993
 40
0.9374999999999997
 40
0.9374999999999997
 40
0.9687499999999998
 40
0.9687499999999998
 40
1.0
 40
1.0
 40
1.0
 40
1.0
 10
145.7283916263195
 20
95.30118926611894
 30
0.0
 10
145.4726043157717
 20
95.33671257001248
 30
0.0
 10
145.1824145088284
 20
95.37225643898078
 30
0.0
 10
144.6957614105376
 20
95.41872813888966
 30
0.0
 10
144.5254155683764
 20
95.43297405212117
 30
0.0
 10
144.1784421582854
 20
95.45726196631958
 30
0.0
 10
144.0005042610507
 20
95.46743831264162
 30
0.0
 10
143.6355849834909
 20
95.4831136402455
 30
0.0
 10
143.4472503913956
 20
95.48860060145839
 30
0.0
 10
143.0733635389401
 20
95.49406059573413
 30
0.0
 10
142.8866733247702
 20
95.49411881899329
 30
0.0
 10
142.5137948338509
 20
95.48893467701649
 30
0.0
 10
142.3260905909285
 20
95.48361919854506
 30
0.0
 10
141.959171691381
 20
95.46811681752176
 30
0.0
 10
141.7807219493165
 20
95.45801740976107
 30
0.0
 10
141.2599330459558
 20
95.42188556810716
 30
0.0
 10
140.9290493262848
 20
95.3894563470891
 30
0.0
 10
140.4925477679533
 20
95.33792985572198
 30
0.0
 10
140.3557622289007
 20
95.32020524467801
 30
0.0
 10
140.1000376194469
 20
95.28481091816869
 30
0.0
 10
139.9824138913413
 20
95.26731439678812
 30
0.0
 10
139.7723444381527
 20
95.2346120007996
 30
0.0
 10
139.6790095994676
 20
95.21928019185356
 30
0.0
 10
139.5160638887885
 20
95.19168403250474
 30
0.0
 10
139.4463609259386
 20
95.17939734939112
 30
0.0
 10
139.3357378596065
 20
95.15955235760467
 30
0.0
 10
139.2940561879961
 20
95.15186624507798
 30
0.0
 10
139.2378810476208
 20
95.14144886470075
 30
0.0
 10
139.2234427718603
 20
95.13872770702427
 30
0.0
 10
139.2232837767577
 20
95.13869789544368
 30
0.0
 10
139.2789431144945
 20
95.14936002559166
 30
0.0
 10
139.5017678750289
 20
95.18934069732664
 30
0.0
 10
139.6636801606225
 20
95.21767694895895
 30
0.0
 10
140.0874717193583
 20
95.283687857919
 30
0.0
 10
140.3423181419056
 20
95.32014773071023
 30
0.0
 10
140.7809618020193
 20
95.37199925369657
 30
0.0
 10
140.9376593382987
 20
95.38888688775656
 30
0.0
 10
141.2608592880773
 20
95.41958030837749
 30
0.0
 10
141.4285327694976
 20
95.43354011532135
 30
0.0
 10
141.7761176356863
 20
95.4577395444725
 30
0.0
 10
141.9576811165053
 20
95.46803649330332
 30
0.0
 10
142.3238673913141
 20
95.48354244016524
 30
0.0
 10
142.5085248071564
 20
95.48880842206222
 30
0.0
 10
143.0671212137149
 20
95.49673124531773
 30
0.0
 10
143.4494555551854
 20
95.49101712194411
 30
0.0
 10
144.1767526995538
 20
95.45995803578185
 30
0.0
 10
144.5324467736538
 20
95.43426939973187
 30
0.0
 10
145.0157590506048
 20
95.38819738952378
 30
0.0
 10
145.1694566578213
 20
95.37159523110748
 30
0.0
 10
145.4618788826644
 20
95.33697537589318
 30
0.0
 10
145.6004941058696
 20
95.31895145485473
 30
0.0
 10
145.7283916263195
 20
95.30118926611891
 30
0.0
  0
SPLINE
  5
12E
330
1F
100
AcDbEntity
  8
0
  6
HIDDEN
 62
     7
370
     0
100
AcDbSpline
210
0.0
220
0.0
230
1.0
 70
    11
 71
     3
 72
    56
 73
    52
 74
     0
 42
0.00000001
 43
0.00000001
 40
0.0
 40
0.0
 40
0.0
 40
0.0
 40
0.0625000000000003
 40
0.0625000000000003
 40
0.0937500000000005
 40
0.0937500000000005
 40
0.1250000000000006
 40
0.1250000000000006
 40
0.1562500000000008
 40
0.1562500000000008
 40
0.187500000000001
 40
0.187500000000001
 40
0.2187500000000012
 40
0.2187500000000012
 40
0.2500000000000013
 40
0.2500000000000013
 40
0.3125000000000014
 40
0.3125000000000014
 40
0.3437500000000015
 40
0.3437500000000015
 40
0.3750000000000015
 40
0.3750000000000015
 40
0.4062500000000015
 40
0.4062500000000015
 40
0.4375000000000015
 40
0.4375000000000015
 40
0.4687500000000015
 40
0.4687500000000015
 40
0.5000000000000016
 40
0.5000000000000016
 40
0.5625000000000017
 40
0.5625000000000017
 40
0.6250000000000017
 40
0.6250000000000017
 40
0.6875000000000018
 40
0.6875000000000018
 40
0.7187500000000017
 40
0.7187500000000017
 40
0.7500000000000016
 40
0.7500000000000016
 40
0.7812500000000016
 40
0.7812500000000016
 40
0.8125000000000014
 40
0.8125000000000014
 40
0.875000000000001
 40
0.875000000000001
 40
0.9375000000000004
 40
0.9375000000000004
 40
0.9687500000000003
 40
0.9687500000000003
 40
1.0
 40
1.0
 40
1.0
 40
1.0
 10
145.7283916263195
 20
134.976246217752
 30
0.0
 10
145.4726043157717
 20
134.9407229138585
 30
0.0
 10
145.1824145088284
 20
134.9051790448901
 30
0.0
 10
144.6957614105376
 20
134.8587073449813
 30
0.0
 10
144.5254155683764
 20
134.8444614317497
 30
0.0
 10
144.1784421582854
 20
134.8201735175514
 30
0.0
 10
144.0005042610507
 20
134.8099971712293
 30
0.0
 10
143.6355849834909
 20
134.7943218436254
 30
0.0
 10
143.4472503913956
 20
134.7888348824125
 30
0.0
 10
143.0733635389401
 20
134.7833748881368
 30
0.0
 10
142.8866733247702
 20
134.7833166648776
 30
0.0
 10
142.5137948338509
 20
134.7885008068544
 30
0.0
 10
142.3260905909285
 20
134.7938162853258
 30
0.0
 10
141.959171691381
 20
134.8093186663492
 30
0.0
 10
141.7807219493165
 20
134.8194180741098
 30
0.0
 10
141.2599330459558
 20
134.8555499157638
 30
0.0
 10
140.9290493262848
 20
134.8879791367818
 30
0.0
 10
140.4925477679533
 20
134.9395056281489
 30
0.0
 10
140.3557622289007
 20
134.9572302391929
 30
0.0
 10
140.1000376194469
 20
134.9926245657022
 30
0.0
 10
139.9824138913413
 20
135.0101210870828
 30
0.0
 10
139.7723444381527
 20
135.0428234830713
 30
0.0
 10
139.6790095994676
 20
135.0581552920174
 30
0.0
 10
139.5160638887885
 20
135.0857514513662
 30
0.0
 10
139.4463609259386
 20
135.0980381344798
 30
0.0
 10
139.3357378596065
 20
135.1178831262662
 30
0.0
 10
139.2940561879961
 20
135.1255692387929
 30
0.0
 10
139.2378810476208
 20
135.1359866191702
 30
0.0
 10
139.2234427718603
 20
135.1387077768466
 30
0.0
 10
139.2232837767577
 20
135.1387375884272
 30
0.0
 10
139.2789431144945
 20
135.1280754582793
 30
0.0
 10
139.5017678750289
 20
135.0880947865443
 30
0.0
 10
139.6636801606225
 20
135.059758534912
 30
0.0
 10
140.0874717193583
 20
134.9937476259519
 30
0.0
 10
140.3423181419056
 20
134.9572877531607
 30
0.0
 10
140.7809618020193
 20
134.9054362301743
 30
0.0
 10
140.9376593382988
 20
134.8885485961144
 30
0.0
 10
141.2608592880774
 20
134.8578551754934
 30
0.0
 10
141.4285327694976
 20
134.8438953685496
 30
0.0
 10
141.7761176356863
 20
134.8196959393984
 30
0.0
 10
141.9576811165053
 20
134.8093989905676
 30
0.0
 10
142.3238673913141
 20
134.7938930437057
 30
0.0
 10
142.5085248071564
 20
134.7886270618087
 30
0.0
 10
143.0671212137149
 20
134.7807042385532
 30
0.0
 10
143.4494555551854
 20
134.7864183619268
 30
0.0
 10
144.1767526995538
 20
134.8174774480891
 30
0.0
 10
144.5324467736538
 20
134.8431660841391
 30
0.0
 10
145.0157590506048
 20
134.8892380943471
 30
0.0
 10
145.1694566578213
 20
134.9058402527634
 30
0.0
 10
145.4618788826644
 20
134.9404601079777
 30
0.0
 10
145.6004941058696
 20
134.9584840290162
 30
0.0
 10
145.7283916263195
 20
134.976246217752
 30
0.0
  0
SPLINE
  5
12F
330
1F
100
AcDbEntity
  8
0
  6
HIDDEN
 62
     7
370
     0
100
AcDbSpline
210
0.0
220
0.0
230
1.0
 70
    11
 71
     3
 72
    22
 73
    18
 74
     0
 42
0.00000001
 43
0.00000001
 40
0.0
 40
0.0
 40
0.0
 40
0.0
 40
0.1250000000000001
 40
0.1250000000000001
 40
0.2500000000000001
 40
0.2500000000000001
 40
0.3750000000000001
 40
0.3750000000000001
 40
0.5000000000000001
 40
0.5000000000000001
 40
0.6250000000000001
 40
0.6250000000000001
 40
0.7500000000000001
 40
0.7500000000000001
 40
0.8750000000000001
 40
0.8750000000000001
 40
1.0
 40
1.0
 40
1.0
 40
1.0
 10
145.7283916263195
 20
134.9762462177519
 30
0.0
 10
145.8873344552886
 20
134.998319925799
 30
0.0
 10
146.0280260031789
 20
135.0150037437866
 30
0.0
 10
146.2740122406413
 20
135.0412254386689
 30
0.0
 10
146.3800503233226
 20
135.0508047445142
 30
0.0
 10
146.5505423638897
 20
135.0648840115933
 30
0.0
 10
146.6145950633534
 20
135.0693905878404
 30
0.0
 10
146.7010991144464
 20
135.0752547576783
 30
0.0
 10
146.7233326098065
 20
135.0765966901966
 30
0.0
 10
146.7234464158184
 20
135.0766038299461
 30
0.0
 10
146.7019884873332
 20
135.0753111944599
 30
0.0
 10
146.6160026944542
 20
135.0694897649497
 30
0.0
 10
146.5506885477047
 20
135.0648902956738
 30
0.0
 10
146.3816827137692
 20
135.050945274864
 30
0.0
 10
146.2777236758934
 20
135.0415928880056
 30
0.0
 10
146.0302132296545
 20
135.0152644175392
 30
0.0
 10
145.8873291395708
 20
134.9983191875612
 30
0.0
 10
145.7283916263198
 20
134.976246217752
 30
0.0
  0
SPLINE
  5
130
330
1F
100
AcDbEntity
  8
0
  6
HIDDEN
 62
     7
370
     0
100
AcDbSpline
210
0.0
220
0.0
230
1.0
 70
    11
 71
     3
 72
    22
 73
    18
 74
     0
 42
0.00000001
 43
0.00000001
 40
0.0
 40
0.0
 40
0.0
 40
0.0
 40
0.1249999999999999
 40
0.1249999999999999
 40
0.2499999999999999
 40
0.2499999999999999
 40
0.3749999999999999
 40
0.3749999999999999
 40
0.5
 40
0.5
 40
0.625
 40
0.625
 40
0.7500000000000001
 40
0.7500000000000001
 40
0.875
 40
0.875
 40
1.0
 40
1.0
 40
1.0
 40
1.0
 10
145.7283916263194
 20
95.301189266119
 30
0.0
 10
145.8873344552886
 20
95.27911555807195
 30
0.0
 10
146.0280260031789
 20
95.26243174008434
 30
0.0
 10
146.2740122406413
 20
95.23621004520206
 30
0.0
 10
146.3800503233226
 20
95.22663073935674
 30
0.0
 10
146.5505423638897
 20
95.21255147227758
 30
0.0
 10
146.6145950633534
 20
95.20804489603054
 30
0.0
 10
146.7010991144464
 20
95.20218072619264
 30
0.0
 10
146.7233326098065
 20
95.20083879367434
 30
0.0
 10
146.7234464158184
 20
95.20083165392484
 30
0.0
 10
146.7019884873332
 20
95.20212428941105
 30
0.0
 10
146.6160026944542
 20
95.20794571892125
 30
0.0
 10
146.5506885477047
 20
95.21254518819711
 30
0.0
 10
146.3816827137692
 20
95.22649020900695
 30
0.0
 10
146.2777236758934
 20
95.23584259586528
 30
0.0
 10
146.0302132296545
 20
95.2621710663317
 30
0.0
 10
145.8873291395708
 20
95.2791162963097
 30
0.0
 10
145.7283916263198
 20
95.30118926611891
 30
0.0
  0
LINE
  5
131
330
1F
100
AcDbEntity
  8
0
  6
HIDDEN
 62
     7
370
     0
100
AcDbLine
 10
151.9733896247
 20
98.1387177419
 30
0.0
 11
151.9733896247
 21
132.1387177419
 31
0.0
  0
LINE
  5
132
330
1F
100
AcDbEntity
  8
0
  6
HIDDEN
 62
     7
370
     0
100
AcDbLine
 10
171.8572420016
 20
134.9887177419
 30
0.0
 11
177.9233896247
 21
134.9887177419
 31
0.0
  0
LINE
  5
133
330
1F
100
AcDbEntity
  8
0
  6
HIDDEN
 62
     7
370
     0
100
AcDbLine
 10
164.1690099704
 20
134.9887177419
 30
0.0
 11
168.0895372479
 21
134.9887177419
 31
0.0
  0
LINE
  5
134
330
1F
100
AcDbEntity
  8
0
  6
HIDDEN
 62
     7
370
     0
100
AcDbLine
 10
132.9773642209
 20
132.1387177419
 30
0.0
 11
132.9773642209
 21
98.1387177419
 31
0.0
  0
LINE
  5
135
330
1F
100
AcDbEntity
  8
0
  6
HIDDEN
 62
     7
370
     0
100
AcDbLine
 10
177.9233896247
 20
96.1387177419
 30
0.0
 11
177.9233896247
 21
134.1387177419
 31
0.0
  0
LINE
  5
136
330
1F
100
AcDbEntity
  8
0
  6
HIDDEN
 62
     7
370
     0
100
AcDbLine
 10
120.0733896247
 20
98.8926250642
 30
0.0
 11
120.0733896247
 21
131.3848104197
 31
0.0
  0
LINE
  5
137
330
1F
100
AcDbEntity
  8
0
  6
HIDDEN
 62
     7
370
     0
100
AcDbLine
 10
159.6332155933
 20
132.1387177419
 30
0.0
 11
159.6332155933
 21
98.1387177419
 31
0.0
  0
LINE
  5
138
330
1F
100
AcDbEntity
  8
0
  6
HIDDEN
 62
     7
370
     0
100
AcDbLine
 10
161.9233896247
 20
130.8637177419
 30
0.0
 11
161.9233896247
 21
99.4137177419
 31
0.0
  0
LINE
  5
139
330
1F
100
AcDbEntity
  8
0
  6
HIDDEN
 62
     7
370
     0
100
AcDbLine
 10
121.2233896247
 20
99.3372273059
 30
0.0
 11
128.7733896247
 21
99.3372273059
 31
0.0
  0
LINE
  5
13A
330
1F
100
AcDbEntity
  8
0
  6
HIDDEN
 62
     7
370
     0
100
AcDbLine
 10
121.2233896247
 20
130.940208178
 30
0.0
 11
121.2233896247
 21
99.3372273059
 31
0.0
  0
LINE
  5
13B
330
1F
100
AcDbEntity
  8
0
  6
HIDDEN
 62
     7
370
     0
100
AcDbLine
 10
124.7733896247
 20
130.940208178
 30
0.0
 11
121.2233896247
 21
130.940208178
 31
0.0
  0
SPLINE
  5
13C
330
1F
100
AcDbEntity
  8
0
  6
HIDDEN
 62
     7
370
     0
100
AcDbSpline
210
0.0
220
0.0
230
1.0
 70
     8
 71
     3
 72
    18
 73
    14
 74
     0
 42
0.00000001
 43
0.00000001
 40
0.0
 40
0.0
 40
0.0
 40
0.0
 40
0.2499999999999998
 40
0.2499999999999998
 40
0.3749999999999998
 40
0.3749999999999998
 40
0.4999999999999997
 40
0.4999999999999997
 40
0.6249999999999996
 40
0.6249999999999996
 40
0.7499999999999996
 40
0.7499999999999996
 40
1.0
 40
1.0
 40
1.0
 40
1.0
 10
126.1733896247179
 20
131.4262313643397
 30
0.0
 10
126.1733896247179
 20
131.3717568437875
 30
0.0
 10
126.1384789333257
 20
131.3153757844349
 30
0.0
 10
126.0364696319927
 20
131.2312989435814
 30
0.0
 10
125.9948332773145
 20
131.2039652395905
 30
0.0
 10
125.8964274818258
 20
131.1510113239916
 30
0.0
 10
125.8388842701215
 20
131.1251239702743
 30
0.0
 10
125.7115860965486
 20
131.0773464254411
 30
0.0
 10
125.6419987917911
 20
131.0553985072632
 30
0.0
 10
125.4905645466362
 20
131.0159659423505
 30
0.0
 10
125.4078806435422
 20
130.9984096931246
 30
0.0
 10
125.1517691815041
 20
130.9559709277041
 30
0.0
 10
124.9638541776161
 20
130.9402081779672
 30
0.0
 10
124.7733896247179
 20
130.9402081779672
 30
0.0
  0
LINE
  5
13D
330
1F
100
AcDbEntity
  8
0
  6
HIDDEN
 62
     7
370
     0
100
AcDbLine
 10
126.1733896247
 20
131.4262313643
 30
0.0
 11
126.1733896247
 21
132.1387177419
 31
0.0
  0
SPLINE
  5
13E
330
1F
100
AcDbEntity
  8
0
  6
HIDDEN
 62
     7
370
     0
100
AcDbSpline
210
0.0
220
0.0
230
1.0
 70
     8
 71
     3
 72
    18
 73
    14
 74
     0
 42
0.00000001
 43
0.00000001
 40
0.0
 40
0.0
 40
0.0
 40
0.0
 40
0.2499999999999991
 40
0.2499999999999991
 40
0.3749999999999991
 40
0.3749999999999991
 40
0.4999999999999991
 40
0.4999999999999991
 40
0.6249999999999992
 40
0.6249999999999992
 40
0.7499999999999991
 40
0.7499999999999991
 40
1.0
 40
1.0
 40
1.0
 40
1.0
 10
126.1733896247179
 20
131.4262313643397
 30
0.0
 10
126.1733896247179
 20
131.3717568437875
 30
0.0
 10
126.1384789333257
 20
131.3153757844349
 30
0.0
 10
126.0364696319926
 20
131.2312989435814
 30
0.0
 10
125.9948332773145
 20
131.2039652395905
 30
0.0
 10
125.8964274818258
 20
131.1510113239916
 30
0.0
 10
125.8388842701215
 20
131.1251239702743
 30
0.0
 10
125.7115860965486
 20
131.0773464254411
 30
0.0
 10
125.6419987917911
 20
131.0553985072632
 30
0.0
 10
125.4905645466362
 20
131.0159659423505
 30
0.0
 10
125.4078806435422
 20
130.9984096931246
 30
0.0
 10
125.1517691815041
 20
130.9559709277041
 30
0.0
 10
124.9638541776161
 20
130.9402081779672
 30
0.0
 10
124.7733896247179
 20
130.9402081779672
 30
0.0
  0
LINE
  5
13F
330
1F
100
AcDbEntity
  8
0
  6
HIDDEN
 62
     7
370
     0
100
AcDbLine
 10
124.7733896247
 20
130.940208178
 30
0.0
 11
121.2233896247
 21
130.940208178
 31
0.0
  0
LINE
  5
140
330
1F
100
AcDbEntity
  8
0
  6
HIDDEN
 62
     7
370
     0
100
AcDbLine
 10
121.2233896247
 20
99.3372273059
 30
0.0
 11
128.7733896247
 21
99.3372273059
 31
0.0
  0
SPLINE
  5
141
330
1F
100
AcDbEntity
  8
0
  6
HIDDEN
 62
     7
370
     0
100
AcDbSpline
210
0.0
220
0.0
230
1.0
 70
     8
 71
     3
 72
    16
 73
    12
 74
     0
 42
0.00000001
 43
0.00000001
 40
0.0
 40
0.0
 40
0.0
 40
0.0
 40
0.1249999999999999
 40
0.1249999999999999
 40
0.2499999999999998
 40
0.2499999999999998
 40
0.4999999999999999
 40
0.4999999999999999
 40
0.7499999999999999
 40
0.7499999999999999
 40
1.0
 40
1.0
 40
1.0
 40
1.0
 10
128.7733896247179
 20
99.33722730590377
 30
0.0
 10
128.8685113793837
 20
99.33722730590377
 30
0.0
 10
128.9618414481118
 20
99.33341147251102
 30
0.0
 10
129.1451032088498
 20
99.31864091978119
 30
0.0
 10
129.2359809244068
 20
99.30748287180562
 30
0.0
 10
129.4927826219266
 20
99.2650116016639
 30
0.0
 10
129.6478499867985
 20
99.2239654044611
 30
0.0
 10
129.9015964483531
 20
99.1288192878792
 30
0.0
 10
130.002466900021
 20
99.07405655379763
 30
0.0
 10
130.1377133147159
 20
98.96279542989375
 30
0.0
 10
130.1733896247179
 20
98.90562569256497
 30
0.0
 10
130.1733896247179
 20
98.85120411953125
 30
0.0
  0
LINE
  5
142
330
1F
100
AcDbEntity
  8
0
  6
HIDDEN
 62
     7
370
     0
100
AcDbLine
 10
130.1733896247
 20
98.8512041195
 30
0.0
 11
130.1733896247
 21
98.1387177419
 31
0.0
  0
SPLINE
  5
143
330
1F
100
AcDbEntity
  8
0
  6
HIDDEN
 62
     7
370
     0
100
AcDbSpline
210
0.0
220
0.0
230
1.0
 70
     8
 71
     3
 72
    16
 73
    12
 74
     0
 42
0.00000001
 43
0.00000001
 40
0.0
 40
0.0
 40
0.0
 40
0.0
 40
0.1250000000000018
 40
0.1250000000000018
 40
0.2500000000000037
 40
0.2500000000000037
 40
0.5000000000000024
 40
0.5000000000000024
 40
0.7500000000000012
 40
0.7500000000000012
 40
1.0
 40
1.0
 40
1.0
 40
1.0
 10
128.7733896247179
 20
99.33722730590377
 30
0.0
 10
128.8685113793837
 20
99.33722730590377
 30
0.0
 10
128.9618414481118
 20
99.33341147251102
 30
0.0
 10
129.1451032088498
 20
99.3186409197812
 30
0.0
 10
129.2359809244068
 20
99.30748287180563
 30
0.0
 10
129.4927826219266
 20
99.2650116016639
 30
0.0
 10
129.6478499867985
 20
99.22396540446108
 30
0.0
 10
129.9015964483531
 20
99.1288192878792
 30
0.0
 10
130.002466900021
 20
99.07405655379763
 30
0.0
 10
130.1377133147159
 20
98.96279542989375
 30
0.0
 10
130.1733896247179
 20
98.905625692565
 30
0.0
 10
130.1733896247179
 20
98.85120411953127
 30
0.0
  0
LINE
  5
144
330
1F
100
AcDbEntity
  8
0
  6
HIDDEN
 62
     7
370
     0
100
AcDbLine
 10
121.2233896247
 20
99.3372273059
 30
0.0
 11
121.2233896247
 21
130.940208178
 31
0.0
  0
LINE
  5
145
330
1F
100
AcDbEntity
  8
0
  6
HIDDEN
 62
     7
370
     0
100
AcDbLine
 10
250.9733896247
 20
99.1387177419
 30
0.0
 11
250.9733896247
 21
131.1387177419
 31
0.0
  0
SPLINE
  5
146
330
1F
100
AcDbEntity
  8
0
  6
HIDDEN
 62
     7
370
     0
100
AcDbSpline
210
0.0
220
0.0
230
1.0
 70
     8
 71
     3
 72
    66
 73
    62
 74
     0
 42
0.00000001
 43
0.00000001
 40
-0.0312500000000019
 40
-0.0312500000000019
 40
0.0
 40
0.0
 40
0.0312499999999992
 40
0.0312499999999992
 40
0.0624999999999985
 40
0.0624999999999985
 40
0.0937499999999977
 40
0.0937499999999977
 40
0.1249999999999969
 40
0.1249999999999969
 40
0.1562499999999961
 40
0.1562499999999961
 40
0.1874999999999954
 40
0.1874999999999954
 40
0.2187499999999946
 40
0.2187499999999946
 40
0.2499999999999938
 40
0.2499999999999938
 40
0.2812499999999931
 40
0.2812499999999931
 40
0.3124999999999923
 40
0.3124999999999923
 40
0.3437499999999915
 40
0.3437499999999915
 40
0.3749999999999908
 40
0.3749999999999908
 40
0.40624999999999
 40
0.40624999999999
 40
0.4374999999999892
 40
0.4374999999999892
 40
0.4687499999999885
 40
0.4687499999999885
 40
0.4999999999999877
 40
0.4999999999999877
 40
0.5624999999999888
 40
0.5624999999999888
 40
0.5937499999999893
 40
0.5937499999999893
 40
0.6249999999999899
 40
0.6249999999999899
 40
0.6562499999999905
 40
0.6562499999999905
 40
0.687499999999991
 40
0.687499999999991
 40
0.7187499999999916
 40
0.7187499999999916
 40
0.7499999999999921
 40
0.7499999999999921
 40
0.7812499999999928
 40
0.7812499999999928
 40
0.8124999999999933
 40
0.8124999999999933
 40
0.8437499999999941
 40
0.8437499999999941
 40
0.8749999999999949
 40
0.8749999999999949
 40
0.9374999999999962
 40
0.9374999999999962
 40
0.9687499999999981
 40
0.9687499999999981
 40
1.0
 40
1.0
 40
1.031249999999999
 40
1.031249999999999
 10
234.8079558769965
 20
117.6446205359199
 30
0.0
 10
235.1388233724392
 20
117.6446205359199
 30
0.0
 10
235.3014411201666
 20
117.6608856899942
 30
0.0
 10
235.6212909789017
 20
117.7244766958015
 30
0.0
 10
235.7801994707583
 20
117.7725911282913
 30
0.0
 10
236.0828225200839
 20
117.8976721425114
 30
0.0
 10
236.2263125736098
 20
117.9740645293163
 30
0.0
 10
236.4978725489598
 20
118.1539399921105
 30
0.0
 10
236.6262501055196
 20
118.2582186049072
 30
0.0
 10
236.8564572220175
 20
118.4851163993296
 30
0.0
 10
236.9598518659295
 20
118.6085819822832
 30
0.0
 10
237.1426218330451
 20
118.875756555239
 30
0.0
 10
237.2201300572207
 20
119.0171342726134
 30
0.0
 10
237.3448976310214
 20
119.3086960143298
 30
0.0
 10
237.3930334107494
 20
119.4610390832088
 30
0.0
 10
237.4573550456415
 20
119.7711049602963
 30
0.0
 10
237.4732963264807
 20
119.9263086271932
 30
0.0
 10
237.4734821141415
 20
120.2369658665436
 30
0.0
 10
237.4571941023545
 20
120.3939773705793
 30
0.0
 10
237.3933102079253
 20
120.6960688454728
 30
0.0
 10
237.3460457751574
 20
120.842179171314
 30
0.0
 10
237.2206376643323
 20
121.1247338151575
 30
0.0
 10
237.1424708615726
 20
121.2602330375619
 30
0.0
 10
236.9616632280566
 20
121.5103018182028
 30
0.0
 10
236.8581267507307
 20
121.6266704665334
 30
0.0
 10
236.6252935442907
 20
121.8402459504513
 30
0.0
 10
236.4993232094982
 20
121.9345083006151
 30
0.0
 10
236.2288679940553
 20
122.0993686377259
 30
0.0
 10
236.0826067416705
 20
122.1705343996183
 30
0.0
 10
235.7801646508728
 20
122.28421141917
 30
0.0
 10
235.6243451702492
 20
122.3270450079397
 30
0.0
 10
235.3034944090488
 20
122.3850294761143
 30
0.0
 10
235.137633653454
 20
122.3998458722452
 30
0.0
 10
234.6478076200141
 20
122.4000170997652
 30
0.0
 10
234.3183653639875
 20
122.3409693981015
 30
0.0
 10
233.8669074504508
 20
122.1717007929387
 30
0.0
 10
233.7211880721116
 20
122.1011811082194
 30
0.0
 10
233.4483650372295
 20
121.9352445433231
 30
0.0
 10
233.3226198156844
 20
121.8410136110424
 30
0.0
 10
233.091953866956
 20
121.6299662285113
 30
0.0
 10
232.9863831600533
 20
121.5118584783979
 30
0.0
 10
232.8049977724522
 20
121.261380274385
 30
0.0
 10
232.728052372603
 20
121.1283358982622
 30
0.0
 10
232.60209260633
 20
120.8459264274516
 30
0.0
 10
232.5538804895449
 20
120.6973716482238
 30
0.0
 10
232.4899615408856
 20
120.3963921905797
 30
0.0
 10
232.4735276535363
 20
120.2420945821207
 30
0.0
 10
232.4732533189294
 20
119.9278324163356
 30
0.0
 10
232.4893369248595
 20
119.7724387104765
 30
0.0
 10
232.5527228112125
 20
119.465073433441
 30
0.0
 10
232.6008488334062
 20
119.3114580225853
 30
0.0
 10
232.7260545983759
 20
119.0181796834136
 30
0.0
 10
232.8027153091338
 20
118.8783071648962
 30
0.0
 10
232.9840617078204
 20
118.6123389003051
 30
0.0
 10
233.0892987354615
 20
118.4862701131429
 30
0.0
 10
233.4342432912241
 20
118.1458510381453
 30
0.0
 10
233.7126388184832
 20
117.9605212216157
 30
0.0
 10
234.163555162359
 20
117.7736898403254
 30
0.0
 10
234.3215033436586
 20
117.725434753484
 30
0.0
 10
234.6445039238756
 20
117.6608882040195
 30
0.0
 10
234.8079558769965
 20
117.6446205359199
 30
0.0
 10
235.1388233724392
 20
117.6446205359199
 30
0.0
  0
SPLINE
  5
147
330
1F
100
AcDbEntity
  8
0
  6
HIDDEN
 62
     7
370
     0
100
AcDbSpline
210
0.0
220
0.0
230
1.0
 70
     8
 71
     3
 72
     8
 73
     4
 74
     0
 42
0.00000001
 43
0.00000001
 40
0.0
 40
0.0
 40
0.0
 40
0.0
 40
1.0
 40
1.0
 40
1.0
 40
1.0
 10
236.045509487236
 20
113.2701532442212
 30
0.0
 10
235.9909462793207
 20
113.3974929514419
 30
0.0
 10
235.9702849717557
 20
113.5045997723708
 30
0.0
 10
235.9870370884428
 20
113.5939514149271
 30
0.0
  0
SPLINE
  5
148
330
1F
100
AcDbEntity
  8
0
  6
HIDDEN
 62
     7
370
     0
100
AcDbSpline
210
0.0
220
0.0
230
1.0
 70
     8
 71
     3
 72
    52
 73
    48
 74
     0
 42
0.00000001
 43
0.00000001
 40
0.0
 40
0.0
 40
0.0
 40
0.0
 40
0.0312500000000011
 40
0.0312500000000011
 40
0.0625000000000022
 40
0.0625000000000022
 40
0.1250000000000025
 40
0.1250000000000025
 40
0.1875000000000028
 40
0.1875000000000028
 40
0.2500000000000032
 40
0.2500000000000032
 40
0.3125000000000036
 40
0.3125000000000036
 40
0.3437500000000036
 40
0.3437500000000036
 40
0.3750000000000037
 40
0.3750000000000037
 40
0.4375000000000039
 40
0.4375000000000039
 40
0.5000000000000041
 40
0.5000000000000041
 40
0.5625000000000043
 40
0.5625000000000043
 40
0.6250000000000047
 40
0.6250000000000047
 40
0.6562500000000047
 40
0.6562500000000047
 40
0.6875000000000048
 40
0.6875000000000048
 40
0.7031250000000049
 40
0.7031250000000049
 40
0.718750000000005
 40
0.718750000000005
 40
0.7343750000000051
 40
0.7343750000000051
 40
0.7500000000000051
 40
0.7500000000000051
 40
0.7812500000000033
 40
0.7812500000000033
 40
0.8125000000000016
 40
0.8125000000000016
 40
0.875000000000001
 40
0.875000000000001
 40
0.9375000000000006
 40
0.9375000000000006
 40
1.0
 40
1.0
 40
1.0
 40
1.0
 10
235.9870370884495
 20
113.5939514149313
 30
0.0
 10
236.0835373124301
 20
113.551413427484
 30
0.0
 10
236.1629816177359
 20
113.5184550651924
 30
0.0
 10
236.3102860424311
 20
113.4517578939713
 30
0.0
 10
236.3754383001177
 20
113.4194529290681
 30
0.0
 10
236.5580163495936
 20
113.3158925302498
 30
0.0
 10
236.6624952994542
 20
113.2381970786071
 30
0.0
 10
236.8430088379298
 20
113.05222417952
 30
0.0
 10
236.9166483197063
 20
112.9465642417851
 30
0.0
 10
237.0266609258173
 20
112.7011116947193
 30
0.0
 10
237.0630497987293
 20
112.5588826868591
 30
0.0
 10
237.0799180377834
 20
112.2427805839809
 30
0.0
 10
237.0600550503715
 20
112.0649427541683
 30
0.0
 10
236.9779331694845
 20
111.7857865940539
 30
0.0
 10
236.9412600964989
 20
111.6889624848858
 30
0.0
 10
236.8527245496824
 20
111.498958255928
 30
0.0
 10
236.8007838258314
 20
111.4049196274543
 30
0.0
 10
236.6218562269582
 20
111.125616985253
 30
0.0
 10
236.4764389786392
 20
110.9519293949415
 30
0.0
 10
236.1675913460748
 20
110.6492499686189
 30
0.0
 10
236.0036156426866
 20
110.5187972156502
 30
0.0
 10
235.6760228728056
 20
110.2980855800295
 30
0.0
 10
235.5140220141177
 20
110.208515004923
 30
0.0
 10
235.1951233964907
 20
110.0595469945216
 30
0.0
 10
235.0394834084512
 20
110.0015172062238
 30
0.0
 10
234.8229532792939
 20
109.9321099619483
 30
0.0
 10
234.7532794856251
 20
109.9118368644258
 30
0.0
 10
234.6237172965174
 20
109.8733967249049
 30
0.0
 10
234.5629847589798
 20
109.8556681348902
 30
0.0
 10
234.4964564421402
 20
109.8225793867182
 30
0.0
 10
234.4787763218638
 20
109.8102852870185
 30
0.0
 10
234.4603565359121
 20
109.7808282109051
 30
0.0
 10
234.4602569864012
 20
109.7633306143927
 30
0.0
 10
234.4792663835006
 20
109.7252936451761
 30
0.0
 10
234.4981653128985
 20
109.7044605262064
 30
0.0
 10
234.5455030462993
 20
109.6638484858704
 30
0.0
 10
234.5740946416307
 20
109.6436915829624
 30
0.0
 10
234.6677156046374
 20
109.5854787073109
 30
0.0
 10
234.7386787589423
 20
109.5505793540554
 30
0.0
 10
234.8870896208068
 20
109.4899284466016
 30
0.0
 10
234.964947556133
 20
109.4641441211907
 30
0.0
 10
235.2054729281014
 20
109.4020507231213
 30
0.0
 10
235.3742697145055
 20
109.3813888768156
 30
0.0
 10
235.7121882437992
 20
109.3913024754761
 30
0.0
 10
235.8857412977825
 20
109.422336936612
 30
0.0
 10
236.2181621373624
 20
109.5476731589575
 30
0.0
 10
236.379865282452
 20
109.6428644992226
 30
0.0
 10
236.5243984348161
 20
109.775030622415
 30
0.0
  0
SPLINE
  5
149
330
1F
100
AcDbEntity
  8
0
  6
HIDDEN
 62
     7
370
     0
100
AcDbSpline
210
0.0
220
0.0
230
1.0
 70
     8
 71
     3
 72
    16
 73
    12
 74
     0
 42
0.00000001
 43
0.00000001
 40
0.0
 40
0.0
 40
0.0
 40
0.0
 40
0.25
 40
0.25
 40
0.5
 40
0.5
 40
0.75
 40
0.75
 40
0.875
 40
0.875
 40
1.0
 40
1.0
 40
1.0
 40
1.0
 10
237.0534064538342
 20
110.8466266888901
 30
0.0
 10
237.0853027204755
 20
111.0845290863214
 30
0.0
 10
237.0781597561881
 20
111.3196536509346
 30
0.0
 10
237.0038498228355
 20
111.7858048244868
 30
0.0
 10
236.9385296254039
 20
112.0045324878775
 30
0.0
 10
236.763101098298
 20
112.4202076363496
 30
0.0
 10
236.653517122912
 20
112.6150589303591
 30
0.0
 10
236.4590966218026
 20
112.8814727260961
 30
0.0
 10
236.3889572580036
 20
112.9666234220954
 30
0.0
 10
236.2317449144555
 20
113.128738526914
 30
0.0
 10
236.1474002309693
 20
113.2043845797088
 30
0.0
 10
236.0455094872236
 20
113.2701532442197
 30
0.0
  0
SPLINE
  5
14A
330
1F
100
AcDbEntity
  8
0
  6
HIDDEN
 62
     7
370
     0
100
AcDbSpline
210
0.0
220
0.0
230
1.0
 70
     8
 71
     3
 72
    62
 73
    58
 74
     0
 42
0.00000001
 43
0.00000001
 40
-0.0312499999999997
 40
-0.0312499999999997
 40
0.0
 40
0.0
 40
0.0312499999999996
 40
0.0312499999999996
 40
0.0624999999999992
 40
0.0624999999999992
 40
0.1249999999999985
 40
0.1249999999999985
 40
0.1874999999999978
 40
0.1874999999999978
 40
0.218749999999998
 40
0.218749999999998
 40
0.2499999999999982
 40
0.2499999999999982
 40
0.2812499999999984
 40
0.2812499999999984
 40
0.3124999999999987
 40
0.3124999999999987
 40
0.3437499999999989
 40
0.3437499999999989
 40
0.3749999999999991
 40
0.3749999999999991
 40
0.4374999999999996
 40
0.4374999999999996
 40
0.4687499999999998
 40
0.4687499999999998
 40
0.5000000000000001
 40
0.5000000000000001
 40
0.5312500000000004
 40
0.5312500000000004
 40
0.5625000000000007
 40
0.5625000000000007
 40
0.593750000000001
 40
0.593750000000001
 40
0.6250000000000012
 40
0.6250000000000012
 40
0.6562500000000016
 40
0.6562500000000016
 40
0.6875000000000018
 40
0.6875000000000018
 40
0.7187500000000021
 40
0.7187500000000021
 40
0.7500000000000023
 40
0.7500000000000023
 40
0.7812500000000026
 40
0.7812500000000026
 40
0.8125000000000028
 40
0.8125000000000028
 40
0.8750000000000019
 40
0.8750000000000019
 40
0.9062500000000013
 40
0.9062500000000013
 40
0.9375000000000009
 40
0.9375000000000009
 40
0.9687500000000003
 40
0.9687500000000003
 40
1.0
 40
1.0
 40
1.03125
 40
1.03125
 10
234.832127207431
 20
112.0175094749304
 30
0.0
 10
235.1146520420048
 20
112.0175094749304
 30
0.0
 10
235.2529750730559
 20
112.0283746688453
 30
0.0
 10
235.5242030187481
 20
112.0708969945934
 30
0.0
 10
235.6584133849165
 20
112.1031438092081
 30
0.0
 10
236.0373928926207
 20
112.2286259467525
 30
0.0
 10
236.2662694530804
 20
112.3525787979925
 30
0.0
 10
236.6471623052317
 20
112.6696047509432
 30
0.0
 10
236.8027603780988
 20
112.866273057502
 30
0.0
 10
236.9619064236207
 20
113.2026855725977
 30
0.0
 10
237.0036718145709
 20
113.3243356564279
 30
0.0
 10
237.0589902283809
 20
113.5748240389664
 30
0.0
 10
237.0730960558515
 20
113.7038077384877
 30
0.0
 10
237.0736742139064
 20
113.9696264548779
 30
0.0
 10
237.0596831649634
 20
114.1062060060459
 30
0.0
 10
237.0051847360869
 20
114.3730867294652
 30
0.0
 10
236.9642943971387
 20
114.5062706847473
 30
0.0
 10
236.8576863974623
 20
114.7643682160592
 30
0.0
 10
236.7929388503836
 20
114.8875985733157
 30
0.0
 10
236.6413779747562
 20
115.1226470039662
 30
0.0
 10
236.5540913776167
 20
115.234566915181
 30
0.0
 10
236.2684774231701
 20
115.5397816445396
 30
0.0
 10
236.039091228119
 20
115.7102091922091
 30
0.0
 10
235.6628725584658
 20
115.886273355744
 30
0.0
 10
235.530401503415
 20
115.932668493994
 30
0.0
 10
235.2564465269631
 20
115.9955684748016
 30
0.0
 10
235.1184058636608
 20
116.0114954703747
 30
0.0
 10
234.8401882916797
 20
116.0123794467364
 30
0.0
 10
234.6983789329151
 20
115.9967180578272
 30
0.0
 10
234.425922365584
 20
115.9355141003466
 30
0.0
 10
234.2940566345089
 20
115.8903498327277
 30
0.0
 10
234.0385402143883
 20
115.77207948096
 30
0.0
 10
233.9185534547482
 20
115.7006604862937
 30
0.0
 10
233.6934074574278
 20
115.5361976113989
 30
0.0
 10
233.5872806930441
 20
115.4420253884226
 30
0.0
 10
233.3959540453521
 20
115.2385271843994
 30
0.0
 10
233.3100176988187
 20
115.1289422514511
 30
0.0
 10
233.1575207376
 20
114.8941244903054
 30
0.0
 10
233.0913756743717
 20
114.7688352613655
 30
0.0
 10
232.9851552391759
 20
114.5137468813637
 30
0.0
 10
232.9441146273474
 20
114.3826164124444
 30
0.0
 10
232.8879280393986
 20
114.1129270858372
 30
0.0
 10
232.8737104678345
 20
113.977747785112
 30
0.0
 10
232.8730795761488
 20
113.7130028535742
 30
0.0
 10
232.8868679579486
 20
113.5808919840641
 30
0.0
 10
232.9417115296925
 20
113.328837183564
 30
0.0
 10
232.9822127117473
 20
113.2093729591029
 30
0.0
 10
233.1418019104306
 20
112.8689042390616
 30
0.0
 10
233.2965697441095
 20
112.6724928836276
 30
0.0
 10
233.5845494579901
 20
112.4322749365867
 30
0.0
 10
233.6884983805431
 20
112.362143922198
 30
0.0
 10
233.9129095784342
 20
112.2397528597974
 30
0.0
 10
234.0348401324827
 20
112.1871555817556
 30
0.0
 10
234.2870825859416
 20
112.1035012390319
 30
0.0
 10
234.4179597596308
 20
112.0718475876018
 30
0.0
 10
234.6901661080107
 20
112.0287249726751
 30
0.0
 10
234.832127207431
 20
112.0175094749304
 30
0.0
 10
235.1146520420048
 20
112.0175094749304
 30
0.0
  0
LWPOLYLINE
  5
14B
330
1F
100
AcDbEntity
  8
0
  6
HIDDEN
 62
     7
370
     0
100
AcDbPolyline
 90
       20
 70
   128
 43
0.0
 10
237.0534064538
 20
110.8466266889
 10
237.0462458393
 20
111.4415765967
 10
236.8551200405
 20
112.0081195482
 10
236.4969913976
 20
112.4959750763
 10
236.0036436889
 20
112.8618461923
 10
235.418861332
 20
113.0732619766
 10
234.7945435339
 20
113.1114593605
 10
234.186098257
 20
112.973048341
 10
233.6475247833
 20
112.6703128423
 10
233.2266212997
 20
112.2301205225
 10
232.9607428268
 20
111.6915382789
 10
232.8734859759
 20
111.1023650767
 10
232.9725947586
 20
110.5148898089
 10
233.2492733091
 20
109.9812506774
 10
233.6789665133
 20
109.548807948
 10
234.2235392661
 20
109.255940745
 10
234.8346609472
 20
109.128640919
 10
235.4580947445
 20
109.1782062802
 10
236.0385111506
 20
109.400237922
 10
236.5243984348
 20
109.7750306224
  0
ARC
  5
14C
330
1F
100
AcDbEntity
  8
0
  6
HIDDEN
 62
     7
370
     0
100
AcDbCircle
 10
235.6368026482
 20
113.3635264373
 30
0.0
 40
0.4192372043143698
100
AcDbArc
 50
347.1310621732
 51
33.3415730957
  0
SPLINE
  5
14D
330
1F
100
AcDbEntity
  8
0
  6
HIDDEN
 62
     7
370
     0
100
AcDbSpline
210
0.0
220
0.0
230
1.0
 70
     8
 71
     3
 72
    12
 73
     8
 74
     0
 42
0.00000001
 43
0.00000001
 40
0.0
 40
0.0
 40
0.0
 40
0.0
 40
0.250000000000003
 40
0.250000000000003
 40
0.500000000000006
 40
0.500000000000006
 40
1.0
 40
1.0
 40
1.0
 40
1.0
 10
236.5243984348162
 20
109.775030622415
 30
0.0
 10
236.5429845200412
 20
109.8595415679213
 30
0.0
 10
236.5709366859882
 20
109.9480827048999
 30
0.0
 10
236.6389954045832
 20
110.1264341864477
 30
0.0
 10
236.6789988235326
 20
110.216803315576
 30
0.0
 10
236.81458454691
 20
110.4927449947182
 30
0.0
 10
236.9214540294714
 20
110.6779010809171
 30
0.0
 10
237.0534064538342
 20
110.84662668889
 30
0.0
  0
LINE
  5
14E
330
1F
100
AcDbEntity
  8
0
  6
HIDDEN
 62
     7
370
     0
100
AcDbLine
 10
121.2233896247
 20
97.1487177419
 30
0.0
 11
121.2233896247
 21
94.3262177419
 31
0.0
  0
LINE
  5
14F
330
1F
100
AcDbEntity
  8
0
  6
HIDDEN
 62
     7
370
     0
100
AcDbLine
 10
130.1733896247
 20
97.1487177419
 30
0.0
 11
130.1733896247
 21
93.1935694827
 31
0.0
  0
LINE
  5
150
330
1F
100
AcDbEntity
  8
0
  6
HIDDEN
 62
     7
370
     0
100
AcDbLine
 10
120.0733896247
 20
97.1487177419
 30
0.0
 11
120.0733896247
 21
95.1795999799
 31
0.0
  0
LINE
  5
151
330
1F
100
AcDbEntity
  8
0
  6
HIDDEN
 62
     7
370
     0
100
AcDbLine
 10
126.1733896247
 20
133.1287177419
 30
0.0
 11
126.1733896247
 21
136.9828254143
 31
0.0
  0
LINE
  5
152
330
1F
100
AcDbEntity
  8
0
  6
HIDDEN
 62
     7
370
     0
100
AcDbLine
 10
121.2233896247
 20
133.1287177419
 30
0.0
 11
121.2233896247
 21
136.0086555073
 31
0.0
  0
LINE
  5
153
330
1F
100
AcDbEntity
  8
0
  6
HIDDEN
 62
     7
370
     0
100
AcDbLine
 10
120.0733896247
 20
133.1287177419
 30
0.0
 11
120.0733896247
 21
135.1147782466
 31
0.0
  0
LINE
  5
154
330
1F
100
AcDbEntity
  8
0
  6
HIDDEN
 62
     7
370
     0
100
AcDbLine
 10
171.2733896247
 20
124.6387177419
 30
0.0
 11
171.2733896247
 21
105.6387177419
 31
0.0
  0
LWPOLYLINE
  5
155
330
1F
100
AcDbEntity
  8
0
  6
HIDDEN
 62
     7
370
     0
100
AcDbPolyline
 90
        2
 70
   128
 43
0.0
 10
171.2733896247
 20
105.6387177419
 10
171.2733896247
 20
105.6387177419
  0
LINE
  5
156
330
1F
100
AcDbEntity
  8
0
  6
HIDDEN
 62
     7
370
     0
100
AcDbLine
 10
173.7733896247
 20
124.6387177419
 30
0.0
 11
173.7733896247
 21
105.6387177419
 31
0.0
  0
LWPOLYLINE
  5
157
330
1F
100
AcDbEntity
  8
0
  6
HIDDEN
 62
     7
370
     0
100
AcDbPolyline
 90
        2
 70
   128
 43
0.0
 10
173.7733896247
 20
105.6387177419
 10
173.7733896247
 20
105.6387177419
  0
LWPOLYLINE
  5
158
330
1F
100
AcDbEntity
  8
0
  6
HIDDEN
 62
     7
370
     0
100
AcDbPolyline
 90
        2
 70
   128
 43
0.0
 10
177.9233896247
 20
88.7387177419
 10
177.9233896247
 20
88.7387177419
  0
LINE
  5
159
330
1F
100
AcDbEntity
  8
0
  6
HIDDEN
 62
     7
370
     0
100
AcDbLine
 10
177.9233896247
 20
88.7387177419
 30
0.0
 11
171.7857148224
 21
88.7387177419
 31
0.0
  0
LINE
  5
15A
330
1F
100
AcDbEntity
  8
0
  6
HIDDEN
 62
     7
370
     0
100
AcDbLine
 10
171.8833896247
 20
87.6408805829
 30
0.0
 11
171.8833896247
 21
88.3343221136
 31
0.0
  0
LINE
  5
15B
330
1F
100
AcDbEntity
  8
0
  6
HIDDEN
 62
     7
370
     0
100
AcDbLine
 10
177.9233896247
 20
88.7387177419
 30
0.0
 11
177.9233896247
 21
85.5784403413
 31
0.0
  0
LINE
  5
15C
330
1F
100
AcDbEntity
  8
0
  6
HIDDEN
 62
     7
370
     0
100
AcDbLine
 10
156.9233896247
 20
83.6545947591
 30
0.0
 11
156.9233896247
 21
88.7387177419
 31
0.0
  0
LINE
  5
15D
330
1F
100
AcDbEntity
  8
0
  6
HIDDEN
 62
     7
370
     0
100
AcDbLine
 10
164.9233896247
 20
88.7387177419
 30
0.0
 11
156.9233896247
 21
88.7387177419
 31
0.0
  0
LINE
  5
15E
330
1F
100
AcDbEntity
  8
0
  6
HIDDEN
 62
     7
370
     0
100
AcDbLine
 10
162.4233896247
 20
123.6387177419
 30
0.0
 11
162.4233896247
 21
106.6387177419
 31
0.0
  0
LWPOLYLINE
  5
15F
330
1F
100
AcDbEntity
  8
0
  6
HIDDEN
 62
     7
370
     0
100
AcDbPolyline
 90
        2
 70
   128
 43
0.0
 10
162.4233896247
 20
106.6387177419
 10
162.4233896247
 20
106.6387177419
  0
LINE
  5
160
330
1F
100
AcDbEntity
  8
0
  6
HIDDEN
 62
     7
370
     0
100
AcDbLine
 10
161.9233896247
 20
106.1387177419
 30
0.0
 11
161.9233896247
 21
124.1387177419
 31
0.0
  0
LINE
  5
161
330
1F
100
AcDbEntity
  8
0
  6
HIDDEN
 62
     7
370
     0
100
AcDbLine
 10
168.1610644271
 20
88.7387177419
 30
0.0
 11
164.9233896247
 21
88.7387177419
 31
0.0
  0
LINE
  5
162
330
1F
100
AcDbEntity
  8
0
  6
HIDDEN
 62
     7
370
     0
100
AcDbLine
 10
168.0633896247
 20
88.3343221136
 30
0.0
 11
168.0633896247
 21
87.6408805829
 31
0.0
  0
LINE
  5
163
330
1F
100
AcDbEntity
  8
0
  6
HIDDEN
 62
     7
370
     0
100
AcDbLine
 10
171.2733896247
 20
106.6387177419
 30
0.0
 11
171.2733896247
 21
123.6387177419
 31
0.0
  0
LWPOLYLINE
  5
164
330
1F
100
AcDbEntity
  8
0
  6
HIDDEN
 62
     7
370
     0
100
AcDbPolyline
 90
        2
 70
   128
 43
0.0
 10
177.9233896247
 20
141.5387177419
 10
177.9233896247
 20
141.5387177419
  0
LINE
  5
165
330
1F
100
AcDbEntity
  8
0
  6
HIDDEN
 62
     7
370
     0
100
AcDbLine
 10
164.9233896247
 20
141.5387177419
 30
0.0
 11
156.9233896247
 21
141.5387177419
 31
0.0
  0
LINE
  5
166
330
1F
100
AcDbEntity
  8
0
  6
HIDDEN
 62
     7
370
     0
100
AcDbLine
 10
168.4576871564
 20
141.5387177419
 30
0.0
 11
164.9233896247
 21
141.5387177419
 31
0.0
  0
LINE
  5
167
330
1F
100
AcDbEntity
  8
0
  6
HIDDEN
 62
     7
370
     0
100
AcDbLine
 10
168.0633896247
 20
142.258371593
 30
0.0
 11
168.0633896247
 21
142.9439519331
 31
0.0
  0
LINE
  5
168
330
1F
100
AcDbEntity
  8
0
  6
HIDDEN
 62
     7
370
     0
100
AcDbLine
 10
177.9233896247
 20
141.5387177419
 30
0.0
 11
171.489092093
 21
141.5387177419
 31
0.0
  0
LINE
  5
169
330
1F
100
AcDbEntity
  8
0
  6
HIDDEN
 62
     7
370
     0
100
AcDbLine
 10
171.8833896247
 20
142.9439519331
 30
0.0
 11
171.8833896247
 21
142.258371593
 31
0.0
  0
LINE
  5
16A
330
1F
100
AcDbEntity
  8
0
  6
HIDDEN
 62
     7
370
     0
100
AcDbLine
 10
177.9233896247
 20
141.5387177419
 30
0.0
 11
177.9233896247
 21
144.9851580657
 31
0.0
  0
SPLINE
  5
16B
330
1F
100
AcDbEntity
  8
0
  6
HIDDEN
 62
     7
370
     0
100
AcDbSpline
210
0.0
220
0.0
230
1.0
 70
     8
 71
     3
 72
     8
 73
     4
 74
     0
 42
0.00000001
 43
0.00000001
 40
0.0000002432046719
 40
0.0000002432046719
 40
0.0000002432046719
 40
0.0000002432046719
 40
0.0014006019039539
 40
0.0014006019039539
 40
0.0014006019039539
 40
0.0014006019039539
 10
120.0733896247178
 20
98.89262506420738
 30
0.0
 10
120.4572491521968
 20
99.03899857601061
 30
0.0
 10
120.8406025521529
 20
99.18715577792804
 30
0.0
 10
121.2233896247179
 20
99.33722730590381
 30
0.0
  0
LINE
  5
16C
330
1F
100
AcDbEntity
  8
0
  6
HIDDEN
 62
     7
370
     0
100
AcDbLine
 10
120.0733896247
 20
97.1487177419
 30
0.0
 11
120.0733896247
 21
98.8926250642
 31
0.0
  0
SPLINE
  5
16D
330
1F
100
AcDbEntity
  8
0
  6
HIDDEN
 62
     7
370
     0
100
AcDbSpline
210
0.0
220
0.0
230
1.0
 70
     8
 71
     3
 72
     8
 73
     4
 74
     0
 42
0.00000001
 43
0.00000001
 40
0.0000002438860713
 40
0.0000002438860713
 40
0.0000002438860713
 40
0.0000002438860713
 40
0.0014006025853533
 40
0.0014006025853533
 40
0.0014006025853533
 40
0.0014006025853533
 10
121.2233896247179
 20
130.9402081779671
 30
0.0
 10
120.8406025521529
 20
131.0902797059429
 30
0.0
 10
120.4572491521968
 20
131.2384369078603
 30
0.0
 10
120.0733896247179
 20
131.3848104196636
 30
0.0
  0
LINE
  5
16E
330
1F
100
AcDbEntity
  8
0
  6
HIDDEN
 62
     7
370
     0
100
AcDbLine
 10
120.0733896247
 20
133.1287177419
 30
0.0
 11
120.0733896247
 21
131.3848104197
 31
0.0
  0
LINE
  5
16F
330
1F
100
AcDbEntity
  8
0
  6
HIDDEN
 62
     7
370
     0
100
AcDbLine
 10
121.2233896247
 20
97.1487177419
 30
0.0
 11
121.2233896247
 21
99.3372273059
 31
0.0
  0
LINE
  5
170
330
1F
100
AcDbEntity
  8
0
  6
HIDDEN
 62
     7
370
     0
100
AcDbLine
 10
121.2233896247
 20
133.1287177419
 30
0.0
 11
121.2233896247
 21
130.940208178
 31
0.0
  0
LINE
  5
171
330
1F
100
AcDbEntity
  8
0
  6
HIDDEN
 62
     7
370
     0
100
AcDbLine
 10
126.1733896247
 20
133.1287177419
 30
0.0
 11
126.1733896247
 21
131.4262313643
 31
0.0
  0
LINE
  5
172
330
1F
100
AcDbEntity
  8
0
  6
HIDDEN
 62
     7
370
     0
100
AcDbLine
 10
130.1733896247
 20
97.1487177419
 30
0.0
 11
130.1733896247
 21
98.8512041195
 31
0.0
  0
SPLINE
  5
173
330
1F
100
AcDbEntity
  8
0
  6
HIDDEN
 62
     7
370
     0
100
AcDbSpline
210
0.0
220
0.0
230
1.0
 70
    11
 71
     3
 72
    34
 73
    30
 74
     0
 42
0.00000001
 43
0.00000001
 40
0.0
 40
0.0
 40
0.0
 40
0.0
 40
0.012773875631343
 40
0.0481305018861374
 40
0.0807425016924014
 40
0.137589091362693
 40
0.1884518731192283
 40
0.2226712138150697
 40
0.2626938372949197
 40
0.2986558359810587
 40
0.3315197765429542
 40
0.3878459718944555
 40
0.3881259547070438
 40
0.4440926113325873
 40
0.4768435653244685
 40
0.5126448960710656
 40
0.5530084671478368
 40
0.58738559400161
 40
0.6380121006395978
 40
0.6949796268749329
 40
0.7275539945508055
 40
0.7628079420081064
 40
0.8028703493977756
 40
0.8370831563378189
 40
0.8877749825785638
 40
0.8880089190148227
 40
0.9388397946263414
 40
0.9729712758707766
 40
1.0
 40
1.0
 40
1.0
 40
1.0
 10
140.1334015372064
 20
92.07105588539626
 30
0.0
 10
140.1925951897691
 20
92.07714478919979
 30
0.0
 10
140.4156301001239
 20
92.10008708208397
 30
0.0
 10
140.9389825469012
 20
92.13673183389162
 30
0.0
 10
141.811746005367
 20
92.16441586392554
 30
0.0
 10
142.9265839748088
 20
92.15386026707714
 30
0.0
 10
144.0396491211149
 20
92.03771524327314
 30
0.0
 10
144.9340912781007
 20
91.91612428428904
 30
0.0
 10
145.6179236167986
 20
91.79436637489724
 30
0.0
 10
146.1586829039878
 20
91.6780051593224
 30
0.0
 10
146.5720773764635
 20
91.58453257740027
 30
0.0
 10
146.8002395972451
 20
91.51789447606573
 30
0.0
 10
146.6458624916845
 20
91.55911490187644
 30
0.0
 10
146.6189844173985
 20
91.57159127554446
 30
0.0
 10
146.1630604743944
 20
91.67717273373052
 30
0.0
 10
145.6391272924417
 20
91.78992121481613
 30
0.0
 10
144.9529204041971
 20
91.91301930975838
 30
0.0
 10
144.0598068399009
 20
92.03501069692851
 30
0.0
 10
142.9463705594608
 20
92.1527632376235
 30
0.0
 10
141.8356200331711
 20
92.16473382537592
 30
0.0
 10
140.9508675180285
 20
92.13767627600957
 30
0.0
 10
140.2836735417766
 20
92.08974420214192
 30
0.0
 10
139.7423937185885
 20
92.03345000915508
 30
0.0
 10
139.3548406364599
 20
91.98836988612763
 30
0.0
 10
139.1608135391563
 20
91.94948724705475
 30
0.0
 10
139.2870408378987
 20
91.97089404735057
 30
0.0
 10
139.3161998734175
 20
91.98081535625346
 30
0.0
 10
139.6877806116333
 20
92.02844518524014
 30
0.0
 10
139.9968247000521
 20
92.05799627728031
 30
0.0
 10
140.1334015372064
 20
92.07105588539626
 30
0.0
  0
SPLINE
  5
174
330
1F
100
AcDbEntity
  8
0
  6
HIDDEN
 62
     7
370
     0
100
AcDbSpline
210
0.0
220
0.0
230
1.0
 70
     8
 71
     3
 72
    38
 73
    34
 74
     0
 42
0.00000001
 43
0.00000001
 40
-0.0939221400677788
 40
-0.065775259775378
 40
-0.0344739496007943
 40
0.0
 40
0.0323124298479835
 40
0.0609695982577461
 40
0.085969868783555
 40
0.1073131755946562
 40
0.1250019290169612
 40
0.1562358721977447
 40
0.1978507372990774
 40
0.2498168793248354
 40
0.2782629480307224
 40
0.3049884159832862
 40
0.3300042168913843
 40
0.353323904441817
 40
0.374964436093381
 40
0.4060267838322921
 40
0.4476555976010198
 40
0.4998320869201297
 40
0.5286685248934816
 40
0.5555536435543466
 40
0.5805015705746598
 40
0.6035302879119626
 40
0.6246629693429203
 40
0.6685312637103246
 40
0.7183269153555466
 40
0.7652375706113134
 40
0.7915712044406465
 40
0.8122937035710442
 40
0.8615656629637488
 40
0.9060778599322211
 40
0.9342247402246219
 40
0.9655260503992056
 40
0.9999999999999999
 40
1.032312429847983
 40
1.060969598257746
 40
1.085969868783555
 10
140.9136547888993
 20
138.141721767963
 30
0.0
 10
140.3095865703899
 20
138.1862552731789
 30
0.0
 10
139.8342715075437
 20
138.2343306594119
 30
0.0
 10
139.5146726815439
 20
138.2704933986778
 30
0.0
 10
139.3276782758299
 20
138.2968835328662
 30
0.0
 10
139.2393726162775
 20
138.3129531426634
 30
0.0
 10
139.2099591204082
 20
138.3207768279134
 30
0.0
 10
139.282091190477
 20
138.3026093293296
 30
0.0
 10
139.6032031926715
 20
138.258002749367
 30
0.0
 10
140.1752306828861
 20
138.1972642206963
 30
0.0
 10
140.8257630306424
 20
138.1479200576763
 30
0.0
 10
141.3756391593838
 20
138.1255575971969
 30
0.0
 10
141.931077025162
 20
138.1170753872925
 30
0.0
 10
142.4718525727984
 20
138.123526473441
 30
0.0
 10
143.0697824675978
 20
138.1470048500427
 30
0.0
 10
143.8094483247647
 20
138.21392472088
 30
0.0
 10
144.7414979580376
 20
138.3300261548151
 30
0.0
 10
145.5308346917112
 20
138.4653410394064
 30
0.0
 10
146.0697643795486
 20
138.5804528634736
 30
0.0
 10
146.3838687194445
 20
138.6502269400246
 30
0.0
 10
146.5891490878103
 20
138.7007870255205
 30
0.0
 10
146.7002190739012
 20
138.7314651654272
 30
0.0
 10
146.7464905757052
 20
138.7461921826834
 30
0.0
 10
146.6205257073589
 20
138.7083325890961
 30
0.0
 10
146.1502801784858
 20
138.59784680467
 30
0.0
 10
145.4970822148972
 20
138.4581425862938
 30
0.0
 10
144.8930632593812
 20
138.3550159801485
 30
0.0
 10
144.2187252097429
 20
138.255579954379
 30
0.0
 10
143.3333757267555
 20
138.1621096201035
 30
0.0
 10
142.3638968361432
 20
138.1151011140308
 30
0.0
 10
141.5755612588761
 20
138.1187853291313
 30
0.0
 10
140.9136547888993
 20
138.141721767963
 30
0.0
 10
140.3095865703899
 20
138.1862552731789
 30
0.0
 10
139.8342715075437
 20
138.2343306594119
 30
0.0
  0
LINE
  5
175
330
1F
100
AcDbEntity
  8
0
  6
HIDDEN
 62
     7
370
     0
100
AcDbLine
 10
237.9733896247
 20
119.3387177419
 30
0.0
 11
237.9733896247
 21
110.9387177419
 31
0.0
  0
SPLINE
  5
176
330
1F
100
AcDbEntity
  8
0
  6
HIDDEN
 62
     7
370
     0
100
AcDbSpline
210
0.0
220
0.0
230
1.0
 70
     8
 71
     3
 72
    62
 73
    58
 74
     0
 42
0.00000001
 43
0.00000001
 40
-0.031249999999998
 40
-0.031249999999998
 40
0.0
 40
0.0
 40
0.0312500000000019
 40
0.0312500000000019
 40
0.0625000000000038
 40
0.0625000000000038
 40
0.1250000000000047
 40
0.1250000000000047
 40
0.1875000000000056
 40
0.1875000000000056
 40
0.2187500000000067
 40
0.2187500000000067
 40
0.2500000000000078
 40
0.2500000000000078
 40
0.2812500000000089
 40
0.2812500000000089
 40
0.31250000000001
 40
0.31250000000001
 40
0.343750000000011
 40
0.343750000000011
 40
0.375000000000012
 40
0.375000000000012
 40
0.4375000000000142
 40
0.4375000000000142
 40
0.4687500000000138
 40
0.4687500000000138
 40
0.5000000000000133
 40
0.5000000000000133
 40
0.531250000000013
 40
0.531250000000013
 40
0.5625000000000127
 40
0.5625000000000127
 40
0.5937500000000123
 40
0.5937500000000123
 40
0.625000000000012
 40
0.625000000000012
 40
0.6562500000000117
 40
0.6562500000000117
 40
0.6875000000000113
 40
0.6875000000000113
 40
0.718750000000011
 40
0.718750000000011
 40
0.7500000000000105
 40
0.7500000000000105
 40
0.7812500000000102
 40
0.7812500000000102
 40
0.8125000000000099
 40
0.8125000000000099
 40
0.875000000000008
 40
0.875000000000008
 40
0.906250000000006
 40
0.906250000000006
 40
0.937500000000004
 40
0.937500000000004
 40
0.968750000000002
 40
0.968750000000002
 40
1.0
 40
1.0
 40
1.031250000000002
 40
1.031250000000002
 10
235.1146520420047
 20
114.2654886405008
 30
0.0
 10
234.832127207431
 20
114.2654886405008
 30
0.0
 10
234.6938041763798
 20
114.2814466651027
 30
0.0
 10
234.4225762306876
 20
114.342980316409
 30
0.0
 10
234.2883658645192
 20
114.3893730466611
 30
0.0
 10
233.9093863568149
 20
114.5658483637096
 30
0.0
 10
233.6805097963554
 20
114.735854432738
 30
0.0
 10
233.2996169442041
 20
115.1417729203069
 30
0.0
 10
233.1440188713371
 20
115.3818934386848
 30
0.0
 10
232.9848728258151
 20
115.7645095817873
 30
0.0
 10
232.9431074348649
 20
115.8987618747176
 30
0.0
 10
232.8877890210548
 20
116.1660858828967
 30
0.0
 10
232.8736831935842
 20
116.2994597736128
 30
0.0
 10
232.8731050355293
 20
116.5654571503809
 30
0.0
 10
232.8870960844723
 20
116.6976821728044
 30
0.0
 10
232.9415945133488
 20
116.9479700928164
 30
0.0
 10
232.982484852297
 20
117.0688015257475
 30
0.0
 10
233.0890928519734
 20
117.2959218207585
 30
0.0
 10
233.1538403990521
 20
117.4008085344271
 30
0.0
 10
233.3054012746796
 20
117.5953635083764
 30
0.0
 10
233.3926878718191
 20
117.6850424394339
 30
0.0
 10
233.6783018262655
 20
117.9235171483029
 30
0.0
 10
233.9076880213166
 20
118.0478012942432
 30
0.0
 10
234.28390669097
 20
118.1730334923667
 30
0.0
 10
234.4163777460207
 20
118.2052985798166
 30
0.0
 10
234.6903327224726
 20
118.2487754023533
 30
0.0
 10
234.8283733857749
 20
118.2596172333538
 30
0.0
 10
235.1065909577561
 20
118.2602219445977
 30
0.0
 10
235.2484003165207
 20
118.2495606272735
 30
0.0
 10
235.5208568838517
 20
118.2072742598986
 30
0.0
 10
235.6527226149268
 20
118.1759007810758
 30
0.0
 10
235.9082390350475
 20
118.0918391797743
 30
0.0
 10
236.0282257946876
 20
118.0403244687256
 30
0.0
 10
236.253371792008
 20
117.918385163805
 30
0.0
 10
236.3594985563917
 20
117.8470789945036
 30
0.0
 10
236.5508252040837
 20
117.6881923656651
 30
0.0
 10
236.6367615506171
 20
117.6004658628401
 30
0.0
 10
236.7892585118358
 20
117.4063127919515
 30
0.0
 10
236.8554035750641
 20
117.2997412731217
 30
0.0
 10
236.9616240102598
 20
117.0754867710251
 30
0.0
 10
237.0026646220884
 20
116.9567379236472
 30
0.0
 10
237.0588512100371
 20
116.7041448354428
 30
0.0
 10
237.0730687816013
 20
116.5733913920754
 30
0.0
 10
237.073699673287
 20
116.3088414164143
 30
0.0
 10
237.0599112914871
 20
116.1724377778761
 30
0.0
 10
237.0050677197432
 20
115.9036847492445
 30
0.0
 10
236.9645665376885
 20
115.7719852444079
 30
0.0
 10
236.8049773390051
 20
115.385137387745
 30
0.0
 10
236.6502095053263
 20
115.1454113850372
 30
0.0
 10
236.3622297914457
 20
114.837926375418
 30
0.0
 10
236.2582808688927
 20
114.7453474834533
 30
0.0
 10
236.0338696710015
 20
114.5803980630981
 30
0.0
 10
235.9119391169531
 20
114.5075192694541
 30
0.0
 10
235.6596966634942
 20
114.3898817618114
 30
0.0
 10
235.5288194898049
 20
114.3443495070197
 30
0.0
 10
235.256613141425
 20
114.2819597995489
 30
0.0
 10
235.1146520420047
 20
114.2654886405008
 30
0.0
 10
234.832127207431
 20
114.2654886405008
 30
0.0
  0
LINE
  5
177
330
1F
100
AcDbEntity
  8
0
  6
HIDDEN
 62
     7
370
     0
100
AcDbLine
 10
173.7733896247
 20
110.9387177419
 30
0.0
 11
173.7733896247
 21
119.3387177419
 31
0.0
  0
LINE
  5
178
330
1F
100
AcDbEntity
  8
0
  6
HIDDEN
 62
     7
370
     0
100
AcDbLine
 10
251.4733896247
 20
115.1387177419
 30
0.0
 11
251.4733896247
 21
131.6387177419
 31
0.0
  0
LINE
  5
179
330
1F
100
AcDbEntity
  8
0
  6
HIDDEN
 62
     7
370
     0
100
AcDbLine
 10
254.2887399414
 20
105.0971661758
 30
0.0
 11
254.2887399414
 21
95.8236978541
 31
0.0
  0
SPLINE
  5
17A
330
1F
100
AcDbEntity
  8
0
  6
HIDDEN
 62
     7
370
     0
100
AcDbSpline
210
0.0
220
0.0
230
1.0
 70
     8
 71
     3
 72
    14
 73
    10
 74
     0
 42
0.00000001
 43
0.00000001
 40
0.0
 40
0.0
 40
0.0
 40
0.0
 40
0.25
 40
0.25
 40
0.5
 40
0.5
 40
0.75
 40
0.75
 40
1.0
 40
1.0
 40
1.0
 40
1.0
 10
254.2887399413678
 20
105.0971661758224
 30
0.0
 10
253.8868415180182
 20
105.870234838329
 30
0.0
 10
253.5115552197271
 20
106.6566477683576
 30
0.0
 10
252.8328200929297
 20
108.2654954948683
 30
0.0
 10
252.5293042375423
 20
109.0878966816846
 30
0.0
 10
252.0198532020642
 20
110.781629482078
 30
0.0
 10
251.8171449155051
 20
111.6453953061664
 30
0.0
 10
251.5435670417838
 20
113.3888637544924
 30
0.0
 10
251.473389624718
 20
114.2626891758547
 30
0.0
 10
251.4733896247179
 20
115.1387177419355
 30
0.0
  0
LINE
  5
17B
330
1F
100
AcDbEntity
  8
0
  6
HIDDEN
 62
     7
370
     0
100
AcDbLine
 10
275.0434461696
 20
106.0086527529
 30
0.0
 11
275.0420357274
 21
106.0247349094
 31
0.0
  0
LINE
  5
17C
330
1F
100
AcDbEntity
  8
0
  6
HIDDEN
 62
     7
370
     0
100
AcDbLine
 10
266.0455942398
 20
106.7939451887
 30
0.0
 11
275.0434461696
 21
106.0086527529
 31
0.0
  0
LINE
  5
17D
330
1F
100
AcDbEntity
  8
0
  6
HIDDEN
 62
     7
370
     0
100
AcDbLine
 10
263.3057955478
 20
104.0608205086
 30
0.0
 11
263.2654949896
 21
104.0778000378
 31
0.0
  0
LINE
  5
17E
330
1F
100
AcDbEntity
  8
0
  6
HIDDEN
 62
     7
370
     0
100
AcDbLine
 10
264.1034821888
 20
94.9654304962
 30
0.0
 11
263.3057955478
 21
104.0608205086
 31
0.0
  0
LINE
  5
17F
330
1F
100
AcDbEntity
  8
0
  6
HIDDEN
 62
     7
370
     0
100
AcDbLine
 10
264.1034821888
 20
94.9654304962
 30
0.0
 11
264.0643708183
 21
94.9688506587
 31
0.0
  0
LWPOLYLINE
  5
180
330
1F
100
AcDbEntity
  8
0
  6
HIDDEN
 62
     7
370
     0
100
AcDbPolyline
 90
        2
 70
   128
 43
0.0
 10
156.9233896247
 20
88.7387177419
 10
156.9233896247
 20
88.7387177419
  0
LINE
  5
181
330
1F
100
AcDbEntity
  8
0
  6
HIDDEN
 62
     7
370
     0
100
AcDbLine
 10
275.0647444422
 20
106.022752994
 30
0.0
 11
275.0647444422
 21
105.9025280797
 31
0.0
  0
LINE
  5
182
330
1F
100
AcDbEntity
  8
0
  6
HIDDEN
 62
     7
370
     0
100
AcDbLine
 10
275.0647444422
 20
105.9025280797
 30
0.0
 11
275.0434461696
 21
106.0086527529
 31
0.0
  0
LINE
  5
183
330
1F
100
AcDbEntity
  8
0
  6
HIDDEN
 62
     7
370
     0
100
AcDbLine
 10
275.3959166152
 20
103.1657533221
 30
0.0
 11
275.1471984642
 21
106.0155567742
 31
0.0
  0
SPLINE
  5
184
330
1F
100
AcDbEntity
  8
0
  6
HIDDEN
 62
     7
370
     0
100
AcDbSpline
210
0.0
220
0.0
230
1.0
 70
     8
 71
     3
 72
    31
 73
    27
 74
     0
 42
0.00000001
 43
0.00000001
 40
0.0
 40
0.0
 40
0.0
 40
0.0
 40
0.0312103663444819
 40
0.0623482054451684
 40
0.093429617830635
 40
0.1244707918323118
 40
0.1554879787847253
 40
0.1864974677355495
 40
0.2175155598601999
 40
0.2485585427810955
 40
0.2796426649934476
 40
0.3107841105974902
 40
0.3419989745314939
 40
0.3733032384908799
 40
0.4047127477065794
 40
0.4362431887408409
 40
0.4679100684414159
 40
0.4997286941760072
 40
0.5632242231229879
 40
0.6261906370348921
 40
0.6887528319830164
 40
0.7510381357364897
 40
0.8131755782468739
 40
0.8752951108508273
 40
0.9375267970827584
 40
0.9999999999999999
 40
0.9999999999999999
 40
0.9999999999999999
 40
0.9999999999999999
 10
276.0143873857506
 20
95.24892097597224
 30
0.0
 10
276.0122193694957
 20
95.28409198354011
 30
0.0
 10
276.0078883750633
 20
95.35435226761857
 30
0.0
 10
276.0002772598281
 20
95.47226139586084
 30
0.0
 10
275.9918602618817
 20
95.59916534788385
 30
0.0
 10
275.9825572365104
 20
95.73596770650802
 30
0.0
 10
275.972389608928
 20
95.88242688219692
 30
0.0
 10
275.961351655121
 20
96.0386073851101
 30
0.0
 10
275.9494449183368
 20
96.20449178928334
 30
0.0
 10
275.9366689996264
 20
96.38008456689226
 30
0.0
 10
275.9230240238283
 20
96.56538428536004
 30
0.0
 10
275.9085099788588
 20
96.76039105651226
 30
0.0
 10
275.8931268911157
 20
96.96510456071476
 30
0.0
 10
275.8768747838782
 20
97.17952451043018
 30
0.0
 10
275.8597536664345
 20
97.40365079423744
 30
0.0
 10
275.8417636180864
 20
97.63748245017983
 30
0.0
 10
275.8229044593991
 20
97.88102167153592
 30
0.0
 10
275.7966659633253
 20
98.21783930009923
 30
0.0
 10
275.7620682472104
 20
98.65838906981925
 30
0.0
 10
275.7177525677488
 20
99.21717378914555
 30
0.0
 10
275.6707852266347
 20
99.80421759488087
 30
0.0
 10
275.6211628475202
 20
100.4195536426925
 30
0.0
 10
275.5689005447532
 20
101.063023362441
 30
0.0
 10
275.5139439803685
 20
101.7351922428003
 30
0.0
 10
275.4564994245955
 20
102.4339072848933
 30
0.0
 10
275.4161369417031
 20
102.9214898750111
 30
0.0
 10
275.3959166151291
 20
103.1657533220915
 30
0.0
  0
LINE
  5
185
330
1F
100
AcDbEntity
  8
0
  6
HIDDEN
 62
     7
370
     0
100
AcDbLine
 10
275.0695315909
 20
106.0223351929
 30
0.0
 11
276.0143873858
 21
95.2488916904
 31
0.0
  0
ARC
  5
186
330
1F
100
AcDbEntity
  8
0
  6
HIDDEN
 62
     7
370
     0
100
AcDbCircle
 10
264.0995685995
 20
106.315103259
 30
0.0
 40
2.097058132258466
100
AcDbArc
 50
270.0843012884
 51
184.351749792
  0
LWPOLYLINE
  5
187
330
1F
100
AcDbEntity
  8
0
  6
HIDDEN
 62
     7
370
     0
100
AcDbPolyline
 90
        3
 70
   128
 43
0.0
 10
263.2368533454
 20
104.4043780592
 10
263.4836682072
 20
104.3111172375
 10
264.1026540735
 20
104.2180473967
  0
ELLIPSE
  5
188
330
1F
100
AcDbEntity
  8
0
  6
HIDDEN
 62
     7
370
     0
100
AcDbEllipse
 10
264.1026540735
 20
106.546221716
 30
0.0
 11
2.099281448397733
 21
-0.1276543563555492
 31
0.0
210
0.0
220
0.0
230
1.0
 40
0.4303093993
 41
0.290121868075234
 42
0.4153692678996024
  0
LINE
  5
189
330
1F
100
AcDbEntity
  8
0
  6
HIDDEN
 62
     7
370
     0
100
AcDbLine
 10
266.1299185118
 20
106.8567110714
 30
0.0
 11
266.1299185118
 21
106.6823198871
 31
0.0
  0
ARC
  5
18A
330
1F
100
AcDbEntity
  8
0
  6
HIDDEN
 62
     7
370
     0
100
AcDbCircle
 10
264.1044537026
 20
106.3119456669
 30
0.0
 40
2.097445360183239
100
AcDbArc
 50
254.8063337048
 51
15.0539265256
  0
LINE
  5
18B
330
1F
100
AcDbEntity
  8
0
  6
HIDDEN
 62
     7
370
     0
100
AcDbLine
 10
263.5547499785
 20
104.1134243349
 30
0.0
 11
263.5547499785
 21
104.2878155193
 31
0.0
  0
ELLIPSE
  5
18C
330
1F
100
AcDbEntity
  8
0
  6
HIDDEN
 62
     7
370
     0
100
AcDbEllipse
 10
264.1026540735
 20
106.546221716
 30
0.0
 11
1.616902374425252
 21
2.318196838028328
 31
0.0
210
0.0
220
0.0
230
1.0
 40
0.57803977
 41
3.631152220478814
 42
3.756399620303103
  0
LINE
  5
18D
330
1F
100
AcDbEntity
  8
0
  6
HIDDEN
 62
     7
370
     0
100
AcDbLine
 10
275.0647444422
 20
105.9025280797
 30
0.0
 11
266.1299185118
 21
106.6823198871
 31
0.0
  0
LINE
  5
18E
330
1F
100
AcDbEntity
  8
0
  6
HIDDEN
 62
     7
370
     0
100
AcDbLine
 10
263.5547499785
 20
104.1134243349
 30
0.0
 11
264.3491076735
 21
95.0559916616
 31
0.0
  0
ELLIPSE
  5
18F
330
1F
100
AcDbEntity
  8
0
  6
HIDDEN
 62
     7
370
     0
100
AcDbEllipse
 10
262.5340140599
 20
115.0007966645
 30
0.0
 11
-1.602996432070484
 21
20.03438624540712
 31
0.0
210
0.0
220
0.0
230
1.0
 40
0.1282539226
 41
3.128596344297777
 42
3.226485769758179
  0
LINE
  5
190
330
1F
100
AcDbEntity
  8
0
  6
HIDDEN
 62
     7
370
     0
100
AcDbLine
 10
156.9233896247
 20
83.6545947591
 30
0.0
 11
156.9233896247
 21
88.7387177419
 31
0.0
  0
LINE
  5
191
330
1F
100
AcDbEntity
  8
0
  6
HIDDEN
 62
     7
370
     0
100
AcDbLine
 10
156.9233896247
 20
88.7387177419
 30
0.0
 11
164.9233896247
 21
88.7387177419
 31
0.0
  0
LINE
  5
192
330
1F
100
AcDbEntity
  8
0
  6
HIDDEN
 62
     7
370
     0
100
AcDbLine
 10
263.5547499785
 20
104.2878155193
 30
0.0
 11
264.3274006505
 21
95.4778908651
 31
0.0
  0
ELLIPSE
  5
193
330
1F
100
AcDbEntity
  8
0
  6
HIDDEN
 62
     7
370
     0
100
AcDbEllipse
 10
262.5967902696
 20
114.9856830215
 30
0.0
 11
-1.749259518893211
 21
20.042204879289
 31
0.0
210
0.0
220
0.0
230
1.0
 40
0.0060565887
 41
3.247075635562935
 42
3.37251102494416
  0
LWPOLYLINE
  5
194
330
1F
100
AcDbEntity
  8
0
  6
HIDDEN
 62
     7
370
     0
100
AcDbPolyline
 90
       22
 70
   128
 43
0.0
 10
234.9733896247
 20
116.1573985445
 10
235.592375491
 20
116.2461293668
 10
236.1563617467
 20
116.504437711
 10
236.6152357379
 20
116.909371747
 10
236.9282244969
 20
117.4249513087
 10
237.0675175988
 20
118.0053648895
 10
237.0207382403
 20
118.5990401956
 10
236.7920429727
 20
119.1532265708
 10
236.401752374
 20
119.6186821236
 10
235.8845454769
 20
119.9540490855
 10
235.2863783837
 20
120.1295286303
 10
234.6604008657
 20
120.1295286303
 10
234.0622337726
 20
119.9540490855
 10
233.5450268754
 20
119.6186821236
 10
233.1547362768
 20
119.1532265708
 10
232.9260410091
 20
118.5990401956
 10
232.8792616506
 20
118.0053648895
 10
233.0185547526
 20
117.4249513087
 10
233.3315435115
 20
116.909371747
 10
233.7904175028
 20
116.504437711
 10
234.3544037585
 20
116.2461293668
 10
234.9733896247
 20
116.1573985445
  0
LINE
  5
195
330
1F
100
AcDbEntity
  8
0
  6
HIDDEN
 62
     7
370
     0
100
AcDbLine
 10
275.280969007
 20
94.5075683664
 30
0.0
 11
276.0144236362
 21
95.2488560153
 31
0.0
  0
CIRCLE
  5
196
330
1F
100
AcDbEntity
  8
0
  6
HIDDEN
 62
     7
370
     0
100
AcDbCircle
 10
269.9070537463
 20
100.5237931443
 30
0.0
 40
2.997775996798647
  0
LINE
  5
197
330
1F
100
AcDbEntity
  8
0
  6
HIDDEN
 62
     7
370
     0
100
AcDbLine
 10
275.0647444422
 20
106.076919264
 30
0.0
 11
266.1299185118
 21
106.8567110714
 31
0.0
  0
LINE
  5
198
330
1F
100
AcDbEntity
  8
0
  6
HIDDEN
 62
     7
370
     0
100
AcDbLine
 10
264.3274006505
 20
95.4778908651
 30
0.0
 11
275.2807985837
 21
94.5100685194
 31
0.0
  0
CIRCLE
  5
199
330
1F
100
AcDbEntity
  8
0
  6
HIDDEN
 62
     7
370
     0
100
AcDbCircle
 10
269.9053344144
 20
100.5845924929
 30
0.0
 40
2.097441476104178
  0
SPLINE
  5
19A
330
1F
100
AcDbEntity
  8
0
  6
HIDDEN
 62
     7
370
     0
100
AcDbSpline
210
0.0
220
0.0
230
1.0
 70
     8
 71
     3
 72
    42
 73
    38
 74
     0
 42
0.00000001
 43
0.00000001
 40
0.0
 40
0.0
 40
0.0
 40
0.0
 40
0.0304508697519127
 40
0.0607916691148049
 40
0.0910223423582653
 40
0.1211428351486876
 40
0.1511530945578536
 40
0.1810530690716802
 40
0.2108427085991089
 40
0.2405219644811638
 40
0.2700907895001681
 40
0.299549137889122
 40
0.3288969653412694
 40
0.3581342290198088
 40
0.3872608875678034
 40
0.4162769011182672
 40
0.4451822313044326
 40
0.473976841270194
 40
0.5026606956807833
 40
0.5312337607335871
 40
0.5596960041692182
 40
0.5880473952827514
 40
0.6162879049351933
 40
0.644417505565158
 40
0.6724361712007602
 40
0.7003438774717385
 40
0.7281406016217993
 40
0.7558263225212015
 40
0.7834010206795734
 40
0.8108646782589837
 40
0.8382172790872491
 40
0.8654588086715069
 40
0.8925892542120446
 40
0.9196086046163927
 40
0.9465168505136974
 40
0.9733139842693681
 40
1.0
 40
1.0
 40
1.0
 40
1.0
 10
274.7196739294377
 20
101.9828336505452
 30
0.0
 10
274.7287003749997
 20
101.8698196649236
 30
0.0
 10
274.7467206383407
 20
101.6442002039613
 30
0.0
 10
274.7730123892037
 20
101.3134961985854
 30
0.0
 10
274.7987003869308
 20
100.98933732684
 30
0.0
 10
274.8237356455795
 20
100.6722976122941
 30
0.0
 10
274.8481312194548
 20
100.3623137818747
 30
0.0
 10
274.8718836298842
 20
100.0594858635091
 30
0.0
 10
274.8949938039354
 20
99.76386391410426
 30
0.0
 10
274.9174614946535
 20
99.47550493213438
 30
0.0
 10
274.9392867679254
 20
99.19445777460642
 30
0.0
 10
274.9604696062781
 20
98.92076726177712
 30
0.0
 10
274.9810100144509
 20
98.65447317166024
 30
0.0
 10
275.0009079912653
 20
98.39561059875356
 30
0.0
 10
275.0201635371202
 20
98.14420995166631
 30
0.0
 10
275.0387766519952
 20
97.90029704922094
 30
0.0
 10
275.0567473359818
 20
97.66389319243606
 30
0.0
 10
275.0740755891424
 20
97.43501524491519
 30
0.0
 10
275.0907614115481
 20
97.21367571283886
 30
0.0
 10
275.1068048032681
 20
96.99988282676966
 30
0.0
 10
275.1222057643723
 20
96.79364062455346
 30
0.0
 10
275.1369642949323
 20
96.59494903536167
 30
0.0
 10
275.1510803950166
 20
96.40380396479452
 30
0.0
 10
275.1645540647055
 20
96.22019738072169
 30
0.0
 10
275.1773853040395
 20
96.0441174006392
 30
0.0
 10
275.1895741132074
 20
95.87554837719138
 30
0.0
 10
275.2011204918506
 20
95.71447099385128
 30
0.0
 10
275.2120244416433
 20
95.56086232583311
 30
0.0
 10
275.2222859567201
 20
95.4146960324801
 30
0.0
 10
275.2319050591863
 20
95.27594206401174
 30
0.0
 10
275.2408816673925
 20
95.14456817145468
 30
0.0
 10
275.249216084558
 20
95.02053472905872
 30
0.0
 10
275.2569071863085
 20
94.90381436393741
 30
0.0
 10
275.2639591435178
 20
94.79431956999639
 30
0.0
 10
275.2703564863714
 20
94.69217162272813
 30
0.0
 10
275.2761565927595
 20
94.59670358820956
 30
0.0
 10
275.2794902264869
 20
94.53888675864862
 30
0.0
 10
275.2811535803272
 20
94.51003840476561
 30
0.0
  0
LINE
  5
19B
330
1F
100
AcDbEntity
  8
0
  6
HIDDEN
 62
     7
370
     0
100
AcDbLine
 10
126.1733896247
 20
133.1287177419
 30
0.0
 11
126.1733896247
 21
131.4262313643
 31
0.0
  0
LINE
  5
19C
330
1F
100
AcDbEntity
  8
0
  6
HIDDEN
 62
     7
370
     0
100
AcDbLine
 10
130.1733896247
 20
97.1487177419
 30
0.0
 11
130.1733896247
 21
98.8512041195
 31
0.0
  0
LINE
  5
19D
330
1F
100
AcDbEntity
  8
0
  6
HIDDEN
 62
     7
370
     0
100
AcDbLine
 10
130.1733896247
 20
97.1487177419
 30
0.0
 11
130.1733896247
 21
93.1935694827
 31
0.0
  0
LINE
  5
19E
330
1F
100
AcDbEntity
  8
0
  6
HIDDEN
 62
     7
370
     0
100
AcDbLine
 10
126.1733896247
 20
133.1287177419
 30
0.0
 11
126.1733896247
 21
136.9828254143
 31
0.0
  0
ARC
  5
19F
330
1F
100
AcDbEntity
  8
0
  6
HIDDEN
 62
     7
370
     0
100
AcDbCircle
 10
269.9079353884
 20
101.3492690922
 30
0.0
 40
2.101773154353348
100
AcDbArc
 50
17.4693799113
 51
147.8416927012
  0
SPLINE
  5
1A0
330
1F
100
AcDbEntity
  8
0
  6
HIDDEN
 62
     7
370
     0
100
AcDbSpline
210
0.0
220
0.0
230
1.0
 70
     8
 71
     3
 72
    40
 73
    36
 74
     0
 42
0.00000001
 43
0.00000001
 40
0.0
 40
0.0
 40
0.0
 40
0.0
 40
0.062499999999998
 40
0.062499999999998
 40
0.124999999999996
 40
0.124999999999996
 40
0.249999999999992
 40
0.249999999999992
 40
0.3124999999999902
 40
0.3124999999999902
 40
0.3749999999999884
 40
0.3749999999999884
 40
0.4374999999999867
 40
0.4374999999999867
 40
0.4687499999999875
 40
0.4687499999999875
 40
0.4999999999999883
 40
0.4999999999999883
 40
0.5312499999999892
 40
0.5312499999999892
 40
0.5624999999999901
 40
0.5624999999999901
 40
0.6249999999999917
 40
0.6249999999999917
 40
0.6874999999999932
 40
0.6874999999999932
 40
0.7499999999999946
 40
0.7499999999999946
 40
0.812499999999996
 40
0.812499999999996
 40
0.8749999999999973
 40
0.8749999999999973
 40
0.9374999999999987
 40
0.9374999999999987
 40
1.0
 40
1.0
 40
1.0
 40
1.0
 10
268.1286147943632
 20
102.4679596731468
 30
0.0
 10
268.0345688211992
 20
102.307964690728
 30
0.0
 10
267.9628847760763
 20
102.1414854544022
 30
0.0
 10
267.8589921349341
 20
101.8000064078368
 30
0.0
 10
267.8281188804798
 20
101.6295896037599
 30
0.0
 10
267.7893093750373
 20
101.1205168770057
 30
0.0
 10
267.8357796777598
 20
100.7801191720238
 30
0.0
 10
268.0069876986744
 20
100.3043174449967
 30
0.0
 10
268.0810220451154
 20
100.150385512454
 30
0.0
 10
268.2704757606986
 20
99.85209938346405
 30
0.0
 10
268.3840474199504
 20
99.71057079142578
 30
0.0
 10
268.65932665748
 20
99.44941176742687
 30
0.0
 10
268.8210106728902
 20
99.32988988399272
 30
0.0
 10
269.1071312195436
 20
99.18493587604851
 30
0.0
 10
269.2099438194431
 20
99.14258238333335
 30
0.0
 10
269.4250558248069
 20
99.07568820381887
 30
0.0
 10
269.5400977664769
 20
99.0506021955498
 30
0.0
 10
269.7691672449749
 20
99.02245619198489
 30
0.0
 10
269.8858393120773
 20
99.01887213719688
 30
0.0
 10
270.1134092389321
 20
99.03218531043757
 30
0.0
 10
270.222758602812
 20
99.04868264073059
 30
0.0
 10
270.538343294318
 20
99.1226207798359
 30
0.0
 10
270.7215845017876
 20
99.20106909712723
 30
0.0
 10
271.0481687627206
 20
99.39188898562657
 30
0.0
 10
271.1876461442683
 20
99.50213205574059
 30
0.0
 10
271.4343837422041
 20
99.74546635020056
 30
0.0
 10
271.5408852091185
 20
99.87891917886705
 30
0.0
 10
271.7197645189243
 20
100.1580458781961
 30
0.0
 10
271.7932648633491
 20
100.3048995557967
 30
0.0
 10
271.9101105197635
 20
100.6134167774792
 30
0.0
 10
271.95341553941
 20
100.7762860080809
 30
0.0
 10
272.0051745070626
 20
101.1075557626361
 30
0.0
 10
272.0142270406258
 20
101.2768753499552
 30
0.0
 10
271.9944885168566
 20
101.6232177447542
 30
0.0
 10
271.9652731592196
 20
101.8019429774251
 30
0.0
 10
271.9127695485985
 20
101.9802131328687
 30
0.0
  0
LINE
  5
1A1
330
1F
100
AcDbEntity
  8
0
  6
HIDDEN
 62
     7
370
     0
100
AcDbLine
 10
121.2233896247
 20
133.1287177419
 30
0.0
 11
121.2233896247
 21
136.0086555073
 31
0.0
  0
LINE
  5
1A2
330
1F
100
AcDbEntity
  8
0
  6
HIDDEN
 62
     7
370
     0
100
AcDbLine
 10
120.0733896247
 20
133.1287177419
 30
0.0
 11
120.0733896247
 21
135.1147782466
 31
0.0
  0
SPLINE
  5
1A3
330
1F
100
AcDbEntity
  8
0
  6
HIDDEN
 62
     7
370
     0
100
AcDbSpline
210
0.0
220
0.0
230
1.0
 70
     8
 71
     3
 72
    22
 73
    18
 74
     0
 42
0.00000001
 43
0.00000001
 40
0.0
 40
0.0
 40
0.0
 40
0.0
 40
0.1250000000000035
 40
0.1250000000000035
 40
0.250000000000007
 40
0.250000000000007
 40
0.3125000000000091
 40
0.3125000000000091
 40
0.3750000000000112
 40
0.3750000000000112
 40
0.5000000000000088
 40
0.5000000000000088
 40
0.6250000000000064
 40
0.6250000000000064
 40
0.7500000000000041
 40
0.7500000000000041
 40
1.0
 40
1.0
 40
1.0
 40
1.0
 10
121.2133446942869
 20
136.0029096143642
 30
0.0
 10
121.1527249734105
 20
135.968087437717
 30
0.0
 10
121.0905356334439
 20
135.9295836340162
 30
0.0
 10
120.9568061672144
 20
135.8436491462175
 30
0.0
 10
120.8845516255022
 20
135.7953425450154
 30
0.0
 10
120.7626536846664
 20
135.7189908268455
 30
0.0
 10
120.7188471315145
 20
135.6925763662385
 30
0.0
 10
120.6324519623396
 20
135.644067441708
 30
0.0
 10
120.590111986048
 20
135.6221333189817
 30
0.0
 10
120.476141239679
 20
135.565763529037
 30
0.0
 10
120.4177225136888
 20
135.5394067045033
 30
0.0
 10
120.3178149425013
 20
135.4872668799992
 30
0.0
 10
120.2764009517059
 20
135.4621062902866
 30
0.0
 10
120.2043759838286
 20
135.4069994469596
 30
0.0
 10
120.1740274425157
 20
135.3771430434646
 30
0.0
 10
120.1005357124836
 20
135.279736341472
 30
0.0
 10
120.0733896247179
 20
135.2034046576616
 30
0.0
 10
120.0733896247179
 20
135.1147782465915
 30
0.0
  0
LINE
  5
1A4
330
1F
100
AcDbEntity
  8
0
  6
HIDDEN
 62
     7
370
     0
100
AcDbLine
 10
121.2233896247
 20
97.1487177419
 30
0.0
 11
121.2233896247
 21
94.3320861834
 31
0.0
  0
SPLINE
  5
1A5
330
1F
100
AcDbEntity
  8
0
  6
HIDDEN
 62
     7
370
     0
100
AcDbSpline
210
0.0
220
0.0
230
1.0
 70
     8
 71
     3
 72
    22
 73
    18
 74
     0
 42
0.00000001
 43
0.00000001
 40
0.0
 40
0.0
 40
0.0
 40
0.0
 40
0.2499999999999988
 40
0.2499999999999988
 40
0.4999999999999977
 40
0.4999999999999977
 40
0.5624999999999947
 40
0.5624999999999947
 40
0.6249999999999918
 40
0.6249999999999918
 40
0.6874999999999888
 40
0.6874999999999888
 40
0.7499999999999892
 40
0.7499999999999892
 40
0.8749999999999946
 40
0.8749999999999946
 40
1.0
 40
1.0
 40
1.0
 40
1.0
 10
120.0733896247177
 20
95.17959997993609
 30
0.0
 10
120.0733896247177
 20
95.08962659491831
 30
0.0
 10
120.1048878430635
 20
95.0145785524032
 30
0.0
 10
120.21141527224
 20
94.90155133869169
 30
0.0
 10
120.2845754913769
 20
94.86473775589893
 30
0.0
 10
120.4055039677013
 20
94.82909407964509
 30
0.0
 10
120.4313544555052
 20
94.82234386585893
 30
0.0
 10
120.4889490132795
 20
94.80727485714448
 30
0.0
 10
120.5208947538031
 20
94.79914183371783
 30
0.0
 10
120.5967517943754
 20
94.7738562591334
 30
0.0
 10
120.6439628450213
 20
94.75448104101633
 30
0.0
 10
120.7401888386203
 20
94.69872256236656
 30
0.0
 10
120.7846097685441
 20
94.66623741925575
 30
0.0
 10
120.90083077843
 20
94.57732703763416
 30
0.0
 10
120.9659830178419
 20
94.522828954306
 30
0.0
 10
121.0925374582078
 20
94.42420147524966
 30
0.0
 10
121.1532115351774
 20
94.3794572770015
 30
0.0
 10
121.2133446942999
 20
94.33883058786516
 30
0.0
  0
LINE
  5
1A6
330
1F
100
AcDbEntity
  8
0
  6
HIDDEN
 62
     7
370
     0
100
AcDbLine
 10
120.0733896247
 20
97.1487177419
 30
0.0
 11
120.0733896247
 21
95.1795999799
 31
0.0
  0
LINE
  5
1A7
330
1F
100
AcDbEntity
  8
0
  6
HIDDEN
 62
     7
370
     0
100
AcDbLine
 10
121.2233896247
 20
133.1287177419
 30
0.0
 11
121.2233896247
 21
130.940208178
 31
0.0
  0
SPLINE
  5
1A8
330
1F
100
AcDbEntity
  8
0
  6
HIDDEN
 62
     7
370
     0
100
AcDbSpline
210
0.0
220
0.0
230
1.0
 70
     8
 71
     3
 72
     8
 73
     4
 74
     0
 42
0.00000001
 43
0.00000001
 40
0.0000002438860713
 40
0.0000002438860713
 40
0.0000002438860713
 40
0.0000002438860713
 40
0.0014006025853533
 40
0.0014006025853533
 40
0.0014006025853533
 40
0.0014006025853533
 10
121.2233896247178
 20
130.9402081779672
 30
0.0
 10
120.8406025521529
 20
131.0902797059429
 30
0.0
 10
120.4572491521968
 20
131.2384369078603
 30
0.0
 10
120.0733896247178
 20
131.3848104196636
 30
0.0
  0
LINE
  5
1A9
330
1F
100
AcDbEntity
  8
0
  6
HIDDEN
 62
     7
370
     0
100
AcDbLine
 10
120.0733896247
 20
133.1287177419
 30
0.0
 11
120.0733896247
 21
131.3848104197
 31
0.0
  0
SPLINE
  5
1AA
330
1F
100
AcDbEntity
  8
0
  6
HIDDEN
 62
     7
370
     0
100
AcDbSpline
210
0.0
220
0.0
230
1.0
 70
     8
 71
     3
 72
     8
 73
     4
 74
     0
 42
0.00000001
 43
0.00000001
 40
0.0000002432046719
 40
0.0000002432046719
 40
0.0000002432046719
 40
0.0000002432046719
 40
0.0014006019039539
 40
0.0014006019039539
 40
0.0014006019039539
 40
0.0014006019039539
 10
120.0733896247179
 20
98.89262506420738
 30
0.0
 10
120.4572491521968
 20
99.03899857601061
 30
0.0
 10
120.8406025521529
 20
99.18715577792804
 30
0.0
 10
121.2233896247179
 20
99.33722730590381
 30
0.0
  0
LINE
  5
1AB
330
1F
100
AcDbEntity
  8
0
  6
HIDDEN
 62
     7
370
     0
100
AcDbLine
 10
120.0733896247
 20
131.3848104197
 30
0.0
 11
120.0733896247
 21
98.8926250642
 31
0.0
  0
LINE
  5
1AC
330
1F
100
AcDbEntity
  8
0
  6
HIDDEN
 62
     7
370
     0
100
AcDbLine
 10
121.2233896247
 20
97.1487177419
 30
0.0
 11
121.2233896247
 21
99.3372273059
 31
0.0
  0
LINE
  5
1AD
330
1F
100
AcDbEntity
  8
0
  6
HIDDEN
 62
     7
370
     0
100
AcDbLine
 10
120.0733896247
 20
97.1487177419
 30
0.0
 11
120.0733896247
 21
98.8926250642
 31
0.0
  0
SPLINE
  5
1AE
330
1F
100
AcDbEntity
  8
0
  6
HIDDEN
 62
     7
370
     0
100
AcDbSpline
210
0.0
220
0.0
230
1.0
 70
     8
 71
     3
 72
    10
 73
     6
 74
     0
 42
0.00000001
 43
0.00000001
 40
0.0
 40
0.0
 40
0.0
 40
0.0
 40
0.5
 40
0.5
 40
1.0
 40
1.0
 40
1.0
 40
1.0
 10
168.0633896247179
 20
142.2583715929714
 30
0.0
 10
168.0633896247178
 20
142.1147592414133
 30
0.0
 10
168.0995568998156
 20
141.9717858276947
 30
0.0
 10
168.2353128435696
 20
141.7217932009809
 30
0.0
 10
168.3355825341925
 20
141.6137908917021
 30
0.0
 10
168.4576871564088
 20
141.5387177419354
 30
0.0
  0
LINE
  5
1AF
330
1F
100
AcDbEntity
  8
0
  6
HIDDEN
 62
     7
370
     0
100
AcDbLine
 10
168.0633896247
 20
142.258371593
 30
0.0
 11
168.0633896247
 21
88.3343221136
 31
0.0
  0
SPLINE
  5
1B0
330
1F
100
AcDbEntity
  8
0
  6
HIDDEN
 62
     7
370
     0
100
AcDbSpline
210
0.0
220
0.0
230
1.0
 70
     8
 71
     3
 72
    10
 73
     6
 74
     0
 42
0.00000001
 43
0.00000001
 40
0.0
 40
0.0
 40
0.0
 40
0.0
 40
0.5
 40
0.5
 40
1.0
 40
1.0
 40
1.0
 40
1.0
 10
168.0633896247179
 20
88.33432211360604
 30
0.0
 10
168.0633896247179
 20
88.40455847397655
 30
0.0
 10
168.0716722368083
 20
88.47455257547381
 30
0.0
 10
168.1047721798666
 20
88.61151184003226
 30
0.0
 10
168.129109571825
 20
88.67681974928736
 30
0.0
 10
168.1610644270494
 20
88.7387177419341
 30
0.0
  0
SPLINE
  5
1B1
330
1F
100
AcDbEntity
  8
0
  6
HIDDEN
 62
     7
370
     0
100
AcDbSpline
210
0.0
220
0.0
230
1.0
 70
    24
 71
     3
 72
    12
 73
     8
 74
     0
 42
0.00000001
 43
0.00000001
 40
0.0
 40
0.0
 40
0.0
 40
0.0
 40
0.4999999999999983
 40
0.4999999999999983
 40
0.7499999999999991
 40
0.7499999999999991
 40
1.0
 40
1.0
 40
1.0
 40
1.0
 10
168.4576871564087
 20
141.5387177419356
 30
0.0
 10
168.5008105048422
 20
141.5387177419356
 30
0.0
 10
168.5505500921424
 20
141.5387177419356
 30
0.0
 10
168.6470710689643
 20
141.5387177419356
 30
0.0
 10
168.682636199816
 20
141.5387177419356
 30
0.0
 10
168.7659845304389
 20
141.5387177419356
 30
0.0
 10
168.8144544301295
 20
141.5387177419356
 30
0.0
 10
168.863389624719
 20
141.5387177419356
 30
0.0
  0
SPLINE
  5
1B2
330
1F
100
AcDbEntity
  8
0
  6
HIDDEN
 62
     7
370
     0
100
AcDbSpline
210
0.0
220
0.0
230
1.0
 70
    24
 71
     3
 72
    14
 73
    10
 74
     0
 42
0.00000001
 43
0.00000001
 40
0.0
 40
0.0
 40
0.0
 40
0.0
 40
0.4999999999999972
 40
0.4999999999999972
 40
0.7499999999999956
 40
0.7499999999999956
 40
0.8749999999999977
 40
0.8749999999999977
 40
1.0
 40
1.0
 40
1.0
 40
1.0
 10
168.16106442705
 20
88.73871774193537
 30
0.0
 10
168.2082709148898
 20
88.73871774193537
 30
0.0
 10
168.2716109183192
 20
88.73871774193539
 30
0.0
 10
168.4146740245749
 20
88.73871774193537
 30
0.0
 10
168.4707546748459
 20
88.73871774193539
 30
0.0
 10
168.5821900247553
 20
88.73871774193539
 30
0.0
 10
168.6241348154283
 20
88.73871774193539
 30
0.0
 10
168.7291312584484
 20
88.73871774193537
 30
0.0
 10
168.7946951955293
 20
88.73871774193537
 30
0.0
 10
168.8633896247177
 20
88.73871774193537
 30
0.0
  0
LINE
  5
1B3
330
1F
100
AcDbEntity
  8
0
  6
HIDDEN
 62
     7
370
     0
100
AcDbLine
 10
171.8833896247
 20
142.258371593
 30
0.0
 11
171.8833896247
 21
88.3343221136
 31
0.0
  0
SPLINE
  5
1B4
330
1F
100
AcDbEntity
  8
0
  6
HIDDEN
 62
     7
370
     0
100
AcDbSpline
210
0.0
220
0.0
230
1.0
 70
     8
 71
     3
 72
    10
 73
     6
 74
     0
 42
0.00000001
 43
0.00000001
 40
0.0
 40
0.0
 40
0.0
 40
0.0
 40
0.5
 40
0.5
 40
1.0
 40
1.0
 40
1.0
 40
1.0
 10
171.489092093027
 20
141.5387177419355
 30
0.0
 10
171.6104046161247
 20
141.6133038882237
 30
0.0
 10
171.7118329783499
 20
141.7221281993751
 30
0.0
 10
171.84777654461
 20
141.9731487179968
 30
0.0
 10
171.8833896247179
 20
142.1157314111361
 30
0.0
 10
171.8833896247179
 20
142.2583715929715
 30
0.0
  0
SPLINE
  5
1B5
330
1F
100
AcDbEntity
  8
0
  6
HIDDEN
 62
     7
370
     0
100
AcDbSpline
210
0.0
220
0.0
230
1.0
 70
     8
 71
     3
 72
    10
 73
     6
 74
     0
 42
0.00000001
 43
0.00000001
 40
0.0
 40
0.0
 40
0.0
 40
0.0
 40
0.5
 40
0.5
 40
1.0
 40
1.0
 40
1.0
 40
1.0
 10
171.7857148223856
 20
88.73871774193537
 30
0.0
 10
171.8178700100076
 20
88.67643169641924
 30
0.0
 10
171.8425262412019
 20
88.60990127155
 30
0.0
 10
171.8753389981273
 20
88.47304264118748
 30
0.0
 10
171.8833896247179
 20
88.40398504600913
 30
0.0
 10
171.8833896247179
 20
88.33432211360581
 30
0.0
  0
SPLINE
  5
1B6
330
1F
100
AcDbEntity
  8
0
  6
HIDDEN
 62
     7
370
     0
100
AcDbSpline
210
0.0
220
0.0
230
1.0
 70
    24
 71
     3
 72
    12
 73
     8
 74
     0
 42
0.00000001
 43
0.00000001
 40
0.0
 40
0.0
 40
0.0
 40
0.0
 40
0.2500000000000029
 40
0.2500000000000029
 40
0.5000000000000058
 40
0.5000000000000058
 40
1.0
 40
1.0
 40
1.0
 40
1.0
 10
171.0833896247178
 20
141.5387177419356
 30
0.0
 10
171.1329247309358
 20
141.5387177419356
 30
0.0
 10
171.1813296195375
 20
141.5387177419356
 30
0.0
 10
171.2642161687151
 20
141.5387177419356
 30
0.0
 10
171.3007308901836
 20
141.5387177419356
 30
0.0
 10
171.3970637285382
 20
141.5387177419356
 30
0.0
 10
171.4458162762008
 20
141.5387177419356
 30
0.0
 10
171.4890920930314
 20
141.5387177419356
 30
0.0
  0
SPLINE
  5
1B7
330
1F
100
AcDbEntity
  8
0
  6
HIDDEN
 62
     7
370
     0
100
AcDbSpline
210
0.0
220
0.0
230
1.0
 70
    24
 71
     3
 72
    14
 73
    10
 74
     0
 42
0.00000001
 43
0.00000001
 40
0.0
 40
0.0
 40
0.0
 40
0.0
 40
0.1249999999999997
 40
0.1249999999999997
 40
0.2499999999999994
 40
0.2499999999999994
 40
0.4999999999999989
 40
0.4999999999999989
 40
1.0
 40
1.0
 40
1.0
 40
1.0
 10
171.0833896247179
 20
88.73871774193537
 30
0.0
 10
171.1524862570619
 20
88.73871774193537
 30
0.0
 10
171.21747942267
 20
88.73871774193537
 30
0.0
 10
171.321800621315
 20
88.73871774193539
 30
0.0
 10
171.3645809954236
 20
88.73871774193537
 30
0.0
 10
171.4769186550698
 20
88.73871774193537
 30
0.0
 10
171.5319658372121
 20
88.73871774193537
 30
0.0
 10
171.6758426109821
 20
88.73871774193537
 30
0.0
 10
171.7388719242572
 20
88.73871774193539
 30
0.0
 10
171.7857148223856
 20
88.73871774193537
 30
0.0
  0
LINE
  5
1B8
330
1F
100
AcDbEntity
  8
0
  6
HIDDEN
 62
     7
370
     0
100
AcDbLine
 10
168.8633896247
 20
141.5387177419
 30
0.0
 11
171.0833896247
 21
141.5387177419
 31
0.0
  0
LINE
  5
1B9
330
1F
100
AcDbEntity
  8
0
  6
HIDDEN
 62
     7
370
     0
100
AcDbLine
 10
168.8633896247
 20
88.7387177419
 30
0.0
 11
171.0833896247
 21
88.7387177419
 31
0.0
  0
LINE
  5
1BA
330
1F
100
AcDbEntity
  8
0
  6
HIDDEN
 62
     7
370
     0
100
AcDbLine
 10
171.8833896247
 20
142.258371593
 30
0.0
 11
171.8833896247
 21
142.9439519331
 31
0.0
  0
SPLINE
  5
1BB
330
1F
100
AcDbEntity
  8
0
  6
HIDDEN
 62
     7
370
     0
100
AcDbSpline
210
0.0
220
0.0
230
1.0
 70
     8
 71
     3
 72
     8
 73
     4
 74
     0
 42
0.00000001
 43
0.00000001
 40
0.0
 40
0.0
 40
0.0
 40
0.0
 40
1.0
 40
1.0
 40
1.0
 40
1.0
 10
171.8833896247179
 20
142.9439519331072
 30
0.0
 10
172.3760997215637
 20
143.8319709312336
 30
0.0
 10
172.8701824268427
 20
144.7192335669195
 30
0.0
 10
173.365322456207
 20
145.6059132150998
 30
0.0
  0
LINE
  5
1BC
330
1F
100
AcDbEntity
  8
0
  6
HIDDEN
 62
     7
370
     0
100
AcDbLine
 10
173.3653224562
 20
145.6059132151
 30
0.0
 11
177.3233896247
 21
145.6059132151
 31
0.0
  0
SPLINE
  5
1BD
330
1F
100
AcDbEntity
  8
0
  6
HIDDEN
 62
     7
370
     0
100
AcDbSpline
210
0.0
220
0.0
230
1.0
 70
     8
 71
     3
 72
    12
 73
     8
 74
     0
 42
0.00000001
 43
0.00000001
 40
0.0
 40
0.0
 40
0.0
 40
0.0
 40
0.249999999999998
 40
0.249999999999998
 40
0.499999999999996
 40
0.499999999999996
 40
1.0
 40
1.0
 40
1.0
 40
1.0
 10
177.3233896247179
 20
145.6059132150997
 30
0.0
 10
177.4028825737661
 20
145.6059132150997
 30
0.0
 10
177.4839660751216
 20
145.588910465139
 30
0.0
 10
177.6303964722594
 20
145.5248499240273
 30
0.0
 10
177.6969450821332
 20
145.4776913083887
 30
0.0
 10
177.8612349561068
 20
145.3044692756964
 30
0.0
 10
177.923389624718
 20
145.1443601854623
 30
0.0
 10
177.9233896247179
 20
144.9851580656989
 30
0.0
  0
LINE
  5
1BE
330
1F
100
AcDbEntity
  8
0
  6
HIDDEN
 62
     7
370
     0
100
AcDbLine
 10
171.489092093
 20
141.5387177419
 30
0.0
 11
177.9233896247
 21
141.5387177419
 31
0.0
  0
LINE
  5
1BF
330
1F
100
AcDbEntity
  8
0
  6
HIDDEN
 62
     7
370
     0
100
AcDbLine
 10
177.9233896247
 20
144.9851580657
 30
0.0
 11
177.9233896247
 21
141.5387177419
 31
0.0
  0
SPLINE
  5
1C0
330
1F
100
AcDbEntity
  8
0
  6
HIDDEN
 62
     7
370
     0
100
AcDbSpline
210
0.0
220
0.0
230
1.0
 70
     8
 71
     3
 72
    12
 73
     8
 74
     0
 42
0.00000001
 43
0.00000001
 40
0.0
 40
0.0
 40
0.0
 40
0.0
 40
0.2500000000000019
 40
0.2500000000000019
 40
0.5000000000000039
 40
0.5000000000000039
 40
1.0
 40
1.0
 40
1.0
 40
1.0
 10
177.3233896247179
 20
84.95180004568832
 30
0.0
 10
177.403270629465
 20
84.95180004568832
 30
0.0
 10
177.4838647597356
 20
84.96891713195416
 30
0.0
 10
177.6304802055805
 20
85.03365324342926
 30
0.0
 10
177.6969813983244
 20
85.08111048630957
 30
0.0
 10
177.8627162994617
 20
85.25793492884905
 30
0.0
 10
177.9233896247179
 20
85.4182114360547
 30
0.0
 10
177.9233896247179
 20
85.57844034134246
 30
0.0
  0
LINE
  5
1C1
330
1F
100
AcDbEntity
  8
0
  6
HIDDEN
 62
     7
370
     0
100
AcDbLine
 10
177.9233896247
 20
144.9851580657
 30
0.0
 11
177.9233896247
 21
85.5784403413
 31
0.0
  0
SPLINE
  5
1C2
330
1F
100
AcDbEntity
  8
0
  6
HIDDEN
 62
     7
370
     0
100
AcDbSpline
210
0.0
220
0.0
230
1.0
 70
     8
 71
     3
 72
     8
 73
     4
 74
     0
 42
0.00000001
 43
0.00000001
 40
0.0
 40
0.0
 40
0.0
 40
0.0
 40
1.0
 40
1.0
 40
1.0
 40
1.0
 10
166.5814567932288
 20
145.6059132150998
 30
0.0
 10
167.0765968225931
 20
144.7192335669195
 30
0.0
 10
167.5706795278721
 20
143.8319709312335
 30
0.0
 10
168.0633896247178
 20
142.9439519331072
 30
0.0
  0
LINE
  5
1C3
330
1F
100
AcDbEntity
  8
0
  6
HIDDEN
 62
     7
370
     0
100
AcDbLine
 10
168.0633896247
 20
142.9439519331
 30
0.0
 11
168.0633896247
 21
142.258371593
 31
0.0
  0
LINE
  5
1C4
330
1F
100
AcDbEntity
  8
0
  6
HIDDEN
 62
     7
370
     0
100
AcDbLine
 10
164.9233896247
 20
141.5387177419
 30
0.0
 11
168.4576871564
 21
141.5387177419
 31
0.0
  0
LINE
  5
1C5
330
1F
100
AcDbEntity
  8
0
  6
HIDDEN
 62
     7
370
     0
100
AcDbLine
 10
171.8833896247
 20
142.9439519331
 30
0.0
 11
171.8833896247
 21
87.6408805829
 31
0.0
  0
LINE
  5
1C6
330
1F
100
AcDbEntity
  8
0
  6
HIDDEN
 62
     7
370
     0
100
AcDbLine
 10
173.3653224562
 20
145.6059132151
 30
0.0
 11
173.3653224562
 21
84.9518000457
 31
0.0
  0
LINE
  5
1C7
330
1F
100
AcDbEntity
  8
0
  6
HIDDEN
 62
     7
370
     0
100
AcDbLine
 10
168.0633896247
 20
142.9439519331
 30
0.0
 11
168.0633896247
 21
87.6408805829
 31
0.0
  0
LINE
  5
1C8
330
1F
100
AcDbEntity
  8
0
  6
HIDDEN
 62
     7
370
     0
100
AcDbLine
 10
120.0733896247
 20
135.1147782466
 30
0.0
 11
120.0733896247
 21
95.1795999799
 31
0.0
  0
LWPOLYLINE
  5
1C9
330
1F
100
AcDbEntity
  8
0
  6
HIDDEN
 62
     7
370
     0
100
AcDbPolyline
 90
       24
 70
   128
 43
0.0
 10
234.9733896247
 20
115.8512463949
 10
235.6478815526
 20
115.9394157837
 10
236.2723494998
 20
116.1973848298
 10
236.8004795354
 20
116.6060211492
 10
237.1931026707
 20
117.1350180556
 10
237.4210998439
 20
117.7451422682
 10
237.4675615477
 20
118.3911436655
 10
237.32904193
 20
119.025111279
 10
237.0158143572
 20
119.6000266311
 10
236.5511094855
 20
120.0732508802
 10
235.9693923493
 20
120.4096871485
 10
235.3138062475
 20
120.5843834971
 10
234.632973002
 20
120.5843834971
 10
233.9773869001
 20
120.4096871485
 10
233.3956697639
 20
120.0732508802
 10
232.9309648922
 20
119.6000266311
 10
232.6177373194
 20
119.025111279
 10
232.4792177017
 20
118.3911436655
 10
232.5256794055
 20
117.7451422682
 10
232.7536765787
 20
117.1350180556
 10
233.146299714
 20
116.6060211492
 10
233.6744297496
 20
116.1973848298
 10
234.2988976968
 20
115.9394157837
 10
234.9733896247
 20
115.8512463949
  0
SPLINE
  5
1CA
330
1F
100
AcDbEntity
  8
0
  6
HIDDEN
 62
     7
370
     0
100
AcDbSpline
210
0.0
220
0.0
230
1.0
 70
     8
 71
     3
 72
     8
 73
     4
 74
     0
 42
0.00000001
 43
0.00000001
 40
0.0
 40
0.0
 40
0.0
 40
0.0
 40
1.0
 40
1.0
 40
1.0
 40
1.0
 10
171.8833896247179
 20
87.6408805828805
 30
0.0
 10
172.3757287474991
 20
86.7436105486738
 30
0.0
 10
172.8698427955412
 20
85.84732613362156
 30
0.0
 10
173.365322456207
 20
84.95180004568822
 30
0.0
  0
LINE
  5
1CB
330
1F
100
AcDbEntity
  8
0
  6
HIDDEN
 62
     7
370
     0
100
AcDbLine
 10
171.8833896247
 20
88.3343221136
 30
0.0
 11
171.8833896247
 21
87.6408805829
 31
0.0
  0
LINE
  5
1CC
330
1F
100
AcDbEntity
  8
0
  6
HIDDEN
 62
     7
370
     0
100
AcDbLine
 10
173.3653224562
 20
84.9518000457
 30
0.0
 11
177.3233896247
 21
84.9518000457
 31
0.0
  0
LINE
  5
1CD
330
1F
100
AcDbEntity
  8
0
  6
HIDDEN
 62
     7
370
     0
100
AcDbLine
 10
171.7857148224
 20
88.7387177419
 30
0.0
 11
177.9233896247
 21
88.7387177419
 31
0.0
  0
LINE
  5
1CE
330
1F
100
AcDbEntity
  8
0
  6
HIDDEN
 62
     7
370
     0
100
AcDbLine
 10
177.9233896247
 20
85.5784403413
 30
0.0
 11
177.9233896247
 21
88.7387177419
 31
0.0
  0
LINE
  5
1CF
330
1F
100
AcDbEntity
  8
0
  6
HIDDEN
 62
     7
370
     0
100
AcDbLine
 10
168.0633896247
 20
87.6408805829
 30
0.0
 11
168.0633896247
 21
88.3343221136
 31
0.0
  0
SPLINE
  5
1D0
330
1F
100
AcDbEntity
  8
0
  6
HIDDEN
 62
     7
370
     0
100
AcDbSpline
210
0.0
220
0.0
230
1.0
 70
     8
 71
     3
 72
     8
 73
     4
 74
     0
 42
0.00000001
 43
0.00000001
 40
0.0
 40
0.0
 40
0.0
 40
0.0
 40
1.0
 40
1.0
 40
1.0
 40
1.0
 10
166.5814567932288
 20
84.95180004568822
 30
0.0
 10
167.0769364538945
 20
85.84732613362158
 30
0.0
 10
167.5710505019367
 20
86.74361054867381
 30
0.0
 10
168.0633896247178
 20
87.64088058288053
 30
0.0
  0
LINE
  5
1D1
330
1F
100
AcDbEntity
  8
0
  6
HIDDEN
 62
     7
370
     0
100
AcDbLine
 10
164.9233896247
 20
88.7387177419
 30
0.0
 11
168.161064427
 21
88.7387177419
 31
0.0
  0
ELLIPSE
  5
1D2
330
1F
100
AcDbEntity
  8
0
  6
HIDDEN
 62
     7
370
     0
100
AcDbEllipse
 10
269.9082282754
 20
101.1805659321
 30
0.0
 11
0.0
 21
-1.670061040409081
 31
0.0
210
0.0
220
0.0
230
1.0
 40
0.9907856253
 41
2.50929459348647
 42
3.488730725965335
  0
SPLINE
  5
1D3
330
1F
100
AcDbEntity
  8
0
  6
HIDDEN
 62
     7
370
     0
100
AcDbSpline
210
0.0
220
0.0
230
1.0
 70
     8
 71
     3
 72
     8
 73
     4
 74
     0
 42
0.00000001
 43
0.00000001
 40
0.0
 40
0.0
 40
0.0
 40
0.0
 40
1.0
 40
1.0
 40
1.0
 40
1.0
 10
271.9127695485985
 20
101.9802131328688
 30
0.0
 10
271.5944167420457
 20
102.1879047198294
 30
0.0
 10
271.2541323090775
 20
102.3835278153662
 30
0.0
 10
270.8861398659944
 20
102.5277565529244
 30
0.0
  0
SPLINE
  5
1D4
330
1F
100
AcDbEntity
  8
0
  6
HIDDEN
 62
     7
370
     0
100
AcDbSpline
210
0.0
220
0.0
230
1.0
 70
     8
 71
     3
 72
     8
 73
     4
 74
     0
 42
0.00000001
 43
0.00000001
 40
0.0
 40
0.0
 40
0.0
 40
0.0
 40
1.0
 40
1.0
 40
1.0
 40
1.0
 10
269.345295479252
 20
102.7510081874554
 30
0.0
 10
268.9152913354796
 20
102.7116325499514
 30
0.0
 10
268.5157350391056
 20
102.6024768527332
 30
0.0
 10
268.1286147943632
 20
102.4679596731469
 30
0.0
  0
SPLINE
  5
1D5
330
1F
100
AcDbEntity
  8
0
  6
HIDDEN
 62
     7
370
     0
100
AcDbSpline
210
0.0
220
0.0
230
1.0
 70
     8
 71
     3
 72
     9
 73
     5
 74
     0
 42
0.00000001
 43
0.00000001
 40
0.0
 40
0.0
 40
0.0
 40
0.0
 40
0.4931442212727308
 40
1.0
 40
1.0
 40
1.0
 40
1.0
 10
275.3970077522775
 20
103.1677448965308
 30
0.0
 10
275.2881687731643
 20
102.9711289622884
 30
0.0
 10
275.0674646172233
 20
102.5724303143859
 30
0.0
 10
274.8376801465233
 20
102.1788943795795
 30
0.0
 10
274.7212125596872
 20
101.9794284168861
 30
0.0
  0
SPLINE
  5
1D6
330
1F
100
AcDbEntity
  8
0
  6
HIDDEN
 62
     7
370
     0
100
AcDbSpline
210
0.0
220
0.0
230
1.0
 70
     8
 71
     3
 72
     8
 73
     4
 74
     0
 42
0.00000001
 43
0.00000001
 40
0.0
 40
0.0
 40
0.0
 40
0.0
 40
1.0
 40
1.0
 40
1.0
 40
1.0
 10
254.2887399413678
 20
105.0971661758225
 30
0.0
 10
259.2986465782102
 20
104.2540582320141
 30
0.0
 10
264.3192593818592
 20
103.483395689438
 30
0.0
 10
269.3452954792491
 20
102.7510081874623
 30
0.0
  0
SPLINE
  5
1D7
330
1F
100
AcDbEntity
  8
0
  6
HIDDEN
 62
     7
370
     0
100
AcDbSpline
210
0.0
220
0.0
230
1.0
 70
     8
 71
     3
 72
     8
 73
     4
 74
     0
 42
0.00000001
 43
0.00000001
 40
0.0
 40
0.0
 40
0.0
 40
0.0
 40
1.0
 40
1.0
 40
1.0
 40
1.0
 10
270.8861398659956
 20
102.5277565529266
 30
0.0
 10
272.1634602770129
 20
102.3437275395121
 30
0.0
 10
273.4411402653467
 20
102.162184619778
 30
0.0
 10
274.7191374320062
 20
101.9828346499166
 30
0.0
  0
CIRCLE
  5
1D8
330
1F
100
AcDbEntity
  8
0
  6
HIDDEN
 62
     7
370
     0
100
AcDbCircle
 10
158.9733896247
 20
115.1387177419
 30
0.0
 40
5.000000000000043
  0
LINE
  5
1D9
330
1F
100
AcDbEntity
  8
0
  6
HIDDEN
 62
     7
370
     0
100
AcDbLine
 10
151.9733896247
 20
89.8147938208
 30
0.0
 11
152.067550466
 21
90.4847830196
 31
0.0
  0
LINE
  5
1DA
330
1F
100
AcDbEntity
  8
0
  6
HIDDEN
 62
     7
370
     0
100
AcDbLine
 10
152.067550466
 20
139.7926524642
 30
0.0
 11
151.9733896247
 21
140.4626416631
 31
0.0
  0
ARC
  5
1DB
330
1F
100
AcDbEntity
  8
0
  6
HIDDEN
 62
     7
370
     0
100
AcDbCircle
 10
151.4733896247
 20
90.5682868802
 30
0.0
 40
0.6000000000000271
100
AcDbArc
 50
352.0
 51
0.0
  0
ARC
  5
1DC
330
1F
100
AcDbEntity
  8
0
  6
HIDDEN
 62
     7
370
     0
100
AcDbCircle
 10
151.4733896247
 20
90.5682868802
 30
0.0
 40
0.6000000000000227
100
AcDbArc
 50
0.0
 51
33.5573097619
  0
ARC
  5
1DD
330
1F
100
AcDbEntity
  8
0
  6
HIDDEN
 62
     7
370
     0
100
AcDbCircle
 10
151.4733896247
 20
139.7091486037
 30
0.0
 40
0.6000000000000251
100
AcDbArc
 50
348.75
 51
8.0
  0
LWPOLYLINE
  5
1DE
330
1F
100
AcDbEntity
  8
0
  6
HIDDEN
 62
     7
370
     0
100
AcDbPolyline
 90
        3
 70
   128
 43
0.0
 10
152.061860793
 20
139.5920944104
 10
152.0277173442
 20
139.4795385442
 10
151.9733896247
 20
139.3774861246
  0
LINE
  5
1DF
330
1F
100
AcDbEntity
  8
0
  6
HIDDEN
 62
     7
370
     0
100
AcDbLine
 10
152.0733896247
 20
90.5682868802
 30
0.0
 11
152.0733896247
 21
139.7091486037
 31
0.0
  0
LINE
  5
1E0
330
1F
100
AcDbEntity
  8
0
  6
HIDDEN
 62
     7
370
     0
100
AcDbLine
 10
152.0733896247
 20
90.5682868802
 30
0.0
 11
152.0733896247
 21
139.7091486037
 31
0.0
  0
LINE
  5
1E1
330
1F
100
AcDbEntity
  8
0
  6
HIDDEN
 62
     7
370
     0
100
AcDbLine
 10
135.05582519
 20
95.1387177419
 30
0.0
 11
139.2334120839
 21
95.1387177419
 31
0.0
  0
LINE
  5
1E2
330
1F
100
AcDbEntity
  8
0
  6
HIDDEN
 62
     7
370
     0
100
AcDbLine
 10
139.2265070059
 20
135.1387177419
 30
0.0
 11
135.05582519
 21
135.1387177419
 31
0.0
  0
ARC
  5
1E3
330
1F
100
AcDbEntity
  8
0
  6
HIDDEN
 62
     7
370
     0
100
AcDbCircle
 10
145.7283916263
 20
103.1387177419
 30
0.0
 40
8.00000000000002
100
AcDbArc
 50
277.1468877619
 51
321.3178125465
  0
ARC
  5
1E4
330
1F
100
AcDbEntity
  8
0
  6
HIDDEN
 62
     7
370
     0
100
AcDbCircle
 10
145.7283916263
 20
127.1387177419
 30
0.0
 40
8.00000000000001
100
AcDbArc
 50
38.6821874535
 51
82.8731979304
  0
ARC
  5
1E5
330
1F
100
AcDbEntity
  8
0
  6
HIDDEN
 62
     7
370
     0
100
AcDbCircle
 10
135.05582519
 20
95.7387177419
 30
0.0
 40
0.6000000000000512
100
AcDbArc
 50
210.0
 51
270.0
  0
ARC
  5
1E6
330
1F
100
AcDbEntity
  8
0
  6
HIDDEN
 62
     7
370
     0
100
AcDbCircle
 10
135.05582519
 20
134.5387177419
 30
0.0
 40
0.6000000000000297
100
AcDbArc
 50
90.0
 51
150.0
  0
LINE
  5
1E7
330
1F
100
AcDbEntity
  8
0
  6
HIDDEN
 62
     7
370
     0
100
AcDbLine
 10
134.5362099477
 20
134.8387177419
 30
0.0
 11
132.9773642209
 21
132.1387177419
 31
0.0
  0
LINE
  5
1E8
330
1F
100
AcDbEntity
  8
0
  6
HIDDEN
 62
     7
370
     0
100
AcDbLine
 10
132.9773642209
 20
98.1387177419
 30
0.0
 11
134.5362099477
 21
95.4387177419
 31
0.0
  0
ARC
  5
1E9
330
1F
100
AcDbEntity
  8
0
  6
HIDDEN
 62
     7
370
     0
100
AcDbCircle
 10
160.4233896247
 20
99.4137177419
 30
0.0
 40
1.500000000000025
100
AcDbArc
 50
238.211669383
 51
360.0
  0
ARC
  5
1EA
330
1F
100
AcDbEntity
  8
0
  6
HIDDEN
 62
     7
370
     0
100
AcDbCircle
 10
160.4233896247
 20
130.8637177419
 30
0.0
 40
1.500000000000025
100
AcDbArc
 50
0.0
 51
121.7883306171
  0
LINE
  5
1EB
330
1F
100
AcDbEntity
  8
0
  6
HIDDEN
 62
     7
370
     0
100
AcDbLine
 10
151.9733896247
 20
98.1387177419
 30
0.0
 11
159.6332155933
 21
98.1387177419
 31
0.0
  0
LINE
  5
1EC
330
1F
100
AcDbEntity
  8
0
  6
HIDDEN
 62
     7
370
     0
100
AcDbLine
 10
159.6332155933
 20
132.1387177419
 30
0.0
 11
151.9733896247
 21
132.1387177419
 31
0.0
  0
LINE
  5
1ED
330
1F
100
AcDbEntity
  8
0
  6
HIDDEN
 62
     7
370
     0
100
AcDbLine
 10
130.1733896247
 20
98.1387177419
 30
0.0
 11
132.9773642209
 21
98.1387177419
 31
0.0
  0
LINE
  5
1EE
330
1F
100
AcDbEntity
  8
0
  6
HIDDEN
 62
     7
370
     0
100
AcDbLine
 10
132.9773642209
 20
132.1387177419
 30
0.0
 11
126.1733896247
 21
132.1387177419
 31
0.0
  0
LINE
  5
1EF
330
1F
100
AcDbEntity
  8
0
  6
HIDDEN
 62
     7
370
     0
100
AcDbLine
 10
237.0733896247
 20
112.3285137187
 30
0.0
 11
237.0733896247
 21
113.8419077579
 31
0.0
  0
LINE
  5
1F0
330
1F
100
AcDbEntity
  8
0
  6
HIDDEN
 62
     7
370
     0
100
AcDbLine
 10
237.0733896247
 20
111.1214968151
 30
0.0
 11
237.0733896247
 21
111.1575040062
 31
0.0
  0
LINE
  5
1F1
330
1F
100
AcDbEntity
  8
0
  6
HIDDEN
 62
     7
370
     0
100
AcDbLine
 10
232.8733896247
 20
113.8413456576
 30
0.0
 11
232.8733896247
 21
111.1214968151
 31
0.0
  0
LINE
  5
1F2
330
1F
100
AcDbEntity
  8
0
  6
HIDDEN
 62
     7
370
     0
100
AcDbLine
 10
241.7571668653
 20
110.9788391299
 30
0.0
 11
236.2391303009
 21
113.4839753073
 31
0.0
  0
LINE
  5
1F3
330
1F
100
AcDbEntity
  8
0
  6
HIDDEN
 62
     7
370
     0
100
AcDbLine
 10
234.7556994173
 20
109.5448761991
 30
0.0
 11
241.7794954079
 21
106.3561395473
 31
0.0
  0
LINE
  5
1F4
330
1F
100
AcDbEntity
  8
0
  6
HIDDEN
 62
     7
370
     0
100
AcDbLine
 10
171.2733896247
 20
105.6387177419
 30
0.0
 11
173.7733896247
 21
105.6387177419
 31
0.0
  0
LINE
  5
1F5
330
1F
100
AcDbEntity
  8
0
  6
HIDDEN
 62
     7
370
     0
100
AcDbLine
 10
173.7733896247
 20
124.6387177419
 30
0.0
 11
171.2733896247
 21
124.6387177419
 31
0.0
  0
LINE
  5
1F6
330
1F
100
AcDbEntity
  8
0
  6
HIDDEN
 62
     7
370
     0
100
AcDbLine
 10
161.9233896247
 20
106.1387177419
 30
0.0
 11
162.4233896247
 21
106.6387177419
 31
0.0
  0
LINE
  5
1F7
330
1F
100
AcDbEntity
  8
0
  6
HIDDEN
 62
     7
370
     0
100
AcDbLine
 10
162.4233896247
 20
123.6387177419
 30
0.0
 11
161.9233896247
 21
124.1387177419
 31
0.0
  0
LINE
  5
1F8
330
1F
100
AcDbEntity
  8
0
  6
HIDDEN
 62
     7
370
     0
100
AcDbLine
 10
162.4233896247
 20
106.6387177419
 30
0.0
 11
171.2733896247
 21
106.6387177419
 31
0.0
  0
LINE
  5
1F9
330
1F
100
AcDbEntity
  8
0
  6
HIDDEN
 62
     7
370
     0
100
AcDbLine
 10
171.2733896247
 20
123.6387177419
 30
0.0
 11
162.4233896247
 21
123.6387177419
 31
0.0
  0
LINE
  5
1FA
330
1F
100
AcDbEntity
  8
0
  6
HIDDEN
 62
     7
370
     0
100
AcDbLine
 10
156.9233896247
 20
146.6387177419
 30
0.0
 11
156.9233896247
 21
141.5387177419
 31
0.0
  0
LINE
  5
1FB
330
1F
100
AcDbEntity
  8
0
  6
HIDDEN
 62
     7
370
     0
100
AcDbLine
 10
147.1578274552
 20
91.0593464084
 30
0.0
 11
146.7233953057
 21
91.5384124275
 31
0.0
  0
LINE
  5
1FC
330
1F
100
AcDbEntity
  8
0
  6
HIDDEN
 62
     7
370
     0
100
AcDbLine
 10
139.2233919806
 20
91.9601003866
 30
0.0
 11
138.7409582373
 21
91.4810344112
 31
0.0
  0
LINE
  5
1FD
330
1F
100
AcDbEntity
  8
0
  6
HIDDEN
 62
     7
370
     0
100
AcDbLine
 10
138.740836309
 20
138.7963957823
 30
0.0
 11
139.22338706
 21
138.3172755244
 31
0.0
  0
LINE
  5
1FE
330
1F
100
AcDbEntity
  8
0
  6
HIDDEN
 62
     7
370
     0
100
AcDbLine
 10
146.7233895067
 20
138.738973302
 30
0.0
 11
147.1579318971
 21
139.2180935526
 31
0.0
  0
LINE
  5
1FF
330
1F
100
AcDbEntity
  8
0
  6
HIDDEN
 62
     7
370
     0
100
AcDbLine
 10
237.9733896247
 20
110.9387177419
 30
0.0
 11
240.4970042246
 21
115.1387177419
 31
0.0
  0
LINE
  5
200
330
1F
100
AcDbEntity
  8
0
  6
HIDDEN
 62
     7
370
     0
100
AcDbLine
 10
240.4970042246
 20
115.1387177419
 30
0.0
 11
237.9733896247
 21
119.3387177419
 31
0.0
  0
LINE
  5
201
330
1F
100
AcDbEntity
  8
0
  6
HIDDEN
 62
     7
370
     0
100
AcDbLine
 10
173.7733896247
 20
110.9387177419
 30
0.0
 11
237.9733896247
 21
110.9387177419
 31
0.0
  0
LINE
  5
202
330
1F
100
AcDbEntity
  8
0
  6
HIDDEN
 62
     7
370
     0
100
AcDbLine
 10
237.9733896247
 20
119.3387177419
 30
0.0
 11
173.7733896247
 21
119.3387177419
 31
0.0
  0
LINE
  5
203
330
1F
100
AcDbEntity
  8
0
  6
HIDDEN
 62
     7
370
     0
100
AcDbLine
 10
146.7233896247
 20
91.5388963292
 30
0.0
 11
146.7233896247
 21
95.2008815513
 31
0.0
  0
LINE
  5
204
330
1F
100
AcDbEntity
  8
0
  6
HIDDEN
 62
     7
370
     0
100
AcDbLine
 10
139.2233896247
 20
95.1405892891
 30
0.0
 11
139.2233896247
 21
91.9604236244
 31
0.0
  0
LINE
  5
205
330
1F
100
AcDbEntity
  8
0
  6
HIDDEN
 62
     7
370
     0
100
AcDbLine
 10
146.7233896247
 20
135.0765539326
 30
0.0
 11
146.7233896247
 21
138.7384198804
 31
0.0
  0
LINE
  5
206
330
1F
100
AcDbEntity
  8
0
  6
HIDDEN
 62
     7
370
     0
100
AcDbLine
 10
139.2233896247
 20
138.3170203331
 30
0.0
 11
139.2233896247
 21
135.1381334807
 31
0.0
  0
LINE
  5
207
330
1F
100
AcDbEntity
  8
0
  6
HIDDEN
 62
     7
370
     0
100
AcDbLine
 10
266.2026540735
 20
106.3101416433
 30
0.0
 11
266.2026540735
 21
106.3129319022
 31
0.0
  0
LINE
  5
208
330
1F
100
AcDbEntity
  8
0
  6
HIDDEN
 62
     7
370
     0
100
AcDbLine
 10
262.0026540735
 20
106.3129319022
 30
0.0
 11
262.0026540735
 21
105.9990277704
 31
0.0
  0
LINE
  5
209
330
1F
100
AcDbEntity
  8
0
  6
HIDDEN
 62
     7
370
     0
100
AcDbLine
 10
237.0733896247
 20
116.4355937993
 30
0.0
 11
237.0733896247
 21
118.1546172287
 31
0.0
  0
LINE
  5
20A
330
1F
100
AcDbEntity
  8
0
  6
HIDDEN
 62
     7
370
     0
100
AcDbLine
 10
232.8733896247
 20
118.1546172287
 30
0.0
 11
232.8733896247
 21
116.4363363739
 31
0.0
  0
ARC
  5
20B
330
1F
100
AcDbEntity
  8
0
  6
HIDDEN
 62
     7
370
     0
100
AcDbCircle
 10
128.7733896247
 20
92.9262177419
 30
0.0
 40
1.400000000000006
100
AcDbArc
 50
37.6443616934
 51
90.0
  0
ARC
  5
20C
330
1F
100
AcDbEntity
  8
0
  6
HIDDEN
 62
     7
370
     0
100
AcDbCircle
 10
124.7733896247
 20
137.4087177419
 30
0.0
 40
1.399999999999984
100
AcDbArc
 50
270.0
 51
301.7485287426
  0
LINE
  5
20D
330
1F
100
AcDbEntity
  8
0
  6
HIDDEN
 62
     7
370
     0
100
AcDbLine
 10
272.0082282754
 20
100.5814903547
 30
0.0
 11
272.0082282754
 21
101.3138772407
 31
0.0
  0
LINE
  5
20E
330
1F
100
AcDbEntity
  8
0
  6
HIDDEN
 62
     7
370
     0
100
AcDbLine
 10
267.8082282754
 20
101.2770281817
 30
0.0
 11
267.8082282754
 21
100.5814903547
 31
0.0
  0
LINE
  5
20F
330
1F
100
AcDbEntity
  8
0
  6
HIDDEN
 62
     7
370
     0
100
AcDbLine
 10
121.2069297803
 20
135.9992146463
 30
0.0
 11
121.2062583054
 21
135.9988269701
 31
0.0
  0
LINE
  5
210
330
1F
100
AcDbEntity
  8
0
  6
HIDDEN
 62
     7
370
     0
100
AcDbLine
 10
120.324754194
 20
135.4898903341
 30
0.0
 11
120.322626219
 21
135.4886617472
 31
0.0
  0
LINE
  5
211
330
1F
100
AcDbEntity
  8
0
  6
HIDDEN
 62
     7
370
     0
100
AcDbLine
 10
124.7733896247
 20
136.0087177419
 30
0.0
 11
121.3642780261
 21
136.0087177419
 31
0.0
  0
LINE
  5
212
330
1F
100
AcDbEntity
  8
0
  6
HIDDEN
 62
     7
370
     0
100
AcDbLine
 10
121.2233896247
 20
94.3262177419
 30
0.0
 11
128.7733896247
 21
94.3262177419
 31
0.0
  0
LINE
  5
213
330
1F
100
AcDbEntity
  8
0
  6
HIDDEN
 62
     7
370
     0
100
AcDbLine
 10
120.2418705483
 20
94.8928980449
 30
0.0
 11
121.2233896247
 21
94.3262177419
 31
0.0
  0
LINE
  5
214
330
1F
100
AcDbEntity
  8
0
  6
HIDDEN
 62
     7
370
     0
100
AcDbLine
 10
237.4733896247
 20
118.2288876857
 30
0.0
 11
237.4733896247
 21
120.0825883771
 31
0.0
  0
LINE
  5
215
330
1F
100
AcDbEntity
  8
0
  6
HIDDEN
 62
     7
370
     0
100
AcDbLine
 10
232.4733896247
 20
120.0829111628
 30
0.0
 11
232.4733896247
 21
118.2288876857
 31
0.0
  0
LINE
  5
216
330
1F
100
AcDbEntity
  8
VERMASSUNG
100
AcDbLine
 10
276.9733896247
 20
161.3119410451
 30
0.0
 11
276.9733896247
 21
100.8554905205
 31
0.0
  0
DIMENSION
  5
217
330
1F
100
AcDbEntity
  8
VERMASSUNG
100
AcDbDimension
  2
*D1
 10
274.8558957986
 20
109.3532920338
 30
0.0
 11
275.3681035861
 21
121.9476607642
 31
0.0
 70
   162
 71
     1
 42
-1.0
  3
SLDDIMSTYLE0
100
AcDb2LineAngularDimension
 13
276.9733896247
 23
100.8554905205
 33
0.0
 14
276.9733896247
 24
161.3119410451
 34
0.0
 15
275.3959166152
 25
103.1657533221
 35
0.0
 16
275.3681035861
 26
121.9476607642
 36
0.0
  0
DIMENSION
  5
223
330
1F
100
AcDbEntity
  8
VERMASSUNG
100
AcDbDimension
  2
*D2
 10
109.8947065234
 20
83.6387177419
 30
0.0
 11
109.8947065234
 21
115.1387177419
 31
0.0
 70
   160
  1
HSK %%c<>
 71
     2
 42
-1.0
  3
SLDDIMSTYLE1
100
AcDbAlignedDimension
 13
152.2733896247
 23
146.6387177419
 33
0.0
 14
152.2733896247
 24
83.6387177419
 34
0.0
 50
90.0
100
AcDbRotatedDimension
  0
DIMENSION
  5
230
330
1F
100
AcDbEntity
  8
VERMASSUNG
100
AcDbDimension
  2
*D3
 10
282.7691920875
 20
115.1387177419
 30
0.0
 11
282.7691920875
 21
104.1387177419
 31
0.0
 70
   160
 71
     2
 42
-1.0
  3
SLDDIMSTYLE1
100
AcDbAlignedDimension
 13
276.9733896247
 23
93.1387177419
 33
0.0
 14
275.8106960156
 24
115.1387177419
 34
0.0
 50
90.0
100
AcDbRotatedDimension
  0
DIMENSION
  5
23A
330
1F
100
AcDbEntity
  8
VERMASSUNG
100
AcDbDimension
  2
*D4
 10
151.9733896247
 20
154.1170439605
 30
0.0
 11
214.4733896247
 21
154.1170439605
 31
0.0
 70
   160
 71
     2
 42
-1.0
  3
SLDDIMSTYLE1
100
AcDbAlignedDimension
 13
276.9733896247
 23
93.1387177419
 33
0.0
 14
151.9733896247
 24
146.3387177419
 34
0.0
100
AcDbRotatedDimension
  0
DIMENSION
  5
244
330
1F
100
AcDbEntity
  8
VERMASSUNG
100
AcDbDimension
  2
*D5
 10
120.0733896247
 20
160.1170439605
 30
0.0
 11
198.5233896247
 21
160.1170439605
 31
0.0
 70
   160
 71
     2
 42
-1.0
  3
SLDDIMSTYLE1
100
AcDbAlignedDimension
 13
276.9733896247
 23
93.1387177419
 33
0.0
 14
120.0733896247
 24
135.1147782466
 34
0.0
100
AcDbRotatedDimension
  0
LINE
  5
24E
330
1F
100
AcDbEntity
  8
VERMASSUNG
  6
CENTERX2
370
     0
100
AcDbLine
 10
113.1977177419
 20
115.1387177419
 30
0.0
 11
275.8106960156
 21
115.1387177419
 31
0.0
  0
LINE
  5
24F
330
1F
100
AcDbEntity
  8
0
  6
Continuous
 62
     7
370
    15
100
AcDbLine
 10
58.4702805674
 20
93.1786455226
 30
0.0
 11
61.6921809107
 21
93.8049189758
 31
0.0
  0
LINE
  5
250
330
1F
100
AcDbEntity
  8
0
  6
Continuous
 62
     7
370
    15
100
AcDbLine
 10
57.8031496682
 20
107.0197381091
 30
0.0
 11
57.5013109321
 21
107.035556623
 31
0.0
  0
LINE
  5
251
330
1F
100
AcDbEntity
  8
0
  6
Continuous
 62
     7
370
    15
100
AcDbLine
 10
60.8524806869
 20
105.8131910872
 30
0.0
 11
57.6002459113
 21
105.6207202387
 31
0.0
  0
LINE
  5
252
330
1F
100
AcDbEntity
  8
0
  6
Continuous
 62
     7
370
    15
100
AcDbLine
 10
62.3629597087
 20
105.7481354114
 30
0.0
 11
60.8524806869
 21
105.8131910872
 31
0.0
  0
LINE
  5
253
330
1F
100
AcDbEntity
  8
0
  6
Continuous
 62
     7
370
    15
100
AcDbLine
 10
63.1766283024
 20
94.1121287656
 30
0.0
 11
62.3629597087
 21
105.7481354114
 31
0.0
  0
LINE
  5
254
330
1F
100
AcDbEntity
  8
0
  6
Continuous
 62
     7
370
    15
100
AcDbLine
 10
63.1766283024
 20
94.1121287656
 30
0.0
 11
61.6921809107
 21
93.8049189758
 31
0.0
  0
LINE
  5
255
330
1F
100
AcDbEntity
  8
0
  6
Continuous
 62
     7
370
    15
100
AcDbLine
 10
61.6921809107
 20
93.8049189758
 30
0.0
 11
58.4399461061
 21
93.6124481272
 31
0.0
  0
LINE
  5
256
330
1F
100
AcDbEntity
  8
0
  6
Continuous
 62
     7
370
    15
100
AcDbLine
 10
58.4399461061
 20
93.6124481272
 30
0.0
 11
57.6002459113
 21
105.6207202387
 31
0.0
  0
LWPOLYLINE
  5
257
330
1F
100
AcDbEntity
  8
0
  6
Continuous
 62
     7
370
    15
100
AcDbPolyline
 90
        9
 70
   128
 43
0.0
 10
58.4702805674
 20
93.1786455226
 10
58.4700418569
 20
93.1820597511
 10
58.4685978353
 20
93.2027090352
 10
58.4659107833
 20
93.2411354047
 10
58.4621080881
 20
93.2955171925
 10
58.4573700291
 20
93.363274635
 10
58.4519212263
 20
93.4411965322
 10
58.4460199973
 20
93.525587396
 10
58.4399461061
 20
93.6124481272
  0
LINE
  5
258
330
1F
100
AcDbEntity
  8
0
  6
Continuous
 62
     7
370
    15
100
AcDbLine
 10
60.8524806869
 20
105.8131910872
 30
0.0
 11
57.5748813992
 21
105.9834498924
 31
0.0
  0
LWPOLYLINE
  5
259
330
1F
100
AcDbEntity
  8
0
  6
Continuous
 62
     7
370
    15
100
AcDbPolyline
 90
        9
 70
   128
 43
0.0
 10
57.6002459113
 20
105.6207202387
 10
57.5954560611
 20
105.6892180827
 10
57.5908856537
 20
105.754578301
 10
57.5866735146
 20
105.8148143825
 10
57.5829477004
 20
105.8680972096
 10
57.5798213087
 20
105.9128053498
 10
57.5773894509
 20
105.9475827974
 10
57.5757259923
 20
105.9713725012
 10
57.5748813992
 20
105.9834498924
  0
LINE
  5
25A
330
1F
100
AcDbEntity
  8
0
  6
Continuous
 62
     7
370
    15
100
AcDbLine
 10
57.80324606
 20
107.0183588203
 30
0.0
 11
57.5014171611
 21
107.0340376359
 31
0.0
  0
LINE
  5
25B
330
1F
100
AcDbEntity
  8
0
  6
Continuous
 62
     7
370
    15
100
AcDbLine
 10
57.5748813992
 20
105.9834498924
 30
0.0
 11
57.5014171611
 21
107.0340376359
 31
0.0
  0
LINE
  5
25C
330
1F
100
AcDbEntity
  8
0
  6
Continuous
 62
     7
370
    15
100
AcDbLine
 10
57.5014171611
 20
107.0340376359
 30
0.0
 11
57.5013109321
 21
107.035556623
 31
0.0
  0
SPLINE
  5
25D
330
1F
100
AcDbEntity
  8
0
  6
Continuous
 62
     7
370
    15
100
AcDbSpline
210
0.0
220
0.0
230
1.0
 70
     8
 71
     3
 72
    42
 73
    38
 74
     0
 42
0.00000001
 43
0.00000001
 40
0.0
 40
0.0
 40
0.0
 40
0.0
 40
0.0304508697519127
 40
0.0607916691148049
 40
0.0910223423582653
 40
0.1211428351486876
 40
0.1511530945578536
 40
0.1810530690716802
 40
0.2108427085991089
 40
0.2405219644811638
 40
0.2700907895001681
 40
0.299549137889122
 40
0.3288969653412694
 40
0.3581342290198088
 40
0.3872608875678034
 40
0.4162769011182672
 40
0.4451822313044326
 40
0.473976841270194
 40
0.5026606956807833
 40
0.5312337607335871
 40
0.5596960041692182
 40
0.5880473952827514
 40
0.6162879049351933
 40
0.644417505565158
 40
0.6724361712007602
 40
0.7003438774717385
 40
0.7281406016217993
 40
0.7558263225212015
 40
0.7834010206795734
 40
0.8108646782589837
 40
0.8382172790872491
 40
0.8654588086715069
 40
0.8925892542120446
 40
0.9196086046163927
 40
0.9465168505136974
 40
0.9733139842693681
 40
1.0
 40
1.0
 40
1.0
 40
1.0
 10
74.9731318147179
 20
101.9828336505452
 30
0.0
 10
74.88293615843531
 20
101.8698196649236
 30
0.0
 10
74.70287087501333
 20
101.6442002039613
 30
0.0
 10
74.42446966883321
 20
101.3134961985854
 30
0.0
 10
74.14083996940856
 20
100.98933732684
 30
0.0
 10
73.85153563193575
 20
100.6722976122941
 30
0.0
 10
73.5569185202657
 20
100.3623137818747
 30
0.0
 10
73.25713499403604
 20
100.0594858635091
 30
0.0
 10
72.95238850203808
 20
99.76386391410426
 30
0.0
 10
72.64286678618765
 20
99.47550493213438
 30
0.0
 10
72.32876112865705
 20
99.19445777460642
 30
0.0
 10
72.01026107601125
 20
98.92076726177712
 30
0.0
 10
71.68755570198226
 20
98.65447317166024
 30
0.0
 10
71.36083313203176
 20
98.39561059875356
 30
0.0
 10
71.03028053515995
 20
98.14420995166631
 30
0.0
 10
70.69608399531525
 20
97.90029704922094
 30
0.0
 10
70.35842841898423
 20
97.66389319243606
 30
0.0
 10
70.01749743724075
 20
97.43501524491519
 30
0.0
 10
69.67347331336562
 20
97.21367571283886
 30
0.0
 10
69.3265368530674
 20
96.99988282676966
 30
0.0
 10
68.97686731808207
 20
96.79364062455346
 30
0.0
 10
68.6246423429325
 20
96.59494903536167
 30
0.0
 10
68.27003785487275
 20
96.40380396479452
 30
0.0
 10
67.91322799703887
 20
96.22019738072169
 30
0.0
 10
67.55438505458822
 20
96.0441174006392
 30
0.0
 10
67.19367938454913
 20
95.87554837719138
 30
0.0
 10
66.8312793465887
 20
95.71447099385128
 30
0.0
 10
66.46735124493922
 20
95.56086232583311
 30
0.0
 10
66.10205924336118
 20
95.4146960324801
 30
0.0
 10
65.73556539442363
 20
95.27594206401174
 30
0.0
 10
65.3680292588632
 20
95.14456817145468
 30
0.0
 10
64.99960905950839
 20
95.02053472905872
 30
0.0
 10
64.63045715678834
 20
94.90381436393741
 30
0.0
 10
64.26073660056187
 20
94.79431956999639
 30
0.0
 10
63.8905595200394
 20
94.69217162272813
 30
0.0
 10
63.52021543423866
 20
94.59670358820956
 30
0.0
 10
63.27243986059766
 20
94.53888675864862
 30
0.0
 10
63.14880946636398
 20
94.51003840476561
 30
0.0
  0
SPLINE
  5
25E
330
1F
100
AcDbEntity
  8
0
  6
Continuous
 62
     7
370
    15
100
AcDbSpline
210
0.0
220
0.0
230
1.0
 70
     8
 71
     3
 72
    31
 73
    27
 74
     0
 42
0.00000001
 43
0.00000001
 40
0.0
 40
0.0
 40
0.0
 40
0.0
 40
0.0312103663444819
 40
0.0623482054451684
 40
0.093429617830635
 40
0.1244707918323118
 40
0.1554879787847253
 40
0.1864974677355495
 40
0.2175155598601999
 40
0.2485585427810955
 40
0.2796426649934476
 40
0.3107841105974902
 40
0.3419989745314939
 40
0.3733032384908799
 40
0.4047127477065794
 40
0.4362431887408409
 40
0.4679100684414159
 40
0.4997286941760072
 40
0.5632242231229879
 40
0.6261906370348921
 40
0.6887528319830164
 40
0.7510381357364897
 40
0.8131755782468739
 40
0.8752951108508273
 40
0.9375267970827584
 40
0.9999999999999999
 40
0.9999999999999999
 40
0.9999999999999999
 40
0.9999999999999999
 10
63.0975570818976
 20
95.24892097597224
 30
0.0
 10
63.24528234696533
 20
95.28409198354011
 30
0.0
 10
63.54038959031602
 20
95.35435226761857
 30
0.0
 10
63.97943790609414
 20
95.47226139586084
 30
0.0
 10
64.4150690666658
 20
95.59916534788385
 30
0.0
 10
64.84707267533852
 20
95.73596770650802
 30
0.0
 10
65.27550450156232
 20
95.88242688219692
 30
0.0
 10
65.7003491666747
 20
96.0386073851101
 30
0.0
 10
66.12161033895758
 20
96.20449178928334
 30
0.0
 10
66.53928660309712
 20
96.38008456689226
 30
0.0
 10
66.95337792785503
 20
96.56538428536004
 30
0.0
 10
67.36388393248906
 20
96.76039105651226
 30
0.0
 10
67.77080437139382
 20
96.96510456071476
 30
0.0
 10
68.17413894710808
 20
97.17952451043018
 30
0.0
 10
68.57388758811143
 20
97.40365079423744
 30
0.0
 10
68.97004953193841
 20
97.63748245017983
 30
0.0
 10
69.36262674235847
 20
97.88102167153592
 30
0.0
 10
69.8799948566134
 20
98.21783930009923
 30
0.0
 10
70.5110890835944
 20
98.65838906981925
 30
0.0
 10
71.24067031130637
 20
99.21717378914555
 30
0.0
 10
71.93988327975015
 20
99.80421759488087
 30
0.0
 10
72.60864890041718
 20
100.4195536426925
 30
0.0
 10
73.24717609899672
 20
101.063023362441
 30
0.0
 10
73.85464811094533
 20
101.7351922428003
 30
0.0
 10
74.43407433771259
 20
102.4339072848933
 30
0.0
 10
74.79317467005417
 20
102.9214898750111
 30
0.0
 10
74.97307257207778
 20
103.1657533220915
 30
0.0
  0
SPLINE
  5
25F
330
1F
100
AcDbEntity
  8
0
  6
Continuous
 62
     7
370
    15
100
AcDbSpline
210
0.0
220
0.0
230
1.0
 70
    24
 71
     3
 72
     9
 73
     5
 74
     0
 42
0.00000001
 43
0.00000001
 40
0.0
 40
0.0
 40
0.0
 40
0.0
 40
0.4931442212727308
 40
1.0
 40
1.0
 40
1.0
 40
1.0
 10
74.97307258064494
 20
103.1677448965308
 30
0.0
 10
74.97307258064494
 20
102.9711289622884
 30
0.0
 10
74.97307258064494
 20
102.5724303143859
 30
0.0
 10
74.97307258064494
 20
102.1788943795795
 30
0.0
 10
74.97307258064494
 20
101.9794284168861
 30
0.0
  0
LINE
  5
260
330
1F
100
AcDbEntity
  8
0
  6
Continuous
 62
     7
370
    15
100
AcDbLine
 10
62.3399688468
 20
106.0769192886
 30
0.0
 11
59.8460587045
 21
105.9025282052
 31
0.0
  0
LINE
  5
261
330
1F
100
AcDbEntity
  8
0
  6
Continuous
 62
     7
370
    15
100
AcDbLine
 10
59.8460587045
 20
105.9025282052
 30
0.0
 11
57.8738516035
 21
106.0086524126
 31
0.0
  0
LINE
  5
262
330
1F
100
AcDbEntity
  8
0
  6
Continuous
 62
     7
370
    15
100
AcDbLine
 10
57.8738516035
 20
106.0086524126
 30
0.0
 11
57.7243139107
 21
108.1471413386
 31
0.0
  0
LINE
  5
263
330
1F
100
AcDbEntity
  8
0
  6
Continuous
 62
     7
370
    15
100
AcDbLine
 10
74.9730724912
 20
109.3532920827
 30
0.0
 11
57.7243139107
 21
108.1471413386
 31
0.0
  0
LINE
  5
264
330
1F
100
AcDbEntity
  8
0
  6
Continuous
 62
     7
370
    15
100
AcDbLine
 10
74.9730724912
 20
103.1657530006
 30
0.0
 11
74.9730724912
 21
109.3532920827
 31
0.0
  0
LINE
  5
265
330
1F
100
AcDbEntity
  8
0
  6
Continuous
 62
     7
370
    15
100
AcDbLine
 10
62.3399688468
 20
106.0769192886
 30
0.0
 11
62.3629597087
 21
105.7481354114
 31
0.0
  0
ARC
  5
266
330
1F
100
AcDbEntity
  8
0
  6
Continuous
 62
     7
370
    15
100
AcDbCircle
 10
58.4730725806
 20
115.1387177419
 30
0.0
 40
16.50000000000009
100
AcDbArc
 50
0.0
 51
98.2912714864
  0
LINE
  5
267
330
1F
100
AcDbEntity
  8
0
  6
Continuous
 62
     7
370
    15
100
AcDbLine
 10
57.7243139107
 20
108.1471413386
 30
0.0
 11
56.0936826352
 21
131.4662553382
 31
0.0
  0
LINE
  5
268
330
1F
100
AcDbEntity
  8
0
  6
Continuous
 62
     7
370
    15
100
AcDbLine
 10
74.9730724912
 20
109.3532920827
 30
0.0
 11
74.9730724912
 21
115.1387177419
 31
0.0
  0
SPLINE
  5
269
330
1F
100
AcDbEntity
  8
0
  6
Continuous
 62
     7
370
    15
100
AcDbSpline
210
0.0
220
0.0
230
1.0
 70
     8
 71
     3
 72
    14
 73
    10
 74
     0
 42
0.00000001
 43
0.00000001
 40
0.0
 40
0.0
 40
0.0
 40
0.0
 40
0.25
 40
0.25
 40
0.5
 40
0.5
 40
0.75
 40
0.75
 40
1.0
 40
1.0
 40
1.0
 40
1.0
 10
51.76182299301888
 20
129.6631498813545
 30
0.0
 10
52.35140845702941
 20
129.9355774134074
 30
0.0
 10
52.91972794484448
 20
130.1547029670421
 30
0.0
 10
53.99312380713025
 20
130.5091278832192
 30
0.0
 10
54.46811714457543
 20
130.6349287601967
 30
0.0
 10
55.27682528947644
 20
130.821709395988
 30
0.0
 10
55.58944248120478
 20
130.8782358133305
 30
0.0
 10
56.02036586415636
 20
130.9511173521483
 30
0.0
 10
56.12866196394467
 20
130.9660276479273
 30
0.0
 10
56.12866196394466
 20
130.9660276479272
 30
0.0
  0
SPLINE
  5
26A
330
1F
100
AcDbEntity
  8
0
  6
Continuous
 62
     7
370
    15
100
AcDbSpline
210
0.0
220
0.0
230
1.0
 70
     8
 71
     3
 72
    11
 73
     7
 74
     0
 42
0.00000001
 43
0.00000001
 40
0.0
 40
0.0
 40
0.0
 40
0.0
 40
0.0330965597107853
 40
0.3600391318301481
 40
0.6841608423811086
 40
1.0
 40
1.0
 40
1.0
 40
1.0
 10
58.05310389970067
 20
99.14454892393849
 30
0.0
 10
58.04270795730152
 20
99.14470297131811
 30
0.0
 10
57.92961626110545
 20
99.14637876739202
 30
0.0
 10
57.09931028248713
 20
99.18260702926366
 30
0.0
 10
55.65891874957302
 20
99.34760152224011
 30
0.0
 10
54.44677465647563
 20
99.66497711032515
 30
0.0
 10
53.84854656423081
 20
99.8216111224582
 30
0.0
  0
ELLIPSE
  5
26B
330
1F
100
AcDbEntity
  8
0
  6
Continuous
 62
     7
370
    15
100
AcDbEllipse
 10
49.4384420151
 20
108.6674893386
 30
0.0
 11
-1.733036295194189
 21
1.855089312013831
 31
0.0
210
0.0
220
0.0
230
1.0
 40
0.8112573031
 41
0.0
 42
6.283185307179586
  0
ARC
  5
26C
330
1F
100
AcDbEntity
  8
0
  6
Continuous
 62
     7
370
    15
100
AcDbCircle
 10
58.4730725806
 20
115.1387177419
 30
0.0
 40
16.00000000000007
100
AcDbArc
 50
114.8000641757
 51
253.1999358243
  0
SPLINE
  5
26D
330
1F
100
AcDbEntity
  8
0
  6
Continuous
 62
     7
370
    15
100
AcDbSpline
210
0.0
220
0.0
230
1.0
 70
     8
 71
     3
 72
    16
 73
    12
 74
     0
 42
0.00000001
 43
0.00000001
 40
0.0
 40
0.0
 40
0.0
 40
0.0
 40
0.0340492398472983
 40
0.245615975264151
 40
0.4656517334999408
 40
0.5272077528076345
 40
0.5682156032142562
 40
0.6095853538702863
 40
0.6670946473522513
 40
0.8565591753687251
 40
1.0
 40
1.0
 40
1.0
 40
1.0
 10
50.20973794872514
 20
110.5776255030622
 30
0.0
 10
50.19623112047874
 20
110.5454191939003
 30
0.0
 10
50.09879890738552
 20
110.3130972956745
 30
0.0
 10
49.67727441524949
 20
110.0653396511948
 30
0.0
 10
49.17976731333309
 20
109.9122639475653
 30
0.0
 10
48.77600955807453
 20
109.8347925039978
 30
0.0
 10
48.57503576713892
 20
109.783926013476
 30
0.0
 10
48.37937108995305
 20
109.7122773885804
 30
0.0
 10
48.04372761078778
 20
109.5547212642187
 30
0.0
 10
47.670640343818
 20
109.3783552219785
 30
0.0
 10
47.3614568855518
 20
109.4103126837337
 30
0.0
 10
47.22823724860898
 20
109.4240823772242
 30
0.0
  0
SPLINE
  5
26E
330
1F
100
AcDbEntity
  8
0
  6
Continuous
 62
     7
370
    15
100
AcDbSpline
210
0.0
220
0.0
230
1.0
 70
    24
 71
     3
 72
    10
 73
     6
 74
     0
 42
0.00000001
 43
0.00000001
 40
0.0
 40
0.0
 40
0.0
 40
0.0
 40
0.5
 40
0.5
 40
1.0
 40
1.0
 40
1.0
 40
1.0
 10
49.47307258064515
 20
85.57844034134251
 30
0.0
 10
49.47307258064515
 20
85.41855307314889
 30
0.0
 10
49.47307258064515
 20
85.25742581763431
 30
0.0
 10
49.47307258064515
 20
85.02332681927952
 30
0.0
 10
49.47307258064515
 20
84.95180004568833
 30
0.0
 10
49.47307258064515
 20
84.95180004568833
 30
0.0
  0
ARC
  5
26F
330
1F
100
AcDbEntity
  8
0
  6
Continuous
 62
     7
370
    15
100
AcDbCircle
 10
58.4730725806
 20
115.1387177419
 30
0.0
 40
31.50000000000013
100
AcDbArc
 50
140.9381656697
 51
253.398450401
  0
SPLINE
  5
270
330
1F
100
AcDbEntity
  8
0
  6
Continuous
 62
     7
370
    15
100
AcDbSpline
210
0.0
220
0.0
230
1.0
 70
    24
 71
     3
 72
    12
 73
     8
 74
     0
 42
0.00000001
 43
0.00000001
 40
0.0
 40
0.0
 40
0.0
 40
0.0
 40
0.2500000000000033
 40
0.2500000000000033
 40
0.5000000000000067
 40
0.5000000000000067
 40
1.0
 40
1.0
 40
1.0
 40
1.0
 10
34.01438291827765
 20
134.9887177419355
 30
0.0
 10
34.01438291827766
 20
134.9887177419355
 30
0.0
 10
34.04221263858111
 20
134.9887177419355
 30
0.0
 10
34.13735509983774
 20
134.9887177419355
 30
0.0
 10
34.20377791613809
 20
134.9887177419355
 30
0.0
 10
34.42797734765818
 20
134.9887177419355
 30
0.0
 10
34.61196375020374
 20
134.9887177419355
 30
0.0
 10
34.7921203193867
 20
134.9887177419355
 30
0.0
  0
SPLINE
  5
271
330
1F
100
AcDbEntity
  8
0
  6
Continuous
 62
     7
370
    15
100
AcDbSpline
210
0.0
220
0.0
230
1.0
 70
    24
 71
     3
 72
    10
 73
     6
 74
     0
 42
0.00000001
 43
0.00000001
 40
0.0
 40
0.0
 40
0.0
 40
0.0
 40
0.5
 40
0.5
 40
1.0
 40
1.0
 40
1.0
 40
1.0
 10
50.47307258064517
 20
144.9851580656995
 30
0.0
 10
50.47307258064517
 20
145.1455633320502
 30
0.0
 10
50.47307258064517
 20
145.3046251450388
 30
0.0
 10
50.47307258064517
 20
145.5355376106691
 30
0.0
 10
50.47307258064517
 20
145.6059132150997
 30
0.0
 10
50.47307258064517
 20
145.6059132150997
 30
0.0
  0
SPLINE
  5
272
330
1F
100
AcDbEntity
  8
0
  6
Continuous
 62
     7
370
    15
100
AcDbSpline
210
0.0
220
0.0
230
1.0
 70
    24
 71
     3
 72
    12
 73
     8
 74
     0
 42
0.00000001
 43
0.00000001
 40
0.0
 40
0.0
 40
0.0
 40
0.0
 40
0.249999999999998
 40
0.249999999999998
 40
0.499999999999996
 40
0.499999999999996
 40
1.0
 40
1.0
 40
1.0
 40
1.0
 10
38.62307258064511
 20
139.5974074043028
 30
0.0
 10
38.62307258064511
 20
139.5974074043028
 30
0.0
 10
38.62307258064511
 20
139.569187705715
 30
0.0
 10
38.62307258064511
 20
139.4747446984669
 30
0.0
 10
38.62307258064511
 20
139.4084577217616
 30
0.0
 10
38.62307258064511
 20
139.1828328984733
 30
0.0
 10
38.62307258064511
 20
139.0004066354408
 30
0.0
 10
38.62307258064511
 20
138.8196700031939
 30
0.0
  0
ARC
  5
273
330
1F
100
AcDbEntity
  8
0
  6
Continuous
 62
     7
370
    15
100
AcDbCircle
 10
58.4730725806
 20
115.1387177419
 30
0.0
 40
31.50000000000012
100
AcDbArc
 50
104.7124579609
 51
129.0618343303
  0
SPLINE
  5
274
330
1F
100
AcDbEntity
  8
0
  6
Continuous
 62
     7
370
    15
100
AcDbSpline
210
0.0
220
0.0
230
1.0
 70
    24
 71
     3
 72
    12
 73
     8
 74
     0
 42
0.00000001
 43
0.00000001
 40
0.0
 40
0.0
 40
0.0
 40
0.0
 40
0.249999999999998
 40
0.249999999999998
 40
0.499999999999996
 40
0.499999999999996
 40
1.0
 40
1.0
 40
1.0
 40
1.0
 10
66.47307258064522
 20
145.6059132150997
 30
0.0
 10
66.47307258064521
 20
145.6059132150997
 30
0.0
 10
66.47307258064522
 20
145.588910465139
 30
0.0
 10
66.47307258064521
 20
145.5248499240273
 30
0.0
 10
66.47307258064522
 20
145.4776913083887
 30
0.0
 10
66.47307258064522
 20
145.3044692756964
 30
0.0
 10
66.47307258064522
 20
145.1443601854623
 30
0.0
 10
66.47307258064522
 20
144.9851580656989
 30
0.0
  0
ARC
  5
275
330
1F
100
AcDbEntity
  8
0
  6
Continuous
 62
     7
370
    15
100
AcDbCircle
 10
58.4730725806
 20
115.1387177419
 30
0.0
 40
31.50000000000014
100
AcDbArc
 50
286.601549599
 51
75.2875420391
  0
SPLINE
  5
276
330
1F
100
AcDbEntity
  8
0
  6
Continuous
 62
     7
370
    15
100
AcDbSpline
210
0.0
220
0.0
230
1.0
 70
    24
 71
     3
 72
    12
 73
     8
 74
     0
 42
0.00000001
 43
0.00000001
 40
0.0
 40
0.0
 40
0.0
 40
0.0
 40
0.2500000000000019
 40
0.2500000000000019
 40
0.5000000000000039
 40
0.5000000000000039
 40
1.0
 40
1.0
 40
1.0
 40
1.0
 10
67.47307258064524
 20
84.95180004568832
 30
0.0
 10
67.47307258064524
 20
84.95180004568832
 30
0.0
 10
67.47307258064524
 20
84.96891713195416
 30
0.0
 10
67.47307258064522
 20
85.03365324342926
 30
0.0
 10
67.47307258064524
 20
85.08111048630957
 30
0.0
 10
67.47307258064524
 20
85.25793492884905
 30
0.0
 10
67.47307258064524
 20
85.4182114360547
 30
0.0
 10
67.47307258064524
 20
85.57844034134246
 30
0.0
  0
LINE
  5
277
330
1F
100
AcDbEntity
  8
0
  6
Continuous
 62
     7
370
    15
100
AcDbLine
 10
66.4730729606
 20
141.5387175989
 30
0.0
 11
50.4730722007
 21
141.5387175989
 31
0.0
  0
LINE
  5
278
330
1F
100
AcDbEntity
  8
0
  6
Continuous
 62
     7
370
    15
100
AcDbLine
 10
67.4730721932
 20
88.738717885
 30
0.0
 11
49.4730729681
 21
88.738717885
 31
0.0
  0
LINE
  5
279
330
1F
100
AcDbEntity
  8
0
  6
Continuous
 62
     7
370
    15
100
AcDbLine
 10
66.4730729606
 20
144.9851587426
 30
0.0
 11
66.4730729606
 21
141.5387175989
 31
0.0
  0
LINE
  5
27A
330
1F
100
AcDbEntity
  8
0
  6
Continuous
 62
     7
370
    15
100
AcDbLine
 10
67.4730721932
 20
85.5784405034
 30
0.0
 11
67.4730721932
 21
88.738717885
 31
0.0
  0
LINE
  5
27B
330
1F
100
AcDbEntity
  8
0
  6
Continuous
 62
     7
370
    15
100
AcDbLine
 10
50.4730722007
 20
141.5387175989
 30
0.0
 11
50.4730722007
 21
144.9851587426
 31
0.0
  0
LINE
  5
27C
330
1F
100
AcDbEntity
  8
0
  6
Continuous
 62
     7
370
    15
100
AcDbLine
 10
49.4730729681
 20
88.738717885
 30
0.0
 11
49.4730729681
 21
85.5784405034
 31
0.0
  0
LINE
  5
27D
330
1F
100
AcDbEntity
  8
0
  6
Continuous
 62
     7
370
    15
100
AcDbLine
 10
38.6230718415
 20
138.8196691882
 30
0.0
 11
38.6230718415
 21
134.988718481
 31
0.0
  0
LINE
  5
27E
330
1F
100
AcDbEntity
  8
0
  6
Continuous
 62
     7
370
    15
100
AcDbLine
 10
34.7921211344
 20
134.988718481
 30
0.0
 11
38.6230718415
 21
134.988718481
 31
0.0
  0
SPLINE
  5
27F
330
1F
100
AcDbEntity
  8
0
  6
Continuous
 62
     7
370
    15
100
AcDbSpline
210
0.0
220
0.0
230
1.0
 70
     8
 71
     3
 72
    30
 73
    26
 74
     0
 42
0.00000001
 43
0.00000001
 40
0.0
 40
0.0
 40
0.0
 40
0.0
 40
0.1249999999999996
 40
0.1249999999999996
 40
0.1874999999999994
 40
0.1874999999999994
 40
0.2499999999999992
 40
0.2499999999999992
 40
0.3749999999999988
 40
0.3749999999999988
 40
0.4374999999999987
 40
0.4374999999999987
 40
0.4999999999999986
 40
0.4999999999999986
 40
0.6249999999999986
 40
0.6249999999999986
 40
0.6874999999999988
 40
0.6874999999999988
 40
0.749999999999999
 40
0.749999999999999
 40
0.8124999999999993
 40
0.8124999999999993
 40
0.8749999999999996
 40
0.8749999999999996
 40
1.0
 40
1.0
 40
1.0
 40
1.0
 10
59.47307258064529
 20
83.65459475907296
 30
0.0
 10
60.00449051104587
 20
83.67147367708158
 30
0.0
 10
60.52614970862003
 20
83.70149124190644
 30
0.0
 10
61.29479149577906
 20
83.76430163117955
 30
0.0
 10
61.54868129494408
 20
83.78820553840644
 30
0.0
 10
62.05175407089016
 20
83.84164083084883
 30
0.0
 10
62.30121791910679
 20
83.8712476990164
 30
0.0
 10
63.02612881670366
 20
83.96569739773082
 30
0.0
 10
63.48400615359584
 20
84.03672479156005
 30
0.0
 10
64.13377337907869
 20
84.15073907826581
 30
0.0
 10
64.34516008248885
 20
84.19019432940638
 30
0.0
 10
64.74979389325901
 20
84.26971577217704
 30
0.0
 10
64.94253436476022
 20
84.30965191467783
 30
0.0
 10
65.49296524113717
 20
84.42858831750597
 30
0.0
 10
65.82314861841779
 20
84.50675308138985
 30
0.0
 10
66.26182443506822
 20
84.61646252165872
 30
0.0
 10
66.39762299355475
 20
84.65154335836714
 30
0.0
 10
66.64450002640092
 20
84.71678363774676
 30
0.0
 10
66.75627856372893
 20
84.7471184537915
 30
0.0
 10
66.95670875360253
 20
84.80245683301334
 30
0.0
 10
67.04536109680603
 20
84.82746150957341
 30
0.0
 10
67.19902864448714
 20
84.8713413184641
 30
0.0
 10
67.26427634873897
 20
84.89028500322641
 30
0.0
 10
67.42058140210325
 20
84.93600473049659
 30
0.0
 10
67.47307258064528
 20
84.95180004568819
 30
0.0
 10
67.47307258064528
 20
84.95180004568819
 30
0.0
  0
SPLINE
  5
280
330
1F
100
AcDbEntity
  8
0
  6
Continuous
 62
     7
370
    15
100
AcDbSpline
210
0.0
220
0.0
230
1.0
 70
     8
 71
     3
 72
    28
 73
    24
 74
     0
 42
0.00000001
 43
0.00000001
 40
0.0
 40
0.0
 40
0.0
 40
0.0
 40
0.1250000000000002
 40
0.1250000000000002
 40
0.1875000000000004
 40
0.1875000000000004
 40
0.2500000000000005
 40
0.2500000000000005
 40
0.3750000000000011
 40
0.3750000000000011
 40
0.4375000000000012
 40
0.4375000000000012
 40
0.5000000000000011
 40
0.5000000000000011
 40
0.6250000000000007
 40
0.6250000000000007
 40
0.7500000000000002
 40
0.7500000000000002
 40
0.8125000000000002
 40
0.8125000000000002
 40
0.8750000000000001
 40
0.8750000000000001
 40
1.0
 40
1.0
 40
1.0
 40
1.0
 10
49.47307258064521
 20
84.9518000456882
 30
0.0
 10
49.47307258064521
 20
84.9518000456882
 30
0.0
 10
49.52554892296347
 20
84.93601533173809
 30
0.0
 10
49.67934587052037
 20
84.8910199176619
 30
0.0
 10
49.74322084555438
 20
84.87246492258619
 30
0.0
 10
49.89671711421092
 20
84.82861220013966
 30
0.0
 10
49.9865320896046
 20
84.80326759318747
 30
0.0
 10
50.28851088465548
 20
84.71986551543736
 30
0.0
 10
50.53446431871123
 20
84.65399995628627
 30
0.0
 10
50.96983149813962
 20
84.54502961579449
 30
0.0
 10
51.12704668031196
 20
84.50678998002783
 30
0.0
 10
51.45921130085441
 20
84.42903124260847
 30
0.0
 10
51.6340185664573
 20
84.38953028043312
 30
0.0
 10
52.18407775704313
 20
84.27062253806713
 30
0.0
 10
52.5847011414386
 20
84.19080485664252
 30
0.0
 10
53.45728725278732
 20
84.03746169484646
 30
0.0
 10
53.91742270038888
 20
83.96612794157721
 30
0.0
 10
54.63738879435506
 20
83.87218443450259
 30
0.0
 10
54.88266250438959
 20
83.84299064114265
 30
0.0
 10
55.38411884081842
 20
83.78952406687922
 30
0.0
 10
55.64155021019094
 20
83.76516473260406
 30
0.0
 10
56.41749000605544
 20
83.70157458715933
 30
0.0
 10
56.94171840596145
 20
83.67147165206991
 30
0.0
 10
57.47307258064527
 20
83.65459475907299
 30
0.0
  0
SPLINE
  5
281
330
1F
100
AcDbEntity
  8
0
  6
Continuous
 62
     7
370
    15
100
AcDbSpline
210
0.0
220
0.0
230
1.0
 70
     8
 71
     3
 72
    50
 73
    46
 74
     0
 42
0.00000001
 43
0.00000001
 40
0.0
 40
0.0
 40
0.0
 40
0.0
 40
0.0625
 40
0.0625
 40
0.09375
 40
0.09375
 40
0.125
 40
0.125
 40
0.1875000000000001
 40
0.1875000000000001
 40
0.2187500000000001
 40
0.2187500000000001
 40
0.2500000000000001
 40
0.2500000000000001
 40
0.3125000000000001
 40
0.3125000000000001
 40
0.3750000000000001
 40
0.3750000000000001
 40
0.4062500000000001
 40
0.4062500000000001
 40
0.4375000000000001
 40
0.4375000000000001
 40
0.5000000000000001
 40
0.5000000000000001
 40
0.5625000000000001
 40
0.5625000000000001
 40
0.6250000000000001
 40
0.6250000000000001
 40
0.6562500000000001
 40
0.6562500000000001
 40
0.6875000000000001
 40
0.6875000000000001
 40
0.7187500000000001
 40
0.7187500000000001
 40
0.7500000000000001
 40
0.7500000000000001
 40
0.8125000000000001
 40
0.8125000000000001
 40
0.8750000000000001
 40
0.8750000000000001
 40
0.9375000000000001
 40
0.9375000000000001
 40
0.9687500000000001
 40
0.9687500000000001
 40
1.0
 40
1.0
 40
1.0
 40
1.0
 10
50.47307258064522
 20
145.6059132150998
 30
0.0
 10
50.47307258064522
 20
145.6059132150998
 30
0.0
 10
50.52536672259831
 20
145.6197793184809
 30
0.0
 10
50.67871925743107
 20
145.6592164613649
 30
0.0
 10
50.74241675278228
 20
145.67546916363
 30
0.0
 10
50.8955084030721
 20
145.7138178734803
 30
0.0
 10
50.98516450503293
 20
145.7359713198884
 30
0.0
 10
51.28674589320698
 20
145.8087272657504
 30
0.0
 10
51.53248732364095
 20
145.8660079685951
 30
0.0
 10
51.96764738999162
 20
145.9600004080509
 30
0.0
 10
52.1247882174528
 20
145.9928593752441
 30
0.0
 10
52.45742731017711
 20
146.0594354286923
 30
0.0
 10
52.63249326561714
 20
146.0930788665312
 30
0.0
 10
53.18334879631875
 20
146.1936397311084
 30
0.0
 10
53.58453320550541
 20
146.2602025408584
 30
0.0
 10
54.4580224115928
 20
146.384901596158
 30
0.0
 10
54.92006300457523
 20
146.4414246052286
 30
0.0
 10
55.64117841816915
 20
146.5120935398434
 30
0.0
 10
55.88673905585254
 20
146.5333697499149
 30
0.0
 10
56.38852735501073
 20
146.5706754761568
 30
0.0
 10
56.64628857132738
 20
146.5867666730169
 30
0.0
 10
57.42140103554716
 20
146.6254081446245
 30
0.0
 10
57.94183021926683
 20
146.6385975631809
 30
0.0
 10
58.9899660600522
 20
146.638836286639
 30
0.0
 10
59.52247439042596
 20
146.6254362839348
 30
0.0
 10
60.55016465259256
 20
146.5743722957397
 30
0.0
 10
61.04992883317429
 20
146.5369331609855
 30
0.0
 10
61.77842383319476
 20
146.465769678067
 30
0.0
 10
62.01777482564023
 20
146.4395012198745
 30
0.0
 10
62.4790132971271
 20
146.3838197471223
 30
0.0
 10
62.70227995219437
 20
146.3542819751864
 30
0.0
 10
63.13446755821644
 20
146.2926748301587
 30
0.0
 10
63.34338813845641
 20
146.2606038874374
 30
0.0
 10
63.74681306398013
 20
146.1947869104681
 30
0.0
 10
63.94229272394948
 20
146.1608566920048
 30
0.0
 10
64.49815093748573
 20
146.0594280644246
 30
0.0
 10
64.82770832411728
 20
145.9925090357345
 30
0.0
 10
65.40710382190323
 20
145.8674834733927
 30
0.0
 10
65.65862379334762
 20
145.8089066791586
 30
0.0
 10
66.06007828996117
 20
145.7120718275137
 30
0.0
 10
66.21256128550829
 20
145.6733168679545
 30
0.0
 10
66.36787223468352
 20
145.6333893375182
 30
0.0
 10
66.40738568208968
 20
145.6230975462677
 30
0.0
 10
66.45989902938545
 20
145.6093813337287
 30
0.0
 10
66.47307258064525
 20
145.6059132150998
 30
0.0
 10
66.47307258064525
 20
145.6059132150998
 30
0.0
  0
SPLINE
  5
282
330
1F
100
AcDbEntity
  8
0
  6
Continuous
 62
     7
370
    15
100
AcDbSpline
210
0.0
220
0.0
230
1.0
 70
     8
 71
     3
 72
    20
 73
    16
 74
     0
 42
0.00000001
 43
0.00000001
 40
0.0
 40
0.0
 40
0.0
 40
0.0
 40
0.2499999999999996
 40
0.2499999999999996
 40
0.3749999999999998
 40
0.3749999999999998
 40
0.5
 40
0.5
 40
0.625
 40
0.625
 40
0.75
 40
0.75
 40
0.8750000000000001
 40
0.8750000000000001
 40
1.0
 40
1.0
 40
1.0
 40
1.0
 10
34.01438291827775
 20
134.9887177419355
 30
0.0
 10
34.54503968611243
 20
135.6425801702329
 30
0.0
 10
35.07876768237402
 20
136.24636595223
 30
0.0
 10
35.86174000036276
 20
137.0732046883986
 30
0.0
 10
36.11972360045944
 20
137.3356333263515
 30
0.0
 10
36.62411885686725
 20
137.8322959804564
 30
0.0
 10
36.86689727929523
 20
138.0628828594779
 30
0.0
 10
37.31757735880828
 20
138.4794370840606
 30
0.0
 10
37.52704122479956
 20
138.6669348860281
 30
0.0
 10
37.90532974138759
 20
138.9983318636645
 30
0.0
 10
38.06907742757205
 20
139.1378358511597
 30
0.0
 10
38.33726322977149
 20
139.3632893586307
 30
0.0
 10
38.44248763785825
 20
139.4499154701743
 30
0.0
 10
38.58654686317175
 20
139.5678962590285
 30
0.0
 10
38.62307258064519
 20
139.597407404303
 30
0.0
 10
38.62307258064519
 20
139.597407404303
 30
0.0
  0
ARC
  5
283
330
1F
100
AcDbEntity
  8
0
  6
Continuous
 62
     7
370
    15
100
AcDbCircle
 10
58.4730725806
 20
115.1387177419
 30
0.0
 40
31.50000000000017
100
AcDbArc
 50
268.180780706
 51
271.819219294
  0
CIRCLE
  5
284
330
1F
100
AcDbEntity
  8
VERMASSUNG
  6
CENTERX2
100
AcDbCircle
 10
58.4730725806
 20
113.1786451949
 30
0.0
 40
20.0
  0
DIMENSION
  5
285
330
1F
100
AcDbEntity
  8
VERMASSUNG
100
AcDbDimension
  2
*D6
 10
21.0930260608
 20
133.1786451949
 30
0.0
 11
21.0930260608
 21
113.1786451949
 31
0.0
 70
   160
  1
%%c<>
 71
     2
 42
-1.0
  3
SLDDIMSTYLE2
100
AcDbAlignedDimension
 13
58.4730725806
 23
93.1786451949
 33
0.0
 14
58.4730725806
 24
133.1786451949
 34
0.0
 50
90.0
100
AcDbRotatedDimension
  0
INSERT
  5
29C
330
1F
100
AcDbEntity
  8
VERMASSUNG
100
AcDbBlockReference
  2
SW_CENTERMARKSYMBOL_0
 10
58.4730725806
 20
115.1387177419
 30
0.0
  0
OLE2FRAME
  5
29D
330
1F
100
AcDbEntity
  8
0
100
AcDbOle2Frame
 70
     2
  3
Bitmap Image
 10
13.8511154363
 20
38.264191557
 30
0.0
 11
51.6290888628
 21
31.9806341108
 31
0.0
 71
     2
 72
     0
 73
     1
 90
    12928
310
80552BED0767C5B32B40DDAF6807D121434000000000000000006FFBDDFB85D0
310
4940DDAF6807D121434000000000000000006FFBDDFB85D04940416F4BD60AFB
310
3F4000000000000000002BED0767C5B32B40416F4BD60AFB3F40000000000000
310
0000000000000100000000010000010000000100000000000100000000320000
310
D0CF11E0A1B11AE1000000000000000000000000000000003E000300FEFF0900
310
0600000000000000000000000100000001000000000000000010000002000000
310
01000000FEFFFFFF0000000000000000FFFFFFFFFFFFFFFFFFFFFFFFFFFFFFFF
310
FFFFFFFFFFFFFFFFFFFFFFFFFFFFFFFFFFFFFFFFFFFFFFFFFFFFFFFFFFFFFFFF
310
FFFFFFFFFFFFFFFFFFFFFFFFFFFFFFFFFFFFFFFFFFFFFFFFFFFFFFFFFFFFFFFF
310
FFFFFFFFFFFFFFFFFFFFFFFFFFFFFFFFFFFFFFFFFFFFFFFFFFFFFFFFFFFFFFFF
310
FFFFFFFFFFFFFFFFFFFFFFFFFFFFFFFFFFFFFFFFFFFFFFFFFFFFFFFFFFFFFFFF
310
FFFFFFFFFFFFFFFFFFFFFFFFFFFFFFFFFFFFFFFFFFFFFFFFFFFFFFFFFFFFFFFF
310
FFFFFFFFFFFFFFFFFFFFFFFFFFFFFFFFFFFFFFFFFFFFFFFFFFFFFFFFFFFFFFFF
310
FFFFFFFFFFFFFFFFFFFFFFFFFFFFFFFFFFFFFFFFFFFFFFFFFFFFFFFFFFFFFFFF
310
FFFFFFFFFFFFFFFFFFFFFFFFFFFFFFFFFFFFFFFFFFFFFFFFFFFFFFFFFFFFFFFF
310
FFFFFFFFFFFFFFFFFFFFFFFFFFFFFFFFFFFFFFFFFFFFFFFFFFFFFFFFFFFFFFFF
310
FFFFFFFFFFFFFFFFFFFFFFFFFFFFFFFFFFFFFFFFFFFFFFFFFFFFFFFFFFFFFFFF
310
FFFFFFFFFFFFFFFFFFFFFFFFFFFFFFFFFFFFFFFFFFFFFFFFFFFFFFFFFFFFFFFF
310
FFFFFFFFFFFFFFFFFFFFFFFFFFFFFFFFFFFFFFFFFFFFFFFFFFFFFFFFFFFFFFFF
310
FFFFFFFFFFFFFFFFFFFFFFFFFFFFFFFFFFFFFFFFFFFFFFFFFFFFFFFFFFFFFFFF
310
FDFFFFFFFEFFFFFFFEFFFFFFFEFFFFFF05000000060000000700000008000000
310
090000000A0000000B0000000C0000000D0000000E0000000F00000010000000
310
11000000120000001300000014000000150000001600000017000000FEFFFFFF
310
FFFFFFFFFFFFFFFFFFFFFFFFFFFFFFFFFFFFFFFFFFFFFFFFFFFFFFFFFFFFFFFF
310
FFFFFFFFFFFFFFFFFFFFFFFFFFFFFFFFFFFFFFFFFFFFFFFFFFFFFFFFFFFFFFFF
310
FFFFFFFFFFFFFFFFFFFFFFFFFFFFFFFFFFFFFFFFFFFFFFFFFFFFFFFFFFFFFFFF
310
FFFFFFFFFFFFFFFFFFFFFFFFFFFFFFFFFFFFFFFFFFFFFFFFFFFFFFFFFFFFFFFF
310
FFFFFFFFFFFFFFFFFFFFFFFFFFFFFFFFFFFFFFFFFFFFFFFFFFFFFFFFFFFFFFFF
310
FFFFFFFFFFFFFFFFFFFFFFFFFFFFFFFFFFFFFFFFFFFFFFFFFFFFFFFFFFFFFFFF
310
FFFFFFFFFFFFFFFFFFFFFFFFFFFFFFFFFFFFFFFFFFFFFFFFFFFFFFFFFFFFFFFF
310
FFFFFFFFFFFFFFFFFFFFFFFFFFFFFFFFFFFFFFFFFFFFFFFFFFFFFFFFFFFFFFFF
310
FFFFFFFFFFFFFFFFFFFFFFFFFFFFFFFFFFFFFFFFFFFFFFFFFFFFFFFFFFFFFFFF
310
FFFFFFFFFFFFFFFFFFFFFFFFFFFFFFFFFFFFFFFFFFFFFFFFFFFFFFFFFFFFFFFF
310
FFFFFFFFFFFFFFFFFFFFFFFFFFFFFFFFFFFFFFFFFFFFFFFFFFFFFFFFFFFFFFFF
310
FFFFFFFFFFFFFFFFFFFFFFFFFFFFFFFFFFFFFFFFFFFFFFFFFFFFFFFFFFFFFFFF
310
FFFFFFFFFFFFFFFFFFFFFFFFFFFFFFFFFFFFFFFFFFFFFFFFFFFFFFFFFFFFFFFF
310
52006F006F007400200045006E00740072007900000000000000000000000000
310
0000000000000000000000000000000000000000000000000000000000000000
310
16000500FFFFFFFFFFFFFFFF020000000A00030000000000C000000000000046
310
00000000000000000000000020937C770CD4CB0103000000C000000000000000
310
01004F006C006500000000000000000000000000000000000000000000000000
310
0000000000000000000000000000000000000000000000000000000000000000
310
0A000200FFFFFFFFFFFFFFFFFFFFFFFF00000000000000000000000000000000
310
0000000000000000000000000000000000000000000000001400000000000000
310
010043006F006D0070004F0062006A0000000000000000000000000000000000
310
0000000000000000000000000000000000000000000000000000000000000000
310
120002010100000003000000FFFFFFFF00000000000000000000000000000000
310
0000000000000000000000000000000000000000010000004D00000000000000
310
01004F006C006500310030004E00610074006900760065000000000000000000
310
0000000000000000000000000000000000000000000000000000000000000000
310
1A000200FFFFFFFFFFFFFFFFFFFFFFFF00000000000000000000000000000000
310
0000000000000000000000000000000000000000040000002426000000000000
310
FEFFFFFF02000000FEFFFFFFFFFFFFFFFFFFFFFFFFFFFFFFFFFFFFFFFFFFFFFF
310
FFFFFFFFFFFFFFFFFFFFFFFFFFFFFFFFFFFFFFFFFFFFFFFFFFFFFFFFFFFFFFFF
310
FFFFFFFFFFFFFFFFFFFFFFFFFFFFFFFFFFFFFFFFFFFFFFFFFFFFFFFFFFFFFFFF
310
FFFFFFFFFFFFFFFFFFFFFFFFFFFFFFFFFFFFFFFFFFFFFFFFFFFFFFFFFFFFFFFF
310
FFFFFFFFFFFFFFFFFFFFFFFFFFFFFFFFFFFFFFFFFFFFFFFFFFFFFFFFFFFFFFFF
310
FFFFFFFFFFFFFFFFFFFFFFFFFFFFFFFFFFFFFFFFFFFFFFFFFFFFFFFFFFFFFFFF
310
FFFFFFFFFFFFFFFFFFFFFFFFFFFFFFFFFFFFFFFFFFFFFFFFFFFFFFFFFFFFFFFF
310
FFFFFFFFFFFFFFFFFFFFFFFFFFFFFFFFFFFFFFFFFFFFFFFFFFFFFFFFFFFFFFFF
310
FFFFFFFFFFFFFFFFFFFFFFFFFFFFFFFFFFFFFFFFFFFFFFFFFFFFFFFFFFFFFFFF
310
FFFFFFFFFFFFFFFFFFFFFFFFFFFFFFFFFFFFFFFFFFFFFFFFFFFFFFFFFFFFFFFF
310
FFFFFFFFFFFFFFFFFFFFFFFFFFFFFFFFFFFFFFFFFFFFFFFFFFFFFFFFFFFFFFFF
310
FFFFFFFFFFFFFFFFFFFFFFFFFFFFFFFFFFFFFFFFFFFFFFFFFFFFFFFFFFFFFFFF
310
FFFFFFFFFFFFFFFFFFFFFFFFFFFFFFFFFFFFFFFFFFFFFFFFFFFFFFFFFFFFFFFF
310
FFFFFFFFFFFFFFFFFFFFFFFFFFFFFFFFFFFFFFFFFFFFFFFFFFFFFFFFFFFFFFFF
310
FFFFFFFFFFFFFFFFFFFFFFFFFFFFFFFFFFFFFFFFFFFFFFFFFFFFFFFFFFFFFFFF
310
FFFFFFFFFFFFFFFFFFFFFFFFFFFFFFFFFFFFFFFFFFFFFFFFFFFFFFFFFFFFFFFF
310
010000020000000000000000000000000000000061007200650064005C003100
310
30002E0030005C0044004C004C005300680061007200650064005C003B004300
310
0100FEFF030A0000FFFFFFFF0A00030000000000C00000000000004607000000
310
5042727573680007000000504272757368000700000050427275736800F439B2
310
71000000000000000000000000004100540049002E004100430045005C004300
310
6F00720065002D005300740061007400690063003B0043003A005C0050007200
310
6F006700720061006D002000460069006C006500730020002800780038003600
310
29005C0043006F006D006D006F006E002000460069006C00650073005C004100
310
750074006F006400650073006B0020005300680061007200650064005C003B00
310
43003A005C00500072006F006700720061006D002000460069006C0065007300
310
5C004E006F0072006D0061006E005C004E0070006D005C00420069006E000000
310
43003A005C00500072006F006700720061006D002000460069006C0065007300
310
5C0053006F006C006900640057006F0072006B007300200043006F0072007000
310
5C0053006F006C006900640057006F0072006B00730020002800320029005C00
310
730065007400750070005C0069003300380036005C0073007700610063007400
310
770069007A002E006500780065000000220043003A005C00500072006F006700
310
20260000424D0E260000000000003E00000028000000B40200006E0000000100
310
01000000000000000000130B0000130B00000200000002000000000000FFFFFF
310
FFFFFFFFFFFFFFFFFFFFFFFFFFFFFFFFFFFFFFFFFFFFFFFFFFFFFFFFFFFFFFFF
310
FFFFFFFFFFFFFFFFFFFFFFFFFFFFFFFFFFFFFFFFFFFFFFFFFFFFFFFFFFFFFFFF
310
FFFFFFFFFFFFFFFFFFFFFFFFFFFFFFFFFFFFFFFFFFFFFFFFF000FFFFFFFFFFFF
310
FFFFFFFFFFFFFFFFFFFFFFFFFFFFFFFFFFFFFFFFFFFFFFFFFFFFFFFFFFFFFFFF
310
FFFFFFFFFFFFFFFFFFFFFFFFFFFFFFFFFFFFFFFFFFFFFFFFFFFFFFFFFFFFFFFF
310
FFFFFFFFFFFFFFFFFFFFFFFFFFFFFFFFF000FFFFFFFFFFFFFFFFFFFFFFFFFFFF
310
FFFFFFFFFFFFFFFFFFFFFFFFFFFFFFFFFFFFFFFFFFFFFFFFFFFFFFFFFFFFFFFF
310
FFFFFFFFFFFFFFFFFFFFFFFFFFFFFFFFFFFFFFFFFFFFFFFFFFFFFFFFFFFFFFFF
310
FFFFFFFFFFFFFFFFF000FFFFFFFFFFFFFFFFFFFFFFFFFFFFFFFFFFFFFFFFFFFF
310
FFFFFFFFFFFFFFFFFFFFFFFFFFFFFFFFFFFFFFFFFFFFFFFFFFFFFFFFFFFFFFFF
310
FFFFFFFFFFFFFFFFFFFFFFFFFFFFFFFFFFFFFFFFFFFFFFFFFFFFFFFFFFFFFFFF
310
F000FFFFFFFFFFFFFFFFFFFFFFFFFFFFFFFFFFFFFFFFFFFFFFFFFFFFFFFFFFFF
310
FFFFFFFFFFFFFFFFFFFFFFFFFFFFFFFFFFFFFFFFFFFFFFFFFFFFFFFFFFFFFFFF
310
FFFFFFFFFFFFFFFFFFFFFFFFFFFFFFFFFFFFFFFFFFFFFFFFF000FFFFFFFFFFFF
310
FFFFFFFFFFFFFFFFFFFFFFFFFFFFFFFFFFFFFFFFFFFFFFFFFFFFFFFFFFFFFFFF
310
FFFFFFFFFFFFFFFFFFFFFFFFFFFFFFFFFFFFFFFFFFFFFFFFFFFFFFFFFFFFFFFF
310
FFFFFFFFFFFFFFFFFFFFFFFFFFFFFFFFF000FFFFFFFFFFFFFFFFFFFFFFFFFFFF
310
FFFFFFFFFFFFFFFFFFFFFFFFFFFFFFFFFFFFFFFFFFFFFFFFFFFFFFFFFFFFFFFF
310
FFFFFFFFFFFFFFFFFFFFFFFFFFFFFFFFFFFFFFFFFFFFFFFFFFFFFFFFFFFFFFFF
310
FFFFFFFFFFFFFFFFF000FFFFFFFFFFFFFFFFFFFFFFFFFFFFFFFFFFFFFFFFFFFF
310
FFFFFFFFFFFFFFFFFFFFFFFFFFFFFFFFFFFFFFFFFFFFFFFFFFFFFFFFFFFFFFFF
310
FFFFFFFFFFFFFFFFFFFFFFFFFFFFFFFFFFFFFFFFFFFFFFFFFFFFFFFFFFFFFFFF
310
F000FFFFFFFFFFFFFFFFFFFFFFFFFFFFFFFFFFFFFFFFFFFFFFFFFFFFFFFFFFFF
310
FFFFFFFFFFFFFFFFFFFFFFFFFFFFFFFFFFFFFFFFFFFFFFFFFFFFFFFFFFFFFFFF
310
FFFFFFFFFFFFFFFFFFFFFFFFFFFFFFFFFFFFFFFFFFFFFFFFF000FFFFFFFFFFFF
310
FFFFFFFFFFFFFFFFFFFFFFFFFFFFFFFFFFFFFFFFFFFFFFFFFFFFFFFFFFFFFFFF
310
FFFFFFFFFFFFFFFFFFFFFFFFFFFFFFFFFFFFFFFFFFFFFFFFFFFFFFFFFFFFFFFF
310
FFFFFFFFFFFFFFFFFFFFFFFFFFFFFFFFF000FFFFFFFFFFFFFFFFFFFFFFFFFFFF
310
FFFFFFFFFFFFFFFFFFFFFFFFFFFFFFFFFFFFFFFFFFFFFFFFFFFFFFFFFFFFFFFF
310
FFFFFFFFFFFFFFFFFFFFFFFFFFFFFFFFFFFFFFFFFFFFFFFFFFFFFFFFFFFFFFFF
310
FFFFFFFFFFFFFFFFF000FFFFFFFFFFFFFFFFFFFFFFFFFFFFFFFFFFFFFFFFFFFF
310
FFFFFFFFFFFFFFFFFFFFFFFFFFFFFFFFFFFFFFFFFFFFFFFFFFFFFFFFFFFFFFFF
310
FFFFFFFFFFFFFFFFFFFFFFFFFFFFFFFFFFFFFFFFFFFFFFFFFFFFFFFFFFFFFFFF
310
F000FFFFFFFFFFFFFFFFFFFFFFFFFFFFFFFFFFFFFFFFFFFFFFFFFFFFFFFFFFFF
310
FFFFFFFFFFFFFFFFFFFFFFFFFFFFFFFFFFFFFFFFFFFFFFFFFFFFFFFFFFFFFFFF
310
FFFFFFFFFFFFFFFFFFFFFFFFFFFFFFFFFFFFFFFFFFFFFFFFF000FFFFFFFFFFFF
310
FFFFFFFFFFFFFFFFFFFFFFFFFFFFFFFFFFFFFFFFFFFFFFFFFFFFFFFFFFFFFFFF
310
FFFFFFFFFFFFFFFFFFFFFFFFFFFFFFFFFFFFFFFFFFFFFFFFFFFFFFFFFFFFFFFF
310
FFFFFFFFFFFFFFFFFFFFFFFFFFFFFFFFF000FFFFFFFFFFFFFFFFFFFFFFFFFFFF
310
FFFFFFFFFFFFFFFFFFFFFFFFFFFFFFFFFFFFFFFFFFFFFFFFFFFFFFFFFFFFFFFF
310
FFFFFFFFFFFFFFFFFFFFFFFFFFFFFFFFFFFFFFFFFFFFFFFFFFFFFFFFFFFFFFFF
310
FFFFFFFFFFFFFFFFF000FFFFFFFFFFFFFFFFFFFFFFFFFFFFFFFFFFFFFFFFFFFF
310
FFFFFFFFFFFFFFFFFFFFFFFFFFFFFFFFFFFFFFFFFFFFFFFFFFFFFFFFFFFFFFFF
310
FFFFFFFFFFFFFFFFFFFFFFFFFFFFFFFFFFFFFFFFFFFFFFFFFFFFFFFFFFFFFFFF
310
F000FFFFFFFFFFFFFFFFFFFFFFFFFFFFFFFFFFFFFFFFFFFFFFFFFFFFFFFFFFFF
310
FFFFFFFFFFFFFFFFFFFFFFFFFFFFFFFFFFFFFFFFFFFFFFFFFFFFFFFFFFFFFFFF
310
FFFFFFFFFFFFFFFFFFFFFFFFFFFFFFFFFFFFFFFFFFFFFFFFF000FFFFFFFFFFFF
310
FFFFFFFFFFFFFFFFFFFFFFFFFFFFFFFFFFFFFFFFFFFFFFFFFFFFFFFFFFFFFFFF
310
FFFFFFFFFFFFFFFFFFFFFFFFFFFFFFFFFFFFFFFFFFFFFFFFFFFFFFFFFFFFFFFF
310
FFFFFFFFFFFFFFFFFFFFFFFFFFFFFFFFF000FFFFFFFFFFFFFFFFFFFFFFFFFFFF
310
FFFFFFFFFFFFFFFFFFFFFFFFFFFFFFFFFFFFFFFFFFFFFFFFFFFFFFFFFFFFFFFF
310
FFFFFFFFFFFFFFFFFFFFFFFFFFFFFFFFFFFFFFFFFFFFFFFFFFFFFFFFFFFFFFFF
310
FFFFFFFFFFFFFFFFF000FFFFF80003FFFFFFFFFFFFFFFFFFFFFFFFFFFFFFFFFF
310
FFFFF00007FFFFFFFFFF00007FFFFFF800000000000000007FFFFFFFFFFFFFFF
310
FFFFFFFC001FFFFFFFFFFFFFFC001FFFFFFFFFFFFFFFFFFFFFFFFFFE0007FFFF
310
F000FFFF8000007FFFFFFFF8000FFFFFC0007FFFFF80007FFFFF0000007FFFFF
310
FFF8000007FFFFF800000000000000007FFFFFF0001FFFFFFFFFFFC00001FFFF
310
FFFFFFFFC00001FFFFFFFF000000000003FFFFE000007FFFF000FFFE0000000F
310
FFFFFFF0000FFFFF80007FFFFF80007FFFFC0000001FFFFFFFC0000001FFFFF8
310
00000000000000007FFFFFF0001FFFFFFFFFFE0000003FFFFFFFFFFE0000003F
310
FFFFFF000000000003FFFF0000000FFFF000FFF800000003FFFFFFF00007FFFF
310
80007FFFFF80007FFFF000000007FFFFFF000000003FFFF80000000000000000
310
7FFFFFF0001FFFFFFFFFF80000000FFFFFFFFFF80000000FFFFFFF0000000000
310
03FFFC00000003FFF000FFE000000000FFFFFFF00007FFFF80003FFFFF80007F
310
FFC000000001FFFFFC000000001FFFF800000000000000007FFFFFF0001FFFFF
310
FFFFE000000003FFFFFFFFE000000003FFFFFF000000000003FFF000000000FF
310
F000FF80000000007FFFFFF00007FFFF80003FFFFF80007FFF8000000000FFFF
310
F80000000007FFF800000000000000007FFFFFF0001FFFFFFFFFC000000001FF
310
FFFFFFC000000001FFFFFF000000000003FFC0000000007FF000FF0000000000
310
3FFFFFE00007FFFF00003FFFFF80007FFE00000000003FFFF00000000003FFF8
310
00000000000000007FFFFFF0001FFFFFFFFF8000000000FFFFFFFF8000000000
310
FFFFFF000000000003FF80000000003FF000FE00000000001FFFFFE00003FFFF
310
00003FFFFF80007FFC00000000001FFFE00000000001FFF8000001FFFE000000
310
7FFFFFF0001FFFFFFFFE00000000003FFFFFFE00000000003FFFFF0000000000
310
03FF00000000001FF000FC00000000000FFFFFE00003FFFF00001FFFFF80007F
310
F800000000001FFFC00000000000FFF8000001FFFE0000007FFFFFF0001FFFFF
310
FFFC00000000001FFFFFFC00000000001FFFFF000000000003FE00000000000F
310
F000F8000000000007FFFFE00003FFFF00001FFFFF80007FF800000000000FFF
310
800000000000FFF8000001FFFE0000007FFFFFF0001FFFFFFFF800000000000F
310
FFFFF800000000000FFFFF000000000003FC000000000007F000F80000000000
310
03FFFFC00003FFFE00001FFFFF80007FF0000000000007FF0000000000007FF8
310
000001FFFE0000007FFFFFF0001FFFFFFFF0000000000007FFFFF00000000000
310
07FFFF000000000003F8000000000003F000F0000000000003FFFFC00001FFFE
310
00001FFFFF80007FE0000000000007FE0000000000003FF8000001FFFE000000
310
7FFFFFF0001FFFFFFFF0000000000007FFFFF0000000000007FFFF0000000000
310
03F800001F800003F000E00001FFF00001FFFFC00001FFFE00000FFFFF80007F
310
E00001FFE00003FE00001FFF00003FF8000001FFFE0000007FFFFFF0001FFFFF
310
FFE000003E000003FFFFE000003E000003FFFF000000000003F00001FFF80001
310
F000E00007FFFC0001FFFFC00001FFFE00000FFFFF80007FC0000FFFFC0003FC
310
0000FFFFC0001FF8000001FFFE0000007FFFFFF0001FFFFFFFC00003FFE00001
310
FFFFC00003FFE00001FFFF0001FFFFFFFFF00007FFFE0001F000E0000FFFFF00
310
00FFFF800001FFFC00000FFFFF80007FC0001FFFFE0001FC0001FFFFE0001FF8
310
000001FFFE0000007FFFFFF0001FFFFFFF80000FFFF80000FFFF80000FFFF800
310
00FFFF0003FFFFFFFFE0000FFFFF8000F000C0003FFFFF8000FFFF800000FFFC
310
000007FFFF80007F80003FFFFF0001FC0003FFFFF0001FF8000001FFFE000000
310
7FFFFFF0001FFFFFFF80003FFFFE0000FFFF80003FFFFE0000FFFF0003FFFFFF
310
FFE0003FFFFF8000F000C0003FFFFF8000FFFF800000FFFC000007FFFF80007F
310
80007FFFFF8001F80007FFFFF8000FF8000001FFFE0000007FFFFFF0001FFFFF
310
FF00007FFFFF00007FFF00007FFFFF00007FFF0003FFFFFFFFE0003FFFFFC000
310
F000C0007FFFFFC000FFFF000000FFFC000007FFFF80007F8000FFFFFF8000F8
310
000FFFFFF8000FF8000001FFFE0000007FFFFFF0001FFFFFFF0000FFFFFF8000
310
7FFF0000FFFFFF80007FFF0003FFFFFFFFC0007FFFFFC00070008000FFFFFFC0
310
00FFFF000000FFF8000007FFFF80007F8000FFFFFF8000F8000FFFFFF8000FF8
310
000001FFFE0000007FFFFFF0001FFFFFFE0001FFFFFFC0003FFE0001FFFFFFC0
310
003FFF0003FFFFFFFFC0007FFFFFE00070008000FFFFFFC0007FFF0000007FF8
310
000003FFFF80007F0001FFFFFF8000F8000FFFFFF8000FF8000001FFFE000000
310
7FFFFFF0001FFFFFFE0001FFFFFFC0003FFE0001FFFFFFC0003FFF0003FFFFFF
310
FFC000FFFFFFE00070008000FFFFFFC0007FFF0000007FF8000003FFFF80007F
310
0001FFFFFF8000F8001FFFFFF8000FF8000001FFFE0000007FFFFFF0001FFFFF
310
FE0003FFFFFFE0003FFE0003FFFFFFE0003FFF0003FFFFFFFFC000FFFFFFE000
310
70008000FFFFFFC0007FFE0000007FF8000003FFFF80007F0001FFFFFF8000F0
310
001FFFFFF8000FF8000001FFFE0000007FFFFFF0001FFFFFFC0003FFFFFFE000
310
1FFC0003FFFFFFE0001FFF0003FFFFFFFFC000FFFFFFC00070008000FFFFFF80
310
007FFE0000007FF0000003FFFF80007F0001FFFFFF0000F0001FFFFFF8000FF8
310
000001FFFE0000007FFFFFF0001FFFFFFC0007FFFFFFF0001FFC0007FFFFFFF0
310
001FFF0003FFFFFFFFC000FFFFFFC00070008001FFFFFF0000FFFE0000003FF0
310
000001FFFF80007F0001FFFFFF0000F8001FFFFFF0000FF8000001FFFE000000
310
7FFFFFF0001FFFFFFC0007FFFFFFF0001FFC0007FFFFFFF0001FFF0003FFFFFF
310
FFC001FFFFFF80007000FFFFFFFFFE0000FFFE0008003FF0008001FFFF80007F
310
FFFFFFFFFC0000FFFFFFFFFFE0000FF8000001FFFE0000007FFFFFF0001FFFFF
310
F8000FFFFFFFF8000FF8000FFFFFFFF8000FFF0003FFFFFFFFFFFFFFFFFF0000
310
7000FFFFFFFFFC0000FFFC0008003FF0008001FFFF80007FFFFFFFFFF80001FF
310
FFFFFFFF80000FF8000001FFFE0000007FFFFFF0001FFFFFF8000FFFFFFFF800
310
0FF8000FFFFFFFF8000FFF0003FFFFFFFFFFFFFFFFFE0000F000FFFFFFFFE000
310
00FFFC000C003FE000C001FFFF80007FFFFFFFFFC00001FFFFFFFFFE00001FF8
310
000001FFFE0000007FFFFFF0001FFFFFF8000FFFFFFFF8000FF8000FFFFFFFF8
310
000FFF0003FFFFFFFFFFFFFFFFF00000F000FFFFFFFE000001FFFC000C001FE0
310
00C000FFFF80007FFFFFFFFE000001FFFFFFFFE000001FF80FFFFFFFFFFFFFC0
310
7FFFFFF0001FFFFFF8000FFFFFFFF8000FF8000FFFFFFFF8000FFF0003FFFFFF
310
FFFFFFFFFF800000F000FFFFFFC0000001FFFC001C001FE001C000FFFF80007F
310
FFFFFF80000003FFFFFFF80000001FF80FFFFFFFFFFFFFC07FFFFFF0001FFFFF
310
F8001FFFFFFFFC000FF8001FFFFFFFFC000FFF0003FFFFFFFFFFFFFFF0000001
310
F000FFFFF800000001FFF8001C001FE001C000FFFF80007FFFFFF800000003FF
310
FFFF800000003FF80FFFFFFFFFFFFFC07FFFFFF0001FFFFFF8001FFFFFFFFC00
310
0FF8001FFFFFFFFC000FFF0003FFFFFFFFFFFFFE00000001F000FFFFC0000000
310
03FFF8001E001FC001E000FFFF80007FFFFF8000000007FFFFFC000000003FF8
310
0FFFFFFFFFFFFFC07FFFFFF0001FFFFFF8001FFFFFFFFC000FF8001FFFFFFFFC
310
000FFF0003FFFFFFFFFFFFE000000003F000FFFE0000000007FFF8001E000FC0
310
01E0007FFF80007FFFFE0000000007FFFFE0000000007FF80FFFFFFFFFFFFFC0
310
7FFFFFF0001FFFFFF0001FFFFFFFFC0007F0001FFFFFFFFC0007FF0003FFFFFF
310
FFFFFF0000000003F000FFF80000000007FFF8001E000FC003E0007FFF80007F
310
FFF0000000000FFFFF8000000000FFF80FFFFFFFFFFFFFC07FFFFFF0001FFFFF
310
F0001FFFFFFFFC0007F0001FFFFFFFFC0007FF0003FFFFFFFFFFFC0000000007
310
F000FFE0000000000FFFF0003E000FC003E0007FFF80007FFFC0000000001FFF
310
FE0000000001FFF80FFFFFFFFFFFFFC07FFFFFF0001FFFFFF0001FFFFFFFFC00
310
07F0001FFFFFFFFC0007FF0003FFFFFFFFFFF0000000000FF000FFC000000000
310
1FFFF0003F000F8003F0003FFF80007FFF80000000003FFFF80000000003FFF8
310
0FFFFFFFFFFFFFC07FFFFFF0001FFFFFF0001FFFFFFFFC0007F0001FFFFFFFFC
310
0007FF0003FFFFFFFFFFE0000000001FF000FF00000000007FFFF0003F000780
310
03F0003FFF80007FFF00000000007FFFF00000000007FFF80FFFFFFFFFFFFFC0
310
7FFFFFF0001FFFFFF0001FFFFFFFFC0007F0001FFFFFFFFC0007FF0003FFFFFF
310
FFFF80000000007FF000FE0000000000FFFFE0003F00078007F0003FFF80007F
310
FE0000000001FFFFE0000000001FFFF80FFFFFFFFFFFFFC07FFFFFF0001FFFFF
310
F0001FFFFFFFFC0007F0001FFFFFFFFC0007FF0003FFFFFFFFFF0000000000FF
310
F000FC0000000003FFFFE0007F00078007F0003FFF80007FFC0000000007FFFF
310
C0000000007FFFF80FFFFFFFFFFFFFC07FFFFFF0001FFFFFF8001FFFFFFFFC00
310
0FF8001FFFFFFFFC000FFF0003FFFFFFFFFE0000000003FFF000FC000000000F
310
FFFFE0007F80070007F8001FFF80007FF8000000001FFFFF8000000001FFFFF8
310
0FFFFFFFFFFFFFC07FFFFFF0001FFFFFF8001FFFFFFFFC000FF8001FFFFFFFFC
310
000FFF0003FFFFFFFFFC000000000FFFF000F8000000007FFFFFE0007F800700
310
07F8001FFF80007FF000000000FFFFFF800000000FFFFFF80FFFFFFFFFFFFFC0
310
7FFFFFF0001FFFFFF8000FFFFFFFF8000FF8000FFFFFFFF8000FFF0003FFFFFF
310
FFFC000000007FFFF000F800000007FFFFFFC0007F8003000FF8001FFF80007F
310
F000000007FFFFFF000000007FFFFFF80FFFFFFFFFFFFFC07FFFFFF0001FFFFF
310
F8000FFFFFFFF8000FF8000FFFFFFFF8000FFF0003FFFFFFFFF80000000FFFFF
310
F000F0000000FFFFFFFFC000FF8003000FF8001FFF80007FE0000000FFFFFFFF
310
0000000FFFFFFFF8000001FFFE0000007FFFFFF0001FFFFFF8000FFFFFFFF800
310
0FF8000FFFFFFFF8000FFF0003FFFFFFFFF8000000FFFFFFF000F000000FFFFF
310
FFFFC000FFC002000FF8000FFF80007FE000001FFFFFFFFE000001FFFFFFFFF8
310
000001FFFE0000007FFFFFF0001FFFFFF8000FFFFFFFF8000FF8000FFFFFFFF8
310
000FFF0003FFFFFFFFF000001FFFFFFFF000E00000FFFFFFFFFFC000FFC00200
310
0FFC000FFF80007FE00001FFFFFFFFFE00001FFFFFFFFFF8000001FFFE000000
310
7FFFFFF0001FFFFFFC000FFFFFFFF8001FFC000FFFFFFFF8001FFF0003FFFFFF
310
FFF00001FFFFFFFFF000E00007FFFFFFFFFF8000FFC000001FFC000FFF80007F
310
C0000FFFFFFFFFFE0000FFFFFFFFFFF8000001FFFE0000007FFFFFF0001FFFFF
310
FC0007FFFFFFF0001FFC0007FFFFFFF0001FFF0003FFFFFFFFF00007FFFFFFFF
310
F000E0001FFFFFFFFFFF8000FFC000001FFC000FFF80007FC0003FFFFFFFFFFE
310
0001FFFFFFFFFFF8000001FFFE0000007FFFFFF0001FFFFFFC0007FFFFFFF000
310
1FFC0007FFFFFFF0001FFF0003FFFFFFFFF0001FFFFFFFFFF000E0003FFFFF00
310
03FF8001FFE000001FFC0007FF80007FC0007FFFFF0007FC0003FFFFF0003FF8
310
000001FFFE0000007FFFFFF0001FFFFFFC0003FFFFFFE0001FFC0003FFFFFFE0
310
001FFF0003FFFFFFFFF0003FFFFFFFFFF000E0003FFFFF0001FF8001FFE00000
310
1FFE0007FF80007FC0007FFFFE0003FC0007FFFFE0003FF8000001FFFE000000
310
7FFFFFF0001FFFFFFE0003FFFFFFE0003FFE0003FFFFFFE0003FFF0003FFFFFF
310
FFF0003FFFFF8001F000E0003FFFFF0001FF0001FFE000001FFE0007FF80007F
310
C0007FFFFE0003FC0007FFFFE0003FF8000001FFFE0000007FFFFFF0001FFFFF
310
FE0001FFFFFFC0003FFE0001FFFFFFC0003FFF0003FFFFFFFFF0003FFFFF0001
310
F000E0003FFFFF0003FF0001FFE000003FFE0007FF80007FC0007FFFFE0003FC
310
0007FFFFE0003FF8000001FFFE0000007FFFFFF0001FFFFFFF0001FFFFFFC000
310
7FFF0001FFFFFFC0007FFF0003FFFFFFFFF0003FFFFF0001F000E0003FFFFE00
310
03FF0003FFF000003FFE0003FF80007FC0007FFFFC0003FE0007FFFFE0003FF8
310
000001FFFE0000007FFFFFF0001FFFFFFF0000FFFFFF80007FFF0000FFFFFF80
310
007FFF0003FFFFFFFFF0003FFFFF0001F000E0003FFFFE0003FF0003FFF00000
310
3FFF0003FF80007FC0007FFFFC0007FE0007FFFFC0003FF8000001FFFE000000
310
7FFFFFF0001FFFFFFF80007FFFFF0000FFFF80007FFFFF0000FFFF0003FFFFFF
310
FFF0003FFFFF0003F000E0003FFFFC0003FE0003FFF000003FFF0003FF80007F
310
E0003FFFF80007FE0003FFFFC0007FF8000001FFFE0000007FFFFFF0001FFFFF
310
FF80003FFFFE0000FFFF80003FFFFE0000FFFF0003FFFFFFFFF0001FFFFE0003
310
F000F0001FFFF80003FE0003FFF000007FFF0001FF80007FE0003FFFF00007FE
310
0001FFFF80007FF8000001FFFE0000007FFFFFF0001FFFFFFFC0000FFFF80001
310
FFFFC0000FFFF80001FFFF0003FFFFFFFFF0001FFFFC0003F000F0000FFFF000
310
07FE0007FFF800007FFF0001FF80007FE0001FFFE00007FF0000FFFE00007FF8
310
000001FFFE0000007FFFFFF0001FFFFFFFC00003FFE00001FFFFC00003FFE000
310
01FFFF0003FFFFFFFFF8000FFFF80003F000F00003FFC00007FC0007FFF80000
310
7FFF8001FF80007FF00007FF80000FFF00007FF80000FFF8000001FFFE000000
310
7F80000000000001FFE000003E000003FFFFE000003E000003FFFF0003FFFFFF
310
FFF80003FFE00007F000F800000000000FFC0007FFF800007FFF8001FF80007F
310
F000000000000FFF000000000000FFF8000001FFFE0000007F80000000000001
310
FFF0000000000007FFFFF0000000000007FFFF0003FFFFFFFFFC00007E000007
310
F000F800000000000FFC0007FFF80000FFFF8000FF80007FF800000000001FFF
310
800000000001FFF8000001FFFE0000007F80000000000001FFF800000000000F
310
FFFFF800000000000FFFFF0003FFFFFFFFFC00000000000FF000FC0000000000
310
1FFC0007FFFC0000FFFF8000FF80007FF800000000003FFFC00000000001FFF8
310
000001FFFE0000007F80000000000001FFF800000000000FFFFFF80000000000
310
0FFFFF0003FFFFFFFFFE00000000001FF000FE00000000003FF8000FFFFC0000
310
FFFF8000FF80007FFC00000000003FFFC00000000003FFF8000001FFFE000000
310
7F80000000000001FFFC00000000001FFFFFFC00000000001FFFFF0003FFFFFF
310
FFFF00000000001FF000FF00000000003FF8000FFFFC0000FFFFC000FF80007F
310
FE00000000007FFFE00000000007FFF8000001FFFE0000007F80000000000001
310
FFFE00000000003FFFFFFE00000000003FFFFF0003FFFFFFFFFF80000000003F
310
F000FF80000000007FF8000FFFFC0001FFFFC0007F80007FFF0000000000FFFF
310
F0000000000FFFF800000000000000007F80000000000001FFFF8000000000FF
310
FFFFFF8000000000FFFFFF0003FFFFFFFFFFC0000000007FF000FFC000000000
310
FFF8000FFFFE0001FFFFC0007F80007FFF8000000001FFFFF8000000001FFFF8
310
00000000000000007F80000000000001FFFFC000000001FFFFFFFFC000000001
310
FFFFFF0003FFFFFFFFFFE000000000FFF000FFE000000003FFF0001FFFFE0001
310
FFFFC0007F80007FFFC000000007FFFFFE000000003FFFF80000000000000000
310
7F80000000000001FFFFE000000003FFFFFFFFE000000003FFFFFF0003FFFFFF
310
FFFFF000000003FFF000FFF80000000FFFF0001FFFFE0001FFFFE0007F80007F
310
FFF00000000FFFFFFF00000000FFFFF800000000000000007F80000000000001
310
FFFFF80000000FFFFFFFFFF80000000FFFFFFF0003FFFFFFFFFFFC0000000FFF
310
F000FFFE0000003FFFF0001FFFFE0003FFFFE0003F80007FFFFC0000003FFFFF
310
FFC0000003FFFFF800000000000000007F80000000000001FFFFFE0000003FFF
310
FFFFFFFE0000003FFFFFFF0003FFFFFFFFFFFF0000003FFFF000FFFF800000FF
310
FFF0001FFFFF0003FFFFE0003F80007FFFFF000001FFFFFFFFF800001FFFFFF8
310
00000000000000007F80000000000001FFFFFFC00001FFFFFFFFFFFFC00001FF
310
FFFFFF0003FFFFFFFFFFFFC00000FFFFF000FFFFF8000FFFFFFFFFFFFFFFFFFF
310
FFFFFFFFFFFFFFFFFFFFF0001FFFFFFFFFFF0000FFFFFFF80000000000000000
310
7FFFFFFFFFFFFFFFFFFFFFFC001FFFFFFFFFFFFFFC001FFFFFFFFFFFFFFFFFFF
310
FFFFFFFC001FFFFFF000FFFFFFFFFFFFFFFFFFFFFFFFFFFFFFFFFFFFFFFFFFFF
310
FFFFFFFFFFFFFFFFFFFFFFFFFFFFFFFFFFFFFFFFFFFFFFFFFFFFFFFFFFFFFFFF
310
FFFFFFFFFFFFFFFFFFFFFFFFFFFFFFFFFFFFFFFFFFFFFFFFFFFFFFFFFFFFFFFF
310
F000FFFFFFFFFFFFFFFFFFFFFFFFFFFFFFFFFFFFFFFFFFFFFFFFFFFFFFFFFFFF
310
FFFFFFFFFFFFFFFFFFFFFFFFFFFFFFFFFFFFFFFFFFFFFFFFFFFFFFFFFFFFFFFF
310
FFFFFFFFFFFFFFFFFFFFFFFFFFFFFFFFFFFFFFFFFFFFFFFFF000FFFFFFFFFFFF
310
FFFFFFFFFFFFFFFFFFFFFFFFFFFFFFFFFFFFFFFFFFFFFFFFFFFFFFFFFFFFFFFF
310
FFFFFFFFFFFFFFFFFFFFFFFFFFFFFFFFFFFFFFFFFFFFFFFFFFFFFFFFFFFFFFFF
310
FFFFFFFFFFFFFFFFFFFFFFFFFFFFFFFFF000FFFFFFFFFFFFFFFFFFFFFFFFFFFF
310
FFFFFFFFFFFFFFFFFFFFFFFFFFFFFFFFFFFFFFFFFFFFFFFFFFFFFFFFFFFFFFFF
310
FFFFFFFFFFFFFFFFFFFFFFFFFFFFFFFFFFFFFFFFFFFFFFFFFFFFFFFFFFFFFFFF
310
FFFFFFFFFFFFFFFFF000FFFFFFFFFFFFFFFFFFFFFFFFFFFFFFFFFFFFFFFFFFFF
310
FFFFFFFFFFFFFFFFFFFFFFFFFFFFFFFFFFFFFFFFFFFFFFFFFFFFFFFFFFFFFFFF
310
FFFFFFFFFFFFFFFFFFFFFFFFFFFFFFFFFFFFFFFFFFFFFFFFFFFFFFFFFFFFFFFF
310
F000FFFFFFFFFFFFFFFFFFFFFFFFFFFFFFFFFFFFFFFFFFFFFFFFFFFFFFFFFFFF
310
FFFFFFFFFFFFFFFFFFFFFFFFFFFFFFFFFFFFFFFFFFFFFFFFFFFFFFFFFFFFFFFF
310
FFFFFFFFFFFFFFFFFFFFFFFFFFFFFFFFFFFFFFFFFFFFFFFFF000FFFFFFFFFFFF
310
FFFFFFFFFFFFFFFFFFFFFFFFFFFFFFFFFFFFFFFFFFFFFFFFFFFFFFFFFFFFFFFF
310
FFFFFFFFFFFFFFFFFFFFFFFFFFFFFFFFFFFFFFFFFFFFFFFFFFFFFFFFFFFFFFFF
310
FFFFFFFFFFFFFFFFFFFFFFFFFFFFFFFFF000FFFFFFFFFFFFFFFFFFFFFFFFFFFF
310
FFFFFFFFFFFFFFFFFFFFFFFFFFFFFFFFFFFFFFFFFFFFFFFFFFFFFFFFFFFFFFFF
310
FFFFFFFFFFFFFFFFFFFFFFFFFFFFFFFFFFFFFFFFFFFFFFFFFFFFFFFFFFFFFFFF
310
FFFFFFFFFFFFFFFFF000FFFFFFFFFFFFFFFFFFFFFFFFFFFFFFFFFFFFFFFFFFFF
310
FFFFFFFFFFFFFFFFFFFFFFFFFFFFFFFFFFFFFFFFFFFFFFFFFFFFFFFFFFFFFFFF
310
FFFFFFFFFFFFFFFFFFFFFFFFFFFFFFFFFFFFFFFFFFFFFFFFFFFFFFFFFFFFFFFF
310
F000FFFFFFFFFFFFFFFFFFFFFFFFFFFFFFFFFFFFFFFFFFFFFFFFFFFFFFFFFFFF
310
FFFFFFFFFFFFFFFFFFFFFFFFFFFFFFFFFFFFFFFFFFFFFFFFFFFFFFFFFFFFFFFF
310
FFFFFFFFFFFFFFFFFFFFFFFFFFFFFFFFFFFFFFFFFFFFFFFFF000FFFFFFFFFFFF
310
FFFFFFFFFFFFFFFFFFFFFFFFFFFFFFFFFFFFFFFFFFFFFFFFFFFFFFFFFFFFFFFF
310
FFFFFFFFFFFFFFFFFFFFFFFFFFFFFFFFFFFFFFFFFFFFFFFFFFFFFFFFFFFFFFFF
310
FFFFFFFFFFFFFFFFFFFFFFFFFFFFFFFFF000FFFFFFFFFFFFFFFFFFFFFFFFFFFF
310
FFFFFFFFFFFFFFFFFFFFFFFFFFFFFFFFFFFFFFFFFFFFFFFFFFFFFFFFFFFFFFFF
310
FFFFFFFFFFFFFFFFFFFFFFFFFFFFFFFFFFFFFFFFFFFFFFFFFFFFFFFFFFFFFFFF
310
FFFFFFFFFFFFFFFFF000FFFFFFFFFFFFFFFFFFFFFFFFFFFFFFFFFFFFFFFFFFFF
310
FFFFFFFFFFFFFFFFFFFFFFFFFFFFFFFFFFFFFFFFFFFFFFFFFFFFFFFFFFFFFFFF
310
FFFFFFFFFFFFFFFFFFFFFFFFFFFFFFFFFFFFFFFFFFFFFFFFFFFFFFFFFFFFFFFF
310
F000FFFFFFFFFFFFFFFFFFFFFFFFFFFFFFFFFFFFFFFFFFFFFFFFFFFFFFFFFFFF
310
FFFFFFFFFFFFFFFFFFFFFFFFFFFFFFFFFFFFFFFFFFFFFFFFFFFFFFFFFFFFFFFF
310
FFFFFFFFFFFFFFFFFFFFFFFFFFFFFFFFFFFFFFFFFFFFFFFFF000FFFFFFFFFFFF
310
FFFFFFFFFFFFFFFFFFFFFFFFFFFFFFFFFFFFFFFFFFFFFFFFFFFFFFFFFFFFFFFF
310
FFFFFFFFFFFFFFFFFFFFFFFFFFFFFFFFFFFFFFFFFFFFFFFFFFFFFFFFFFFFFFFF
310
FFFFFFFFFFFFFFFFFFFFFFFFFFFFFFFFF000FFFFFFFFFFFFFFFFFFFFFFFFFFFF
310
FFFFFFFFFFFFFFFFFFFFFFFFFFFFFFFFFFFFFFFFFFFFFFFFFFFFFFFFFFFFFFFF
310
FFFFFFFFFFFFFFFFFFFFFFFFFFFFFFFFFFFFFFFFFFFFFFFFFFFFFFFFFFFFFFFF
310
FFFFFFFFFFFFFFFFF000FFFFFFFFFFFFFFFFFFFFFFFFFFFFFFFFFFFFFFFFFFFF
310
FFFFFFFFFFFFFFFFFFFFFFFFFFFFFFFFFFFFFFFFFFFFFFFFFFFFFFFFFFFFFFFF
310
FFFFFFFFFFFFFFFFFFFFFFFFFFFFFFFFFFFFFFFFFFFFFFFFFFFFFFFFFFFFFFFF
310
F000FFFFFFFFFFFFFFFFFFFFFFFFFFFFFFFFFFFFFFFFFFFFFFFFFFFFFFFFFFFF
310
FFFFFFFFFFFFFFFFFFFFFFFFFFFFFFFFFFFFFFFFFFFFFFFFFFFFFFFFFFFFFFFF
310
FFFFFFFFFFFFFFFFFFFFFFFFFFFFFFFFFFFFFFFFFFFFFFFFF000FFFFFFFFFFFF
310
FFFFFFFFFFFFFFFFFFFFFFFFFFFFFFFFFFFFFFFFFFFFFFFFFFFFFFFFFFFFFFFF
310
FFFFFFFFFFFFFFFFFFFFFFFFFFFFFFFFFFFFFFFFFFFFFFFFFFFFFFFFFFFFFFFF
310
FFFFFFFFFFFFFFFFFFFFFFFFFFFFFFFFF000FFFFFFFFFFFFFFFFFFFFFFFFFFFF
310
FFFFFFFFFFFFFFFFFFFFFFFFFFFFFFFFFFFFFFFFFFFFFFFFFFFFFFFFFFFFFFFF
310
FFFFFFFFFFFFFFFFFFFFFFFFFFFFFFFFFFFFFFFFFFFFFFFFFFFFFFFFFFFFFFFF
310
FFFFFFFFFFFFFFFFF000FFFFFFFFFFFFFFFFFFFFFFFFFFFFFFFFFFFFFFFFFFFF
310
FFFFFFFFFFFFFFFFFFFFFFFFFFFFFFFFFFFFFFFFFFFFFFFFFFFFFFFFFFFFFFFF
310
FFFFFFFFFFFFFFFFFFFFFFFFFFFFFFFFFFFFFFFFFFFFFFFFFFFFFFFFFFFFFFFF
310
F000FFFFFFFFFFFFFFFFFFFFFFFFFFFFFFFFFFFFFFFFFFFFFFFFFFFFFFFFFFFF
310
FFFFFFFFFFFFFFFFFFFFFFFFFFFFFFFFFFFFFFFFFFFFFFFFFFFFFFFFFFFFFFFF
310
FFFFFFFFFFFFFFFFFFFFFFFFFFFFFFFFFFFFFFFFFFFFFFFFF000FFFFFFFFFFFF
310
FFFFFFFFFFFFFFFFFFFFFFFFFFFFFFFFFFFFFFFFFFFFFFFFFFFFFFFFFFFFFFFF
310
FFFFFFFFFFFFFFFFFFFFFFFFFFFFFFFFFFFFFFFFFFFFFFFFFFFFFFFFFFFFFFFF
310
FFFFFFFFFFFFFFFFFFFFFFFFFFFFFFFFF0000000000000000000000000000000
310
000000004B622F3EF87CFB3D4B622F3EF02FFA3D4B622F3EA890F83D4B622F3E
310
66A8F63D4B622F3E1282F43D4B622F3EF929F23D4B622F3E80ADEF3D4B622F3E
310
E11AED3D4B622F3ED180EA3D4B622F3E32EEE73D4B622F3EBA71E53D4B622F3E
310
A019E33D4B622F3E4CF3E03D4B622F3E0A0BDF3D4B622F3EC26BDD3D4B622F3E
310
BA1EDC3D4B622F3E632BDB3D4B622F3E2D97DA3D4B622F3E6665DA3D8D31363E
310
87EF103E8D31363E87EF103EADE1283E87EF103E9C99273E87EF103E9F59263E
310
87EF103E9729253E87EF103E0111243E87EF103EC416233E87EF103E0C41223E
310
87EF103E1A95213E87EF103E2B17213E87EF103E58CA203E87EF103E86B0203E
310
87EF103E58CA203E87EF103E2B17213E87EF103E1A95213E87EF103E0C41223E
310
87EF103EC416233E87EF103E0111243E87EF103E9729253E87EF103E9F59263E
310
87EF103E9C99273E87EF103EADE1283E87EF103E2C802C3E87EF103EADE1283E
310
87EF103ECF182C3E2EAC113ECF182C3EE65F123E8D31363E87EF103ED69A2F3E
310
87EF103E3302303EE65F123E3302303E2EAC113E8D31363E87EF103E8D31363E
310
FD76143E0AE9F53D3788CA3DF843F83D5171CB3D0AE9F53DE8F5C63D0AE9F53D
310
3788CA3DF843F83D3115063E0AE9F53DBD89063E0AE9F53DE552083E0AE9F53D
  1
OLE
  0
ENDSEC
  0
SECTION
  2
OBJECTS
  0
DICTIONARY
  5
C
330
0
100
AcDbDictionary
281
     1
  3
ACAD_GROUP
350
D
  3
ACAD_LAYOUT
350
1A
  3
ACAD_MLEADERSTYLE
350
29F
  3
ACAD_MLINESTYLE
350
17
  3
ACAD_PLOTSETTINGS
350
19
  3
ACAD_PLOTSTYLENAME
350
E
  3
ACAD_TABLESTYLE
350
29E
  3
ACAD_VISUALSTYLE
350
2A
  3
AcDbVariableDictionary
350
2A0
  0
DICTIONARY
  5
D
102
{ACAD_REACTORS
330
C
102
}
330
C
100
AcDbDictionary
281
     1
  0
DICTIONARY
  5
1A
102
{ACAD_REACTORS
330
C
102
}
330
C
100
AcDbDictionary
281
     1
  3
Layout1
350
1E
  3
Layout2
350
26
  3
Model
350
22
  0
DICTIONARY
  5
29F
102
{ACAD_REACTORS
330
C
102
}
330
C
100
AcDbDictionary
281
     1
  0
DICTIONARY
  5
17
102
{ACAD_REACTORS
330
C
102
}
330
C
100
AcDbDictionary
281
     1
  3
Standard
350
18
  0
DICTIONARY
  5
19
102
{ACAD_REACTORS
330
C
102
}
330
C
100
AcDbDictionary
281
     1
  0
ACDBDICTIONARYWDFLT
  5
E
102
{ACAD_REACTORS
330
C
102
}
330
C
100
AcDbDictionary
281
     1
  3
Normal
350
F
100
AcDbDictionaryWithDefault
340
F
  0
DICTIONARY
  5
29E
102
{ACAD_REACTORS
330
C
102
}
330
C
100
AcDbDictionary
281
     1
  0
DICTIONARY
  5
2A
102
{ACAD_REACTORS
330
C
102
}
330
C
100
AcDbDictionary
281
     1
  3
2dWireframe
350
2F
  3
3D Hidden
350
31
  3
3dWireframe
350
30
  3
Basic
350
32
  3
Brighten
350
36
  3
ColorChange
350
3A
  3
Conceptual
350
34
  3
Dim
350
35
  3
Facepattern
350
39
  3
Flat
350
2B
  3
FlatWithEdges
350
2C
  3
Gouraud
350
2D
  3
GouraudWithEdges
350
2E
  3
Linepattern
350
38
  3
Realistic
350
33
  3
Thicken
350
37
  0
DICTIONARY
  5
2A0
102
{ACAD_REACTORS
330
C
102
}
330
C
100
AcDbDictionary
281
     1
  3
PSOLHEIGHT
350
2A2
  3
PSOLWIDTH
350
2A1
  0
LAYOUT
  5
1E
102
{ACAD_REACTORS
330
1A
102
}
330
1A
100
AcDbPlotSettings
  1

  2
none_device
  4

  6

 40
0.0
 41
0.0
 42
0.0
 43
0.0
 44
0.0
 45
0.0
 46
0.0
 47
0.0
 48
0.0
 49
0.0
140
0.0
141
0.0
142
1.0
143
1.0
 70
   688
 72
     0
 73
     0
 74
     5
  7

 75
    16
147
1.0
148
0.0
149
0.0
100
AcDbLayout
  1
Layout1
 70
     1
 71
     1
 10
0.0
 20
0.0
 11
420.0
 21
297.0
 12
0.0
 22
0.0
 32
0.0
 14
1.0000000000E+20
 24
1.0000000000E+20
 34
1.0000000000E+20
 15
-1.0000000000E+20
 25
-1.0000000000E+20
 35
-1.0000000000E+20
146
0.0
 13
0.0
 23
0.0
 33
0.0
 16
1.0
 26
0.0
 36
0.0
 17
0.0
 27
1.0
 37
0.0
 76
     0
330
1B
  0
LAYOUT
  5
26
102
{ACAD_REACTORS
330
1A
102
}
330
1A
100
AcDbPlotSettings
  1

  2
none_device
  4

  6

 40
0.0
 41
0.0
 42
0.0
 43
0.0
 44
0.0
 45
0.0
 46
0.0
 47
0.0
 48
0.0
 49
0.0
140
0.0
141
0.0
142
1.0
143
1.0
 70
   688
 72
     0
 73
     0
 74
     5
  7

 75
    16
147
1.0
148
0.0
149
0.0
100
AcDbLayout
  1
Layout2
 70
     1
 71
     2
 10
0.0
 20
0.0
 11
0.0
 21
0.0
 12
0.0
 22
0.0
 32
0.0
 14
0.0
 24
0.0
 34
0.0
 15
0.0
 25
0.0
 35
0.0
146
0.0
 13
0.0
 23
0.0
 33
0.0
 16
1.0
 26
0.0
 36
0.0
 17
0.0
 27
1.0
 37
0.0
 76
     0
330
23
  0
LAYOUT
  5
22
102
{ACAD_REACTORS
330
1A
102
}
330
1A
100
AcDbPlotSettings
  1

  2
none_device
  4

  6

 40
0.0
 41
0.0
 42
0.0
 43
0.0
 44
0.0
 45
0.0
 46
0.0
 47
0.0
 48
0.0
 49
0.0
140
0.0
141
0.0
142
1.0
143
1.0
 70
  1712
 72
     0
 73
     0
 74
     0
  7

 75
     0
147
1.0
148
0.0
149
0.0
100
AcDbLayout
  1
Model
 70
     1
 71
     0
 10
0.0
 20
0.0
 11
297.0
 21
210.0
 12
0.0
 22
0.0
 32
0.0
 14
0.0
 24
0.0
 34
0.0
 15
297.0
 25
210.0
 35
0.0
146
0.0
 13
0.0
 23
0.0
 33
0.0
 16
1.0
 26
0.0
 36
0.0
 17
0.0
 27
1.0
 37
0.0
 76
     0
330
1F
331
29
  0
MLINESTYLE
  5
18
102
{ACAD_REACTORS
330
17
102
}
330
17
100
AcDbMlineStyle
  2
Standard
 70
     0
  3

 62
   256
 51
90.0
 52
90.0
 71
     2
 49
0.5
 62
   256
  6
BYLAYER
 49
-0.5
 62
   256
  6
BYLAYER
  0
ACDBPLACEHOLDER
  5
F
102
{ACAD_REACTORS
330
E
102
}
330
E
  0
VISUALSTYLE
  5
2F
102
{ACAD_REACTORS
330
2A
102
}
330
2A
100
AcDbVisualStyle
  2
2dWireframe
 70
     4
 71
     0
 72
     2
 73
     0
 90
        0
 40
-0.6
 41
-30.0
 62
     5
 63
     7
 74
     1
 91
        4
 64
     7
 65
   257
 75
     1
175
     1
 42
1.0
 92
        0
 66
   257
 43
1.0
 76
     1
 77
     6
 78
     2
 67
     7
 79
     5
170
     0
171
     0
290
     0
174
     0
 93
        1
 44
0.0
173
     0
291
     0
 45
0.0
1001
ACAD
1000
AcDbSavedByObjectVersion
1070
     0
  0
VISUALSTYLE
  5
31
102
{ACAD_REACTORS
330
2A
102
}
330
2A
100
AcDbVisualStyle
  2
3D Hidden
 70
     6
 71
     1
 72
     2
 73
     2
 90
        0
 40
-0.6
 41
-30.0
 62
     5
 63
     7
 74
     2
 91
        2
 64
     7
 65
   257
 75
     2
175
     1
 42
40.0
 92
        0
 66
   257
 43
1.0
 76
     1
 77
     6
 78
     2
 67
     7
 79
     3
170
     0
171
     0
290
     0
174
     0
 93
        1
 44
0.0
173
     0
291
     0
 45
0.0
1001
ACAD
1000
AcDbSavedByObjectVersion
1070
     0
  0
VISUALSTYLE
  5
30
102
{ACAD_REACTORS
330
2A
102
}
330
2A
100
AcDbVisualStyle
  2
3dWireframe
 70
     5
 71
     0
 72
     2
 73
     0
 90
        0
 40
-0.6
 41
-30.0
 62
     5
 63
     7
 74
     1
 91
        4
 64
     7
 65
   257
 75
     1
175
     1
 42
1.0
 92
        0
 66
   257
 43
1.0
 76
     1
 77
     6
 78
     2
 67
     7
 79
     5
170
     0
171
     0
290
     0
174
     0
 93
        1
 44
0.0
173
     0
291
     0
 45
0.0
1001
ACAD
1000
AcDbSavedByObjectVersion
1070
     0
  0
VISUALSTYLE
  5
32
102
{ACAD_REACTORS
330
2A
102
}
330
2A
100
AcDbVisualStyle
  2
Basic
 70
     7
 71
     1
 72
     0
 73
     1
 90
        0
 40
-0.6
 41
-30.0
 62
     5
 63
     7
 74
     0
 91
        4
 64
     7
 65
   257
 75
     1
175
     1
 42
1.0
 92
        8
 66
     7
 43
1.0
 76
     1
 77
     6
 78
     2
 67
     7
 79
     5
170
     0
171
     0
290
     0
174
     0
 93
        1
 44
0.0
173
     0
291
     1
 45
0.0
1001
ACAD
1000
AcDbSavedByObjectVersion
1070
     0
  0
VISUALSTYLE
  5
36
102
{ACAD_REACTORS
330
2A
102
}
330
2A
100
AcDbVisualStyle
  2
Brighten
 70
    12
 71
     2
 72
     2
 73
     0
 90
        0
 40
-0.6
 41
-30.0
 62
     5
 63
     7
 74
     1
 91
        4
 64
     7
 65
   257
 75
     1
175
     1
 42
1.0
 92
        8
 66
     7
 43
1.0
 76
     1
 77
     6
 78
     2
 67
     7
 79
     5
170
     0
171
     0
290
     0
174
     0
 93
        1
 44
50.0
173
     0
291
     1
 45
0.0
1001
ACAD
1000
AcDbSavedByObjectVersion
1070
     0
  0
VISUALSTYLE
  5
3A
102
{ACAD_REACTORS
330
2A
102
}
330
2A
100
AcDbVisualStyle
  2
ColorChange
 70
    16
 71
     2
 72
     2
 73
     3
 90
        0
 40
-0.6
 41
-30.0
 62
     5
 63
     8
 74
     1
 91
        4
 64
     7
 65
   257
 75
     1
175
     1
 42
1.0
 92
        8
 66
     8
 43
1.0
 76
     1
 77
     6
 78
     2
 67
     7
 79
     5
170
     0
171
     0
290
     0
174
     0
 93
        1
 44
0.0
173
     0
291
     1
 45
0.0
1001
ACAD
1000
AcDbSavedByObjectVersion
1070
     0
  0
VISUALSTYLE
  5
34
102
{ACAD_REACTORS
330
2A
102
}
330
2A
100
AcDbVisualStyle
  2
Conceptual
 70
     9
 71
     3
 72
     2
 73
     0
 90
        0
 40
-0.6
 41
-30.0
 62
     5
 63
     7
 74
     2
 91
        2
 64
     7
 65
   257
 75
     1
175
     1
 42
40.0
 92
        8
 66
     7
 43
1.0
 76
     1
 77
     6
 78
     2
 67
     7
 79
     3
170
     0
171
     0
290
     0
174
     0
 93
        1
 44
0.0
173
     0
291
     0
 45
0.0
1001
ACAD
1000
AcDbSavedByObjectVersion
1070
     0
  0
VISUALSTYLE
  5
35
102
{ACAD_REACTORS
330
2A
102
}
330
2A
100
AcDbVisualStyle
  2
Dim
 70
    11
 71
     2
 72
     2
 73
     0
 90
        0
 40
-0.6
 41
-30.0
 62
     5
 63
     7
 74
     1
 91
        4
 64
     7
 65
   257
 75
     1
175
     1
 42
1.0
 92
        8
 66
     7
 43
1.0
 76
     1
 77
     6
 78
     2
 67
     7
 79
     5
170
     0
171
     0
290
     0
174
     0
 93
        1
 44
-50.0
173
     0
291
     1
 45
0.0
1001
ACAD
1000
AcDbSavedByObjectVersion
1070
     0
  0
VISUALSTYLE
  5
39
102
{ACAD_REACTORS
330
2A
102
}
330
2A
100
AcDbVisualStyle
  2
Facepattern
 70
    15
 71
     2
 72
     2
 73
     0
 90
        0
 40
-0.6
 41
-30.0
 62
     5
 63
     7
 74
     1
 91
        4
 64
     7
 65
   257
 75
     1
175
     1
 42
1.0
 92
        8
 66
     7
 43
1.0
 76
     1
 77
     6
 78
     2
 67
     7
 79
     5
170
     0
171
     0
290
     0
174
     0
 93
        1
 44
0.0
173
     0
291
     1
 45
0.0
1001
ACAD
1000
AcDbSavedByObjectVersion
1070
     0
  0
VISUALSTYLE
  5
2B
102
{ACAD_REACTORS
330
2A
102
}
330
2A
100
AcDbVisualStyle
  2
Flat
 70
     0
 71
     2
 72
     1
 73
     1
 90
        2
 40
-0.6
 41
30.0
 62
     5
 63
     7
 74
     0
 91
        4
 64
     7
 65
   257
 75
     1
175
     1
 42
1.0
 92
        8
 66
     7
 43
1.0
 76
     1
 77
     6
 78
     2
 67
     7
 79
     5
170
     0
171
     0
290
     0
174
     0
 93
       13
 44
0.0
173
     0
291
     1
 45
0.0
1001
ACAD
1000
AcDbSavedByObjectVersion
1070
     0
  0
VISUALSTYLE
  5
2C
102
{ACAD_REACTORS
330
2A
102
}
330
2A
100
AcDbVisualStyle
  2
FlatWithEdges
 70
     1
 71
     2
 72
     1
 73
     1
 90
        2
 40
-0.6
 41
30.0
 62
     5
 63
     7
 74
     1
 91
        4
 64
     7
 65
   257
 75
     1
175
     1
 42
1.0
 92
        0
 66
   257
 43
1.0
 76
     1
 77
     6
 78
     2
 67
     7
 79
     5
170
     0
171
     0
290
     0
174
     0
 93
       13
 44
0.0
173
     0
291
     1
 45
0.0
1001
ACAD
1000
AcDbSavedByObjectVersion
1070
     0
  0
VISUALSTYLE
  5
2D
102
{ACAD_REACTORS
330
2A
102
}
330
2A
100
AcDbVisualStyle
  2
Gouraud
 70
     2
 71
     2
 72
     2
 73
     1
 90
        2
 40
-0.6
 41
30.0
 62
     5
 63
     7
 74
     0
 91
        4
 64
     7
 65
   257
 75
     1
175
     1
 42
1.0
 92
        0
 66
     7
 43
1.0
 76
     1
 77
     6
 78
     2
 67
     7
 79
     5
170
     0
171
     0
290
     0
174
     0
 93
       13
 44
0.0
173
     0
291
     1
 45
0.0
1001
ACAD
1000
AcDbSavedByObjectVersion
1070
     0
  0
VISUALSTYLE
  5
2E
102
{ACAD_REACTORS
330
2A
102
}
330
2A
100
AcDbVisualStyle
  2
GouraudWithEdges
 70
     3
 71
     2
 72
     2
 73
     1
 90
        2
 40
-0.6
 41
30.0
 62
     5
 63
     7
 74
     1
 91
        4
 64
     7
 65
   257
 75
     1
175
     1
 42
1.0
 92
        0
 66
   257
 43
1.0
 76
     1
 77
     6
 78
     2
 67
     7
 79
     5
170
     0
171
     0
290
     0
174
     0
 93
       13
 44
0.0
173
     0
291
     1
 45
0.0
1001
ACAD
1000
AcDbSavedByObjectVersion
1070
     0
  0
VISUALSTYLE
  5
38
102
{ACAD_REACTORS
330
2A
102
}
330
2A
100
AcDbVisualStyle
  2
Linepattern
 70
    14
 71
     2
 72
     2
 73
     0
 90
        0
 40
-0.6
 41
-30.0
 62
     5
 63
     7
 74
     1
 91
        4
 64
     7
 65
   257
 75
     7
175
     7
 42
1.0
 92
        8
 66
     7
 43
1.0
 76
     1
 77
     6
 78
     2
 67
     7
 79
     5
170
     0
171
     0
290
     0
174
     0
 93
        1
 44
0.0
173
     0
291
     1
 45
0.0
1001
ACAD
1000
AcDbSavedByObjectVersion
1070
     0
  0
VISUALSTYLE
  5
33
102
{ACAD_REACTORS
330
2A
102
}
330
2A
100
AcDbVisualStyle
  2
Realistic
 70
     8
 71
     2
 72
     2
 73
     0
 90
        0
 40
-0.6
 41
-30.0
 62
     5
 63
     7
 74
     1
 91
        0
 64
     7
 65
   257
 75
     1
175
     1
 42
1.0
 92
        8
 66
     8
 43
1.0
 76
     1
 77
     6
 78
     2
 67
     7
 79
     5
170
     0
171
     0
290
     0
174
     0
 93
       13
 44
0.0
173
     0
291
     0
 45
0.0
1001
ACAD
1000
AcDbSavedByObjectVersion
1070
     0
  0
VISUALSTYLE
  5
37
102
{ACAD_REACTORS
330
2A
102
}
330
2A
100
AcDbVisualStyle
  2
Thicken
 70
    13
 71
     2
 72
     2
 73
     0
 90
        0
 40
-0.6
 41
-30.0
 62
     5
 63
     7
 74
     1
 91
        4
 64
     7
 65
   257
 75
     1
175
     1
 42
1.0
 92
       12
 66
     7
 43
1.0
 76
     1
 77
     6
 78
     2
 67
     7
 79
     5
170
     0
171
     0
290
     0
174
     0
 93
        1
 44
0.0
173
     0
291
     1
 45
0.0
1001
ACAD
1000
AcDbSavedByObjectVersion
1070
     0
  0
DICTIONARYVAR
  5
2A2
102
{ACAD_REACTORS
330
2A0
102
}
330
2A0
100
DictionaryVariables
280
     0
  1
80.000000
  0
DICTIONARYVAR
  5
2A1
102
{ACAD_REACTORS
330
2A0
102
}
330
2A0
100
DictionaryVariables
280
     0
  1
5.000000
  0
ENDSEC
  0
EOF
