  0
SECTION
  2
HEADER
  9
$ACADVER
  1
AC1015
  9
$ACADMAINTVER
 70
     6
  9
$DWGCODEPAGE
  3
ANSI_1252
  9
$INSBASE
 10
0.0
 20
0.0
 30
0.0
  9
$EXTMIN
 10
0.0
 20
0.0
 30
0.0
  9
$EXTMAX
 10
297.0
 20
210.0
 30
0.0
  9
$LIMMIN
 10
0.0
 20
0.0
  9
$LIMMAX
 10
297.0
 20
210.0
  9
$ORTHOMODE
 70
     0
  9
$REGENMODE
 70
     1
  9
$FILLMODE
 70
     1
  9
$QTEXTMODE
 70
     0
  9
$MIRRTEXT
 70
     1
  9
$LTSCALE
 40
1.0
  9
$ATTMODE
 70
     1
  9
$TEXTSIZE
 40
2.0
  9
$TRACEWID
 40
1.0
  9
$TEXTSTYLE
  7
Standard
  9
$CLAYER
  8
0
  9
$CELTYPE
  6
ByLayer
  9
$CECOLOR
 62
   256
  9
$CELTSCALE
 40
1.0
  9
$DISPSILH
 70
     0
  9
$DIMSCALE
 40
1.0
  9
$DIMASZ
 40
3.0
  9
$DIMEXO
 40
0.0
  9
$DIMDLI
 40
3.75
  9
$DIMRND
 40
0.0
  9
$DIMDLE
 40
0.0
  9
$DIMEXE
 40
1.0
  9
$DIMTP
 40
0.0
  9
$DIMTM
 40
0.0
  9
$DIMTXT
 40
2.0
  9
$DIMCEN
 40
2.5
  9
$DIMTSZ
 40
0.0
  9
$DIMTOL
 70
     0
  9
$DIMLIM
 70
     0
  9
$DIMTIH
 70
     1
  9
$DIMTOH
 70
     1
  9
$DIMSE1
 70
     0
  9
$DIMSE2
 70
     0
  9
$DIMTAD
 70
     1
  9
$DIMZIN
 70
     0
  9
$DIMBLK
  1

  9
$DIMASO
 70
     1
  9
$DIMSHO
 70
     1
  9
$DIMPOST
  1

  9
$DIMAPOST
  1

  9
$DIMALT
 70
     0
  9
$DIMALTD
 70
     3
  9
$DIMALTF
 40
0.0393700787
  9
$DIMLFAC
 40
1.0
  9
$DIMTOFL
 70
     1
  9
$DIMTVP
 40
0.0
  9
$DIMTIX
 70
     0
  9
$DIMSOXD
 70
     0
  9
$DIMSAH
 70
     0
  9
$DIMBLK1
  1

  9
$DIMBLK2
  1

  9
$DIMSTYLE
  2
ISO-25
  9
$DIMCLRD
 70
     0
  9
$DIMCLRE
 70
     0
  9
$DIMCLRT
 70
     0
  9
$DIMTFAC
 40
1.0
  9
$DIMGAP
 40
1.524
  9
$DIMJUST
 70
     0
  9
$DIMSD1
 70
     0
  9
$DIMSD2
 70
     0
  9
$DIMTOLJ
 70
     0
  9
$DIMTZIN
 70
     0
  9
$DIMALTZ
 70
     0
  9
$DIMALTTZ
 70
     0
  9
$DIMUPT
 70
     0
  9
$DIMDEC
 70
     2
  9
$DIMTDEC
 70
     3
  9
$DIMALTU
 70
     2
  9
$DIMALTTD
 70
     3
  9
$DIMTXSTY
  7
Standard
  9
$DIMAUNIT
 70
     0
  9
$DIMADEC
 70
     2
  9
$DIMALTRND
 40
0.0
  9
$DIMAZIN
 70
     0
  9
$DIMDSEP
 70
    44
  9
$DIMATFIT
 70
     3
  9
$DIMFRAC
 70
     0
  9
$DIMLDRBLK
  1

  9
$DIMLUNIT
 70
     2
  9
$DIMLWD
 70
    -2
  9
$DIMLWE
 70
    -2
  9
$DIMTMOVE
 70
     0
  9
$LUNITS
 70
     2
  9
$LUPREC
 70
     2
  9
$SKETCHINC
 40
1.0
  9
$FILLETRAD
 40
10.0
  9
$AUNITS
 70
     0
  9
$AUPREC
 70
     2
  9
$MENU
  1
.
  9
$ELEVATION
 40
0.0
  9
$PELEVATION
 40
0.0
  9
$THICKNESS
 40
0.0
  9
$LIMCHECK
 70
     0
  9
$CHAMFERA
 40
10.0
  9
$CHAMFERB
 40
10.0
  9
$CHAMFERC
 40
20.0
  9
$CHAMFERD
 40
0.0
  9
$SKPOLY
 70
     0
  9
$TDCREATE
 40
2455358.470017917
  9
$TDUCREATE
 40
2455358.386684584
  9
$TDUPDATE
 40
2455358.470017928
  9
$TDUUPDATE
 40
2455358.386684595
  9
$TDINDWG
 40
0.0000000116
  9
$TDUSRTIMER
 40
0.0000000116
  9
$USRTIMER
 70
     1
  9
$ANGBASE
 50
0.0
  9
$ANGDIR
 70
     0
  9
$PDMODE
 70
     0
  9
$PDSIZE
 40
-1.0
  9
$PLINEWID
 40
0.0
  9
$SPLFRAME
 70
     0
  9
$SPLINETYPE
 70
     6
  9
$SPLINESEGS
 70
     8
  9
$HANDSEED
  5
280
  9
$SURFTAB1
 70
     6
  9
$SURFTAB2
 70
     6
  9
$SURFTYPE
 70
     6
  9
$SURFU
 70
     6
  9
$SURFV
 70
     6
  9
$UCSBASE
  2

  9
$UCSNAME
  2

  9
$UCSORG
 10
0.0
 20
0.0
 30
0.0
  9
$UCSXDIR
 10
1.0
 20
0.0
 30
0.0
  9
$UCSYDIR
 10
0.0
 20
1.0
 30
0.0
  9
$UCSORTHOREF
  2

  9
$UCSORTHOVIEW
 70
     0
  9
$UCSORGTOP
 10
0.0
 20
0.0
 30
0.0
  9
$UCSORGBOTTOM
 10
0.0
 20
0.0
 30
0.0
  9
$UCSORGLEFT
 10
0.0
 20
0.0
 30
0.0
  9
$UCSORGRIGHT
 10
0.0
 20
0.0
 30
0.0
  9
$UCSORGFRONT
 10
0.0
 20
0.0
 30
0.0
  9
$UCSORGBACK
 10
0.0
 20
0.0
 30
0.0
  9
$PUCSBASE
  2

  9
$PUCSNAME
  2

  9
$PUCSORG
 10
0.0
 20
0.0
 30
0.0
  9
$PUCSXDIR
 10
1.0
 20
0.0
 30
0.0
  9
$PUCSYDIR
 10
0.0
 20
1.0
 30
0.0
  9
$PUCSORTHOREF
  2

  9
$PUCSORTHOVIEW
 70
     0
  9
$PUCSORGTOP
 10
0.0
 20
0.0
 30
0.0
  9
$PUCSORGBOTTOM
 10
0.0
 20
0.0
 30
0.0
  9
$PUCSORGLEFT
 10
0.0
 20
0.0
 30
0.0
  9
$PUCSORGRIGHT
 10
0.0
 20
0.0
 30
0.0
  9
$PUCSORGFRONT
 10
0.0
 20
0.0
 30
0.0
  9
$PUCSORGBACK
 10
0.0
 20
0.0
 30
0.0
  9
$USERI1
 70
     0
  9
$USERI2
 70
     0
  9
$USERI3
 70
     0
  9
$USERI4
 70
     0
  9
$USERI5
 70
     0
  9
$USERR1
 40
0.0
  9
$USERR2
 40
0.0
  9
$USERR3
 40
0.0
  9
$USERR4
 40
0.0
  9
$USERR5
 40
0.0
  9
$WORLDVIEW
 70
     1
  9
$SHADEDGE
 70
     3
  9
$SHADEDIF
 70
    70
  9
$TILEMODE
 70
     1
  9
$MAXACTVP
 70
    64
  9
$PINSBASE
 10
0.0
 20
0.0
 30
0.0
  9
$PLIMCHECK
 70
     0
  9
$PEXTMIN
 10
1.0000000000E+20
 20
1.0000000000E+20
 30
1.0000000000E+20
  9
$PEXTMAX
 10
-1.0000000000E+20
 20
-1.0000000000E+20
 30
-1.0000000000E+20
  9
$PLIMMIN
 10
0.0
 20
0.0
  9
$PLIMMAX
 10
420.0
 20
297.0
  9
$UNITMODE
 70
     0
  9
$VISRETAIN
 70
     1
  9
$PLINEGEN
 70
     0
  9
$PSLTSCALE
 70
     1
  9
$TREEDEPTH
 70
  3020
  9
$CMLSTYLE
  2
Standard
  9
$CMLJUST
 70
     0
  9
$CMLSCALE
 40
20.0
  9
$PROXYGRAPHICS
 70
     1
  9
$MEASUREMENT
 70
     1
  9
$CELWEIGHT
370
    -1
  9
$ENDCAPS
280
     0
  9
$JOINSTYLE
280
     0
  9
$LWDISPLAY
290
     1
  9
$INSUNITS
 70
     4
  9
$HYPERLINKBASE
  1

  9
$STYLESHEET
  1

  9
$XEDIT
290
     1
  9
$CEPSNTYPE
380
     0
  9
$PSTYLEMODE
290
     1
  9
$FINGERPRINTGUID
  2
{415BF810-BB65-4843-BBB9-2A1DAA5A08D0}
  9
$VERSIONGUID
  2
{FAEB1C32-E019-11D5-929B-00C0DF256EC4}
  9
$EXTNAMES
290
     1
  9
$PSVPSCALE
 40
0.0
  9
$OLESTARTUP
290
     0
  0
ENDSEC
  0
SECTION
  2
CLASSES
  0
CLASS
  1
ACDBDICTIONARYWDFLT
  2
AcDbDictionaryWithDefault
  3
ObjectDBX Classes
 90
        0
280
     0
281
     0
  0
CLASS
  1
VISUALSTYLE
  2
AcDbVisualStyle
  3
ObjectDBX Classes
 90
     4095
280
     0
281
     0
  0
CLASS
  1
DICTIONARYVAR
  2
AcDbDictionaryVar
  3
ObjectDBX Classes
 90
        0
280
     0
281
     0
  0
CLASS
  1
ACDBPLACEHOLDER
  2
AcDbPlaceHolder
  3
ObjectDBX Classes
 90
        0
280
     0
281
     0
  0
CLASS
  1
LAYOUT
  2
AcDbLayout
  3
ObjectDBX Classes
 90
        0
280
     0
281
     0
  0
ENDSEC
  0
SECTION
  2
TABLES
  0
TABLE
  2
VPORT
  5
8
330
0
100
AcDbSymbolTable
 70
     1
  0
VPORT
  5
29
330
8
100
AcDbSymbolTableRecord
100
AcDbViewportTableRecord
  2
*Active
 70
     0
 10
0.0
 20
0.0
 11
1.0
 21
1.0
 12
148.5
 22
105.0
 13
0.0
 23
0.0
 14
10.0
 24
10.0
 15
10.0
 25
10.0
 16
0.0
 26
0.0
 36
1.0
 17
0.0
 27
0.0
 37
0.0
 40
210.0
 41
1.4142857143
 42
50.0
 43
0.0
 44
0.0
 50
0.0
 51
0.0
 71
     0
 72
  2000
 73
     1
 74
     3
 75
     0
 76
     0
 77
     0
 78
     0
281
     0
 65
     1
110
0.0
120
0.0
130
0.0
111
1.0
121
0.0
131
0.0
112
0.0
122
1.0
132
0.0
 79
     0
146
0.0
  0
ENDTAB
  0
TABLE
  2
LTYPE
  5
5
330
0
100
AcDbSymbolTable
 70
     6
  0
LTYPE
  5
14
330
5
100
AcDbSymbolTableRecord
100
AcDbLinetypeTableRecord
  2
ByBlock
 70
     0
  3

 72
    65
 73
     0
 40
0.0
  0
LTYPE
  5
15
330
5
100
AcDbSymbolTableRecord
100
AcDbLinetypeTableRecord
  2
ByLayer
 70
     0
  3

 72
    65
 73
     0
 40
0.0
  0
LTYPE
  5
16
330
5
100
AcDbSymbolTableRecord
100
AcDbLinetypeTableRecord
  2
Continuous
 70
     0
  3
Solid line
 72
    65
 73
     0
 40
0.0
  0
LTYPE
  5
3B
330
5
100
AcDbSymbolTableRecord
100
AcDbLinetypeTableRecord
  2
HIDDEN
 70
     0
  3
Hidden __ __ __ __ __ __ __ __ __ __ __ __ __ __
 72
    65
 73
     2
 40
1.905
 49
1.27
 74
     0
 49
-0.635
 74
     0
  0
LTYPE
  5
3C
330
5
100
AcDbSymbolTableRecord
100
AcDbLinetypeTableRecord
  2
PHANTOM
 70
     0
  3
Phantom ______  __  __  ______  __  __  ______
 72
    65
 73
     6
 40
12.7
 49
6.35
 74
     0
 49
-1.27
 74
     0
 49
1.27
 74
     0
 49
-1.27
 74
     0
 49
1.27
 74
     0
 49
-1.27
 74
     0
  0
LTYPE
  5
3D
330
5
100
AcDbSymbolTableRecord
100
AcDbLinetypeTableRecord
  2
CENTER
 70
     0
  3
Center ____ _ ____ _ ____ _ ____ _ ____ _ ____
 72
    65
 73
     4
 40
10.16
 49
6.35
 74
     0
 49
-1.27
 74
     0
 49
1.27
 74
     0
 49
-1.27
 74
     0
  0
LTYPE
  5
3E
330
5
100
AcDbSymbolTableRecord
100
AcDbLinetypeTableRecord
  2
CENTERX2
 70
     0
  3
Center (2x) ________  __  ________  __  _____
 72
    65
 73
     4
 40
20.32
 49
12.7
 74
     0
 49
-2.54
 74
     0
 49
2.54
 74
     0
 49
-2.54
 74
     0
  0
LTYPE
  5
3F
330
5
100
AcDbSymbolTableRecord
100
AcDbLinetypeTableRecord
  2
DOT2
 70
     0
  3
Dot (.5x) ........................................
 72
    65
 73
     2
 40
0.635
 49
0.0
 74
     0
 49
-0.635
 74
     0
  0
ENDTAB
  0
TABLE
  2
LAYER
  5
2
330
0
100
AcDbSymbolTable
 70
     5
  0
LAYER
  5
10
330
2
100
AcDbSymbolTableRecord
100
AcDbLayerTableRecord
  2
0
 70
     0
 62
     7
  6
Continuous
370
    -3
390
F
  0
LAYER
  5
40
330
2
100
AcDbSymbolTableRecord
100
AcDbLayerTableRecord
  2
FORMAT
 70
     0
 62
     7
  6
Continuous
370
    -3
390
F
  0
LAYER
  5
41
330
2
100
AcDbSymbolTableRecord
100
AcDbLayerTableRecord
  2
VERMASSUNG
 70
     0
 62
     7
  6
Continuous
370
    -3
390
F
  0
LAYER
  5
42
330
2
100
AcDbSymbolTableRecord
100
AcDbLayerTableRecord
  2
KOPF_DÜNN
 70
     0
 62
     7
  6
Continuous
370
    -3
390
F
  0
LAYER
  5
43
330
2
100
AcDbSymbolTableRecord
100
AcDbLayerTableRecord
  2
KOPF_DICK
 70
     0
 62
     7
  6
Continuous
370
    15
390
F
  0
ENDTAB
  0
TABLE
  2
STYLE
  5
3
330
0
100
AcDbSymbolTable
 70
     3
  0
STYLE
  5
11
330
3
100
AcDbSymbolTableRecord
100
AcDbTextStyleTableRecord
  2
Standard
 70
     0
 40
0.0
 41
1.0
 50
0.0
 71
     0
 42
2.5
  3
txt
  4

  0
STYLE
  5
44
330
3
100
AcDbSymbolTableRecord
100
AcDbTextStyleTableRecord
  2
SLDTEXTSTYLE0
 70
     0
 40
0.0
 41
0.7
 50
0.0
 71
     0
 42
0.2
  3
TXT
  4

  0
STYLE
  5
48
330
3
100
AcDbSymbolTableRecord
100
AcDbTextStyleTableRecord
  2
SLDTEXTSTYLE1
 70
     0
 40
0.0
 41
0.6517241379
 50
0.0
 71
     0
 42
0.2
  3
TXT
  4

  0
ENDTAB
  0
TABLE
  2
VIEW
  5
6
330
0
100
AcDbSymbolTable
 70
     0
  0
ENDTAB
  0
TABLE
  2
UCS
  5
7
330
0
100
AcDbSymbolTable
 70
     0
  0
ENDTAB
  0
TABLE
  2
APPID
  5
9
330
0
100
AcDbSymbolTable
 70
     1
  0
APPID
  5
12
330
9
100
AcDbSymbolTableRecord
100
AcDbRegAppTableRecord
  2
ACAD
 70
     0
  0
ENDTAB
  0
TABLE
  2
DIMSTYLE
  5
A
330
0
100
AcDbSymbolTable
 70
     2
100
AcDbDimStyleTable
  0
DIMSTYLE
105
27
330
A
100
AcDbSymbolTableRecord
100
AcDbDimStyleTableRecord
  2
ISO-25
 70
     0
 41
2.5
 42
0.625
 43
3.75
 44
1.25
 73
     0
 74
     0
 77
     1
 78
     8
140
2.5
141
2.5
143
0.0393700787
147
0.625
171
     3
172
     1
271
     2
272
     2
274
     3
278
    44
283
     0
284
     8
340
11
  0
DIMSTYLE
105
1B8
102
{ACAD_REACTORS
330
1B7
330
1C2
330
1CC
330
1D6
330
1E2
330
1ED
330
1F8
330
202
330
20C
330
216
102
}
330
A
100
AcDbSymbolTableRecord
100
AcDbDimStyleTableRecord
  2
SLDDIMSTYLE0
 70
     0
 41
3.0
 44
0.0
 45
0.000000001
 73
     0
 74
     0
 77
     1
 78
    12
140
2.0
147
0.5
173
     1
271
     2
272
     3
284
    12
340
44
  0
ENDTAB
  0
TABLE
  2
BLOCK_RECORD
  5
1
330
0
100
AcDbSymbolTable
 70
    13
  0
BLOCK_RECORD
  5
1F
330
1
100
AcDbSymbolTableRecord
100
AcDbBlockTableRecord
  2
*Model_Space
340
22
  0
BLOCK_RECORD
  5
1B
330
1
100
AcDbSymbolTableRecord
100
AcDbBlockTableRecord
  2
*Paper_Space
340
1E
  0
BLOCK_RECORD
  5
23
330
1
100
AcDbSymbolTableRecord
100
AcDbBlockTableRecord
  2
*Paper_Space0
340
26
  0
BLOCK_RECORD
  5
1B9
330
1
100
AcDbSymbolTableRecord
100
AcDbBlockTableRecord
  2
*D1
340
0
  0
BLOCK_RECORD
  5
1C3
330
1
100
AcDbSymbolTableRecord
100
AcDbBlockTableRecord
  2
*D2
340
0
  0
BLOCK_RECORD
  5
1CD
330
1
100
AcDbSymbolTableRecord
100
AcDbBlockTableRecord
  2
*D3
340
0
  0
BLOCK_RECORD
  5
1D7
330
1
100
AcDbSymbolTableRecord
100
AcDbBlockTableRecord
  2
*D4
340
0
  0
BLOCK_RECORD
  5
1E3
330
1
100
AcDbSymbolTableRecord
100
AcDbBlockTableRecord
  2
*D5
340
0
  0
BLOCK_RECORD
  5
1EE
330
1
100
AcDbSymbolTableRecord
100
AcDbBlockTableRecord
  2
*D6
340
0
  0
BLOCK_RECORD
  5
1F9
330
1
100
AcDbSymbolTableRecord
100
AcDbBlockTableRecord
  2
*D7
340
0
  0
BLOCK_RECORD
  5
203
330
1
100
AcDbSymbolTableRecord
100
AcDbBlockTableRecord
  2
*D8
340
0
  0
BLOCK_RECORD
  5
20D
330
1
100
AcDbSymbolTableRecord
100
AcDbBlockTableRecord
  2
*D9
340
0
  0
BLOCK_RECORD
  5
217
330
1
100
AcDbSymbolTableRecord
100
AcDbBlockTableRecord
  2
*D10
340
0
  0
BLOCK_RECORD
  5
220
330
1
100
AcDbSymbolTableRecord
100
AcDbBlockTableRecord
  2
SW_CENTERMARKSYMBOL_0
340
0
102
{BLKREFS
331
22B
102
}
  0
BLOCK_RECORD
  5
26E
330
1
100
AcDbSymbolTableRecord
100
AcDbBlockTableRecord
  2
SW_CENTERMARKSYMBOL_1
340
0
102
{BLKREFS
331
279
102
}
  0
ENDTAB
  0
ENDSEC
  0
SECTION
  2
BLOCKS
  0
BLOCK
  5
20
330
1F
100
AcDbEntity
  8
0
100
AcDbBlockBegin
  2
*Model_Space
 70
     0
 10
0.0
 20
0.0
 30
0.0
  3
*Model_Space
  1

  0
ENDBLK
  5
21
330
1F
100
AcDbEntity
  8
0
100
AcDbBlockEnd
  0
BLOCK
  5
1C
330
1B
100
AcDbEntity
 67
     1
  8
0
100
AcDbBlockBegin
  2
*Paper_Space
 70
     0
 10
0.0
 20
0.0
 30
0.0
  3
*Paper_Space
  1

  0
ENDBLK
  5
1D
330
1B
100
AcDbEntity
 67
     1
  8
0
100
AcDbBlockEnd
  0
BLOCK
  5
24
330
23
100
AcDbEntity
  8
0
100
AcDbBlockBegin
  2
*Paper_Space0
 70
     0
 10
0.0
 20
0.0
 30
0.0
  3
*Paper_Space0
  1

  0
ENDBLK
  5
25
330
23
100
AcDbEntity
  8
0
100
AcDbBlockEnd
  0
BLOCK
  5
1BA
330
1B9
100
AcDbEntity
  8
0
100
AcDbBlockBegin
  2
*D1
 70
     1
 10
0.0
 20
0.0
 30
0.0
  3
*D1
  1

  0
SOLID
  5
1BC
330
1B9
100
AcDbEntity
  8
VERMASSUNG
100
AcDbTrace
 10
189.2753683872
 20
151.9620818646
 30
0.0
 11
192.2753683872
 21
151.5120818646
 31
0.0
 12
192.2753683872
 22
152.4120818646
 32
0.0
 13
192.2753683872
 23
152.4120818646
 33
0.0
  0
SOLID
  5
1BD
330
1B9
100
AcDbEntity
  8
VERMASSUNG
100
AcDbTrace
 10
238.3253683872
 20
151.9620818646
 30
0.0
 11
235.3253683872
 21
152.4120818646
 31
0.0
 12
235.3253683872
 22
151.5120818646
 32
0.0
 13
235.3253683872
 23
151.5120818646
 33
0.0
  0
LINE
  5
1BE
330
1B9
100
AcDbEntity
  8
VERMASSUNG
100
AcDbLine
 10
189.2753683872
 20
146.255450553
 30
0.0
 11
189.2753683872
 21
152.9620818646
 31
0.0
  0
LINE
  5
1BF
330
1B9
100
AcDbEntity
  8
VERMASSUNG
100
AcDbLine
 10
238.3253683872
 20
135.4090102293
 30
0.0
 11
238.3253683872
 21
152.9620818646
 31
0.0
  0
LINE
  5
1C0
330
1B9
100
AcDbEntity
  8
VERMASSUNG
100
AcDbLine
 10
189.2753683872
 20
151.9620818646
 30
0.0
 11
238.3253683872
 21
151.9620818646
 31
0.0
  0
MTEXT
  5
1C1
330
1B9
100
AcDbEntity
  8
VERMASSUNG
100
AcDbMText
 10
209.9315870733
 20
154.5402172277
 30
0.0
 40
2.0
 41
0.0
 71
     1
 72
     1
  1
49.05
  7
SLDTEXTSTYLE0
 73
     1
 44
1.0
  0
ENDBLK
  5
1BB
330
1B9
100
AcDbEntity
  8
0
100
AcDbBlockEnd
  0
BLOCK
  5
1C4
330
1C3
100
AcDbEntity
  8
0
100
AcDbBlockBegin
  2
*D2
 70
     1
 10
0.0
 20
0.0
 30
0.0
  3
*D2
  1

  0
SOLID
  5
1C6
330
1C3
100
AcDbEntity
  8
VERMASSUNG
100
AcDbTrace
 10
163.3253683872
 20
157.9620818646
 30
0.0
 11
166.3253683872
 21
157.5120818646
 31
0.0
 12
166.3253683872
 22
158.4120818646
 32
0.0
 13
166.3253683872
 23
158.4120818646
 33
0.0
  0
SOLID
  5
1C7
330
1C3
100
AcDbEntity
  8
VERMASSUNG
100
AcDbTrace
 10
238.3253683872
 20
157.9620818646
 30
0.0
 11
235.3253683872
 21
158.4120818646
 31
0.0
 12
235.3253683872
 22
157.5120818646
 32
0.0
 13
235.3253683872
 23
157.5120818646
 33
0.0
  0
LINE
  5
1C8
330
1C3
100
AcDbEntity
  8
VERMASSUNG
100
AcDbLine
 10
163.3253683872
 20
147.6090102293
 30
0.0
 11
163.3253683872
 21
158.9620818646
 31
0.0
  0
LINE
  5
1C9
330
1C3
100
AcDbEntity
  8
VERMASSUNG
100
AcDbLine
 10
238.3253683872
 20
135.4090102293
 30
0.0
 11
238.3253683872
 21
158.9620818646
 31
0.0
  0
LINE
  5
1CA
330
1C3
100
AcDbEntity
  8
VERMASSUNG
100
AcDbLine
 10
163.3253683872
 20
157.9620818646
 30
0.0
 11
238.3253683872
 21
157.9620818646
 31
0.0
  0
MTEXT
  5
1CB
330
1C3
100
AcDbEntity
  8
VERMASSUNG
100
AcDbMText
 10
200.1825439757
 20
160.5402172277
 30
0.0
 40
2.0
 41
0.0
 71
     1
 72
     1
  1
75
  7
SLDTEXTSTYLE0
 73
     1
 44
1.0
  0
ENDBLK
  5
1C5
330
1C3
100
AcDbEntity
  8
0
100
AcDbBlockEnd
  0
BLOCK
  5
1CE
330
1CD
100
AcDbEntity
  8
0
100
AcDbBlockBegin
  2
*D3
 70
     1
 10
0.0
 20
0.0
 30
0.0
  3
*D3
  1

  0
SOLID
  5
1D0
330
1CD
100
AcDbEntity
  8
VERMASSUNG
100
AcDbTrace
 10
131.4253683872
 20
163.9620818646
 30
0.0
 11
134.4253683872
 21
163.5120818646
 31
0.0
 12
134.4253683872
 22
164.4120818646
 32
0.0
 13
134.4253683872
 23
164.4120818646
 33
0.0
  0
SOLID
  5
1D1
330
1CD
100
AcDbEntity
  8
VERMASSUNG
100
AcDbTrace
 10
238.3253683872
 20
163.9620818646
 30
0.0
 11
235.3253683872
 21
164.4120818646
 31
0.0
 12
235.3253683872
 22
163.5120818646
 32
0.0
 13
235.3253683872
 23
163.5120818646
 33
0.0
  0
LINE
  5
1D2
330
1CD
100
AcDbEntity
  8
VERMASSUNG
100
AcDbLine
 10
131.4253683872
 20
136.0996879757
 30
0.0
 11
131.4253683872
 21
164.9620818646
 31
0.0
  0
LINE
  5
1D3
330
1CD
100
AcDbEntity
  8
VERMASSUNG
100
AcDbLine
 10
238.3253683872
 20
135.4090102293
 30
0.0
 11
238.3253683872
 21
164.9620818646
 31
0.0
  0
LINE
  5
1D4
330
1CD
100
AcDbEntity
  8
VERMASSUNG
100
AcDbLine
 10
131.4253683872
 20
163.9620818646
 30
0.0
 11
238.3253683872
 21
163.9620818646
 31
0.0
  0
MTEXT
  5
1D5
330
1CD
100
AcDbEntity
  8
VERMASSUNG
100
AcDbMText
 10
183.9374366449
 20
166.5402172277
 30
0.0
 40
2.0
 41
0.0
 71
     1
 72
     1
  1
106.9
  7
SLDTEXTSTYLE0
 73
     1
 44
1.0
  0
ENDBLK
  5
1CF
330
1CD
100
AcDbEntity
  8
0
100
AcDbBlockEnd
  0
BLOCK
  5
1D8
330
1D7
100
AcDbEntity
  8
0
100
AcDbBlockBegin
  2
*D4
 70
     1
 10
0.0
 20
0.0
 30
0.0
  3
*D4
  1

  0
SOLID
  5
1DA
330
1D7
100
AcDbEntity
  8
VERMASSUNG
100
AcDbTrace
 10
125.9348844433
 20
147.9090102293
 30
0.0
 11
125.4848844433
 21
144.9090102293
 31
0.0
 12
126.3848844433
 22
144.9090102293
 32
0.0
 13
126.3848844433
 23
144.9090102293
 33
0.0
  0
SOLID
  5
1DB
330
1D7
100
AcDbEntity
  8
VERMASSUNG
100
AcDbTrace
 10
125.9348844433
 20
84.9090102293
 30
0.0
 11
126.3848844433
 21
87.9090102293
 31
0.0
 12
125.4848844433
 22
87.9090102293
 32
0.0
 13
125.4848844433
 23
87.9090102293
 33
0.0
  0
LINE
  5
1DC
330
1D7
100
AcDbEntity
  8
VERMASSUNG
100
AcDbLine
 10
163.6253683872
 20
147.9090102293
 30
0.0
 11
124.9348844433
 21
147.9090102293
 31
0.0
  0
LINE
  5
1DD
330
1D7
100
AcDbEntity
  8
VERMASSUNG
100
AcDbLine
 10
163.6253683872
 20
84.9090102293
 30
0.0
 11
124.9348844433
 21
84.9090102293
 31
0.0
  0
LINE
  5
1DE
330
1D7
100
AcDbEntity
  8
VERMASSUNG
100
AcDbLine
 10
125.9348844433
 20
147.9090102293
 30
0.0
 11
125.9348844433
 21
84.9090102293
 31
0.0
  0
MTEXT
  5
1DF
330
1D7
100
AcDbEntity
  8
VERMASSUNG
100
AcDbMText
 10
123.1567489543
 20
108.2940699366
 30
0.0
 40
2.0
 41
0.0
 71
     1
 72
     1
  1
HSK A 
  7
SLDTEXTSTYLE0
 11
-7.044195017643634E-15
 21
1.0
 31
0.0
 73
     1
 44
1.0
  0
MTEXT
  5
1E0
330
1D7
100
AcDbEntity
  8
VERMASSUNG
100
AcDbMText
 10
123.3567489638
 20
117.2940704805
 30
0.0
 40
2.0
 41
0.0
 71
     1
 72
     1
  1
%%c
  7
SLDTEXTSTYLE0
 11
-7.044195017643634E-15
 21
1.0
 31
0.0
 73
     1
 44
1.0
  0
MTEXT
  5
1E1
330
1D7
100
AcDbEntity
  8
VERMASSUNG
100
AcDbMText
 10
123.3567490802
 20
120.9037238222
 30
0.0
 40
2.0
 41
0.0
 71
     1
 72
     1
  1
63
  7
SLDTEXTSTYLE0
 11
-7.044195017643634E-15
 21
1.0
 31
0.0
 73
     1
 44
1.0
  0
ENDBLK
  5
1D9
330
1D7
100
AcDbEntity
  8
0
100
AcDbBlockEnd
  0
BLOCK
  5
1E4
330
1E3
100
AcDbEntity
  8
0
100
AcDbBlockBegin
  2
*D5
 70
     1
 10
0.0
 20
0.0
 30
0.0
  3
*D5
  1

  0
SOLID
  5
1E6
330
1E3
100
AcDbEntity
  8
VERMASSUNG
100
AcDbTrace
 10
250.9073576021
 20
136.4090102293
 30
0.0
 11
250.4573576021
 21
133.4090102293
 31
0.0
 12
251.3573576021
 22
133.4090102293
 32
0.0
 13
251.3573576021
 23
133.4090102293
 33
0.0
  0
SOLID
  5
1E7
330
1E3
100
AcDbEntity
  8
VERMASSUNG
100
AcDbTrace
 10
250.9073576021
 20
96.4090102293
 30
0.0
 11
251.3573576021
 21
99.4090102293
 31
0.0
 12
250.4573576021
 22
99.4090102293
 32
0.0
 13
250.4573576021
 23
99.4090102293
 33
0.0
  0
LINE
  5
1E8
330
1E3
100
AcDbEntity
  8
VERMASSUNG
100
AcDbLine
 10
237.3253683872
 20
136.4090102293
 30
0.0
 11
251.9073576021
 21
136.4090102293
 31
0.0
  0
LINE
  5
1E9
330
1E3
100
AcDbEntity
  8
VERMASSUNG
100
AcDbLine
 10
237.3253683872
 20
96.4090102293
 30
0.0
 11
251.9073576021
 21
96.4090102293
 31
0.0
  0
LINE
  5
1EA
330
1E3
100
AcDbEntity
  8
VERMASSUNG
100
AcDbLine
 10
250.9073576021
 20
136.4090102293
 30
0.0
 11
250.9073576021
 21
96.4090102293
 31
0.0
  0
MTEXT
  5
1EB
330
1E3
100
AcDbEntity
  8
VERMASSUNG
100
AcDbMText
 10
248.3292221225
 20
112.7592124636
 30
0.0
 40
2.0
 41
0.0
 71
     1
 72
     1
  1
%%c
  7
SLDTEXTSTYLE0
 11
-7.044195017643634E-15
 21
1.0
 31
0.0
 73
     1
 44
1.0
  0
MTEXT
  5
1EC
330
1E3
100
AcDbEntity
  8
VERMASSUNG
100
AcDbMText
 10
248.3292222389
 20
116.3676354309
 30
0.0
 40
2.0
 41
0.0
 71
     1
 72
     1
  1
40
  7
SLDTEXTSTYLE0
 11
-7.044195017643634E-15
 21
1.0
 31
0.0
 73
     1
 44
1.0
  0
ENDBLK
  5
1E5
330
1E3
100
AcDbEntity
  8
0
100
AcDbBlockEnd
  0
BLOCK
  5
1EF
330
1EE
100
AcDbEntity
  8
0
100
AcDbBlockBegin
  2
*D6
 70
     1
 10
0.0
 20
0.0
 30
0.0
  3
*D6
  1

  0
SOLID
  5
1F1
330
1EE
100
AcDbEntity
  8
VERMASSUNG
100
AcDbTrace
 10
244.9073576021
 20
124.4090102293
 30
0.0
 11
244.4573576021
 21
121.4090102293
 31
0.0
 12
245.3573576021
 22
121.4090102293
 32
0.0
 13
245.3573576021
 23
121.4090102293
 33
0.0
  0
SOLID
  5
1F2
330
1EE
100
AcDbEntity
  8
VERMASSUNG
100
AcDbTrace
 10
244.9073576021
 20
108.4090102293
 30
0.0
 11
245.3573576021
 21
111.4090102293
 31
0.0
 12
244.4573576021
 22
111.4090102293
 32
0.0
 13
244.4573576021
 23
111.4090102293
 33
0.0
  0
LINE
  5
1F3
330
1EE
100
AcDbEntity
  8
VERMASSUNG
100
AcDbLine
 10
238.0253683872
 20
124.4090102293
 30
0.0
 11
245.9073576021
 21
124.4090102293
 31
0.0
  0
LINE
  5
1F4
330
1EE
100
AcDbEntity
  8
VERMASSUNG
100
AcDbLine
 10
238.0253683872
 20
108.4090102293
 30
0.0
 11
245.9073576021
 21
108.4090102293
 31
0.0
  0
LINE
  5
1F5
330
1EE
100
AcDbEntity
  8
VERMASSUNG
100
AcDbLine
 10
244.9073576021
 20
124.4090102293
 30
0.0
 11
244.9073576021
 21
108.4090102293
 31
0.0
  0
MTEXT
  5
1F6
330
1EE
100
AcDbEntity
  8
VERMASSUNG
100
AcDbMText
 10
242.3292221225
 20
113.0592534943
 30
0.0
 40
2.0
 41
0.0
 71
     1
 72
     1
  1
%%c
  7
SLDTEXTSTYLE0
 11
-7.044195017643634E-15
 21
1.0
 31
0.0
 73
     1
 44
1.0
  0
MTEXT
  5
1F7
330
1EE
100
AcDbEntity
  8
VERMASSUNG
100
AcDbMText
 10
242.3292222389
 20
116.6676764615
 30
0.0
 40
2.0
 41
0.0
 71
     1
 72
     1
  1
16
  7
SLDTEXTSTYLE0
 11
-7.044195017643634E-15
 21
1.0
 31
0.0
 73
     1
 44
1.0
  0
ENDBLK
  5
1F0
330
1EE
100
AcDbEntity
  8
0
100
AcDbBlockEnd
  0
BLOCK
  5
1FA
330
1F9
100
AcDbEntity
  8
0
100
AcDbBlockBegin
  2
*D7
 70
     1
 10
0.0
 20
0.0
 30
0.0
  3
*D7
  1

  0
SOLID
  5
1FC
330
1F9
100
AcDbEntity
  8
VERMASSUNG
100
AcDbTrace
 10
227.8253683872
 20
87.2993879134
 30
0.0
 11
230.8253683872
 21
86.8493879134
 31
0.0
 12
230.8253683872
 22
87.7493879134
 32
0.0
 13
230.8253683872
 23
87.7493879134
 33
0.0
  0
SOLID
  5
1FD
330
1F9
100
AcDbEntity
  8
VERMASSUNG
100
AcDbTrace
 10
238.3253683872
 20
87.2993879134
 30
0.0
 11
235.3253683872
 21
87.7493879134
 31
0.0
 12
235.3253683872
 22
86.8493879134
 32
0.0
 13
235.3253683872
 23
86.8493879134
 33
0.0
  0
LINE
  5
1FE
330
1F9
100
AcDbEntity
  8
VERMASSUNG
100
AcDbLine
 10
227.8253683872
 20
102.8292628303
 30
0.0
 11
227.8253683872
 21
86.2993879134
 31
0.0
  0
LINE
  5
1FF
330
1F9
100
AcDbEntity
  8
VERMASSUNG
100
AcDbLine
 10
238.3253683872
 20
97.4090102293
 30
0.0
 11
238.3253683872
 21
86.2993879134
 31
0.0
  0
LINE
  5
200
330
1F9
100
AcDbEntity
  8
VERMASSUNG
100
AcDbLine
 10
227.8253683872
 20
87.2993879134
 30
0.0
 11
238.3253683872
 21
87.2993879134
 31
0.0
  0
MTEXT
  5
201
330
1F9
100
AcDbEntity
  8
VERMASSUNG
100
AcDbMText
 10
230.7167545349
 20
89.8775232765
 30
0.0
 40
2.0
 41
0.0
 71
     1
 72
     1
  1
10.5
  7
SLDTEXTSTYLE0
 73
     1
 44
1.0
  0
ENDBLK
  5
1FB
330
1F9
100
AcDbEntity
  8
0
100
AcDbBlockEnd
  0
BLOCK
  5
204
330
203
100
AcDbEntity
  8
0
100
AcDbBlockBegin
  2
*D8
 70
     1
 10
0.0
 20
0.0
 30
0.0
  3
*D8
  1

  0
SOLID
  5
206
330
203
100
AcDbEntity
  8
VERMASSUNG
100
AcDbTrace
 10
212.3253683872
 20
87.2993879134
 30
0.0
 11
215.3253683872
 21
86.8493879134
 31
0.0
 12
215.3253683872
 22
87.7493879134
 32
0.0
 13
215.3253683872
 23
87.7493879134
 33
0.0
  0
SOLID
  5
207
330
203
100
AcDbEntity
  8
VERMASSUNG
100
AcDbTrace
 10
227.8253683872
 20
87.2993879134
 30
0.0
 11
224.8253683872
 21
87.7493879134
 31
0.0
 12
224.8253683872
 22
86.8493879134
 32
0.0
 13
224.8253683872
 23
86.8493879134
 33
0.0
  0
LINE
  5
208
330
203
100
AcDbEntity
  8
VERMASSUNG
100
AcDbLine
 10
212.3253683872
 20
101.4618524603
 30
0.0
 11
212.3253683872
 21
86.2993879134
 31
0.0
  0
LINE
  5
209
330
203
100
AcDbEntity
  8
VERMASSUNG
100
AcDbLine
 10
227.8253683872
 20
102.8292628303
 30
0.0
 11
227.8253683872
 21
86.2993879134
 31
0.0
  0
LINE
  5
20A
330
203
100
AcDbEntity
  8
VERMASSUNG
100
AcDbLine
 10
212.3253683872
 20
87.2993879134
 30
0.0
 11
227.8253683872
 21
87.2993879134
 31
0.0
  0
MTEXT
  5
20B
330
203
100
AcDbEntity
  8
VERMASSUNG
100
AcDbMText
 10
218.898422051
 20
89.8775232765
 30
0.0
 40
2.0
 41
0.0
 71
     1
 72
     1
  1
15.5
  7
SLDTEXTSTYLE0
 73
     1
 44
1.0
  0
ENDBLK
  5
205
330
203
100
AcDbEntity
  8
0
100
AcDbBlockEnd
  0
BLOCK
  5
20E
330
20D
100
AcDbEntity
  8
0
100
AcDbBlockBegin
  2
*D9
 70
     1
 10
0.0
 20
0.0
 30
0.0
  3
*D9
  1

  0
SOLID
  5
210
330
20D
100
AcDbEntity
  8
VERMASSUNG
100
AcDbTrace
 10
196.8253683872
 20
87.2993879134
 30
0.0
 11
199.8253683872
 21
86.8493879134
 31
0.0
 12
199.8253683872
 22
87.7493879134
 32
0.0
 13
199.8253683872
 23
87.7493879134
 33
0.0
  0
SOLID
  5
211
330
20D
100
AcDbEntity
  8
VERMASSUNG
100
AcDbTrace
 10
212.3253683872
 20
87.2993879134
 30
0.0
 11
209.3253683872
 21
87.7493879134
 31
0.0
 12
209.3253683872
 22
86.8493879134
 32
0.0
 13
209.3253683872
 23
86.8493879134
 33
0.0
  0
LINE
  5
212
330
20D
100
AcDbEntity
  8
VERMASSUNG
100
AcDbLine
 10
196.8253683872
 20
100.7659720338
 30
0.0
 11
196.8253683872
 21
86.2993879134
 31
0.0
  0
LINE
  5
213
330
20D
100
AcDbEntity
  8
VERMASSUNG
100
AcDbLine
 10
212.3253683872
 20
101.4618524603
 30
0.0
 11
212.3253683872
 21
86.2993879134
 31
0.0
  0
LINE
  5
214
330
20D
100
AcDbEntity
  8
VERMASSUNG
100
AcDbLine
 10
196.8253683872
 20
87.2993879134
 30
0.0
 11
212.3253683872
 21
87.2993879134
 31
0.0
  0
MTEXT
  5
215
330
20D
100
AcDbEntity
  8
VERMASSUNG
100
AcDbMText
 10
202.7825141184
 20
89.8775232765
 30
0.0
 40
2.0
 41
0.0
 71
     1
 72
     1
  1
15.5
  7
SLDTEXTSTYLE0
 73
     1
 44
1.0
  0
ENDBLK
  5
20F
330
20D
100
AcDbEntity
  8
0
100
AcDbBlockEnd
  0
BLOCK
  5
218
330
217
100
AcDbEntity
  8
0
100
AcDbBlockBegin
  2
*D10
 70
     1
 10
0.0
 20
0.0
 30
0.0
  3
*D10
  1

  0
SOLID
  5
21A
330
217
100
AcDbEntity
  8
VERMASSUNG
100
AcDbTrace
 10
187.3253683872
 20
81.2993879134
 30
0.0
 11
190.3253683872
 21
80.8493879134
 31
0.0
 12
190.3253683872
 22
81.7493879134
 32
0.0
 13
190.3253683872
 23
81.7493879134
 33
0.0
  0
SOLID
  5
21B
330
217
100
AcDbEntity
  8
VERMASSUNG
100
AcDbTrace
 10
238.3253683872
 20
81.2993879134
 30
0.0
 11
235.3253683872
 21
81.7493879134
 31
0.0
 12
235.3253683872
 22
80.8493879134
 32
0.0
 13
235.3253683872
 23
80.8493879134
 33
0.0
  0
LINE
  5
21C
330
217
100
AcDbEntity
  8
VERMASSUNG
100
AcDbLine
 10
187.3253683872
 20
108.5090102293
 30
0.0
 11
187.3253683872
 21
80.2993879134
 31
0.0
  0
LINE
  5
21D
330
217
100
AcDbEntity
  8
VERMASSUNG
100
AcDbLine
 10
238.3253683872
 20
97.4090102293
 30
0.0
 11
238.3253683872
 21
80.2993879134
 31
0.0
  0
LINE
  5
21E
330
217
100
AcDbEntity
  8
VERMASSUNG
100
AcDbLine
 10
187.3253683872
 20
81.2993879134
 30
0.0
 11
238.3253683872
 21
81.2993879134
 31
0.0
  0
MTEXT
  5
21F
330
217
100
AcDbEntity
  8
VERMASSUNG
100
AcDbMText
 10
214.3121513253
 20
83.8775232765
 30
0.0
 40
2.0
 41
0.0
 71
     1
 72
     1
  1
51
  7
SLDTEXTSTYLE0
 73
     1
 44
1.0
  0
ENDBLK
  5
219
330
217
100
AcDbEntity
  8
0
100
AcDbBlockEnd
  0
BLOCK
  5
221
330
220
100
AcDbEntity
  8
0
100
AcDbBlockBegin
  2
SW_CENTERMARKSYMBOL_0
 70
     0
 10
0.0
 20
0.0
 30
0.0
  3
SW_CENTERMARKSYMBOL_0
  1

  0
LINE
  5
223
330
220
100
AcDbEntity
  8
VERMASSUNG
 62
     0
100
AcDbLine
 10
0.0
 20
0.0
 30
0.0
 11
0.0
 21
2.5
 31
0.0
  0
LINE
  5
224
330
220
100
AcDbEntity
  8
VERMASSUNG
 62
     0
100
AcDbLine
 10
0.0
 20
0.0
 30
0.0
 11
-2.5
 21
0.0
 31
0.0
  0
LINE
  5
225
330
220
100
AcDbEntity
  8
VERMASSUNG
 62
     0
100
AcDbLine
 10
0.0
 20
0.0
 30
0.0
 11
0.0
 21
-2.5
 31
0.0
  0
LINE
  5
226
330
220
100
AcDbEntity
  8
VERMASSUNG
 62
     0
100
AcDbLine
 10
0.0
 20
0.0
 30
0.0
 11
2.5
 21
0.0
 31
0.0
  0
LINE
  5
227
330
220
100
AcDbEntity
  8
VERMASSUNG
 62
     0
100
AcDbLine
 10
0.0
 20
5.0
 30
0.0
 11
0.0
 21
20.612994563
 31
0.0
  0
LINE
  5
228
330
220
100
AcDbEntity
  8
VERMASSUNG
 62
     0
100
AcDbLine
 10
-5.0
 20
0.0
 30
0.0
 11
-67.8733984865
 21
0.0
 31
0.0
  0
LINE
  5
229
330
220
100
AcDbEntity
  8
VERMASSUNG
 62
     0
100
AcDbLine
 10
0.0
 20
-5.0
 30
0.0
 11
0.0
 21
-15.6430381955
 31
0.0
  0
LINE
  5
22A
330
220
100
AcDbEntity
  8
VERMASSUNG
 62
     0
100
AcDbLine
 10
5.0
 20
0.0
 30
0.0
 11
43.427851059
 21
0.0
 31
0.0
  0
ENDBLK
  5
222
330
220
100
AcDbEntity
  8
0
100
AcDbBlockEnd
  0
BLOCK
  5
26F
330
26E
100
AcDbEntity
  8
0
100
AcDbBlockBegin
  2
SW_CENTERMARKSYMBOL_1
 70
     0
 10
0.0
 20
0.0
 30
0.0
  3
SW_CENTERMARKSYMBOL_1
  1

  0
LINE
  5
271
330
26E
100
AcDbEntity
  8
VERMASSUNG
 62
     0
100
AcDbLine
 10
0.0
 20
0.0
 30
0.0
 11
0.0
 21
2.5
 31
0.0
  0
LINE
  5
272
330
26E
100
AcDbEntity
  8
VERMASSUNG
 62
     0
100
AcDbLine
 10
0.0
 20
0.0
 30
0.0
 11
-2.5
 21
0.0
 31
0.0
  0
LINE
  5
273
330
26E
100
AcDbEntity
  8
VERMASSUNG
 62
     0
100
AcDbLine
 10
0.0
 20
0.0
 30
0.0
 11
0.0
 21
-2.5
 31
0.0
  0
LINE
  5
274
330
26E
100
AcDbEntity
  8
VERMASSUNG
 62
     0
100
AcDbLine
 10
0.0
 20
0.0
 30
0.0
 11
2.5
 21
0.0
 31
0.0
  0
LINE
  5
275
330
26E
100
AcDbEntity
  8
VERMASSUNG
 62
     0
100
AcDbLine
 10
0.0
 20
5.0
 30
0.0
 11
0.0
 21
33.5784245037
 31
0.0
  0
LINE
  5
276
330
26E
100
AcDbEntity
  8
VERMASSUNG
 62
     0
100
AcDbLine
 10
-5.0
 20
0.0
 30
0.0
 11
-34.5840898688
 21
0.0
 31
0.0
  0
LINE
  5
277
330
26E
100
AcDbEntity
  8
VERMASSUNG
 62
     0
100
AcDbLine
 10
0.0
 20
-5.0
 30
0.0
 11
0.0
 21
-35.1084020325
 31
0.0
  0
LINE
  5
278
330
26E
100
AcDbEntity
  8
VERMASSUNG
 62
     0
100
AcDbLine
 10
5.0
 20
0.0
 30
0.0
 11
34.5367766454
 21
0.0
 31
0.0
  0
ENDBLK
  5
270
330
26E
100
AcDbEntity
  8
0
100
AcDbBlockEnd
  0
ENDSEC
  0
SECTION
  2
ENTITIES
  0
MTEXT
  5
45
330
1F
100
AcDbEntity
  8
KOPF_DÜNN
100
AcDbMText
 10
13.8892156294
 20
23.8442973028
 30
0.0
 40
3.0
 41
0.0
 71
     1
 72
     1
  1
HA6.B16.K01.075
  7
SLDTEXTSTYLE0
 73
     1
 44
1.0
  0
MTEXT
  5
46
330
1F
100
AcDbEntity
  8
VERMASSUNG
100
AcDbMText
 10
13.9329988022
 20
28.8834360957
 30
0.0
 40
3.0
 41
0.0
 71
     1
 72
     1
  1
Bohrstangenhalter_Boring bar holder
  7
SLDTEXTSTYLE0
 73
     1
 44
1.0
  0
MTEXT
  5
47
330
1F
100
AcDbEntity
  8
VERMASSUNG
100
AcDbMText
 10
98.8601118557
 20
13.8365368179
 30
0.0
 40
2.0
 41
0.0
 71
     1
 72
     1
  1
Datum: 12.10.2006
  7
SLDTEXTSTYLE0
 73
     1
 44
1.0
  0
MTEXT
  5
49
330
1F
100
AcDbEntity
  8
VERMASSUNG
100
AcDbMText
 10
13.933048693
 20
18.0482802738
 30
0.0
 40
2.0
 41
0.0
 71
     1
 72
     1
  1
DIN 69893 HSK 63 A ICTM / ø16
  7
SLDTEXTSTYLE1
 73
     1
 44
1.0
  0
MTEXT
  5
4A
330
1F
100
AcDbEntity
  8
VERMASSUNG
100
AcDbMText
 10
13.9808475933
 20
13.9090973692
 30
0.0
 40
2.0
 41
0.0
 71
     1
 72
     1
  1
Gewicht: 1043g
  7
SLDTEXTSTYLE0
 73
     1
 44
1.0
  0
ARC
  5
4B
330
1F
100
AcDbEntity
  8
0
  6
Continuous
 62
     7
370
    15
100
AcDbCircle
 10
163.6253683872
 20
85.2090102293
 30
0.0
 40
0.2999999999999972
100
AcDbArc
 50
180.0
 51
270.0
  0
ARC
  5
4C
330
1F
100
AcDbEntity
  8
0
  6
Continuous
 62
     7
370
    15
100
AcDbCircle
 10
163.6253683872
 20
147.6090102293
 30
0.0
 40
0.3000000000000114
100
AcDbArc
 50
90.0
 51
180.0
  0
LINE
  5
4D
330
1F
100
AcDbEntity
  8
0
  6
Continuous
 62
     7
370
    15
100
AcDbLine
 10
163.6253684014
 20
84.9090097226
 30
0.0
 11
168.2753683603
 21
84.9090097226
 31
0.0
  0
LINE
  5
4E
330
1F
100
AcDbEntity
  8
0
  6
Continuous
 62
     7
370
    15
100
AcDbLine
 10
168.303356932
 20
147.9090107359
 30
0.0
 11
163.6253684014
 21
147.9090107359
 31
0.0
  0
ARC
  5
4F
330
1F
100
AcDbEntity
  8
0
  6
Continuous
 62
     7
370
    15
100
AcDbCircle
 10
162.8253616345
 20
91.8385726149
 30
0.0
 40
0.6000067526677124
100
AcDbArc
 50
33.5571153394
 51
90.0
  0
ARC
  5
50
330
1F
100
AcDbEntity
  8
0
  6
Continuous
 62
     7
370
    15
100
AcDbCircle
 10
162.8253616345
 20
140.9794478437
 30
0.0
 40
0.6000067526677045
100
AcDbArc
 50
270.0
 51
326.4428846606
  0
LINE
  5
51
330
1F
100
AcDbEntity
  8
0
  6
Continuous
 62
     7
370
    15
100
AcDbLine
 10
150.0938599533
 20
140.0667400785
 30
0.0
 11
137.525367511
 21
139.437056122
 31
0.0
  0
LINE
  5
52
330
1F
100
AcDbEntity
  8
0
  6
Continuous
 62
     7
370
    15
100
AcDbLine
 10
161.3253682922
 20
140.6294414528
 30
0.0
 11
158.5083668656
 21
140.4883088298
 31
0.0
  0
LINE
  5
53
330
1F
100
AcDbEntity
  8
0
  6
Continuous
 62
     7
370
    15
100
AcDbLine
 10
158.5084227449
 20
92.3297097661
 30
0.0
 11
161.3253682922
 21
92.1885790058
 31
0.0
  0
LINE
  5
54
330
1F
100
AcDbEntity
  8
0
  6
Continuous
 62
     7
370
    15
100
AcDbLine
 10
141.5253681666
 20
93.1805642076
 30
0.0
 11
150.0942622847
 21
92.7512598909
 31
0.0
  0
LINE
  5
55
330
1F
100
AcDbEntity
  8
0
  6
Continuous
 62
     7
370
    15
100
AcDbLine
 10
161.3253682922
 20
92.1885790058
 30
0.0
 11
162.1820812183
 21
92.4181351192
 31
0.0
  0
LINE
  5
56
330
1F
100
AcDbEntity
  8
0
  6
Continuous
 62
     7
370
    15
100
AcDbLine
 10
162.1820812183
 20
140.3998853393
 30
0.0
 11
161.3253682922
 21
140.6294414528
 31
0.0
  0
ARC
  5
57
330
1F
100
AcDbEntity
  8
0
  6
Continuous
 62
     7
370
    15
100
AcDbCircle
 10
162.3373725876
 20
91.8385793675
 30
0.0
 40
0.6000000000000085
100
AcDbArc
 50
90.0
 51
105.0
  0
ARC
  5
58
330
1F
100
AcDbEntity
  8
0
  6
Continuous
 62
     7
370
    15
100
AcDbCircle
 10
162.3373725876
 20
140.979441091
 30
0.0
 40
0.599999999999986
100
AcDbArc
 50
255.0
 51
270.0
  0
LINE
  5
59
330
1F
100
AcDbEntity
  8
0
  6
Continuous
 62
     7
370
    15
100
AcDbLine
 10
162.337372622
 20
92.4385795124
 30
0.0
 11
162.8253616113
 21
92.4385795124
 31
0.0
  0
LINE
  5
5A
330
1F
100
AcDbEntity
  8
0
  6
Continuous
 62
     7
370
    15
100
AcDbLine
 10
162.8253616113
 20
140.3794409461
 30
0.0
 11
162.337372622
 21
140.3794409461
 31
0.0
  0
ARC
  5
5B
330
1F
100
AcDbEntity
  8
0
  6
Continuous
 62
     7
370
    15
100
AcDbCircle
 10
192.2753683872
 20
93.4090102293
 30
0.0
 40
3.000000000000028
100
AcDbArc
 50
90.0
 51
180.0
  0
ARC
  5
5C
330
1F
100
AcDbEntity
  8
0
  6
Continuous
 62
     7
370
    15
100
AcDbCircle
 10
192.2753683872
 20
139.4090102293
 30
0.0
 40
3.000000000000028
100
AcDbArc
 50
180.0
 51
270.0
  0
LINE
  5
5D
330
1F
100
AcDbEntity
  8
0
  6
Continuous
 62
     7
370
    15
100
AcDbLine
 10
207.8450237936
 20
136.4090097822
 30
0.0
 11
201.2712200708
 21
136.4090097822
 31
0.0
  0
LINE
  5
5E
330
1F
100
AcDbEntity
  8
0
  6
Continuous
 62
     7
370
    15
100
AcDbLine
 10
223.3450216777
 20
136.4090097822
 30
0.0
 11
216.7712216801
 21
136.4090097822
 31
0.0
  0
LINE
  5
5F
330
1F
100
AcDbEntity
  8
0
  6
Continuous
 62
     7
370
    15
100
AcDbLine
 10
237.3253693408
 20
136.4090097822
 30
0.0
 11
232.2712232894
 21
136.4090097822
 31
0.0
  0
LINE
  5
60
330
1F
100
AcDbEntity
  8
0
  6
Continuous
 62
     7
370
    15
100
AcDbLine
 10
192.2753685689
 20
96.4090106763
 30
0.0
 11
237.3253693408
 21
96.4090106763
 31
0.0
  0
ARC
  5
61
330
1F
100
AcDbEntity
  8
0
  6
Continuous
 62
     7
370
    15
100
AcDbCircle
 10
237.3253683872
 20
135.4090102293
 30
0.0
 40
1.0
100
AcDbArc
 50
0.0
 51
90.0
  0
ARC
  5
62
330
1F
100
AcDbEntity
  8
0
  6
Continuous
 62
     7
370
    15
100
AcDbCircle
 10
237.3253683872
 20
97.4090102293
 30
0.0
 40
1.0
100
AcDbArc
 50
270.0
 51
0.0
  0
LINE
  5
63
330
1F
100
AcDbEntity
  8
0
  6
Continuous
 62
     7
370
    15
100
AcDbLine
 10
132.5753675378
 20
95.596509961
 30
0.0
 11
140.1253686822
 21
95.596509961
 31
0.0
  0
ARC
  5
64
330
1F
100
AcDbEntity
  8
0
  6
Continuous
 62
     7
370
    15
100
AcDbCircle
 10
140.1253683872
 20
94.1965102293
 30
0.0
 40
1.399999999999996
100
AcDbArc
 50
37.6443616934
 51
90.0
  0
LINE
  5
65
330
1F
100
AcDbEntity
  8
0
  6
Continuous
 62
     7
370
    15
100
AcDbLine
 10
132.5665311492
 20
137.2701739647
 30
0.0
 11
131.4352703816
 21
136.1389113344
 31
0.0
  0
LINE
  5
66
330
1F
100
AcDbEntity
  8
0
  6
Continuous
 62
     7
370
    15
100
AcDbLine
 10
131.4227869338
 20
96.749090565
 30
0.0
 11
132.5753675378
 21
95.596509961
 31
0.0
  0
ARC
  5
67
330
1F
100
AcDbEntity
  8
0
  6
Continuous
 62
     7
370
    15
100
AcDbCircle
 10
136.1253683872
 20
138.6790102293
 30
0.0
 40
1.40000000000004
100
AcDbArc
 50
270.0
 51
301.7485287426
  0
LINE
  5
68
330
1F
100
AcDbEntity
  8
0
  6
Continuous
 62
     7
370
    15
100
AcDbLine
 10
136.1253680265
 20
137.2790103532
 30
0.0
 11
132.6996339089
 21
137.2790103532
 31
0.0
  0
CIRCLE
  5
69
330
1F
100
AcDbEntity
  8
0
  6
Continuous
 62
     7
370
    15
100
AcDbCircle
 10
227.8253683872
 20
116.4090102293
 30
0.0
 40
4.171999999999988
  0
LINE
  5
6A
330
1F
100
AcDbEntity
  8
0
  6
Continuous
 62
     7
370
    15
100
AcDbLine
 10
228.4149145312
 20
113.5830993053
 30
0.0
 11
230.5674543208
 21
115.5066143592
 31
0.0
  0
LINE
  5
6B
330
1F
100
AcDbEntity
  8
0
  6
Continuous
 62
     7
370
    15
100
AcDbLine
 10
229.9779047794
 20
118.332525225
 30
0.0
 11
230.5674543208
 21
115.5066143592
 31
0.0
  0
LINE
  5
6C
330
1F
100
AcDbEntity
  8
0
  6
Continuous
 62
     7
370
    15
100
AcDbLine
 10
227.2358228988
 20
119.2349211533
 30
0.0
 11
229.9779047794
 21
118.332525225
 31
0.0
  0
LINE
  5
6D
330
1F
100
AcDbEntity
  8
0
  6
Continuous
 62
     7
370
    15
100
AcDbLine
 10
227.2358228988
 20
119.2349211533
 30
0.0
 11
225.0832868344
 21
117.3114060993
 31
0.0
  0
LINE
  5
6E
330
1F
100
AcDbEntity
  8
0
  6
Continuous
 62
     7
370
    15
100
AcDbLine
 10
225.6728289253
 20
114.4854952335
 30
0.0
 11
225.0832868344
 21
117.3114060993
 31
0.0
  0
LINE
  5
6F
330
1F
100
AcDbEntity
  8
0
  6
Continuous
 62
     7
370
    15
100
AcDbLine
 10
225.6728289253
 20
114.4854952335
 30
0.0
 11
228.4149145312
 21
113.5830993053
 31
0.0
  0
CIRCLE
  5
70
330
1F
100
AcDbEntity
  8
0
  6
Continuous
 62
     7
370
    15
100
AcDbCircle
 10
212.3253683872
 20
116.4090102293
 30
0.0
 40
4.172000000000042
  0
LINE
  5
71
330
1F
100
AcDbEntity
  8
0
  6
Continuous
 62
     7
370
    15
100
AcDbLine
 10
212.9149129218
 20
113.5830993053
 30
0.0
 11
215.0674489862
 21
115.5066143592
 31
0.0
  0
LINE
  5
72
330
1F
100
AcDbEntity
  8
0
  6
Continuous
 62
     7
370
    15
100
AcDbLine
 10
214.4779068953
 20
118.332525225
 30
0.0
 11
215.0674489862
 21
115.5066143592
 31
0.0
  0
LINE
  5
73
330
1F
100
AcDbEntity
  8
0
  6
Continuous
 62
     7
370
    15
100
AcDbLine
 10
211.7358250148
 20
119.2349211533
 30
0.0
 11
214.4779068953
 21
118.332525225
 31
0.0
  0
LINE
  5
74
330
1F
100
AcDbEntity
  8
0
  6
Continuous
 62
     7
370
    15
100
AcDbLine
 10
211.7358250148
 20
119.2349211533
 30
0.0
 11
209.5832852251
 21
117.3114060993
 31
0.0
  0
LINE
  5
75
330
1F
100
AcDbEntity
  8
0
  6
Continuous
 62
     7
370
    15
100
AcDbLine
 10
210.1728310413
 20
114.4854952335
 30
0.0
 11
209.5832852251
 21
117.3114060993
 31
0.0
  0
LINE
  5
76
330
1F
100
AcDbEntity
  8
0
  6
Continuous
 62
     7
370
    15
100
AcDbLine
 10
210.1728310413
 20
114.4854952335
 30
0.0
 11
212.9149129218
 21
113.5830993053
 31
0.0
  0
LINE
  5
77
330
1F
100
AcDbEntity
  8
0
  6
Continuous
 62
     7
370
    15
100
AcDbLine
 10
195.3068812913
 20
135.9633439906
 30
0.0
 11
198.4261935181
 21
135.9633439906
 31
0.0
  0
LINE
  5
78
330
1F
100
AcDbEntity
  8
0
  6
Continuous
 62
     7
370
    15
100
AcDbLine
 10
210.8068791754
 20
135.9633439906
 30
0.0
 11
213.9261951274
 21
135.9633439906
 31
0.0
  0
LINE
  5
79
330
1F
100
AcDbEntity
  8
0
  6
Continuous
 62
     7
370
    15
100
AcDbLine
 10
226.3068770594
 20
135.9633439906
 30
0.0
 11
229.4261967367
 21
135.9633439906
 31
0.0
  0
CIRCLE
  5
7A
330
1F
100
AcDbEntity
  8
0
  6
Continuous
 62
     7
370
    15
100
AcDbCircle
 10
196.8253683872
 20
116.4090102293
 30
0.0
 40
4.171999999999988
  0
LINE
  5
7B
330
1F
100
AcDbEntity
  8
0
  6
Continuous
 62
     7
370
    15
100
AcDbLine
 10
197.4149113125
 20
113.5830993053
 30
0.0
 11
199.5674511022
 21
115.5066143592
 31
0.0
  0
LINE
  5
7C
330
1F
100
AcDbEntity
  8
0
  6
Continuous
 62
     7
370
    15
100
AcDbLine
 10
198.9779090113
 20
118.332525225
 30
0.0
 11
199.5674511022
 21
115.5066143592
 31
0.0
  0
LINE
  5
7D
330
1F
100
AcDbEntity
  8
0
  6
Continuous
 62
     7
370
    15
100
AcDbLine
 10
196.2358234054
 20
119.2349211533
 30
0.0
 11
198.9779090113
 21
118.332525225
 31
0.0
  0
LINE
  5
7E
330
1F
100
AcDbEntity
  8
0
  6
Continuous
 62
     7
370
    15
100
AcDbLine
 10
196.2358234054
 20
119.2349211533
 30
0.0
 11
194.0832854784
 21
117.3114060993
 31
0.0
  0
LINE
  5
7F
330
1F
100
AcDbEntity
  8
0
  6
Continuous
 62
     7
370
    15
100
AcDbLine
 10
194.6728294319
 20
114.4854952335
 30
0.0
 11
194.0832854784
 21
117.3114060993
 31
0.0
  0
LINE
  5
80
330
1F
100
AcDbEntity
  8
0
  6
Continuous
 62
     7
370
    15
100
AcDbLine
 10
194.6728294319
 20
114.4854952335
 30
0.0
 11
197.4149113125
 21
113.5830993053
 31
0.0
  0
LINE
  5
81
330
1F
100
AcDbEntity
  8
0
  6
Continuous
 62
     7
370
    15
100
AcDbLine
 10
163.3253683872
 20
85.2090110756
 30
0.0
 11
163.3253683872
 21
147.6090093829
 31
0.0
  0
LINE
  5
82
330
1F
100
AcDbEntity
  8
0
  6
Continuous
 62
     7
370
    15
100
AcDbLine
 10
168.2753683603
 20
136.2590109684
 30
0.0
 11
177.9334358475
 21
136.2590109684
 31
0.0
  0
LINE
  5
83
330
1F
100
AcDbEntity
  8
0
  6
Continuous
 62
     7
370
    15
100
AcDbLine
 10
177.9334358475
 20
86.2220925964
 30
0.0
 11
177.9334358475
 21
136.2590109684
 31
0.0
  0
LINE
  5
84
330
1F
100
AcDbEntity
  8
0
  6
Continuous
 62
     7
370
    15
100
AcDbLine
 10
177.9334358475
 20
86.2220925964
 30
0.0
 11
176.2753687403
 21
86.2220925964
 31
0.0
  0
SPLINE
  5
85
330
1F
100
AcDbEntity
  8
0
  6
Continuous
 62
     7
370
    15
100
AcDbSpline
210
0.0
220
0.0
230
1.0
 70
     8
 71
     3
 72
    28
 73
    24
 74
     0
 42
0.00000001
 43
0.00000001
 40
0.0
 40
0.0
 40
0.0
 40
0.0
 40
0.1250000000000001
 40
0.1250000000000001
 40
0.1875000000000001
 40
0.1875000000000001
 40
0.2500000000000001
 40
0.2500000000000001
 40
0.3749999999999999
 40
0.3749999999999999
 40
0.4375
 40
0.4375
 40
0.4999999999999999
 40
0.4999999999999999
 40
0.6249999999999999
 40
0.6249999999999999
 40
0.7499999999999997
 40
0.7499999999999997
 40
0.8124999999999998
 40
0.8124999999999998
 40
0.8749999999999998
 40
0.8749999999999998
 40
1.0
 40
1.0
 40
1.0
 40
1.0
 10
176.2753683871546
 20
86.22209253301645
 30
0.0
 10
175.7436606296617
 20
86.22209253301646
 30
0.0
 10
175.2214220643513
 20
86.20630781906624
 30
0.0
 10
174.4515515780763
 20
86.16131240499003
 30
0.0
 10
174.197192005885
 20
86.14275740991431
 30
0.0
 10
173.6930704251865
 20
86.0989046874678
 30
0.0
 10
173.4433476077586
 20
86.0735600805156
 30
0.0
 10
172.7177576563122
 20
85.9901580027655
 30
0.0
 10
172.2593973947306
 20
85.9242924436144
 30
0.0
 10
171.6088994513368
 20
85.81532210312263
 30
0.0
 10
171.3972174005443
 20
85.77708246735597
 30
0.0
 10
170.9931459114063
 20
85.69932372993661
 30
0.0
 10
170.8006393975854
 20
85.65982276776127
 30
0.0
 10
170.2508044265641
 20
85.54091502539526
 30
0.0
 10
169.9208756482553
 20
85.46109734397066
 30
0.0
 10
169.3364043796866
 20
85.30775418217459
 30
0.0
 10
169.0901272416732
 20
85.23642042890533
 30
0.0
 10
168.7902844489751
 20
85.14247692183072
 30
0.0
 10
168.701827591903
 20
85.11328312847078
 30
0.0
 10
168.5484662385978
 20
85.05981655420739
 30
0.0
 10
168.4833780243716
 20
85.0354572199322
 30
0.0
 10
168.3277840084308
 20
84.97186707448745
 30
0.0
 10
168.2753683871546
 20
84.9417641393982
 30
0.0
 10
168.2753683871546
 20
84.9248872464013
 30
0.0
  0
LINE
  5
86
330
1F
100
AcDbEntity
  8
0
  6
Continuous
 62
     7
370
    15
100
AcDbLine
 10
168.2753683603
 20
84.9248869099
 30
0.0
 11
168.2753683603
 21
84.9090097226
 31
0.0
  0
SPLINE
  5
87
330
1F
100
AcDbEntity
  8
0
  6
Continuous
 62
     7
370
    15
100
AcDbSpline
210
0.0
220
0.0
230
1.0
 70
     8
 71
     3
 72
    17
 73
    13
 74
     0
 42
0.00000001
 43
0.00000001
 40
0.0
 40
0.0
 40
0.0
 40
0.0
 40
0.1034797280380778
 40
0.2100239090909901
 40
0.3134862262879433
 40
0.4198361712144981
 40
0.5254127947779869
 40
0.6339610881168427
 40
0.7409508662120068
 40
0.8511696072047016
 40
0.9558996557845765
 40
1.0
 40
1.0
 40
1.0
 40
1.0
 10
176.2753687403121
 20
146.8762056656221
 30
0.0
 10
175.8401202485863
 20
146.8816536572597
 30
0.0
 10
174.9567337980092
 20
146.8927109775884
 30
0.0
 10
173.6759059357865
 20
146.9790697379634
 30
0.0
 10
172.4584897403446
 20
147.1069408810964
 30
0.0
 10
171.3506831240187
 20
147.2658852884149
 30
0.0
 10
170.3624446446899
 20
147.4403798613994
 30
0.0
 10
169.5377215448741
 20
147.6095462945863
 30
0.0
 10
168.8887678873755
 20
147.757427103054
 30
0.0
 10
168.4717325838958
 20
147.8592178545766
 30
0.0
 10
168.2731358410178
 20
147.9095747542111
 30
0.0
 10
168.2964489580058
 20
147.9036651492356
 30
0.0
 10
168.3033569320062
 20
147.9019140578845
 30
0.0
  0
LINE
  5
88
330
1F
100
AcDbEntity
  8
0
  6
Continuous
 62
     7
370
    15
100
AcDbLine
 10
177.9334358475
 20
146.8762056656
 30
0.0
 11
176.2753687403
 21
146.8762056656
 31
0.0
  0
LINE
  5
89
330
1F
100
AcDbEntity
  8
0
  6
Continuous
 62
     7
370
    15
100
AcDbLine
 10
177.9334358475
 20
140.8676998444
 30
0.0
 11
177.9334358475
 21
146.8762056656
 31
0.0
  0
LINE
  5
8A
330
1F
100
AcDbEntity
  8
0
  6
Continuous
 62
     7
370
    15
100
AcDbLine
 10
175.520989073
 20
140.8676998444
 30
0.0
 11
177.9334358475
 21
140.8676998444
 31
0.0
  0
SPLINE
  5
8B
330
1F
100
AcDbEntity
  8
0
  6
Continuous
 62
     7
370
    15
100
AcDbSpline
210
0.0
220
0.0
230
1.0
 70
     8
 71
     3
 72
    20
 73
    16
 74
     0
 42
0.00000001
 43
0.00000001
 40
0.0
 40
0.0
 40
0.0
 40
0.0
 40
0.2499999999999997
 40
0.2499999999999997
 40
0.3749999999999997
 40
0.3749999999999997
 40
0.4999999999999998
 40
0.4999999999999998
 40
0.6249999999999998
 40
0.6249999999999998
 40
0.7499999999999999
 40
0.7499999999999999
 40
0.8749999999999999
 40
0.8749999999999999
 40
1.0
 40
1.0
 40
1.0
 40
1.0
 10
168.2753683871546
 20
136.2590102292636
 30
0.0
 10
168.5237421214427
 20
136.912872657561
 30
0.0
 10
168.8433122137879
 20
137.5166584395582
 30
0.0
 10
169.4656184469926
 20
138.3434971757268
 30
0.0
 10
169.6970427074234
 20
138.6059258136797
 30
0.0
 10
170.2182570470731
 20
139.1025884677846
 30
0.0
 10
170.5048775297082
 20
139.3331753468062
 30
0.0
 10
171.1243622710158
 20
139.7497295713888
 30
0.0
 10
171.4586626505028
 20
139.9372273733563
 30
0.0
 10
172.1839231231275
 20
140.2686243509928
 30
0.0
 10
172.565838180518
 20
140.408128338488
 30
0.0
 10
173.3606263566897
 20
140.633581845959
 30
0.0
 10
173.7747845508961
 20
140.7202079575026
 30
0.0
 10
174.6403308914774
 20
140.8381887463567
 30
0.0
 10
175.0782185064893
 20
140.867699891631
 30
0.0
 10
175.5209887328439
 20
140.867699891631
 30
0.0
  0
LINE
  5
8C
330
1F
100
AcDbEntity
  8
0
  6
Continuous
 62
     7
370
    15
100
AcDbLine
 10
188.6753690964
 20
86.2220925964
 30
0.0
 11
184.7173003084
 21
86.2220925964
 31
0.0
  0
LINE
  5
8D
330
1F
100
AcDbEntity
  8
0
  6
Continuous
 62
     7
370
    15
100
AcDbLine
 10
184.7173003084
 20
86.2220925964
 30
0.0
 11
184.7173003084
 21
136.2590109684
 31
0.0
  0
LINE
  5
8E
330
1F
100
AcDbEntity
  8
0
  6
Continuous
 62
     7
370
    15
100
AcDbLine
 10
184.7173003084
 20
136.2590109684
 30
0.0
 11
188.6753690964
 21
136.2590109684
 31
0.0
  0
SPLINE
  5
8F
330
1F
100
AcDbEntity
  8
0
  6
Continuous
 62
     7
370
    15
100
AcDbSpline
210
0.0
220
0.0
230
1.0
 70
     8
 71
     3
 72
     8
 73
     4
 74
     0
 42
0.00000001
 43
0.00000001
 40
0.0
 40
0.0
 40
0.0
 40
0.0
 40
1.0
 40
1.0
 40
1.0
 40
1.0
 10
184.7173012186437
 20
86.22209253301645
 30
0.0
 10
184.2218215579779
 20
87.11761862094981
 30
0.0
 10
183.7277075099358
 20
88.01390303600206
 30
0.0
 10
183.2353683871546
 20
88.91117307020876
 30
0.0
  0
LINE
  5
90
330
1F
100
AcDbEntity
  8
0
  6
Continuous
 62
     7
370
    15
100
AcDbLine
 10
183.2353686518
 20
88.9111729093
 30
0.0
 11
183.2353686518
 21
136.2590109684
 31
0.0
  0
SPLINE
  5
91
330
1F
100
AcDbEntity
  8
0
  6
Continuous
 62
     7
370
    15
100
AcDbSpline
210
0.0
220
0.0
230
1.0
 70
    24
 71
     3
 72
     8
 73
     4
 74
     0
 42
0.00000001
 43
0.00000001
 40
0.0
 40
0.0
 40
0.0
 40
0.0
 40
1.0
 40
1.0
 40
1.0
 40
1.0
 10
183.2353683871546
 20
136.2590102292636
 30
0.0
 10
183.7153203815195
 20
136.2590102292636
 30
0.0
 10
184.2106211104932
 20
136.2590102292636
 30
0.0
 10
184.7173012186437
 20
136.2590102292636
 30
0.0
  0
LINE
  5
92
330
1F
100
AcDbEntity
  8
0
  6
Continuous
 62
     7
370
    15
100
AcDbLine
 10
189.2753680772
 20
86.8487329908
 30
0.0
 11
189.2753680772
 21
136.2590109684
 31
0.0
  0
SPLINE
  5
93
330
1F
100
AcDbEntity
  8
0
  6
Continuous
 62
     7
370
    15
100
AcDbSpline
210
0.0
220
0.0
230
1.0
 70
     8
 71
     3
 72
    10
 73
     6
 74
     0
 42
0.00000001
 43
0.00000001
 40
0.0
 40
0.0
 40
0.0
 40
0.0
 40
0.5
 40
0.5
 40
1.0
 40
1.0
 40
1.0
 40
1.0
 10
189.2753683871546
 20
86.84873282867076
 30
0.0
 10
189.2753683871546
 20
86.6888455604771
 30
0.0
 10
189.2140587359188
 20
86.5277183049625
 30
0.0
 10
188.9949590983837
 20
86.29361930660767
 30
0.0
 10
188.8369108920702
 20
86.22209253301645
 30
0.0
 10
188.6753683871546
 20
86.22209253301645
 30
0.0
  0
SPLINE
  5
94
330
1F
100
AcDbEntity
  8
0
  6
Continuous
 62
     7
370
    15
100
AcDbSpline
210
0.0
220
0.0
230
1.0
 70
    24
 71
     3
 72
    12
 73
     8
 74
     0
 42
0.00000001
 43
0.00000001
 40
0.0
 40
0.0
 40
0.0
 40
0.0
 40
0.2500000000000033
 40
0.2500000000000033
 40
0.5000000000000067
 40
0.5000000000000067
 40
1.0
 40
1.0
 40
1.0
 40
1.0
 10
188.6753683871546
 20
136.2590102292636
 30
0.0
 10
188.7656074548417
 20
136.2590102292636
 30
0.0
 10
188.8565055689481
 20
136.2590102292636
 30
0.0
 10
189.0111026054367
 20
136.2590102292636
 30
0.0
 10
189.0760810215448
 20
136.2590102292636
 30
0.0
 10
189.227916049481
 20
136.2590102292636
 30
0.0
 10
189.2753683871546
 20
136.2590102292636
 30
0.0
 10
189.2753683871546
 20
136.2590102292636
 30
0.0
  0
LINE
  5
95
330
1F
100
AcDbEntity
  8
0
  6
Continuous
 62
     7
370
    15
100
AcDbLine
 10
179.4153684354
 20
88.9111729093
 30
0.0
 11
179.4153684354
 21
136.2590109684
 31
0.0
  0
SPLINE
  5
96
330
1F
100
AcDbEntity
  8
0
  6
Continuous
 62
     7
370
    15
100
AcDbSpline
210
0.0
220
0.0
230
1.0
 70
     8
 71
     3
 72
     8
 73
     4
 74
     0
 42
0.00000001
 43
0.00000001
 40
0.0
 40
0.0
 40
0.0
 40
0.0
 40
1.0
 40
1.0
 40
1.0
 40
1.0
 10
179.4153683871546
 20
88.91117307020875
 30
0.0
 10
178.9230292643734
 20
88.01390303600205
 30
0.0
 10
178.4289152163313
 20
87.1176186209498
 30
0.0
 10
177.9334355556656
 20
86.22209253301645
 30
0.0
  0
SPLINE
  5
97
330
1F
100
AcDbEntity
  8
0
  6
Continuous
 62
     7
370
    15
100
AcDbSpline
210
0.0
220
0.0
230
1.0
 70
    24
 71
     3
 72
     8
 73
     4
 74
     0
 42
0.00000001
 43
0.00000001
 40
0.0
 40
0.0
 40
0.0
 40
0.0
 40
1.0
 40
1.0
 40
1.0
 40
1.0
 10
177.9334355556656
 20
136.2590102292636
 30
0.0
 10
178.4401156638161
 20
136.2590102292636
 30
0.0
 10
178.9354163927897
 20
136.2590102292636
 30
0.0
 10
179.4153683871546
 20
136.2590102292636
 30
0.0
  0
SPLINE
  5
98
330
1F
100
AcDbEntity
  8
0
  6
Continuous
 62
     7
370
    15
100
AcDbSpline
210
0.0
220
0.0
230
1.0
 70
     8
 71
     3
 72
    10
 73
     6
 74
     0
 42
0.00000001
 43
0.00000001
 40
0.0
 40
0.0
 40
0.0
 40
0.0
 40
0.5
 40
0.5
 40
1.0
 40
1.0
 40
1.0
 40
1.0
 10
179.8096659188456
 20
142.8090102292636
 30
0.0
 10
179.6881256551771
 20
142.8837363964754
 30
0.0
 10
179.5867912948281
 20
142.9926814123922
 30
0.0
 10
179.4511523519397
 20
143.2431118931538
 30
0.0
 10
179.4153683871546
 20
143.3855312552527
 30
0.0
 10
179.4153683871546
 20
143.5286640802994
 30
0.0
  0
SPLINE
  5
99
330
1F
100
AcDbEntity
  8
0
  6
Continuous
 62
     7
370
    15
100
AcDbSpline
210
0.0
220
0.0
230
1.0
 70
    24
 71
     3
 72
    12
 73
     8
 74
     0
 42
0.00000001
 43
0.00000001
 40
0.0
 40
0.0
 40
0.0
 40
0.0
 40
0.2500000000000037
 40
0.2500000000000037
 40
0.5000000000000074
 40
0.5000000000000074
 40
1.0
 40
1.0
 40
1.0
 40
1.0
 10
180.2153683871546
 20
142.8090102292636
 30
0.0
 10
180.1654917048372
 20
142.8090102292636
 30
0.0
 10
180.1174885114335
 20
142.8090102292636
 30
0.0
 10
180.0344404087216
 20
142.8090102292636
 30
0.0
 10
179.9983108292537
 20
142.8090102292636
 30
0.0
 10
179.9023987983095
 20
142.8090102292636
 30
0.0
 10
179.8526401303407
 20
142.8090102292636
 30
0.0
 10
179.8096659188456
 20
142.8090102292636
 30
0.0
  0
SPLINE
  5
9A
330
1F
100
AcDbEntity
  8
0
  6
Continuous
 62
     7
370
    15
100
AcDbSpline
210
0.0
220
0.0
230
1.0
 70
    24
 71
     3
 72
    14
 73
    10
 74
     0
 42
0.00000001
 43
0.00000001
 40
0.0
 40
0.0
 40
0.0
 40
0.0
 40
0.1249999999999991
 40
0.1249999999999991
 40
0.2499999999999982
 40
0.2499999999999982
 40
0.4999999999999998
 40
0.4999999999999998
 40
1.0
 40
1.0
 40
1.0
 40
1.0
 10
180.2153683871546
 20
90.00901022926361
 30
0.0
 10
180.1469305392682
 20
90.00901022926361
 30
0.0
 10
180.0813805005031
 20
90.00901022926362
 30
0.0
 10
179.9769538610952
 20
90.00901022926362
 30
0.0
 10
179.9344092513338
 20
90.00901022926362
 30
0.0
 10
179.8217997907935
 20
90.00901022926361
 30
0.0
 10
179.766260743774
 20
90.00901022926361
 30
0.0
 10
179.6236490483102
 20
90.00901022926361
 30
0.0
 10
179.5602436933144
 20
90.00901022926361
 30
0.0
 10
179.5130431894869
 20
90.00901022926361
 30
0.0
  0
SPLINE
  5
9B
330
1F
100
AcDbEntity
  8
0
  6
Continuous
 62
     7
370
    15
100
AcDbSpline
210
0.0
220
0.0
230
1.0
 70
     8
 71
     3
 72
    10
 73
     6
 74
     0
 42
0.00000001
 43
0.00000001
 40
0.0
 40
0.0
 40
0.0
 40
0.0
 40
0.5
 40
0.5
 40
1.0
 40
1.0
 40
1.0
 40
1.0
 10
179.4153683871546
 20
136.544876860725
 30
0.0
 10
179.4153683871546
 20
136.4971053527317
 30
0.0
 10
179.4175296307518
 20
136.44939563067
 30
0.0
 10
179.4262010046119
 20
136.3541005131218
 30
0.0
 10
179.4327301875679
 20
136.3064079491551
 30
0.0
 10
179.4415160103148
 20
136.2590102292636
 30
0.0
  0
SPLINE
  5
9C
330
1F
100
AcDbEntity
  8
0
  6
Continuous
 62
     7
370
    15
100
AcDbSpline
210
0.0
220
0.0
230
1.0
 70
    24
 71
     3
 72
    14
 73
    10
 74
     0
 42
0.00000001
 43
0.00000001
 40
0.0
 40
0.0
 40
0.0
 40
0.0
 40
0.5000000000000013
 40
0.5000000000000013
 40
0.750000000000002
 40
0.750000000000002
 40
0.875000000000001
 40
0.875000000000001
 40
1.0
 40
1.0
 40
1.0
 40
1.0
 10
183.1376935848223
 20
90.00901022926361
 30
0.0
 10
183.0909088797741
 20
90.00901022926361
 30
0.0
 10
183.0288576829945
 20
90.00901022926362
 30
0.0
 10
182.8854660444439
 20
90.00901022926361
 30
0.0
 10
182.8293223908927
 20
90.00901022926361
 30
0.0
 10
182.7163713687566
 20
90.00901022926361
 30
0.0
 10
182.6733706067184
 20
90.00901022926361
 30
0.0
 10
182.5693078964119
 20
90.00901022926361
 30
0.0
 10
182.503975658055
 20
90.00901022926362
 30
0.0
 10
182.4353683871546
 20
90.00901022926361
 30
0.0
  0
SPLINE
  5
9D
330
1F
100
AcDbEntity
  8
0
  6
Continuous
 62
     7
370
    15
100
AcDbSpline
210
0.0
220
0.0
230
1.0
 70
    24
 71
     3
 72
    12
 73
     8
 74
     0
 42
0.00000001
 43
0.00000001
 40
0.0
 40
0.0
 40
0.0
 40
0.0
 40
0.5000000000000017
 40
0.5000000000000017
 40
0.7500000000000008
 40
0.7500000000000008
 40
1.0
 40
1.0
 40
1.0
 40
1.0
 10
182.8410708554636
 20
142.8090102292636
 30
0.0
 10
182.7979853058527
 20
142.8090102292636
 30
0.0
 10
182.7488331041034
 20
142.8090102292636
 30
0.0
 10
182.6523605098155
 20
142.8090102292636
 30
0.0
 10
182.6162589246809
 20
142.8090102292636
 30
0.0
 10
182.5331531668196
 20
142.8090102292636
 30
0.0
 10
182.4851565698533
 20
142.8090102292636
 30
0.0
 10
182.4353683871546
 20
142.8090102292636
 30
0.0
  0
SPLINE
  5
9E
330
1F
100
AcDbEntity
  8
0
  6
Continuous
 62
     7
370
    15
100
AcDbSpline
210
0.0
220
0.0
230
1.0
 70
     8
 71
     3
 72
    10
 73
     6
 74
     0
 42
0.00000001
 43
0.00000001
 40
0.0
 40
0.0
 40
0.0
 40
0.0
 40
0.5
 40
0.5
 40
1.0
 40
1.0
 40
1.0
 40
1.0
 10
183.2353683871546
 20
143.5286640802994
 30
0.0
 10
183.2353683871546
 20
143.3848940224814
 30
0.0
 10
183.1993193284357
 20
143.2424746599862
 30
0.0
 10
183.0638104676617
 20
142.992580366629
 30
0.0
 10
182.9639344745655
 20
142.8845500303808
 30
0.0
 10
182.8410708554636
 20
142.8090102292636
 30
0.0
  0
SPLINE
  5
9F
330
1F
100
AcDbEntity
  8
0
  6
Continuous
 62
     7
370
    15
100
AcDbSpline
210
0.0
220
0.0
230
1.0
 70
     8
 71
     3
 72
    10
 73
     6
 74
     0
 42
0.00000001
 43
0.00000001
 40
0.0
 40
0.0
 40
0.0
 40
0.0
 40
0.5
 40
0.5
 40
1.0
 40
1.0
 40
1.0
 40
1.0
 10
183.2092207639945
 20
136.2590102292636
 30
0.0
 10
183.2179104069062
 20
136.3058890785818
 30
0.0
 10
183.2244494716566
 20
136.353311543983
 30
0.0
 10
183.2332081060497
 20
136.4492483425698
 30
0.0
 10
183.2353683871546
 20
136.4971636305802
 30
0.0
 10
183.2353683871546
 20
136.5448768607248
 30
0.0
  0
LINE
  5
A0
330
1F
100
AcDbEntity
  8
0
  6
Continuous
 62
     7
370
    15
100
AcDbLine
 10
182.4353681481
 20
142.8090100862
 30
0.0
 11
180.2153689391
 21
142.8090100862
 31
0.0
  0
LINE
  5
A1
330
1F
100
AcDbEntity
  8
0
  6
Continuous
 62
     7
370
    15
100
AcDbLine
 10
182.4353681481
 20
90.0090103723
 30
0.0
 11
180.2153689391
 21
90.0090103723
 31
0.0
  0
LINE
  5
A2
330
1F
100
AcDbEntity
  8
0
  6
Continuous
 62
     7
370
    15
100
AcDbLine
 10
141.5253681666
 20
93.1805642076
 30
0.0
 11
141.5253681666
 21
94.4638615228
 31
0.0
  0
SPLINE
  5
A3
330
1F
100
AcDbEntity
  8
0
  6
Continuous
 62
     7
370
    15
100
AcDbSpline
210
0.0
220
0.0
230
1.0
 70
     8
 71
     3
 72
    14
 73
    10
 74
     0
 42
0.00000001
 43
0.00000001
 40
0.0
 40
0.0
 40
0.0
 40
0.0
 40
0.25
 40
0.25
 40
0.5
 40
0.5
 40
0.75
 40
0.75
 40
1.0
 40
1.0
 40
1.0
 40
1.0
 10
140.9037641504148
 20
95.5446390119804
 30
0.0
 10
140.9422005352359
 20
95.44201461426886
 30
0.0
 10
141.0110019286277
 20
95.34281819082929
 30
0.0
 10
141.1542879407867
 20
95.15192616150279
 30
0.0
 10
141.2294699958936
 20
95.05966889546988
 30
0.0
 10
141.3616572845437
 20
94.88006157365487
 30
0.0
 10
141.4191744800135
 20
94.79275201921052
 30
0.0
 10
141.5012192783058
 20
94.62281818569478
 30
0.0
 10
141.5253683871546
 20
94.54091584382363
 30
0.0
 10
141.5253683871546
 20
94.46386196998772
 30
0.0
  0
SPLINE
  5
A4
330
1F
100
AcDbEntity
  8
0
  6
Continuous
 62
     7
370
    15
100
AcDbSpline
210
0.0
220
0.0
230
1.0
 70
     8
 71
     3
 72
    18
 73
    14
 74
     0
 42
0.00000001
 43
0.00000001
 40
0.0
 40
0.0
 40
0.0
 40
0.0
 40
0.0624999999999994
 40
0.0624999999999994
 40
0.1249999999999988
 40
0.1249999999999988
 40
0.2499999999999975
 40
0.2499999999999975
 40
0.4999999999999983
 40
0.4999999999999983
 40
0.7499999999999991
 40
0.7499999999999991
 40
1.0
 40
1.0
 40
1.0
 40
1.0
 10
140.1253683871546
 20
96.26292146346698
 30
0.0
 10
140.161940597505
 20
96.26669886699443
 30
0.0
 10
140.2005910709405
 20
96.26614183911128
 30
0.0
 10
140.2746825646543
 20
96.25608263394942
 30
0.0
 10
140.3100328584084
 20
96.24672875252485
 30
0.0
 10
140.4046271557978
 20
96.21234432609104
 30
0.0
 10
140.4547653289368
 20
96.18163259142821
 30
0.0
 10
140.583958600518
 20
96.08570328139018
 30
0.0
 10
140.6422387452591
 20
96.01718778727293
 30
0.0
 10
140.7424338416826
 20
95.88061583734032
 30
0.0
 10
140.7824490931292
 20
95.81185093483741
 30
0.0
 10
140.850848513947
 20
95.67681550572976
 30
0.0
 10
140.8792102378089
 20
95.61019747967661
 30
0.0
 10
140.9037641504148
 20
95.5446390119804
 30
0.0
  0
SPLINE
  5
A5
330
1F
100
AcDbEntity
  8
0
  6
Continuous
 62
     7
370
    15
100
AcDbSpline
210
0.0
220
0.0
230
1.0
 70
     8
 71
     3
 72
    10
 73
     6
 74
     0
 42
0.00000001
 43
0.00000001
 40
0.0
 40
0.0
 40
0.0
 40
0.0
 40
0.5
 40
0.5
 40
1.0
 40
1.0
 40
1.0
 40
1.0
 10
136.2117665260326
 20
95.76672780709538
 30
0.0
 10
136.8384930215189
 20
95.86985308360954
 30
0.0
 10
137.4893021823007
 20
95.95865778166247
 30
0.0
 10
138.7986972747165
 20
96.12086812411943
 30
0.0
 10
139.460053944687
 20
96.1942036830058
 30
0.0
 10
140.1253683871546
 20
96.26292146346701
 30
0.0
  0
SPLINE
  5
A6
330
1F
100
AcDbEntity
  8
0
  6
Continuous
 62
     7
370
    15
100
AcDbSpline
210
0.0
220
0.0
230
1.0
 70
     8
 71
     3
 72
    14
 73
    10
 74
     0
 42
0.00000001
 43
0.00000001
 40
0.0
 40
0.0
 40
0.0
 40
0.0
 40
0.4999999999999998
 40
0.4999999999999998
 40
0.7499999999999998
 40
0.7499999999999998
 40
0.8749999999999999
 40
0.8749999999999999
 40
1.0
 40
1.0
 40
1.0
 40
1.0
 10
132.5753683871546
 20
95.60237867073607
 30
0.0
 10
133.1914452909099
 20
95.60810479096521
 30
0.0
 10
133.8055772870258
 20
95.61799515636723
 30
0.0
 10
134.7194739175393
 20
95.64863012403701
 30
0.0
 10
135.022912845087
 20
95.66142358167498
 30
0.0
 10
135.4740494607244
 20
95.68934940963439
 30
0.0
 10
135.623755710267
 20
95.70011902979414
 30
0.0
 10
135.920596846515
 20
95.72725174539369
 30
0.0
 10
136.0679823990183
 20
95.74306871822091
 30
0.0
 10
136.2117665260326
 20
95.76672780709539
 30
0.0
  0
SPLINE
  5
A7
330
1F
100
AcDbEntity
  8
0
  6
Continuous
 62
     7
370
    15
100
AcDbSpline
210
0.0
220
0.0
230
1.0
 70
     8
 71
     3
 72
     8
 73
     4
 74
     0
 42
0.00000001
 43
0.00000001
 40
0.0000005954826266
 40
0.0000005954826266
 40
0.0000005954826266
 40
0.0000005954826266
 40
0.0000302093805348
 40
0.0000302093805348
 40
0.0000302093805348
 40
0.0000302093805348
 10
132.5653234567446
 20
95.61419380038848
 30
0.0
 10
132.5686394840649
 20
95.6102470207925
 30
0.0
 10
132.5719880354573
 20
95.6063086296624
 30
0.0
 10
132.5753683871546
 20
95.60237867073606
 30
0.0
  0
SPLINE
  5
A8
330
1F
100
AcDbEntity
  8
0
  6
Continuous
 62
     7
370
    15
100
AcDbSpline
210
0.0
220
0.0
230
1.0
 70
     8
 71
     3
 72
     8
 73
     4
 74
     0
 42
0.00000001
 43
0.00000001
 40
0.0000005099763573
 40
0.0000005099763573
 40
0.0000005099763573
 40
0.0000005099763573
 40
0.0000262827998699
 40
0.0000262827998699
 40
0.0000262827998699
 40
0.0000262827998699
 10
132.5753683871546
 20
137.2789479946587
 30
0.0
 10
132.5719996479269
 20
137.2756263257028
 30
0.0
 10
132.5686511949477
 20
137.2722983684239
 30
0.0
 10
132.5653234567364
 20
137.2689641215512
 30
0.0
  0
SPLINE
  5
A9
330
1F
100
AcDbEntity
  8
0
  6
Continuous
 62
     7
370
    15
100
AcDbSpline
210
0.0
220
0.0
230
1.0
 70
     8
 71
     3
 72
    10
 73
     6
 74
     0
 42
0.00000001
 43
0.00000001
 40
0.0
 40
0.0
 40
0.0
 40
0.0
 40
0.5
 40
0.5
 40
1.0
 40
1.0
 40
1.0
 40
1.0
 10
136.1253683871546
 20
137.2320976210914
 30
0.0
 10
135.537782840064
 20
137.2531631413278
 30
0.0
 10
134.9470364466037
 20
137.2639216272
 30
0.0
 10
133.7630172813048
 20
137.2772864077357
 30
0.0
 10
133.1696032930993
 20
137.2794290504002
 30
0.0
 10
132.5753683871546
 20
137.2789479946587
 30
0.0
  0
SPLINE
  5
AA
330
1F
100
AcDbEntity
  8
0
  6
Continuous
 62
     7
370
    15
100
AcDbSpline
210
0.0
220
0.0
230
1.0
 70
     8
 71
     3
 72
    18
 73
    14
 74
     0
 42
0.00000001
 43
0.00000001
 40
0.0
 40
0.0
 40
0.0
 40
0.0
 40
0.2500000000000009
 40
0.2500000000000009
 40
0.500000000000001
 40
0.500000000000001
 40
0.7500000000000011
 40
0.7500000000000011
 40
0.875000000000001
 40
0.875000000000001
 40
0.9375000000000006
 40
0.9375000000000006
 40
1.0
 40
1.0
 40
1.0
 40
1.0
 10
137.5253683871546
 20
138.2531179016266
 30
0.0
 10
137.5253683871546
 20
138.1699109927694
 30
0.0
 10
137.4895192872164
 20
138.0811743374558
 30
0.0
 10
137.3646475511824
 20
137.8990491468956
 30
0.0
 10
137.2742471335346
 20
137.803919098269
 30
0.0
 10
137.0520044787924
 20
137.6147375891447
 30
0.0
 10
136.9222396923466
 20
137.5197924210499
 30
0.0
 10
136.6816022350351
 20
137.38151371347
 30
0.0
 10
136.5938349368977
 20
137.3358032801676
 30
0.0
 10
136.4393108496909
 20
137.2779799749462
 30
0.0
 10
136.3826999636361
 20
137.2602652109083
 30
0.0
 10
136.2586559327295
 20
137.2357259076754
 30
0.0
 10
136.1909412577112
 20
137.2297467691371
 30
0.0
 10
136.1253683871546
 20
137.2320976210914
 30
0.0
  0
LINE
  5
AB
330
1F
100
AcDbEntity
  8
0
  6
Continuous
 62
     7
370
    15
100
AcDbLine
 10
137.525367511
 20
138.2531178869
 30
0.0
 11
137.525367511
 21
139.437056122
 31
0.0
  0
LINE
  5
AC
330
1F
100
AcDbEntity
  8
0
  6
Continuous
 62
     7
370
    15
100
AcDbLine
 10
161.3253682922
 20
92.1885790058
 30
0.0
 11
161.3253682922
 21
140.6294414528
 31
0.0
  0
SPLINE
  5
AD
330
1F
100
AcDbEntity
  8
0
  6
Continuous
 62
     7
370
    15
100
AcDbSpline
210
0.0
220
0.0
230
1.0
 70
     8
 71
     3
 72
    24
 73
    20
 74
     0
 42
0.00000001
 43
0.00000001
 40
0.0
 40
0.0
 40
0.0
 40
0.0
 40
0.0010489815523775
 40
0.0637843212772741
 40
0.1272220630088516
 40
0.1903789073370505
 40
0.2526748662763491
 40
0.3146354150030102
 40
0.3770891884518245
 40
0.4393540587943444
 40
0.5008133488401828
 40
0.5621845177353679
 40
0.6248438462901906
 40
0.6874304788646655
 40
0.7496743245911356
 40
0.811984857412469
 40
0.8750960476811308
 40
0.9384412548145236
 40
1.0
 40
1.0
 40
1.0
 40
1.0
 10
150.0942743918815
 20
92.75150203481705
 30
0.0
 10
150.0938277261308
 20
92.75144338985056
 30
0.0
 10
150.0666677902072
 20
92.74787742686988
 30
0.0
 10
150.162297713339
 20
92.76074203634509
 30
0.0
 10
150.3958508893595
 20
92.78997651868515
 30
0.0
 10
150.7914068415939
 20
92.83659572942656
 30
0.0
 10
151.3184468419639
 20
92.88677652885173
 30
0.0
 10
151.9619772838002
 20
92.93115520229478
 30
0.0
 10
152.7006511180699
 20
92.95809839880557
 30
0.0
 10
153.4981657881888
 20
92.96157014710771
 30
0.0
 10
154.3247448379533
 20
92.93394470081428
 30
0.0
 10
155.150267659372
 20
92.87546355783564
 30
0.0
 10
155.9423941302877
 20
92.79002049443706
 30
0.0
 10
156.674966509125
 20
92.68828532594455
 30
0.0
 10
157.3106066909457
 20
92.58044167489662
 30
0.0
 10
157.832517621492
 20
92.4788102796218
 30
0.0
 10
158.2141464591309
 20
92.39632831532928
 30
0.0
 10
158.4649611350642
 20
92.34017620782238
 30
0.0
 10
158.4940824507715
 20
92.3333273569095
 30
0.0
 10
158.5084348521152
 20
92.3299519099334
 30
0.0
  0
SPLINE
  5
AE
330
1F
100
AcDbEntity
  8
0
  6
Continuous
 62
     7
370
    15
100
AcDbSpline
210
0.0
220
0.0
230
1.0
 70
     8
 71
     3
 72
    24
 73
    20
 74
     0
 42
0.00000001
 43
0.00000001
 40
0.0
 40
0.0
 40
0.0
 40
0.0
 40
0.061438429114026
 40
0.1250736777967296
 40
0.1884253375120635
 40
0.2508623992448768
 40
0.3129665476325514
 40
0.3753451442328022
 40
0.4377328732174486
 40
0.499092717251918
 40
0.560580729454827
 40
0.622946985474185
 40
0.6854686070210457
 40
0.7475477863222202
 40
0.8098225081553685
 40
0.873068419947611
 40
0.936404185690527
 40
0.9991757203144552
 40
1.0
 40
1.0
 40
1.0
 40
1.0
 10
158.5083803697446
 20
140.4880387462715
 30
0.0
 10
158.4937795612924
 20
140.4846705883985
 30
0.0
 10
158.4640558714414
 20
140.4778138393141
 30
0.0
 10
158.2113178714555
 20
140.421476019418
 30
0.0
 10
157.8283225724343
 20
140.3386182065327
 30
0.0
 10
157.3059666155513
 20
140.2367114583117
 30
0.0
 10
156.6711822708497
 20
140.1288728884226
 30
0.0
 10
155.9409585342355
 20
140.0274066351937
 30
0.0
 10
155.1504904393244
 20
139.9423445566265
 30
0.0
 10
154.3260067118667
 20
139.8841431996699
 30
0.0
 10
153.4989703313867
 20
139.8565587519853
 30
0.0
 10
152.7006458723962
 20
139.8600526805195
 30
0.0
 10
151.9608221213966
 20
139.8870063391931
 30
0.0
 10
151.316567249937
 20
139.9313618398065
 30
0.0
 10
150.7891603928394
 20
139.9815670235293
 30
0.0
 10
150.3944951525263
 20
140.0281744835745
 30
0.0
 10
150.1619664669382
 20
140.0573776604128
 30
0.0
 10
150.0665872382719
 20
140.07013579913
 30
0.0
 10
150.0935201825987
 20
140.0665959692113
 30
0.0
 10
150.0938692665615
 20
140.0665500886777
 30
0.0
  0
LINE
  5
AF
330
1F
100
AcDbEntity
  8
0
  6
Continuous
 62
     7
370
    15
100
AcDbLine
 10
192.2753685689
 20
136.4090097822
 30
0.0
 11
192.2753685689
 21
96.4090106763
 31
0.0
  0
SPLINE
  5
B0
330
1F
100
AcDbEntity
  8
0
  6
Continuous
 62
     7
370
    15
100
AcDbSpline
210
0.0
220
0.0
230
1.0
 70
     8
 71
     3
 72
     9
 73
     5
 74
     0
 42
0.00000001
 43
0.00000001
 40
0.0
 40
0.0
 40
0.0
 40
0.0
 40
0.5865081526888636
 40
1.0
 40
1.0
 40
1.0
 40
1.0
 10
131.4318878180304
 20
96.75819144919903
 30
0.0
 10
131.4358882546123
 20
96.75239097698515
 30
0.0
 10
131.442709023537
 20
96.7425011362604
 30
0.0
 10
131.4518627346402
 20
96.79656714178755
 30
0.0
 10
131.455647719554
 20
96.81892299428971
 30
0.0
  0
LINE
  5
B1
330
1F
100
AcDbEntity
  8
0
  6
Continuous
 62
     7
370
    15
100
AcDbLine
 10
131.42536856
 20
96.7558501042
 30
0.0
 11
131.42536856
 21
136.0996877529
 31
0.0
  0
SPLINE
  5
B2
330
1F
100
AcDbEntity
  8
0
  6
Continuous
 62
     7
370
    15
100
AcDbSpline
210
0.0
220
0.0
230
1.0
 70
     8
 71
     3
 72
    10
 73
     6
 74
     0
 42
0.00000001
 43
0.00000001
 40
0.0
 40
0.0
 40
0.0
 40
0.0
 40
0.5
 40
0.5
 40
1.0
 40
1.0
 40
1.0
 40
1.0
 10
131.488031761878
 20
136.0835627740443
 30
0.0
 10
131.4791274727693
 20
136.1293042932575
 30
0.0
 10
131.4626120925763
 20
136.1464951327265
 30
0.0
 10
131.4355041465147
 20
136.1461718557908
 30
0.0
 10
131.4253683871546
 20
136.1282943134944
 30
0.0
 10
131.4253683871546
 20
136.0996879757418
 30
0.0
  0
SPLINE
  5
B3
330
1F
100
AcDbEntity
  8
0
  6
Continuous
 62
     7
370
    15
100
AcDbSpline
210
0.0
220
0.0
230
1.0
 70
     8
 71
     3
 72
    26
 73
    22
 74
     0
 42
0.00000001
 43
0.00000001
 40
0.0
 40
0.0
 40
0.0
 40
0.0
 40
0.2500000000000165
 40
0.2500000000000165
 40
0.3750000000000256
 40
0.3750000000000256
 40
0.4375000000000291
 40
0.4375000000000291
 40
0.4687500000000291
 40
0.4687500000000291
 40
0.5000000000000292
 40
0.5000000000000292
 40
0.5312500000000293
 40
0.5312500000000293
 40
0.5625000000000293
 40
0.5625000000000293
 40
0.625000000000026
 40
0.625000000000026
 40
0.7500000000000173
 40
0.7500000000000173
 40
1.0
 40
1.0
 40
1.0
 40
1.0
 10
132.2495220332591
 20
136.7991295628615
 30
0.0
 10
132.2109215103906
 20
136.681354866506
 30
0.0
 10
132.1646245078364
 20
136.5569651803441
 30
0.0
 10
132.0706851594024
 20
136.3517458479906
 30
0.0
 10
132.035373692489
 20
136.2801729815442
 30
0.0
 10
131.9691937167433
 20
136.1642197489437
 30
0.0
 10
131.9446553500751
 20
136.1236352141335
 30
0.0
 10
131.9012826045213
 20
136.0594935322617
 30
0.0
 10
131.8857742030961
 20
136.0376271069767
 30
0.0
 10
131.8507315585091
 20
135.9920328386335
 30
0.0
 10
131.8311812677893
 20
135.9683625476661
 30
0.0
 10
131.7892539874187
 20
135.9237459883261
 30
0.0
 10
131.7666018771871
 20
135.9028659758082
 30
0.0
 10
131.7256281631005
 20
135.8719925620574
 30
0.0
 10
131.708028863205
 20
135.862153692225
 30
0.0
 10
131.6634018773489
 20
135.8431640765288
 30
0.0
 10
131.6428426546956
 20
135.8428397518754
 30
0.0
 10
131.5917172151989
 20
135.8520631927516
 30
0.0
 10
131.5708058022103
 20
135.8733100889686
 30
0.0
 10
131.5193558946494
 20
135.9472789677993
 30
0.0
 10
131.5016905953449
 20
136.0133970611141
 30
0.0
 10
131.488031761878
 20
136.0835627740443
 30
0.0
  0
SPLINE
  5
B4
330
1F
100
AcDbEntity
  8
0
  6
Continuous
 62
     7
370
    15
100
AcDbSpline
210
0.0
220
0.0
230
1.0
 70
     8
 71
     3
 72
    10
 73
     6
 74
     0
 42
0.00000001
 43
0.00000001
 40
0.0
 40
0.0
 40
0.0
 40
0.0
 40
0.5
 40
0.5
 40
1.0
 40
1.0
 40
1.0
 40
1.0
 10
132.5653234567364
 20
137.2689641215512
 30
0.0
 10
132.4977642018182
 20
137.2012727287415
 30
0.0
 10
132.4341275464817
 20
137.1265655639879
 30
0.0
 10
132.3239067919098
 20
136.9675994315612
 30
0.0
 10
132.2770904986872
 20
136.8832441655533
 30
0.0
 10
132.2495220332591
 20
136.7991295628615
 30
0.0
  0
SPLINE
  5
B5
330
1F
100
AcDbEntity
  8
0
  6
Continuous
 62
     7
370
    15
100
AcDbSpline
210
0.0
220
0.0
230
1.0
 70
     8
 71
     3
 72
     8
 73
     4
 74
     0
 42
0.00000001
 43
0.00000001
 40
0.0
 40
0.0
 40
0.0
 40
0.0
 40
1.0
 40
1.0
 40
1.0
 40
1.0
 10
132.3642779573538
 20
95.965087926298
 30
0.0
 10
132.3999916157236
 20
95.84185642103841
 30
0.0
 10
132.4756596546717
 20
95.72091284409161
 30
0.0
 10
132.5653234567446
 20
95.61419380038849
 30
0.0
  0
SPLINE
  5
B6
330
1F
100
AcDbEntity
  8
0
  6
Continuous
 62
     7
370
    15
100
AcDbSpline
210
0.0
220
0.0
230
1.0
 70
     8
 71
     3
 72
    26
 73
    22
 74
     0
 42
0.00000001
 43
0.00000001
 40
0.0
 40
0.0
 40
0.0
 40
0.0
 40
0.250000000000006
 40
0.250000000000006
 40
0.3750000000000084
 40
0.3750000000000084
 40
0.4375000000000108
 40
0.4375000000000108
 40
0.4687500000000108
 40
0.4687500000000108
 40
0.5000000000000109
 40
0.5000000000000109
 40
0.531250000000011
 40
0.531250000000011
 40
0.562500000000011
 40
0.562500000000011
 40
0.6250000000000085
 40
0.6250000000000085
 40
0.7500000000000053
 40
0.7500000000000053
 40
1.0
 40
1.0
 40
1.0
 40
1.0
 10
131.4556460027632
 20
96.81892266903678
 30
0.0
 10
131.4663700361558
 20
96.92188370952577
 30
0.0
 10
131.4811030267503
 20
97.02088239900684
 30
0.0
 10
131.5334565859973
 20
97.13947807907198
 30
0.0
 10
131.555161868717
 20
97.17518837902077
 30
0.0
 10
131.6140173760824
 20
97.20016781184248
 30
0.0
 10
131.6374796099296
 20
97.20455325960603
 30
0.0
 10
131.6936009865902
 20
97.18480042616186
 30
0.0
 10
131.7163882967209
 20
97.1731440353514
 30
0.0
 10
131.7716408492521
 20
97.13136368591411
 30
0.0
 10
131.8030470819929
 20
97.10109209853807
 30
0.0
 10
131.8579809026133
 20
97.0394496996241
 30
0.0
 10
131.8824047208128
 20
97.00800804731726
 30
0.0
 10
131.9258198268
 20
96.94827320990353
 30
0.0
 10
131.9453943893683
 20
96.91910820003088
 30
0.0
 10
131.9990270733163
 20
96.83527292429784
 30
0.0
 10
132.0288044213684
 20
96.78324030632163
 30
0.0
 10
132.1103384813412
 20
96.63217463235428
 30
0.0
 10
132.1535812760152
 20
96.53898359048355
 30
0.0
 10
132.2666358656699
 20
96.27459705148924
 30
0.0
 10
132.3206468631491
 20
96.1156388824394
 30
0.0
 10
132.3642779573531
 20
95.96508792629857
 30
0.0
  0
SPLINE
  5
B7
330
1F
100
AcDbEntity
  8
0
  6
Continuous
 62
     7
370
    15
100
AcDbSpline
210
0.0
220
0.0
230
1.0
 70
     8
 71
     3
 72
    12
 73
     8
 74
     0
 42
0.00000001
 43
0.00000001
 40
0.0
 40
0.0
 40
0.0
 40
0.0
 40
0.2111177617404471
 40
0.4221035132623162
 40
0.6364765304210604
 40
0.8531927736567749
 40
1.0
 40
1.0
 40
1.0
 40
1.0
 10
227.8253649896899
 20
135.8961863197425
 30
0.0
 10
228.3239387625465
 20
135.9076459104327
 30
0.0
 10
229.3207745541364
 20
135.9305579262243
 30
0.0
 10
230.6568825107566
 20
136.0906971387156
 30
0.0
 10
231.6719418507315
 20
136.2660423161556
 30
0.0
 10
232.2640170642472
 20
136.395049386848
 30
0.0
 10
232.2691502690477
 20
136.3963986666952
 30
0.0
 10
232.2712232894221
 20
136.3969435669521
 30
0.0
  0
SPLINE
  5
B8
330
1F
100
AcDbEntity
  8
0
  6
Continuous
 62
     7
370
    15
100
AcDbSpline
210
0.0
220
0.0
230
1.0
 70
     8
 71
     3
 72
    12
 73
     8
 74
     0
 42
0.00000001
 43
0.00000001
 40
0.0
 40
0.0
 40
0.0
 40
0.0
 40
0.1917434744129255
 40
0.4012691554595367
 40
0.6150041392291221
 40
0.8316934057292793
 40
1.0
 40
1.0
 40
1.0
 40
1.0
 10
223.3450216776648
 20
136.4046754069665
 30
0.0
 10
223.3771294761351
 20
136.3972460187033
 30
0.0
 10
223.4443227363767
 20
136.3816982439323
 30
0.0
 10
224.139117318298
 20
136.2349035722278
 30
0.0
 10
225.2200146774287
 20
136.0576891824201
 30
0.0
 10
226.5205023357852
 20
135.9200455339487
 30
0.0
 10
227.4284446665128
 20
135.903443947191
 30
0.0
 10
227.8253649896899
 20
135.8961863197425
 30
0.0
  0
SPLINE
  5
B9
330
1F
100
AcDbEntity
  8
0
  6
Continuous
 62
     7
370
    15
100
AcDbSpline
210
0.0
220
0.0
230
1.0
 70
     8
 71
     3
 72
    12
 73
     8
 74
     0
 42
0.00000001
 43
0.00000001
 40
0.0
 40
0.0
 40
0.0
 40
0.0
 40
0.2111173148841165
 40
0.4221031398728547
 40
0.6364762316779401
 40
0.8531927562431081
 40
1.0
 40
1.0
 40
1.0
 40
1.0
 10
212.3253671056547
 20
135.8961863197425
 30
0.0
 10
212.8239395572202
 20
135.9076459484589
 30
0.0
 10
213.8207739351839
 20
135.9305580685074
 30
0.0
 10
215.1568813416637
 20
136.0906971265292
 30
0.0
 10
216.1719388708472
 20
136.2660424104379
 30
0.0
 10
216.7640213362732
 20
136.3950493456919
 30
0.0
 10
216.7691503526527
 20
136.3963986551288
 30
0.0
 10
216.7712216800967
 20
136.3969435669521
 30
0.0
  0
SPLINE
  5
BA
330
1F
100
AcDbEntity
  8
0
  6
Continuous
 62
     7
370
    15
100
AcDbSpline
210
0.0
220
0.0
230
1.0
 70
     8
 71
     3
 72
    12
 73
     8
 74
     0
 42
0.00000001
 43
0.00000001
 40
0.0
 40
0.0
 40
0.0
 40
0.0
 40
0.1917434283285993
 40
0.4012688224603582
 40
0.615003754860098
 40
0.8316934461807002
 40
1.0
 40
1.0
 40
1.0
 40
1.0
 10
207.8450237936297
 20
136.4046754069665
 30
0.0
 10
207.8771318650216
 20
136.3972460352298
 30
0.0
 10
207.9443256568049
 20
136.3816983042103
 30
0.0
 10
208.6391150021647
 20
136.2349034816737
 30
0.0
 10
209.7200140045085
 20
136.0576889696185
 30
0.0
 10
211.0205034705006
 20
135.920045644623
 30
0.0
 10
211.9284468261079
 20
135.903443974601
 30
0.0
 10
212.3253671056547
 20
135.8961863197425
 30
0.0
  0
SPLINE
  5
BB
330
1F
100
AcDbEntity
  8
0
  6
Continuous
 62
     7
370
    15
100
AcDbSpline
210
0.0
220
0.0
230
1.0
 70
     8
 71
     3
 72
    12
 73
     8
 74
     0
 42
0.00000001
 43
0.00000001
 40
0.0
 40
0.0
 40
0.0
 40
0.0
 40
0.2111169043737074
 40
0.4221028391530125
 40
0.636476042511295
 40
0.8531926798491106
 40
0.9999999999999999
 40
0.9999999999999999
 40
0.9999999999999999
 40
0.9999999999999999
 10
196.8253692216196
 20
135.8961863197425
 30
0.0
 10
197.3239403885499
 20
135.9076459856771
 30
0.0
 10
198.3207734261763
 20
135.9305582083677
 30
0.0
 10
199.6568797301714
 20
136.0906971240926
 30
0.0
 10
200.6719372621182
 20
136.2660424111086
 30
0.0
 10
201.2640197268528
 20
136.3950493455852
 30
0.0
 10
201.2691487433
 20
136.3963986550981
 30
0.0
 10
201.2712200707712
 20
136.3969435669521
 30
0.0
  0
SPLINE
  5
BC
330
1F
100
AcDbEntity
  8
0
  6
Continuous
 62
     7
370
    15
100
AcDbSpline
210
0.0
220
0.0
230
1.0
 70
     8
 71
     3
 72
    12
 73
     8
 74
     0
 42
0.00000001
 43
0.00000001
 40
0.0
 40
0.0
 40
0.0
 40
0.0
 40
0.1920354764641438
 40
0.4014851007894226
 40
0.6151427411046725
 40
0.8317543101874956
 40
1.0
 40
1.0
 40
1.0
 40
1.0
 10
192.3446738696614
 20
136.4047517754177
 30
0.0
 10
192.3768164674775
 20
136.3973140838395
 30
0.0
 10
192.4440164159529
 20
136.3817642364474
 30
0.0
 10
193.1390871985428
 20
136.234909271872
 30
0.0
 10
194.220022298999
 20
136.0576872654793
 30
0.0
 10
195.5205036786747
 20
135.9200459989524
 30
0.0
 10
196.4284485328071
 20
135.903444079255
 30
0.0
 10
196.8253692216196
 20
135.8961863197425
 30
0.0
  0
SPLINE
  5
BD
330
1F
100
AcDbEntity
  8
0
  6
Continuous
 62
     7
370
    15
100
AcDbSpline
210
0.0
220
0.0
230
1.0
 70
     8
 71
     3
 72
    70
 73
    66
 74
     0
 42
0.00000001
 43
0.00000001
 40
-0.03125
 40
-0.03125
 40
0.0
 40
0.0
 40
0.03125
 40
0.03125
 40
0.0625
 40
0.0625
 40
0.09375
 40
0.09375
 40
0.125
 40
0.125
 40
0.15625
 40
0.15625
 40
0.1875
 40
0.1875
 40
0.21875
 40
0.21875
 40
0.25
 40
0.25
 40
0.28125
 40
0.28125
 40
0.3125
 40
0.3125
 40
0.34375
 40
0.34375
 40
0.375
 40
0.375
 40
0.40625
 40
0.40625
 40
0.4375
 40
0.4375
 40
0.46875
 40
0.46875
 40
0.5
 40
0.5
 40
0.53125
 40
0.53125
 40
0.5625
 40
0.5625
 40
0.59375
 40
0.59375
 40
0.625
 40
0.625
 40
0.65625
 40
0.65625
 40
0.6875
 40
0.6875
 40
0.71875
 40
0.71875
 40
0.75
 40
0.75
 40
0.78125
 40
0.78125
 40
0.8125
 40
0.8125
 40
0.84375
 40
0.84375
 40
0.875
 40
0.875
 40
0.90625
 40
0.90625
 40
0.9375
 40
0.9375
 40
0.96875
 40
0.96875
 40
1.0
 40
1.0
 40
1.03125
 40
1.03125
 10
196.5270496086726
 20
111.9090102292638
 30
0.0
 10
197.1236871656367
 20
111.9090102292638
 30
0.0
 10
197.4168231534401
 20
111.9383795832637
 30
0.0
 10
197.9932162947032
 20
112.0532682283699
 30
0.0
 10
198.2795212291584
 20
112.1402475234487
 30
0.0
 10
198.8239707094663
 20
112.3664263669654
 30
0.0
 10
199.0820441039156
 20
112.5046918016016
 30
0.0
 10
199.5704573494087
 20
112.8311932601454
 30
0.0
 10
199.8009349668788
 20
113.0205668134432
 30
0.0
 10
200.2145168347889
 20
113.4342467004286
 30
0.0
 10
200.4004575462442
 20
113.6601537683081
 30
0.0
 10
200.7294843438771
 20
114.1517213831383
 30
0.0
 10
200.8686697086744
 20
114.4121291307494
 30
0.0
 10
201.0934399415988
 20
114.9531994914437
 30
0.0
 10
201.1803839171022
 20
115.2378212043193
 30
0.0
 10
201.2963736225504
 20
115.8191321204149
 30
0.0
 10
201.3251887293528
 20
116.1117430431149
 30
0.0
 10
201.32554638609
 20
116.7008130221209
 30
0.0
 10
201.296099790715
 20
117.0000845261573
 30
0.0
 10
201.1808635698318
 20
117.5779712298557
 30
0.0
 10
201.0956124866044
 20
117.8589618243503
 30
0.0
 10
200.869297778557
 20
118.4050010544758
 30
0.0
 10
200.7288468832306
 20
118.6669887266592
 30
0.0
 10
200.4035848322317
 20
119.1534552252889
 30
0.0
 10
200.2164741257689
 20
119.3818191587377
 30
0.0
 10
199.7989295954987
 20
119.7994563358778
 30
0.0
 10
199.5727926454253
 20
119.984950074613
 30
0.0
 10
199.0863758799798
 20
120.3107445807899
 30
0.0
 10
198.8228928965006
 20
120.452086084851
 30
0.0
 10
198.2794436621598
 20
120.6777608233005
 30
0.0
 10
197.9989597294576
 20
120.7632950660556
 30
0.0
 10
197.4201683678765
 20
120.8792815925679
 30
0.0
 10
197.1214416827331
 20
120.908886934305
 30
0.0
 10
196.5330549329774
 20
120.9091327388666
 30
0.0
 10
196.2399736186484
 20
120.8806883593069
 30
0.0
 10
195.6561074293587
 20
120.7646297197926
 30
0.0
 10
195.3738954215456
 20
120.6785837783174
 30
0.0
 10
194.8319452239601
 20
120.4540437461968
 30
0.0
 10
194.5689043379249
 20
120.3134883058117
 30
0.0
 10
194.0796839173767
 20
119.9864109404128
 30
0.0
 10
193.8537359502113
 20
119.8009800721371
 30
0.0
 10
193.4385092263607
 20
119.3864661534047
 30
0.0
 10
193.2489906638796
 20
119.1558690190027
 30
0.0
 10
192.9232303927676
 20
118.6693265573614
 30
0.0
 10
192.7845419866695
 20
118.4113495040096
 30
0.0
 10
192.5570476007211
 20
117.8647156370117
 30
0.0
 10
192.4706534482056
 20
117.5806157610272
 30
0.0
 10
192.3553371115843
 20
117.0048475535291
 30
0.0
 10
192.3255518482008
 20
116.7087666079483
 30
0.0
 10
192.3251866274101
 20
116.1147876943214
 30
0.0
 10
192.3541211005838
 20
115.8220069427051
 30
0.0
 10
192.4686707988261
 20
115.2446171341495
 30
0.0
 10
192.5557744148741
 20
114.9574426165979
 30
0.0
 10
192.7810017723037
 20
114.4141217845246
 30
0.0
 10
192.9190217022134
 20
114.1557097583723
 30
0.0
 10
193.2463798101824
 20
113.6653360137322
 30
0.0
 10
193.4347593084885
 20
113.435934149948
 30
0.0
 10
193.8477916501954
 20
113.0223528693805
 30
0.0
 10
194.0750605316928
 20
112.835028924736
 30
0.0
 10
194.5666746816553
 20
112.505699018296
 30
0.0
 10
194.8250111775261
 20
112.3674112776114
 30
0.0
 10
195.366313364604
 20
112.142031263616
 30
0.0
 10
195.6524127707406
 20
112.0544993081561
 30
0.0
 10
196.2328252210295
 20
111.9383857945341
 30
0.0
 10
196.5270496086726
 20
111.9090102292638
 30
0.0
 10
197.1236871656367
 20
111.9090102292638
 30
0.0
  0
SPLINE
  5
BE
330
1F
100
AcDbEntity
  8
0
  6
Continuous
 62
     7
370
    15
100
AcDbSpline
210
0.0
220
0.0
230
1.0
 70
     8
 71
     3
 72
    70
 73
    66
 74
     0
 42
0.00000001
 43
0.00000001
 40
-0.03125
 40
-0.03125
 40
0.0
 40
0.0
 40
0.03125
 40
0.03125
 40
0.0625
 40
0.0625
 40
0.09375
 40
0.09375
 40
0.125
 40
0.125
 40
0.15625
 40
0.15625
 40
0.1875
 40
0.1875
 40
0.21875
 40
0.21875
 40
0.25
 40
0.25
 40
0.28125
 40
0.28125
 40
0.3125
 40
0.3125
 40
0.34375
 40
0.34375
 40
0.375
 40
0.375
 40
0.40625
 40
0.40625
 40
0.4375
 40
0.4375
 40
0.46875
 40
0.46875
 40
0.5
 40
0.5
 40
0.53125
 40
0.53125
 40
0.5625
 40
0.5625
 40
0.59375
 40
0.59375
 40
0.625
 40
0.625
 40
0.65625
 40
0.65625
 40
0.6875
 40
0.6875
 40
0.71875
 40
0.71875
 40
0.75
 40
0.75
 40
0.78125
 40
0.78125
 40
0.8125
 40
0.8125
 40
0.84375
 40
0.84375
 40
0.875
 40
0.875
 40
0.90625
 40
0.90625
 40
0.9375
 40
0.9375
 40
0.96875
 40
0.96875
 40
1.0
 40
1.0
 40
1.03125
 40
1.03125
 10
227.5270496086727
 20
111.9090102292638
 30
0.0
 10
228.1236871656366
 20
111.9090102292638
 30
0.0
 10
228.4168231534401
 20
111.9383795832637
 30
0.0
 10
228.9932162947032
 20
112.0532682283699
 30
0.0
 10
229.2795212291585
 20
112.1402475234487
 30
0.0
 10
229.8239707094663
 20
112.3664263669654
 30
0.0
 10
230.0820441039156
 20
112.5046918016016
 30
0.0
 10
230.5704573494086
 20
112.8311932601454
 30
0.0
 10
230.8009349668788
 20
113.0205668134432
 30
0.0
 10
231.2145168347889
 20
113.4342467004286
 30
0.0
 10
231.4004575462442
 20
113.6601537683081
 30
0.0
 10
231.7294843438771
 20
114.1517213831383
 30
0.0
 10
231.8686697086744
 20
114.4121291307494
 30
0.0
 10
232.0934399415988
 20
114.9531994914437
 30
0.0
 10
232.1803839171023
 20
115.2378212043193
 30
0.0
 10
232.2963736225504
 20
115.8191321204149
 30
0.0
 10
232.3251887293528
 20
116.1117430431149
 30
0.0
 10
232.32554638609
 20
116.7008130221209
 30
0.0
 10
232.296099790715
 20
117.0000845261573
 30
0.0
 10
232.1808635698318
 20
117.5779712298557
 30
0.0
 10
232.0956124866044
 20
117.8589618243503
 30
0.0
 10
231.869297778557
 20
118.4050010544758
 30
0.0
 10
231.7288468832306
 20
118.6669887266592
 30
0.0
 10
231.4035848322317
 20
119.1534552252889
 30
0.0
 10
231.2164741257689
 20
119.3818191587377
 30
0.0
 10
230.7989295954986
 20
119.7994563358778
 30
0.0
 10
230.5727926454254
 20
119.984950074613
 30
0.0
 10
230.0863758799798
 20
120.3107445807899
 30
0.0
 10
229.8228928965006
 20
120.452086084851
 30
0.0
 10
229.2794436621598
 20
120.6777608233005
 30
0.0
 10
228.9989597294576
 20
120.7632950660556
 30
0.0
 10
228.4201683678765
 20
120.8792815925679
 30
0.0
 10
228.1214416827332
 20
120.908886934305
 30
0.0
 10
227.5330549329774
 20
120.9091327388666
 30
0.0
 10
227.2399736186485
 20
120.8806883593069
 30
0.0
 10
226.6561074293586
 20
120.7646297197926
 30
0.0
 10
226.3738954215456
 20
120.6785837783174
 30
0.0
 10
225.8319452239602
 20
120.4540437461968
 30
0.0
 10
225.5689043379249
 20
120.3134883058117
 30
0.0
 10
225.0796839173767
 20
119.9864109404128
 30
0.0
 10
224.8537359502114
 20
119.8009800721371
 30
0.0
 10
224.4385092263607
 20
119.3864661534047
 30
0.0
 10
224.2489906638796
 20
119.1558690190027
 30
0.0
 10
223.9232303927676
 20
118.6693265573614
 30
0.0
 10
223.7845419866695
 20
118.4113495040096
 30
0.0
 10
223.5570476007211
 20
117.8647156370117
 30
0.0
 10
223.4706534482056
 20
117.5806157610272
 30
0.0
 10
223.3553371115843
 20
117.0048475535291
 30
0.0
 10
223.3255518482007
 20
116.7087666079483
 30
0.0
 10
223.3251866274101
 20
116.1147876943214
 30
0.0
 10
223.3541211005838
 20
115.8220069427051
 30
0.0
 10
223.4686707988261
 20
115.2446171341495
 30
0.0
 10
223.5557744148741
 20
114.9574426165979
 30
0.0
 10
223.7810017723037
 20
114.4141217845246
 30
0.0
 10
223.9190217022134
 20
114.1557097583723
 30
0.0
 10
224.2463798101824
 20
113.6653360137322
 30
0.0
 10
224.4347593084885
 20
113.435934149948
 30
0.0
 10
224.8477916501954
 20
113.0223528693805
 30
0.0
 10
225.0750605316928
 20
112.835028924736
 30
0.0
 10
225.5666746816553
 20
112.505699018296
 30
0.0
 10
225.8250111775261
 20
112.3674112776114
 30
0.0
 10
226.366313364604
 20
112.142031263616
 30
0.0
 10
226.6524127707405
 20
112.0544993081561
 30
0.0
 10
227.2328252210294
 20
111.9383857945341
 30
0.0
 10
227.5270496086727
 20
111.9090102292638
 30
0.0
 10
228.1236871656366
 20
111.9090102292638
 30
0.0
  0
SPLINE
  5
BF
330
1F
100
AcDbEntity
  8
0
  6
Continuous
 62
     7
370
    15
100
AcDbSpline
210
0.0
220
0.0
230
1.0
 70
     8
 71
     3
 72
    70
 73
    66
 74
     0
 42
0.00000001
 43
0.00000001
 40
-0.03125
 40
-0.03125
 40
0.0
 40
0.0
 40
0.03125
 40
0.03125
 40
0.0625
 40
0.0625
 40
0.09375
 40
0.09375
 40
0.125
 40
0.125
 40
0.15625
 40
0.15625
 40
0.1875
 40
0.1875
 40
0.21875
 40
0.21875
 40
0.25
 40
0.25
 40
0.28125
 40
0.28125
 40
0.3125
 40
0.3125
 40
0.34375
 40
0.34375
 40
0.375
 40
0.375
 40
0.40625
 40
0.40625
 40
0.4375
 40
0.4375
 40
0.46875
 40
0.46875
 40
0.5
 40
0.5
 40
0.53125
 40
0.53125
 40
0.5625
 40
0.5625
 40
0.59375
 40
0.59375
 40
0.625
 40
0.625
 40
0.65625
 40
0.65625
 40
0.6875
 40
0.6875
 40
0.71875
 40
0.71875
 40
0.75
 40
0.75
 40
0.78125
 40
0.78125
 40
0.8125
 40
0.8125
 40
0.84375
 40
0.84375
 40
0.875
 40
0.875
 40
0.90625
 40
0.90625
 40
0.9375
 40
0.9375
 40
0.96875
 40
0.96875
 40
1.0
 40
1.0
 40
1.03125
 40
1.03125
 10
212.0270496086726
 20
111.9090102292638
 30
0.0
 10
212.6236871656367
 20
111.9090102292638
 30
0.0
 10
212.9168231534401
 20
111.9383795832637
 30
0.0
 10
213.4932162947032
 20
112.0532682283698
 30
0.0
 10
213.7795212291584
 20
112.1402475234487
 30
0.0
 10
214.3239707094663
 20
112.3664263669654
 30
0.0
 10
214.5820441039156
 20
112.5046918016016
 30
0.0
 10
215.0704573494087
 20
112.8311932601454
 30
0.0
 10
215.3009349668789
 20
113.0205668134432
 30
0.0
 10
215.7145168347889
 20
113.4342467004286
 30
0.0
 10
215.9004575462442
 20
113.6601537683081
 30
0.0
 10
216.2294843438771
 20
114.1517213831383
 30
0.0
 10
216.3686697086744
 20
114.4121291307494
 30
0.0
 10
216.5934399415988
 20
114.9531994914437
 30
0.0
 10
216.6803839171023
 20
115.2378212043193
 30
0.0
 10
216.7963736225504
 20
115.8191321204149
 30
0.0
 10
216.8251887293528
 20
116.1117430431149
 30
0.0
 10
216.82554638609
 20
116.7008130221209
 30
0.0
 10
216.796099790715
 20
117.0000845261573
 30
0.0
 10
216.6808635698318
 20
117.5779712298557
 30
0.0
 10
216.5956124866043
 20
117.8589618243503
 30
0.0
 10
216.369297778557
 20
118.4050010544758
 30
0.0
 10
216.2288468832306
 20
118.6669887266592
 30
0.0
 10
215.9035848322317
 20
119.1534552252889
 30
0.0
 10
215.7164741257689
 20
119.3818191587377
 30
0.0
 10
215.2989295954987
 20
119.7994563358778
 30
0.0
 10
215.0727926454253
 20
119.984950074613
 30
0.0
 10
214.5863758799798
 20
120.3107445807899
 30
0.0
 10
214.3228928965006
 20
120.452086084851
 30
0.0
 10
213.7794436621598
 20
120.6777608233005
 30
0.0
 10
213.4989597294577
 20
120.7632950660556
 30
0.0
 10
212.9201683678765
 20
120.8792815925679
 30
0.0
 10
212.6214416827332
 20
120.908886934305
 30
0.0
 10
212.0330549329774
 20
120.9091327388666
 30
0.0
 10
211.7399736186484
 20
120.8806883593069
 30
0.0
 10
211.1561074293587
 20
120.7646297197926
 30
0.0
 10
210.8738954215456
 20
120.6785837783174
 30
0.0
 10
210.3319452239602
 20
120.4540437461968
 30
0.0
 10
210.0689043379249
 20
120.3134883058117
 30
0.0
 10
209.5796839173767
 20
119.9864109404128
 30
0.0
 10
209.3537359502113
 20
119.8009800721371
 30
0.0
 10
208.9385092263607
 20
119.3864661534048
 30
0.0
 10
208.7489906638796
 20
119.1558690190027
 30
0.0
 10
208.4232303927676
 20
118.6693265573614
 30
0.0
 10
208.2845419866696
 20
118.4113495040096
 30
0.0
 10
208.0570476007211
 20
117.8647156370116
 30
0.0
 10
207.9706534482056
 20
117.5806157610272
 30
0.0
 10
207.8553371115843
 20
117.0048475535291
 30
0.0
 10
207.8255518482007
 20
116.7087666079483
 30
0.0
 10
207.8251866274101
 20
116.1147876943214
 30
0.0
 10
207.8541211005838
 20
115.8220069427051
 30
0.0
 10
207.9686707988261
 20
115.2446171341495
 30
0.0
 10
208.0557744148741
 20
114.9574426165979
 30
0.0
 10
208.2810017723037
 20
114.4141217845246
 30
0.0
 10
208.4190217022133
 20
114.1557097583723
 30
0.0
 10
208.7463798101824
 20
113.6653360137322
 30
0.0
 10
208.9347593084885
 20
113.435934149948
 30
0.0
 10
209.3477916501954
 20
113.0223528693805
 30
0.0
 10
209.5750605316928
 20
112.835028924736
 30
0.0
 10
210.0666746816552
 20
112.505699018296
 30
0.0
 10
210.3250111775261
 20
112.3674112776114
 30
0.0
 10
210.8663133646041
 20
112.142031263616
 30
0.0
 10
211.1524127707406
 20
112.0544993081561
 30
0.0
 10
211.7328252210294
 20
111.9383857945341
 30
0.0
 10
212.0270496086726
 20
111.9090102292638
 30
0.0
 10
212.6236871656367
 20
111.9090102292638
 30
0.0
  0
LINE
  5
C0
330
1F
100
AcDbEntity
  8
0
  6
Continuous
 62
     7
370
    15
100
AcDbLine
 10
238.3253713674
 20
116.4090102293
 30
0.0
 11
238.3253713674
 21
97.4090108402
 31
0.0
  0
LINE
  5
C1
330
1F
100
AcDbEntity
  8
0
  6
Continuous
 62
     7
370
    15
100
AcDbLine
 10
238.3253713674
 20
135.4090096183
 30
0.0
 11
238.3253713674
 21
116.4090102293
 31
0.0
  0
SPLINE
  5
C2
330
1F
100
AcDbEntity
  8
0
  6
Continuous
 62
     7
370
    15
100
AcDbSpline
210
0.0
220
0.0
230
1.0
 70
     8
 71
     3
 72
     8
 73
     4
 74
     0
 42
0.00000001
 43
0.00000001
 40
0.0
 40
0.0
 40
0.0
 40
0.0
 40
1.0
 40
1.0
 40
1.0
 40
1.0
 10
184.7173012186437
 20
146.8762057024279
 30
0.0
 10
184.2221611892794
 20
145.9895260542476
 30
0.0
 10
183.7280784840003
 20
145.1022634185616
 30
0.0
 10
183.2353683871546
 20
144.2142444204352
 30
0.0
  0
LINE
  5
C3
330
1F
100
AcDbEntity
  8
0
  6
Continuous
 62
     7
370
    15
100
AcDbLine
 10
184.7173003084
 20
140.8676998444
 30
0.0
 11
184.7173003084
 21
146.8762056656
 31
0.0
  0
SPLINE
  5
C4
330
1F
100
AcDbEntity
  8
0
  6
Continuous
 62
     7
370
    15
100
AcDbSpline
210
0.0
220
0.0
230
1.0
 70
     8
 71
     3
 72
     8
 73
     4
 74
     0
 42
0.00000001
 43
0.00000001
 40
0.0
 40
0.0
 40
0.0
 40
0.0
 40
1.0
 40
1.0
 40
1.0
 40
1.0
 10
183.2353683871546
 20
137.4591538968469
 30
0.0
 10
183.7146465377445
 20
138.6001651266996
 30
0.0
 10
184.2102143768844
 20
139.7365495374674
 30
0.0
 10
184.7173012186437
 20
140.867699891631
 30
0.0
  0
LINE
  5
C5
330
1F
100
AcDbEntity
  8
0
  6
Continuous
 62
     7
370
    15
100
AcDbLine
 10
183.2353686518
 20
137.4591542162
 30
0.0
 11
183.2353686518
 21
144.2142436035
 31
0.0
  0
LINE
  5
C6
330
1F
100
AcDbEntity
  8
0
  6
Continuous
 62
     7
370
    15
100
AcDbLine
 10
188.6753690964
 20
146.8762056656
 30
0.0
 11
184.7173003084
 21
146.8762056656
 31
0.0
  0
LINE
  5
C7
330
1F
100
AcDbEntity
  8
0
  6
Continuous
 62
     7
370
    15
100
AcDbLine
 10
184.7173003084
 20
140.8676998444
 30
0.0
 11
188.6753690964
 21
140.8676998444
 31
0.0
  0
SPLINE
  5
C8
330
1F
100
AcDbEntity
  8
0
  6
Continuous
 62
     7
370
    15
100
AcDbSpline
210
0.0
220
0.0
230
1.0
 70
     8
 71
     3
 72
     8
 73
     4
 74
     0
 42
0.00000001
 43
0.00000001
 40
0.0
 40
0.0
 40
0.0
 40
0.0
 40
1.0
 40
1.0
 40
1.0
 40
1.0
 10
179.4153683871546
 20
144.2142444204352
 30
0.0
 10
178.9226582903089
 20
145.1022634185616
 30
0.0
 10
178.4285755850299
 20
145.9895260542476
 30
0.0
 10
177.9334355556656
 20
146.8762057024279
 30
0.0
  0
SPLINE
  5
C9
330
1F
100
AcDbEntity
  8
0
  6
Continuous
 62
     7
370
    15
100
AcDbSpline
210
0.0
220
0.0
230
1.0
 70
     8
 71
     3
 72
     8
 73
     4
 74
     0
 42
0.00000001
 43
0.00000001
 40
0.0
 40
0.0
 40
0.0
 40
0.0
 40
1.0
 40
1.0
 40
1.0
 40
1.0
 10
177.9334355556656
 20
140.867699891631
 30
0.0
 10
178.4405223974248
 20
139.7365495374674
 30
0.0
 10
178.9360902365648
 20
138.6001651266996
 30
0.0
 10
179.4153683871546
 20
137.459153896847
 30
0.0
  0
LINE
  5
CA
330
1F
100
AcDbEntity
  8
0
  6
Continuous
 62
     7
370
    15
100
AcDbLine
 10
179.4153684354
 20
137.4591542162
 30
0.0
 11
179.4153684354
 21
144.2142436035
 31
0.0
  0
SPLINE
  5
CB
330
1F
100
AcDbEntity
  8
0
  6
Continuous
 62
     7
370
    15
100
AcDbSpline
210
0.0
220
0.0
230
1.0
 70
     8
 71
     3
 72
    12
 73
     8
 74
     0
 42
0.00000001
 43
0.00000001
 40
0.0
 40
0.0
 40
0.0
 40
0.0
 40
0.250000000000002
 40
0.250000000000002
 40
0.500000000000004
 40
0.500000000000004
 40
1.0
 40
1.0
 40
1.0
 40
1.0
 10
188.6753683871546
 20
140.867699891631
 30
0.0
 10
188.7665681089803
 20
140.867699891631
 30
0.0
 10
188.8571631181163
 20
140.8394801930432
 30
0.0
 10
189.010575844563
 20
140.7450371857951
 30
0.0
 10
189.0757847118866
 20
140.6787502090898
 30
0.0
 10
189.2285692412266
 20
140.4531253858015
 30
0.0
 10
189.2753683871546
 20
140.2706991227689
 30
0.0
 10
189.2753683871546
 20
140.089962490522
 30
0.0
  0
LINE
  5
CC
330
1F
100
AcDbEntity
  8
0
  6
Continuous
 62
     7
370
    15
100
AcDbLine
 10
183.2353686518
 20
136.5448767073
 30
0.0
 11
183.2353686518
 21
137.4591542162
 31
0.0
  0
LINE
  5
CD
330
1F
100
AcDbEntity
  8
0
  6
Continuous
 62
     7
370
    15
100
AcDbLine
 10
189.2753680772
 20
140.0899616756
 30
0.0
 11
189.2753680772
 21
136.2590109684
 31
0.0
  0
SPLINE
  5
CE
330
1F
100
AcDbEntity
  8
0
  6
Continuous
 62
     7
370
    15
100
AcDbSpline
210
0.0
220
0.0
230
1.0
 70
     8
 71
     3
 72
    10
 73
     6
 74
     0
 42
0.00000001
 43
0.00000001
 40
0.0
 40
0.0
 40
0.0
 40
0.0
 40
0.5
 40
0.5
 40
1.0
 40
1.0
 40
1.0
 40
1.0
 10
189.2753683871546
 20
146.2554505530275
 30
0.0
 10
189.2753683871546
 20
146.4158558193783
 30
0.0
 10
189.2131305560478
 20
146.5749176323669
 30
0.0
 10
188.9939956323052
 20
146.8058300979972
 30
0.0
 10
188.8364069373133
 20
146.8762057024279
 30
0.0
 10
188.6753683871546
 20
146.8762057024279
 30
0.0
  0
LINE
  5
CF
330
1F
100
AcDbEntity
  8
0
  6
Continuous
 62
     7
370
    15
100
AcDbLine
 10
189.2753680772
 20
140.0899616756
 30
0.0
 11
189.2753680772
 21
146.25545123
 31
0.0
  0
LINE
  5
D0
330
1F
100
AcDbEntity
  8
0
  6
Continuous
 62
     7
370
    15
100
AcDbLine
 10
179.4153684354
 20
137.4591542162
 30
0.0
 11
179.4153684354
 21
136.5448767073
 31
0.0
  0
LINE
  5
D1
330
1F
100
AcDbEntity
  8
0
  6
Continuous
 62
     7
370
    15
100
AcDbLine
 10
132.5753675378
 20
95.596509961
 30
0.0
 11
132.5753675378
 21
95.6023791559
 31
0.0
  0
CIRCLE
  5
D2
330
1F
100
AcDbEntity
  8
0
  6
HIDDEN
 62
     7
370
     0
100
AcDbCircle
 10
227.8253683872
 20
116.4090102293
 30
0.0
 40
4.999999999999977
  0
CIRCLE
  5
D3
330
1F
100
AcDbEntity
  8
0
  6
HIDDEN
 62
     7
370
     0
100
AcDbCircle
 10
227.8253683872
 20
116.4090102293
 30
0.0
 40
3.499999999999991
  0
CIRCLE
  5
D4
330
1F
100
AcDbEntity
  8
0
  6
HIDDEN
 62
     7
370
     0
100
AcDbCircle
 10
212.3253683872
 20
116.4090102293
 30
0.0
 40
5.000000000000031
  0
CIRCLE
  5
D5
330
1F
100
AcDbEntity
  8
0
  6
HIDDEN
 62
     7
370
     0
100
AcDbCircle
 10
212.3253683872
 20
116.4090102293
 30
0.0
 40
3.500000000000018
  0
LINE
  5
D6
330
1F
100
AcDbEntity
  8
0
  6
HIDDEN
 62
     7
370
     0
100
AcDbLine
 10
196.2358234054
 20
113.5830993053
 30
0.0
 11
194.0832854784
 21
115.5066143592
 31
0.0
  0
LINE
  5
D7
330
1F
100
AcDbEntity
  8
0
  6
HIDDEN
 62
     7
370
     0
100
AcDbLine
 10
196.2358234054
 20
113.5830993053
 30
0.0
 11
198.9779090113
 21
114.4854952335
 31
0.0
  0
LINE
  5
D8
330
1F
100
AcDbEntity
  8
0
  6
HIDDEN
 62
     7
370
     0
100
AcDbLine
 10
198.9779090113
 20
114.4854952335
 30
0.0
 11
199.5674511022
 21
117.3114060993
 31
0.0
  0
LINE
  5
D9
330
1F
100
AcDbEntity
  8
0
  6
HIDDEN
 62
     7
370
     0
100
AcDbLine
 10
194.6728294319
 20
118.332525225
 30
0.0
 11
194.0832854784
 21
115.5066143592
 31
0.0
  0
LINE
  5
DA
330
1F
100
AcDbEntity
  8
0
  6
HIDDEN
 62
     7
370
     0
100
AcDbLine
 10
197.4149113125
 20
119.2349211533
 30
0.0
 11
199.5674511022
 21
117.3114060993
 31
0.0
  0
LINE
  5
DB
330
1F
100
AcDbEntity
  8
0
  6
HIDDEN
 62
     7
370
     0
100
AcDbLine
 10
194.6728294319
 20
118.332525225
 30
0.0
 11
197.4149113125
 21
119.2349211533
 31
0.0
  0
LINE
  5
DC
330
1F
100
AcDbEntity
  8
0
  6
HIDDEN
 62
     7
370
     0
100
AcDbLine
 10
191.8253684021
 20
125.4633441322
 30
0.0
 11
201.8253681785
 21
125.4633441322
 31
0.0
  0
LINE
  5
DD
330
1F
100
AcDbEntity
  8
0
  6
HIDDEN
 62
     7
370
     0
100
AcDbLine
 10
193.3253677166
 20
123.9633438863
 30
0.0
 11
200.325368864
 21
123.9633438863
 31
0.0
  0
LINE
  5
DE
330
1F
100
AcDbEntity
  8
0
  6
HIDDEN
 62
     7
370
     0
100
AcDbLine
 10
191.8253684021
 20
135.4852979757
 30
0.0
 11
201.8253681785
 21
135.4852979757
 31
0.0
  0
LINE
  5
DF
330
1F
100
AcDbEntity
  8
0
  6
HIDDEN
 62
     7
370
     0
100
AcDbLine
 10
192.6533681876
 20
135.9633439906
 30
0.0
 11
195.3068812913
 21
135.9633439906
 31
0.0
  0
LINE
  5
E0
330
1F
100
AcDbEntity
  8
0
  6
HIDDEN
 62
     7
370
     0
100
AcDbLine
 10
198.4261935181
 20
135.9633439906
 30
0.0
 11
200.9973665304
 21
135.9633439906
 31
0.0
  0
LINE
  5
E1
330
1F
100
AcDbEntity
  8
0
  6
HIDDEN
 62
     7
370
     0
100
AcDbLine
 10
197.4149113125
 20
129.9633439384
 30
0.0
 11
199.5674511022
 21
129.9633439384
 31
0.0
  0
LINE
  5
E2
330
1F
100
AcDbEntity
  8
0
  6
HIDDEN
 62
     7
370
     0
100
AcDbLine
 10
197.4149113125
 20
129.9633439384
 30
0.0
 11
197.4149113125
 21
135.9633439906
 31
0.0
  0
LINE
  5
E3
330
1F
100
AcDbEntity
  8
0
  6
HIDDEN
 62
     7
370
     0
100
AcDbLine
 10
194.6728294319
 20
129.9633439384
 30
0.0
 11
197.4149113125
 21
129.9633439384
 31
0.0
  0
LINE
  5
E4
330
1F
100
AcDbEntity
  8
0
  6
HIDDEN
 62
     7
370
     0
100
AcDbLine
 10
194.6728294319
 20
129.9633439384
 30
0.0
 11
194.6728294319
 21
135.9633439906
 31
0.0
  0
LINE
  5
E5
330
1F
100
AcDbEntity
  8
0
  6
HIDDEN
 62
     7
370
     0
100
AcDbLine
 10
194.6728294319
 20
129.9633439384
 30
0.0
 11
194.0832854784
 21
129.9633439384
 31
0.0
  0
LINE
  5
E6
330
1F
100
AcDbEntity
  8
0
  6
HIDDEN
 62
     7
370
     0
100
AcDbLine
 10
198.9779090113
 20
129.9633439384
 30
0.0
 11
198.9779090113
 21
135.9633439906
 31
0.0
  0
LINE
  5
E7
330
1F
100
AcDbEntity
  8
0
  6
HIDDEN
 62
     7
370
     0
100
AcDbLine
 10
199.5674511022
 20
129.9633439384
 30
0.0
 11
199.5674511022
 21
135.9633439906
 31
0.0
  0
LINE
  5
E8
330
1F
100
AcDbEntity
  8
0
  6
HIDDEN
 62
     7
370
     0
100
AcDbLine
 10
196.2358234054
 20
129.9633439384
 30
0.0
 11
196.2358234054
 21
135.9633439906
 31
0.0
  0
LINE
  5
E9
330
1F
100
AcDbEntity
  8
0
  6
HIDDEN
 62
     7
370
     0
100
AcDbLine
 10
194.0832854784
 20
129.9633439384
 30
0.0
 11
194.0832854784
 21
135.9633439906
 31
0.0
  0
LINE
  5
EA
330
1F
100
AcDbEntity
  8
0
  6
HIDDEN
 62
     7
370
     0
100
AcDbLine
 10
211.7358250148
 20
113.5830993053
 30
0.0
 11
209.5832852251
 21
115.5066143592
 31
0.0
  0
LINE
  5
EB
330
1F
100
AcDbEntity
  8
0
  6
HIDDEN
 62
     7
370
     0
100
AcDbLine
 10
211.7358250148
 20
113.5830993053
 30
0.0
 11
214.4779068953
 21
114.4854952335
 31
0.0
  0
LINE
  5
EC
330
1F
100
AcDbEntity
  8
0
  6
HIDDEN
 62
     7
370
     0
100
AcDbLine
 10
214.4779068953
 20
114.4854952335
 30
0.0
 11
215.0674489862
 21
117.3114060993
 31
0.0
  0
LINE
  5
ED
330
1F
100
AcDbEntity
  8
0
  6
HIDDEN
 62
     7
370
     0
100
AcDbLine
 10
210.1728310413
 20
118.332525225
 30
0.0
 11
209.5832852251
 21
115.5066143592
 31
0.0
  0
LINE
  5
EE
330
1F
100
AcDbEntity
  8
0
  6
HIDDEN
 62
     7
370
     0
100
AcDbLine
 10
212.9149129218
 20
119.2349211533
 30
0.0
 11
215.0674489862
 21
117.3114060993
 31
0.0
  0
LINE
  5
EF
330
1F
100
AcDbEntity
  8
0
  6
HIDDEN
 62
     7
370
     0
100
AcDbLine
 10
210.1728310413
 20
118.332525225
 30
0.0
 11
212.9149129218
 21
119.2349211533
 31
0.0
  0
LINE
  5
F0
330
1F
100
AcDbEntity
  8
0
  6
HIDDEN
 62
     7
370
     0
100
AcDbLine
 10
207.3253681487
 20
125.4633441322
 30
0.0
 11
217.3253697879
 21
125.4633441322
 31
0.0
  0
LINE
  5
F1
330
1F
100
AcDbEntity
  8
0
  6
HIDDEN
 62
     7
370
     0
100
AcDbLine
 10
208.8253674633
 20
123.9633438863
 30
0.0
 11
215.825366748
 21
123.9633438863
 31
0.0
  0
LINE
  5
F2
330
1F
100
AcDbEntity
  8
0
  6
HIDDEN
 62
     7
370
     0
100
AcDbLine
 10
207.3253681487
 20
135.4852979757
 30
0.0
 11
217.3253697879
 21
135.4852979757
 31
0.0
  0
LINE
  5
F3
330
1F
100
AcDbEntity
  8
0
  6
HIDDEN
 62
     7
370
     0
100
AcDbLine
 10
208.1533697969
 20
135.9633439906
 30
0.0
 11
210.8068791754
 21
135.9633439906
 31
0.0
  0
LINE
  5
F4
330
1F
100
AcDbEntity
  8
0
  6
HIDDEN
 62
     7
370
     0
100
AcDbLine
 10
213.9261951274
 20
135.9633439906
 30
0.0
 11
216.4973681397
 21
135.9633439906
 31
0.0
  0
LINE
  5
F5
330
1F
100
AcDbEntity
  8
0
  6
HIDDEN
 62
     7
370
     0
100
AcDbLine
 10
212.9149129218
 20
129.9633439384
 30
0.0
 11
215.0674489862
 21
129.9633439384
 31
0.0
  0
LINE
  5
F6
330
1F
100
AcDbEntity
  8
0
  6
HIDDEN
 62
     7
370
     0
100
AcDbLine
 10
212.9149129218
 20
129.9633439384
 30
0.0
 11
212.9149129218
 21
135.9633439906
 31
0.0
  0
LINE
  5
F7
330
1F
100
AcDbEntity
  8
0
  6
HIDDEN
 62
     7
370
     0
100
AcDbLine
 10
210.1728310413
 20
129.9633439384
 30
0.0
 11
212.9149129218
 21
129.9633439384
 31
0.0
  0
LINE
  5
F8
330
1F
100
AcDbEntity
  8
0
  6
HIDDEN
 62
     7
370
     0
100
AcDbLine
 10
210.1728310413
 20
129.9633439384
 30
0.0
 11
210.1728310413
 21
135.9633439906
 31
0.0
  0
LINE
  5
F9
330
1F
100
AcDbEntity
  8
0
  6
HIDDEN
 62
     7
370
     0
100
AcDbLine
 10
210.1728310413
 20
129.9633439384
 30
0.0
 11
209.5832852251
 21
129.9633439384
 31
0.0
  0
LINE
  5
FA
330
1F
100
AcDbEntity
  8
0
  6
HIDDEN
 62
     7
370
     0
100
AcDbLine
 10
214.4779068953
 20
129.9633439384
 30
0.0
 11
214.4779068953
 21
135.9633439906
 31
0.0
  0
LINE
  5
FB
330
1F
100
AcDbEntity
  8
0
  6
HIDDEN
 62
     7
370
     0
100
AcDbLine
 10
215.0674489862
 20
129.9633439384
 30
0.0
 11
215.0674489862
 21
135.9633439906
 31
0.0
  0
LINE
  5
FC
330
1F
100
AcDbEntity
  8
0
  6
HIDDEN
 62
     7
370
     0
100
AcDbLine
 10
211.7358250148
 20
129.9633439384
 30
0.0
 11
211.7358250148
 21
135.9633439906
 31
0.0
  0
LINE
  5
FD
330
1F
100
AcDbEntity
  8
0
  6
HIDDEN
 62
     7
370
     0
100
AcDbLine
 10
209.5832852251
 20
129.9633439384
 30
0.0
 11
209.5832852251
 21
135.9633439906
 31
0.0
  0
LINE
  5
FE
330
1F
100
AcDbEntity
  8
0
  6
HIDDEN
 62
     7
370
     0
100
AcDbLine
 10
227.2358228988
 20
113.5830993053
 30
0.0
 11
225.0832868344
 21
115.5066143592
 31
0.0
  0
LINE
  5
FF
330
1F
100
AcDbEntity
  8
0
  6
HIDDEN
 62
     7
370
     0
100
AcDbLine
 10
227.2358228988
 20
113.5830993053
 30
0.0
 11
229.9779047794
 21
114.4854952335
 31
0.0
  0
LINE
  5
100
330
1F
100
AcDbEntity
  8
0
  6
HIDDEN
 62
     7
370
     0
100
AcDbLine
 10
229.9779047794
 20
114.4854952335
 30
0.0
 11
230.5674543208
 21
117.3114060993
 31
0.0
  0
LINE
  5
101
330
1F
100
AcDbEntity
  8
0
  6
HIDDEN
 62
     7
370
     0
100
AcDbLine
 10
225.6728289253
 20
118.332525225
 30
0.0
 11
225.0832868344
 21
115.5066143592
 31
0.0
  0
LINE
  5
102
330
1F
100
AcDbEntity
  8
0
  6
HIDDEN
 62
     7
370
     0
100
AcDbLine
 10
228.4149145312
 20
119.2349211533
 30
0.0
 11
230.5674543208
 21
117.3114060993
 31
0.0
  0
LINE
  5
103
330
1F
100
AcDbEntity
  8
0
  6
HIDDEN
 62
     7
370
     0
100
AcDbLine
 10
225.6728289253
 20
118.332525225
 30
0.0
 11
228.4149145312
 21
119.2349211533
 31
0.0
  0
LINE
  5
104
330
1F
100
AcDbEntity
  8
0
  6
HIDDEN
 62
     7
370
     0
100
AcDbLine
 10
222.8253697581
 20
125.4633441322
 30
0.0
 11
232.8253676719
 21
125.4633441322
 31
0.0
  0
LINE
  5
105
330
1F
100
AcDbEntity
  8
0
  6
HIDDEN
 62
     7
370
     0
100
AcDbLine
 10
224.3253690726
 20
123.9633438863
 30
0.0
 11
231.3253720826
 21
123.9633438863
 31
0.0
  0
LINE
  5
106
330
1F
100
AcDbEntity
  8
0
  6
HIDDEN
 62
     7
370
     0
100
AcDbLine
 10
222.8253697581
 20
135.4852979757
 30
0.0
 11
232.8253676719
 21
135.4852979757
 31
0.0
  0
LINE
  5
107
330
1F
100
AcDbEntity
  8
0
  6
HIDDEN
 62
     7
370
     0
100
AcDbLine
 10
223.653367681
 20
135.9633439906
 30
0.0
 11
226.3068770594
 21
135.9633439906
 31
0.0
  0
LINE
  5
108
330
1F
100
AcDbEntity
  8
0
  6
HIDDEN
 62
     7
370
     0
100
AcDbLine
 10
229.4261967367
 20
135.9633439906
 30
0.0
 11
231.997369749
 21
135.9633439906
 31
0.0
  0
LINE
  5
109
330
1F
100
AcDbEntity
  8
0
  6
HIDDEN
 62
     7
370
     0
100
AcDbLine
 10
228.4149145312
 20
129.9633439384
 30
0.0
 11
230.5674543208
 21
129.9633439384
 31
0.0
  0
LINE
  5
10A
330
1F
100
AcDbEntity
  8
0
  6
HIDDEN
 62
     7
370
     0
100
AcDbLine
 10
228.4149145312
 20
129.9633439384
 30
0.0
 11
228.4149145312
 21
135.9633439906
 31
0.0
  0
LINE
  5
10B
330
1F
100
AcDbEntity
  8
0
  6
HIDDEN
 62
     7
370
     0
100
AcDbLine
 10
225.6728289253
 20
129.9633439384
 30
0.0
 11
228.4149145312
 21
129.9633439384
 31
0.0
  0
LINE
  5
10C
330
1F
100
AcDbEntity
  8
0
  6
HIDDEN
 62
     7
370
     0
100
AcDbLine
 10
225.6728289253
 20
129.9633439384
 30
0.0
 11
225.6728289253
 21
135.9633439906
 31
0.0
  0
LINE
  5
10D
330
1F
100
AcDbEntity
  8
0
  6
HIDDEN
 62
     7
370
     0
100
AcDbLine
 10
225.6728289253
 20
129.9633439384
 30
0.0
 11
225.0832868344
 21
129.9633439384
 31
0.0
  0
LINE
  5
10E
330
1F
100
AcDbEntity
  8
0
  6
HIDDEN
 62
     7
370
     0
100
AcDbLine
 10
229.9779047794
 20
129.9633439384
 30
0.0
 11
229.9779047794
 21
135.9633439906
 31
0.0
  0
LINE
  5
10F
330
1F
100
AcDbEntity
  8
0
  6
HIDDEN
 62
     7
370
     0
100
AcDbLine
 10
230.5674543208
 20
129.9633439384
 30
0.0
 11
230.5674543208
 21
135.9633439906
 31
0.0
  0
LINE
  5
110
330
1F
100
AcDbEntity
  8
0
  6
HIDDEN
 62
     7
370
     0
100
AcDbLine
 10
227.2358228988
 20
129.9633439384
 30
0.0
 11
227.2358228988
 21
135.9633439906
 31
0.0
  0
LINE
  5
111
330
1F
100
AcDbEntity
  8
0
  6
HIDDEN
 62
     7
370
     0
100
AcDbLine
 10
225.0832868344
 20
129.9633439384
 30
0.0
 11
225.0832868344
 21
135.9633439906
 31
0.0
  0
CIRCLE
  5
112
330
1F
100
AcDbEntity
  8
0
  6
HIDDEN
 62
     7
370
     0
100
AcDbCircle
 10
196.8253683872
 20
116.4090102293
 30
0.0
 40
5.000000000000004
  0
CIRCLE
  5
113
330
1F
100
AcDbEntity
  8
0
  6
HIDDEN
 62
     7
370
     0
100
AcDbCircle
 10
196.8253683872
 20
116.4090102293
 30
0.0
 40
3.499999999999991
  0
LINE
  5
114
330
1F
100
AcDbEntity
  8
0
  6
HIDDEN
 62
     7
370
     0
100
AcDbLine
 10
177.9334358475
 20
140.8676998444
 30
0.0
 11
177.9334358475
 21
136.2590109684
 31
0.0
  0
LINE
  5
115
330
1F
100
AcDbEntity
  8
0
  6
HIDDEN
 62
     7
370
     0
100
AcDbLine
 10
151.3205188862
 20
92.8844110794
 30
0.0
 11
151.0716536618
 21
92.8611485042
 31
0.0
  0
LINE
  5
116
330
1F
100
AcDbEntity
  8
0
  6
HIDDEN
 62
     7
370
     0
100
AcDbLine
 10
150.9390929318
 20
139.9690964945
 30
0.0
 11
151.3204257539
 21
139.9335926153
 31
0.0
  0
SPLINE
  5
117
330
1F
100
AcDbEntity
  8
0
  6
HIDDEN
 62
     7
370
     0
100
AcDbSpline
210
0.0
220
0.0
230
1.0
 70
     8
 71
     3
 72
    15
 73
    11
 74
     0
 42
0.00000001
 43
0.00000001
 40
0.0
 40
0.0
 40
0.0
 40
0.0
 40
0.1409172263352446
 40
0.281889861653346
 40
0.4212989542022905
 40
0.5593768841673977
 40
0.6988856533029646
 40
0.840367202775075
 40
0.9813164473602943
 40
1.0
 40
1.0
 40
1.0
 40
1.0
 10
157.0803704275706
 20
96.57148176208527
 30
0.0
 10
156.764328707958
 20
96.61183508385996
 30
0.0
 10
156.1321210003896
 20
96.69255759442979
 30
0.0
 10
154.8979578280753
 20
96.76911554081255
 30
0.0
 10
153.6272357042597
 20
96.76443747279761
 30
0.0
 10
152.4386762377232
 20
96.68364100757437
 30
0.0
 10
151.4455535584328
 20
96.55924646072016
 30
0.0
 10
150.806145027119
 20
96.45283951395893
 30
0.0
 10
150.5251250387657
 20
96.39976245464938
 30
0.0
 10
150.5916856072544
 20
96.41201694661127
 30
0.0
 10
150.5994759104171
 20
96.41345122233422
 30
0.0
  0
SPLINE
  5
118
330
1F
100
AcDbEntity
  8
0
  6
HIDDEN
 62
     7
370
     0
100
AcDbSpline
210
0.0
220
0.0
230
1.0
 70
     8
 71
     3
 72
    15
 73
    11
 74
     0
 42
0.00000001
 43
0.00000001
 40
0.0
 40
0.0
 40
0.0
 40
0.0
 40
0.1201202497733958
 40
0.2584739452442804
 40
0.3987302041697883
 40
0.5404022600041716
 40
0.680739511736143
 40
0.8190355942651634
 40
0.9577823154231621
 40
1.0
 40
1.0
 40
1.0
 40
1.0
 10
150.5994759104171
 20
136.404569236193
 30
0.0
 10
150.6201851592206
 20
136.4005447321187
 30
0.0
 10
150.6647471814556
 20
136.3918848313301
 30
0.0
 10
151.227186651184
 20
136.292591912619
 30
0.0
 10
152.1206489066313
 20
136.1686759009076
 30
0.0
 10
153.2796277304835
 20
136.068964525374
 30
0.0
 10
154.5526645993032
 20
136.0418274676759
 30
0.0
 10
155.7869499460303
 20
136.097164829806
 30
0.0
 10
156.6149130237262
 20
136.1836445655974
 30
0.0
 10
156.9923233363725
 20
136.2346414847346
 30
0.0
 10
157.0803704275706
 20
136.246538696442
 30
0.0
  0
SPLINE
  5
119
330
1F
100
AcDbEntity
  8
0
  6
HIDDEN
 62
     7
370
     0
100
AcDbSpline
210
0.0
220
0.0
230
1.0
 70
     8
 71
     3
 72
    10
 73
     6
 74
     0
 42
0.00000001
 43
0.00000001
 40
0.0
 40
0.0
 40
0.0
 40
0.0
 40
0.4475585764095956
 40
0.8951004954025568
 40
0.9999999999999999
 40
0.9999999999999999
 40
0.9999999999999999
 40
0.9999999999999999
 10
157.0803704275706
 20
136.246538696442
 30
0.0
 10
157.3270769924774
 20
136.2760505366634
 30
0.0
 10
157.8204809402659
 20
136.3350731187226
 30
0.0
 10
158.1094955842191
 20
136.3490150746479
 30
0.0
 10
158.0491190560557
 20
136.3451225687325
 30
0.0
 10
158.0376545502761
 20
136.3443834461311
 30
0.0
  0
SPLINE
  5
11A
330
1F
100
AcDbEntity
  8
0
  6
HIDDEN
 62
     7
370
     0
100
AcDbSpline
210
0.0
220
0.0
230
1.0
 70
     8
 71
     3
 72
    10
 73
     6
 74
     0
 42
0.00000001
 43
0.00000001
 40
0.0
 40
0.0
 40
0.0
 40
0.0
 40
0.3454724187945609
 40
0.7966963267994289
 40
1.0
 40
1.0
 40
1.0
 40
1.0
 10
158.0376452370503
 20
96.47363887504132
 30
0.0
 10
158.0280850909006
 20
96.47419369171799
 30
0.0
 10
158.0060383719534
 20
96.47547315828119
 30
0.0
 10
157.5890975876558
 20
96.50543272298171
 30
0.0
 10
157.2009373803029
 20
96.55582831953214
 30
0.0
 10
157.0803704275706
 20
96.57148176208527
 30
0.0
  0
LINE
  5
11B
330
1F
100
AcDbEntity
  8
0
  6
HIDDEN
 62
     7
370
     0
100
AcDbLine
 10
144.3293438829
 20
99.4090093054
 30
0.0
 11
144.3293438829
 21
133.4090111531
 31
0.0
  0
SPLINE
  5
11C
330
1F
100
AcDbEntity
  8
0
  6
HIDDEN
 62
     7
370
     0
100
AcDbSpline
210
0.0
220
0.0
230
1.0
 70
     8
 71
     3
 72
     8
 73
     4
 74
     0
 42
0.00000001
 43
0.00000001
 40
0.0
 40
0.0
 40
0.0
 40
0.0
 40
0.0011559732291308
 40
0.0011559732291308
 40
0.0011559732291308
 40
0.0011559732291308
 10
131.4253683871546
 20
118.4088508478963
 30
0.0
 10
131.7587029622219
 20
118.404883568097
 30
0.0
 10
132.0920341532486
 20
118.4007036855204
 30
0.0
 10
132.4253683871546
 20
118.3961385321126
 30
0.0
  0
SPLINE
  5
11D
330
1F
100
AcDbEntity
  8
0
  6
HIDDEN
 62
     7
370
     0
100
AcDbSpline
210
0.0
220
0.0
230
1.0
 70
     8
 71
     3
 72
    11
 73
     7
 74
     0
 42
0.00000001
 43
0.00000001
 40
0.0
 40
0.0
 40
0.0
 40
0.0
 40
0.0005782382535738
 40
0.0005782382535738
 40
0.0005782382535738
 40
0.0011564766069467
 40
0.0011564766069467
 40
0.0011564766069467
 40
0.0011564766069467
 10
132.4253683871546
 20
114.4123099270454
 30
0.0
 10
132.258714433186
 20
114.4118723492837
 30
0.0
 10
132.092053760984
 20
114.4113922846113
 30
0.0
 10
131.9253868723186
 20
114.410872745242
 30
0.0
 10
131.7587199539226
 20
114.41035320578
 30
0.0
 10
131.5920468240894
 20
114.409794376758
 30
0.0
 10
131.4253683871546
 20
114.4092088331749
 30
0.0
  0
LINE
  5
11E
330
1F
100
AcDbEntity
  8
0
  6
HIDDEN
 62
     7
370
     0
100
AcDbLine
 10
170.9851943492
 20
99.4090093054
 30
0.0
 11
170.9851943492
 21
133.4090111531
 31
0.0
  0
LINE
  5
11F
330
1F
100
AcDbEntity
  8
0
  6
HIDDEN
 62
     7
370
     0
100
AcDbLine
 10
173.2753682486
 20
100.6840103991
 30
0.0
 11
173.2753682486
 21
132.1340100594
 31
0.0
  0
SPLINE
  5
120
330
1F
100
AcDbEntity
  8
0
  6
HIDDEN
 62
     7
370
     0
100
AcDbSpline
210
0.0
220
0.0
230
1.0
 70
     8
 71
     3
 72
    16
 73
    12
 74
     0
 42
0.00000001
 43
0.00000001
 40
0.0
 40
0.0
 40
0.0
 40
0.0
 40
0.1249999999999983
 40
0.1249999999999983
 40
0.2499999999999967
 40
0.2499999999999967
 40
0.4999999999999978
 40
0.4999999999999978
 40
0.7499999999999989
 40
0.7499999999999989
 40
1.0
 40
1.0
 40
1.0
 40
1.0
 10
140.1253683871546
 20
100.607519793232
 30
0.0
 10
140.2204901418204
 20
100.607519793232
 30
0.0
 10
140.3138202105485
 20
100.6037039598392
 30
0.0
 10
140.4970819712865
 20
100.5889334071093
 30
0.0
 10
140.5879596868435
 20
100.5777753591338
 30
0.0
 10
140.8447613843633
 20
100.535304088992
 30
0.0
 10
140.9998287492353
 20
100.4942578917892
 30
0.0
 10
141.2535752107899
 20
100.3991117752074
 30
0.0
 10
141.3544456624577
 20
100.3443490411258
 30
0.0
 10
141.4896920771526
 20
100.2330879172219
 30
0.0
 10
141.5253683871546
 20
100.1759181798932
 30
0.0
 10
141.5253683871546
 20
100.1214966068595
 30
0.0
  0
SPLINE
  5
121
330
1F
100
AcDbEntity
  8
0
  6
HIDDEN
 62
     7
370
     0
100
AcDbSpline
210
0.0
220
0.0
230
1.0
 70
     8
 71
     3
 72
     8
 73
     4
 74
     0
 42
0.00000001
 43
0.00000001
 40
0.0
 40
0.0
 40
0.0
 40
0.0
 40
1.0
 40
1.0
 40
1.0
 40
1.0
 10
132.7253683871557
 20
102.7523227393142
 30
0.0
 10
132.7253683871576
 20
101.8684255969973
 30
0.0
 10
132.7118877612481
 20
101.1538423519353
 30
0.0
 10
132.710536393057
 20
100.6075197932319
 30
0.0
  0
SPLINE
  5
122
330
1F
100
AcDbEntity
  8
0
  6
HIDDEN
 62
     7
370
     0
100
AcDbSpline
210
0.0
220
0.0
230
1.0
 70
     8
 71
     3
 72
    10
 73
     6
 74
     0
 42
0.00000001
 43
0.00000001
 40
0.0
 40
0.0
 40
0.0
 40
0.0
 40
0.5
 40
0.5
 40
1.0
 40
1.0
 40
1.0
 40
1.0
 10
132.4253683871546
 20
103.7772329986095
 30
0.0
 10
132.5167595017938
 20
103.6025942120631
 30
0.0
 10
132.5894113348341
 20
103.4289923859166
 30
0.0
 10
132.6969102266544
 20
103.0853789690754
 30
0.0
 10
132.7253683871501
 20
102.9170531435909
 30
0.0
 10
132.7253683871557
 20
102.7523227393737
 30
0.0
  0
LINE
  5
123
330
1F
100
AcDbEntity
  8
0
  6
HIDDEN
 62
     7
370
     0
100
AcDbLine
 10
132.4253687239
 20
106.8081836902
 30
0.0
 11
132.4253687239
 21
103.7772325553
 31
0.0
  0
SPLINE
  5
124
330
1F
100
AcDbEntity
  8
0
  6
HIDDEN
 62
     7
370
     0
100
AcDbSpline
210
0.0
220
0.0
230
1.0
 70
     8
 71
     3
 72
    10
 73
     6
 74
     0
 42
0.00000001
 43
0.00000001
 40
0.0
 40
0.0
 40
0.0
 40
0.0
 40
0.5
 40
0.5
 40
1.0
 40
1.0
 40
1.0
 40
1.0
 10
132.7253683871181
 20
108.1760238536208
 30
0.0
 10
132.7253683871181
 20
107.9340398874488
 30
0.0
 10
132.6972183583719
 20
107.6996974598296
 30
0.0
 10
132.5936284454012
 20
107.2443224400948
 30
0.0
 10
132.5169997366395
 20
107.0227178782126
 30
0.0
 10
132.4253683871546
 20
106.8081834445033
 30
0.0
  0
LINE
  5
125
330
1F
100
AcDbEntity
  8
0
  6
HIDDEN
 62
     7
370
     0
100
AcDbLine
 10
132.7253682143
 20
120.0136439629
 30
0.0
 11
132.7253682143
 21
108.1760236748
 31
0.0
  0
SPLINE
  5
126
330
1F
100
AcDbEntity
  8
0
  6
HIDDEN
 62
     7
370
     0
100
AcDbSpline
210
0.0
220
0.0
230
1.0
 70
     8
 71
     3
 72
     8
 73
     4
 74
     0
 42
0.00000001
 43
0.00000001
 40
0.0
 40
0.0
 40
0.0
 40
0.0
 40
1.0
 40
1.0
 40
1.0
 40
1.0
 10
132.4253683871546
 20
126.0159495425428
 30
0.0
 10
132.6063998518216
 20
125.5838420591314
 30
0.0
 10
132.7253683871238
 20
125.129696655555
 30
0.0
 10
132.7253683871181
 20
124.6419966048755
 30
0.0
  0
LINE
  5
127
330
1F
100
AcDbEntity
  8
0
  6
HIDDEN
 62
     7
370
     0
100
AcDbLine
 10
132.4253687239
 20
129.0491521113
 30
0.0
 11
132.4253687239
 21
126.0159499697
 31
0.0
  0
SPLINE
  5
128
330
1F
100
AcDbEntity
  8
0
  6
HIDDEN
 62
     7
370
     0
100
AcDbSpline
210
0.0
220
0.0
230
1.0
 70
     8
 71
     3
 72
    10
 73
     6
 74
     0
 42
0.00000001
 43
0.00000001
 40
0.0
 40
0.0
 40
0.0
 40
0.0
 40
0.5
 40
0.5
 40
1.0
 40
1.0
 40
1.0
 40
1.0
 10
132.7253683872597
 20
130.0656977191834
 30
0.0
 10
132.725368387258
 20
129.9010613735902
 30
0.0
 10
132.6982097168331
 20
129.7339061508038
 30
0.0
 10
132.5924447227736
 20
129.3952831451417
 30
0.0
 10
132.5160299352528
 20
129.2230113689849
 30
0.0
 10
132.4253683871546
 20
129.0491525427345
 30
0.0
  0
SPLINE
  5
129
330
1F
100
AcDbEntity
  8
0
  6
HIDDEN
 62
     7
370
     0
100
AcDbSpline
210
0.0
220
0.0
230
1.0
 70
     8
 71
     3
 72
    18
 73
    14
 74
     0
 42
0.00000001
 43
0.00000001
 40
0.0
 40
0.0
 40
0.0
 40
0.0
 40
0.2500000000000033
 40
0.2500000000000033
 40
0.3750000000000029
 40
0.3750000000000029
 40
0.5000000000000026
 40
0.5000000000000026
 40
0.6250000000000022
 40
0.6250000000000022
 40
0.7500000000000018
 40
0.7500000000000018
 40
1.0
 40
1.0
 40
1.0
 40
1.0
 10
137.5253683871546
 20
132.6965238516677
 30
0.0
 10
137.5253683871546
 20
132.6420493311156
 30
0.0
 10
137.4904576957624
 20
132.585668271763
 30
0.0
 10
137.3884483944294
 20
132.5015914309096
 30
0.0
 10
137.3468120397513
 20
132.4742577269187
 30
0.0
 10
137.2484062442626
 20
132.4213038113197
 30
0.0
 10
137.1908630325583
 20
132.3954164576025
 30
0.0
 10
137.0635648589853
 20
132.3476389127692
 30
0.0
 10
136.9939775542278
 20
132.3256909945914
 30
0.0
 10
136.8425433090729
 20
132.2862584296786
 30
0.0
 10
136.7598594059789
 20
132.2687021804528
 30
0.0
 10
136.5037479439409
 20
132.2262634150323
 30
0.0
 10
136.3158329400529
 20
132.2105006652953
 30
0.0
 10
136.1253683871546
 20
132.2105006652953
 30
0.0
  0
LINE
  5
12A
330
1F
100
AcDbEntity
  8
0
  6
HIDDEN
 62
     7
370
     0
100
AcDbLine
 10
136.1253680265
 20
132.2105014451
 30
0.0
 11
132.7253682143
 21
132.2105014451
 31
0.0
  0
LINE
  5
12B
330
1F
100
AcDbEntity
  8
0
  6
HIDDEN
 62
     7
370
     0
100
AcDbLine
 10
132.6564000524
 20
100.6075190134
 30
0.0
 11
140.1253686822
 21
100.6075190134
 31
0.0
  0
SPLINE
  5
12C
330
1F
100
AcDbEntity
  8
0
  6
HIDDEN
 62
     7
370
     0
100
AcDbSpline
210
0.0
220
0.0
230
1.0
 70
     8
 71
     3
 72
    22
 73
    18
 74
     0
 42
0.00000001
 43
0.00000001
 40
0.0
 40
0.0
 40
0.0
 40
0.0
 40
0.125
 40
0.125
 40
0.2499999999999999
 40
0.2499999999999999
 40
0.5000000000000003
 40
0.5000000000000003
 40
0.5625000000000004
 40
0.5625000000000004
 40
0.6250000000000006
 40
0.6250000000000006
 40
0.7500000000000004
 40
0.7500000000000004
 40
0.8750000000000002
 40
0.8750000000000002
 40
1.0
 40
1.0
 40
1.0
 40
1.0
 10
132.6563994005125
 20
100.607519793232
 30
0.0
 10
132.6433170077841
 20
100.8626255033796
 30
0.0
 10
132.6300974443443
 20
101.1557837624835
 30
0.0
 10
132.6076502665502
 20
101.8180842281083
 30
0.0
 10
132.5981717995257
 20
102.1883581487197
 30
0.0
 10
132.5789738385892
 20
103.4109149518335
 30
0.0
 10
132.5800876115861
 20
104.3480538779654
 30
0.0
 10
132.5989984045391
 20
105.6679251074804
 30
0.0
 10
132.6036279323982
 20
105.9394270164567
 30
0.0
 10
132.6141091521441
 20
106.497811851259
 30
0.0
 10
132.6199044134285
 20
106.7849347071986
 30
0.0
 10
132.6382136343335
 20
107.6575239615703
 30
0.0
 10
132.6522485686139
 20
108.2579796379261
 30
0.0
 10
132.6817057407507
 20
109.4954541304222
 30
0.0
 10
132.6972614317322
 20
110.1324702870656
 30
0.0
 10
132.7210559817291
 20
111.4439588847502
 30
0.0
 10
132.7290750338745
 20
112.1200814964107
 30
0.0
 10
132.7253683871546
 20
112.8043766076955
 30
0.0
  0
LINE
  5
12D
330
1F
100
AcDbEntity
  8
0
  6
HIDDEN
 62
     7
370
     0
100
AcDbLine
 10
132.7253682143
 20
120.0136439629
 30
0.0
 11
132.7253682143
 21
132.2105014451
 31
0.0
  0
SPLINE
  5
12E
330
1F
100
AcDbEntity
  8
0
  6
HIDDEN
 62
     7
370
     0
100
AcDbSpline
210
0.0
220
0.0
230
1.0
 70
     8
 71
     3
 72
    10
 73
     6
 74
     0
 42
0.00000001
 43
0.00000001
 40
0.0
 40
0.0
 40
0.0
 40
0.0
 40
0.5
 40
0.5
 40
1.0
 40
1.0
 40
1.0
 40
1.0
 10
132.7253683871546
 20
112.8043766076804
 30
0.0
 10
132.7253683871544
 20
113.0782917557545
 30
0.0
 10
132.6996091572856
 20
113.3492333344841
 30
0.0
 10
132.5964032245522
 20
113.8849244160863
 30
0.0
 10
132.5190650606778
 20
114.150671219608
 30
0.0
 10
132.4253683871546
 20
114.4123099270454
 30
0.0
  0
SPLINE
  5
12F
330
1F
100
AcDbEntity
  8
0
  6
HIDDEN
 62
     7
370
     0
100
AcDbSpline
210
0.0
220
0.0
230
1.0
 70
     8
 71
     3
 72
    10
 73
     6
 74
     0
 42
0.00000001
 43
0.00000001
 40
0.0
 40
0.0
 40
0.0
 40
0.0
 40
0.5
 40
0.5
 40
1.0
 40
1.0
 40
1.0
 40
1.0
 10
132.4253683871546
 20
118.3961385321126
 30
0.0
 10
132.5185989675057
 20
118.6600323387109
 30
0.0
 10
132.5936285790345
 20
118.9262126478093
 30
0.0
 10
132.698695677014
 20
119.4645352196279
 30
0.0
 10
132.7253683872586
 20
119.7372833342436
 30
0.0
 10
132.7253683872597
 20
120.0136438508307
 30
0.0
  0
LINE
  5
130
330
1F
100
AcDbEntity
  8
0
  6
HIDDEN
 62
     7
370
     0
100
AcDbLine
 10
132.4253687239
 20
114.412310043
 30
0.0
 11
132.4253687239
 21
118.396138515
 31
0.0
  0
LINE
  5
131
330
1F
100
AcDbEntity
  8
0
  6
HIDDEN
 62
     7
370
     0
100
AcDbLine
 10
132.5753675378
 20
98.4190096833
 30
0.0
 11
132.5753675378
 21
95.6023791559
 31
0.0
  0
LINE
  5
132
330
1F
100
AcDbEntity
  8
0
  6
HIDDEN
 62
     7
370
     0
100
AcDbLine
 10
141.5253681666
 20
98.4190096833
 30
0.0
 11
141.5253681666
 21
94.4638615228
 31
0.0
  0
LINE
  5
133
330
1F
100
AcDbEntity
  8
0
  6
HIDDEN
 62
     7
370
     0
100
AcDbLine
 10
132.5753675378
 20
134.3990107752
 30
0.0
 11
132.5753675378
 21
137.278948886
 31
0.0
  0
LINE
  5
134
330
1F
100
AcDbEntity
  8
0
  6
HIDDEN
 62
     7
370
     0
100
AcDbLine
 10
137.525367511
 20
134.3990107752
 30
0.0
 11
137.525367511
 21
138.2531178869
 31
0.0
  0
LINE
  5
135
330
1F
100
AcDbEntity
  8
0
  6
HIDDEN
 62
     7
370
     0
100
AcDbLine
 10
182.125368116
 20
106.9090105347
 30
0.0
 11
182.125368116
 21
125.9090099238
 31
0.0
  0
LINE
  5
136
330
1F
100
AcDbEntity
  8
0
  6
HIDDEN
 62
     7
370
     0
100
AcDbLine
 10
185.1253686077
 20
106.9090105347
 30
0.0
 11
185.1253686077
 21
125.9090099238
 31
0.0
  0
LINE
  5
137
330
1F
100
AcDbEntity
  8
0
  6
HIDDEN
 62
     7
370
     0
100
AcDbLine
 10
173.7753683305
 20
107.9090097673
 30
0.0
 11
173.7753683305
 21
124.9090106912
 31
0.0
  0
LINE
  5
138
330
1F
100
AcDbEntity
  8
0
  6
HIDDEN
 62
     7
370
     0
100
AcDbLine
 10
179.5130436844
 20
90.0090103723
 30
0.0
 11
176.2753687403
 21
90.0090103723
 31
0.0
  0
LINE
  5
139
330
1F
100
AcDbEntity
  8
0
  6
HIDDEN
 62
     7
370
     0
100
AcDbLine
 10
189.2753680772
 20
90.0090103723
 30
0.0
 11
183.1376934028
 21
90.0090103723
 31
0.0
  0
LINE
  5
13A
330
1F
100
AcDbEntity
  8
0
  6
HIDDEN
 62
     7
370
     0
100
AcDbLine
 10
168.2753683603
 20
84.9248869099
 30
0.0
 11
168.2753683603
 21
90.0090103723
 31
0.0
  0
LINE
  5
13B
330
1F
100
AcDbEntity
  8
0
  6
HIDDEN
 62
     7
370
     0
100
AcDbLine
 10
176.2753687403
 20
90.0090103723
 30
0.0
 11
168.2753683603
 21
90.0090103723
 31
0.0
  0
LINE
  5
13C
330
1F
100
AcDbEntity
  8
0
  6
HIDDEN
 62
     7
370
     0
100
AcDbLine
 10
190.5011245585
 20
116.4090102293
 30
0.0
 11
190.5011245585
 21
108.1090103589
 31
0.0
  0
LINE
  5
13D
330
1F
100
AcDbEntity
  8
0
  6
HIDDEN
 62
     7
370
     0
100
AcDbLine
 10
190.5011245585
 20
124.7090100996
 30
0.0
 11
190.5011245585
 21
116.4090102293
 31
0.0
  0
LINE
  5
13E
330
1F
100
AcDbEntity
  8
0
  6
HIDDEN
 62
     7
370
     0
100
AcDbLine
 10
191.3253692514
 20
116.4090102293
 30
0.0
 11
191.3253692514
 21
108.4090098493
 31
0.0
  0
LINE
  5
13F
330
1F
100
AcDbEntity
  8
0
  6
HIDDEN
 62
     7
370
     0
100
AcDbLine
 10
191.3253692514
 20
124.4090106092
 30
0.0
 11
191.3253692514
 21
116.4090102293
 31
0.0
  0
LINE
  5
140
330
1F
100
AcDbEntity
  8
0
  6
HIDDEN
 62
     7
370
     0
100
AcDbLine
 10
187.3253685958
 20
116.4090102293
 30
0.0
 11
187.3253685958
 21
108.5090106107
 31
0.0
  0
LINE
  5
141
330
1F
100
AcDbEntity
  8
0
  6
HIDDEN
 62
     7
370
     0
100
AcDbLine
 10
187.3253685958
 20
124.3090098478
 30
0.0
 11
187.3253685958
 21
116.4090102293
 31
0.0
  0
SPLINE
  5
142
330
1F
100
AcDbEntity
  8
0
  6
HIDDEN
 62
     7
370
     0
100
AcDbSpline
210
0.0
220
0.0
230
1.0
 70
     8
 71
     3
 72
    14
 73
    10
 74
     0
 42
0.00000001
 43
0.00000001
 40
0.0
 40
0.0
 40
0.0
 40
0.0
 40
0.1902707663850283
 40
0.3797071069009046
 40
0.5893114323674256
 40
0.702047583095574
 40
0.8186580737755033
 40
0.9214806778926563
 40
1.0
 40
1.0
 40
1.0
 40
1.0
 10
227.8253649896899
 20
123.023388417069
 30
0.0
 10
227.3660608837016
 20
123.0526178229043
 30
0.0
 10
226.4494669340058
 20
123.1109484500259
 30
0.0
 10
225.2038848403478
 20
123.5014406419245
 30
0.0
 10
224.3413128226694
 20
123.8767901187379
 30
0.0
 10
223.7948667334584
 20
124.1526882395736
 30
0.0
 10
223.5041872838631
 20
124.3090493995456
 30
0.0
 10
223.3440990118342
 20
124.3984419766965
 30
0.0
 10
223.3399179142097
 20
124.4008271550629
 30
0.0
 10
223.3381075388708
 20
124.4018599145153
 30
0.0
  0
LINE
  5
143
330
1F
100
AcDbEntity
  8
0
  6
HIDDEN
 62
     7
370
     0
100
AcDbLine
 10
227.7089049644
 20
123.0351463646
 30
0.0
 11
227.9834961123
 21
123.0339463554
 31
0.0
  0
SPLINE
  5
144
330
1F
100
AcDbEntity
  8
0
  6
HIDDEN
 62
     7
370
     0
100
AcDbSpline
210
0.0
220
0.0
230
1.0
 70
     8
 71
     3
 72
    14
 73
    10
 74
     0
 42
0.00000001
 43
0.00000001
 40
0.0
 40
0.0
 40
0.0
 40
0.0
 40
0.059307660734861
 40
0.2436277976306724
 40
0.4338216295055762
 40
0.6465997948132957
 40
0.7593068309747647
 40
0.8760745802407414
 40
1.0
 40
1.0
 40
1.0
 40
1.0
 10
232.3100035614291
 20
124.4003800429443
 30
0.0
 10
232.3116216552795
 20
124.4012936776939
 30
0.0
 10
232.3182685645698
 20
124.4050467648857
 30
0.0
 10
232.0342462088061
 20
124.2451657585137
 30
0.0
 10
231.3325209578581
 20
123.8828769968754
 30
0.0
 10
230.4274850255837
 20
123.4957004387504
 30
0.0
 10
229.5088477424968
 20
123.2226334135945
 30
0.0
 10
228.703647410918
 20
123.0584185615079
 30
0.0
 10
228.1238728580921
 20
123.0352943524419
 30
0.0
 10
227.8253649896899
 20
123.023388417069
 30
0.0
  0
SPLINE
  5
145
330
1F
100
AcDbEntity
  8
0
  6
HIDDEN
 62
     7
370
     0
100
AcDbSpline
210
0.0
220
0.0
230
1.0
 70
     8
 71
     3
 72
    14
 73
    10
 74
     0
 42
0.00000001
 43
0.00000001
 40
0.0
 40
0.0
 40
0.0
 40
0.0
 40
0.190271227433549
 40
0.3797070704508181
 40
0.5893117019309287
 40
0.7020478247320431
 40
0.8186580977827249
 40
0.9214806764286305
 40
1.0
 40
1.0
 40
1.0
 40
1.0
 10
212.3253671056547
 20
123.023388417069
 30
0.0
 10
211.8660615488422
 20
123.052617598058
 30
0.0
 10
210.9494670128659
 20
123.1109476295332
 30
0.0
 10
209.7038863047876
 20
123.5014417710271
 30
0.0
 10
208.8413118245288
 20
123.8767897471776
 30
0.0
 10
208.2948644037594
 20
124.1526880761604
 30
0.0
 10
208.004189837096
 20
124.3090495412712
 30
0.0
 10
207.8441022881407
 20
124.398441967692
 30
0.0
 10
207.8399177813112
 20
124.4008271522332
 30
0.0
 10
207.8381059295454
 20
124.4018599145153
 30
0.0
  0
LINE
  5
146
330
1F
100
AcDbEntity
  8
0
  6
HIDDEN
 62
     7
370
     0
100
AcDbLine
 10
212.2089033551
 20
123.0351463646
 30
0.0
 11
212.483494503
 21
123.0339463554
 31
0.0
  0
SPLINE
  5
147
330
1F
100
AcDbEntity
  8
0
  6
HIDDEN
 62
     7
370
     0
100
AcDbSpline
210
0.0
220
0.0
230
1.0
 70
     8
 71
     3
 72
    14
 73
    10
 74
     0
 42
0.00000001
 43
0.00000001
 40
0.0
 40
0.0
 40
0.0
 40
0.0
 40
0.059307663188112
 40
0.2436278077082934
 40
0.4338216474505316
 40
0.6465998215597825
 40
0.759307307981504
 40
0.8760745751145882
 40
1.0
 40
1.0
 40
1.0
 40
1.0
 10
216.8100056773939
 20
124.4003800429443
 30
0.0
 10
216.811623770578
 20
124.4012936783281
 30
0.0
 10
216.818270677131
 20
124.4050467681253
 30
0.0
 10
216.5342483765615
 20
124.2451657092207
 30
0.0
 10
215.8325228698765
 20
123.8828771909864
 30
0.0
 10
214.9274870461092
 20
123.495699450701
 30
0.0
 10
214.0088476851938
 20
123.2226344055991
 30
0.0
 10
213.2036486255614
 20
123.0584181554318
 30
0.0
 10
212.6238750663881
 20
123.0352942303267
 30
0.0
 10
212.3253671056547
 20
123.023388417069
 30
0.0
  0
SPLINE
  5
148
330
1F
100
AcDbEntity
  8
0
  6
HIDDEN
 62
     7
370
     0
100
AcDbSpline
210
0.0
220
0.0
230
1.0
 70
     8
 71
     3
 72
    14
 73
    10
 74
     0
 42
0.00000001
 43
0.00000001
 40
0.0
 40
0.0
 40
0.0
 40
0.0
 40
0.1902711671056947
 40
0.3797074006312138
 40
0.5893117866851292
 40
0.7020477409169272
 40
0.8186581657372752
 40
0.9214807117820061
 40
1.0
 40
1.0
 40
1.0
 40
1.0
 10
196.8253692216196
 20
123.023388417069
 30
0.0
 10
196.3660637718463
 20
123.0526177123966
 30
0.0
 10
195.4494683618213
 20
123.1109480412631
 30
0.0
 10
194.203885636442
 20
123.5014409526797
 30
0.0
 10
193.3413107119024
 20
123.8767896668996
 30
0.0
 10
192.7948676839244
 20
124.1526884098592
 30
0.0
 10
192.5041874423853
 20
124.3090493740697
 30
0.0
 10
192.3441002051471
 20
124.3984419839275
 30
0.0
 10
192.3399173285981
 20
124.4008271571934
 30
0.0
 10
192.3381061828652
 20
124.4018599145153
 30
0.0
  0
LINE
  5
149
330
1F
100
AcDbEntity
  8
0
  6
HIDDEN
 62
     7
370
     0
100
AcDbLine
 10
196.7089017457
 20
123.0351463646
 30
0.0
 11
196.9834928936
 21
123.0339463554
 31
0.0
  0
SPLINE
  5
14A
330
1F
100
AcDbEntity
  8
0
  6
HIDDEN
 62
     7
370
     0
100
AcDbSpline
210
0.0
220
0.0
230
1.0
 70
     8
 71
     3
 72
    14
 73
    10
 74
     0
 42
0.00000001
 43
0.00000001
 40
0.0
 40
0.0
 40
0.0
 40
0.0
 40
0.0593076968338612
 40
0.2436279271699583
 40
0.4338218554627919
 40
0.6466001286374699
 40
0.759307221935277
 40
0.8760750303961525
 40
1.0
 40
1.0
 40
1.0
 40
1.0
 10
201.3100077933588
 20
124.4003800429443
 30
0.0
 10
201.311624478172
 20
124.4012936780302
 30
0.0
 10
201.3182655988181
 20
124.4050467663149
 30
0.0
 10
201.0342480627495
 20
124.245165758944
 30
0.0
 10
200.3325210421708
 20
123.8828769962848
 30
0.0
 10
199.4274855912298
 20
123.4957004404306
 30
0.0
 10
198.5088482363567
 20
123.2226334104789
 30
0.0
 10
197.7036490935824
 20
123.0584188125353
 30
0.0
 10
197.123875827874
 20
123.0352944219773
 30
0.0
 10
196.8253692216196
 20
123.023388417069
 30
0.0
  0
LINE
  5
14B
330
1F
100
AcDbEntity
  8
0
  6
HIDDEN
 62
     7
370
     0
100
AcDbLine
 10
196.8253692216
 20
120.9090100355
 30
0.0
 11
196.3164088852
 21
120.8309097901
 31
0.0
  0
SPLINE
  5
14C
330
1F
100
AcDbEntity
  8
0
  6
HIDDEN
 62
     7
370
     0
100
AcDbSpline
210
0.0
220
0.0
230
1.0
 70
     8
 71
     3
 72
     9
 73
     5
 74
     0
 42
0.00000001
 43
0.00000001
 40
0.0
 40
0.0
 40
0.0
 40
0.0
 40
0.3674758903912421
 40
1.0
 40
1.0
 40
1.0
 40
1.0
 10
196.6969584650317
 20
111.9261020548681
 30
0.0
 10
196.8601194748385
 20
111.9185313261786
 30
0.0
 10
197.3041241403774
 20
111.8979293523147
 30
0.0
 10
197.725711710098
 20
112.024596598839
 30
0.0
 10
197.9923760122576
 20
112.1047166861633
 30
0.0
  0
LINE
  5
14D
330
1F
100
AcDbEntity
  8
0
  6
HIDDEN
 62
     7
370
     0
100
AcDbLine
 10
197.2596263117
 20
120.865777576
 30
0.0
 11
196.8253692216
 21
120.9090100355
 31
0.0
  0
LINE
  5
14E
330
1F
100
AcDbEntity
  8
0
  6
HIDDEN
 62
     7
370
     0
100
AcDbLine
 10
227.8253649897
 20
120.9090100355
 30
0.0
 11
227.3164083785
 21
120.8309097901
 31
0.0
  0
SPLINE
  5
14F
330
1F
100
AcDbEntity
  8
0
  6
HIDDEN
 62
     7
370
     0
100
AcDbSpline
210
0.0
220
0.0
230
1.0
 70
     8
 71
     3
 72
     9
 73
     5
 74
     0
 42
0.00000001
 43
0.00000001
 40
0.0
 40
0.0
 40
0.0
 40
0.0
 40
0.3674814483211662
 40
0.9999999999999999
 40
0.9999999999999999
 40
0.9999999999999999
 40
0.9999999999999999
 10
227.6969542331019
 20
111.9261020548681
 30
0.0
 10
227.8601177748431
 20
111.9185310715416
 30
0.0
 10
228.3041226150511
 20
111.897928716345
 30
0.0
 10
228.7257099621407
 20
112.024596783673
 30
0.0
 10
228.9923717803278
 20
112.1047166861633
 30
0.0
  0
LINE
  5
150
330
1F
100
AcDbEntity
  8
0
  6
HIDDEN
 62
     7
370
     0
100
AcDbLine
 10
228.2596295304
 20
120.865777576
 30
0.0
 11
227.8253649897
 21
120.9090100355
 31
0.0
  0
LINE
  5
151
330
1F
100
AcDbEntity
  8
0
  6
HIDDEN
 62
     7
370
     0
100
AcDbLine
 10
212.3253671057
 20
120.9090100355
 30
0.0
 11
211.8164067692
 21
120.8309097901
 31
0.0
  0
SPLINE
  5
152
330
1F
100
AcDbEntity
  8
0
  6
HIDDEN
 62
     7
370
     0
100
AcDbSpline
210
0.0
220
0.0
230
1.0
 70
     8
 71
     3
 72
     9
 73
     5
 74
     0
 42
0.00000001
 43
0.00000001
 40
0.0
 40
0.0
 40
0.0
 40
0.0
 40
0.3674786693566219
 40
1.0
 40
1.0
 40
1.0
 40
1.0
 10
212.1969563490668
 20
111.9261020548681
 30
0.0
 10
212.3601186248405
 20
111.918531198861
 30
0.0
 10
212.8041233777134
 20
111.8979290343318
 30
0.0
 10
213.2257108361193
 20
112.0245966912561
 30
0.0
 10
213.4923738962927
 20
112.1047166861633
 30
0.0
  0
LINE
  5
153
330
1F
100
AcDbEntity
  8
0
  6
HIDDEN
 62
     7
370
     0
100
AcDbLine
 10
212.759627921
 20
120.865777576
 30
0.0
 11
212.3253671057
 21
120.9090100355
 31
0.0
  0
LINE
  5
154
330
1F
100
AcDbEntity
  8
0
  6
HIDDEN
 62
     7
370
     0
100
AcDbLine
 10
179.8096661991
 20
142.8090100862
 30
0.0
 11
176.2753687403
 21
142.8090100862
 31
0.0
  0
LINE
  5
155
330
1F
100
AcDbEntity
  8
0
  6
HIDDEN
 62
     7
370
     0
100
AcDbLine
 10
189.2753680772
 20
142.8090100862
 30
0.0
 11
182.8410708881
 21
142.8090100862
 31
0.0
  0
LINE
  5
156
330
1F
100
AcDbEntity
  8
0
  6
HIDDEN
 62
     7
370
     0
100
AcDbLine
 10
176.2753687403
 20
142.8090100862
 30
0.0
 11
168.2753683603
 21
142.8090100862
 31
0.0
  0
SPLINE
  5
157
330
1F
100
AcDbEntity
  8
0
  6
HIDDEN
 62
     7
370
     0
100
AcDbSpline
210
0.0
220
0.0
230
1.0
 70
     8
 71
     3
 72
    11
 73
     7
 74
     0
 42
0.00000001
 43
0.00000001
 40
0.0
 40
0.0
 40
0.0
 40
0.0
 40
0.0008203708524183
 40
0.0008203708524183
 40
0.0008203708524183
 40
0.0016409967870154
 40
0.0016409967870154
 40
0.0016409967870154
 40
0.0016409967870154
 10
132.5753683871546
 20
100.5569774786209
 30
0.0
 10
132.384210086856
 20
100.5157984500018
 30
0.0
 10
132.1927830167837
 20
100.4770444777718
 30
0.0
 10
132.0011373932631
 20
100.4406767184932
 30
0.0
 10
131.8094319881827
 20
100.4042976147272
 30
0.0
 10
131.6174930361237
 20
100.3703033639596
 30
0.0
 10
131.4253683890529
 20
100.3386552385684
 30
0.0
  0
ELLIPSE
  5
158
330
1F
100
AcDbEntity
  8
0
  6
HIDDEN
 62
     7
370
     0
100
AcDbEllipse
 10
127.1829365244
 20
116.4090102293
 30
0.0
 11
20.19992452772426
 21
-1.421085471520200E-14
 31
0.0
210
0.0
220
0.0
230
1.0
 40
0.816496581
 41
1.300566354937166
 42
1.359198697442763
  0
LINE
  5
159
330
1F
100
AcDbEntity
  8
0
  6
HIDDEN
 62
     7
370
     0
100
AcDbLine
 10
137.525367511
 20
134.3990107752
 30
0.0
 11
137.525367511
 21
132.6965233065
 31
0.0
  0
LINE
  5
15A
330
1F
100
AcDbEntity
  8
0
  6
HIDDEN
 62
     7
370
     0
100
AcDbLine
 10
132.5753675378
 20
134.3990107752
 30
0.0
 11
132.5753675378
 21
132.3036355652
 31
0.0
  0
SPLINE
  5
15B
330
1F
100
AcDbEntity
  8
0
  6
HIDDEN
 62
     7
370
     0
100
AcDbSpline
210
0.0
220
0.0
230
1.0
 70
     8
 71
     3
 72
     8
 73
     4
 74
     0
 42
0.00000001
 43
0.00000001
 40
0.0
 40
0.0
 40
0.0
 40
0.0
 40
1.0
 40
1.0
 40
1.0
 40
1.0
 10
132.5753683871546
 20
132.3036346782621
 30
0.0
 10
132.6253738850021
 20
132.2725989047293
 30
0.0
 10
132.6753739545704
 20
132.2415542603885
 30
0.0
 10
132.7253683872597
 20
132.2105006652953
 30
0.0
  0
LINE
  5
15C
330
1F
100
AcDbEntity
  8
0
  6
HIDDEN
 62
     7
370
     0
100
AcDbLine
 10
141.5253681666
 20
98.4190096833
 30
0.0
 11
141.5253681666
 21
100.121497152
 31
0.0
  0
LINE
  5
15D
330
1F
100
AcDbEntity
  8
0
  6
HIDDEN
 62
     7
370
     0
100
AcDbLine
 10
132.5753675378
 20
98.4190096833
 30
0.0
 11
132.5753675378
 21
100.556978
 31
0.0
  0
LINE
  5
15E
330
1F
100
AcDbEntity
  8
0
  6
HIDDEN
 62
     7
370
     0
100
AcDbLine
 10
132.6564000524
 20
100.6075190134
 30
0.0
 11
132.5753675378
 21
100.556978
 31
0.0
  0
SPLINE
  5
15F
330
1F
100
AcDbEntity
  8
0
  6
HIDDEN
 62
     7
370
     0
100
AcDbSpline
210
0.0
220
0.0
230
1.0
 70
     8
 71
     3
 72
    20
 73
    16
 74
     0
 42
0.00000001
 43
0.00000001
 40
0.0
 40
0.0
 40
0.0
 40
0.0
 40
0.1118409502078264
 40
0.1773605848509358
 40
0.2489826160586656
 40
0.3297316118095973
 40
0.3985044548900435
 40
0.4997848718586232
 40
0.6137507715054237
 40
0.6789171121604584
 40
0.7494440897943945
 40
0.8295905969512254
 40
0.8980347294583739
 40
0.9994458059194429
 40
1.0
 40
1.0
 40
1.0
 40
1.0
 10
158.0739579698959
 20
92.80908384696038
 30
0.0
 10
158.030669438409
 20
92.82250002251567
 30
0.0
 10
157.9620212442763
 20
92.84377577829677
 30
0.0
 10
157.5170227732568
 20
92.94704807716793
 30
0.0
 10
156.9904736361217
 20
93.06034630159377
 30
0.0
 10
156.3050457930423
 20
93.18328155871015
 30
0.0
 10
155.411729342721
 20
93.3053160782341
 30
0.0
 10
154.298369499401
 20
93.42305183582403
 30
0.0
 10
153.187595123234
 20
93.43502545669693
 30
0.0
 10
152.3028476223194
 20
93.40797047528405
 30
0.0
 10
151.6356484834557
 20
93.36003539314392
 30
0.0
 10
151.0943857565213
 20
93.30374653843678
 30
0.0
 10
150.7067686254319
 20
93.25864346942953
 30
0.0
 10
150.5128589035113
 20
93.21982540727625
 30
0.0
 10
150.5760700091857
 20
93.23051070333469
 30
0.0
 10
150.5764135695019
 20
93.2305687792638
 30
0.0
  0
LINE
  5
160
330
1F
100
AcDbEntity
  8
0
  6
HIDDEN
 62
     7
370
     0
100
AcDbLine
 10
151.485380677
 20
93.3413477369
 30
0.0
 11
151.6692256159
 21
93.3595383294
 31
0.0
  0
SPLINE
  5
161
330
1F
100
AcDbEntity
  8
0
  6
HIDDEN
 62
     7
370
     0
100
AcDbSpline
210
0.0
220
0.0
230
1.0
 70
     8
 71
     3
 72
    27
 73
    23
 74
     0
 42
0.00000001
 43
0.00000001
 40
0.0
 40
0.0
 40
0.0
 40
0.0
 40
0.0008135151727399
 40
0.0456960766520392
 40
0.1022778045785475
 40
0.1705559694195685
 40
0.2091476694650009
 40
0.2506749547757322
 40
0.3211207915617381
 40
0.3862146155069023
 40
0.4266938322104716
 40
0.4648251363885318
 40
0.5006294399219927
 40
0.5452213193109207
 40
0.6017156334950211
 40
0.6701216441076426
 40
0.7088590548741243
 40
0.7505878367659464
 40
0.822252509706922
 40
0.8877919930863134
 40
0.9472658185992909
 40
1.0
 40
1.0
 40
1.0
 40
1.0
 10
150.5760410404721
 20
139.5874237395862
 30
0.0
 10
150.5758172936416
 20
139.5874717693554
 30
0.0
 10
150.5632491785521
 20
139.5901696563618
 30
0.0
 10
150.6123265547287
 20
139.5783533777014
 30
0.0
 10
150.7574322557552
 20
139.5549044091635
 30
0.0
 10
151.0304838981731
 20
139.5209993506574
 30
0.0
 10
151.3590098432412
 20
139.4874310992182
 30
0.0
 10
151.7517377752413
 20
139.4492482405095
 30
0.0
 10
152.3014656052798
 20
139.4102800806595
 30
0.0
 10
152.9274882281332
 20
139.390818472073
 30
0.0
 10
153.4706800699961
 20
139.3886333127812
 30
0.0
 10
153.915748818987
 20
139.3971480347033
 30
0.0
 10
154.3821966736672
 20
139.4169315847305
 30
0.0
 10
154.9194375987255
 20
139.4610914664242
 30
0.0
 10
155.567650571013
 20
139.533511302102
 30
0.0
 10
156.1531897052922
 20
139.6144089594306
 30
0.0
 10
156.6341588748134
 20
139.6925783228758
 30
0.0
 10
157.079573848533
 20
139.777348872051
 30
0.0
 10
157.5180740846638
 20
139.8711336951516
 30
0.0
 10
157.8570983176669
 20
139.9490357432678
 30
0.0
 10
158.0444349050897
 20
139.999225623445
 30
0.0
 10
158.0649245413577
 20
140.0058927036574
 30
0.0
 10
158.0745540163436
 20
140.009026018534
 30
0.0
  0
SPLINE
  5
162
330
1F
100
AcDbEntity
  8
0
  6
HIDDEN
 62
     7
370
     0
100
AcDbSpline
210
0.0
220
0.0
230
1.0
 70
     8
 71
     3
 72
     8
 73
     4
 74
     0
 42
0.00000001
 43
0.00000001
 40
0.0
 40
0.0
 40
0.0
 40
0.0
 40
0.000159097691435
 40
0.000159097691435
 40
0.000159097691435
 40
0.000159097691435
 10
132.710536393057
 20
100.607519793232
 30
0.0
 10
132.6654849236576
 20
100.5795409095981
 30
0.0
 10
132.620428886348
 20
100.5515693799125
 30
0.0
 10
132.5753683871546
 20
100.5236050412492
 30
0.0
  0
SPLINE
  5
163
330
1F
100
AcDbEntity
  8
0
  6
HIDDEN
 62
     7
370
     0
100
AcDbSpline
210
0.0
220
0.0
230
1.0
 70
     8
 71
     3
 72
    11
 73
     7
 74
     0
 42
0.00000001
 43
0.00000001
 40
0.0
 40
0.0
 40
0.0
 40
0.0
 40
0.0008212909311355
 40
0.0008212909311355
 40
0.0008212909311355
 40
0.0016428257242859
 40
0.0016428257242859
 40
0.0016428257242859
 40
0.0016428257242859
 10
132.5753683871546
 20
100.5236050412492
 30
0.0
 10
132.3842233656723
 20
100.4803188524194
 30
0.0
 10
132.1928050299957
 20
100.4393823428053
 30
0.0
 10
132.0011589553346
 20
100.4007805714425
 30
0.0
 10
131.809455873793
 20
100.3621673176291
 30
0.0
 10
131.6175107505076
 20
100.3258871083674
 30
0.0
 10
131.4253683871546
 20
100.2919202020407
 30
0.0
  0
LINE
  5
164
330
1F
100
AcDbEntity
  8
0
  6
HIDDEN
 62
     7
370
     0
100
AcDbLine
 10
179.4153684354
 20
136.5448767073
 30
0.0
 11
179.4153684354
 21
136.2590109684
 31
0.0
  0
LINE
  5
165
330
1F
100
AcDbEntity
  8
0
  6
HIDDEN
 62
     7
370
     0
100
AcDbLine
 10
183.2353686518
 20
136.5448767073
 30
0.0
 11
183.2353686518
 21
136.2590109684
 31
0.0
  0
LINE
  5
166
330
1F
100
AcDbEntity
  8
0
  6
HIDDEN
 62
     7
370
     0
100
AcDbLine
 10
184.7173003084
 20
140.8676998444
 30
0.0
 11
184.7173003084
 21
136.2590109684
 31
0.0
  0
SPLINE
  5
167
330
1F
100
AcDbEntity
  8
0
  6
HIDDEN
 62
     7
370
     0
100
AcDbSpline
210
0.0
220
0.0
230
1.0
 70
     8
 71
     3
 72
     8
 73
     4
 74
     0
 42
0.00000001
 43
0.00000001
 40
0.0000000000000004
 40
0.0000000000000004
 40
0.0000000000000004
 40
0.0000000000000004
 40
0.001156372467817
 40
0.001156372467817
 40
0.001156372467817
 40
0.001156372467817
 10
132.4253683871549
 20
129.0491525427393
 30
0.0
 10
132.0920472719577
 20
129.1782115683661
 30
0.0
 10
131.7587145911496
 20
129.3071719045348
 30
0.0
 10
131.4253683871546
 20
129.4360834343076
 30
0.0
  0
SPLINE
  5
168
330
1F
100
AcDbEntity
  8
0
  6
HIDDEN
 62
     7
370
     0
100
AcDbSpline
210
0.0
220
0.0
230
1.0
 70
     8
 71
     3
 72
    11
 73
     7
 74
     0
 42
0.00000001
 43
0.00000001
 40
0.0
 40
0.0
 40
0.0
 40
0.0
 40
0.000577874610501
 40
0.000577874610501
 40
0.000577874610501
 40
0.001155749485703
 40
0.001155749485703
 40
0.001155749485703
 40
0.001155749485703
 10
131.4253683871546
 20
103.3817883668129
 30
0.0
 10
131.5920352635677
 20
103.4476004935959
 30
0.0
 10
131.758701983129
 20
103.5134589738235
 30
0.0
 10
131.9253686311777
 20
103.5793665468458
 30
0.0
 10
132.0920353556963
 20
103.6452741501079
 30
0.0
 10
132.258702050117
 20
103.7112312585899
 30
0.0
 10
132.4253683871546
 20
103.7772329986095
 30
0.0
  0
SPLINE
  5
169
330
1F
100
AcDbEntity
  8
0
  6
HIDDEN
 62
     7
370
     0
100
AcDbSpline
210
0.0
220
0.0
230
1.0
 70
     8
 71
     3
 72
    11
 73
     7
 74
     0
 42
0.00000001
 43
0.00000001
 40
0.0000000000000006
 40
0.0000000000000006
 40
0.0000000000000006
 40
0.0000000000000006
 40
0.000578048606266
 40
0.000578048606266
 40
0.000578048606266
 40
0.001156097351391
 40
0.001156097351391
 40
0.001156097351391
 40
0.001156097351391
 10
131.4253683871546
 20
126.3898247225509
 30
0.0
 10
131.5920382431998
 20
126.3274528611457
 30
0.0
 10
131.7587059472843
 20
126.2650990009543
 30
0.0
 10
131.9253722517379
 20
126.2027794408707
 30
0.0
 10
132.0920385924317
 20
126.1404598672364
 30
0.0
 10
132.2587035490603
 20
126.0781746630158
 30
0.0
 10
132.4253683871546
 20
126.0159495425428
 30
0.0
  0
SPLINE
  5
16A
330
1F
100
AcDbEntity
  8
0
  6
HIDDEN
 62
     7
370
     0
100
AcDbSpline
210
0.0
220
0.0
230
1.0
 70
     8
 71
     3
 72
    11
 73
     7
 74
     0
 42
0.00000001
 43
0.00000001
 40
0.0
 40
0.0
 40
0.0
 40
0.0
 40
0.0005782401583357
 40
0.0005782401583357
 40
0.0005782401583357
 40
0.001156480596064
 40
0.001156480596064
 40
0.001156480596064
 40
0.001156480596064
 10
132.4253683871546
 20
106.8081834445033
 30
0.0
 10
132.2587174368059
 20
106.7447579865642
 30
0.0
 10
132.0920578442233
 20
106.6814024630344
 30
0.0
 10
131.9253907917948
 20
106.6181048788131
 30
0.0
 10
131.7587236552309
 20
106.5548072626384
 30
0.0
 10
131.5920490477848
 20
106.4915674678296
 30
0.0
 10
131.4253683871546
 20
106.4283674613253
 30
0.0
  0
CIRCLE
  5
16B
330
1F
100
AcDbEntity
  8
0
  6
HIDDEN
 62
     7
370
     0
100
AcDbCircle
 10
170.3253683872
 20
116.4090102293
 30
0.0
 40
5.0
  0
LINE
  5
16C
330
1F
100
AcDbEntity
  8
0
  6
HIDDEN
 62
     7
370
     0
100
AcDbLine
 10
191.8253684021
 20
125.4633441322
 30
0.0
 11
193.3253677166
 21
123.9633438863
 31
0.0
  0
LINE
  5
16D
330
1F
100
AcDbEntity
  8
0
  6
HIDDEN
 62
     7
370
     0
100
AcDbLine
 10
200.325368864
 20
123.9633438863
 30
0.0
 11
201.8253681785
 21
125.4633441322
 31
0.0
  0
LINE
  5
16E
330
1F
100
AcDbEntity
  8
0
  6
HIDDEN
 62
     7
370
     0
100
AcDbLine
 10
191.8253684021
 20
135.4852979757
 30
0.0
 11
191.8253684021
 21
125.4633441322
 31
0.0
  0
LINE
  5
16F
330
1F
100
AcDbEntity
  8
0
  6
HIDDEN
 62
     7
370
     0
100
AcDbLine
 10
201.8253681785
 20
125.4633441322
 30
0.0
 11
201.8253681785
 21
135.4852979757
 31
0.0
  0
LINE
  5
170
330
1F
100
AcDbEntity
  8
0
  6
HIDDEN
 62
     7
370
     0
100
AcDbLine
 10
201.8253681785
 20
135.4852979757
 30
0.0
 11
200.9973665304
 21
135.9633439906
 31
0.0
  0
LINE
  5
171
330
1F
100
AcDbEntity
  8
0
  6
HIDDEN
 62
     7
370
     0
100
AcDbLine
 10
192.6533681876
 20
135.9633439906
 30
0.0
 11
191.8253684021
 21
135.4852979757
 31
0.0
  0
LINE
  5
172
330
1F
100
AcDbEntity
  8
0
  6
HIDDEN
 62
     7
370
     0
100
AcDbLine
 10
207.3253681487
 20
125.4633441322
 30
0.0
 11
208.8253674633
 21
123.9633438863
 31
0.0
  0
LINE
  5
173
330
1F
100
AcDbEntity
  8
0
  6
HIDDEN
 62
     7
370
     0
100
AcDbLine
 10
215.825366748
 20
123.9633438863
 30
0.0
 11
217.3253697879
 21
125.4633441322
 31
0.0
  0
LINE
  5
174
330
1F
100
AcDbEntity
  8
0
  6
HIDDEN
 62
     7
370
     0
100
AcDbLine
 10
207.3253681487
 20
135.4852979757
 30
0.0
 11
207.3253681487
 21
125.4633441322
 31
0.0
  0
LINE
  5
175
330
1F
100
AcDbEntity
  8
0
  6
HIDDEN
 62
     7
370
     0
100
AcDbLine
 10
217.3253697879
 20
125.4633441322
 30
0.0
 11
217.3253697879
 21
135.4852979757
 31
0.0
  0
LINE
  5
176
330
1F
100
AcDbEntity
  8
0
  6
HIDDEN
 62
     7
370
     0
100
AcDbLine
 10
217.3253697879
 20
135.4852979757
 30
0.0
 11
216.4973681397
 21
135.9633439906
 31
0.0
  0
LINE
  5
177
330
1F
100
AcDbEntity
  8
0
  6
HIDDEN
 62
     7
370
     0
100
AcDbLine
 10
208.1533697969
 20
135.9633439906
 30
0.0
 11
207.3253681487
 21
135.4852979757
 31
0.0
  0
LINE
  5
178
330
1F
100
AcDbEntity
  8
0
  6
HIDDEN
 62
     7
370
     0
100
AcDbLine
 10
222.8253697581
 20
125.4633441322
 30
0.0
 11
224.3253690726
 21
123.9633438863
 31
0.0
  0
LINE
  5
179
330
1F
100
AcDbEntity
  8
0
  6
HIDDEN
 62
     7
370
     0
100
AcDbLine
 10
231.3253720826
 20
123.9633438863
 30
0.0
 11
232.8253676719
 21
125.4633441322
 31
0.0
  0
LINE
  5
17A
330
1F
100
AcDbEntity
  8
0
  6
HIDDEN
 62
     7
370
     0
100
AcDbLine
 10
222.8253697581
 20
135.4852979757
 30
0.0
 11
222.8253697581
 21
125.4633441322
 31
0.0
  0
LINE
  5
17B
330
1F
100
AcDbEntity
  8
0
  6
HIDDEN
 62
     7
370
     0
100
AcDbLine
 10
232.8253676719
 20
125.4633441322
 30
0.0
 11
232.8253676719
 21
135.4852979757
 31
0.0
  0
LINE
  5
17C
330
1F
100
AcDbEntity
  8
0
  6
HIDDEN
 62
     7
370
     0
100
AcDbLine
 10
232.8253676719
 20
135.4852979757
 30
0.0
 11
231.997369749
 21
135.9633439906
 31
0.0
  0
LINE
  5
17D
330
1F
100
AcDbEntity
  8
0
  6
HIDDEN
 62
     7
370
     0
100
AcDbLine
 10
223.653367681
 20
135.9633439906
 30
0.0
 11
222.8253697581
 21
135.4852979757
 31
0.0
  0
LINE
  5
17E
330
1F
100
AcDbEntity
  8
0
  6
HIDDEN
 62
     7
370
     0
100
AcDbLine
 10
163.3253683872
 20
91.0850791015
 30
0.0
 11
163.4195291594
 21
91.7550669737
 31
0.0
  0
LINE
  5
17F
330
1F
100
AcDbEntity
  8
0
  6
HIDDEN
 62
     7
370
     0
100
AcDbLine
 10
163.4195291594
 20
141.0629534848
 30
0.0
 11
163.3253683872
 21
141.7329413571
 31
0.0
  0
ARC
  5
180
330
1F
100
AcDbEntity
  8
0
  6
HIDDEN
 62
     7
370
     0
100
AcDbCircle
 10
162.8253616345
 20
91.8385726149
 30
0.0
 40
0.6000067526677242
100
AcDbArc
 50
352.0
 51
0.0
  0
ARC
  5
181
330
1F
100
AcDbEntity
  8
0
  6
HIDDEN
 62
     7
370
     0
100
AcDbCircle
 10
162.8253616345
 20
91.8385726149
 30
0.0
 40
0.6000067526677242
100
AcDbArc
 50
0.0
 51
33.5571153394
  0
ARC
  5
182
330
1F
100
AcDbEntity
  8
0
  6
HIDDEN
 62
     7
370
     0
100
AcDbCircle
 10
162.8253616345
 20
140.9794478437
 30
0.0
 40
0.6000067526677121
100
AcDbArc
 50
348.75
 51
8.0
  0
LWPOLYLINE
  5
183
330
1F
100
AcDbEntity
  8
0
  6
HIDDEN
 62
     7
370
     0
100
AcDbPolyline
 90
        3
 70
   128
 43
0.0
 10
163.4138394261
 20
140.8623931684
 10
163.3796955943
 20
140.7498353846
 10
163.3253683872
 20
140.6477829196
  0
LINE
  5
184
330
1F
100
AcDbEntity
  8
0
  6
HIDDEN
 62
     7
370
     0
100
AcDbLine
 10
163.4253683846
 20
91.8385730811
 30
0.0
 11
163.4253683846
 21
140.9794473775
 31
0.0
  0
ARC
  5
185
330
1F
100
AcDbEntity
  8
0
  6
HIDDEN
 62
     7
370
     0
100
AcDbCircle
 10
146.4078039525
 20
97.0090102293
 30
0.0
 40
0.6000000000000013
100
AcDbArc
 50
210.0
 51
270.0
  0
ARC
  5
186
330
1F
100
AcDbEntity
  8
0
  6
HIDDEN
 62
     7
370
     0
100
AcDbCircle
 10
146.4078039525
 20
135.8090102293
 30
0.0
 40
0.6000000000000155
100
AcDbArc
 50
90.0
 51
150.0
  0
LINE
  5
187
330
1F
100
AcDbEntity
  8
0
  6
HIDDEN
 62
     7
370
     0
100
AcDbLine
 10
146.4078044123
 20
96.4090106763
 30
0.0
 11
150.5994759104
 21
96.4090106763
 31
0.0
  0
LINE
  5
188
330
1F
100
AcDbEntity
  8
0
  6
HIDDEN
 62
     7
370
     0
100
AcDbLine
 10
150.5994759104
 20
136.4090097822
 30
0.0
 11
146.4078044123
 21
136.4090097822
 31
0.0
  0
ARC
  5
189
330
1F
100
AcDbEntity
  8
0
  6
HIDDEN
 62
     7
370
     0
100
AcDbCircle
 10
157.0803703888
 20
104.4090102293
 30
0.0
 40
7.999999999999991
100
AcDbArc
 50
276.8757545097
 51
321.3178125465
  0
ARC
  5
18A
330
1F
100
AcDbEntity
  8
0
  6
HIDDEN
 62
     7
370
     0
100
AcDbCircle
 10
157.0803703888
 20
128.4090102293
 30
0.0
 40
7.999999999999998
100
AcDbArc
 50
38.6821874535
 51
83.1211581117
  0
LINE
  5
18B
330
1F
100
AcDbEntity
  8
0
  6
HIDDEN
 62
     7
370
     0
100
AcDbLine
 10
145.888187883
 20
136.1090102918
 30
0.0
 11
144.3293438829
 21
133.4090111531
 31
0.0
  0
LINE
  5
18C
330
1F
100
AcDbEntity
  8
0
  6
HIDDEN
 62
     7
370
     0
100
AcDbLine
 10
144.3293438829
 20
99.4090093054
 30
0.0
 11
145.888187883
 21
96.7090101667
 31
0.0
  0
ARC
  5
18D
330
1F
100
AcDbEntity
  8
0
  6
HIDDEN
 62
     7
370
     0
100
AcDbCircle
 10
171.7753683872
 20
100.6840102293
 30
0.0
 40
1.500000000000004
100
AcDbArc
 50
238.2116693829
 51
0.0
  0
ARC
  5
18E
330
1F
100
AcDbEntity
  8
0
  6
HIDDEN
 62
     7
370
     0
100
AcDbCircle
 10
171.7753683872
 20
132.1340102293
 30
0.0
 40
1.500000000000016
100
AcDbArc
 50
0.0
 51
121.7883306171
  0
LINE
  5
18F
330
1F
100
AcDbEntity
  8
0
  6
HIDDEN
 62
     7
370
     0
100
AcDbLine
 10
163.3253683872
 20
99.4090093054
 30
0.0
 11
170.9851943492
 21
99.4090093054
 31
0.0
  0
LINE
  5
190
330
1F
100
AcDbEntity
  8
0
  6
HIDDEN
 62
     7
370
     0
100
AcDbLine
 10
170.9851943492
 20
133.4090111531
 30
0.0
 11
163.3253683872
 21
133.4090111531
 31
0.0
  0
LINE
  5
191
330
1F
100
AcDbEntity
  8
0
  6
HIDDEN
 62
     7
370
     0
100
AcDbLine
 10
141.5253681666
 20
99.4090093054
 30
0.0
 11
144.3293438829
 21
99.4090093054
 31
0.0
  0
LINE
  5
192
330
1F
100
AcDbEntity
  8
0
  6
HIDDEN
 62
     7
370
     0
100
AcDbLine
 10
144.3293438829
 20
133.4090111531
 30
0.0
 11
137.525367511
 21
133.4090111531
 31
0.0
  0
LINE
  5
193
330
1F
100
AcDbEntity
  8
0
  6
HIDDEN
 62
     7
370
     0
100
AcDbLine
 10
182.125368116
 20
106.9090105347
 30
0.0
 11
185.1253686077
 21
106.9090105347
 31
0.0
  0
LINE
  5
194
330
1F
100
AcDbEntity
  8
0
  6
HIDDEN
 62
     7
370
     0
100
AcDbLine
 10
185.1253686077
 20
125.9090099238
 30
0.0
 11
182.125368116
 21
125.9090099238
 31
0.0
  0
LINE
  5
195
330
1F
100
AcDbEntity
  8
0
  6
HIDDEN
 62
     7
370
     0
100
AcDbLine
 10
173.2753682486
 20
107.4090106167
 30
0.0
 11
173.7753683305
 21
107.9090097673
 31
0.0
  0
LINE
  5
196
330
1F
100
AcDbEntity
  8
0
  6
HIDDEN
 62
     7
370
     0
100
AcDbLine
 10
173.7753683305
 20
124.9090106912
 30
0.0
 11
173.2753682486
 21
125.4090098418
 31
0.0
  0
LINE
  5
197
330
1F
100
AcDbEntity
  8
0
  6
HIDDEN
 62
     7
370
     0
100
AcDbLine
 10
173.7753683305
 20
107.9090097673
 30
0.0
 11
182.125368116
 21
107.9090097673
 31
0.0
  0
LINE
  5
198
330
1F
100
AcDbEntity
  8
0
  6
HIDDEN
 62
     7
370
     0
100
AcDbLine
 10
182.125368116
 20
124.9090106912
 30
0.0
 11
173.7753683305
 21
124.9090106912
 31
0.0
  0
LINE
  5
199
330
1F
100
AcDbEntity
  8
0
  6
HIDDEN
 62
     7
370
     0
100
AcDbLine
 10
190.5011245585
 20
108.1090103589
 30
0.0
 11
191.3253692514
 21
108.4090098493
 31
0.0
  0
LINE
  5
19A
330
1F
100
AcDbEntity
  8
0
  6
HIDDEN
 62
     7
370
     0
100
AcDbLine
 10
191.3253692514
 20
124.4090106092
 30
0.0
 11
190.5011245585
 21
124.7090100996
 31
0.0
  0
ARC
  5
19B
330
1F
100
AcDbEntity
  8
0
  6
HIDDEN
 62
     7
370
     0
100
AcDbCircle
 10
238.0253683872
 20
124.7090102293
 30
0.0
 40
0.2999999999999972
100
AcDbArc
 50
270.0
 51
0.0
  0
ARC
  5
19C
330
1F
100
AcDbEntity
  8
0
  6
HIDDEN
 62
     7
370
     0
100
AcDbCircle
 10
238.0253683872
 20
108.1090102293
 30
0.0
 40
0.3000000000000114
100
AcDbArc
 50
0.0
 51
90.0
  0
LINE
  5
19D
330
1F
100
AcDbEntity
  8
0
  6
HIDDEN
 62
     7
370
     0
100
AcDbLine
 10
190.5011245585
 20
124.7090100996
 30
0.0
 11
187.7253679163
 21
124.7090100996
 31
0.0
  0
LINE
  5
19E
330
1F
100
AcDbEntity
  8
0
  6
HIDDEN
 62
     7
370
     0
100
AcDbLine
 10
187.7253679163
 20
108.1090103589
 30
0.0
 11
190.5011245585
 21
108.1090103589
 31
0.0
  0
ARC
  5
19F
330
1F
100
AcDbEntity
  8
0
  6
HIDDEN
 62
     7
370
     0
100
AcDbCircle
 10
187.7253683872
 20
124.3090102293
 30
0.0
 40
0.3999999999999915
100
AcDbArc
 50
90.0
 51
180.0
  0
ARC
  5
1A0
330
1F
100
AcDbEntity
  8
0
  6
HIDDEN
 62
     7
370
     0
100
AcDbCircle
 10
187.7253683872
 20
108.5090102293
 30
0.0
 40
0.3999999999999915
100
AcDbArc
 50
180.0
 51
270.0
  0
LINE
  5
1A1
330
1F
100
AcDbEntity
  8
0
  6
HIDDEN
 62
     7
370
     0
100
AcDbLine
 10
192.3381061829
 20
124.4090106092
 30
0.0
 11
191.3253692514
 21
124.4090106092
 31
0.0
  0
LINE
  5
1A2
330
1F
100
AcDbEntity
  8
0
  6
HIDDEN
 62
     7
370
     0
100
AcDbLine
 10
207.8381059295
 20
124.4090106092
 30
0.0
 11
201.3100077934
 21
124.4090106092
 31
0.0
  0
LINE
  5
1A3
330
1F
100
AcDbEntity
  8
0
  6
HIDDEN
 62
     7
370
     0
100
AcDbLine
 10
223.3381075389
 20
124.4090106092
 30
0.0
 11
216.8100056774
 21
124.4090106092
 31
0.0
  0
LINE
  5
1A4
330
1F
100
AcDbEntity
  8
0
  6
HIDDEN
 62
     7
370
     0
100
AcDbLine
 10
238.0253662891
 20
124.4090106092
 30
0.0
 11
232.3100035614
 21
124.4090106092
 31
0.0
  0
LINE
  5
1A5
330
1F
100
AcDbEntity
  8
0
  6
HIDDEN
 62
     7
370
     0
100
AcDbLine
 10
191.3253692514
 20
108.4090098493
 30
0.0
 11
238.0253662891
 21
108.4090098493
 31
0.0
  0
LINE
  5
1A6
330
1F
100
AcDbEntity
  8
0
  6
HIDDEN
 62
     7
370
     0
100
AcDbLine
 10
168.2753683603
 20
147.9090107359
 30
0.0
 11
168.2753683603
 21
142.8090100862
 31
0.0
  0
LINE
  5
1A7
330
1F
100
AcDbEntity
  8
0
  6
HIDDEN
 62
     7
370
     0
100
AcDbLine
 10
207.825369162
 20
136.4090097822
 30
0.0
 11
207.825369162
 21
124.4018682964
 31
0.0
  0
LINE
  5
1A8
330
1F
100
AcDbEntity
  8
0
  6
HIDDEN
 62
     7
370
     0
100
AcDbLine
 10
216.8253687746
 20
124.4003809743
 30
0.0
 11
216.8253687746
 21
136.4090097822
 31
0.0
  0
LINE
  5
1A9
330
1F
100
AcDbEntity
  8
0
  6
HIDDEN
 62
     7
370
     0
100
AcDbLine
 10
223.3253670461
 20
136.4090097822
 30
0.0
 11
223.3253670461
 21
124.4018682964
 31
0.0
  0
LINE
  5
1AA
330
1F
100
AcDbEntity
  8
0
  6
HIDDEN
 62
     7
370
     0
100
AcDbLine
 10
232.3253666586
 20
124.4003809743
 30
0.0
 11
232.3253666586
 21
136.4090097822
 31
0.0
  0
LINE
  5
1AB
330
1F
100
AcDbEntity
  8
0
  6
HIDDEN
 62
     7
370
     0
100
AcDbLine
 10
192.3253675527
 20
136.4090097822
 30
0.0
 11
192.3253675527
 21
124.4018682964
 31
0.0
  0
LINE
  5
1AC
330
1F
100
AcDbEntity
  8
0
  6
HIDDEN
 62
     7
370
     0
100
AcDbLine
 10
201.3253671653
 20
124.4003809743
 30
0.0
 11
201.3253671653
 21
136.4090097822
 31
0.0
  0
LINE
  5
1AD
330
1F
100
AcDbEntity
  8
0
  6
HIDDEN
 62
     7
370
     0
100
AcDbLine
 10
158.5098062246
 20
92.3296389855
 30
0.0
 11
158.0753740459
 21
92.80870573
 31
0.0
  0
LINE
  5
1AE
330
1F
100
AcDbEntity
  8
0
  6
HIDDEN
 62
     7
370
     0
100
AcDbLine
 10
150.5753704882
 20
93.2303936906
 30
0.0
 11
150.0929370127
 21
92.7513269462
 31
0.0
  0
LINE
  5
1AF
330
1F
100
AcDbEntity
  8
0
  6
HIDDEN
 62
     7
370
     0
100
AcDbLine
 10
150.0928150094
 20
140.0666879244
 30
0.0
 11
150.5753658316
 21
139.5875671633
 31
0.0
  0
LINE
  5
1B0
330
1F
100
AcDbEntity
  8
0
  6
HIDDEN
 62
     7
370
     0
100
AcDbLine
 10
158.0753684579
 20
140.0092662998
 30
0.0
 11
158.5099105327
 21
140.4883851983
 31
0.0
  0
LINE
  5
1B1
330
1F
100
AcDbEntity
  8
0
  6
HIDDEN
 62
     7
370
     0
100
AcDbLine
 10
185.1253686077
 20
112.1590099983
 30
0.0
 11
187.3253685958
 21
112.1590099983
 31
0.0
  0
LINE
  5
1B2
330
1F
100
AcDbEntity
  8
0
  6
HIDDEN
 62
     7
370
     0
100
AcDbLine
 10
187.3253685958
 20
120.6590104602
 30
0.0
 11
185.1253686077
 21
120.6590104602
 31
0.0
  0
LINE
  5
1B3
330
1F
100
AcDbEntity
  8
0
  6
HIDDEN
 62
     7
370
     0
100
AcDbLine
 10
158.0753684579
 20
92.8091881551
 30
0.0
 11
158.0753684579
 21
96.4736090727
 31
0.0
  0
LINE
  5
1B4
330
1F
100
AcDbEntity
  8
0
  6
HIDDEN
 62
     7
370
     0
100
AcDbLine
 10
150.5753686256
 20
96.4133878924
 30
0.0
 11
150.5753686256
 21
93.2307159282
 31
0.0
  0
LINE
  5
1B5
330
1F
100
AcDbEntity
  8
0
  6
HIDDEN
 62
     7
370
     0
100
AcDbLine
 10
158.0753684579
 20
136.3444113858
 30
0.0
 11
158.0753684579
 21
140.0089738645
 31
0.0
  0
LINE
  5
1B6
330
1F
100
AcDbEntity
  8
0
  6
HIDDEN
 62
     7
370
     0
100
AcDbLine
 10
150.5753686256
 20
139.5874237396
 30
0.0
 11
150.5753686256
 21
136.4046325661
 31
0.0
  0
DIMENSION
  5
1B7
330
1F
100
AcDbEntity
  8
VERMASSUNG
100
AcDbDimension
  2
*D1
 10
238.3253683872
 20
151.9620818646
 30
0.0
 11
213.1315841442
 21
151.9620818646
 31
0.0
 70
   160
 71
     2
 42
-1.0
  3
SLDDIMSTYLE0
100
AcDbAlignedDimension
 13
189.2753683872
 23
146.255450553
 33
0.0
 14
238.3253683872
 24
135.4090102293
 34
0.0
100
AcDbRotatedDimension
  0
DIMENSION
  5
1C2
330
1F
100
AcDbEntity
  8
VERMASSUNG
100
AcDbDimension
  2
*D2
 10
238.3253683872
 20
157.9620818646
 30
0.0
 11
201.582294863
 21
157.9620818646
 31
0.0
 70
   160
 71
     2
 42
-1.0
  3
SLDDIMSTYLE0
100
AcDbAlignedDimension
 13
163.3253683872
 23
147.6090102293
 33
0.0
 14
238.3253683872
 24
135.4090102293
 34
0.0
100
AcDbRotatedDimension
  0
DIMENSION
  5
1CC
330
1F
100
AcDbEntity
  8
VERMASSUNG
100
AcDbDimension
  2
*D3
 10
238.3253683872
 20
163.9620818646
 30
0.0
 11
186.8373926852
 21
163.9620818646
 31
0.0
 70
   160
 71
     2
 42
-1.0
  3
SLDDIMSTYLE0
100
AcDbAlignedDimension
 13
131.4253683872
 23
136.0996879757
 33
0.0
 14
238.3253683872
 24
135.4090102293
 34
0.0
100
AcDbRotatedDimension
  0
DIMENSION
  5
1D6
330
1F
100
AcDbEntity
  8
VERMASSUNG
100
AcDbDimension
  2
*D4
 10
125.9348844433
 20
84.9090102293
 30
0.0
 11
125.9348844433
 21
115.9986477667
 31
0.0
 70
   160
  1
HSK A %%c<>
 71
     2
 42
-1.0
  3
SLDDIMSTYLE0
100
AcDbAlignedDimension
 13
163.6253683872
 23
147.9090102293
 33
0.0
 14
163.6253683872
 24
84.9090102293
 34
0.0
 50
90.0
100
AcDbRotatedDimension
  0
DIMENSION
  5
1E2
330
1F
100
AcDbEntity
  8
VERMASSUNG
100
AcDbDimension
  2
*D5
 10
250.9073576021
 20
96.4090102293
 30
0.0
 11
250.9073576021
 21
116.0623073337
 31
0.0
 70
   160
  1
%%c<>
 71
     2
 42
-1.0
  3
SLDDIMSTYLE0
100
AcDbAlignedDimension
 13
237.3253683872
 23
136.4090102293
 33
0.0
 14
237.3253683872
 24
96.4090102293
 34
0.0
 50
90.0
100
AcDbRotatedDimension
  0
DIMENSION
  5
1ED
330
1F
100
AcDbEntity
  8
VERMASSUNG
100
AcDbDimension
  2
*D6
 10
244.9073576021
 20
108.4090102293
 30
0.0
 11
244.9073576021
 21
116.0623073337
 31
0.0
 70
   160
  1
%%c<>
 71
     2
 42
-1.0
  3
SLDDIMSTYLE0
100
AcDbAlignedDimension
 13
238.0253683872
 23
124.4090102293
 33
0.0
 14
238.0253683872
 24
108.4090102293
 34
0.0
 50
90.0
100
AcDbRotatedDimension
  0
DIMENSION
  5
1F8
330
1F
100
AcDbEntity
  8
VERMASSUNG
100
AcDbDimension
  2
*D7
 10
238.3253683872
 20
87.2993879134
 30
0.0
 11
232.9161742483
 21
87.2993879134
 31
0.0
 70
   160
 71
     2
 42
-1.0
  3
SLDDIMSTYLE0
100
AcDbAlignedDimension
 13
227.8253683872
 23
102.8292628303
 33
0.0
 14
238.3253683872
 24
97.4090102293
 34
0.0
100
AcDbRotatedDimension
  0
DIMENSION
  5
202
330
1F
100
AcDbEntity
  8
VERMASSUNG
100
AcDbDimension
  2
*D8
 10
227.8253683872
 20
87.2993879134
 30
0.0
 11
221.0978417644
 21
87.2993879134
 31
0.0
 70
   160
 71
     2
 42
-1.0
  3
SLDDIMSTYLE0
100
AcDbAlignedDimension
 13
212.3253683872
 23
101.4618524603
 33
0.0
 14
227.8253683872
 24
102.8292628303
 34
0.0
100
AcDbRotatedDimension
  0
DIMENSION
  5
20C
330
1F
100
AcDbEntity
  8
VERMASSUNG
100
AcDbDimension
  2
*D9
 10
212.3253683872
 20
87.2993879134
 30
0.0
 11
204.9819338318
 21
87.2993879134
 31
0.0
 70
   160
 71
     2
 42
-1.0
  3
SLDDIMSTYLE0
100
AcDbAlignedDimension
 13
196.8253683872
 23
100.7659720338
 33
0.0
 14
212.3253683872
 24
101.4618524603
 34
0.0
100
AcDbRotatedDimension
  0
DIMENSION
  5
216
330
1F
100
AcDbEntity
  8
VERMASSUNG
100
AcDbDimension
  2
*D10
 10
238.3253683872
 20
81.2993879134
 30
0.0
 11
215.5109936811
 21
81.2993879134
 31
0.0
 70
   160
 71
     2
 42
-1.0
  3
SLDDIMSTYLE0
100
AcDbAlignedDimension
 13
187.3253683872
 23
108.5090102293
 33
0.0
 14
238.3253683872
 24
97.4090102293
 34
0.0
100
AcDbRotatedDimension
  0
INSERT
  5
22B
330
1F
100
AcDbEntity
  8
VERMASSUNG
100
AcDbBlockReference
  2
SW_CENTERMARKSYMBOL_0
 10
196.8253683872
 20
116.4090102293
 30
0.0
  0
LINE
  5
22C
330
1F
100
AcDbEntity
  8
VERMASSUNG
  6
CENTERX2
370
     0
100
AcDbLine
 10
212.3253683872
 20
138.4090102293
 30
0.0
 11
212.3253683872
 21
101.4618524603
 31
0.0
  0
LINE
  5
22D
330
1F
100
AcDbEntity
  8
VERMASSUNG
  6
CENTERX2
370
     0
100
AcDbLine
 10
227.8253683872
 20
138.4090102293
 30
0.0
 11
227.8253683872
 21
102.8292628303
 31
0.0
  0
LINE
  5
22E
330
1F
100
AcDbEntity
  8
0
  6
Continuous
 62
     7
370
    15
100
AcDbLine
 10
56.6281433966
 20
113.7761327884
 30
0.0
 11
56.6281433966
 21
119.0418876701
 31
0.0
  0
LINE
  5
22F
330
1F
100
AcDbEntity
  8
0
  6
Continuous
 62
     7
370
    15
100
AcDbLine
 10
71.7368106285
 20
119.0418876701
 30
0.0
 11
71.7368106285
 21
113.7761327884
 31
0.0
  0
LINE
  5
230
330
1F
100
AcDbEntity
  8
0
  6
Continuous
 62
     7
370
    15
100
AcDbLine
 10
61.5495995717
 20
123.9633438452
 30
0.0
 11
66.8153544534
 21
123.9633438452
 31
0.0
  0
CIRCLE
  5
231
330
1F
100
AcDbEntity
  8
0
  6
Continuous
 62
     7
370
    15
100
AcDbCircle
 10
64.1824770125
 20
116.4090102293
 30
0.0
 40
20.0
  0
CIRCLE
  5
232
330
1F
100
AcDbEntity
  8
0
  6
Continuous
 62
     7
370
    15
100
AcDbCircle
 10
64.1824770125
 20
116.4090102293
 30
0.0
 40
8.0
  0
SPLINE
  5
233
330
1F
100
AcDbEntity
  8
0
  6
Continuous
 62
     7
370
    15
100
AcDbSpline
210
0.0
220
0.0
230
1.0
 70
    24
 71
     3
 72
    10
 73
     6
 74
     0
 42
0.00000001
 43
0.00000001
 40
0.0
 40
0.0
 40
0.0
 40
0.0
 40
0.5
 40
0.5
 40
1.0
 40
1.0
 40
1.0
 40
1.0
 10
55.18247701253596
 20
86.84873282867076
 30
0.0
 10
55.18247701253596
 20
86.6888455604771
 30
0.0
 10
55.18247701253596
 20
86.5277183049625
 30
0.0
 10
55.18247701253596
 20
86.29361930660767
 30
0.0
 10
55.18247701253597
 20
86.22209253301645
 30
0.0
 10
55.18247701253597
 20
86.22209253301645
 30
0.0
  0
ARC
  5
234
330
1F
100
AcDbEntity
  8
0
  6
Continuous
 62
     7
370
    15
100
AcDbCircle
 10
64.1824770125
 20
116.4090102293
 30
0.0
 40
31.5
100
AcDbArc
 50
140.9381656697
 51
253.398450401
  0
SPLINE
  5
235
330
1F
100
AcDbEntity
  8
0
  6
Continuous
 62
     7
370
    15
100
AcDbSpline
210
0.0
220
0.0
230
1.0
 70
    24
 71
     3
 72
    12
 73
     8
 74
     0
 42
0.00000001
 43
0.00000001
 40
0.0
 40
0.0
 40
0.0
 40
0.0
 40
0.2500000000000033
 40
0.2500000000000033
 40
0.5000000000000067
 40
0.5000000000000067
 40
1.0
 40
1.0
 40
1.0
 40
1.0
 10
39.72378735016832
 20
136.2590102292636
 30
0.0
 10
39.72378735016833
 20
136.2590102292636
 30
0.0
 10
39.75161707047181
 20
136.2590102292636
 30
0.0
 10
39.84675953172846
 20
136.2590102292636
 30
0.0
 10
39.91318234802884
 20
136.2590102292636
 30
0.0
 10
40.13738177954897
 20
136.2590102292636
 30
0.0
 10
40.32136818209457
 20
136.2590102292636
 30
0.0
 10
40.50152475127755
 20
136.2590102292636
 30
0.0
  0
SPLINE
  5
236
330
1F
100
AcDbEntity
  8
0
  6
Continuous
 62
     7
370
    15
100
AcDbSpline
210
0.0
220
0.0
230
1.0
 70
    24
 71
     3
 72
    10
 73
     6
 74
     0
 42
0.00000001
 43
0.00000001
 40
0.0
 40
0.0
 40
0.0
 40
0.0
 40
0.5
 40
0.5
 40
1.0
 40
1.0
 40
1.0
 40
1.0
 10
56.18247701253596
 20
146.2554505530275
 30
0.0
 10
56.18247701253596
 20
146.4158558193783
 30
0.0
 10
56.18247701253596
 20
146.5749176323669
 30
0.0
 10
56.18247701253596
 20
146.8058300979972
 30
0.0
 10
56.18247701253596
 20
146.8762057024279
 30
0.0
 10
56.18247701253596
 20
146.8762057024279
 30
0.0
  0
SPLINE
  5
237
330
1F
100
AcDbEntity
  8
0
  6
Continuous
 62
     7
370
    15
100
AcDbSpline
210
0.0
220
0.0
230
1.0
 70
    24
 71
     3
 72
    12
 73
     8
 74
     0
 42
0.00000001
 43
0.00000001
 40
0.0
 40
0.0
 40
0.0
 40
0.0
 40
0.250000000000002
 40
0.250000000000002
 40
0.500000000000004
 40
0.500000000000004
 40
1.0
 40
1.0
 40
1.0
 40
1.0
 10
44.33247701253595
 20
140.867699891631
 30
0.0
 10
44.33247701253595
 20
140.867699891631
 30
0.0
 10
44.33247701253595
 20
140.8394801930432
 30
0.0
 10
44.33247701253595
 20
140.7450371857951
 30
0.0
 10
44.33247701253595
 20
140.6787502090898
 30
0.0
 10
44.33247701253595
 20
140.4531253858015
 30
0.0
 10
44.33247701253595
 20
140.2706991227689
 30
0.0
 10
44.33247701253595
 20
140.089962490522
 30
0.0
  0
ARC
  5
238
330
1F
100
AcDbEntity
  8
0
  6
Continuous
 62
     7
370
    15
100
AcDbCircle
 10
64.1824770125
 20
116.4090102293
 30
0.0
 40
31.50000000000002
100
AcDbArc
 50
104.7124579609
 51
129.0618343303
  0
SPLINE
  5
239
330
1F
100
AcDbEntity
  8
0
  6
Continuous
 62
     7
370
    15
100
AcDbSpline
210
0.0
220
0.0
230
1.0
 70
    24
 71
     3
 72
    12
 73
     8
 74
     0
 42
0.00000001
 43
0.00000001
 40
0.0
 40
0.0
 40
0.0
 40
0.0
 40
0.2499999999999999
 40
0.2499999999999999
 40
0.4999999999999998
 40
0.4999999999999998
 40
1.0
 40
1.0
 40
1.0
 40
1.0
 10
72.18247701253597
 20
146.8762057024279
 30
0.0
 10
72.18247701253597
 20
146.8762057024279
 30
0.0
 10
72.18247701253597
 20
146.8592029524671
 30
0.0
 10
72.18247701253595
 20
146.7951424113554
 30
0.0
 10
72.18247701253595
 20
146.7479837957168
 30
0.0
 10
72.18247701253597
 20
146.5747617630246
 30
0.0
 10
72.18247701253597
 20
146.4146526727903
 30
0.0
 10
72.18247701253597
 20
146.2554505530269
 30
0.0
  0
ARC
  5
23A
330
1F
100
AcDbEntity
  8
0
  6
Continuous
 62
     7
370
    15
100
AcDbCircle
 10
64.1824770125
 20
116.4090102293
 30
0.0
 40
31.50000000000002
100
AcDbArc
 50
286.601549599
 51
75.2875420391
  0
SPLINE
  5
23B
330
1F
100
AcDbEntity
  8
0
  6
Continuous
 62
     7
370
    15
100
AcDbSpline
210
0.0
220
0.0
230
1.0
 70
    24
 71
     3
 72
    12
 73
     8
 74
     0
 42
0.00000001
 43
0.00000001
 40
0.0
 40
0.0
 40
0.0
 40
0.0
 40
0.2499999999999962
 40
0.2499999999999962
 40
0.4999999999999925
 40
0.4999999999999925
 40
1.0
 40
1.0
 40
1.0
 40
1.0
 10
73.18247701253597
 20
86.22209253301646
 30
0.0
 10
73.18247701253597
 20
86.22209253301646
 30
0.0
 10
73.18247701253597
 20
86.2392096192823
 30
0.0
 10
73.18247701253597
 20
86.30394573075739
 30
0.0
 10
73.18247701253595
 20
86.35140297363775
 30
0.0
 10
73.18247701253597
 20
86.5282274161772
 30
0.0
 10
73.18247701253597
 20
86.68850392338294
 30
0.0
 10
73.18247701253595
 20
86.84873282867072
 30
0.0
  0
LINE
  5
23C
330
1F
100
AcDbEntity
  8
0
  6
Continuous
 62
     7
370
    15
100
AcDbLine
 10
72.1824770125
 20
142.8090102293
 30
0.0
 11
56.1824770125
 21
142.8090102293
 31
0.0
  0
LINE
  5
23D
330
1F
100
AcDbEntity
  8
0
  6
Continuous
 62
     7
370
    15
100
AcDbLine
 10
73.1824770125
 20
90.0090102293
 30
0.0
 11
55.1824770125
 21
90.0090102293
 31
0.0
  0
LINE
  5
23E
330
1F
100
AcDbEntity
  8
0
  6
Continuous
 62
     7
370
    15
100
AcDbLine
 10
72.1824770125
 20
146.255450553
 30
0.0
 11
72.1824770125
 21
142.8090102293
 31
0.0
  0
LINE
  5
23F
330
1F
100
AcDbEntity
  8
0
  6
Continuous
 62
     7
370
    15
100
AcDbLine
 10
73.1824770125
 20
86.8487328287
 30
0.0
 11
73.1824770125
 21
90.0090102293
 31
0.0
  0
LINE
  5
240
330
1F
100
AcDbEntity
  8
0
  6
Continuous
 62
     7
370
    15
100
AcDbLine
 10
56.1824770125
 20
142.8090102293
 30
0.0
 11
56.1824770125
 21
146.255450553
 31
0.0
  0
LINE
  5
241
330
1F
100
AcDbEntity
  8
0
  6
Continuous
 62
     7
370
    15
100
AcDbLine
 10
55.1824770125
 20
90.0090102293
 30
0.0
 11
55.1824770125
 21
86.8487328287
 31
0.0
  0
LINE
  5
242
330
1F
100
AcDbEntity
  8
0
  6
Continuous
 62
     7
370
    15
100
AcDbLine
 10
44.3324770125
 20
140.0899624905
 30
0.0
 11
44.3324770125
 21
136.2590102293
 31
0.0
  0
LINE
  5
243
330
1F
100
AcDbEntity
  8
0
  6
Continuous
 62
     7
370
    15
100
AcDbLine
 10
40.5015247513
 20
136.2590102293
 30
0.0
 11
44.3324770125
 21
136.2590102293
 31
0.0
  0
CIRCLE
  5
244
330
1F
100
AcDbEntity
  8
0
  6
Continuous
 62
     7
370
    15
100
AcDbCircle
 10
64.1824770125
 20
116.4090102293
 30
0.0
 40
4.249999999999993
  0
SPLINE
  5
245
330
1F
100
AcDbEntity
  8
0
  6
Continuous
 62
     7
370
    15
100
AcDbSpline
210
0.0
220
0.0
230
1.0
 70
     8
 71
     3
 72
    30
 73
    26
 74
     0
 42
0.00000001
 43
0.00000001
 40
0.0
 40
0.0
 40
0.0
 40
0.0
 40
0.125
 40
0.125
 40
0.1874999999999999
 40
0.1874999999999999
 40
0.2499999999999999
 40
0.2499999999999999
 40
0.3749999999999999
 40
0.3749999999999999
 40
0.4374999999999999
 40
0.4374999999999999
 40
0.4999999999999998
 40
0.4999999999999998
 40
0.6249999999999997
 40
0.6249999999999997
 40
0.6874999999999997
 40
0.6874999999999997
 40
0.7499999999999997
 40
0.7499999999999997
 40
0.8124999999999996
 40
0.8124999999999996
 40
0.8749999999999996
 40
0.8749999999999996
 40
1.0
 40
1.0
 40
1.0
 40
1.0
 10
65.18247701253603
 20
84.9248872464013
 30
0.0
 10
65.71389494293663
 20
84.94176616440988
 30
0.0
 10
66.2355541405108
 20
84.97178372923459
 30
0.0
 10
67.00419592766981
 20
85.03459411850768
 30
0.0
 10
67.25808572683484
 20
85.05849802573456
 30
0.0
 10
67.76115850278093
 20
85.11193331817695
 30
0.0
 10
68.01062235099755
 20
85.14154018634453
 30
0.0
 10
68.73553324859442
 20
85.23598988505897
 30
0.0
 10
69.1934105854866
 20
85.30701727888818
 30
0.0
 10
69.84317781096945
 20
85.42103156559394
 30
0.0
 10
70.05456451437962
 20
85.46048681673452
 30
0.0
 10
70.45919832514979
 20
85.54000825950517
 30
0.0
 10
70.651938796651
 20
85.57994440200596
 30
0.0
 10
71.20236967302793
 20
85.69888080483412
 30
0.0
 10
71.53255305030855
 20
85.77704556871798
 30
0.0
 10
71.97122886695898
 20
85.88675500898685
 30
0.0
 10
72.10702742544551
 20
85.92183584569527
 30
0.0
 10
72.35390445829167
 20
85.98707612507488
 30
0.0
 10
72.46568299561967
 20
86.01741094111964
 30
0.0
 10
72.66611318549327
 20
86.07274932034147
 30
0.0
 10
72.75476552869678
 20
86.09775399690156
 30
0.0
 10
72.90843307637789
 20
86.14163380579225
 30
0.0
 10
72.97368078062972
 20
86.16057749055454
 30
0.0
 10
73.12998583399401
 20
86.20629721782473
 30
0.0
 10
73.182477012536
 20
86.22209253301646
 30
0.0
 10
73.18247701253601
 20
86.22209253301646
 30
0.0
  0
SPLINE
  5
246
330
1F
100
AcDbEntity
  8
0
  6
Continuous
 62
     7
370
    15
100
AcDbSpline
210
0.0
220
0.0
230
1.0
 70
     8
 71
     3
 72
    28
 73
    24
 74
     0
 42
0.00000001
 43
0.00000001
 40
0.0
 40
0.0
 40
0.0
 40
0.0
 40
0.1250000000000001
 40
0.1250000000000001
 40
0.1875000000000001
 40
0.1875000000000001
 40
0.2500000000000001
 40
0.2500000000000001
 40
0.3749999999999999
 40
0.3749999999999999
 40
0.4375
 40
0.4375
 40
0.4999999999999999
 40
0.4999999999999999
 40
0.6249999999999999
 40
0.6249999999999999
 40
0.7499999999999997
 40
0.7499999999999997
 40
0.8124999999999998
 40
0.8124999999999998
 40
0.8749999999999998
 40
0.8749999999999998
 40
1.0
 40
1.0
 40
1.0
 40
1.0
 10
55.182477012536
 20
86.22209253301645
 30
0.0
 10
55.182477012536
 20
86.22209253301646
 30
0.0
 10
55.23495335485422
 20
86.20630781906624
 30
0.0
 10
55.38875030241113
 20
86.16131240499003
 30
0.0
 10
55.45262527744513
 20
86.14275740991431
 30
0.0
 10
55.60612154610166
 20
86.0989046874678
 30
0.0
 10
55.69593652149535
 20
86.0735600805156
 30
0.0
 10
55.99791531654623
 20
85.9901580027655
 30
0.0
 10
56.24386875060198
 20
85.9242924436144
 30
0.0
 10
56.67923593003036
 20
85.81532210312263
 30
0.0
 10
56.83645111220271
 20
85.77708246735597
 30
0.0
 10
57.16861573274516
 20
85.69932372993661
 30
0.0
 10
57.34342299834805
 20
85.65982276776127
 30
0.0
 10
57.89348218893387
 20
85.54091502539526
 30
0.0
 10
58.29410557332934
 20
85.46109734397066
 30
0.0
 10
59.16669168467805
 20
85.30775418217459
 30
0.0
 10
59.62682713227962
 20
85.23642042890533
 30
0.0
 10
60.34679322624581
 20
85.14247692183072
 30
0.0
 10
60.59206693628033
 20
85.11328312847078
 30
0.0
 10
61.09352327270916
 20
85.05981655420739
 30
0.0
 10
61.35095464208169
 20
85.0354572199322
 30
0.0
 10
62.12689443794618
 20
84.97186707448745
 30
0.0
 10
62.65112283785221
 20
84.9417641393982
 30
0.0
 10
63.18247701253603
 20
84.9248872464013
 30
0.0
  0
SPLINE
  5
247
330
1F
100
AcDbEntity
  8
0
  6
Continuous
 62
     7
370
    15
100
AcDbSpline
210
0.0
220
0.0
230
1.0
 70
     8
 71
     3
 72
    50
 73
    46
 74
     0
 42
0.00000001
 43
0.00000001
 40
0.0
 40
0.0
 40
0.0
 40
0.0
 40
0.0625000000000001
 40
0.0625000000000001
 40
0.09375
 40
0.09375
 40
0.1249999999999999
 40
0.1249999999999999
 40
0.1874999999999998
 40
0.1874999999999998
 40
0.2187499999999997
 40
0.2187499999999997
 40
0.2499999999999997
 40
0.2499999999999997
 40
0.3124999999999996
 40
0.3124999999999996
 40
0.3749999999999995
 40
0.3749999999999995
 40
0.4062499999999994
 40
0.4062499999999994
 40
0.4374999999999993
 40
0.4374999999999993
 40
0.4999999999999992
 40
0.4999999999999992
 40
0.5624999999999991
 40
0.5624999999999991
 40
0.6249999999999991
 40
0.6249999999999991
 40
0.6562499999999991
 40
0.6562499999999991
 40
0.6874999999999991
 40
0.6874999999999991
 40
0.7187499999999992
 40
0.7187499999999992
 40
0.7499999999999992
 40
0.7499999999999992
 40
0.8124999999999994
 40
0.8124999999999994
 40
0.8749999999999998
 40
0.8749999999999998
 40
0.9375
 40
0.9375
 40
0.9687500000000001
 40
0.9687500000000001
 40
1.0
 40
1.0
 40
1.0
 40
1.0
 10
56.18247701253601
 20
146.8762057024279
 30
0.0
 10
56.18247701253601
 20
146.8762057024279
 30
0.0
 10
56.23477115448906
 20
146.8900718058091
 30
0.0
 10
56.38812368932183
 20
146.9295089486931
 30
0.0
 10
56.45182118467304
 20
146.9457616509581
 30
0.0
 10
56.60491283496285
 20
146.9841103608085
 30
0.0
 10
56.69456893692367
 20
147.0062638072166
 30
0.0
 10
56.99615032509772
 20
147.0790197530786
 30
0.0
 10
57.2418917555317
 20
147.1363004559233
 30
0.0
 10
57.67705182188237
 20
147.2302928953791
 30
0.0
 10
57.83419264934354
 20
147.2631518625723
 30
0.0
 10
58.16683174206786
 20
147.3297279160205
 30
0.0
 10
58.34189769750789
 20
147.3633713538594
 30
0.0
 10
58.89275322820949
 20
147.4639322184365
 30
0.0
 10
59.29393763739615
 20
147.5304950281866
 30
0.0
 10
60.16742684348354
 20
147.6551940834862
 30
0.0
 10
60.62946743646598
 20
147.7117170925568
 30
0.0
 10
61.3505828500599
 20
147.7823860271716
 30
0.0
 10
61.59614348774328
 20
147.8036622372431
 30
0.0
 10
62.09793178690148
 20
147.840967963485
 30
0.0
 10
62.35569300321814
 20
147.857059160345
 30
0.0
 10
63.13080546743791
 20
147.8957006319527
 30
0.0
 10
63.6512346511576
 20
147.9088900505091
 30
0.0
 10
64.69937049194297
 20
147.9091287739672
 30
0.0
 10
65.23187882231673
 20
147.895728771263
 30
0.0
 10
66.25956908448333
 20
147.8446647830679
 30
0.0
 10
66.75933326506505
 20
147.8072256483137
 30
0.0
 10
67.48782826508553
 20
147.7360621653952
 30
0.0
 10
67.727179257531
 20
147.7097937072027
 30
0.0
 10
68.18841772901787
 20
147.6541122344504
 30
0.0
 10
68.41168438408513
 20
147.6245744625145
 30
0.0
 10
68.84387199010722
 20
147.5629673174868
 30
0.0
 10
69.0527925703472
 20
147.5308963747656
 30
0.0
 10
69.4562174958709
 20
147.4650793977962
 30
0.0
 10
69.65169715584025
 20
147.431149179333
 30
0.0
 10
70.2075553693765
 20
147.3297205517528
 30
0.0
 10
70.53711275600806
 20
147.2628015230627
 30
0.0
 10
71.11650825379401
 20
147.1377759607209
 30
0.0
 10
71.36802822523839
 20
147.0791991664868
 30
0.0
 10
71.76948272185194
 20
146.9823643148418
 30
0.0
 10
71.92196571739905
 20
146.9436093552827
 30
0.0
 10
72.07727666657429
 20
146.9036818248464
 30
0.0
 10
72.11679011398044
 20
146.8933900335959
 30
0.0
 10
72.16930346127621
 20
146.8796738210569
 30
0.0
 10
72.18247701253601
 20
146.8762057024279
 30
0.0
 10
72.18247701253601
 20
146.8762057024279
 30
0.0
  0
SPLINE
  5
248
330
1F
100
AcDbEntity
  8
0
  6
Continuous
 62
     7
370
    15
100
AcDbSpline
210
0.0
220
0.0
230
1.0
 70
     8
 71
     3
 72
    20
 73
    16
 74
     0
 42
0.00000001
 43
0.00000001
 40
0.0
 40
0.0
 40
0.0
 40
0.0
 40
0.2499999999999997
 40
0.2499999999999997
 40
0.3749999999999997
 40
0.3749999999999997
 40
0.4999999999999998
 40
0.4999999999999998
 40
0.6249999999999998
 40
0.6249999999999998
 40
0.7499999999999999
 40
0.7499999999999999
 40
0.8749999999999999
 40
0.8749999999999999
 40
1.0
 40
1.0
 40
1.0
 40
1.0
 10
39.72378735016859
 20
136.2590102292636
 30
0.0
 10
40.25444411800328
 20
136.912872657561
 30
0.0
 10
40.78817211426478
 20
137.5166584395582
 30
0.0
 10
41.57114443225353
 20
138.3434971757268
 30
0.0
 10
41.82912803235021
 20
138.6059258136797
 30
0.0
 10
42.33352328875804
 20
139.1025884677846
 30
0.0
 10
42.57630171118604
 20
139.3331753468062
 30
0.0
 10
43.02698179069911
 20
139.7497295713888
 30
0.0
 10
43.23644565669038
 20
139.9372273733563
 30
0.0
 10
43.61473417327843
 20
140.2686243509928
 30
0.0
 10
43.77848185946292
 20
140.408128338488
 30
0.0
 10
44.04666766166235
 20
140.633581845959
 30
0.0
 10
44.15189206974911
 20
140.7202079575026
 30
0.0
 10
44.29595129506262
 20
140.8381887463567
 30
0.0
 10
44.33247701253601
 20
140.867699891631
 30
0.0
 10
44.33247701253601
 20
140.867699891631
 30
0.0
  0
ARC
  5
249
330
1F
100
AcDbEntity
  8
0
  6
Continuous
 62
     7
370
    15
100
AcDbCircle
 10
64.1824770125
 20
116.4090102293
 30
0.0
 40
31.49999999999999
100
AcDbArc
 50
268.180780706
 51
271.819219294
  0
SPLINE
  5
24A
330
1F
100
AcDbEntity
  8
0
  6
HIDDEN
 62
     7
370
     0
100
AcDbSpline
210
0.0
220
0.0
230
1.0
 70
    11
 71
     3
 72
    70
 73
    66
 74
     0
 42
0.00000001
 43
0.00000001
 40
-0.03125
 40
-0.03125
 40
0.0
 40
0.0
 40
0.03125
 40
0.03125
 40
0.0625
 40
0.0625
 40
0.09375
 40
0.09375
 40
0.125
 40
0.125
 40
0.15625
 40
0.15625
 40
0.1875
 40
0.1875
 40
0.21875
 40
0.21875
 40
0.25
 40
0.25
 40
0.28125
 40
0.28125
 40
0.3125
 40
0.3125
 40
0.34375
 40
0.34375
 40
0.375
 40
0.375
 40
0.40625
 40
0.40625
 40
0.4375
 40
0.4375
 40
0.46875
 40
0.46875
 40
0.5
 40
0.5
 40
0.53125
 40
0.53125
 40
0.5625
 40
0.5625
 40
0.59375
 40
0.59375
 40
0.625
 40
0.625
 40
0.65625
 40
0.65625
 40
0.6875
 40
0.6875
 40
0.71875
 40
0.71875
 40
0.75
 40
0.75
 40
0.78125
 40
0.78125
 40
0.8125
 40
0.8125
 40
0.84375
 40
0.84375
 40
0.875
 40
0.875
 40
0.90625
 40
0.90625
 40
0.9375
 40
0.9375
 40
0.96875
 40
0.96875
 40
1.0
 40
1.0
 40
1.03125
 40
1.03125
 10
83.66965228244094
 20
120.9090102292635
 30
0.0
 10
83.66965228244092
 20
120.9090102292635
 30
0.0
 10
83.67649995220368
 20
120.8796408752637
 30
0.0
 10
83.70249187848559
 20
120.7647522301575
 30
0.0
 10
83.72195068138969
 20
120.6777729350786
 30
0.0
 10
83.76999553864513
 20
120.451594091562
 30
0.0
 10
83.79838674697524
 20
120.3133286569257
 30
0.0
 10
83.8605572753497
 20
119.986827198382
 30
0.0
 10
83.89446181296411
 20
119.7974536450842
 30
0.0
 10
83.96111891490227
 20
119.3837737580987
 30
0.0
 10
83.99421997263127
 20
119.1578666902193
 30
0.0
 10
84.05622899913833
 20
118.6662990753891
 30
0.0
 10
84.08439160800211
 20
118.405891327778
 30
0.0
 10
84.13127030392279
 20
117.8648209670836
 30
0.0
 10
84.1502751118255
 20
117.5801992542081
 30
0.0
 10
84.17589314092285
 20
116.9988883381124
 30
0.0
 10
84.18243658953745
 20
116.7062774154124
 30
0.0
 10
84.18251706228924
 20
116.1172074364064
 30
0.0
 10
84.17583294368053
 20
115.8179359323701
 30
0.0
 10
84.15038076813778
 20
115.2400492286717
 30
0.0
 10
84.13173106927823
 20
114.9590586341771
 30
0.0
 10
84.08451504069306
 20
114.4130194040516
 30
0.0
 10
84.0561187404587
 20
114.1510317318682
 30
0.0
 10
83.99479954393858
 20
113.6645652332384
 30
0.0
 10
83.96143412445448
 20
113.4362012997897
 30
0.0
 10
83.89413885430918
 20
113.0185641226496
 30
0.0
 10
83.86089541094054
 20
112.8330703839143
 30
0.0
 10
83.79889782496618
 20
112.5072758777375
 30
0.0
 10
83.76989247437702
 20
112.3659343736764
 30
0.0
 10
83.72195180626349
 20
112.1402596352269
 30
0.0
 10
83.70281868071928
 20
112.0547253924718
 30
0.0
 10
83.67658405084246
 20
111.9387388659595
 30
0.0
 10
83.66968075384611
 20
111.9091335242224
 30
0.0
 10
83.66962399239094
 20
111.9088877196607
 30
0.0
 10
83.67626152180328
 20
111.9373320992204
 30
0.0
 10
83.70252103518567
 20
112.0533907387348
 30
0.0
 10
83.72176859327091
 20
112.13943668021
 30
0.0
 10
83.7694848905822
 20
112.3639767123305
 30
0.0
 10
83.79835745382786
 20
112.5045321527157
 30
0.0
 10
83.86063542965347
 20
112.8316095181145
 30
0.0
 10
83.89385985458456
 20
113.0170403863903
 30
0.0
 10
83.96071831909725
 20
113.4315543051226
 30
0.0
 10
83.99446554981196
 20
113.6621514395246
 30
0.0
 10
84.05585350242455
 20
114.148693901166
 30
0.0
 10
84.0838815380367
 20
114.4066709545178
 30
0.0
 10
84.1313162375301
 20
114.9533048215157
 30
0.0
 10
84.15021048085832
 20
115.2374046975002
 30
0.0
 10
84.17567628796539
 20
115.8131729049982
 30
0.0
 10
84.18243573380785
 20
116.1092538505791
 30
0.0
 10
84.182517908471
 20
116.7032327642059
 30
0.0
 10
84.17594924669206
 20
116.9960135158223
 30
0.0
 10
84.15064401795865
 20
117.5734033243779
 30
0.0
 10
84.1315948580972
 20
117.8605778419295
 30
0.0
 10
84.08460683432331
 20
118.4038986740027
 30
0.0
 10
84.05667401893913
 20
118.662310700155
 30
0.0
 10
83.99493070864519
 20
119.1526844447952
 30
0.0
 10
83.96137207811303
 20
119.3820863085793
 30
0.0
 10
83.89476818619856
 20
119.7956675891469
 30
0.0
 10
83.86126645628377
 20
119.9829915337914
 30
0.0
 10
83.79859941037004
 20
120.3123214402314
 30
0.0
 10
83.77019636831466
 20
120.450609180916
 30
0.0
 10
83.72233786550686
 20
120.6759891949114
 30
0.0
 10
83.70276844708368
 20
120.7635211503713
 30
0.0
 10
83.67650328253268
 20
120.8796346639932
 30
0.0
 10
83.66965228244094
 20
120.9090102292635
 30
0.0
 10
83.66965228244092
 20
120.9090102292635
 30
0.0
  0
SPLINE
  5
24B
330
1F
100
AcDbEntity
  8
0
  6
HIDDEN
 62
     7
370
     0
100
AcDbSpline
210
0.0
220
0.0
230
1.0
 70
    11
 71
     3
 72
    76
 73
    72
 74
     0
 42
0.00000001
 43
0.00000001
 40
-0.0312499999999998
 40
-0.0312499999999998
 40
0.0
 40
0.0
 40
0.0312500000000008
 40
0.0312500000000008
 40
0.0625000000000016
 40
0.0625000000000016
 40
0.0937500000000017
 40
0.0937500000000017
 40
0.1250000000000018
 40
0.1250000000000018
 40
0.156250000000002
 40
0.156250000000002
 40
0.1875000000000022
 40
0.1875000000000022
 40
0.2187500000000023
 40
0.2187500000000023
 40
0.2500000000000024
 40
0.2500000000000024
 40
0.2656250000000026
 40
0.2656250000000026
 40
0.2812500000000026
 40
0.2812500000000026
 40
0.3125000000000026
 40
0.3125000000000026
 40
0.3437500000000026
 40
0.3437500000000026
 40
0.3750000000000026
 40
0.3750000000000026
 40
0.4062500000000027
 40
0.4062500000000027
 40
0.4375000000000027
 40
0.4375000000000027
 40
0.4531250000000027
 40
0.4531250000000027
 40
0.4687500000000027
 40
0.4687500000000027
 40
0.5000000000000027
 40
0.5000000000000027
 40
0.5312500000000027
 40
0.5312500000000027
 40
0.5625000000000027
 40
0.5625000000000027
 40
0.5937500000000027
 40
0.5937500000000027
 40
0.6250000000000027
 40
0.6250000000000027
 40
0.6562500000000027
 40
0.6562500000000027
 40
0.6875000000000027
 40
0.6875000000000027
 40
0.7031250000000024
 40
0.7031250000000024
 40
0.7187500000000021
 40
0.7187500000000021
 40
0.7500000000000018
 40
0.7500000000000018
 40
0.7812500000000017
 40
0.7812500000000017
 40
0.8125000000000013
 40
0.8125000000000013
 40
0.8437500000000011
 40
0.8437500000000011
 40
0.8750000000000009
 40
0.8750000000000009
 40
0.9062500000000007
 40
0.9062500000000007
 40
0.9375000000000004
 40
0.9375000000000004
 40
0.9687500000000002
 40
0.9687500000000002
 40
1.0
 40
1.0
 40
1.031250000000001
 40
1.031250000000001
 10
70.79685529019731
 20
120.9090102292636
 30
0.0
 10
70.79685529019731
 20
120.9090102292636
 30
0.0
 10
70.81790244073726
 20
120.8784767296381
 30
0.0
 10
70.89588016993899
 20
120.760471990254
 30
0.0
 10
70.95368327540382
 20
120.6714439844913
 30
0.0
 10
71.09119807161672
 20
120.4447442516961
 30
0.0
 10
71.1709624891456
 20
120.3070484144176
 30
0.0
 10
71.3422406182322
 20
119.9827220335716
 30
0.0
 10
71.43170197485162
 20
119.7997996148951
 30
0.0
 10
71.607631914297
 20
119.3949422272879
 30
0.0
 10
71.69521260536077
 20
119.1699949775668
 30
0.0
 10
71.8549095873245
 20
118.6889249762187
 30
0.0
 10
71.9268412965376
 20
118.434198452725
 30
0.0
 10
72.04826110076517
 20
117.8942732299228
 30
0.0
 10
72.0980225040991
 20
117.6050740512528
 30
0.0
 10
72.1644607919328
 20
117.0208631860457
 30
0.0
 10
72.18195619330336
 20
116.7241176337743
 30
0.0
 10
72.18272030494188
 20
116.2717250432827
 30
0.0
 10
72.17862884352097
 20
116.1189942194246
 30
0.0
 10
72.16211053310089
 20
115.8190930591418
 30
0.0
 10
72.14972523659719
 20
115.6710375856966
 30
0.0
 10
72.10093968646412
 20
115.2323452695345
 30
0.0
 10
72.05218453518236
 20
114.9441500473102
 30
0.0
 10
71.9307712034731
 20
114.3985254679785
 30
0.0
 10
71.85872498242061
 20
114.1418258082045
 30
0.0
 10
71.69891370572086
 20
113.6579945020103
 30
0.0
 10
71.61161864907308
 20
113.4329614007996
 30
0.0
 10
71.43566029044558
 20
113.0266524093126
 30
0.0
 10
71.34574833465105
 20
112.8423167217108
 30
0.0
 10
71.17444999496568
 20
112.517214702257
 30
0.0
 10
71.09474462406492
 20
112.3793464449934
 30
0.0
 10
70.99158359414743
 20
112.2089535633165
 30
0.0
 10
70.95994165658439
 20
112.1582780506294
 30
0.0
 10
70.90362314977607
 20
112.0697769262865
 30
0.0
 10
70.87890469025649
 20
112.0318921586361
 30
0.0
 10
70.81917164144393
 20
111.9414035555231
 30
0.0
 10
70.79778646339341
 20
111.9103789444095
 30
0.0
 10
70.79598378512766
 20
111.907729218645
 30
0.0
 10
70.81643414518688
 20
111.9373787017241
 30
0.0
 10
70.89347719861442
 20
112.053857848647
 30
0.0
 10
70.95029747429665
 20
112.1411983500882
 30
0.0
 10
71.08813040568666
 20
112.3680247984159
 30
0.0
 10
71.16789777580544
 20
112.5055405408725
 30
0.0
 10
71.338321523387
 20
112.8275205692719
 30
0.0
 10
71.42890588164873
 20
113.0122521384643
 30
0.0
 10
71.60513813075553
 20
113.416887436564
 30
0.0
 10
71.69166596977321
 20
113.6382020187718
 30
0.0
 10
71.85318644734865
 20
114.1230719751766
 30
0.0
 10
71.92569807176116
 20
114.3795104109347
 30
0.0
 10
72.01687556208402
 20
114.7838072148701
 30
0.0
 10
72.04437477025154
 20
114.92198166611
 30
0.0
 10
72.0927498548274
 20
115.2055677250641
 30
0.0
 10
72.11373504353469
 20
115.3520384470118
 30
0.0
 10
72.16437056874877
 20
115.7945605011901
 30
0.0
 10
72.18184613735029
 20
116.092261683013
 30
0.0
 10
72.18307444769162
 20
116.6930467008044
 30
0.0
 10
72.16615311405705
 20
116.9990367824951
 30
0.0
 10
72.10092060138625
 20
117.586068663545
 30
0.0
 10
72.05277046043341
 20
117.8711470001761
 30
0.0
 10
71.93042695843305
 20
118.4211321263527
 30
0.0
 10
71.8580739879654
 20
118.6783325953174
 30
0.0
 10
71.69852666974495
 20
119.1610295752462
 30
0.0
 10
71.61062136614773
 20
119.387587881268
 30
0.0
 10
71.43406440504657
 20
119.7948238177376
 30
0.0
 10
71.34475878932672
 20
119.9776857506671
 30
0.0
 10
71.1734589071914
 20
120.3025815174017
 30
0.0
 10
71.0926419997273
 20
120.4422648723183
 30
0.0
 10
70.95541995484383
 20
120.6686777123155
 30
0.0
 10
70.89820422361467
 20
120.7569164873478
 30
0.0
 10
70.81811292549891
 20
120.8781954831222
 30
0.0
 10
70.79685529019731
 20
120.9090102292636
 30
0.0
 10
70.79685529019731
 20
120.9090102292636
 30
0.0
  0
SPLINE
  5
24C
330
1F
100
AcDbEntity
  8
0
  6
HIDDEN
 62
     7
370
     0
100
AcDbSpline
210
0.0
220
0.0
230
1.0
 70
    11
 71
     3
 72
    70
 73
    66
 74
     0
 42
0.00000001
 43
0.00000001
 40
-0.03125
 40
-0.03125
 40
0.0
 40
0.0
 40
0.03125
 40
0.03125
 40
0.0625
 40
0.0625
 40
0.09375
 40
0.09375
 40
0.125
 40
0.125
 40
0.15625
 40
0.15625
 40
0.1875
 40
0.1875
 40
0.21875
 40
0.21875
 40
0.25
 40
0.25
 40
0.28125
 40
0.28125
 40
0.3125
 40
0.3125
 40
0.34375
 40
0.34375
 40
0.375
 40
0.375
 40
0.40625
 40
0.40625
 40
0.4375
 40
0.4375
 40
0.46875
 40
0.46875
 40
0.5
 40
0.5
 40
0.53125
 40
0.53125
 40
0.5625
 40
0.5625
 40
0.59375
 40
0.59375
 40
0.625
 40
0.625
 40
0.65625
 40
0.65625
 40
0.6875
 40
0.6875
 40
0.71875
 40
0.71875
 40
0.75
 40
0.75
 40
0.78125
 40
0.78125
 40
0.8125
 40
0.8125
 40
0.84375
 40
0.84375
 40
0.875
 40
0.875
 40
0.90625
 40
0.90625
 40
0.9375
 40
0.9375
 40
0.96875
 40
0.96875
 40
1.0
 40
1.0
 40
1.03125
 40
1.03125
 10
59.68247701253583
 20
135.8961854991687
 30
0.0
 10
59.68247701253583
 20
135.8961854991687
 30
0.0
 10
59.71184636653569
 20
135.9030331689315
 30
0.0
 10
59.82673501164185
 20
135.9290250952134
 30
0.0
 10
59.91371430672073
 20
135.9484838981175
 30
0.0
 10
60.13989315023738
 20
135.9965287553729
 30
0.0
 10
60.27815858487364
 20
136.024919963703
 30
0.0
 10
60.60466004341735
 20
136.0870904920775
 30
0.0
 10
60.79403359671515
 20
136.1209950296919
 30
0.0
 10
61.20771348370062
 20
136.1876521316301
 30
0.0
 10
61.43362055158011
 20
136.220753189359
 30
0.0
 10
61.92518816641029
 20
136.2827622158661
 30
0.0
 10
62.18559591402135
 20
136.3109248247299
 30
0.0
 10
62.72666627471573
 20
136.3578035206506
 30
0.0
 10
63.0112879875913
 20
136.3768083285533
 30
0.0
 10
63.59259890368692
 20
136.4024263576507
 30
0.0
 10
63.88520982638691
 20
136.4089698062653
 30
0.0
 10
64.47427980539291
 20
136.409050279017
 30
0.0
 10
64.7735513094293
 20
136.4023661604083
 30
0.0
 10
65.35143801312769
 20
136.3769139848656
 30
0.0
 10
65.63242860762223
 20
136.358264286006
 30
0.0
 10
66.17846783774779
 20
136.3110482574209
 30
0.0
 10
66.44045550993116
 20
136.2826519571865
 30
0.0
 10
66.92692200856092
 20
136.2213327606664
 30
0.0
 10
67.1552859420097
 20
136.1879673411823
 30
0.0
 10
67.57292311914978
 20
136.120672071037
 30
0.0
 10
67.75841685788501
 20
136.0874286276684
 30
0.0
 10
68.08421136406191
 20
136.025431041694
 30
0.0
 10
68.225552868123
 20
135.9964256911048
 30
0.0
 10
68.45122760657247
 20
135.9484850229913
 30
0.0
 10
68.53676184932758
 20
135.9293518974471
 30
0.0
 10
68.6527483758399
 20
135.9031172675703
 30
0.0
 10
68.68235371757699
 20
135.8962139705739
 30
0.0
 10
68.68259952213863
 20
135.8961572091187
 30
0.0
 10
68.65415514257893
 20
135.9027947385311
 30
0.0
 10
68.53809650306462
 20
135.9290542519134
 30
0.0
 10
68.45205056158939
 20
135.9483018099987
 30
0.0
 10
68.22751052946884
 20
135.99601810731
 30
0.0
 10
68.08695508908372
 20
136.0248906705557
 30
0.0
 10
67.75987772368482
 20
136.0871686463813
 30
0.0
 10
67.5744468554091
 20
136.1203930713123
 30
0.0
 10
67.15993293667675
 20
136.1872515358251
 30
0.0
 10
66.92933580227471
 20
136.2209987665398
 30
0.0
 10
66.44279334063339
 20
136.2823867191524
 30
0.0
 10
66.18481628728163
 20
136.3104147547645
 30
0.0
 10
65.63818242028366
 20
136.3578494542579
 30
0.0
 10
65.35408254429922
 20
136.3767436975861
 30
0.0
 10
64.77831433680115
 20
136.4022095046932
 30
0.0
 10
64.48223339122033
 20
136.4089689505356
 30
0.0
 10
63.88825447759343
 20
136.4090511251988
 30
0.0
 10
63.59547372597707
 20
136.4024824634199
 30
0.0
 10
63.01808391742149
 20
136.3771772346864
 30
0.0
 10
62.73090939986989
 20
136.358128074825
 30
0.0
 10
62.18758856779663
 20
136.3111400510511
 30
0.0
 10
61.92917654164435
 20
136.2832072356669
 30
0.0
 10
61.43880279700417
 20
136.221463925373
 30
0.0
 10
61.20940093322003
 20
136.1879052948408
 30
0.0
 10
60.79581965265247
 20
136.1213014029263
 30
0.0
 10
60.60849570800795
 20
136.0877996730115
 30
0.0
 10
60.27916580156798
 20
136.0251326270978
 30
0.0
 10
60.1408780608834
 20
135.9967295850424
 30
0.0
 10
59.91549804688802
 20
135.9488710822346
 30
0.0
 10
59.82796609142807
 20
135.9293016638115
 30
0.0
 10
59.71185257780612
 20
135.9030364992605
 30
0.0
 10
59.68247701253583
 20
135.8961854991687
 30
0.0
 10
59.68247701253583
 20
135.8961854991687
 30
0.0
  0
SPLINE
  5
24D
330
1F
100
AcDbEntity
  8
0
  6
HIDDEN
 62
     7
370
     0
100
AcDbSpline
210
0.0
220
0.0
230
1.0
 70
    11
 71
     3
 72
    76
 73
    72
 74
     0
 42
0.00000001
 43
0.00000001
 40
-0.0312499999999998
 40
-0.0312499999999998
 40
0.0
 40
0.0
 40
0.0312500000000008
 40
0.0312500000000008
 40
0.0625000000000016
 40
0.0625000000000016
 40
0.0937500000000017
 40
0.0937500000000017
 40
0.1250000000000019
 40
0.1250000000000019
 40
0.156250000000002
 40
0.156250000000002
 40
0.1875000000000022
 40
0.1875000000000022
 40
0.2187500000000023
 40
0.2187500000000023
 40
0.2500000000000024
 40
0.2500000000000024
 40
0.2656250000000025
 40
0.2656250000000025
 40
0.2812500000000026
 40
0.2812500000000026
 40
0.3125000000000026
 40
0.3125000000000026
 40
0.3437500000000026
 40
0.3437500000000026
 40
0.3750000000000026
 40
0.3750000000000026
 40
0.4062500000000026
 40
0.4062500000000026
 40
0.4375000000000026
 40
0.4375000000000026
 40
0.4531250000000027
 40
0.4531250000000027
 40
0.4687500000000027
 40
0.4687500000000027
 40
0.5000000000000027
 40
0.5000000000000027
 40
0.5312500000000027
 40
0.5312500000000027
 40
0.5625000000000027
 40
0.5625000000000027
 40
0.5937500000000027
 40
0.5937500000000027
 40
0.6250000000000027
 40
0.6250000000000027
 40
0.6562500000000028
 40
0.6562500000000028
 40
0.6875000000000028
 40
0.6875000000000028
 40
0.7031250000000024
 40
0.7031250000000024
 40
0.7187500000000022
 40
0.7187500000000022
 40
0.7500000000000019
 40
0.7500000000000019
 40
0.7812500000000016
 40
0.7812500000000016
 40
0.8125000000000012
 40
0.8125000000000012
 40
0.843750000000001
 40
0.843750000000001
 40
0.8750000000000008
 40
0.8750000000000008
 40
0.9062500000000007
 40
0.9062500000000007
 40
0.9375000000000004
 40
0.9375000000000004
 40
0.9687500000000002
 40
0.9687500000000002
 40
1.0
 40
1.0
 40
1.031250000000001
 40
1.031250000000001
 10
59.68247701253583
 20
123.0233885069251
 30
0.0
 10
59.68247701253583
 20
123.0233885069251
 30
0.0
 10
59.71301051216128
 20
123.044435657465
 30
0.0
 10
59.83101525154543
 20
123.1224133866668
 30
0.0
 10
59.92004325730814
 20
123.1802164921316
 30
0.0
 10
60.14674299010333
 20
123.3177312883445
 30
0.0
 10
60.28443882738178
 20
123.3974957058734
 30
0.0
 10
60.60876520822786
 20
123.56877383496
 30
0.0
 10
60.79168762690433
 20
123.6582351915794
 30
0.0
 10
61.19654501451152
 20
123.8341651310248
 30
0.0
 10
61.42149226423265
 20
123.9217458220886
 30
0.0
 10
61.90256226558076
 20
124.0814428040523
 30
0.0
 10
62.15728878907437
 20
124.1533745132654
 30
0.0
 10
62.69721401187657
 20
124.2747943174929
 30
0.0
 10
62.9864131905466
 20
124.3245557208269
 30
0.0
 10
63.57062405575375
 20
124.3909940086606
 30
0.0
 10
63.86736960802512
 20
124.4084894100312
 30
0.0
 10
64.31976219851671
 20
124.4092535216697
 30
0.0
 10
64.47249302237482
 20
124.4051620602488
 30
0.0
 10
64.77239418265758
 20
124.3886437498287
 30
0.0
 10
64.92044965610287
 20
124.376258453325
 30
0.0
 10
65.35914197226492
 20
124.3274729031919
 30
0.0
 10
65.64733719448922
 20
124.2787177519101
 30
0.0
 10
66.19296177382093
 20
124.1573044202009
 30
0.0
 10
66.44966143359491
 20
124.0852581991484
 30
0.0
 10
66.93349273978913
 20
123.9254469224487
 30
0.0
 10
67.15852584099984
 20
123.8381518658009
 30
0.0
 10
67.56483483248684
 20
123.6621935071734
 30
0.0
 10
67.74917052008865
 20
123.5722815513789
 30
0.0
 10
68.07427253954246
 20
123.4009832116935
 30
0.0
 10
68.21214079680604
 20
123.3212778407927
 30
0.0
 10
68.38253367848293
 20
123.2181168108752
 30
0.0
 10
68.43320919117001
 20
123.1864748733122
 30
0.0
 10
68.52171031551288
 20
123.1301563665039
 30
0.0
 10
68.55959508316327
 20
123.1054379069843
 30
0.0
 10
68.65008368627632
 20
123.0457048581717
 30
0.0
 10
68.68110829738991
 20
123.0243196801212
 30
0.0
 10
68.6837580231544
 20
123.0225170018555
 30
0.0
 10
68.65410854007531
 20
123.0429673619147
 30
0.0
 10
68.53762939315236
 20
123.1200104153422
 30
0.0
 10
68.45028889171117
 20
123.1768306910245
 30
0.0
 10
68.22346244338351
 20
123.3146636224145
 30
0.0
 10
68.08594670092694
 20
123.3944309925332
 30
0.0
 10
67.76396667252756
 20
123.5648547401148
 30
0.0
 10
67.57923510333505
 20
123.6554390983765
 30
0.0
 10
67.17459980523539
 20
123.8316713474833
 30
0.0
 10
66.95328522302759
 20
123.918199186501
 30
0.0
 10
66.46841526662277
 20
124.0797196640765
 30
0.0
 10
66.21197683086474
 20
124.152231288489
 30
0.0
 10
65.8076800269293
 20
124.2434087788119
 30
0.0
 10
65.66950557568937
 20
124.2709079869793
 30
0.0
 10
65.38591951673534
 20
124.3192830715552
 30
0.0
 10
65.2394487947876
 20
124.3402682602625
 30
0.0
 10
64.7969267406093
 20
124.3909037854766
 30
0.0
 10
64.4992255587864
 20
124.4083793540781
 30
0.0
 10
63.89844054099504
 20
124.4096076644194
 30
0.0
 10
63.59245045930432
 20
124.3926863307848
 30
0.0
 10
63.0054185782544
 20
124.3274538181141
 30
0.0
 10
62.72034024162328
 20
124.2793036771612
 30
0.0
 10
62.17035511544674
 20
124.1569601751608
 30
0.0
 10
61.91315464648199
 20
124.0846072046932
 30
0.0
 10
61.43045766655325
 20
123.9250598864728
 30
0.0
 10
61.20389936053142
 20
123.8371545828755
 30
0.0
 10
60.79666342406178
 20
123.6605976217744
 30
0.0
 10
60.61380149113231
 20
123.5712920060545
 30
0.0
 10
60.28890572439771
 20
123.3999921239192
 30
0.0
 10
60.14922236948109
 20
123.3191752164551
 30
0.0
 10
59.92280952948392
 20
123.1819531715716
 30
0.0
 10
59.83457075445161
 20
123.1247374403425
 30
0.0
 10
59.71329175867721
 20
123.0446461422267
 30
0.0
 10
59.68247701253583
 20
123.0233885069251
 30
0.0
 10
59.68247701253583
 20
123.0233885069251
 30
0.0
  0
SPLINE
  5
24E
330
1F
100
AcDbEntity
  8
0
  6
HIDDEN
 62
     7
370
     0
100
AcDbSpline
210
0.0
220
0.0
230
1.0
 70
    11
 71
     3
 72
    70
 73
    66
 74
     0
 42
0.00000001
 43
0.00000001
 40
-0.03125
 40
-0.03125
 40
0.0
 40
0.0
 40
0.03125
 40
0.03125
 40
0.0625
 40
0.0625
 40
0.09375
 40
0.09375
 40
0.125
 40
0.125
 40
0.15625
 40
0.15625
 40
0.1875
 40
0.1875
 40
0.21875
 40
0.21875
 40
0.25
 40
0.25
 40
0.28125
 40
0.28125
 40
0.3125
 40
0.3125
 40
0.34375
 40
0.34375
 40
0.375
 40
0.375
 40
0.40625
 40
0.40625
 40
0.4375
 40
0.4375
 40
0.46875
 40
0.46875
 40
0.5
 40
0.5
 40
0.53125
 40
0.53125
 40
0.5625
 40
0.5625
 40
0.59375
 40
0.59375
 40
0.625
 40
0.625
 40
0.65625
 40
0.65625
 40
0.6875
 40
0.6875
 40
0.71875
 40
0.71875
 40
0.75
 40
0.75
 40
0.78125
 40
0.78125
 40
0.8125
 40
0.8125
 40
0.84375
 40
0.84375
 40
0.875
 40
0.875
 40
0.90625
 40
0.90625
 40
0.9375
 40
0.9375
 40
0.96875
 40
0.96875
 40
1.0
 40
1.0
 40
1.03125
 40
1.03125
 10
44.69530174263068
 20
111.9090102292638
 30
0.0
 10
44.69530174263068
 20
111.9090102292638
 30
0.0
 10
44.68845407286792
 20
111.9383795832637
 30
0.0
 10
44.66246214658601
 20
112.0532682283699
 30
0.0
 10
44.6430033436819
 20
112.1402475234487
 30
0.0
 10
44.59495848642647
 20
112.3664263669654
 30
0.0
 10
44.56656727809635
 20
112.5046918016016
 30
0.0
 10
44.50439674972189
 20
112.8311932601454
 30
0.0
 10
44.47049221210749
 20
113.0205668134432
 30
0.0
 10
44.40383511016933
 20
113.4342467004286
 30
0.0
 10
44.37073405244032
 20
113.6601537683081
 30
0.0
 10
44.30872502593328
 20
114.1517213831383
 30
0.0
 10
44.28056241706948
 20
114.4121291307494
 30
0.0
 10
44.2336837211488
 20
114.9531994914437
 30
0.0
 10
44.21467891324611
 20
115.2378212043193
 30
0.0
 10
44.18906088414874
 20
115.8191321204149
 30
0.0
 10
44.18251743553416
 20
116.1117430431149
 30
0.0
 10
44.18243696278238
 20
116.7008130221209
 30
0.0
 10
44.18912108139109
 20
117.0000845261573
 30
0.0
 10
44.21457325693384
 20
117.5779712298557
 30
0.0
 10
44.23322295579339
 20
117.8589618243503
 30
0.0
 10
44.28043898437857
 20
118.4050010544758
 30
0.0
 10
44.30883528461293
 20
118.6669887266592
 30
0.0
 10
44.37015448113304
 20
119.1534552252889
 30
0.0
 10
44.40351990061716
 20
119.3818191587377
 30
0.0
 10
44.47081517076246
 20
119.7994563358778
 30
0.0
 10
44.5040586141311
 20
119.984950074613
 30
0.0
 10
44.56605620010548
 20
120.3107445807899
 30
0.0
 10
44.59506155069463
 20
120.452086084851
 30
0.0
 10
44.64300221880816
 20
120.6777608233005
 30
0.0
 10
44.66213534435239
 20
120.7632950660556
 30
0.0
 10
44.68836997422919
 20
120.8792815925679
 30
0.0
 10
44.69527327122556
 20
120.908886934305
 30
0.0
 10
44.69533003268074
 20
120.9091327388666
 30
0.0
 10
44.68869250326838
 20
120.8806883593069
 30
0.0
 10
44.66243298988601
 20
120.7646297197926
 30
0.0
 10
44.64318543180077
 20
120.6785837783174
 30
0.0
 10
44.59546913448946
 20
120.4540437461968
 30
0.0
 10
44.56659657124381
 20
120.3134883058117
 30
0.0
 10
44.50431859541823
 20
119.9864109404128
 30
0.0
 10
44.47109417048713
 20
119.8009800721371
 30
0.0
 10
44.40423570597441
 20
119.3864661534047
 30
0.0
 10
44.37048847525972
 20
119.1558690190027
 30
0.0
 10
44.30910052264713
 20
118.6693265573614
 30
0.0
 10
44.28107248703498
 20
118.4113495040096
 30
0.0
 10
44.23363778754157
 20
117.8647156370117
 30
0.0
 10
44.21474354421337
 20
117.5806157610272
 30
0.0
 10
44.18927773710629
 20
117.0048475535291
 30
0.0
 10
44.18251829126383
 20
116.7087666079483
 30
0.0
 10
44.18243611660066
 20
116.1147876943214
 30
0.0
 10
44.18900477837961
 20
115.8220069427051
 30
0.0
 10
44.214310007113
 20
115.2446171341495
 30
0.0
 10
44.23335916697445
 20
114.9574426165979
 30
0.0
 10
44.28034719074834
 20
114.4141217845246
 30
0.0
 10
44.30828000613251
 20
114.1557097583723
 30
0.0
 10
44.37002331642646
 20
113.6653360137322
 30
0.0
 10
44.4035819469586
 20
113.435934149948
 30
0.0
 10
44.47018583887306
 20
113.0223528693805
 30
0.0
 10
44.50368756878785
 20
112.835028924736
 30
0.0
 10
44.56635461470157
 20
112.505699018296
 30
0.0
 10
44.59475765675697
 20
112.3674112776114
 30
0.0
 10
44.64261615956477
 20
112.142031263616
 30
0.0
 10
44.66218557798793
 20
112.0544993081561
 30
0.0
 10
44.68845074253895
 20
111.9383857945341
 30
0.0
 10
44.69530174263068
 20
111.9090102292638
 30
0.0
 10
44.69530174263068
 20
111.9090102292638
 30
0.0
  0
SPLINE
  5
24F
330
1F
100
AcDbEntity
  8
0
  6
HIDDEN
 62
     7
370
     0
100
AcDbSpline
210
0.0
220
0.0
230
1.0
 70
    11
 71
     3
 72
    76
 73
    72
 74
     0
 42
0.00000001
 43
0.00000001
 40
-0.0312499999999997
 40
-0.0312499999999997
 40
0.0
 40
0.0
 40
0.0312500000000008
 40
0.0312500000000008
 40
0.0625000000000016
 40
0.0625000000000016
 40
0.0937500000000017
 40
0.0937500000000017
 40
0.1250000000000019
 40
0.1250000000000019
 40
0.156250000000002
 40
0.156250000000002
 40
0.1875000000000022
 40
0.1875000000000022
 40
0.2187500000000023
 40
0.2187500000000023
 40
0.2500000000000025
 40
0.2500000000000025
 40
0.2656250000000026
 40
0.2656250000000026
 40
0.2812500000000026
 40
0.2812500000000026
 40
0.3125000000000026
 40
0.3125000000000026
 40
0.3437500000000027
 40
0.3437500000000027
 40
0.3750000000000027
 40
0.3750000000000027
 40
0.4062500000000027
 40
0.4062500000000027
 40
0.4375000000000027
 40
0.4375000000000027
 40
0.4531250000000027
 40
0.4531250000000027
 40
0.4687500000000027
 40
0.4687500000000027
 40
0.5000000000000028
 40
0.5000000000000028
 40
0.5312500000000028
 40
0.5312500000000028
 40
0.5625000000000028
 40
0.5625000000000028
 40
0.5937500000000028
 40
0.5937500000000028
 40
0.6250000000000028
 40
0.6250000000000028
 40
0.6562500000000029
 40
0.6562500000000029
 40
0.6875000000000029
 40
0.6875000000000029
 40
0.7031250000000026
 40
0.7031250000000026
 40
0.7187500000000023
 40
0.7187500000000023
 40
0.750000000000002
 40
0.750000000000002
 40
0.7812500000000017
 40
0.7812500000000017
 40
0.8125000000000013
 40
0.8125000000000013
 40
0.8437500000000011
 40
0.8437500000000011
 40
0.8750000000000009
 40
0.8750000000000009
 40
0.9062500000000008
 40
0.9062500000000008
 40
0.9375000000000006
 40
0.9375000000000006
 40
0.9687500000000003
 40
0.9687500000000003
 40
1.0
 40
1.0
 40
1.031250000000001
 40
1.031250000000001
 10
57.5680987348743
 20
111.9090102292637
 30
0.0
 10
57.5680987348743
 20
111.9090102292637
 30
0.0
 10
57.54705158433437
 20
111.9395437288891
 30
0.0
 10
57.46907385513263
 20
112.0575484682733
 30
0.0
 10
57.41127074966781
 20
112.146576474036
 30
0.0
 10
57.27375595345492
 20
112.3732762068312
 30
0.0
 10
57.19399153592605
 20
112.5109720441096
 30
0.0
 10
57.02271340683943
 20
112.8352984249557
 30
0.0
 10
56.93325205022003
 20
113.0182208436322
 30
0.0
 10
56.75732211077464
 20
113.4230782312394
 30
0.0
 10
56.66974141971087
 20
113.6480254809605
 30
0.0
 10
56.51004443774715
 20
114.1290954823086
 30
0.0
 10
56.43811272853404
 20
114.3838220058022
 30
0.0
 10
56.31669292430649
 20
114.9237472286044
 30
0.0
 10
56.26693152097255
 20
115.2129464072745
 30
0.0
 10
56.20049323313887
 20
115.7971572724816
 30
0.0
 10
56.18299783176831
 20
116.093902824753
 30
0.0
 10
56.18223372012979
 20
116.5462954152446
 30
0.0
 10
56.18632518155071
 20
116.6990262391027
 30
0.0
 10
56.2028434919708
 20
116.9989273993855
 30
0.0
 10
56.21522878847448
 20
117.1469828728307
 30
0.0
 10
56.26401433860758
 20
117.5856751889928
 30
0.0
 10
56.31276948988932
 20
117.8738704112171
 30
0.0
 10
56.43418282159859
 20
118.4194949905488
 30
0.0
 10
56.50622904265107
 20
118.6761946503228
 30
0.0
 10
56.66604031935083
 20
119.160025956517
 30
0.0
 10
56.75333537599861
 20
119.3850590577277
 30
0.0
 10
56.92929373462611
 20
119.7913680492147
 30
0.0
 10
57.01920569042064
 20
119.9757037368165
 30
0.0
 10
57.19050403010601
 20
120.3008057562703
 30
0.0
 10
57.27020940100677
 20
120.4386740135339
 30
0.0
 10
57.37337043092426
 20
120.6090668952108
 30
0.0
 10
57.40501236848728
 20
120.6597424078979
 30
0.0
 10
57.46133087529561
 20
120.7482435322407
 30
0.0
 10
57.48604933481518
 20
120.7861282998911
 30
0.0
 10
57.54578238362776
 20
120.8766169030042
 30
0.0
 10
57.56716756167826
 20
120.9076415141178
 30
0.0
 10
57.568970239944
 20
120.9102912398823
 30
0.0
 10
57.54851987988479
 20
120.8806417568032
 30
0.0
 10
57.47147682645723
 20
120.7641626098802
 30
0.0
 10
57.41465655077501
 20
120.676822108439
 30
0.0
 10
57.27682361938501
 20
120.4499956601114
 30
0.0
 10
57.19705624926622
 20
120.3124799176548
 30
0.0
 10
57.02663250168465
 20
119.9904998892554
 30
0.0
 10
56.93604814342292
 20
119.8057683200629
 30
0.0
 10
56.75981589431611
 20
119.4011330219633
 30
0.0
 10
56.67328805529842
 20
119.1798184397555
 30
0.0
 10
56.51176757772298
 20
118.6949484833507
 30
0.0
 10
56.43925595331046
 20
118.4385100475926
 30
0.0
 10
56.34807846298759
 20
118.0342132436572
 30
0.0
 10
56.32057925482009
 20
117.8960387924173
 30
0.0
 10
56.27220417024422
 20
117.6124527334632
 30
0.0
 10
56.25121898153693
 20
117.4659820115155
 30
0.0
 10
56.20058345632285
 20
117.0234599573372
 30
0.0
 10
56.18310788772131
 20
116.7257587755143
 30
0.0
 10
56.18187957737998
 20
116.1249737577229
 30
0.0
 10
56.19880091101456
 20
115.8189836760322
 30
0.0
 10
56.26403342368535
 20
115.2319517949823
 30
0.0
 10
56.3121835646382
 20
114.9468734583512
 30
0.0
 10
56.43452706663855
 20
114.3968883321746
 30
0.0
 10
56.50688003710619
 20
114.1396878632099
 30
0.0
 10
56.66642735532664
 20
113.6569908832811
 30
0.0
 10
56.75433265892388
 20
113.4304325772593
 30
0.0
 10
56.93088962002501
 20
113.0231966407897
 30
0.0
 10
57.02019523574488
 20
112.8403347078602
 30
0.0
 10
57.1914951178802
 20
112.5154389411256
 30
0.0
 10
57.2723120253443
 20
112.375755586209
 30
0.0
 10
57.40953407022776
 20
112.1493427462118
 30
0.0
 10
57.46674980145693
 20
112.0611039711795
 30
0.0
 10
57.5468410995727
 20
111.9398249754051
 30
0.0
 10
57.5680987348743
 20
111.9090102292637
 30
0.0
 10
57.5680987348743
 20
111.9090102292637
 30
0.0
  0
SPLINE
  5
250
330
1F
100
AcDbEntity
  8
0
  6
HIDDEN
 62
     7
370
     0
100
AcDbSpline
210
0.0
220
0.0
230
1.0
 70
    11
 71
     3
 72
    70
 73
    66
 74
     0
 42
0.00000001
 43
0.00000001
 40
-0.03125
 40
-0.03125
 40
0.0
 40
0.0
 40
0.03125
 40
0.03125
 40
0.0625
 40
0.0625
 40
0.09375
 40
0.09375
 40
0.125
 40
0.125
 40
0.15625
 40
0.15625
 40
0.1875
 40
0.1875
 40
0.21875
 40
0.21875
 40
0.25
 40
0.25
 40
0.28125
 40
0.28125
 40
0.3125
 40
0.3125
 40
0.34375
 40
0.34375
 40
0.375
 40
0.375
 40
0.40625
 40
0.40625
 40
0.4375
 40
0.4375
 40
0.46875
 40
0.46875
 40
0.5
 40
0.5
 40
0.53125
 40
0.53125
 40
0.5625
 40
0.5625
 40
0.59375
 40
0.59375
 40
0.625
 40
0.625
 40
0.65625
 40
0.65625
 40
0.6875
 40
0.6875
 40
0.71875
 40
0.71875
 40
0.75
 40
0.75
 40
0.78125
 40
0.78125
 40
0.8125
 40
0.8125
 40
0.84375
 40
0.84375
 40
0.875
 40
0.875
 40
0.90625
 40
0.90625
 40
0.9375
 40
0.9375
 40
0.96875
 40
0.96875
 40
1.0
 40
1.0
 40
1.03125
 40
1.03125
 10
83.66965228244096
 20
120.9090102292635
 30
0.0
 10
83.66965228244096
 20
120.9090102292635
 30
0.0
 10
83.67649995220373
 20
120.8796408752637
 30
0.0
 10
83.70249187848565
 20
120.7647522301575
 30
0.0
 10
83.72195068138974
 20
120.6777729350786
 30
0.0
 10
83.76999553864519
 20
120.451594091562
 30
0.0
 10
83.7983867469753
 20
120.3133286569257
 30
0.0
 10
83.86055727534976
 20
119.986827198382
 30
0.0
 10
83.89446181296417
 20
119.7974536450842
 30
0.0
 10
83.96111891490231
 20
119.3837737580988
 30
0.0
 10
83.99421997263131
 20
119.1578666902193
 30
0.0
 10
84.05622899913837
 20
118.6662990753891
 30
0.0
 10
84.08439160800215
 20
118.405891327778
 30
0.0
 10
84.13127030392283
 20
117.8648209670836
 30
0.0
 10
84.15027511182555
 20
117.5801992542081
 30
0.0
 10
84.17589314092291
 20
116.9988883381124
 30
0.0
 10
84.18243658953749
 20
116.7062774154124
 30
0.0
 10
84.18251706228928
 20
116.1172074364064
 30
0.0
 10
84.17583294368058
 20
115.81793593237
 30
0.0
 10
84.15038076813782
 20
115.2400492286717
 30
0.0
 10
84.13173106927829
 20
114.9590586341771
 30
0.0
 10
84.08451504069312
 20
114.4130194040516
 30
0.0
 10
84.05611874045874
 20
114.1510317318682
 30
0.0
 10
83.99479954393863
 20
113.6645652332384
 30
0.0
 10
83.96143412445453
 20
113.4362012997897
 30
0.0
 10
83.89413885430923
 20
113.0185641226496
 30
0.0
 10
83.8608954109406
 20
112.8330703839143
 30
0.0
 10
83.79889782496623
 20
112.5072758777374
 30
0.0
 10
83.76989247437706
 20
112.3659343736763
 30
0.0
 10
83.72195180626355
 20
112.1402596352269
 30
0.0
 10
83.70281868071933
 20
112.0547253924718
 30
0.0
 10
83.67658405084252
 20
111.9387388659595
 30
0.0
 10
83.66968075384617
 20
111.9091335242224
 30
0.0
 10
83.66962399239098
 20
111.9088877196607
 30
0.0
 10
83.67626152180334
 20
111.9373320992204
 30
0.0
 10
83.70252103518571
 20
112.0533907387347
 30
0.0
 10
83.72176859327097
 20
112.13943668021
 30
0.0
 10
83.76948489058228
 20
112.3639767123305
 30
0.0
 10
83.79835745382792
 20
112.5045321527157
 30
0.0
 10
83.86063542965353
 20
112.8316095181145
 30
0.0
 10
83.89385985458462
 20
113.0170403863903
 30
0.0
 10
83.96071831909731
 20
113.4315543051226
 30
0.0
 10
83.994465549812
 20
113.6621514395246
 30
0.0
 10
84.05585350242461
 20
114.148693901166
 30
0.0
 10
84.08388153803676
 20
114.4066709545177
 30
0.0
 10
84.13131623753016
 20
114.9533048215157
 30
0.0
 10
84.15021048085838
 20
115.2374046975002
 30
0.0
 10
84.17567628796543
 20
115.8131729049982
 30
0.0
 10
84.1824357338079
 20
116.1092538505791
 30
0.0
 10
84.18251790847104
 20
116.7032327642059
 30
0.0
 10
84.17594924669211
 20
116.9960135158223
 30
0.0
 10
84.15064401795871
 20
117.5734033243779
 30
0.0
 10
84.13159485809726
 20
117.8605778419295
 30
0.0
 10
84.08460683432337
 20
118.4038986740027
 30
0.0
 10
84.0566740189392
 20
118.662310700155
 30
0.0
 10
83.99493070864523
 20
119.1526844447952
 30
0.0
 10
83.96137207811309
 20
119.3820863085793
 30
0.0
 10
83.89476818619863
 20
119.7956675891469
 30
0.0
 10
83.86126645628383
 20
119.9829915337914
 30
0.0
 10
83.7985994103701
 20
120.3123214402314
 30
0.0
 10
83.77019636831471
 20
120.450609180916
 30
0.0
 10
83.72233786550693
 20
120.6759891949114
 30
0.0
 10
83.70276844708374
 20
120.7635211503713
 30
0.0
 10
83.67650328253274
 20
120.8796346639932
 30
0.0
 10
83.66965228244096
 20
120.9090102292635
 30
0.0
 10
83.66965228244096
 20
120.9090102292635
 30
0.0
  0
SPLINE
  5
251
330
1F
100
AcDbEntity
  8
0
  6
HIDDEN
 62
     7
370
     0
100
AcDbSpline
210
0.0
220
0.0
230
1.0
 70
    11
 71
     3
 72
    76
 73
    72
 74
     0
 42
0.00000001
 43
0.00000001
 40
-0.0312500000000007
 40
-0.0312500000000007
 40
0.0
 40
0.0
 40
0.0312499999999994
 40
0.0312499999999994
 40
0.0624999999999988
 40
0.0624999999999988
 40
0.0937499999999982
 40
0.0937499999999982
 40
0.1249999999999976
 40
0.1249999999999976
 40
0.1562499999999971
 40
0.1562499999999971
 40
0.1874999999999964
 40
0.1874999999999964
 40
0.2187499999999959
 40
0.2187499999999959
 40
0.2499999999999953
 40
0.2499999999999953
 40
0.265624999999995
 40
0.265624999999995
 40
0.2812499999999947
 40
0.2812499999999947
 40
0.3124999999999942
 40
0.3124999999999942
 40
0.3437499999999937
 40
0.3437499999999937
 40
0.3749999999999932
 40
0.3749999999999932
 40
0.4062499999999928
 40
0.4062499999999928
 40
0.4374999999999923
 40
0.4374999999999923
 40
0.4531249999999921
 40
0.4531249999999921
 40
0.4687499999999918
 40
0.4687499999999918
 40
0.4999999999999921
 40
0.4999999999999921
 40
0.5312499999999925
 40
0.5312499999999925
 40
0.5624999999999927
 40
0.5624999999999927
 40
0.593749999999993
 40
0.593749999999993
 40
0.6249999999999933
 40
0.6249999999999933
 40
0.6562499999999936
 40
0.6562499999999936
 40
0.6874999999999939
 40
0.6874999999999939
 40
0.7031249999999941
 40
0.7031249999999941
 40
0.7187499999999944
 40
0.7187499999999944
 40
0.7499999999999949
 40
0.7499999999999949
 40
0.7812499999999956
 40
0.7812499999999956
 40
0.8124999999999962
 40
0.8124999999999962
 40
0.8437499999999969
 40
0.8437499999999969
 40
0.8749999999999974
 40
0.8749999999999974
 40
0.9062499999999981
 40
0.9062499999999981
 40
0.9374999999999988
 40
0.9374999999999988
 40
0.9687499999999993
 40
0.9687499999999993
 40
1.0
 40
1.0
 40
1.031249999999999
 40
1.031249999999999
 10
70.79685529019737
 20
120.9090102292636
 30
0.0
 10
70.79685529019736
 20
120.9090102292636
 30
0.0
 10
70.8179024407373
 20
120.8784767296381
 30
0.0
 10
70.89588016993905
 20
120.760471990254
 30
0.0
 10
70.95368327540386
 20
120.6714439844913
 30
0.0
 10
71.09119807161676
 20
120.4447442516961
 30
0.0
 10
71.17096248914564
 20
120.3070484144177
 30
0.0
 10
71.34224061823225
 20
119.9827220335716
 30
0.0
 10
71.43170197485166
 20
119.7997996148951
 30
0.0
 10
71.60763191429706
 20
119.3949422272879
 30
0.0
 10
71.69521260536082
 20
119.1699949775668
 30
0.0
 10
71.85490958732456
 20
118.6889249762187
 30
0.0
 10
71.92684129653766
 20
118.4341984527251
 30
0.0
 10
72.04826110076523
 20
117.8942732299228
 30
0.0
 10
72.09802250409916
 20
117.6050740512528
 30
0.0
 10
72.16446079193285
 20
117.0208631860457
 30
0.0
 10
72.18195619330342
 20
116.7241176337743
 30
0.0
 10
72.18272030494194
 20
116.2717250432827
 30
0.0
 10
72.17862884352103
 20
116.1189942194246
 30
0.0
 10
72.16211053310094
 20
115.8190930591418
 30
0.0
 10
72.14972523659725
 20
115.6710375856966
 30
0.0
 10
72.10093968646416
 20
115.2323452695345
 30
0.0
 10
72.05218453518242
 20
114.9441500473102
 30
0.0
 10
71.93077120347316
 20
114.3985254679785
 30
0.0
 10
71.85872498242067
 20
114.1418258082045
 30
0.0
 10
71.69891370572091
 20
113.6579945020103
 30
0.0
 10
71.61161864907314
 20
113.4329614007996
 30
0.0
 10
71.43566029044564
 20
113.0266524093126
 30
0.0
 10
71.3457483346511
 20
112.8423167217108
 30
0.0
 10
71.17444999496574
 20
112.517214702257
 30
0.0
 10
71.09474462406497
 20
112.3793464449934
 30
0.0
 10
70.99158359414747
 20
112.2089535633165
 30
0.0
 10
70.95994165658445
 20
112.1582780506294
 30
0.0
 10
70.90362314977612
 20
112.0697769262865
 30
0.0
 10
70.87890469025655
 20
112.0318921586361
 30
0.0
 10
70.81917164144397
 20
111.9414035555231
 30
0.0
 10
70.79778646339346
 20
111.9103789444095
 30
0.0
 10
70.79598378512772
 20
111.907729218645
 30
0.0
 10
70.81643414518693
 20
111.9373787017241
 30
0.0
 10
70.89347719861448
 20
112.053857848647
 30
0.0
 10
70.9502974742967
 20
112.1411983500882
 30
0.0
 10
71.0881304056867
 20
112.3680247984159
 30
0.0
 10
71.1678977758055
 20
112.5055405408725
 30
0.0
 10
71.33832152338704
 20
112.8275205692718
 30
0.0
 10
71.42890588164877
 20
113.0122521384643
 30
0.0
 10
71.60513813075559
 20
113.416887436564
 30
0.0
 10
71.69166596977327
 20
113.6382020187718
 30
0.0
 10
71.8531864473487
 20
114.1230719751766
 30
0.0
 10
71.92569807176122
 20
114.3795104109347
 30
0.0
 10
72.01687556208408
 20
114.7838072148701
 30
0.0
 10
72.0443747702516
 20
114.92198166611
 30
0.0
 10
72.09274985482747
 20
115.205567725064
 30
0.0
 10
72.11373504353475
 20
115.3520384470118
 30
0.0
 10
72.16437056874881
 20
115.7945605011901
 30
0.0
 10
72.18184613735035
 20
116.092261683013
 30
0.0
 10
72.18307444769168
 20
116.6930467008043
 30
0.0
 10
72.1661531140571
 20
116.9990367824951
 30
0.0
 10
72.1009206013863
 20
117.586068663545
 30
0.0
 10
72.05277046043346
 20
117.8711470001761
 30
0.0
 10
71.9304269584331
 20
118.4211321263526
 30
0.0
 10
71.85807398796547
 20
118.6783325953174
 30
0.0
 10
71.69852666974501
 20
119.1610295752461
 30
0.0
 10
71.61062136614778
 20
119.387587881268
 30
0.0
 10
71.43406440504664
 20
119.7948238177376
 30
0.0
 10
71.34475878932678
 20
119.9776857506671
 30
0.0
 10
71.17345890719146
 20
120.3025815174017
 30
0.0
 10
71.09264199972735
 20
120.4422648723183
 30
0.0
 10
70.95541995484389
 20
120.6686777123155
 30
0.0
 10
70.89820422361473
 20
120.7569164873478
 30
0.0
 10
70.81811292549895
 20
120.8781954831222
 30
0.0
 10
70.79685529019737
 20
120.9090102292636
 30
0.0
 10
70.79685529019736
 20
120.9090102292636
 30
0.0
  0
SPLINE
  5
252
330
1F
100
AcDbEntity
  8
0
  6
HIDDEN
 62
     7
370
     0
100
AcDbSpline
210
0.0
220
0.0
230
1.0
 70
    11
 71
     3
 72
    70
 73
    66
 74
     0
 42
0.00000001
 43
0.00000001
 40
-0.03125
 40
-0.03125
 40
0.0
 40
0.0
 40
0.03125
 40
0.03125
 40
0.0625
 40
0.0625
 40
0.09375
 40
0.09375
 40
0.125
 40
0.125
 40
0.15625
 40
0.15625
 40
0.1875
 40
0.1875
 40
0.21875
 40
0.21875
 40
0.25
 40
0.25
 40
0.28125
 40
0.28125
 40
0.3125
 40
0.3125
 40
0.34375
 40
0.34375
 40
0.375
 40
0.375
 40
0.40625
 40
0.40625
 40
0.4375
 40
0.4375
 40
0.46875
 40
0.46875
 40
0.5
 40
0.5
 40
0.53125
 40
0.53125
 40
0.5625
 40
0.5625
 40
0.59375
 40
0.59375
 40
0.625
 40
0.625
 40
0.65625
 40
0.65625
 40
0.6875
 40
0.6875
 40
0.71875
 40
0.71875
 40
0.75
 40
0.75
 40
0.78125
 40
0.78125
 40
0.8125
 40
0.8125
 40
0.84375
 40
0.84375
 40
0.875
 40
0.875
 40
0.90625
 40
0.90625
 40
0.9375
 40
0.9375
 40
0.96875
 40
0.96875
 40
1.0
 40
1.0
 40
1.03125
 40
1.03125
 10
59.68247701253587
 20
135.8961854991687
 30
0.0
 10
59.68247701253587
 20
135.8961854991687
 30
0.0
 10
59.71184636653574
 20
135.9030331689315
 30
0.0
 10
59.82673501164191
 20
135.9290250952134
 30
0.0
 10
59.91371430672078
 20
135.9484838981175
 30
0.0
 10
60.13989315023743
 20
135.9965287553729
 30
0.0
 10
60.27815858487369
 20
136.024919963703
 30
0.0
 10
60.6046600434174
 20
136.0870904920775
 30
0.0
 10
60.7940335967152
 20
136.1209950296919
 30
0.0
 10
61.20771348370067
 20
136.1876521316301
 30
0.0
 10
61.43362055158015
 20
136.220753189359
 30
0.0
 10
61.92518816641034
 20
136.2827622158661
 30
0.0
 10
62.18559591402141
 20
136.3109248247299
 30
0.0
 10
62.72666627471578
 20
136.3578035206506
 30
0.0
 10
63.01128798759135
 20
136.3768083285533
 30
0.0
 10
63.59259890368697
 20
136.4024263576507
 30
0.0
 10
63.88520982638697
 20
136.4089698062653
 30
0.0
 10
64.47427980539297
 20
136.409050279017
 30
0.0
 10
64.77355130942934
 20
136.4023661604083
 30
0.0
 10
65.35143801312775
 20
136.3769139848656
 30
0.0
 10
65.63242860762229
 20
136.358264286006
 30
0.0
 10
66.17846783774785
 20
136.3110482574209
 30
0.0
 10
66.44045550993121
 20
136.2826519571865
 30
0.0
 10
66.92692200856096
 20
136.2213327606664
 30
0.0
 10
67.15528594200975
 20
136.1879673411823
 30
0.0
 10
67.57292311914983
 20
136.120672071037
 30
0.0
 10
67.75841685788507
 20
136.0874286276684
 30
0.0
 10
68.08421136406197
 20
136.025431041694
 30
0.0
 10
68.22555286812307
 20
135.9964256911048
 30
0.0
 10
68.45122760657254
 20
135.9484850229913
 30
0.0
 10
68.53676184932763
 20
135.9293518974471
 30
0.0
 10
68.65274837583998
 20
135.9031172675703
 30
0.0
 10
68.68235371757706
 20
135.8962139705739
 30
0.0
 10
68.68259952213869
 20
135.8961572091187
 30
0.0
 10
68.654155142579
 20
135.9027947385311
 30
0.0
 10
68.53809650306468
 20
135.9290542519134
 30
0.0
 10
68.45205056158946
 20
135.9483018099987
 30
0.0
 10
68.2275105294689
 20
135.99601810731
 30
0.0
 10
68.08695508908379
 20
136.0248906705557
 30
0.0
 10
67.7598777236849
 20
136.0871686463813
 30
0.0
 10
67.57444685540915
 20
136.1203930713123
 30
0.0
 10
67.15993293667682
 20
136.1872515358251
 30
0.0
 10
66.92933580227478
 20
136.2209987665398
 30
0.0
 10
66.44279334063346
 20
136.2823867191524
 30
0.0
 10
66.1848162872817
 20
136.3104147547645
 30
0.0
 10
65.63818242028373
 20
136.3578494542579
 30
0.0
 10
65.35408254429927
 20
136.3767436975861
 30
0.0
 10
64.77831433680122
 20
136.4022095046932
 30
0.0
 10
64.48223339122039
 20
136.4089689505356
 30
0.0
 10
63.88825447759348
 20
136.4090511251988
 30
0.0
 10
63.59547372597712
 20
136.4024824634198
 30
0.0
 10
63.01808391742154
 20
136.3771772346864
 30
0.0
 10
62.73090939986994
 20
136.358128074825
 30
0.0
 10
62.18758856779669
 20
136.3111400510511
 30
0.0
 10
61.92917654164441
 20
136.2832072356669
 30
0.0
 10
61.43880279700424
 20
136.221463925373
 30
0.0
 10
61.2094009332201
 20
136.1879052948408
 30
0.0
 10
60.79581965265253
 20
136.1213014029263
 30
0.0
 10
60.60849570800801
 20
136.0877996730115
 30
0.0
 10
60.27916580156803
 20
136.0251326270978
 30
0.0
 10
60.14087806088346
 20
135.9967295850424
 30
0.0
 10
59.91549804688807
 20
135.9488710822346
 30
0.0
 10
59.82796609142812
 20
135.9293016638115
 30
0.0
 10
59.71185257780617
 20
135.9030364992605
 30
0.0
 10
59.68247701253587
 20
135.8961854991687
 30
0.0
 10
59.68247701253587
 20
135.8961854991687
 30
0.0
  0
SPLINE
  5
253
330
1F
100
AcDbEntity
  8
0
  6
HIDDEN
 62
     7
370
     0
100
AcDbSpline
210
0.0
220
0.0
230
1.0
 70
    11
 71
     3
 72
    76
 73
    72
 74
     0
 42
0.00000001
 43
0.00000001
 40
-0.0312500000000006
 40
-0.0312500000000006
 40
0.0
 40
0.0
 40
0.0312499999999995
 40
0.0312499999999995
 40
0.0624999999999989
 40
0.0624999999999989
 40
0.0937499999999984
 40
0.0937499999999984
 40
0.1249999999999978
 40
0.1249999999999978
 40
0.1562499999999973
 40
0.1562499999999973
 40
0.1874999999999968
 40
0.1874999999999968
 40
0.2187499999999962
 40
0.2187499999999962
 40
0.2499999999999957
 40
0.2499999999999957
 40
0.2656249999999954
 40
0.2656249999999954
 40
0.2812499999999952
 40
0.2812499999999952
 40
0.3124999999999948
 40
0.3124999999999948
 40
0.3437499999999944
 40
0.3437499999999944
 40
0.3749999999999939
 40
0.3749999999999939
 40
0.4062499999999935
 40
0.4062499999999935
 40
0.4374999999999931
 40
0.4374999999999931
 40
0.4531249999999929
 40
0.4531249999999929
 40
0.4687499999999927
 40
0.4687499999999927
 40
0.4999999999999929
 40
0.4999999999999929
 40
0.5312499999999931
 40
0.5312499999999931
 40
0.5624999999999933
 40
0.5624999999999933
 40
0.5937499999999936
 40
0.5937499999999936
 40
0.6249999999999938
 40
0.6249999999999938
 40
0.6562499999999941
 40
0.6562499999999941
 40
0.6874999999999943
 40
0.6874999999999943
 40
0.7031249999999946
 40
0.7031249999999946
 40
0.7187499999999949
 40
0.7187499999999949
 40
0.7499999999999954
 40
0.7499999999999954
 40
0.781249999999996
 40
0.781249999999996
 40
0.8124999999999966
 40
0.8124999999999966
 40
0.8437499999999971
 40
0.8437499999999971
 40
0.8749999999999977
 40
0.8749999999999977
 40
0.9062499999999983
 40
0.9062499999999983
 40
0.9374999999999989
 40
0.9374999999999989
 40
0.9687499999999994
 40
0.9687499999999994
 40
1.0
 40
1.0
 40
1.03125
 40
1.03125
 10
59.68247701253587
 20
123.0233885069251
 30
0.0
 10
59.68247701253587
 20
123.0233885069251
 30
0.0
 10
59.71301051216133
 20
123.044435657465
 30
0.0
 10
59.83101525154549
 20
123.1224133866668
 30
0.0
 10
59.92004325730819
 20
123.1802164921316
 30
0.0
 10
60.14674299010338
 20
123.3177312883445
 30
0.0
 10
60.28443882738183
 20
123.3974957058733
 30
0.0
 10
60.60876520822791
 20
123.56877383496
 30
0.0
 10
60.79168762690437
 20
123.6582351915794
 30
0.0
 10
61.19654501451157
 20
123.8341651310248
 30
0.0
 10
61.4214922642327
 20
123.9217458220885
 30
0.0
 10
61.90256226558081
 20
124.0814428040523
 30
0.0
 10
62.15728878907443
 20
124.1533745132654
 30
0.0
 10
62.69721401187662
 20
124.274794317493
 30
0.0
 10
62.98641319054666
 20
124.3245557208269
 30
0.0
 10
63.5706240557538
 20
124.3909940086606
 30
0.0
 10
63.86736960802518
 20
124.4084894100312
 30
0.0
 10
64.31976219851677
 20
124.4092535216697
 30
0.0
 10
64.47249302237488
 20
124.4051620602488
 30
0.0
 10
64.77239418265764
 20
124.3886437498287
 30
0.0
 10
64.92044965610293
 20
124.376258453325
 30
0.0
 10
65.35914197226498
 20
124.3274729031919
 30
0.0
 10
65.64733719448928
 20
124.2787177519101
 30
0.0
 10
66.19296177382098
 20
124.1573044202009
 30
0.0
 10
66.44966143359498
 20
124.0852581991484
 30
0.0
 10
66.93349273978919
 20
123.9254469224487
 30
0.0
 10
67.1585258409999
 20
123.8381518658009
 30
0.0
 10
67.5648348324869
 20
123.6621935071734
 30
0.0
 10
67.74917052008871
 20
123.5722815513789
 30
0.0
 10
68.07427253954252
 20
123.4009832116935
 30
0.0
 10
68.2121407968061
 20
123.3212778407927
 30
0.0
 10
68.38253367848299
 20
123.2181168108752
 30
0.0
 10
68.43320919117006
 20
123.1864748733122
 30
0.0
 10
68.52171031551293
 20
123.1301563665039
 30
0.0
 10
68.55959508316334
 20
123.1054379069843
 30
0.0
 10
68.65008368627637
 20
123.0457048581717
 30
0.0
 10
68.68110829738997
 20
123.0243196801212
 30
0.0
 10
68.68375802315447
 20
123.0225170018555
 30
0.0
 10
68.65410854007538
 20
123.0429673619147
 30
0.0
 10
68.53762939315243
 20
123.1200104153422
 30
0.0
 10
68.45028889171122
 20
123.1768306910245
 30
0.0
 10
68.22346244338357
 20
123.3146636224145
 30
0.0
 10
68.085946700927
 20
123.3944309925332
 30
0.0
 10
67.76396667252762
 20
123.5648547401148
 30
0.0
 10
67.57923510333512
 20
123.6554390983765
 30
0.0
 10
67.17459980523546
 20
123.8316713474833
 30
0.0
 10
66.95328522302766
 20
123.918199186501
 30
0.0
 10
66.46841526662284
 20
124.0797196640765
 30
0.0
 10
66.2119768308648
 20
124.152231288489
 30
0.0
 10
65.80768002692936
 20
124.2434087788119
 30
0.0
 10
65.66950557568944
 20
124.2709079869793
 30
0.0
 10
65.3859195167354
 20
124.3192830715552
 30
0.0
 10
65.23944879478768
 20
124.3402682602625
 30
0.0
 10
64.79692674060934
 20
124.3909037854766
 30
0.0
 10
64.49922555878646
 20
124.4083793540781
 30
0.0
 10
63.8984405409951
 20
124.4096076644194
 30
0.0
 10
63.59245045930439
 20
124.3926863307849
 30
0.0
 10
63.00541857825446
 20
124.3274538181141
 30
0.0
 10
62.72034024162335
 20
124.2793036771612
 30
0.0
 10
62.1703551154468
 20
124.1569601751609
 30
0.0
 10
61.91315464648205
 20
124.0846072046932
 30
0.0
 10
61.43045766655331
 20
123.9250598864728
 30
0.0
 10
61.20389936053147
 20
123.8371545828755
 30
0.0
 10
60.79666342406183
 20
123.6605976217744
 30
0.0
 10
60.61380149113237
 20
123.5712920060545
 30
0.0
 10
60.28890572439776
 20
123.3999921239192
 30
0.0
 10
60.14922236948115
 20
123.3191752164551
 30
0.0
 10
59.92280952948398
 20
123.1819531715716
 30
0.0
 10
59.83457075445166
 20
123.1247374403425
 30
0.0
 10
59.71329175867726
 20
123.0446461422267
 30
0.0
 10
59.68247701253587
 20
123.0233885069251
 30
0.0
 10
59.68247701253587
 20
123.0233885069251
 30
0.0
  0
SPLINE
  5
254
330
1F
100
AcDbEntity
  8
0
  6
HIDDEN
 62
     7
370
     0
100
AcDbSpline
210
0.0
220
0.0
230
1.0
 70
    11
 71
     3
 72
    70
 73
    66
 74
     0
 42
0.00000001
 43
0.00000001
 40
-0.03125
 40
-0.03125
 40
0.0
 40
0.0
 40
0.03125
 40
0.03125
 40
0.0625
 40
0.0625
 40
0.09375
 40
0.09375
 40
0.125
 40
0.125
 40
0.15625
 40
0.15625
 40
0.1875
 40
0.1875
 40
0.21875
 40
0.21875
 40
0.25
 40
0.25
 40
0.28125
 40
0.28125
 40
0.3125
 40
0.3125
 40
0.34375
 40
0.34375
 40
0.375
 40
0.375
 40
0.40625
 40
0.40625
 40
0.4375
 40
0.4375
 40
0.46875
 40
0.46875
 40
0.5
 40
0.5
 40
0.53125
 40
0.53125
 40
0.5625
 40
0.5625
 40
0.59375
 40
0.59375
 40
0.625
 40
0.625
 40
0.65625
 40
0.65625
 40
0.6875
 40
0.6875
 40
0.71875
 40
0.71875
 40
0.75
 40
0.75
 40
0.78125
 40
0.78125
 40
0.8125
 40
0.8125
 40
0.84375
 40
0.84375
 40
0.875
 40
0.875
 40
0.90625
 40
0.90625
 40
0.9375
 40
0.9375
 40
0.96875
 40
0.96875
 40
1.0
 40
1.0
 40
1.03125
 40
1.03125
 10
44.69530174263074
 20
111.9090102292638
 30
0.0
 10
44.69530174263075
 20
111.9090102292638
 30
0.0
 10
44.68845407286798
 20
111.9383795832637
 30
0.0
 10
44.66246214658607
 20
112.0532682283698
 30
0.0
 10
44.64300334368197
 20
112.1402475234487
 30
0.0
 10
44.59495848642653
 20
112.3664263669654
 30
0.0
 10
44.56656727809641
 20
112.5046918016016
 30
0.0
 10
44.50439674972195
 20
112.8311932601454
 30
0.0
 10
44.47049221210755
 20
113.0205668134432
 30
0.0
 10
44.40383511016937
 20
113.4342467004286
 30
0.0
 10
44.37073405244038
 20
113.6601537683081
 30
0.0
 10
44.30872502593333
 20
114.1517213831383
 30
0.0
 10
44.28056241706955
 20
114.4121291307494
 30
0.0
 10
44.23368372114886
 20
114.9531994914437
 30
0.0
 10
44.21467891324616
 20
115.2378212043193
 30
0.0
 10
44.18906088414879
 20
115.8191321204149
 30
0.0
 10
44.18251743553421
 20
116.1117430431149
 30
0.0
 10
44.18243696278242
 20
116.7008130221209
 30
0.0
 10
44.18912108139114
 20
117.0000845261573
 30
0.0
 10
44.21457325693389
 20
117.5779712298557
 30
0.0
 10
44.23322295579344
 20
117.8589618243503
 30
0.0
 10
44.28043898437863
 20
118.4050010544758
 30
0.0
 10
44.30883528461299
 20
118.6669887266592
 30
0.0
 10
44.3701544811331
 20
119.1534552252889
 30
0.0
 10
44.4035199006172
 20
119.3818191587377
 30
0.0
 10
44.47081517076252
 20
119.7994563358778
 30
0.0
 10
44.50405861413116
 20
119.984950074613
 30
0.0
 10
44.56605620010554
 20
120.3107445807899
 30
0.0
 10
44.59506155069469
 20
120.452086084851
 30
0.0
 10
44.64300221880821
 20
120.6777608233005
 30
0.0
 10
44.66213534435245
 20
120.7632950660556
 30
0.0
 10
44.68836997422925
 20
120.8792815925679
 30
0.0
 10
44.69527327122561
 20
120.908886934305
 30
0.0
 10
44.69533003268081
 20
120.9091327388666
 30
0.0
 10
44.68869250326844
 20
120.8806883593069
 30
0.0
 10
44.66243298988609
 20
120.7646297197926
 30
0.0
 10
44.64318543180082
 20
120.6785837783174
 30
0.0
 10
44.59546913448952
 20
120.4540437461968
 30
0.0
 10
44.56659657124387
 20
120.3134883058117
 30
0.0
 10
44.50431859541828
 20
119.9864109404128
 30
0.0
 10
44.47109417048718
 20
119.8009800721371
 30
0.0
 10
44.40423570597447
 20
119.3864661534048
 30
0.0
 10
44.37048847525978
 20
119.1558690190027
 30
0.0
 10
44.30910052264718
 20
118.6693265573614
 30
0.0
 10
44.28107248703503
 20
118.4113495040096
 30
0.0
 10
44.23363778754162
 20
117.8647156370116
 30
0.0
 10
44.21474354421341
 20
117.5806157610272
 30
0.0
 10
44.18927773710634
 20
117.0048475535291
 30
0.0
 10
44.18251829126387
 20
116.7087666079483
 30
0.0
 10
44.18243611660072
 20
116.1147876943214
 30
0.0
 10
44.18900477837966
 20
115.8220069427051
 30
0.0
 10
44.21431000711306
 20
115.2446171341495
 30
0.0
 10
44.23335916697451
 20
114.9574426165979
 30
0.0
 10
44.28034719074839
 20
114.4141217845246
 30
0.0
 10
44.30828000613256
 20
114.1557097583723
 30
0.0
 10
44.37002331642652
 20
113.6653360137322
 30
0.0
 10
44.40358194695866
 20
113.435934149948
 30
0.0
 10
44.47018583887312
 20
113.0223528693805
 30
0.0
 10
44.50368756878791
 20
112.835028924736
 30
0.0
 10
44.56635461470164
 20
112.505699018296
 30
0.0
 10
44.59475765675703
 20
112.3674112776114
 30
0.0
 10
44.64261615956483
 20
112.142031263616
 30
0.0
 10
44.66218557798798
 20
112.0544993081561
 30
0.0
 10
44.688450742539
 20
111.9383857945341
 30
0.0
 10
44.69530174263074
 20
111.9090102292638
 30
0.0
 10
44.69530174263075
 20
111.9090102292638
 30
0.0
  0
SPLINE
  5
255
330
1F
100
AcDbEntity
  8
0
  6
HIDDEN
 62
     7
370
     0
100
AcDbSpline
210
0.0
220
0.0
230
1.0
 70
    11
 71
     3
 72
    76
 73
    72
 74
     0
 42
0.00000001
 43
0.00000001
 40
-0.0312500000000007
 40
-0.0312500000000007
 40
0.0
 40
0.0
 40
0.0312499999999994
 40
0.0312499999999994
 40
0.0624999999999989
 40
0.0624999999999989
 40
0.0937499999999983
 40
0.0937499999999983
 40
0.1249999999999977
 40
0.1249999999999977
 40
0.1562499999999972
 40
0.1562499999999972
 40
0.1874999999999966
 40
0.1874999999999966
 40
0.218749999999996
 40
0.218749999999996
 40
0.2499999999999954
 40
0.2499999999999954
 40
0.2656249999999952
 40
0.2656249999999952
 40
0.2812499999999949
 40
0.2812499999999949
 40
0.3124999999999944
 40
0.3124999999999944
 40
0.3437499999999939
 40
0.3437499999999939
 40
0.3749999999999935
 40
0.3749999999999935
 40
0.4062499999999931
 40
0.4062499999999931
 40
0.4374999999999926
 40
0.4374999999999926
 40
0.4531249999999924
 40
0.4531249999999924
 40
0.4687499999999922
 40
0.4687499999999922
 40
0.4999999999999926
 40
0.4999999999999926
 40
0.5312499999999929
 40
0.5312499999999929
 40
0.5624999999999932
 40
0.5624999999999932
 40
0.5937499999999936
 40
0.5937499999999936
 40
0.6249999999999938
 40
0.6249999999999938
 40
0.6562499999999941
 40
0.6562499999999941
 40
0.6874999999999944
 40
0.6874999999999944
 40
0.7031249999999948
 40
0.7031249999999948
 40
0.718749999999995
 40
0.718749999999995
 40
0.7499999999999956
 40
0.7499999999999956
 40
0.7812499999999961
 40
0.7812499999999961
 40
0.8124999999999967
 40
0.8124999999999967
 40
0.8437499999999972
 40
0.8437499999999972
 40
0.8749999999999977
 40
0.8749999999999977
 40
0.9062499999999982
 40
0.9062499999999982
 40
0.9374999999999988
 40
0.9374999999999988
 40
0.9687499999999993
 40
0.9687499999999993
 40
1.0
 40
1.0
 40
1.031249999999999
 40
1.031249999999999
 10
57.56809873487435
 20
111.9090102292637
 30
0.0
 10
57.56809873487435
 20
111.9090102292637
 30
0.0
 10
57.54705158433443
 20
111.9395437288891
 30
0.0
 10
57.46907385513269
 20
112.0575484682733
 30
0.0
 10
57.41127074966787
 20
112.146576474036
 30
0.0
 10
57.27375595345498
 20
112.3732762068312
 30
0.0
 10
57.19399153592611
 20
112.5109720441096
 30
0.0
 10
57.02271340683949
 20
112.8352984249557
 30
0.0
 10
56.93325205022009
 20
113.0182208436322
 30
0.0
 10
56.75732211077469
 20
113.4230782312394
 30
0.0
 10
56.66974141971094
 20
113.6480254809605
 30
0.0
 10
56.51004443774721
 20
114.1290954823086
 30
0.0
 10
56.4381127285341
 20
114.3838220058022
 30
0.0
 10
56.31669292430654
 20
114.9237472286044
 30
0.0
 10
56.26693152097261
 20
115.2129464072745
 30
0.0
 10
56.20049323313893
 20
115.7971572724816
 30
0.0
 10
56.18299783176837
 20
116.093902824753
 30
0.0
 10
56.18223372012984
 20
116.5462954152446
 30
0.0
 10
56.18632518155077
 20
116.6990262391027
 30
0.0
 10
56.20284349197085
 20
116.9989273993855
 30
0.0
 10
56.21522878847453
 20
117.1469828728307
 30
0.0
 10
56.26401433860764
 20
117.5856751889928
 30
0.0
 10
56.31276948988938
 20
117.8738704112171
 30
0.0
 10
56.43418282159863
 20
118.4194949905488
 30
0.0
 10
56.50622904265111
 20
118.6761946503228
 30
0.0
 10
56.66604031935087
 20
119.160025956517
 30
0.0
 10
56.75333537599867
 20
119.3850590577277
 30
0.0
 10
56.92929373462616
 20
119.7913680492147
 30
0.0
 10
57.0192056904207
 20
119.9757037368165
 30
0.0
 10
57.19050403010606
 20
120.3008057562703
 30
0.0
 10
57.27020940100683
 20
120.4386740135339
 30
0.0
 10
57.37337043092431
 20
120.6090668952108
 30
0.0
 10
57.40501236848733
 20
120.6597424078979
 30
0.0
 10
57.46133087529567
 20
120.7482435322407
 30
0.0
 10
57.48604933481524
 20
120.7861282998911
 30
0.0
 10
57.54578238362782
 20
120.8766169030042
 30
0.0
 10
57.56716756167832
 20
120.9076415141178
 30
0.0
 10
57.56897023994406
 20
120.9102912398823
 30
0.0
 10
57.54851987988484
 20
120.8806417568032
 30
0.0
 10
57.4714768264573
 20
120.7641626098802
 30
0.0
 10
57.41465655077506
 20
120.676822108439
 30
0.0
 10
57.27682361938507
 20
120.4499956601114
 30
0.0
 10
57.19705624926627
 20
120.3124799176548
 30
0.0
 10
57.02663250168472
 20
119.9904998892554
 30
0.0
 10
56.93604814342299
 20
119.805768320063
 30
0.0
 10
56.75981589431617
 20
119.4011330219633
 30
0.0
 10
56.67328805529849
 20
119.1798184397555
 30
0.0
 10
56.51176757772304
 20
118.6949484833507
 30
0.0
 10
56.43925595331051
 20
118.4385100475926
 30
0.0
 10
56.34807846298766
 20
118.0342132436572
 30
0.0
 10
56.32057925482015
 20
117.8960387924173
 30
0.0
 10
56.27220417024427
 20
117.6124527334632
 30
0.0
 10
56.25121898153699
 20
117.4659820115155
 30
0.0
 10
56.20058345632292
 20
117.0234599573372
 30
0.0
 10
56.18310788772137
 20
116.7257587755143
 30
0.0
 10
56.18187957738004
 20
116.1249737577229
 30
0.0
 10
56.19880091101462
 20
115.8189836760322
 30
0.0
 10
56.26403342368541
 20
115.2319517949823
 30
0.0
 10
56.31218356463825
 20
114.9468734583512
 30
0.0
 10
56.4345270666386
 20
114.3968883321746
 30
0.0
 10
56.50688003710625
 20
114.1396878632099
 30
0.0
 10
56.6664273553267
 20
113.6569908832811
 30
0.0
 10
56.75433265892394
 20
113.4304325772593
 30
0.0
 10
56.93088962002507
 20
113.0231966407897
 30
0.0
 10
57.02019523574494
 20
112.8403347078602
 30
0.0
 10
57.19149511788025
 20
112.5154389411256
 30
0.0
 10
57.27231202534436
 20
112.375755586209
 30
0.0
 10
57.40953407022782
 20
112.1493427462118
 30
0.0
 10
57.46674980145699
 20
112.0611039711795
 30
0.0
 10
57.54684109957275
 20
111.9398249754051
 30
0.0
 10
57.56809873487435
 20
111.9090102292637
 30
0.0
 10
57.56809873487435
 20
111.9090102292637
 30
0.0
  0
SPLINE
  5
256
330
1F
100
AcDbEntity
  8
0
  6
HIDDEN
 62
     7
370
     0
100
AcDbSpline
210
0.0
220
0.0
230
1.0
 70
    11
 71
     3
 72
    70
 73
    66
 74
     0
 42
0.00000001
 43
0.00000001
 40
-0.03125
 40
-0.03125
 40
0.0
 40
0.0
 40
0.03125
 40
0.03125
 40
0.0625
 40
0.0625
 40
0.09375
 40
0.09375
 40
0.125
 40
0.125
 40
0.15625
 40
0.15625
 40
0.1875
 40
0.1875
 40
0.21875
 40
0.21875
 40
0.25
 40
0.25
 40
0.28125
 40
0.28125
 40
0.3125
 40
0.3125
 40
0.34375
 40
0.34375
 40
0.375
 40
0.375
 40
0.40625
 40
0.40625
 40
0.4375
 40
0.4375
 40
0.46875
 40
0.46875
 40
0.5
 40
0.5
 40
0.53125
 40
0.53125
 40
0.5625
 40
0.5625
 40
0.59375
 40
0.59375
 40
0.625
 40
0.625
 40
0.65625
 40
0.65625
 40
0.6875
 40
0.6875
 40
0.71875
 40
0.71875
 40
0.75
 40
0.75
 40
0.78125
 40
0.78125
 40
0.8125
 40
0.8125
 40
0.84375
 40
0.84375
 40
0.875
 40
0.875
 40
0.90625
 40
0.90625
 40
0.9375
 40
0.9375
 40
0.96875
 40
0.96875
 40
1.0
 40
1.0
 40
1.03125
 40
1.03125
 10
83.66965228244104
 20
120.9090102292635
 30
0.0
 10
83.66965228244102
 20
120.9090102292635
 30
0.0
 10
83.6764999522038
 20
120.8796408752637
 30
0.0
 10
83.70249187848572
 20
120.7647522301575
 30
0.0
 10
83.7219506813898
 20
120.6777729350786
 30
0.0
 10
83.76999553864522
 20
120.451594091562
 30
0.0
 10
83.79838674697535
 20
120.3133286569257
 30
0.0
 10
83.86055727534982
 20
119.986827198382
 30
0.0
 10
83.89446181296421
 20
119.7974536450842
 30
0.0
 10
83.96111891490236
 20
119.3837737580988
 30
0.0
 10
83.9942199726314
 20
119.1578666902193
 30
0.0
 10
84.05622899913844
 20
118.6662990753891
 30
0.0
 10
84.0843916080022
 20
118.405891327778
 30
0.0
 10
84.13127030392289
 20
117.8648209670836
 30
0.0
 10
84.15027511182561
 20
117.5801992542081
 30
0.0
 10
84.17589314092297
 20
116.9988883381124
 30
0.0
 10
84.18243658953756
 20
116.7062774154124
 30
0.0
 10
84.18251706228935
 20
116.1172074364064
 30
0.0
 10
84.17583294368065
 20
115.81793593237
 30
0.0
 10
84.15038076813788
 20
115.2400492286717
 30
0.0
 10
84.13173106927835
 20
114.9590586341771
 30
0.0
 10
84.08451504069318
 20
114.4130194040516
 30
0.0
 10
84.0561187404588
 20
114.1510317318682
 30
0.0
 10
83.9947995439387
 20
113.6645652332384
 30
0.0
 10
83.9614341244546
 20
113.4362012997897
 30
0.0
 10
83.89413885430929
 20
113.0185641226496
 30
0.0
 10
83.86089541094066
 20
112.8330703839143
 30
0.0
 10
83.79889782496629
 20
112.5072758777375
 30
0.0
 10
83.76989247437712
 20
112.3659343736764
 30
0.0
 10
83.7219518062636
 20
112.1402596352269
 30
0.0
 10
83.70281868071939
 20
112.0547253924718
 30
0.0
 10
83.67658405084258
 20
111.9387388659595
 30
0.0
 10
83.66968075384622
 20
111.9091335242224
 30
0.0
 10
83.66962399239104
 20
111.9088877196607
 30
0.0
 10
83.6762615218034
 20
111.9373320992204
 30
0.0
 10
83.70252103518577
 20
112.0533907387347
 30
0.0
 10
83.72176859327102
 20
112.13943668021
 30
0.0
 10
83.76948489058233
 20
112.3639767123305
 30
0.0
 10
83.79835745382799
 20
112.5045321527157
 30
0.0
 10
83.86063542965357
 20
112.8316095181145
 30
0.0
 10
83.89385985458466
 20
113.0170403863903
 30
0.0
 10
83.96071831909738
 20
113.4315543051226
 30
0.0
 10
83.99446554981206
 20
113.6621514395246
 30
0.0
 10
84.05585350242467
 20
114.148693901166
 30
0.0
 10
84.08388153803682
 20
114.4066709545177
 30
0.0
 10
84.13131623753021
 20
114.9533048215157
 30
0.0
 10
84.15021048085842
 20
115.2374046975002
 30
0.0
 10
84.17567628796549
 20
115.8131729049982
 30
0.0
 10
84.18243573380796
 20
116.1092538505791
 30
0.0
 10
84.1825179084711
 20
116.7032327642059
 30
0.0
 10
84.17594924669217
 20
116.9960135158223
 30
0.0
 10
84.15064401795877
 20
117.5734033243779
 30
0.0
 10
84.13159485809732
 20
117.8605778419295
 30
0.0
 10
84.08460683432342
 20
118.4038986740027
 30
0.0
 10
84.05667401893926
 20
118.662310700155
 30
0.0
 10
83.99493070864528
 20
119.1526844447952
 30
0.0
 10
83.96137207811314
 20
119.3820863085793
 30
0.0
 10
83.89476818619868
 20
119.7956675891469
 30
0.0
 10
83.86126645628389
 20
119.9829915337914
 30
0.0
 10
83.79859941037016
 20
120.3123214402314
 30
0.0
 10
83.77019636831477
 20
120.450609180916
 30
0.0
 10
83.72233786550697
 20
120.6759891949114
 30
0.0
 10
83.7027684470838
 20
120.7635211503713
 30
0.0
 10
83.67650328253279
 20
120.8796346639932
 30
0.0
 10
83.66965228244104
 20
120.9090102292635
 30
0.0
 10
83.66965228244102
 20
120.9090102292635
 30
0.0
  0
SPLINE
  5
257
330
1F
100
AcDbEntity
  8
0
  6
HIDDEN
 62
     7
370
     0
100
AcDbSpline
210
0.0
220
0.0
230
1.0
 70
    11
 71
     3
 72
    76
 73
    72
 74
     0
 42
0.00000001
 43
0.00000001
 40
-0.0312500000000001
 40
-0.0312500000000001
 40
0.0
 40
0.0
 40
0.0312499999999998
 40
0.0312499999999998
 40
0.0624999999999995
 40
0.0624999999999995
 40
0.0937499999999993
 40
0.0937499999999993
 40
0.124999999999999
 40
0.124999999999999
 40
0.1562499999999988
 40
0.1562499999999988
 40
0.1874999999999986
 40
0.1874999999999986
 40
0.2187499999999983
 40
0.2187499999999983
 40
0.249999999999998
 40
0.249999999999998
 40
0.2656249999999979
 40
0.2656249999999979
 40
0.2812499999999978
 40
0.2812499999999978
 40
0.3124999999999974
 40
0.3124999999999974
 40
0.3437499999999972
 40
0.3437499999999972
 40
0.3749999999999969
 40
0.3749999999999969
 40
0.4062499999999966
 40
0.4062499999999966
 40
0.4374999999999963
 40
0.4374999999999963
 40
0.4531249999999962
 40
0.4531249999999962
 40
0.468749999999996
 40
0.468749999999996
 40
0.4999999999999964
 40
0.4999999999999964
 40
0.5312499999999969
 40
0.5312499999999969
 40
0.5624999999999973
 40
0.5624999999999973
 40
0.5937499999999977
 40
0.5937499999999977
 40
0.6249999999999981
 40
0.6249999999999981
 40
0.6562499999999986
 40
0.6562499999999986
 40
0.687499999999999
 40
0.687499999999999
 40
0.7031249999999991
 40
0.7031249999999991
 40
0.7187499999999992
 40
0.7187499999999992
 40
0.7499999999999992
 40
0.7499999999999992
 40
0.7812499999999993
 40
0.7812499999999993
 40
0.8124999999999994
 40
0.8124999999999994
 40
0.8437499999999996
 40
0.8437499999999996
 40
0.8749999999999997
 40
0.8749999999999997
 40
0.9062499999999998
 40
0.9062499999999998
 40
0.9374999999999998
 40
0.9374999999999998
 40
0.9687499999999999
 40
0.9687499999999999
 40
1.0
 40
1.0
 40
1.03125
 40
1.03125
 10
70.79685529019743
 20
120.9090102292636
 30
0.0
 10
70.79685529019743
 20
120.9090102292636
 30
0.0
 10
70.81790244073737
 20
120.8784767296381
 30
0.0
 10
70.8958801699391
 20
120.760471990254
 30
0.0
 10
70.95368327540392
 20
120.6714439844913
 30
0.0
 10
71.09119807161682
 20
120.4447442516961
 30
0.0
 10
71.17096248914568
 20
120.3070484144176
 30
0.0
 10
71.34224061823231
 20
119.9827220335716
 30
0.0
 10
71.43170197485173
 20
119.7997996148951
 30
0.0
 10
71.60763191429712
 20
119.3949422272879
 30
0.0
 10
71.69521260536088
 20
119.1699949775668
 30
0.0
 10
71.8549095873246
 20
118.6889249762187
 30
0.0
 10
71.92684129653772
 20
118.4341984527251
 30
0.0
 10
72.04826110076529
 20
117.8942732299228
 30
0.0
 10
72.09802250409922
 20
117.6050740512528
 30
0.0
 10
72.16446079193291
 20
117.0208631860457
 30
0.0
 10
72.18195619330346
 20
116.7241176337743
 30
0.0
 10
72.182720304942
 20
116.2717250432827
 30
0.0
 10
72.17862884352108
 20
116.1189942194246
 30
0.0
 10
72.162110533101
 20
115.8190930591418
 30
0.0
 10
72.14972523659732
 20
115.6710375856966
 30
0.0
 10
72.1009396864642
 20
115.2323452695345
 30
0.0
 10
72.05218453518248
 20
114.9441500473102
 30
0.0
 10
71.93077120347321
 20
114.3985254679785
 30
0.0
 10
71.85872498242074
 20
114.1418258082045
 30
0.0
 10
71.69891370572098
 20
113.6579945020103
 30
0.0
 10
71.61161864907318
 20
113.4329614007996
 30
0.0
 10
71.4356602904457
 20
113.0266524093126
 30
0.0
 10
71.34574833465116
 20
112.8423167217108
 30
0.0
 10
71.1744499949658
 20
112.517214702257
 30
0.0
 10
71.09474462406504
 20
112.3793464449934
 30
0.0
 10
70.99158359414753
 20
112.2089535633165
 30
0.0
 10
70.9599416565845
 20
112.1582780506294
 30
0.0
 10
70.90362314977618
 20
112.0697769262865
 30
0.0
 10
70.8789046902566
 20
112.0318921586361
 30
0.0
 10
70.81917164144403
 20
111.9414035555231
 30
0.0
 10
70.79778646339352
 20
111.9103789444095
 30
0.0
 10
70.79598378512777
 20
111.907729218645
 30
0.0
 10
70.81643414518699
 20
111.9373787017241
 30
0.0
 10
70.89347719861452
 20
112.053857848647
 30
0.0
 10
70.95029747429675
 20
112.1411983500882
 30
0.0
 10
71.08813040568674
 20
112.3680247984159
 30
0.0
 10
71.16789777580556
 20
112.5055405408725
 30
0.0
 10
71.3383215233871
 20
112.8275205692718
 30
0.0
 10
71.42890588164883
 20
113.0122521384643
 30
0.0
 10
71.60513813075563
 20
113.416887436564
 30
0.0
 10
71.69166596977333
 20
113.6382020187718
 30
0.0
 10
71.85318644734876
 20
114.1230719751766
 30
0.0
 10
71.92569807176127
 20
114.3795104109346
 30
0.0
 10
72.01687556208414
 20
114.7838072148701
 30
0.0
 10
72.04437477025164
 20
114.92198166611
 30
0.0
 10
72.09274985482752
 20
115.205567725064
 30
0.0
 10
72.1137350435348
 20
115.3520384470118
 30
0.0
 10
72.16437056874888
 20
115.7945605011901
 30
0.0
 10
72.1818461373504
 20
116.092261683013
 30
0.0
 10
72.18307444769175
 20
116.6930467008043
 30
0.0
 10
72.16615311405717
 20
116.9990367824951
 30
0.0
 10
72.10092060138636
 20
117.586068663545
 30
0.0
 10
72.0527704604335
 20
117.8711470001761
 30
0.0
 10
71.93042695843316
 20
118.4211321263526
 30
0.0
 10
71.85807398796551
 20
118.6783325953174
 30
0.0
 10
71.69852666974506
 20
119.1610295752461
 30
0.0
 10
71.61062136614783
 20
119.387587881268
 30
0.0
 10
71.4340644050467
 20
119.7948238177376
 30
0.0
 10
71.34475878932682
 20
119.9776857506671
 30
0.0
 10
71.17345890719152
 20
120.3025815174017
 30
0.0
 10
71.0926419997274
 20
120.4422648723183
 30
0.0
 10
70.95541995484395
 20
120.6686777123155
 30
0.0
 10
70.89820422361477
 20
120.7569164873478
 30
0.0
 10
70.81811292549901
 20
120.8781954831222
 30
0.0
 10
70.79685529019743
 20
120.9090102292636
 30
0.0
 10
70.79685529019743
 20
120.9090102292636
 30
0.0
  0
SPLINE
  5
258
330
1F
100
AcDbEntity
  8
0
  6
HIDDEN
 62
     7
370
     0
100
AcDbSpline
210
0.0
220
0.0
230
1.0
 70
    11
 71
     3
 72
    70
 73
    66
 74
     0
 42
0.00000001
 43
0.00000001
 40
-0.03125
 40
-0.03125
 40
0.0
 40
0.0
 40
0.03125
 40
0.03125
 40
0.0625
 40
0.0625
 40
0.09375
 40
0.09375
 40
0.125
 40
0.125
 40
0.15625
 40
0.15625
 40
0.1875
 40
0.1875
 40
0.21875
 40
0.21875
 40
0.2500000000000001
 40
0.2500000000000001
 40
0.2812500000000001
 40
0.2812500000000001
 40
0.3125000000000002
 40
0.3125000000000002
 40
0.3437500000000002
 40
0.3437500000000002
 40
0.3750000000000001
 40
0.3750000000000001
 40
0.4062500000000001
 40
0.4062500000000001
 40
0.4375000000000001
 40
0.4375000000000001
 40
0.4687500000000001
 40
0.4687500000000001
 40
0.5000000000000001
 40
0.5000000000000001
 40
0.5312500000000001
 40
0.5312500000000001
 40
0.5625000000000001
 40
0.5625000000000001
 40
0.5937500000000001
 40
0.5937500000000001
 40
0.6250000000000001
 40
0.6250000000000001
 40
0.6562500000000001
 40
0.6562500000000001
 40
0.6875000000000001
 40
0.6875000000000001
 40
0.7187500000000001
 40
0.7187500000000001
 40
0.75
 40
0.75
 40
0.78125
 40
0.78125
 40
0.8125
 40
0.8125
 40
0.84375
 40
0.84375
 40
0.875
 40
0.875
 40
0.90625
 40
0.90625
 40
0.9375
 40
0.9375
 40
0.96875
 40
0.96875
 40
1.0
 40
1.0
 40
1.03125
 40
1.03125
 10
59.68247701253593
 20
135.8961854991687
 30
0.0
 10
59.68247701253593
 20
135.8961854991687
 30
0.0
 10
59.7118463665358
 20
135.9030331689315
 30
0.0
 10
59.82673501164196
 20
135.9290250952134
 30
0.0
 10
59.91371430672083
 20
135.9484838981175
 30
0.0
 10
60.13989315023748
 20
135.9965287553729
 30
0.0
 10
60.27815858487374
 20
136.024919963703
 30
0.0
 10
60.60466004341746
 20
136.0870904920775
 30
0.0
 10
60.79403359671525
 20
136.1209950296919
 30
0.0
 10
61.20771348370072
 20
136.1876521316301
 30
0.0
 10
61.43362055158021
 20
136.2207531893591
 30
0.0
 10
61.92518816641039
 20
136.2827622158661
 30
0.0
 10
62.18559591402146
 20
136.3109248247299
 30
0.0
 10
62.72666627471583
 20
136.3578035206506
 30
0.0
 10
63.01128798759141
 20
136.3768083285533
 30
0.0
 10
63.59259890368703
 20
136.4024263576507
 30
0.0
 10
63.88520982638703
 20
136.4089698062653
 30
0.0
 10
64.47427980539302
 20
136.4090502790171
 30
0.0
 10
64.7735513094294
 20
136.4023661604083
 30
0.0
 10
65.3514380131278
 20
136.3769139848656
 30
0.0
 10
65.63242860762234
 20
136.3582642860061
 30
0.0
 10
66.17846783774789
 20
136.3110482574209
 30
0.0
 10
66.44045550993127
 20
136.2826519571865
 30
0.0
 10
66.92692200856102
 20
136.2213327606664
 30
0.0
 10
67.15528594200981
 20
136.1879673411823
 30
0.0
 10
67.57292311914989
 20
136.120672071037
 30
0.0
 10
67.75841685788511
 20
136.0874286276684
 30
0.0
 10
68.08421136406203
 20
136.025431041694
 30
0.0
 10
68.22555286812312
 20
135.9964256911048
 30
0.0
 10
68.4512276065726
 20
135.9484850229913
 30
0.0
 10
68.53676184932769
 20
135.9293518974471
 30
0.0
 10
68.65274837584002
 20
135.9031172675703
 30
0.0
 10
68.6823537175771
 20
135.8962139705739
 30
0.0
 10
68.68259952213874
 20
135.8961572091187
 30
0.0
 10
68.65415514257906
 20
135.9027947385311
 30
0.0
 10
68.53809650306474
 20
135.9290542519134
 30
0.0
 10
68.4520505615895
 20
135.9483018099987
 30
0.0
 10
68.22751052946896
 20
135.99601810731
 30
0.0
 10
68.08695508908384
 20
136.0248906705557
 30
0.0
 10
67.75987772368495
 20
136.0871686463813
 30
0.0
 10
67.5744468554092
 20
136.1203930713123
 30
0.0
 10
67.15993293667687
 20
136.1872515358251
 30
0.0
 10
66.92933580227484
 20
136.2209987665398
 30
0.0
 10
66.44279334063351
 20
136.2823867191524
 30
0.0
 10
66.18481628728176
 20
136.3104147547645
 30
0.0
 10
65.63818242028378
 20
136.3578494542579
 30
0.0
 10
65.35408254429933
 20
136.3767436975861
 30
0.0
 10
64.77831433680126
 20
136.4022095046932
 30
0.0
 10
64.48223339122045
 20
136.4089689505356
 30
0.0
 10
63.88825447759354
 20
136.4090511251988
 30
0.0
 10
63.59547372597718
 20
136.4024824634198
 30
0.0
 10
63.0180839174216
 20
136.3771772346864
 30
0.0
 10
62.73090939987
 20
136.358128074825
 30
0.0
 10
62.18758856779675
 20
136.3111400510511
 30
0.0
 10
61.92917654164447
 20
136.2832072356669
 30
0.0
 10
61.43880279700429
 20
136.221463925373
 30
0.0
 10
61.20940093322015
 20
136.1879052948408
 30
0.0
 10
60.79581965265258
 20
136.1213014029263
 30
0.0
 10
60.60849570800806
 20
136.0877996730115
 30
0.0
 10
60.27916580156809
 20
136.0251326270978
 30
0.0
 10
60.14087806088352
 20
135.9967295850424
 30
0.0
 10
59.91549804688813
 20
135.9488710822346
 30
0.0
 10
59.82796609142819
 20
135.9293016638115
 30
0.0
 10
59.71185257780623
 20
135.9030364992605
 30
0.0
 10
59.68247701253593
 20
135.8961854991687
 30
0.0
 10
59.68247701253593
 20
135.8961854991687
 30
0.0
  0
SPLINE
  5
259
330
1F
100
AcDbEntity
  8
0
  6
HIDDEN
 62
     7
370
     0
100
AcDbSpline
210
0.0
220
0.0
230
1.0
 70
    11
 71
     3
 72
    76
 73
    72
 74
     0
 42
0.00000001
 43
0.00000001
 40
-0.0312499999999998
 40
-0.0312499999999998
 40
0.0
 40
0.0
 40
0.0312500000000003
 40
0.0312500000000003
 40
0.0625000000000006
 40
0.0625000000000006
 40
0.093750000000001
 40
0.093750000000001
 40
0.1250000000000013
 40
0.1250000000000013
 40
0.1562500000000016
 40
0.1562500000000016
 40
0.1875000000000019
 40
0.1875000000000019
 40
0.2187500000000022
 40
0.2187500000000022
 40
0.2500000000000026
 40
0.2500000000000026
 40
0.2656250000000027
 40
0.2656250000000027
 40
0.2812500000000029
 40
0.2812500000000029
 40
0.3125000000000031
 40
0.3125000000000031
 40
0.3437500000000034
 40
0.3437500000000034
 40
0.3750000000000037
 40
0.3750000000000037
 40
0.4062500000000039
 40
0.4062500000000039
 40
0.4375000000000042
 40
0.4375000000000042
 40
0.4531250000000043
 40
0.4531250000000043
 40
0.4687500000000045
 40
0.4687500000000045
 40
0.5000000000000041
 40
0.5000000000000041
 40
0.5312500000000037
 40
0.5312500000000037
 40
0.5625000000000032
 40
0.5625000000000032
 40
0.5937500000000028
 40
0.5937500000000028
 40
0.6250000000000022
 40
0.6250000000000022
 40
0.6562500000000018
 40
0.6562500000000018
 40
0.6875000000000013
 40
0.6875000000000013
 40
0.7031250000000013
 40
0.7031250000000013
 40
0.7187500000000012
 40
0.7187500000000012
 40
0.7500000000000011
 40
0.7500000000000011
 40
0.781250000000001
 40
0.781250000000001
 40
0.8125000000000009
 40
0.8125000000000009
 40
0.8437500000000008
 40
0.8437500000000008
 40
0.8750000000000006
 40
0.8750000000000006
 40
0.9062500000000004
 40
0.9062500000000004
 40
0.9375000000000003
 40
0.9375000000000003
 40
0.9687500000000002
 40
0.9687500000000002
 40
1.0
 40
1.0
 40
1.03125
 40
1.03125
 10
59.68247701253593
 20
123.0233885069251
 30
0.0
 10
59.68247701253593
 20
123.0233885069251
 30
0.0
 10
59.7130105121614
 20
123.044435657465
 30
0.0
 10
59.83101525154555
 20
123.1224133866668
 30
0.0
 10
59.92004325730826
 20
123.1802164921316
 30
0.0
 10
60.14674299010343
 20
123.3177312883445
 30
0.0
 10
60.28443882738189
 20
123.3974957058734
 30
0.0
 10
60.60876520822797
 20
123.56877383496
 30
0.0
 10
60.79168762690443
 20
123.6582351915794
 30
0.0
 10
61.19654501451163
 20
123.8341651310248
 30
0.0
 10
61.42149226423275
 20
123.9217458220886
 30
0.0
 10
61.90256226558086
 20
124.0814428040523
 30
0.0
 10
62.15728878907449
 20
124.1533745132654
 30
0.0
 10
62.6972140118767
 20
124.274794317493
 30
0.0
 10
62.98641319054671
 20
124.3245557208269
 30
0.0
 10
63.57062405575387
 20
124.3909940086606
 30
0.0
 10
63.86736960802524
 20
124.4084894100312
 30
0.0
 10
64.31976219851683
 20
124.4092535216697
 30
0.0
 10
64.47249302237493
 20
124.4051620602487
 30
0.0
 10
64.77239418265769
 20
124.3886437498287
 30
0.0
 10
64.920449656103
 20
124.376258453325
 30
0.0
 10
65.35914197226504
 20
124.3274729031919
 30
0.0
 10
65.64733719448935
 20
124.2787177519101
 30
0.0
 10
66.19296177382104
 20
124.1573044202009
 30
0.0
 10
66.44966143359504
 20
124.0852581991484
 30
0.0
 10
66.93349273978924
 20
123.9254469224487
 30
0.0
 10
67.15852584099996
 20
123.8381518658009
 30
0.0
 10
67.56483483248695
 20
123.6621935071734
 30
0.0
 10
67.74917052008877
 20
123.5722815513788
 30
0.0
 10
68.07427253954256
 20
123.4009832116935
 30
0.0
 10
68.21214079680615
 20
123.3212778407927
 30
0.0
 10
68.38253367848304
 20
123.2181168108752
 30
0.0
 10
68.43320919117012
 20
123.1864748733122
 30
0.0
 10
68.52171031551298
 20
123.1301563665039
 30
0.0
 10
68.55959508316339
 20
123.1054379069843
 30
0.0
 10
68.65008368627643
 20
123.0457048581717
 30
0.0
 10
68.68110829739003
 20
123.0243196801212
 30
0.0
 10
68.68375802315452
 20
123.0225170018555
 30
0.0
 10
68.65410854007544
 20
123.0429673619147
 30
0.0
 10
68.53762939315247
 20
123.1200104153422
 30
0.0
 10
68.45028889171128
 20
123.1768306910245
 30
0.0
 10
68.22346244338362
 20
123.3146636224145
 30
0.0
 10
68.08594670092705
 20
123.3944309925333
 30
0.0
 10
67.76396667252767
 20
123.5648547401148
 30
0.0
 10
67.57923510333518
 20
123.6554390983765
 30
0.0
 10
67.17459980523552
 20
123.8316713474833
 30
0.0
 10
66.95328522302772
 20
123.918199186501
 30
0.0
 10
66.4684152666229
 20
124.0797196640765
 30
0.0
 10
66.21197683086486
 20
124.152231288489
 30
0.0
 10
65.8076800269294
 20
124.2434087788119
 30
0.0
 10
65.6695055756895
 20
124.2709079869793
 30
0.0
 10
65.38591951673546
 20
124.3192830715552
 30
0.0
 10
65.23944879478773
 20
124.3402682602625
 30
0.0
 10
64.7969267406094
 20
124.3909037854766
 30
0.0
 10
64.49922555878652
 20
124.4083793540781
 30
0.0
 10
63.89844054099515
 20
124.4096076644194
 30
0.0
 10
63.59245045930444
 20
124.3926863307849
 30
0.0
 10
63.00541857825451
 20
124.3274538181141
 30
0.0
 10
62.72034024162339
 20
124.2793036771612
 30
0.0
 10
62.17035511544685
 20
124.1569601751608
 30
0.0
 10
61.9131546464821
 20
124.0846072046932
 30
0.0
 10
61.43045766655336
 20
123.9250598864728
 30
0.0
 10
61.20389936053154
 20
123.8371545828755
 30
0.0
 10
60.7966634240619
 20
123.6605976217744
 30
0.0
 10
60.61380149113243
 20
123.5712920060545
 30
0.0
 10
60.28890572439783
 20
123.3999921239192
 30
0.0
 10
60.14922236948121
 20
123.3191752164551
 30
0.0
 10
59.92280952948404
 20
123.1819531715716
 30
0.0
 10
59.83457075445173
 20
123.1247374403425
 30
0.0
 10
59.71329175867731
 20
123.0446461422267
 30
0.0
 10
59.68247701253593
 20
123.0233885069251
 30
0.0
 10
59.68247701253593
 20
123.0233885069251
 30
0.0
  0
SPLINE
  5
25A
330
1F
100
AcDbEntity
  8
0
  6
HIDDEN
 62
     7
370
     0
100
AcDbSpline
210
0.0
220
0.0
230
1.0
 70
    11
 71
     3
 72
    70
 73
    66
 74
     0
 42
0.00000001
 43
0.00000001
 40
-0.03125
 40
-0.03125
 40
0.0
 40
0.0
 40
0.03125
 40
0.03125
 40
0.0625
 40
0.0625
 40
0.09375
 40
0.09375
 40
0.125
 40
0.125
 40
0.15625
 40
0.15625
 40
0.1875
 40
0.1875
 40
0.21875
 40
0.21875
 40
0.25
 40
0.25
 40
0.28125
 40
0.28125
 40
0.3125
 40
0.3125
 40
0.34375
 40
0.34375
 40
0.375
 40
0.375
 40
0.40625
 40
0.40625
 40
0.4375
 40
0.4375
 40
0.46875
 40
0.46875
 40
0.5
 40
0.5
 40
0.53125
 40
0.53125
 40
0.5625
 40
0.5625
 40
0.59375
 40
0.59375
 40
0.625
 40
0.625
 40
0.65625
 40
0.65625
 40
0.6875
 40
0.6875
 40
0.71875
 40
0.71875
 40
0.75
 40
0.75
 40
0.78125
 40
0.78125
 40
0.8125
 40
0.8125
 40
0.84375
 40
0.84375
 40
0.875
 40
0.875
 40
0.90625
 40
0.90625
 40
0.9375
 40
0.9375
 40
0.96875
 40
0.96875
 40
1.0
 40
1.0
 40
1.03125
 40
1.03125
 10
44.69530174263079
 20
111.9090102292638
 30
0.0
 10
44.6953017426308
 20
111.9090102292638
 30
0.0
 10
44.68845407286804
 20
111.9383795832637
 30
0.0
 10
44.66246214658611
 20
112.0532682283699
 30
0.0
 10
44.64300334368201
 20
112.1402475234487
 30
0.0
 10
44.59495848642658
 20
112.3664263669654
 30
0.0
 10
44.56656727809646
 20
112.5046918016016
 30
0.0
 10
44.50439674972201
 20
112.8311932601454
 30
0.0
 10
44.47049221210761
 20
113.0205668134432
 30
0.0
 10
44.40383511016943
 20
113.4342467004286
 30
0.0
 10
44.37073405244043
 20
113.6601537683081
 30
0.0
 10
44.30872502593338
 20
114.1517213831383
 30
0.0
 10
44.2805624170696
 20
114.4121291307494
 30
0.0
 10
44.23368372114891
 20
114.9531994914437
 30
0.0
 10
44.21467891324622
 20
115.2378212043193
 30
0.0
 10
44.18906088414885
 20
115.8191321204149
 30
0.0
 10
44.18251743553427
 20
116.1117430431149
 30
0.0
 10
44.18243696278248
 20
116.7008130221209
 30
0.0
 10
44.18912108139119
 20
117.0000845261573
 30
0.0
 10
44.21457325693395
 20
117.5779712298557
 30
0.0
 10
44.23322295579349
 20
117.8589618243503
 30
0.0
 10
44.28043898437868
 20
118.4050010544758
 30
0.0
 10
44.30883528461305
 20
118.6669887266592
 30
0.0
 10
44.37015448113317
 20
119.1534552252889
 30
0.0
 10
44.40351990061726
 20
119.3818191587377
 30
0.0
 10
44.47081517076258
 20
119.7994563358778
 30
0.0
 10
44.5040586141312
 20
119.984950074613
 30
0.0
 10
44.56605620010559
 20
120.3107445807899
 30
0.0
 10
44.59506155069475
 20
120.452086084851
 30
0.0
 10
44.64300221880827
 20
120.6777608233005
 30
0.0
 10
44.6621353443525
 20
120.7632950660556
 30
0.0
 10
44.6883699742293
 20
120.8792815925679
 30
0.0
 10
44.69527327122567
 20
120.908886934305
 30
0.0
 10
44.69533003268085
 20
120.9091327388666
 30
0.0
 10
44.6886925032685
 20
120.8806883593069
 30
0.0
 10
44.66243298988613
 20
120.7646297197926
 30
0.0
 10
44.64318543180087
 20
120.6785837783174
 30
0.0
 10
44.59546913448957
 20
120.4540437461968
 30
0.0
 10
44.56659657124393
 20
120.3134883058117
 30
0.0
 10
44.50431859541834
 20
119.9864109404128
 30
0.0
 10
44.47109417048723
 20
119.8009800721371
 30
0.0
 10
44.40423570597453
 20
119.3864661534047
 30
0.0
 10
44.37048847525983
 20
119.1558690190027
 30
0.0
 10
44.30910052264723
 20
118.6693265573614
 30
0.0
 10
44.28107248703508
 20
118.4113495040096
 30
0.0
 10
44.23363778754167
 20
117.8647156370117
 30
0.0
 10
44.21474354421347
 20
117.5806157610272
 30
0.0
 10
44.18927773710639
 20
117.0048475535291
 30
0.0
 10
44.18251829126392
 20
116.7087666079483
 30
0.0
 10
44.18243611660078
 20
116.1147876943214
 30
0.0
 10
44.18900477837972
 20
115.8220069427051
 30
0.0
 10
44.21431000711311
 20
115.2446171341495
 30
0.0
 10
44.23335916697456
 20
114.9574426165979
 30
0.0
 10
44.28034719074846
 20
114.4141217845246
 30
0.0
 10
44.30828000613261
 20
114.1557097583723
 30
0.0
 10
44.37002331642658
 20
113.6653360137322
 30
0.0
 10
44.40358194695872
 20
113.435934149948
 30
0.0
 10
44.47018583887318
 20
113.0223528693805
 30
0.0
 10
44.50368756878796
 20
112.835028924736
 30
0.0
 10
44.56635461470168
 20
112.505699018296
 30
0.0
 10
44.59475765675707
 20
112.3674112776114
 30
0.0
 10
44.64261615956488
 20
112.142031263616
 30
0.0
 10
44.66218557798804
 20
112.0544993081561
 30
0.0
 10
44.68845074253905
 20
111.9383857945341
 30
0.0
 10
44.69530174263079
 20
111.9090102292638
 30
0.0
 10
44.6953017426308
 20
111.9090102292638
 30
0.0
  0
SPLINE
  5
25B
330
1F
100
AcDbEntity
  8
0
  6
HIDDEN
 62
     7
370
     0
100
AcDbSpline
210
0.0
220
0.0
230
1.0
 70
    11
 71
     3
 72
    76
 73
    72
 74
     0
 42
0.00000001
 43
0.00000001
 40
-0.0312499999999997
 40
-0.0312499999999997
 40
0.0
 40
0.0
 40
0.0312500000000004
 40
0.0312500000000004
 40
0.0625000000000007
 40
0.0625000000000007
 40
0.0937500000000011
 40
0.0937500000000011
 40
0.1250000000000015
 40
0.1250000000000015
 40
0.1562500000000018
 40
0.1562500000000018
 40
0.1875000000000022
 40
0.1875000000000022
 40
0.2187500000000026
 40
0.2187500000000026
 40
0.2500000000000029
 40
0.2500000000000029
 40
0.2656250000000031
 40
0.2656250000000031
 40
0.2812500000000033
 40
0.2812500000000033
 40
0.3125000000000036
 40
0.3125000000000036
 40
0.3437500000000038
 40
0.3437500000000038
 40
0.3750000000000041
 40
0.3750000000000041
 40
0.4062500000000043
 40
0.4062500000000043
 40
0.4375000000000046
 40
0.4375000000000046
 40
0.4531250000000047
 40
0.4531250000000047
 40
0.4687500000000048
 40
0.4687500000000048
 40
0.5000000000000043
 40
0.5000000000000043
 40
0.5312500000000039
 40
0.5312500000000039
 40
0.5625000000000036
 40
0.5625000000000036
 40
0.5937500000000031
 40
0.5937500000000031
 40
0.6250000000000027
 40
0.6250000000000027
 40
0.6562500000000023
 40
0.6562500000000023
 40
0.6875000000000019
 40
0.6875000000000019
 40
0.7031250000000019
 40
0.7031250000000019
 40
0.7187500000000018
 40
0.7187500000000018
 40
0.7500000000000016
 40
0.7500000000000016
 40
0.7812500000000014
 40
0.7812500000000014
 40
0.8125000000000012
 40
0.8125000000000012
 40
0.843750000000001
 40
0.843750000000001
 40
0.8750000000000009
 40
0.8750000000000009
 40
0.9062500000000007
 40
0.9062500000000007
 40
0.9375000000000004
 40
0.9375000000000004
 40
0.9687500000000003
 40
0.9687500000000003
 40
1.0
 40
1.0
 40
1.03125
 40
1.03125
 10
57.56809873487441
 20
111.9090102292637
 30
0.0
 10
57.56809873487441
 20
111.9090102292637
 30
0.0
 10
57.54705158433447
 20
111.9395437288891
 30
0.0
 10
57.46907385513274
 20
112.0575484682733
 30
0.0
 10
57.41127074966793
 20
112.146576474036
 30
0.0
 10
57.27375595345503
 20
112.3732762068312
 30
0.0
 10
57.19399153592617
 20
112.5109720441096
 30
0.0
 10
57.02271340683954
 20
112.8352984249557
 30
0.0
 10
56.93325205022014
 20
113.0182208436322
 30
0.0
 10
56.75732211077475
 20
113.4230782312394
 30
0.0
 10
56.66974141971098
 20
113.6480254809605
 30
0.0
 10
56.51004443774726
 20
114.1290954823086
 30
0.0
 10
56.43811272853416
 20
114.3838220058022
 30
0.0
 10
56.3166929243066
 20
114.9237472286044
 30
0.0
 10
56.26693152097267
 20
115.2129464072745
 30
0.0
 10
56.20049323313899
 20
115.7971572724816
 30
0.0
 10
56.18299783176842
 20
116.093902824753
 30
0.0
 10
56.1822337201299
 20
116.5462954152446
 30
0.0
 10
56.18632518155083
 20
116.6990262391027
 30
0.0
 10
56.20284349197091
 20
116.9989273993855
 30
0.0
 10
56.21522878847458
 20
117.1469828728307
 30
0.0
 10
56.26401433860769
 20
117.5856751889928
 30
0.0
 10
56.31276948988943
 20
117.8738704112171
 30
0.0
 10
56.43418282159869
 20
118.4194949905488
 30
0.0
 10
56.50622904265117
 20
118.6761946503228
 30
0.0
 10
56.66604031935093
 20
119.160025956517
 30
0.0
 10
56.75333537599872
 20
119.3850590577277
 30
0.0
 10
56.92929373462621
 20
119.7913680492147
 30
0.0
 10
57.01920569042075
 20
119.9757037368165
 30
0.0
 10
57.19050403010612
 20
120.3008057562703
 30
0.0
 10
57.27020940100687
 20
120.4386740135339
 30
0.0
 10
57.37337043092437
 20
120.6090668952108
 30
0.0
 10
57.40501236848739
 20
120.6597424078979
 30
0.0
 10
57.46133087529572
 20
120.7482435322407
 30
0.0
 10
57.48604933481529
 20
120.7861282998911
 30
0.0
 10
57.54578238362787
 20
120.8766169030042
 30
0.0
 10
57.56716756167837
 20
120.9076415141178
 30
0.0
 10
57.56897023994411
 20
120.9102912398823
 30
0.0
 10
57.5485198798849
 20
120.8806417568032
 30
0.0
 10
57.47147682645735
 20
120.7641626098802
 30
0.0
 10
57.41465655077512
 20
120.676822108439
 30
0.0
 10
57.27682361938513
 20
120.4499956601114
 30
0.0
 10
57.19705624926632
 20
120.3124799176548
 30
0.0
 10
57.02663250168477
 20
119.9904998892554
 30
0.0
 10
56.93604814342304
 20
119.805768320063
 30
0.0
 10
56.75981589431623
 20
119.4011330219633
 30
0.0
 10
56.67328805529853
 20
119.1798184397555
 30
0.0
 10
56.5117675777231
 20
118.6949484833507
 30
0.0
 10
56.43925595331057
 20
118.4385100475926
 30
0.0
 10
56.34807846298771
 20
118.0342132436572
 30
0.0
 10
56.32057925482021
 20
117.8960387924173
 30
0.0
 10
56.27220417024432
 20
117.6124527334633
 30
0.0
 10
56.25121898153704
 20
117.4659820115155
 30
0.0
 10
56.20058345632297
 20
117.0234599573372
 30
0.0
 10
56.18310788772143
 20
116.7257587755143
 30
0.0
 10
56.18187957738009
 20
116.1249737577229
 30
0.0
 10
56.19880091101467
 20
115.8189836760322
 30
0.0
 10
56.26403342368547
 20
115.2319517949823
 30
0.0
 10
56.3121835646383
 20
114.9468734583512
 30
0.0
 10
56.43452706663866
 20
114.3968883321746
 30
0.0
 10
56.50688003710631
 20
114.1396878632099
 30
0.0
 10
56.66642735532675
 20
113.6569908832811
 30
0.0
 10
56.75433265892399
 20
113.4304325772593
 30
0.0
 10
56.93088962002513
 20
113.0231966407897
 30
0.0
 10
57.02019523574499
 20
112.8403347078602
 30
0.0
 10
57.19149511788031
 20
112.5154389411256
 30
0.0
 10
57.27231202534441
 20
112.375755586209
 30
0.0
 10
57.40953407022788
 20
112.1493427462118
 30
0.0
 10
57.46674980145704
 20
112.0611039711795
 30
0.0
 10
57.54684109957281
 20
111.9398249754051
 30
0.0
 10
57.56809873487441
 20
111.9090102292637
 30
0.0
 10
57.56809873487441
 20
111.9090102292637
 30
0.0
  0
LINE
  5
25C
330
1F
100
AcDbEntity
  8
0
  6
HIDDEN
 62
     7
370
     0
100
AcDbLine
 10
83.6696522824
 20
120.9090102293
 30
0.0
 11
70.7968552902
 21
120.9090102293
 31
0.0
  0
LINE
  5
25D
330
1F
100
AcDbEntity
  8
0
  6
HIDDEN
 62
     7
370
     0
100
AcDbLine
 10
70.8081335093
 20
111.9090102293
 30
0.0
 11
83.6832098035
 21
111.9090102293
 31
0.0
  0
LINE
  5
25E
330
1F
100
AcDbEntity
  8
0
  6
HIDDEN
 62
     7
370
     0
100
AcDbLine
 10
59.6824770125
 20
135.8961854992
 30
0.0
 11
59.6824770125
 21
123.0233885069
 31
0.0
  0
LINE
  5
25F
330
1F
100
AcDbEntity
  8
0
  6
HIDDEN
 62
     7
370
     0
100
AcDbLine
 10
68.6824770125
 20
123.034666726
 30
0.0
 11
68.6824770125
 21
135.8984988769
 31
0.0
  0
LINE
  5
260
330
1F
100
AcDbEntity
  8
0
  6
HIDDEN
 62
     7
370
     0
100
AcDbLine
 10
44.6953017426
 20
111.9090102293
 30
0.0
 11
57.5680987349
 21
111.9090102293
 31
0.0
  0
LINE
  5
261
330
1F
100
AcDbEntity
  8
0
  6
HIDDEN
 62
     7
370
     0
100
AcDbLine
 10
57.5568205158
 20
120.9090102293
 30
0.0
 11
44.6817442216
 21
120.9090102293
 31
0.0
  0
LINE
  5
262
330
1F
100
AcDbEntity
  8
0
  6
HIDDEN
 62
     7
370
     0
100
AcDbLine
 10
83.6696522824
 20
120.9090102293
 30
0.0
 11
70.7968552902
 21
120.9090102293
 31
0.0
  0
LINE
  5
263
330
1F
100
AcDbEntity
  8
0
  6
HIDDEN
 62
     7
370
     0
100
AcDbLine
 10
70.8081335093
 20
111.9090102293
 30
0.0
 11
83.6832098035
 21
111.9090102293
 31
0.0
  0
LINE
  5
264
330
1F
100
AcDbEntity
  8
0
  6
HIDDEN
 62
     7
370
     0
100
AcDbLine
 10
59.6824770125
 20
135.8961854992
 30
0.0
 11
59.6824770125
 21
123.0233885069
 31
0.0
  0
LINE
  5
265
330
1F
100
AcDbEntity
  8
0
  6
HIDDEN
 62
     7
370
     0
100
AcDbLine
 10
68.6824770125
 20
123.034666726
 30
0.0
 11
68.6824770125
 21
135.8984988769
 31
0.0
  0
LINE
  5
266
330
1F
100
AcDbEntity
  8
0
  6
HIDDEN
 62
     7
370
     0
100
AcDbLine
 10
44.6953017426
 20
111.9090102293
 30
0.0
 11
57.5680987349
 21
111.9090102293
 31
0.0
  0
LINE
  5
267
330
1F
100
AcDbEntity
  8
0
  6
HIDDEN
 62
     7
370
     0
100
AcDbLine
 10
57.5568205158
 20
120.9090102293
 30
0.0
 11
44.6817442216
 21
120.9090102293
 31
0.0
  0
LINE
  5
268
330
1F
100
AcDbEntity
  8
0
  6
HIDDEN
 62
     7
370
     0
100
AcDbLine
 10
83.6696522824
 20
120.9090102293
 30
0.0
 11
70.7968552902
 21
120.9090102293
 31
0.0
  0
LINE
  5
269
330
1F
100
AcDbEntity
  8
0
  6
HIDDEN
 62
     7
370
     0
100
AcDbLine
 10
70.8081335093
 20
111.9090102293
 30
0.0
 11
83.6832098035
 21
111.9090102293
 31
0.0
  0
LINE
  5
26A
330
1F
100
AcDbEntity
  8
0
  6
HIDDEN
 62
     7
370
     0
100
AcDbLine
 10
59.6824770125
 20
135.8961854992
 30
0.0
 11
59.6824770125
 21
123.0233885069
 31
0.0
  0
LINE
  5
26B
330
1F
100
AcDbEntity
  8
0
  6
HIDDEN
 62
     7
370
     0
100
AcDbLine
 10
68.6824770125
 20
123.034666726
 30
0.0
 11
68.6824770125
 21
135.8984988769
 31
0.0
  0
LINE
  5
26C
330
1F
100
AcDbEntity
  8
0
  6
HIDDEN
 62
     7
370
     0
100
AcDbLine
 10
44.6953017426
 20
111.9090102293
 30
0.0
 11
57.5680987349
 21
111.9090102293
 31
0.0
  0
LINE
  5
26D
330
1F
100
AcDbEntity
  8
0
  6
HIDDEN
 62
     7
370
     0
100
AcDbLine
 10
57.5568205158
 20
120.9090102293
 30
0.0
 11
44.6817442216
 21
120.9090102293
 31
0.0
  0
INSERT
  5
279
330
1F
100
AcDbEntity
  8
VERMASSUNG
100
AcDbBlockReference
  2
SW_CENTERMARKSYMBOL_1
 10
64.1824770125
 20
116.4090102293
 30
0.0
  0
OLE2FRAME
  5
27A
330
1F
100
AcDbEntity
  8
0
100
AcDbOle2Frame
 70
     2
  3
Bitmap Image
 10
13.8511154363
 20
38.264191557
 30
0.0
 11
51.6290888628
 21
31.9806341108
 31
0.0
 71
     2
 72
     0
 73
     1
 90
    12928
310
80552BED0767C5B32B40DDAF6807D121434000000000000000006FFBDDFB85D0
310
4940DDAF6807D121434000000000000000006FFBDDFB85D04940416F4BD60AFB
310
3F4000000000000000002BED0767C5B32B40416F4BD60AFB3F40000000000000
310
0000000000000100000000010000010000000100000000000100000000320000
310
D0CF11E0A1B11AE1000000000000000000000000000000003E000300FEFF0900
310
0600000000000000000000000100000001000000000000000010000002000000
310
01000000FEFFFFFF0000000000000000FFFFFFFFFFFFFFFFFFFFFFFFFFFFFFFF
310
FFFFFFFFFFFFFFFFFFFFFFFFFFFFFFFFFFFFFFFFFFFFFFFFFFFFFFFFFFFFFFFF
310
FFFFFFFFFFFFFFFFFFFFFFFFFFFFFFFFFFFFFFFFFFFFFFFFFFFFFFFFFFFFFFFF
310
FFFFFFFFFFFFFFFFFFFFFFFFFFFFFFFFFFFFFFFFFFFFFFFFFFFFFFFFFFFFFFFF
310
FFFFFFFFFFFFFFFFFFFFFFFFFFFFFFFFFFFFFFFFFFFFFFFFFFFFFFFFFFFFFFFF
310
FFFFFFFFFFFFFFFFFFFFFFFFFFFFFFFFFFFFFFFFFFFFFFFFFFFFFFFFFFFFFFFF
310
FFFFFFFFFFFFFFFFFFFFFFFFFFFFFFFFFFFFFFFFFFFFFFFFFFFFFFFFFFFFFFFF
310
FFFFFFFFFFFFFFFFFFFFFFFFFFFFFFFFFFFFFFFFFFFFFFFFFFFFFFFFFFFFFFFF
310
FFFFFFFFFFFFFFFFFFFFFFFFFFFFFFFFFFFFFFFFFFFFFFFFFFFFFFFFFFFFFFFF
310
FFFFFFFFFFFFFFFFFFFFFFFFFFFFFFFFFFFFFFFFFFFFFFFFFFFFFFFFFFFFFFFF
310
FFFFFFFFFFFFFFFFFFFFFFFFFFFFFFFFFFFFFFFFFFFFFFFFFFFFFFFFFFFFFFFF
310
FFFFFFFFFFFFFFFFFFFFFFFFFFFFFFFFFFFFFFFFFFFFFFFFFFFFFFFFFFFFFFFF
310
FFFFFFFFFFFFFFFFFFFFFFFFFFFFFFFFFFFFFFFFFFFFFFFFFFFFFFFFFFFFFFFF
310
FFFFFFFFFFFFFFFFFFFFFFFFFFFFFFFFFFFFFFFFFFFFFFFFFFFFFFFFFFFFFFFF
310
FDFFFFFFFEFFFFFFFEFFFFFFFEFFFFFF05000000060000000700000008000000
310
090000000A0000000B0000000C0000000D0000000E0000000F00000010000000
310
11000000120000001300000014000000150000001600000017000000FEFFFFFF
310
FFFFFFFFFFFFFFFFFFFFFFFFFFFFFFFFFFFFFFFFFFFFFFFFFFFFFFFFFFFFFFFF
310
FFFFFFFFFFFFFFFFFFFFFFFFFFFFFFFFFFFFFFFFFFFFFFFFFFFFFFFFFFFFFFFF
310
FFFFFFFFFFFFFFFFFFFFFFFFFFFFFFFFFFFFFFFFFFFFFFFFFFFFFFFFFFFFFFFF
310
FFFFFFFFFFFFFFFFFFFFFFFFFFFFFFFFFFFFFFFFFFFFFFFFFFFFFFFFFFFFFFFF
310
FFFFFFFFFFFFFFFFFFFFFFFFFFFFFFFFFFFFFFFFFFFFFFFFFFFFFFFFFFFFFFFF
310
FFFFFFFFFFFFFFFFFFFFFFFFFFFFFFFFFFFFFFFFFFFFFFFFFFFFFFFFFFFFFFFF
310
FFFFFFFFFFFFFFFFFFFFFFFFFFFFFFFFFFFFFFFFFFFFFFFFFFFFFFFFFFFFFFFF
310
FFFFFFFFFFFFFFFFFFFFFFFFFFFFFFFFFFFFFFFFFFFFFFFFFFFFFFFFFFFFFFFF
310
FFFFFFFFFFFFFFFFFFFFFFFFFFFFFFFFFFFFFFFFFFFFFFFFFFFFFFFFFFFFFFFF
310
FFFFFFFFFFFFFFFFFFFFFFFFFFFFFFFFFFFFFFFFFFFFFFFFFFFFFFFFFFFFFFFF
310
FFFFFFFFFFFFFFFFFFFFFFFFFFFFFFFFFFFFFFFFFFFFFFFFFFFFFFFFFFFFFFFF
310
FFFFFFFFFFFFFFFFFFFFFFFFFFFFFFFFFFFFFFFFFFFFFFFFFFFFFFFFFFFFFFFF
310
FFFFFFFFFFFFFFFFFFFFFFFFFFFFFFFFFFFFFFFFFFFFFFFFFFFFFFFFFFFFFFFF
310
52006F006F007400200045006E00740072007900000000000000000000000000
310
0000000000000000000000000000000000000000000000000000000000000000
310
16000500FFFFFFFFFFFFFFFF020000000A00030000000000C000000000000046
310
00000000000000000000000070504EA87D08CB0103000000C000000000000000
310
01004F006C006500000000000000000000000000000000000000000000000000
310
0000000000000000000000000000000000000000000000000000000000000000
310
0A000200FFFFFFFFFFFFFFFFFFFFFFFF00000000000000000000000000000000
310
0000000000000000000000000000000000000000000000001400000000000000
310
010043006F006D0070004F0062006A0000000000000000000000000000000000
310
0000000000000000000000000000000000000000000000000000000000000000
310
120002010100000003000000FFFFFFFF00000000000000000000000000000000
310
0000000000000000000000000000000000000000010000004D00000000000000
310
01004F006C006500310030004E00610074006900760065000000000000000000
310
0000000000000000000000000000000000000000000000000000000000000000
310
1A000200FFFFFFFFFFFFFFFFFFFFFFFF00000000000000000000000000000000
310
0000000000000000000000000000000000000000040000002426000000000000
310
FEFFFFFF02000000FEFFFFFFFFFFFFFFFFFFFFFFFFFFFFFFFFFFFFFFFFFFFFFF
310
FFFFFFFFFFFFFFFFFFFFFFFFFFFFFFFFFFFFFFFFFFFFFFFFFFFFFFFFFFFFFFFF
310
FFFFFFFFFFFFFFFFFFFFFFFFFFFFFFFFFFFFFFFFFFFFFFFFFFFFFFFFFFFFFFFF
310
FFFFFFFFFFFFFFFFFFFFFFFFFFFFFFFFFFFFFFFFFFFFFFFFFFFFFFFFFFFFFFFF
310
FFFFFFFFFFFFFFFFFFFFFFFFFFFFFFFFFFFFFFFFFFFFFFFFFFFFFFFFFFFFFFFF
310
FFFFFFFFFFFFFFFFFFFFFFFFFFFFFFFFFFFFFFFFFFFFFFFFFFFFFFFFFFFFFFFF
310
FFFFFFFFFFFFFFFFFFFFFFFFFFFFFFFFFFFFFFFFFFFFFFFFFFFFFFFFFFFFFFFF
310
FFFFFFFFFFFFFFFFFFFFFFFFFFFFFFFFFFFFFFFFFFFFFFFFFFFFFFFFFFFFFFFF
310
FFFFFFFFFFFFFFFFFFFFFFFFFFFFFFFFFFFFFFFFFFFFFFFFFFFFFFFFFFFFFFFF
310
FFFFFFFFFFFFFFFFFFFFFFFFFFFFFFFFFFFFFFFFFFFFFFFFFFFFFFFFFFFFFFFF
310
FFFFFFFFFFFFFFFFFFFFFFFFFFFFFFFFFFFFFFFFFFFFFFFFFFFFFFFFFFFFFFFF
310
FFFFFFFFFFFFFFFFFFFFFFFFFFFFFFFFFFFFFFFFFFFFFFFFFFFFFFFFFFFFFFFF
310
FFFFFFFFFFFFFFFFFFFFFFFFFFFFFFFFFFFFFFFFFFFFFFFFFFFFFFFFFFFFFFFF
310
FFFFFFFFFFFFFFFFFFFFFFFFFFFFFFFFFFFFFFFFFFFFFFFFFFFFFFFFFFFFFFFF
310
FFFFFFFFFFFFFFFFFFFFFFFFFFFFFFFFFFFFFFFFFFFFFFFFFFFFFFFFFFFFFFFF
310
FFFFFFFFFFFFFFFFFFFFFFFFFFFFFFFFFFFFFFFFFFFFFFFFFFFFFFFFFFFFFFFF
310
01000002000000000000000000000000000000004C004C003000820061007206
310
C805250000000000C80525000000000072006F006700720061006D0020004600
310
0100FEFF030A0000FFFFFFFF0A00030000000000C00000000000004607000000
310
5042727573680007000000504272757368000700000050427275736800F439B2
310
710000000000000000000000000065002D005300740061007400690063003B00
310
43003A005C00500072006F006700720061006D002000460069006C0065007300
310
2000280078003800360029005C0043006F006D006D006F006E00200046006900
310
6C00650073005C004100750074006F006400650073006B002000530068006100
310
7200650064005C003B0043003A005C00500072006F006700720061006D002000
310
460069006C00650073005C004E006F0072006D0061006E005C004E0070006D00
310
5C00420069006E0000006F6643003A005C00500072006F006700720061006D00
310
2000460069006C00650073005C0053006F006C006900640057006F0072006B00
310
7300200043006F00720070005C0053006F006C006900640057006F0072006B00
310
730020002800320029005C0073006C00640062006700700072006F0063002E00
310
650078006500000073006C00640062006700700072006F0063002E0065007800
310
650020005F005F00530057005F005500540049004C0053005F00310030003600
310
20260000424D0E260000000000003E00000028000000B40200006E0000000100
310
01000000000000000000130B0000130B00000200000002000000000000FFFFFF
310
FFFFFFFFFFFFFFFFFFFFFFFFFFFFFFFFFFFFFFFFFFFFFFFFFFFFFFFFFFFFFFFF
310
FFFFFFFFFFFFFFFFFFFFFFFFFFFFFFFFFFFFFFFFFFFFFFFFFFFFFFFFFFFFFFFF
310
FFFFFFFFFFFFFFFFFFFFFFFFFFFFFFFFFFFFFFFFFFFFFFFFF000FFFFFFFFFFFF
310
FFFFFFFFFFFFFFFFFFFFFFFFFFFFFFFFFFFFFFFFFFFFFFFFFFFFFFFFFFFFFFFF
310
FFFFFFFFFFFFFFFFFFFFFFFFFFFFFFFFFFFFFFFFFFFFFFFFFFFFFFFFFFFFFFFF
310
FFFFFFFFFFFFFFFFFFFFFFFFFFFFFFFFF000FFFFFFFFFFFFFFFFFFFFFFFFFFFF
310
FFFFFFFFFFFFFFFFFFFFFFFFFFFFFFFFFFFFFFFFFFFFFFFFFFFFFFFFFFFFFFFF
310
FFFFFFFFFFFFFFFFFFFFFFFFFFFFFFFFFFFFFFFFFFFFFFFFFFFFFFFFFFFFFFFF
310
FFFFFFFFFFFFFFFFF000FFFFFFFFFFFFFFFFFFFFFFFFFFFFFFFFFFFFFFFFFFFF
310
FFFFFFFFFFFFFFFFFFFFFFFFFFFFFFFFFFFFFFFFFFFFFFFFFFFFFFFFFFFFFFFF
310
FFFFFFFFFFFFFFFFFFFFFFFFFFFFFFFFFFFFFFFFFFFFFFFFFFFFFFFFFFFFFFFF
310
F000FFFFFFFFFFFFFFFFFFFFFFFFFFFFFFFFFFFFFFFFFFFFFFFFFFFFFFFFFFFF
310
FFFFFFFFFFFFFFFFFFFFFFFFFFFFFFFFFFFFFFFFFFFFFFFFFFFFFFFFFFFFFFFF
310
FFFFFFFFFFFFFFFFFFFFFFFFFFFFFFFFFFFFFFFFFFFFFFFFF000FFFFFFFFFFFF
310
FFFFFFFFFFFFFFFFFFFFFFFFFFFFFFFFFFFFFFFFFFFFFFFFFFFFFFFFFFFFFFFF
310
FFFFFFFFFFFFFFFFFFFFFFFFFFFFFFFFFFFFFFFFFFFFFFFFFFFFFFFFFFFFFFFF
310
FFFFFFFFFFFFFFFFFFFFFFFFFFFFFFFFF000FFFFFFFFFFFFFFFFFFFFFFFFFFFF
310
FFFFFFFFFFFFFFFFFFFFFFFFFFFFFFFFFFFFFFFFFFFFFFFFFFFFFFFFFFFFFFFF
310
FFFFFFFFFFFFFFFFFFFFFFFFFFFFFFFFFFFFFFFFFFFFFFFFFFFFFFFFFFFFFFFF
310
FFFFFFFFFFFFFFFFF000FFFFFFFFFFFFFFFFFFFFFFFFFFFFFFFFFFFFFFFFFFFF
310
FFFFFFFFFFFFFFFFFFFFFFFFFFFFFFFFFFFFFFFFFFFFFFFFFFFFFFFFFFFFFFFF
310
FFFFFFFFFFFFFFFFFFFFFFFFFFFFFFFFFFFFFFFFFFFFFFFFFFFFFFFFFFFFFFFF
310
F000FFFFFFFFFFFFFFFFFFFFFFFFFFFFFFFFFFFFFFFFFFFFFFFFFFFFFFFFFFFF
310
FFFFFFFFFFFFFFFFFFFFFFFFFFFFFFFFFFFFFFFFFFFFFFFFFFFFFFFFFFFFFFFF
310
FFFFFFFFFFFFFFFFFFFFFFFFFFFFFFFFFFFFFFFFFFFFFFFFF000FFFFFFFFFFFF
310
FFFFFFFFFFFFFFFFFFFFFFFFFFFFFFFFFFFFFFFFFFFFFFFFFFFFFFFFFFFFFFFF
310
FFFFFFFFFFFFFFFFFFFFFFFFFFFFFFFFFFFFFFFFFFFFFFFFFFFFFFFFFFFFFFFF
310
FFFFFFFFFFFFFFFFFFFFFFFFFFFFFFFFF000FFFFFFFFFFFFFFFFFFFFFFFFFFFF
310
FFFFFFFFFFFFFFFFFFFFFFFFFFFFFFFFFFFFFFFFFFFFFFFFFFFFFFFFFFFFFFFF
310
FFFFFFFFFFFFFFFFFFFFFFFFFFFFFFFFFFFFFFFFFFFFFFFFFFFFFFFFFFFFFFFF
310
FFFFFFFFFFFFFFFFF000FFFFFFFFFFFFFFFFFFFFFFFFFFFFFFFFFFFFFFFFFFFF
310
FFFFFFFFFFFFFFFFFFFFFFFFFFFFFFFFFFFFFFFFFFFFFFFFFFFFFFFFFFFFFFFF
310
FFFFFFFFFFFFFFFFFFFFFFFFFFFFFFFFFFFFFFFFFFFFFFFFFFFFFFFFFFFFFFFF
310
F000FFFFFFFFFFFFFFFFFFFFFFFFFFFFFFFFFFFFFFFFFFFFFFFFFFFFFFFFFFFF
310
FFFFFFFFFFFFFFFFFFFFFFFFFFFFFFFFFFFFFFFFFFFFFFFFFFFFFFFFFFFFFFFF
310
FFFFFFFFFFFFFFFFFFFFFFFFFFFFFFFFFFFFFFFFFFFFFFFFF000FFFFFFFFFFFF
310
FFFFFFFFFFFFFFFFFFFFFFFFFFFFFFFFFFFFFFFFFFFFFFFFFFFFFFFFFFFFFFFF
310
FFFFFFFFFFFFFFFFFFFFFFFFFFFFFFFFFFFFFFFFFFFFFFFFFFFFFFFFFFFFFFFF
310
FFFFFFFFFFFFFFFFFFFFFFFFFFFFFFFFF000FFFFFFFFFFFFFFFFFFFFFFFFFFFF
310
FFFFFFFFFFFFFFFFFFFFFFFFFFFFFFFFFFFFFFFFFFFFFFFFFFFFFFFFFFFFFFFF
310
FFFFFFFFFFFFFFFFFFFFFFFFFFFFFFFFFFFFFFFFFFFFFFFFFFFFFFFFFFFFFFFF
310
FFFFFFFFFFFFFFFFF000FFFFFFFFFFFFFFFFFFFFFFFFFFFFFFFFFFFFFFFFFFFF
310
FFFFFFFFFFFFFFFFFFFFFFFFFFFFFFFFFFFFFFFFFFFFFFFFFFFFFFFFFFFFFFFF
310
FFFFFFFFFFFFFFFFFFFFFFFFFFFFFFFFFFFFFFFFFFFFFFFFFFFFFFFFFFFFFFFF
310
F000FFFFFFFFFFFFFFFFFFFFFFFFFFFFFFFFFFFFFFFFFFFFFFFFFFFFFFFFFFFF
310
FFFFFFFFFFFFFFFFFFFFFFFFFFFFFFFFFFFFFFFFFFFFFFFFFFFFFFFFFFFFFFFF
310
FFFFFFFFFFFFFFFFFFFFFFFFFFFFFFFFFFFFFFFFFFFFFFFFF000FFFFFFFFFFFF
310
FFFFFFFFFFFFFFFFFFFFFFFFFFFFFFFFFFFFFFFFFFFFFFFFFFFFFFFFFFFFFFFF
310
FFFFFFFFFFFFFFFFFFFFFFFFFFFFFFFFFFFFFFFFFFFFFFFFFFFFFFFFFFFFFFFF
310
FFFFFFFFFFFFFFFFFFFFFFFFFFFFFFFFF000FFFFFFFFFFFFFFFFFFFFFFFFFFFF
310
FFFFFFFFFFFFFFFFFFFFFFFFFFFFFFFFFFFFFFFFFFFFFFFFFFFFFFFFFFFFFFFF
310
FFFFFFFFFFFFFFFFFFFFFFFFFFFFFFFFFFFFFFFFFFFFFFFFFFFFFFFFFFFFFFFF
310
FFFFFFFFFFFFFFFFF000FFFFF80003FFFFFFFFFFFFFFFFFFFFFFFFFFFFFFFFFF
310
FFFFF00007FFFFFFFFFF00007FFFFFF800000000000000007FFFFFFFFFFFFFFF
310
FFFFFFFC001FFFFFFFFFFFFFFC001FFFFFFFFFFFFFFFFFFFFFFFFFFE0007FFFF
310
F000FFFF8000007FFFFFFFF8000FFFFFC0007FFFFF80007FFFFF0000007FFFFF
310
FFF8000007FFFFF800000000000000007FFFFFF0001FFFFFFFFFFFC00001FFFF
310
FFFFFFFFC00001FFFFFFFF000000000003FFFFE000007FFFF000FFFE0000000F
310
FFFFFFF0000FFFFF80007FFFFF80007FFFFC0000001FFFFFFFC0000001FFFFF8
310
00000000000000007FFFFFF0001FFFFFFFFFFE0000003FFFFFFFFFFE0000003F
310
FFFFFF000000000003FFFF0000000FFFF000FFF800000003FFFFFFF00007FFFF
310
80007FFFFF80007FFFF000000007FFFFFF000000003FFFF80000000000000000
310
7FFFFFF0001FFFFFFFFFF80000000FFFFFFFFFF80000000FFFFFFF0000000000
310
03FFFC00000003FFF000FFE000000000FFFFFFF00007FFFF80003FFFFF80007F
310
FFC000000001FFFFFC000000001FFFF800000000000000007FFFFFF0001FFFFF
310
FFFFE000000003FFFFFFFFE000000003FFFFFF000000000003FFF000000000FF
310
F000FF80000000007FFFFFF00007FFFF80003FFFFF80007FFF8000000000FFFF
310
F80000000007FFF800000000000000007FFFFFF0001FFFFFFFFFC000000001FF
310
FFFFFFC000000001FFFFFF000000000003FFC0000000007FF000FF0000000000
310
3FFFFFE00007FFFF00003FFFFF80007FFE00000000003FFFF00000000003FFF8
310
00000000000000007FFFFFF0001FFFFFFFFF8000000000FFFFFFFF8000000000
310
FFFFFF000000000003FF80000000003FF000FE00000000001FFFFFE00003FFFF
310
00003FFFFF80007FFC00000000001FFFE00000000001FFF8000001FFFE000000
310
7FFFFFF0001FFFFFFFFE00000000003FFFFFFE00000000003FFFFF0000000000
310
03FF00000000001FF000FC00000000000FFFFFE00003FFFF00001FFFFF80007F
310
F800000000001FFFC00000000000FFF8000001FFFE0000007FFFFFF0001FFFFF
310
FFFC00000000001FFFFFFC00000000001FFFFF000000000003FE00000000000F
310
F000F8000000000007FFFFE00003FFFF00001FFFFF80007FF800000000000FFF
310
800000000000FFF8000001FFFE0000007FFFFFF0001FFFFFFFF800000000000F
310
FFFFF800000000000FFFFF000000000003FC000000000007F000F80000000000
310
03FFFFC00003FFFE00001FFFFF80007FF0000000000007FF0000000000007FF8
310
000001FFFE0000007FFFFFF0001FFFFFFFF0000000000007FFFFF00000000000
310
07FFFF000000000003F8000000000003F000F0000000000003FFFFC00001FFFE
310
00001FFFFF80007FE0000000000007FE0000000000003FF8000001FFFE000000
310
7FFFFFF0001FFFFFFFF0000000000007FFFFF0000000000007FFFF0000000000
310
03F800001F800003F000E00001FFF00001FFFFC00001FFFE00000FFFFF80007F
310
E00001FFE00003FE00001FFF00003FF8000001FFFE0000007FFFFFF0001FFFFF
310
FFE000003E000003FFFFE000003E000003FFFF000000000003F00001FFF80001
310
F000E00007FFFC0001FFFFC00001FFFE00000FFFFF80007FC0000FFFFC0003FC
310
0000FFFFC0001FF8000001FFFE0000007FFFFFF0001FFFFFFFC00003FFE00001
310
FFFFC00003FFE00001FFFF0001FFFFFFFFF00007FFFE0001F000E0000FFFFF00
310
00FFFF800001FFFC00000FFFFF80007FC0001FFFFE0001FC0001FFFFE0001FF8
310
000001FFFE0000007FFFFFF0001FFFFFFF80000FFFF80000FFFF80000FFFF800
310
00FFFF0003FFFFFFFFE0000FFFFF8000F000C0003FFFFF8000FFFF800000FFFC
310
000007FFFF80007F80003FFFFF0001FC0003FFFFF0001FF8000001FFFE000000
310
7FFFFFF0001FFFFFFF80003FFFFE0000FFFF80003FFFFE0000FFFF0003FFFFFF
310
FFE0003FFFFF8000F000C0003FFFFF8000FFFF800000FFFC000007FFFF80007F
310
80007FFFFF8001F80007FFFFF8000FF8000001FFFE0000007FFFFFF0001FFFFF
310
FF00007FFFFF00007FFF00007FFFFF00007FFF0003FFFFFFFFE0003FFFFFC000
310
F000C0007FFFFFC000FFFF000000FFFC000007FFFF80007F8000FFFFFF8000F8
310
000FFFFFF8000FF8000001FFFE0000007FFFFFF0001FFFFFFF0000FFFFFF8000
310
7FFF0000FFFFFF80007FFF0003FFFFFFFFC0007FFFFFC00070008000FFFFFFC0
310
00FFFF000000FFF8000007FFFF80007F8000FFFFFF8000F8000FFFFFF8000FF8
310
000001FFFE0000007FFFFFF0001FFFFFFE0001FFFFFFC0003FFE0001FFFFFFC0
310
003FFF0003FFFFFFFFC0007FFFFFE00070008000FFFFFFC0007FFF0000007FF8
310
000003FFFF80007F0001FFFFFF8000F8000FFFFFF8000FF8000001FFFE000000
310
7FFFFFF0001FFFFFFE0001FFFFFFC0003FFE0001FFFFFFC0003FFF0003FFFFFF
310
FFC000FFFFFFE00070008000FFFFFFC0007FFF0000007FF8000003FFFF80007F
310
0001FFFFFF8000F8001FFFFFF8000FF8000001FFFE0000007FFFFFF0001FFFFF
310
FE0003FFFFFFE0003FFE0003FFFFFFE0003FFF0003FFFFFFFFC000FFFFFFE000
310
70008000FFFFFFC0007FFE0000007FF8000003FFFF80007F0001FFFFFF8000F0
310
001FFFFFF8000FF8000001FFFE0000007FFFFFF0001FFFFFFC0003FFFFFFE000
310
1FFC0003FFFFFFE0001FFF0003FFFFFFFFC000FFFFFFC00070008000FFFFFF80
310
007FFE0000007FF0000003FFFF80007F0001FFFFFF0000F0001FFFFFF8000FF8
310
000001FFFE0000007FFFFFF0001FFFFFFC0007FFFFFFF0001FFC0007FFFFFFF0
310
001FFF0003FFFFFFFFC000FFFFFFC00070008001FFFFFF0000FFFE0000003FF0
310
000001FFFF80007F0001FFFFFF0000F8001FFFFFF0000FF8000001FFFE000000
310
7FFFFFF0001FFFFFFC0007FFFFFFF0001FFC0007FFFFFFF0001FFF0003FFFFFF
310
FFC001FFFFFF80007000FFFFFFFFFE0000FFFE0008003FF0008001FFFF80007F
310
FFFFFFFFFC0000FFFFFFFFFFE0000FF8000001FFFE0000007FFFFFF0001FFFFF
310
F8000FFFFFFFF8000FF8000FFFFFFFF8000FFF0003FFFFFFFFFFFFFFFFFF0000
310
7000FFFFFFFFFC0000FFFC0008003FF0008001FFFF80007FFFFFFFFFF80001FF
310
FFFFFFFF80000FF8000001FFFE0000007FFFFFF0001FFFFFF8000FFFFFFFF800
310
0FF8000FFFFFFFF8000FFF0003FFFFFFFFFFFFFFFFFE0000F000FFFFFFFFE000
310
00FFFC000C003FE000C001FFFF80007FFFFFFFFFC00001FFFFFFFFFE00001FF8
310
000001FFFE0000007FFFFFF0001FFFFFF8000FFFFFFFF8000FF8000FFFFFFFF8
310
000FFF0003FFFFFFFFFFFFFFFFF00000F000FFFFFFFE000001FFFC000C001FE0
310
00C000FFFF80007FFFFFFFFE000001FFFFFFFFE000001FF80FFFFFFFFFFFFFC0
310
7FFFFFF0001FFFFFF8000FFFFFFFF8000FF8000FFFFFFFF8000FFF0003FFFFFF
310
FFFFFFFFFF800000F000FFFFFFC0000001FFFC001C001FE001C000FFFF80007F
310
FFFFFF80000003FFFFFFF80000001FF80FFFFFFFFFFFFFC07FFFFFF0001FFFFF
310
F8001FFFFFFFFC000FF8001FFFFFFFFC000FFF0003FFFFFFFFFFFFFFF0000001
310
F000FFFFF800000001FFF8001C001FE001C000FFFF80007FFFFFF800000003FF
310
FFFF800000003FF80FFFFFFFFFFFFFC07FFFFFF0001FFFFFF8001FFFFFFFFC00
310
0FF8001FFFFFFFFC000FFF0003FFFFFFFFFFFFFE00000001F000FFFFC0000000
310
03FFF8001E001FC001E000FFFF80007FFFFF8000000007FFFFFC000000003FF8
310
0FFFFFFFFFFFFFC07FFFFFF0001FFFFFF8001FFFFFFFFC000FF8001FFFFFFFFC
310
000FFF0003FFFFFFFFFFFFE000000003F000FFFE0000000007FFF8001E000FC0
310
01E0007FFF80007FFFFE0000000007FFFFE0000000007FF80FFFFFFFFFFFFFC0
310
7FFFFFF0001FFFFFF0001FFFFFFFFC0007F0001FFFFFFFFC0007FF0003FFFFFF
310
FFFFFF0000000003F000FFF80000000007FFF8001E000FC003E0007FFF80007F
310
FFF0000000000FFFFF8000000000FFF80FFFFFFFFFFFFFC07FFFFFF0001FFFFF
310
F0001FFFFFFFFC0007F0001FFFFFFFFC0007FF0003FFFFFFFFFFFC0000000007
310
F000FFE0000000000FFFF0003E000FC003E0007FFF80007FFFC0000000001FFF
310
FE0000000001FFF80FFFFFFFFFFFFFC07FFFFFF0001FFFFFF0001FFFFFFFFC00
310
07F0001FFFFFFFFC0007FF0003FFFFFFFFFFF0000000000FF000FFC000000000
310
1FFFF0003F000F8003F0003FFF80007FFF80000000003FFFF80000000003FFF8
310
0FFFFFFFFFFFFFC07FFFFFF0001FFFFFF0001FFFFFFFFC0007F0001FFFFFFFFC
310
0007FF0003FFFFFFFFFFE0000000001FF000FF00000000007FFFF0003F000780
310
03F0003FFF80007FFF00000000007FFFF00000000007FFF80FFFFFFFFFFFFFC0
310
7FFFFFF0001FFFFFF0001FFFFFFFFC0007F0001FFFFFFFFC0007FF0003FFFFFF
310
FFFF80000000007FF000FE0000000000FFFFE0003F00078007F0003FFF80007F
310
FE0000000001FFFFE0000000001FFFF80FFFFFFFFFFFFFC07FFFFFF0001FFFFF
310
F0001FFFFFFFFC0007F0001FFFFFFFFC0007FF0003FFFFFFFFFF0000000000FF
310
F000FC0000000003FFFFE0007F00078007F0003FFF80007FFC0000000007FFFF
310
C0000000007FFFF80FFFFFFFFFFFFFC07FFFFFF0001FFFFFF8001FFFFFFFFC00
310
0FF8001FFFFFFFFC000FFF0003FFFFFFFFFE0000000003FFF000FC000000000F
310
FFFFE0007F80070007F8001FFF80007FF8000000001FFFFF8000000001FFFFF8
310
0FFFFFFFFFFFFFC07FFFFFF0001FFFFFF8001FFFFFFFFC000FF8001FFFFFFFFC
310
000FFF0003FFFFFFFFFC000000000FFFF000F8000000007FFFFFE0007F800700
310
07F8001FFF80007FF000000000FFFFFF800000000FFFFFF80FFFFFFFFFFFFFC0
310
7FFFFFF0001FFFFFF8000FFFFFFFF8000FF8000FFFFFFFF8000FFF0003FFFFFF
310
FFFC000000007FFFF000F800000007FFFFFFC0007F8003000FF8001FFF80007F
310
F000000007FFFFFF000000007FFFFFF80FFFFFFFFFFFFFC07FFFFFF0001FFFFF
310
F8000FFFFFFFF8000FF8000FFFFFFFF8000FFF0003FFFFFFFFF80000000FFFFF
310
F000F0000000FFFFFFFFC000FF8003000FF8001FFF80007FE0000000FFFFFFFF
310
0000000FFFFFFFF8000001FFFE0000007FFFFFF0001FFFFFF8000FFFFFFFF800
310
0FF8000FFFFFFFF8000FFF0003FFFFFFFFF8000000FFFFFFF000F000000FFFFF
310
FFFFC000FFC002000FF8000FFF80007FE000001FFFFFFFFE000001FFFFFFFFF8
310
000001FFFE0000007FFFFFF0001FFFFFF8000FFFFFFFF8000FF8000FFFFFFFF8
310
000FFF0003FFFFFFFFF000001FFFFFFFF000E00000FFFFFFFFFFC000FFC00200
310
0FFC000FFF80007FE00001FFFFFFFFFE00001FFFFFFFFFF8000001FFFE000000
310
7FFFFFF0001FFFFFFC000FFFFFFFF8001FFC000FFFFFFFF8001FFF0003FFFFFF
310
FFF00001FFFFFFFFF000E00007FFFFFFFFFF8000FFC000001FFC000FFF80007F
310
C0000FFFFFFFFFFE0000FFFFFFFFFFF8000001FFFE0000007FFFFFF0001FFFFF
310
FC0007FFFFFFF0001FFC0007FFFFFFF0001FFF0003FFFFFFFFF00007FFFFFFFF
310
F000E0001FFFFFFFFFFF8000FFC000001FFC000FFF80007FC0003FFFFFFFFFFE
310
0001FFFFFFFFFFF8000001FFFE0000007FFFFFF0001FFFFFFC0007FFFFFFF000
310
1FFC0007FFFFFFF0001FFF0003FFFFFFFFF0001FFFFFFFFFF000E0003FFFFF00
310
03FF8001FFE000001FFC0007FF80007FC0007FFFFF0007FC0003FFFFF0003FF8
310
000001FFFE0000007FFFFFF0001FFFFFFC0003FFFFFFE0001FFC0003FFFFFFE0
310
001FFF0003FFFFFFFFF0003FFFFFFFFFF000E0003FFFFF0001FF8001FFE00000
310
1FFE0007FF80007FC0007FFFFE0003FC0007FFFFE0003FF8000001FFFE000000
310
7FFFFFF0001FFFFFFE0003FFFFFFE0003FFE0003FFFFFFE0003FFF0003FFFFFF
310
FFF0003FFFFF8001F000E0003FFFFF0001FF0001FFE000001FFE0007FF80007F
310
C0007FFFFE0003FC0007FFFFE0003FF8000001FFFE0000007FFFFFF0001FFFFF
310
FE0001FFFFFFC0003FFE0001FFFFFFC0003FFF0003FFFFFFFFF0003FFFFF0001
310
F000E0003FFFFF0003FF0001FFE000003FFE0007FF80007FC0007FFFFE0003FC
310
0007FFFFE0003FF8000001FFFE0000007FFFFFF0001FFFFFFF0001FFFFFFC000
310
7FFF0001FFFFFFC0007FFF0003FFFFFFFFF0003FFFFF0001F000E0003FFFFE00
310
03FF0003FFF000003FFE0003FF80007FC0007FFFFC0003FE0007FFFFE0003FF8
310
000001FFFE0000007FFFFFF0001FFFFFFF0000FFFFFF80007FFF0000FFFFFF80
310
007FFF0003FFFFFFFFF0003FFFFF0001F000E0003FFFFE0003FF0003FFF00000
310
3FFF0003FF80007FC0007FFFFC0007FE0007FFFFC0003FF8000001FFFE000000
310
7FFFFFF0001FFFFFFF80007FFFFF0000FFFF80007FFFFF0000FFFF0003FFFFFF
310
FFF0003FFFFF0003F000E0003FFFFC0003FE0003FFF000003FFF0003FF80007F
310
E0003FFFF80007FE0003FFFFC0007FF8000001FFFE0000007FFFFFF0001FFFFF
310
FF80003FFFFE0000FFFF80003FFFFE0000FFFF0003FFFFFFFFF0001FFFFE0003
310
F000F0001FFFF80003FE0003FFF000007FFF0001FF80007FE0003FFFF00007FE
310
0001FFFF80007FF8000001FFFE0000007FFFFFF0001FFFFFFFC0000FFFF80001
310
FFFFC0000FFFF80001FFFF0003FFFFFFFFF0001FFFFC0003F000F0000FFFF000
310
07FE0007FFF800007FFF0001FF80007FE0001FFFE00007FF0000FFFE00007FF8
310
000001FFFE0000007FFFFFF0001FFFFFFFC00003FFE00001FFFFC00003FFE000
310
01FFFF0003FFFFFFFFF8000FFFF80003F000F00003FFC00007FC0007FFF80000
310
7FFF8001FF80007FF00007FF80000FFF00007FF80000FFF8000001FFFE000000
310
7F80000000000001FFE000003E000003FFFFE000003E000003FFFF0003FFFFFF
310
FFF80003FFE00007F000F800000000000FFC0007FFF800007FFF8001FF80007F
310
F000000000000FFF000000000000FFF8000001FFFE0000007F80000000000001
310
FFF0000000000007FFFFF0000000000007FFFF0003FFFFFFFFFC00007E000007
310
F000F800000000000FFC0007FFF80000FFFF8000FF80007FF800000000001FFF
310
800000000001FFF8000001FFFE0000007F80000000000001FFF800000000000F
310
FFFFF800000000000FFFFF0003FFFFFFFFFC00000000000FF000FC0000000000
310
1FFC0007FFFC0000FFFF8000FF80007FF800000000003FFFC00000000001FFF8
310
000001FFFE0000007F80000000000001FFF800000000000FFFFFF80000000000
310
0FFFFF0003FFFFFFFFFE00000000001FF000FE00000000003FF8000FFFFC0000
310
FFFF8000FF80007FFC00000000003FFFC00000000003FFF8000001FFFE000000
310
7F80000000000001FFFC00000000001FFFFFFC00000000001FFFFF0003FFFFFF
310
FFFF00000000001FF000FF00000000003FF8000FFFFC0000FFFFC000FF80007F
310
FE00000000007FFFE00000000007FFF8000001FFFE0000007F80000000000001
310
FFFE00000000003FFFFFFE00000000003FFFFF0003FFFFFFFFFF80000000003F
310
F000FF80000000007FF8000FFFFC0001FFFFC0007F80007FFF0000000000FFFF
310
F0000000000FFFF800000000000000007F80000000000001FFFF8000000000FF
310
FFFFFF8000000000FFFFFF0003FFFFFFFFFFC0000000007FF000FFC000000000
310
FFF8000FFFFE0001FFFFC0007F80007FFF8000000001FFFFF8000000001FFFF8
310
00000000000000007F80000000000001FFFFC000000001FFFFFFFFC000000001
310
FFFFFF0003FFFFFFFFFFE000000000FFF000FFE000000003FFF0001FFFFE0001
310
FFFFC0007F80007FFFC000000007FFFFFE000000003FFFF80000000000000000
310
7F80000000000001FFFFE000000003FFFFFFFFE000000003FFFFFF0003FFFFFF
310
FFFFF000000003FFF000FFF80000000FFFF0001FFFFE0001FFFFE0007F80007F
310
FFF00000000FFFFFFF00000000FFFFF800000000000000007F80000000000001
310
FFFFF80000000FFFFFFFFFF80000000FFFFFFF0003FFFFFFFFFFFC0000000FFF
310
F000FFFE0000003FFFF0001FFFFE0003FFFFE0003F80007FFFFC0000003FFFFF
310
FFC0000003FFFFF800000000000000007F80000000000001FFFFFE0000003FFF
310
FFFFFFFE0000003FFFFFFF0003FFFFFFFFFFFF0000003FFFF000FFFF800000FF
310
FFF0001FFFFF0003FFFFE0003F80007FFFFF000001FFFFFFFFF800001FFFFFF8
310
00000000000000007F80000000000001FFFFFFC00001FFFFFFFFFFFFC00001FF
310
FFFFFF0003FFFFFFFFFFFFC00000FFFFF000FFFFF8000FFFFFFFFFFFFFFFFFFF
310
FFFFFFFFFFFFFFFFFFFFF0001FFFFFFFFFFF0000FFFFFFF80000000000000000
310
7FFFFFFFFFFFFFFFFFFFFFFC001FFFFFFFFFFFFFFC001FFFFFFFFFFFFFFFFFFF
310
FFFFFFFC001FFFFFF000FFFFFFFFFFFFFFFFFFFFFFFFFFFFFFFFFFFFFFFFFFFF
310
FFFFFFFFFFFFFFFFFFFFFFFFFFFFFFFFFFFFFFFFFFFFFFFFFFFFFFFFFFFFFFFF
310
FFFFFFFFFFFFFFFFFFFFFFFFFFFFFFFFFFFFFFFFFFFFFFFFFFFFFFFFFFFFFFFF
310
F000FFFFFFFFFFFFFFFFFFFFFFFFFFFFFFFFFFFFFFFFFFFFFFFFFFFFFFFFFFFF
310
FFFFFFFFFFFFFFFFFFFFFFFFFFFFFFFFFFFFFFFFFFFFFFFFFFFFFFFFFFFFFFFF
310
FFFFFFFFFFFFFFFFFFFFFFFFFFFFFFFFFFFFFFFFFFFFFFFFF000FFFFFFFFFFFF
310
FFFFFFFFFFFFFFFFFFFFFFFFFFFFFFFFFFFFFFFFFFFFFFFFFFFFFFFFFFFFFFFF
310
FFFFFFFFFFFFFFFFFFFFFFFFFFFFFFFFFFFFFFFFFFFFFFFFFFFFFFFFFFFFFFFF
310
FFFFFFFFFFFFFFFFFFFFFFFFFFFFFFFFF000FFFFFFFFFFFFFFFFFFFFFFFFFFFF
310
FFFFFFFFFFFFFFFFFFFFFFFFFFFFFFFFFFFFFFFFFFFFFFFFFFFFFFFFFFFFFFFF
310
FFFFFFFFFFFFFFFFFFFFFFFFFFFFFFFFFFFFFFFFFFFFFFFFFFFFFFFFFFFFFFFF
310
FFFFFFFFFFFFFFFFF000FFFFFFFFFFFFFFFFFFFFFFFFFFFFFFFFFFFFFFFFFFFF
310
FFFFFFFFFFFFFFFFFFFFFFFFFFFFFFFFFFFFFFFFFFFFFFFFFFFFFFFFFFFFFFFF
310
FFFFFFFFFFFFFFFFFFFFFFFFFFFFFFFFFFFFFFFFFFFFFFFFFFFFFFFFFFFFFFFF
310
F000FFFFFFFFFFFFFFFFFFFFFFFFFFFFFFFFFFFFFFFFFFFFFFFFFFFFFFFFFFFF
310
FFFFFFFFFFFFFFFFFFFFFFFFFFFFFFFFFFFFFFFFFFFFFFFFFFFFFFFFFFFFFFFF
310
FFFFFFFFFFFFFFFFFFFFFFFFFFFFFFFFFFFFFFFFFFFFFFFFF000FFFFFFFFFFFF
310
FFFFFFFFFFFFFFFFFFFFFFFFFFFFFFFFFFFFFFFFFFFFFFFFFFFFFFFFFFFFFFFF
310
FFFFFFFFFFFFFFFFFFFFFFFFFFFFFFFFFFFFFFFFFFFFFFFFFFFFFFFFFFFFFFFF
310
FFFFFFFFFFFFFFFFFFFFFFFFFFFFFFFFF000FFFFFFFFFFFFFFFFFFFFFFFFFFFF
310
FFFFFFFFFFFFFFFFFFFFFFFFFFFFFFFFFFFFFFFFFFFFFFFFFFFFFFFFFFFFFFFF
310
FFFFFFFFFFFFFFFFFFFFFFFFFFFFFFFFFFFFFFFFFFFFFFFFFFFFFFFFFFFFFFFF
310
FFFFFFFFFFFFFFFFF000FFFFFFFFFFFFFFFFFFFFFFFFFFFFFFFFFFFFFFFFFFFF
310
FFFFFFFFFFFFFFFFFFFFFFFFFFFFFFFFFFFFFFFFFFFFFFFFFFFFFFFFFFFFFFFF
310
FFFFFFFFFFFFFFFFFFFFFFFFFFFFFFFFFFFFFFFFFFFFFFFFFFFFFFFFFFFFFFFF
310
F000FFFFFFFFFFFFFFFFFFFFFFFFFFFFFFFFFFFFFFFFFFFFFFFFFFFFFFFFFFFF
310
FFFFFFFFFFFFFFFFFFFFFFFFFFFFFFFFFFFFFFFFFFFFFFFFFFFFFFFFFFFFFFFF
310
FFFFFFFFFFFFFFFFFFFFFFFFFFFFFFFFFFFFFFFFFFFFFFFFF000FFFFFFFFFFFF
310
FFFFFFFFFFFFFFFFFFFFFFFFFFFFFFFFFFFFFFFFFFFFFFFFFFFFFFFFFFFFFFFF
310
FFFFFFFFFFFFFFFFFFFFFFFFFFFFFFFFFFFFFFFFFFFFFFFFFFFFFFFFFFFFFFFF
310
FFFFFFFFFFFFFFFFFFFFFFFFFFFFFFFFF000FFFFFFFFFFFFFFFFFFFFFFFFFFFF
310
FFFFFFFFFFFFFFFFFFFFFFFFFFFFFFFFFFFFFFFFFFFFFFFFFFFFFFFFFFFFFFFF
310
FFFFFFFFFFFFFFFFFFFFFFFFFFFFFFFFFFFFFFFFFFFFFFFFFFFFFFFFFFFFFFFF
310
FFFFFFFFFFFFFFFFF000FFFFFFFFFFFFFFFFFFFFFFFFFFFFFFFFFFFFFFFFFFFF
310
FFFFFFFFFFFFFFFFFFFFFFFFFFFFFFFFFFFFFFFFFFFFFFFFFFFFFFFFFFFFFFFF
310
FFFFFFFFFFFFFFFFFFFFFFFFFFFFFFFFFFFFFFFFFFFFFFFFFFFFFFFFFFFFFFFF
310
F000FFFFFFFFFFFFFFFFFFFFFFFFFFFFFFFFFFFFFFFFFFFFFFFFFFFFFFFFFFFF
310
FFFFFFFFFFFFFFFFFFFFFFFFFFFFFFFFFFFFFFFFFFFFFFFFFFFFFFFFFFFFFFFF
310
FFFFFFFFFFFFFFFFFFFFFFFFFFFFFFFFFFFFFFFFFFFFFFFFF000FFFFFFFFFFFF
310
FFFFFFFFFFFFFFFFFFFFFFFFFFFFFFFFFFFFFFFFFFFFFFFFFFFFFFFFFFFFFFFF
310
FFFFFFFFFFFFFFFFFFFFFFFFFFFFFFFFFFFFFFFFFFFFFFFFFFFFFFFFFFFFFFFF
310
FFFFFFFFFFFFFFFFFFFFFFFFFFFFFFFFF000FFFFFFFFFFFFFFFFFFFFFFFFFFFF
310
FFFFFFFFFFFFFFFFFFFFFFFFFFFFFFFFFFFFFFFFFFFFFFFFFFFFFFFFFFFFFFFF
310
FFFFFFFFFFFFFFFFFFFFFFFFFFFFFFFFFFFFFFFFFFFFFFFFFFFFFFFFFFFFFFFF
310
FFFFFFFFFFFFFFFFF000FFFFFFFFFFFFFFFFFFFFFFFFFFFFFFFFFFFFFFFFFFFF
310
FFFFFFFFFFFFFFFFFFFFFFFFFFFFFFFFFFFFFFFFFFFFFFFFFFFFFFFFFFFFFFFF
310
FFFFFFFFFFFFFFFFFFFFFFFFFFFFFFFFFFFFFFFFFFFFFFFFFFFFFFFFFFFFFFFF
310
F000FFFFFFFFFFFFFFFFFFFFFFFFFFFFFFFFFFFFFFFFFFFFFFFFFFFFFFFFFFFF
310
FFFFFFFFFFFFFFFFFFFFFFFFFFFFFFFFFFFFFFFFFFFFFFFFFFFFFFFFFFFFFFFF
310
FFFFFFFFFFFFFFFFFFFFFFFFFFFFFFFFFFFFFFFFFFFFFFFFF000FFFFFFFFFFFF
310
FFFFFFFFFFFFFFFFFFFFFFFFFFFFFFFFFFFFFFFFFFFFFFFFFFFFFFFFFFFFFFFF
310
FFFFFFFFFFFFFFFFFFFFFFFFFFFFFFFFFFFFFFFFFFFFFFFFFFFFFFFFFFFFFFFF
310
FFFFFFFFFFFFFFFFFFFFFFFFFFFFFFFFF000FFFFFFFFFFFFFFFFFFFFFFFFFFFF
310
FFFFFFFFFFFFFFFFFFFFFFFFFFFFFFFFFFFFFFFFFFFFFFFFFFFFFFFFFFFFFFFF
310
FFFFFFFFFFFFFFFFFFFFFFFFFFFFFFFFFFFFFFFFFFFFFFFFFFFFFFFFFFFFFFFF
310
FFFFFFFFFFFFFFFFF000FFFFFFFFFFFFFFFFFFFFFFFFFFFFFFFFFFFFFFFFFFFF
310
FFFFFFFFFFFFFFFFFFFFFFFFFFFFFFFFFFFFFFFFFFFFFFFFFFFFFFFFFFFFFFFF
310
FFFFFFFFFFFFFFFFFFFFFFFFFFFFFFFFFFFFFFFFFFFFFFFFFFFFFFFFFFFFFFFF
310
F000FFFFFFFFFFFFFFFFFFFFFFFFFFFFFFFFFFFFFFFFFFFFFFFFFFFFFFFFFFFF
310
FFFFFFFFFFFFFFFFFFFFFFFFFFFFFFFFFFFFFFFFFFFFFFFFFFFFFFFFFFFFFFFF
310
FFFFFFFFFFFFFFFFFFFFFFFFFFFFFFFFFFFFFFFFFFFFFFFFF000FFFFFFFFFFFF
310
FFFFFFFFFFFFFFFFFFFFFFFFFFFFFFFFFFFFFFFFFFFFFFFFFFFFFFFFFFFFFFFF
310
FFFFFFFFFFFFFFFFFFFFFFFFFFFFFFFFFFFFFFFFFFFFFFFFFFFFFFFFFFFFFFFF
310
FFFFFFFFFFFFFFFFFFFFFFFFFFFFFFFFF0000000000000000000000000000000
310
00000000000000000000000042006C00610063006B0000000000000000000000
310
0000000000000000000000000000000000000000000000000000000000000000
310
0000000000000000000000000000FFFFFFFFFFFFFFFFFFFFFFFFFFFFFFFFFFFF
310
FFFFFFFFFFFFFFFFFFFFFFFFFFFFFFFFFFFFFFFFFFFFFFFFFFFFFFFFFFFFFFFF
310
FFFFFFFFFFFFFFFFFFFFFFFF6476000800000000FFFFFFFF20FF202026000000
310
1E00000008000000060000000000000011000000200000008403000000000000
310
6000000060000000200002FB200020000000002B00FFFFFF40002200E8030000
310
A80400001C020000AF0000804A20004000000000000000000100000000000000
310
616C000800000000E40100007001000002000000270000001100000000000000
310
00000000BC0200000000000003020122420065006C006C00200047006F007400
310
680069006300200053007400640020004C006900670068007400000000000000
310
00000000000000000000000000000000420065006C006C0047006F0074006800
310
690063005300740064002D0042006F006C006400000000000000000000000000
310
0000000000000000000000000000000000000000000000000000000000000000
310
0000000000000000000000000000000000000000000000000000000000000000
  1
OLE
  0
ENDSEC
  0
SECTION
  2
OBJECTS
  0
DICTIONARY
  5
C
330
0
100
AcDbDictionary
281
     1
  3
ACAD_GROUP
350
D
  3
ACAD_LAYOUT
350
1A
  3
ACAD_MLEADERSTYLE
350
27C
  3
ACAD_MLINESTYLE
350
17
  3
ACAD_PLOTSETTINGS
350
19
  3
ACAD_PLOTSTYLENAME
350
E
  3
ACAD_TABLESTYLE
350
27B
  3
ACAD_VISUALSTYLE
350
2A
  3
AcDbVariableDictionary
350
27D
  0
DICTIONARY
  5
D
102
{ACAD_REACTORS
330
C
102
}
330
C
100
AcDbDictionary
281
     1
  0
DICTIONARY
  5
1A
102
{ACAD_REACTORS
330
C
102
}
330
C
100
AcDbDictionary
281
     1
  3
Layout1
350
1E
  3
Layout2
350
26
  3
Model
350
22
  0
DICTIONARY
  5
27C
102
{ACAD_REACTORS
330
C
102
}
330
C
100
AcDbDictionary
281
     1
  0
DICTIONARY
  5
17
102
{ACAD_REACTORS
330
C
102
}
330
C
100
AcDbDictionary
281
     1
  3
Standard
350
18
  0
DICTIONARY
  5
19
102
{ACAD_REACTORS
330
C
102
}
330
C
100
AcDbDictionary
281
     1
  0
ACDBDICTIONARYWDFLT
  5
E
102
{ACAD_REACTORS
330
C
102
}
330
C
100
AcDbDictionary
281
     1
  3
Normal
350
F
100
AcDbDictionaryWithDefault
340
F
  0
DICTIONARY
  5
27B
102
{ACAD_REACTORS
330
C
102
}
330
C
100
AcDbDictionary
281
     1
  0
DICTIONARY
  5
2A
102
{ACAD_REACTORS
330
C
102
}
330
C
100
AcDbDictionary
281
     1
  3
2dWireframe
350
2F
  3
3D Hidden
350
31
  3
3dWireframe
350
30
  3
Basic
350
32
  3
Brighten
350
36
  3
ColorChange
350
3A
  3
Conceptual
350
34
  3
Dim
350
35
  3
Facepattern
350
39
  3
Flat
350
2B
  3
FlatWithEdges
350
2C
  3
Gouraud
350
2D
  3
GouraudWithEdges
350
2E
  3
Linepattern
350
38
  3
Realistic
350
33
  3
Thicken
350
37
  0
DICTIONARY
  5
27D
102
{ACAD_REACTORS
330
C
102
}
330
C
100
AcDbDictionary
281
     1
  3
PSOLHEIGHT
350
27F
  3
PSOLWIDTH
350
27E
  0
LAYOUT
  5
1E
102
{ACAD_REACTORS
330
1A
102
}
330
1A
100
AcDbPlotSettings
  1

  2
none_device
  4

  6

 40
0.0
 41
0.0
 42
0.0
 43
0.0
 44
0.0
 45
0.0
 46
0.0
 47
0.0
 48
0.0
 49
0.0
140
0.0
141
0.0
142
1.0
143
1.0
 70
   688
 72
     0
 73
     0
 74
     5
  7

 75
    16
147
1.0
148
0.0
149
0.0
100
AcDbLayout
  1
Layout1
 70
     1
 71
     1
 10
0.0
 20
0.0
 11
420.0
 21
297.0
 12
0.0
 22
0.0
 32
0.0
 14
1.0000000000E+20
 24
1.0000000000E+20
 34
1.0000000000E+20
 15
-1.0000000000E+20
 25
-1.0000000000E+20
 35
-1.0000000000E+20
146
0.0
 13
0.0
 23
0.0
 33
0.0
 16
1.0
 26
0.0
 36
0.0
 17
0.0
 27
1.0
 37
0.0
 76
     0
330
1B
  0
LAYOUT
  5
26
102
{ACAD_REACTORS
330
1A
102
}
330
1A
100
AcDbPlotSettings
  1

  2
none_device
  4

  6

 40
0.0
 41
0.0
 42
0.0
 43
0.0
 44
0.0
 45
0.0
 46
0.0
 47
0.0
 48
0.0
 49
0.0
140
0.0
141
0.0
142
1.0
143
1.0
 70
   688
 72
     0
 73
     0
 74
     5
  7

 75
    16
147
1.0
148
0.0
149
0.0
100
AcDbLayout
  1
Layout2
 70
     1
 71
     2
 10
0.0
 20
0.0
 11
0.0
 21
0.0
 12
0.0
 22
0.0
 32
0.0
 14
0.0
 24
0.0
 34
0.0
 15
0.0
 25
0.0
 35
0.0
146
0.0
 13
0.0
 23
0.0
 33
0.0
 16
1.0
 26
0.0
 36
0.0
 17
0.0
 27
1.0
 37
0.0
 76
     0
330
23
  0
LAYOUT
  5
22
102
{ACAD_REACTORS
330
1A
102
}
330
1A
100
AcDbPlotSettings
  1

  2
none_device
  4

  6

 40
0.0
 41
0.0
 42
0.0
 43
0.0
 44
0.0
 45
0.0
 46
0.0
 47
0.0
 48
0.0
 49
0.0
140
0.0
141
0.0
142
1.0
143
1.0
 70
  1712
 72
     0
 73
     0
 74
     0
  7

 75
     0
147
1.0
148
0.0
149
0.0
100
AcDbLayout
  1
Model
 70
     1
 71
     0
 10
0.0
 20
0.0
 11
297.0
 21
210.0
 12
0.0
 22
0.0
 32
0.0
 14
0.0
 24
0.0
 34
0.0
 15
297.0
 25
210.0
 35
0.0
146
0.0
 13
0.0
 23
0.0
 33
0.0
 16
1.0
 26
0.0
 36
0.0
 17
0.0
 27
1.0
 37
0.0
 76
     0
330
1F
331
29
  0
MLINESTYLE
  5
18
102
{ACAD_REACTORS
330
17
102
}
330
17
100
AcDbMlineStyle
  2
Standard
 70
     0
  3

 62
   256
 51
90.0
 52
90.0
 71
     2
 49
0.5
 62
   256
  6
BYLAYER
 49
-0.5
 62
   256
  6
BYLAYER
  0
ACDBPLACEHOLDER
  5
F
102
{ACAD_REACTORS
330
E
102
}
330
E
  0
VISUALSTYLE
  5
2F
102
{ACAD_REACTORS
330
2A
102
}
330
2A
100
AcDbVisualStyle
  2
2dWireframe
 70
     4
 71
     0
 72
     2
 73
     0
 90
        0
 40
-0.6
 41
-30.0
 62
     5
 63
     7
 74
     1
 91
        4
 64
     7
 65
   257
 75
     1
175
     1
 42
1.0
 92
        0
 66
   257
 43
1.0
 76
     1
 77
     6
 78
     2
 67
     7
 79
     5
170
     0
171
     0
290
     0
174
     0
 93
        1
 44
0.0
173
     0
291
     0
 45
0.0
1001
ACAD
1000
AcDbSavedByObjectVersion
1070
     0
  0
VISUALSTYLE
  5
31
102
{ACAD_REACTORS
330
2A
102
}
330
2A
100
AcDbVisualStyle
  2
3D Hidden
 70
     6
 71
     1
 72
     2
 73
     2
 90
        0
 40
-0.6
 41
-30.0
 62
     5
 63
     7
 74
     2
 91
        2
 64
     7
 65
   257
 75
     2
175
     1
 42
40.0
 92
        0
 66
   257
 43
1.0
 76
     1
 77
     6
 78
     2
 67
     7
 79
     3
170
     0
171
     0
290
     0
174
     0
 93
        1
 44
0.0
173
     0
291
     0
 45
0.0
1001
ACAD
1000
AcDbSavedByObjectVersion
1070
     0
  0
VISUALSTYLE
  5
30
102
{ACAD_REACTORS
330
2A
102
}
330
2A
100
AcDbVisualStyle
  2
3dWireframe
 70
     5
 71
     0
 72
     2
 73
     0
 90
        0
 40
-0.6
 41
-30.0
 62
     5
 63
     7
 74
     1
 91
        4
 64
     7
 65
   257
 75
     1
175
     1
 42
1.0
 92
        0
 66
   257
 43
1.0
 76
     1
 77
     6
 78
     2
 67
     7
 79
     5
170
     0
171
     0
290
     0
174
     0
 93
        1
 44
0.0
173
     0
291
     0
 45
0.0
1001
ACAD
1000
AcDbSavedByObjectVersion
1070
     0
  0
VISUALSTYLE
  5
32
102
{ACAD_REACTORS
330
2A
102
}
330
2A
100
AcDbVisualStyle
  2
Basic
 70
     7
 71
     1
 72
     0
 73
     1
 90
        0
 40
-0.6
 41
-30.0
 62
     5
 63
     7
 74
     0
 91
        4
 64
     7
 65
   257
 75
     1
175
     1
 42
1.0
 92
        8
 66
     7
 43
1.0
 76
     1
 77
     6
 78
     2
 67
     7
 79
     5
170
     0
171
     0
290
     0
174
     0
 93
        1
 44
0.0
173
     0
291
     1
 45
0.0
1001
ACAD
1000
AcDbSavedByObjectVersion
1070
     0
  0
VISUALSTYLE
  5
36
102
{ACAD_REACTORS
330
2A
102
}
330
2A
100
AcDbVisualStyle
  2
Brighten
 70
    12
 71
     2
 72
     2
 73
     0
 90
        0
 40
-0.6
 41
-30.0
 62
     5
 63
     7
 74
     1
 91
        4
 64
     7
 65
   257
 75
     1
175
     1
 42
1.0
 92
        8
 66
     7
 43
1.0
 76
     1
 77
     6
 78
     2
 67
     7
 79
     5
170
     0
171
     0
290
     0
174
     0
 93
        1
 44
50.0
173
     0
291
     1
 45
0.0
1001
ACAD
1000
AcDbSavedByObjectVersion
1070
     0
  0
VISUALSTYLE
  5
3A
102
{ACAD_REACTORS
330
2A
102
}
330
2A
100
AcDbVisualStyle
  2
ColorChange
 70
    16
 71
     2
 72
     2
 73
     3
 90
        0
 40
-0.6
 41
-30.0
 62
     5
 63
     8
 74
     1
 91
        4
 64
     7
 65
   257
 75
     1
175
     1
 42
1.0
 92
        8
 66
     8
 43
1.0
 76
     1
 77
     6
 78
     2
 67
     7
 79
     5
170
     0
171
     0
290
     0
174
     0
 93
        1
 44
0.0
173
     0
291
     1
 45
0.0
1001
ACAD
1000
AcDbSavedByObjectVersion
1070
     0
  0
VISUALSTYLE
  5
34
102
{ACAD_REACTORS
330
2A
102
}
330
2A
100
AcDbVisualStyle
  2
Conceptual
 70
     9
 71
     3
 72
     2
 73
     0
 90
        0
 40
-0.6
 41
-30.0
 62
     5
 63
     7
 74
     2
 91
        2
 64
     7
 65
   257
 75
     1
175
     1
 42
40.0
 92
        8
 66
     7
 43
1.0
 76
     1
 77
     6
 78
     2
 67
     7
 79
     3
170
     0
171
     0
290
     0
174
     0
 93
        1
 44
0.0
173
     0
291
     0
 45
0.0
1001
ACAD
1000
AcDbSavedByObjectVersion
1070
     0
  0
VISUALSTYLE
  5
35
102
{ACAD_REACTORS
330
2A
102
}
330
2A
100
AcDbVisualStyle
  2
Dim
 70
    11
 71
     2
 72
     2
 73
     0
 90
        0
 40
-0.6
 41
-30.0
 62
     5
 63
     7
 74
     1
 91
        4
 64
     7
 65
   257
 75
     1
175
     1
 42
1.0
 92
        8
 66
     7
 43
1.0
 76
     1
 77
     6
 78
     2
 67
     7
 79
     5
170
     0
171
     0
290
     0
174
     0
 93
        1
 44
-50.0
173
     0
291
     1
 45
0.0
1001
ACAD
1000
AcDbSavedByObjectVersion
1070
     0
  0
VISUALSTYLE
  5
39
102
{ACAD_REACTORS
330
2A
102
}
330
2A
100
AcDbVisualStyle
  2
Facepattern
 70
    15
 71
     2
 72
     2
 73
     0
 90
        0
 40
-0.6
 41
-30.0
 62
     5
 63
     7
 74
     1
 91
        4
 64
     7
 65
   257
 75
     1
175
     1
 42
1.0
 92
        8
 66
     7
 43
1.0
 76
     1
 77
     6
 78
     2
 67
     7
 79
     5
170
     0
171
     0
290
     0
174
     0
 93
        1
 44
0.0
173
     0
291
     1
 45
0.0
1001
ACAD
1000
AcDbSavedByObjectVersion
1070
     0
  0
VISUALSTYLE
  5
2B
102
{ACAD_REACTORS
330
2A
102
}
330
2A
100
AcDbVisualStyle
  2
Flat
 70
     0
 71
     2
 72
     1
 73
     1
 90
        2
 40
-0.6
 41
30.0
 62
     5
 63
     7
 74
     0
 91
        4
 64
     7
 65
   257
 75
     1
175
     1
 42
1.0
 92
        8
 66
     7
 43
1.0
 76
     1
 77
     6
 78
     2
 67
     7
 79
     5
170
     0
171
     0
290
     0
174
     0
 93
       13
 44
0.0
173
     0
291
     1
 45
0.0
1001
ACAD
1000
AcDbSavedByObjectVersion
1070
     0
  0
VISUALSTYLE
  5
2C
102
{ACAD_REACTORS
330
2A
102
}
330
2A
100
AcDbVisualStyle
  2
FlatWithEdges
 70
     1
 71
     2
 72
     1
 73
     1
 90
        2
 40
-0.6
 41
30.0
 62
     5
 63
     7
 74
     1
 91
        4
 64
     7
 65
   257
 75
     1
175
     1
 42
1.0
 92
        0
 66
   257
 43
1.0
 76
     1
 77
     6
 78
     2
 67
     7
 79
     5
170
     0
171
     0
290
     0
174
     0
 93
       13
 44
0.0
173
     0
291
     1
 45
0.0
1001
ACAD
1000
AcDbSavedByObjectVersion
1070
     0
  0
VISUALSTYLE
  5
2D
102
{ACAD_REACTORS
330
2A
102
}
330
2A
100
AcDbVisualStyle
  2
Gouraud
 70
     2
 71
     2
 72
     2
 73
     1
 90
        2
 40
-0.6
 41
30.0
 62
     5
 63
     7
 74
     0
 91
        4
 64
     7
 65
   257
 75
     1
175
     1
 42
1.0
 92
        0
 66
     7
 43
1.0
 76
     1
 77
     6
 78
     2
 67
     7
 79
     5
170
     0
171
     0
290
     0
174
     0
 93
       13
 44
0.0
173
     0
291
     1
 45
0.0
1001
ACAD
1000
AcDbSavedByObjectVersion
1070
     0
  0
VISUALSTYLE
  5
2E
102
{ACAD_REACTORS
330
2A
102
}
330
2A
100
AcDbVisualStyle
  2
GouraudWithEdges
 70
     3
 71
     2
 72
     2
 73
     1
 90
        2
 40
-0.6
 41
30.0
 62
     5
 63
     7
 74
     1
 91
        4
 64
     7
 65
   257
 75
     1
175
     1
 42
1.0
 92
        0
 66
   257
 43
1.0
 76
     1
 77
     6
 78
     2
 67
     7
 79
     5
170
     0
171
     0
290
     0
174
     0
 93
       13
 44
0.0
173
     0
291
     1
 45
0.0
1001
ACAD
1000
AcDbSavedByObjectVersion
1070
     0
  0
VISUALSTYLE
  5
38
102
{ACAD_REACTORS
330
2A
102
}
330
2A
100
AcDbVisualStyle
  2
Linepattern
 70
    14
 71
     2
 72
     2
 73
     0
 90
        0
 40
-0.6
 41
-30.0
 62
     5
 63
     7
 74
     1
 91
        4
 64
     7
 65
   257
 75
     7
175
     7
 42
1.0
 92
        8
 66
     7
 43
1.0
 76
     1
 77
     6
 78
     2
 67
     7
 79
     5
170
     0
171
     0
290
     0
174
     0
 93
        1
 44
0.0
173
     0
291
     1
 45
0.0
1001
ACAD
1000
AcDbSavedByObjectVersion
1070
     0
  0
VISUALSTYLE
  5
33
102
{ACAD_REACTORS
330
2A
102
}
330
2A
100
AcDbVisualStyle
  2
Realistic
 70
     8
 71
     2
 72
     2
 73
     0
 90
        0
 40
-0.6
 41
-30.0
 62
     5
 63
     7
 74
     1
 91
        0
 64
     7
 65
   257
 75
     1
175
     1
 42
1.0
 92
        8
 66
     8
 43
1.0
 76
     1
 77
     6
 78
     2
 67
     7
 79
     5
170
     0
171
     0
290
     0
174
     0
 93
       13
 44
0.0
173
     0
291
     0
 45
0.0
1001
ACAD
1000
AcDbSavedByObjectVersion
1070
     0
  0
VISUALSTYLE
  5
37
102
{ACAD_REACTORS
330
2A
102
}
330
2A
100
AcDbVisualStyle
  2
Thicken
 70
    13
 71
     2
 72
     2
 73
     0
 90
        0
 40
-0.6
 41
-30.0
 62
     5
 63
     7
 74
     1
 91
        4
 64
     7
 65
   257
 75
     1
175
     1
 42
1.0
 92
       12
 66
     7
 43
1.0
 76
     1
 77
     6
 78
     2
 67
     7
 79
     5
170
     0
171
     0
290
     0
174
     0
 93
        1
 44
0.0
173
     0
291
     1
 45
0.0
1001
ACAD
1000
AcDbSavedByObjectVersion
1070
     0
  0
DICTIONARYVAR
  5
27F
102
{ACAD_REACTORS
330
27D
102
}
330
27D
100
DictionaryVariables
280
     0
  1
80.000000
  0
DICTIONARYVAR
  5
27E
102
{ACAD_REACTORS
330
27D
102
}
330
27D
100
DictionaryVariables
280
     0
  1
5.000000
  0
ENDSEC
  0
EOF
