  0
SECTION
  2
HEADER
  9
$ACADVER
  1
AC1015
  9
$ACADMAINTVER
 70
     6
  9
$DWGCODEPAGE
  3
ANSI_1252
  9
$INSBASE
 10
0.0
 20
0.0
 30
0.0
  9
$EXTMIN
 10
0.0
 20
0.0
 30
0.0
  9
$EXTMAX
 10
297.0
 20
210.0
 30
0.0
  9
$LIMMIN
 10
0.0
 20
0.0
  9
$LIMMAX
 10
297.0
 20
210.0
  9
$ORTHOMODE
 70
     0
  9
$REGENMODE
 70
     1
  9
$FILLMODE
 70
     1
  9
$QTEXTMODE
 70
     0
  9
$MIRRTEXT
 70
     1
  9
$LTSCALE
 40
1.0
  9
$ATTMODE
 70
     1
  9
$TEXTSIZE
 40
2.0
  9
$TRACEWID
 40
1.0
  9
$TEXTSTYLE
  7
Standard
  9
$CLAYER
  8
0
  9
$CELTYPE
  6
ByLayer
  9
$CECOLOR
 62
   256
  9
$CELTSCALE
 40
1.0
  9
$DISPSILH
 70
     0
  9
$DIMSCALE
 40
1.0
  9
$DIMASZ
 40
3.0
  9
$DIMEXO
 40
0.0
  9
$DIMDLI
 40
3.75
  9
$DIMRND
 40
0.0
  9
$DIMDLE
 40
0.0
  9
$DIMEXE
 40
1.0
  9
$DIMTP
 40
0.0
  9
$DIMTM
 40
0.0
  9
$DIMTXT
 40
2.0
  9
$DIMCEN
 40
2.5
  9
$DIMTSZ
 40
0.0
  9
$DIMTOL
 70
     0
  9
$DIMLIM
 70
     0
  9
$DIMTIH
 70
     1
  9
$DIMTOH
 70
     1
  9
$DIMSE1
 70
     0
  9
$DIMSE2
 70
     0
  9
$DIMTAD
 70
     1
  9
$DIMZIN
 70
     0
  9
$DIMBLK
  1

  9
$DIMASO
 70
     1
  9
$DIMSHO
 70
     1
  9
$DIMPOST
  1

  9
$DIMAPOST
  1

  9
$DIMALT
 70
     0
  9
$DIMALTD
 70
     3
  9
$DIMALTF
 40
0.0393700787
  9
$DIMLFAC
 40
1.0
  9
$DIMTOFL
 70
     1
  9
$DIMTVP
 40
0.0
  9
$DIMTIX
 70
     0
  9
$DIMSOXD
 70
     0
  9
$DIMSAH
 70
     0
  9
$DIMBLK1
  1

  9
$DIMBLK2
  1

  9
$DIMSTYLE
  2
ISO-25
  9
$DIMCLRD
 70
     0
  9
$DIMCLRE
 70
     0
  9
$DIMCLRT
 70
     0
  9
$DIMTFAC
 40
1.0
  9
$DIMGAP
 40
1.524
  9
$DIMJUST
 70
     0
  9
$DIMSD1
 70
     0
  9
$DIMSD2
 70
     0
  9
$DIMTOLJ
 70
     0
  9
$DIMTZIN
 70
     0
  9
$DIMALTZ
 70
     0
  9
$DIMALTTZ
 70
     0
  9
$DIMUPT
 70
     0
  9
$DIMDEC
 70
     2
  9
$DIMTDEC
 70
     3
  9
$DIMALTU
 70
     2
  9
$DIMALTTD
 70
     3
  9
$DIMTXSTY
  7
Standard
  9
$DIMAUNIT
 70
     0
  9
$DIMADEC
 70
     2
  9
$DIMALTRND
 40
0.0
  9
$DIMAZIN
 70
     0
  9
$DIMDSEP
 70
    44
  9
$DIMATFIT
 70
     3
  9
$DIMFRAC
 70
     0
  9
$DIMLDRBLK
  1

  9
$DIMLUNIT
 70
     2
  9
$DIMLWD
 70
    -2
  9
$DIMLWE
 70
    -2
  9
$DIMTMOVE
 70
     0
  9
$LUNITS
 70
     2
  9
$LUPREC
 70
     2
  9
$SKETCHINC
 40
1.0
  9
$FILLETRAD
 40
10.0
  9
$AUNITS
 70
     0
  9
$AUPREC
 70
     2
  9
$MENU
  1
.
  9
$ELEVATION
 40
0.0
  9
$PELEVATION
 40
0.0
  9
$THICKNESS
 40
0.0
  9
$LIMCHECK
 70
     0
  9
$CHAMFERA
 40
10.0
  9
$CHAMFERB
 40
10.0
  9
$CHAMFERC
 40
20.0
  9
$CHAMFERD
 40
0.0
  9
$SKPOLY
 70
     0
  9
$TDCREATE
 40
2456043.710982905
  9
$TDUCREATE
 40
2456043.627649572
  9
$TDUPDATE
 40
2456043.710984711
  9
$TDUUPDATE
 40
2456043.627651377
  9
$TDINDWG
 40
0.0000000116
  9
$TDUSRTIMER
 40
0.0000000116
  9
$USRTIMER
 70
     1
  9
$ANGBASE
 50
0.0
  9
$ANGDIR
 70
     0
  9
$PDMODE
 70
     0
  9
$PDSIZE
 40
-1.0
  9
$PLINEWID
 40
0.0
  9
$SPLFRAME
 70
     0
  9
$SPLINETYPE
 70
     6
  9
$SPLINESEGS
 70
     8
  9
$HANDSEED
  5
2DE
  9
$SURFTAB1
 70
     6
  9
$SURFTAB2
 70
     6
  9
$SURFTYPE
 70
     6
  9
$SURFU
 70
     6
  9
$SURFV
 70
     6
  9
$UCSBASE
  2

  9
$UCSNAME
  2

  9
$UCSORG
 10
0.0
 20
0.0
 30
0.0
  9
$UCSXDIR
 10
1.0
 20
0.0
 30
0.0
  9
$UCSYDIR
 10
0.0
 20
1.0
 30
0.0
  9
$UCSORTHOREF
  2

  9
$UCSORTHOVIEW
 70
     0
  9
$UCSORGTOP
 10
0.0
 20
0.0
 30
0.0
  9
$UCSORGBOTTOM
 10
0.0
 20
0.0
 30
0.0
  9
$UCSORGLEFT
 10
0.0
 20
0.0
 30
0.0
  9
$UCSORGRIGHT
 10
0.0
 20
0.0
 30
0.0
  9
$UCSORGFRONT
 10
0.0
 20
0.0
 30
0.0
  9
$UCSORGBACK
 10
0.0
 20
0.0
 30
0.0
  9
$PUCSBASE
  2

  9
$PUCSNAME
  2

  9
$PUCSORG
 10
0.0
 20
0.0
 30
0.0
  9
$PUCSXDIR
 10
1.0
 20
0.0
 30
0.0
  9
$PUCSYDIR
 10
0.0
 20
1.0
 30
0.0
  9
$PUCSORTHOREF
  2

  9
$PUCSORTHOVIEW
 70
     0
  9
$PUCSORGTOP
 10
0.0
 20
0.0
 30
0.0
  9
$PUCSORGBOTTOM
 10
0.0
 20
0.0
 30
0.0
  9
$PUCSORGLEFT
 10
0.0
 20
0.0
 30
0.0
  9
$PUCSORGRIGHT
 10
0.0
 20
0.0
 30
0.0
  9
$PUCSORGFRONT
 10
0.0
 20
0.0
 30
0.0
  9
$PUCSORGBACK
 10
0.0
 20
0.0
 30
0.0
  9
$USERI1
 70
     0
  9
$USERI2
 70
     0
  9
$USERI3
 70
     0
  9
$USERI4
 70
     0
  9
$USERI5
 70
     0
  9
$USERR1
 40
0.0
  9
$USERR2
 40
0.0
  9
$USERR3
 40
0.0
  9
$USERR4
 40
0.0
  9
$USERR5
 40
0.0
  9
$WORLDVIEW
 70
     1
  9
$SHADEDGE
 70
     3
  9
$SHADEDIF
 70
    70
  9
$TILEMODE
 70
     1
  9
$MAXACTVP
 70
    64
  9
$PINSBASE
 10
0.0
 20
0.0
 30
0.0
  9
$PLIMCHECK
 70
     0
  9
$PEXTMIN
 10
1.0000000000E+20
 20
1.0000000000E+20
 30
1.0000000000E+20
  9
$PEXTMAX
 10
-1.0000000000E+20
 20
-1.0000000000E+20
 30
-1.0000000000E+20
  9
$PLIMMIN
 10
0.0
 20
0.0
  9
$PLIMMAX
 10
420.0
 20
297.0
  9
$UNITMODE
 70
     0
  9
$VISRETAIN
 70
     1
  9
$PLINEGEN
 70
     0
  9
$PSLTSCALE
 70
     1
  9
$TREEDEPTH
 70
  3020
  9
$CMLSTYLE
  2
Standard
  9
$CMLJUST
 70
     0
  9
$CMLSCALE
 40
20.0
  9
$PROXYGRAPHICS
 70
     1
  9
$MEASUREMENT
 70
     1
  9
$CELWEIGHT
370
    -1
  9
$ENDCAPS
280
     0
  9
$JOINSTYLE
280
     0
  9
$LWDISPLAY
290
     1
  9
$INSUNITS
 70
     4
  9
$HYPERLINKBASE
  1

  9
$STYLESHEET
  1

  9
$XEDIT
290
     1
  9
$CEPSNTYPE
380
     0
  9
$PSTYLEMODE
290
     1
  9
$FINGERPRINTGUID
  2
{537E81A8-BDBD-4AAE-885E-05061D9FB2A3}
  9
$VERSIONGUID
  2
{FAEB1C32-E019-11D5-929B-00C0DF256EC4}
  9
$EXTNAMES
290
     1
  9
$PSVPSCALE
 40
0.0
  9
$OLESTARTUP
290
     0
  0
ENDSEC
  0
SECTION
  2
CLASSES
  0
CLASS
  1
ACDBDICTIONARYWDFLT
  2
AcDbDictionaryWithDefault
  3
ObjectDBX Classes
 90
        0
280
     0
281
     0
  0
CLASS
  1
VISUALSTYLE
  2
AcDbVisualStyle
  3
ObjectDBX Classes
 90
     4095
280
     0
281
     0
  0
CLASS
  1
MATERIAL
  2
AcDbMaterial
  3
ObjectDBX Classes
 90
     1153
280
     0
281
     0
  0
CLASS
  1
ACDBPLACEHOLDER
  2
AcDbPlaceHolder
  3
ObjectDBX Classes
 90
        0
280
     0
281
     0
  0
CLASS
  1
LAYOUT
  2
AcDbLayout
  3
ObjectDBX Classes
 90
        0
280
     0
281
     0
  0
ENDSEC
  0
SECTION
  2
TABLES
  0
TABLE
  2
VPORT
  5
8
330
0
100
AcDbSymbolTable
 70
     1
  0
VPORT
  5
29
330
8
100
AcDbSymbolTableRecord
100
AcDbViewportTableRecord
  2
*Active
 70
     0
 10
0.0
 20
0.0
 11
1.0
 21
1.0
 12
148.5
 22
105.0
 13
0.0
 23
0.0
 14
10.0
 24
10.0
 15
10.0
 25
10.0
 16
0.0
 26
0.0
 36
1.0
 17
0.0
 27
0.0
 37
0.0
 40
210.0
 41
1.4142857143
 42
50.0
 43
0.0
 44
0.0
 50
0.0
 51
0.0
 71
     0
 72
  2000
 73
     1
 74
     3
 75
     0
 76
     0
 77
     0
 78
     0
281
     0
 65
     1
110
0.0
120
0.0
130
0.0
111
1.0
121
0.0
131
0.0
112
0.0
122
1.0
132
0.0
 79
     0
146
0.0
  0
ENDTAB
  0
TABLE
  2
LTYPE
  5
5
330
0
100
AcDbSymbolTable
 70
     6
  0
LTYPE
  5
14
330
5
100
AcDbSymbolTableRecord
100
AcDbLinetypeTableRecord
  2
ByBlock
 70
     0
  3

 72
    65
 73
     0
 40
0.0
  0
LTYPE
  5
15
330
5
100
AcDbSymbolTableRecord
100
AcDbLinetypeTableRecord
  2
ByLayer
 70
     0
  3

 72
    65
 73
     0
 40
0.0
  0
LTYPE
  5
16
330
5
100
AcDbSymbolTableRecord
100
AcDbLinetypeTableRecord
  2
Continuous
 70
     0
  3
Solid line
 72
    65
 73
     0
 40
0.0
  0
LTYPE
  5
3F
330
5
100
AcDbSymbolTableRecord
100
AcDbLinetypeTableRecord
  2
HIDDEN
 70
     0
  3
Hidden __ __ __ __ __ __ __ __ __ __ __ __ __ __
 72
    65
 73
     2
 40
1.905
 49
1.27
 74
     0
 49
-0.635
 74
     0
  0
LTYPE
  5
40
330
5
100
AcDbSymbolTableRecord
100
AcDbLinetypeTableRecord
  2
PHANTOM
 70
     0
  3
Phantom ______  __  __  ______  __  __  ______
 72
    65
 73
     6
 40
12.7
 49
6.35
 74
     0
 49
-1.27
 74
     0
 49
1.27
 74
     0
 49
-1.27
 74
     0
 49
1.27
 74
     0
 49
-1.27
 74
     0
  0
LTYPE
  5
41
330
5
100
AcDbSymbolTableRecord
100
AcDbLinetypeTableRecord
  2
CENTER
 70
     0
  3
Center ____ _ ____ _ ____ _ ____ _ ____ _ ____
 72
    65
 73
     4
 40
10.16
 49
6.35
 74
     0
 49
-1.27
 74
     0
 49
1.27
 74
     0
 49
-1.27
 74
     0
  0
LTYPE
  5
42
330
5
100
AcDbSymbolTableRecord
100
AcDbLinetypeTableRecord
  2
CENTERX2
 70
     0
  3
Center (2x) ________  __  ________  __  _____
 72
    65
 73
     4
 40
20.32
 49
12.7
 74
     0
 49
-2.54
 74
     0
 49
2.54
 74
     0
 49
-2.54
 74
     0
  0
LTYPE
  5
43
330
5
100
AcDbSymbolTableRecord
100
AcDbLinetypeTableRecord
  2
DOT2
 70
     0
  3
Dot (.5x) ........................................
 72
    65
 73
     2
 40
0.635
 49
0.0
 74
     0
 49
-0.635
 74
     0
  0
ENDTAB
  0
TABLE
  2
LAYER
  5
2
330
0
100
AcDbSymbolTable
 70
     5
  0
LAYER
  5
10
330
2
100
AcDbSymbolTableRecord
100
AcDbLayerTableRecord
  2
0
 70
     0
 62
     7
  6
Continuous
370
    -3
390
F
  0
LAYER
  5
44
330
2
100
AcDbSymbolTableRecord
100
AcDbLayerTableRecord
  2
FORMAT
 70
     0
 62
     7
  6
Continuous
370
    -3
390
F
  0
LAYER
  5
45
330
2
100
AcDbSymbolTableRecord
100
AcDbLayerTableRecord
  2
VERMASSUNG
 70
     0
 62
     7
  6
Continuous
370
    -3
390
F
  0
LAYER
  5
46
330
2
100
AcDbSymbolTableRecord
100
AcDbLayerTableRecord
  2
KOPF_DÜNN
 70
     0
 62
     7
  6
Continuous
370
    -3
390
F
  0
LAYER
  5
47
330
2
100
AcDbSymbolTableRecord
100
AcDbLayerTableRecord
  2
KOPF_DICK
 70
     0
 62
     7
  6
Continuous
370
    15
390
F
  0
ENDTAB
  0
TABLE
  2
STYLE
  5
3
330
0
100
AcDbSymbolTable
 70
     3
  0
STYLE
  5
11
330
3
100
AcDbSymbolTableRecord
100
AcDbTextStyleTableRecord
  2
Standard
 70
     0
 40
0.0
 41
1.0
 50
0.0
 71
     0
 42
2.0
  3
txt
  4

  0
STYLE
  5
48
330
3
100
AcDbSymbolTableRecord
100
AcDbTextStyleTableRecord
  2
SLDTEXTSTYLE0
 70
     0
 40
0.0
 41
0.7
 50
0.0
 71
     0
 42
0.2
  3
TXT
  4

  0
STYLE
  5
4C
330
3
100
AcDbSymbolTableRecord
100
AcDbTextStyleTableRecord
  2
SLDTEXTSTYLE1
 70
     0
 40
0.0
 41
0.6526315789
 50
0.0
 71
     0
 42
0.2
  3
TXT
  4

  0
ENDTAB
  0
TABLE
  2
VIEW
  5
6
330
0
100
AcDbSymbolTable
 70
     0
  0
ENDTAB
  0
TABLE
  2
UCS
  5
7
330
0
100
AcDbSymbolTable
 70
     0
  0
ENDTAB
  0
TABLE
  2
APPID
  5
9
330
0
100
AcDbSymbolTable
 70
     1
  0
APPID
  5
12
330
9
100
AcDbSymbolTableRecord
100
AcDbRegAppTableRecord
  2
ACAD
 70
     0
  0
ENDTAB
  0
TABLE
  2
DIMSTYLE
  5
A
330
0
100
AcDbSymbolTable
 70
     3
100
AcDbDimStyleTable
  0
DIMSTYLE
105
27
330
A
100
AcDbSymbolTableRecord
100
AcDbDimStyleTableRecord
  2
ISO-25
 70
     0
 41
2.5
 42
0.625
 43
3.75
 44
1.25
 73
     0
 74
     0
 77
     1
 78
     8
140
2.5
141
2.5
143
0.0393700787
147
0.625
171
     3
172
     1
178
     0
271
     2
272
     2
274
     3
278
    44
283
     0
284
     8
340
11
  0
DIMSTYLE
105
225
102
{ACAD_REACTORS
330
224
330
22F
330
239
330
24D
330
2C6
102
}
330
A
100
AcDbSymbolTableRecord
100
AcDbDimStyleTableRecord
  2
SLDDIMSTYLE0
 70
     0
 41
3.0
 44
0.0
 45
0.000000001
 73
     0
 74
     0
 77
     1
 78
    12
 79
     3
140
2.0
147
0.5
173
     1
178
     0
271
     2
272
     3
276
     2
284
    12
340
48
  0
DIMSTYLE
105
244
102
{ACAD_REACTORS
330
243
102
}
330
A
100
AcDbSymbolTableRecord
100
AcDbDimStyleTableRecord
  2
SLDDIMSTYLE1
 70
     0
 41
3.0
 44
0.0
 73
     0
 74
     0
 77
     1
 78
    12
 79
     3
140
2.0
147
0.5
173
     1
178
     0
179
     1
272
     3
276
     2
284
    12
340
48
  0
ENDTAB
  0
TABLE
  2
BLOCK_RECORD
  5
1
330
0
100
AcDbSymbolTable
 70
     8
  0
BLOCK_RECORD
  5
1F
330
1
100
AcDbSymbolTableRecord
100
AcDbBlockTableRecord
  2
*Model_Space
340
22
  0
BLOCK_RECORD
  5
1B
330
1
100
AcDbSymbolTableRecord
100
AcDbBlockTableRecord
  2
*Paper_Space
340
1E
  0
BLOCK_RECORD
  5
23
330
1
100
AcDbSymbolTableRecord
100
AcDbBlockTableRecord
  2
*Paper_Space0
340
26
  0
BLOCK_RECORD
  5
226
330
1
100
AcDbSymbolTableRecord
100
AcDbBlockTableRecord
  2
_D
340
0
  0
BLOCK_RECORD
  5
230
330
1
100
AcDbSymbolTableRecord
100
AcDbBlockTableRecord
  2
_D_1
340
0
  0
BLOCK_RECORD
  5
23A
330
1
100
AcDbSymbolTableRecord
100
AcDbBlockTableRecord
  2
_D_2
340
0
  0
BLOCK_RECORD
  5
245
330
1
100
AcDbSymbolTableRecord
100
AcDbBlockTableRecord
  2
_D_3
340
0
  0
BLOCK_RECORD
  5
24E
330
1
100
AcDbSymbolTableRecord
100
AcDbBlockTableRecord
  2
_D_4
340
0
  0
BLOCK_RECORD
  5
2C7
330
1
100
AcDbSymbolTableRecord
100
AcDbBlockTableRecord
  2
_D_5
340
0
  0
BLOCK_RECORD
  5
2D1
330
1
100
AcDbSymbolTableRecord
100
AcDbBlockTableRecord
  2
SW_CENTERMARKSYMBOL_0
340
0
102
{BLKREFS
331
2DC
102
}
  0
ENDTAB
  0
ENDSEC
  0
SECTION
  2
BLOCKS
  0
BLOCK
  5
20
330
1F
100
AcDbEntity
  8
0
100
AcDbBlockBegin
  2
*Model_Space
 70
     0
 10
0.0
 20
0.0
 30
0.0
  3
*Model_Space
  1

  0
ENDBLK
  5
21
330
1F
100
AcDbEntity
  8
0
100
AcDbBlockEnd
  0
BLOCK
  5
1C
330
1B
100
AcDbEntity
 67
     1
  8
0
100
AcDbBlockBegin
  2
*Paper_Space
 70
     0
 10
0.0
 20
0.0
 30
0.0
  3
*Paper_Space
  1

  0
ENDBLK
  5
1D
330
1B
100
AcDbEntity
 67
     1
  8
0
100
AcDbBlockEnd
  0
BLOCK
  5
24
330
23
100
AcDbEntity
  8
0
100
AcDbBlockBegin
  2
*Paper_Space0
 70
     0
 10
0.0
 20
0.0
 30
0.0
  3
*Paper_Space0
  1

  0
ENDBLK
  5
25
330
23
100
AcDbEntity
  8
0
100
AcDbBlockEnd
  0
BLOCK
  5
227
330
226
100
AcDbEntity
  8
0
100
AcDbBlockBegin
  2
_D
 70
     0
 10
0.0
 20
0.0
 30
0.0
  3
_D
  1

  0
SOLID
  5
229
330
226
100
AcDbEntity
  8
VERMASSUNG
100
AcDbTrace
 10
162.2741880396
 20
138.9369365715
 30
0.0
 11
165.2741880396
 21
138.4869365715
 31
0.0
 12
165.2741880396
 22
139.3869365715
 32
0.0
 13
165.2741880396
 23
139.3869365715
 33
0.0
  0
SOLID
  5
22A
330
226
100
AcDbEntity
  8
VERMASSUNG
100
AcDbTrace
 10
237.1741880396
 20
138.9369365715
 30
0.0
 11
234.1741880396
 21
139.3869365715
 31
0.0
 12
234.1741880396
 22
138.4869365715
 32
0.0
 13
234.1741880396
 23
138.4869365715
 33
0.0
  0
LINE
  5
22B
330
226
100
AcDbEntity
  8
VERMASSUNG
100
AcDbLine
 10
162.2741880396
 20
113.529857634
 30
0.0
 11
162.2741880396
 21
139.9369365715
 31
0.0
  0
LINE
  5
22C
330
226
100
AcDbEntity
  8
VERMASSUNG
100
AcDbLine
 10
237.1741880396
 20
128.599857634
 30
0.0
 11
237.1741880396
 21
139.9369365715
 31
0.0
  0
LINE
  5
22D
330
226
100
AcDbEntity
  8
VERMASSUNG
100
AcDbLine
 10
162.2741880396
 20
138.9369365715
 30
0.0
 11
237.1741880396
 21
138.9369365715
 31
0.0
  0
MTEXT
  5
22E
330
226
100
AcDbEntity
  8
VERMASSUNG
100
AcDbMText
 10
197.2255215066
 20
141.5150719346
 30
0.0
 40
2.0
 41
0.0
 71
     1
 72
     1
  1
74.9
  7
SLDTEXTSTYLE0
 73
     1
 44
1.0
  0
ENDBLK
  5
228
330
226
100
AcDbEntity
  8
0
100
AcDbBlockEnd
  0
BLOCK
  5
231
330
230
100
AcDbEntity
  8
0
100
AcDbBlockBegin
  2
_D_1
 70
     0
 10
0.0
 20
0.0
 30
0.0
  3
_D_1
  1

  0
SOLID
  5
233
330
230
100
AcDbEntity
  8
VERMASSUNG
100
AcDbTrace
 10
182.1741880396
 20
132.9369365715
 30
0.0
 11
185.1741880396
 21
132.4869365715
 31
0.0
 12
185.1741880396
 22
133.3869365715
 32
0.0
 13
185.1741880396
 23
133.3869365715
 33
0.0
  0
SOLID
  5
234
330
230
100
AcDbEntity
  8
VERMASSUNG
100
AcDbTrace
 10
237.1741880396
 20
132.9369365715
 30
0.0
 11
234.1741880396
 21
133.3869365715
 31
0.0
 12
234.1741880396
 22
132.4869365715
 32
0.0
 13
234.1741880396
 23
132.4869365715
 33
0.0
  0
LINE
  5
235
330
230
100
AcDbEntity
  8
VERMASSUNG
100
AcDbLine
 10
182.1741880396
 20
121.299857634
 30
0.0
 11
182.1741880396
 21
133.9369365715
 31
0.0
  0
LINE
  5
236
330
230
100
AcDbEntity
  8
VERMASSUNG
100
AcDbLine
 10
237.1741880396
 20
128.599857634
 30
0.0
 11
237.1741880396
 21
133.9369365715
 31
0.0
  0
LINE
  5
237
330
230
100
AcDbEntity
  8
VERMASSUNG
100
AcDbLine
 10
182.1741880396
 20
132.9369365715
 30
0.0
 11
237.1741880396
 21
132.9369365715
 31
0.0
  0
MTEXT
  5
238
330
230
100
AcDbEntity
  8
VERMASSUNG
100
AcDbMText
 10
208.275573418
 20
135.5150719346
 30
0.0
 40
2.0
 41
0.0
 71
     1
 72
     1
  1
55
  7
SLDTEXTSTYLE0
 73
     1
 44
1.0
  0
ENDBLK
  5
232
330
230
100
AcDbEntity
  8
0
100
AcDbBlockEnd
  0
BLOCK
  5
23B
330
23A
100
AcDbEntity
  8
0
100
AcDbBlockBegin
  2
_D_2
 70
     0
 10
0.0
 20
0.0
 30
0.0
  3
_D_2
  1

  0
SOLID
  5
23D
330
23A
100
AcDbEntity
  8
VERMASSUNG
100
AcDbTrace
 10
243.0261580548
 20
128.599857634
 30
0.0
 11
242.5761580548
 21
125.599857634
 31
0.0
 12
243.4761580548
 22
125.599857634
 32
0.0
 13
243.4761580548
 23
125.599857634
 33
0.0
  0
SOLID
  5
23E
330
23A
100
AcDbEntity
  8
VERMASSUNG
100
AcDbTrace
 10
243.0261580548
 20
101.599857634
 30
0.0
 11
243.4761580548
 21
104.599857634
 31
0.0
 12
242.5761580548
 22
104.599857634
 32
0.0
 13
242.5761580548
 23
104.599857634
 33
0.0
  0
LINE
  5
23F
330
23A
100
AcDbEntity
  8
VERMASSUNG
100
AcDbLine
 10
237.1741880396
 20
128.599857634
 30
0.0
 11
244.0261580548
 21
128.599857634
 31
0.0
  0
LINE
  5
240
330
23A
100
AcDbEntity
  8
VERMASSUNG
100
AcDbLine
 10
229.2282550706
 20
101.599857634
 30
0.0
 11
244.0261580548
 21
101.599857634
 31
0.0
  0
LINE
  5
241
330
23A
100
AcDbEntity
  8
VERMASSUNG
100
AcDbLine
 10
243.0261580548
 20
128.599857634
 30
0.0
 11
243.0261580548
 21
101.599857634
 31
0.0
  0
MTEXT
  5
242
330
23A
100
AcDbEntity
  8
VERMASSUNG
100
AcDbMText
 10
240.4480226917
 20
113.7012430123
 30
0.0
 40
2.0
 41
0.0
 71
     1
 72
     1
  1
27
  7
SLDTEXTSTYLE0
 11
-7.044195017643634E-15
 21
1.0
 31
0.0
 73
     1
 44
1.0
  0
ENDBLK
  5
23C
330
23A
100
AcDbEntity
  8
0
100
AcDbBlockEnd
  0
BLOCK
  5
246
330
245
100
AcDbEntity
  8
0
100
AcDbBlockBegin
  2
_D_3
 70
     0
 10
0.0
 20
0.0
 30
0.0
  3
_D_3
  1

  0
ARC
  5
248
330
245
100
AcDbEntity
  8
VERMASSUNG
100
AcDbCircle
 10
237.1741880396
 20
130.4965678021
 30
0.0
 40
39.27267495456559
100
AcDbArc
 50
252.4857785491
 51
270.0
  0
SOLID
  5
249
330
245
100
AcDbEntity
  8
VERMASSUNG
100
AcDbTrace
 10
225.3553705304
 20
93.0444844052
 30
0.0
 11
228.1296560637
 21
91.8173577698
 31
0.0
 12
228.3675975225
 22
92.6853346486
 32
0.0
 13
228.3675975225
 23
92.6853346486
 33
0.0
  0
SOLID
  5
24A
330
245
100
AcDbEntity
  8
VERMASSUNG
100
AcDbTrace
 10
237.1741880396
 20
91.2238928476
 30
0.0
 11
234.1935175839
 21
91.7878996158
 31
0.0
 12
234.1592174764
 22
90.888553463
 32
0.0
 13
234.1592174764
 23
90.888553463
 33
0.0
  0
LINE
  5
24B
330
245
100
AcDbEntity
  8
VERMASSUNG
100
AcDbLine
 10
237.1741880396
 20
101.599857634
 30
0.0
 11
237.1741880396
 21
90.2238928476
 31
0.0
  0
MTEXT
  5
24C
330
245
100
AcDbEntity
  8
VERMASSUNG
100
AcDbMText
 10
228.8213906013
 20
94.6559004417
 30
0.0
 40
2.0
 41
0.0
 71
     1
 72
     1
  1
17.5°
  7
SLDTEXTSTYLE0
 11
0.9883426234966088
 21
-0.1522460461878751
 31
0.0
 73
     1
 44
1.0
  0
ENDBLK
  5
247
330
245
100
AcDbEntity
  8
0
100
AcDbBlockEnd
  0
BLOCK
  5
24F
330
24E
100
AcDbEntity
  8
0
100
AcDbBlockBegin
  2
_D_4
 70
     0
 10
0.0
 20
0.0
 30
0.0
  3
_D_4
  1

  0
SOLID
  5
251
330
24E
100
AcDbEntity
  8
VERMASSUNG
100
AcDbTrace
 10
157.5937819751
 20
121.599857634
 30
0.0
 11
157.1437819751
 21
118.599857634
 31
0.0
 12
158.0437819751
 22
118.599857634
 32
0.0
 13
158.0437819751
 23
118.599857634
 33
0.0
  0
SOLID
  5
252
330
24E
100
AcDbEntity
  8
VERMASSUNG
100
AcDbTrace
 10
157.5937819751
 20
81.599857634
 30
0.0
 11
158.0437819751
 21
84.599857634
 31
0.0
 12
157.1437819751
 22
84.599857634
 32
0.0
 13
157.1437819751
 23
84.599857634
 33
0.0
  0
LINE
  5
253
330
24E
100
AcDbEntity
  8
VERMASSUNG
100
AcDbLine
 10
182.4741880396
 20
121.599857634
 30
0.0
 11
156.5937819751
 21
121.599857634
 31
0.0
  0
LINE
  5
254
330
24E
100
AcDbEntity
  8
VERMASSUNG
100
AcDbLine
 10
182.4741880396
 20
81.599857634
 30
0.0
 11
156.5937819751
 21
81.599857634
 31
0.0
  0
LINE
  5
255
330
24E
100
AcDbEntity
  8
VERMASSUNG
100
AcDbLine
 10
157.5937819751
 20
121.599857634
 30
0.0
 11
157.5937819751
 21
81.599857634
 31
0.0
  0
MTEXT
  5
256
330
24E
100
AcDbEntity
  8
VERMASSUNG
100
AcDbMText
 10
154.8156464861
 20
95.2965122843
 30
0.0
 40
2.0
 41
0.0
 71
     1
 72
     1
  1
HSK
  7
SLDTEXTSTYLE0
 11
-7.044195017643634E-15
 21
1.0
 31
0.0
 73
     1
 44
1.0
  0
MTEXT
  5
257
330
24E
100
AcDbEntity
  8
VERMASSUNG
100
AcDbMText
 10
155.0156464956
 20
101.2965123365
 30
0.0
 40
2.0
 41
0.0
 71
     1
 72
     1
  1
%%c
  7
SLDTEXTSTYLE0
 11
-7.044195017643634E-15
 21
1.0
 31
0.0
 73
     1
 44
1.0
  0
MTEXT
  5
258
330
24E
100
AcDbEntity
  8
VERMASSUNG
100
AcDbMText
 10
155.015646612
 20
104.9048031441
 30
0.0
 40
2.0
 41
0.0
 71
     1
 72
     1
  1
40
  7
SLDTEXTSTYLE0
 11
-7.044195017643634E-15
 21
1.0
 31
0.0
 73
     1
 44
1.0
  0
ENDBLK
  5
250
330
24E
100
AcDbEntity
  8
0
100
AcDbBlockEnd
  0
BLOCK
  5
2C8
330
2C7
100
AcDbEntity
  8
0
100
AcDbBlockBegin
  2
_D_5
 70
     0
 10
0.0
 20
0.0
 30
0.0
  3
_D_5
  1

  0
SOLID
  5
2CA
330
2C7
100
AcDbEntity
  8
VERMASSUNG
100
AcDbTrace
 10
62.1001147947
 20
78.584300233
 30
0.0
 11
62.5501147947
 21
81.584300233
 31
0.0
 12
61.6501147947
 22
81.584300233
 32
0.0
 13
61.6501147947
 23
81.584300233
 33
0.0
  0
SOLID
  5
2CB
330
2C7
100
AcDbEntity
  8
VERMASSUNG
100
AcDbTrace
 10
62.1001147947
 20
128.584300233
 30
0.0
 11
61.6501147947
 21
125.584300233
 31
0.0
 12
62.5501147947
 22
125.584300233
 32
0.0
 13
62.5501147947
 23
125.584300233
 33
0.0
  0
LINE
  5
2CC
330
2C7
100
AcDbEntity
  8
VERMASSUNG
100
AcDbLine
 10
89.9970620239
 20
78.584300233
 30
0.0
 11
61.1001147947
 21
78.584300233
 31
0.0
  0
LINE
  5
2CD
330
2C7
100
AcDbEntity
  8
VERMASSUNG
100
AcDbLine
 10
89.9970620239
 20
128.584300233
 30
0.0
 11
61.1001147947
 21
128.584300233
 31
0.0
  0
LINE
  5
2CE
330
2C7
100
AcDbEntity
  8
VERMASSUNG
100
AcDbLine
 10
62.1001147947
 20
78.584300233
 30
0.0
 11
62.1001147947
 21
128.584300233
 31
0.0
  0
MTEXT
  5
2CF
330
2C7
100
AcDbEntity
  8
VERMASSUNG
100
AcDbMText
 10
59.5219793152
 20
100.3815366131
 30
0.0
 40
2.0
 41
0.0
 71
     1
 72
     1
  1
%%c
  7
SLDTEXTSTYLE0
 11
6.123233995736766E-17
 21
1.0
 31
0.0
 73
     1
 44
1.0
  0
MTEXT
  5
2D0
330
2C7
100
AcDbEntity
  8
VERMASSUNG
100
AcDbMText
 10
59.5219794316
 20
103.9898346096
 30
0.0
 40
2.0
 41
0.0
 71
     1
 72
     1
  1
50
  7
SLDTEXTSTYLE0
 11
6.123233995736766E-17
 21
1.0
 31
0.0
 73
     1
 44
1.0
  0
ENDBLK
  5
2C9
330
2C7
100
AcDbEntity
  8
0
100
AcDbBlockEnd
  0
BLOCK
  5
2D2
330
2D1
100
AcDbEntity
  8
0
100
AcDbBlockBegin
  2
SW_CENTERMARKSYMBOL_0
 70
     0
 10
0.0
 20
0.0
 30
0.0
  3
SW_CENTERMARKSYMBOL_0
  1

  0
LINE
  5
2D4
330
2D1
100
AcDbEntity
  8
VERMASSUNG
 62
     0
100
AcDbLine
 10
0.0
 20
0.0
 30
0.0
 11
0.0
 21
2.5
 31
0.0
  0
LINE
  5
2D5
330
2D1
100
AcDbEntity
  8
VERMASSUNG
 62
     0
100
AcDbLine
 10
0.0
 20
0.0
 30
0.0
 11
-2.5
 21
0.0
 31
0.0
  0
LINE
  5
2D6
330
2D1
100
AcDbEntity
  8
VERMASSUNG
 62
     0
100
AcDbLine
 10
0.0
 20
0.0
 30
0.0
 11
0.0
 21
-2.5
 31
0.0
  0
LINE
  5
2D7
330
2D1
100
AcDbEntity
  8
VERMASSUNG
 62
     0
100
AcDbLine
 10
0.0
 20
0.0
 30
0.0
 11
2.5
 21
0.0
 31
0.0
  0
LINE
  5
2D8
330
2D1
100
AcDbEntity
  8
VERMASSUNG
 62
     0
100
AcDbLine
 10
0.0
 20
5.0
 30
0.0
 11
0.0
 21
28.6892609732
 31
0.0
  0
LINE
  5
2D9
330
2D1
100
AcDbEntity
  8
VERMASSUNG
 62
     0
100
AcDbLine
 10
-5.0
 20
0.0
 30
0.0
 11
-22.5
 21
0.0
 31
0.0
  0
LINE
  5
2DA
330
2D1
100
AcDbEntity
  8
VERMASSUNG
 62
     0
100
AcDbLine
 10
0.0
 20
-5.0
 30
0.0
 11
0.0
 21
-22.5
 31
0.0
  0
LINE
  5
2DB
330
2D1
100
AcDbEntity
  8
VERMASSUNG
 62
     0
100
AcDbLine
 10
5.0
 20
0.0
 30
0.0
 11
22.5
 21
0.0
 31
0.0
  0
ENDBLK
  5
2D3
330
2D1
100
AcDbEntity
  8
0
100
AcDbBlockEnd
  0
ENDSEC
  0
SECTION
  2
ENTITIES
  0
MTEXT
  5
49
330
1F
100
AcDbEntity
  8
KOPF_DÜNN
100
AcDbMText
 10
13.8892156294
 20
23.8442973028
 30
0.0
 40
3.0
 41
0.0
 71
     1
 72
     1
  1
HA4.KDB.RHA.055
  7
SLDTEXTSTYLE0
 73
     1
 44
1.0
  0
MTEXT
  5
4A
330
1F
100
AcDbEntity
  8
VERMASSUNG
100
AcDbMText
 10
13.9329988022
 20
28.8834360957
 30
0.0
 40
3.0
 41
0.0
 71
     1
 72
     1
  1
Klemmhalter rechts_Turning tool right 107.5° /55° /107.5°
  7
SLDTEXTSTYLE0
 73
     1
 44
1.0
  0
MTEXT
  5
4B
330
1F
100
AcDbEntity
  8
VERMASSUNG
100
AcDbMText
 10
98.8601118557
 20
13.8365368179
 30
0.0
 40
2.0
 41
0.0
 71
     1
 72
     1
  1
Datum: 20.11.2008
  7
SLDTEXTSTYLE0
 73
     1
 44
1.0
  0
MTEXT
  5
4D
330
1F
100
AcDbEntity
  8
VERMASSUNG
100
AcDbMText
 10
13.933048693
 20
18.0482802738
 30
0.0
 40
2.0
 41
0.0
 71
     1
 72
     1
  1
DIN 69893 HSK 40 A ICTM / DC.. 11 T3..
  7
SLDTEXTSTYLE1
 73
     1
 44
1.0
  0
MTEXT
  5
4E
330
1F
100
AcDbEntity
  8
VERMASSUNG
100
AcDbMText
 10
13.9808475933
 20
13.9090973692
 30
0.0
 40
2.0
 41
0.0
 71
     1
 72
     1
  1
Gewicht: 328g
  7
SLDTEXTSTYLE0
 73
     1
 44
1.0
  0
LINE
  5
4F
330
1F
100
AcDbEntity
  8
0
  6
Continuous
 62
     7
370
    15
100
AcDbLine
 10
228.612088553
 20
121.0524257776
 30
0.0
 11
228.6352188805
 21
121.0755244401
 31
0.0
  0
LINE
  5
50
330
1F
100
AcDbEntity
  8
0
  6
Continuous
 62
     7
370
    15
100
AcDbLine
 10
230.4664747337
 20
120.3024149445
 30
0.0
 11
230.3971359054
 21
120.2331711111
 31
0.0
  0
LINE
  5
51
330
1F
100
AcDbEntity
  8
0
  6
Continuous
 62
     7
370
    15
100
AcDbLine
 10
229.4843578258
 20
122.5386638698
 30
0.0
 11
229.5537227312
 21
122.6079356429
 31
0.0
  0
LINE
  5
52
330
1F
100
AcDbEntity
  8
0
  6
Continuous
 62
     7
370
    15
100
AcDbLine
 10
228.1434358576
 20
123.299980959
 30
0.0
 11
228.1055161277
 21
123.2621133831
 31
0.0
  0
LINE
  5
53
330
1F
100
AcDbEntity
  8
0
  6
Continuous
 62
     7
370
    15
100
AcDbLine
 10
231.8152794162
 20
119.5472576228
 30
0.0
 11
231.8532028714
 21
119.5851270613
 31
0.0
  0
LINE
  5
54
330
1F
100
AcDbEntity
  8
0
  6
Continuous
 62
     7
370
    15
100
AcDbLine
 10
231.3883648733
 20
121.8382068482
 30
0.0
 11
231.3173012355
 21
121.7672419307
 31
0.0
  0
LINE
  5
55
330
1F
100
AcDbEntity
  8
0
  6
Continuous
 62
     7
370
    15
100
AcDbLine
 10
182.4741880539
 20
81.599858081
 30
0.0
 11
190.1241885045
 21
81.599858081
 31
0.0
  0
LINE
  5
56
330
1F
100
AcDbEntity
  8
0
  6
Continuous
 62
     7
370
    15
100
AcDbLine
 10
190.1397155145
 20
121.599857187
 30
0.0
 11
182.4741880539
 21
121.599857187
 31
0.0
  0
ARC
  5
57
330
1F
100
AcDbEntity
  8
0
  6
Continuous
 62
     7
370
    15
100
AcDbCircle
 10
182.4741880396
 20
81.899857634
 30
0.0
 40
0.3000000000000398
100
AcDbArc
 50
180.0
 51
270.0
  0
ARC
  5
58
330
1F
100
AcDbEntity
  8
0
  6
Continuous
 62
     7
370
    15
100
AcDbCircle
 10
182.4741880396
 20
121.299857634
 30
0.0
 40
0.3000000000000398
100
AcDbArc
 50
90.0
 51
180.0
  0
ARC
  5
59
330
1F
100
AcDbEntity
  8
0
  6
Continuous
 62
     7
370
    15
100
AcDbCircle
 10
203.1241880396
 20
84.099857634
 30
0.0
 40
1.000000000000015
100
AcDbArc
 50
90.0
 51
143.1137328946
  0
ARC
  5
5A
330
1F
100
AcDbEntity
  8
0
  6
Continuous
 62
     7
370
    15
100
AcDbCircle
 10
203.1241880396
 20
119.099857634
 30
0.0
 40
1.00000000000002
100
AcDbArc
 50
216.8998129703
 51
270.0
  0
LINE
  5
5B
330
1F
100
AcDbEntity
  8
0
  6
Continuous
 62
     7
370
    15
100
AcDbLine
 10
203.1241887728
 20
85.0998577234
 30
0.0
 11
216.4068603435
 21
85.0998577234
 31
0.0
  0
LINE
  5
5C
330
1F
100
AcDbEntity
  8
0
  6
Continuous
 62
     7
370
    15
100
AcDbLine
 10
216.4068603435
 20
118.0998575446
 30
0.0
 11
203.1241887728
 21
118.0998575446
 31
0.0
  0
ARC
  5
5D
330
1F
100
AcDbEntity
  8
0
  6
Continuous
 62
     7
370
    15
100
AcDbCircle
 10
181.674181287
 20
86.1461504805
 30
0.0
 40
0.60000675266771
100
AcDbArc
 50
33.5571153394
 51
90.0
  0
ARC
  5
5E
330
1F
100
AcDbEntity
  8
0
  6
Continuous
 62
     7
370
    15
100
AcDbCircle
 10
181.674181287
 20
117.0535647875
 30
0.0
 40
0.6000067526677242
100
AcDbArc
 50
270.0
 51
326.4428846606
  0
LINE
  5
5F
330
1F
100
AcDbEntity
  8
0
  6
Continuous
 62
     7
370
    15
100
AcDbLine
 10
173.3582550207
 20
116.3620785382
 30
0.0
 11
165.8741877893
 21
115.9871252757
 31
0.0
  0
LINE
  5
60
330
1F
100
AcDbEntity
  8
0
  6
Continuous
 62
     7
370
    15
100
AcDbLine
 10
180.1741879446
 20
116.7035582048
 30
0.0
 11
178.9394553764
 21
116.6416978967
 31
0.0
  0
LINE
  5
61
330
1F
100
AcDbEntity
  8
0
  6
Continuous
 62
     7
370
    15
100
AcDbLine
 10
178.9404514259
 20
86.5579680112
 30
0.0
 11
180.1741879446
 21
86.4961570633
 31
0.0
  0
LINE
  5
62
330
1F
100
AcDbEntity
  8
0
  6
Continuous
 62
     7
370
    15
100
AcDbLine
 10
168.3741881991
 20
87.0873392132
 30
0.0
 11
173.358717888
 21
86.8376134467
 31
0.0
  0
LINE
  5
63
330
1F
100
AcDbEntity
  8
0
  6
Continuous
 62
     7
370
    15
100
AcDbLine
 10
180.1741879446
 20
86.4961570633
 30
0.0
 11
181.0308999395
 21
86.7257122454
 31
0.0
  0
LINE
  5
64
330
1F
100
AcDbEntity
  8
0
  6
Continuous
 62
     7
370
    15
100
AcDbLine
 10
181.0308999395
 20
116.4740030226
 30
0.0
 11
180.1741879446
 21
116.7035582048
 31
0.0
  0
ARC
  5
65
330
1F
100
AcDbEntity
  8
0
  6
Continuous
 62
     7
370
    15
100
AcDbCircle
 10
181.1861931291
 20
86.1461504805
 30
0.0
 40
0.600006752667717
100
AcDbArc
 50
90.0
 51
105.0
  0
ARC
  5
66
330
1F
100
AcDbEntity
  8
0
  6
Continuous
 62
     7
370
    15
100
AcDbCircle
 10
181.1861931291
 20
117.0535647875
 30
0.0
 40
0.6000067526677242
100
AcDbArc
 50
255.0
 51
270.0
  0
LINE
  5
67
330
1F
100
AcDbEntity
  8
0
  6
Continuous
 62
     7
370
    15
100
AcDbLine
 10
181.1861930894
 20
86.7461575699
 30
0.0
 11
181.6741812638
 21
86.7461575699
 31
0.0
  0
LINE
  5
68
330
1F
100
AcDbEntity
  8
0
  6
Continuous
 62
     7
370
    15
100
AcDbLine
 10
181.6741812638
 20
116.4535576981
 30
0.0
 11
181.1861930894
 21
116.4535576981
 31
0.0
  0
ARC
  5
69
330
1F
100
AcDbEntity
  8
0
  6
Continuous
 62
     7
370
    15
100
AcDbCircle
 10
164.9741880396
 20
115.379857634
 30
0.0
 40
0.9000000000000178
100
AcDbArc
 50
270.0
 51
311.1792132369
  0
ARC
  5
6A
330
1F
100
AcDbEntity
  8
0
  6
Continuous
 62
     7
370
    15
100
AcDbCircle
 10
167.4741880396
 20
87.878857634
 30
0.0
 40
0.9000000000000449
100
AcDbArc
 50
29.8499024808
 51
90.0
  0
LINE
  5
6B
330
1F
100
AcDbEntity
  8
0
  6
Continuous
 62
     7
370
    15
100
AcDbLine
 10
163.2241876343
 20
114.4798579198
 30
0.0
 11
162.2741883168
 21
113.529857671
 31
0.0
  0
LINE
  5
6C
330
1F
100
AcDbEntity
  8
0
  6
Continuous
 62
     7
370
    15
100
AcDbLine
 10
164.9741874555
 20
114.4798579198
 30
0.0
 11
163.2241876343
 21
114.4798579198
 31
0.0
  0
LINE
  5
6D
330
1F
100
AcDbEntity
  8
0
  6
Continuous
 62
     7
370
    15
100
AcDbLine
 10
163.2241876343
 20
88.7788575646
 30
0.0
 11
167.4741878653
 21
88.7788575646
 31
0.0
  0
LINE
  5
6E
330
1F
100
AcDbEntity
  8
0
  6
Continuous
 62
     7
370
    15
100
AcDbLine
 10
162.2741883168
 20
89.7288578135
 30
0.0
 11
163.2241876343
 21
88.7788575646
 31
0.0
  0
ARC
  5
6F
330
1F
100
AcDbEntity
  8
0
  6
Continuous
 62
     7
370
    15
100
AcDbCircle
 10
216.4068610516
 20
119.099857634
 30
0.0
 40
1.0
100
AcDbArc
 50
270.0
 51
345.0
  0
ARC
  5
70
330
1F
100
AcDbEntity
  8
0
  6
Continuous
 62
     7
370
    15
100
AcDbCircle
 10
216.4068610516
 20
84.099857634
 30
0.0
 40
1.000000000000014
100
AcDbArc
 50
15.0
 51
90.0
  0
LINE
  5
71
330
1F
100
AcDbEntity
  8
0
  6
Continuous
 62
     7
370
    15
100
AcDbLine
 10
218.2653704205
 20
122.1722033379
 30
0.0
 11
217.3727871397
 21
118.8410394397
 31
0.0
  0
LINE
  5
72
330
1F
100
AcDbEntity
  8
0
  6
Continuous
 62
     7
370
    15
100
AcDbLine
 10
217.3727871397
 20
84.3586758283
 30
0.0
 11
217.5761134842
 21
83.5998584089
 31
0.0
  0
LINE
  5
73
330
1F
100
AcDbEntity
  8
0
  6
Continuous
 62
     7
370
    15
100
AcDbLine
 10
217.5761134842
 20
83.5998584089
 30
0.0
 11
222.2734177032
 21
83.5998584089
 31
0.0
  0
LINE
  5
74
330
1F
100
AcDbEntity
  8
0
  6
Continuous
 62
     7
370
    15
100
AcDbLine
 10
226.0941052357
 20
124.6587489304
 30
0.0
 11
218.278632454
 21
122.2159773615
 31
0.0
  0
LINE
  5
75
330
1F
100
AcDbEntity
  8
0
  6
Continuous
 62
     7
370
    15
100
AcDbLine
 10
223.5459768692
 20
114.5319030193
 30
0.0
 11
233.690340958
 21
117.7025851366
 31
0.0
  0
LINE
  5
76
330
1F
100
AcDbEntity
  8
0
  6
Continuous
 62
     7
370
    15
100
AcDbLine
 10
224.8099157134
 20
116.2683483717
 30
0.0
 11
223.4203861574
 21
114.8826651779
 31
0.0
  0
LINE
  5
77
330
1F
100
AcDbEntity
  8
0
  6
Continuous
 62
     7
370
    15
100
AcDbLine
 10
233.3825649241
 20
118.2226952669
 30
0.0
 11
233.5647502461
 21
118.0533472952
 31
0.0
  0
SPLINE
  5
78
330
1F
100
AcDbEntity
  8
0
  6
Continuous
 62
     7
370
    15
100
AcDbSpline
210
0.0
220
0.0
230
1.0
 70
     8
 71
     3
 72
    10
 73
     6
 74
     0
 42
0.00000001
 43
0.00000001
 12
1.0
 22
0.0
 32
0.0
 13
1.0
 23
0.0
 33
0.0
 40
0.0
 40
0.0
 40
0.0
 40
0.0
 40
0.3518028710948534
 40
0.7034247120836828
 40
1.0
 40
1.0
 40
1.0
 40
1.0
 10
226.5087710240752
 20
125.4105534908236
 30
0.0
 10
226.467653372871
 20
125.3930205220949
 30
0.0
 10
226.3854392287114
 20
125.3579636067219
 30
0.0
 10
226.2955005962096
 20
125.2630155276645
 30
0.0
 10
226.2641970903586
 20
125.1871006534918
 30
0.0
 10
226.249874524203
 20
125.1523666587533
 30
0.0
  0
LINE
  5
79
330
1F
100
AcDbEntity
  8
0
  6
Continuous
 62
     7
370
    15
100
AcDbLine
 10
236.6628953734
 20
128.5842847583
 30
0.0
 11
226.5087710241
 21
125.4105534908
 31
0.0
  0
SPLINE
  5
7A
330
1F
100
AcDbEntity
  8
0
  6
Continuous
 62
     7
370
    15
100
AcDbSpline
210
0.0
220
0.0
230
1.0
 70
     8
 71
     3
 72
    14
 73
    10
 74
     0
 42
0.00000001
 43
0.00000001
 12
1.0
 22
0.0
 32
0.0
 13
1.0
 23
0.0
 33
0.0
 40
0.0
 40
0.0
 40
0.0
 40
0.0
 40
0.1588495050739169
 40
0.3173330529356123
 40
0.4720144500707
 40
0.6236433938068808
 40
0.7746614605712525
 40
0.92774211606231
 40
0.9999999999999999
 40
0.9999999999999999
 40
0.9999999999999999
 40
0.9999999999999999
 10
237.1583105543525
 20
128.0875117090405
 30
0.0
 10
237.1678291396244
 20
128.1325201885129
 30
0.0
 10
237.186844381268
 20
128.2224334570013
 30
0.0
 10
237.1563864425806
 20
128.3586704998363
 30
0.0
 10
237.0859234714648
 20
128.4746411454495
 30
0.0
 10
236.9814653424018
 20
128.5589725675278
 30
0.0
 10
236.8561194891853
 20
128.6034630282095
 30
0.0
 10
236.7455659820704
 20
128.6060110275457
 30
0.0
 10
236.6829682062176
 20
128.5895600039443
 30
0.0
 10
236.6628953734309
 20
128.5842847582759
 30
0.0
  0
LINE
  5
7B
330
1F
100
AcDbEntity
  8
0
  6
Continuous
 62
     7
370
    15
100
AcDbLine
 10
233.9567252913
 20
117.9421697316
 30
0.0
 11
237.1583105544
 21
128.087511709
 31
0.0
  0
SPLINE
  5
7C
330
1F
100
AcDbEntity
  8
0
  6
Continuous
 62
     7
370
    15
100
AcDbSpline
210
0.0
220
0.0
230
1.0
 70
     8
 71
     3
 72
    10
 73
     6
 74
     0
 42
0.00000001
 43
0.00000001
 12
1.0
 22
0.0
 32
0.0
 13
1.0
 23
0.0
 33
0.0
 40
0.0
 40
0.0
 40
0.0
 40
0.0
 40
0.35180405488168
 40
0.7034235306707457
 40
0.9999999999999999
 40
0.9999999999999999
 40
0.9999999999999999
 40
0.9999999999999999
 10
233.6978325167567
 20
117.6839828994931
 30
0.0
 10
233.7389499655945
 20
117.701516006912
 30
0.0
 10
233.8211632904048
 20
117.7365730227511
 30
0.0
 10
233.9111046313807
 20
117.8315185842538
 30
0.0
 10
233.9424043670061
 20
117.907434883155
 30
0.0
 10
233.9567252913386
 20
117.9421697315635
 30
0.0
  0
LINE
  5
7D
330
1F
100
AcDbEntity
  8
0
  6
Continuous
 62
     7
370
    15
100
AcDbLine
 10
223.5437081674
 20
114.5102507007
 30
0.0
 11
233.6978325168
 21
117.6839828995
 31
0.0
  0
LINE
  5
7E
330
1F
100
AcDbEntity
  8
0
  6
Continuous
 62
     7
370
    15
100
AcDbLine
 10
226.2498745242
 20
125.1523666588
 30
0.0
 11
223.0482929865
 21
115.00702375
 31
0.0
  0
ARC
  5
7F
330
1F
100
AcDbEntity
  8
0
  6
Continuous
 62
     7
370
    15
100
AcDbCircle
 10
236.7737274865
 20
128.199398411
 30
0.0
 40
0.3804369503539791
100
AcDbArc
 50
342.54767358
 51
107.295606947
  0
LINE
  5
80
330
1F
100
AcDbEntity
  8
0
  6
Continuous
 62
     7
370
    15
100
AcDbLine
 10
236.6606229463
 20
128.5626333711
 30
0.0
 11
226.5162588576
 21
125.3919512537
 31
0.0
  0
ARC
  5
81
330
1F
100
AcDbEntity
  8
0
  6
Continuous
 62
     7
370
    15
100
AcDbCircle
 10
226.6290042801
 20
125.0310929912
 30
0.0
 40
0.378061127236335
100
AcDbArc
 50
107.3507287814
 51
162.4922918522
  0
LINE
  5
82
330
1F
100
AcDbEntity
  8
0
  6
Continuous
 62
     7
370
    15
100
AcDbLine
 10
226.2684562722
 20
125.1448266712
 30
0.0
 11
223.0699518243
 21
115.0092356411
 31
0.0
  0
ARC
  5
83
330
1F
100
AcDbEntity
  8
0
  6
Continuous
 62
     7
370
    15
100
AcDbCircle
 10
223.4328720982
 20
114.8951349166
 30
0.0
 40
0.3804340948274169
100
AcDbArc
 50
162.5470548614
 51
287.2957772821
  0
ARC
  5
84
330
1F
100
AcDbEntity
  8
0
  6
Continuous
 62
     7
370
    15
100
AcDbCircle
 10
233.5776087736
 20
118.0634355596
 30
0.0
 40
0.3780496966711756
100
AcDbArc
 50
287.3491680757
 51
342.4929912231
  0
LINE
  5
85
330
1F
100
AcDbEntity
  8
0
  6
Continuous
 62
     7
370
    15
100
AcDbLine
 10
233.9381472686
 20
117.9497097191
 30
0.0
 11
237.1366517166
 21
128.0853007492
 31
0.0
  0
SPLINE
  5
86
330
1F
100
AcDbEntity
  8
0
  6
Continuous
 62
     7
370
    15
100
AcDbSpline
210
0.0
220
0.0
230
1.0
 70
     8
 71
     3
 72
    14
 73
    10
 74
     0
 42
0.00000001
 43
0.00000001
 12
1.0
 22
0.0
 32
0.0
 13
1.0
 23
0.0
 33
0.0
 40
0.0
 40
0.0
 40
0.0
 40
0.0
 40
0.1588496824933417
 40
0.3173323447155885
 40
0.4720139122585896
 40
0.6236437013040282
 40
0.7746615701925686
 40
0.9277380791995384
 40
1.0
 40
1.0
 40
1.0
 40
1.0
 10
223.0482929864795
 20
115.0070237499537
 30
0.0
 10
223.0387743730007
 20
114.9620152724527
 30
0.0
 10
223.0197591386846
 20
114.8721023089939
 30
0.0
 10
223.0502172304378
 20
114.7358655526606
 30
0.0
 10
223.1206803861626
 20
114.6198953507429
 30
0.0
 10
223.2251376412677
 20
114.5355626553772
 30
0.0
 10
223.3504832050415
 20
114.4910736406789
 30
0.0
 10
223.4610359091603
 20
114.4885267181301
 30
0.0
 10
223.5236340775514
 20
114.5049757851947
 30
0.0
 10
223.543708167401
 20
114.5102507007183
 30
0.0
  0
LINE
  5
87
330
1F
100
AcDbEntity
  8
0
  6
Continuous
 62
     7
370
    15
100
AcDbLine
 10
226.7877468387
 20
124.8356014994
 30
0.0
 11
226.6188906053
 21
125.018256208
 31
0.0
  0
SPLINE
  5
88
330
1F
100
AcDbEntity
  8
0
  6
Continuous
 62
     7
370
    15
100
AcDbSpline
210
0.0
220
0.0
230
1.0
 70
     8
 71
     3
 72
    11
 73
     7
 74
     0
 42
0.00000001
 43
0.00000001
 12
1.0
 22
0.0
 32
0.0
 13
1.0
 23
0.0
 33
0.0
 40
0.0
 40
0.0
 40
0.0
 40
0.0
 40
0.4125719124443376
 40
0.8731546502832976
 40
0.9927003772482708
 40
1.0
 40
1.0
 40
1.0
 40
1.0
 10
224.8099157133967
 20
116.2683483716907
 30
0.0
 10
224.8782716995619
 20
116.3365169637273
 30
0.0
 10
225.0229382301582
 20
116.4807868990882
 30
0.0
 10
225.1904748745968
 20
116.6478472235319
 30
0.0
 10
225.2809863158703
 20
116.738139943414
 30
0.0
 10
225.3001841674934
 20
116.7572782184369
 30
0.0
 10
225.3012889543445
 20
116.7583795768084
 30
0.0
  0
ARC
  5
89
330
1F
100
AcDbEntity
  8
0
  6
Continuous
 62
     7
370
    15
100
AcDbCircle
 10
226.8294927692
 20
118.2824426538
 30
0.0
 40
1.001147332555597
100
AcDbArc
 50
162.5475034598
 51
287.2956156005
  0
LINE
  5
8A
330
1F
100
AcDbEntity
  8
0
  6
Continuous
 62
     7
370
    15
100
AcDbLine
 10
227.127135686
 20
117.3265636471
 30
0.0
 11
232.1092122713
 21
118.8837405798
 31
0.0
  0
LINE
  5
8B
330
1F
100
AcDbEntity
  8
0
  6
Continuous
 62
     7
370
    15
100
AcDbLine
 10
227.4452754775
 20
123.5604681578
 30
0.0
 11
225.8744323173
 21
118.5827017334
 31
0.0
  0
ARC
  5
8C
330
1F
100
AcDbEntity
  8
0
  6
Continuous
 62
     7
370
    15
100
AcDbCircle
 10
228.3940699412
 20
123.2611831416
 30
0.0
 40
0.9948781107355287
100
AcDbArc
 50
107.3498861452
 51
162.4927899056
  0
LINE
  5
8D
330
1F
100
AcDbEntity
  8
0
  6
Continuous
 62
     7
370
    15
100
AcDbLine
 10
233.0794641295
 20
125.7679727432
 30
0.0
 11
228.0973912695
 21
124.2107958105
 31
0.0
  0
ARC
  5
8E
330
1F
100
AcDbEntity
  8
0
  6
Continuous
 62
     7
370
    15
100
AcDbCircle
 10
233.3771080207
 20
124.8120914305
 30
0.0
 40
1.001149823961874
100
AcDbArc
 50
342.5475748852
 51
107.2956296006
  0
LINE
  5
8F
330
1F
100
AcDbEntity
  8
0
  6
Continuous
 62
     7
370
    15
100
AcDbLine
 10
232.7613280633
 20
119.5340682325
 30
0.0
 11
234.3321712235
 21
124.5118327943
 31
0.0
  0
ARC
  5
90
330
1F
100
AcDbEntity
  8
0
  6
Continuous
 62
     7
370
    15
100
AcDbCircle
 10
231.8125301802
 20
119.8333566776
 30
0.0
 40
0.9948824033477706
100
AcDbArc
 50
287.3500152285
 51
342.4926608223
  0
CIRCLE
  5
91
330
1F
100
AcDbEntity
  8
0
  6
Continuous
 62
     7
370
    15
100
AcDbCircle
 10
230.1051566631
 20
121.5401642648
 30
0.0
 40
3.044310075891296
  0
ARC
  5
92
330
1F
100
AcDbEntity
  8
0
  6
Continuous
 62
     7
370
    15
100
AcDbCircle
 10
230.0464328546
 20
121.4892691172
 30
0.0
 40
3.050864677436886
100
AcDbArc
 50
342.4874083075
 51
134.8223323512
  0
ARC
  5
93
330
1F
100
AcDbEntity
  8
0
  6
Continuous
 62
     7
370
    15
100
AcDbCircle
 10
230.0616917532
 20
121.4842298211
 30
0.0
 40
3.034796621677986
100
AcDbArc
 50
314.9631776686
 51
342.4914502722
  0
SPLINE
  5
94
330
1F
100
AcDbEntity
  8
0
  6
Continuous
 62
     7
370
    15
100
AcDbSpline
210
0.0
220
0.0
230
1.0
 70
     8
 71
     3
 72
    11
 73
     7
 74
     0
 42
0.00000001
 43
0.00000001
 12
1.0
 22
0.0
 32
0.0
 13
1.0
 23
0.0
 33
0.0
 40
0.0
 40
0.0
 40
0.0
 40
0.0
 40
0.0092141169811695
 40
0.3448488142410986
 40
0.6722328174224369
 40
0.9999999999999999
 40
0.9999999999999999
 40
0.9999999999999999
 40
0.9999999999999999
 10
232.8920708516509
 20
118.7171195206107
 30
0.0
 10
232.8933733441246
 20
118.7156968838312
 30
0.0
 10
232.9421206072682
 20
118.6624530833103
 30
0.0
 10
233.0482796259348
 20
118.5501019426859
 30
0.0
 10
233.2206086196084
 20
118.3759753777633
 30
0.0
 10
233.3285584436621
 20
118.2738085553549
 30
0.0
 10
233.3825649240882
 20
118.2226952669086
 30
0.0
  0
SPLINE
  5
95
330
1F
100
AcDbEntity
  8
0
  6
Continuous
 62
     7
370
    15
100
AcDbSpline
210
0.0
220
0.0
230
1.0
 70
     8
 71
     3
 72
    11
 73
     7
 74
     0
 42
0.00000001
 43
0.00000001
 12
1.0
 22
0.0
 32
0.0
 13
1.0
 23
0.0
 33
0.0
 40
0.0
 40
0.0
 40
0.0
 40
0.0
 40
0.3277703434215927
 40
0.6551504231883896
 40
0.9907831404181817
 40
1.0
 40
1.0
 40
1.0
 40
1.0
 10
226.7877468386561
 20
124.8356014993848
 30
0.0
 10
226.8387144086398
 20
124.7814523048255
 30
0.0
 10
226.9405888634641
 20
124.6732183890888
 30
0.0
 10
227.1142466485789
 20
124.5004136131088
 30
0.0
 10
227.2262946164372
 20
124.3939573892804
 30
0.0
 10
227.2794067252268
 20
124.345061983293
 30
0.0
 10
227.2808262625606
 20
124.3437551465692
 30
0.0
  0
LINE
  5
96
330
1F
100
AcDbEntity
  8
0
  6
Continuous
 62
     7
370
    15
100
AcDbLine
 10
235.3177042225
 20
126.7473143098
 30
0.0
 11
236.7632546941
 21
128.1889383254
 31
0.0
  0
SPLINE
  5
97
330
1F
100
AcDbEntity
  8
0
  6
Continuous
 62
     7
370
    15
100
AcDbSpline
210
0.0
220
0.0
230
1.0
 70
     8
 71
     3
 72
    11
 73
     7
 74
     0
 42
0.00000001
 43
0.00000001
 12
1.0
 22
0.0
 32
0.0
 13
1.0
 23
0.0
 33
0.0
 40
0.0
 40
0.0
 40
0.0
 40
0.0
 40
0.0072977797365175
 40
0.1268449321986671
 40
0.5874306663806753
 40
1.0
 40
1.0
 40
1.0
 40
1.0
 10
234.8380656460197
 20
126.2690000739755
 30
0.0
 10
234.8390796392059
 20
126.2700109549761
 30
0.0
 10
234.8567041635949
 20
126.2875813855209
 30
0.0
 10
234.9405392079292
 20
126.3711985583114
 30
0.0
 10
235.1001591787713
 20
126.5303583044638
 30
0.0
 10
235.2478973388472
 20
126.6776964395448
 30
0.0
 10
235.3177042225272
 20
126.7473143097819
 30
0.0
  0
CIRCLE
  5
98
330
1F
100
AcDbEntity
  8
0
  6
Continuous
 62
     7
370
    15
100
AcDbCircle
 10
229.9925111532
 20
121.4436491444
 30
0.0
 40
2.62068363714686
  0
CIRCLE
  5
99
330
1F
100
AcDbEntity
  8
0
  6
Continuous
 62
     7
370
    15
100
AcDbCircle
 10
230.0085643913
 20
121.4578854338
 30
0.0
 40
1.796788644041914
  0
ARC
  5
9A
330
1F
100
AcDbEntity
  8
0
  6
Continuous
 62
     7
370
    15
100
AcDbCircle
 10
230.0126629811
 20
121.4609502071
 30
0.0
 40
1.672635669533562
100
AcDbArc
 50
150.4310693253
 51
209.0328306753
  0
ARC
  5
9B
330
1F
100
AcDbEntity
  8
0
  6
Continuous
 62
     7
370
    15
100
AcDbCircle
 10
230.0181920713
 20
121.462395959
 30
0.0
 40
1.678172223035043
100
AcDbArc
 50
208.9843751125
 51
268.955214684
  0
ARC
  5
9C
330
1F
100
AcDbEntity
  8
0
  6
Continuous
 62
     7
370
    15
100
AcDbCircle
 10
230.0180286867
 20
121.4517483946
 30
0.0
 40
1.667523449903725
100
AcDbArc
 50
268.9541567627
 51
327.6800453004
  0
LINE
  5
9D
330
1F
100
AcDbEntity
  8
0
  6
Continuous
 62
     7
370
    15
100
AcDbLine
 10
231.4706677118
 20
120.6329674032
 30
0.0
 11
231.4272122005
 21
120.5602124837
 31
0.0
  0
ARC
  5
9E
330
1F
100
AcDbEntity
  8
0
  6
Continuous
 62
     7
370
    15
100
AcDbCircle
 10
230.0130039491
 20
121.4529024156
 30
0.0
 40
1.672446432514577
100
AcDbArc
 50
330.6422719622
 51
27.0921517797
  0
LINE
  5
9F
330
1F
100
AcDbEntity
  8
0
  6
Continuous
 62
     7
370
    15
100
AcDbLine
 10
231.4436854342
 20
122.319234958
 30
0.0
 11
231.5019415239
 21
122.2145729271
 31
0.0
  0
ARC
  5
A0
330
1F
100
AcDbEntity
  8
0
  6
Continuous
 62
     7
370
    15
100
AcDbCircle
 10
230.0072060167
 20
121.4514598562
 30
0.0
 40
1.678245138259451
100
AcDbArc
 50
31.1361122769
 51
86.8035167815
  0
LINE
  5
A1
330
1F
100
AcDbEntity
  8
0
  6
Continuous
 62
     7
370
    15
100
AcDbLine
 10
229.9811588148
 20
123.1294427571
 30
0.0
 11
230.1007853368
 21
123.1270939615
 31
0.0
  0
ARC
  5
A2
330
1F
100
AcDbEntity
  8
0
  6
Continuous
 62
     7
370
    15
100
AcDbCircle
 10
230.0073453873
 20
121.4622628468
 30
0.0
 40
1.667385555281427
100
AcDbArc
 50
90.8998769183
 51
147.4677804708
  0
LINE
  5
A3
330
1F
100
AcDbEntity
  8
0
  6
Continuous
 62
     7
370
    15
100
AcDbLine
 10
228.5578669527
 20
122.2863462326
 30
0.0
 11
228.601590685
 21
122.358939102
 31
0.0
  0
SPLINE
  5
A4
330
1F
100
AcDbEntity
  8
0
  6
Continuous
 62
     7
370
    15
100
AcDbSpline
210
0.0
220
0.0
230
1.0
 70
     8
 71
     3
 72
    12
 73
     8
 74
     0
 42
0.00000001
 43
0.00000001
 12
1.0
 22
0.0
 32
0.0
 13
1.0
 23
0.0
 33
0.0
 40
0.0
 40
0.0
 40
0.0
 40
0.0
 40
0.0091653145858917
 40
0.2573302742589794
 40
0.5054946803810844
 40
0.7549923977129864
 40
1.0
 40
1.0
 40
1.0
 40
1.0
 10
228.5502077558906
 20
120.6492022183599
 30
0.0
 10
228.5508769519476
 20
120.648004493026
 30
0.0
 10
228.5696656583543
 20
120.6143765159667
 30
0.0
 10
228.6186427006133
 20
120.5542937303416
 30
0.0
 10
228.7145873129073
 20
120.4949295346512
 30
0.0
 10
228.8243836555382
 20
120.4678377667832
 30
0.0
 10
228.8963392757424
 20
120.480400586987
 30
0.0
 10
228.9319904068381
 20
120.4866249617995
 30
0.0
  0
SPLINE
  5
A5
330
1F
100
AcDbEntity
  8
0
  6
Continuous
 62
     7
370
    15
100
AcDbSpline
210
0.0
220
0.0
230
1.0
 70
     8
 71
     3
 72
    12
 73
     8
 74
     0
 42
0.00000001
 43
0.00000001
 12
1.0
 22
0.0
 32
0.0
 13
1.0
 23
0.0
 33
0.0
 40
0.0
 40
0.0
 40
0.0
 40
0.0
 40
0.2058452836314541
 40
0.4120701951709111
 40
0.6141413262927549
 40
0.813259562309013
 40
1.0
 40
1.0
 40
1.0
 40
1.0
 10
228.9319904068381
 20
120.4866249617995
 30
0.0
 10
228.995904602494
 20
120.4976537677038
 30
0.0
 10
229.1238508668605
 20
120.5197317192668
 30
0.0
 10
229.3183327898359
 20
120.4703231991621
 30
0.0
 10
229.4843530807387
 20
120.3655749420632
 30
0.0
 10
229.6080696475594
 20
120.2186588077776
 30
0.0
 10
229.6455930520002
 20
120.1025883829983
 30
0.0
 10
229.6637529054553
 20
120.0464148578109
 30
0.0
  0
SPLINE
  5
A6
330
1F
100
AcDbEntity
  8
0
  6
Continuous
 62
     7
370
    15
100
AcDbSpline
210
0.0
220
0.0
230
1.0
 70
     8
 71
     3
 72
    11
 73
     7
 74
     0
 42
0.00000001
 43
0.00000001
 12
1.0
 22
0.0
 32
0.0
 13
1.0
 23
0.0
 33
0.0
 40
0.0
 40
0.0
 40
0.0
 40
0.0
 40
0.253507691540598
 40
0.5075691283546492
 40
0.7595105650615496
 40
0.9999999999999999
 40
0.9999999999999999
 40
0.9999999999999999
 40
0.9999999999999999
 10
229.6637529054553
 20
120.0464148578109
 30
0.0
 10
229.6757023693383
 20
120.0106482608591
 30
0.0
 10
229.6996273987151
 20
119.9390369407894
 30
0.0
 10
229.7785123142941
 20
119.8541496788954
 30
0.0
 10
229.8775270388169
 20
119.7967772896234
 30
0.0
 10
229.9514772034885
 20
119.7885303228519
 30
0.0
 10
229.9875923911006
 20
119.7845027354421
 30
0.0
  0
SPLINE
  5
A7
330
1F
100
AcDbEntity
  8
0
  6
Continuous
 62
     7
370
    15
100
AcDbSpline
210
0.0
220
0.0
230
1.0
 70
     8
 71
     3
 72
    12
 73
     8
 74
     0
 42
0.00000001
 43
0.00000001
 12
1.0
 22
0.0
 32
0.0
 13
1.0
 23
0.0
 33
0.0
 40
0.0
 40
0.0
 40
0.0
 40
0.0
 40
0.2058585452023532
 40
0.4121015233672142
 40
0.6141923811352088
 40
0.8133168545403061
 40
1.0
 40
1.0
 40
1.0
 40
1.0
 10
228.6290237227351
 20
121.9094548878135
 30
0.0
 10
228.6708723567377
 20
121.8588890211382
 30
0.0
 10
228.7546477754668
 20
121.7576628579649
 30
0.0
 10
228.8098638838564
 20
121.5635091517213
 30
0.0
 10
228.8025161978545
 20
121.3676701956888
 30
0.0
 10
228.7371008944594
 20
121.1886136855157
 30
0.0
 10
228.6550830824679
 20
121.0996858922528
 30
0.0
 10
228.6153966108234
 20
121.0566558447541
 30
0.0
  0
SPLINE
  5
A8
330
1F
100
AcDbEntity
  8
0
  6
Continuous
 62
     7
370
    15
100
AcDbSpline
210
0.0
220
0.0
230
1.0
 70
     8
 71
     3
 72
    11
 73
     7
 74
     0
 42
0.00000001
 43
0.00000001
 12
1.0
 22
0.0
 32
0.0
 13
1.0
 23
0.0
 33
0.0
 40
0.0
 40
0.0
 40
0.0
 40
0.0
 40
0.2524773330078724
 40
0.5068899998356639
 40
0.759176608435505
 40
1.0
 40
1.0
 40
1.0
 40
1.0
 10
228.6153966108234
 20
121.0566558447541
 30
0.0
 10
228.5904393614571
 20
121.0290845307875
 30
0.0
 10
228.5403335560114
 20
120.9737305583515
 30
0.0
 10
228.5060672876032
 20
120.8643306846763
 30
0.0
 10
228.505760149415
 20
120.7506071745224
 30
0.0
 10
228.5356232943318
 20
120.6824759264916
 30
0.0
 10
228.5502077558906
 20
120.6492022183599
 30
0.0
  0
SPLINE
  5
A9
330
1F
100
AcDbEntity
  8
0
  6
Continuous
 62
     7
370
    15
100
AcDbSpline
210
0.0
220
0.0
230
1.0
 70
     8
 71
     3
 72
    11
 73
     7
 74
     0
 42
0.00000001
 43
0.00000001
 12
1.0
 22
0.0
 32
0.0
 13
1.0
 23
0.0
 33
0.0
 40
0.0
 40
0.0
 40
0.0
 40
0.0
 40
0.2423617185748802
 40
0.5166838646966176
 40
0.7923320803493898
 40
0.9999999999999999
 40
0.9999999999999999
 40
0.9999999999999999
 40
0.9999999999999999
 10
228.5578669527442
 20
122.2863462325992
 30
0.0
 10
228.5471449156305
 20
122.2549769143099
 30
0.0
 10
228.5242869180643
 20
122.1881015814319
 30
0.0
 10
228.5312050301683
 20
122.0781466936691
 30
0.0
 10
228.5678763399378
 20
121.9799730073856
 30
0.0
 10
228.6106465262042
 20
121.9306483597673
 30
0.0
 10
228.6290237227351
 20
121.9094548878135
 30
0.0
  0
SPLINE
  5
AA
330
1F
100
AcDbEntity
  8
0
  6
Continuous
 62
     7
370
    15
100
AcDbSpline
210
0.0
220
0.0
230
1.0
 70
     8
 71
     3
 72
    12
 73
     8
 74
     0
 42
0.00000001
 43
0.00000001
 12
1.0
 22
0.0
 32
0.0
 13
1.0
 23
0.0
 33
0.0
 40
0.0
 40
0.0
 40
0.0
 40
0.0
 40
0.0091730972537873
 40
0.2576807856303273
 40
0.5061918493661517
 40
0.7560360044232024
 40
1.0
 40
1.0
 40
1.0
 40
1.0
 10
229.9875923911006
 20
119.7845027354421
 30
0.0
 10
229.9889619123295
 20
119.7844843367861
 30
0.0
 10
230.0274330302556
 20
119.7839675015241
 30
0.0
 10
230.1036751448069
 20
119.7963295050986
 30
0.0
 10
230.2021586339838
 20
119.849955205653
 30
0.0
 10
230.2790668012717
 20
119.9316602006512
 30
0.0
 10
230.3030932690313
 20
120.0003171735072
 30
0.0
 10
230.3149634519488
 20
120.0342368838252
 30
0.0
  0
SPLINE
  5
AB
330
1F
100
AcDbEntity
  8
0
  6
Continuous
 62
     7
370
    15
100
AcDbSpline
210
0.0
220
0.0
230
1.0
 70
     8
 71
     3
 72
    12
 73
     8
 74
     0
 42
0.00000001
 43
0.00000001
 12
1.0
 22
0.0
 32
0.0
 13
1.0
 23
0.0
 33
0.0
 40
0.0
 40
0.0
 40
0.0
 40
0.0
 40
0.2057515248392466
 40
0.4119601514481117
 40
0.614014721717761
 40
0.813141482908947
 40
1.0
 40
1.0
 40
1.0
 40
1.0
 10
230.3149634519489
 20
120.0342368838252
 30
0.0
 10
230.3365065134728
 20
120.0952924663036
 30
0.0
 10
230.3796404970239
 20
120.2175392735834
 30
0.0
 10
230.518036304568
 20
120.3614489244084
 30
0.0
 10
230.6914301458733
 20
120.4526080209177
 30
0.0
 10
230.8814426743731
 20
120.4856672606359
 30
0.0
 10
231.0019909609928
 20
120.4594956877289
 30
0.0
 10
231.0603493371875
 20
120.4468258228959
 30
0.0
  0
SPLINE
  5
AC
330
1F
100
AcDbEntity
  8
0
  6
Continuous
 62
     7
370
    15
100
AcDbSpline
210
0.0
220
0.0
230
1.0
 70
     8
 71
     3
 72
    11
 73
     7
 74
     0
 42
0.00000001
 43
0.00000001
 12
1.0
 22
0.0
 32
0.0
 13
1.0
 23
0.0
 33
0.0
 40
0.0
 40
0.0
 40
0.0
 40
0.0
 40
0.2794047811975939
 40
0.5596198307419328
 40
0.8375001564444517
 40
1.0
 40
1.0
 40
1.0
 40
1.0
 10
231.0603493371875
 20
120.4468258228959
 30
0.0
 10
231.0976436249555
 20
120.4391023067765
 30
0.0
 10
231.1723403531892
 20
120.4236328764934
 30
0.0
 10
231.2861110575766
 20
120.4489873812458
 30
0.0
 10
231.3728086800459
 20
120.4988080035194
 30
0.0
 10
231.4125483148523
 20
120.5436615644352
 30
0.0
 10
231.4272122004897
 20
120.5602124837102
 30
0.0
  0
LWPOLYLINE
  5
AD
330
1F
100
AcDbEntity
  8
0
  6
Continuous
 62
     7
370
    15
100
AcDbPolyline
 90
        3
 70
   128
 43
0.0
 10
230.2437284509
 20
119.9631043282
 10
230.1988126257
 20
119.8611543086
 10
230.1903562168
 20
119.8489297685
  0
ARC
  5
AE
330
1F
100
AcDbEntity
  8
0
  6
Continuous
 62
     7
370
    15
100
AcDbCircle
 10
228.78997365
 20
122.0780494212
 30
0.0
 40
0.3341830024468407
100
AcDbArc
 50
72.1540723863
 51
120.3208827356
  0
SPLINE
  5
AF
330
1F
100
AcDbEntity
  8
0
  6
Continuous
 62
     7
370
    15
100
AcDbSpline
210
0.0
220
0.0
230
1.0
 70
     8
 71
     3
 72
    11
 73
     7
 74
     0
 42
0.00000001
 43
0.00000001
 12
1.0
 22
0.0
 32
0.0
 13
1.0
 23
0.0
 33
0.0
 40
0.0
 40
0.0
 40
0.0
 40
0.0
 40
0.2802387878858867
 40
0.5612863704560901
 40
0.8399864877037192
 40
0.9999999999999999
 40
0.9999999999999999
 40
0.9999999999999999
 40
0.9999999999999999
 10
228.9636404732139
 20
122.4673096594276
 30
0.0
 10
228.9269461943885
 20
122.4756292047
 30
0.0
 10
228.8534517337046
 20
122.4922923062107
 30
0.0
 10
228.7409850508367
 20
122.4682445554996
 30
0.0
 10
228.655388768152
 20
122.4193569450002
 30
0.0
 10
228.6159685536958
 20
122.3750861422597
 30
0.0
 10
228.6015906849773
 20
122.3589391020002
 30
0.0
  0
SPLINE
  5
B0
330
1F
100
AcDbEntity
  8
0
  6
Continuous
 62
     7
370
    15
100
AcDbSpline
210
0.0
220
0.0
230
1.0
 70
     8
 71
     3
 72
    11
 73
     7
 74
     0
 42
0.00000001
 43
0.00000001
 12
1.0
 22
0.0
 32
0.0
 13
1.0
 23
0.0
 33
0.0
 40
0.0
 40
0.0
 40
0.0
 40
0.0
 40
0.2657580003249808
 40
0.5530017931265491
 40
0.8418224454474568
 40
1.0
 40
1.0
 40
1.0
 40
1.0
 10
229.9811588147552
 20
123.1294427570762
 30
0.0
 10
229.9474659665942
 20
123.1207690836721
 30
0.0
 10
229.8773562975502
 20
123.1027204945813
 30
0.0
 10
229.7887037458943
 20
123.0341769314222
 30
0.0
 10
229.7327347497177
 20
122.9547277535782
 30
0.0
 10
229.7152231290302
 20
122.8994570367475
 30
0.0
 10
229.7090263584525
 20
122.8798985984983
 30
0.0
  0
SPLINE
  5
B1
330
1F
100
AcDbEntity
  8
0
  6
Continuous
 62
     7
370
    15
100
AcDbSpline
210
0.0
220
0.0
230
1.0
 70
     8
 71
     3
 72
    12
 73
     8
 74
     0
 42
0.00000001
 43
0.00000001
 12
1.0
 22
0.0
 32
0.0
 13
1.0
 23
0.0
 33
0.0
 40
0.0
 40
0.0
 40
0.0
 40
0.0
 40
0.2057899284088103
 40
0.4120329208601349
 40
0.6141294440554331
 40
0.8132642933229288
 40
1.0
 40
1.0
 40
1.0
 40
1.0
 10
229.7090263584525
 20
122.8798985984983
 30
0.0
 10
229.6864572513592
 20
122.8178137814109
 30
0.0
 10
229.6412693493624
 20
122.6935074622273
 30
0.0
 10
229.5011985837367
 20
122.5479471160079
 30
0.0
 10
229.327890974494
 20
122.4569148173753
 30
0.0
 10
229.1396223692963
 20
122.4256221062864
 30
0.0
 10
229.021030875437
 20
122.4537147073573
 30
0.0
 10
228.9636404732139
 20
122.4673096594276
 30
0.0
  0
ARC
  5
B2
330
1F
100
AcDbEntity
  8
0
  6
Continuous
 62
     7
370
    15
100
AcDbCircle
 10
230.8094460224
 20
119.8203606147
 30
0.0
 40
0.5834484883091797
100
AcDbArc
 50
134.9652540301
 51
165.8385412589
  0
ARC
  5
B3
330
1F
100
AcDbEntity
  8
0
  6
Continuous
 62
     7
370
    15
100
AcDbCircle
 10
231.0906306715
 20
120.6934762861
 30
0.0
 40
0.334589212134894
100
AcDbArc
 50
322.8418003931
 51
45.8434886823
  0
SPLINE
  5
B4
330
1F
100
AcDbEntity
  8
0
  6
Continuous
 62
     7
370
    15
100
AcDbSpline
210
0.0
220
0.0
230
1.0
 70
     8
 71
     3
 72
    11
 73
     7
 74
     0
 42
0.00000001
 43
0.00000001
 12
1.0
 22
0.0
 32
0.0
 13
1.0
 23
0.0
 33
0.0
 40
0.0
 40
0.0
 40
0.0
 40
0.0
 40
0.2431085989134146
 40
0.5182820641949052
 40
0.7947807582391028
 40
1.0
 40
1.0
 40
1.0
 40
1.0
 10
231.4706677118213
 20
120.6329674032392
 30
0.0
 10
231.4811695788675
 20
120.6642726594968
 30
0.0
 10
231.5035584592071
 20
120.731012186218
 30
0.0
 10
231.4952788159549
 20
120.8399950734375
 30
0.0
 10
231.4571095725993
 20
120.936340025176
 30
0.0
 10
231.4135311606814
 20
120.9842641717595
 30
0.0
 10
231.3949660876662
 20
121.00468059451
 30
0.0
  0
ARC
  5
B5
330
1F
100
AcDbEntity
  8
0
  6
Continuous
 62
     7
370
    15
100
AcDbCircle
 10
229.0716165205
 20
122.9523959521
 30
0.0
 40
0.5844053568527238
100
AcDbArc
 50
252.1402979492
 51
314.9313138078
  0
SPLINE
  5
B6
330
1F
100
AcDbEntity
  8
0
  6
Continuous
 62
     7
370
    15
100
AcDbSpline
210
0.0
220
0.0
230
1.0
 70
     8
 71
     3
 72
    12
 73
     8
 74
     0
 42
0.00000001
 43
0.00000001
 12
1.0
 22
0.0
 32
0.0
 13
1.0
 23
0.0
 33
0.0
 40
0.0
 40
0.0
 40
0.0
 40
0.0
 40
0.205817251612283
 40
0.4120197841123235
 40
0.6140760086307201
 40
0.8132114900593347
 40
1.0
 40
1.0
 40
1.0
 40
1.0
 10
231.3949660876662
 20
121.00468059451
 30
0.0
 10
231.3521015777125
 20
121.0542175046714
 30
0.0
 10
231.2662923173181
 20
121.153384055922
 30
0.0
 10
231.2094263399224
 20
121.3458634588869
 30
0.0
 10
231.2168690384551
 20
121.5418006004065
 30
0.0
 10
231.283996717048
 20
121.722618380107
 30
0.0
 10
231.3679564206315
 20
121.8134950322525
 30
0.0
 10
231.408593199578
 20
121.8574796375693
 30
0.0
  0
SPLINE
  5
B7
330
1F
100
AcDbEntity
  8
0
  6
Continuous
 62
     7
370
    15
100
AcDbSpline
210
0.0
220
0.0
230
1.0
 70
     8
 71
     3
 72
    11
 73
     7
 74
     0
 42
0.00000001
 43
0.00000001
 12
1.0
 22
0.0
 32
0.0
 13
1.0
 23
0.0
 33
0.0
 40
0.0
 40
0.0
 40
0.0
 40
0.0
 40
0.2908604730651962
 40
0.5839542354160911
 40
0.8745993640242409
 40
0.9999999999999999
 40
0.9999999999999999
 40
0.9999999999999999
 40
0.9999999999999999
 10
231.408593199578
 20
121.8574796375693
 30
0.0
 10
231.43413340445
 20
121.885638559946
 30
0.0
 10
231.4854099173814
 20
121.9421726149631
 30
0.0
 10
231.5211489851691
 20
122.0529986270613
 30
0.0
 10
231.5215693739464
 20
122.146959708216
 30
0.0
 10
231.5064873937525
 20
122.1989134995838
 30
0.0
 10
231.5019415238769
 20
122.2145729270639
 30
0.0
  0
ARC
  5
B8
330
1F
100
AcDbEntity
  8
0
  6
Continuous
 62
     7
370
    15
100
AcDbCircle
 10
229.9614970683
 20
122.7253587481
 30
0.0
 40
0.3351201319951781
100
AcDbArc
 50
12.2649057974
 51
126.4983735717
  0
SPLINE
  5
B9
330
1F
100
AcDbEntity
  8
0
  6
Continuous
 62
     7
370
    15
100
AcDbSpline
210
0.0
220
0.0
230
1.0
 70
     8
 71
     3
 72
    11
 73
     7
 74
     0
 42
0.00000001
 43
0.00000001
 12
1.0
 22
0.0
 32
0.0
 13
1.0
 23
0.0
 33
0.0
 40
0.0
 40
0.0
 40
0.0
 40
0.0
 40
0.292900901003086
 40
0.5864320560245418
 40
0.8775132483501897
 40
1.0
 40
1.0
 40
1.0
 40
1.0
 10
230.3602369049461
 20
122.8677206245126
 30
0.0
 10
230.3488875882115
 20
122.904069497761
 30
0.0
 10
230.3261645336755
 20
122.9768454585048
 30
0.0
 10
230.2485593838609
 20
123.063243015355
 30
0.0
 10
230.1681408474074
 20
123.1103081115675
 30
0.0
 10
230.1161758515653
 20
123.1232584495067
 30
0.0
 10
230.1007853368194
 20
123.127093961543
 30
0.0
  0
SPLINE
  5
BA
330
1F
100
AcDbEntity
  8
0
  6
Continuous
 62
     7
370
    15
100
AcDbSpline
210
0.0
220
0.0
230
1.0
 70
     8
 71
     3
 72
    11
 73
     7
 74
     0
 42
0.00000001
 43
0.00000001
 12
1.0
 22
0.0
 32
0.0
 13
1.0
 23
0.0
 33
0.0
 40
0.0
 40
0.0
 40
0.0
 40
0.0
 40
0.2669061276096829
 40
0.5546143201014586
 40
0.8439099332389316
 40
1.0
 40
1.0
 40
1.0
 40
1.0
 10
231.4436854341895
 20
122.3192349579991
 30
0.0
 10
231.419153364888
 20
122.3440197616036
 30
0.0
 10
231.368177251832
 20
122.3955210408099
 30
0.0
 10
231.2642715145221
 20
122.4372254412655
 30
0.0
 10
231.1678722933555
 20
122.4449978674167
 30
0.0
 10
231.1116893154155
 20
122.4320486937739
 30
0.0
 10
231.0919994035632
 20
122.4275105205239
 30
0.0
  0
SPLINE
  5
BB
330
1F
100
AcDbEntity
  8
0
  6
Continuous
 62
     7
370
    15
100
AcDbSpline
210
0.0
220
0.0
230
1.0
 70
     8
 71
     3
 72
    12
 73
     8
 74
     0
 42
0.00000001
 43
0.00000001
 12
1.0
 22
0.0
 32
0.0
 13
1.0
 23
0.0
 33
0.0
 40
0.0
 40
0.0
 40
0.0
 40
0.0
 40
0.2058405209218939
 40
0.4120631727407273
 40
0.6141388434697634
 40
0.8132783016093672
 40
0.9999999999999999
 40
0.9999999999999999
 40
0.9999999999999999
 40
0.9999999999999999
 10
231.0919994035632
 20
122.4275105205239
 30
0.0
 10
231.0270642627321
 20
122.4154621116008
 30
0.0
 10
230.8970734327758
 20
122.3913429265876
 30
0.0
 10
230.7009473250402
 20
122.4391035245075
 30
0.0
 10
230.5350465266085
 20
122.5439793708665
 30
0.0
 10
230.413060452611
 20
122.6926286926837
 30
0.0
 10
230.3774628879636
 20
122.8106224026489
 30
0.0
 10
230.360236904946
 20
122.8677206245126
 30
0.0
  0
ARC
  5
BC
330
1F
100
AcDbEntity
  8
0
  6
Continuous
 62
     7
370
    15
100
AcDbCircle
 10
229.9642396004
 20
121.4085220649
 30
0.0
 40
2.625005471051549
100
AcDbArc
 50
135.0792095017
 51
314.842193308
  0
ARC
  5
BD
330
1F
100
AcDbEntity
  8
0
  6
Continuous
 62
     7
370
    15
100
AcDbCircle
 10
231.7315552184
 20
121.3535438062
 30
0.0
 40
0.5854506815019803
100
AcDbArc
 50
135.0384663974
 51
225.8427160264
  0
ARC
  5
BE
330
1F
100
AcDbEntity
  8
0
  6
Continuous
 62
     7
370
    15
100
AcDbCircle
 10
231.1113253919
 20
122.0336554158
 30
0.0
 40
0.3351588246859075
100
AcDbArc
 50
319.6017207489
 51
105.6829738038
  0
ARC
  5
BF
330
1F
100
AcDbEntity
  8
0
  6
Continuous
 62
     7
370
    15
100
AcDbCircle
 10
230.862548298
 20
122.9217009373
 30
0.0
 40
0.5870749064173065
100
AcDbArc
 50
192.3087093888
 51
285.6306816855
  0
LINE
  5
C0
330
1F
100
AcDbEntity
  8
0
  6
Continuous
 62
     7
370
    15
100
AcDbLine
 10
201.5241877654
 20
82.3709726837
 30
0.0
 11
200.2093484172
 21
82.3709726837
 31
0.0
  0
LINE
  5
C1
330
1F
100
AcDbEntity
  8
0
  6
Continuous
 62
     7
370
    15
100
AcDbLine
 10
200.2093484172
 20
82.3709726837
 30
0.0
 11
200.2093484172
 21
113.4498579931
 31
0.0
  0
LINE
  5
C2
330
1F
100
AcDbEntity
  8
0
  6
Continuous
 62
     7
370
    15
100
AcDbLine
 10
200.2093484172
 20
113.4498579931
 30
0.0
 11
201.5241877654
 21
113.4498579931
 31
0.0
  0
SPLINE
  5
C3
330
1F
100
AcDbEntity
  8
0
  6
Continuous
 62
     7
370
    15
100
AcDbSpline
210
0.0
220
0.0
230
1.0
 70
     8
 71
     3
 72
     8
 73
     4
 74
     0
 42
0.00000001
 43
0.00000001
 12
1.0
 22
0.0
 32
0.0
 13
1.0
 23
0.0
 33
0.0
 40
0.0
 40
0.0
 40
0.0
 40
0.0
 40
1.0
 40
1.0
 40
1.0
 40
1.0
 10
200.2093477385212
 20
82.37097311098462
 30
0.0
 10
199.8766424668159
 20
82.97034478420828
 30
0.0
 10
199.5448266662424
 20
83.57021389491331
 30
0.0
 10
199.2141880396278
 20
84.17073424602431
 30
0.0
  0
LINE
  5
C4
330
1F
100
AcDbEntity
  8
0
  6
Continuous
 62
     7
370
    15
100
AcDbLine
 10
199.2141874054
 20
84.1707349327
 30
0.0
 11
199.2141874054
 21
113.4498579931
 31
0.0
  0
SPLINE
  5
C5
330
1F
100
AcDbEntity
  8
0
  6
Continuous
 62
     7
370
    15
100
AcDbSpline
210
0.0
220
0.0
230
1.0
 70
    24
 71
     3
 72
     8
 73
     4
 74
     0
 42
0.00000001
 43
0.00000001
 12
1.0
 22
0.0
 32
0.0
 13
1.0
 23
0.0
 33
0.0
 40
0.0
 40
0.0
 40
0.0
 40
0.0
 40
1.0
 40
1.0
 40
1.0
 40
1.0
 10
199.2141880396278
 20
113.449857634014
 30
0.0
 10
199.53782469525
 20
113.449857634014
 30
0.0
 10
199.8703149167666
 20
113.449857634014
 30
0.0
 10
200.2093477385212
 20
113.449857634014
 30
0.0
  0
LINE
  5
C6
330
1F
100
AcDbEntity
  8
0
  6
Continuous
 62
     7
370
    15
100
AcDbLine
 10
190.1241885045
 20
113.4498579931
 30
0.0
 11
196.1390282506
 21
113.4498579931
 31
0.0
  0
LINE
  5
C7
330
1F
100
AcDbEntity
  8
0
  6
Continuous
 62
     7
370
    15
100
AcDbLine
 10
196.1390282506
 20
82.3709726837
 30
0.0
 11
196.1390282506
 21
113.4498579931
 31
0.0
  0
LINE
  5
C8
330
1F
100
AcDbEntity
  8
0
  6
Continuous
 62
     7
370
    15
100
AcDbLine
 10
196.1390282506
 20
82.3709726837
 30
0.0
 11
194.6241883108
 21
82.3709726837
 31
0.0
  0
SPLINE
  5
C9
330
1F
100
AcDbEntity
  8
0
  6
Continuous
 62
     7
370
    15
100
AcDbSpline
210
0.0
220
0.0
230
1.0
 70
     8
 71
     3
 72
    22
 73
    18
 74
     0
 42
0.00000001
 43
0.00000001
 12
1.0
 22
0.0
 32
0.0
 13
1.0
 23
0.0
 33
0.0
 40
0.0
 40
0.0
 40
0.0
 40
0.0
 40
0.125
 40
0.125
 40
0.25
 40
0.25
 40
0.375
 40
0.375
 40
0.5
 40
0.5
 40
0.625
 40
0.625
 40
0.75
 40
0.75
 40
0.875
 40
0.875
 40
1.0
 40
1.0
 40
1.0
 40
1.0
 10
194.6241880396278
 20
82.37097311098462
 30
0.0
 10
194.3250636105872
 20
82.37097311098462
 30
0.0
 10
194.0312411623383
 20
82.36245900991823
 30
0.0
 10
193.453676886092
 20
82.33001524103634
 30
0.0
 10
193.1668592082781
 20
82.3056813523343
 30
0.0
 10
192.6223966793787
 20
82.24522132757747
 30
0.0
 10
192.3644414087574
 20
82.20930790679898
 30
0.0
 10
191.8763834653975
 20
82.12959788072985
 30
0.0
 10
191.6466851667338
 20
82.0857195795405
 30
0.0
 10
191.2342661837811
 20
81.99747595717032
 30
0.0
 10
191.048739240921
 20
81.95266761570936
 30
0.0
 10
190.7202191960203
 20
81.86534660779019
 30
0.0
 10
190.5818053091207
 20
81.82405581921452
 30
0.0
 10
190.3572131625048
 20
81.7497175959207
 30
0.0
 10
190.2701343503806
 20
81.71630747018602
 30
0.0
 10
190.1536325424255
 20
81.66128806865989
 30
0.0
 10
190.1241880396278
 20
81.63982630219364
 30
0.0
 10
190.1241880396278
 20
81.62487327857586
 30
0.0
  0
LINE
  5
CA
330
1F
100
AcDbEntity
  8
0
  6
Continuous
 62
     7
370
    15
100
AcDbLine
 10
190.1241885045
 20
81.6248734054
 30
0.0
 11
190.1241885045
 21
81.599858081
 31
0.0
  0
SPLINE
  5
CB
330
1F
100
AcDbEntity
  8
0
  6
Continuous
 62
     7
370
    15
100
AcDbSpline
210
0.0
220
0.0
230
1.0
 70
     8
 71
     3
 72
    17
 73
    13
 74
     0
 42
0.00000001
 43
0.00000001
 12
1.0
 22
0.0
 32
0.0
 13
1.0
 23
0.0
 33
0.0
 40
0.0
 40
0.0
 40
0.0
 40
0.0
 40
0.1039928149931941
 40
0.211050797947968
 40
0.315030024669631
 40
0.4219351868122974
 40
0.5275775927633417
 40
0.6362134531400181
 40
0.7429488821168505
 40
0.8528788227495517
 40
0.9578277247781112
 40
1.0
 40
1.0
 40
1.0
 40
1.0
 10
194.6241883108289
 20
121.0870337244929
 30
0.0
 10
194.3783712266039
 20
121.089749559086
 30
0.0
 10
193.8794916474875
 20
121.0952612769676
 30
0.0
 10
193.1560081039628
 20
121.1383450357431
 30
0.0
 10
192.468212747755
 20
121.2022116479247
 30
0.0
 10
191.8434673756208
 20
121.2815471639495
 30
0.0
 10
191.2875165725585
 20
121.3684859557179
 30
0.0
 10
190.8255300659913
 20
121.4524455470368
 30
0.0
 10
190.4632649347195
 20
121.5256084161279
 30
0.0
 10
190.2314859639658
 20
121.5757454564194
 30
0.0
 10
190.1219200196826
 20
121.6003655538019
 30
0.0
 10
190.1357508950472
 20
121.5972604057367
 30
0.0
 10
190.139715514508
 20
121.5963703152598
 30
0.0
  0
LINE
  5
CC
330
1F
100
AcDbEntity
  8
0
  6
Continuous
 62
     7
370
    15
100
AcDbLine
 10
196.1390282506
 20
121.0870337245
 30
0.0
 11
194.6241883108
 21
121.0870337245
 31
0.0
  0
LINE
  5
CD
330
1F
100
AcDbEntity
  8
0
  6
Continuous
 62
     7
370
    15
100
AcDbLine
 10
196.1390282506
 20
117.7112669256
 30
0.0
 11
196.1390282506
 21
121.0870337245
 31
0.0
  0
LINE
  5
CE
330
1F
100
AcDbEntity
  8
0
  6
Continuous
 62
     7
370
    15
100
AcDbLine
 10
194.6178581113
 20
117.7112669256
 30
0.0
 11
196.1390282506
 21
117.7112669256
 31
0.0
  0
SPLINE
  5
CF
330
1F
100
AcDbEntity
  8
0
  6
Continuous
 62
     7
370
    15
100
AcDbSpline
210
0.0
220
0.0
230
1.0
 70
     8
 71
     3
 72
    22
 73
    18
 74
     0
 42
0.00000001
 43
0.00000001
 12
1.0
 22
0.0
 32
0.0
 13
1.0
 23
0.0
 33
0.0
 40
0.0
 40
0.0
 40
0.0
 40
0.0
 40
0.2500000000000002
 40
0.2500000000000002
 40
0.3750000000000001
 40
0.3750000000000001
 40
0.5000000000000001
 40
0.5000000000000001
 40
0.6250000000000001
 40
0.6250000000000001
 40
0.75
 40
0.75
 40
0.875
 40
0.875
 40
0.9375000000000001
 40
0.9375000000000001
 40
1.0
 40
1.0
 40
1.0
 40
1.0
 10
190.1241880396278
 20
113.449857634014
 30
0.0
 10
190.1461690576144
 20
114.012730275912
 30
0.0
 10
190.2251459409692
 20
114.5433551596416
 30
0.0
 10
190.4715438340015
 20
115.2890661505632
 30
0.0
 10
190.5760684490925
 20
115.5306863769619
 30
0.0
 10
190.837915044399
 20
115.9895451522878
 30
0.0
 10
190.9931316665648
 20
116.2037238247576
 30
0.0
 10
191.3617234196287
 20
116.6009523839031
 30
0.0
 10
191.5778571120936
 20
116.785397218923
 30
0.0
 10
192.0617516070805
 20
117.1064770668066
 30
0.0
 10
192.3322171520882
 20
117.2458278969126
 30
0.0
 10
192.9284437175984
 20
117.4751334313382
 30
0.0
 10
193.2439369843184
 20
117.5616694408145
 30
0.0
 10
193.7446536323369
 20
117.6505590451458
 30
0.0
 10
193.9174500669521
 20
117.6733675510074
 30
0.0
 10
194.2658188397341
 20
117.7036587137036
 30
0.0
 10
194.4412198686445
 20
117.7112666350915
 30
0.0
 10
194.6178585143325
 20
117.7112666350915
 30
0.0
  0
LINE
  5
D0
330
1F
100
AcDbEntity
  8
0
  6
Continuous
 62
     7
370
    15
100
AcDbLine
 10
202.1241886089
 20
82.9958249387
 30
0.0
 11
202.1241886089
 21
113.4498579931
 31
0.0
  0
SPLINE
  5
D1
330
1F
100
AcDbEntity
  8
0
  6
Continuous
 62
     7
370
    15
100
AcDbSpline
210
0.0
220
0.0
230
1.0
 70
     8
 71
     3
 72
    10
 73
     6
 74
     0
 42
0.00000001
 43
0.00000001
 12
1.0
 22
0.0
 32
0.0
 13
1.0
 23
0.0
 33
0.0
 40
0.0
 40
0.0
 40
0.0
 40
0.0
 40
0.5
 40
0.5
 40
1.0
 40
1.0
 40
1.0
 40
1.0
 10
202.1241880396278
 20
82.9958258129275
 30
0.0
 10
202.1241880396278
 20
82.83619364402426
 30
0.0
 10
202.0625515259225
 20
82.67514401026021
 30
0.0
 10
201.8435251596796
 20
82.44215312658362
 30
0.0
 10
201.6859082716322
 20
82.37097311098462
 30
0.0
 10
201.5241880396278
 20
82.37097311098462
 30
0.0
  0
SPLINE
  5
D2
330
1F
100
AcDbEntity
  8
0
  6
Continuous
 62
     7
370
    15
100
AcDbSpline
210
0.0
220
0.0
230
1.0
 70
    24
 71
     3
 72
    12
 73
     8
 74
     0
 42
0.00000001
 43
0.00000001
 12
1.0
 22
0.0
 32
0.0
 13
1.0
 23
0.0
 33
0.0
 40
0.0
 40
0.0
 40
0.0
 40
0.0
 40
0.250000000000002
 40
0.250000000000002
 40
0.500000000000004
 40
0.500000000000004
 40
1.0
 40
1.0
 40
1.0
 40
1.0
 10
201.5241880396278
 20
113.449857634014
 30
0.0
 10
201.6123749049966
 20
113.449857634014
 30
0.0
 10
201.7010622982979
 20
113.449857634014
 30
0.0
 10
201.8553147914168
 20
113.449857634014
 30
0.0
 10
201.9206607724927
 20
113.449857634014
 30
0.0
 10
202.0750706424438
 20
113.449857634014
 30
0.0
 10
202.1241880396278
 20
113.449857634014
 30
0.0
 10
202.1241880396278
 20
113.449857634014
 30
0.0
  0
LINE
  5
D3
330
1F
100
AcDbEntity
  8
0
  6
Continuous
 62
     7
370
    15
100
AcDbLine
 10
197.1341883311
 20
84.1707349327
 30
0.0
 11
197.1341883311
 21
113.4498579931
 31
0.0
  0
SPLINE
  5
D4
330
1F
100
AcDbEntity
  8
0
  6
Continuous
 62
     7
370
    15
100
AcDbSpline
210
0.0
220
0.0
230
1.0
 70
     8
 71
     3
 72
     8
 73
     4
 74
     0
 42
0.00000001
 43
0.00000001
 12
1.0
 22
0.0
 32
0.0
 13
1.0
 23
0.0
 33
0.0
 40
0.0
 40
0.0
 40
0.0
 40
0.0
 40
1.0
 40
1.0
 40
1.0
 40
1.0
 10
197.1341880396278
 20
84.17073424602431
 30
0.0
 10
196.8035494130132
 20
83.57021389491331
 30
0.0
 10
196.4717336124397
 20
82.97034478420828
 30
0.0
 10
196.1390283407343
 20
82.37097311098462
 30
0.0
  0
SPLINE
  5
D5
330
1F
100
AcDbEntity
  8
0
  6
Continuous
 62
     7
370
    15
100
AcDbSpline
210
0.0
220
0.0
230
1.0
 70
    24
 71
     3
 72
     8
 73
     4
 74
     0
 42
0.00000001
 43
0.00000001
 12
1.0
 22
0.0
 32
0.0
 13
1.0
 23
0.0
 33
0.0
 40
0.0
 40
0.0
 40
0.0
 40
0.0
 40
1.0
 40
1.0
 40
1.0
 40
1.0
 10
196.1390283407343
 20
113.449857634014
 30
0.0
 10
196.4780611624889
 20
113.449857634014
 30
0.0
 10
196.8105513840055
 20
113.449857634014
 30
0.0
 10
197.1341880396278
 20
113.449857634014
 30
0.0
  0
LINE
  5
D6
330
1F
100
AcDbEntity
  8
0
  6
Continuous
 62
     7
370
    15
100
AcDbLine
 10
182.1741880396
 20
81.8998575714
 30
0.0
 11
182.1741880396
 21
121.2998576966
 31
0.0
  0
SPLINE
  5
D7
330
1F
100
AcDbEntity
  8
0
  6
Continuous
 62
     7
370
    15
100
AcDbSpline
210
0.0
220
0.0
230
1.0
 70
    24
 71
     3
 72
    16
 73
    12
 74
     0
 42
0.00000001
 43
0.00000001
 12
1.0
 22
0.0
 32
0.0
 13
1.0
 23
0.0
 33
0.0
 40
0.0
 40
0.0
 40
0.0
 40
0.0
 40
0.5000000000000001
 40
0.5000000000000001
 40
0.7499999999999993
 40
0.7499999999999993
 40
0.8749999999999983
 40
0.8749999999999983
 40
0.9374999999999991
 40
0.9374999999999991
 40
1.0
 40
1.0
 40
1.0
 40
1.0
 10
199.1789656390465
 20
84.69985763401404
 30
0.0
 10
199.1489292195199
 20
84.69985763401404
 30
0.0
 10
199.1022951223151
 20
84.69985763401404
 30
0.0
 10
198.9919107107364
 20
84.69985763401404
 30
0.0
 10
198.9485730622158
 20
84.69985763401404
 30
0.0
 10
198.8600914278312
 20
84.69985763401404
 30
0.0
 10
198.8267159232145
 20
84.69985763401404
 30
0.0
 10
198.7622237137639
 20
84.69985763401404
 30
0.0
 10
198.7380193765774
 20
84.69985763401404
 30
0.0
 10
198.682265566767
 20
84.69985763401404
 30
0.0
 10
198.6486815406988
 20
84.69985763401402
 30
0.0
 10
198.6141880396278
 20
84.69985763401404
 30
0.0
  0
SPLINE
  5
D8
330
1F
100
AcDbEntity
  8
0
  6
Continuous
 62
     7
370
    15
100
AcDbSpline
210
0.0
220
0.0
230
1.0
 70
    24
 71
     3
 72
    12
 73
     8
 74
     0
 42
0.00000001
 43
0.00000001
 12
1.0
 22
0.0
 32
0.0
 13
1.0
 23
0.0
 33
0.0
 40
0.0
 40
0.0
 40
0.0
 40
0.0
 40
0.249999999999999
 40
0.249999999999999
 40
0.499999999999998
 40
0.499999999999998
 40
1.0
 40
1.0
 40
1.0
 40
1.0
 10
198.6141880396278
 20
113.449857634014
 30
0.0
 10
198.706846129134
 20
113.449857634014
 30
0.0
 10
198.7989095386917
 20
113.449857634014
 30
0.0
 10
198.9530670891825
 20
113.449857634014
 30
0.0
 10
199.0175560225472
 20
113.449857634014
 30
0.0
 10
199.1676075714967
 20
113.449857634014
 30
0.0
 10
199.2141880396278
 20
113.449857634014
 30
0.0
 10
199.2141880396278
 20
113.449857634014
 30
0.0
  0
SPLINE
  5
D9
330
1F
100
AcDbEntity
  8
0
  6
Continuous
 62
     7
370
    15
100
AcDbSpline
210
0.0
220
0.0
230
1.0
 70
    24
 71
     3
 72
    16
 73
    12
 74
     0
 42
0.00000001
 43
0.00000001
 12
1.0
 22
0.0
 32
0.0
 13
1.0
 23
0.0
 33
0.0
 40
0.0
 40
0.0
 40
0.0
 40
0.0
 40
0.0624999999999997
 40
0.0624999999999997
 40
0.1249999999999994
 40
0.1249999999999994
 40
0.2499999999999988
 40
0.2499999999999988
 40
0.499999999999999
 40
0.499999999999999
 40
1.0
 40
1.0
 40
1.0
 40
1.0
 10
197.7341880396012
 20
84.69985763401404
 30
0.0
 10
197.699709372416
 20
84.69985763401404
 30
0.0
 10
197.6658891955791
 20
84.69985763401404
 30
0.0
 10
197.6093671283955
 20
84.69985763401404
 30
0.0
 10
197.5850410488692
 20
84.69985763401404
 30
0.0
 10
197.5205881493179
 20
84.69985763401404
 30
0.0
 10
197.4869598739593
 20
84.69985763401404
 30
0.0
 10
197.3988825584345
 20
84.69985763401404
 30
0.0
 10
197.3560631051668
 20
84.69985763401404
 30
0.0
 10
197.2454064709698
 20
84.69985763401404
 30
0.0
 10
197.1991738850258
 20
84.69985763401404
 30
0.0
 10
197.1694104402091
 20
84.69985763401404
 30
0.0
  0
SPLINE
  5
DA
330
1F
100
AcDbEntity
  8
0
  6
Continuous
 62
     7
370
    15
100
AcDbSpline
210
0.0
220
0.0
230
1.0
 70
    24
 71
     3
 72
    12
 73
     8
 74
     0
 42
0.00000001
 43
0.00000001
 12
1.0
 22
0.0
 32
0.0
 13
1.0
 23
0.0
 33
0.0
 40
0.0
 40
0.0
 40
0.0
 40
0.0
 40
0.5000000000000013
 40
0.5000000000000013
 40
0.7500000000000007
 40
0.7500000000000007
 40
1.0
 40
1.0
 40
1.0
 40
1.0
 10
197.1341880396278
 20
113.449857634014
 30
0.0
 10
197.1341880396278
 20
113.449857634014
 30
0.0
 10
197.1811841371361
 20
113.449857634014
 30
0.0
 10
197.3306900751363
 20
113.449857634014
 30
0.0
 10
197.3952086976948
 20
113.449857634014
 30
0.0
 10
197.5496483904238
 20
113.449857634014
 30
0.0
 10
197.6405867784268
 20
113.449857634014
 30
0.0
 10
197.7341880396278
 20
113.449857634014
 30
0.0
  0
SPLINE
  5
DB
330
1F
100
AcDbEntity
  8
0
  6
Continuous
 62
     7
370
    15
100
AcDbSpline
210
0.0
220
0.0
230
1.0
 70
    24
 71
     3
 72
    14
 73
    10
 74
     0
 42
0.00000001
 43
0.00000001
 12
1.0
 22
0.0
 32
0.0
 13
1.0
 23
0.0
 33
0.0
 40
0.0
 40
0.0
 40
0.0
 40
0.0
 40
0.125
 40
0.125
 40
0.2500000000000001
 40
0.2500000000000001
 40
0.5
 40
0.5
 40
1.0
 40
1.0
 40
1.0
 40
1.0
 10
202.3241880396131
 20
118.499857634014
 30
0.0
 10
202.3241882517016
 20
118.499857634014
 30
0.0
 10
202.3218118816924
 20
118.499857634014
 30
0.0
 10
202.3126639735099
 20
118.499857634014
 30
0.0
 10
202.3058980709973
 20
118.499857634014
 30
0.0
 10
202.2804586475312
 20
118.499857634014
 30
0.0
 10
202.256565612779
 20
118.499857634014
 30
0.0
 10
202.1816314069592
 20
118.499857634014
 30
0.0
 10
202.1264049277026
 20
118.499857634014
 30
0.0
 10
202.1242501627511
 20
118.499857634014
 30
0.0
  0
SPLINE
  5
DC
330
1F
100
AcDbEntity
  8
0
  6
Continuous
 62
     7
370
    15
100
AcDbSpline
210
0.0
220
0.0
230
1.0
 70
    24
 71
     3
 72
    10
 73
     6
 74
     0
 42
0.00000001
 43
0.00000001
 12
1.0
 22
0.0
 32
0.0
 13
1.0
 23
0.0
 33
0.0
 40
0.0
 40
0.0
 40
0.0
 40
0.0
 40
0.0000108100203413
 40
0.8576850681698692
 40
1.0
 40
1.0
 40
1.0
 40
1.0
 10
202.3241882691056
 20
84.69985840291396
 30
0.0
 10
202.3241882691075
 20
84.69985840291396
 30
0.0
 10
202.3241884123066
 20
84.69985840290599
 30
0.0
 10
202.2844653603035
 20
84.69985840291444
 30
0.0
 10
202.2338749227547
 20
84.69985840291402
 30
0.0
 10
202.2266750702531
 20
84.69985840291396
 30
0.0
  0
SPLINE
  5
DD
330
1F
100
AcDbEntity
  8
0
  6
Continuous
 62
     7
370
    15
100
AcDbSpline
210
0.0
220
0.0
230
1.0
 70
    24
 71
     3
 72
    12
 73
     8
 74
     0
 42
0.00000001
 43
0.00000001
 12
1.0
 22
0.0
 32
0.0
 13
1.0
 23
0.0
 33
0.0
 40
0.0
 40
0.0
 40
0.0
 40
0.0
 40
0.5
 40
0.5
 40
0.75
 40
0.75
 40
1.0
 40
1.0
 40
1.0
 40
1.0
 10
202.1241880396278
 20
113.449857634014
 30
0.0
 10
202.1241880396278
 20
113.449857634014
 30
0.0
 10
202.1514087877554
 20
113.449857634014
 30
0.0
 10
202.2318552335283
 20
113.449857634014
 30
0.0
 10
202.2653024620064
 20
113.449857634014
 30
0.0
 10
202.3477120317807
 20
113.449857634014
 30
0.0
 10
202.3969951286643
 20
113.449857634014
 30
0.0
 10
202.4533117513009
 20
113.449857634014
 30
0.0
  0
SPLINE
  5
DE
330
1F
100
AcDbEntity
  8
0
  6
Continuous
 62
     7
370
    15
100
AcDbSpline
210
0.0
220
0.0
230
1.0
 70
     8
 71
     3
 72
    10
 73
     6
 74
     0
 42
0.00000001
 43
0.00000001
 12
1.0
 22
0.0
 32
0.0
 13
1.0
 23
0.0
 33
0.0
 40
0.0
 40
0.0
 40
0.0
 40
0.0
 40
0.5
 40
0.5
 40
1.0
 40
1.0
 40
1.0
 40
1.0
 10
202.1241880396278
 20
114.4772603224446
 30
0.0
 10
202.1241880396278
 20
114.2945516103097
 30
0.0
 10
202.1511613733358
 20
114.1110433205489
 30
0.0
 10
202.2587517411216
 20
113.7627393422282
 30
0.0
 10
202.3402162854648
 20
113.5945517596853
 30
0.0
 10
202.4533117513006
 20
113.4498576340126
 30
0.0
  0
LINE
  5
DF
330
1F
100
AcDbEntity
  8
0
  6
Continuous
 62
     7
370
    15
100
AcDbLine
 10
198.6141884247
 20
84.6998584029
 30
0.0
 11
197.7341882432
 21
84.6998584029
 31
0.0
  0
LINE
  5
E0
330
1F
100
AcDbEntity
  8
0
  6
Continuous
 62
     7
370
    15
100
AcDbLine
 10
197.7341882432
 20
113.4498579931
 30
0.0
 11
198.6141884247
 21
113.4498579931
 31
0.0
  0
ELLIPSE
  5
E1
330
1F
100
AcDbEntity
  8
0
  6
Continuous
 62
     7
370
    15
100
AcDbEllipse
 10
211.8374323264
 20
101.599857634
 30
0.0
 11
-0.2492245631851517
 21
16.49986529017433
 31
0.0
210
0.0
220
0.0
230
1.0
 40
0.2675253107
 41
0.2694826819603271
 42
2.759308512250267
  0
ELLIPSE
  5
E2
330
1F
100
AcDbEntity
  8
0
  6
Continuous
 62
     7
370
    15
100
AcDbEllipse
 10
209.8454781179
 20
109.2481472542
 30
0.0
 11
0.1575306644388945
 21
2.644315303131051
 31
0.0
210
0.0
220
0.0
230
1.0
 40
0.2237730847
 41
5.316208595331064
 42
10.9121291608987
  0
SPLINE
  5
E3
330
1F
100
AcDbEntity
  8
0
  6
Continuous
 62
     7
370
    15
100
AcDbSpline
210
0.0
220
0.0
230
1.0
 70
     8
 71
     3
 72
    18
 73
    14
 74
     0
 42
0.00000001
 43
0.00000001
 12
1.0
 22
0.0
 32
0.0
 13
1.0
 23
0.0
 33
0.0
 40
0.0
 40
0.0
 40
0.0
 40
0.0
 40
0.2500000000000001
 40
0.2500000000000001
 40
0.5000000000000002
 40
0.5000000000000002
 40
0.6250000000000001
 40
0.6250000000000001
 40
0.7500000000000001
 40
0.7500000000000001
 40
0.875
 40
0.875
 40
1.0
 40
1.0
 40
1.0
 40
1.0
 10
214.0763753465134
 20
118.0346883171897
 30
0.0
 10
213.6484866767702
 20
118.0326771884338
 30
0.0
 10
213.2356851536927
 20
118.0250699447034
 30
0.0
 10
212.4400997208341
 20
117.9922271144385
 30
0.0
 10
212.0751382354626
 20
117.9675095494053
 30
0.0
 10
211.5845578597044
 20
117.9084308606386
 30
0.0
 10
211.4319568976159
 20
117.8850758077334
 30
0.0
 10
211.1553648160379
 20
117.8305122134531
 30
0.0
 10
211.030122370662
 20
117.7991665933332
 30
0.0
 10
210.8057800543355
 20
117.7264214915336
 30
0.0
 10
210.7072827546061
 20
117.6850256945401
 30
0.0
 10
210.5422169500726
 20
117.5932217339554
 30
0.0
 10
210.4747088185326
 20
117.542543557599
 30
0.0
 10
210.4220158663288
 20
117.4864714252702
 30
0.0
  0
SPLINE
  5
E4
330
1F
100
AcDbEntity
  8
0
  6
Continuous
 62
     7
370
    15
100
AcDbSpline
210
0.0
220
0.0
230
1.0
 70
     8
 71
     3
 72
    20
 73
    16
 74
     0
 42
0.00000001
 43
0.00000001
 12
1.0
 22
0.0
 32
0.0
 13
1.0
 23
0.0
 33
0.0
 40
0.0
 40
0.0
 40
0.0
 40
0.0
 40
0.2500000000000012
 40
0.2500000000000012
 40
0.3750000000000013
 40
0.3750000000000013
 40
0.5000000000000016
 40
0.5000000000000016
 40
0.6250000000000017
 40
0.6250000000000017
 40
0.7500000000000018
 40
0.7500000000000018
 40
0.875000000000002
 40
0.875000000000002
 40
1.0
 40
1.0
 40
1.0
 40
1.0
 10
210.4220158663288
 20
86.26616339626345
 30
0.0
 10
210.5273958773455
 20
86.11285966106414
 30
0.0
 10
210.6905679680154
 20
85.9835859566361
 30
0.0
 10
211.0274159127283
 20
85.8187139172682
 30
0.0
 10
211.1539157182667
 20
85.7694577534902
 30
0.0
 10
211.4300818850048
 20
85.68225017628343
 30
0.0
 10
211.5804173407271
 20
85.64396487122413
 30
0.0
 10
211.9063933295602
 20
85.5764315338185
 30
0.0
 10
212.0817567320999
 20
85.5473841280047
 30
0.0
 10
212.4453012141016
 20
85.49870953593016
 30
0.0
 10
212.6349440495279
 20
85.47875818485403
 30
0.0
 10
213.0301801195903
 20
85.44622156512884
 30
0.0
 10
213.2363023861256
 20
85.4336835939602
 30
0.0
 10
213.6516293120107
 20
85.41583828641681
 30
0.0
 10
213.8624076348654
 20
85.41037640937006
 30
0.0
 10
214.0763753465134
 20
85.40819698902799
 30
0.0
  0
ELLIPSE
  5
E5
330
1F
100
AcDbEntity
  8
0
  6
Continuous
 62
     7
370
    15
100
AcDbEllipse
 10
258.4049886952
 20
101.599857634
 30
0.0
 11
314.8387520859912
 21
-0.865915037760388
 31
0.0
210
0.0
220
0.0
230
1.0
 40
0.0523355614
 41
4.571265695581567
 42
4.578738430275831
  0
ELLIPSE
  5
E6
330
1F
100
AcDbEntity
  8
0
  6
Continuous
 62
     7
370
    15
100
AcDbEllipse
 10
258.4049886952
 20
101.599857634
 30
0.0
 11
314.8387520859912
 21
-0.865915037760388
 31
0.0
210
0.0
220
0.0
230
1.0
 40
0.0523355614
 41
1.704734758551414
 42
1.712207493245679
  0
LINE
  5
E7
330
1F
100
AcDbEntity
  8
0
  6
Continuous
 62
     7
370
    15
100
AcDbLine
 10
168.3741881991
 20
87.0873392132
 30
0.0
 11
168.3741881991
 21
87.996281175
 31
0.0
  0
SPLINE
  5
E8
330
1F
100
AcDbEntity
  8
0
  6
Continuous
 62
     7
370
    15
100
AcDbSpline
210
0.0
220
0.0
230
1.0
 70
     8
 71
     3
 72
    10
 73
     6
 74
     0
 42
0.00000001
 43
0.00000001
 12
1.0
 22
0.0
 32
0.0
 13
1.0
 23
0.0
 33
0.0
 40
0.0
 40
0.0
 40
0.0
 40
0.0
 40
0.5
 40
0.5
 40
1.0
 40
1.0
 40
1.0
 40
1.0
 10
168.0829528371425
 20
88.6658542868061
 30
0.0
 10
168.1208272400872
 20
88.53969217875344
 30
0.0
 10
168.2016182874131
 20
88.42173313777155
 30
0.0
 10
168.3267482300044
 20
88.19868715518257
 30
0.0
 10
168.3741880396278
 20
88.09389208168722
 30
0.0
 10
168.3741880396278
 20
87.9962814482898
 30
0.0
  0
SPLINE
  5
E9
330
1F
100
AcDbEntity
  8
0
  6
Continuous
 62
     7
370
    15
100
AcDbSpline
210
0.0
220
0.0
230
1.0
 70
     8
 71
     3
 72
    16
 73
    12
 74
     0
 42
0.00000001
 43
0.00000001
 12
1.0
 22
0.0
 32
0.0
 13
1.0
 23
0.0
 33
0.0
 40
0.0
 40
0.0
 40
0.0
 40
0.0
 40
0.0625000000000006
 40
0.0625000000000006
 40
0.1250000000000012
 40
0.1250000000000012
 40
0.2500000000000024
 40
0.2500000000000024
 40
0.5000000000000021
 40
0.5000000000000021
 40
1.0
 40
1.0
 40
1.0
 40
1.0
 10
167.474188039628
 20
89.31598433546117
 30
0.0
 10
167.5055038389553
 20
89.3185889573532
 30
0.0
 10
167.5382181773809
 20
89.31682005689323
 30
0.0
 10
167.5995247308577
 20
89.30528516244324
 30
0.0
 10
167.6280356210757
 20
89.29575818509701
 30
0.0
 10
167.7039295944319
 20
89.2622445849721
 30
0.0
 10
167.7432691794649
 20
89.2338570706522
 30
0.0
 10
167.8447049604463
 20
89.14583612044436
 30
0.0
 10
167.8895303200523
 20
89.08420346823718
 30
0.0
 10
168.0038126750174
 20
88.90081527456204
 30
0.0
 10
168.0486265828602
 20
88.78019728009717
 30
0.0
 10
168.0829528371425
 20
88.6658542868061
 30
0.0
  0
SPLINE
  5
EA
330
1F
100
AcDbEntity
  8
0
  6
Continuous
 62
     7
370
    15
100
AcDbSpline
210
0.0
220
0.0
230
1.0
 70
     8
 71
     3
 72
    10
 73
     6
 74
     0
 42
0.00000001
 43
0.00000001
 12
1.0
 22
0.0
 32
0.0
 13
1.0
 23
0.0
 33
0.0
 40
0.0
 40
0.0
 40
0.0
 40
0.0
 40
0.5
 40
0.5
 40
1.0
 40
1.0
 40
1.0
 40
1.0
 10
163.3843966049122
 20
88.8886773715629
 30
0.0
 10
164.0426546158146
 20
88.98160207687991
 30
0.0
 10
164.7199969243517
 20
89.0575371940025
 30
0.0
 10
166.0893429380329
 20
89.19635527954016
 30
0.0
 10
166.7806630189054
 20
89.25830193582662
 30
0.0
 10
167.4741880396284
 20
89.3159843354612
 30
0.0
  0
SPLINE
  5
EB
330
1F
100
AcDbEntity
  8
0
  6
Continuous
 62
     7
370
    15
100
AcDbSpline
210
0.0
220
0.0
230
1.0
 70
     8
 71
     3
 72
     8
 73
     4
 74
     0
 42
0.00000001
 43
0.00000001
 12
1.0
 22
0.0
 32
0.0
 13
1.0
 23
0.0
 33
0.0
 40
0.0000002108190109
 40
0.0000002108190109
 40
0.0000002108190109
 40
0.0000002108190109
 40
0.0001710235456397
 40
0.0001710235456397
 40
0.0001710235456397
 40
0.0001710235456397
 10
163.2241880396278
 20
88.86932208305464
 30
0.0
 10
163.2781762257176
 20
88.8749522256582
 30
0.0
 10
163.3317658857935
 20
88.88124761911973
 30
0.0
 10
163.3843966049122
 20
88.88867737156289
 30
0.0
  0
SPLINE
  5
EC
330
1F
100
AcDbEntity
  8
0
  6
Continuous
 62
     7
370
    15
100
AcDbSpline
210
0.0
220
0.0
230
1.0
 70
     8
 71
     3
 72
     8
 73
     4
 74
     0
 42
0.00000001
 43
0.00000001
 12
1.0
 22
0.0
 32
0.0
 13
1.0
 23
0.0
 33
0.0
 40
0.000003532078448
 40
0.000003532078448
 40
0.000003532078448
 40
0.000003532078448
 40
0.0000638548434643
 40
0.0000638548434643
 40
0.0000638548434643
 40
0.0000638548434643
 10
163.2156718900587
 20
88.89667993447047
 30
0.0
 10
163.2182210611809
 20
88.88751873113173
 30
0.0
 10
163.2210629839626
 20
88.87839772782301
 30
0.0
 10
163.2241880396278
 20
88.86932208305466
 30
0.0
  0
ELLIPSE
  5
ED
330
1F
100
AcDbEntity
  8
0
  6
Continuous
 62
     7
370
    15
100
AcDbEllipse
 10
149.7474458318
 20
100.9605599562
 30
0.0
 11
13.37355272666625
 21
-13.37146352987014
 31
0.0
210
0.0
220
0.0
230
1.0
 40
0.1761188775
 41
0.3023035477142491
 42
0.3822730435340285
  0
ELLIPSE
  5
EE
330
1F
100
AcDbEntity
  8
0
  6
Continuous
 62
     7
370
    15
100
AcDbEllipse
 10
149.6680674011
 20
102.2389680853
 30
0.0
 11
13.36963611134306
 21
13.36754752639485
 31
0.0
210
0.0
220
0.0
230
1.0
 40
0.1761188775
 41
5.933076931846602
 42
5.976720052691201
  0
SPLINE
  5
EF
330
1F
100
AcDbEntity
  8
0
  6
Continuous
 62
     7
370
    15
100
AcDbSpline
210
0.0
220
0.0
230
1.0
 70
     8
 71
     3
 72
     8
 73
     4
 74
     0
 42
0.00000001
 43
0.00000001
 12
1.0
 22
0.0
 32
0.0
 13
1.0
 23
0.0
 33
0.0
 40
0.0
 40
0.0
 40
0.0
 40
0.0
 40
1.0
 40
1.0
 40
1.0
 40
1.0
 10
163.2241880396278
 20
114.4654381809924
 30
0.0
 10
163.1784231319385
 20
114.4039178018336
 30
0.0
 10
163.1440360103085
 20
114.3400229420841
 30
0.0
 10
163.1250207566356
 20
114.2732929970404
 30
0.0
  0
SPLINE
  5
F0
330
1F
100
AcDbEntity
  8
0
  6
Continuous
 62
     7
370
    15
100
AcDbSpline
210
0.0
220
0.0
230
1.0
 70
     8
 71
     3
 72
    12
 73
     8
 74
     0
 42
0.00000001
 43
0.00000001
 12
1.0
 22
0.0
 32
0.0
 13
1.0
 23
0.0
 33
0.0
 40
0.0
 40
0.0
 40
0.0
 40
0.0
 40
0.2499999999999986
 40
0.2499999999999986
 40
0.4999999999999971
 40
0.4999999999999971
 40
1.0
 40
1.0
 40
1.0
 40
1.0
 10
164.9741880396278
 20
114.3806514926732
 30
0.0
 10
164.8321456364386
 20
114.3964772208494
 30
0.0
 10
164.6880275299344
 20
114.4074983546247
 30
0.0
 10
164.3982730162619
 20
114.4260347164919
 30
0.0
 10
164.2525311129032
 20
114.4333054222277
 30
0.0
 10
163.8138508737233
 20
114.4517662725557
 30
0.0
 10
163.5194752576521
 20
114.4596451393793
 30
0.0
 10
163.2241880396278
 20
114.4654381809924
 30
0.0
  0
SPLINE
  5
F1
330
1F
100
AcDbEntity
  8
0
  6
Continuous
 62
     7
370
    15
100
AcDbSpline
210
0.0
220
0.0
230
1.0
 70
     8
 71
     3
 72
    20
 73
    16
 74
     0
 42
0.00000001
 43
0.00000001
 12
1.0
 22
0.0
 32
0.0
 13
1.0
 23
0.0
 33
0.0
 40
0.0
 40
0.0
 40
0.0
 40
0.0
 40
0.2499999999999996
 40
0.2499999999999996
 40
0.4999999999999991
 40
0.4999999999999991
 40
0.7499999999999987
 40
0.7499999999999987
 40
0.8749999999999971
 40
0.8749999999999971
 40
0.9374999999999983
 40
0.9374999999999983
 40
0.9687499999999991
 40
0.9687499999999991
 40
1.0
 40
1.0
 40
1.0
 40
1.0
 10
165.8741880396287
 20
115.1573817557619
 30
0.0
 10
165.8741880396287
 20
115.0967723560645
 30
0.0
 10
165.8487930200518
 20
115.030946390661
 30
0.0
 10
165.7624998342698
 20
114.8968986213143
 30
0.0
 10
165.7018638555866
 20
114.8282032631725
 30
0.0
 10
165.5537620613653
 20
114.6878047115181
 30
0.0
 10
165.4669924545867
 20
114.6161012069368
 30
0.0
 10
165.3183546592575
 20
114.5099378051879
 30
0.0
 10
165.2660654423713
 20
114.4744094565564
 30
0.0
 10
165.1753016140614
 20
114.4247055260409
 30
0.0
 10
165.1429356216094
 20
114.4084445280258
 30
0.0
 10
165.0852464659432
 20
114.3893319596798
 30
0.0
 10
165.0642594380557
 20
114.3839408175983
 30
0.0
 10
165.0189704590653
 20
114.3782034492058
 30
0.0
 10
164.9959561902268
 20
114.3782261828592
 30
0.0
 10
164.9741880396272
 20
114.3806514926721
 30
0.0
  0
LINE
  5
F2
330
1F
100
AcDbEntity
  8
0
  6
Continuous
 62
     7
370
    15
100
AcDbLine
 10
165.8741877893
 20
115.1573820543
 30
0.0
 11
165.8741877893
 21
115.9871252757
 31
0.0
  0
LINE
  5
F3
330
1F
100
AcDbEntity
  8
0
  6
Continuous
 62
     7
370
    15
100
AcDbLine
 10
180.1741879446
 20
86.4961570633
 30
0.0
 11
180.1741879446
 21
116.7035582048
 31
0.0
  0
SPLINE
  5
F4
330
1F
100
AcDbEntity
  8
0
  6
Continuous
 62
     7
370
    15
100
AcDbSpline
210
0.0
220
0.0
230
1.0
 70
     8
 71
     3
 72
    24
 73
    20
 74
     0
 42
0.00000001
 43
0.00000001
 12
1.0
 22
0.0
 32
0.0
 13
1.0
 23
0.0
 33
0.0
 40
0.0
 40
0.0
 40
0.0
 40
0.0
 40
0.0016643193296813
 40
0.0648792890554526
 40
0.127882629835479
 40
0.1913652263153964
 40
0.2543782098387403
 40
0.3163193264594876
 40
0.3777469775702122
 40
0.4397082275190884
 40
0.5014189034197821
 40
0.562536076452263
 40
0.6237133677268287
 40
0.6863020174790898
 40
0.7490598999921412
 40
0.811592469235191
 40
0.8743360189604256
 40
0.9379727054607176
 40
1.0
 40
1.0
 40
1.0
 40
1.0
 10
173.3587309265406
 20
86.83789098084584
 30
0.0
 10
173.3582535357151
 20
86.83782257001087
 30
0.0
 10
173.339643659107
 20
86.83515574624869
 30
0.0
 10
173.4027841959162
 20
86.84487030908676
 30
0.0
 10
173.5548269529987
 20
86.86707501529474
 30
0.0
 10
173.8227524682636
 20
86.90151076682814
 30
0.0
 10
174.1720662454504
 20
86.93997377749737
 30
0.0
 10
174.5991173073745
 20
86.97420183044476
 30
0.0
 10
175.0865569357894
 20
86.99665439028487
 30
0.0
 10
175.6182073007307
 20
87.0002483780159
 30
0.0
 10
176.1693279032317
 20
86.98323474876267
 30
0.0
 10
176.7167858940184
 20
86.94328898331952
 30
0.0
 10
177.241420123774
 20
86.88418137066287
 30
0.0
 10
177.7232085221739
 20
86.8118169332417
 30
0.0
 10
178.1481571141836
 20
86.73549626176356
 30
0.0
 10
178.4943734276444
 20
86.6635123157725
 30
0.0
 10
178.7494517397756
 20
86.6051252896088
 30
0.0
 10
178.909647131913
 20
86.56546563330225
 30
0.0
 10
178.9302811943097
 20
86.56064095783853
 30
0.0
 10
178.9404660941929
 20
86.5582595151724
 30
0.0
  0
SPLINE
  5
F5
330
1F
100
AcDbEntity
  8
0
  6
Continuous
 62
     7
370
    15
100
AcDbSpline
210
0.0
220
0.0
230
1.0
 70
     8
 71
     3
 72
    24
 73
    20
 74
     0
 42
0.00000001
 43
0.00000001
 12
1.0
 22
0.0
 32
0.0
 13
1.0
 23
0.0
 33
0.0
 40
0.0
 40
0.0
 40
0.0
 40
0.0
 40
0.0629034706215385
 40
0.1256338688179741
 40
0.1890239793713884
 40
0.2513957684939822
 40
0.3139906836130308
 40
0.3762905044722344
 40
0.4374458894592898
 40
0.498543195540241
 40
0.5603281747675228
 40
0.6223344559749604
 40
0.6838864964282686
 40
0.7458035579052691
 40
0.8089499376965126
 40
0.8723245876864573
 40
0.9353799443000518
 40
0.9988635323362688
 40
1.0
 40
1.0
 40
1.0
 40
1.0
 10
178.9394672507317
 20
116.6414566841783
 30
0.0
 10
178.9299966244568
 20
116.6390338949096
 30
0.0
 10
178.9110814293604
 20
116.6341949824277
 30
0.0
 10
178.7490301329562
 20
116.5942233912503
 30
0.0
 10
178.4925048922105
 20
116.535879395678
 30
0.0
 10
178.1464487559173
 20
116.4636442976897
 30
0.0
 10
177.7225493630239
 20
116.3874950461775
 30
0.0
 10
177.241566402186
 20
116.315375744665
 30
0.0
 10
176.717582845206
 20
116.2564882313572
 30
0.0
 10
176.1699849599989
 20
116.216576708753
 30
0.0
 10
175.6185086439428
 20
116.1995409611379
 30
0.0
 10
175.0860673641614
 20
116.2031044322295
 30
0.0
 10
174.5980851524754
 20
116.2255376971965
 30
0.0
 10
174.170572998843
 20
116.2598277120734
 30
0.0
 10
173.8216714440706
 20
116.2983315068602
 30
0.0
 10
173.5544168235799
 20
116.3327875348148
 30
0.0
 10
173.4014825190591
 20
116.3548703221529
 30
0.0
 10
173.3403728678955
 20
116.3646990339036
 30
0.0
 10
173.3579560315836
 20
116.3619352915075
 30
0.0
 10
173.3582652652533
 20
116.3618866857947
 30
0.0
  0
SPLINE
  5
F6
330
1F
100
AcDbEntity
  8
0
  6
Continuous
 62
     7
370
    15
100
AcDbSpline
210
0.0
220
0.0
230
1.0
 70
     8
 71
     3
 72
    26
 73
    22
 74
     0
 42
0.00000001
 43
0.00000001
 12
1.0
 22
0.0
 32
0.0
 13
1.0
 23
0.0
 33
0.0
 40
0.0
 40
0.0
 40
0.0
 40
0.0
 40
0.2500000000000016
 40
0.2500000000000016
 40
0.3750000000000021
 40
0.3750000000000021
 40
0.4375000000000028
 40
0.4375000000000028
 40
0.4687500000000033
 40
0.4687500000000033
 40
0.5000000000000037
 40
0.5000000000000037
 40
0.5312500000000041
 40
0.5312500000000041
 40
0.5625000000000046
 40
0.5625000000000046
 40
0.6250000000000043
 40
0.6250000000000043
 40
0.7500000000000029
 40
0.7500000000000029
 40
1.0
 40
1.0
 40
1.0
 40
1.0
 10
163.0341580860156
 20
113.9879382136269
 30
0.0
 10
162.9867699765872
 20
113.8522824716039
 30
0.0
 10
162.9291286746828
 20
113.7083210732746
 30
0.0
 10
162.8070808621395
 20
113.4655485000202
 30
0.0
 10
162.7610318543629
 20
113.3805088595709
 30
0.0
 10
162.6703785701973
 20
113.2401328865305
 30
0.0
 10
162.6360260699117
 20
113.1902215091917
 30
0.0
 10
162.5735908975212
 20
113.1136862443374
 30
0.0
 10
162.5502968787232
 20
113.0872817653505
 30
0.0
 10
162.5012443415966
 20
113.0396870000895
 30
0.0
 10
162.4768128919398
 20
113.0202443862377
 30
0.0
 10
162.43618329632
 20
112.9953366085696
 30
0.0
 10
162.4200210144688
 20
112.9892667772586
 30
0.0
 10
162.3930389703657
 20
112.9835779056648
 30
0.0
 10
162.3822894475429
 20
112.9839684137455
 30
0.0
 10
162.3542534733858
 20
112.990110760534
 30
0.0
 10
162.3413922413531
 20
113.000774766952
 30
0.0
 10
162.3103893801928
 20
113.0397875573122
 30
0.0
 10
162.2995298981236
 20
113.0758395477165
 30
0.0
 10
162.2762526421857
 20
113.1935189452156
 30
0.0
 10
162.2741880396277
 20
113.2848488455486
 30
0.0
 10
162.2741880396277
 20
113.3780890984548
 30
0.0
  0
SPLINE
  5
F7
330
1F
100
AcDbEntity
  8
0
  6
Continuous
 62
     7
370
    15
100
AcDbSpline
210
0.0
220
0.0
230
1.0
 70
     8
 71
     3
 72
    24
 73
    20
 74
     0
 42
0.00000001
 43
0.00000001
 12
1.0
 22
0.0
 32
0.0
 13
1.0
 23
0.0
 33
0.0
 40
0.0
 40
0.0
 40
0.0
 40
0.0
 40
0.2500000000000003
 40
0.2500000000000003
 40
0.3750000000000002
 40
0.3750000000000002
 40
0.4374999999999999
 40
0.4374999999999999
 40
0.4999999999999997
 40
0.4999999999999997
 40
0.5312499999999983
 40
0.5312499999999983
 40
0.5624999999999971
 40
0.5624999999999971
 40
0.6249999999999967
 40
0.6249999999999967
 40
0.7499999999999976
 40
0.7499999999999976
 40
1.0
 40
1.0
 40
1.0
 40
1.0
 10
162.2741880396278
 20
90.05234443279267
 30
0.0
 10
162.2741880396278
 20
90.13725338646223
 30
0.0
 10
162.2769126680601
 20
90.21958308250913
 30
0.0
 10
162.3032699891781
 20
90.32199546992813
 30
0.0
 10
162.3154837074503
 20
90.35281256631252
 30
0.0
 10
162.3500943575827
 20
90.38191008238947
 30
0.0
 10
162.3644810679501
 20
90.3888677230281
 30
0.0
 10
162.4057295510525
 20
90.38775798175122
 30
0.0
 10
162.4342691009834
 20
90.37946457614245
 30
0.0
 10
162.4951917664947
 20
90.33488114228122
 30
0.0
 10
162.5182577366345
 20
90.31441942902393
 30
0.0
 10
162.5621536166408
 20
90.26980681074359
 30
0.0
 10
162.5830336522009
 20
90.2459307325372
 30
0.0
 10
162.640243915494
 20
90.1760336353752
 30
0.0
 10
162.6725905392704
 20
90.13045604659072
 30
0.0
 10
162.7587564827622
 20
90.00157255897184
 30
0.0
 10
162.8044205028023
 20
89.92173938183979
 30
0.0
 10
162.9249680662535
 20
89.69595857272746
 30
0.0
 10
162.9840281549546
 20
89.56112718775614
 30
0.0
 10
163.0341580860156
 20
89.43287204908862
 30
0.0
  0
LINE
  5
F8
330
1F
100
AcDbEntity
  8
0
  6
Continuous
 62
     7
370
    15
100
AcDbLine
 10
162.2741883168
 20
90.0523443279
 30
0.0
 11
162.2741883168
 21
113.3780893442
 31
0.0
  0
SPLINE
  5
F9
330
1F
100
AcDbEntity
  8
0
  6
Continuous
 62
     7
370
    15
100
AcDbSpline
210
0.0
220
0.0
230
1.0
 70
    24
 71
     3
 72
    12
 73
     8
 74
     0
 42
0.00000001
 43
0.00000001
 12
1.0
 22
0.0
 32
0.0
 13
1.0
 23
0.0
 33
0.0
 40
0.0
 40
0.0
 40
0.0
 40
0.0
 40
0.5
 40
0.5
 40
0.75
 40
0.75
 40
1.0
 40
1.0
 40
1.0
 40
1.0
 10
198.9658436538778
 20
118.499857634014
 30
0.0
 10
198.9316979055868
 20
118.499857634014
 30
0.0
 10
198.8925047471818
 20
118.499857634014
 30
0.0
 10
198.8146570885281
 20
118.499857634014
 30
0.0
 10
198.7852526297427
 20
118.499857634014
 30
0.0
 10
198.7122451084368
 20
118.499857634014
 30
0.0
 10
198.665339790629
 20
118.499857634014
 30
0.0
 10
198.6141880396278
 20
118.499857634014
 30
0.0
  0
SPLINE
  5
FA
330
1F
100
AcDbEntity
  8
0
  6
Continuous
 62
     7
370
    15
100
AcDbSpline
210
0.0
220
0.0
230
1.0
 70
     8
 71
     3
 72
    10
 73
     6
 74
     0
 42
0.00000001
 43
0.00000001
 12
1.0
 22
0.0
 32
0.0
 13
1.0
 23
0.0
 33
0.0
 40
0.0
 40
0.0
 40
0.0
 40
0.0
 40
0.5
 40
0.5
 40
1.0
 40
1.0
 40
1.0
 40
1.0
 10
199.2141880396278
 20
119.0024616058327
 30
0.0
 10
199.2141880396276
 20
118.9059190583562
 30
0.0
 10
199.1922474170462
 20
118.8094578580861
 30
0.0
 10
199.1061172316543
 20
118.6340552638418
 30
0.0
 10
199.0430349245106
 20
118.5576397314748
 30
0.0
 10
198.9658436538778
 20
118.499857634014
 30
0.0
  0
SPLINE
  5
FB
330
1F
100
AcDbEntity
  8
0
  6
Continuous
 62
     7
370
    15
100
AcDbSpline
210
0.0
220
0.0
230
1.0
 70
     8
 71
     3
 72
    12
 73
     8
 74
     0
 42
0.00000001
 43
0.00000001
 12
1.0
 22
0.0
 32
0.0
 13
1.0
 23
0.0
 33
0.0
 40
0.0
 40
0.0
 40
0.0
 40
0.0
 40
0.25
 40
0.25
 40
0.5
 40
0.5
 40
1.0
 40
1.0
 40
1.0
 40
1.0
 10
198.6141880396278
 20
114.3068684941653
 30
0.0
 10
198.7067300063496
 20
114.3068684941653
 30
0.0
 10
198.798939383494
 20
114.3379018410815
 30
0.0
 10
198.9540763438708
 20
114.4407127069064
 30
0.0
 10
199.0178862413319
 20
114.510885521252
 30
0.0
 10
199.167012677133
 20
114.74379800478
 30
0.0
 10
199.2141880396278
 20
114.9305933668499
 30
0.0
 10
199.2141880396278
 20
115.1157048142688
 30
0.0
  0
SPLINE
  5
FC
330
1F
100
AcDbEntity
  8
0
  6
Continuous
 62
     7
370
    15
100
AcDbSpline
210
0.0
220
0.0
230
1.0
 70
     8
 71
     3
 72
     8
 73
     4
 74
     0
 42
0.00000001
 43
0.00000001
 12
1.0
 22
0.0
 32
0.0
 13
1.0
 23
0.0
 33
0.0
 40
0.0
 40
0.0
 40
0.0
 40
0.0
 40
1.0
 40
1.0
 40
1.0
 40
1.0
 10
197.1341880396278
 20
119.3135343295443
 30
0.0
 10
196.8031677086081
 20
119.9050900260019
 30
0.0
 10
196.471386437124
 20
120.4962226902472
 30
0.0
 10
196.1390283407343
 20
121.0870329039191
 30
0.0
  0
SPLINE
  5
FD
330
1F
100
AcDbEntity
  8
0
  6
Continuous
 62
     7
370
    15
100
AcDbSpline
210
0.0
220
0.0
230
1.0
 70
     8
 71
     3
 72
     8
 73
     4
 74
     0
 42
0.00000001
 43
0.00000001
 12
1.0
 22
0.0
 32
0.0
 13
1.0
 23
0.0
 33
0.0
 40
0.0
 40
0.0
 40
0.0
 40
0.0
 40
1.0
 40
1.0
 40
1.0
 40
1.0
 10
196.1390283407343
 20
117.7112666350915
 30
0.0
 10
196.478451382016
 20
116.9814757735721
 30
0.0
 10
196.810962125511
 20
116.2493074181505
 30
0.0
 10
197.1341880396277
 20
115.5139455334695
 30
0.0
  0
LINE
  5
FE
330
1F
100
AcDbEntity
  8
0
  6
Continuous
 62
     7
370
    15
100
AcDbLine
 10
197.1341883311
 20
115.5139454213
 30
0.0
 11
197.1341883311
 21
119.3135347721
 31
0.0
  0
LINE
  5
FF
330
1F
100
AcDbEntity
  8
0
  6
Continuous
 62
     7
370
    15
100
AcDbLine
 10
198.6141884247
 20
118.4998568651
 30
0.0
 11
197.7341882432
 21
118.4998568651
 31
0.0
  0
LINE
  5
100
330
1F
100
AcDbEntity
  8
0
  6
Continuous
 62
     7
370
    15
100
AcDbLine
 10
197.7341882432
 20
114.3068684769
 30
0.0
 11
198.6141884247
 21
114.3068684769
 31
0.0
  0
SPLINE
  5
101
330
1F
100
AcDbEntity
  8
0
  6
Continuous
 62
     7
370
    15
100
AcDbSpline
210
0.0
220
0.0
230
1.0
 70
     8
 71
     3
 72
    10
 73
     6
 74
     0
 42
0.00000001
 43
0.00000001
 12
1.0
 22
0.0
 32
0.0
 13
1.0
 23
0.0
 33
0.0
 40
0.0
 40
0.0
 40
0.0
 40
0.0
 40
0.5
 40
0.5
 40
1.0
 40
1.0
 40
1.0
 40
1.0
 10
202.1241880396278
 20
120.4707346671569
 30
0.0
 10
202.1241880396278
 20
120.6291691100448
 30
0.0
 10
202.0620268231448
 20
120.7881898048467
 30
0.0
 10
201.8415174824732
 20
121.0181976291024
 30
0.0
 10
201.6826023795281
 20
121.0870329039192
 30
0.0
 10
201.5241880396278
 20
121.0870329039192
 30
0.0
  0
SPLINE
  5
102
330
1F
100
AcDbEntity
  8
0
  6
Continuous
 62
     7
370
    15
100
AcDbSpline
210
0.0
220
0.0
230
1.0
 70
     8
 71
     3
 72
    12
 73
     8
 74
     0
 42
0.00000001
 43
0.00000001
 12
1.0
 22
0.0
 32
0.0
 13
1.0
 23
0.0
 33
0.0
 40
0.0
 40
0.0
 40
0.0
 40
0.0
 40
0.25
 40
0.25
 40
0.5
 40
0.5
 40
1.0
 40
1.0
 40
1.0
 40
1.0
 10
201.5241880396278
 20
117.7112666350915
 30
0.0
 10
201.6134763986715
 20
117.7112666350915
 30
0.0
 10
201.7015352295738
 20
117.6856420024868
 30
0.0
 10
201.8541889428229
 20
117.5970986295549
 30
0.0
 10
201.9199824361649
 20
117.5342161464403
 30
0.0
 10
202.0754230828809
 20
117.3168549585067
 30
0.0
 10
202.1241880396278
 20
117.1382079484954
 30
0.0
 10
202.1241880396278
 20
116.9601147933197
 30
0.0
  0
LINE
  5
103
330
1F
100
AcDbEntity
  8
0
  6
Continuous
 62
     7
370
    15
100
AcDbLine
 10
202.1241886089
 20
116.9601152223
 30
0.0
 11
202.1241886089
 21
120.470734736
 31
0.0
  0
SPLINE
  5
104
330
1F
100
AcDbEntity
  8
0
  6
Continuous
 62
     7
370
    15
100
AcDbSpline
210
0.0
220
0.0
230
1.0
 70
     8
 71
     3
 72
    10
 73
     6
 74
     0
 42
0.00000001
 43
0.00000001
 12
1.0
 22
0.0
 32
0.0
 13
1.0
 23
0.0
 33
0.0
 40
0.0
 40
0.0
 40
0.0
 40
0.0
 40
0.5
 40
0.5
 40
1.0
 40
1.0
 40
1.0
 40
1.0
 10
197.3825324253777
 20
118.499857634014
 30
0.0
 10
197.3052076935035
 20
118.5577396348757
 30
0.0
 10
197.241827867967
 20
118.6348129795096
 30
0.0
 10
197.156257419194
 20
118.8093160377034
 30
0.0
 10
197.1341880396278
 20
118.9061212411839
 30
0.0
 10
197.1341880396278
 20
119.0024616058339
 30
0.0
  0
SPLINE
  5
105
330
1F
100
AcDbEntity
  8
0
  6
Continuous
 62
     7
370
    15
100
AcDbSpline
210
0.0
220
0.0
230
1.0
 70
    24
 71
     3
 72
    12
 73
     8
 74
     0
 42
0.00000001
 43
0.00000001
 12
1.0
 22
0.0
 32
0.0
 13
1.0
 23
0.0
 33
0.0
 40
0.0
 40
0.0
 40
0.0
 40
0.0
 40
0.2499999999999989
 40
0.2499999999999989
 40
0.4999999999999978
 40
0.4999999999999978
 40
1.0
 40
1.0
 40
1.0
 40
1.0
 10
197.7341880396278
 20
118.499857634014
 30
0.0
 10
197.6825958393532
 20
118.499857634014
 30
0.0
 10
197.6356908305586
 20
118.499857634014
 30
0.0
 10
197.5623571046821
 20
118.499857634014
 30
0.0
 10
197.5331272752331
 20
118.499857634014
 30
0.0
 10
197.4548944951702
 20
118.499857634014
 30
0.0
 10
197.4164603372626
 20
118.499857634014
 30
0.0
 10
197.3825324253777
 20
118.499857634014
 30
0.0
  0
SPLINE
  5
106
330
1F
100
AcDbEntity
  8
0
  6
Continuous
 62
     7
370
    15
100
AcDbSpline
210
0.0
220
0.0
230
1.0
 70
     8
 71
     3
 72
    12
 73
     8
 74
     0
 42
0.00000001
 43
0.00000001
 12
1.0
 22
0.0
 32
0.0
 13
1.0
 23
0.0
 33
0.0
 40
0.0
 40
0.0
 40
0.0
 40
0.0
 40
0.5000000000000032
 40
0.5000000000000032
 40
0.7500000000000016
 40
0.7500000000000016
 40
1.0
 40
1.0
 40
1.0
 40
1.0
 10
197.1341880396278
 20
115.1157048142688
 30
0.0
 10
197.1341880396278
 20
114.9299387376907
 30
0.0
 10
197.1807337848844
 20
114.7447654257004
 30
0.0
 10
197.3308347332741
 20
114.5103548223569
 30
0.0
 10
197.3947715495681
 20
114.4402589249448
 30
0.0
 10
197.5501392812978
 20
114.3375784071407
 30
0.0
 10
197.6413825642157
 20
114.3068684941652
 30
0.0
 10
197.7341880396278
 20
114.3068684941652
 30
0.0
  0
LINE
  5
107
330
1F
100
AcDbEntity
  8
0
  6
Continuous
 62
     7
370
    15
100
AcDbLine
 10
201.5241877654
 20
121.0870337245
 30
0.0
 11
200.2093484172
 21
121.0870337245
 31
0.0
  0
LINE
  5
108
330
1F
100
AcDbEntity
  8
0
  6
Continuous
 62
     7
370
    15
100
AcDbLine
 10
200.2093484172
 20
117.7112669256
 30
0.0
 11
201.5241877654
 21
117.7112669256
 31
0.0
  0
LINE
  5
109
330
1F
100
AcDbEntity
  8
0
  6
Continuous
 62
     7
370
    15
100
AcDbLine
 10
200.2093484172
 20
117.7112669256
 30
0.0
 11
200.2093484172
 21
121.0870337245
 31
0.0
  0
SPLINE
  5
10A
330
1F
100
AcDbEntity
  8
0
  6
Continuous
 62
     7
370
    15
100
AcDbSpline
210
0.0
220
0.0
230
1.0
 70
     8
 71
     3
 72
     8
 73
     4
 74
     0
 42
0.00000001
 43
0.00000001
 12
1.0
 22
0.0
 32
0.0
 13
1.0
 23
0.0
 33
0.0
 40
0.0
 40
0.0
 40
0.0
 40
0.0
 40
1.0
 40
1.0
 40
1.0
 40
1.0
 10
200.2093477385212
 20
121.0870329039191
 30
0.0
 10
199.8769896421315
 20
120.4962226902472
 30
0.0
 10
199.5452083706474
 20
119.9050900260019
 30
0.0
 10
199.2141880396278
 20
119.3135343295443
 30
0.0
  0
SPLINE
  5
10B
330
1F
100
AcDbEntity
  8
0
  6
Continuous
 62
     7
370
    15
100
AcDbSpline
210
0.0
220
0.0
230
1.0
 70
     8
 71
     3
 72
     8
 73
     4
 74
     0
 42
0.00000001
 43
0.00000001
 12
1.0
 22
0.0
 32
0.0
 13
1.0
 23
0.0
 33
0.0
 40
0.0
 40
0.0
 40
0.0
 40
0.0
 40
1.0
 40
1.0
 40
1.0
 40
1.0
 10
199.2141880396278
 20
115.5139455334694
 30
0.0
 10
199.5377455978827
 20
116.250061932092
 30
0.0
 10
199.8702399180996
 20
116.9821535275106
 30
0.0
 10
200.2093477385212
 20
117.7112666350915
 30
0.0
  0
LINE
  5
10C
330
1F
100
AcDbEntity
  8
0
  6
Continuous
 62
     7
370
    15
100
AcDbLine
 10
199.2141874054
 20
115.5139454213
 30
0.0
 11
199.2141874054
 21
119.3135347721
 31
0.0
  0
LINE
  5
10D
330
1F
100
AcDbEntity
  8
0
  6
Continuous
 62
     7
370
    15
100
AcDbLine
 10
199.2141874054
 20
115.1157044378
 30
0.0
 11
199.2141874054
 21
115.5139454213
 31
0.0
  0
LINE
  5
10E
330
1F
100
AcDbEntity
  8
0
  6
Continuous
 62
     7
370
    15
100
AcDbLine
 10
197.1341883311
 20
115.5139454213
 30
0.0
 11
197.1341883311
 21
115.1157044378
 31
0.0
  0
LINE
  5
10F
330
1F
100
AcDbEntity
  8
0
  6
Continuous
 62
     7
370
    15
100
AcDbLine
 10
202.1241886089
 20
116.9601152223
 30
0.0
 11
202.1241886089
 21
114.4772604612
 31
0.0
  0
SPLINE
  5
110
330
1F
100
AcDbEntity
  8
0
  6
Continuous
 62
     7
370
    15
100
AcDbSpline
210
0.0
220
0.0
230
1.0
 70
     8
 71
     3
 72
    12
 73
     8
 74
     0
 42
0.00000001
 43
0.00000001
 12
1.0
 22
0.0
 32
0.0
 13
1.0
 23
0.0
 33
0.0
 40
0.0
 40
0.0
 40
0.0
 40
0.0
 40
0.4999999999999984
 40
0.4999999999999984
 40
0.7499999999999992
 40
0.7499999999999992
 40
1.0
 40
1.0
 40
1.0
 40
1.0
 10
210.4220158663288
 20
108.9926195477408
 30
0.0
 10
210.4438279216961
 20
109.2709163515162
 30
0.0
 10
210.4588660557827
 20
109.5554227765007
 30
0.0
 10
210.4611225122217
 20
109.9941227194601
 30
0.0
 10
210.4583795691409
 20
110.1432267161308
 30
0.0
 10
210.4454649346306
 20
110.4350415831622
 30
0.0
 10
210.435313704131
 20
110.578949413316
 30
0.0
 10
210.4220158663288
 20
110.7205474165689
 30
0.0
  0
LINE
  5
111
330
1F
100
AcDbEntity
  8
0
  6
Continuous
 62
     7
370
    15
100
AcDbLine
 10
162.2741883168
 20
89.781385338
 30
0.0
 11
162.2741883168
 21
90.0523443279
 31
0.0
  0
LINE
  5
112
330
1F
100
AcDbEntity
  8
0
  6
Continuous
 62
     7
370
    15
100
AcDbLine
 10
162.2741883168
 20
113.4737715629
 30
0.0
 11
162.2741883168
 21
113.3780893442
 31
0.0
  0
LINE
  5
113
330
1F
100
AcDbEntity
  8
0
  6
Continuous
 62
     7
370
    15
100
AcDbLine
 10
163.2241876343
 20
114.4798579198
 30
0.0
 11
163.2241876343
 21
114.4654382524
 31
0.0
  0
LINE
  5
114
330
1F
100
AcDbEntity
  8
0
  6
Continuous
 62
     7
370
    15
100
AcDbLine
 10
162.2741883168
 20
113.529857671
 30
0.0
 11
162.2741883168
 21
113.4737715629
 31
0.0
  0
LINE
  5
115
330
1F
100
AcDbEntity
  8
0
  6
Continuous
 62
     7
370
    15
100
AcDbLine
 10
163.2241876343
 20
88.7788575646
 30
0.0
 11
163.2241876343
 21
88.8693225142
 31
0.0
  0
LINE
  5
116
330
1F
100
AcDbEntity
  8
0
  6
Continuous
 62
     7
370
    15
100
AcDbLine
 10
162.2741883168
 20
89.7288578135
 30
0.0
 11
162.2741883168
 21
89.781385338
 31
0.0
  0
LINE
  5
117
330
1F
100
AcDbEntity
  8
0
  6
Continuous
 62
     7
370
    15
100
AcDbLine
 10
223.9417181829
 20
117.8381596264
 30
0.0
 11
221.7254088739
 21
117.1454400328
 31
0.0
  0
ARC
  5
118
330
1F
100
AcDbEntity
  8
0
  6
Continuous
 62
     7
370
    15
100
AcDbCircle
 10
222.182614848
 20
115.7004914975
 30
0.0
 40
1.515557182148913
100
AcDbArc
 50
107.5582456735
 51
287.4134538782
  0
LINE
  5
119
330
1F
100
AcDbEntity
  8
0
  6
Continuous
 62
     7
370
    15
100
AcDbLine
 10
222.6361678461
 20
114.2543921751
 30
0.0
 11
223.4131330171
 21
114.4972373304
 31
0.0
  0
LINE
  5
11A
330
1F
100
AcDbEntity
  8
0
  6
Continuous
 62
     7
370
    15
100
AcDbLine
 10
233.0688619533
 20
117.4873956052
 30
0.0
 11
222.4450008491
 21
83.8219509032
 31
0.0
  0
ELLIPSE
  5
11B
330
1F
100
AcDbEntity
  8
0
  6
Continuous
 62
     7
370
    15
100
AcDbEllipse
 10
258.4049886952
 20
101.599857634
 30
0.0
 11
343.4604568210815
 21
-0.9446345866476946
 31
0.0
210
0.0
220
0.0
230
1.0
 40
0.0523355614
 41
4.593376107074648
 42
4.607641624026614
  0
LINE
  5
11C
330
1F
100
AcDbEntity
  8
0
  6
Continuous
 62
     7
370
    15
100
AcDbLine
 10
217.5761134842
 20
83.8639703152
 30
0.0
 11
217.3727871397
 21
84.6292939541
 31
0.0
  0
SPLINE
  5
11D
330
1F
100
AcDbEntity
  8
0
  6
Continuous
 62
     7
370
    15
100
AcDbSpline
210
0.0
220
0.0
230
1.0
 70
     8
 71
     3
 72
    10
 73
     6
 74
     0
 42
0.00000001
 43
0.00000001
 12
1.0
 22
0.0
 32
0.0
 13
1.0
 23
0.0
 33
0.0
 40
0.0
 40
0.0
 40
0.0
 40
0.0
 40
0.5
 40
0.5
 40
1.0
 40
1.0
 40
1.0
 40
1.0
 10
216.4068610516488
 20
85.38492394828026
 30
0.0
 10
216.6281751219662
 20
85.38275791258403
 30
0.0
 10
216.8425561932346
 20
85.30654954246016
 30
0.0
 10
217.1903467331061
 20
85.03385195740363
 30
0.0
 10
217.3159561848775
 20
84.84329563702448
 30
0.0
 10
217.3727868779379
 20
84.62929458525917
 30
0.0
  0
SPLINE
  5
11E
330
1F
100
AcDbEntity
  8
0
  6
Continuous
 62
     7
370
    15
100
AcDbSpline
210
0.0
220
0.0
230
1.0
 70
     8
 71
     3
 72
    10
 73
     6
 74
     0
 42
0.00000001
 43
0.00000001
 12
1.0
 22
0.0
 32
0.0
 13
1.0
 23
0.0
 33
0.0
 40
0.0
 40
0.0
 40
0.0
 40
0.0
 40
0.5
 40
0.5
 40
1.0
 40
1.0
 40
1.0
 40
1.0
 10
217.3727868779379
 20
118.7955078517363
 30
0.0
 10
217.3159528564532
 20
118.5818060364782
 30
0.0
 10
217.1907267026807
 20
118.39253469028
 30
0.0
 10
216.843811542923
 20
118.1218527385053
 30
0.0
 10
216.6281839846452
 20
118.046129221527
 30
0.0
 10
216.4068610516488
 20
118.0451771931484
 30
0.0
  0
SPLINE
  5
11F
330
1F
100
AcDbEntity
  8
0
  6
Continuous
 62
     7
370
    15
100
AcDbSpline
210
0.0
220
0.0
230
1.0
 70
     8
 71
     3
 72
     8
 73
     4
 74
     0
 42
0.00000001
 43
0.00000001
 12
1.0
 22
0.0
 32
0.0
 13
1.0
 23
0.0
 33
0.0
 40
0.0
 40
0.0
 40
0.0
 40
0.0
 40
1.0
 40
1.0
 40
1.0
 40
1.0
 10
217.3727868779379
 20
118.7955078517363
 30
0.0
 10
217.676089898487
 20
119.9359586657277
 30
0.0
 10
217.9799228671918
 20
121.0762667327557
 30
0.0
 10
218.2840610209815
 20
122.2164925950555
 30
0.0
  0
LINE
  5
120
330
1F
100
AcDbEntity
  8
0
  6
Continuous
 62
     7
370
    15
100
AcDbLine
 10
218.284060202
 20
122.2164933142
 30
0.0
 11
226.0936917284
 21
124.6574394909
 31
0.0
  0
LINE
  5
121
330
1F
100
AcDbEntity
  8
0
  6
Continuous
 62
     7
370
    15
100
AcDbLine
 10
217.5761134842
 20
83.8639703152
 30
0.0
 11
217.5761134842
 21
83.5998584089
 31
0.0
  0
LINE
  5
122
330
1F
100
AcDbEntity
  8
0
  6
Continuous
 62
     7
370
    15
100
AcDbLine
 10
218.2818846324
 20
122.2056769338
 30
0.0
 11
218.284060202
 21
122.2164933142
 31
0.0
  0
ELLIPSE
  5
123
330
1F
100
AcDbEntity
  8
0
  6
Continuous
 62
     7
370
    15
100
AcDbEllipse
 10
227.9981649439
 20
101.599857634
 30
0.0
 11
5.731116147358962
 21
17.99903516144771
 31
0.0
210
0.0
220
0.0
230
1.0
 40
0.0325187276
 41
3.151946649984276
 42
3.309197824726005
  0
ARC
  5
124
330
1F
100
AcDbEntity
  8
0
  6
Continuous
 62
     7
370
    15
100
AcDbCircle
 10
222.0683515235
 20
115.5868591597
 30
0.0
 40
1.249269667302503
100
AcDbArc
 50
107.5402757737
 51
287.4313754858
  0
LINE
  5
125
330
1F
100
AcDbEntity
  8
0
  6
Continuous
 62
     7
370
    15
100
AcDbLine
 10
222.442586861
 20
114.3949604166
 30
0.0
 11
223.1407919446
 21
114.6131888536
 31
0.0
  0
LINE
  5
126
330
1F
100
AcDbEntity
  8
0
  6
Continuous
 62
     7
370
    15
100
AcDbLine
 10
221.6918514589
 20
116.778044453
 30
0.0
 11
223.8167644957
 21
117.4421985206
 31
0.0
  0
LWPOLYLINE
  5
127
330
1F
100
AcDbEntity
  8
0
  6
Continuous
 62
     7
370
    15
100
AcDbPolyline
 90
        3
 70
   128
 43
0.0
 10
221.6133484164
 20
116.6996485126
 10
221.2931485394
 20
116.5465493259
 10
221.1455637136
 20
116.4309172463
  0
LINE
  5
128
330
1F
100
AcDbEntity
  8
0
  6
Continuous
 62
     7
370
    15
100
AcDbLine
 10
223.7979070762
 20
117.3824448642
 30
0.0
 11
221.6133484164
 21
116.6996485126
 31
0.0
  0
LINE
  5
129
330
1F
100
AcDbEntity
  8
0
  6
HIDDEN
 62
     7
370
     0
100
AcDbLine
 10
190.1241885045
 20
81.599858081
 30
0.0
 11
190.1241885045
 21
81.6248734054
 31
0.0
  0
SPLINE
  5
12A
330
1F
100
AcDbEntity
  8
0
  6
HIDDEN
 62
     7
370
     0
100
AcDbSpline
210
0.0
220
0.0
230
1.0
 70
     8
 71
     3
 72
    22
 73
    18
 74
     0
 42
0.00000001
 43
0.00000001
 12
1.0
 22
0.0
 32
0.0
 13
1.0
 23
0.0
 33
0.0
 40
0.0
 40
0.0
 40
0.0
 40
0.0
 40
0.1250000000000001
 40
0.1250000000000001
 40
0.2500000000000002
 40
0.2500000000000002
 40
0.3750000000000003
 40
0.3750000000000003
 40
0.5000000000000004
 40
0.5000000000000004
 40
0.6250000000000003
 40
0.6250000000000003
 40
0.7500000000000002
 40
0.7500000000000002
 40
0.8750000000000001
 40
0.8750000000000001
 40
1.0
 40
1.0
 40
1.0
 40
1.0
 10
190.1241880396278
 20
81.62487327857586
 30
0.0
 10
190.1241880396278
 20
81.63982887118519
 30
0.0
 10
190.153636460758
 20
81.66121706783156
 30
0.0
 10
190.2684743269818
 20
81.71559531444686
 30
0.0
 10
190.3552871655195
 20
81.74904147805525
 30
0.0
 10
190.5809345378156
 20
81.82380575345299
 30
0.0
 10
190.7187716794797
 20
81.86490424241393
 30
0.0
 10
191.0439726393841
 20
81.9514571713777
 30
0.0
 10
191.2326749192921
 20
81.99710807047558
 30
0.0
 10
191.6450066395243
 20
82.08538762564042
 30
0.0
 10
191.8701535658762
 20
82.12848897564767
 30
0.0
 10
192.3601294172335
 20
82.20869315550293
 30
0.0
 10
192.6208370593554
 20
82.2449880028925
 30
0.0
 10
193.161694440071
 20
82.3051672220422
 30
0.0
 10
193.445385066125
 20
82.3294545594733
 30
0.0
 10
194.0294674370545
 20
82.36245265378467
 30
0.0
 10
194.3250349920464
 20
82.37097311098462
 30
0.0
 10
194.6241880396278
 20
82.37097311098462
 30
0.0
  0
LINE
  5
12B
330
1F
100
AcDbEntity
  8
0
  6
HIDDEN
 62
     7
370
     0
100
AcDbLine
 10
194.6241883108
 20
82.3709726837
 30
0.0
 11
196.1390282506
 21
82.3709726837
 31
0.0
  0
LINE
  5
12C
330
1F
100
AcDbEntity
  8
0
  6
HIDDEN
 62
     7
370
     0
100
AcDbLine
 10
196.1390282506
 20
121.0870337245
 30
0.0
 11
196.1390282506
 21
82.3709726837
 31
0.0
  0
LINE
  5
12D
330
1F
100
AcDbEntity
  8
0
  6
HIDDEN
 62
     7
370
     0
100
AcDbLine
 10
194.6241883108
 20
121.0870337245
 30
0.0
 11
196.1390282506
 21
121.0870337245
 31
0.0
  0
SPLINE
  5
12E
330
1F
100
AcDbEntity
  8
0
  6
HIDDEN
 62
     7
370
     0
100
AcDbSpline
210
0.0
220
0.0
230
1.0
 70
     8
 71
     3
 72
    17
 73
    13
 74
     0
 42
0.00000001
 43
0.00000001
 12
1.0
 22
0.0
 32
0.0
 13
1.0
 23
0.0
 33
0.0
 40
0.0
 40
0.0
 40
0.0
 40
0.0
 40
0.0659340435969183
 40
0.1690661462905225
 40
0.2751488405985667
 40
0.379123145219446
 40
0.485986792297652
 40
0.5922065347858924
 40
0.7014821075588975
 40
0.8079660909051144
 40
0.9176704333646215
 40
1.0
 40
1.0
 40
1.0
 40
1.0
 10
190.139715514508
 20
121.5963703152598
 30
0.0
 10
190.1382789692742
 20
121.5966896844845
 30
0.0
 10
190.1345954219989
 20
121.59750860171
 30
0.0
 10
190.2684726427807
 20
121.5675815456842
 30
0.0
 10
190.5181907208579
 20
121.5141540661828
 30
0.0
 10
190.8875842167761
 20
121.4406267792951
 30
0.0
 10
191.3571695284933
 20
121.3567741876185
 30
0.0
 10
191.9262170235561
 20
121.2698347314401
 30
0.0
 10
192.5718550514859
 20
121.1908097413416
 30
0.0
 10
193.2846679035175
 20
121.1287566462563
 30
0.0
 10
193.9760113336365
 20
121.0927740308764
 30
0.0
 10
194.4296867304227
 20
121.0887562458149
 30
0.0
 10
194.6241883108289
 20
121.0870337244929
 30
0.0
  0
SPLINE
  5
12F
330
1F
100
AcDbEntity
  8
0
  6
HIDDEN
 62
     7
370
     0
100
AcDbSpline
210
0.0
220
0.0
230
1.0
 70
     8
 71
     3
 72
    76
 73
    72
 74
     0
 42
0.00000001
 43
0.00000001
 12
1.0
 22
0.0
 32
0.0
 13
1.0
 23
0.0
 33
0.0
 40
-0.03125
 40
-0.03125
 40
0.0
 40
0.0
 40
0.03125
 40
0.03125
 40
0.0624999999999999
 40
0.0624999999999999
 40
0.0937499999999999
 40
0.0937499999999999
 40
0.1249999999999999
 40
0.1249999999999999
 40
0.1562499999999999
 40
0.1562499999999999
 40
0.1874999999999998
 40
0.1874999999999998
 40
0.2031249999999998
 40
0.2031249999999998
 40
0.2187499999999998
 40
0.2187499999999998
 40
0.2499999999999998
 40
0.2499999999999998
 40
0.2812499999999998
 40
0.2812499999999998
 40
0.3124999999999999
 40
0.3124999999999999
 40
0.3437499999999999
 40
0.3437499999999999
 40
0.3749999999999999
 40
0.3749999999999999
 40
0.4062499999999999
 40
0.4062499999999999
 40
0.4374999999999999
 40
0.4374999999999999
 40
0.46875
 40
0.46875
 40
0.484375
 40
0.484375
 40
0.5
 40
0.5
 40
0.5312500000000001
 40
0.5312500000000001
 40
0.5625000000000001
 40
0.5625000000000001
 40
0.5937500000000001
 40
0.5937500000000001
 40
0.6250000000000001
 40
0.6250000000000001
 40
0.6562500000000001
 40
0.6562500000000001
 40
0.6875000000000002
 40
0.6875000000000002
 40
0.7187500000000003
 40
0.7187500000000003
 40
0.7343750000000003
 40
0.7343750000000003
 40
0.7500000000000002
 40
0.7500000000000002
 40
0.7812500000000002
 40
0.7812500000000002
 40
0.8125000000000002
 40
0.8125000000000002
 40
0.8437500000000002
 40
0.8437500000000002
 40
0.8750000000000001
 40
0.8750000000000001
 40
0.9062500000000001
 40
0.9062500000000001
 40
0.9375000000000001
 40
0.9375000000000001
 40
0.96875
 40
0.96875
 40
1.0
 40
1.0
 40
1.03125
 40
1.03125
 10
184.1741880396278
 20
101.9315922780598
 30
0.0
 10
184.1741880396278
 20
101.2681229899683
 30
0.0
 10
184.2068729753458
 20
100.9421885274556
 30
0.0
 10
184.3346972173565
 20
100.3013676715127
 30
0.0
 10
184.4314754906122
 20
99.98308222947036
 30
0.0
 10
184.6829281645967
 20
99.37817589122037
 30
0.0
 10
184.8366083452915
 20
99.0914925744965
 30
0.0
 10
185.1994408686056
 20
98.54897615434658
 30
0.0
 10
185.4097038257626
 20
98.29318306575252
 30
0.0
 10
185.869007506185
 20
97.83406160419803
 30
0.0
 10
186.1198483655606
 20
97.62758554656902
 30
0.0
 10
186.6658797580264
 20
97.26207871552069
 30
0.0
 10
186.9547508707259
 20
97.10764251090218
 30
0.0
 10
187.4055003268754
 20
96.92030441928154
 30
0.0
 10
187.5589866425482
 20
96.86509239892075
 30
0.0
 10
187.8726155461129
 20
96.76945532895692
 30
0.0
 10
188.0337197302459
 20
96.72887686396841
 30
0.0
 10
188.5182165982481
 20
96.63214307140794
 30
0.0
 10
188.843497667864
 20
96.60006534916938
 30
0.0
 10
189.4985670407902
 20
96.59965191052883
 30
0.0
 10
189.8313883734244
 20
96.6324303368064
 30
0.0
 10
190.4736969701501
 20
96.76058880791243
 30
0.0
 10
190.7860184515963
 20
96.8553926022575
 30
0.0
 10
191.3929977661495
 20
97.10710467931021
 30
0.0
 10
191.6835577846518
 20
97.26296480441871
 30
0.0
 10
192.2237473188586
 20
97.62421125448097
 30
0.0
 10
192.4777520688061
 20
97.83240076849795
 30
0.0
 10
192.9409760806827
 20
98.29553101847327
 30
0.0
 10
193.1469427615496
 20
98.54650123564247
 30
0.0
 10
193.5089966682453
 20
99.08685155974926
 30
0.0
 10
193.6661425947062
 20
99.37969809768943
 30
0.0
 10
193.9168783086268
 20
99.98317797991895
 30
0.0
 10
194.0120481995378
 20
100.2948988638893
 30
0.0
 10
194.1088786822092
 20
100.7777990341186
 30
0.0
 10
194.1335039293995
 20
100.9423131019448
 30
0.0
 10
194.1660466335865
 20
101.2704237497272
 30
0.0
 10
194.1741184014646
 20
101.4342129086501
 30
0.0
 10
194.1743259732974
 20
101.9248004556158
 30
0.0
 10
194.1426906545083
 20
102.2508261737508
 30
0.0
 10
194.0133502602739
 20
102.9007370581243
 30
0.0
 10
193.9178504065807
 20
103.2135420690041
 30
0.0
 10
193.6681102486652
 20
103.8159292227707
 30
0.0
 10
193.5116497522383
 20
104.1084526233661
 30
0.0
 10
193.1485462482626
 20
104.6512671048032
 30
0.0
 10
192.942620198033
 20
104.9021599970844
 30
0.0
 10
192.481905514279
 20
105.3635376067972
 30
0.0
 10
192.2261220356908
 20
105.5736813154957
 30
0.0
 10
191.6861488662336
 20
105.9352501852633
 30
0.0
 10
191.399568153627
 20
106.0894187152644
 30
0.0
 10
190.7914294689044
 20
106.3425367833444
 30
0.0
 10
190.4766894341663
 20
106.4382449469648
 30
0.0
 10
189.9967146268327
 20
106.5344371937704
 30
0.0
 10
189.8349899783194
 20
106.5587224091364
 30
0.0
 10
189.5079916629438
 20
106.5914079143567
 30
0.0
 10
189.3417398620123
 20
106.5997702668281
 30
0.0
 10
188.8469677195017
 20
106.6000302968256
 30
0.0
 10
188.5215280789481
 20
106.5678788440148
 30
0.0
 10
187.8792400111634
 20
106.4403441148203
 30
0.0
 10
187.5600734512184
 20
106.3434046842848
 30
0.0
 10
186.9568974078476
 20
106.0932112565179
 30
0.0
 10
186.6697648966192
 20
105.9398326620958
 30
0.0
 10
186.1244206060216
 20
105.5755886516415
 30
0.0
 10
185.8706371626137
 20
105.3670633010559
 30
0.0
 10
185.411444323836
 20
104.9084897779796
 30
0.0
 10
185.2025843964037
 20
104.6550013484737
 30
0.0
 10
184.8375722738899
 20
104.1100971276136
 30
0.0
 10
184.6839452451366
 20
103.8233645253234
 30
0.0
 10
184.433254731269
 20
103.221527950347
 30
0.0
 10
184.3358088206155
 20
102.9029551765279
 30
0.0
 10
184.2068821110167
 20
102.2585293913105
 30
0.0
 10
184.1741880396278
 20
101.9315922780598
 30
0.0
 10
184.1741880396278
 20
101.2681229899683
 30
0.0
  0
LINE
  5
130
330
1F
100
AcDbEntity
  8
0
  6
HIDDEN
 62
     7
370
     0
100
AcDbLine
 10
182.1741880396
 20
81.8998575714
 30
0.0
 11
182.1741880396
 21
121.2998576966
 31
0.0
  0
SPLINE
  5
131
330
1F
100
AcDbEntity
  8
0
  6
HIDDEN
 62
     7
370
     0
100
AcDbSpline
210
0.0
220
0.0
230
1.0
 70
     8
 71
     3
 72
    10
 73
     6
 74
     0
 42
0.00000001
 43
0.00000001
 12
1.0
 22
0.0
 32
0.0
 13
1.0
 23
0.0
 33
0.0
 40
0.0
 40
0.0
 40
0.0
 40
0.0
 40
0.5
 40
0.5
 40
1.0
 40
1.0
 40
1.0
 40
1.0
 10
199.2141880396278
 20
84.48697871198574
 30
0.0
 10
199.2141880396278
 20
84.52320120142637
 30
0.0
 10
199.2112183103304
 20
84.55939439868483
 30
0.0
 10
199.1993393279825
 20
84.63103289009948
 30
0.0
 10
199.1905441001419
 20
84.66590621474107
 30
0.0
 10
199.1789656390466
 20
84.69985763401338
 30
0.0
  0
LINE
  5
132
330
1F
100
AcDbEntity
  8
0
  6
HIDDEN
 62
     7
370
     0
100
AcDbLine
 10
199.2141874054
 20
84.4869785515
 30
0.0
 11
199.2141874054
 21
113.4498579931
 31
0.0
  0
SPLINE
  5
133
330
1F
100
AcDbEntity
  8
0
  6
HIDDEN
 62
     7
370
     0
100
AcDbSpline
210
0.0
220
0.0
230
1.0
 70
     8
 71
     3
 72
    10
 73
     6
 74
     0
 42
0.00000001
 43
0.00000001
 12
1.0
 22
0.0
 32
0.0
 13
1.0
 23
0.0
 33
0.0
 40
0.0
 40
0.0
 40
0.0
 40
0.0
 40
0.5
 40
0.5
 40
1.0
 40
1.0
 40
1.0
 40
1.0
 10
197.1694104402091
 20
84.69985763401404
 30
0.0
 10
197.157698323246
 20
84.66551429682006
 30
0.0
 10
197.1489002533739
 20
84.63042175908184
 30
0.0
 10
197.1370866956019
 20
84.55874998369111
 30
0.0
 10
197.1341880396278
 20
84.52280632932585
 30
0.0
 10
197.1341880396278
 20
84.48697871198574
 30
0.0
  0
LINE
  5
134
330
1F
100
AcDbEntity
  8
0
  6
HIDDEN
 62
     7
370
     0
100
AcDbLine
 10
197.1341883311
 20
84.4869785515
 30
0.0
 11
197.1341883311
 21
113.4498579931
 31
0.0
  0
SPLINE
  5
135
330
1F
100
AcDbEntity
  8
0
  6
HIDDEN
 62
     7
370
     0
100
AcDbSpline
210
0.0
220
0.0
230
1.0
 70
     8
 71
     3
 72
     9
 73
     5
 74
     0
 42
0.00000001
 43
0.00000001
 12
1.0
 22
0.0
 32
0.0
 13
1.0
 23
0.0
 33
0.0
 40
0.0
 40
0.0
 40
0.0
 40
0.0
 40
0.5
 40
1.0
 40
1.0
 40
1.0
 40
1.0
 10
202.1242501627511
 20
118.499857634014
 30
0.0
 10
202.1242294500478
 20
118.5017805023479
 30
0.0
 10
202.1241983887294
 20
118.5056257913369
 30
0.0
 10
202.1241880396278
 20
118.5094701856573
 30
0.0
 10
202.1241880396278
 20
118.5113921593018
 30
0.0
  0
SPLINE
  5
136
330
1F
100
AcDbEntity
  8
0
  6
HIDDEN
 62
     7
370
     0
100
AcDbSpline
210
0.0
220
0.0
230
1.0
 70
    24
 71
     3
 72
    10
 73
     6
 74
     0
 42
0.00000001
 43
0.00000001
 12
1.0
 22
0.0
 32
0.0
 13
1.0
 23
0.0
 33
0.0
 40
0.0
 40
0.0
 40
0.0
 40
0.0
 40
0.4999999999999999
 40
0.4999999999999999
 40
1.0
 40
1.0
 40
1.0
 40
1.0
 10
202.1242501627511
 20
118.499857634014
 30
0.0
 10
202.1264034832825
 20
118.499857634014
 30
0.0
 10
202.1816203435521
 20
118.499857634014
 30
0.0
 10
202.2815653689597
 20
118.499857634014
 30
0.0
 10
202.3241871832136
 20
118.499857634014
 30
0.0
 10
202.3241880396131
 20
118.499857634014
 30
0.0
  0
SPLINE
  5
137
330
1F
100
AcDbEntity
  8
0
  6
HIDDEN
 62
     7
370
     0
100
AcDbSpline
210
0.0
220
0.0
230
1.0
 70
     8
 71
     3
 72
     9
 73
     5
 74
     0
 42
0.00000001
 43
0.00000001
 12
1.0
 22
0.0
 32
0.0
 13
1.0
 23
0.0
 33
0.0
 40
0.0
 40
0.0
 40
0.0
 40
0.0
 40
0.5
 40
1.0
 40
1.0
 40
1.0
 40
1.0
 10
202.1241880396278
 20
118.5113921593018
 30
0.0
 10
202.1241880396278
 20
118.5094690348187
 30
0.0
 10
202.1241984011254
 20
118.5056234899738
 30
0.0
 10
202.1242294624413
 20
118.5017793517963
 30
0.0
 10
202.1242501627511
 20
118.499857634014
 30
0.0
  0
LINE
  5
138
330
1F
100
AcDbEntity
  8
0
  6
HIDDEN
 62
     7
370
     0
100
AcDbLine
 10
202.1241886089
 20
118.5113922265
 30
0.0
 11
202.1241886089
 21
84.6998584029
 31
0.0
  0
SPLINE
  5
139
330
1F
100
AcDbEntity
  8
0
  6
HIDDEN
 62
     7
370
     0
100
AcDbSpline
210
0.0
220
0.0
230
1.0
 70
    24
 71
     3
 72
    10
 73
     6
 74
     0
 42
0.00000001
 43
0.00000001
 12
1.0
 22
0.0
 32
0.0
 13
1.0
 23
0.0
 33
0.0
 40
0.0
 40
0.0
 40
0.0
 40
0.0
 40
0.5
 40
0.5
 40
1.0
 40
1.0
 40
1.0
 40
1.0
 10
202.1241880396278
 20
84.69985763401404
 30
0.0
 10
202.1241880396278
 20
84.69985763401404
 30
0.0
 10
202.1796353006994
 20
84.69985763401404
 30
0.0
 10
202.2806778374041
 20
84.69985763401404
 30
0.0
 10
202.3241871913194
 20
84.69985763401404
 30
0.0
 10
202.3241880396137
 20
84.69985763401404
 30
0.0
  0
SPLINE
  5
13A
330
1F
100
AcDbEntity
  8
0
  6
HIDDEN
 62
     7
370
     0
100
AcDbSpline
210
0.0
220
0.0
230
1.0
 70
    24
 71
     3
 72
     9
 73
     5
 74
     0
 42
0.00000001
 43
0.00000001
 12
1.0
 22
0.0
 32
0.0
 13
1.0
 23
0.0
 33
0.0
 40
0.0
 40
0.0
 40
0.0
 40
0.0
 40
0.4248673221140728
 40
1.0
 40
1.0
 40
1.0
 40
1.0
 10
202.2266750702531
 20
84.69985840291396
 30
0.0
 10
202.2043897788234
 20
84.69985840291396
 30
0.0
 10
202.1519374242415
 20
84.69985840291396
 30
0.0
 10
202.1343206127951
 20
84.69985840291396
 30
0.0
 10
202.1241886088521
 20
84.69985840291396
 30
0.0
  0
LINE
  5
13B
330
1F
100
AcDbEntity
  8
0
  6
HIDDEN
 62
     7
370
     0
100
AcDbLine
 10
202.1241886089
 20
114.4772604612
 30
0.0
 11
202.1241886089
 21
118.5113922265
 31
0.0
  0
LINE
  5
13C
330
1F
100
AcDbEntity
  8
0
  6
HIDDEN
 62
     7
370
     0
100
AcDbLine
 10
202.1241886089
 20
84.6998584029
 30
0.0
 11
202.1241886089
 21
113.4498579931
 31
0.0
  0
LINE
  5
13D
330
1F
100
AcDbEntity
  8
0
  6
HIDDEN
 62
     7
370
     0
100
AcDbLine
 10
190.1241885045
 20
113.4498579931
 30
0.0
 11
194.6178581113
 21
113.4498579931
 31
0.0
  0
SPLINE
  5
13E
330
1F
100
AcDbEntity
  8
0
  6
HIDDEN
 62
     7
370
     0
100
AcDbSpline
210
0.0
220
0.0
230
1.0
 70
     8
 71
     3
 72
    64
 73
    60
 74
     0
 42
0.00000001
 43
0.00000001
 12
1.0
 22
0.0
 32
0.0
 13
1.0
 23
0.0
 33
0.0
 40
-0.03125
 40
-0.03125
 40
0.0
 40
0.0
 40
0.0312499999999994
 40
0.0312499999999994
 40
0.0624999999999989
 40
0.0624999999999989
 40
0.0937499999999983
 40
0.0937499999999983
 40
0.1249999999999977
 40
0.1249999999999977
 40
0.1874999999999972
 40
0.1874999999999972
 40
0.2187499999999971
 40
0.2187499999999971
 40
0.249999999999997
 40
0.249999999999997
 40
0.2812499999999969
 40
0.2812499999999969
 40
0.3124999999999968
 40
0.3124999999999968
 40
0.3437499999999968
 40
0.3437499999999968
 40
0.3749999999999967
 40
0.3749999999999967
 40
0.4062499999999967
 40
0.4062499999999967
 40
0.4374999999999966
 40
0.4374999999999966
 40
0.4687499999999965
 40
0.4687499999999965
 40
0.4999999999999964
 40
0.4999999999999964
 40
0.5624999999999963
 40
0.5624999999999963
 40
0.5937499999999966
 40
0.5937499999999966
 40
0.6249999999999967
 40
0.6249999999999967
 40
0.6562499999999969
 40
0.6562499999999969
 40
0.6874999999999971
 40
0.6874999999999971
 40
0.7187499999999973
 40
0.7187499999999973
 40
0.7499999999999977
 40
0.7499999999999977
 40
0.781249999999998
 40
0.781249999999998
 40
0.8124999999999983
 40
0.8124999999999983
 40
0.8437499999999988
 40
0.8437499999999988
 40
0.8749999999999991
 40
0.8749999999999991
 40
0.9374999999999999
 40
0.9374999999999999
 40
0.96875
 40
0.96875
 40
1.0
 40
1.0
 40
1.031249999999999
 40
1.031249999999999
 10
207.3072483021954
 20
94.96383218790766
 30
0.0
 10
206.973949465081
 20
94.96383218790766
 30
0.0
 10
206.8100373277608
 20
94.97865249446257
 30
0.0
 10
206.4875414706485
 20
95.03725292986077
 30
0.0
 10
206.3272485471771
 20
95.0817678554631
 30
0.0
 10
206.021978652863
 20
95.19860526875681
 30
0.0
 10
205.8772955962471
 20
95.2703618894208
 30
0.0
 10
205.6037379652618
 20
95.44085726250273
 30
0.0
 10
205.4744715065322
 20
95.5404532064737
 30
0.0
 10
205.1277440771753
 20
95.8681989875502
 30
0.0
 10
204.9421929166944
 20
96.13428829064918
 30
0.0
 10
204.7576166538949
 20
96.56836665789913
 30
0.0
 10
204.7105540463509
 20
96.72096250403104
 30
0.0
 10
204.6489028169306
 20
97.0329932182288
 30
0.0
 10
204.6343370641783
 20
97.19056472335251
 30
0.0
 10
204.6370814895692
 20
97.50882821114035
 30
0.0
 10
204.654943691085
 20
97.67092021010707
 30
0.0
 10
204.7219561279138
 20
97.98494681245057
 30
0.0
 10
204.7708507914124
 20
98.13824827943277
 30
0.0
 10
204.9000694985079
 20
98.43708341424538
 30
0.0
 10
204.9800942177918
 20
98.58101748142082
 30
0.0
 10
205.1651695370448
 20
98.84840356025
 30
0.0
 10
205.2714488038693
 20
98.9739537956543
 30
0.0
 10
205.5091012380635
 20
99.20368953960448
 30
0.0
 10
205.6376371285196
 20
99.3053673383045
 30
0.0
 10
205.9135996893018
 20
99.48286244551083
 30
0.0
 10
206.0628240346949
 20
99.55921446009206
 30
0.0
 10
206.3697781004781
 20
99.67955960417433
 30
0.0
 10
206.5278557210216
 20
99.72424444791929
 30
0.0
 10
206.8531774983086
 20
99.78266549451371
 30
0.0
 10
207.0201417910455
 20
99.79590338297642
 30
0.0
 10
207.5134290751149
 20
99.78744619236673
 30
0.0
 10
207.8442715403129
 20
99.71696590108945
 30
0.0
 10
208.2985895902007
 20
99.52647048028201
 30
0.0
 10
208.4457705564699
 20
99.44788048660371
 30
0.0
 10
208.7208862519093
 20
99.26577585599847
 30
0.0
 10
208.8482547872955
 20
99.16308067869971
 30
0.0
 10
209.0826889147157
 20
98.93469147562963
 30
0.0
 10
209.1904825606801
 20
98.80756265048568
 30
0.0
 10
209.3760479252824
 20
98.53979710423728
 30
0.0
 10
209.4549505445486
 20
98.39845624336706
 30
0.0
 10
209.5840108115174
 20
98.10054659760581
 30
0.0
 10
209.6335315855217
 20
97.94419670197357
 30
0.0
 10
209.6980872829325
 20
97.63078896550984
 30
0.0
 10
209.7140072211836
 20
97.47189597481837
 30
0.0
 10
209.7113495777143
 20
97.14986616078143
 30
0.0
 10
209.6928297018023
 20
96.9924964518063
 30
0.0
 10
209.623039338266
 20
96.68461970515591
 30
0.0
 10
209.5708558577106
 20
96.53253225472419
 30
0.0
 10
209.4370930805197
 20
96.24600193307285
 30
0.0
 10
209.3558135774326
 20
96.11093641933444
 30
0.0
 10
209.1649479852852
 20
95.85654981397109
 30
0.0
 10
209.0556225426365
 20
95.73820001483982
 30
0.0
 10
208.6989034132824
 20
95.42025967789608
 30
0.0
 10
208.4146202938639
 20
95.25110578239924
 30
0.0
 10
207.9573293465672
 20
95.08097264355641
 30
0.0
 10
207.7971044353155
 20
95.03708453038846
 30
0.0
 10
207.4718637322666
 20
94.97865083855582
 30
0.0
 10
207.3072483021954
 20
94.96383218790766
 30
0.0
 10
206.973949465081
 20
94.96383218790766
 30
0.0
  0
LINE
  5
13F
330
1F
100
AcDbEntity
  8
0
  6
HIDDEN
 62
     7
370
     0
100
AcDbLine
 10
182.1741880396
 20
85.3926562277
 30
0.0
 11
182.1741880396
 21
117.8070590404
 31
0.0
  0
SPLINE
  5
140
330
1F
100
AcDbEntity
  8
0
  6
HIDDEN
 62
     7
370
     0
100
AcDbSpline
210
0.0
220
0.0
230
1.0
 70
     8
 71
     3
 72
     8
 73
     4
 74
     0
 42
0.00000001
 43
0.00000001
 12
1.0
 22
0.0
 32
0.0
 13
1.0
 23
0.0
 33
0.0
 40
0.000003532078448
 40
0.000003532078448
 40
0.000003532078448
 40
0.000003532078448
 40
0.0000638548434643
 40
0.0000638548434643
 40
0.0000638548434643
 40
0.0000638548434643
 10
163.2156718900587
 20
88.89667993447047
 30
0.0
 10
163.2182210611809
 20
88.88751873113173
 30
0.0
 10
163.2210629839626
 20
88.87839772782301
 30
0.0
 10
163.2241880396278
 20
88.86932208305464
 30
0.0
  0
SPLINE
  5
141
330
1F
100
AcDbEntity
  8
0
  6
HIDDEN
 62
     7
370
     0
100
AcDbSpline
210
0.0
220
0.0
230
1.0
 70
     8
 71
     3
 72
     8
 73
     4
 74
     0
 42
0.00000001
 43
0.00000001
 12
1.0
 22
0.0
 32
0.0
 13
1.0
 23
0.0
 33
0.0
 40
0.0000002108190109
 40
0.0000002108190109
 40
0.0000002108190109
 40
0.0000002108190109
 40
0.0001710235456397
 40
0.0001710235456397
 40
0.0001710235456397
 40
0.0001710235456397
 10
163.2241880396278
 20
88.86932208305464
 30
0.0
 10
163.2781762257176
 20
88.8749522256582
 30
0.0
 10
163.3317658857935
 20
88.88124761911973
 30
0.0
 10
163.3843966049122
 20
88.88867737156289
 30
0.0
  0
SPLINE
  5
142
330
1F
100
AcDbEntity
  8
0
  6
HIDDEN
 62
     7
370
     0
100
AcDbSpline
210
0.0
220
0.0
230
1.0
 70
     8
 71
     3
 72
    10
 73
     6
 74
     0
 42
0.00000001
 43
0.00000001
 12
1.0
 22
0.0
 32
0.0
 13
1.0
 23
0.0
 33
0.0
 40
0.0
 40
0.0
 40
0.0
 40
0.0
 40
0.5
 40
0.5
 40
1.0
 40
1.0
 40
1.0
 40
1.0
 10
163.3843966049122
 20
88.8886773715629
 30
0.0
 10
164.0426546158145
 20
88.9816020768799
 30
0.0
 10
164.7199969243515
 20
89.05753719400248
 30
0.0
 10
166.0893429380324
 20
89.19635527954011
 30
0.0
 10
166.7806630189048
 20
89.25830193582658
 30
0.0
 10
167.4741880396278
 20
89.31598433546115
 30
0.0
  0
SPLINE
  5
143
330
1F
100
AcDbEntity
  8
0
  6
HIDDEN
 62
     7
370
     0
100
AcDbSpline
210
0.0
220
0.0
230
1.0
 70
     8
 71
     3
 72
    16
 73
    12
 74
     0
 42
0.00000001
 43
0.00000001
 12
1.0
 22
0.0
 32
0.0
 13
1.0
 23
0.0
 33
0.0
 40
0.0
 40
0.0
 40
0.0
 40
0.0
 40
0.0624999999999981
 40
0.0624999999999981
 40
0.1249999999999962
 40
0.1249999999999962
 40
0.2499999999999959
 40
0.2499999999999959
 40
0.4999999999999971
 40
0.4999999999999971
 40
1.0
 40
1.0
 40
1.0
 40
1.0
 10
167.4741880396278
 20
89.31598433546115
 30
0.0
 10
167.505503838955
 20
89.3185889573532
 30
0.0
 10
167.5382181773807
 20
89.31682005689326
 30
0.0
 10
167.5995247308576
 20
89.3052851624433
 30
0.0
 10
167.6280356210755
 20
89.29575818509709
 30
0.0
 10
167.7039295944318
 20
89.26224458497217
 30
0.0
 10
167.7432691794648
 20
89.23385707065229
 30
0.0
 10
167.8447049604462
 20
89.14583612044439
 30
0.0
 10
167.8895303200522
 20
89.08420346823725
 30
0.0
 10
168.0038126750174
 20
88.90081527456206
 30
0.0
 10
168.0486265828602
 20
88.7801972800972
 30
0.0
 10
168.0829528371425
 20
88.6658542868061
 30
0.0
  0
SPLINE
  5
144
330
1F
100
AcDbEntity
  8
0
  6
HIDDEN
 62
     7
370
     0
100
AcDbSpline
210
0.0
220
0.0
230
1.0
 70
     8
 71
     3
 72
    10
 73
     6
 74
     0
 42
0.00000001
 43
0.00000001
 12
1.0
 22
0.0
 32
0.0
 13
1.0
 23
0.0
 33
0.0
 40
0.0
 40
0.0
 40
0.0
 40
0.0
 40
0.5
 40
0.5
 40
1.0
 40
1.0
 40
1.0
 40
1.0
 10
168.0829528371425
 20
88.6658542868061
 30
0.0
 10
168.1208272400872
 20
88.53969217875344
 30
0.0
 10
168.2016182874131
 20
88.42173313777155
 30
0.0
 10
168.3267482300044
 20
88.19868715518257
 30
0.0
 10
168.3741880396278
 20
88.09389208168722
 30
0.0
 10
168.3741880396278
 20
87.9962814482898
 30
0.0
  0
LINE
  5
145
330
1F
100
AcDbEntity
  8
0
  6
HIDDEN
 62
     7
370
     0
100
AcDbLine
 10
168.3741881991
 20
87.996281175
 30
0.0
 11
168.3741881991
 21
87.0873392132
 31
0.0
  0
LINE
  5
146
330
1F
100
AcDbEntity
  8
0
  6
HIDDEN
 62
     7
370
     0
100
AcDbLine
 10
165.8741877893
 20
115.9871252757
 30
0.0
 11
165.8741877893
 21
115.1573820543
 31
0.0
  0
SPLINE
  5
147
330
1F
100
AcDbEntity
  8
0
  6
HIDDEN
 62
     7
370
     0
100
AcDbSpline
210
0.0
220
0.0
230
1.0
 70
     8
 71
     3
 72
    20
 73
    16
 74
     0
 42
0.00000001
 43
0.00000001
 12
1.0
 22
0.0
 32
0.0
 13
1.0
 23
0.0
 33
0.0
 40
0.0
 40
0.0
 40
0.0
 40
0.0
 40
0.2499999999999986
 40
0.2499999999999986
 40
0.4999999999999971
 40
0.4999999999999971
 40
0.7499999999999957
 40
0.7499999999999957
 40
0.8749999999999962
 40
0.8749999999999962
 40
0.9374999999999981
 40
0.9374999999999981
 40
0.9687499999999991
 40
0.9687499999999991
 40
1.0
 40
1.0
 40
1.0
 40
1.0
 10
165.8741880396287
 20
115.1573817557619
 30
0.0
 10
165.8741880396287
 20
115.0967723560645
 30
0.0
 10
165.8487930200518
 20
115.030946390661
 30
0.0
 10
165.7624998342698
 20
114.8968986213143
 30
0.0
 10
165.7018638555866
 20
114.8282032631726
 30
0.0
 10
165.5537620613653
 20
114.6878047115181
 30
0.0
 10
165.4669924545867
 20
114.6161012069368
 30
0.0
 10
165.3183546592575
 20
114.5099378051879
 30
0.0
 10
165.2660654423713
 20
114.4744094565564
 30
0.0
 10
165.1753016140614
 20
114.4247055260409
 30
0.0
 10
165.1429356216094
 20
114.4084445280258
 30
0.0
 10
165.0852464659432
 20
114.3893319596798
 30
0.0
 10
165.0642594380558
 20
114.3839408175983
 30
0.0
 10
165.0189704590653
 20
114.3782034492058
 30
0.0
 10
164.9959561902268
 20
114.3782261828592
 30
0.0
 10
164.9741880396272
 20
114.3806514926721
 30
0.0
  0
SPLINE
  5
148
330
1F
100
AcDbEntity
  8
0
  6
HIDDEN
 62
     7
370
     0
100
AcDbSpline
210
0.0
220
0.0
230
1.0
 70
     8
 71
     3
 72
    12
 73
     8
 74
     0
 42
0.00000001
 43
0.00000001
 12
1.0
 22
0.0
 32
0.0
 13
1.0
 23
0.0
 33
0.0
 40
0.0
 40
0.0
 40
0.0
 40
0.0
 40
0.2499999999999986
 40
0.2499999999999986
 40
0.4999999999999971
 40
0.4999999999999971
 40
1.0
 40
1.0
 40
1.0
 40
1.0
 10
164.9741880396278
 20
114.3806514926732
 30
0.0
 10
164.8321456364386
 20
114.3964772208494
 30
0.0
 10
164.6880275299344
 20
114.4074983546247
 30
0.0
 10
164.3982730162619
 20
114.4260347164919
 30
0.0
 10
164.2525311129032
 20
114.4333054222277
 30
0.0
 10
163.8138508737233
 20
114.4517662725557
 30
0.0
 10
163.5194752576521
 20
114.4596451393793
 30
0.0
 10
163.2241880396278
 20
114.4654381809924
 30
0.0
  0
SPLINE
  5
149
330
1F
100
AcDbEntity
  8
0
  6
HIDDEN
 62
     7
370
     0
100
AcDbSpline
210
0.0
220
0.0
230
1.0
 70
     8
 71
     3
 72
     8
 73
     4
 74
     0
 42
0.00000001
 43
0.00000001
 12
1.0
 22
0.0
 32
0.0
 13
1.0
 23
0.0
 33
0.0
 40
0.0
 40
0.0
 40
0.0
 40
0.0
 40
1.0
 40
1.0
 40
1.0
 40
1.0
 10
163.2241880396278
 20
114.4654381809924
 30
0.0
 10
163.1784231319385
 20
114.4039178018336
 30
0.0
 10
163.1440360103085
 20
114.3400229420841
 30
0.0
 10
163.1250207566356
 20
114.2732929970404
 30
0.0
  0
ELLIPSE
  5
14A
330
1F
100
AcDbEntity
  8
0
  6
HIDDEN
 62
     7
370
     0
100
AcDbEllipse
 10
149.6680674011
 20
102.2389680853
 30
0.0
 11
13.36963611134306
 21
13.36754752639485
 31
0.0
210
0.0
220
0.0
230
1.0
 40
0.1761188775
 41
5.933076931846602
 42
5.976720052691201
  0
ELLIPSE
  5
14B
330
1F
100
AcDbEntity
  8
0
  6
HIDDEN
 62
     7
370
     0
100
AcDbEllipse
 10
149.7474458318
 20
100.9605599562
 30
0.0
 11
13.37355272666625
 21
-13.37146352987014
 31
0.0
210
0.0
220
0.0
230
1.0
 40
0.1761188775
 41
0.3023035477142491
 42
0.3822730435340285
  0
LINE
  5
14C
330
1F
100
AcDbEntity
  8
0
  6
HIDDEN
 62
     7
370
     0
100
AcDbLine
 10
180.1741879446
 20
116.7035582048
 30
0.0
 11
180.1741879446
 21
86.4961570633
 31
0.0
  0
SPLINE
  5
14D
330
1F
100
AcDbEntity
  8
0
  6
HIDDEN
 62
     7
370
     0
100
AcDbSpline
210
0.0
220
0.0
230
1.0
 70
     8
 71
     3
 72
    11
 73
     7
 74
     0
 42
0.00000001
 43
0.00000001
 12
1.0
 22
0.0
 32
0.0
 13
1.0
 23
0.0
 33
0.0
 40
0.0
 40
0.0
 40
0.0
 40
0.0
 40
0.25946967059813
 40
0.3326084702733429
 40
0.6701731790694504
 40
1.0
 40
1.0
 40
1.0
 40
1.0
 10
173.8231796318562
 20
86.90110263795272
 30
0.0
 10
173.7576193360701
 20
86.8926112220969
 30
0.0
 10
173.6735790332408
 20
86.88172626266505
 30
0.0
 10
173.4967053598029
 20
86.85911812957275
 30
0.0
 10
173.3948217066688
 20
86.84252264954931
 30
0.0
 10
173.3706678381174
 20
86.83942289064579
 30
0.0
 10
173.3587309265406
 20
86.83789098084584
 30
0.0
  0
SPLINE
  5
14E
330
1F
100
AcDbEntity
  8
0
  6
HIDDEN
 62
     7
370
     0
100
AcDbSpline
210
0.0
220
0.0
230
1.0
 70
     8
 71
     3
 72
    22
 73
    18
 74
     0
 42
0.00000001
 43
0.00000001
 12
1.0
 22
0.0
 32
0.0
 13
1.0
 23
0.0
 33
0.0
 40
0.0
 40
0.0
 40
0.0
 40
0.0
 40
0.0022119868471047
 40
0.0799684029100432
 40
0.1575272209552896
 40
0.2358577835459358
 40
0.3136122147965963
 40
0.3900719927085506
 40
0.4660893518218608
 40
0.5423589988219177
 40
0.6186534337227994
 40
0.6937723094550358
 40
0.7691592430128827
 40
0.8459429920566703
 40
0.9207581226786524
 40
0.9231032778326366
 40
1.0
 40
1.0
 40
1.0
 40
1.0
 10
178.9404660941929
 20
86.5582595151724
 30
0.0
 10
178.9409762089943
 20
86.55813681886183
 30
0.0
 10
178.9594180302093
 20
86.55370106554305
 30
0.0
 10
178.8957711087946
 20
86.56949843965378
 30
0.0
 10
178.7433390108484
 20
86.60634498311204
 30
0.0
 10
178.4767546712818
 20
86.66663459460483
 30
0.0
 10
178.1299259452939
 20
86.73910023776027
 30
0.0
 10
177.7061288872707
 20
86.81547522082145
 30
0.0
 10
177.2228160827043
 20
86.88676891151306
 30
0.0
 10
176.6940666350223
 20
86.94464841734845
 30
0.0
 10
176.1448748109008
 20
86.98439743200986
 30
0.0
 10
175.5953915343767
 20
87.00123187703596
 30
0.0
 10
175.069867591297
 20
86.99597860888764
 30
0.0
 10
174.5816351848424
 20
86.97324797572982
 30
0.0
 10
174.3144605430982
 20
86.9491028560499
 30
0.0
 10
174.0301114914368
 20
86.92713699840354
 30
0.0
 10
173.9250915342676
 20
86.91392430401702
 30
0.0
 10
173.8231796318562
 20
86.90110263795272
 30
0.0
  0
SPLINE
  5
14F
330
1F
100
AcDbEntity
  8
0
  6
HIDDEN
 62
     7
370
     0
100
AcDbSpline
210
0.0
220
0.0
230
1.0
 70
     8
 71
     3
 72
    22
 73
    18
 74
     0
 42
0.00000001
 43
0.00000001
 12
1.0
 22
0.0
 32
0.0
 13
1.0
 23
0.0
 33
0.0
 40
0.0
 40
0.0
 40
0.0
 40
0.0
 40
0.0769496979898115
 40
0.0780938880527605
 40
0.1541394023339273
 40
0.230948519945297
 40
0.3064555519845071
 40
0.3815281636167389
 40
0.4579812553650078
 40
0.5341646018648127
 40
0.6102700516631084
 40
0.6865845638039152
 40
0.7642917144352694
 40
0.8424373723746879
 40
0.9199456372638479
 40
0.9982050360904
 40
0.9999999999999999
 40
0.9999999999999999
 40
0.9999999999999999
 40
0.9999999999999999
 10
173.8230613538892
 20
116.2985977289142
 30
0.0
 10
173.9251686487455
 20
116.2858084484349
 30
0.0
 10
174.0287942101472
 20
116.2728289999885
 30
0.0
 10
174.3128518293797
 20
116.2508175610048
 30
0.0
 10
174.5802599023525
 20
116.2266808221694
 30
0.0
 10
175.0711594843708
 20
116.203777344143
 30
0.0
 10
175.5968864200373
 20
116.1984611051637
 30
0.0
 10
176.1469530865986
 20
116.2153222474985
 30
0.0
 10
176.69617011653
 20
116.2552140124158
 30
0.0
 10
177.22503564177
 20
116.3132396673324
 30
0.0
 10
177.7078648410507
 20
116.3845096697801
 30
0.0
 10
178.1313882914267
 20
116.4608216628642
 30
0.0
 10
178.4776474313887
 20
116.533156873675
 30
0.0
 10
178.7434956137918
 20
116.5933646452875
 30
0.0
 10
178.8969086348814
 20
116.6302760944732
 30
0.0
 10
178.9576685747447
 20
116.646039566371
 30
0.0
 10
178.9398664075855
 20
116.6415571872426
 30
0.0
 10
178.9394672507317
 20
116.6414566841783
 30
0.0
  0
SPLINE
  5
150
330
1F
100
AcDbEntity
  8
0
  6
HIDDEN
 62
     7
370
     0
100
AcDbSpline
210
0.0
220
0.0
230
1.0
 70
     8
 71
     3
 72
    10
 73
     6
 74
     0
 42
0.00000001
 43
0.00000001
 12
1.0
 22
0.0
 32
0.0
 13
1.0
 23
0.0
 33
0.0
 40
0.0
 40
0.0
 40
0.0
 40
0.0
 40
0.3343825542418548
 40
0.6655473131622539
 40
0.9999999999999999
 40
0.9999999999999999
 40
0.9999999999999999
 40
0.9999999999999999
 10
173.3582652652533
 20
116.3618866857947
 30
0.0
 10
173.3679719427587
 20
116.3603128337122
 30
0.0
 10
173.3872918894828
 20
116.3571802748763
 30
0.0
 10
173.5448633336973
 20
116.3331248884197
 30
0.0
 10
173.730023803528
 20
116.3101446203662
 30
0.0
 10
173.8230613538892
 20
116.2985977289142
 30
0.0
  0
SPLINE
  5
151
330
1F
100
AcDbEntity
  8
0
  6
HIDDEN
 62
     7
370
     0
100
AcDbSpline
210
0.0
220
0.0
230
1.0
 70
    11
 71
     3
 72
    50
 73
    46
 74
     0
 42
0.00000001
 43
0.00000001
 12
1.0
 22
0.0
 32
0.0
 13
1.0
 23
0.0
 33
0.0
 40
0.0
 40
0.0
 40
0.0
 40
0.0
 40
0.0624999999999999
 40
0.0624999999999999
 40
0.1249999999999998
 40
0.1249999999999998
 40
0.1562499999999998
 40
0.1562499999999998
 40
0.1874999999999998
 40
0.1874999999999998
 40
0.2187499999999999
 40
0.2187499999999999
 40
0.2499999999999999
 40
0.2499999999999999
 40
0.28125
 40
0.28125
 40
0.3125000000000001
 40
0.3125000000000001
 40
0.3750000000000002
 40
0.3750000000000002
 40
0.4375000000000003
 40
0.4375000000000003
 40
0.5000000000000004
 40
0.5000000000000004
 40
0.5312500000000004
 40
0.5312500000000004
 40
0.5625000000000006
 40
0.5625000000000006
 40
0.5937500000000006
 40
0.5937500000000006
 40
0.6250000000000007
 40
0.6250000000000007
 40
0.6562500000000007
 40
0.6562500000000007
 40
0.6875000000000008
 40
0.6875000000000008
 40
0.7500000000000006
 40
0.7500000000000006
 40
0.8125000000000004
 40
0.8125000000000004
 40
0.8750000000000003
 40
0.8750000000000003
 40
0.9375000000000002
 40
0.9375000000000002
 40
1.0
 40
1.0
 40
1.0
 40
1.0
 10
177.9983647675053
 20
88.92704734053414
 30
0.0
 10
177.8521099327037
 20
88.94809986635961
 30
0.0
 10
177.6806412957453
 20
88.97038109104163
 30
0.0
 10
177.2874966902353
 20
89.01122258139054
 30
0.0
 10
177.0722525046701
 20
89.0289802163115
 30
0.0
 10
176.7295127181204
 20
89.04725350915508
 30
0.0
 10
176.6112663350649
 20
89.05196344816912
 30
0.0
 10
176.3754873328866
 20
89.05796254322793
 30
0.0
 10
176.2569210231806
 20
89.05931837562375
 30
0.0
 10
176.0184259423801
 20
89.05862396361306
 30
0.0
 10
175.8976335488582
 20
89.0565254606217
 30
0.0
 10
175.662567583393
 20
89.04914231109589
 30
0.0
 10
175.547512070893
 20
89.04387954782497
 30
0.0
 10
175.3222923161501
 20
89.03062578577645
 30
0.0
 10
175.2112101465479
 20
89.022546711099
 30
0.0
 10
174.9999586996123
 20
89.00461098410396
 30
0.0
 10
174.8996004651115
 20
88.9947747488905
 30
0.0
 10
174.6139565080881
 20
88.96375908046906
 30
0.0
 10
174.4436777644922
 20
88.9409273862504
 30
0.0
 10
174.1675266345719
 20
88.9002301119197
 30
0.0
 10
174.0578274481871
 20
88.88190406234752
 30
0.0
 10
173.9122843670232
 20
88.85687646310255
 30
0.0
 10
173.8742777315659
 20
88.8498738137351
 30
0.0
 10
173.8741434382081
 20
88.84984958826828
 30
0.0
 10
173.8832611934504
 20
88.85150417552443
 30
0.0
 10
173.920179738964
 20
88.8580868187973
 30
0.0
 10
173.9481533939887
 20
88.86304306031998
 30
0.0
 10
174.020924973441
 20
88.87555973301832
 30
0.0
 10
174.0658502116027
 20
88.88314427233176
 30
0.0
 10
174.1728935265581
 20
88.90045252770494
 30
0.0
 10
174.2354615675247
 20
88.91023681949767
 30
0.0
 10
174.373852470264
 20
88.93064202116375
 30
0.0
 10
174.4500359260385
 20
88.94132697608681
 30
0.0
 10
174.6163916598496
 20
88.9629107136642
 30
0.0
 10
174.7074199622943
 20
88.97389682266535
 30
0.0
 10
174.9940737789672
 20
89.00505390643144
 30
0.0
 10
175.2061258370848
 20
89.02375009346763
 30
0.0
 10
175.6593031130394
 20
89.05049737418311
 30
0.0
 10
175.8939327617793
 20
89.05820298088491
 30
0.0
 10
176.3753563112379
 20
89.05972098838309
 30
0.0
 10
176.6106616815063
 20
89.05353230015075
 30
0.0
 10
177.0705693331819
 20
89.02912696445792
 30
0.0
 10
177.2849978451411
 20
89.01144381053261
 30
0.0
 10
177.6781970299065
 20
88.97067289349998
 30
0.0
 10
177.8521061015716
 20
88.9481004178286
 30
0.0
 10
177.9983647675053
 20
88.92704734053413
 30
0.0
  0
SPLINE
  5
152
330
1F
100
AcDbEntity
  8
0
  6
HIDDEN
 62
     7
370
     0
100
AcDbSpline
210
0.0
220
0.0
230
1.0
 70
    11
 71
     3
 72
    50
 73
    46
 74
     0
 42
0.00000001
 43
0.00000001
 12
1.0
 22
0.0
 32
0.0
 13
1.0
 23
0.0
 33
0.0
 40
0.0
 40
0.0
 40
0.0
 40
0.0
 40
0.0624999999999999
 40
0.0624999999999999
 40
0.1249999999999998
 40
0.1249999999999998
 40
0.1562499999999998
 40
0.1562499999999998
 40
0.1874999999999998
 40
0.1874999999999998
 40
0.2187499999999999
 40
0.2187499999999999
 40
0.2499999999999999
 40
0.2499999999999999
 40
0.28125
 40
0.28125
 40
0.3125000000000001
 40
0.3125000000000001
 40
0.3750000000000002
 40
0.3750000000000002
 40
0.4375000000000003
 40
0.4375000000000003
 40
0.5000000000000004
 40
0.5000000000000004
 40
0.5312500000000004
 40
0.5312500000000004
 40
0.5625000000000006
 40
0.5625000000000006
 40
0.5937500000000006
 40
0.5937500000000006
 40
0.6250000000000007
 40
0.6250000000000007
 40
0.6562500000000007
 40
0.6562500000000007
 40
0.6875000000000008
 40
0.6875000000000008
 40
0.7500000000000006
 40
0.7500000000000006
 40
0.8125000000000004
 40
0.8125000000000004
 40
0.8750000000000003
 40
0.8750000000000003
 40
0.9375000000000002
 40
0.9375000000000002
 40
1.0
 40
1.0
 40
1.0
 40
1.0
 10
177.9983647675053
 20
114.2726679274939
 30
0.0
 10
177.8521099327037
 20
114.2516154016684
 30
0.0
 10
177.6806412957453
 20
114.2293341769864
 30
0.0
 10
177.2874966902353
 20
114.1884926866375
 30
0.0
 10
177.0722525046701
 20
114.1707350517166
 30
0.0
 10
176.7295127181204
 20
114.152461758873
 30
0.0
 10
176.6112663350649
 20
114.147751819859
 30
0.0
 10
176.3754873328866
 20
114.1417527248002
 30
0.0
 10
176.2569210231806
 20
114.1403968924043
 30
0.0
 10
176.0184259423801
 20
114.141091304415
 30
0.0
 10
175.8976335488582
 20
114.1431898074064
 30
0.0
 10
175.662567583393
 20
114.1505729569322
 30
0.0
 10
175.547512070893
 20
114.1558357202031
 30
0.0
 10
175.3222923161501
 20
114.1690894822516
 30
0.0
 10
175.2112101465479
 20
114.1771685569291
 30
0.0
 10
174.9999586996123
 20
114.1951042839241
 30
0.0
 10
174.8996004651115
 20
114.2049405191376
 30
0.0
 10
174.6139565080881
 20
114.235956187559
 30
0.0
 10
174.4436777644922
 20
114.2587878817777
 30
0.0
 10
174.1675266345719
 20
114.2994851561084
 30
0.0
 10
174.0578274481871
 20
114.3178112056805
 30
0.0
 10
173.9122843670232
 20
114.3428388049255
 30
0.0
 10
173.8742777315659
 20
114.349841454293
 30
0.0
 10
173.8741434382081
 20
114.3498656797598
 30
0.0
 10
173.8832611934504
 20
114.3482110925036
 30
0.0
 10
173.920179738964
 20
114.3416284492308
 30
0.0
 10
173.9481533939887
 20
114.3366722077081
 30
0.0
 10
174.020924973441
 20
114.3241555350098
 30
0.0
 10
174.0658502116027
 20
114.3165709956963
 30
0.0
 10
174.1728935265581
 20
114.2992627403231
 30
0.0
 10
174.2354615675247
 20
114.2894784485304
 30
0.0
 10
174.373852470264
 20
114.2690732468643
 30
0.0
 10
174.4500359260385
 20
114.2583882919412
 30
0.0
 10
174.6163916598496
 20
114.2368045543639
 30
0.0
 10
174.7074199622943
 20
114.2258184453627
 30
0.0
 10
174.9940737789672
 20
114.1946613615966
 30
0.0
 10
175.2061258370848
 20
114.1759651745605
 30
0.0
 10
175.6593031130394
 20
114.149217893845
 30
0.0
 10
175.8939327617793
 20
114.1415122871431
 30
0.0
 10
176.3753563112379
 20
114.139994279645
 30
0.0
 10
176.6106616815063
 20
114.1461829678773
 30
0.0
 10
177.0705693331819
 20
114.1705883035702
 30
0.0
 10
177.2849978451411
 20
114.1882714574955
 30
0.0
 10
177.6781970299065
 20
114.2290423745281
 30
0.0
 10
177.8521061015716
 20
114.2516148501995
 30
0.0
 10
177.9983647675053
 20
114.2726679274939
 30
0.0
  0
SPLINE
  5
153
330
1F
100
AcDbEntity
  8
0
  6
HIDDEN
 62
     7
370
     0
100
AcDbSpline
210
0.0
220
0.0
230
1.0
 70
    11
 71
     3
 72
    14
 73
    10
 74
     0
 42
0.00000001
 43
0.00000001
 12
1.0
 22
0.0
 32
0.0
 13
1.0
 23
0.0
 33
0.0
 40
0.0
 40
0.0
 40
0.0
 40
0.0
 40
0.25
 40
0.25
 40
0.5
 40
0.5
 40
0.75
 40
0.75
 40
1.0
 40
1.0
 40
1.0
 40
1.0
 10
177.9983647675053
 20
114.2726679274939
 30
0.0
 10
178.1522406632081
 20
114.2948174603459
 30
0.0
 10
178.2701212308371
 20
114.3076295274196
 30
0.0
 10
178.4331850207498
 20
114.32398223625
 30
0.0
 10
178.4741015393735
 20
114.3271579989678
 30
0.0
 10
178.4742742718897
 20
114.3271727011446
 30
0.0
 10
178.4333465136558
 20
114.3239931501512
 30
0.0
 10
178.2710091481903
 20
114.3077238186737
 30
0.0
 10
178.1522388800842
 20
114.2948172036757
 30
0.0
 10
177.9983647675053
 20
114.2726679274939
 30
0.0
  0
SPLINE
  5
154
330
1F
100
AcDbEntity
  8
0
  6
HIDDEN
 62
     7
370
     0
100
AcDbSpline
210
0.0
220
0.0
230
1.0
 70
    11
 71
     3
 72
    14
 73
    10
 74
     0
 42
0.00000001
 43
0.00000001
 12
1.0
 22
0.0
 32
0.0
 13
1.0
 23
0.0
 33
0.0
 40
0.0
 40
0.0
 40
0.0
 40
0.0
 40
0.2499999999999999
 40
0.2499999999999999
 40
0.4999999999999999
 40
0.4999999999999999
 40
0.7499999999999998
 40
0.7499999999999998
 40
1.0
 40
1.0
 40
1.0
 40
1.0
 10
177.9983647675053
 20
88.92704734053414
 30
0.0
 10
178.1522406632081
 20
88.90489780768215
 30
0.0
 10
178.2701212308371
 20
88.89208574060852
 30
0.0
 10
178.4331850207498
 20
88.87573303177807
 30
0.0
 10
178.4741015393735
 20
88.87255726906021
 30
0.0
 10
178.4742742718897
 20
88.87254256688348
 30
0.0
 10
178.4333465136558
 20
88.87572211787692
 30
0.0
 10
178.2710091481903
 20
88.89199144935439
 30
0.0
 10
178.1522388800842
 20
88.9048980643524
 30
0.0
 10
177.9983647675053
 20
88.92704734053413
 30
0.0
  0
LINE
  5
155
330
1F
100
AcDbEntity
  8
0
  6
HIDDEN
 62
     7
370
     0
100
AcDbLine
 10
182.1741880396
 20
91.0998577756
 30
0.0
 11
182.1741880396
 21
112.0998574925
 31
0.0
  0
LINE
  5
156
330
1F
100
AcDbEntity
  8
0
  6
HIDDEN
 62
     7
370
     0
100
AcDbLine
 10
170.176837548
 20
112.0998574925
 30
0.0
 11
170.176837548
 21
91.0998577756
 31
0.0
  0
LINE
  5
157
330
1F
100
AcDbEntity
  8
0
  6
HIDDEN
 62
     7
370
     0
100
AcDbLine
 10
199.2141874054
 20
115.1157044378
 30
0.0
 11
199.2141874054
 21
119.0024618563
 31
0.0
  0
LINE
  5
158
330
1F
100
AcDbEntity
  8
0
  6
HIDDEN
 62
     7
370
     0
100
AcDbLine
 10
197.1341883311
 20
115.1157044378
 30
0.0
 11
197.1341883311
 21
119.0024618563
 31
0.0
  0
LINE
  5
159
330
1F
100
AcDbEntity
  8
0
  6
HIDDEN
 62
     7
370
     0
100
AcDbLine
 10
194.6178581113
 20
113.4498579931
 30
0.0
 11
202.4533124188
 21
113.4498579931
 31
0.0
  0
SPLINE
  5
15A
330
1F
100
AcDbEntity
  8
0
  6
HIDDEN
 62
     7
370
     0
100
AcDbSpline
210
0.0
220
0.0
230
1.0
 70
     8
 71
     3
 72
    14
 73
    10
 74
     0
 42
0.00000001
 43
0.00000001
 12
1.0
 22
0.0
 32
0.0
 13
1.0
 23
0.0
 33
0.0
 40
0.0
 40
0.0
 40
0.0
 40
0.0
 40
0.25
 40
0.25
 40
0.5
 40
0.5
 40
0.75
 40
0.75
 40
1.0
 40
1.0
 40
1.0
 40
1.0
 10
201.5714980761191
 20
103.4249323430898
 30
0.0
 10
201.4633056295008
 20
103.554291017573
 30
0.0
 10
201.3570808484116
 20
103.6796182091838
 30
0.0
 10
201.1368727117343
 20
103.9044672054598
 30
0.0
 10
201.0236749760106
 20
104.0041681948045
 30
0.0
 10
200.8158771145021
 20
104.1978747860884
 30
0.0
 10
200.7200093421293
 20
104.2947870675032
 30
0.0
 10
200.5487074945176
 20
104.5025848922338
 30
0.0
 10
200.4728529915294
 20
104.6132266514832
 30
0.0
 10
200.4063603077195
 20
104.7274853369939
 30
0.0
  0
ARC
  5
15B
330
1F
100
AcDbEntity
  8
0
  6
HIDDEN
 62
     7
370
     0
100
AcDbCircle
 10
196.2507074116
 20
99.8378515703
 30
0.0
 40
6.417006371748466
100
AcDbArc
 50
33.9863910803
 51
49.6391084112
  0
SPLINE
  5
15C
330
1F
100
AcDbEntity
  8
0
  6
HIDDEN
 62
     7
370
     0
100
AcDbSpline
210
0.0
220
0.0
230
1.0
 70
     8
 71
     3
 72
    14
 73
    10
 74
     0
 42
0.00000001
 43
0.00000001
 12
1.0
 22
0.0
 32
0.0
 13
1.0
 23
0.0
 33
0.0
 40
0.0
 40
0.0
 40
0.0
 40
0.0
 40
0.25
 40
0.25
 40
0.5
 40
0.5
 40
0.75
 40
0.75
 40
1.0
 40
1.0
 40
1.0
 40
1.0
 10
200.4063603077205
 20
104.7274853369954
 30
0.0
 10
200.5290225502471
 20
104.706812448711
 30
0.0
 10
200.641728654999
 20
104.6502549403224
 30
0.0
 10
200.8375204534018
 20
104.4791537142138
 30
0.0
 10
200.9238779161814
 20
104.3661094422818
 30
0.0
 10
201.0981272422709
 20
104.1208162531558
 30
0.0
 10
201.1894965627376
 20
103.9854588419848
 30
0.0
 10
201.3796653363752
 20
103.7121248079782
 30
0.0
 10
201.4788233970108
 20
103.5730938924764
 30
0.0
 10
201.5714980761192
 20
103.4249323430898
 30
0.0
  0
SPLINE
  5
15D
330
1F
100
AcDbEntity
  8
0
  6
HIDDEN
 62
     7
370
     0
100
AcDbSpline
210
0.0
220
0.0
230
1.0
 70
     8
 71
     3
 72
    64
 73
    60
 74
     0
 42
0.00000001
 43
0.00000001
 12
1.0
 22
0.0
 32
0.0
 13
1.0
 23
0.0
 33
0.0
 40
-0.0312500000000001
 40
-0.0312500000000001
 40
0.0
 40
0.0
 40
0.0624999999999998
 40
0.0624999999999998
 40
0.1249999999999996
 40
0.1249999999999996
 40
0.1874999999999993
 40
0.1874999999999993
 40
0.2187499999999994
 40
0.2187499999999994
 40
0.2499999999999994
 40
0.2499999999999994
 40
0.2812499999999995
 40
0.2812499999999995
 40
0.3124999999999996
 40
0.3124999999999996
 40
0.3437499999999996
 40
0.3437499999999996
 40
0.3749999999999997
 40
0.3749999999999997
 40
0.4062499999999997
 40
0.4062499999999997
 40
0.4374999999999998
 40
0.4374999999999998
 40
0.4687499999999998
 40
0.4687499999999998
 40
0.4999999999999999
 40
0.4999999999999999
 40
0.5312499999999999
 40
0.5312499999999999
 40
0.5624999999999999
 40
0.5624999999999999
 40
0.5937499999999999
 40
0.5937499999999999
 40
0.6249999999999999
 40
0.6249999999999999
 40
0.6562499999999999
 40
0.6562499999999999
 40
0.6874999999999999
 40
0.6874999999999999
 40
0.7187499999999999
 40
0.7187499999999999
 40
0.7499999999999999
 40
0.7499999999999999
 40
0.7812499999999999
 40
0.7812499999999999
 40
0.8124999999999999
 40
0.8124999999999999
 40
0.8437499999999999
 40
0.8437499999999999
 40
0.8749999999999999
 40
0.8749999999999999
 40
0.9062499999999999
 40
0.9062499999999999
 40
0.9374999999999999
 40
0.9374999999999999
 40
0.9687499999999999
 40
0.9687499999999999
 40
1.0
 40
1.0
 40
1.0625
 40
1.0625
 10
204.1757781752328
 20
99.92249263276749
 30
0.0
 10
203.7252775624934
 20
99.92249263276749
 30
0.0
 10
203.4418641535082
 20
100.0057774990231
 30
0.0
 10
202.9330603234227
 20
100.2460636635214
 30
0.0
 10
202.6996645539135
 20
100.4071596683047
 30
0.0
 10
202.2847998727637
 20
100.7911460588768
 30
0.0
 10
202.0997899605289
 20
101.0184537673997
 30
0.0
 10
201.8870323033214
 20
101.4046934440288
 30
0.0
 10
201.8266959732316
 20
101.5422978337686
 30
0.0
 10
201.7375358241722
 20
101.8233582240841
 30
0.0
 10
201.7077756229211
 20
101.9708750593773
 30
0.0
 10
201.6856326839833
 20
102.2584058414586
 30
0.0
 10
201.6927005697961
 20
102.4013784425822
 30
0.0
 10
201.7424741410053
 20
102.6731235102225
 30
0.0
 10
201.7843643581823
 20
102.7998775689873
 30
0.0
 10
201.8968693382482
 20
103.0346808045773
 30
0.0
 10
201.9655281476077
 20
103.1391488637108
 30
0.0
 10
202.1230361025981
 20
103.3281610009975
 30
0.0
 10
202.212607119228
 20
103.4128691315203
 30
0.0
 10
202.4033916865345
 20
103.5602164420457
 30
0.0
 10
202.5052798180323
 20
103.6238131217027
 30
0.0
 10
202.7218984971165
 20
103.7346897142551
 30
0.0
 10
202.8375255590109
 20
103.7821606365954
 30
0.0
 10
203.0774144662696
 20
103.8607420608774
 30
0.0
 10
203.2019658278641
 20
103.8921910382122
 30
0.0
 10
203.4643189132694
 20
103.9414088182549
 30
0.0
 10
203.6045347038634
 20
103.9594288070309
 30
0.0
 10
203.8952575148136
 20
103.9798813711093
 30
0.0
 10
204.0472601257518
 20
103.9823163055476
 30
0.0
 10
204.3408881664177
 20
103.9688354761204
 30
0.0
 10
204.4838140443015
 20
103.9527507116445
 30
0.0
 10
204.7456671461577
 20
103.9016554983841
 30
0.0
 10
204.866350888409
 20
103.8666920223058
 30
0.0
 10
205.0905844772382
 20
103.7764726745269
 30
0.0
 10
205.1921770935614
 20
103.722157636962
 30
0.0
 10
205.3798764269685
 20
103.5926533613284
 30
0.0
 10
205.466695531677
 20
103.5164865967059
 30
0.0
 10
205.620769736884
 20
103.3439269398524
 30
0.0
 10
205.6880635870463
 20
103.2480159487745
 30
0.0
 10
205.8031187030963
 20
103.0340495601456
 30
0.0
 10
205.8511342080912
 20
102.9142754013669
 30
0.0
 10
205.9208303162035
 20
102.6608723585832
 30
0.0
 10
205.9433508227078
 20
102.5254523499718
 30
0.0
 10
205.9609627802962
 20
102.2420619659806
 30
0.0
 10
205.9560050293413
 20
102.0981747794615
 30
0.0
 10
205.9192967075321
 20
101.806179644961
 30
0.0
 10
205.8872282080979
 20
101.6588662315463
 30
0.0
 10
205.8002313782473
 20
101.3756452144938
 30
0.0
 10
205.7443244872624
 20
101.2364166160616
 30
0.0
 10
205.6137772304965
 20
100.9747767897556
 30
0.0
 10
205.5391764945828
 20
100.8515634342488
 30
0.0
 10
205.3706386863493
 20
100.6196018030361
 30
0.0
 10
205.2786749001085
 20
100.5135736094222
 30
0.0
 10
205.0781410423757
 20
100.3217187993393
 30
0.0
 10
204.9682843134958
 20
100.234890882611
 30
0.0
 10
204.7304593036883
 20
100.0883226330957
 30
0.0
 10
204.6017847887549
 20
100.0280712687897
 30
0.0
 10
204.3235654752116
 20
99.94450224599088
 30
0.0
 10
204.1757781752328
 20
99.92249263276749
 30
0.0
 10
203.7252775624934
 20
99.92249263276749
 30
0.0
  0
SPLINE
  5
15E
330
1F
100
AcDbEntity
  8
0
  6
HIDDEN
 62
     7
370
     0
100
AcDbSpline
210
0.0
220
0.0
230
1.0
 70
     8
 71
     3
 72
    26
 73
    22
 74
     0
 42
0.00000001
 43
0.00000001
 12
1.0
 22
0.0
 32
0.0
 13
1.0
 23
0.0
 33
0.0
 40
0.0
 40
0.0
 40
0.0
 40
0.0
 40
0.1250000000000015
 40
0.1250000000000015
 40
0.2500000000000031
 40
0.2500000000000031
 40
0.3125000000000031
 40
0.3125000000000031
 40
0.3750000000000031
 40
0.3750000000000031
 40
0.4375000000000032
 40
0.4375000000000032
 40
0.5000000000000032
 40
0.5000000000000032
 40
0.6250000000000024
 40
0.6250000000000024
 40
0.7500000000000016
 40
0.7500000000000016
 40
0.8750000000000008
 40
0.8750000000000008
 40
1.0
 40
1.0
 40
1.0
 40
1.0
 10
202.2267864242763
 20
102.3609629250252
 30
0.0
 10
202.3729435910174
 20
102.3246375448235
 30
0.0
 10
202.5126632105038
 20
102.2980364264843
 30
0.0
 10
202.7770436861669
 20
102.25582756891
 30
0.0
 10
202.9026703890621
 20
102.2408383400571
 30
0.0
 10
203.068023349147
 20
102.2146676573702
 30
0.0
 10
203.1184202113189
 20
102.2053254445855
 30
0.0
 10
203.2025739331545
 20
102.1797581196299
 30
0.0
 10
203.2358988632386
 20
102.1631717778666
 30
0.0
 10
203.2697167484777
 20
102.1174415721202
 30
0.0
 10
203.2694337490903
 20
102.0879438447741
 30
0.0
 10
203.2386960204091
 20
102.0234875287278
 30
0.0
 10
203.2093018522478
 20
101.9889104348501
 30
0.0
 10
203.1000531049987
 20
101.8902439265767
 30
0.0
 10
202.9989222384392
 20
101.8299730927437
 30
0.0
 10
202.7802703927988
 20
101.7399238809096
 30
0.0
 10
202.659680698739
 20
101.708515181276
 30
0.0
 10
202.4053131013534
 20
101.6821157731025
 30
0.0
 10
202.2746559736021
 20
101.6872109488938
 30
0.0
 10
202.0087701043881
 20
101.7404857782859
 30
0.0
 10
201.8718393885486
 20
101.7896794216108
 30
0.0
 10
201.7394408175464
 20
101.86440316676
 30
0.0
  0
SPLINE
  5
15F
330
1F
100
AcDbEntity
  8
0
  6
HIDDEN
 62
     7
370
     0
100
AcDbSpline
210
0.0
220
0.0
230
1.0
 70
     8
 71
     3
 72
    10
 73
     6
 74
     0
 42
0.00000001
 43
0.00000001
 12
1.0
 22
0.0
 32
0.0
 13
1.0
 23
0.0
 33
0.0
 40
0.0
 40
0.0
 40
0.0
 40
0.0
 40
0.5
 40
0.5
 40
1.0
 40
1.0
 40
1.0
 40
1.0
 10
201.7394408175457
 20
101.8644031667603
 30
0.0
 10
201.5615014635293
 20
101.9863427106994
 30
0.0
 10
201.3992341843345
 20
102.1273096725427
 30
0.0
 10
201.1441252482844
 20
102.4314642304239
 30
0.0
 10
201.0510587750611
 20
102.5936994214668
 30
0.0
 10
200.9966130195896
 20
102.7441295863196
 30
0.0
  0
SPLINE
  5
160
330
1F
100
AcDbEntity
  8
0
  6
HIDDEN
 62
     7
370
     0
100
AcDbSpline
210
0.0
220
0.0
230
1.0
 70
     8
 71
     3
 72
    88
 73
    84
 74
     0
 42
0.00000001
 43
0.00000001
 12
1.0
 22
0.0
 32
0.0
 13
1.0
 23
0.0
 33
0.0
 40
0.0
 40
0.0
 40
0.0
 40
0.0
 40
0.0312499999999997
 40
0.0312499999999997
 40
0.0624999999999995
 40
0.0624999999999995
 40
0.0937499999999992
 40
0.0937499999999992
 40
0.1249999999999989
 40
0.1249999999999989
 40
0.1406249999999988
 40
0.1406249999999988
 40
0.1562499999999988
 40
0.1562499999999988
 40
0.1718749999999987
 40
0.1718749999999987
 40
0.1874999999999986
 40
0.1874999999999986
 40
0.2187499999999989
 40
0.2187499999999989
 40
0.2499999999999991
 40
0.2499999999999991
 40
0.2812499999999993
 40
0.2812499999999993
 40
0.3124999999999996
 40
0.3124999999999996
 40
0.3281249999999994
 40
0.3281249999999994
 40
0.3437499999999993
 40
0.3437499999999993
 40
0.3593749999999992
 40
0.3593749999999992
 40
0.374999999999999
 40
0.374999999999999
 40
0.4062499999999991
 40
0.4062499999999991
 40
0.4374999999999991
 40
0.4374999999999991
 40
0.4687499999999991
 40
0.4687499999999991
 40
0.499999999999999
 40
0.499999999999999
 40
0.515624999999999
 40
0.515624999999999
 40
0.531249999999999
 40
0.531249999999999
 40
0.5468749999999989
 40
0.5468749999999989
 40
0.5624999999999989
 40
0.5624999999999989
 40
0.5781249999999989
 40
0.5781249999999989
 40
0.5937499999999989
 40
0.5937499999999989
 40
0.624999999999999
 40
0.624999999999999
 40
0.6562499999999992
 40
0.6562499999999992
 40
0.6718749999999993
 40
0.6718749999999993
 40
0.6874999999999993
 40
0.6874999999999993
 40
0.7187499999999994
 40
0.7187499999999994
 40
0.7499999999999994
 40
0.7499999999999994
 40
0.8124999999999994
 40
0.8124999999999994
 40
0.8437499999999993
 40
0.8437499999999993
 40
0.8749999999999993
 40
0.8749999999999993
 40
0.8906249999999996
 40
0.8906249999999996
 40
0.9062499999999997
 40
0.9062499999999997
 40
0.9218749999999999
 40
0.9218749999999999
 40
0.9375000000000001
 40
0.9375000000000001
 40
0.96875
 40
0.96875
 40
1.0
 40
1.0
 40
1.0
 40
1.0
 10
200.9966130195896
 20
102.7441295863196
 30
0.0
 10
200.9193471592918
 20
102.9291503721788
 30
0.0
 10
200.8677250129911
 20
103.1212301331231
 30
0.0
 10
200.8082068066811
 20
103.5173573097087
 30
0.0
 10
200.8014810653305
 20
103.7167201258029
 30
0.0
 10
200.8291569466495
 20
104.106799953027
 30
0.0
 10
200.8635267720095
 20
104.2983183551153
 30
0.0
 10
200.9724475227364
 20
104.6633296475152
 30
0.0
 10
201.0469921651495
 20
104.8410043071517
 30
0.0
 10
201.2056384860498
 20
105.0885894105902
 30
0.0
 10
201.2669970114743
 20
105.1679875677894
 30
0.0
 10
201.4086296237828
 20
105.3104078764821
 30
0.0
 10
201.4885878365546
 20
105.3720562953676
 30
0.0
 10
201.6534572572102
 20
105.4690015658434
 30
0.0
 10
201.737644801318
 20
105.5049247733106
 30
0.0
 10
201.9037596415876
 20
105.5601720770942
 30
0.0
 10
201.9872670515006
 20
105.5800378619741
 30
0.0
 10
202.2352191592559
 20
105.6235583295624
 30
0.0
 10
202.3996735098464
 20
105.6324656074905
 30
0.0
 10
202.7366390738042
 20
105.6225070853305
 30
0.0
 10
202.910367275403
 20
105.6026748881875
 30
0.0
 10
203.2598451574692
 20
105.5331621042935
 30
0.0
 10
203.4360168750636
 20
105.4837865064364
 30
0.0
 10
203.7942737266888
 20
105.3471628713457
 30
0.0
 10
203.970788918643
 20
105.2619369493968
 30
0.0
 10
204.2263618206691
 20
105.1019009013779
 30
0.0
 10
204.3084800736516
 20
105.0439862304419
 30
0.0
 10
204.4634179157132
 20
104.9200126089053
 30
0.0
 10
204.5374981471642
 20
104.8527674230216
 30
0.0
 10
204.6711404638623
 20
104.7135457717081
 30
0.0
 10
204.7306124793649
 20
104.6419584843295
 30
0.0
 10
204.8352098003262
 20
104.4950459467402
 30
0.0
 10
204.8801139513743
 20
104.419663840044
 30
0.0
 10
204.9886748902119
 20
104.1987965662994
 30
0.0
 10
205.0286529238035
 20
104.0540800514116
 30
0.0
 10
205.0570986643262
 20
103.7891775293299
 30
0.0
 10
205.0463614776911
 20
103.6651342995447
 30
0.0
 10
204.9910476878079
 20
103.4433750962735
 30
0.0
 10
204.9466681053147
 20
103.3440344926849
 30
0.0
 10
204.8340112909449
 20
103.1670481861124
 30
0.0
 10
204.7660283921749
 20
103.0903469465875
 30
0.0
 10
204.6567511424023
 20
102.9993296015945
 30
0.0
 10
204.619030981491
 20
102.9729427719599
 30
0.0
 10
204.5437647852945
 20
102.9315477845682
 30
0.0
 10
204.5056941125588
 20
102.916291094692
 30
0.0
 10
204.4381326595263
 20
102.9068752270955
 30
0.0
 10
204.4084588786292
 20
102.9129163853231
 30
0.0
 10
204.3714142413504
 20
102.9612739091123
 30
0.0
 10
204.3653414252456
 20
103.0042600276303
 30
0.0
 10
204.3718671674803
 20
103.1158188874106
 30
0.0
 10
204.3832475536433
 20
103.1835429301715
 30
0.0
 10
204.4090981523449
 20
103.3297796850287
 30
0.0
 10
204.4235457773215
 20
103.4079030238163
 30
0.0
 10
204.4628912458116
 20
103.6529315678599
 30
0.0
 10
204.4836389907
 20
103.8315489126007
 30
0.0
 10
204.4947407671356
 20
104.1989908275499
 30
0.0
 10
204.4856265771203
 20
104.3921280185543
 30
0.0
 10
204.4422067594873
 20
104.6814711396966
 30
0.0
 10
204.4229019213162
 20
104.7777469402334
 30
0.0
 10
204.3732875334759
 20
104.9697804539224
 30
0.0
 10
204.3425843185341
 20
105.0664816765227
 30
0.0
 10
204.2343730146657
 20
105.3467191031031
 30
0.0
 10
204.1412525031536
 20
105.5215583045862
 30
0.0
 10
203.9068559180664
 20
105.839577430739
 30
0.0
 10
203.7724481593209
 20
105.9730974238912
 30
0.0
 10
203.324493402522
 20
106.2930220734205
 30
0.0
 10
202.9893823546426
 20
106.3799177699084
 30
0.0
 10
202.5031718794447
 20
106.3573460560526
 30
0.0
 10
202.3454945785611
 20
106.3255093515624
 30
0.0
 10
202.0311518429009
 20
106.2186198304977
 30
0.0
 10
201.8788204263718
 20
106.144820077626
 30
0.0
 10
201.6419514954889
 20
106.0030822395326
 30
0.0
 10
201.5622883005012
 20
105.9510540759458
 30
0.0
 10
201.3978185244804
 20
105.8388990489173
 30
0.0
 10
201.3143613053393
 20
105.7799598080436
 30
0.0
 10
201.1531512067358
 20
105.6657290226561
 30
0.0
 10
201.077764594741
 20
105.6119795091005
 30
0.0
 10
200.9397600758184
 20
105.5103763224555
 30
0.0
 10
200.8771058539209
 20
105.4624097981727
 30
0.0
 10
200.7013695329953
 20
105.3185497176829
 30
0.0
 10
200.6016842756105
 20
105.2234316449108
 30
0.0
 10
200.4312045771209
 20
105.0217283386318
 30
0.0
 10
200.3600202572084
 20
104.9151372775013
 30
0.0
 10
200.304475445624
 20
104.7981692660074
 30
0.0
  0
SPLINE
  5
161
330
1F
100
AcDbEntity
  8
0
  6
HIDDEN
 62
     7
370
     0
100
AcDbSpline
210
0.0
220
0.0
230
1.0
 70
     8
 71
     3
 72
    24
 73
    20
 74
     0
 42
0.00000001
 43
0.00000001
 12
1.0
 22
0.0
 32
0.0
 13
1.0
 23
0.0
 33
0.0
 40
0.0
 40
0.0
 40
0.0
 40
0.0
 40
0.1249999999999996
 40
0.1249999999999996
 40
0.2499999999999991
 40
0.2499999999999991
 40
0.3749999999999987
 40
0.3749999999999987
 40
0.4999999999999982
 40
0.4999999999999982
 40
0.6249999999999978
 40
0.6249999999999978
 40
0.7499999999999973
 40
0.7499999999999973
 40
0.8124999999999972
 40
0.8124999999999972
 40
0.8749999999999971
 40
0.8749999999999971
 40
1.0
 40
1.0
 40
1.0
 40
1.0
 10
200.304475445624
 20
104.7981692660063
 30
0.0
 10
200.2924050936314
 20
104.6527345915247
 30
0.0
 10
200.2877659649842
 20
104.5027472170189
 30
0.0
 10
200.3008685633953
 20
104.1894167853797
 30
0.0
 10
200.318675169079
 20
104.033780532062
 30
0.0
 10
200.3829680926654
 20
103.7338472327788
 30
0.0
 10
200.4298969840167
 20
103.5893549726202
 30
0.0
 10
200.5541668844674
 20
103.3196680774334
 30
0.0
 10
200.633406238423
 20
103.1902016562839
 30
0.0
 10
200.8214441951724
 20
102.950292714513
 30
0.0
 10
200.9288812820886
 20
102.8405370254155
 30
0.0
 10
201.1684590951979
 20
102.6432723218895
 30
0.0
 10
201.3000067054013
 20
102.5566923811672
 30
0.0
 10
201.5062102992472
 20
102.4563316052931
 30
0.0
 10
201.5774639761048
 20
102.4274910415208
 30
0.0
 10
201.7172603337343
 20
102.3828721915997
 30
0.0
 10
201.7862074062628
 20
102.3667782972946
 30
0.0
 10
201.9894536239096
 20
102.3363931432817
 30
0.0
 10
202.113989327826
 20
102.3409236537286
 30
0.0
 10
202.2267864242763
 20
102.3609629250252
 30
0.0
  0
LWPOLYLINE
  5
162
330
1F
100
AcDbEntity
  8
0
  6
HIDDEN
 62
     7
370
     0
100
AcDbPolyline
 90
       29
 70
   128
 43
0.0
 10
202.3120382348
 20
102.4377352014
 10
202.7722345212
 20
102.5095943632
 10
203.2093526343
 20
102.6795648076
 10
203.6014766911
 20
102.9391235943
 10
203.9289427468
 20
103.2752553738
 10
204.1753297219
 20
103.6711050701
 10
204.3282845536
 20
104.1068231725
 10
204.3801350066
 20
104.5605607369
 10
204.3282845536
 20
105.0095657856
 10
204.1753297219
 20
105.4313228969
 10
203.9289427468
 20
105.8046840635
 10
203.6014766911
 20
106.1109266748
 10
203.2093526343
 20
106.3346950841
 10
202.7722345212
 20
106.4647682515
 10
202.3120382348
 20
106.4946236593
 10
201.851843811
 20
106.422764672
 10
201.414725698
 20
106.2527941112
 10
201.0226016411
 20
105.993235441
 10
200.6951355854
 20
105.6571034287
 10
200.4487486103
 20
105.2612538488
 10
200.2957937786
 20
104.8255357464
 10
200.2439433256
 20
104.371798182
 10
200.2957937786
 20
103.9227931333
 10
200.4487486103
 20
103.5010359055
 10
200.6951355854
 20
103.1276749718
 10
201.0226016411
 20
102.8214321277
 10
201.414725698
 20
102.5976638348
 10
201.851843811
 20
102.4675907256
 10
202.3120382348
 20
102.4377352014
  0
LWPOLYLINE
  5
163
330
1F
100
AcDbEntity
  8
0
  6
HIDDEN
 62
     7
370
     0
100
AcDbPolyline
 90
       10
 70
   128
 43
0.0
 10
200.3044755677
 20
104.7981692982
 10
200.130539901
 20
104.877942199
 10
200.0178163418
 20
104.8620801457
 10
199.9725447515
 20
104.7514613756
 10
199.9972359756
 20
104.5522135255
 10
200.0905228326
 20
104.2753732336
 10
200.2472346196
 20
103.9362749589
 10
200.4586932728
 20
103.553701615
 10
200.7131846169
 20
103.1488446324
 10
200.9966121534
 20
102.74412956
  0
LWPOLYLINE
  5
164
330
1F
100
AcDbEntity
  8
0
  6
HIDDEN
 62
     7
370
     0
100
AcDbPolyline
 90
        9
 70
   128
 43
0.0
 10
201.7394406268
 20
101.8644031583
 10
201.989133797
 20
101.6351208827
 10
202.199569858
 20
101.4848324566
 10
202.3597852806
 20
101.4213674652
 10
202.4614335516
 20
101.4480322201
 10
202.4992191711
 20
101.5634375844
 10
202.4711733231
 20
101.7615712926
 10
202.378758184
 20
102.0321111582
 10
202.226786829
 20
102.3609629055
  0
LINE
  5
165
330
1F
100
AcDbEntity
  8
0
  6
HIDDEN
 62
     7
370
     0
100
AcDbLine
 10
162.2741883168
 20
91.7348512021
 30
0.0
 11
162.2741883168
 21
111.464864066
 31
0.0
  0
LINE
  5
166
330
1F
100
AcDbEntity
  8
0
  6
HIDDEN
 62
     7
370
     0
100
AcDbLine
 10
188.3435630718
 20
112.0998574925
 30
0.0
 11
188.3435630718
 21
91.0998577756
 31
0.0
  0
LINE
  5
167
330
1F
100
AcDbEntity
  8
0
  6
HIDDEN
 62
     7
370
     0
100
AcDbLine
 10
190.1241885045
 20
111.4748580885
 30
0.0
 11
190.1241885045
 21
91.7248571795
 31
0.0
  0
LINE
  5
168
330
1F
100
AcDbEntity
  8
0
  6
HIDDEN
 62
     7
370
     0
100
AcDbLine
 10
163.2241876343
 20
91.9019518924
 30
0.0
 11
167.4741878653
 21
91.9019518924
 31
0.0
  0
LINE
  5
169
330
1F
100
AcDbEntity
  8
0
  6
HIDDEN
 62
     7
370
     0
100
AcDbLine
 10
163.2241876343
 20
111.2977633756
 30
0.0
 11
163.2241876343
 21
91.9019518924
 31
0.0
  0
LINE
  5
16A
330
1F
100
AcDbEntity
  8
0
  6
HIDDEN
 62
     7
370
     0
100
AcDbLine
 10
164.9741874555
 20
111.2977633756
 30
0.0
 11
163.2241876343
 21
111.2977633756
 31
0.0
  0
SPLINE
  5
16B
330
1F
100
AcDbEntity
  8
0
  6
HIDDEN
 62
     7
370
     0
100
AcDbSpline
210
0.0
220
0.0
230
1.0
 70
     8
 71
     3
 72
    14
 73
    10
 74
     0
 42
0.00000001
 43
0.00000001
 12
1.0
 22
0.0
 32
0.0
 13
1.0
 23
0.0
 33
0.0
 40
0.0
 40
0.0
 40
0.0
 40
0.0
 40
0.2499999999999999
 40
0.2499999999999999
 40
0.4999999999999998
 40
0.4999999999999998
 40
0.7499999999999997
 40
0.7499999999999997
 40
1.0
 40
1.0
 40
1.0
 40
1.0
 10
165.8741880396278
 20
111.6240471274344
 30
0.0
 10
165.8741880396278
 20
111.5875752629006
 30
0.0
 10
165.8518174078237
 20
111.5498395103881
 30
0.0
 10
165.7646018765755
 20
111.4747037886887
 30
0.0
 10
165.7005806704988
 20
111.4383315024666
 30
0.0
 10
165.5370953727575
 20
111.3741079633045
 30
0.0
 10
165.4377804985843
 20
111.346585000682
 30
0.0
 10
165.2179542278793
 20
111.3084128337949
 30
0.0
 10
165.0969506655701
 20
111.2977633357622
 30
0.0
 10
164.9741880396278
 20
111.2977633357622
 30
0.0
  0
LINE
  5
16C
330
1F
100
AcDbEntity
  8
0
  6
HIDDEN
 62
     7
370
     0
100
AcDbLine
 10
165.8741877893
 20
111.624047583
 30
0.0
 11
165.8741877893
 21
112.0998574925
 31
0.0
  0
SPLINE
  5
16D
330
1F
100
AcDbEntity
  8
0
  6
HIDDEN
 62
     7
370
     0
100
AcDbSpline
210
0.0
220
0.0
230
1.0
 70
     8
 71
     3
 72
    14
 73
    10
 74
     0
 42
0.00000001
 43
0.00000001
 12
1.0
 22
0.0
 32
0.0
 13
1.0
 23
0.0
 33
0.0
 40
0.0
 40
0.0
 40
0.0
 40
0.0
 40
0.2499999999999999
 40
0.2499999999999999
 40
0.4999999999999998
 40
0.4999999999999998
 40
0.7499999999999997
 40
0.7499999999999997
 40
1.0
 40
1.0
 40
1.0
 40
1.0
 10
165.8741880396278
 20
111.6240471274344
 30
0.0
 10
165.8741880396278
 20
111.5875752629006
 30
0.0
 10
165.8518174078237
 20
111.5498395103881
 30
0.0
 10
165.7646018765755
 20
111.4747037886887
 30
0.0
 10
165.7005806704988
 20
111.4383315024666
 30
0.0
 10
165.5370953727575
 20
111.3741079633045
 30
0.0
 10
165.4377804985843
 20
111.346585000682
 30
0.0
 10
165.2179542278793
 20
111.3084128337949
 30
0.0
 10
165.0969506655701
 20
111.2977633357622
 30
0.0
 10
164.9741880396278
 20
111.2977633357622
 30
0.0
  0
SPLINE
  5
16E
330
1F
100
AcDbEntity
  8
0
  6
HIDDEN
 62
     7
370
     0
100
AcDbSpline
210
0.0
220
0.0
230
1.0
 70
     8
 71
     3
 72
    14
 73
    10
 74
     0
 42
0.00000001
 43
0.00000001
 12
1.0
 22
0.0
 32
0.0
 13
1.0
 23
0.0
 33
0.0
 40
0.0
 40
0.0
 40
0.0
 40
0.0
 40
0.2500000000000003
 40
0.2500000000000003
 40
0.5000000000000002
 40
0.5000000000000002
 40
0.7500000000000001
 40
0.7500000000000001
 40
1.0
 40
1.0
 40
1.0
 40
1.0
 10
167.4741880396278
 20
91.90195193226585
 30
0.0
 10
167.5967934630143
 20
91.90195193226585
 30
0.0
 10
167.717136565107
 20
91.89140859035585
 30
0.0
 10
167.937436569286
 20
91.85322562973123
 30
0.0
 10
168.0370803155735
 20
91.82558436159043
 30
0.0
 10
168.1999684006344
 20
91.76165303680305
 30
0.0
 10
168.2646130574372
 20
91.7249342978392
 30
0.0
 10
168.351336022333
 20
91.65035765239355
 30
0.0
 10
168.3741880396278
 20
91.61210191851987
 30
0.0
 10
168.3741880396278
 20
91.57566814059363
 30
0.0
  0
LINE
  5
16F
330
1F
100
AcDbEntity
  8
0
  6
HIDDEN
 62
     7
370
     0
100
AcDbLine
 10
168.3741881991
 20
91.575667685
 30
0.0
 11
168.3741881991
 21
91.0998577756
 31
0.0
  0
SPLINE
  5
170
330
1F
100
AcDbEntity
  8
0
  6
HIDDEN
 62
     7
370
     0
100
AcDbSpline
210
0.0
220
0.0
230
1.0
 70
     8
 71
     3
 72
    14
 73
    10
 74
     0
 42
0.00000001
 43
0.00000001
 12
1.0
 22
0.0
 32
0.0
 13
1.0
 23
0.0
 33
0.0
 40
0.0
 40
0.0
 40
0.0
 40
0.0
 40
0.2500000000000003
 40
0.2500000000000003
 40
0.5000000000000002
 40
0.5000000000000002
 40
0.7500000000000001
 40
0.7500000000000001
 40
1.0
 40
1.0
 40
1.0
 40
1.0
 10
167.4741880396278
 20
91.90195193226585
 30
0.0
 10
167.5967934630143
 20
91.90195193226585
 30
0.0
 10
167.717136565107
 20
91.89140859035585
 30
0.0
 10
167.937436569286
 20
91.85322562973123
 30
0.0
 10
168.0370803155735
 20
91.82558436159043
 30
0.0
 10
168.1999684006344
 20
91.76165303680305
 30
0.0
 10
168.2646130574372
 20
91.7249342978392
 30
0.0
 10
168.351336022333
 20
91.65035765239355
 30
0.0
 10
168.3741880396278
 20
91.61210191851987
 30
0.0
 10
168.3741880396278
 20
91.57566814059363
 30
0.0
  0
LINE
  5
171
330
1F
100
AcDbEntity
  8
0
  6
HIDDEN
 62
     7
370
     0
100
AcDbLine
 10
163.2241876343
 20
91.9019518924
 30
0.0
 11
163.2241876343
 21
111.2977633756
 31
0.0
  0
LINE
  5
172
330
1F
100
AcDbEntity
  8
0
  6
HIDDEN
 62
     7
370
     0
100
AcDbLine
 10
165.8741877893
 20
112.5998575744
 30
0.0
 11
165.8741877893
 21
115.1573820543
 31
0.0
  0
LINE
  5
173
330
1F
100
AcDbEntity
  8
0
  6
HIDDEN
 62
     7
370
     0
100
AcDbLine
 10
168.3741881991
 20
90.5998576936
 30
0.0
 11
168.3741881991
 21
87.996281175
 31
0.0
  0
LINE
  5
174
330
1F
100
AcDbEntity
  8
0
  6
HIDDEN
 62
     7
370
     0
100
AcDbLine
 10
163.2241876343
 20
112.5998575744
 30
0.0
 11
163.2241876343
 21
114.4798579198
 31
0.0
  0
LINE
  5
175
330
1F
100
AcDbEntity
  8
0
  6
HIDDEN
 62
     7
370
     0
100
AcDbLine
 10
162.2741883168
 20
112.5998575744
 30
0.0
 11
162.2741883168
 21
113.529857671
 31
0.0
  0
LINE
  5
176
330
1F
100
AcDbEntity
  8
0
  6
HIDDEN
 62
     7
370
     0
100
AcDbLine
 10
163.2241876343
 20
90.5998576936
 30
0.0
 11
163.2241876343
 21
88.7788575646
 31
0.0
  0
LINE
  5
177
330
1F
100
AcDbEntity
  8
0
  6
HIDDEN
 62
     7
370
     0
100
AcDbLine
 10
162.2741883168
 20
90.5998576936
 30
0.0
 11
162.2741883168
 21
89.7288578135
 31
0.0
  0
LINE
  5
178
330
1F
100
AcDbEntity
  8
0
  6
HIDDEN
 62
     7
370
     0
100
AcDbLine
 10
195.4741877982
 20
107.8498577271
 30
0.0
 11
195.4741877982
 21
95.3498575409
 31
0.0
  0
LINE
  5
179
330
1F
100
AcDbEntity
  8
0
  6
HIDDEN
 62
     7
370
     0
100
AcDbLine
 10
197.9741872767
 20
107.8498577271
 30
0.0
 11
197.9741872767
 21
95.3498575409
 31
0.0
  0
LINE
  5
17A
330
1F
100
AcDbEntity
  8
0
  6
HIDDEN
 62
     7
370
     0
100
AcDbLine
 10
190.6241876552
 20
107.0998576042
 30
0.0
 11
190.6241876552
 21
96.0998576638
 31
0.0
  0
LINE
  5
17B
330
1F
100
AcDbEntity
  8
0
  6
HIDDEN
 62
     7
370
     0
100
AcDbLine
 10
190.1241885045
 20
95.5998575819
 30
0.0
 11
190.1241885045
 21
107.5998576862
 31
0.0
  0
LINE
  5
17C
330
1F
100
AcDbEntity
  8
0
  6
HIDDEN
 62
     7
370
     0
100
AcDbLine
 10
190.1241885045
 20
81.6248734054
 30
0.0
 11
190.1241885045
 21
84.6998584029
 31
0.0
  0
LINE
  5
17D
330
1F
100
AcDbEntity
  8
0
  6
HIDDEN
 62
     7
370
     0
100
AcDbLine
 10
194.6241883108
 20
84.6998584029
 30
0.0
 11
190.1241885045
 21
84.6998584029
 31
0.0
  0
LINE
  5
17E
330
1F
100
AcDbEntity
  8
0
  6
HIDDEN
 62
     7
370
     0
100
AcDbLine
 10
197.1694100195
 20
84.6998584029
 30
0.0
 11
194.6241883108
 21
84.6998584029
 31
0.0
  0
LINE
  5
17F
330
1F
100
AcDbEntity
  8
0
  6
HIDDEN
 62
     7
370
     0
100
AcDbLine
 10
197.1341883311
 20
84.4869785515
 30
0.0
 11
197.1341883311
 21
84.1707349327
 31
0.0
  0
LINE
  5
180
330
1F
100
AcDbEntity
  8
0
  6
HIDDEN
 62
     7
370
     0
100
AcDbLine
 10
202.1241886089
 20
84.6998584029
 30
0.0
 11
199.1789647857
 21
84.6998584029
 31
0.0
  0
LINE
  5
181
330
1F
100
AcDbEntity
  8
0
  6
HIDDEN
 62
     7
370
     0
100
AcDbLine
 10
199.2141874054
 20
84.1707349327
 30
0.0
 11
199.2141874054
 21
84.4869785515
 31
0.0
  0
LINE
  5
182
330
1F
100
AcDbEntity
  8
0
  6
HIDDEN
 62
     7
370
     0
100
AcDbLine
 10
202.1241886089
 20
84.6998584029
 30
0.0
 11
202.1241886089
 21
82.9958249387
 31
0.0
  0
LINE
  5
183
330
1F
100
AcDbEntity
  8
0
  6
HIDDEN
 62
     7
370
     0
100
AcDbLine
 10
195.4741877982
 20
96.0998576638
 30
0.0
 11
195.4741877982
 21
107.0998576042
 31
0.0
  0
ELLIPSE
  5
184
330
1F
100
AcDbEntity
  8
0
  6
HIDDEN
 62
     7
370
     0
100
AcDbEllipse
 10
160.1684212999
 20
101.599857634
 30
0.0
 11
12.26424774976735
 21
0.0
 31
0.0
210
0.0
220
0.0
230
1.0
 40
0.8164965809
 41
1.318982952866322
 42
1.398241670070614
  0
LINE
  5
185
330
1F
100
AcDbEntity
  8
0
  6
HIDDEN
 62
     7
370
     0
100
AcDbLine
 10
162.2741883168
 20
112.5998575744
 30
0.0
 11
162.2741883168
 21
111.464864066
 31
0.0
  0
ELLIPSE
  5
186
330
1F
100
AcDbEntity
  8
0
  6
HIDDEN
 62
     7
370
     0
100
AcDbEllipse
 10
160.1684212999
 20
101.599857634
 30
0.0
 11
12.26424774976735
 21
0.0
 31
0.0
210
0.0
220
0.0
230
1.0
 40
0.8164965809
 41
4.884943637108984
 42
4.964202354313276
  0
LINE
  5
187
330
1F
100
AcDbEntity
  8
0
  6
HIDDEN
 62
     7
370
     0
100
AcDbLine
 10
162.2741883168
 20
90.5998576936
 30
0.0
 11
162.2741883168
 21
91.7348512021
 31
0.0
  0
LINE
  5
188
330
1F
100
AcDbEntity
  8
0
  6
HIDDEN
 62
     7
370
     0
100
AcDbLine
 10
202.1242500761
 20
118.4998568651
 30
0.0
 11
198.9658427903
 21
118.4998568651
 31
0.0
  0
LINE
  5
189
330
1F
100
AcDbEntity
  8
0
  6
HIDDEN
 62
     7
370
     0
100
AcDbLine
 10
199.2141874054
 20
119.3135347721
 30
0.0
 11
199.2141874054
 21
119.0024618563
 31
0.0
  0
LINE
  5
18A
330
1F
100
AcDbEntity
  8
0
  6
HIDDEN
 62
     7
370
     0
100
AcDbLine
 10
202.1241886089
 20
118.5113922265
 30
0.0
 11
202.1241886089
 21
120.470734736
 31
0.0
  0
LINE
  5
18B
330
1F
100
AcDbEntity
  8
0
  6
HIDDEN
 62
     7
370
     0
100
AcDbLine
 10
197.3825320149
 20
118.4998568651
 30
0.0
 11
194.6241883108
 21
118.4998568651
 31
0.0
  0
LINE
  5
18C
330
1F
100
AcDbEntity
  8
0
  6
HIDDEN
 62
     7
370
     0
100
AcDbLine
 10
197.1341883311
 20
119.0024618563
 30
0.0
 11
197.1341883311
 21
119.3135347721
 31
0.0
  0
LINE
  5
18D
330
1F
100
AcDbEntity
  8
0
  6
HIDDEN
 62
     7
370
     0
100
AcDbLine
 10
194.6241883108
 20
118.4998568651
 30
0.0
 11
190.1241885045
 21
118.4998568651
 31
0.0
  0
LINE
  5
18E
330
1F
100
AcDbEntity
  8
0
  6
HIDDEN
 62
     7
370
     0
100
AcDbLine
 10
168.3741881991
 20
90.5998576936
 30
0.0
 11
168.3741881991
 21
91.575667685
 31
0.0
  0
LINE
  5
18F
330
1F
100
AcDbEntity
  8
0
  6
HIDDEN
 62
     7
370
     0
100
AcDbLine
 10
163.2241876343
 20
90.5998576936
 30
0.0
 11
163.2241876343
 21
91.9019518924
 31
0.0
  0
LINE
  5
190
330
1F
100
AcDbEntity
  8
0
  6
HIDDEN
 62
     7
370
     0
100
AcDbLine
 10
163.2241876343
 20
112.5998575744
 30
0.0
 11
163.2241876343
 21
111.2977633756
 31
0.0
  0
LINE
  5
191
330
1F
100
AcDbEntity
  8
0
  6
HIDDEN
 62
     7
370
     0
100
AcDbLine
 10
165.8741877893
 20
112.5998575744
 30
0.0
 11
165.8741877893
 21
111.624047583
 31
0.0
  0
LINE
  5
192
330
1F
100
AcDbEntity
  8
0
  6
HIDDEN
 62
     7
370
     0
100
AcDbLine
 10
226.1245892862
 20
124.667097306
 30
0.0
 11
223.9726157406
 21
117.8478174415
 31
0.0
  0
LINE
  5
193
330
1F
100
AcDbEntity
  8
0
  6
HIDDEN
 62
     7
370
     0
100
AcDbLine
 10
223.9726157406
 20
117.8478174415
 30
0.0
 11
223.9417181829
 21
117.8381596264
 31
0.0
  0
LINE
  5
194
330
1F
100
AcDbEntity
  8
0
  6
HIDDEN
 62
     7
370
     0
100
AcDbLine
 10
223.4131330171
 20
114.4972373304
 30
0.0
 11
233.0785924116
 21
117.5182354209
 31
0.0
  0
LINE
  5
195
330
1F
100
AcDbEntity
  8
0
  6
HIDDEN
 62
     7
370
     0
100
AcDbLine
 10
233.0785924116
 20
117.5182354209
 30
0.0
 11
233.0688619533
 21
117.4873956052
 31
0.0
  0
LINE
  5
196
330
1F
100
AcDbEntity
  8
0
  6
HIDDEN
 62
     7
370
     0
100
AcDbLine
 10
226.0936917284
 20
124.6574394909
 30
0.0
 11
226.1245892862
 21
124.667097306
 31
0.0
  0
LINE
  5
197
330
1F
100
AcDbEntity
  8
0
  6
HIDDEN
 62
     7
370
     0
100
AcDbLine
 10
217.5761134842
 20
83.5998584089
 30
0.0
 11
217.5761134842
 21
101.599857634
 31
0.0
  0
SPLINE
  5
198
330
1F
100
AcDbEntity
  8
0
  6
HIDDEN
 62
     7
370
     0
100
AcDbSpline
210
0.0
220
0.0
230
1.0
 70
     8
 71
     3
 72
    10
 73
     6
 74
     0
 42
0.00000001
 43
0.00000001
 12
1.0
 22
0.0
 32
0.0
 13
1.0
 23
0.0
 33
0.0
 40
0.0
 40
0.0
 40
0.0
 40
0.0
 40
0.5
 40
0.5
 40
1.0
 40
1.0
 40
1.0
 40
1.0
 10
218.4944237269427
 20
113.2241566792086
 30
0.0
 10
218.2143928232421
 20
111.2977326427088
 30
0.0
 10
217.9827439832926
 20
109.3671329076257
 30
0.0
 10
217.6629048912125
 20
105.4935519932735
 30
0.0
 10
217.5761118282745
 20
103.5504502271489
 30
0.0
 10
217.5761118282745
 20
101.599857634014
 30
0.0
  0
SPLINE
  5
199
330
1F
100
AcDbEntity
  8
0
  6
HIDDEN
 62
     7
370
     0
100
AcDbSpline
210
0.0
220
0.0
230
1.0
 70
     8
 71
     3
 72
    18
 73
    14
 74
     0
 42
0.00000001
 43
0.00000001
 12
1.0
 22
0.0
 32
0.0
 13
1.0
 23
0.0
 33
0.0
 40
0.0
 40
0.0
 40
0.0
 40
0.0
 40
0.0960854050047541
 40
0.1921690862199025
 40
0.2910635250008478
 40
0.3899563589504986
 40
0.4855961083236521
 40
0.5812348889992858
 40
0.6797773342710524
 40
0.7783193966468059
 40
0.8940487660589013
 40
0.9009301090157192
 40
0.9999999999999999
 40
0.9999999999999999
 40
0.9999999999999999
 40
0.9999999999999999
 10
218.4944236198337
 20
113.2241566237868
 30
0.0
 10
218.4742333420181
 20
113.74645029669
 30
0.0
 10
218.4338531486041
 20
114.791028272453
 30
0.0
 10
218.3825407091119
 20
116.2242929695363
 30
0.0
 10
218.3385094736448
 20
117.5442268014357
 30
0.0
 10
218.3032534939411
 20
118.7137687828394
 30
0.0
 10
218.276855336593
 20
119.7179691699712
 30
0.0
 10
218.2589571524903
 20
120.5624970560986
 30
0.0
 10
218.2493160032579
 20
121.2521572671324
 30
0.0
 10
218.2495515788481
 20
121.7772073414478
 30
0.0
 10
218.253677770809
 20
122.0686888367616
 30
0.0
 10
218.2684854579795
 20
122.1368479267228
 30
0.0
 10
218.2754099106081
 20
122.1724175210108
 30
0.0
 10
218.2818846324355
 20
122.2056769338311
 30
0.0
  0
ELLIPSE
  5
19A
330
1F
100
AcDbEntity
  8
0
  6
HIDDEN
 62
     7
370
     0
100
AcDbEllipse
 10
227.9981649439
 20
101.599857634
 30
0.0
 11
5.731116147358962
 21
17.99903516144771
 31
0.0
210
0.0
220
0.0
230
1.0
 40
0.0325187276
 41
1.581150323188877
 42
3.151946649984276
  0
SPLINE
  5
19B
330
1F
100
AcDbEntity
  8
0
  6
HIDDEN
 62
     7
370
     0
100
AcDbSpline
210
0.0
220
0.0
230
1.0
 70
     8
 71
     3
 72
    35
 73
    31
 74
     0
 42
0.00000001
 43
0.00000001
 12
1.0
 22
0.0
 32
0.0
 13
1.0
 23
0.0
 33
0.0
 40
-0.0968719547595006
 40
-0.0666583833390638
 40
-0.0343746550663528
 40
0.0
 40
0.0402441098602218
 40
0.0744787394150458
 40
0.102701076922835
 40
0.1249180007539461
 40
0.1620538085088403
 40
0.2036866663220331
 40
0.2499064830388325
 40
0.2843401434852735
 40
0.3106265384480303
 40
0.3287516969918892
 40
0.3698185885315884
 40
0.4071583744141671
 40
0.4519491139953024
 40
0.5000414814625184
 40
0.5203027018300285
 40
0.5628788417857504
 40
0.5977565761193747
 40
0.6256573786661428
 40
0.686051351246162
 40
0.7499481278641021
 40
0.7710338013047724
 40
0.8124324456481478
 40
0.8472054201757163
 40
0.8749589023494395
 40
0.9031280452404993
 40
0.9333416166609361
 40
0.965625344933647
 40
0.9999999999999999
 40
1.040244109860222
 40
1.074478739415046
 40
1.102701076922835
 10
174.0179813334474
 20
87.35900826832
 30
0.0
 10
174.2566239804863
 20
87.39557878612116
 30
0.0
 10
174.6030104503825
 20
87.43599304654465
 30
0.0
 10
175.0077331581686
 20
87.46536711262307
 30
0.0
 10
175.3813512830661
 20
87.48257319113372
 30
0.0
 10
175.7900186759899
 20
87.48776355456599
 30
0.0
 10
176.2801149279596
 20
87.46283604694109
 30
0.0
 10
176.8785052801994
 20
87.4020183287512
 30
0.0
 10
177.4136314697903
 20
87.31450579075037
 30
0.0
 10
177.8078877787819
 20
87.23074891930071
 30
0.0
 10
178.0478168039648
 20
87.17286635941393
 30
0.0
 10
178.2615985526375
 20
87.1148534977228
 30
0.0
 10
178.429366368902
 20
87.06831930324898
 30
0.0
 10
178.4998299899316
 20
87.04625836628885
 30
0.0
 10
178.4103047975881
 20
87.07503510228766
 30
0.0
 10
178.1774683033225
 20
87.1365972915703
 30
0.0
 10
177.8580341508615
 20
87.22053796130572
 30
0.0
 10
177.5059426062637
 20
87.29553061090628
 30
0.0
 10
177.0582420479997
 20
87.37330530467148
 30
0.0
 10
176.4913685128246
 20
87.45018969529296
 30
0.0
 10
175.7385183008802
 20
87.49547890403852
 30
0.0
 10
175.0673468535758
 20
87.47800540671425
 30
0.0
 10
174.5825537637277
 20
87.43323628268875
 30
0.0
 10
174.2681970583887
 20
87.3976871144054
 30
0.0
 10
174.0333631066354
 20
87.36200114717971
 30
0.0
 10
173.9084192123147
 20
87.33921871542057
 30
0.0
 10
173.8615971823329
 20
87.33223855345028
 30
0.0
 10
173.8931253254204
 20
87.33919580642608
 30
0.0
 10
174.0179813334474
 20
87.35900826832
 30
0.0
 10
174.2566239804863
 20
87.39557878612116
 30
0.0
 10
174.6030104503825
 20
87.43599304654465
 30
0.0
  0
SPLINE
  5
19C
330
1F
100
AcDbEntity
  8
0
  6
HIDDEN
 62
     7
370
     0
100
AcDbSpline
210
0.0
220
0.0
230
1.0
 70
     8
 71
     3
 72
    35
 73
    31
 74
     0
 42
0.00000001
 43
0.00000001
 12
1.0
 22
0.0
 32
0.0
 13
1.0
 23
0.0
 33
0.0
 40
-0.1243197192419421
 40
-0.1014876450686309
 40
-0.0608470324374216
 40
0.0
 40
0.0343752282034998
 40
0.06664410493777
 40
0.0968273219162002
 40
0.1249505624682888
 40
0.152666254694978
 40
0.1874715331004942
 40
0.2288808119705798
 40
0.2500285047284304
 40
0.3139875933197626
 40
0.3744837005593567
 40
0.4023317688239968
 40
0.4371113644499154
 40
0.4795885530026773
 40
0.499790401118691
 40
0.5479907717246938
 40
0.5929884907782011
 40
0.6398024291144515
 40
0.6945156081854151
 40
0.728510232295924
 40
0.7625225324122133
 40
0.7965529092023899
 40
0.8145533850530493
 40
0.833722924435114
 40
0.8540905233807928
 40
0.8756802807580579
 40
0.898512354931369
 40
0.9391529675625784
 40
1.0
 40
1.0343752282035
 40
1.06664410493777
 40
1.0968273219162
 10
174.7735465328297
 20
115.7460435219921
 30
0.0
 10
174.3020853000377
 20
115.7969272248666
 30
0.0
 10
174.018163541235
 20
115.8406415877492
 30
0.0
 10
173.8932204956685
 20
115.8604471511361
 30
0.0
 10
173.8616230323405
 20
115.8674336211356
 30
0.0
 10
173.9081121493365
 20
115.8604923087621
 30
0.0
 10
174.0325672297095
 20
115.8377096314873
 30
0.0
 10
174.2669169497179
 20
115.8020382882186
 30
0.0
 10
174.5812101650455
 20
115.7664882014751
 30
0.0
 10
175.0661358469588
 20
115.721717232511
 30
0.0
 10
175.7380903309412
 20
115.7042317914464
 30
0.0
 10
176.491367673734
 20
115.7494695088609
 30
0.0
 10
177.0578517207441
 20
115.8262011698357
 30
0.0
 10
177.5044452077959
 20
115.9038130908249
 30
0.0
 10
177.8558330305616
 20
115.978637257188
 30
0.0
 10
178.17572495799
 20
116.0625946393917
 30
0.0
 10
178.4097944204158
 20
116.1241825390693
 30
0.0
 10
178.5065589019091
 20
116.1555845154993
 30
0.0
 10
178.4010928790226
 20
116.1215631528831
 30
0.0
 10
178.1016593420812
 20
116.0388079688494
 30
0.0
 10
177.7022135196061
 20
115.9490175045681
 30
0.0
 10
177.3014481556155
 20
115.8758642858523
 30
0.0
 10
176.921499486509
 20
115.8086287093006
 30
0.0
 10
176.5905138029514
 20
115.7608898653915
 30
0.0
 10
176.3154298464955
 20
115.7361167260244
 30
0.0
 10
176.0201951772619
 20
115.7198067143606
 30
0.0
 10
175.7094605963814
 20
115.7130452920479
 30
0.0
 10
175.312926277803
 20
115.7150678106441
 30
0.0
 10
174.7735465328297
 20
115.7460435219921
 30
0.0
 10
174.3020853000377
 20
115.7969272248666
 30
0.0
 10
174.018163541235
 20
115.8406415877492
 30
0.0
  0
SPLINE
  5
19D
330
1F
100
AcDbEntity
  8
0
  6
HIDDEN
 62
     7
370
     0
100
AcDbSpline
210
0.0
220
0.0
230
1.0
 70
     8
 71
     3
 72
    64
 73
    60
 74
     0
 42
0.00000001
 43
0.00000001
 12
1.0
 22
0.0
 32
0.0
 13
1.0
 23
0.0
 33
0.0
 40
-0.0312500000000001
 40
-0.0312500000000001
 40
0.0
 40
0.0
 40
0.0624999999999997
 40
0.0624999999999997
 40
0.1249999999999995
 40
0.1249999999999995
 40
0.1874999999999992
 40
0.1874999999999992
 40
0.2187499999999993
 40
0.2187499999999993
 40
0.2499999999999993
 40
0.2499999999999993
 40
0.2812499999999994
 40
0.2812499999999994
 40
0.3124999999999994
 40
0.3124999999999994
 40
0.3437499999999994
 40
0.3437499999999994
 40
0.3749999999999994
 40
0.3749999999999994
 40
0.4062499999999995
 40
0.4062499999999995
 40
0.4374999999999996
 40
0.4374999999999996
 40
0.4687499999999996
 40
0.4687499999999996
 40
0.4999999999999997
 40
0.4999999999999997
 40
0.5312499999999998
 40
0.5312499999999998
 40
0.5624999999999999
 40
0.5624999999999999
 40
0.5937499999999998
 40
0.5937499999999998
 40
0.6249999999999998
 40
0.6249999999999998
 40
0.6562499999999998
 40
0.6562499999999998
 40
0.6874999999999998
 40
0.6874999999999998
 40
0.7187499999999998
 40
0.7187499999999998
 40
0.7499999999999997
 40
0.7499999999999997
 40
0.7812499999999997
 40
0.7812499999999997
 40
0.8124999999999997
 40
0.8124999999999997
 40
0.8437499999999997
 40
0.8437499999999997
 40
0.8749999999999997
 40
0.8749999999999997
 40
0.9062499999999998
 40
0.9062499999999998
 40
0.9374999999999998
 40
0.9374999999999998
 40
0.9687499999999999
 40
0.9687499999999999
 40
1.0
 40
1.0
 40
1.0625
 40
1.0625
 10
204.3538075406437
 20
99.22033416484645
 30
0.0
 10
204.804308153383
 20
99.22033416484645
 30
0.0
 10
205.0877215623682
 20
99.25354957509897
 30
0.0
 10
205.5965253924537
 20
99.37394741148671
 30
0.0
 10
205.829921161963
 20
99.46339233962367
 30
0.0
 10
206.2447858431127
 20
99.71207129125855
 30
0.0
 10
206.4297957553475
 20
99.87370609413854
 30
0.0
 10
206.642553412555
 20
100.1829653315123
 30
0.0
 10
206.7028897426448
 20
100.298364728577
 30
0.0
 10
206.7920498917042
 20
100.5464366755837
 30
0.0
 10
206.8218100929554
 20
100.6828295742885
 30
0.0
 10
206.8439530318932
 20
100.9620899975868
 30
0.0
 10
206.8368851460803
 20
101.1077144961055
 30
0.0
 10
206.7871115748711
 20
101.398008498126
 30
0.0
 10
206.7452213576942
 20
101.5403521870122
 30
0.0
 10
206.6327163776282
 20
101.8164922938033
 30
0.0
 10
206.5640575682688
 20
101.9459867800692
 30
0.0
 10
206.4065496132783
 20
102.1912729655049
 30
0.0
 10
206.3169785966485
 20
102.3074755000834
 30
0.0
 10
206.1261940293419
 20
102.5198245933646
 30
0.0
 10
206.0243058978442
 20
102.6171993780081
 30
0.0
 10
205.8076872187599
 20
102.7962837817091
 30
0.0
 10
205.6920601568655
 20
102.8784582778984
 30
0.0
 10
205.4521712496068
 20
103.0226443967135
 30
0.0
 10
205.3276198880123
 20
103.0852016096932
 30
0.0
 10
205.0652668026071
 20
103.1885448633963
 30
0.0
 10
204.925051012013
 20
103.2299496149162
 30
0.0
 10
204.6343282010628
 20
103.2780963894647
 30
0.0
 10
204.4823255901247
 20
103.2841948915589
 30
0.0
 10
204.1886975494587
 20
103.2519490001903
 30
0.0
 10
204.045771671575
 20
103.213615833371
 30
0.0
 10
203.7839185697188
 20
103.1042380573219
 30
0.0
 10
203.6632348274674
 20
103.033574033341
 30
0.0
 10
203.4390012386382
 20
102.8680094096947
 30
0.0
 10
203.337408622315
 20
102.7747173773886
 30
0.0
 10
203.1497092889079
 20
102.568741254047
 30
0.0
 10
203.0628901841994
 20
102.4546327917754
 30
0.0
 10
202.9088159789924
 20
102.2124537854879
 30
0.0
 10
202.8415221288301
 20
102.0848623692468
 30
0.0
 10
202.7264670127801
 20
101.8158006140845
 30
0.0
 10
202.6784515077852
 20
101.6724565441038
 30
0.0
 10
202.608755399673
 20
101.3845958578354
 30
0.0
 10
202.5862348931687
 20
101.2378804005267
 30
0.0
 10
202.5686229355803
 20
100.9456675400069
 30
0.0
 10
202.5735806865351
 20
100.8042793679159
 30
0.0
 10
202.6102890083443
 20
100.5306216307881
 30
0.0
 10
202.6423575077785
 20
100.3993023346522
 30
0.0
 10
202.7293543376292
 20
100.1587072145102
 30
0.0
 10
202.7852612286141
 20
100.0465891403652
 30
0.0
 10
202.9158084853799
 20
99.84638685749155
 30
0.0
 10
202.9904092212936
 20
99.75752387844281
 30
0.0
 10
203.1589470295272
 20
99.5993696396667
 30
0.0
 10
203.250910815768
 20
99.53196128298661
 30
0.0
 10
203.4514446735007
 20
99.4172927613245
 30
0.0
 10
203.5613014023806
 20
99.36956172803127
 30
0.0
 10
203.7991264121881
 20
99.29417435032128
 30
0.0
 10
203.9278009271216
 20
99.26622073868046
 30
0.0
 10
204.2060202406649
 20
99.22915574087439
 30
0.0
 10
204.3538075406437
 20
99.22033416484645
 30
0.0
 10
204.804308153383
 20
99.22033416484645
 30
0.0
  0
LINE
  5
19E
330
1F
100
AcDbEntity
  8
0
  6
HIDDEN
 62
     7
370
     0
100
AcDbLine
 10
207.2741882423
 20
104.0998575781
 30
0.0
 11
207.2741882423
 21
99.0998576899
 31
0.0
  0
LINE
  5
19F
330
1F
100
AcDbEntity
  8
0
  6
HIDDEN
 62
     7
370
     0
100
AcDbLine
 10
197.9741872767
 20
99.0998576899
 30
0.0
 11
197.9741872767
 21
104.087030938
 31
0.0
  0
LINE
  5
1A0
330
1F
100
AcDbEntity
  8
0
  6
HIDDEN
 62
     7
370
     0
100
AcDbLine
 10
223.1407919446
 20
114.6131888536
 30
0.0
 11
233.0627003232
 21
117.7143402901
 31
0.0
  0
LINE
  5
1A1
330
1F
100
AcDbEntity
  8
0
  6
HIDDEN
 62
     7
370
     0
100
AcDbLine
 10
233.0785924116
 20
117.5182354209
 30
0.0
 11
233.0627003232
 21
117.7143402901
 31
0.0
  0
LINE
  5
1A2
330
1F
100
AcDbEntity
  8
0
  6
HIDDEN
 62
     7
370
     0
100
AcDbLine
 10
223.9726157406
 20
117.8478174415
 30
0.0
 11
224.0711608449
 21
117.5217111167
 31
0.0
  0
LINE
  5
1A3
330
1F
100
AcDbEntity
  8
0
  6
HIDDEN
 62
     7
370
     0
100
AcDbLine
 10
223.8167644957
 20
117.4421985206
 30
0.0
 11
224.0711608449
 21
117.5217111167
 31
0.0
  0
SPLINE
  5
1A4
330
1F
100
AcDbEntity
  8
0
  6
HIDDEN
 62
     7
370
     0
100
AcDbSpline
210
0.0
220
0.0
230
1.0
 70
     8
 71
     3
 72
    18
 73
    14
 74
     0
 42
0.00000001
 43
0.00000001
 12
1.0
 22
0.0
 32
0.0
 13
1.0
 23
0.0
 33
0.0
 40
0.0
 40
0.0
 40
0.0
 40
0.0
 40
0.2500000000000038
 40
0.2500000000000038
 40
0.3750000000000026
 40
0.3750000000000026
 40
0.5000000000000014
 40
0.5000000000000014
 40
0.6250000000000002
 40
0.6250000000000002
 40
0.749999999999999
 40
0.749999999999999
 40
1.0
 40
1.0
 40
1.0
 40
1.0
 10
227.8358545467532
 20
121.4976019415374
 30
0.0
 10
227.9243180455253
 20
121.6616975039595
 30
0.0
 10
228.0367896754518
 20
121.8218795572866
 30
0.0
 10
228.2832256273298
 20
122.0575950880653
 30
0.0
 10
228.3781649550792
 20
122.1341367646077
 30
0.0
 10
228.5986784419862
 20
122.2717960704526
 30
0.0
 10
228.7269078855473
 20
122.3331662781097
 30
0.0
 10
228.9941587385684
 20
122.4170261336169
 30
0.0
 10
229.1315449341195
 20
122.4386842944012
 30
0.0
 10
229.3768069153967
 20
122.4466433679048
 30
0.0
 10
229.4882060990971
 20
122.434601623031
 30
0.0
 10
229.7886325192096
 20
122.3715495115981
 30
0.0
 10
229.9495974164826
 20
122.2949339108553
 30
0.0
 10
230.0886928148774
 20
122.201740008886
 30
0.0
  0
SPLINE
  5
1A5
330
1F
100
AcDbEntity
  8
0
  6
HIDDEN
 62
     7
370
     0
100
AcDbSpline
210
0.0
220
0.0
230
1.0
 70
     8
 71
     3
 72
    18
 73
    14
 74
     0
 42
0.00000001
 43
0.00000001
 12
1.0
 22
0.0
 32
0.0
 13
1.0
 23
0.0
 33
0.0
 40
0.0
 40
0.0
 40
0.0
 40
0.0
 40
0.2499999999999952
 40
0.2499999999999952
 40
0.3749999999999959
 40
0.3749999999999959
 40
0.4999999999999968
 40
0.4999999999999968
 40
0.6249999999999976
 40
0.6249999999999976
 40
0.7499999999999983
 40
0.7499999999999983
 40
1.0
 40
1.0
 40
1.0
 40
1.0
 10
230.0886928148774
 20
122.201740008886
 30
0.0
 10
229.9263321030456
 20
122.0882180777322
 30
0.0
 10
229.7625980822015
 20
121.9746110631142
 30
0.0
 10
229.5043509932765
 20
121.8119785156155
 30
0.0
 10
229.4160812801635
 20
121.7590755766258
 30
0.0
 10
229.2275789194169
 20
121.6609217351654
 30
0.0
 10
229.1257214477435
 20
121.6158408938062
 30
0.0
 10
228.9177996402631
 20
121.5499250040293
 30
0.0
 10
228.8106526790752
 20
121.5288241677548
 30
0.0
 10
228.6060919947279
 20
121.5033132356041
 30
0.0
 10
228.5056693565012
 20
121.4976262768141
 30
0.0
 10
228.2118239096933
 20
121.4886861978232
 30
0.0
 10
228.0232107025036
 20
121.4927752537517
 30
0.0
 10
227.8358545467532
 20
121.4976019415374
 30
0.0
  0
ELLIPSE
  5
1A6
330
1F
100
AcDbEntity
  8
0
  6
HIDDEN
 62
     7
370
     0
100
AcDbEllipse
 10
217.2211293693
 20
95.6927568112
 30
0.0
 11
9.221899462990024
 21
29.070040845847
 31
0.0
210
0.0
220
0.0
230
1.0
 40
0.0279789545
 41
0.096892187150948
 42
0.1570621119416638
  0
ELLIPSE
  5
1A7
330
1F
100
AcDbEntity
  8
0
  6
HIDDEN
 62
     7
370
     0
100
AcDbEllipse
 10
217.0675095572
 20
95.6447420207
 30
0.0
 11
9.20069652800845
 21
29.03474216527693
 31
0.0
210
0.0
220
0.0
230
1.0
 40
0.072657961
 41
6.256568909028672
 42
6.343396186532015
  0
ELLIPSE
  5
1A8
330
1F
100
AcDbEntity
  8
0
  6
HIDDEN
 62
     7
370
     0
100
AcDbEllipse
 10
498.5738810071
 20
183.6312411599
 30
0.0
 11
363.8384306937201
 21
113.7198764068934
 31
0.0
210
0.0
220
0.0
230
1.0
 40
0.0655830092
 41
2.370831307950521
 42
2.428560838049651
  0
SPLINE
  5
1A9
330
1F
100
AcDbEntity
  8
0
  6
HIDDEN
 62
     7
370
     0
100
AcDbSpline
210
0.0
220
0.0
230
1.0
 70
     8
 71
     3
 72
    42
 73
    38
 74
     0
 42
0.00000001
 43
0.00000001
 12
1.0
 22
0.0
 32
0.0
 13
1.0
 23
0.0
 33
0.0
 40
0.0
 40
0.0
 40
0.0
 40
0.0
 40
0.0259859290054199
 40
0.0520820714312253
 40
0.0782927073949353
 40
0.1046220611774169
 40
0.1310743001835475
 40
0.157653534015826
 40
0.184363813658868
 40
0.2112091307722749
 40
0.2381934170890638
 40
0.2653205439165844
 40
0.2925943217365947
 40
0.3200184999009184
 40
0.3475967664190043
 40
0.3753327478334481
 40
0.4032300091795785
 40
0.4312920540249445
 40
0.4595223245846758
 40
0.4879242019084734
 40
0.516501006135169
 40
0.5452559968106151
 40
0.5741923732648974
 40
0.6033132750447755
 40
0.6326217823973863
 40
0.662120916801359
 40
0.6918136415415267
 40
0.7217028623235799
 40
0.7517914279251107
 40
0.7820821308796212
 40
0.8125777081902074
 40
0.843280842069743
 40
0.8741941607046008
 40
0.9053202390389685
 40
0.9366615995770884
 40
0.9682207132008076
 40
1.0
 40
1.0
 40
1.0
 40
1.0
 10
235.5991197861017
 20
127.3823537474965
 30
0.0
 10
235.5856626483201
 20
127.3558391940868
 30
0.0
 10
235.558691297361
 20
127.3026976318068
 30
0.0
 10
235.5142676635016
 20
127.211044196162
 30
0.0
 10
235.4668740000577
 20
127.1104021138503
 30
0.0
 10
235.4162505426477
 20
126.9998746835294
 30
0.0
 10
235.3624979060099
 20
126.8796511563386
 30
0.0
 10
235.3056185390792
 20
126.7496315381088
 30
0.0
 10
235.2456403872772
 20
126.6097976502213
 30
0.0
 10
235.1825834937561
 20
126.4601131052144
 30
0.0
 10
235.1164689793617
 20
126.3005503919693
 30
0.0
 10
235.0473165854806
 20
126.1310836564249
 30
0.0
 10
234.9751453040768
 20
125.9516907415678
 30
0.0
 10
234.8999731742413
 20
125.7623527270029
 30
0.0
 10
234.8218173038216
 20
125.5630541430385
 30
0.0
 10
234.7406938303016
 20
125.3537830018481
 30
0.0
 10
234.6566178981514
 20
125.1345308772143
 30
0.0
 10
234.5696036318137
 20
124.9052929702344
 30
0.0
 10
234.4796641099786
 20
124.6660681778241
 30
0.0
 10
234.3868113396448
 20
124.4168591593864
 30
0.0
 10
234.2910562303986
 20
124.1576724028088
 30
0.0
 10
234.1924085688229
 20
123.8885182893981
 30
0.0
 10
234.0908769930741
 20
123.6094111577273
 30
0.0
 10
233.9864689676928
 20
123.3203693664745
 30
0.0
 10
233.8791907584727
 20
123.0214153555276
 30
0.0
 10
233.7690474081628
 20
122.7125757077651
 30
0.0
 10
233.6560427101887
 20
122.3938812020845
 30
0.0
 10
233.5401791911056
 20
122.0653668928543
 30
0.0
 10
233.4214580615206
 20
121.72707208285
 30
0.0
 10
233.2998792873592
 20
121.3790406904246
 30
0.0
 10
233.1754412090729
 20
121.021320122869
 30
0.0
 10
233.0481418668343
 20
120.6539657734353
 30
0.0
 10
232.9179738955847
 20
120.2770243073961
 30
0.0
 10
232.7849436666989
 20
119.8905969145749
 30
0.0
 10
232.6489990056846
 20
119.4946010253852
 30
0.0
 10
232.5103016593457
 20
119.0896690701829
 30
0.0
 10
232.4158975379606
 20
118.8133633234364
 30
0.0
 10
232.3685313962758
 20
118.6747302112723
 30
0.0
  0
LINE
  5
1AA
330
1F
100
AcDbEntity
  8
0
  6
HIDDEN
 62
     7
370
     0
100
AcDbLine
 10
226.2022951165
 20
124.4453363624
 30
0.0
 11
235.5976076344
 21
127.381897023
 31
0.0
  0
LINE
  5
1AB
330
1F
100
AcDbEntity
  8
0
  6
HIDDEN
 62
     7
370
     0
100
AcDbLine
 10
226.3210908988
 20
124.6514082459
 30
0.0
 11
224.0711608449
 21
117.5217111167
 31
0.0
  0
LWPOLYLINE
  5
1AC
330
1F
100
AcDbEntity
  8
0
  6
HIDDEN
 62
     7
370
     0
100
AcDbPolyline
 90
       29
 70
   128
 43
0.0
 10
206.0905629316
 20
96.8914818522
 10
206.5507592181
 20
96.9633408395
 10
206.9878773311
 20
97.1333114003
 10
207.3800013879
 20
97.3928700705
 10
207.707465581
 20
97.7290020828
 10
207.9538544187
 20
98.1248516627
 10
208.1068092504
 20
98.5605695323
 10
208.1586597035
 20
99.0143073295
 10
208.1068092504
 20
99.4633121454
 10
207.9538544187
 20
99.885069606
 10
207.707465581
 20
100.2584305397
 10
207.3800013879
 20
100.5646733838
 10
206.9878773311
 20
100.7884416185
 10
206.5507592181
 20
100.9185147277
 10
206.0905629316
 20
100.9483702519
 10
205.6303685078
 20
100.8765111483
 10
205.1932503948
 20
100.7065406456
 10
204.801126338
 20
100.4469818008
 10
204.4736602822
 20
100.1108501377
 10
204.2272733072
 20
99.7150004414
 10
204.0743184755
 20
99.279282339
 10
204.0224680224
 20
98.8255447746
 10
204.0743184755
 20
98.3765397259
 10
204.2272733072
 20
97.9547823817
 10
204.4736602822
 20
97.581421448
 10
204.801126338
 20
97.2751788367
 10
205.1932503948
 20
97.0514104274
 10
205.6303685078
 20
96.92133726
 10
206.0905629316
 20
96.8914818522
  0
LINE
  5
1AD
330
1F
100
AcDbEntity
  8
0
  6
HIDDEN
 62
     7
370
     0
100
AcDbLine
 10
190.1241885045
 20
84.6998584029
 30
0.0
 11
194.6241883108
 21
84.6998584029
 31
0.0
  0
ARC
  5
1AE
330
1F
100
AcDbEntity
  8
0
  6
HIDDEN
 62
     7
370
     0
100
AcDbCircle
 10
221.9909725364
 20
115.5098354754
 30
0.0
 40
1.250243058919896
100
AcDbArc
 50
132.5470623389
 51
287.3633894961
  0
LINE
  5
1AF
330
1F
100
AcDbEntity
  8
0
  6
HIDDEN
 62
     7
370
     0
100
AcDbLine
 10
233.0627003232
 20
117.7143402901
 30
0.0
 11
232.9841972807
 21
117.6359434184
 31
0.0
  0
LINE
  5
1B0
330
1F
100
AcDbEntity
  8
0
  6
HIDDEN
 62
     7
370
     0
100
AcDbLine
 10
224.0711608449
 20
117.5217111167
 30
0.0
 11
223.9926540771
 21
117.4433142451
 31
0.0
  0
LINE
  5
1B1
330
1F
100
AcDbEntity
  8
0
  6
HIDDEN
 62
     7
370
     0
100
AcDbLine
 10
223.9926540771
 20
117.4433142451
 30
0.0
 11
223.7979070762
 21
117.3824448642
 31
0.0
  0
CIRCLE
  5
1B2
330
1F
100
AcDbEntity
  8
0
  6
HIDDEN
 62
     7
370
     0
100
AcDbCircle
 10
229.8044793136
 20
121.2559463818
 30
0.0
 40
2.396227099312755
  0
LINE
  5
1B3
330
1F
100
AcDbEntity
  8
0
  6
HIDDEN
 62
     7
370
     0
100
AcDbLine
 10
235.948664091
 20
127.0298477766
 30
0.0
 11
235.5984607259
 21
127.38458482
 31
0.0
  0
LINE
  5
1B4
330
1F
100
AcDbEntity
  8
0
  6
HIDDEN
 62
     7
370
     0
100
AcDbLine
 10
226.2022951165
 20
124.4453363624
 30
0.0
 11
223.9926540771
 21
117.4433142451
 31
0.0
  0
LINE
  5
1B5
330
1F
100
AcDbEntity
  8
0
  6
HIDDEN
 62
     7
370
     0
100
AcDbLine
 10
222.3640838185
 20
114.3165644762
 30
0.0
 11
232.9841972807
 21
117.6359434184
 31
0.0
  0
LINE
  5
1B6
330
1F
100
AcDbEntity
  8
0
  6
HIDDEN
 62
     7
370
     0
100
AcDbLine
 10
235.9486380139
 20
127.0298198369
 30
0.0
 11
232.9841972807
 21
117.6359434184
 31
0.0
  0
CIRCLE
  5
1B7
330
1F
100
AcDbEntity
  8
0
  6
HIDDEN
 62
     7
370
     0
100
AcDbCircle
 10
229.7645023945
 20
121.2142658757
 30
0.0
 40
1.646662588502085
  0
LINE
  5
1B8
330
1F
100
AcDbEntity
  8
0
  6
HIDDEN
 62
     7
370
     0
100
AcDbLine
 10
165.8741877893
 20
112.5998575744
 30
0.0
 11
165.8741877893
 21
115.1573820543
 31
0.0
  0
LINE
  5
1B9
330
1F
100
AcDbEntity
  8
0
  6
HIDDEN
 62
     7
370
     0
100
AcDbLine
 10
168.3741881991
 20
90.5998576936
 30
0.0
 11
168.3741881991
 21
87.996281175
 31
0.0
  0
SPLINE
  5
1BA
330
1F
100
AcDbEntity
  8
0
  6
HIDDEN
 62
     7
370
     0
100
AcDbSpline
210
0.0
220
0.0
230
1.0
 70
     8
 71
     3
 72
    34
 73
    30
 74
     0
 42
0.00000001
 43
0.00000001
 12
1.0
 22
0.0
 32
0.0
 13
1.0
 23
0.0
 33
0.0
 40
0.0
 40
0.0
 40
0.0
 40
0.0
 40
0.0311826873784148
 40
0.06218164084597
 40
0.0930091195400117
 40
0.1236775882299178
 40
0.1541997064974978
 40
0.1845883168293428
 40
0.2148564316511412
 40
0.245017219346999
 40
0.2750839893199758
 40
0.3050701761630107
 40
0.3349893230219557
 40
0.364855064244183
 40
0.3946811074169413
 40
0.4244812149089896
 40
0.4542691850368155
 40
0.4840588329826894
 40
0.5138639715957902
 40
0.5642183156507973
 40
0.6139862745814357
 40
0.6632393124128638
 40
0.7120511548664844
 40
0.760497541939214
 40
0.8086559379431825
 40
0.8566052030005327
 40
0.9044252318796079
 40
0.9521965677730271
 40
1.0
 40
1.0
 40
1.0
 40
1.0
 10
232.6218684076554
 20
118.1647243241927
 30
0.0
 10
232.6696897336557
 20
118.3030257180441
 30
0.0
 10
232.7650506139429
 20
118.5788136094662
 30
0.0
 10
232.9055863645866
 20
118.9835008888424
 30
0.0
 10
233.0437185889392
 20
119.3799528564066
 30
0.0
 10
233.1793028946932
 20
119.7676286029577
 30
0.0
 10
233.3123775446459
 20
120.1466715315599
 30
0.0
 10
233.4429322469942
 20
120.5170431422515
 30
0.0
 10
233.5709696212367
 20
120.878753310508
 30
0.0
 10
233.6964888495687
 20
121.231799037636
 30
0.0
 10
233.8194900291051
 20
121.5761807557661
 30
0.0
 10
233.9399730141023
 20
121.9118979894838
 30
0.0
 10
234.0579377248981
 20
122.2389505137576
 30
0.0
 10
234.1733840693379
 20
122.5573380549301
 30
0.0
 10
234.2863119549442
 20
122.8670603505876
 30
0.0
 10
234.3967213237453
 20
123.1681172237121
 30
0.0
 10
234.5046120061589
 20
123.4605082420178
 30
0.0
 10
234.6099842752827
 20
123.7442340200121
 30
0.0
 10
234.7364367375619
 20
124.0824044752092
 30
0.0
 10
234.8807629208586
 20
124.4646066059723
 30
0.0
 10
235.0388371579666
 20
124.8773997691609
 30
0.0
 10
235.187108551864
 20
125.2584170277101
 30
0.0
 10
235.3255725794903
 20
125.6076447757749
 30
0.0
 10
235.4542325333583
 20
125.925093942005
 30
0.0
 10
235.5730688575159
 20
126.2107022374713
 30
0.0
 10
235.6821455532198
 20
126.4646762575054
 30
0.0
 10
235.7812176656912
 20
126.6862286306248
 30
0.0
 10
235.8711909472995
 20
126.8782743904077
 30
0.0
 10
235.9228036559816
 20
126.9792810911828
 30
0.0
 10
235.9486186767245
 20
127.0298014018248
 30
0.0
  0
ARC
  5
1BB
330
1F
100
AcDbEntity
  8
0
  6
HIDDEN
 62
     7
370
     0
100
AcDbCircle
 10
229.3052639961
 20
120.7522954964
 30
0.0
 40
1.647619015262903
100
AcDbArc
 50
153.1052185867
 51
61.6086352759
  0
LINE
  5
1BC
330
1F
100
AcDbEntity
  8
0
  6
HIDDEN
 62
     7
370
     0
100
AcDbLine
 10
199.2141874054
 20
119.0024618563
 30
0.0
 11
199.2141874054
 21
84.4869785515
 31
0.0
  0
SPLINE
  5
1BD
330
1F
100
AcDbEntity
  8
0
  6
HIDDEN
 62
     7
370
     0
100
AcDbSpline
210
0.0
220
0.0
230
1.0
 70
     8
 71
     3
 72
    10
 73
     6
 74
     0
 42
0.00000001
 43
0.00000001
 12
1.0
 22
0.0
 32
0.0
 13
1.0
 23
0.0
 33
0.0
 40
0.0
 40
0.0
 40
0.0
 40
0.0
 40
0.5
 40
0.5
 40
1.0
 40
1.0
 40
1.0
 40
1.0
 10
198.9658436538778
 20
118.499857634014
 30
0.0
 10
199.0432716584264
 20
118.5578169404011
 30
0.0
 10
199.1064512753129
 20
118.6348015955192
 30
0.0
 10
199.1917464545741
 20
118.8083717283916
 30
0.0
 10
199.2141880396278
 20
118.9052729908733
 30
0.0
 10
199.2141880396278
 20
119.0024616058339
 30
0.0
  0
SPLINE
  5
1BE
330
1F
100
AcDbEntity
  8
0
  6
HIDDEN
 62
     7
370
     0
100
AcDbSpline
210
0.0
220
0.0
230
1.0
 70
     8
 71
     3
 72
    10
 73
     6
 74
     0
 42
0.00000001
 43
0.00000001
 12
1.0
 22
0.0
 32
0.0
 13
1.0
 23
0.0
 33
0.0
 40
0.0
 40
0.0
 40
0.0
 40
0.0
 40
0.5
 40
0.5
 40
1.0
 40
1.0
 40
1.0
 40
1.0
 10
199.1789656390464
 20
84.69985763401404
 30
0.0
 10
199.1906777560095
 20
84.66551429682005
 30
0.0
 10
199.1994758258816
 20
84.63042175908184
 30
0.0
 10
199.2112893836537
 20
84.55874998369111
 30
0.0
 10
199.2141880396278
 20
84.52280632932585
 30
0.0
 10
199.2141880396278
 20
84.48697871198574
 30
0.0
  0
SPLINE
  5
1BF
330
1F
100
AcDbEntity
  8
0
  6
HIDDEN
 62
     7
370
     0
100
AcDbSpline
210
0.0
220
0.0
230
1.0
 70
    24
 71
     3
 72
    14
 73
    10
 74
     0
 42
0.00000001
 43
0.00000001
 12
1.0
 22
0.0
 32
0.0
 13
1.0
 23
0.0
 33
0.0
 40
0.0
 40
0.0
 40
0.0
 40
0.0
 40
0.1250000000000006
 40
0.1250000000000006
 40
0.2500000000000013
 40
0.2500000000000013
 40
0.5000000000000026
 40
0.5000000000000026
 40
1.0
 40
1.0
 40
1.0
 40
1.0
 10
198.6141880396278
 20
118.499857634014
 30
0.0
 10
198.6396292707123
 20
118.499857634014
 30
0.0
 10
198.6652435733396
 20
118.499857634014
 30
0.0
 10
198.7107200138668
 20
118.499857634014
 30
0.0
 10
198.7307232156063
 20
118.499857634014
 30
0.0
 10
198.785868407579
 20
118.499857634014
 30
0.0
 10
198.8153026261012
 20
118.499857634014
 30
0.0
 10
198.8932156386799
 20
118.499857634014
 30
0.0
 10
198.9317917392005
 20
118.499857634014
 30
0.0
 10
198.9658436538785
 20
118.499857634014
 30
0.0
  0
SPLINE
  5
1C0
330
1F
100
AcDbEntity
  8
0
  6
HIDDEN
 62
     7
370
     0
100
AcDbSpline
210
0.0
220
0.0
230
1.0
 70
    24
 71
     3
 72
    16
 73
    12
 74
     0
 42
0.00000001
 43
0.00000001
 12
1.0
 22
0.0
 32
0.0
 13
1.0
 23
0.0
 33
0.0
 40
0.0
 40
0.0
 40
0.0
 40
0.0
 40
0.0625000000000021
 40
0.0625000000000021
 40
0.1250000000000042
 40
0.1250000000000042
 40
0.2500000000000031
 40
0.2500000000000031
 40
0.500000000000001
 40
0.500000000000001
 40
1.0
 40
1.0
 40
1.0
 40
1.0
 10
198.6141880396278
 20
84.69985763401404
 30
0.0
 10
198.6484758630878
 20
84.69985763401404
 30
0.0
 10
198.6823597724094
 20
84.69985763401404
 30
0.0
 10
198.7386959652262
 20
84.69985763401404
 30
0.0
 10
198.7629578213932
 20
84.69985763401402
 30
0.0
 10
198.8272509394403
 20
84.69985763401404
 30
0.0
 10
198.860814728867
 20
84.69985763401404
 30
0.0
 10
198.9487311010896
 20
84.69985763401402
 30
0.0
 10
198.9914876438062
 20
84.69985763401404
 30
0.0
 10
199.1020323854565
 20
84.69985763401402
 30
0.0
 10
199.1490117992186
 20
84.69985763401404
 30
0.0
 10
199.1789656390464
 20
84.69985763401404
 30
0.0
  0
SPLINE
  5
1C1
330
1F
100
AcDbEntity
  8
0
  6
HIDDEN
 62
     7
370
     0
100
AcDbSpline
210
0.0
220
0.0
230
1.0
 70
     8
 71
     3
 72
    10
 73
     6
 74
     0
 42
0.00000001
 43
0.00000001
 12
1.0
 22
0.0
 32
0.0
 13
1.0
 23
0.0
 33
0.0
 40
0.0
 40
0.0
 40
0.0
 40
0.0
 40
0.5
 40
0.5
 40
1.0
 40
1.0
 40
1.0
 40
1.0
 10
197.1341880396278
 20
119.0024616058339
 30
0.0
 10
197.1341880396278
 20
118.9055265406022
 30
0.0
 10
197.1566376754733
 20
118.808467261863
 30
0.0
 10
197.2416333337413
 20
118.635283174456
 30
0.0
 10
197.3044894176717
 20
118.5582773055705
 30
0.0
 10
197.3825324253777
 20
118.499857634014
 30
0.0
  0
LINE
  5
1C2
330
1F
100
AcDbEntity
  8
0
  6
HIDDEN
 62
     7
370
     0
100
AcDbLine
 10
197.1341883311
 20
119.0024618563
 30
0.0
 11
197.1341883311
 21
84.4869785515
 31
0.0
  0
SPLINE
  5
1C3
330
1F
100
AcDbEntity
  8
0
  6
HIDDEN
 62
     7
370
     0
100
AcDbSpline
210
0.0
220
0.0
230
1.0
 70
     8
 71
     3
 72
    10
 73
     6
 74
     0
 42
0.00000001
 43
0.00000001
 12
1.0
 22
0.0
 32
0.0
 13
1.0
 23
0.0
 33
0.0
 40
0.0
 40
0.0
 40
0.0
 40
0.0
 40
0.5
 40
0.5
 40
1.0
 40
1.0
 40
1.0
 40
1.0
 10
197.1341880396278
 20
84.48697871198574
 30
0.0
 10
197.1341880396278
 20
84.52320120142649
 30
0.0
 10
197.1371577689252
 20
84.55939439868506
 30
0.0
 10
197.1490367512731
 20
84.63103289009993
 30
0.0
 10
197.1578319791138
 20
84.66590621474163
 30
0.0
 10
197.1694104402091
 20
84.69985763401404
 30
0.0
  0
SPLINE
  5
1C4
330
1F
100
AcDbEntity
  8
0
  6
HIDDEN
 62
     7
370
     0
100
AcDbSpline
210
0.0
220
0.0
230
1.0
 70
    24
 71
     3
 72
    12
 73
     8
 74
     0
 42
0.00000001
 43
0.00000001
 12
1.0
 22
0.0
 32
0.0
 13
1.0
 23
0.0
 33
0.0
 40
0.0
 40
0.0
 40
0.0
 40
0.0
 40
0.4999999999999982
 40
0.4999999999999982
 40
0.7499999999999991
 40
0.7499999999999991
 40
1.0
 40
1.0
 40
1.0
 40
1.0
 10
197.3825324253777
 20
118.499857634014
 30
0.0
 10
197.4164837508535
 20
118.499857634014
 30
0.0
 10
197.4552296090557
 20
118.499857634014
 30
0.0
 10
197.5334249560635
 20
118.499857634014
 30
0.0
 10
197.5629336477483
 20
118.499857634014
 30
0.0
 10
197.6358088091539
 20
118.499857634014
 30
0.0
 10
197.6826054432882
 20
118.499857634014
 30
0.0
 10
197.7341880396278
 20
118.499857634014
 30
0.0
  0
SPLINE
  5
1C5
330
1F
100
AcDbEntity
  8
0
  6
HIDDEN
 62
     7
370
     0
100
AcDbSpline
210
0.0
220
0.0
230
1.0
 70
    24
 71
     3
 72
    16
 73
    12
 74
     0
 42
0.00000001
 43
0.00000001
 12
1.0
 22
0.0
 32
0.0
 13
1.0
 23
0.0
 33
0.0
 40
0.0
 40
0.0
 40
0.0
 40
0.0
 40
0.5
 40
0.5
 40
0.75
 40
0.75
 40
0.875
 40
0.875
 40
0.9375
 40
0.9375
 40
1.0
 40
1.0
 40
1.0
 40
1.0
 10
197.1694104402091
 20
84.69985763401404
 30
0.0
 10
197.1991878458994
 20
84.69985763401404
 30
0.0
 10
197.2461610917632
 20
84.69985763401404
 30
0.0
 10
197.3564785511184
 20
84.69985763401402
 30
0.0
 10
197.3996230215798
 20
84.69985763401404
 30
0.0
 10
197.4882848212497
 20
84.69985763401402
 30
0.0
 10
197.5213360283792
 20
84.69985763401404
 30
0.0
 10
197.5856816128649
 20
84.69985763401404
 30
0.0
 10
197.6098267262985
 20
84.69985763401404
 30
0.0
 10
197.666445646924
 20
84.69985763401404
 30
0.0
 10
197.7000481938022
 20
84.69985763401402
 30
0.0
 10
197.7341880396279
 20
84.69985763401404
 30
0.0
  0
LINE
  5
1C6
330
1F
100
AcDbEntity
  8
0
  6
HIDDEN
 62
     7
370
     0
100
AcDbLine
 10
163.2241876343
 20
112.5998575744
 30
0.0
 11
163.2241876343
 21
114.4725982603
 31
0.0
  0
LINE
  5
1C7
330
1F
100
AcDbEntity
  8
0
  6
HIDDEN
 62
     7
370
     0
100
AcDbLine
 10
162.2741883168
 20
111.464864066
 30
0.0
 11
162.2741883168
 21
91.7348512021
 31
0.0
  0
LINE
  5
1C8
330
1F
100
AcDbEntity
  8
0
  6
HIDDEN
 62
     7
370
     0
100
AcDbLine
 10
162.2741883168
 20
112.5998575744
 30
0.0
 11
162.2741883168
 21
113.5243302715
 31
0.0
  0
LINE
  5
1C9
330
1F
100
AcDbEntity
  8
0
  6
HIDDEN
 62
     7
370
     0
100
AcDbLine
 10
163.2241876343
 20
90.5998576936
 30
0.0
 11
163.2241876343
 21
88.784771463
 31
0.0
  0
LINE
  5
1CA
330
1F
100
AcDbEntity
  8
0
  6
HIDDEN
 62
     7
370
     0
100
AcDbLine
 10
162.2741883168
 20
90.5998576936
 30
0.0
 11
162.2741883168
 21
89.7340341044
 31
0.0
  0
LINE
  5
1CB
330
1F
100
AcDbEntity
  8
0
  6
HIDDEN
 62
     7
370
     0
100
AcDbLine
 10
197.7341882432
 20
118.4998568651
 30
0.0
 11
198.6141884247
 21
118.4998568651
 31
0.0
  0
LINE
  5
1CC
330
1F
100
AcDbEntity
  8
0
  6
HIDDEN
 62
     7
370
     0
100
AcDbLine
 10
197.7341882432
 20
84.6998584029
 30
0.0
 11
198.6141884247
 21
84.6998584029
 31
0.0
  0
SPLINE
  5
1CD
330
1F
100
AcDbEntity
  8
0
  6
HIDDEN
 62
     7
370
     0
100
AcDbSpline
210
0.0
220
0.0
230
1.0
 70
     8
 71
     3
 72
     8
 73
     4
 74
     0
 42
0.00000001
 43
0.00000001
 12
1.0
 22
0.0
 32
0.0
 13
1.0
 23
0.0
 33
0.0
 40
0.0
 40
0.0
 40
0.0
 40
0.0
 40
1.0
 40
1.0
 40
1.0
 40
1.0
 10
196.1390283407343
 20
121.0870329039191
 30
0.0
 10
196.471386437124
 20
120.4962226902472
 30
0.0
 10
196.8031677086081
 20
119.9050900260019
 30
0.0
 10
197.1341880396278
 20
119.3135343295443
 30
0.0
  0
SPLINE
  5
1CE
330
1F
100
AcDbEntity
  8
0
  6
HIDDEN
 62
     7
370
     0
100
AcDbSpline
210
0.0
220
0.0
230
1.0
 70
     8
 71
     3
 72
     8
 73
     4
 74
     0
 42
0.00000001
 43
0.00000001
 12
1.0
 22
0.0
 32
0.0
 13
1.0
 23
0.0
 33
0.0
 40
0.0
 40
0.0
 40
0.0
 40
0.0
 40
1.0
 40
1.0
 40
1.0
 40
1.0
 10
199.2141880396278
 20
119.3135343295443
 30
0.0
 10
199.5452083706474
 20
119.9050900260019
 30
0.0
 10
199.8769896421315
 20
120.4962226902472
 30
0.0
 10
200.2093477385212
 20
121.0870329039191
 30
0.0
  0
SPLINE
  5
1CF
330
1F
100
AcDbEntity
  8
0
  6
HIDDEN
 62
     7
370
     0
100
AcDbSpline
210
0.0
220
0.0
230
1.0
 70
     8
 71
     3
 72
    10
 73
     6
 74
     0
 42
0.00000001
 43
0.00000001
 12
1.0
 22
0.0
 32
0.0
 13
1.0
 23
0.0
 33
0.0
 40
0.0
 40
0.0
 40
0.0
 40
0.0
 40
0.5
 40
0.5
 40
1.0
 40
1.0
 40
1.0
 40
1.0
 10
201.5241880396278
 20
121.0870329039191
 30
0.0
 10
201.6846102642272
 20
121.0870329039191
 30
0.0
 10
201.8410930648945
 20
121.0184475014133
 30
0.0
 10
202.0617466754618
 20
120.7886742320937
 30
0.0
 10
202.1241880396278
 20
120.630176030426
 30
0.0
 10
202.1241880396278
 20
120.4707346671569
 30
0.0
  0
LINE
  5
1D0
330
1F
100
AcDbEntity
  8
0
  6
HIDDEN
 62
     7
370
     0
100
AcDbLine
 10
200.2093484172
 20
121.0870337245
 30
0.0
 11
201.5241877654
 21
121.0870337245
 31
0.0
  0
LINE
  5
1D1
330
1F
100
AcDbEntity
  8
0
  6
HIDDEN
 62
     7
370
     0
100
AcDbLine
 10
202.1241886089
 20
120.470734736
 30
0.0
 11
202.1241886089
 21
82.9958249387
 31
0.0
  0
SPLINE
  5
1D2
330
1F
100
AcDbEntity
  8
0
  6
HIDDEN
 62
     7
370
     0
100
AcDbSpline
210
0.0
220
0.0
230
1.0
 70
     8
 71
     3
 72
    12
 73
     8
 74
     0
 42
0.00000001
 43
0.00000001
 12
1.0
 22
0.0
 32
0.0
 13
1.0
 23
0.0
 33
0.0
 40
0.0
 40
0.0
 40
0.0
 40
0.0
 40
0.2499999999999962
 40
0.2499999999999962
 40
0.4999999999999925
 40
0.4999999999999925
 40
1.0
 40
1.0
 40
1.0
 40
1.0
 10
201.5241880396278
 20
82.37097311098462
 30
0.0
 10
201.603953520098
 20
82.37097311098462
 30
0.0
 10
201.6843748037551
 20
82.38794870734273
 30
0.0
 10
201.8310567204176
 20
82.45242420480193
 30
0.0
 10
201.8974105299815
 20
82.49953783659653
 30
0.0
 10
202.0636146107082
 20
82.67614775058401
 30
0.0
 10
202.1241880396277
 20
82.83599662639217
 30
0.0
 10
202.1241880396278
 20
82.9958258129272
 30
0.0
  0
LINE
  5
1D3
330
1F
100
AcDbEntity
  8
0
  6
HIDDEN
 62
     7
370
     0
100
AcDbLine
 10
197.1341883311
 20
119.3135347721
 30
0.0
 11
197.1341883311
 21
84.1707349327
 31
0.0
  0
LINE
  5
1D4
330
1F
100
AcDbEntity
  8
0
  6
HIDDEN
 62
     7
370
     0
100
AcDbLine
 10
199.2141874054
 20
119.3135347721
 30
0.0
 11
199.2141874054
 21
84.1707349327
 31
0.0
  0
LINE
  5
1D5
330
1F
100
AcDbEntity
  8
0
  6
HIDDEN
 62
     7
370
     0
100
AcDbLine
 10
200.2093484172
 20
121.0870337245
 30
0.0
 11
200.2093484172
 21
82.3709726837
 31
0.0
  0
SPLINE
  5
1D6
330
1F
100
AcDbEntity
  8
0
  6
HIDDEN
 62
     7
370
     0
100
AcDbSpline
210
0.0
220
0.0
230
1.0
 70
     8
 71
     3
 72
     8
 73
     4
 74
     0
 42
0.00000001
 43
0.00000001
 12
1.0
 22
0.0
 32
0.0
 13
1.0
 23
0.0
 33
0.0
 40
0.0
 40
0.0
 40
0.0
 40
0.0
 40
1.0
 40
1.0
 40
1.0
 40
1.0
 10
196.1390283407343
 20
82.37097311098462
 30
0.0
 10
196.4717336124397
 20
82.97034478420828
 30
0.0
 10
196.8035494130132
 20
83.57021389491331
 30
0.0
 10
197.1341880396278
 20
84.17073424602431
 30
0.0
  0
SPLINE
  5
1D7
330
1F
100
AcDbEntity
  8
0
  6
HIDDEN
 62
     7
370
     0
100
AcDbSpline
210
0.0
220
0.0
230
1.0
 70
     8
 71
     3
 72
     8
 73
     4
 74
     0
 42
0.00000001
 43
0.00000001
 12
1.0
 22
0.0
 32
0.0
 13
1.0
 23
0.0
 33
0.0
 40
0.0
 40
0.0
 40
0.0
 40
0.0
 40
1.0
 40
1.0
 40
1.0
 40
1.0
 10
199.2141880396278
 20
84.17073424602431
 30
0.0
 10
199.5448266662424
 20
83.57021389491331
 30
0.0
 10
199.8766424668159
 20
82.97034478420828
 30
0.0
 10
200.2093477385212
 20
82.37097311098462
 30
0.0
  0
LINE
  5
1D8
330
1F
100
AcDbEntity
  8
0
  6
HIDDEN
 62
     7
370
     0
100
AcDbLine
 10
200.2093484172
 20
82.3709726837
 30
0.0
 11
201.5241877654
 21
82.3709726837
 31
0.0
  0
LINE
  5
1D9
330
1F
100
AcDbEntity
  8
0
  6
HIDDEN
 62
     7
370
     0
100
AcDbLine
 10
162.2741883168
 20
89.781385338
 30
0.0
 11
162.2741883168
 21
90.0523443279
 31
0.0
  0
LINE
  5
1DA
330
1F
100
AcDbEntity
  8
0
  6
HIDDEN
 62
     7
370
     0
100
AcDbLine
 10
162.2741883168
 20
113.4737715629
 30
0.0
 11
162.2741883168
 21
113.3780893442
 31
0.0
  0
SPLINE
  5
1DB
330
1F
100
AcDbEntity
  8
0
  6
HIDDEN
 62
     7
370
     0
100
AcDbSpline
210
0.0
220
0.0
230
1.0
 70
     8
 71
     3
 72
    26
 73
    22
 74
     0
 42
0.00000001
 43
0.00000001
 12
1.0
 22
0.0
 32
0.0
 13
1.0
 23
0.0
 33
0.0
 40
0.0
 40
0.0
 40
0.0
 40
0.0
 40
0.2499999999999997
 40
0.2499999999999997
 40
0.3749999999999998
 40
0.3749999999999998
 40
0.4375000000000003
 40
0.4375000000000003
 40
0.4687500000000004
 40
0.4687500000000004
 40
0.5000000000000004
 40
0.5000000000000004
 40
0.5312500000000006
 40
0.5312500000000006
 40
0.5625000000000006
 40
0.5625000000000006
 40
0.6250000000000007
 40
0.6250000000000007
 40
0.7500000000000006
 40
0.7500000000000006
 40
1.0
 40
1.0
 40
1.0
 40
1.0
 10
163.0341580860156
 20
113.9879382136269
 30
0.0
 10
162.9867699765872
 20
113.8522824716039
 30
0.0
 10
162.9291286746828
 20
113.7083210732746
 30
0.0
 10
162.8070808621395
 20
113.4655485000202
 30
0.0
 10
162.7610318543629
 20
113.3805088595709
 30
0.0
 10
162.6703785701973
 20
113.2401328865305
 30
0.0
 10
162.6360260699117
 20
113.1902215091917
 30
0.0
 10
162.5735908975212
 20
113.1136862443374
 30
0.0
 10
162.5502968787232
 20
113.0872817653505
 30
0.0
 10
162.5012443415966
 20
113.0396870000895
 30
0.0
 10
162.4768128919398
 20
113.0202443862377
 30
0.0
 10
162.43618329632
 20
112.9953366085696
 30
0.0
 10
162.4200210144688
 20
112.9892667772586
 30
0.0
 10
162.3930389703657
 20
112.9835779056648
 30
0.0
 10
162.3822894475429
 20
112.9839684137455
 30
0.0
 10
162.3542534733857
 20
112.990110760534
 30
0.0
 10
162.3413922413531
 20
113.000774766952
 30
0.0
 10
162.3103893801928
 20
113.0397875573122
 30
0.0
 10
162.2995298981236
 20
113.0758395477165
 30
0.0
 10
162.2762526421856
 20
113.1935189452156
 30
0.0
 10
162.2741880396277
 20
113.2848488455486
 30
0.0
 10
162.2741880396277
 20
113.3780890984548
 30
0.0
  0
SPLINE
  5
1DC
330
1F
100
AcDbEntity
  8
0
  6
HIDDEN
 62
     7
370
     0
100
AcDbSpline
210
0.0
220
0.0
230
1.0
 70
     8
 71
     3
 72
    24
 73
    20
 74
     0
 42
0.00000001
 43
0.00000001
 12
1.0
 22
0.0
 32
0.0
 13
1.0
 23
0.0
 33
0.0
 40
0.0
 40
0.0
 40
0.0
 40
0.0
 40
0.2499999999999907
 40
0.2499999999999907
 40
0.3749999999999865
 40
0.3749999999999865
 40
0.4374999999999853
 40
0.4374999999999853
 40
0.499999999999984
 40
0.499999999999984
 40
0.5312499999999836
 40
0.5312499999999836
 40
0.562499999999983
 40
0.562499999999983
 40
0.6249999999999846
 40
0.6249999999999846
 40
0.7499999999999892
 40
0.7499999999999892
 40
1.0
 40
1.0
 40
1.0
 40
1.0
 10
162.2741880396278
 20
90.05234443279265
 30
0.0
 10
162.2741880396278
 20
90.13725338646223
 30
0.0
 10
162.2769126680602
 20
90.21958308250913
 30
0.0
 10
162.3032699891781
 20
90.32199546992813
 30
0.0
 10
162.3154837074503
 20
90.35281256631252
 30
0.0
 10
162.3500943575827
 20
90.38191008238947
 30
0.0
 10
162.3644810679501
 20
90.3888677230281
 30
0.0
 10
162.4057295510525
 20
90.38775798175122
 30
0.0
 10
162.4342691009834
 20
90.37946457614245
 30
0.0
 10
162.4951917664946
 20
90.33488114228122
 30
0.0
 10
162.5182577366345
 20
90.31441942902391
 30
0.0
 10
162.5621536166408
 20
90.26980681074359
 30
0.0
 10
162.5830336522009
 20
90.24593073253722
 30
0.0
 10
162.640243915494
 20
90.17603363537522
 30
0.0
 10
162.6725905392704
 20
90.13045604659072
 30
0.0
 10
162.7587564827622
 20
90.00157255897184
 30
0.0
 10
162.8044205028023
 20
89.92173938183979
 30
0.0
 10
162.9249680662535
 20
89.69595857272746
 30
0.0
 10
162.9840281549546
 20
89.56112718775614
 30
0.0
 10
163.0341580860156
 20
89.43287204908862
 30
0.0
  0
LINE
  5
1DD
330
1F
100
AcDbEntity
  8
0
  6
HIDDEN
 62
     7
370
     0
100
AcDbLine
 10
162.2741883168
 20
113.3780893442
 30
0.0
 11
162.2741883168
 21
90.0523443279
 31
0.0
  0
LWPOLYLINE
  5
1DE
330
1F
100
AcDbEntity
  8
0
  6
HIDDEN
 62
     7
370
     0
100
AcDbPolyline
 90
       32
 70
   128
 43
0.0
 10
206.1322992215
 20
96.44385097
 10
206.6279006669
 20
96.515899947
 10
207.1032104561
 20
96.6838621107
 10
207.5387732604
 20
96.9408610408
 10
207.91675239
 20
97.2763746549
 10
208.2216767141
 20
97.6766678077
 10
208.4410627851
 20
98.1253522486
 10
208.5659270653
 20
98.6040583384
 10
208.5911584565
 20
99.0931882561
 10
208.5157231906
 20
99.5727167037
 10
208.3427113959
 20
100.0230117506
 10
208.0792048493
 20
100.4256383321
 10
207.7359901288
 20
100.7641129117
 10
207.3271208921
 20
101.0245782245
 10
206.8693367312
 20
101.1963708015
 10
206.3813777188
 20
101.2724574693
 10
205.8832207242
 20
101.2497232159
 10
205.3952617118
 20
101.1290987526
 10
204.9374756882
 20
100.9155225047
 10
204.5286064515
 20
100.6177382815
 10
204.1853935936
 20
100.2479373283
 10
203.921887047
 20
99.8212595741
 10
203.7488752523
 20
99.3551730216
 10
203.6734399864
 20
98.8687593062
 10
203.6986713776
 20
98.3819325493
 10
203.8235356578
 20
97.9146230538
 10
204.0429198662
 20
97.4859627467
 10
204.3478441903
 20
97.1135012378
 10
204.7258251825
 20
96.8124870715
 10
205.1613879869
 20
96.5952435081
 10
205.636697776
 20
96.4706646782
 10
206.1322992215
 20
96.44385097
  0
CIRCLE
  5
1DF
330
1F
100
AcDbEntity
  8
0
  6
HIDDEN
 62
     7
370
     0
100
AcDbCircle
 10
189.1741880396
 20
101.599857634
 30
0.0
 40
5.000000000000014
  0
LINE
  5
1E0
330
1F
100
AcDbEntity
  8
0
  6
HIDDEN
 62
     7
370
     0
100
AcDbLine
 10
232.3698969105
 20
118.6775401738
 30
0.0
 11
232.622706286
 21
118.1629844514
 31
0.0
  0
LINE
  5
1E1
330
1F
100
AcDbEntity
  8
0
  6
HIDDEN
 62
     7
370
     0
100
AcDbLine
 10
232.6218680957
 20
118.1647241619
 30
0.0
 11
227.3535513798
 21
101.599857634
 31
0.0
  0
LINE
  5
1E2
330
1F
100
AcDbEntity
  8
0
  6
HIDDEN
 62
     7
370
     0
100
AcDbLine
 10
182.1741880396
 20
85.3926562277
 30
0.0
 11
182.2683488119
 21
86.0626459625
 31
0.0
  0
LINE
  5
1E3
330
1F
100
AcDbEntity
  8
0
  6
HIDDEN
 62
     7
370
     0
100
AcDbLine
 10
182.2683488119
 20
117.1370693055
 30
0.0
 11
182.1741880396
 21
117.8070590404
 31
0.0
  0
ARC
  5
1E4
330
1F
100
AcDbEntity
  8
0
  6
HIDDEN
 62
     7
370
     0
100
AcDbCircle
 10
181.674181287
 20
86.1461504805
 30
0.0
 40
0.6000067526677343
100
AcDbArc
 50
352.0
 51
0.0
  0
ARC
  5
1E5
330
1F
100
AcDbEntity
  8
0
  6
HIDDEN
 62
     7
370
     0
100
AcDbCircle
 10
181.674181287
 20
86.1461504805
 30
0.0
 40
0.6000067526677242
100
AcDbArc
 50
0.0
 51
33.5571153394
  0
ARC
  5
1E6
330
1F
100
AcDbEntity
  8
0
  6
HIDDEN
 62
     7
370
     0
100
AcDbCircle
 10
181.674181287
 20
117.0535647875
 30
0.0
 40
0.6000067526677343
100
AcDbArc
 50
348.75
 51
8.0
  0
LWPOLYLINE
  5
1E7
330
1F
100
AcDbEntity
  8
0
  6
HIDDEN
 62
     7
370
     0
100
AcDbPolyline
 90
        3
 70
   128
 43
0.0
 10
182.2626590785
 20
116.936508989
 10
182.2285152468
 20
116.8239521366
 10
182.1741880396
 20
116.7219006029
  0
LINE
  5
1E8
330
1F
100
AcDbEntity
  8
0
  6
HIDDEN
 62
     7
370
     0
100
AcDbLine
 10
182.2741880371
 20
86.1461502072
 30
0.0
 11
182.2741880371
 21
117.0535650608
 31
0.0
  0
LINE
  5
1E9
330
1F
100
AcDbEntity
  8
0
  6
HIDDEN
 62
     7
370
     0
100
AcDbLine
 10
182.2741880371
 20
86.1461502072
 30
0.0
 11
182.2741880371
 21
117.0535650608
 31
0.0
  0
LINE
  5
1EA
330
1F
100
AcDbEntity
  8
0
  6
HIDDEN
 62
     7
370
     0
100
AcDbLine
 10
171.7068161363
 20
88.8498578724
 30
0.0
 11
173.9049627924
 21
88.8498578724
 31
0.0
  0
LINE
  5
1EB
330
1F
100
AcDbEntity
  8
0
  6
HIDDEN
 62
     7
370
     0
100
AcDbLine
 10
173.9049627924
 20
114.3498573956
 30
0.0
 11
171.7068161363
 21
114.3498573956
 31
0.0
  0
ARC
  5
1EC
330
1F
100
AcDbEntity
  8
0
  6
HIDDEN
 62
     7
370
     0
100
AcDbCircle
 10
171.7068159838
 20
89.249857634
 30
0.0
 40
0.4000000000000244
100
AcDbArc
 50
210.0
 51
270.0
  0
ARC
  5
1ED
330
1F
100
AcDbEntity
  8
0
  6
HIDDEN
 62
     7
370
     0
100
AcDbCircle
 10
171.7068159838
 20
113.949857634
 30
0.0
 40
0.4000000000000173
100
AcDbArc
 50
90.0
 51
150.0
  0
ARC
  5
1EE
330
1F
100
AcDbEntity
  8
0
  6
HIDDEN
 62
     7
370
     0
100
AcDbCircle
 10
177.9983647675
 20
93.849857634
 30
0.0
 40
4.999999999999996
100
AcDbArc
 50
275.4095190239
 51
326.6329870308
  0
ARC
  5
1EF
330
1F
100
AcDbEntity
  8
0
  6
HIDDEN
 62
     7
370
     0
100
AcDbCircle
 10
177.9983647675
 20
109.349857634
 30
0.0
 40
5.000000000000008
100
AcDbArc
 50
33.3670129692
 51
84.5879238581
  0
LINE
  5
1F0
330
1F
100
AcDbEntity
  8
0
  6
HIDDEN
 62
     7
370
     0
100
AcDbLine
 10
171.360406048
 20
114.1498577353
 30
0.0
 11
170.176837548
 21
112.0998574925
 31
0.0
  0
LINE
  5
1F1
330
1F
100
AcDbEntity
  8
0
  6
HIDDEN
 62
     7
370
     0
100
AcDbLine
 10
170.176837548
 20
91.0998577756
 30
0.0
 11
171.360406048
 21
89.0498575327
 31
0.0
  0
LINE
  5
1F2
330
1F
100
AcDbEntity
  8
0
  6
HIDDEN
 62
     7
370
     0
100
AcDbLine
 10
201.1665561715
 20
102.4177445952
 30
0.0
 11
202.0859671304
 21
101.0682007918
 31
0.0
  0
LINE
  5
1F3
330
1F
100
AcDbEntity
  8
0
  6
HIDDEN
 62
     7
370
     0
100
AcDbLine
 10
200.5765223423
 20
103.2838156252
 30
0.0
 11
200.6489345351
 21
103.1775262245
 31
0.0
  0
LINE
  5
1F4
330
1F
100
AcDbEntity
  8
0
  6
HIDDEN
 62
     7
370
     0
100
AcDbLine
 10
204.0689223925
 20
105.6171785612
 30
0.0
 11
204.0475541273
 21
105.6485431773
 31
0.0
  0
LINE
  5
1F5
330
1F
100
AcDbEntity
  8
0
  6
HIDDEN
 62
     7
370
     0
100
AcDbLine
 10
205.6647473493
 20
103.2747717845
 30
0.0
 11
204.8020092318
 21
104.5411293899
 31
0.0
  0
LINE
  5
1F6
330
1F
100
AcDbEntity
  8
0
  6
HIDDEN
 62
     7
370
     0
100
AcDbLine
 10
199.9753070542
 20
104.6693578401
 30
0.0
 11
200.2278668353
 21
102.4378278098
 31
0.0
  0
LINE
  5
1F7
330
1F
100
AcDbEntity
  8
0
  6
HIDDEN
 62
     7
370
     0
100
AcDbLine
 10
200.2278668353
 20
102.4378278098
 30
0.0
 11
202.2488964269
 21
101.4585692765
 31
0.0
  0
LINE
  5
1F8
330
1F
100
AcDbEntity
  8
0
  6
HIDDEN
 62
     7
370
     0
100
AcDbLine
 10
202.449169896
 20
101.4375739041
 30
0.0
 11
203.100965313
 21
101.899115326
 31
0.0
  0
ARC
  5
1F9
330
1F
100
AcDbEntity
  8
0
  6
HIDDEN
 62
     7
370
     0
100
AcDbCircle
 10
189.1241880396
 20
91.724857634
 30
0.0
 40
1.0
100
AcDbArc
 50
218.6821874535
 51
0.0
  0
ARC
  5
1FA
330
1F
100
AcDbEntity
  8
0
  6
HIDDEN
 62
     7
370
     0
100
AcDbCircle
 10
189.1241880396
 20
111.474857634
 30
0.0
 40
1.0
100
AcDbArc
 50
0.0
 51
141.3178125465
  0
LINE
  5
1FB
330
1F
100
AcDbEntity
  8
0
  6
HIDDEN
 62
     7
370
     0
100
AcDbLine
 10
204.6494753579
 20
102.9956303109
 30
0.0
 11
209.7948817084
 21
106.6391397771
 31
0.0
  0
LINE
  5
1FC
330
1F
100
AcDbEntity
  8
0
  6
HIDDEN
 62
     7
370
     0
100
AcDbLine
 10
201.2387373963
 20
105.7268147861
 30
0.0
 11
200.0220091561
 21
104.8652391919
 31
0.0
  0
LINE
  5
1FD
330
1F
100
AcDbEntity
  8
0
  6
HIDDEN
 62
     7
370
     0
100
AcDbLine
 10
209.8960736314
 20
111.8571548295
 30
0.0
 11
201.2387373963
 21
105.7268147861
 31
0.0
  0
LINE
  5
1FE
330
1F
100
AcDbEntity
  8
0
  6
HIDDEN
 62
     7
370
     0
100
AcDbLine
 10
168.3741881991
 20
91.0998577756
 30
0.0
 11
170.176837548
 21
91.0998577756
 31
0.0
  0
LINE
  5
1FF
330
1F
100
AcDbEntity
  8
0
  6
HIDDEN
 62
     7
370
     0
100
AcDbLine
 10
170.176837548
 20
112.0998574925
 30
0.0
 11
165.8741877893
 21
112.0998574925
 31
0.0
  0
LINE
  5
200
330
1F
100
AcDbEntity
  8
0
  6
HIDDEN
 62
     7
370
     0
100
AcDbLine
 10
182.1741880396
 20
91.0998577756
 30
0.0
 11
188.3435630718
 21
91.0998577756
 31
0.0
  0
LINE
  5
201
330
1F
100
AcDbEntity
  8
0
  6
HIDDEN
 62
     7
370
     0
100
AcDbLine
 10
188.3435630718
 20
112.0998574925
 30
0.0
 11
182.1741880396
 21
112.0998574925
 31
0.0
  0
LINE
  5
202
330
1F
100
AcDbEntity
  8
0
  6
HIDDEN
 62
     7
370
     0
100
AcDbLine
 10
195.4741877982
 20
95.3498575409
 30
0.0
 11
197.9741872767
 21
95.3498575409
 31
0.0
  0
LINE
  5
203
330
1F
100
AcDbEntity
  8
0
  6
HIDDEN
 62
     7
370
     0
100
AcDbLine
 10
197.9741872767
 20
107.8498577271
 30
0.0
 11
195.4741877982
 21
107.8498577271
 31
0.0
  0
LINE
  5
204
330
1F
100
AcDbEntity
  8
0
  6
HIDDEN
 62
     7
370
     0
100
AcDbLine
 10
190.1241885045
 20
95.5998575819
 30
0.0
 11
190.6241876552
 21
96.0998576638
 31
0.0
  0
LINE
  5
205
330
1F
100
AcDbEntity
  8
0
  6
HIDDEN
 62
     7
370
     0
100
AcDbLine
 10
190.6241876552
 20
107.0998576042
 30
0.0
 11
190.1241885045
 21
107.5998576862
 31
0.0
  0
LINE
  5
206
330
1F
100
AcDbEntity
  8
0
  6
HIDDEN
 62
     7
370
     0
100
AcDbLine
 10
190.6241876552
 20
96.0998576638
 30
0.0
 11
195.4741877982
 21
96.0998576638
 31
0.0
  0
LINE
  5
207
330
1F
100
AcDbEntity
  8
0
  6
HIDDEN
 62
     7
370
     0
100
AcDbLine
 10
195.4741877982
 20
107.0998576042
 30
0.0
 11
190.6241876552
 21
107.0998576042
 31
0.0
  0
LINE
  5
208
330
1F
100
AcDbEntity
  8
0
  6
HIDDEN
 62
     7
370
     0
100
AcDbLine
 10
190.1241885045
 20
121.599857187
 30
0.0
 11
190.1241885045
 21
118.4998568651
 31
0.0
  0
LINE
  5
209
330
1F
100
AcDbEntity
  8
0
  6
HIDDEN
 62
     7
370
     0
100
AcDbLine
 10
178.9413673816
 20
86.5585528818
 30
0.0
 11
178.4734387895
 21
87.0543899518
 31
0.0
  0
LINE
  5
20A
330
1F
100
AcDbEntity
  8
0
  6
HIDDEN
 62
     7
370
     0
100
AcDbLine
 10
173.8755339304
 20
87.3342430723
 30
0.0
 11
173.3580603743
 21
86.8384181094
 31
0.0
  0
LINE
  5
20B
330
1F
100
AcDbEntity
  8
0
  6
HIDDEN
 62
     7
370
     0
100
AcDbLine
 10
173.3574261436
 20
116.36134745
 30
0.0
 11
173.8751120413
 21
115.8654600886
 31
0.0
  0
LINE
  5
20C
330
1F
100
AcDbEntity
  8
0
  6
HIDDEN
 62
     7
370
     0
100
AcDbLine
 10
178.4727528704
 20
116.1451073867
 30
0.0
 11
178.9406567825
 21
116.6410012674
 31
0.0
  0
LINE
  5
20D
330
1F
100
AcDbEntity
  8
0
  6
HIDDEN
 62
     7
370
     0
100
AcDbLine
 10
197.9741872767
 20
99.0998576899
 30
0.0
 11
207.2741882423
 21
99.0998576899
 31
0.0
  0
LINE
  5
20E
330
1F
100
AcDbEntity
  8
0
  6
HIDDEN
 62
     7
370
     0
100
AcDbLine
 10
207.2741882423
 20
104.0998575781
 30
0.0
 11
197.9741872767
 21
104.0998575781
 31
0.0
  0
LINE
  5
20F
330
1F
100
AcDbEntity
  8
0
  6
HIDDEN
 62
     7
370
     0
100
AcDbLine
 10
207.2741882423
 20
99.0998576899
 30
0.0
 11
208.776338912
 21
101.599857634
 31
0.0
  0
LINE
  5
210
330
1F
100
AcDbEntity
  8
0
  6
HIDDEN
 62
     7
370
     0
100
AcDbLine
 10
208.776338912
 20
101.599857634
 30
0.0
 11
207.2741882423
 21
104.0998575781
 31
0.0
  0
LINE
  5
211
330
1F
100
AcDbEntity
  8
0
  6
HIDDEN
 62
     7
370
     0
100
AcDbLine
 10
178.4741880385
 20
87.0546339583
 30
0.0
 11
178.4741880385
 21
88.8730031011
 31
0.0
  0
LINE
  5
212
330
1F
100
AcDbEntity
  8
0
  6
HIDDEN
 62
     7
370
     0
100
AcDbLine
 10
173.8741881693
 20
88.8553601262
 30
0.0
 11
173.8741881693
 21
87.341249412
 31
0.0
  0
LINE
  5
213
330
1F
100
AcDbEntity
  8
0
  6
HIDDEN
 62
     7
370
     0
100
AcDbLine
 10
178.4741880385
 20
114.326712167
 30
0.0
 11
178.4741880385
 21
116.1448969078
 31
0.0
  0
LINE
  5
214
330
1F
100
AcDbEntity
  8
0
  6
HIDDEN
 62
     7
370
     0
100
AcDbLine
 10
173.8741881693
 20
115.8643546087
 30
0.0
 11
173.8741881693
 21
114.3443551418
 31
0.0
  0
LINE
  5
215
330
1F
100
AcDbEntity
  8
0
  6
HIDDEN
 62
     7
370
     0
100
AcDbLine
 10
226.1494257966
 20
124.6760398653
 30
0.0
 11
226.0941052357
 21
124.6587489304
 31
0.0
  0
LINE
  5
216
330
1F
100
AcDbEntity
  8
0
  6
HIDDEN
 62
     7
370
     0
100
AcDbLine
 10
202.8661509523
 20
99.9230190218
 30
0.0
 11
204.3550470391
 21
97.7375621014
 31
0.0
  0
LINE
  5
217
330
1F
100
AcDbEntity
  8
0
  6
HIDDEN
 62
     7
370
     0
100
AcDbLine
 10
207.8260788241
 20
100.1022898863
 30
0.0
 11
206.4445307026
 21
102.1301779119
 31
0.0
  0
LINE
  5
218
330
1F
100
AcDbEntity
  8
0
  6
HIDDEN
 62
     7
370
     0
100
AcDbLine
 10
221.1839416543
 20
116.4709920567
 30
0.0
 11
221.1054386118
 21
116.392595185
 31
0.0
  0
ARC
  5
219
330
1F
100
AcDbEntity
  8
0
  6
HIDDEN
 62
     7
370
     0
100
AcDbCircle
 10
164.9741880396
 20
115.379857634
 30
0.0
 40
0.9000000000000206
100
AcDbArc
 50
270.0
 51
311.1792132368
  0
ARC
  5
21A
330
1F
100
AcDbEntity
  8
0
  6
HIDDEN
 62
     7
370
     0
100
AcDbCircle
 10
167.4741880396
 20
87.878857634
 30
0.0
 40
0.9000000000000449
100
AcDbArc
 50
29.8499024808
 51
90.0
  0
LINE
  5
21B
330
1F
100
AcDbEntity
  8
0
  6
HIDDEN
 62
     7
370
     0
100
AcDbLine
 10
228.5997839192
 20
122.3777890709
 30
0.0
 11
228.1720386365
 21
121.9506286588
 31
0.0
  0
LINE
  5
21C
330
1F
100
AcDbEntity
  8
0
  6
HIDDEN
 62
     7
370
     0
100
AcDbLine
 10
230.4736943463
 20
119.5854250845
 30
0.0
 11
230.9316368321
 21
120.0427361336
 31
0.0
  0
LINE
  5
21D
330
1F
100
AcDbEntity
  8
0
  6
HIDDEN
 62
     7
370
     0
100
AcDbLine
 10
164.9741874555
 20
114.4798579198
 30
0.0
 11
163.2241876343
 21
114.4798579198
 31
0.0
  0
LINE
  5
21E
330
1F
100
AcDbEntity
  8
0
  6
HIDDEN
 62
     7
370
     0
100
AcDbLine
 10
163.2241876343
 20
114.4798579198
 30
0.0
 11
162.2741883168
 21
113.529857671
 31
0.0
  0
LINE
  5
21F
330
1F
100
AcDbEntity
  8
0
  6
HIDDEN
 62
     7
370
     0
100
AcDbLine
 10
163.2241876343
 20
88.7788575646
 30
0.0
 11
167.4741878653
 21
88.7788575646
 31
0.0
  0
LINE
  5
220
330
1F
100
AcDbEntity
  8
0
  6
HIDDEN
 62
     7
370
     0
100
AcDbLine
 10
162.2741883168
 20
89.7288578135
 30
0.0
 11
163.2241876343
 21
88.7788575646
 31
0.0
  0
LINE
  5
221
330
1F
100
AcDbEntity
  8
0
  6
HIDDEN
 62
     7
370
     0
100
AcDbLine
 10
204.0662085185
 20
97.4510893729
 30
0.0
 11
205.0340501139
 21
96.0304573682
 31
0.0
  0
LINE
  5
222
330
1F
100
AcDbEntity
  8
0
  6
HIDDEN
 62
     7
370
     0
100
AcDbLine
 10
209.2933756778
 20
98.6589814574
 30
0.0
 11
208.1983899245
 21
100.2662414257
 31
0.0
  0
LINE
  5
223
330
1F
100
AcDbEntity
  8
VERMASSUNG
100
AcDbLine
 10
237.1741880396
 20
128.599857634
 30
0.0
 11
237.1741880396
 21
104.4575533165
 31
0.0
  0
DIMENSION
  5
224
330
1F
100
AcDbEntity
  8
VERMASSUNG
100
AcDbDimension
  2
_D
 10
237.1741880396
 20
138.9369365715
 30
0.0
 11
199.7241880396
 21
138.9369365715
 31
0.0
 70
   160
  1
<>
 71
     2
 42
-1.0
  3
SLDDIMSTYLE0
100
AcDbAlignedDimension
 13
162.2741880396
 23
113.529857634
 33
0.0
 14
237.1741880396
 24
128.599857634
 34
0.0
100
AcDbRotatedDimension
  0
DIMENSION
  5
22F
330
1F
100
AcDbEntity
  8
VERMASSUNG
100
AcDbDimension
  2
_D_1
 10
237.1741880396
 20
132.9369365715
 30
0.0
 11
209.6741880396
 21
132.9369365715
 31
0.0
 70
   160
  1
<>
 71
     2
 42
-1.0
  3
SLDDIMSTYLE0
100
AcDbAlignedDimension
 13
182.1741880396
 23
121.299857634
 33
0.0
 14
237.1741880396
 24
128.599857634
 34
0.0
100
AcDbRotatedDimension
  0
DIMENSION
  5
239
330
1F
100
AcDbEntity
  8
VERMASSUNG
100
AcDbDimension
  2
_D_2
 10
243.0261580548
 20
101.599857634
 30
0.0
 11
243.0261580548
 21
115.099857634
 31
0.0
 70
   160
  1
<>
 71
     2
 42
-1.0
  3
SLDDIMSTYLE0
100
AcDbAlignedDimension
 13
237.1741880396
 23
128.599857634
 33
0.0
 14
229.2282550706
 24
101.599857634
 34
0.0
 50
90.0
100
AcDbRotatedDimension
  0
DIMENSION
  5
243
330
1F
100
AcDbEntity
  8
VERMASSUNG
100
AcDbDimension
  2
_D_3
 10
237.1741880396
 20
128.599857634
 30
0.0
 11
231.1950785546
 21
91.6817092058
 31
0.0
 70
   162
  1
<>
 71
     1
 42
-1.0
  3
SLDDIMSTYLE1
100
AcDb2LineAngularDimension
 13
222.4449999499
 23
83.8219507965
 33
0.0
 14
233.0785935573
 24
117.5182350719
 34
0.0
 15
237.1741880396
 25
101.599857634
 35
0.0
 16
231.1950785546
 26
91.6817092058
 36
0.0
  0
DIMENSION
  5
24D
330
1F
100
AcDbEntity
  8
VERMASSUNG
100
AcDbDimension
  2
_D_4
 10
157.5937819751
 20
81.599857634
 30
0.0
 11
157.5937819751
 21
101.599857634
 31
0.0
 70
   160
  1
HSK %%c<>
 71
     2
 42
-1.0
  3
SLDDIMSTYLE0
100
AcDbAlignedDimension
 13
182.4741880396
 23
121.599857634
 33
0.0
 14
182.4741880396
 24
81.599857634
 34
0.0
 50
90.0
100
AcDbRotatedDimension
  0
LINE
  5
259
330
1F
100
AcDbEntity
  8
VERMASSUNG
  6
CENTERX2
370
     0
100
AcDbLine
 10
160.1908681692
 20
101.599857634
 30
0.0
 11
229.2282550706
 21
101.599857634
 31
0.0
  0
SPLINE
  5
25A
330
1F
100
AcDbEntity
  8
0
  6
Continuous
 62
     7
370
    15
100
AcDbSpline
210
0.0
220
0.0
230
1.0
 70
     8
 71
     3
 72
    10
 73
     6
 74
     0
 42
0.00000001
 43
0.00000001
 12
1.0
 22
0.0
 32
0.0
 13
1.0
 23
0.0
 33
0.0
 40
0.0
 40
0.0
 40
0.0
 40
0.0
 40
0.3321620006517442
 40
0.6673707808925636
 40
1.0
 40
1.0
 40
1.0
 40
1.0
 10
93.9203361349418
 20
127.7997516599359
 30
0.0
 10
93.48353902842399
 20
127.8980495955264
 30
0.0
 10
92.60593826284443
 20
128.095547111517
 30
0.0
 10
91.2531837025438
 20
128.3250871084483
 30
0.0
 10
90.37108969156503
 20
128.5170335574622
 30
0.0
 10
89.93174625447766
 20
128.6126360800923
 30
0.0
  0
LINE
  5
25B
330
1F
100
AcDbEntity
  8
0
  6
Continuous
 62
     7
370
    15
100
AcDbLine
 10
89.830793805
 20
126.0940902439
 30
0.0
 11
89.6469376466
 21
125.8094948289
 31
0.0
  0
LINE
  5
25C
330
1F
100
AcDbEntity
  8
0
  6
Continuous
 62
     7
370
    15
100
AcDbLine
 10
88.8563208582
 20
117.2855388877
 30
0.0
 11
89.061852982
 21
116.8797728178
 31
0.0
  0
LINE
  5
25D
330
1F
100
AcDbEntity
  8
0
  6
Continuous
 62
     7
370
    15
100
AcDbLine
 10
88.4855247868
 20
114.486475898
 30
0.0
 11
88.8421595164
 21
114.5223681387
 31
0.0
  0
ARC
  5
25E
330
1F
100
AcDbEntity
  8
0
  6
Continuous
 62
     7
370
    15
100
AcDbCircle
 10
95.9929723438
 20
121.1034024693
 30
0.0
 40
7.000000000000013
100
AcDbArc
 50
191.6021752016
 51
195.3197837275
  0
ARC
  5
25F
330
1F
100
AcDbEntity
  8
0
  6
Continuous
 62
     7
370
    15
100
AcDbCircle
 10
95.9929723438
 20
121.1034024693
 30
0.0
 40
7.000000000000017
100
AcDbArc
 50
158.4575998003
 51
162.3978247984
  0
LINE
  5
260
330
1F
100
AcDbEntity
  8
0
  6
Continuous
 62
     7
370
    15
100
AcDbLine
 10
89.3163573646
 20
122.4378835914
 30
0.0
 11
89.3692185355
 21
122.435113838
 31
0.0
  0
LINE
  5
261
330
1F
100
AcDbEntity
  8
0
  6
Continuous
 62
     7
370
    15
100
AcDbLine
 10
89.2692412317
 20
120.5041654912
 30
0.0
 11
89.2103312954
 21
120.5072518942
 31
0.0
  0
SPLINE
  5
262
330
1F
100
AcDbEntity
  8
0
  6
Continuous
 62
     7
370
    15
100
AcDbSpline
210
0.0
220
0.0
230
1.0
 70
     8
 71
     3
 72
    14
 73
    10
 74
     0
 42
0.00000001
 43
0.00000001
 12
1.0
 22
0.0
 32
0.0
 13
1.0
 23
0.0
 33
0.0
 40
0.0
 40
0.0
 40
0.0
 40
0.0
 40
0.1588495050739169
 40
0.3173330529356123
 40
0.4720144500707
 40
0.6236433938068808
 40
0.7746614605712525
 40
0.92774211606231
 40
0.9999999999999999
 40
0.9999999999999999
 40
0.9999999999999999
 40
0.9999999999999999
 10
89.96937787469408
 20
128.0875117090405
 30
0.0
 10
89.9722361903112
 20
128.1325201885129
 30
0.0
 10
89.97794623656289
 20
128.2224334570013
 30
0.0
 10
89.98348772836066
 20
128.3586704998363
 30
0.0
 10
89.98586746413672
 20
128.4746411454495
 30
0.0
 10
89.98480537229794
 20
128.5589725675278
 30
0.0
 10
89.98055876432997
 20
128.6034630282095
 30
0.0
 10
89.97489062174866
 20
128.6060110275457
 30
0.0
 10
89.97074333890075
 20
128.5895600039443
 30
0.0
 10
89.9694134559458
 20
128.5842847582759
 30
0.0
  0
SPLINE
  5
263
330
1F
100
AcDbEntity
  8
0
  6
Continuous
 62
     7
370
    15
100
AcDbSpline
210
0.0
220
0.0
230
1.0
 70
     8
 71
     3
 72
    14
 73
    10
 74
     0
 42
0.00000001
 43
0.00000001
 12
1.0
 22
0.0
 32
0.0
 13
1.0
 23
0.0
 33
0.0
 40
0.0
 40
0.0
 40
0.0
 40
0.0
 40
0.1583174700275178
 40
0.3168041245046767
 40
0.4713767925135527
 40
0.6221224348993126
 40
0.7721278759149226
 40
0.9245950943395218
 40
1.0
 40
1.0
 40
1.0
 40
1.0
 10
93.88777733056389
 20
127.8027821835936
 30
0.0
 10
93.88849320302495
 20
127.8051538026614
 30
0.0
 10
93.88992571295732
 20
127.8098995752049
 30
0.0
 10
93.8913234037452
 20
127.8023257186426
 30
0.0
 10
93.89192459089836
 20
127.7846534774148
 30
0.0
 10
93.89165907469356
 20
127.758493996277
 30
0.0
 10
93.8905985827845
 20
127.727158209544
 30
0.0
 10
93.88917162338592
 20
127.699271069289
 30
0.0
 10
93.88811735105764
 20
127.6833669739893
 30
0.0
 10
93.88776848299943
 20
127.6781041678847
 30
0.0
  0
SPLINE
  5
264
330
1F
100
AcDbEntity
  8
0
  6
Continuous
 62
     7
370
    15
100
AcDbSpline
210
0.0
220
0.0
230
1.0
 70
     8
 71
     3
 72
    10
 73
     6
 74
     0
 42
0.00000001
 43
0.00000001
 12
1.0
 22
0.0
 32
0.0
 13
1.0
 23
0.0
 33
0.0
 40
0.0
 40
0.0
 40
0.0
 40
0.0
 40
0.3518028710948534
 40
0.7034247120836828
 40
1.0
 40
1.0
 40
1.0
 40
1.0
 10
89.2701997954636
 20
125.4105534908236
 30
0.0
 10
89.26712309329878
 20
125.3930205220949
 30
0.0
 10
89.26097127217312
 20
125.3579636067218
 30
0.0
 10
89.25127528889415
 20
125.2630155276645
 30
0.0
 10
89.24565401780978
 20
125.1871006534918
 30
0.0
 10
89.24308206860489
 20
125.1523666587533
 30
0.0
  0
LINE
  5
265
330
1F
100
AcDbEntity
  8
0
  6
Continuous
 62
     7
370
    15
100
AcDbLine
 10
89.9694134559
 20
128.5842847583
 30
0.0
 11
89.2701997955
 21
125.4105534908
 31
0.0
  0
LINE
  5
266
330
1F
100
AcDbEntity
  8
0
  6
Continuous
 62
     7
370
    15
100
AcDbLine
 10
89.2696648671
 20
117.9421697316
 30
0.0
 11
89.9693778747
 21
128.087511709
 31
0.0
  0
SPLINE
  5
267
330
1F
100
AcDbEntity
  8
0
  6
Continuous
 62
     7
370
    15
100
AcDbSpline
210
0.0
220
0.0
230
1.0
 70
     8
 71
     3
 72
    10
 73
     6
 74
     0
 42
0.00000001
 43
0.00000001
 12
1.0
 22
0.0
 32
0.0
 13
1.0
 23
0.0
 33
0.0
 40
0.0
 40
0.0
 40
0.0
 40
0.0
 40
0.35180405488168
 40
0.7034235306707457
 40
0.9999999999999999
 40
0.9999999999999999
 40
0.9999999999999999
 40
0.9999999999999999
 10
89.24254708199344
 20
117.6839828994931
 30
0.0
 10
89.24562377419528
 20
117.701516006912
 30
0.0
 10
89.25177554436786
 20
117.7365730227511
 30
0.0
 10
89.2614716317802
 20
117.8315185842538
 30
0.0
 10
89.26709290289737
 20
117.907434883155
 30
0.0
 10
89.2696648670598
 20
117.9421697315635
 30
0.0
  0
LINE
  5
268
330
1F
100
AcDbEntity
  8
0
  6
Continuous
 62
     7
370
    15
100
AcDbLine
 10
88.543333376
 20
114.5102507007
 30
0.0
 11
89.242547082
 21
117.6839828995
 31
0.0
  0
SPLINE
  5
269
330
1F
100
AcDbEntity
  8
0
  6
Continuous
 62
     7
370
    15
100
AcDbSpline
210
0.0
220
0.0
230
1.0
 70
     8
 71
     3
 72
    14
 73
    10
 74
     0
 42
0.00000001
 43
0.00000001
 12
1.0
 22
0.0
 32
0.0
 13
1.0
 23
0.0
 33
0.0
 40
0.0
 40
0.0
 40
0.0
 40
0.0
 40
0.1588496824933417
 40
0.3173323447155885
 40
0.4720139122585896
 40
0.6236437013040282
 40
0.7746615701925686
 40
0.9277380791995384
 40
1.0
 40
1.0
 40
1.0
 40
1.0
 10
88.54336899912498
 20
115.0070237499536
 30
0.0
 10
88.54051066196487
 20
114.9620152724527
 30
0.0
 10
88.53480059179812
 20
114.8721023089939
 30
0.0
 10
88.52925918469785
 20
114.7358655526605
 30
0.0
 10
88.52687942382794
 20
114.6198953507429
 30
0.0
 10
88.5279414804042
 20
114.5355626553772
 30
0.0
 10
88.53218794968467
 20
114.4910736406789
 30
0.0
 10
88.53785655319315
 20
114.48852671813
 30
0.0
 10
88.5420035196108
 20
114.5049757851947
 30
0.0
 10
88.5433333760365
 20
114.5102507007183
 30
0.0
  0
LINE
  5
26A
330
1F
100
AcDbEntity
  8
0
  6
Continuous
 62
     7
370
    15
100
AcDbLine
 10
89.2430820686
 20
125.1523666588
 30
0.0
 11
88.5433689991
 21
115.00702375
 31
0.0
  0
LWPOLYLINE
  5
26B
330
1F
100
AcDbEntity
  8
0
  6
Continuous
 62
     7
370
    15
100
AcDbPolyline
 90
        9
 70
   128
 43
0.0
 10
89.9681253222
 20
128.0853007492
 10
89.9743635191
 20
128.1869471577
 10
89.9791827169
 20
128.2895900813
 10
89.9822267329
 20
128.3856411037
 10
89.9832705818
 20
128.4679998216
 10
89.9822371139
 20
128.530582836
 10
89.979202713
 20
128.5687614736
 10
89.9743916516
 20
128.5797138271
 10
89.968159512
 20
128.5626333711
  0
LINE
  5
26C
330
1F
100
AcDbEntity
  8
0
  6
Continuous
 62
     7
370
    15
100
AcDbLine
 10
89.968159512
 20
128.5626333711
 30
0.0
 11
89.2696179517
 21
125.3919512537
 31
0.0
  0
ARC
  5
26D
330
1F
100
AcDbEntity
  8
0
  6
Continuous
 62
     7
370
    15
100
AcDbCircle
 10
91.5305153611
 20
125.0295595494
 30
0.0
 40
2.28975650308891
100
AcDbArc
 50
170.8937091102
 51
177.1144913603
  0
LINE
  5
26E
330
1F
100
AcDbEntity
  8
0
  6
Continuous
 62
     7
370
    15
100
AcDbLine
 10
89.2436619915
 20
125.1448266712
 30
0.0
 11
88.5446215116
 21
115.0092356411
 31
0.0
  0
LWPOLYLINE
  5
26F
330
1F
100
AcDbEntity
  8
0
  6
Continuous
 62
     7
370
    15
100
AcDbPolyline
 90
        9
 70
   128
 43
0.0
 10
88.5446215116
 20
115.0092356411
 10
88.5383833966
 20
114.9075883013
 10
88.5335641515
 20
114.8049453777
 10
88.5305201236
 20
114.7088952866
 10
88.5294763439
 20
114.6265356374
 10
88.5305097627
 20
114.5639535543
 10
88.533544128
 20
114.5257749167
 10
88.538355224
 20
114.5148216319
 10
88.5445874019
 20
114.5319030193
  0
LINE
  5
270
330
1F
100
AcDbEntity
  8
0
  6
Continuous
 62
     7
370
    15
100
AcDbLine
 10
88.5445874019
 20
114.5319030193
 30
0.0
 11
89.2431289258
 21
117.7025851366
 31
0.0
  0
ARC
  5
271
330
1F
100
AcDbEntity
  8
0
  6
Continuous
 62
     7
370
    15
100
AcDbCircle
 10
86.9822996783
 20
118.0649696818
 30
0.0
 40
2.289688067100758
100
AcDbArc
 50
350.893616053
 51
357.1145844175
  0
LINE
  5
272
330
1F
100
AcDbEntity
  8
0
  6
Continuous
 62
     7
370
    15
100
AcDbLine
 10
89.2690848859
 20
117.9497097191
 30
0.0
 11
89.9681253222
 21
128.0853007492
 31
0.0
  0
LINE
  5
273
330
1F
100
AcDbEntity
  8
0
  6
Continuous
 62
     7
370
    15
100
AcDbLine
 10
93.2186460423
 20
117.9763045666
 30
0.0
 11
93.887768483
 21
127.6781041679
 31
0.0
  0
LWPOLYLINE
  5
274
330
1F
100
AcDbEntity
  8
0
  6
Continuous
 62
     7
370
    15
100
AcDbPolyline
 90
        9
 70
   128
 43
0.0
 10
89.6336694723
 20
124.5118327943
 10
89.6500857789
 20
124.7793272641
 10
89.6627678894
 20
125.0494387505
 10
89.6707784568
 20
125.3022034225
 10
89.6735254219
 20
125.5189408121
 10
89.6708057853
 20
125.6836303082
 10
89.6628205091
 20
125.7840995249
 10
89.650159819
 20
125.8129239586
 10
89.6337594613
 20
125.7679727432
  0
LINE
  5
275
330
1F
100
AcDbEntity
  8
0
  6
Continuous
 62
     7
370
    15
100
AcDbLine
 10
89.2903585054
 20
119.5340682325
 30
0.0
 11
89.6336694723
 21
124.5118327943
 31
0.0
  0
LINE
  5
276
330
1F
100
AcDbEntity
  8
0
  6
Continuous
 62
     7
370
    15
100
AcDbLine
 10
88.878987387
 20
117.3265636471
 30
0.0
 11
89.2220533869
 21
118.8837405798
 31
0.0
  0
LWPOLYLINE
  5
277
330
1F
100
AcDbEntity
  8
0
  6
Continuous
 62
     7
370
    15
100
AcDbPolyline
 90
        9
 70
   128
 43
0.0
 10
88.8790773761
 20
118.5827017334
 10
88.8626610695
 20
118.3152091262
 10
88.8499790171
 20
118.0450976399
 10
88.8419684788
 20
117.7923311052
 10
88.8392214265
 20
117.5755955783
 10
88.8419411212
 20
117.4109060821
 10
88.8499263974
 20
117.3104368654
 10
88.8625870293
 20
117.2816124317
 10
88.878987387
 20
117.3265636471
  0
LINE
  5
278
330
1F
100
AcDbEntity
  8
0
  6
Continuous
 62
     7
370
    15
100
AcDbLine
 10
89.222388372
 20
123.5604681578
 30
0.0
 11
88.8790773761
 21
118.5827017334
 31
0.0
  0
ARC
  5
279
330
1F
100
AcDbEntity
  8
0
  6
Continuous
 62
     7
370
    15
100
AcDbCircle
 10
95.2404675533
 20
123.2571290823
 30
0.0
 40
6.025719179174963
100
AcDbArc
 50
170.8937345573
 51
177.1144692651
  0
LINE
  5
27A
330
1F
100
AcDbEntity
  8
0
  6
Continuous
 62
     7
370
    15
100
AcDbLine
 10
89.6337594613
 20
125.7679727432
 30
0.0
 11
89.2906934905
 21
124.2107958105
 31
0.0
  0
ARC
  5
27B
330
1F
100
AcDbEntity
  8
0
  6
Continuous
 62
     7
370
    15
100
AcDbCircle
 10
83.2724369459
 20
119.8373907527
 30
0.0
 40
6.02556092388092
100
AcDbArc
 50
350.8936527863
 51
357.1145510361
  0
LWPOLYLINE
  5
27C
330
1F
100
AcDbEntity
  8
0
  6
Continuous
 62
     7
370
    15
100
AcDbPolyline
 90
       35
 70
   128
 43
0.0
 10
89.3604014718
 20
120.623404583
 10
89.3954115754
 20
121.1724378672
 10
89.4256868351
 20
121.7342358586
 10
89.4501963348
 20
122.2896673289
 10
89.4681054351
 20
122.8198171166
 10
89.4788042942
 20
123.3066324648
 10
89.481928474
 20
123.7335339692
 10
89.4773716873
 20
124.0859836844
 10
89.4652890574
 20
124.3519824502
 10
89.4460920545
 20
124.5224684981
 10
89.4204344668
 20
124.5916378257
 10
89.3891899332
 20
124.5571360496
 10
89.3534224897
 20
124.4201366362
 10
89.3143501316
 20
124.185303649
 10
89.2733034862
 20
123.8606371489
 10
89.2316802938
 20
123.4571900722
 10
89.1908979693
 20
122.9887031522
 10
89.1523454056
 20
122.4711318073
 10
89.1173353602
 20
121.9220966604
 10
89.0870600424
 20
121.360298669
 10
89.0625505426
 20
120.8048690614
 10
89.0446414423
 20
120.2747192738
 10
89.0339425832
 20
119.7879039255
 10
89.0308184034
 20
119.3610024211
 10
89.0353751902
 20
119.0085527059
 10
89.04745782
 20
118.7425539401
 10
89.066654823
 20
118.5720678923
 10
89.0923124689
 20
118.502896702
 10
89.1235570025
 20
118.5374003407
 10
89.159324446
 20
118.6743997541
 10
89.1983967458
 20
118.9092327413
 10
89.2394433913
 20
119.2338992414
 10
89.2810665837
 20
119.6373463181
 10
89.3218489082
 20
120.1058313754
 10
89.3604014718
 20
120.623404583
  0
SPLINE
  5
27D
330
1F
100
AcDbEntity
  8
0
  6
Continuous
 62
     7
370
    15
100
AcDbSpline
210
0.0
220
0.0
230
1.0
 70
     8
 71
     3
 72
    10
 73
     6
 74
     0
 42
0.00000001
 43
0.00000001
 12
1.0
 22
0.0
 32
0.0
 13
1.0
 23
0.0
 33
0.0
 40
0.0
 40
0.0
 40
0.0
 40
0.0
 40
0.2657037812025775
 40
0.6165271086653294
 40
1.0
 40
1.0
 40
1.0
 40
1.0
 10
93.21864604225897
 20
117.9763045665683
 30
0.0
 10
93.21807281107631
 20
117.9685101444624
 30
0.0
 10
93.21674271121086
 20
117.9504243178214
 30
0.0
 10
93.21432306736521
 20
117.9259821196375
 30
0.0
 10
93.21270926080386
 20
117.9166368560794
 30
0.0
 10
93.21186647957705
 20
117.9117564615668
 30
0.0
  0
LINE
  5
27E
330
1F
100
AcDbEntity
  8
0
  6
Continuous
 62
     7
370
    15
100
AcDbLine
 10
93.1514711419
 20
117.6376216617
 30
0.0
 11
93.2118664796
 21
117.9117564616
 31
0.0
  0
LWPOLYLINE
  5
27F
330
1F
100
AcDbEntity
  8
0
  6
Continuous
 62
     7
370
    15
100
AcDbPolyline
 90
       27
 70
   128
 43
0.0
 10
89.2836003632
 20
123.0310149995
 10
89.2519078052
 20
122.7775425223
 10
89.219923394
 20
122.4473216143
 10
89.1895061077
 20
122.0595449713
 10
89.1624235383
 20
121.6367487368
 10
89.1402497373
 20
121.2035012004
 10
89.124273306
 20
120.7849834618
 10
89.1154227147
 20
120.4055198041
 10
89.1142123446
 20
120.0871602205
 10
89.1207126269
 20
119.8484063652
 10
89.1345456776
 20
119.7031368074
 10
89.1549075905
 20
119.6597930548
 10
89.1806150039
 20
119.720891541
 10
89.2101739601
 20
119.8828857896
 10
89.2418665762
 20
120.1363564041
 10
89.2738509292
 20
120.4665773121
 10
89.3042682155
 20
120.8543539551
 10
89.331350785
 20
121.2771520522
 10
89.3535245859
 20
121.710397726
 10
89.3695010755
 20
122.1289154646
 10
89.3783516085
 20
122.508380985
 10
89.3795619786
 20
122.8267405686
 10
89.3730616963
 20
123.0654925612
 10
89.3592286457
 20
123.210762119
 10
89.3388667328
 20
123.2541077343
 10
89.3131593193
 20
123.1930073854
 10
89.2836003632
 20
123.0310149995
  0
ARC
  5
280
330
1F
100
AcDbEntity
  8
0
  6
Continuous
 62
     7
370
    15
100
AcDbCircle
 10
118.7349985752
 20
119.91112858
 30
0.0
 40
29.61639490073134
100
AcDbArc
 50
175.3999715879
 51
178.571977342
  0
ARC
  5
281
330
1F
100
AcDbEntity
  8
0
  6
Continuous
 62
     7
370
    15
100
AcDbCircle
 10
92.5067547399
 20
120.3340136577
 30
0.0
 40
3.393621375189628
100
AcDbArc
 50
174.670873193
 51
189.3186269432
  0
ARC
  5
282
330
1F
100
AcDbEntity
  8
0
  6
Continuous
 62
     7
370
    15
100
AcDbCircle
 10
86.6315283305
 20
120.5595231721
 30
0.0
 40
2.642594227337745
100
AcDbArc
 50
342.9455636271
 51
0.014945408
  0
LINE
  5
283
330
1F
100
AcDbEntity
  8
0
  6
Continuous
 62
     7
370
    15
100
AcDbLine
 10
89.2802159951
 20
120.6329674032
 30
0.0
 11
89.2741224679
 21
120.5602124837
 31
0.0
  0
ARC
  5
284
330
1F
100
AcDbEntity
  8
0
  6
Continuous
 62
     7
370
    15
100
AcDbCircle
 10
59.6065656038
 20
123.0119530394
 30
0.0
 40
29.76886125137815
100
AcDbArc
 50
355.41630636
 51
358.4651082339
  0
LINE
  5
285
330
1F
100
AcDbEntity
  8
0
  6
Continuous
 62
     7
370
    15
100
AcDbLine
 10
89.3671735257
 20
122.319234958
 30
0.0
 11
89.3647457424
 21
122.2145729271
 31
0.0
  0
ARC
  5
286
330
1F
100
AcDbEntity
  8
0
  6
Continuous
 62
     7
370
    15
100
AcDbCircle
 10
85.8506406144
 20
122.6011770314
 30
0.0
 40
3.52781732081108
100
AcDbArc
 50
355.4160503586
 51
8.5734494907
  0
LINE
  5
287
330
1F
100
AcDbEntity
  8
0
  6
Continuous
 62
     7
370
    15
100
AcDbLine
 10
89.3328817046
 20
123.1294427571
 30
0.0
 11
89.3390365827
 21
123.1270939615
 31
0.0
  0
ARC
  5
288
330
1F
100
AcDbEntity
  8
0
  6
Continuous
 62
     7
370
    15
100
AcDbCircle
 10
92.1913565589
 20
122.3175382076
 30
0.0
 40
2.971542947631636
100
AcDbArc
 50
164.1436415984
 51
179.2017031868
  0
LINE
  5
289
330
1F
100
AcDbEntity
  8
0
  6
Continuous
 62
     7
370
    15
100
AcDbLine
 10
89.21400286
 20
122.2863462326
 30
0.0
 11
89.2201020333
 21
122.358939102
 31
0.0
  0
SPLINE
  5
28A
330
1F
100
AcDbEntity
  8
0
  6
Continuous
 62
     7
370
    15
100
AcDbSpline
210
0.0
220
0.0
230
1.0
 70
     8
 71
     3
 72
    11
 73
     7
 74
     0
 42
0.00000001
 43
0.00000001
 12
1.0
 22
0.0
 32
0.0
 13
1.0
 23
0.0
 33
0.0
 40
0.0
 40
0.0
 40
0.0
 40
0.0
 40
0.0146880248726981
 40
0.4126002029458459
 40
0.8105177856669281
 40
1.0
 40
1.0
 40
1.0
 40
1.0
 10
89.15791855633772
 20
119.7845027354421
 30
0.0
 10
89.15799019091006
 20
119.7844841346615
 30
0.0
 10
89.16000247229842
 20
119.7839616215323
 30
0.0
 10
89.16675091951869
 20
119.7972524233284
 30
0.0
 10
89.17938829350996
 20
119.8379941849672
 30
0.0
 10
89.18982415692267
 20
119.8796910311711
 30
0.0
 10
89.19319053620613
 20
119.893141513771
 30
0.0
  0
SPLINE
  5
28B
330
1F
100
AcDbEntity
  8
0
  6
Continuous
 62
     7
370
    15
100
AcDbSpline
210
0.0
220
0.0
230
1.0
 70
     8
 71
     3
 72
    11
 73
     7
 74
     0
 42
0.00000001
 43
0.00000001
 12
1.0
 22
0.0
 32
0.0
 13
1.0
 23
0.0
 33
0.0
 40
0.0
 40
0.0
 40
0.0
 40
0.0
 40
0.2657580003249808
 40
0.5530017931265491
 40
0.8418224454474568
 40
1.0
 40
1.0
 40
1.0
 40
1.0
 10
89.3328817046485
 20
123.1294427570762
 30
0.0
 10
89.33197530940355
 20
123.1207690836721
 30
0.0
 10
89.33008923938824
 20
123.1027204945813
 30
0.0
 10
89.33201788916787
 20
123.0341769314222
 30
0.0
 10
89.33705678455462
 20
122.9547277535782
 30
0.0
 10
89.34213973878877
 20
122.8994570367475
 30
0.0
 10
89.343938424462
 20
122.8798985984982
 30
0.0
  0
SPLINE
  5
28C
330
1F
100
AcDbEntity
  8
0
  6
Continuous
 62
     7
370
    15
100
AcDbSpline
210
0.0
220
0.0
230
1.0
 70
     8
 71
     3
 72
    11
 73
     7
 74
     0
 42
0.00000001
 43
0.00000001
 12
1.0
 22
0.0
 32
0.0
 13
1.0
 23
0.0
 33
0.0
 40
0.0
 40
0.0
 40
0.0
 40
0.0
 40
0.253507691540598
 40
0.5075691283546492
 40
0.7595105650615496
 40
0.9999999999999999
 40
0.9999999999999999
 40
0.9999999999999999
 40
0.9999999999999999
 10
89.1938117283634
 20
120.0464148578109
 30
0.0
 10
89.1868352889866
 20
120.0106482608591
 30
0.0
 10
89.1728671713647
 20
119.9390369407894
 30
0.0
 10
89.16011374162133
 20
119.8541496788954
 30
0.0
 10
89.15424759054812
 20
119.7967772896234
 30
0.0
 10
89.15671402089166
 20
119.7885303228519
 30
0.0
 10
89.15791855633772
 20
119.7845027354421
 30
0.0
  0
SPLINE
  5
28D
330
1F
100
AcDbEntity
  8
0
  6
Continuous
 62
     7
370
    15
100
AcDbSpline
210
0.0
220
0.0
230
1.0
 70
     8
 71
     3
 72
    12
 73
     8
 74
     0
 42
0.00000001
 43
0.00000001
 12
1.0
 22
0.0
 32
0.0
 13
1.0
 23
0.0
 33
0.0
 40
0.0
 40
0.0
 40
0.0
 40
0.0
 40
0.2057899284088103
 40
0.4120329208601349
 40
0.6141294440554331
 40
0.8132642933229288
 40
1.0
 40
1.0
 40
1.0
 40
1.0
 10
89.343938424462
 20
122.8798985984982
 30
0.0
 10
89.34929720381383
 20
122.8178137814109
 30
0.0
 10
89.36002656032636
 20
122.6935074622272
 30
0.0
 10
89.36084477107097
 20
122.5479471160079
 30
0.0
 10
89.3458814935211
 20
122.4569148173752
 30
0.0
 10
89.3177884855396
 20
122.4256221062864
 30
0.0
 10
89.29462952783807
 20
122.4537147073573
 30
0.0
 10
89.28342213130138
 20
122.4673096594275
 30
0.0
  0
SPLINE
  5
28E
330
1F
100
AcDbEntity
  8
0
  6
Continuous
 62
     7
370
    15
100
AcDbSpline
210
0.0
220
0.0
230
1.0
 70
     8
 71
     3
 72
    11
 73
     7
 74
     0
 42
0.00000001
 43
0.00000001
 12
1.0
 22
0.0
 32
0.0
 13
1.0
 23
0.0
 33
0.0
 40
0.0
 40
0.0
 40
0.0
 40
0.0
 40
0.2802387878858867
 40
0.5612863704560901
 40
0.8399864877037192
 40
0.9999999999999999
 40
0.9999999999999999
 40
0.9999999999999999
 40
0.9999999999999999
 10
89.28342213130138
 20
122.4673096594275
 30
0.0
 10
89.27621645508344
 20
122.4756292047
 30
0.0
 10
89.26178430640924
 20
122.4922923062107
 30
0.0
 10
89.24219211971948
 20
122.4682445554996
 30
0.0
 10
89.22820793986826
 20
122.4193569450002
 30
0.0
 10
89.22226838671784
 20
122.3750861422597
 30
0.0
 10
89.22010203332222
 20
122.3589391020001
 30
0.0
  0
SPLINE
  5
28F
330
1F
100
AcDbEntity
  8
0
  6
Continuous
 62
     7
370
    15
100
AcDbSpline
210
0.0
220
0.0
230
1.0
 70
     8
 71
     3
 72
    12
 73
     8
 74
     0
 42
0.00000001
 43
0.00000001
 12
1.0
 22
0.0
 32
0.0
 13
1.0
 23
0.0
 33
0.0
 40
0.0
 40
0.0
 40
0.0
 40
0.0
 40
0.0091653145858917
 40
0.2573302742589794
 40
0.5054946803810844
 40
0.7549923977129864
 40
1.0
 40
1.0
 40
1.0
 40
1.0
 10
89.12780191258109
 20
120.6492022183598
 30
0.0
 10
89.12777508697224
 20
120.648004493026
 30
0.0
 10
89.12702191683076
 20
120.6143765159667
 30
0.0
 10
89.12838898509625
 20
120.5542937303416
 30
0.0
 10
89.13835442159107
 20
120.4949295346512
 30
0.0
 10
89.15513017644639
 20
120.4678377667832
 30
0.0
 10
89.17074371429308
 20
120.480400586987
 30
0.0
 10
89.17847959764815
 20
120.4866249617995
 30
0.0
  0
SPLINE
  5
290
330
1F
100
AcDbEntity
  8
0
  6
Continuous
 62
     7
370
    15
100
AcDbSpline
210
0.0
220
0.0
230
1.0
 70
     8
 71
     3
 72
    12
 73
     8
 74
     0
 42
0.00000001
 43
0.00000001
 12
1.0
 22
0.0
 32
0.0
 13
1.0
 23
0.0
 33
0.0
 40
0.0
 40
0.0
 40
0.0
 40
0.0
 40
0.04284414089936
 40
0.2913969459184003
 40
0.5349434024486772
 40
0.7749308788540922
 40
1.0
 40
1.0
 40
1.0
 40
1.0
 10
89.2101140061631
 20
120.502595281309
 30
0.0
 10
89.21236763699376
 20
120.5039527653208
 30
0.0
 10
89.22769531371915
 20
120.5131854558795
 30
0.0
 10
89.24244189899913
 20
120.4674368370692
 30
0.0
 10
89.24527654044738
 20
120.3663271875381
 30
0.0
 10
89.22723151771746
 20
120.2184854011604
 30
0.0
 10
89.20471084777746
 20
120.1025318302951
 30
0.0
 10
89.1938117283634
 20
120.0464148578109
 30
0.0
  0
SPLINE
  5
291
330
1F
100
AcDbEntity
  8
0
  6
Continuous
 62
     7
370
    15
100
AcDbSpline
210
0.0
220
0.0
230
1.0
 70
     8
 71
     3
 72
    12
 73
     8
 74
     0
 42
0.00000001
 43
0.00000001
 12
1.0
 22
0.0
 32
0.0
 13
1.0
 23
0.0
 33
0.0
 40
0.0
 40
0.0
 40
0.0
 40
0.0
 40
0.2058585452023532
 40
0.4121015233672142
 40
0.6141923811352088
 40
0.8133168545403061
 40
1.0
 40
1.0
 40
1.0
 40
1.0
 10
89.23682363911114
 20
121.9094548878135
 30
0.0
 10
89.24617301321831
 20
121.8588890211382
 30
0.0
 10
89.26488922103135
 20
121.7576628579649
 30
0.0
 10
89.27341673345033
 20
121.5635091517213
 30
0.0
 10
89.26166368079339
 20
121.3676701956888
 30
0.0
 10
89.2322607407444
 20
121.1886136855157
 30
0.0
 10
89.20488587392677
 20
121.0996858922528
 30
0.0
 10
89.19163982591174
 20
121.0566558447541
 30
0.0
  0
SPLINE
  5
292
330
1F
100
AcDbEntity
  8
0
  6
Continuous
 62
     7
370
    15
100
AcDbSpline
210
0.0
220
0.0
230
1.0
 70
     8
 71
     3
 72
    11
 73
     7
 74
     0
 42
0.00000001
 43
0.00000001
 12
1.0
 22
0.0
 32
0.0
 13
1.0
 23
0.0
 33
0.0
 40
0.0
 40
0.0
 40
0.0
 40
0.0
 40
0.2524773330078724
 40
0.5068899998356639
 40
0.759176608435505
 40
1.0
 40
1.0
 40
1.0
 40
1.0
 10
89.19163982591174
 20
121.0566558447541
 30
0.0
 10
89.18319186950134
 20
121.0290845307875
 30
0.0
 10
89.16623119991384
 20
120.9737305583514
 30
0.0
 10
89.14627741475643
 20
120.8643306846763
 30
0.0
 10
89.13224559308848
 20
120.7506071745224
 30
0.0
 10
89.12926000431378
 20
120.6824759264916
 30
0.0
 10
89.12780191258109
 20
120.6492022183598
 30
0.0
  0
SPLINE
  5
293
330
1F
100
AcDbEntity
  8
0
  6
Continuous
 62
     7
370
    15
100
AcDbSpline
210
0.0
220
0.0
230
1.0
 70
     8
 71
     3
 72
    11
 73
     7
 74
     0
 42
0.00000001
 43
0.00000001
 12
1.0
 22
0.0
 32
0.0
 13
1.0
 23
0.0
 33
0.0
 40
0.0
 40
0.0
 40
0.0
 40
0.0
 40
0.2423617185748802
 40
0.5166838646966176
 40
0.7923320803493898
 40
0.9999999999999999
 40
0.9999999999999999
 40
0.9999999999999999
 40
0.9999999999999999
 10
89.21400285998872
 20
122.2863462325992
 30
0.0
 10
89.2127895479066
 20
122.2549769143099
 30
0.0
 10
89.21020292333831
 20
122.1881015814319
 30
0.0
 10
89.21389950356051
 20
122.078146693669
 30
0.0
 10
89.22302029599531
 20
121.9799730073856
 30
0.0
 10
89.23267519092549
 20
121.9306483597673
 30
0.0
 10
89.23682363911114
 20
121.9094548878135
 30
0.0
  0
SPLINE
  5
294
330
1F
100
AcDbEntity
  8
0
  6
Continuous
 62
     7
370
    15
100
AcDbSpline
210
0.0
220
0.0
230
1.0
 70
     8
 71
     3
 72
    34
 73
    30
 74
     0
 42
0.00000001
 43
0.00000001
 12
1.0
 22
0.0
 32
0.0
 13
1.0
 23
0.0
 33
0.0
 40
0.0
 40
0.0
 40
0.0
 40
0.0
 40
0.0311826873784148
 40
0.06218164084597
 40
0.0930091195400117
 40
0.1236775882299178
 40
0.1541997064974978
 40
0.1845883168293428
 40
0.2148564316511412
 40
0.245017219346999
 40
0.2750839893199758
 40
0.3050701761630107
 40
0.3349893230219557
 40
0.364855064244183
 40
0.3946811074169413
 40
0.4244812149089896
 40
0.4542691850368155
 40
0.4840588329826894
 40
0.5138639715957902
 40
0.5642183156507973
 40
0.6139862745814357
 40
0.6632393124128638
 40
0.7120511548664844
 40
0.760497541939214
 40
0.8086559379431825
 40
0.8566052030005327
 40
0.9044252318796079
 40
0.9521965677730271
 40
1.0
 40
1.0
 40
1.0
 40
1.0
 10
107.9970620210267
 20
118.1647243241927
 30
0.0
 10
107.8899541857181
 20
118.3030257180441
 30
0.0
 10
107.6763696134162
 20
118.5788136094662
 30
0.0
 10
107.3460777747288
 20
118.9835008888424
 30
0.0
 10
107.0097643126503
 20
119.3799528564066
 30
0.0
 10
106.6666574345237
 20
119.7676286029576
 30
0.0
 10
106.3169622496462
 20
120.1466715315599
 30
0.0
 10
105.960624228958
 20
120.5170431422515
 30
0.0
 10
105.5976579294699
 20
120.8787533105079
 30
0.0
 10
105.228059556223
 20
121.231799037636
 30
0.0
 10
104.8518302351161
 20
121.576180755766
 30
0.0
 10
104.4689698137438
 20
121.9118979894838
 30
0.0
 10
104.0794785180893
 20
122.2389505137576
 30
0.0
 10
103.683356491123
 20
122.5573380549301
 30
0.0
 10
103.2806039846896
 20
122.8670603505876
 30
0.0
 10
102.8712210454967
 20
123.1681172237121
 30
0.0
 10
102.4552085698256
 20
123.4605082420178
 30
0.0
 10
102.0325643891501
 20
123.744234020012
 30
0.0
 10
101.5048007794361
 20
124.0824044752092
 30
0.0
 10
100.8689774967776
 20
124.4646066059723
 30
0.0
 10
100.1209334476247
 20
124.8773997691609
 30
0.0
 10
99.36442247000583
 20
125.2584170277101
 30
0.0
 10
98.59945003237289
 20
125.6076447757749
 30
0.0
 10
97.82602125182191
 20
125.925093942005
 30
0.0
 10
97.04412902124423
 20
126.2107022374713
 30
0.0
 10
96.25382094090308
 20
126.4646762575053
 30
0.0
 10
95.45494448843162
 20
126.6862286306248
 30
0.0
 10
94.64809582337371
 20
126.8782743904077
 30
0.0
 10
94.10390786247531
 20
126.9792810911828
 30
0.0
 10
93.83172250624435
 20
127.0298014018247
 30
0.0
  0
LINE
  5
295
330
1F
100
AcDbEntity
  8
0
  6
Continuous
 62
     7
370
    15
100
AcDbLine
 10
107.9970612491
 20
118.6775401738
 30
0.0
 11
107.9970612491
 21
118.1629844514
 31
0.0
  0
SPLINE
  5
296
330
1F
100
AcDbEntity
  8
0
  6
Continuous
 62
     7
370
    15
100
AcDbSpline
210
0.0
220
0.0
230
1.0
 70
     8
 71
     3
 72
    42
 73
    38
 74
     0
 42
0.00000001
 43
0.00000001
 12
1.0
 22
0.0
 32
0.0
 13
1.0
 23
0.0
 33
0.0
 40
0.0
 40
0.0
 40
0.0
 40
0.0
 40
0.0259859290054199
 40
0.0520820714312253
 40
0.0782927073949353
 40
0.1046220611774169
 40
0.1310743001835475
 40
0.157653534015826
 40
0.184363813658868
 40
0.2112091307722749
 40
0.2381934170890638
 40
0.2653205439165844
 40
0.2925943217365947
 40
0.3200184999009184
 40
0.3475967664190043
 40
0.3753327478334481
 40
0.4032300091795785
 40
0.4312920540249445
 40
0.4595223245846758
 40
0.4879242019084734
 40
0.516501006135169
 40
0.5452559968106151
 40
0.5741923732648974
 40
0.6033132750447755
 40
0.6326217823973863
 40
0.662120916801359
 40
0.6918136415415267
 40
0.7217028623235799
 40
0.7517914279251107
 40
0.7820821308796212
 40
0.8125777081902074
 40
0.843280842069743
 40
0.8741941607046008
 40
0.9053202390389685
 40
0.9366615995770884
 40
0.9682207132008076
 40
1.0
 40
1.0
 40
1.0
 40
1.0
 10
93.83160695960697
 20
127.3823537474964
 30
0.0
 10
93.9787610743706
 20
127.3558391940868
 30
0.0
 10
94.27369342467907
 20
127.3026976318068
 30
0.0
 10
94.71443460538214
 20
127.211044196162
 30
0.0
 10
95.15491781974872
 20
127.1104021138503
 30
0.0
 10
95.59481038855093
 20
126.9998746835293
 30
0.0
 10
96.03399799182223
 20
126.8796511563386
 30
0.0
 10
96.47230456474742
 20
126.7496315381088
 30
0.0
 10
96.90956791466685
 20
126.6097976502213
 30
0.0
 10
97.34561937873136
 20
126.4601131052144
 30
0.0
 10
97.78028937656529
 20
126.3005503919693
 30
0.0
 10
98.21340597737951
 20
126.1310836564249
 30
0.0
 10
98.64479535565009
 20
125.9516907415678
 30
0.0
 10
99.07428173990495
 20
125.7623527270029
 30
0.0
 10
99.5016875013925
 20
125.5630541430384
 30
0.0
 10
99.92683320799995
 20
125.3537830018481
 30
0.0
 10
100.3495376906061
 20
125.1345308772143
 30
0.0
 10
100.7696181091411
 20
124.9052929702344
 30
0.0
 10
101.1868900218058
 20
124.6660681778241
 30
0.0
 10
101.6011674565342
 20
124.4168591593864
 30
0.0
 10
102.0122629849526
 20
124.1576724028088
 30
0.0
 10
102.4199877987913
 20
123.888518289398
 30
0.0
 10
102.8241517887096
 20
123.6094111577273
 30
0.0
 10
103.2245636257738
 20
123.3203693664744
 30
0.0
 10
103.6210308446707
 20
123.0214153555275
 30
0.0
 10
104.013359932128
 20
122.7125757077651
 30
0.0
 10
104.4013564074499
 20
122.3938812020845
 30
0.0
 10
104.7848249444918
 20
122.0653668928543
 30
0.0
 10
105.1635693491406
 20
121.72707208285
 30
0.0
 10
105.5373930931234
 20
121.3790406904246
 30
0.0
 10
105.9060977622096
 20
121.021320122869
 30
0.0
 10
106.2694893787198
 20
120.6539657734353
 30
0.0
 10
106.627355047462
 20
120.2770243073961
 30
0.0
 10
106.9795515075887
 20
119.8905969145748
 30
0.0
 10
107.32567173521
 20
119.4946010253852
 30
0.0
 10
107.666302670041
 20
119.0896690701829
 30
0.0
 10
107.8868505743147
 20
118.8133633234363
 30
0.0
 10
107.9975078541968
 20
118.6747302112723
 30
0.0
  0
ARC
  5
297
330
1F
100
AcDbEntity
  8
0
  6
Continuous
 62
     7
370
    15
100
AcDbCircle
 10
89.9970620239
 20
101.599857634
 30
0.0
 40
18.00000000000002
100
AcDbArc
 50
260.9901713638
 51
0.0
  0
LINE
  5
298
330
1F
100
AcDbEntity
  8
0
  6
Continuous
 62
     7
370
    15
100
AcDbLine
 10
89.5021871847
 20
117.5182354209
 30
0.0
 11
87.1781918986
 21
83.8219509032
 31
0.0
  0
LINE
  5
299
330
1F
100
AcDbEntity
  8
0
  6
Continuous
 62
     7
370
    15
100
AcDbLine
 10
89.5021871847
 20
117.5182354209
 30
0.0
 11
91.6875906123
 21
117.7143402901
 31
0.0
  0
LINE
  5
29A
330
1F
100
AcDbEntity
  8
0
  6
Continuous
 62
     7
370
    15
100
AcDbLine
 10
91.6875906123
 20
117.7143402901
 30
0.0
 11
93.1834820958
 21
117.6359434184
 31
0.0
  0
LINE
  5
29B
330
1F
100
AcDbEntity
  8
0
  6
Continuous
 62
     7
370
    15
100
AcDbLine
 10
93.1982382035
 20
117.8498980162
 30
0.0
 11
93.1834820958
 21
117.6359434184
 31
0.0
  0
LINE
  5
29C
330
1F
100
AcDbEntity
  8
0
  6
Continuous
 62
     7
370
    15
100
AcDbLine
 10
107.9970612491
 20
118.1647241619
 30
0.0
 11
107.9970612491
 21
101.599857634
 31
0.0
  0
LWPOLYLINE
  5
29D
330
1F
100
AcDbEntity
  8
0
  6
Continuous
 62
     7
370
    15
100
AcDbPolyline
 90
        5
 70
   128
 43
0.0
 10
88.7240147285
 20
114.4863799718
 10
88.7279862372
 20
114.3585764375
 10
88.7403422103
 20
114.2223472279
 10
88.7591477085
 20
114.1868116838
 10
88.7831209993
 20
114.2543921751
  0
ARC
  5
29E
330
1F
100
AcDbEntity
  8
0
  6
Continuous
 62
     7
370
    15
100
AcDbCircle
 10
89.9970620239
 20
101.599857634
 30
0.0
 40
18.00000000000002
100
AcDbArc
 50
260.1728174499
 51
260.9901713638
  0
LINE
  5
29F
330
1F
100
AcDbEntity
  8
0
  6
Continuous
 62
     7
370
    15
100
AcDbLine
 10
86.9248763493
 20
83.8639703152
 30
0.0
 11
86.9543147573
 21
84.6292939541
 31
0.0
  0
SPLINE
  5
2A0
330
1F
100
AcDbEntity
  8
0
  6
Continuous
 62
     7
370
    15
100
AcDbSpline
210
0.0
220
0.0
230
1.0
 70
     8
 71
     3
 72
    10
 73
     6
 74
     0
 42
0.00000001
 43
0.00000001
 12
1.0
 22
0.0
 32
0.0
 13
1.0
 23
0.0
 33
0.0
 40
0.0
 40
0.0
 40
0.0
 40
0.0
 40
0.5
 40
0.5
 40
1.0
 40
1.0
 40
1.0
 40
1.0
 10
86.94322418160752
 20
85.38492394828025
 30
0.0
 10
86.95472516069965
 20
85.38275791258401
 30
0.0
 10
86.96198190375516
 20
85.30654954246015
 30
0.0
 10
86.96594237241104
 20
85.0338519574036
 30
0.0
 10
86.96254768528944
 20
84.84329563702447
 30
0.0
 10
86.95431482317532
 20
84.62929458525916
 30
0.0
  0
ARC
  5
2A1
330
1F
100
AcDbEntity
  8
0
  6
Continuous
 62
     7
370
    15
100
AcDbCircle
 10
89.9970620239
 20
101.599857634
 30
0.0
 40
16.50000000000002
100
AcDbArc
 50
258.9059841881
 51
259.3341403475
  0
ARC
  5
2A2
330
1F
100
AcDbEntity
  8
0
  6
Continuous
 62
     7
370
    15
100
AcDbCircle
 10
89.9970620239
 20
101.599857634
 30
0.0
 40
16.5
100
AcDbArc
 50
94.6658596525
 51
95.0940158119
  0
SPLINE
  5
2A3
330
1F
100
AcDbEntity
  8
0
  6
Continuous
 62
     7
370
    15
100
AcDbSpline
210
0.0
220
0.0
230
1.0
 70
     8
 71
     3
 72
    10
 73
     6
 74
     0
 42
0.00000001
 43
0.00000001
 12
1.0
 22
0.0
 32
0.0
 13
1.0
 23
0.0
 33
0.0
 40
0.0
 40
0.0
 40
0.0
 40
0.0
 40
0.5
 40
0.5
 40
1.0
 40
1.0
 40
1.0
 40
1.0
 10
88.74489018698218
 20
118.7955078517363
 30
0.0
 10
88.73070791696789
 20
118.5818060364782
 30
0.0
 10
88.71421679493824
 20
118.39253469028
 30
0.0
 10
88.68182495113574
 20
118.1218527385052
 30
0.0
 10
88.6665403800095
 20
118.046129221527
 30
0.0
 10
88.65487552499279
 20
118.0451771931484
 30
0.0
  0
SPLINE
  5
2A4
330
1F
100
AcDbEntity
  8
0
  6
Continuous
 62
     7
370
    15
100
AcDbSpline
210
0.0
220
0.0
230
1.0
 70
     8
 71
     3
 72
     8
 73
     4
 74
     0
 42
0.00000001
 43
0.00000001
 12
1.0
 22
0.0
 32
0.0
 13
1.0
 23
0.0
 33
0.0
 40
0.0
 40
0.0
 40
0.0
 40
0.0
 40
1.0
 40
1.0
 40
1.0
 40
1.0
 10
88.74489018698218
 20
118.7955078517363
 30
0.0
 10
88.82057593332219
 20
119.9359586657277
 30
0.0
 10
88.89628201013159
 20
121.0762667327557
 30
0.0
 10
88.97199979479566
 20
122.2164925950554
 30
0.0
  0
LINE
  5
2A5
330
1F
100
AcDbEntity
  8
0
  6
Continuous
 62
     7
370
    15
100
AcDbLine
 10
88.7831209993
 20
114.2543921751
 30
0.0
 11
89.5021871847
 21
117.5182354209
 31
0.0
  0
LINE
  5
2A6
330
1F
100
AcDbEntity
  8
0
  6
Continuous
 62
     7
370
    15
100
AcDbLine
 10
88.9719997367
 20
122.2164933142
 30
0.0
 11
89.0718589953
 21
122.6697531101
 31
0.0
  0
SPLINE
  5
2A7
330
1F
100
AcDbEntity
  8
0
  6
Continuous
 62
     7
370
    15
100
AcDbSpline
210
0.0
220
0.0
230
1.0
 70
     8
 71
     3
 72
    12
 73
     8
 74
     0
 42
0.00000001
 43
0.00000001
 12
1.0
 22
0.0
 32
0.0
 13
1.0
 23
0.0
 33
0.0
 40
0.0
 40
0.0
 40
0.0
 40
0.0
 40
0.4999999999999984
 40
0.4999999999999984
 40
0.7499999999999992
 40
0.7499999999999992
 40
1.0
 40
1.0
 40
1.0
 40
1.0
 10
85.09484482676625
 20
108.9926195477408
 30
0.0
 10
85.19094515712182
 20
109.2709163515162
 30
0.0
 10
85.25338066630489
 20
109.5554227765007
 30
0.0
 10
85.2837655563103
 20
109.9941227194601
 30
0.0
 10
85.28279280529084
 20
110.1432267161307
 30
0.0
 10
85.25463503906273
 20
110.4350415831622
 30
0.0
 10
85.22767716561003
 20
110.578949413316
 30
0.0
 10
85.1854016891328
 20
110.7205474165689
 30
0.0
  0
SPLINE
  5
2A8
330
1F
100
AcDbEntity
  8
0
  6
Continuous
 62
     7
370
    15
100
AcDbSpline
210
0.0
220
0.0
230
1.0
 70
     8
 71
     3
 72
    18
 73
    14
 74
     0
 42
0.00000001
 43
0.00000001
 12
1.0
 22
0.0
 32
0.0
 13
1.0
 23
0.0
 33
0.0
 40
0.0
 40
0.0
 40
0.0
 40
0.0
 40
0.2500000000000001
 40
0.2500000000000001
 40
0.5000000000000002
 40
0.5000000000000002
 40
0.6250000000000001
 40
0.6250000000000001
 40
0.7500000000000001
 40
0.7500000000000001
 40
0.875
 40
0.875
 40
1.0
 40
1.0
 40
1.0
 40
1.0
 10
88.53202263356458
 20
118.0346883171896
 30
0.0
 10
88.50946176537063
 20
118.0326771884338
 30
0.0
 10
88.4200840399579
 20
118.0250699447034
 30
0.0
 10
88.10902552258923
 20
117.9922271144385
 30
0.0
 10
87.89352182842131
 20
117.9675095494053
 30
0.0
 10
87.4872478961165
 20
117.9084308606386
 30
0.0
 10
87.33863700955938
 20
117.8850758077334
 30
0.0
 10
87.02361176445066
 20
117.8305122134531
 30
0.0
 10
86.85618565784185
 20
117.7991665933332
 30
0.0
 10
86.50182909093864
 20
117.7264214915335
 30
0.0
 10
86.31526478397659
 20
117.6850256945401
 30
0.0
 10
85.93497300247853
 20
117.5932217339554
 30
0.0
 10
85.73985000763544
 20
117.542543557599
 30
0.0
 10
85.53998874122667
 20
117.4864714252702
 30
0.0
  0
SPLINE
  5
2A9
330
1F
100
AcDbEntity
  8
0
  6
Continuous
 62
     7
370
    15
100
AcDbSpline
210
0.0
220
0.0
230
1.0
 70
     8
 71
     3
 72
    20
 73
    16
 74
     0
 42
0.00000001
 43
0.00000001
 12
1.0
 22
0.0
 32
0.0
 13
1.0
 23
0.0
 33
0.0
 40
0.0
 40
0.0
 40
0.0
 40
0.0
 40
0.2500000000000012
 40
0.2500000000000012
 40
0.3750000000000013
 40
0.3750000000000013
 40
0.5000000000000016
 40
0.5000000000000016
 40
0.6250000000000017
 40
0.6250000000000017
 40
0.7500000000000018
 40
0.7500000000000018
 40
0.875000000000002
 40
0.875000000000002
 40
1.0
 40
1.0
 40
1.0
 40
1.0
 10
83.90380172889391
 20
86.26616339626344
 30
0.0
 10
84.28959069690548
 20
86.11285966106412
 30
0.0
 10
84.65721599149015
 20
85.9835859566361
 30
0.0
 10
85.1764316523593
 20
85.81871391726818
 30
0.0
 10
85.34152969936974
 20
85.76945775349019
 30
0.0
 10
85.64903782621454
 20
85.68225017628342
 30
0.0
 10
85.79251596347363
 20
85.64396487122411
 30
0.0
 10
86.05770453269767
 20
85.57643153381849
 30
0.0
 10
86.17871274686244
 20
85.54738412800467
 30
0.0
 10
86.38946908869086
 20
85.49870953593015
 30
0.0
 10
86.48049544525563
 20
85.47875818485402
 30
0.0
 10
86.63311646759725
 20
85.44622156512882
 30
0.0
 10
86.69450868236802
 20
85.43368359396017
 30
0.0
 10
86.78309882815857
 20
85.4158382864168
 30
0.0
 10
86.81102593433125
 20
85.41037640937004
 30
0.0
 10
86.82214067725823
 20
85.40819698902797
 30
0.0
  0
ELLIPSE
  5
2AA
330
1F
100
AcDbEntity
  8
0
  6
Continuous
 62
     7
370
    15
100
AcDbEllipse
 10
82.9536154635
 20
109.2481472542
 30
0.0
 11
1.577092900021995
 21
2.392268409819081
 31
0.0
210
0.0
220
0.0
230
1.0
 40
0.7147659951
 41
5.743227094515766
 42
11.33914766008346
  0
ARC
  5
2AB
330
1F
100
AcDbEntity
  8
0
  6
Continuous
 62
     7
370
    15
100
AcDbCircle
 10
89.9970620239
 20
101.599857634
 30
0.0
 40
16.5
100
AcDbArc
 50
105.6717441009
 51
248.3282558991
  0
SPLINE
  5
2AC
330
1F
100
AcDbEntity
  8
0
  6
Continuous
 62
     7
370
    15
100
AcDbSpline
210
0.0
220
0.0
230
1.0
 70
    24
 71
     3
 72
     9
 73
     5
 74
     0
 42
0.00000001
 43
0.00000001
 12
1.0
 22
0.0
 32
0.0
 13
1.0
 23
0.0
 33
0.0
 40
0.0
 40
0.0
 40
0.0
 40
0.0
 40
0.5
 40
1.0
 40
1.0
 40
1.0
 40
1.0
 10
85.49706202393911
 20
118.499857634014
 30
0.0
 10
85.49706202393911
 20
118.5017805023479
 30
0.0
 10
85.49706202393911
 20
118.5056257913368
 30
0.0
 10
85.49706202393911
 20
118.5094701856573
 30
0.0
 10
85.49706202393911
 20
118.5113921593018
 30
0.0
  0
SPLINE
  5
2AD
330
1F
100
AcDbEntity
  8
0
  6
Continuous
 62
     7
370
    15
100
AcDbSpline
210
0.0
220
0.0
230
1.0
 70
    24
 71
     3
 72
     9
 73
     5
 74
     0
 42
0.00000001
 43
0.00000001
 12
1.0
 22
0.0
 32
0.0
 13
1.0
 23
0.0
 33
0.0
 40
0.0
 40
0.0
 40
0.0
 40
0.0
 40
0.2247766491594651
 40
0.9999999999999999
 40
0.9999999999999999
 40
0.9999999999999999
 40
0.9999999999999999
 10
88.72230190991006
 20
118.4998568651141
 30
0.0
 10
88.48054165040134
 20
118.4998568651141
 30
0.0
 10
87.40498393382909
 20
118.4998568651141
 30
0.0
 10
86.33023369731856
 20
118.4998568651141
 30
0.0
 10
85.49706221765422
 20
118.4998568651141
 30
0.0
  0
SPLINE
  5
2AE
330
1F
100
AcDbEntity
  8
0
  6
Continuous
 62
     7
370
    15
100
AcDbSpline
210
0.0
220
0.0
230
1.0
 70
    24
 71
     3
 72
     9
 73
     5
 74
     0
 42
0.00000001
 43
0.00000001
 12
1.0
 22
0.0
 32
0.0
 13
1.0
 23
0.0
 33
0.0
 40
0.0
 40
0.0
 40
0.0
 40
0.0
 40
0.1534524605602224
 40
1.0
 40
1.0
 40
1.0
 40
1.0
 10
86.956414424093
 20
84.69985840291395
 30
0.0
 10
86.8796728497744
 20
84.69985840291395
 30
0.0
 10
86.37957285764381
 20
84.69985840291395
 30
0.0
 10
85.87829283387948
 20
84.69985840291395
 30
0.0
 10
85.4539354631915
 20
84.69985840291395
 30
0.0
  0
SPLINE
  5
2AF
330
1F
100
AcDbEntity
  8
0
  6
Continuous
 62
     7
370
    15
100
AcDbSpline
210
0.0
220
0.0
230
1.0
 70
    24
 71
     3
 72
    12
 73
     8
 74
     0
 42
0.00000001
 43
0.00000001
 12
1.0
 22
0.0
 32
0.0
 13
1.0
 23
0.0
 33
0.0
 40
0.0
 40
0.0
 40
0.0
 40
0.0
 40
0.5
 40
0.5
 40
0.75
 40
0.75
 40
1.0
 40
1.0
 40
1.0
 40
1.0
 10
77.11965933550849
 20
113.449857634014
 30
0.0
 10
77.3021860390562
 20
113.449857634014
 30
0.0
 10
77.48677669439137
 20
113.449857634014
 30
0.0
 10
77.74705801656589
 20
113.449857634014
 30
0.0
 10
77.83161246937696
 20
113.449857634014
 30
0.0
 10
77.99556041912118
 20
113.449857634014
 30
0.0
 10
78.07501064316256
 20
113.449857634014
 30
0.0
 10
78.14706202394089
 20
113.449857634014
 30
0.0
  0
SPLINE
  5
2B0
330
1F
100
AcDbEntity
  8
0
  6
Continuous
 62
     7
370
    15
100
AcDbSpline
210
0.0
220
0.0
230
1.0
 70
    24
 71
     3
 72
    10
 73
     6
 74
     0
 42
0.00000001
 43
0.00000001
 12
1.0
 22
0.0
 32
0.0
 13
1.0
 23
0.0
 33
0.0
 40
0.0
 40
0.0
 40
0.0
 40
0.0
 40
0.5
 40
0.5
 40
1.0
 40
1.0
 40
1.0
 40
1.0
 10
78.1470620239391
 20
114.4772603224446
 30
0.0
 10
78.1470620239391
 20
114.2945516103097
 30
0.0
 10
78.1470620239391
 20
114.1110433205489
 30
0.0
 10
78.14706202393911
 20
113.7627393422282
 30
0.0
 10
78.1470620239391
 20
113.5945517596853
 30
0.0
 10
78.1470620239391
 20
113.4498576340126
 30
0.0
  0
SPLINE
  5
2B1
330
1F
100
AcDbEntity
  8
0
  6
Continuous
 62
     7
370
    15
100
AcDbSpline
210
0.0
220
0.0
230
1.0
 70
    24
 71
     3
 72
    10
 73
     6
 74
     0
 42
0.00000001
 43
0.00000001
 12
1.0
 22
0.0
 32
0.0
 13
1.0
 23
0.0
 33
0.0
 40
0.0
 40
0.0
 40
0.0
 40
0.0
 40
0.5
 40
0.5
 40
1.0
 40
1.0
 40
1.0
 40
1.0
 10
85.49706202393911
 20
120.4707346671569
 30
0.0
 10
85.49706202393911
 20
120.6291691100448
 30
0.0
 10
85.49706202393911
 20
120.7881898048467
 30
0.0
 10
85.49706202393911
 20
121.0181976291024
 30
0.0
 10
85.49706202393911
 20
121.0870329039191
 30
0.0
 10
85.49706202393911
 20
121.0870329039191
 30
0.0
  0
ARC
  5
2B2
330
1F
100
AcDbEntity
  8
0
  6
Continuous
 62
     7
370
    15
100
AcDbCircle
 10
89.9970620239
 20
101.599857634
 30
0.0
 40
20.0
100
AcDbArc
 50
103.0028781629
 51
126.3346172154
  0
SPLINE
  5
2B3
330
1F
100
AcDbEntity
  8
0
  6
Continuous
 62
     7
370
    15
100
AcDbSpline
210
0.0
220
0.0
230
1.0
 70
    24
 71
     3
 72
    12
 73
     8
 74
     0
 42
0.00000001
 43
0.00000001
 12
1.0
 22
0.0
 32
0.0
 13
1.0
 23
0.0
 33
0.0
 40
0.0
 40
0.0
 40
0.0
 40
0.0
 40
0.25
 40
0.25
 40
0.5
 40
0.5
 40
1.0
 40
1.0
 40
1.0
 40
1.0
 10
78.1470620239391
 20
117.7112666350915
 30
0.0
 10
78.1470620239391
 20
117.7112666350915
 30
0.0
 10
78.1470620239391
 20
117.6856420024867
 30
0.0
 10
78.1470620239391
 20
117.5970986295549
 30
0.0
 10
78.1470620239391
 20
117.5342161464403
 30
0.0
 10
78.1470620239391
 20
117.3168549585067
 30
0.0
 10
78.1470620239391
 20
117.1382079484953
 30
0.0
 10
78.1470620239391
 20
116.9601147933196
 30
0.0
  0
SPLINE
  5
2B4
330
1F
100
AcDbEntity
  8
0
  6
Continuous
 62
     7
370
    15
100
AcDbSpline
210
0.0
220
0.0
230
1.0
 70
    24
 71
     3
 72
    10
 73
     6
 74
     0
 42
0.00000001
 43
0.00000001
 12
1.0
 22
0.0
 32
0.0
 13
1.0
 23
0.0
 33
0.0
 40
0.0
 40
0.0
 40
0.0
 40
0.0
 40
0.5
 40
0.5
 40
1.0
 40
1.0
 40
1.0
 40
1.0
 10
84.49706202393911
 20
82.99582581292749
 30
0.0
 10
84.49706202393911
 20
82.83619364402425
 30
0.0
 10
84.49706202393911
 20
82.6751440102602
 30
0.0
 10
84.49706202393911
 20
82.4421531265836
 30
0.0
 10
84.49706202393911
 20
82.3709731109846
 30
0.0
 10
84.49706202393911
 20
82.37097311098461
 30
0.0
  0
ARC
  5
2B5
330
1F
100
AcDbEntity
  8
0
  6
Continuous
 62
     7
370
    15
100
AcDbCircle
 10
89.9970620239
 20
101.599857634
 30
0.0
 40
20.00000000000001
100
AcDbArc
 50
143.6653827846
 51
254.0379858372
  0
SPLINE
  5
2B6
330
1F
100
AcDbEntity
  8
0
  6
Continuous
 62
     7
370
    15
100
AcDbSpline
210
0.0
220
0.0
230
1.0
 70
    24
 71
     3
 72
    12
 73
     8
 74
     0
 42
0.00000001
 43
0.00000001
 12
1.0
 22
0.0
 32
0.0
 13
1.0
 23
0.0
 33
0.0
 40
0.0
 40
0.0
 40
0.0
 40
0.0
 40
0.250000000000002
 40
0.250000000000002
 40
0.500000000000004
 40
0.500000000000004
 40
1.0
 40
1.0
 40
1.0
 40
1.0
 10
73.88565302286163
 20
113.449857634014
 30
0.0
 10
73.88565302286163
 20
113.449857634014
 30
0.0
 10
73.91093317302611
 20
113.449857634014
 30
0.0
 10
74.00054451852786
 20
113.449857634014
 30
0.0
 10
74.06353015545386
 20
113.449857634014
 30
0.0
 10
74.27981687721143
 20
113.449857634014
 30
0.0
 10
74.4597966346318
 20
113.449857634014
 30
0.0
 10
74.6368048646335
 20
113.449857634014
 30
0.0
  0
ARC
  5
2B7
330
1F
100
AcDbEntity
  8
0
  6
Continuous
 62
     7
370
    15
100
AcDbCircle
 10
89.9970620239
 20
101.599857634
 30
0.0
 40
20.00000000000001
100
AcDbArc
 50
285.9620141628
 51
25.8419327632
  0
SPLINE
  5
2B8
330
1F
100
AcDbEntity
  8
0
  6
Continuous
 62
     7
370
    15
100
AcDbSpline
210
0.0
220
0.0
230
1.0
 70
    24
 71
     3
 72
    12
 73
     8
 74
     0
 42
0.00000001
 43
0.00000001
 12
1.0
 22
0.0
 32
0.0
 13
1.0
 23
0.0
 33
0.0
 40
0.0
 40
0.0
 40
0.0
 40
0.0
 40
0.2499999999999962
 40
0.2499999999999962
 40
0.4999999999999925
 40
0.4999999999999925
 40
1.0
 40
1.0
 40
1.0
 40
1.0
 10
95.49706202393911
 20
82.37097311098461
 30
0.0
 10
95.49706202393911
 20
82.37097311098461
 30
0.0
 10
95.49706202393911
 20
82.38794870734272
 30
0.0
 10
95.49706202393911
 20
82.45242420480191
 30
0.0
 10
95.49706202393911
 20
82.49953783659652
 30
0.0
 10
95.49706202393911
 20
82.676147750584
 30
0.0
 10
95.49706202393911
 20
82.83599662639216
 30
0.0
 10
95.49706202393911
 20
82.99582581292718
 30
0.0
  0
LINE
  5
2B9
330
1F
100
AcDbEntity
  8
0
  6
Continuous
 62
     7
370
    15
100
AcDbLine
 10
95.4970619941
 20
82.9958249387
 30
0.0
 11
95.4970619941
 21
84.4607208428
 31
0.0
  0
LINE
  5
2BA
330
1F
100
AcDbEntity
  8
0
  6
Continuous
 62
     7
370
    15
100
AcDbLine
 10
84.4970620537
 20
84.6998584029
 30
0.0
 11
84.4970620537
 21
82.9958249387
 31
0.0
  0
LINE
  5
2BB
330
1F
100
AcDbEntity
  8
0
  6
Continuous
 62
     7
370
    15
100
AcDbLine
 10
85.4539354632
 20
84.6998584029
 30
0.0
 11
84.4970620537
 21
84.6998584029
 31
0.0
  0
LINE
  5
2BC
330
1F
100
AcDbEntity
  8
0
  6
Continuous
 62
     7
370
    15
100
AcDbLine
 10
74.6368044356
 20
113.4498579931
 30
0.0
 11
77.1196591968
 21
113.4498579931
 31
0.0
  0
LINE
  5
2BD
330
1F
100
AcDbEntity
  8
0
  6
Continuous
 62
     7
370
    15
100
AcDbLine
 10
85.4970622177
 20
118.5113922265
 30
0.0
 11
85.4970622177
 21
120.470734736
 31
0.0
  0
LINE
  5
2BE
330
1F
100
AcDbEntity
  8
0
  6
Continuous
 62
     7
370
    15
100
AcDbLine
 10
78.1470616648
 20
116.9601152223
 30
0.0
 11
78.1470616648
 21
114.4772604612
 31
0.0
  0
SPLINE
  5
2BF
330
1F
100
AcDbEntity
  8
0
  6
Continuous
 62
     7
370
    15
100
AcDbSpline
210
0.0
220
0.0
230
1.0
 70
     8
 71
     3
 72
    22
 73
    18
 74
     0
 42
0.00000001
 43
0.00000001
 12
1.0
 22
0.0
 32
0.0
 13
1.0
 23
0.0
 33
0.0
 40
0.0
 40
0.0
 40
0.0
 40
0.0
 40
0.2500000000000002
 40
0.2500000000000002
 40
0.3750000000000001
 40
0.3750000000000001
 40
0.5000000000000001
 40
0.5000000000000001
 40
0.6250000000000001
 40
0.6250000000000001
 40
0.75
 40
0.75
 40
0.875
 40
0.875
 40
0.9375000000000001
 40
0.9375000000000001
 40
1.0
 40
1.0
 40
1.0
 40
1.0
 10
73.88565302286165
 20
113.449857634014
 30
0.0
 10
74.29964790102814
 20
114.012730275912
 30
0.0
 10
74.73545770233707
 20
114.5433551596416
 30
0.0
 10
75.4121985053214
 20
115.2890661505631
 30
0.0
 10
75.64305363249609
 20
115.5306863769619
 30
0.0
 10
76.10309068765822
 20
115.9895451522878
 30
0.0
 10
76.3290583644367
 20
116.2037238247576
 30
0.0
 10
76.76624995293743
 20
116.6009523839031
 30
0.0
 10
76.97930267723
 20
116.7853972189229
 30
0.0
 10
77.36347881646353
 20
117.1064770668066
 30
0.0
 10
77.53759582525501
 20
117.2458278969126
 30
0.0
 10
77.83111357005552
 20
117.4751334313381
 30
0.0
 10
77.94590587465294
 20
117.5616694408145
 30
0.0
 10
78.06486045074892
 20
117.6505590451457
 30
0.0
 10
78.09567853373551
 20
117.6733675510073
 30
0.0
 10
78.13669774545411
 20
117.7036587137036
 30
0.0
 10
78.14706202393911
 20
117.7112666350915
 30
0.0
 10
78.1470620239391
 20
117.7112666350915
 30
0.0
  0
SPLINE
  5
2C0
330
1F
100
AcDbEntity
  8
0
  6
Continuous
 62
     7
370
    15
100
AcDbSpline
210
0.0
220
0.0
230
1.0
 70
     8
 71
     3
 72
    22
 73
    18
 74
     0
 42
0.00000001
 43
0.00000001
 12
1.0
 22
0.0
 32
0.0
 13
1.0
 23
0.0
 33
0.0
 40
0.0
 40
0.0
 40
0.0
 40
0.0
 40
0.1250000000000001
 40
0.1250000000000001
 40
0.2500000000000002
 40
0.2500000000000002
 40
0.3750000000000003
 40
0.3750000000000003
 40
0.5000000000000004
 40
0.5000000000000004
 40
0.6250000000000003
 40
0.6250000000000003
 40
0.7500000000000002
 40
0.7500000000000002
 40
0.8750000000000001
 40
0.8750000000000001
 40
1.0
 40
1.0
 40
1.0
 40
1.0
 10
90.99706202393911
 20
81.62487327857585
 30
0.0
 10
91.29579975233676
 20
81.63982887118517
 30
0.0
 10
91.58900507717121
 20
81.66121706783156
 30
0.0
 10
92.16496015779879
 20
81.71559531444684
 30
0.0
 10
92.45070245161418
 20
81.74904147805523
 30
0.0
 10
92.99423159260785
 20
81.82380575345297
 30
0.0
 10
93.25172478082946
 20
81.86490424241391
 30
0.0
 10
93.73892977809476
 20
81.95145717137768
 30
0.0
 10
93.9690694002839
 20
81.99710807047556
 30
0.0
 10
94.38227505648739
 20
82.08538762564041
 30
0.0
 10
94.56811079718327
 20
82.12848897564766
 30
0.0
 10
94.8972073773667
 20
82.20869315550291
 30
0.0
 10
95.03716723418074
 20
82.24498800289248
 30
0.0
 10
95.26285359541039
 20
82.30516722204219
 30
0.0
 10
95.35012500374913
 20
82.32945455947329
 30
0.0
 10
95.4675252171
 20
82.36245265378467
 30
0.0
 10
95.49706202393911
 20
82.37097311098461
 30
0.0
 10
95.49706202393911
 20
82.37097311098461
 30
0.0
  0
SPLINE
  5
2C1
330
1F
100
AcDbEntity
  8
0
  6
Continuous
 62
     7
370
    15
100
AcDbSpline
210
0.0
220
0.0
230
1.0
 70
     8
 71
     3
 72
    22
 73
    18
 74
     0
 42
0.00000001
 43
0.00000001
 12
1.0
 22
0.0
 32
0.0
 13
1.0
 23
0.0
 33
0.0
 40
0.0
 40
0.0
 40
0.0
 40
0.0
 40
0.125
 40
0.125
 40
0.25
 40
0.25
 40
0.375
 40
0.375
 40
0.5
 40
0.5
 40
0.625
 40
0.625
 40
0.75
 40
0.75
 40
0.875
 40
0.875
 40
1.0
 40
1.0
 40
1.0
 40
1.0
 10
84.49706202393911
 20
82.37097311098461
 30
0.0
 10
84.49706202393911
 20
82.37097311098461
 30
0.0
 10
84.52658792235904
 20
82.36245900991821
 30
0.0
 10
84.64199275564569
 20
82.33001524103632
 30
0.0
 10
84.72937556071153
 20
82.30568135233429
 30
0.0
 10
84.95604898001915
 20
82.24522132757745
 30
0.0
 10
85.0945248263517
 20
82.20930790679897
 30
0.0
 10
85.42133532351548
 20
82.12959788072982
 30
0.0
 10
85.61038015949548
 20
82.08571957954048
 30
0.0
 10
86.02324844197119
 20
81.9974759571703
 30
0.0
 10
86.24872033322252
 20
81.95266761570934
 30
0.0
 10
86.7395759377702
 20
81.86534660779017
 30
0.0
 10
86.99841609571227
 20
81.82405581921451
 30
0.0
 10
87.53816892150809
 20
81.74971759592067
 30
0.0
 10
87.82227201033716
 20
81.71630747018602
 30
0.0
 10
88.40372514547906
 20
81.66128806865989
 30
0.0
 10
88.69837561110735
 20
81.63982630219363
 30
0.0
 10
88.99706202393912
 20
81.62487327857585
 30
0.0
  0
SPLINE
  5
2C2
330
1F
100
AcDbEntity
  8
0
  6
Continuous
 62
     7
370
    15
100
AcDbSpline
210
0.0
220
0.0
230
1.0
 70
     8
 71
     3
 72
    15
 73
    11
 74
     0
 42
0.00000001
 43
0.00000001
 12
1.0
 22
0.0
 32
0.0
 13
1.0
 23
0.0
 33
0.0
 40
0.0
 40
0.0
 40
0.0
 40
0.0
 40
0.1244736394717475
 40
0.2489565635257969
 40
0.3733315516852264
 40
0.4977191689073365
 40
0.6241038926931887
 40
0.7504856026750483
 40
0.8782831904539947
 40
0.9999999999999999
 40
0.9999999999999999
 40
0.9999999999999999
 40
0.9999999999999999
 10
85.4970622176542
 20
121.0870337244929
 30
0.0
 10
85.50932839592629
 20
121.0899349258737
 30
0.0
 10
85.53386166741392
 20
121.0957375450381
 30
0.0
 10
85.72485493197905
 20
121.1387229301324
 30
0.0
 10
86.02571830630393
 20
121.2027543483142
 30
0.0
 10
86.43669951166326
 20
121.2822609422314
 30
0.0
 10
86.94922890164037
 20
121.3689381606519
 30
0.0
 10
87.55173199253849
 20
121.453003989206
 30
0.0
 10
88.21531644791503
 20
121.5255330073633
 30
0.0
 10
88.69508857953113
 20
121.5559017716885
 30
0.0
 10
88.92912851388148
 20
121.5707161036195
 30
0.0
  0
ARC
  5
2C3
330
1F
100
AcDbEntity
  8
0
  6
Continuous
 62
     7
370
    15
100
AcDbCircle
 10
89.9970620239
 20
101.599857634
 30
0.0
 40
20.0
100
AcDbArc
 50
267.1340160174
 51
272.8659839826
  0
CIRCLE
  5
2C4
330
1F
100
AcDbEntity
  8
VERMASSUNG
  6
CENTERX2
100
AcDbCircle
 10
89.9970620239
 20
103.584300233
 30
0.0
 40
25.0
  0
POINT
  5
2C5
330
1F
100
AcDbEntity
  8
VERMASSUNG
100
AcDbPoint
 10
89.9694134568
 20
128.5842849441
 30
0.0
  0
DIMENSION
  5
2C6
330
1F
100
AcDbEntity
  8
VERMASSUNG
100
AcDbDimension
  2
_D_5
 10
62.1001147947
 20
128.584300233
 30
0.0
 11
62.1001147947
 21
103.584300233
 31
0.0
 70
   160
  1
%%c<>
 71
     2
 42
-1.0
  3
SLDDIMSTYLE0
100
AcDbAlignedDimension
 13
89.9970620239
 23
78.584300233
 33
0.0
 14
89.9970620239
 24
128.584300233
 34
0.0
 50
90.0
100
AcDbRotatedDimension
  0
INSERT
  5
2DC
330
1F
100
AcDbEntity
  8
VERMASSUNG
100
AcDbBlockReference
  2
SW_CENTERMARKSYMBOL_0
 10
89.9970620239
 20
101.599857634
 30
0.0
  0
OLE2FRAME
  5
2DD
330
1F
100
AcDbEntity
  8
0
100
AcDbOle2Frame
 70
     2
  3
Paintbrush-Bild
 10
13.8511154363
 20
38.264191557
 30
0.0
 11
51.6290888628
 21
31.9806341108
 31
0.0
 71
     2
 72
     0
 73
     1
 90
    12928
310
80552BED0767C5B32B40DDAF6807D121434000000000000000006FFBDDFB85D0
310
4940DDAF6807D121434000000000000000006FFBDDFB85D04940416F4BD60AFB
310
3F4000000000000000002BED0767C5B32B40416F4BD60AFB3F40000000000000
310
0000000000000100000000010000010000000100000000000100000000320000
310
D0CF11E0A1B11AE1000000000000000000000000000000003E000300FEFF0900
310
0600000000000000000000000100000001000000000000000010000002000000
310
01000000FEFFFFFF0000000000000000FFFFFFFFFFFFFFFFFFFFFFFFFFFFFFFF
310
FFFFFFFFFFFFFFFFFFFFFFFFFFFFFFFFFFFFFFFFFFFFFFFFFFFFFFFFFFFFFFFF
310
FFFFFFFFFFFFFFFFFFFFFFFFFFFFFFFFFFFFFFFFFFFFFFFFFFFFFFFFFFFFFFFF
310
FFFFFFFFFFFFFFFFFFFFFFFFFFFFFFFFFFFFFFFFFFFFFFFFFFFFFFFFFFFFFFFF
310
FFFFFFFFFFFFFFFFFFFFFFFFFFFFFFFFFFFFFFFFFFFFFFFFFFFFFFFFFFFFFFFF
310
FFFFFFFFFFFFFFFFFFFFFFFFFFFFFFFFFFFFFFFFFFFFFFFFFFFFFFFFFFFFFFFF
310
FFFFFFFFFFFFFFFFFFFFFFFFFFFFFFFFFFFFFFFFFFFFFFFFFFFFFFFFFFFFFFFF
310
FFFFFFFFFFFFFFFFFFFFFFFFFFFFFFFFFFFFFFFFFFFFFFFFFFFFFFFFFFFFFFFF
310
FFFFFFFFFFFFFFFFFFFFFFFFFFFFFFFFFFFFFFFFFFFFFFFFFFFFFFFFFFFFFFFF
310
FFFFFFFFFFFFFFFFFFFFFFFFFFFFFFFFFFFFFFFFFFFFFFFFFFFFFFFFFFFFFFFF
310
FFFFFFFFFFFFFFFFFFFFFFFFFFFFFFFFFFFFFFFFFFFFFFFFFFFFFFFFFFFFFFFF
310
FFFFFFFFFFFFFFFFFFFFFFFFFFFFFFFFFFFFFFFFFFFFFFFFFFFFFFFFFFFFFFFF
310
FFFFFFFFFFFFFFFFFFFFFFFFFFFFFFFFFFFFFFFFFFFFFFFFFFFFFFFFFFFFFFFF
310
FFFFFFFFFFFFFFFFFFFFFFFFFFFFFFFFFFFFFFFFFFFFFFFFFFFFFFFFFFFFFFFF
310
FDFFFFFFFEFFFFFFFEFFFFFFFEFFFFFF05000000060000000700000008000000
310
090000000A0000000B0000000C0000000D0000000E0000000F00000010000000
310
11000000120000001300000014000000150000001600000017000000FEFFFFFF
310
FFFFFFFFFFFFFFFFFFFFFFFFFFFFFFFFFFFFFFFFFFFFFFFFFFFFFFFFFFFFFFFF
310
FFFFFFFFFFFFFFFFFFFFFFFFFFFFFFFFFFFFFFFFFFFFFFFFFFFFFFFFFFFFFFFF
310
FFFFFFFFFFFFFFFFFFFFFFFFFFFFFFFFFFFFFFFFFFFFFFFFFFFFFFFFFFFFFFFF
310
FFFFFFFFFFFFFFFFFFFFFFFFFFFFFFFFFFFFFFFFFFFFFFFFFFFFFFFFFFFFFFFF
310
FFFFFFFFFFFFFFFFFFFFFFFFFFFFFFFFFFFFFFFFFFFFFFFFFFFFFFFFFFFFFFFF
310
FFFFFFFFFFFFFFFFFFFFFFFFFFFFFFFFFFFFFFFFFFFFFFFFFFFFFFFFFFFFFFFF
310
FFFFFFFFFFFFFFFFFFFFFFFFFFFFFFFFFFFFFFFFFFFFFFFFFFFFFFFFFFFFFFFF
310
FFFFFFFFFFFFFFFFFFFFFFFFFFFFFFFFFFFFFFFFFFFFFFFFFFFFFFFFFFFFFFFF
310
FFFFFFFFFFFFFFFFFFFFFFFFFFFFFFFFFFFFFFFFFFFFFFFFFFFFFFFFFFFFFFFF
310
FFFFFFFFFFFFFFFFFFFFFFFFFFFFFFFFFFFFFFFFFFFFFFFFFFFFFFFFFFFFFFFF
310
FFFFFFFFFFFFFFFFFFFFFFFFFFFFFFFFFFFFFFFFFFFFFFFFFFFFFFFFFFFFFFFF
310
FFFFFFFFFFFFFFFFFFFFFFFFFFFFFFFFFFFFFFFFFFFFFFFFFFFFFFFFFFFFFFFF
310
FFFFFFFFFFFFFFFFFFFFFFFFFFFFFFFFFFFFFFFFFFFFFFFFFFFFFFFFFFFFFFFF
310
52006F006F007400200045006E00740072007900000000000000000000000000
310
0000000000000000000000000000000000000000000000000000000000000000
310
16000500FFFFFFFFFFFFFFFF020000000A00030000000000C000000000000046
310
000000000000000000000000803C879EF422CD0103000000C000000000000000
310
01004F006C006500000000000000000000000000000000000000000000000000
310
0000000000000000000000000000000000000000000000000000000000000000
310
0A000200FFFFFFFFFFFFFFFFFFFFFFFF00000000000000000000000000000000
310
0000000000000000000000000000000000000000000000001400000000000000
310
010043006F006D0070004F0062006A0000000000000000000000000000000000
310
0000000000000000000000000000000000000000000000000000000000000000
310
120002010100000003000000FFFFFFFF00000000000000000000000000000000
310
0000000000000000000000000000000000000000010000004D00000000000000
310
01004F006C006500310030004E00610074006900760065000000000000000000
310
0000000000000000000000000000000000000000000000000000000000000000
310
1A000200FFFFFFFFFFFFFFFFFFFFFFFF00000000000000000000000000000000
310
0000000000000000000000000000000000000000040000002426000000000000
310
FEFFFFFF02000000FEFFFFFFFFFFFFFFFFFFFFFFFFFFFFFFFFFFFFFFFFFFFFFF
310
FFFFFFFFFFFFFFFFFFFFFFFFFFFFFFFFFFFFFFFFFFFFFFFFFFFFFFFFFFFFFFFF
310
FFFFFFFFFFFFFFFFFFFFFFFFFFFFFFFFFFFFFFFFFFFFFFFFFFFFFFFFFFFFFFFF
310
FFFFFFFFFFFFFFFFFFFFFFFFFFFFFFFFFFFFFFFFFFFFFFFFFFFFFFFFFFFFFFFF
310
FFFFFFFFFFFFFFFFFFFFFFFFFFFFFFFFFFFFFFFFFFFFFFFFFFFFFFFFFFFFFFFF
310
FFFFFFFFFFFFFFFFFFFFFFFFFFFFFFFFFFFFFFFFFFFFFFFFFFFFFFFFFFFFFFFF
310
FFFFFFFFFFFFFFFFFFFFFFFFFFFFFFFFFFFFFFFFFFFFFFFFFFFFFFFFFFFFFFFF
310
FFFFFFFFFFFFFFFFFFFFFFFFFFFFFFFFFFFFFFFFFFFFFFFFFFFFFFFFFFFFFFFF
310
FFFFFFFFFFFFFFFFFFFFFFFFFFFFFFFFFFFFFFFFFFFFFFFFFFFFFFFFFFFFFFFF
310
FFFFFFFFFFFFFFFFFFFFFFFFFFFFFFFFFFFFFFFFFFFFFFFFFFFFFFFFFFFFFFFF
310
FFFFFFFFFFFFFFFFFFFFFFFFFFFFFFFFFFFFFFFFFFFFFFFFFFFFFFFFFFFFFFFF
310
FFFFFFFFFFFFFFFFFFFFFFFFFFFFFFFFFFFFFFFFFFFFFFFFFFFFFFFFFFFFFFFF
310
FFFFFFFFFFFFFFFFFFFFFFFFFFFFFFFFFFFFFFFFFFFFFFFFFFFFFFFFFFFFFFFF
310
FFFFFFFFFFFFFFFFFFFFFFFFFFFFFFFFFFFFFFFFFFFFFFFFFFFFFFFFFFFFFFFF
310
FFFFFFFFFFFFFFFFFFFFFFFFFFFFFFFFFFFFFFFFFFFFFFFFFFFFFFFFFFFFFFFF
310
FFFFFFFFFFFFFFFFFFFFFFFFFFFFFFFFFFFFFFFFFFFFFFFFFFFFFFFFFFFFFFFF
310
0100000200000000000000000000000000000000000000000000000000000000
310
0000000000000000000000000000000000000000000000000000000000000000
310
0100FEFF030A0000FFFFFFFF0A00030000000000C00000000000004607000000
310
5042727573680007000000504272757368000700000050427275736800F439B2
310
7100000000000000000000000000000000000000000000000000000000000000
310
0000000000000000000000000000000000000000000000000000000000000000
310
0000000000000000000000000000000000000000000000000000000000000000
310
0000000000000000000000000000000000000000000000000000000000000000
310
0000000000000000000000000000000000000000000000000000000000000000
310
0000000000000000000000000000000000000000000000000000000000000000
310
0000000000000000000000000000000000000000000000000000000000000000
310
0000000000000000000000000000000000000000000000000000000000000000
310
0000000000000000000000000000000000000000000000000000000000000000
310
0000000000000000000000000000000000000000000000000000000000000000
310
0000000000000000000000000000000000000000000000000000000000000000
310
0000000000000000000000000000000000000000000000000000000000000000
310
20260000424D0E260000000000003E00000028000000B40200006E0000000100
310
01000000000000000000130B0000130B00000200000002000000000000FFFFFF
310
FFFFFFFFFFFFFFFFFFFFFFFFFFFFFFFFFFFFFFFFFFFFFFFFFFFFFFFFFFFFFFFF
310
FFFFFFFFFFFFFFFFFFFFFFFFFFFFFFFFFFFFFFFFFFFFFFFFFFFFFFFFFFFFFFFF
310
FFFFFFFFFFFFFFFFFFFFFFFFFFFFFFFFFFFFFFFFFFFFFFFFF000FFFFFFFFFFFF
310
FFFFFFFFFFFFFFFFFFFFFFFFFFFFFFFFFFFFFFFFFFFFFFFFFFFFFFFFFFFFFFFF
310
FFFFFFFFFFFFFFFFFFFFFFFFFFFFFFFFFFFFFFFFFFFFFFFFFFFFFFFFFFFFFFFF
310
FFFFFFFFFFFFFFFFFFFFFFFFFFFFFFFFF000FFFFFFFFFFFFFFFFFFFFFFFFFFFF
310
FFFFFFFFFFFFFFFFFFFFFFFFFFFFFFFFFFFFFFFFFFFFFFFFFFFFFFFFFFFFFFFF
310
FFFFFFFFFFFFFFFFFFFFFFFFFFFFFFFFFFFFFFFFFFFFFFFFFFFFFFFFFFFFFFFF
310
FFFFFFFFFFFFFFFFF000FFFFFFFFFFFFFFFFFFFFFFFFFFFFFFFFFFFFFFFFFFFF
310
FFFFFFFFFFFFFFFFFFFFFFFFFFFFFFFFFFFFFFFFFFFFFFFFFFFFFFFFFFFFFFFF
310
FFFFFFFFFFFFFFFFFFFFFFFFFFFFFFFFFFFFFFFFFFFFFFFFFFFFFFFFFFFFFFFF
310
F000FFFFFFFFFFFFFFFFFFFFFFFFFFFFFFFFFFFFFFFFFFFFFFFFFFFFFFFFFFFF
310
FFFFFFFFFFFFFFFFFFFFFFFFFFFFFFFFFFFFFFFFFFFFFFFFFFFFFFFFFFFFFFFF
310
FFFFFFFFFFFFFFFFFFFFFFFFFFFFFFFFFFFFFFFFFFFFFFFFF000FFFFFFFFFFFF
310
FFFFFFFFFFFFFFFFFFFFFFFFFFFFFFFFFFFFFFFFFFFFFFFFFFFFFFFFFFFFFFFF
310
FFFFFFFFFFFFFFFFFFFFFFFFFFFFFFFFFFFFFFFFFFFFFFFFFFFFFFFFFFFFFFFF
310
FFFFFFFFFFFFFFFFFFFFFFFFFFFFFFFFF000FFFFFFFFFFFFFFFFFFFFFFFFFFFF
310
FFFFFFFFFFFFFFFFFFFFFFFFFFFFFFFFFFFFFFFFFFFFFFFFFFFFFFFFFFFFFFFF
310
FFFFFFFFFFFFFFFFFFFFFFFFFFFFFFFFFFFFFFFFFFFFFFFFFFFFFFFFFFFFFFFF
310
FFFFFFFFFFFFFFFFF000FFFFFFFFFFFFFFFFFFFFFFFFFFFFFFFFFFFFFFFFFFFF
310
FFFFFFFFFFFFFFFFFFFFFFFFFFFFFFFFFFFFFFFFFFFFFFFFFFFFFFFFFFFFFFFF
310
FFFFFFFFFFFFFFFFFFFFFFFFFFFFFFFFFFFFFFFFFFFFFFFFFFFFFFFFFFFFFFFF
310
F000FFFFFFFFFFFFFFFFFFFFFFFFFFFFFFFFFFFFFFFFFFFFFFFFFFFFFFFFFFFF
310
FFFFFFFFFFFFFFFFFFFFFFFFFFFFFFFFFFFFFFFFFFFFFFFFFFFFFFFFFFFFFFFF
310
FFFFFFFFFFFFFFFFFFFFFFFFFFFFFFFFFFFFFFFFFFFFFFFFF000FFFFFFFFFFFF
310
FFFFFFFFFFFFFFFFFFFFFFFFFFFFFFFFFFFFFFFFFFFFFFFFFFFFFFFFFFFFFFFF
310
FFFFFFFFFFFFFFFFFFFFFFFFFFFFFFFFFFFFFFFFFFFFFFFFFFFFFFFFFFFFFFFF
310
FFFFFFFFFFFFFFFFFFFFFFFFFFFFFFFFF000FFFFFFFFFFFFFFFFFFFFFFFFFFFF
310
FFFFFFFFFFFFFFFFFFFFFFFFFFFFFFFFFFFFFFFFFFFFFFFFFFFFFFFFFFFFFFFF
310
FFFFFFFFFFFFFFFFFFFFFFFFFFFFFFFFFFFFFFFFFFFFFFFFFFFFFFFFFFFFFFFF
310
FFFFFFFFFFFFFFFFF000FFFFFFFFFFFFFFFFFFFFFFFFFFFFFFFFFFFFFFFFFFFF
310
FFFFFFFFFFFFFFFFFFFFFFFFFFFFFFFFFFFFFFFFFFFFFFFFFFFFFFFFFFFFFFFF
310
FFFFFFFFFFFFFFFFFFFFFFFFFFFFFFFFFFFFFFFFFFFFFFFFFFFFFFFFFFFFFFFF
310
F000FFFFFFFFFFFFFFFFFFFFFFFFFFFFFFFFFFFFFFFFFFFFFFFFFFFFFFFFFFFF
310
FFFFFFFFFFFFFFFFFFFFFFFFFFFFFFFFFFFFFFFFFFFFFFFFFFFFFFFFFFFFFFFF
310
FFFFFFFFFFFFFFFFFFFFFFFFFFFFFFFFFFFFFFFFFFFFFFFFF000FFFFFFFFFFFF
310
FFFFFFFFFFFFFFFFFFFFFFFFFFFFFFFFFFFFFFFFFFFFFFFFFFFFFFFFFFFFFFFF
310
FFFFFFFFFFFFFFFFFFFFFFFFFFFFFFFFFFFFFFFFFFFFFFFFFFFFFFFFFFFFFFFF
310
FFFFFFFFFFFFFFFFFFFFFFFFFFFFFFFFF000FFFFFFFFFFFFFFFFFFFFFFFFFFFF
310
FFFFFFFFFFFFFFFFFFFFFFFFFFFFFFFFFFFFFFFFFFFFFFFFFFFFFFFFFFFFFFFF
310
FFFFFFFFFFFFFFFFFFFFFFFFFFFFFFFFFFFFFFFFFFFFFFFFFFFFFFFFFFFFFFFF
310
FFFFFFFFFFFFFFFFF000FFFFFFFFFFFFFFFFFFFFFFFFFFFFFFFFFFFFFFFFFFFF
310
FFFFFFFFFFFFFFFFFFFFFFFFFFFFFFFFFFFFFFFFFFFFFFFFFFFFFFFFFFFFFFFF
310
FFFFFFFFFFFFFFFFFFFFFFFFFFFFFFFFFFFFFFFFFFFFFFFFFFFFFFFFFFFFFFFF
310
F000FFFFFFFFFFFFFFFFFFFFFFFFFFFFFFFFFFFFFFFFFFFFFFFFFFFFFFFFFFFF
310
FFFFFFFFFFFFFFFFFFFFFFFFFFFFFFFFFFFFFFFFFFFFFFFFFFFFFFFFFFFFFFFF
310
FFFFFFFFFFFFFFFFFFFFFFFFFFFFFFFFFFFFFFFFFFFFFFFFF000FFFFFFFFFFFF
310
FFFFFFFFFFFFFFFFFFFFFFFFFFFFFFFFFFFFFFFFFFFFFFFFFFFFFFFFFFFFFFFF
310
FFFFFFFFFFFFFFFFFFFFFFFFFFFFFFFFFFFFFFFFFFFFFFFFFFFFFFFFFFFFFFFF
310
FFFFFFFFFFFFFFFFFFFFFFFFFFFFFFFFF000FFFFFFFFFFFFFFFFFFFFFFFFFFFF
310
FFFFFFFFFFFFFFFFFFFFFFFFFFFFFFFFFFFFFFFFFFFFFFFFFFFFFFFFFFFFFFFF
310
FFFFFFFFFFFFFFFFFFFFFFFFFFFFFFFFFFFFFFFFFFFFFFFFFFFFFFFFFFFFFFFF
310
FFFFFFFFFFFFFFFFF000FFFFF80003FFFFFFFFFFFFFFFFFFFFFFFFFFFFFFFFFF
310
FFFFF00007FFFFFFFFFF00007FFFFFF800000000000000007FFFFFFFFFFFFFFF
310
FFFFFFFC001FFFFFFFFFFFFFFC001FFFFFFFFFFFFFFFFFFFFFFFFFFE0007FFFF
310
F000FFFF8000007FFFFFFFF8000FFFFFC0007FFFFF80007FFFFF0000007FFFFF
310
FFF8000007FFFFF800000000000000007FFFFFF0001FFFFFFFFFFFC00001FFFF
310
FFFFFFFFC00001FFFFFFFF000000000003FFFFE000007FFFF000FFFE0000000F
310
FFFFFFF0000FFFFF80007FFFFF80007FFFFC0000001FFFFFFFC0000001FFFFF8
310
00000000000000007FFFFFF0001FFFFFFFFFFE0000003FFFFFFFFFFE0000003F
310
FFFFFF000000000003FFFF0000000FFFF000FFF800000003FFFFFFF00007FFFF
310
80007FFFFF80007FFFF000000007FFFFFF000000003FFFF80000000000000000
310
7FFFFFF0001FFFFFFFFFF80000000FFFFFFFFFF80000000FFFFFFF0000000000
310
03FFFC00000003FFF000FFE000000000FFFFFFF00007FFFF80003FFFFF80007F
310
FFC000000001FFFFFC000000001FFFF800000000000000007FFFFFF0001FFFFF
310
FFFFE000000003FFFFFFFFE000000003FFFFFF000000000003FFF000000000FF
310
F000FF80000000007FFFFFF00007FFFF80003FFFFF80007FFF8000000000FFFF
310
F80000000007FFF800000000000000007FFFFFF0001FFFFFFFFFC000000001FF
310
FFFFFFC000000001FFFFFF000000000003FFC0000000007FF000FF0000000000
310
3FFFFFE00007FFFF00003FFFFF80007FFE00000000003FFFF00000000003FFF8
310
00000000000000007FFFFFF0001FFFFFFFFF8000000000FFFFFFFF8000000000
310
FFFFFF000000000003FF80000000003FF000FE00000000001FFFFFE00003FFFF
310
00003FFFFF80007FFC00000000001FFFE00000000001FFF8000001FFFE000000
310
7FFFFFF0001FFFFFFFFE00000000003FFFFFFE00000000003FFFFF0000000000
310
03FF00000000001FF000FC00000000000FFFFFE00003FFFF00001FFFFF80007F
310
F800000000001FFFC00000000000FFF8000001FFFE0000007FFFFFF0001FFFFF
310
FFFC00000000001FFFFFFC00000000001FFFFF000000000003FE00000000000F
310
F000F8000000000007FFFFE00003FFFF00001FFFFF80007FF800000000000FFF
310
800000000000FFF8000001FFFE0000007FFFFFF0001FFFFFFFF800000000000F
310
FFFFF800000000000FFFFF000000000003FC000000000007F000F80000000000
310
03FFFFC00003FFFE00001FFFFF80007FF0000000000007FF0000000000007FF8
310
000001FFFE0000007FFFFFF0001FFFFFFFF0000000000007FFFFF00000000000
310
07FFFF000000000003F8000000000003F000F0000000000003FFFFC00001FFFE
310
00001FFFFF80007FE0000000000007FE0000000000003FF8000001FFFE000000
310
7FFFFFF0001FFFFFFFF0000000000007FFFFF0000000000007FFFF0000000000
310
03F800001F800003F000E00001FFF00001FFFFC00001FFFE00000FFFFF80007F
310
E00001FFE00003FE00001FFF00003FF8000001FFFE0000007FFFFFF0001FFFFF
310
FFE000003E000003FFFFE000003E000003FFFF000000000003F00001FFF80001
310
F000E00007FFFC0001FFFFC00001FFFE00000FFFFF80007FC0000FFFFC0003FC
310
0000FFFFC0001FF8000001FFFE0000007FFFFFF0001FFFFFFFC00003FFE00001
310
FFFFC00003FFE00001FFFF0001FFFFFFFFF00007FFFE0001F000E0000FFFFF00
310
00FFFF800001FFFC00000FFFFF80007FC0001FFFFE0001FC0001FFFFE0001FF8
310
000001FFFE0000007FFFFFF0001FFFFFFF80000FFFF80000FFFF80000FFFF800
310
00FFFF0003FFFFFFFFE0000FFFFF8000F000C0003FFFFF8000FFFF800000FFFC
310
000007FFFF80007F80003FFFFF0001FC0003FFFFF0001FF8000001FFFE000000
310
7FFFFFF0001FFFFFFF80003FFFFE0000FFFF80003FFFFE0000FFFF0003FFFFFF
310
FFE0003FFFFF8000F000C0003FFFFF8000FFFF800000FFFC000007FFFF80007F
310
80007FFFFF8001F80007FFFFF8000FF8000001FFFE0000007FFFFFF0001FFFFF
310
FF00007FFFFF00007FFF00007FFFFF00007FFF0003FFFFFFFFE0003FFFFFC000
310
F000C0007FFFFFC000FFFF000000FFFC000007FFFF80007F8000FFFFFF8000F8
310
000FFFFFF8000FF8000001FFFE0000007FFFFFF0001FFFFFFF0000FFFFFF8000
310
7FFF0000FFFFFF80007FFF0003FFFFFFFFC0007FFFFFC00070008000FFFFFFC0
310
00FFFF000000FFF8000007FFFF80007F8000FFFFFF8000F8000FFFFFF8000FF8
310
000001FFFE0000007FFFFFF0001FFFFFFE0001FFFFFFC0003FFE0001FFFFFFC0
310
003FFF0003FFFFFFFFC0007FFFFFE00070008000FFFFFFC0007FFF0000007FF8
310
000003FFFF80007F0001FFFFFF8000F8000FFFFFF8000FF8000001FFFE000000
310
7FFFFFF0001FFFFFFE0001FFFFFFC0003FFE0001FFFFFFC0003FFF0003FFFFFF
310
FFC000FFFFFFE00070008000FFFFFFC0007FFF0000007FF8000003FFFF80007F
310
0001FFFFFF8000F8001FFFFFF8000FF8000001FFFE0000007FFFFFF0001FFFFF
310
FE0003FFFFFFE0003FFE0003FFFFFFE0003FFF0003FFFFFFFFC000FFFFFFE000
310
70008000FFFFFFC0007FFE0000007FF8000003FFFF80007F0001FFFFFF8000F0
310
001FFFFFF8000FF8000001FFFE0000007FFFFFF0001FFFFFFC0003FFFFFFE000
310
1FFC0003FFFFFFE0001FFF0003FFFFFFFFC000FFFFFFC00070008000FFFFFF80
310
007FFE0000007FF0000003FFFF80007F0001FFFFFF0000F0001FFFFFF8000FF8
310
000001FFFE0000007FFFFFF0001FFFFFFC0007FFFFFFF0001FFC0007FFFFFFF0
310
001FFF0003FFFFFFFFC000FFFFFFC00070008001FFFFFF0000FFFE0000003FF0
310
000001FFFF80007F0001FFFFFF0000F8001FFFFFF0000FF8000001FFFE000000
310
7FFFFFF0001FFFFFFC0007FFFFFFF0001FFC0007FFFFFFF0001FFF0003FFFFFF
310
FFC001FFFFFF80007000FFFFFFFFFE0000FFFE0008003FF0008001FFFF80007F
310
FFFFFFFFFC0000FFFFFFFFFFE0000FF8000001FFFE0000007FFFFFF0001FFFFF
310
F8000FFFFFFFF8000FF8000FFFFFFFF8000FFF0003FFFFFFFFFFFFFFFFFF0000
310
7000FFFFFFFFFC0000FFFC0008003FF0008001FFFF80007FFFFFFFFFF80001FF
310
FFFFFFFF80000FF8000001FFFE0000007FFFFFF0001FFFFFF8000FFFFFFFF800
310
0FF8000FFFFFFFF8000FFF0003FFFFFFFFFFFFFFFFFE0000F000FFFFFFFFE000
310
00FFFC000C003FE000C001FFFF80007FFFFFFFFFC00001FFFFFFFFFE00001FF8
310
000001FFFE0000007FFFFFF0001FFFFFF8000FFFFFFFF8000FF8000FFFFFFFF8
310
000FFF0003FFFFFFFFFFFFFFFFF00000F000FFFFFFFE000001FFFC000C001FE0
310
00C000FFFF80007FFFFFFFFE000001FFFFFFFFE000001FF80FFFFFFFFFFFFFC0
310
7FFFFFF0001FFFFFF8000FFFFFFFF8000FF8000FFFFFFFF8000FFF0003FFFFFF
310
FFFFFFFFFF800000F000FFFFFFC0000001FFFC001C001FE001C000FFFF80007F
310
FFFFFF80000003FFFFFFF80000001FF80FFFFFFFFFFFFFC07FFFFFF0001FFFFF
310
F8001FFFFFFFFC000FF8001FFFFFFFFC000FFF0003FFFFFFFFFFFFFFF0000001
310
F000FFFFF800000001FFF8001C001FE001C000FFFF80007FFFFFF800000003FF
310
FFFF800000003FF80FFFFFFFFFFFFFC07FFFFFF0001FFFFFF8001FFFFFFFFC00
310
0FF8001FFFFFFFFC000FFF0003FFFFFFFFFFFFFE00000001F000FFFFC0000000
310
03FFF8001E001FC001E000FFFF80007FFFFF8000000007FFFFFC000000003FF8
310
0FFFFFFFFFFFFFC07FFFFFF0001FFFFFF8001FFFFFFFFC000FF8001FFFFFFFFC
310
000FFF0003FFFFFFFFFFFFE000000003F000FFFE0000000007FFF8001E000FC0
310
01E0007FFF80007FFFFE0000000007FFFFE0000000007FF80FFFFFFFFFFFFFC0
310
7FFFFFF0001FFFFFF0001FFFFFFFFC0007F0001FFFFFFFFC0007FF0003FFFFFF
310
FFFFFF0000000003F000FFF80000000007FFF8001E000FC003E0007FFF80007F
310
FFF0000000000FFFFF8000000000FFF80FFFFFFFFFFFFFC07FFFFFF0001FFFFF
310
F0001FFFFFFFFC0007F0001FFFFFFFFC0007FF0003FFFFFFFFFFFC0000000007
310
F000FFE0000000000FFFF0003E000FC003E0007FFF80007FFFC0000000001FFF
310
FE0000000001FFF80FFFFFFFFFFFFFC07FFFFFF0001FFFFFF0001FFFFFFFFC00
310
07F0001FFFFFFFFC0007FF0003FFFFFFFFFFF0000000000FF000FFC000000000
310
1FFFF0003F000F8003F0003FFF80007FFF80000000003FFFF80000000003FFF8
310
0FFFFFFFFFFFFFC07FFFFFF0001FFFFFF0001FFFFFFFFC0007F0001FFFFFFFFC
310
0007FF0003FFFFFFFFFFE0000000001FF000FF00000000007FFFF0003F000780
310
03F0003FFF80007FFF00000000007FFFF00000000007FFF80FFFFFFFFFFFFFC0
310
7FFFFFF0001FFFFFF0001FFFFFFFFC0007F0001FFFFFFFFC0007FF0003FFFFFF
310
FFFF80000000007FF000FE0000000000FFFFE0003F00078007F0003FFF80007F
310
FE0000000001FFFFE0000000001FFFF80FFFFFFFFFFFFFC07FFFFFF0001FFFFF
310
F0001FFFFFFFFC0007F0001FFFFFFFFC0007FF0003FFFFFFFFFF0000000000FF
310
F000FC0000000003FFFFE0007F00078007F0003FFF80007FFC0000000007FFFF
310
C0000000007FFFF80FFFFFFFFFFFFFC07FFFFFF0001FFFFFF8001FFFFFFFFC00
310
0FF8001FFFFFFFFC000FFF0003FFFFFFFFFE0000000003FFF000FC000000000F
310
FFFFE0007F80070007F8001FFF80007FF8000000001FFFFF8000000001FFFFF8
310
0FFFFFFFFFFFFFC07FFFFFF0001FFFFFF8001FFFFFFFFC000FF8001FFFFFFFFC
310
000FFF0003FFFFFFFFFC000000000FFFF000F8000000007FFFFFE0007F800700
310
07F8001FFF80007FF000000000FFFFFF800000000FFFFFF80FFFFFFFFFFFFFC0
310
7FFFFFF0001FFFFFF8000FFFFFFFF8000FF8000FFFFFFFF8000FFF0003FFFFFF
310
FFFC000000007FFFF000F800000007FFFFFFC0007F8003000FF8001FFF80007F
310
F000000007FFFFFF000000007FFFFFF80FFFFFFFFFFFFFC07FFFFFF0001FFFFF
310
F8000FFFFFFFF8000FF8000FFFFFFFF8000FFF0003FFFFFFFFF80000000FFFFF
310
F000F0000000FFFFFFFFC000FF8003000FF8001FFF80007FE0000000FFFFFFFF
310
0000000FFFFFFFF8000001FFFE0000007FFFFFF0001FFFFFF8000FFFFFFFF800
310
0FF8000FFFFFFFF8000FFF0003FFFFFFFFF8000000FFFFFFF000F000000FFFFF
310
FFFFC000FFC002000FF8000FFF80007FE000001FFFFFFFFE000001FFFFFFFFF8
310
000001FFFE0000007FFFFFF0001FFFFFF8000FFFFFFFF8000FF8000FFFFFFFF8
310
000FFF0003FFFFFFFFF000001FFFFFFFF000E00000FFFFFFFFFFC000FFC00200
310
0FFC000FFF80007FE00001FFFFFFFFFE00001FFFFFFFFFF8000001FFFE000000
310
7FFFFFF0001FFFFFFC000FFFFFFFF8001FFC000FFFFFFFF8001FFF0003FFFFFF
310
FFF00001FFFFFFFFF000E00007FFFFFFFFFF8000FFC000001FFC000FFF80007F
310
C0000FFFFFFFFFFE0000FFFFFFFFFFF8000001FFFE0000007FFFFFF0001FFFFF
310
FC0007FFFFFFF0001FFC0007FFFFFFF0001FFF0003FFFFFFFFF00007FFFFFFFF
310
F000E0001FFFFFFFFFFF8000FFC000001FFC000FFF80007FC0003FFFFFFFFFFE
310
0001FFFFFFFFFFF8000001FFFE0000007FFFFFF0001FFFFFFC0007FFFFFFF000
310
1FFC0007FFFFFFF0001FFF0003FFFFFFFFF0001FFFFFFFFFF000E0003FFFFF00
310
03FF8001FFE000001FFC0007FF80007FC0007FFFFF0007FC0003FFFFF0003FF8
310
000001FFFE0000007FFFFFF0001FFFFFFC0003FFFFFFE0001FFC0003FFFFFFE0
310
001FFF0003FFFFFFFFF0003FFFFFFFFFF000E0003FFFFF0001FF8001FFE00000
310
1FFE0007FF80007FC0007FFFFE0003FC0007FFFFE0003FF8000001FFFE000000
310
7FFFFFF0001FFFFFFE0003FFFFFFE0003FFE0003FFFFFFE0003FFF0003FFFFFF
310
FFF0003FFFFF8001F000E0003FFFFF0001FF0001FFE000001FFE0007FF80007F
310
C0007FFFFE0003FC0007FFFFE0003FF8000001FFFE0000007FFFFFF0001FFFFF
310
FE0001FFFFFFC0003FFE0001FFFFFFC0003FFF0003FFFFFFFFF0003FFFFF0001
310
F000E0003FFFFF0003FF0001FFE000003FFE0007FF80007FC0007FFFFE0003FC
310
0007FFFFE0003FF8000001FFFE0000007FFFFFF0001FFFFFFF0001FFFFFFC000
310
7FFF0001FFFFFFC0007FFF0003FFFFFFFFF0003FFFFF0001F000E0003FFFFE00
310
03FF0003FFF000003FFE0003FF80007FC0007FFFFC0003FE0007FFFFE0003FF8
310
000001FFFE0000007FFFFFF0001FFFFFFF0000FFFFFF80007FFF0000FFFFFF80
310
007FFF0003FFFFFFFFF0003FFFFF0001F000E0003FFFFE0003FF0003FFF00000
310
3FFF0003FF80007FC0007FFFFC0007FE0007FFFFC0003FF8000001FFFE000000
310
7FFFFFF0001FFFFFFF80007FFFFF0000FFFF80007FFFFF0000FFFF0003FFFFFF
310
FFF0003FFFFF0003F000E0003FFFFC0003FE0003FFF000003FFF0003FF80007F
310
E0003FFFF80007FE0003FFFFC0007FF8000001FFFE0000007FFFFFF0001FFFFF
310
FF80003FFFFE0000FFFF80003FFFFE0000FFFF0003FFFFFFFFF0001FFFFE0003
310
F000F0001FFFF80003FE0003FFF000007FFF0001FF80007FE0003FFFF00007FE
310
0001FFFF80007FF8000001FFFE0000007FFFFFF0001FFFFFFFC0000FFFF80001
310
FFFFC0000FFFF80001FFFF0003FFFFFFFFF0001FFFFC0003F000F0000FFFF000
310
07FE0007FFF800007FFF0001FF80007FE0001FFFE00007FF0000FFFE00007FF8
310
000001FFFE0000007FFFFFF0001FFFFFFFC00003FFE00001FFFFC00003FFE000
310
01FFFF0003FFFFFFFFF8000FFFF80003F000F00003FFC00007FC0007FFF80000
310
7FFF8001FF80007FF00007FF80000FFF00007FF80000FFF8000001FFFE000000
310
7F80000000000001FFE000003E000003FFFFE000003E000003FFFF0003FFFFFF
310
FFF80003FFE00007F000F800000000000FFC0007FFF800007FFF8001FF80007F
310
F000000000000FFF000000000000FFF8000001FFFE0000007F80000000000001
310
FFF0000000000007FFFFF0000000000007FFFF0003FFFFFFFFFC00007E000007
310
F000F800000000000FFC0007FFF80000FFFF8000FF80007FF800000000001FFF
310
800000000001FFF8000001FFFE0000007F80000000000001FFF800000000000F
310
FFFFF800000000000FFFFF0003FFFFFFFFFC00000000000FF000FC0000000000
310
1FFC0007FFFC0000FFFF8000FF80007FF800000000003FFFC00000000001FFF8
310
000001FFFE0000007F80000000000001FFF800000000000FFFFFF80000000000
310
0FFFFF0003FFFFFFFFFE00000000001FF000FE00000000003FF8000FFFFC0000
310
FFFF8000FF80007FFC00000000003FFFC00000000003FFF8000001FFFE000000
310
7F80000000000001FFFC00000000001FFFFFFC00000000001FFFFF0003FFFFFF
310
FFFF00000000001FF000FF00000000003FF8000FFFFC0000FFFFC000FF80007F
310
FE00000000007FFFE00000000007FFF8000001FFFE0000007F80000000000001
310
FFFE00000000003FFFFFFE00000000003FFFFF0003FFFFFFFFFF80000000003F
310
F000FF80000000007FF8000FFFFC0001FFFFC0007F80007FFF0000000000FFFF
310
F0000000000FFFF800000000000000007F80000000000001FFFF8000000000FF
310
FFFFFF8000000000FFFFFF0003FFFFFFFFFFC0000000007FF000FFC000000000
310
FFF8000FFFFE0001FFFFC0007F80007FFF8000000001FFFFF8000000001FFFF8
310
00000000000000007F80000000000001FFFFC000000001FFFFFFFFC000000001
310
FFFFFF0003FFFFFFFFFFE000000000FFF000FFE000000003FFF0001FFFFE0001
310
FFFFC0007F80007FFFC000000007FFFFFE000000003FFFF80000000000000000
310
7F80000000000001FFFFE000000003FFFFFFFFE000000003FFFFFF0003FFFFFF
310
FFFFF000000003FFF000FFF80000000FFFF0001FFFFE0001FFFFE0007F80007F
310
FFF00000000FFFFFFF00000000FFFFF800000000000000007F80000000000001
310
FFFFF80000000FFFFFFFFFF80000000FFFFFFF0003FFFFFFFFFFFC0000000FFF
310
F000FFFE0000003FFFF0001FFFFE0003FFFFE0003F80007FFFFC0000003FFFFF
310
FFC0000003FFFFF800000000000000007F80000000000001FFFFFE0000003FFF
310
FFFFFFFE0000003FFFFFFF0003FFFFFFFFFFFF0000003FFFF000FFFF800000FF
310
FFF0001FFFFF0003FFFFE0003F80007FFFFF000001FFFFFFFFF800001FFFFFF8
310
00000000000000007F80000000000001FFFFFFC00001FFFFFFFFFFFFC00001FF
310
FFFFFF0003FFFFFFFFFFFFC00000FFFFF000FFFFF8000FFFFFFFFFFFFFFFFFFF
310
FFFFFFFFFFFFFFFFFFFFF0001FFFFFFFFFFF0000FFFFFFF80000000000000000
310
7FFFFFFFFFFFFFFFFFFFFFFC001FFFFFFFFFFFFFFC001FFFFFFFFFFFFFFFFFFF
310
FFFFFFFC001FFFFFF000FFFFFFFFFFFFFFFFFFFFFFFFFFFFFFFFFFFFFFFFFFFF
310
FFFFFFFFFFFFFFFFFFFFFFFFFFFFFFFFFFFFFFFFFFFFFFFFFFFFFFFFFFFFFFFF
310
FFFFFFFFFFFFFFFFFFFFFFFFFFFFFFFFFFFFFFFFFFFFFFFFFFFFFFFFFFFFFFFF
310
F000FFFFFFFFFFFFFFFFFFFFFFFFFFFFFFFFFFFFFFFFFFFFFFFFFFFFFFFFFFFF
310
FFFFFFFFFFFFFFFFFFFFFFFFFFFFFFFFFFFFFFFFFFFFFFFFFFFFFFFFFFFFFFFF
310
FFFFFFFFFFFFFFFFFFFFFFFFFFFFFFFFFFFFFFFFFFFFFFFFF000FFFFFFFFFFFF
310
FFFFFFFFFFFFFFFFFFFFFFFFFFFFFFFFFFFFFFFFFFFFFFFFFFFFFFFFFFFFFFFF
310
FFFFFFFFFFFFFFFFFFFFFFFFFFFFFFFFFFFFFFFFFFFFFFFFFFFFFFFFFFFFFFFF
310
FFFFFFFFFFFFFFFFFFFFFFFFFFFFFFFFF000FFFFFFFFFFFFFFFFFFFFFFFFFFFF
310
FFFFFFFFFFFFFFFFFFFFFFFFFFFFFFFFFFFFFFFFFFFFFFFFFFFFFFFFFFFFFFFF
310
FFFFFFFFFFFFFFFFFFFFFFFFFFFFFFFFFFFFFFFFFFFFFFFFFFFFFFFFFFFFFFFF
310
FFFFFFFFFFFFFFFFF000FFFFFFFFFFFFFFFFFFFFFFFFFFFFFFFFFFFFFFFFFFFF
310
FFFFFFFFFFFFFFFFFFFFFFFFFFFFFFFFFFFFFFFFFFFFFFFFFFFFFFFFFFFFFFFF
310
FFFFFFFFFFFFFFFFFFFFFFFFFFFFFFFFFFFFFFFFFFFFFFFFFFFFFFFFFFFFFFFF
310
F000FFFFFFFFFFFFFFFFFFFFFFFFFFFFFFFFFFFFFFFFFFFFFFFFFFFFFFFFFFFF
310
FFFFFFFFFFFFFFFFFFFFFFFFFFFFFFFFFFFFFFFFFFFFFFFFFFFFFFFFFFFFFFFF
310
FFFFFFFFFFFFFFFFFFFFFFFFFFFFFFFFFFFFFFFFFFFFFFFFF000FFFFFFFFFFFF
310
FFFFFFFFFFFFFFFFFFFFFFFFFFFFFFFFFFFFFFFFFFFFFFFFFFFFFFFFFFFFFFFF
310
FFFFFFFFFFFFFFFFFFFFFFFFFFFFFFFFFFFFFFFFFFFFFFFFFFFFFFFFFFFFFFFF
310
FFFFFFFFFFFFFFFFFFFFFFFFFFFFFFFFF000FFFFFFFFFFFFFFFFFFFFFFFFFFFF
310
FFFFFFFFFFFFFFFFFFFFFFFFFFFFFFFFFFFFFFFFFFFFFFFFFFFFFFFFFFFFFFFF
310
FFFFFFFFFFFFFFFFFFFFFFFFFFFFFFFFFFFFFFFFFFFFFFFFFFFFFFFFFFFFFFFF
310
FFFFFFFFFFFFFFFFF000FFFFFFFFFFFFFFFFFFFFFFFFFFFFFFFFFFFFFFFFFFFF
310
FFFFFFFFFFFFFFFFFFFFFFFFFFFFFFFFFFFFFFFFFFFFFFFFFFFFFFFFFFFFFFFF
310
FFFFFFFFFFFFFFFFFFFFFFFFFFFFFFFFFFFFFFFFFFFFFFFFFFFFFFFFFFFFFFFF
310
F000FFFFFFFFFFFFFFFFFFFFFFFFFFFFFFFFFFFFFFFFFFFFFFFFFFFFFFFFFFFF
310
FFFFFFFFFFFFFFFFFFFFFFFFFFFFFFFFFFFFFFFFFFFFFFFFFFFFFFFFFFFFFFFF
310
FFFFFFFFFFFFFFFFFFFFFFFFFFFFFFFFFFFFFFFFFFFFFFFFF000FFFFFFFFFFFF
310
FFFFFFFFFFFFFFFFFFFFFFFFFFFFFFFFFFFFFFFFFFFFFFFFFFFFFFFFFFFFFFFF
310
FFFFFFFFFFFFFFFFFFFFFFFFFFFFFFFFFFFFFFFFFFFFFFFFFFFFFFFFFFFFFFFF
310
FFFFFFFFFFFFFFFFFFFFFFFFFFFFFFFFF000FFFFFFFFFFFFFFFFFFFFFFFFFFFF
310
FFFFFFFFFFFFFFFFFFFFFFFFFFFFFFFFFFFFFFFFFFFFFFFFFFFFFFFFFFFFFFFF
310
FFFFFFFFFFFFFFFFFFFFFFFFFFFFFFFFFFFFFFFFFFFFFFFFFFFFFFFFFFFFFFFF
310
FFFFFFFFFFFFFFFFF000FFFFFFFFFFFFFFFFFFFFFFFFFFFFFFFFFFFFFFFFFFFF
310
FFFFFFFFFFFFFFFFFFFFFFFFFFFFFFFFFFFFFFFFFFFFFFFFFFFFFFFFFFFFFFFF
310
FFFFFFFFFFFFFFFFFFFFFFFFFFFFFFFFFFFFFFFFFFFFFFFFFFFFFFFFFFFFFFFF
310
F000FFFFFFFFFFFFFFFFFFFFFFFFFFFFFFFFFFFFFFFFFFFFFFFFFFFFFFFFFFFF
310
FFFFFFFFFFFFFFFFFFFFFFFFFFFFFFFFFFFFFFFFFFFFFFFFFFFFFFFFFFFFFFFF
310
FFFFFFFFFFFFFFFFFFFFFFFFFFFFFFFFFFFFFFFFFFFFFFFFF000FFFFFFFFFFFF
310
FFFFFFFFFFFFFFFFFFFFFFFFFFFFFFFFFFFFFFFFFFFFFFFFFFFFFFFFFFFFFFFF
310
FFFFFFFFFFFFFFFFFFFFFFFFFFFFFFFFFFFFFFFFFFFFFFFFFFFFFFFFFFFFFFFF
310
FFFFFFFFFFFFFFFFFFFFFFFFFFFFFFFFF000FFFFFFFFFFFFFFFFFFFFFFFFFFFF
310
FFFFFFFFFFFFFFFFFFFFFFFFFFFFFFFFFFFFFFFFFFFFFFFFFFFFFFFFFFFFFFFF
310
FFFFFFFFFFFFFFFFFFFFFFFFFFFFFFFFFFFFFFFFFFFFFFFFFFFFFFFFFFFFFFFF
310
FFFFFFFFFFFFFFFFF000FFFFFFFFFFFFFFFFFFFFFFFFFFFFFFFFFFFFFFFFFFFF
310
FFFFFFFFFFFFFFFFFFFFFFFFFFFFFFFFFFFFFFFFFFFFFFFFFFFFFFFFFFFFFFFF
310
FFFFFFFFFFFFFFFFFFFFFFFFFFFFFFFFFFFFFFFFFFFFFFFFFFFFFFFFFFFFFFFF
310
F000FFFFFFFFFFFFFFFFFFFFFFFFFFFFFFFFFFFFFFFFFFFFFFFFFFFFFFFFFFFF
310
FFFFFFFFFFFFFFFFFFFFFFFFFFFFFFFFFFFFFFFFFFFFFFFFFFFFFFFFFFFFFFFF
310
FFFFFFFFFFFFFFFFFFFFFFFFFFFFFFFFFFFFFFFFFFFFFFFFF000FFFFFFFFFFFF
310
FFFFFFFFFFFFFFFFFFFFFFFFFFFFFFFFFFFFFFFFFFFFFFFFFFFFFFFFFFFFFFFF
310
FFFFFFFFFFFFFFFFFFFFFFFFFFFFFFFFFFFFFFFFFFFFFFFFFFFFFFFFFFFFFFFF
310
FFFFFFFFFFFFFFFFFFFFFFFFFFFFFFFFF000FFFFFFFFFFFFFFFFFFFFFFFFFFFF
310
FFFFFFFFFFFFFFFFFFFFFFFFFFFFFFFFFFFFFFFFFFFFFFFFFFFFFFFFFFFFFFFF
310
FFFFFFFFFFFFFFFFFFFFFFFFFFFFFFFFFFFFFFFFFFFFFFFFFFFFFFFFFFFFFFFF
310
FFFFFFFFFFFFFFFFF000FFFFFFFFFFFFFFFFFFFFFFFFFFFFFFFFFFFFFFFFFFFF
310
FFFFFFFFFFFFFFFFFFFFFFFFFFFFFFFFFFFFFFFFFFFFFFFFFFFFFFFFFFFFFFFF
310
FFFFFFFFFFFFFFFFFFFFFFFFFFFFFFFFFFFFFFFFFFFFFFFFFFFFFFFFFFFFFFFF
310
F000FFFFFFFFFFFFFFFFFFFFFFFFFFFFFFFFFFFFFFFFFFFFFFFFFFFFFFFFFFFF
310
FFFFFFFFFFFFFFFFFFFFFFFFFFFFFFFFFFFFFFFFFFFFFFFFFFFFFFFFFFFFFFFF
310
FFFFFFFFFFFFFFFFFFFFFFFFFFFFFFFFFFFFFFFFFFFFFFFFF000FFFFFFFFFFFF
310
FFFFFFFFFFFFFFFFFFFFFFFFFFFFFFFFFFFFFFFFFFFFFFFFFFFFFFFFFFFFFFFF
310
FFFFFFFFFFFFFFFFFFFFFFFFFFFFFFFFFFFFFFFFFFFFFFFFFFFFFFFFFFFFFFFF
310
FFFFFFFFFFFFFFFFFFFFFFFFFFFFFFFFF0000000000000000000000000000000
310
0000000000000000000000000000000000000000000000000000000000000000
310
0000000000000000000000000000000000000000000000000000000000000000
310
0000000000000000000000000000000000000000000000000000000000000000
310
0000000000000000000000000000000000000000000000000000000000000000
310
0000000000000000000000000000000000000000000000000000000000000000
310
0000000000000000000000000000000000000000000000000000000000000000
310
0000000000000000000000000000000000000000000000000000000000000000
310
0000000000000000000000000000000000000000000000000000000000000000
310
0000000000000000000000000000000000000000000000000000000000000000
310
0000000000000000000000000000000000000000000000000000000000000000
310
0000000000000000000000000000000000000000000000000000000000000000
310
0000000000000000000000000000000000000000000000000000000000000000
310
0000000000000000000000000000000000000000000000000000000000000000
310
0000000000000000000000000000000000000000000000000000000000000000
310
0000000000000000000000000000000000000000000000000000000000000000
  1
OLE
  0
ENDSEC
  0
SECTION
  2
OBJECTS
  0
DICTIONARY
  5
C
330
0
100
AcDbDictionary
281
     1
  3
ACAD_GROUP
350
D
  3
ACAD_LAYOUT
350
1A
  3
ACAD_MLINESTYLE
350
17
  3
ACAD_PLOTSETTINGS
350
19
  3
ACAD_PLOTSTYLENAME
350
E
  0
DICTIONARY
  5
D
102
{ACAD_REACTORS
330
C
102
}
330
C
100
AcDbDictionary
281
     1
  0
DICTIONARY
  5
1A
102
{ACAD_REACTORS
330
C
102
}
330
C
100
AcDbDictionary
281
     1
  3
Layout1
350
1E
  3
Layout2
350
26
  3
Model
350
22
  0
DICTIONARY
  5
17
102
{ACAD_REACTORS
330
C
102
}
330
C
100
AcDbDictionary
281
     1
  3
Standard
350
18
  0
DICTIONARY
  5
19
102
{ACAD_REACTORS
330
C
102
}
330
C
100
AcDbDictionary
281
     1
  0
ACDBDICTIONARYWDFLT
  5
E
102
{ACAD_REACTORS
330
C
102
}
330
C
100
AcDbDictionary
281
     1
  3
Normal
350
F
100
AcDbDictionaryWithDefault
340
F
  0
LAYOUT
  5
1E
102
{ACAD_REACTORS
330
1A
102
}
330
1A
100
AcDbPlotSettings
  1

  2
none_device
  4

  6

 40
0.0
 41
0.0
 42
0.0
 43
0.0
 44
0.0
 45
0.0
 46
0.0
 47
0.0
 48
0.0
 49
0.0
140
0.0
141
0.0
142
1.0
143
1.0
 70
   688
 72
     0
 73
     0
 74
     5
  7

 75
    16
147
1.0
148
0.0
149
0.0
100
AcDbLayout
  1
Layout1
 70
     1
 71
     1
 10
0.0
 20
0.0
 11
420.0
 21
297.0
 12
0.0
 22
0.0
 32
0.0
 14
1.0000000000E+20
 24
1.0000000000E+20
 34
1.0000000000E+20
 15
-1.0000000000E+20
 25
-1.0000000000E+20
 35
-1.0000000000E+20
146
0.0
 13
0.0
 23
0.0
 33
0.0
 16
1.0
 26
0.0
 36
0.0
 17
0.0
 27
1.0
 37
0.0
 76
     0
330
1B
  0
LAYOUT
  5
26
102
{ACAD_REACTORS
330
1A
102
}
330
1A
100
AcDbPlotSettings
  1

  2
none_device
  4

  6

 40
0.0
 41
0.0
 42
0.0
 43
0.0
 44
0.0
 45
0.0
 46
0.0
 47
0.0
 48
0.0
 49
0.0
140
0.0
141
0.0
142
1.0
143
1.0
 70
   688
 72
     0
 73
     0
 74
     5
  7

 75
    16
147
1.0
148
0.0
149
0.0
100
AcDbLayout
  1
Layout2
 70
     1
 71
     2
 10
0.0
 20
0.0
 11
0.0
 21
0.0
 12
0.0
 22
0.0
 32
0.0
 14
0.0
 24
0.0
 34
0.0
 15
0.0
 25
0.0
 35
0.0
146
0.0
 13
0.0
 23
0.0
 33
0.0
 16
1.0
 26
0.0
 36
0.0
 17
0.0
 27
1.0
 37
0.0
 76
     0
330
23
  0
LAYOUT
  5
22
102
{ACAD_REACTORS
330
1A
102
}
330
1A
100
AcDbPlotSettings
  1

  2
none_device
  4

  6

 40
0.0
 41
0.0
 42
0.0
 43
0.0
 44
0.0
 45
0.0
 46
0.0
 47
0.0
 48
0.0
 49
0.0
140
0.0
141
0.0
142
1.0
143
1.0
 70
  1712
 72
     0
 73
     0
 74
     0
  7

 75
     0
147
1.0
148
0.0
149
0.0
100
AcDbLayout
  1
Model
 70
     1
 71
     0
 10
0.0
 20
0.0
 11
297.0
 21
210.0
 12
0.0
 22
0.0
 32
0.0
 14
0.0
 24
0.0
 34
0.0
 15
297.0
 25
210.0
 35
0.0
146
0.0
 13
0.0
 23
0.0
 33
0.0
 16
1.0
 26
0.0
 36
0.0
 17
0.0
 27
1.0
 37
0.0
 76
     0
330
1F
331
29
  0
MLINESTYLE
  5
18
102
{ACAD_REACTORS
330
17
102
}
330
17
100
AcDbMlineStyle
  2
Standard
 70
     0
  3

 62
   256
 51
90.0
 52
90.0
 71
     2
 49
0.5
 62
   256
  6
BYLAYER
 49
-0.5
 62
   256
  6
BYLAYER
  0
ACDBPLACEHOLDER
  5
F
102
{ACAD_REACTORS
330
E
102
}
330
E
  0
ENDSEC
  0
EOF
