  0
SECTION
  2
HEADER
  9
$ACADVER
  1
AC1015
  9
$ACADMAINTVER
 70
     6
  9
$DWGCODEPAGE
  3
ANSI_1252
  9
$INSBASE
 10
0.0
 20
0.0
 30
0.0
  9
$EXTMIN
 10
0.0
 20
0.0
 30
0.0
  9
$EXTMAX
 10
297.0
 20
210.0
 30
0.0
  9
$LIMMIN
 10
0.0
 20
0.0
  9
$LIMMAX
 10
297.0
 20
210.0
  9
$ORTHOMODE
 70
     0
  9
$REGENMODE
 70
     1
  9
$FILLMODE
 70
     1
  9
$QTEXTMODE
 70
     0
  9
$MIRRTEXT
 70
     1
  9
$LTSCALE
 40
1.0
  9
$ATTMODE
 70
     1
  9
$TEXTSIZE
 40
2.0
  9
$TRACEWID
 40
1.0
  9
$TEXTSTYLE
  7
STANDARD
  9
$CLAYER
  8
0
  9
$CELTYPE
  6
ByLayer
  9
$CECOLOR
 62
   256
  9
$CELTSCALE
 40
1.0
  9
$DISPSILH
 70
     0
  9
$DIMSCALE
 40
1.0
  9
$DIMASZ
 40
3.0
  9
$DIMEXO
 40
0.0
  9
$DIMDLI
 40
3.75
  9
$DIMRND
 40
0.0
  9
$DIMDLE
 40
0.0
  9
$DIMEXE
 40
1.0
  9
$DIMTP
 40
0.0
  9
$DIMTM
 40
0.0
  9
$DIMTXT
 40
2.0
  9
$DIMCEN
 40
2.5
  9
$DIMTSZ
 40
0.0
  9
$DIMTOL
 70
     0
  9
$DIMLIM
 70
     0
  9
$DIMTIH
 70
     1
  9
$DIMTOH
 70
     1
  9
$DIMSE1
 70
     0
  9
$DIMSE2
 70
     0
  9
$DIMTAD
 70
     1
  9
$DIMZIN
 70
     0
  9
$DIMBLK
  1

  9
$DIMASO
 70
     1
  9
$DIMSHO
 70
     1
  9
$DIMPOST
  1

  9
$DIMAPOST
  1

  9
$DIMALT
 70
     0
  9
$DIMALTD
 70
     3
  9
$DIMALTF
 40
0.0393700787
  9
$DIMLFAC
 40
1.0
  9
$DIMTOFL
 70
     1
  9
$DIMTVP
 40
0.0
  9
$DIMTIX
 70
     0
  9
$DIMSOXD
 70
     0
  9
$DIMSAH
 70
     0
  9
$DIMBLK1
  1

  9
$DIMBLK2
  1

  9
$DIMSTYLE
  2
ISO-25
  9
$DIMCLRD
 70
     0
  9
$DIMCLRE
 70
     0
  9
$DIMCLRT
 70
     0
  9
$DIMTFAC
 40
1.0
  9
$DIMGAP
 40
1.524
  9
$DIMJUST
 70
     0
  9
$DIMSD1
 70
     0
  9
$DIMSD2
 70
     0
  9
$DIMTOLJ
 70
     0
  9
$DIMTZIN
 70
     0
  9
$DIMALTZ
 70
     0
  9
$DIMALTTZ
 70
     0
  9
$DIMUPT
 70
     0
  9
$DIMDEC
 70
     2
  9
$DIMTDEC
 70
     3
  9
$DIMALTU
 70
     2
  9
$DIMALTTD
 70
     3
  9
$DIMTXSTY
  7
STANDARD
  9
$DIMAUNIT
 70
     0
  9
$DIMADEC
 70
     2
  9
$DIMALTRND
 40
0.0
  9
$DIMAZIN
 70
     0
  9
$DIMDSEP
 70
    44
  9
$DIMATFIT
 70
     3
  9
$DIMFRAC
 70
     0
  9
$DIMLDRBLK
  1

  9
$DIMLUNIT
 70
     2
  9
$DIMLWD
 70
    -2
  9
$DIMLWE
 70
    -2
  9
$DIMTMOVE
 70
     0
  9
$LUNITS
 70
     2
  9
$LUPREC
 70
     2
  9
$SKETCHINC
 40
1.0
  9
$FILLETRAD
 40
10.0
  9
$AUNITS
 70
     0
  9
$AUPREC
 70
     2
  9
$MENU
  1
.
  9
$ELEVATION
 40
0.0
  9
$PELEVATION
 40
0.0
  9
$THICKNESS
 40
0.0
  9
$LIMCHECK
 70
     0
  9
$CHAMFERA
 40
10.0
  9
$CHAMFERB
 40
10.0
  9
$CHAMFERC
 40
20.0
  9
$CHAMFERD
 40
0.0
  9
$SKPOLY
 70
     0
  9
$TDCREATE
 40
2457070.398927766
  9
$TDUCREATE
 40
2457070.357261099
  9
$TDUPDATE
 40
2457070.398928484
  9
$TDUUPDATE
 40
2457070.357261817
  9
$TDINDWG
 40
0.0000000116
  9
$TDUSRTIMER
 40
0.0000000116
  9
$USRTIMER
 70
     1
  9
$ANGBASE
 50
0.0
  9
$ANGDIR
 70
     0
  9
$PDMODE
 70
     0
  9
$PDSIZE
 40
-1.0
  9
$PLINEWID
 40
0.0
  9
$SPLFRAME
 70
     0
  9
$SPLINETYPE
 70
     6
  9
$SPLINESEGS
 70
     8
  9
$HANDSEED
  5
29C
  9
$SURFTAB1
 70
     6
  9
$SURFTAB2
 70
     6
  9
$SURFTYPE
 70
     6
  9
$SURFU
 70
     6
  9
$SURFV
 70
     6
  9
$UCSBASE
  2

  9
$UCSNAME
  2

  9
$UCSORG
 10
0.0
 20
0.0
 30
0.0
  9
$UCSXDIR
 10
1.0
 20
0.0
 30
0.0
  9
$UCSYDIR
 10
0.0
 20
1.0
 30
0.0
  9
$UCSORTHOREF
  2

  9
$UCSORTHOVIEW
 70
     0
  9
$UCSORGTOP
 10
0.0
 20
0.0
 30
0.0
  9
$UCSORGBOTTOM
 10
0.0
 20
0.0
 30
0.0
  9
$UCSORGLEFT
 10
0.0
 20
0.0
 30
0.0
  9
$UCSORGRIGHT
 10
0.0
 20
0.0
 30
0.0
  9
$UCSORGFRONT
 10
0.0
 20
0.0
 30
0.0
  9
$UCSORGBACK
 10
0.0
 20
0.0
 30
0.0
  9
$PUCSBASE
  2

  9
$PUCSNAME
  2

  9
$PUCSORG
 10
0.0
 20
0.0
 30
0.0
  9
$PUCSXDIR
 10
1.0
 20
0.0
 30
0.0
  9
$PUCSYDIR
 10
0.0
 20
1.0
 30
0.0
  9
$PUCSORTHOREF
  2

  9
$PUCSORTHOVIEW
 70
     0
  9
$PUCSORGTOP
 10
0.0
 20
0.0
 30
0.0
  9
$PUCSORGBOTTOM
 10
0.0
 20
0.0
 30
0.0
  9
$PUCSORGLEFT
 10
0.0
 20
0.0
 30
0.0
  9
$PUCSORGRIGHT
 10
0.0
 20
0.0
 30
0.0
  9
$PUCSORGFRONT
 10
0.0
 20
0.0
 30
0.0
  9
$PUCSORGBACK
 10
0.0
 20
0.0
 30
0.0
  9
$USERI1
 70
     0
  9
$USERI2
 70
     0
  9
$USERI3
 70
     0
  9
$USERI4
 70
     0
  9
$USERI5
 70
     0
  9
$USERR1
 40
0.0
  9
$USERR2
 40
0.0
  9
$USERR3
 40
0.0
  9
$USERR4
 40
0.0
  9
$USERR5
 40
0.0
  9
$WORLDVIEW
 70
     1
  9
$SHADEDGE
 70
     3
  9
$SHADEDIF
 70
    70
  9
$TILEMODE
 70
     1
  9
$MAXACTVP
 70
    64
  9
$PINSBASE
 10
0.0
 20
0.0
 30
0.0
  9
$PLIMCHECK
 70
     0
  9
$PEXTMIN
 10
1.0000000000E+20
 20
1.0000000000E+20
 30
1.0000000000E+20
  9
$PEXTMAX
 10
-1.0000000000E+20
 20
-1.0000000000E+20
 30
-1.0000000000E+20
  9
$PLIMMIN
 10
0.0
 20
0.0
  9
$PLIMMAX
 10
420.0
 20
297.0
  9
$UNITMODE
 70
     0
  9
$VISRETAIN
 70
     1
  9
$PLINEGEN
 70
     0
  9
$PSLTSCALE
 70
     1
  9
$TREEDEPTH
 70
  3020
  9
$CMLSTYLE
  2
Standard
  9
$CMLJUST
 70
     0
  9
$CMLSCALE
 40
20.0
  9
$PROXYGRAPHICS
 70
     1
  9
$MEASUREMENT
 70
     1
  9
$CELWEIGHT
370
    -1
  9
$ENDCAPS
280
     0
  9
$JOINSTYLE
280
     0
  9
$LWDISPLAY
290
     1
  9
$INSUNITS
 70
     4
  9
$HYPERLINKBASE
  1

  9
$STYLESHEET
  1

  9
$XEDIT
290
     1
  9
$CEPSNTYPE
380
     0
  9
$PSTYLEMODE
290
     1
  9
$FINGERPRINTGUID
  2
{313FC612-B34E-4AE5-B043-C0366EC6820C}
  9
$VERSIONGUID
  2
{FAEB1C32-E019-11D5-929B-00C0DF256EC4}
  9
$EXTNAMES
290
     1
  9
$PSVPSCALE
 40
0.0
  9
$OLESTARTUP
290
     0
  0
ENDSEC
  0
SECTION
  2
CLASSES
  0
CLASS
  1
ACDBDICTIONARYWDFLT
  2
AcDbDictionaryWithDefault
  3
ObjectDBX Classes
 90
        0
280
     0
281
     0
  0
CLASS
  1
VISUALSTYLE
  2
AcDbVisualStyle
  3
ObjectDBX Classes
 90
     4095
280
     0
281
     0
  0
CLASS
  1
MATERIAL
  2
AcDbMaterial
  3
ObjectDBX Classes
 90
     1153
280
     0
281
     0
  0
CLASS
  1
ACDBPLACEHOLDER
  2
AcDbPlaceHolder
  3
ObjectDBX Classes
 90
        0
280
     0
281
     0
  0
CLASS
  1
LAYOUT
  2
AcDbLayout
  3
ObjectDBX Classes
 90
        0
280
     0
281
     0
  0
ENDSEC
  0
SECTION
  2
TABLES
  0
TABLE
  2
VPORT
  5
8
330
0
100
AcDbSymbolTable
 70
     1
  0
VPORT
  5
29
330
8
100
AcDbSymbolTableRecord
100
AcDbViewportTableRecord
  2
*Active
 70
     0
 10
0.0
 20
0.0
 11
1.0
 21
1.0
 12
148.5
 22
105.0
 13
0.0
 23
0.0
 14
10.0
 24
10.0
 15
10.0
 25
10.0
 16
0.0
 26
0.0
 36
1.0
 17
0.0
 27
0.0
 37
0.0
 40
210.0
 41
1.4142857143
 42
50.0
 43
0.0
 44
0.0
 50
0.0
 51
0.0
 71
     0
 72
  2000
 73
     1
 74
     3
 75
     0
 76
     0
 77
     0
 78
     0
281
     0
 65
     1
110
0.0
120
0.0
130
0.0
111
1.0
121
0.0
131
0.0
112
0.0
122
1.0
132
0.0
 79
     0
146
0.0
  0
ENDTAB
  0
TABLE
  2
LTYPE
  5
5
330
0
100
AcDbSymbolTable
 70
     8
  0
LTYPE
  5
14
330
5
100
AcDbSymbolTableRecord
100
AcDbLinetypeTableRecord
  2
ByBlock
 70
     0
  3

 72
    65
 73
     0
 40
0.0
  0
LTYPE
  5
15
330
5
100
AcDbSymbolTableRecord
100
AcDbLinetypeTableRecord
  2
ByLayer
 70
     0
  3

 72
    65
 73
     0
 40
0.0
  0
LTYPE
  5
16
330
5
100
AcDbSymbolTableRecord
100
AcDbLinetypeTableRecord
  2
Continuous
 70
     0
  3
Solid line
 72
    65
 73
     0
 40
0.0
  0
LTYPE
  5
3F
330
5
100
AcDbSymbolTableRecord
100
AcDbLinetypeTableRecord
  2
SLD-Durchgehend
 70
     0
  3
SolidWorks Line Style
 72
    65
 73
     0
 40
0.0
  0
LTYPE
  5
40
330
5
100
AcDbSymbolTableRecord
100
AcDbLinetypeTableRecord
  2
SLD-Gestrichelt
 70
     0
  3
SolidWorks Line Style
 72
    65
 73
     2
 40
1.905
 49
1.27
 74
     0
 49
-0.635
 74
     0
  0
LTYPE
  5
41
330
5
100
AcDbSymbolTableRecord
100
AcDbLinetypeTableRecord
  2
SLD-Phantom
 70
     0
  3
SolidWorks Line Style
 72
    65
 73
     6
 40
12.7
 49
6.35
 74
     0
 49
-1.27
 74
     0
 49
1.27
 74
     0
 49
-1.27
 74
     0
 49
1.27
 74
     0
 49
-1.27
 74
     0
  0
LTYPE
  5
42
330
5
100
AcDbSymbolTableRecord
100
AcDbLinetypeTableRecord
  2
SLD-Kette
 70
     0
  3
SolidWorks Line Style
 72
    65
 73
     4
 40
10.16
 49
6.35
 74
     0
 49
-1.27
 74
     0
 49
1.27
 74
     0
 49
-1.27
 74
     0
  0
LTYPE
  5
43
330
5
100
AcDbSymbolTableRecord
100
AcDbLinetypeTableRecord
  2
SLD-Punktstrich
 70
     0
  3
SolidWorks Line Style
 72
    65
 73
     4
 40
19.05
 49
15.24
 74
     0
 49
-1.27
 74
     0
 49
1.27
 74
     0
 49
-1.27
 74
     0
  0
LTYPE
  5
44
330
5
100
AcDbSymbolTableRecord
100
AcDbLinetypeTableRecord
  2
SLD-Naht
 70
     0
  3
SolidWorks Line Style
 72
    65
 73
     2
 40
0.635
 49
0.0
 74
     0
 49
-0.635
 74
     0
  0
LTYPE
  5
45
330
5
100
AcDbSymbolTableRecord
100
AcDbLinetypeTableRecord
  2
SLD-Dicke-Dünne-Kette
 70
     0
  3
SolidWorks Line Style
 72
    65
 73
     4
 40
10.16
 49
6.35
 74
     0
 49
-1.27
 74
     0
 49
1.27
 74
     0
 49
-1.27
 74
     0
  0
ENDTAB
  0
TABLE
  2
LAYER
  5
2
330
0
100
AcDbSymbolTable
 70
     5
  0
LAYER
  5
10
330
2
100
AcDbSymbolTableRecord
100
AcDbLayerTableRecord
  2
0
 70
     0
 62
     7
  6
Continuous
370
    -3
390
F
  0
LAYER
  5
46
330
2
100
AcDbSymbolTableRecord
100
AcDbLayerTableRecord
  2
FORMAT
 70
     0
 62
     7
  6
SLD-Durchgehend
370
    -3
390
F
  0
LAYER
  5
47
330
2
100
AcDbSymbolTableRecord
100
AcDbLayerTableRecord
  2
VERMASSUNG
 70
     0
 62
     7
  6
SLD-Durchgehend
370
    -3
390
F
  0
LAYER
  5
48
330
2
100
AcDbSymbolTableRecord
100
AcDbLayerTableRecord
  2
KOPF_DÜNN
 70
     0
 62
     7
  6
SLD-Durchgehend
370
    -3
390
F
  0
LAYER
  5
49
330
2
100
AcDbSymbolTableRecord
100
AcDbLayerTableRecord
  2
KOPF_DICK
 70
     0
 62
     7
  6
SLD-Durchgehend
370
    15
390
F
  0
ENDTAB
  0
TABLE
  2
STYLE
  5
3
330
0
100
AcDbSymbolTable
 70
     2
  0
STYLE
  5
11
330
3
100
AcDbSymbolTableRecord
100
AcDbTextStyleTableRecord
  2
STANDARD
 70
     0
 40
0.0
 41
1.0
 50
0.0
 71
     0
 42
2.0
  3
ISOCPEUR.TTF
  4

1001
ACAD
1000
ISOCPEUR
1071
       34
  0
STYLE
  5
4A
330
3
100
AcDbSymbolTableRecord
100
AcDbTextStyleTableRecord
  2
SLDTEXTSTYLE0
 70
     0
 40
0.0
 41
1.0
 50
0.0
 71
     0
 42
0.2
  3
ISOCPEUR.TTF
  4

1001
ACAD
1000
ISOCPEUR
1071
      290
  0
ENDTAB
  0
TABLE
  2
VIEW
  5
6
330
0
100
AcDbSymbolTable
 70
     0
  0
ENDTAB
  0
TABLE
  2
UCS
  5
7
330
0
100
AcDbSymbolTable
 70
     0
  0
ENDTAB
  0
TABLE
  2
APPID
  5
9
330
0
100
AcDbSymbolTable
 70
     1
  0
APPID
  5
12
330
9
100
AcDbSymbolTableRecord
100
AcDbRegAppTableRecord
  2
ACAD
 70
     0
  0
ENDTAB
  0
TABLE
  2
DIMSTYLE
  5
A
330
0
100
AcDbSymbolTable
 70
     3
100
AcDbDimStyleTable
  0
DIMSTYLE
105
27
330
A
100
AcDbSymbolTableRecord
100
AcDbDimStyleTableRecord
  2
ISO-25
 70
     0
 41
2.5
 42
0.625
 43
3.75
 44
1.25
 73
     0
 74
     0
 77
     1
 78
     8
140
2.5
141
2.5
143
0.0393700787
147
0.625
171
     3
172
     1
178
     0
271
     2
272
     2
274
     3
278
    44
283
     0
284
     8
340
11
  0
DIMSTYLE
105
207
102
{ACAD_REACTORS
330
206
330
213
330
21D
330
227
330
278
102
}
330
A
100
AcDbSymbolTableRecord
100
AcDbDimStyleTableRecord
  2
SLDDIMSTYLE0
 70
     0
 41
3.0
 44
0.0
 45
0.000000001
 73
     0
 74
     0
 77
     1
 78
    12
 79
     3
140
2.0
147
0.5
173
     1
178
     0
271
     2
272
     3
276
     2
284
    12
340
4A
  0
DIMSTYLE
105
232
102
{ACAD_REACTORS
330
231
102
}
330
A
100
AcDbSymbolTableRecord
100
AcDbDimStyleTableRecord
  2
SLDDIMSTYLE1
 70
     0
 41
3.0
 44
0.0
 73
     0
 74
     0
 77
     1
 78
    12
 79
     3
140
2.0
147
0.5
173
     1
178
     0
179
     2
272
     3
276
     2
284
    12
340
4A
  0
ENDTAB
  0
TABLE
  2
BLOCK_RECORD
  5
1
330
0
100
AcDbSymbolTable
 70
     9
  0
BLOCK_RECORD
  5
1F
330
1
100
AcDbSymbolTableRecord
100
AcDbBlockTableRecord
  2
*Model_Space
340
22
  0
BLOCK_RECORD
  5
1B
330
1
100
AcDbSymbolTableRecord
100
AcDbBlockTableRecord
  2
*Paper_Space
340
1E
  0
BLOCK_RECORD
  5
23
330
1
100
AcDbSymbolTableRecord
100
AcDbBlockTableRecord
  2
*Paper_Space0
340
26
  0
BLOCK_RECORD
  5
208
330
1
100
AcDbSymbolTableRecord
100
AcDbBlockTableRecord
  2
_D
340
0
  0
BLOCK_RECORD
  5
214
330
1
100
AcDbSymbolTableRecord
100
AcDbBlockTableRecord
  2
_D_1
340
0
  0
BLOCK_RECORD
  5
21E
330
1
100
AcDbSymbolTableRecord
100
AcDbBlockTableRecord
  2
_D_2
340
0
  0
BLOCK_RECORD
  5
228
330
1
100
AcDbSymbolTableRecord
100
AcDbBlockTableRecord
  2
_D_3
340
0
  0
BLOCK_RECORD
  5
233
330
1
100
AcDbSymbolTableRecord
100
AcDbBlockTableRecord
  2
_D_4
340
0
  0
BLOCK_RECORD
  5
279
330
1
100
AcDbSymbolTableRecord
100
AcDbBlockTableRecord
  2
_D_5
340
0
  0
BLOCK_RECORD
  5
283
330
1
100
AcDbSymbolTableRecord
100
AcDbBlockTableRecord
  2
SW_CENTERMARKSYMBOL_0
340
0
102
{BLKREFS
331
28E
102
}
  0
BLOCK_RECORD
  5
28F
330
1
100
AcDbSymbolTableRecord
100
AcDbBlockTableRecord
  2
SW_CENTERMARKSYMBOL_1
340
0
102
{BLKREFS
331
29A
102
}
  0
ENDTAB
  0
ENDSEC
  0
SECTION
  2
BLOCKS
  0
BLOCK
  5
20
330
1F
100
AcDbEntity
  8
0
100
AcDbBlockBegin
  2
*Model_Space
 70
     0
 10
0.0
 20
0.0
 30
0.0
  3
*Model_Space
  1

  0
ENDBLK
  5
21
330
1F
100
AcDbEntity
  8
0
100
AcDbBlockEnd
  0
BLOCK
  5
1C
330
1B
100
AcDbEntity
 67
     1
  8
0
100
AcDbBlockBegin
  2
*Paper_Space
 70
     0
 10
0.0
 20
0.0
 30
0.0
  3
*Paper_Space
  1

  0
ENDBLK
  5
1D
330
1B
100
AcDbEntity
 67
     1
  8
0
100
AcDbBlockEnd
  0
BLOCK
  5
24
330
23
100
AcDbEntity
  8
0
100
AcDbBlockBegin
  2
*Paper_Space0
 70
     0
 10
0.0
 20
0.0
 30
0.0
  3
*Paper_Space0
  1

  0
ENDBLK
  5
25
330
23
100
AcDbEntity
  8
0
100
AcDbBlockEnd
  0
BLOCK
  5
209
330
208
100
AcDbEntity
  8
0
100
AcDbBlockBegin
  2
_D
 70
     0
 10
0.0
 20
0.0
 30
0.0
  3
_D
  1

  0
SOLID
  5
20B
330
208
100
AcDbEntity
  8
VERMASSUNG
100
AcDbTrace
 10
156.2758796457
 20
131.9858333719
 30
0.0
 11
155.8258796457
 21
128.9858333719
 31
0.0
 12
156.7258796457
 22
128.9858333719
 32
0.0
 13
156.7258796457
 23
128.9858333719
 33
0.0
  0
SOLID
  5
20C
330
208
100
AcDbEntity
  8
VERMASSUNG
100
AcDbTrace
 10
156.2758796457
 20
91.9858333719
 30
0.0
 11
156.7258796457
 21
94.9858333719
 31
0.0
 12
155.8258796457
 22
94.9858333719
 32
0.0
 13
155.8258796457
 23
94.9858333719
 33
0.0
  0
LINE
  5
20D
330
208
100
AcDbEntity
  8
VERMASSUNG
100
AcDbLine
 10
180.4060497802
 20
131.9858333719
 30
0.0
 11
155.2758796457
 21
131.9858333719
 31
0.0
  0
LINE
  5
20E
330
208
100
AcDbEntity
  8
VERMASSUNG
100
AcDbLine
 10
180.4060497802
 20
91.9858333719
 30
0.0
 11
155.2758796457
 21
91.9858333719
 31
0.0
  0
LINE
  5
20F
330
208
100
AcDbEntity
  8
VERMASSUNG
100
AcDbLine
 10
156.2758796457
 20
131.9858333719
 30
0.0
 11
156.2758796457
 21
91.9858333719
 31
0.0
  0
MTEXT
  5
210
330
208
100
AcDbEntity
  8
VERMASSUNG
100
AcDbMText
 10
153.4758796362
 20
105.681712672
 30
0.0
 40
2.0
 41
0.0
 71
     1
 72
     1
  1
HSK 
  7
SLDTEXTSTYLE0
 11
-7.044195017643634E-15
 21
1.0
 31
0.0
 73
     1
 44
1.0
  0
MTEXT
  5
211
330
208
100
AcDbEntity
  8
VERMASSUNG
100
AcDbMText
 10
153.6758796457
 20
111.6817127242
 30
0.0
 40
2.0
 41
0.0
 71
     1
 72
     1
  1
%%c
  7
SLDTEXTSTYLE0
 11
-7.044195017643634E-15
 21
1.0
 31
0.0
 73
     1
 44
1.0
  0
MTEXT
  5
212
330
208
100
AcDbEntity
  8
VERMASSUNG
100
AcDbMText
 10
153.6758797621
 20
115.2899577553
 30
0.0
 40
2.0
 41
0.0
 71
     1
 72
     1
  1
40
  7
SLDTEXTSTYLE0
 11
-7.044195017643634E-15
 21
1.0
 31
0.0
 73
     1
 44
1.0
  0
ENDBLK
  5
20A
330
208
100
AcDbEntity
  8
0
100
AcDbBlockEnd
  0
BLOCK
  5
215
330
214
100
AcDbEntity
  8
0
100
AcDbBlockBegin
  2
_D_1
 70
     0
 10
0.0
 20
0.0
 30
0.0
  3
_D_1
  1

  0
SOLID
  5
217
330
214
100
AcDbEntity
  8
VERMASSUNG
100
AcDbTrace
 10
160.2060497802
 20
141.9858333719
 30
0.0
 11
163.2060497802
 21
141.5358333719
 31
0.0
 12
163.2060497802
 22
142.4358333719
 32
0.0
 13
163.2060497802
 23
142.4358333719
 33
0.0
  0
SOLID
  5
218
330
214
100
AcDbEntity
  8
VERMASSUNG
100
AcDbTrace
 10
235.1060497802
 20
141.9858333719
 30
0.0
 11
232.1060497802
 21
142.4358333719
 31
0.0
 12
232.1060497802
 22
141.5358333719
 32
0.0
 13
232.1060497802
 23
141.5358333719
 33
0.0
  0
LINE
  5
219
330
214
100
AcDbEntity
  8
VERMASSUNG
100
AcDbLine
 10
160.2060497802
 20
123.9158333719
 30
0.0
 11
160.2060497802
 21
142.9858333719
 31
0.0
  0
LINE
  5
21A
330
214
100
AcDbEntity
  8
VERMASSUNG
100
AcDbLine
 10
235.1060497802
 20
84.9858333719
 30
0.0
 11
235.1060497802
 21
142.9858333719
 31
0.0
  0
LINE
  5
21B
330
214
100
AcDbEntity
  8
VERMASSUNG
100
AcDbLine
 10
160.2060497802
 20
141.9858333719
 30
0.0
 11
235.1060497802
 21
141.9858333719
 31
0.0
  0
MTEXT
  5
21C
330
214
100
AcDbEntity
  8
VERMASSUNG
100
AcDbMText
 10
195.1569702798
 20
144.5858332555
 30
0.0
 40
2.0
 41
0.0
 71
     1
 72
     1
  1
74.9
  7
SLDTEXTSTYLE0
 73
     1
 44
1.0
  0
ENDBLK
  5
216
330
214
100
AcDbEntity
  8
0
100
AcDbBlockEnd
  0
BLOCK
  5
21F
330
21E
100
AcDbEntity
  8
0
100
AcDbBlockBegin
  2
_D_2
 70
     0
 10
0.0
 20
0.0
 30
0.0
  3
_D_2
  1

  0
SOLID
  5
221
330
21E
100
AcDbEntity
  8
VERMASSUNG
100
AcDbTrace
 10
180.1060497802
 20
135.9858333719
 30
0.0
 11
183.1060497802
 21
135.5358333719
 31
0.0
 12
183.1060497802
 22
136.4358333719
 32
0.0
 13
183.1060497802
 23
136.4358333719
 33
0.0
  0
SOLID
  5
222
330
21E
100
AcDbEntity
  8
VERMASSUNG
100
AcDbTrace
 10
235.1060497802
 20
135.9858333719
 30
0.0
 11
232.1060497802
 21
136.4358333719
 31
0.0
 12
232.1060497802
 22
135.5358333719
 32
0.0
 13
232.1060497802
 23
135.5358333719
 33
0.0
  0
LINE
  5
223
330
21E
100
AcDbEntity
  8
VERMASSUNG
100
AcDbLine
 10
180.1060497802
 20
131.6858333719
 30
0.0
 11
180.1060497802
 21
136.9858333719
 31
0.0
  0
LINE
  5
224
330
21E
100
AcDbEntity
  8
VERMASSUNG
100
AcDbLine
 10
235.1060497802
 20
84.9858333719
 30
0.0
 11
235.1060497802
 21
136.9858333719
 31
0.0
  0
LINE
  5
225
330
21E
100
AcDbEntity
  8
VERMASSUNG
100
AcDbLine
 10
180.1060497802
 20
135.9858333719
 30
0.0
 11
235.1060497802
 21
135.9858333719
 31
0.0
  0
MTEXT
  5
226
330
21E
100
AcDbEntity
  8
VERMASSUNG
100
AcDbMText
 10
206.2065102142
 20
138.5858332555
 30
0.0
 40
2.0
 41
0.0
 71
     1
 72
     1
  1
55
  7
SLDTEXTSTYLE0
 73
     1
 44
1.0
  0
ENDBLK
  5
220
330
21E
100
AcDbEntity
  8
0
100
AcDbBlockEnd
  0
BLOCK
  5
229
330
228
100
AcDbEntity
  8
0
100
AcDbBlockBegin
  2
_D_3
 70
     0
 10
0.0
 20
0.0
 30
0.0
  3
_D_3
  1

  0
SOLID
  5
22B
330
228
100
AcDbEntity
  8
VERMASSUNG
100
AcDbTrace
 10
244.1400276303
 20
111.9858333719
 30
0.0
 11
243.6900276303
 21
108.9858333719
 31
0.0
 12
244.5900276303
 22
108.9858333719
 32
0.0
 13
244.5900276303
 23
108.9858333719
 33
0.0
  0
SOLID
  5
22C
330
228
100
AcDbEntity
  8
VERMASSUNG
100
AcDbTrace
 10
244.1400276303
 20
84.9858333719
 30
0.0
 11
244.5900276303
 21
87.9858333719
 31
0.0
 12
243.6900276303
 22
87.9858333719
 32
0.0
 13
243.6900276303
 23
87.9858333719
 33
0.0
  0
LINE
  5
22D
330
228
100
AcDbEntity
  8
VERMASSUNG
100
AcDbLine
 10
232.4085963003
 20
111.9858333719
 30
0.0
 11
245.1400276303
 21
111.9858333719
 31
0.0
  0
LINE
  5
22E
330
228
100
AcDbEntity
  8
VERMASSUNG
100
AcDbLine
 10
235.1060497802
 20
84.9858333719
 30
0.0
 11
245.1400276303
 21
84.9858333719
 31
0.0
  0
LINE
  5
22F
330
228
100
AcDbEntity
  8
VERMASSUNG
100
AcDbLine
 10
244.1400276303
 20
111.9858333719
 30
0.0
 11
244.1400276303
 21
84.9858333719
 31
0.0
  0
MTEXT
  5
230
330
228
100
AcDbEntity
  8
VERMASSUNG
100
AcDbMText
 10
241.5400277467
 20
97.0862938059
 30
0.0
 40
2.0
 41
0.0
 71
     1
 72
     1
  1
27
  7
SLDTEXTSTYLE0
 11
-7.044195017643634E-15
 21
1.0
 31
0.0
 73
     1
 44
1.0
  0
ENDBLK
  5
22A
330
228
100
AcDbEntity
  8
0
100
AcDbBlockEnd
  0
BLOCK
  5
234
330
233
100
AcDbEntity
  8
0
100
AcDbBlockBegin
  2
_D_4
 70
     0
 10
0.0
 20
0.0
 30
0.0
  3
_D_4
  1

  0
ARC
  5
236
330
233
100
AcDbEntity
  8
VERMASSUNG
100
AcDbCircle
 10
235.1060497802
 20
80.8710179537
 30
0.0
 40
24.61131693924489
100
AcDbArc
 50
90.0
 51
93.0
  0
ARC
  5
237
330
233
100
AcDbEntity
  8
VERMASSUNG
100
AcDbCircle
 10
235.1060497802
 20
80.8710179537
 30
0.0
 40
24.61131693924489
100
AcDbArc
 50
76.1260938459
 51
90.0
  0
ARC
  5
238
330
233
100
AcDbEntity
  8
VERMASSUNG
100
AcDbCircle
 10
235.1060497802
 20
80.8710179537
 30
0.0
 40
24.6113169392449
100
AcDbArc
 50
93.0
 51
110.8509553435
  0
SOLID
  5
239
330
233
100
AcDbEntity
  8
VERMASSUNG
100
AcDbTrace
 10
235.1060497802
 20
105.4823348929
 30
0.0
 11
238.0732590935
 21
104.8513286403
 31
0.0
 12
238.1278091734
 22
105.7496739463
 32
0.0
 13
238.1278091734
 23
105.7496739463
 33
0.0
  0
SOLID
  5
23A
330
233
100
AcDbEntity
  8
VERMASSUNG
100
AcDbTrace
 10
233.8179929738
 20
105.4486059384
 30
0.0
 11
230.7863833518
 21
105.5574319455
 31
0.0
 12
230.8878744333
 22
104.6631727212
 32
0.0
 13
230.8878744333
 23
104.6631727212
 33
0.0
  0
MTEXT
  5
23B
330
233
100
AcDbEntity
  8
VERMASSUNG
100
AcDbMText
 10
227.1890463319
 20
106.9375564851
 30
0.0
 40
2.0
 41
0.0
 71
     1
 72
     1
  1
3°
  7
SLDTEXTSTYLE0
 11
0.9696100398128337
 21
0.2446556165187204
 31
0.0
 73
     1
 44
1.0
  0
ENDBLK
  5
235
330
233
100
AcDbEntity
  8
0
100
AcDbBlockEnd
  0
BLOCK
  5
27A
330
279
100
AcDbEntity
  8
0
100
AcDbBlockBegin
  2
_D_5
 70
     0
 10
0.0
 20
0.0
 30
0.0
  3
_D_5
  1

  0
SOLID
  5
27C
330
279
100
AcDbEntity
  8
VERMASSUNG
100
AcDbTrace
 10
53.7039173014
 20
84.9803170561
 30
0.0
 11
54.1539173014
 21
87.9803170561
 31
0.0
 12
53.2539173014
 22
87.9803170561
 32
0.0
 13
53.2539173014
 23
87.9803170561
 33
0.0
  0
SOLID
  5
27D
330
279
100
AcDbEntity
  8
VERMASSUNG
100
AcDbTrace
 10
53.7039173014
 20
134.9803170561
 30
0.0
 11
53.2539173014
 21
131.9803170561
 31
0.0
 12
54.1539173014
 22
131.9803170561
 32
0.0
 13
54.1539173014
 23
131.9803170561
 33
0.0
  0
LINE
  5
27E
330
279
100
AcDbEntity
  8
VERMASSUNG
100
AcDbLine
 10
83.7039173014
 20
84.9803170561
 30
0.0
 11
52.7039173014
 21
84.9803170561
 31
0.0
  0
LINE
  5
27F
330
279
100
AcDbEntity
  8
VERMASSUNG
100
AcDbLine
 10
83.7039173014
 20
134.9803170561
 30
0.0
 11
52.7039173014
 21
134.9803170561
 31
0.0
  0
LINE
  5
280
330
279
100
AcDbEntity
  8
VERMASSUNG
100
AcDbLine
 10
53.7039173014
 20
84.9803170561
 30
0.0
 11
53.7039173014
 21
134.9803170561
 31
0.0
  0
MTEXT
  5
281
330
279
100
AcDbEntity
  8
VERMASSUNG
100
AcDbMText
 10
51.1039173014
 20
106.776651265
 30
0.0
 40
2.0
 41
0.0
 71
     1
 72
     1
  1
%%c
  7
SLDTEXTSTYLE0
 11
6.123233995736766E-17
 21
1.0
 31
0.0
 73
     1
 44
1.0
  0
MTEXT
  5
282
330
279
100
AcDbEntity
  8
VERMASSUNG
100
AcDbMText
 10
51.1039174178
 20
110.3849037153
 30
0.0
 40
2.0
 41
0.0
 71
     1
 72
     1
  1
50
  7
SLDTEXTSTYLE0
 11
6.123233995736766E-17
 21
1.0
 31
0.0
 73
     1
 44
1.0
  0
ENDBLK
  5
27B
330
279
100
AcDbEntity
  8
0
100
AcDbBlockEnd
  0
BLOCK
  5
284
330
283
100
AcDbEntity
  8
0
100
AcDbBlockBegin
  2
SW_CENTERMARKSYMBOL_0
 70
     0
 10
0.0
 20
0.0
 30
0.0
  3
SW_CENTERMARKSYMBOL_0
  1

  0
LINE
  5
286
330
283
100
AcDbEntity
  8
VERMASSUNG
 62
     0
100
AcDbLine
 10
0.0
 20
0.0
 30
0.0
 11
0.0
 21
2.5
 31
0.0
  0
LINE
  5
287
330
283
100
AcDbEntity
  8
VERMASSUNG
 62
     0
100
AcDbLine
 10
0.0
 20
0.0
 30
0.0
 11
-2.5
 21
0.0
 31
0.0
  0
LINE
  5
288
330
283
100
AcDbEntity
  8
VERMASSUNG
 62
     0
100
AcDbLine
 10
0.0
 20
0.0
 30
0.0
 11
0.0
 21
-2.5
 31
0.0
  0
LINE
  5
289
330
283
100
AcDbEntity
  8
VERMASSUNG
 62
     0
100
AcDbLine
 10
0.0
 20
0.0
 30
0.0
 11
2.5
 21
0.0
 31
0.0
  0
LINE
  5
28A
330
283
100
AcDbEntity
  8
VERMASSUNG
 62
     0
100
AcDbLine
 10
0.0
 20
5.0
 30
0.0
 11
0.0
 21
22.5
 31
0.0
  0
LINE
  5
28B
330
283
100
AcDbEntity
  8
VERMASSUNG
 62
     0
100
AcDbLine
 10
-5.0
 20
0.0
 30
0.0
 11
-22.5
 21
0.0
 31
0.0
  0
LINE
  5
28C
330
283
100
AcDbEntity
  8
VERMASSUNG
 62
     0
100
AcDbLine
 10
0.0
 20
-5.0
 30
0.0
 11
0.0
 21
-22.5
 31
0.0
  0
LINE
  5
28D
330
283
100
AcDbEntity
  8
VERMASSUNG
 62
     0
100
AcDbLine
 10
5.0
 20
0.0
 30
0.0
 11
22.5
 21
0.0
 31
0.0
  0
ENDBLK
  5
285
330
283
100
AcDbEntity
  8
0
100
AcDbBlockEnd
  0
BLOCK
  5
290
330
28F
100
AcDbEntity
  8
0
100
AcDbBlockBegin
  2
SW_CENTERMARKSYMBOL_1
 70
     0
 10
0.0
 20
0.0
 30
0.0
  3
SW_CENTERMARKSYMBOL_1
  1

  0
LINE
  5
292
330
28F
100
AcDbEntity
  8
VERMASSUNG
 62
     0
100
AcDbLine
 10
0.0
 20
0.0
 30
0.0
 11
0.0
 21
2.5
 31
0.0
  0
LINE
  5
293
330
28F
100
AcDbEntity
  8
VERMASSUNG
 62
     0
100
AcDbLine
 10
0.0
 20
0.0
 30
0.0
 11
-2.5
 21
0.0
 31
0.0
  0
LINE
  5
294
330
28F
100
AcDbEntity
  8
VERMASSUNG
 62
     0
100
AcDbLine
 10
0.0
 20
0.0
 30
0.0
 11
0.0
 21
-2.5
 31
0.0
  0
LINE
  5
295
330
28F
100
AcDbEntity
  8
VERMASSUNG
 62
     0
100
AcDbLine
 10
0.0
 20
0.0
 30
0.0
 11
2.5
 21
0.0
 31
0.0
  0
LINE
  5
296
330
28F
100
AcDbEntity
  8
VERMASSUNG
 62
     0
100
AcDbLine
 10
0.0
 20
5.0
 30
0.0
 11
0.0
 21
22.5
 31
0.0
  0
LINE
  5
297
330
28F
100
AcDbEntity
  8
VERMASSUNG
 62
     0
100
AcDbLine
 10
-5.0
 20
0.0
 30
0.0
 11
-22.5
 21
0.0
 31
0.0
  0
LINE
  5
298
330
28F
100
AcDbEntity
  8
VERMASSUNG
 62
     0
100
AcDbLine
 10
0.0
 20
-5.0
 30
0.0
 11
0.0
 21
-22.5
 31
0.0
  0
LINE
  5
299
330
28F
100
AcDbEntity
  8
VERMASSUNG
 62
     0
100
AcDbLine
 10
5.0
 20
0.0
 30
0.0
 11
22.5
 21
0.0
 31
0.0
  0
ENDBLK
  5
291
330
28F
100
AcDbEntity
  8
0
100
AcDbBlockEnd
  0
ENDSEC
  0
SECTION
  2
ENTITIES
  0
MTEXT
  5
4B
330
1F
100
AcDbEntity
  8
KOPF_DÜNN
100
AcDbMText
 10
13.8892156294
 20
23.8770940835
 30
0.0
 40
3.0
 41
0.0
 71
     1
 72
     1
  1
HA4.KDB.LUA.055
  7
SLDTEXTSTYLE0
 73
     1
 44
1.0
  0
MTEXT
  5
4C
330
1F
100
AcDbEntity
  8
VERMASSUNG
100
AcDbMText
 10
13.9329988022
 20
28.9162328764
 30
0.0
 40
3.0
 41
0.0
 71
     1
 72
     1
  1
Klemmhalter links_Turning tool left 93° /55°
  7
SLDTEXTSTYLE0
 73
     1
 44
1.0
  0
MTEXT
  5
4D
330
1F
100
AcDbEntity
  8
VERMASSUNG
100
AcDbMText
 10
98.8601118557
 20
13.8584013384
 30
0.0
 40
2.0
 41
0.0
 71
     1
 72
     1
  1
Datum: 20.11.2008
  7
SLDTEXTSTYLE0
 73
     1
 44
1.0
  0
MTEXT
  5
4E
330
1F
100
AcDbEntity
  8
VERMASSUNG
100
AcDbMText
 10
13.933048693
 20
18.0701447943
 30
0.0
 40
2.0
 41
0.0
 71
     1
 72
     1
  1
DIN 69893 HSK 63 A ICTM / DC.. 11 T3..
  7
SLDTEXTSTYLE0
 73
     1
 44
1.0
  0
MTEXT
  5
4F
330
1F
100
AcDbEntity
  8
VERMASSUNG
100
AcDbMText
 10
13.9808475933
 20
13.9309618897
 30
0.0
 40
2.0
 41
0.0
 71
     1
 72
     1
  1
Gewicht: 326g
  7
SLDTEXTSTYLE0
 73
     1
 44
1.0
  0
LINE
  5
50
330
1F
100
AcDbEntity
  8
0
  6
SLD-Durchgehend
 62
     7
370
    15
100
AcDbLine
 10
180.4060497944
 20
91.985833819
 30
0.0
 11
188.0560502451
 21
91.985833819
 31
0.0
  0
LINE
  5
51
330
1F
100
AcDbEntity
  8
0
  6
SLD-Durchgehend
 62
     7
370
    15
100
AcDbLine
 10
188.071577255
 20
131.9858329249
 30
0.0
 11
180.4060497944
 21
131.9858329249
 31
0.0
  0
ARC
  5
52
330
1F
100
AcDbEntity
  8
0
  6
SLD-Durchgehend
 62
     7
370
    15
100
AcDbCircle
 10
180.4060497802
 20
92.2858333719
 30
0.0
 40
0.2999999999999972
100
AcDbArc
 50
180.0
 51
270.0
  0
ARC
  5
53
330
1F
100
AcDbEntity
  8
0
  6
SLD-Durchgehend
 62
     7
370
    15
100
AcDbCircle
 10
180.4060497802
 20
131.6858333719
 30
0.0
 40
0.2999999999999829
100
AcDbArc
 50
90.0
 51
180.0
  0
ARC
  5
54
330
1F
100
AcDbEntity
  8
0
  6
SLD-Durchgehend
 62
     7
370
    15
100
AcDbCircle
 10
201.0560497802
 20
94.4858333719
 30
0.0
 40
1.0
100
AcDbArc
 50
90.0
 51
143.1137328946
  0
ARC
  5
55
330
1F
100
AcDbEntity
  8
0
  6
SLD-Durchgehend
 62
     7
370
    15
100
AcDbCircle
 10
201.0560497802
 20
129.4858333719
 30
0.0
 40
1.0
100
AcDbArc
 50
216.8998129703
 51
270.0
  0
LINE
  5
56
330
1F
100
AcDbEntity
  8
0
  6
SLD-Durchgehend
 62
     7
370
    15
100
AcDbLine
 10
201.0560505133
 20
95.4858334613
 30
0.0
 11
212.178862099
 21
95.4858334613
 31
0.0
  0
LINE
  5
57
330
1F
100
AcDbEntity
  8
0
  6
SLD-Durchgehend
 62
     7
370
    15
100
AcDbLine
 10
212.1906675439
 20
128.4858332825
 30
0.0
 11
201.0560505133
 21
128.4858332825
 31
0.0
  0
ARC
  5
58
330
1F
100
AcDbEntity
  8
0
  6
SLD-Durchgehend
 62
     7
370
    15
100
AcDbCircle
 10
179.6060430275
 20
96.5321262184
 30
0.0
 40
0.60000675266771
100
AcDbArc
 50
33.5571153394
 51
90.0
  0
ARC
  5
59
330
1F
100
AcDbEntity
  8
0
  6
SLD-Durchgehend
 62
     7
370
    15
100
AcDbCircle
 10
179.6060430275
 20
127.4395405254
 30
0.0
 40
0.6000067526677242
100
AcDbArc
 50
270.0
 51
326.4428846606
  0
LINE
  5
5A
330
1F
100
AcDbEntity
  8
0
  6
SLD-Durchgehend
 62
     7
370
    15
100
AcDbLine
 10
178.1060496852
 20
96.8821328012
 30
0.0
 11
178.96276168
 21
97.1116879833
 31
0.0
  0
LINE
  5
5B
330
1F
100
AcDbEntity
  8
0
  6
SLD-Durchgehend
 62
     7
370
    15
100
AcDbLine
 10
178.96276168
 20
126.8599787605
 30
0.0
 11
178.1060496852
 21
127.0895339427
 31
0.0
  0
LINE
  5
5C
330
1F
100
AcDbEntity
  8
0
  6
SLD-Durchgehend
 62
     7
370
    15
100
AcDbLine
 10
171.2901167612
 20
126.7480542761
 30
0.0
 11
163.8060495298
 21
126.3731010136
 31
0.0
  0
LINE
  5
5D
330
1F
100
AcDbEntity
  8
0
  6
SLD-Durchgehend
 62
     7
370
    15
100
AcDbLine
 10
178.1060496852
 20
127.0895339427
 30
0.0
 11
176.8713171169
 21
127.0276736346
 31
0.0
  0
LINE
  5
5E
330
1F
100
AcDbEntity
  8
0
  6
SLD-Durchgehend
 62
     7
370
    15
100
AcDbLine
 10
176.8723131664
 20
96.9439437491
 30
0.0
 11
178.1060496852
 21
96.8821328012
 31
0.0
  0
LINE
  5
5F
330
1F
100
AcDbEntity
  8
0
  6
SLD-Durchgehend
 62
     7
370
    15
100
AcDbLine
 10
166.3060499396
 20
97.4733149511
 30
0.0
 11
171.2905796286
 21
97.2235891846
 31
0.0
  0
ARC
  5
60
330
1F
100
AcDbEntity
  8
0
  6
SLD-Durchgehend
 62
     7
370
    15
100
AcDbCircle
 10
179.1180548696
 20
96.5321262184
 30
0.0
 40
0.60000675266771
100
AcDbArc
 50
90.0
 51
105.0
  0
ARC
  5
61
330
1F
100
AcDbEntity
  8
0
  6
SLD-Durchgehend
 62
     7
370
    15
100
AcDbCircle
 10
179.1180548696
 20
127.4395405254
 30
0.0
 40
0.6000067526677242
100
AcDbArc
 50
255.0
 51
270.0
  0
LINE
  5
62
330
1F
100
AcDbEntity
  8
0
  6
SLD-Durchgehend
 62
     7
370
    15
100
AcDbLine
 10
179.1180548299
 20
97.1321333078
 30
0.0
 11
179.6060430043
 21
97.1321333078
 31
0.0
  0
LINE
  5
63
330
1F
100
AcDbEntity
  8
0
  6
SLD-Durchgehend
 62
     7
370
    15
100
AcDbLine
 10
179.6060430043
 20
126.839533436
 30
0.0
 11
179.1180548299
 21
126.839533436
 31
0.0
  0
ARC
  5
64
330
1F
100
AcDbEntity
  8
0
  6
SLD-Durchgehend
 62
     7
370
    15
100
AcDbCircle
 10
162.9060497802
 20
125.7658333719
 30
0.0
 40
0.9000000000000057
100
AcDbArc
 50
270.0
 51
311.1792132368
  0
ARC
  5
65
330
1F
100
AcDbEntity
  8
0
  6
SLD-Durchgehend
 62
     7
370
    15
100
AcDbCircle
 10
165.4060497802
 20
98.2648333719
 30
0.0
 40
0.9000000000000057
100
AcDbArc
 50
29.8499024808
 51
90.0
  0
LINE
  5
66
330
1F
100
AcDbEntity
  8
0
  6
SLD-Durchgehend
 62
     7
370
    15
100
AcDbLine
 10
161.1560493749
 20
124.8658336577
 30
0.0
 11
160.2060500573
 21
123.9158334089
 31
0.0
  0
LINE
  5
67
330
1F
100
AcDbEntity
  8
0
  6
SLD-Durchgehend
 62
     7
370
    15
100
AcDbLine
 10
162.906049196
 20
124.8658336577
 30
0.0
 11
161.1560493749
 21
124.8658336577
 31
0.0
  0
LINE
  5
68
330
1F
100
AcDbEntity
  8
0
  6
SLD-Durchgehend
 62
     7
370
    15
100
AcDbLine
 10
161.1560493749
 20
99.1648333025
 30
0.0
 11
165.4060496058
 21
99.1648333025
 31
0.0
  0
LINE
  5
69
330
1F
100
AcDbEntity
  8
0
  6
SLD-Durchgehend
 62
     7
370
    15
100
AcDbLine
 10
160.2060500573
 20
100.1148335514
 30
0.0
 11
161.1560493749
 21
99.1648333025
 31
0.0
  0
LINE
  5
6A
330
1F
100
AcDbEntity
  8
0
  6
SLD-Durchgehend
 62
     7
370
    15
100
AcDbLine
 10
235.0855305832
 20
85.405721317
 30
0.0
 11
234.5280855935
 21
96.0423825187
 31
0.0
  0
LINE
  5
6B
330
1F
100
AcDbEntity
  8
0
  6
SLD-Durchgehend
 62
     7
370
    15
100
AcDbLine
 10
233.6871869903
 20
87.1155178053
 30
0.0
 11
234.7060501616
 21
85.3858338547
 31
0.0
  0
LINE
  5
6C
330
1F
100
AcDbEntity
  8
0
  6
SLD-Durchgehend
 62
     7
370
    15
100
AcDbLine
 10
233.9344382327
 20
95.8963399631
 30
0.0
 11
234.148605172
 21
96.0224950564
 31
0.0
  0
LWPOLYLINE
  5
6D
330
1F
100
AcDbEntity
  8
0
  6
SLD-Durchgehend
 62
     7
370
    15
100
AcDbPolyline
 90
        5
 70
   128
 43
0.0
 10
233.9344382327
 20
95.8963399631
 10
233.7394081097
 20
95.7814575983
 10
233.5354782682
 20
95.6613337499
 10
233.3393454593
 20
95.5458031846
 10
233.3343572956
 20
95.5428657931
  0
LINE
  5
6E
330
1F
100
AcDbEntity
  8
0
  6
SLD-Durchgehend
 62
     7
370
    15
100
AcDbLine
 10
224.7363463085
 20
101.6469141347
 30
0.0
 11
225.2937912982
 21
91.0102529329
 31
0.0
  0
LINE
  5
6F
330
1F
100
AcDbEntity
  8
0
  6
SLD-Durchgehend
 62
     7
370
    15
100
AcDbLine
 10
226.1346899014
 20
99.9371167151
 30
0.0
 11
225.1158267301
 21
101.6668015969
 31
0.0
  0
LINE
  5
70
330
1F
100
AcDbEntity
  8
0
  6
SLD-Durchgehend
 62
     7
370
    15
100
AcDbLine
 10
225.887438659
 20
91.1562954885
 30
0.0
 11
225.6732717197
 21
91.0301403952
 31
0.0
  0
LWPOLYLINE
  5
71
330
1F
100
AcDbEntity
  8
0
  6
SLD-Durchgehend
 62
     7
370
    15
100
AcDbPolyline
 90
        5
 70
   128
 43
0.0
 10
226.4875158708
 20
91.5097677958
 10
226.4825314324
 20
91.5068322671
 10
226.2863986235
 20
91.3913017017
 10
226.082468782
 20
91.2711759907
 10
225.887438659
 20
91.1562954885
  0
LINE
  5
72
330
1F
100
AcDbEntity
  8
0
  6
SLD-Durchgehend
 62
     7
370
    15
100
AcDbLine
 10
235.1059563499
 20
85.3980881972
 30
0.0
 11
234.5479749184
 21
96.044984634
 31
0.0
  0
LINE
  5
73
330
1F
100
AcDbEntity
  8
0
  6
SLD-Durchgehend
 62
     7
370
    15
100
AcDbLine
 10
225.459983949
 20
90.6917462004
 30
0.0
 11
234.5014534932
 21
85.0420081866
 31
0.0
  0
LINE
  5
74
330
1F
100
AcDbEntity
  8
0
  6
SLD-Durchgehend
 62
     7
370
    15
100
AcDbLine
 10
224.7159205418
 20
101.6545463232
 30
0.0
 11
225.2739019733
 21
91.0076508177
 31
0.0
  0
LINE
  5
75
330
1F
100
AcDbEntity
  8
0
  6
SLD-Durchgehend
 62
     7
370
    15
100
AcDbLine
 10
234.3618929427
 20
96.36088832
 30
0.0
 11
225.3204233985
 21
102.0106263337
 31
0.0
  0
ARC
  5
76
330
1F
100
AcDbEntity
  8
0
  6
SLD-Durchgehend
 62
     7
370
    15
100
AcDbCircle
 10
234.7060497802
 20
85.3858333719
 30
0.0
 40
0.3800000000000158
100
AcDbArc
 50
238.0
 51
3.0
  0
ARC
  5
77
330
1F
100
AcDbEntity
  8
0
  6
SLD-Durchgehend
 62
     7
370
    15
100
AcDbCircle
 10
234.1486059925
 20
96.0224944796
 30
0.0
 40
0.3800000000000128
100
AcDbArc
 50
3.0
 51
58.0
  0
LINE
  5
78
330
1F
100
AcDbEntity
  8
0
  6
SLD-Durchgehend
 62
     7
370
    15
100
AcDbLine
 10
234.349975739
 20
96.3447531563
 30
0.0
 11
225.3171972971
 21
101.9890596968
 31
0.0
  0
ARC
  5
79
330
1F
100
AcDbEntity
  8
0
  6
SLD-Durchgehend
 62
     7
370
    15
100
AcDbCircle
 10
225.1158266806
 20
101.6668014341
 30
0.0
 40
0.3800000000000158
100
AcDbArc
 50
58.0
 51
183.0
  0
ARC
  5
7A
330
1F
100
AcDbEntity
  8
0
  6
SLD-Durchgehend
 62
     7
370
    15
100
AcDbCircle
 10
225.6732704683
 20
91.0301403265
 30
0.0
 40
0.3800000000000047
100
AcDbArc
 50
183.0
 51
238.0
  0
LINE
  5
7B
330
1F
100
AcDbEntity
  8
0
  6
SLD-Durchgehend
 62
     7
370
    15
100
AcDbLine
 10
225.4719011526
 20
90.7078822953
 30
0.0
 11
234.5046795946
 21
85.0635757548
 31
0.0
  0
ARC
  5
7C
330
1F
100
AcDbEntity
  8
0
  6
SLD-Durchgehend
 62
     7
370
    15
100
AcDbCircle
 10
225.6700491095
 20
91.028241613
 30
0.0
 40
0.3966819057922077
100
AcDbArc
 50
182.9754220887
 51
238.0245604627
  0
ARC
  5
7D
330
1F
100
AcDbEntity
  8
0
  6
SLD-Durchgehend
 62
     7
370
    15
100
AcDbCircle
 10
234.1518319301
 20
96.0243952899
 30
0.0
 40
0.3966776881579211
100
AcDbArc
 50
2.9752438491
 51
58.0248864385
  0
ARC
  5
7E
330
1F
100
AcDbEntity
  8
0
  6
SLD-Durchgehend
 62
     7
370
    15
100
AcDbCircle
 10
225.1090078569
 20
101.6783778602
 30
0.0
 40
0.3938090646639106
100
AcDbArc
 50
57.5306863391
 51
183.4694002627
  0
ARC
  5
7F
330
1F
100
AcDbEntity
  8
0
  6
SLD-Durchgehend
 62
     7
370
    15
100
AcDbCircle
 10
234.7128690348
 20
85.3742566601
 30
0.0
 40
0.3938090646639205
100
AcDbArc
 50
237.5306863391
 51
3.4694002627
  0
LINE
  5
80
330
1F
100
AcDbEntity
  8
0
  6
SLD-Durchgehend
 62
     7
370
    15
100
AcDbLine
 10
226.5573464375
 20
97.4719151733
 30
0.0
 11
226.8311142962
 21
92.2480644536
 31
0.0
  0
ARC
  5
81
330
1F
100
AcDbEntity
  8
0
  6
SLD-Durchgehend
 62
     7
370
    15
100
AcDbCircle
 10
227.5559751369
 20
97.5242513942
 30
0.0
 40
1.0
100
AcDbArc
 50
58.0
 51
183.0
  0
LINE
  5
82
330
1F
100
AcDbEntity
  8
0
  6
SLD-Durchgehend
 62
     7
370
    15
100
AcDbLine
 10
232.5220502954
 20
95.6002818299
 30
0.0
 11
228.0858926516
 21
98.372299212
 31
0.0
  0
ARC
  5
83
330
1F
100
AcDbEntity
  8
0
  6
SLD-Durchgehend
 62
     7
370
    15
100
AcDbCircle
 10
231.9921309365
 20
94.7522335948
 30
0.0
 40
1.000000000000026
100
AcDbArc
 50
3.0
 51
58.0
  0
LINE
  5
84
330
1F
100
AcDbEntity
  8
0
  6
SLD-Durchgehend
 62
     7
370
    15
100
AcDbLine
 10
233.2645304542
 20
89.580719347
 30
0.0
 11
232.9907588702
 21
94.8045691353
 31
0.0
  0
ARC
  5
85
330
1F
100
AcDbEntity
  8
0
  6
SLD-Durchgehend
 62
     7
370
    15
100
AcDbCircle
 10
232.2659013239
 20
89.5283834118
 30
0.0
 40
1.00000000029538
100
AcDbArc
 50
238.0
 51
3.0
  0
LINE
  5
86
330
1F
100
AcDbEntity
  8
0
  6
SLD-Durchgehend
 62
     7
370
    15
100
AcDbLine
 10
227.2998265963
 20
91.4523536218
 30
0.0
 11
231.7359805148
 21
88.6803353084
 31
0.0
  0
ARC
  5
87
330
1F
100
AcDbEntity
  8
0
  6
SLD-Durchgehend
 62
     7
370
    15
100
AcDbCircle
 10
227.8297455243
 20
92.3004012113
 30
0.0
 40
1.0
100
AcDbArc
 50
183.0
 51
238.0
  0
CIRCLE
  5
88
330
1F
100
AcDbEntity
  8
0
  6
SLD-Durchgehend
 62
     7
370
    15
100
AcDbCircle
 10
229.9109382304
 20
93.526317403
 30
0.0
 40
3.049999999999983
  0
LWPOLYLINE
  5
89
330
1F
100
AcDbEntity
  8
0
  6
SLD-Durchgehend
 62
     7
370
    15
100
AcDbPolyline
 90
        5
 70
   128
 43
0.0
 10
233.3382315975
 20
87.7079302323
 10
233.3405152004
 20
87.7040503425
 10
233.3787962835
 20
87.6390626532
 10
233.5386037867
 20
87.3677627993
 10
233.6871869903
 20
87.1155178053
  0
LWPOLYLINE
  5
8A
330
1F
100
AcDbEntity
  8
0
  6
SLD-Durchgehend
 62
     7
370
    15
100
AcDbPolyline
 90
        5
 70
   128
 43
0.0
 10
226.1346899014
 20
99.9371167151
 10
226.2832731049
 20
99.684871721
 10
226.4430806082
 20
99.4135718671
 10
226.4813616913
 20
99.3485841778
 10
226.4836452942
 20
99.344704288
  0
ARC
  5
8B
330
1F
100
AcDbEntity
  8
0
  6
SLD-Durchgehend
 62
     7
370
    15
100
AcDbCircle
 10
229.8458432753
 20
93.6368267075
 30
0.0
 40
1.67500000000001
100
AcDbArc
 50
289.6332340985
 51
348.2331672257
  0
ARC
  5
8C
330
1F
100
AcDbEntity
  8
0
  6
SLD-Durchgehend
 62
     7
370
    15
100
AcDbCircle
 10
229.8458432753
 20
93.6368267075
 30
0.0
 40
1.67500000000001
100
AcDbArc
 50
348.2331672257
 51
48.3400089604
  0
ARC
  5
8D
330
1F
100
AcDbEntity
  8
0
  6
SLD-Durchgehend
 62
     7
370
    15
100
AcDbCircle
 10
229.8458432753
 20
93.6368267075
 30
0.0
 40
1.675000000000003
100
AcDbArc
 50
48.3400089604
 51
106.9399420877
  0
LINE
  5
8E
330
1F
100
AcDbEntity
  8
0
  6
SLD-Durchgehend
 62
     7
370
    15
100
AcDbLine
 10
229.2771771591
 20
95.2123394114
 30
0.0
 11
229.3577998917
 21
95.2391503257
 31
0.0
  0
ARC
  5
8F
330
1F
100
AcDbEntity
  8
0
  6
SLD-Durchgehend
 62
     7
370
    15
100
AcDbCircle
 10
229.8458432753
 20
93.6368267075
 30
0.0
 40
1.675
100
AcDbArc
 50
109.8465728595
 51
166.2902910258
  0
LINE
  5
90
330
1F
100
AcDbEntity
  8
0
  6
SLD-Durchgehend
 62
     7
370
    15
100
AcDbLine
 10
228.1943507533
 20
93.9164711041
 30
0.0
 11
228.2185651403
 21
94.0338065726
 31
0.0
  0
ARC
  5
91
330
1F
100
AcDbEntity
  8
0
  6
SLD-Durchgehend
 62
     7
370
    15
100
AcDbCircle
 10
229.8458432753
 20
93.6368267075
 30
0.0
 40
1.675000000000025
100
AcDbArc
 50
170.3893829261
 51
226.1837932601
  0
LINE
  5
92
330
1F
100
AcDbEntity
  8
0
  6
SLD-Durchgehend
 62
     7
370
    15
100
AcDbLine
 10
228.7755221169
 20
92.3484014225
 30
0.0
 11
228.6861598533
 21
92.428206454
 31
0.0
  0
ARC
  5
93
330
1F
100
AcDbEntity
  8
0
  6
SLD-Durchgehend
 62
     7
370
    15
100
AcDbCircle
 10
229.8458432753
 20
93.6368267075
 30
0.0
 40
1.675000000000026
100
AcDbArc
 50
230.2828851603
 51
286.7266033266
  0
LINE
  5
94
330
1F
100
AcDbEntity
  8
0
  6
SLD-Durchgehend
 62
     7
370
    15
100
AcDbLine
 10
230.408640955
 20
92.0592071367
 30
0.0
 11
230.3279176395
 21
92.0326979709
 31
0.0
  0
CIRCLE
  5
95
330
1F
100
AcDbEntity
  8
0
  6
SLD-Durchgehend
 62
     7
370
    15
100
AcDbCircle
 10
229.8458432753
 20
93.6368267075
 30
0.0
 40
1.800000000000019
  0
ARC
  5
96
330
1F
100
AcDbEntity
  8
0
  6
SLD-Durchgehend
 62
     7
370
    15
100
AcDbCircle
 10
228.5292633279
 20
93.9085285187
 30
0.0
 40
0.3350067421013634
100
AcDbArc
 50
178.6414623771
 51
245.0426457799
  0
ARC
  5
97
330
1F
100
AcDbEntity
  8
0
  6
SLD-Durchgehend
 62
     7
370
    15
100
AcDbCircle
 10
228.1405513247
 20
93.073298724
 30
0.0
 40
0.5862455748061911
100
AcDbArc
 50
331.5297858044
 51
65.0431297606
  0
ARC
  5
98
330
1F
100
AcDbEntity
  8
0
  6
SLD-Durchgehend
 62
     7
370
    15
100
AcDbCircle
 10
228.95040453
 20
92.6341423797
 30
0.0
 40
0.3350147081735254
100
AcDbArc
 50
151.5317550239
 51
217.9306420452
  0
ARC
  5
99
330
1F
100
AcDbEntity
  8
0
  6
SLD-Durchgehend
 62
     7
370
    15
100
AcDbCircle
 10
229.479361425
 20
91.8798964872
 30
0.0
 40
0.5862478490185501
100
AcDbArc
 50
31.5300615019
 51
125.0430661153
  0
ARC
  5
9A
330
1F
100
AcDbEntity
  8
0
  6
SLD-Durchgehend
 62
     7
370
    15
100
AcDbCircle
 10
230.264601614
 20
92.3616609629
 30
0.0
 40
0.3350008495189229
100
AcDbArc
 50
211.5303208696
 51
280.8945817551
  0
ARC
  5
9B
330
1F
100
AcDbEntity
  8
0
  6
SLD-Durchgehend
 62
     7
370
    15
100
AcDbCircle
 10
228.9503877618
 20
92.6341417518
 30
0.0
 40
0.3350007903393409
100
AcDbArc
 50
238.5344525944
 51
305.0430822191
  0
ARC
  5
9C
330
1F
100
AcDbEntity
  8
0
  6
SLD-Durchgehend
 62
     7
370
    15
100
AcDbCircle
 10
229.4223411328
 20
94.9104235078
 30
0.0
 40
0.3350011822316606
100
AcDbArc
 50
115.6786803406
 51
185.0425219474
  0
ARC
  5
9D
330
1F
100
AcDbEntity
  8
0
  6
SLD-Durchgehend
 62
     7
370
    15
100
AcDbCircle
 10
228.5046574144
 20
94.8294440086
 30
0.0
 40
0.586248559309048
100
AcDbArc
 50
271.5299476732
 51
5.0431316196
  0
ARC
  5
9E
330
1F
100
AcDbEntity
  8
0
  6
SLD-Durchgehend
 62
     7
370
    15
100
AcDbCircle
 10
228.5292645805
 20
93.9085126257
 30
0.0
 40
0.3350115151888912
100
AcDbArc
 50
91.5316633019
 51
158.0375461257
  0
ARC
  5
9F
330
1F
100
AcDbEntity
  8
0
  6
SLD-Durchgehend
 62
     7
370
    15
100
AcDbCircle
 10
231.1822837688
 20
92.4426426901
 30
0.0
 40
0.5862467607075159
100
AcDbArc
 50
91.5301241248
 51
185.0433282651
  0
ARC
  5
A0
330
1F
100
AcDbEntity
  8
0
  6
SLD-Durchgehend
 62
     7
370
    15
100
AcDbCircle
 10
231.1576819669
 20
93.3635638614
 30
0.0
 40
0.3350029624754773
100
AcDbArc
 50
271.5304840817
 51
348.2329055218
  0
ARC
  5
A1
330
1F
100
AcDbEntity
  8
0
  6
SLD-Durchgehend
 62
     7
370
    15
100
AcDbCircle
 10
230.2645950762
 20
92.3616653559
 30
0.0
 40
0.3350077455823799
100
AcDbArc
 50
295.4661485086
 51
5.0417342001
  0
ARC
  5
A2
330
1F
100
AcDbEntity
  8
0
  6
SLD-Durchgehend
 62
     7
370
    15
100
AcDbCircle
 10
230.7365526309
 20
94.6379008639
 30
0.0
 40
0.3350337873812598
100
AcDbArc
 50
48.3448467131
 51
125.0385484491
  0
ARC
  5
A3
330
1F
100
AcDbEntity
  8
0
  6
SLD-Durchgehend
 62
     7
370
    15
100
AcDbCircle
 10
230.2075823549
 20
95.3922021303
 30
0.0
 40
0.5862587580293263
100
AcDbArc
 50
211.5309856613
 51
305.0422434248
  0
ARC
  5
A4
330
1F
100
AcDbEntity
  8
0
  6
SLD-Durchgehend
 62
     7
370
    15
100
AcDbCircle
 10
229.4223397684
 20
94.9104304458
 30
0.0
 40
0.3349957538941875
100
AcDbArc
 50
31.5295400342
 51
101.1079889758
  0
ARC
  5
A5
330
1F
100
AcDbEntity
  8
0
  6
SLD-Durchgehend
 62
     7
370
    15
100
AcDbCircle
 10
231.1577185383
 20
93.3635786493
 30
0.0
 40
0.3349701761171594
100
AcDbArc
 50
348.2291535633
 51
65.0470388679
  0
ARC
  5
A6
330
1F
100
AcDbEntity
  8
0
  6
SLD-Durchgehend
 62
     7
370
    15
100
AcDbCircle
 10
231.5463958527
 20
94.1987898262
 30
0.0
 40
0.5862506257710342
100
AcDbArc
 50
151.5304645936
 51
245.042925538
  0
ARC
  5
A7
330
1F
100
AcDbEntity
  8
0
  6
SLD-Durchgehend
 62
     7
370
    15
100
AcDbCircle
 10
230.7365472204
 20
94.6379444519
 30
0.0
 40
0.3350048179234607
100
AcDbArc
 50
331.5304527695
 51
48.3392004878
  0
CIRCLE
  5
A8
330
1F
100
AcDbEntity
  8
0
  6
SLD-Durchgehend
 62
     7
370
    15
100
AcDbCircle
 10
229.8458432753
 20
93.6368267075
 30
0.0
 40
2.625000000000009
  0
LINE
  5
A9
330
1F
100
AcDbEntity
  8
0
  6
SLD-Durchgehend
 62
     7
370
    15
100
AcDbLine
 10
199.456049506
 20
92.7569484216
 30
0.0
 11
198.1412101578
 21
92.7569484216
 31
0.0
  0
LINE
  5
AA
330
1F
100
AcDbEntity
  8
0
  6
SLD-Durchgehend
 62
     7
370
    15
100
AcDbLine
 10
198.1412101578
 20
92.7569484216
 30
0.0
 11
198.1412101578
 21
123.835833731
 31
0.0
  0
LINE
  5
AB
330
1F
100
AcDbEntity
  8
0
  6
SLD-Durchgehend
 62
     7
370
    15
100
AcDbLine
 10
198.1412101578
 20
123.835833731
 30
0.0
 11
199.456049506
 21
123.835833731
 31
0.0
  0
LWPOLYLINE
  5
AC
330
1F
100
AcDbEntity
  8
0
  6
SLD-Durchgehend
 62
     7
370
    15
100
AcDbPolyline
 90
        3
 70
   128
 43
0.0
 10
198.1412101578
 20
92.7569484216
 10
197.2018986981
 20
94.4553026808
 10
197.146049146
 20
94.5567106706
  0
LINE
  5
AD
330
1F
100
AcDbEntity
  8
0
  6
SLD-Durchgehend
 62
     7
370
    15
100
AcDbLine
 10
197.146049146
 20
94.5567106706
 30
0.0
 11
197.146049146
 21
123.835833731
 31
0.0
  0
LINE
  5
AE
330
1F
100
AcDbEntity
  8
0
  6
SLD-Durchgehend
 62
     7
370
    15
100
AcDbLine
 10
197.146049146
 20
123.835833731
 30
0.0
 11
198.1412101578
 21
123.835833731
 31
0.0
  0
LINE
  5
AF
330
1F
100
AcDbEntity
  8
0
  6
SLD-Durchgehend
 62
     7
370
    15
100
AcDbLine
 10
200.0560503494
 20
93.3818006766
 30
0.0
 11
200.0560503494
 21
123.835833731
 31
0.0
  0
ARC
  5
B0
330
1F
100
AcDbEntity
  8
0
  6
SLD-Durchgehend
 62
     7
370
    15
100
AcDbCircle
 10
199.4447896442
 20
93.3682554944
 30
0.0
 40
0.6114107634496255
100
AcDbArc
 50
271.0552300829
 51
1.2694334473
  0
LINE
  5
B1
330
1F
100
AcDbEntity
  8
0
  6
SLD-Durchgehend
 62
     7
370
    15
100
AcDbLine
 10
199.456049506
 20
123.835833731
 30
0.0
 11
200.0560503494
 21
123.835833731
 31
0.0
  0
LINE
  5
B2
330
1F
100
AcDbEntity
  8
0
  6
SLD-Durchgehend
 62
     7
370
    15
100
AcDbLine
 10
195.0660500716
 20
94.5567106706
 30
0.0
 11
195.0660500716
 21
123.835833731
 31
0.0
  0
LWPOLYLINE
  5
B3
330
1F
100
AcDbEntity
  8
0
  6
SLD-Durchgehend
 62
     7
370
    15
100
AcDbPolyline
 90
        3
 70
   128
 43
0.0
 10
195.0660500716
 20
94.5567106706
 10
195.0102014508
 20
94.4553026808
 10
194.0708899911
 20
92.7569484216
  0
LINE
  5
B4
330
1F
100
AcDbEntity
  8
0
  6
SLD-Durchgehend
 62
     7
370
    15
100
AcDbLine
 10
194.0708899911
 20
92.7569484216
 30
0.0
 11
194.0708899911
 21
123.835833731
 31
0.0
  0
LINE
  5
B5
330
1F
100
AcDbEntity
  8
0
  6
SLD-Durchgehend
 62
     7
370
    15
100
AcDbLine
 10
194.0708899911
 20
123.835833731
 30
0.0
 11
195.0660500716
 21
123.835833731
 31
0.0
  0
LINE
  5
B6
330
1F
100
AcDbEntity
  8
0
  6
SLD-Durchgehend
 62
     7
370
    15
100
AcDbLine
 10
188.0560502451
 20
123.835833731
 30
0.0
 11
194.0708899911
 21
123.835833731
 31
0.0
  0
LINE
  5
B7
330
1F
100
AcDbEntity
  8
0
  6
SLD-Durchgehend
 62
     7
370
    15
100
AcDbLine
 10
194.0708899911
 20
92.7569484216
 30
0.0
 11
192.5560500514
 21
92.7569484216
 31
0.0
  0
ARC
  5
B8
330
1F
100
AcDbEntity
  8
0
  6
SLD-Durchgehend
 62
     7
370
    15
100
AcDbCircle
 10
191.8279565517
 20
83.2047201934
 30
0.0
 40
9.579936548209258
100
AcDbArc
 50
85.6412080137
 51
113.1867771958
  0
LINE
  5
B9
330
1F
100
AcDbEntity
  8
0
  6
SLD-Durchgehend
 62
     7
370
    15
100
AcDbLine
 10
188.0560502451
 20
92.0108491433
 30
0.0
 11
188.0560502451
 21
91.985833819
 31
0.0
  0
LWPOLYLINE
  5
BA
330
1F
100
AcDbEntity
  8
0
  6
SLD-Durchgehend
 62
     7
370
    15
100
AcDbPolyline
 90
       11
 70
   128
 43
0.0
 10
192.5560500514
 20
131.4730094624
 10
191.8220439967
 20
131.4868265641
 10
191.088037942
 20
131.5282238526
 10
190.4161203694
 20
131.5901512158
 10
189.7858925205
 20
131.6689168913
 10
189.2397575121
 20
131.7531755072
 10
188.77249435
 20
131.8369107199
 10
188.4193461429
 20
131.9072367502
 10
188.1763165858
 20
131.9591170055
 10
188.0659725558
 20
131.9836033386
 10
188.071577255
 20
131.9823460532
  0
LINE
  5
BB
330
1F
100
AcDbEntity
  8
0
  6
SLD-Durchgehend
 62
     7
370
    15
100
AcDbLine
 10
194.0708899911
 20
131.4730094624
 30
0.0
 11
192.5560500514
 21
131.4730094624
 31
0.0
  0
LINE
  5
BC
330
1F
100
AcDbEntity
  8
0
  6
SLD-Durchgehend
 62
     7
370
    15
100
AcDbLine
 10
194.0708899911
 20
128.0972426635
 30
0.0
 11
194.0708899911
 21
131.4730094624
 31
0.0
  0
LINE
  5
BD
330
1F
100
AcDbEntity
  8
0
  6
SLD-Durchgehend
 62
     7
370
    15
100
AcDbLine
 10
192.5497198518
 20
128.0972426635
 30
0.0
 11
194.0708899911
 21
128.0972426635
 31
0.0
  0
ARC
  5
BE
330
1F
100
AcDbEntity
  8
0
  6
SLD-Durchgehend
 62
     7
370
    15
100
AcDbCircle
 10
192.225807341
 20
123.9388103733
 30
0.0
 40
4.171028461616044
100
AcDbArc
 50
85.5460566573
 51
181.4146934227
  0
LINE
  5
BF
330
1F
100
AcDbEntity
  8
0
  6
SLD-Durchgehend
 62
     7
370
    15
100
AcDbLine
 10
180.1060497802
 20
92.2858333093
 30
0.0
 11
180.1060497802
 21
131.6858334345
 31
0.0
  0
LINE
  5
C0
330
1F
100
AcDbEntity
  8
0
  6
SLD-Durchgehend
 62
     7
370
    15
100
AcDbLine
 10
197.1108265262
 20
95.0858341408
 30
0.0
 11
196.5460501652
 21
95.0858341408
 31
0.0
  0
LINE
  5
C1
330
1F
100
AcDbEntity
  8
0
  6
SLD-Durchgehend
 62
     7
370
    15
100
AcDbLine
 10
196.5460501652
 20
123.835833731
 30
0.0
 11
197.146049146
 21
123.835833731
 31
0.0
  0
LINE
  5
C2
330
1F
100
AcDbEntity
  8
0
  6
SLD-Durchgehend
 62
     7
370
    15
100
AcDbLine
 10
195.6660499837
 20
95.0858341408
 30
0.0
 11
195.1012717601
 21
95.0858341408
 31
0.0
  0
LINE
  5
C3
330
1F
100
AcDbEntity
  8
0
  6
SLD-Durchgehend
 62
     7
370
    15
100
AcDbLine
 10
195.0660500716
 20
123.835833731
 30
0.0
 11
195.6660499837
 21
123.835833731
 31
0.0
  0
LINE
  5
C4
330
1F
100
AcDbEntity
  8
0
  6
SLD-Durchgehend
 62
     7
370
    15
100
AcDbLine
 10
200.0561118167
 20
128.885832603
 30
0.0
 11
200.2560500096
 21
128.885832603
 31
0.0
  0
LINE
  5
C5
330
1F
100
AcDbEntity
  8
0
  6
SLD-Durchgehend
 62
     7
370
    15
100
AcDbLine
 10
200.0560503494
 20
95.0858341408
 30
0.0
 11
200.2560500096
 21
95.0858341408
 31
0.0
  0
LINE
  5
C6
330
1F
100
AcDbEntity
  8
0
  6
SLD-Durchgehend
 62
     7
370
    15
100
AcDbLine
 10
200.0560503494
 20
123.835833731
 30
0.0
 11
200.3851741593
 21
123.835833731
 31
0.0
  0
ARC
  5
C7
330
1F
100
AcDbEntity
  8
0
  6
SLD-Durchgehend
 62
     7
370
    15
100
AcDbCircle
 10
201.7636946204
 20
124.8438545361
 30
0.0
 40
1.707754257787363
100
AcDbArc
 50
179.3497241651
 51
216.175534614
  0
LINE
  5
C8
330
1F
100
AcDbEntity
  8
0
  6
SLD-Durchgehend
 62
     7
370
    15
100
AcDbLine
 10
196.5460501652
 20
95.0858341408
 30
0.0
 11
195.6660499837
 21
95.0858341408
 31
0.0
  0
LINE
  5
C9
330
1F
100
AcDbEntity
  8
0
  6
SLD-Durchgehend
 62
     7
370
    15
100
AcDbLine
 10
195.6660499837
 20
123.835833731
 30
0.0
 11
196.5460501652
 21
123.835833731
 31
0.0
  0
LINE
  5
CA
330
1F
100
AcDbEntity
  8
0
  6
SLD-Durchgehend
 62
     7
370
    15
100
AcDbLine
 10
213.4080290835
 20
128.48310637
 30
0.0
 11
214.3387220841
 21
128.48310637
 31
0.0
  0
ARC
  5
CB
330
1F
100
AcDbEntity
  8
0
  6
SLD-Durchgehend
 62
     7
370
    15
100
AcDbCircle
 10
212.5562378284
 20
112.6669290429
 30
0.0
 40
15.83909762532527
100
AcDbArc
 50
86.9172739692
 51
97.4218117962
  0
ELLIPSE
  5
CC
330
1F
100
AcDbEntity
  8
0
  6
SLD-Durchgehend
 62
     7
370
    15
100
AcDbEllipse
 10
211.0256650224
 20
111.9858333719
 30
0.0
 11
0.0
 21
16.5
 31
0.0
210
0.0
220
0.0
230
1.0
 40
0.2679491924
 41
0.1168440434831727
 42
3.024748610106621
  0
ARC
  5
CD
330
1F
100
AcDbEntity
  8
0
  6
SLD-Durchgehend
 62
     7
370
    15
100
AcDbCircle
 10
212.5248752827
 20
110.4768754777
 30
0.0
 40
15.01431151563236
100
AcDbArc
 50
262.2887842597
 51
273.3721299749
  0
LINE
  5
CE
330
1F
100
AcDbEntity
  8
0
  6
SLD-Durchgehend
 62
     7
370
    15
100
AcDbLine
 10
214.3387220841
 20
95.4885603738
 30
0.0
 11
213.4080290835
 21
95.4885603738
 31
0.0
  0
ELLIPSE
  5
CF
330
1F
100
AcDbEntity
  8
0
  6
SLD-Durchgehend
 62
     7
370
    15
100
AcDbEllipse
 10
208.8710957149
 20
103.0461300004
 30
0.0
 11
-0.2199441409949259
 21
2.658240935926187
 31
0.0
210
0.0
220
0.0
230
1.0
 40
0.2265727024
 41
0.0
 42
6.283185307179586
  0
LINE
  5
D0
330
1F
100
AcDbEntity
  8
0
  6
SLD-Durchgehend
 62
     7
370
    15
100
AcDbLine
 10
178.1060496852
 20
96.8821328012
 30
0.0
 11
178.1060496852
 21
127.0895339427
 31
0.0
  0
LINE
  5
D1
330
1F
100
AcDbEntity
  8
0
  6
SLD-Durchgehend
 62
     7
370
    15
100
AcDbLine
 10
166.3060499396
 20
97.4733149511
 30
0.0
 11
166.3060499396
 21
98.3822569129
 31
0.0
  0
ARC
  5
D2
330
1F
100
AcDbEntity
  8
0
  6
SLD-Durchgehend
 62
     7
370
    15
100
AcDbCircle
 10
163.1675093344
 20
97.4152505212
 30
0.0
 40
3.284134359664614
100
AcDbArc
 50
17.1244326527
 51
29.8895177058
  0
LWPOLYLINE
  5
D3
330
1F
100
AcDbEntity
  8
0
  6
SLD-Durchgehend
 62
     7
370
    15
100
AcDbPolyline
 90
        7
 70
   128
 43
0.0
 10
165.4060496058
 20
99.7019596276
 10
165.4693646397
 20
99.7015070048
 10
165.5307387974
 20
99.6900666383
 10
165.6081419479
 20
99.6595993516
 10
165.7135052647
 20
99.5864923922
 10
165.9015784081
 20
99.33541062
 10
166.0148141947
 20
99.0518303466
  0
ARC
  5
D4
330
1F
100
AcDbEntity
  8
0
  6
SLD-Durchgehend
 62
     7
370
    15
100
AcDbCircle
 10
171.1611898883
 20
24.8334613326
 30
0.0
 40
75.08937126268323
100
AcDbArc
 50
94.395681249
 51
97.5337113535
  0
LINE
  5
D5
330
1F
100
AcDbEntity
  8
0
  6
SLD-Durchgehend
 62
     7
370
    15
100
AcDbLine
 10
161.1560493749
 20
99.2552982521
 30
0.0
 11
161.3162592094
 21
99.2746529979
 31
0.0
  0
LINE
  5
D6
330
1F
100
AcDbEntity
  8
0
  6
SLD-Durchgehend
 62
     7
370
    15
100
AcDbLine
 10
161.1475333612
 20
99.2826558528
 30
0.0
 11
161.1560493749
 21
99.2552982521
 31
0.0
  0
ELLIPSE
  5
D7
330
1F
100
AcDbEntity
  8
0
  6
SLD-Durchgehend
 62
     7
370
    15
100
AcDbEllipse
 10
147.6793075723
 20
111.3465356941
 30
0.0
 11
13.37355272666628
 21
-13.37146352987014
 31
0.0
210
0.0
220
0.0
230
1.0
 40
0.1761188775
 41
0.3023035477142503
 42
0.3822730435340326
  0
ELLIPSE
  5
D8
330
1F
100
AcDbEntity
  8
0
  6
SLD-Durchgehend
 62
     7
370
    15
100
AcDbEllipse
 10
147.5999291416
 20
112.6249438232
 30
0.0
 11
13.36963611134306
 21
13.36754752639486
 31
0.0
210
0.0
220
0.0
230
1.0
 40
0.1761188775
 41
5.933076931846593
 42
5.97672005269119
  0
LINE
  5
D9
330
1F
100
AcDbEntity
  8
0
  6
SLD-Durchgehend
 62
     7
370
    15
100
AcDbLine
 10
161.1560493749
 20
124.8514139903
 30
0.0
 11
161.0568821471
 21
124.6592691046
 31
0.0
  0
LWPOLYLINE
  5
DA
330
1F
100
AcDbEntity
  8
0
  6
SLD-Durchgehend
 62
     7
370
    15
100
AcDbPolyline
 90
        3
 70
   128
 43
0.0
 10
162.906049196
 20
124.7666273144
 10
162.0424151462
 20
124.8252559331
 10
161.1560493749
 20
124.8514139903
  0
ARC
  5
DB
330
1F
100
AcDbEntity
  8
0
  6
SLD-Durchgehend
 62
     7
370
    15
100
AcDbCircle
 10
162.7510845513
 20
125.8559674062
 30
0.0
 40
1.100307173752264
100
AcDbArc
 50
278.0963186522
 51
343.4942707128
  0
LINE
  5
DC
330
1F
100
AcDbEntity
  8
0
  6
SLD-Durchgehend
 62
     7
370
    15
100
AcDbLine
 10
163.8060495298
 20
125.5433577922
 30
0.0
 11
163.8060495298
 21
126.3731010136
 31
0.0
  0
LWPOLYLINE
  5
DD
330
1F
100
AcDbEntity
  8
0
  6
SLD-Durchgehend
 62
     7
370
    15
100
AcDbPolyline
 90
       18
 70
   128
 43
0.0
 10
171.2905926671
 20
97.2238667188
 10
171.2891938206
 20
97.2236664844
 10
171.3444938924
 20
97.2321629402
 10
171.5055223595
 20
97.2550241155
 10
171.7692924704
 20
97.2882853699
 10
172.1198180731
 20
97.3255177838
 10
172.54269347
 20
97.3583282781
 10
173.0244196061
 20
97.3794543994
 10
173.5542094376
 20
97.3827680451
 10
174.102736548
 20
97.3652796698
 10
174.6442666318
 20
97.3261436326
 10
175.1615758095
 20
97.2685441253
 10
175.6445960183
 20
97.1972877038
 10
176.0673075024
 20
97.1221160022
 10
176.4105208259
 20
97.051870997
 10
176.6645330045
 20
96.9944475097
 10
176.82076842
 20
96.9566488517
 10
176.8723278347
 20
96.9442352531
  0
LWPOLYLINE
  5
DE
330
1F
100
AcDbEntity
  8
0
  6
SLD-Durchgehend
 62
     7
370
    15
100
AcDbPolyline
 90
       18
 70
   128
 43
0.0
 10
176.8713289913
 20
127.0274324221
 10
176.8206580583
 20
127.014717075
 10
176.6657437239
 20
126.9772788388
 10
176.4077620156
 20
126.9191764173
 10
176.0654471856
 20
126.8489854289
 10
175.6436535198
 20
126.7739469064
 10
175.1624847803
 20
126.7030630139
 10
174.6451113414
 20
126.6455724714
 10
174.1036715958
 20
126.6064904508
 10
173.5544231761
 20
126.5889713419
 10
173.0241467286
 20
126.592254254
 10
172.541343518
 20
126.6133962077
 10
172.1187181812
 20
126.6462085647
 10
171.7678796541
 20
126.683549012
 10
171.5050306212
 20
126.7167413485
 10
171.343952794
 20
126.7395615456
 10
171.2892143097
 20
126.7480058474
 10
171.2901270058
 20
126.7478624237
  0
LWPOLYLINE
  5
DF
330
1F
100
AcDbEntity
  8
0
  6
SLD-Durchgehend
 62
     7
370
    15
100
AcDbPolyline
 90
       13
 70
   128
 43
0.0
 10
160.9660204541
 20
124.3739137304
 10
160.8012974303
 20
123.9763460932
 10
160.7188120525
 20
123.8173637417
 10
160.6108475517
 20
123.640110704
 10
160.5576112907
 20
123.5651969788
 10
160.493124653
 20
123.48643596
 10
160.4543257546
 20
123.4462745366
 10
160.4149587493
 20
123.4122011689
 10
160.3834427934
 20
123.3908301098
 10
160.3438764851
 20
123.3737049503
 10
160.2938979905
 20
123.3753999573
 10
160.2225698572
 20
123.5065637035
 10
160.2060500573
 20
123.7640650821
  0
LWPOLYLINE
  5
E0
330
1F
100
AcDbEntity
  8
0
  6
SLD-Durchgehend
 62
     7
370
    15
100
AcDbPolyline
 90
       11
 70
   128
 43
0.0
 10
160.2060500573
 20
100.4383200658
 10
160.2310337167
 20
100.6903005642
 10
160.289580379
 20
100.7697060582
 10
160.3413805406
 20
100.7703188685
 10
160.3751316708
 20
100.7560407621
 10
160.4189466726
 20
100.7264107344
 10
160.4624338489
 20
100.6877058995
 10
160.5101622682
 20
100.6368156401
 10
160.5786945712
 20
100.5510389683
 10
160.7179030817
 20
100.3374624876
 10
160.9660204541
 20
99.8188480613
  0
LINE
  5
E1
330
1F
100
AcDbEntity
  8
0
  6
SLD-Durchgehend
 62
     7
370
    15
100
AcDbLine
 10
160.2060500573
 20
100.4383200658
 30
0.0
 11
160.2060500573
 21
123.7640650821
 31
0.0
  0
LINE
  5
E2
330
1F
100
AcDbEntity
  8
0
  6
SLD-Durchgehend
 62
     7
370
    15
100
AcDbLine
 10
194.0708899911
 20
128.0972426635
 30
0.0
 11
195.0660500716
 21
125.8999211592
 31
0.0
  0
LINE
  5
E3
330
1F
100
AcDbEntity
  8
0
  6
SLD-Durchgehend
 62
     7
370
    15
100
AcDbLine
 10
195.0660500716
 20
125.8999211592
 30
0.0
 11
195.0660500716
 21
125.5016801757
 31
0.0
  0
LWPOLYLINE
  5
E4
330
1F
100
AcDbEntity
  8
0
  6
SLD-Durchgehend
 62
     7
370
    15
100
AcDbPolyline
 90
        6
 70
   128
 43
0.0
 10
195.0660500716
 20
125.5016801757
 10
195.111064617
 20
125.1969253523
 10
195.2355116647
 20
124.9407324818
 10
195.3826224472
 20
124.789977434
 10
195.5328280147
 20
124.7133156163
 10
195.6660499837
 20
124.6928442148
  0
LINE
  5
E5
330
1F
100
AcDbEntity
  8
0
  6
SLD-Durchgehend
 62
     7
370
    15
100
AcDbLine
 10
195.6660499837
 20
124.6928442148
 30
0.0
 11
196.5460501652
 21
124.6928442148
 31
0.0
  0
ARC
  5
E6
330
1F
100
AcDbEntity
  8
0
  6
SLD-Durchgehend
 62
     7
370
    15
100
AcDbCircle
 10
196.420508172
 20
125.4129312168
 30
0.0
 40
0.7309487551174922
100
AcDbArc
 50
279.8897062559
 51
6.9738377009
  0
LINE
  5
E7
330
1F
100
AcDbEntity
  8
0
  6
SLD-Durchgehend
 62
     7
370
    15
100
AcDbLine
 10
197.146049146
 20
125.5016801757
 30
0.0
 11
197.146049146
 21
125.8999211592
 31
0.0
  0
LINE
  5
E8
330
1F
100
AcDbEntity
  8
0
  6
SLD-Durchgehend
 62
     7
370
    15
100
AcDbLine
 10
197.146049146
 20
125.8999211592
 30
0.0
 11
198.1412101578
 21
128.0972426635
 31
0.0
  0
LINE
  5
E9
330
1F
100
AcDbEntity
  8
0
  6
SLD-Durchgehend
 62
     7
370
    15
100
AcDbLine
 10
198.1412101578
 20
128.0972426635
 30
0.0
 11
199.456049506
 21
128.0972426635
 31
0.0
  0
ARC
  5
EA
330
1F
100
AcDbEntity
  8
0
  6
SLD-Durchgehend
 62
     7
370
    15
100
AcDbCircle
 10
199.3604708006
 20
127.4056882834
 30
0.0
 40
0.6981280323795542
100
AcDbArc
 50
355.1028521375
 51
82.1310855252
  0
LINE
  5
EB
330
1F
100
AcDbEntity
  8
0
  6
SLD-Durchgehend
 62
     7
370
    15
100
AcDbLine
 10
200.0560503494
 20
127.3460909602
 30
0.0
 11
200.0560503494
 21
124.8632361991
 31
0.0
  0
LINE
  5
EC
330
1F
100
AcDbEntity
  8
0
  6
SLD-Durchgehend
 62
     7
370
    15
100
AcDbLine
 10
196.8977045309
 20
128.885832603
 30
0.0
 11
196.5460501652
 21
128.885832603
 31
0.0
  0
ARC
  5
ED
330
1F
100
AcDbEntity
  8
0
  6
SLD-Durchgehend
 62
     7
370
    15
100
AcDbCircle
 10
196.5188594721
 20
129.3856834744
 30
0.0
 40
0.6271957208092315
100
AcDbArc
 50
307.1590768283
 51
0.2515960212
  0
ARC
  5
EE
330
1F
100
AcDbEntity
  8
0
  6
SLD-Durchgehend
 62
     7
370
    15
100
AcDbCircle
 10
195.6927537821
 20
129.3854426516
 30
0.0
 40
0.6267108666970245
100
AcDbArc
 50
179.726192355
 51
232.8629641269
  0
LINE
  5
EF
330
1F
100
AcDbEntity
  8
0
  6
SLD-Durchgehend
 62
     7
370
    15
100
AcDbLine
 10
195.6660499837
 20
128.885832603
 30
0.0
 11
195.3143937554
 21
128.885832603
 31
0.0
  0
LINE
  5
F0
330
1F
100
AcDbEntity
  8
0
  6
SLD-Durchgehend
 62
     7
370
    15
100
AcDbLine
 10
196.5460501652
 20
128.885832603
 30
0.0
 11
195.6660499837
 21
128.885832603
 31
0.0
  0
LWPOLYLINE
  5
F1
330
1F
100
AcDbEntity
  8
0
  6
SLD-Durchgehend
 62
     7
370
    15
100
AcDbPolyline
 90
        3
 70
   128
 43
0.0
 10
198.1412101578
 20
131.4730094624
 10
198.0751253705
 20
131.3555175317
 10
197.146049146
 20
129.69951051
  0
LINE
  5
F2
330
1F
100
AcDbEntity
  8
0
  6
SLD-Durchgehend
 62
     7
370
    15
100
AcDbLine
 10
198.1412101578
 20
128.0972426635
 30
0.0
 11
198.1412101578
 21
131.4730094624
 31
0.0
  0
LINE
  5
F3
330
1F
100
AcDbEntity
  8
0
  6
SLD-Durchgehend
 62
     7
370
    15
100
AcDbLine
 10
197.146049146
 20
125.8999211592
 30
0.0
 11
197.146049146
 21
129.69951051
 31
0.0
  0
LWPOLYLINE
  5
F4
330
1F
100
AcDbEntity
  8
0
  6
SLD-Durchgehend
 62
     7
370
    15
100
AcDbPolyline
 90
        3
 70
   128
 43
0.0
 10
195.0660500716
 20
129.69951051
 10
194.1369738471
 20
131.3555175317
 10
194.0708899911
 20
131.4730094624
  0
LINE
  5
F5
330
1F
100
AcDbEntity
  8
0
  6
SLD-Durchgehend
 62
     7
370
    15
100
AcDbLine
 10
195.0660500716
 20
125.8999211592
 30
0.0
 11
195.0660500716
 21
129.69951051
 31
0.0
  0
ARC
  5
F6
330
1F
100
AcDbEntity
  8
0
  6
SLD-Durchgehend
 62
     7
370
    15
100
AcDbCircle
 10
199.4479452099
 20
130.8649031388
 30
0.0
 40
0.6081603245705157
100
AcDbArc
 50
359.2281322855
 51
89.2364584066
  0
LINE
  5
F7
330
1F
100
AcDbEntity
  8
0
  6
SLD-Durchgehend
 62
     7
370
    15
100
AcDbLine
 10
200.0560503494
 20
127.3460909602
 30
0.0
 11
200.0560503494
 21
130.8567104739
 31
0.0
  0
LINE
  5
F8
330
1F
100
AcDbEntity
  8
0
  6
SLD-Durchgehend
 62
     7
370
    15
100
AcDbLine
 10
199.456049506
 20
131.4730094624
 30
0.0
 11
198.1412101578
 21
131.4730094624
 31
0.0
  0
LINE
  5
F9
330
1F
100
AcDbEntity
  8
0
  6
SLD-Durchgehend
 62
     7
370
    15
100
AcDbLine
 10
160.2060500573
 20
100.1673610759
 30
0.0
 11
160.2060500573
 21
100.4383200658
 31
0.0
  0
LINE
  5
FA
330
1F
100
AcDbEntity
  8
0
  6
SLD-Durchgehend
 62
     7
370
    15
100
AcDbLine
 10
160.2060500573
 20
123.8597473008
 30
0.0
 11
160.2060500573
 21
123.7640650821
 31
0.0
  0
LINE
  5
FB
330
1F
100
AcDbEntity
  8
0
  6
SLD-Durchgehend
 62
     7
370
    15
100
AcDbLine
 10
161.1560493749
 20
124.8658336577
 30
0.0
 11
161.1560493749
 21
124.8514139903
 31
0.0
  0
LINE
  5
FC
330
1F
100
AcDbEntity
  8
0
  6
SLD-Durchgehend
 62
     7
370
    15
100
AcDbLine
 10
160.2060500573
 20
123.9158334089
 30
0.0
 11
160.2060500573
 21
123.8597473008
 31
0.0
  0
LINE
  5
FD
330
1F
100
AcDbEntity
  8
0
  6
SLD-Durchgehend
 62
     7
370
    15
100
AcDbLine
 10
161.1560493749
 20
99.1648333025
 30
0.0
 11
161.1560493749
 21
99.2552982521
 31
0.0
  0
LINE
  5
FE
330
1F
100
AcDbEntity
  8
0
  6
SLD-Durchgehend
 62
     7
370
    15
100
AcDbLine
 10
160.2060500573
 20
100.1148335514
 30
0.0
 11
160.2060500573
 21
100.1673610759
 31
0.0
  0
LINE
  5
FF
330
1F
100
AcDbEntity
  8
0
  6
SLD-Durchgehend
 62
     7
370
    15
100
AcDbLine
 10
215.2047477703
 20
128.9831856144
 30
0.0
 11
218.2577349286
 21
128.9831856144
 31
0.0
  0
LINE
  5
100
330
1F
100
AcDbEntity
  8
0
  6
SLD-Durchgehend
 62
     7
370
    15
100
AcDbLine
 10
233.7436586659
 20
106.8669948605
 30
0.0
 11
218.2577349286
 21
128.9831856144
 31
0.0
  0
LINE
  5
101
330
1F
100
AcDbEntity
  8
0
  6
SLD-Durchgehend
 62
     7
370
    15
100
AcDbLine
 10
234.2919692438
 20
96.4045822499
 30
0.0
 11
233.7436586659
 21
106.8669948605
 31
0.0
  0
LINE
  5
102
330
1F
100
AcDbEntity
  8
0
  6
SLD-Durchgehend
 62
     7
370
    15
100
AcDbLine
 10
224.5166398626
 20
102.4694517133
 30
0.0
 11
225.1654252451
 21
102.0640432713
 31
0.0
  0
ARC
  5
103
330
1F
100
AcDbEntity
  8
0
  6
SLD-Durchgehend
 62
     7
370
    15
100
AcDbCircle
 10
223.713046473
 20
101.1834354413
 30
0.0
 40
1.516442497159279
100
AcDbArc
 50
58.0
 51
238.0
  0
LINE
  5
104
330
1F
100
AcDbEntity
  8
0
  6
SLD-Durchgehend
 62
     7
370
    15
100
AcDbLine
 10
224.8722858768
 20
98.6709063751
 30
0.0
 11
222.9094527703
 21
99.8974190903
 31
0.0
  0
LINE
  5
105
330
1F
100
AcDbEntity
  8
0
  6
SLD-Durchgehend
 62
     7
370
    15
100
AcDbLine
 10
222.0250390511
 20
93.2306395722
 30
0.0
 11
225.2634488087
 21
91.2070544315
 31
0.0
  0
ELLIPSE
  5
106
330
1F
100
AcDbEntity
  8
0
  6
SLD-Durchgehend
 62
     7
370
    15
100
AcDbEllipse
 10
216.2272723934
 20
83.8123936273
 30
0.0
 11
6.536993168992922E-13
 21
-11.08260808004734
 31
0.0
210
0.0
220
0.0
230
1.0
 40
0.9925461516
 41
2.586444043810434
 42
3.141592653589736
  0
LINE
  5
107
330
1F
100
AcDbEntity
  8
0
  6
SLD-Durchgehend
 62
     7
370
    15
100
AcDbLine
 10
215.2523569804
 20
94.89500242
 30
0.0
 11
216.2272729021
 21
94.89500242
 31
0.0
  0
ARC
  5
108
330
1F
100
AcDbEntity
  8
0
  6
SLD-Durchgehend
 62
     7
370
    15
100
AcDbCircle
 10
214.3386957047
 20
129.4830733168
 30
0.0
 40
0.9999669471620873
100
AcDbArc
 50
270.0015114758
 51
330.0063361749
  0
ARC
  5
109
330
1F
100
AcDbEntity
  8
0
  6
SLD-Durchgehend
 62
     7
370
    15
100
AcDbCircle
 10
214.3386969226
 20
94.4885857822
 30
0.0
 40
0.9999745919525501
100
AcDbArc
 50
23.9805790207
 51
89.9985583191
  0
LINE
  5
10A
330
1F
100
AcDbEntity
  8
0
  6
SLD-Durchgehend
 62
     7
370
    15
100
AcDbLine
 10
224.8326003592
 20
101.9578324509
 30
0.0
 11
224.3754439097
 21
102.2434951616
 31
0.0
  0
LINE
  5
10B
330
1F
100
AcDbEntity
  8
0
  6
SLD-Durchgehend
 62
     7
370
    15
100
AcDbLine
 10
224.8552613001
 20
98.9957265434
 30
0.0
 11
223.0506487232
 21
100.123375642
 31
0.0
  0
ARC
  5
10C
330
1F
100
AcDbEntity
  8
0
  6
SLD-Durchgehend
 62
     7
370
    15
100
AcDbCircle
 10
223.713046473
 20
101.1834354413
 30
0.0
 40
1.250000000000018
100
AcDbArc
 50
58.0
 51
238.0
  0
LINE
  5
10D
330
1F
100
AcDbEntity
  8
0
  6
SLD-Gestrichelt
 62
     7
370
     0
100
AcDbLine
 10
188.0560502451
 20
91.985833819
 30
0.0
 11
188.0560502451
 21
92.0108491433
 31
0.0
  0
ARC
  5
10E
330
1F
100
AcDbEntity
  8
0
  6
SLD-Gestrichelt
 62
     7
370
     0
100
AcDbCircle
 10
191.9182680489
 20
82.6600182598
 30
0.0
 40
10.11705315667401
100
AcDbArc
 50
86.385660585
 51
112.4423246244
  0
LINE
  5
10F
330
1F
100
AcDbEntity
  8
0
  6
SLD-Gestrichelt
 62
     7
370
     0
100
AcDbLine
 10
192.5560500514
 20
92.7569484216
 30
0.0
 11
194.0708899911
 21
92.7569484216
 31
0.0
  0
LINE
  5
110
330
1F
100
AcDbEntity
  8
0
  6
SLD-Gestrichelt
 62
     7
370
     0
100
AcDbLine
 10
194.0708899911
 20
131.4730094624
 30
0.0
 11
194.0708899911
 21
92.7569484216
 31
0.0
  0
LINE
  5
111
330
1F
100
AcDbEntity
  8
0
  6
SLD-Gestrichelt
 62
     7
370
     0
100
AcDbLine
 10
192.5560500514
 20
131.4730094624
 30
0.0
 11
194.0708899911
 21
131.4730094624
 31
0.0
  0
ARC
  5
112
330
1F
100
AcDbEntity
  8
0
  6
SLD-Gestrichelt
 62
     7
370
     0
100
AcDbCircle
 10
192.6252988017
 20
152.0792339889
 30
0.0
 40
20.60634088398746
100
AcDbArc
 50
257.2330230875
 51
269.8074539958
  0
CIRCLE
  5
113
330
1F
100
AcDbEntity
  8
0
  6
SLD-Gestrichelt
 62
     7
370
     0
100
AcDbCircle
 10
187.1057227889
 20
111.9840093487
 30
0.0
 40
4.99967324649674
  0
LINE
  5
114
330
1F
100
AcDbEntity
  8
0
  6
SLD-Gestrichelt
 62
     7
370
     0
100
AcDbLine
 10
180.1060497802
 20
131.6858334345
 30
0.0
 11
180.1060497802
 21
92.2858333093
 31
0.0
  0
LWPOLYLINE
  5
115
330
1F
100
AcDbEntity
  8
0
  6
SLD-Gestrichelt
 62
     7
370
     0
100
AcDbPolyline
 90
        3
 70
   128
 43
0.0
 10
197.146049146
 20
94.8729542894
 10
197.1382930916
 20
94.9739934755
 10
197.1108265262
 20
95.0858341408
  0
LINE
  5
116
330
1F
100
AcDbEntity
  8
0
  6
SLD-Gestrichelt
 62
     7
370
     0
100
AcDbLine
 10
197.146049146
 20
94.8729542894
 30
0.0
 11
197.146049146
 21
123.835833731
 31
0.0
  0
LWPOLYLINE
  5
117
330
1F
100
AcDbEntity
  8
0
  6
SLD-Gestrichelt
 62
     7
370
     0
100
AcDbPolyline
 90
        3
 70
   128
 43
0.0
 10
195.1012717601
 20
95.0858341408
 10
195.073806126
 20
94.9739934755
 10
195.0660500716
 20
94.8729542894
  0
LINE
  5
118
330
1F
100
AcDbEntity
  8
0
  6
SLD-Gestrichelt
 62
     7
370
     0
100
AcDbLine
 10
195.0660500716
 20
94.8729542894
 30
0.0
 11
195.0660500716
 21
123.835833731
 31
0.0
  0
LINE
  5
119
330
1F
100
AcDbEntity
  8
0
  6
SLD-Gestrichelt
 62
     7
370
     0
100
AcDbLine
 10
200.0561118167
 20
128.885832603
 30
0.0
 11
200.0560503494
 21
128.8973679644
 31
0.0
  0
LINE
  5
11A
330
1F
100
AcDbEntity
  8
0
  6
SLD-Gestrichelt
 62
     7
370
     0
100
AcDbLine
 10
200.0561118167
 20
128.885832603
 30
0.0
 11
200.2560500096
 21
128.885832603
 31
0.0
  0
LINE
  5
11B
330
1F
100
AcDbEntity
  8
0
  6
SLD-Gestrichelt
 62
     7
370
     0
100
AcDbLine
 10
200.0560503494
 20
128.8973679644
 30
0.0
 11
200.0560503494
 21
95.0858341408
 31
0.0
  0
LINE
  5
11C
330
1F
100
AcDbEntity
  8
0
  6
SLD-Gestrichelt
 62
     7
370
     0
100
AcDbLine
 10
200.0560503494
 20
95.0858341408
 30
0.0
 11
200.2560500096
 21
95.0858341408
 31
0.0
  0
LINE
  5
11D
330
1F
100
AcDbEntity
  8
0
  6
SLD-Gestrichelt
 62
     7
370
     0
100
AcDbLine
 10
200.0560503494
 20
124.8632361991
 30
0.0
 11
200.0560503494
 21
128.8973679644
 31
0.0
  0
LINE
  5
11E
330
1F
100
AcDbEntity
  8
0
  6
SLD-Gestrichelt
 62
     7
370
     0
100
AcDbLine
 10
200.0560503494
 20
95.0858341408
 30
0.0
 11
200.0560503494
 21
123.835833731
 31
0.0
  0
LINE
  5
11F
330
1F
100
AcDbEntity
  8
0
  6
SLD-Gestrichelt
 62
     7
370
     0
100
AcDbLine
 10
188.0560502451
 20
123.835833731
 30
0.0
 11
192.5497198518
 21
123.835833731
 31
0.0
  0
LWPOLYLINE
  5
120
330
1F
100
AcDbEntity
  8
0
  6
SLD-Gestrichelt
 62
     7
370
     0
100
AcDbPolyline
 90
       20
 70
   128
 43
0.0
 10
204.1060499888
 20
118.2429320057
 10
203.2839342993
 20
118.3727788617
 10
202.5545820635
 20
118.7434284826
 10
201.9941885065
 20
119.30915293
 10
201.6696281772
 20
119.9988545728
 10
201.6213018488
 20
120.7191264135
 10
201.8484942656
 20
121.3865242777
 10
202.3258101236
 20
121.9402477023
 10
203.0077319633
 20
122.3299177242
 10
203.8157045882
 20
122.5155982998
 10
204.6490296762
 20
122.4822690589
 10
205.4172869813
 20
122.2374644009
 10
206.0446910601
 20
121.798025432
 10
206.4587868791
 20
121.1974145723
 10
206.6059842747
 20
120.4995140312
 10
206.4735408913
 20
119.785489968
 10
206.0801800381
 20
119.1323632253
 10
205.4630558979
 20
118.6151234311
 10
204.6883277636
 20
118.3072184091
 10
204.1060499888
 20
118.2429320057
  0
LINE
  5
121
330
1F
100
AcDbEntity
  8
0
  6
SLD-Gestrichelt
 62
     7
370
     0
100
AcDbLine
 10
180.1060497802
 20
95.7786319656
 30
0.0
 11
180.1060497802
 21
128.1802197797
 31
0.0
  0
LINE
  5
122
330
1F
100
AcDbEntity
  8
0
  6
SLD-Gestrichelt
 62
     7
370
     0
100
AcDbLine
 10
178.1060496852
 20
127.0895339427
 30
0.0
 11
178.1060496852
 21
96.8821328012
 31
0.0
  0
LINE
  5
123
330
1F
100
AcDbEntity
  8
0
  6
SLD-Gestrichelt
 62
     7
370
     0
100
AcDbLine
 10
161.1475333612
 20
99.2826558528
 30
0.0
 11
161.1560493749
 21
99.2552982521
 31
0.0
  0
LINE
  5
124
330
1F
100
AcDbEntity
  8
0
  6
SLD-Gestrichelt
 62
     7
370
     0
100
AcDbLine
 10
161.1560493749
 20
99.2552982521
 30
0.0
 11
161.3162592094
 21
99.2746529979
 31
0.0
  0
ARC
  5
125
330
1F
100
AcDbEntity
  8
0
  6
SLD-Gestrichelt
 62
     7
370
     0
100
AcDbCircle
 10
171.1611898883
 20
24.8334613326
 30
0.0
 40
75.08937126268323
100
AcDbArc
 50
94.395681249
 51
97.5337113535
  0
LWPOLYLINE
  5
126
330
1F
100
AcDbEntity
  8
0
  6
SLD-Gestrichelt
 62
     7
370
     0
100
AcDbPolyline
 90
        7
 70
   128
 43
0.0
 10
165.4060496058
 20
99.7019596276
 10
165.4693646397
 20
99.7015070048
 10
165.5307387974
 20
99.6900666383
 10
165.6081419479
 20
99.6595993516
 10
165.7135052647
 20
99.5864923922
 10
165.9015784081
 20
99.33541062
 10
166.0148141947
 20
99.0518303466
  0
ARC
  5
127
330
1F
100
AcDbEntity
  8
0
  6
SLD-Gestrichelt
 62
     7
370
     0
100
AcDbCircle
 10
163.1675093344
 20
97.4152505212
 30
0.0
 40
3.284134359664614
100
AcDbArc
 50
17.1244326527
 51
29.8895177058
  0
LINE
  5
128
330
1F
100
AcDbEntity
  8
0
  6
SLD-Gestrichelt
 62
     7
370
     0
100
AcDbLine
 10
166.3060499396
 20
98.3822569129
 30
0.0
 11
166.3060499396
 21
97.4733149511
 31
0.0
  0
LINE
  5
129
330
1F
100
AcDbEntity
  8
0
  6
SLD-Gestrichelt
 62
     7
370
     0
100
AcDbLine
 10
163.8060495298
 20
126.3731010136
 30
0.0
 11
163.8060495298
 21
125.5433577922
 31
0.0
  0
ARC
  5
12A
330
1F
100
AcDbEntity
  8
0
  6
SLD-Gestrichelt
 62
     7
370
     0
100
AcDbCircle
 10
162.7510845513
 20
125.8559674062
 30
0.0
 40
1.100307173752264
100
AcDbArc
 50
278.0963186522
 51
343.4942707128
  0
LWPOLYLINE
  5
12B
330
1F
100
AcDbEntity
  8
0
  6
SLD-Gestrichelt
 62
     7
370
     0
100
AcDbPolyline
 90
        3
 70
   128
 43
0.0
 10
162.906049196
 20
124.7666273144
 10
162.0424151462
 20
124.8252559331
 10
161.1560493749
 20
124.8514139903
  0
LINE
  5
12C
330
1F
100
AcDbEntity
  8
0
  6
SLD-Gestrichelt
 62
     7
370
     0
100
AcDbLine
 10
161.1560493749
 20
124.8514139903
 30
0.0
 11
161.0568821471
 21
124.6592691046
 31
0.0
  0
ELLIPSE
  5
12D
330
1F
100
AcDbEntity
  8
0
  6
SLD-Gestrichelt
 62
     7
370
     0
100
AcDbEllipse
 10
147.5999291416
 20
112.6249438232
 30
0.0
 11
13.36963611134306
 21
13.36754752639486
 31
0.0
210
0.0
220
0.0
230
1.0
 40
0.1761188775
 41
5.933076931846593
 42
5.97672005269119
  0
ELLIPSE
  5
12E
330
1F
100
AcDbEntity
  8
0
  6
SLD-Gestrichelt
 62
     7
370
     0
100
AcDbEllipse
 10
147.6793075723
 20
111.3465356941
 30
0.0
 11
13.37355272666628
 21
-13.37146352987014
 31
0.0
210
0.0
220
0.0
230
1.0
 40
0.1761188775
 41
0.3023035477142503
 42
0.3822730435340326
  0
ARC
  5
12F
330
1F
100
AcDbEntity
  8
0
  6
SLD-Gestrichelt
 62
     7
370
     0
100
AcDbCircle
 10
174.4358004427
 20
75.8522782426
 30
0.0
 40
21.60178524906596
100
AcDbArc
 50
97.1287248107
 51
98.3719928051
  0
LWPOLYLINE
  5
130
330
1F
100
AcDbEntity
  8
0
  6
SLD-Gestrichelt
 62
     7
370
     0
100
AcDbPolyline
 90
       16
 70
   128
 43
0.0
 10
176.8723278347
 20
96.9442352531
 10
176.8738193478
 20
96.9438766939
 10
176.8178845797
 20
96.9577291859
 10
176.6568512231
 20
96.9960708049
 10
176.3941824011
 20
97.0548651991
 10
176.0461632203
 20
97.1262678382
 10
175.6267425645
 20
97.2008285922
 10
175.1476101618
 20
97.2704477486
 10
174.6222143102
 20
97.3276197789
 10
174.0734906908
 20
97.3667204258
 10
173.5320504796
 20
97.3835382489
 10
173.0109792244
 20
97.37910981
 10
172.5254179019
 20
97.3568213982
 10
172.1125537571
 20
97.3247466487
 10
172.0996120986
 20
97.3237408203
 10
171.7550413724
 20
97.2870783759
  0
LWPOLYLINE
  5
131
330
1F
100
AcDbEntity
  8
0
  6
SLD-Gestrichelt
 62
     7
370
     0
100
AcDbPolyline
 90
       16
 70
   128
 43
0.0
 10
171.7549230944
 20
126.6845734668
 10
172.1003636759
 20
126.6479799402
 10
172.1066789742
 20
126.6474891332
 10
172.5264293183
 20
126.6149114696
 10
173.0121089186
 20
126.5926016373
 10
173.5339489806
 20
126.5881238383
 10
174.0750636946
 20
126.604949112
 10
174.624858335
 20
126.6442425427
 10
175.1494560432
 20
126.7014490319
 10
175.6289605092
 20
126.7711743591
 10
176.047491752
 20
126.8455777196
 10
176.3952091843
 20
126.9169207541
 10
176.6571199097
 20
126.9755735872
 10
176.8178557087
 20
127.013905893
 10
176.8725019921
 20
127.0277276513
 10
176.8713289913
 20
127.0274324221
  0
ARC
  5
132
330
1F
100
AcDbEntity
  8
0
  6
SLD-Gestrichelt
 62
     7
370
     0
100
AcDbCircle
 10
172.9888631822
 20
137.4850512775
 30
0.0
 40
10.87073728310235
100
AcDbArc
 50
261.009721592
 51
263.4822940933
  0
ARC
  5
133
330
1F
100
AcDbEntity
  8
0
  6
SLD-Gestrichelt
 62
     7
370
     0
100
AcDbCircle
 10
174.101312417
 20
137.3138667829
 30
0.0
 40
12.78669658677049
100
AcDbArc
 50
259.7350589451
 51
278.2233667104
  0
ARC
  5
134
330
1F
100
AcDbEntity
  8
0
  6
SLD-Gestrichelt
 62
     7
370
     0
100
AcDbCircle
 10
174.101312417
 20
86.6577999609
 30
0.0
 40
12.78669658677049
100
AcDbArc
 50
81.7766332896
 51
100.2649410549
  0
LWPOLYLINE
  5
135
330
1F
100
AcDbEntity
  8
0
  6
SLD-Gestrichelt
 62
     7
370
     0
100
AcDbPolyline
 90
        6
 70
   128
 43
0.0
 10
175.9302265983
 20
124.6586432559
 10
176.2885971967
 20
124.7022896883
 10
176.4009391464
 20
124.7126702097
 10
176.4058386017
 20
124.7131228325
 10
176.267115543
 20
124.7001206381
 10
175.9302265983
 20
124.6586432559
  0
LWPOLYLINE
  5
136
330
1F
100
AcDbEntity
  8
0
  6
SLD-Gestrichelt
 62
     7
370
     0
100
AcDbPolyline
 90
        6
 70
   128
 43
0.0
 10
175.9302265983
 20
99.313023488
 10
176.2885971967
 20
99.2693770555
 10
176.4009584714
 20
99.2589946714
 10
176.4058386017
 20
99.2585439113
 10
176.267115543
 20
99.2715461058
 10
175.9302265983
 20
99.313023488
  0
LINE
  5
137
330
1F
100
AcDbEntity
  8
0
  6
SLD-Gestrichelt
 62
     7
370
     0
100
AcDbLine
 10
180.1060497802
 20
101.4858335135
 30
0.0
 11
180.1060497802
 21
122.4858332304
 31
0.0
  0
LINE
  5
138
330
1F
100
AcDbEntity
  8
0
  6
SLD-Gestrichelt
 62
     7
370
     0
100
AcDbLine
 10
168.1086992886
 20
122.4858332304
 30
0.0
 11
168.1086992886
 21
101.4858335135
 31
0.0
  0
LWPOLYLINE
  5
139
330
1F
100
AcDbEntity
  8
0
  6
SLD-Gestrichelt
 62
     7
370
     0
100
AcDbPolyline
 90
       29
 70
   128
 43
0.0
 10
202.7541328262
 20
109.8065755674
 10
202.8184946667
 20
109.6983470367
 10
202.8199195903
 20
109.5088082244
 10
202.7583349537
 20
109.2474637431
 10
202.6368290227
 20
108.927418
 10
202.4614945095
 20
108.5647197784
 10
202.2411249619
 20
108.1775561785
 10
201.9867677282
 20
107.7853413177
 10
201.7111800652
 20
107.4077421678
 10
201.4281809371
 20
107.0636934479
 10
201.151958112
 20
106.7704474432
 10
200.8963659447
 20
106.5427078744
 10
200.6742194336
 20
106.3918950846
 10
200.4966571968
 20
106.3255718787
 10
200.3725845408
 20
106.3470630785
 10
200.3082208376
 20
106.4552916092
 10
200.3067977767
 20
106.6448306543
 10
200.3683824133
 20
106.9061751356
 10
200.4898864817
 20
107.2262208787
 10
200.6652209949
 20
107.5889188675
 10
200.8855924051
 20
107.9760822346
 10
201.1399477761
 20
108.3682973282
 10
201.4155354392
 20
108.7458964781
 10
201.6985364299
 20
109.0899449651
 10
201.974759255
 20
109.3831914355
 10
202.2303514223
 20
109.6109307715
 10
202.4524979334
 20
109.7617433285
 10
202.6300601702
 20
109.828067
 10
202.7541328262
 20
109.8065755674
  0
LINE
  5
13A
330
1F
100
AcDbEntity
  8
0
  6
SLD-Gestrichelt
 62
     7
370
     0
100
AcDbLine
 10
205.1452849101
 20
107.6270765503
 30
0.0
 11
205.5146306794
 21
107.3979600211
 31
0.0
  0
ARC
  5
13B
330
1F
100
AcDbEntity
  8
0
  6
SLD-Gestrichelt
 62
     7
370
     0
100
AcDbCircle
 10
205.0137640877
 20
107.0028003341
 30
0.0
 40
0.6379800317337037
100
AcDbArc
 50
38.2717440081
 51
78.1030590626
  0
LWPOLYLINE
  5
13C
330
1F
100
AcDbEntity
  8
0
  6
SLD-Gestrichelt
 62
     7
370
     0
100
AcDbPolyline
 90
        3
 70
   128
 43
0.0
 10
203.3282633912
 20
104.390859126
 10
202.5235168677
 20
104.9178177369
 10
202.4146564346
 20
104.9960111146
  0
LWPOLYLINE
  5
13D
330
1F
100
AcDbEntity
  8
0
  6
SLD-Gestrichelt
 62
     7
370
     0
100
AcDbPolyline
 90
       39
 70
   128
 43
0.0
 10
202.4146564346
 20
104.9960111146
 10
202.5121025782
 20
104.9991631759
 10
202.5578957092
 20
105.0351126929
 10
202.5661267381
 20
105.095669615
 10
202.545535196
 20
105.1814556
 10
202.419005711
 20
105.4843547632
 10
202.2145282518
 20
106.0084155639
 10
202.0641420077
 20
106.59029287
 10
202.0118501078
 20
107.3925900151
 10
202.1255627315
 20
107.9928646674
 10
202.1728534292
 20
108.08701812
 10
202.3450177204
 20
108.4297960502
 10
202.4271305691
 20
108.5109233269
 10
202.6719715487
 20
108.7528299419
 10
203.045301516
 20
108.9223245968
 10
203.6078743678
 20
108.9502686979
 10
204.3738927733
 20
108.6769492709
 10
204.7408916097
 20
108.4345851437
 10
205.1057856571
 20
108.1332131167
 10
205.2439119708
 20
108.0158357387
 10
205.3590457927
 20
107.9283011955
 10
205.4725032341
 20
107.8577586328
 10
205.6215893518
 20
107.7841473622
 10
206.0059592169
 20
107.5592930307
 10
206.1929296743
 20
107.2386097973
 10
206.1698645394
 20
106.8668626127
 10
205.9968434315
 20
106.4955312637
 10
205.6771650951
 20
106.0944623192
 10
205.2941177081
 20
105.7501840283
 10
204.8471145373
 20
105.4404610646
 10
204.1706148576
 20
105.0934828696
 10
203.764070202
 20
104.9403194216
 10
203.391353045
 20
104.8233616044
 10
203.2551433932
 20
104.7706240666
 10
203.1830031466
 20
104.7111214017
 10
203.1714230817
 20
104.6470329044
 10
203.1991075765
 20
104.5681862039
 10
203.3282633912
 20
104.390859126
 10
203.3282633912
 20
104.390859126
  0
LINE
  5
13E
330
1F
100
AcDbEntity
  8
0
  6
SLD-Gestrichelt
 62
     7
370
     0
100
AcDbLine
 10
192.5497198518
 20
123.835833731
 30
0.0
 11
200.3851741593
 21
123.835833731
 31
0.0
  0
LINE
  5
13F
330
1F
100
AcDbEntity
  8
0
  6
SLD-Gestrichelt
 62
     7
370
     0
100
AcDbLine
 10
197.146049146
 20
125.5016801757
 30
0.0
 11
197.146049146
 21
129.3884375942
 31
0.0
  0
LINE
  5
140
330
1F
100
AcDbEntity
  8
0
  6
SLD-Gestrichelt
 62
     7
370
     0
100
AcDbLine
 10
195.0660500716
 20
125.5016801757
 30
0.0
 11
195.0660500716
 21
129.3884375942
 31
0.0
  0
LINE
  5
141
330
1F
100
AcDbEntity
  8
0
  6
SLD-Gestrichelt
 62
     7
370
     0
100
AcDbLine
 10
160.2060500573
 20
102.12082694
 30
0.0
 11
160.2060500573
 21
121.8508398039
 31
0.0
  0
LINE
  5
142
330
1F
100
AcDbEntity
  8
0
  6
SLD-Gestrichelt
 62
     7
370
     0
100
AcDbLine
 10
186.2754248124
 20
122.4858332304
 30
0.0
 11
186.2754248124
 21
101.4858335135
 31
0.0
  0
LINE
  5
143
330
1F
100
AcDbEntity
  8
0
  6
SLD-Gestrichelt
 62
     7
370
     0
100
AcDbLine
 10
188.0560502451
 20
121.8608338264
 30
0.0
 11
188.0560502451
 21
102.1108329174
 31
0.0
  0
ARC
  5
144
330
1F
100
AcDbEntity
  8
0
  6
SLD-Gestrichelt
 62
     7
370
     0
100
AcDbCircle
 10
204.217339739
 20
105.7189297868
 30
0.0
 40
2.121816747941878
100
AcDbArc
 50
52.3087832782
 51
64.0660197926
  0
LINE
  5
145
330
1F
100
AcDbEntity
  8
0
  6
SLD-Gestrichelt
 62
     7
370
     0
100
AcDbLine
 10
161.1560493749
 20
102.2879276303
 30
0.0
 11
165.4060496058
 21
102.2879276303
 31
0.0
  0
LINE
  5
146
330
1F
100
AcDbEntity
  8
0
  6
SLD-Gestrichelt
 62
     7
370
     0
100
AcDbLine
 10
161.1560493749
 20
121.6837391136
 30
0.0
 11
161.1560493749
 21
102.2879276303
 31
0.0
  0
LINE
  5
147
330
1F
100
AcDbEntity
  8
0
  6
SLD-Gestrichelt
 62
     7
370
     0
100
AcDbLine
 10
162.906049196
 20
121.6837391136
 30
0.0
 11
161.1560493749
 21
121.6837391136
 31
0.0
  0
LWPOLYLINE
  5
148
330
1F
100
AcDbEntity
  8
0
  6
SLD-Gestrichelt
 62
     7
370
     0
100
AcDbPolyline
 90
        6
 70
   128
 43
0.0
 10
163.8060495298
 20
122.010023321
 10
163.7502688955
 20
121.9074046117
 10
163.5891072493
 20
121.8081675348
 10
163.3405931335
 20
121.7294111726
 10
163.0488507491
 20
121.6884627816
 10
162.906049196
 20
121.6837391136
  0
LINE
  5
149
330
1F
100
AcDbEntity
  8
0
  6
SLD-Gestrichelt
 62
     7
370
     0
100
AcDbLine
 10
163.8060495298
 20
122.010023321
 30
0.0
 11
163.8060495298
 21
122.4858332304
 31
0.0
  0
LWPOLYLINE
  5
14A
330
1F
100
AcDbEntity
  8
0
  6
SLD-Gestrichelt
 62
     7
370
     0
100
AcDbPolyline
 90
        6
 70
   128
 43
0.0
 10
163.8060495298
 20
122.010023321
 10
163.7502688955
 20
121.9074046117
 10
163.5891072493
 20
121.8081675348
 10
163.3405931335
 20
121.7294111726
 10
163.0488507491
 20
121.6884627816
 10
162.906049196
 20
121.6837391136
  0
LWPOLYLINE
  5
14B
330
1F
100
AcDbEntity
  8
0
  6
SLD-Gestrichelt
 62
     7
370
     0
100
AcDbPolyline
 90
        7
 70
   128
 43
0.0
 10
165.4060496058
 20
102.2879276303
 10
165.5523873907
 20
102.2829655436
 10
165.8159181517
 20
102.2475315136
 10
166.0423906561
 20
102.1826974926
 10
166.2133144256
 20
102.0944639919
 10
166.3003819104
 20
101.9936399413
 10
166.3060499396
 20
101.9616434229
  0
LINE
  5
14C
330
1F
100
AcDbEntity
  8
0
  6
SLD-Gestrichelt
 62
     7
370
     0
100
AcDbLine
 10
166.3060499396
 20
101.9616434229
 30
0.0
 11
166.3060499396
 21
101.4858335135
 31
0.0
  0
LWPOLYLINE
  5
14D
330
1F
100
AcDbEntity
  8
0
  6
SLD-Gestrichelt
 62
     7
370
     0
100
AcDbPolyline
 90
        7
 70
   128
 43
0.0
 10
165.4060496058
 20
102.2879276303
 10
165.5523873907
 20
102.2829655436
 10
165.8159181517
 20
102.2475315136
 10
166.0423906561
 20
102.1826974926
 10
166.2133144256
 20
102.0944639919
 10
166.3003819104
 20
101.9936399413
 10
166.3060499396
 20
101.9616434229
  0
LINE
  5
14E
330
1F
100
AcDbEntity
  8
0
  6
SLD-Gestrichelt
 62
     7
370
     0
100
AcDbLine
 10
161.1560493749
 20
102.2879276303
 30
0.0
 11
161.1560493749
 21
121.6837391136
 31
0.0
  0
LWPOLYLINE
  5
14F
330
1F
100
AcDbEntity
  8
0
  6
SLD-Gestrichelt
 62
     7
370
     0
100
AcDbPolyline
 90
       13
 70
   128
 43
0.0
 10
205.2060499828
 20
112.6197055442
 10
205.4769568186
 20
112.6841617976
 10
205.7057641488
 20
112.6546614565
 10
205.8602631133
 20
112.5573547202
 10
206.0056258034
 20
112.3659353349
 10
206.1510294717
 20
111.9857949436
 10
206.2053013634
 20
111.5076798766
 10
206.1064451974
 20
111.0409014387
 10
205.9823352884
 20
110.7886051637
 10
205.8524064761
 20
110.565072379
 10
205.6823357981
 20
110.2840998088
 10
205.2838861983
 20
109.6656739124
 10
205.2060499828
 20
109.5530106564
  0
LWPOLYLINE
  5
150
330
1F
100
AcDbEntity
  8
0
  6
SLD-Gestrichelt
 62
     7
370
     0
100
AcDbPolyline
 90
       18
 70
   128
 43
0.0
 10
205.2060499828
 20
109.5530106564
 10
204.705464099
 20
109.4968649437
 10
204.2771674734
 20
109.4875992154
 10
203.8229186129
 20
109.4885293738
 10
203.3483613323
 20
109.5067979646
 10
202.7162019204
 20
109.6361758997
 10
202.2356208455
 20
109.9774695345
 10
202.0461712073
 20
110.3653613123
 10
202.0148005377
 20
110.8661816566
 10
202.1317914169
 20
111.3656594413
 10
202.377826352
 20
111.8769010378
 10
202.9083281796
 20
112.5324104674
 10
203.2350268256
 20
112.7934823622
 10
203.6175005179
 20
112.9939325498
 10
204.0231324773
 20
113.0845453468
 10
204.4404953759
 20
113.0433565582
 10
204.932717983
 20
112.8224017908
 10
205.2060499828
 20
112.6197055442
  0
ARC
  5
151
330
1F
100
AcDbEntity
  8
0
  6
SLD-Gestrichelt
 62
     7
370
     0
100
AcDbCircle
 10
203.9849795752
 20
106.3745323141
 30
0.0
 40
2.089553891021944
100
AcDbArc
 50
221.2785476756
 51
251.6823233429
  0
LINE
  5
152
330
1F
100
AcDbEntity
  8
0
  6
SLD-Gestrichelt
 62
     7
370
     0
100
AcDbLine
 10
163.8060495298
 20
122.9858333123
 30
0.0
 11
163.8060495298
 21
125.5433577922
 31
0.0
  0
LINE
  5
153
330
1F
100
AcDbEntity
  8
0
  6
SLD-Gestrichelt
 62
     7
370
     0
100
AcDbLine
 10
166.3060499396
 20
100.9858334315
 30
0.0
 11
166.3060499396
 21
98.3822569129
 31
0.0
  0
LINE
  5
154
330
1F
100
AcDbEntity
  8
0
  6
SLD-Gestrichelt
 62
     7
370
     0
100
AcDbLine
 10
161.1560493749
 20
122.9858333123
 30
0.0
 11
161.1560493749
 21
124.8658336577
 31
0.0
  0
LINE
  5
155
330
1F
100
AcDbEntity
  8
0
  6
SLD-Gestrichelt
 62
     7
370
     0
100
AcDbLine
 10
160.2060500573
 20
122.9858333123
 30
0.0
 11
160.2060500573
 21
123.9158334089
 31
0.0
  0
LINE
  5
156
330
1F
100
AcDbEntity
  8
0
  6
SLD-Gestrichelt
 62
     7
370
     0
100
AcDbLine
 10
161.1560493749
 20
100.9858334315
 30
0.0
 11
161.1560493749
 21
99.1648333025
 31
0.0
  0
LINE
  5
157
330
1F
100
AcDbEntity
  8
0
  6
SLD-Gestrichelt
 62
     7
370
     0
100
AcDbLine
 10
160.2060500573
 20
100.9858334315
 30
0.0
 11
160.2060500573
 21
100.1148335514
 31
0.0
  0
LINE
  5
158
330
1F
100
AcDbEntity
  8
0
  6
SLD-Gestrichelt
 62
     7
370
     0
100
AcDbLine
 10
195.9060490172
 20
118.2358334651
 30
0.0
 11
195.9060490172
 21
105.7358332788
 31
0.0
  0
LINE
  5
159
330
1F
100
AcDbEntity
  8
0
  6
SLD-Gestrichelt
 62
     7
370
     0
100
AcDbLine
 10
193.4060495388
 20
118.2358334651
 30
0.0
 11
193.4060495388
 21
105.7358332788
 31
0.0
  0
LINE
  5
15A
330
1F
100
AcDbEntity
  8
0
  6
SLD-Gestrichelt
 62
     7
370
     0
100
AcDbLine
 10
188.5560493957
 20
117.4858333421
 30
0.0
 11
188.5560493957
 21
106.4858334017
 31
0.0
  0
LINE
  5
15B
330
1F
100
AcDbEntity
  8
0
  6
SLD-Gestrichelt
 62
     7
370
     0
100
AcDbLine
 10
188.0560502451
 20
105.9858333198
 30
0.0
 11
188.0560502451
 21
117.9858334241
 31
0.0
  0
LINE
  5
15C
330
1F
100
AcDbEntity
  8
0
  6
SLD-Gestrichelt
 62
     7
370
     0
100
AcDbLine
 10
188.0560502451
 20
92.0108491433
 30
0.0
 11
188.0560502451
 21
95.0858341408
 31
0.0
  0
LINE
  5
15D
330
1F
100
AcDbEntity
  8
0
  6
SLD-Gestrichelt
 62
     7
370
     0
100
AcDbLine
 10
192.5560500514
 20
95.0858341408
 30
0.0
 11
188.0560502451
 21
95.0858341408
 31
0.0
  0
LINE
  5
15E
330
1F
100
AcDbEntity
  8
0
  6
SLD-Gestrichelt
 62
     7
370
     0
100
AcDbLine
 10
195.1012717601
 20
95.0858341408
 30
0.0
 11
192.5560500514
 21
95.0858341408
 31
0.0
  0
LINE
  5
15F
330
1F
100
AcDbEntity
  8
0
  6
SLD-Gestrichelt
 62
     7
370
     0
100
AcDbLine
 10
195.0660500716
 20
94.8729542894
 30
0.0
 11
195.0660500716
 21
94.5567106706
 31
0.0
  0
LINE
  5
160
330
1F
100
AcDbEntity
  8
0
  6
SLD-Gestrichelt
 62
     7
370
     0
100
AcDbLine
 10
193.4060495388
 20
106.4858334017
 30
0.0
 11
193.4060495388
 21
117.4858333421
 31
0.0
  0
LINE
  5
161
330
1F
100
AcDbEntity
  8
0
  6
SLD-Gestrichelt
 62
     7
370
     0
100
AcDbLine
 10
200.0560503494
 20
95.0858341408
 30
0.0
 11
197.1108265262
 21
95.0858341408
 31
0.0
  0
LINE
  5
162
330
1F
100
AcDbEntity
  8
0
  6
SLD-Gestrichelt
 62
     7
370
     0
100
AcDbLine
 10
197.146049146
 20
94.5567106706
 30
0.0
 11
197.146049146
 21
94.8729542894
 31
0.0
  0
LINE
  5
163
330
1F
100
AcDbEntity
  8
0
  6
SLD-Gestrichelt
 62
     7
370
     0
100
AcDbLine
 10
200.0560503494
 20
95.0858341408
 30
0.0
 11
200.0560503494
 21
93.3818006766
 31
0.0
  0
ELLIPSE
  5
164
330
1F
100
AcDbEntity
  8
0
  6
SLD-Gestrichelt
 62
     7
370
     0
100
AcDbEllipse
 10
158.1002830404
 20
111.9858333719
 30
0.0
 11
12.26424774976735
 21
0.0
 31
0.0
210
0.0
220
0.0
230
1.0
 40
0.8164965809
 41
4.884943637108984
 42
4.964202354313276
  0
LINE
  5
165
330
1F
100
AcDbEntity
  8
0
  6
SLD-Gestrichelt
 62
     7
370
     0
100
AcDbLine
 10
160.2060500573
 20
100.9858334315
 30
0.0
 11
160.2060500573
 21
102.12082694
 31
0.0
  0
ELLIPSE
  5
166
330
1F
100
AcDbEntity
  8
0
  6
SLD-Gestrichelt
 62
     7
370
     0
100
AcDbEllipse
 10
158.1002830404
 20
111.9858333719
 30
0.0
 11
12.26424774976738
 21
0.0
 31
0.0
210
0.0
220
0.0
230
1.0
 40
0.8164965809
 41
1.318982952866323
 42
1.398241670070614
  0
LINE
  5
167
330
1F
100
AcDbEntity
  8
0
  6
SLD-Gestrichelt
 62
     7
370
     0
100
AcDbLine
 10
160.2060500573
 20
122.9858333123
 30
0.0
 11
160.2060500573
 21
121.8508398039
 31
0.0
  0
LINE
  5
168
330
1F
100
AcDbEntity
  8
0
  6
SLD-Gestrichelt
 62
     7
370
     0
100
AcDbLine
 10
200.0561118167
 20
128.885832603
 30
0.0
 11
196.8977045309
 21
128.885832603
 31
0.0
  0
LINE
  5
169
330
1F
100
AcDbEntity
  8
0
  6
SLD-Gestrichelt
 62
     7
370
     0
100
AcDbLine
 10
197.146049146
 20
129.69951051
 30
0.0
 11
197.146049146
 21
129.3884375942
 31
0.0
  0
LINE
  5
16A
330
1F
100
AcDbEntity
  8
0
  6
SLD-Gestrichelt
 62
     7
370
     0
100
AcDbLine
 10
200.0560503494
 20
128.8973679644
 30
0.0
 11
200.0560503494
 21
130.8567104739
 31
0.0
  0
LINE
  5
16B
330
1F
100
AcDbEntity
  8
0
  6
SLD-Gestrichelt
 62
     7
370
     0
100
AcDbLine
 10
195.3143937554
 20
128.885832603
 30
0.0
 11
192.5560500514
 21
128.885832603
 31
0.0
  0
LINE
  5
16C
330
1F
100
AcDbEntity
  8
0
  6
SLD-Gestrichelt
 62
     7
370
     0
100
AcDbLine
 10
195.0660500716
 20
129.3884375942
 30
0.0
 11
195.0660500716
 21
129.69951051
 31
0.0
  0
LINE
  5
16D
330
1F
100
AcDbEntity
  8
0
  6
SLD-Gestrichelt
 62
     7
370
     0
100
AcDbLine
 10
192.5560500514
 20
128.885832603
 30
0.0
 11
188.0560502451
 21
128.885832603
 31
0.0
  0
LINE
  5
16E
330
1F
100
AcDbEntity
  8
0
  6
SLD-Gestrichelt
 62
     7
370
     0
100
AcDbLine
 10
166.3060499396
 20
100.9858334315
 30
0.0
 11
166.3060499396
 21
101.9616434229
 31
0.0
  0
LINE
  5
16F
330
1F
100
AcDbEntity
  8
0
  6
SLD-Gestrichelt
 62
     7
370
     0
100
AcDbLine
 10
161.1560493749
 20
100.9858334315
 30
0.0
 11
161.1560493749
 21
102.2879276303
 31
0.0
  0
LINE
  5
170
330
1F
100
AcDbEntity
  8
0
  6
SLD-Gestrichelt
 62
     7
370
     0
100
AcDbLine
 10
161.1560493749
 20
122.9858333123
 30
0.0
 11
161.1560493749
 21
121.6837391136
 31
0.0
  0
LINE
  5
171
330
1F
100
AcDbEntity
  8
0
  6
SLD-Gestrichelt
 62
     7
370
     0
100
AcDbLine
 10
163.8060495298
 20
122.9858333123
 30
0.0
 11
163.8060495298
 21
122.010023321
 31
0.0
  0
LWPOLYLINE
  5
172
330
1F
100
AcDbEntity
  8
0
  6
SLD-Gestrichelt
 62
     7
370
     0
100
AcDbPolyline
 90
       54
 70
   128
 43
0.0
 10
171.961878803
 20
97.7467093495
 10
172.1904235002
 20
97.7800087881
 10
172.5705586415
 20
97.8223448497
 10
172.9722413275
 20
97.8515073535
 10
173.3438069042
 20
97.8674953682
 10
173.3440076042
 20
97.8674972308
 10
173.6538139213
 20
97.870309825
 10
174.4801177684
 20
97.8201450658
 10
174.9316853512
 20
97.7651663003
 10
175.1576381776
 20
97.7302025882
 10
175.3788119223
 20
97.6902572316
 10
175.8134541143
 20
97.5984334824
 10
176.0591831099
 20
97.5370909897
 10
176.2330442708
 20
97.4900238094
 10
176.3646047603
 20
97.4525604275
 10
176.4060295228
 20
97.440343338
 10
176.4051785268
 20
97.4406069023
 10
176.3675477397
 20
97.4522866187
 10
176.2424140744
 20
97.4871422974
 10
176.145190284
 20
97.5131625188
 10
176.0876964819
 20
97.5283197937
 10
176.0567183647
 20
97.5364362699
 10
176.0406712111
 20
97.5406281528
 10
176.0325081687
 20
97.5427580876
 10
176.028391723
 20
97.5438309712
 10
176.0263246525
 20
97.5443692756
 10
176.0252890218
 20
97.5446393592
 10
176.0247707408
 20
97.5447744009
 10
176.0245113674
 20
97.5448423875
 10
176.0243819136
 20
97.5448759151
 10
176.024316721
 20
97.5448926789
 10
176.0242845904
 20
97.5449010608
 10
176.0242682923
 20
97.5449057174
 10
176.024260376
 20
97.5449075801
 10
176.0242519941
 20
97.5449094427
 10
175.964359105
 20
97.5607735914
 10
175.8494264487
 20
97.589698608
 10
175.6652997848
 20
97.6316835609
 10
175.3949410323
 20
97.686730313
 10
174.9536193948
 20
97.7622223896
 10
174.5697356801
 20
97.8130036843
 10
173.6973900389
 20
97.8681519506
 10
173.2569559518
 20
97.8673351807
 10
173.1141292531
 20
97.8628573817
 10
172.9745700996
 20
97.8562757251
 10
172.8390719782
 20
97.8475911421
 10
172.5966310169
 20
97.8263271851
 10
172.4086146843
 20
97.8069491563
 10
172.2005255561
 20
97.7817391855
 10
171.9664199319
 20
97.7473491681
 10
171.8523412984
 20
97.7276423824
 10
171.844435301
 20
97.7272232873
 10
171.8380007934
 20
97.7268824232
 10
171.961878803
 20
97.7467093495
  0
LWPOLYLINE
  5
173
330
1F
100
AcDbEntity
  8
0
  6
SLD-Gestrichelt
 62
     7
370
     0
100
AcDbPolyline
 90
       47
 70
   128
 43
0.0
 10
172.5668901619
 20
126.1488878978
 10
172.1904207062
 20
126.1915871752
 10
171.964269508
 20
126.224552269
 10
171.961962622
 20
126.2248884765
 10
171.8381023075
 20
126.24472751
 10
171.8107055914
 20
126.2502837804
 10
171.8066599261
 20
126.2511042756
 10
171.8519873958
 20
126.2440178422
 10
171.8967858743
 20
126.2360187126
 10
171.9655295875
 20
126.2243380648
 10
172.0643363934
 20
126.208975899
 10
172.1993567463
 20
126.189932215
 10
172.4312174175
 20
126.162114541
 10
172.63477473
 20
126.1415900541
 10
172.7207497735
 20
126.1337492493
 10
172.7890762541
 20
126.1279098568
 10
172.8380144615
 20
126.1240709451
 10
173.2560241636
 20
126.1043213186
 10
173.6968107562
 20
126.1035017547
 10
174.1407019127
 20
126.1216131849
 10
174.5704127517
 20
126.1586546776
 10
174.7526465025
 20
126.1808881414
 10
174.9534643296
 20
126.2092841667
 10
175.1689132344
 20
126.2438427535
 10
175.393524025
 20
126.2845639018
 10
175.689658061
 20
126.3452246663
 10
175.8805214468
 20
126.3895267499
 10
175.9464595508
 20
126.4062039432
 10
175.9928440716
 20
126.4183930931
 10
176.0219115805
 20
126.4260923368
 10
176.241014995
 20
126.4839665842
 10
176.3670695055
 20
126.5189712745
 10
176.4052053023
 20
126.5308456374
 10
176.4060351107
 20
126.5311036137
 10
176.3690150384
 20
126.5197275085
 10
176.2470539235
 20
126.4844685671
 10
176.0216666426
 20
126.4253267897
 10
175.7274138782
 20
126.3568336022
 10
175.3800272983
 20
126.2887026993
 10
174.9842054252
 20
126.2191198644
 10
174.5827551041
 20
126.1564660696
 10
174.1602852981
 20
126.1178701994
 10
173.6938878003
 20
126.1009666947
 10
173.2621508691
 20
126.104256126
 10
173.2610081363
 20
126.1043120054
 10
172.9428022209
 20
126.1197775481
 10
172.5668901619
 20
126.1488878978
  0
LINE
  5
174
330
1F
100
AcDbEntity
  8
0
  6
SLD-Gestrichelt
 62
     7
370
     0
100
AcDbLine
 10
205.2060499828
 20
112.6197055442
 30
0.0
 11
205.2060499828
 21
114.485833316
 31
0.0
  0
LINE
  5
175
330
1F
100
AcDbEntity
  8
0
  6
SLD-Gestrichelt
 62
     7
370
     0
100
AcDbLine
 10
205.2060499828
 20
111.3519611996
 30
0.0
 11
205.2060499828
 21
109.4858334278
 31
0.0
  0
LWPOLYLINE
  5
176
330
1F
100
AcDbEntity
  8
0
  6
SLD-Gestrichelt
 62
     7
370
     0
100
AcDbPolyline
 90
       12
 70
   128
 43
0.0
 10
205.2060499828
 20
111.3519611996
 10
205.4259464186
 20
111.293119017
 10
205.764284734
 20
111.3442114898
 10
205.92114367
 20
111.4796112985
 10
206.0555297922
 20
111.7055946839
 10
206.1976328533
 20
112.2516415368
 10
206.1478927772
 20
112.8148981248
 10
206.0022078495
 20
113.1469311537
 10
205.870159347
 20
113.3767693415
 10
205.7282406878
 20
113.6124951177
 10
205.4573208135
 20
114.0450432309
 10
205.2060499828
 20
114.4186560874
  0
LWPOLYLINE
  5
177
330
1F
100
AcDbEntity
  8
0
  6
SLD-Gestrichelt
 62
     7
370
     0
100
AcDbPolyline
 90
       18
 70
   128
 43
0.0
 10
205.2060499828
 20
114.4186560874
 10
204.705464099
 20
114.4748018001
 10
204.2771674734
 20
114.4840675284
 10
203.8229186129
 20
114.48313737
 10
203.3483613323
 20
114.4648687792
 10
202.7162019204
 20
114.3354908441
 10
202.2356208455
 20
113.9941972093
 10
202.0461712073
 20
113.6063054315
 10
202.0148005377
 20
113.1054850872
 10
202.1317914169
 20
112.6060073026
 10
202.377826352
 20
112.094765706
 10
202.9083281796
 20
111.4392562764
 10
203.2350268256
 20
111.1781843816
 10
203.6175005179
 20
110.9777341941
 10
204.0231324773
 20
110.887121397
 10
204.4404953759
 20
110.9283101856
 10
204.932717983
 20
111.149264953
 10
205.2060499828
 20
111.3519611996
  0
LINE
  5
178
330
1F
100
AcDbEntity
  8
0
  6
SLD-Gestrichelt
 62
     7
370
     0
100
AcDbLine
 10
195.9060490172
 20
109.4858334278
 30
0.0
 11
195.9060490172
 21
114.4730066759
 31
0.0
  0
LWPOLYLINE
  5
179
330
1F
100
AcDbEntity
  8
0
  6
SLD-Gestrichelt
 62
     7
370
     0
100
AcDbPolyline
 90
       29
 70
   128
 43
0.0
 10
204.1060499888
 20
115.4698952911
 10
204.5733429532
 20
115.5150264845
 10
205.0172057044
 20
115.6481564854
 10
205.41537777
 20
115.8626098064
 10
205.7478953194
 20
116.1476331641
 10
205.9980839532
 20
116.4889335511
 10
206.1533987563
 20
116.8693974492
 10
206.2060501467
 20
117.2699467157
 10
206.1533987563
 20
117.6704959822
 10
205.9980839532
 20
118.0509598804
 10
205.7478953194
 20
118.3922602673
 10
205.41537777
 20
118.677283625
 10
205.0172057044
 20
118.891736946
 10
204.5733429532
 20
119.0248671797
 10
204.1060499888
 20
119.0699981404
 10
203.6387551617
 20
119.0248671797
 10
203.1948942732
 20
118.891736946
 10
202.7967203449
 20
118.677283625
 10
202.4642027955
 20
118.3922602673
 10
202.2140160244
 20
118.0509598804
 10
202.0587012213
 20
117.6704959822
 10
202.0060498308
 20
117.2699467157
 10
202.0587012213
 20
116.8693974492
 10
202.2140160244
 20
116.4889335511
 10
202.4642027955
 20
116.1476331641
 10
202.7967203449
 20
115.8626098064
 10
203.1948942732
 20
115.6481564854
 10
203.6387551617
 20
115.5150264845
 10
204.1060499888
 20
115.4698952911
  0
LINE
  5
17A
330
1F
100
AcDbEntity
  8
0
  6
SLD-Gestrichelt
 62
     7
370
     0
100
AcDbLine
 10
234.2943236273
 20
96.3596766693
 30
0.0
 11
234.2919692438
 21
96.4045822499
 31
0.0
  0
LINE
  5
17B
330
1F
100
AcDbEntity
  8
0
  6
SLD-Gestrichelt
 62
     7
370
     0
100
AcDbLine
 10
225.1654252451
 20
102.0640432713
 30
0.0
 11
234.2943236273
 21
96.3596766693
 31
0.0
  0
LINE
  5
17C
330
1F
100
AcDbEntity
  8
0
  6
SLD-Gestrichelt
 62
     7
370
     0
100
AcDbLine
 10
224.9104216736
 20
98.6470766244
 30
0.0
 11
224.8722858768
 21
98.6709063751
 31
0.0
  0
LINE
  5
17D
330
1F
100
AcDbEntity
  8
0
  6
SLD-Gestrichelt
 62
     7
370
     0
100
AcDbLine
 10
225.3015846055
 20
91.1832256121
 30
0.0
 11
224.9104216736
 21
98.6470766244
 31
0.0
  0
LINE
  5
17E
330
1F
100
AcDbEntity
  8
0
  6
SLD-Gestrichelt
 62
     7
370
     0
100
AcDbLine
 10
225.2634488087
 20
91.2070544315
 30
0.0
 11
225.3015846055
 21
91.1832256121
 31
0.0
  0
LINE
  5
17F
330
1F
100
AcDbEntity
  8
0
  6
SLD-Gestrichelt
 62
     7
370
     0
100
AcDbLine
 10
234.0355053585
 20
96.2072210265
 30
0.0
 11
234.2943236273
 21
96.3596766693
 31
0.0
  0
LINE
  5
180
330
1F
100
AcDbEntity
  8
0
  6
SLD-Gestrichelt
 62
     7
370
     0
100
AcDbLine
 10
234.0355053585
 20
96.2072210265
 30
0.0
 11
224.8326003592
 21
101.9578324509
 31
0.0
  0
LINE
  5
181
330
1F
100
AcDbEntity
  8
0
  6
SLD-Gestrichelt
 62
     7
370
     0
100
AcDbLine
 10
231.7267380696
 20
106.1725136702
 30
0.0
 11
233.7436586659
 21
106.8669948605
 31
0.0
  0
LINE
  5
182
330
1F
100
AcDbEntity
  8
0
  6
SLD-Gestrichelt
 62
     7
370
     0
100
AcDbLine
 10
225.1692399424
 20
98.7995322672
 30
0.0
 11
224.9104216736
 21
98.6470766244
 31
0.0
  0
LINE
  5
183
330
1F
100
AcDbEntity
  8
0
  6
SLD-Gestrichelt
 62
     7
370
     0
100
AcDbLine
 10
225.1692399424
 20
98.7995322672
 30
0.0
 11
225.5629882257
 21
91.2863248837
 31
0.0
  0
LINE
  5
184
330
1F
100
AcDbEntity
  8
0
  6
SLD-Gestrichelt
 62
     7
370
     0
100
AcDbLine
 10
225.3015846055
 20
91.1832256121
 30
0.0
 11
225.5629882257
 21
91.2863248837
 31
0.0
  0
LINE
  5
185
330
1F
100
AcDbEntity
  8
0
  6
SLD-Gestrichelt
 62
     7
370
     0
100
AcDbLine
 10
225.1692399424
 20
98.7995322672
 30
0.0
 11
224.8552613001
 21
98.9957265434
 31
0.0
  0
ELLIPSE
  5
186
330
1F
100
AcDbEntity
  8
0
  6
SLD-Gestrichelt
 62
     7
370
     0
100
AcDbEllipse
 10
230.2043766704
 20
111.9858333719
 30
0.0
 11
-12.05434456514388
 21
16.95714202892231
 31
0.0
210
0.0
220
0.0
230
1.0
 40
0.1000778042
 41
6.22981050933931
 42
7.782958861244827
  0
LINE
  5
187
330
1F
100
AcDbEntity
  8
0
  6
SLD-Gestrichelt
 62
     7
370
     0
100
AcDbLine
 10
215.2047477703
 20
111.9858333719
 30
0.0
 11
215.2047477703
 21
128.9831856144
 31
0.0
  0
LWPOLYLINE
  5
188
330
1F
100
AcDbEntity
  8
0
  6
SLD-Gestrichelt
 62
     7
370
     0
100
AcDbPolyline
 90
        3
 70
   128
 43
0.0
 10
215.3046488803
 20
95.4627683264
 10
215.217499439
 20
95.2198086185
 10
215.2523569804
 20
94.89500242
  0
LINE
  5
189
330
1F
100
AcDbEntity
  8
0
  6
SLD-Gestrichelt
 62
     7
370
     0
100
AcDbLine
 10
188.0560502451
 20
95.0858341408
 30
0.0
 11
192.5560500514
 21
95.0858341408
 31
0.0
  0
LINE
  5
18A
330
1F
100
AcDbEntity
  8
0
  6
SLD-Gestrichelt
 62
     7
370
     0
100
AcDbLine
 10
233.8448300999
 20
96.3263669861
 30
0.0
 11
234.0355053585
 21
96.2072210265
 31
0.0
  0
LINE
  5
18B
330
1F
100
AcDbEntity
  8
0
  6
SLD-Gestrichelt
 62
     7
370
     0
100
AcDbLine
 10
225.5629882257
 20
91.2863248837
 30
0.0
 11
225.5530118983
 21
91.4767375094
 31
0.0
  0
LINE
  5
18C
330
1F
100
AcDbEntity
  8
0
  6
SLD-Gestrichelt
 62
     7
370
     0
100
AcDbLine
 10
163.8060495298
 20
122.9858333123
 30
0.0
 11
163.8060495298
 21
125.5433577922
 31
0.0
  0
LINE
  5
18D
330
1F
100
AcDbEntity
  8
0
  6
SLD-Gestrichelt
 62
     7
370
     0
100
AcDbLine
 10
166.3060499396
 20
100.9858334315
 30
0.0
 11
166.3060499396
 21
98.3822569129
 31
0.0
  0
LINE
  5
18E
330
1F
100
AcDbEntity
  8
0
  6
SLD-Gestrichelt
 62
     7
370
     0
100
AcDbLine
 10
197.146049146
 20
129.3884375942
 30
0.0
 11
197.146049146
 21
94.8729542894
 31
0.0
  0
ARC
  5
18F
330
1F
100
AcDbEntity
  8
0
  6
SLD-Gestrichelt
 62
     7
370
     0
100
AcDbCircle
 10
196.5176331303
 20
129.3862894282
 30
0.0
 40
0.6284196872648821
100
AcDbArc
 50
307.2148147453
 51
0.1958581042
  0
LWPOLYLINE
  5
190
330
1F
100
AcDbEntity
  8
0
  6
SLD-Gestrichelt
 62
     7
370
     0
100
AcDbPolyline
 90
        3
 70
   128
 43
0.0
 10
197.1108265262
 20
95.0858341408
 10
197.1382930916
 20
94.9739934755
 10
197.146049146
 20
94.8729542894
  0
LINE
  5
191
330
1F
100
AcDbEntity
  8
0
  6
SLD-Gestrichelt
 62
     7
370
     0
100
AcDbLine
 10
196.5460501652
 20
128.885832603
 30
0.0
 11
196.8977045309
 21
128.885832603
 31
0.0
  0
LINE
  5
192
330
1F
100
AcDbEntity
  8
0
  6
SLD-Gestrichelt
 62
     7
370
     0
100
AcDbLine
 10
196.5460501652
 20
95.0858341408
 30
0.0
 11
197.1108265262
 21
95.0858341408
 31
0.0
  0
ARC
  5
193
330
1F
100
AcDbEntity
  8
0
  6
SLD-Gestrichelt
 62
     7
370
     0
100
AcDbCircle
 10
195.693809856
 20
129.3859644714
 30
0.0
 40
0.6277646558949946
100
AcDbArc
 50
179.774278685
 51
232.8148777969
  0
LINE
  5
194
330
1F
100
AcDbEntity
  8
0
  6
SLD-Gestrichelt
 62
     7
370
     0
100
AcDbLine
 10
195.0660500716
 20
129.3884375942
 30
0.0
 11
195.0660500716
 21
94.8729542894
 31
0.0
  0
LWPOLYLINE
  5
195
330
1F
100
AcDbEntity
  8
0
  6
SLD-Gestrichelt
 62
     7
370
     0
100
AcDbPolyline
 90
        3
 70
   128
 43
0.0
 10
195.0660500716
 20
94.8729542894
 10
195.073806126
 20
94.9739934755
 10
195.1012717601
 20
95.0858341408
  0
LINE
  5
196
330
1F
100
AcDbEntity
  8
0
  6
SLD-Gestrichelt
 62
     7
370
     0
100
AcDbLine
 10
195.3143937554
 20
128.885832603
 30
0.0
 11
195.6660499837
 21
128.885832603
 31
0.0
  0
LINE
  5
197
330
1F
100
AcDbEntity
  8
0
  6
SLD-Gestrichelt
 62
     7
370
     0
100
AcDbLine
 10
195.1012717601
 20
95.0858341408
 30
0.0
 11
195.6660499837
 21
95.0858341408
 31
0.0
  0
CIRCLE
  5
198
330
1F
100
AcDbEntity
  8
0
  6
SLD-Gestrichelt
 62
     7
370
     0
100
AcDbCircle
 10
229.8458432753
 20
93.6368267075
 30
0.0
 40
2.400000000000006
  0
LINE
  5
199
330
1F
100
AcDbEntity
  8
0
  6
SLD-Gestrichelt
 62
     7
370
     0
100
AcDbLine
 10
233.9540183585
 20
86.2272037071
 30
0.0
 11
234.3615837436
 21
86.4661773545
 31
0.0
  0
LINE
  5
19A
330
1F
100
AcDbEntity
  8
0
  6
SLD-Gestrichelt
 62
     7
370
     0
100
AcDbLine
 10
225.1692399424
 20
98.7995322672
 30
0.0
 11
225.5530118983
 21
91.4767375094
 31
0.0
  0
ARC
  5
19B
330
1F
100
AcDbEntity
  8
0
  6
SLD-Gestrichelt
 62
     7
370
     0
100
AcDbCircle
 10
223.713046473
 20
101.1834354413
 30
0.0
 40
1.250000000000018
100
AcDbArc
 50
58.0
 51
238.0
  0
LINE
  5
19C
330
1F
100
AcDbEntity
  8
0
  6
SLD-Gestrichelt
 62
     7
370
     0
100
AcDbLine
 10
223.0506487232
 20
100.123375642
 30
0.0
 11
225.1692399424
 21
98.7995322672
 31
0.0
  0
LINE
  5
19D
330
1F
100
AcDbEntity
  8
0
  6
SLD-Gestrichelt
 62
     7
370
     0
100
AcDbLine
 10
233.8448300999
 20
96.3263669861
 30
0.0
 11
224.3754439097
 21
102.2434951616
 31
0.0
  0
LINE
  5
19E
330
1F
100
AcDbEntity
  8
0
  6
SLD-Gestrichelt
 62
     7
370
     0
100
AcDbLine
 10
233.9540183585
 20
86.2272037071
 30
0.0
 11
225.5530118983
 21
91.4767375094
 31
0.0
  0
LINE
  5
19F
330
1F
100
AcDbEntity
  8
0
  6
SLD-Gestrichelt
 62
     7
370
     0
100
AcDbLine
 10
233.8448300999
 20
96.3263669861
 30
0.0
 11
234.3615837436
 21
86.4661773545
 31
0.0
  0
LINE
  5
1A0
330
1F
100
AcDbEntity
  8
0
  6
SLD-Gestrichelt
 62
     7
370
     0
100
AcDbLine
 10
233.3971247118
 20
87.0863525075
 30
0.0
 11
233.9540183585
 21
86.2272037071
 31
0.0
  0
LINE
  5
1A1
330
1F
100
AcDbEntity
  8
0
  6
SLD-Gestrichelt
 62
     7
370
     0
100
AcDbLine
 10
234.3615837436
 20
86.4661773545
 30
0.0
 11
233.748702709
 21
87.4117007357
 31
0.0
  0
CIRCLE
  5
1A2
330
1F
100
AcDbEntity
  8
0
  6
SLD-Gestrichelt
 62
     7
370
     0
100
AcDbCircle
 10
229.8458432753
 20
93.6368267075
 30
0.0
 40
1.650000000000006
  0
LINE
  5
1A3
330
1F
100
AcDbEntity
  8
0
  6
SLD-Gestrichelt
 62
     7
370
     0
100
AcDbLine
 10
161.1560493749
 20
122.9858333123
 30
0.0
 11
161.1560493749
 21
124.8585739983
 31
0.0
  0
LINE
  5
1A4
330
1F
100
AcDbEntity
  8
0
  6
SLD-Gestrichelt
 62
     7
370
     0
100
AcDbLine
 10
160.2060500573
 20
122.9858333123
 30
0.0
 11
160.2060500573
 21
123.9103060094
 31
0.0
  0
LINE
  5
1A5
330
1F
100
AcDbEntity
  8
0
  6
SLD-Gestrichelt
 62
     7
370
     0
100
AcDbLine
 10
161.1560493749
 20
100.9858334315
 30
0.0
 11
161.1560493749
 21
99.1707472009
 31
0.0
  0
LINE
  5
1A6
330
1F
100
AcDbEntity
  8
0
  6
SLD-Gestrichelt
 62
     7
370
     0
100
AcDbLine
 10
160.2060500573
 20
121.8508398039
 30
0.0
 11
160.2060500573
 21
102.12082694
 31
0.0
  0
LINE
  5
1A7
330
1F
100
AcDbEntity
  8
0
  6
SLD-Gestrichelt
 62
     7
370
     0
100
AcDbLine
 10
160.2060500573
 20
100.9858334315
 30
0.0
 11
160.2060500573
 21
100.1200098423
 31
0.0
  0
LINE
  5
1A8
330
1F
100
AcDbEntity
  8
0
  6
SLD-Gestrichelt
 62
     7
370
     0
100
AcDbLine
 10
195.6660499837
 20
128.885832603
 30
0.0
 11
196.5460501652
 21
128.885832603
 31
0.0
  0
LINE
  5
1A9
330
1F
100
AcDbEntity
  8
0
  6
SLD-Gestrichelt
 62
     7
370
     0
100
AcDbLine
 10
195.6660499837
 20
95.0858341408
 30
0.0
 11
196.5460501652
 21
95.0858341408
 31
0.0
  0
LINE
  5
1AA
330
1F
100
AcDbEntity
  8
0
  6
SLD-Gestrichelt
 62
     7
370
     0
100
AcDbLine
 10
200.0560503494
 20
130.8567104739
 30
0.0
 11
200.0560503494
 21
93.3818006766
 31
0.0
  0
ARC
  5
1AB
330
1F
100
AcDbEntity
  8
0
  6
SLD-Gestrichelt
 62
     7
370
     0
100
AcDbCircle
 10
199.4467606926
 20
130.8637499463
 30
0.0
 40
0.6093303209641313
100
AcDbArc
 50
359.3380584991
 51
89.126532193
  0
ARC
  5
1AC
330
1F
100
AcDbEntity
  8
0
  6
SLD-Gestrichelt
 62
     7
370
     0
100
AcDbCircle
 10
199.4431786811
 20
93.3698023868
 30
0.0
 40
0.6129891033281134
100
AcDbArc
 50
271.2031178686
 51
1.1215456616
  0
LWPOLYLINE
  5
1AD
330
1F
100
AcDbEntity
  8
0
  6
SLD-Gestrichelt
 62
     7
370
     0
100
AcDbPolyline
 90
        3
 70
   128
 43
0.0
 10
194.0708899911
 20
131.4730094624
 10
194.1369738471
 20
131.3555175317
 10
195.0660500716
 20
129.69951051
  0
LWPOLYLINE
  5
1AE
330
1F
100
AcDbEntity
  8
0
  6
SLD-Gestrichelt
 62
     7
370
     0
100
AcDbPolyline
 90
        3
 70
   128
 43
0.0
 10
197.146049146
 20
129.69951051
 10
198.0751253705
 20
131.3555175317
 10
198.1412101578
 20
131.4730094624
  0
LINE
  5
1AF
330
1F
100
AcDbEntity
  8
0
  6
SLD-Gestrichelt
 62
     7
370
     0
100
AcDbLine
 10
198.1412101578
 20
131.4730094624
 30
0.0
 11
199.456049506
 21
131.4730094624
 31
0.0
  0
LINE
  5
1B0
330
1F
100
AcDbEntity
  8
0
  6
SLD-Gestrichelt
 62
     7
370
     0
100
AcDbLine
 10
195.0660500716
 20
129.69951051
 30
0.0
 11
195.0660500716
 21
94.5567106706
 31
0.0
  0
LINE
  5
1B1
330
1F
100
AcDbEntity
  8
0
  6
SLD-Gestrichelt
 62
     7
370
     0
100
AcDbLine
 10
197.146049146
 20
129.69951051
 30
0.0
 11
197.146049146
 21
94.5567106706
 31
0.0
  0
LINE
  5
1B2
330
1F
100
AcDbEntity
  8
0
  6
SLD-Gestrichelt
 62
     7
370
     0
100
AcDbLine
 10
198.1412101578
 20
131.4730094624
 30
0.0
 11
198.1412101578
 21
92.7569484216
 31
0.0
  0
ARC
  5
1B3
330
1F
100
AcDbEntity
  8
0
  6
SLD-Gestrichelt
 62
     7
370
     0
100
AcDbCircle
 10
217.8606870992
 20
94.2257575359
 30
0.0
 40
2.839635024530319
100
AcDbArc
 50
125.115024064
 51
154.1750466767
  0
LINE
  5
1B4
330
1F
100
AcDbEntity
  8
0
  6
SLD-Gestrichelt
 62
     7
370
     0
100
AcDbLine
 10
216.2272729021
 20
96.5485758958
 30
0.0
 11
216.5631897788
 21
96.7965982733
 31
0.0
  0
LWPOLYLINE
  5
1B5
330
1F
100
AcDbEntity
  8
0
  6
SLD-Gestrichelt
 62
     7
370
     0
100
AcDbPolyline
 90
        3
 70
   128
 43
0.0
 10
194.0708899911
 20
92.7569484216
 10
195.0102014508
 20
94.4553026808
 10
195.0660500716
 20
94.5567106706
  0
LWPOLYLINE
  5
1B6
330
1F
100
AcDbEntity
  8
0
  6
SLD-Gestrichelt
 62
     7
370
     0
100
AcDbPolyline
 90
        3
 70
   128
 43
0.0
 10
197.146049146
 20
94.5567106706
 10
197.2018986981
 20
94.4553026808
 10
198.1412101578
 20
92.7569484216
  0
LINE
  5
1B7
330
1F
100
AcDbEntity
  8
0
  6
SLD-Gestrichelt
 62
     7
370
     0
100
AcDbLine
 10
198.1412101578
 20
92.7569484216
 30
0.0
 11
199.456049506
 21
92.7569484216
 31
0.0
  0
LINE
  5
1B8
330
1F
100
AcDbEntity
  8
0
  6
SLD-Gestrichelt
 62
     7
370
     0
100
AcDbLine
 10
160.2060500573
 20
100.1673610759
 30
0.0
 11
160.2060500573
 21
100.4383200658
 31
0.0
  0
LINE
  5
1B9
330
1F
100
AcDbEntity
  8
0
  6
SLD-Gestrichelt
 62
     7
370
     0
100
AcDbLine
 10
160.2060500573
 20
123.8597473008
 30
0.0
 11
160.2060500573
 21
123.7640650821
 31
0.0
  0
LWPOLYLINE
  5
1BA
330
1F
100
AcDbEntity
  8
0
  6
SLD-Gestrichelt
 62
     7
370
     0
100
AcDbPolyline
 90
       13
 70
   128
 43
0.0
 10
160.9660204541
 20
124.3739137304
 10
160.8012974303
 20
123.9763460932
 10
160.7188120525
 20
123.8173637417
 10
160.6108475517
 20
123.640110704
 10
160.5576112907
 20
123.5651969788
 10
160.493124653
 20
123.48643596
 10
160.4543257546
 20
123.4462745366
 10
160.4149587493
 20
123.4122011689
 10
160.3834427934
 20
123.3908301098
 10
160.3438764851
 20
123.3737049503
 10
160.2938979905
 20
123.3753999573
 10
160.2225698572
 20
123.5065637035
 10
160.2060500573
 20
123.7640650821
  0
LWPOLYLINE
  5
1BB
330
1F
100
AcDbEntity
  8
0
  6
SLD-Gestrichelt
 62
     7
370
     0
100
AcDbPolyline
 90
       11
 70
   128
 43
0.0
 10
160.2060500573
 20
100.4383200658
 10
160.2310337167
 20
100.6903005642
 10
160.289580379
 20
100.7697060582
 10
160.3413805406
 20
100.7703188685
 10
160.3751316708
 20
100.7560407621
 10
160.4189466726
 20
100.7264107344
 10
160.4624338489
 20
100.6877058995
 10
160.5101622682
 20
100.6368156401
 10
160.5786945712
 20
100.5510389683
 10
160.7179030817
 20
100.3374624876
 10
160.9660204541
 20
99.8188480613
  0
LINE
  5
1BC
330
1F
100
AcDbEntity
  8
0
  6
SLD-Gestrichelt
 62
     7
370
     0
100
AcDbLine
 10
160.2060500573
 20
123.7640650821
 30
0.0
 11
160.2060500573
 21
100.4383200658
 31
0.0
  0
LWPOLYLINE
  5
1BD
330
1F
100
AcDbEntity
  8
0
  6
SLD-Gestrichelt
 62
     7
370
     0
100
AcDbPolyline
 90
       32
 70
   128
 43
0.0
 10
204.1060499888
 20
115.2508149267
 10
204.6092957299
 20
115.2946804528
 10
205.091938753
 20
115.424481674
 10
205.5342201184
 20
115.6349042309
 10
205.91803119
 20
115.9173333896
 10
206.2276605558
 20
116.2602063147
 10
206.4504291903
 20
116.649486578
 10
206.5772213083
 20
117.0692359907
 10
206.6028401297
 20
117.5022702542
 10
206.5262425732
 20
117.9308611778
 10
206.350561608
 20
118.3374617127
 10
206.082988907
 20
118.7054263306
 10
205.734480549
 20
119.0196899575
 10
205.3193043958
 20
119.2673863721
 10
204.8544570845
 20
119.4383757998
 10
204.358971123
 20
119.5256565576
 10
203.8531288546
 20
119.5256565576
 10
203.3576428931
 20
119.4383757998
 10
202.8927955817
 20
119.2673863721
 10
202.4776194286
 20
119.0196899575
 10
202.1291110706
 20
118.7054263306
 10
201.8615383696
 20
118.3374617127
 10
201.6858574044
 20
117.9308611778
 10
201.6092579853
 20
117.5022702542
 10
201.6348786693
 20
117.0692359907
 10
201.7616689246
 20
116.649486578
 10
201.9844394218
 20
116.2602063147
 10
202.294066925
 20
115.9173333896
 10
202.6778798591
 20
115.6349042309
 10
203.1201593619
 20
115.424481674
 10
203.6028042477
 20
115.2946804528
 10
204.1060499888
 20
115.2508149267
  0
LWPOLYLINE
  5
1BE
330
1F
100
AcDbEntity
  8
0
  6
SLD-Gestrichelt
 62
     7
370
     0
100
AcDbPolyline
 90
        3
 70
   128
 43
0.0
 10
216.2605509203
 20
99.9858332676
 10
216.4100207429
 20
98.3748501045
 10
216.5631897788
 20
96.7965982733
  0
ARC
  5
1BF
330
1F
100
AcDbEntity
  8
0
  6
SLD-Gestrichelt
 62
     7
370
     0
100
AcDbCircle
 10
229.8458445858
 20
93.6368289558
 30
0.0
 40
1.650001147485001
100
AcDbArc
 50
217.4348466088
 51
322.5651533912
  0
ELLIPSE
  5
1C0
330
1F
100
AcDbEntity
  8
0
  6
SLD-Gestrichelt
 62
     7
370
     0
100
AcDbEllipse
 10
274.6859693521
 20
106.9858333719
 30
0.0
 11
44.23730811207514
 21
24.44088137389451
 31
0.0
210
0.0
220
0.0
230
1.0
 40
0.1188519716
 41
2.682104478173174
 42
2.703309472400459
  0
ARC
  5
1C1
330
1F
100
AcDbEntity
  8
0
  6
SLD-Gestrichelt
 62
     7
370
     0
100
AcDbCircle
 10
216.2127874534
 20
86.3858882603
 30
0.0
 40
10.41660524184788
100
AcDbArc
 50
56.0838223328
 51
88.0722738179
  0
ELLIPSE
  5
1C2
330
1F
100
AcDbEntity
  8
0
  6
SLD-Gestrichelt
 62
     7
370
     0
100
AcDbEllipse
 10
198.5777021729
 20
106.9858333719
 30
0.0
 11
40.28575363916998
 21
-24.90250970901539
 31
0.0
210
0.0
220
0.0
230
1.0
 40
0.0547507893
 41
0.5618308843408193
 42
0.9838196018574454
  0
ELLIPSE
  5
1C3
330
1F
100
AcDbEntity
  8
0
  6
SLD-Gestrichelt
 62
     7
370
     0
100
AcDbEllipse
 10
234.6349876635
 20
106.9858333719
 30
0.0
 11
-1.33022022293423
 21
24.99946796325215
 31
0.0
210
0.0
220
0.0
230
1.0
 40
0.1226111485
 41
1.848066396549349
 42
2.463690800186471
  0
LWPOLYLINE
  5
1C4
330
1F
100
AcDbEntity
  8
0
  6
SLD-Gestrichelt
 62
     7
370
     0
100
AcDbPolyline
 90
       10
 70
   128
 43
0.0
 10
231.1560198706
 20
92.6338611049
 10
230.7236738544
 20
93.2417409373
 10
230.4305195849
 20
93.5915177566
 10
230.1751099568
 20
93.8007933897
 10
230.0062984269
 20
93.8773108524
 10
229.8475638073
 20
93.9013333869
 10
229.6883411746
 20
93.8781862957
 10
229.4964700978
 20
93.7882671011
 10
229.1391849559
 20
93.4573756409
 10
228.5356693011
 20
92.6338611049
  0
ARC
  5
1C5
330
1F
100
AcDbEntity
  8
0
  6
SLD-Gestrichelt
 62
     7
370
     0
100
AcDbCircle
 10
229.8458432753
 20
93.6368267075
 30
0.0
 40
1.650000000000015
100
AcDbArc
 50
322.5652333268
 51
217.4347666732
  0
CIRCLE
  5
1C6
330
1F
100
AcDbEntity
  8
0
  6
SLD-Gestrichelt
 62
     7
370
     0
100
AcDbCircle
 10
187.1060497802
 20
111.9858333719
 30
0.0
 40
5.0
  0
LINE
  5
1C7
330
1F
100
AcDbEntity
  8
0
  6
SLD-Gestrichelt
 62
     7
370
     0
100
AcDbLine
 10
216.2605509203
 20
99.9858332676
 30
0.0
 11
232.0509687107
 21
99.9858332676
 31
0.0
  0
LWPOLYLINE
  5
1C8
330
1F
100
AcDbEntity
  8
0
  6
SLD-Gestrichelt
 62
     7
370
     0
100
AcDbPolyline
 90
        3
 70
   128
 43
0.0
 10
216.2605509203
 20
99.9858332676
 10
215.6588755589
 20
104.5298511041
 10
215.3046488803
 20
109.1121039232
  0
LINE
  5
1C9
330
1F
100
AcDbEntity
  8
0
  6
SLD-Gestrichelt
 62
     7
370
     0
100
AcDbLine
 10
231.7267380696
 20
106.1725136702
 30
0.0
 11
227.6562064927
 21
111.9858333719
 31
0.0
  0
LINE
  5
1CA
330
1F
100
AcDbEntity
  8
0
  6
SLD-Gestrichelt
 62
     7
370
     0
100
AcDbLine
 10
232.0509687107
 20
99.9858332676
 30
0.0
 11
231.7267380696
 21
106.1725136702
 31
0.0
  0
LWPOLYLINE
  5
1CB
330
1F
100
AcDbEntity
  8
0
  6
SLD-Gestrichelt
 62
     7
370
     0
100
AcDbPolyline
 90
        3
 70
   128
 43
0.0
 10
215.2047477703
 20
111.9858333719
 10
215.3033524793
 20
109.1409544339
 10
215.3046488803
 20
109.1121039232
  0
LINE
  5
1CC
330
1F
100
AcDbEntity
  8
0
  6
SLD-Gestrichelt
 62
     7
370
     0
100
AcDbLine
 10
180.1060497802
 20
95.7786319656
 30
0.0
 11
180.2002105524
 21
96.4486217004
 31
0.0
  0
LINE
  5
1CD
330
1F
100
AcDbEntity
  8
0
  6
SLD-Gestrichelt
 62
     7
370
     0
100
AcDbLine
 10
180.2002105524
 20
127.5230450434
 30
0.0
 11
180.1060497802
 21
128.1930347783
 31
0.0
  0
ARC
  5
1CE
330
1F
100
AcDbEntity
  8
0
  6
SLD-Gestrichelt
 62
     7
370
     0
100
AcDbCircle
 10
179.6060430275
 20
96.5321262184
 30
0.0
 40
0.6000067526677242
100
AcDbArc
 50
352.0
 51
0.0
  0
ARC
  5
1CF
330
1F
100
AcDbEntity
  8
0
  6
SLD-Gestrichelt
 62
     7
370
     0
100
AcDbCircle
 10
179.6060430275
 20
96.5321262184
 30
0.0
 40
0.6000067526677242
100
AcDbArc
 50
0.0
 51
33.5571153394
  0
ARC
  5
1D0
330
1F
100
AcDbEntity
  8
0
  6
SLD-Gestrichelt
 62
     7
370
     0
100
AcDbCircle
 10
179.6060430275
 20
127.4395405254
 30
0.0
 40
0.6000067526677062
100
AcDbArc
 50
348.75
 51
8.0
  0
LWPOLYLINE
  5
1D1
330
1F
100
AcDbEntity
  8
0
  6
SLD-Gestrichelt
 62
     7
370
     0
100
AcDbPolyline
 90
        3
 70
   128
 43
0.0
 10
180.1945208191
 20
127.3224847269
 10
180.1603769873
 20
127.2099278745
 10
180.1060497802
 20
127.1078763408
  0
LINE
  5
1D2
330
1F
100
AcDbEntity
  8
0
  6
SLD-Gestrichelt
 62
     7
370
     0
100
AcDbLine
 10
180.2060497776
 20
96.5321259451
 30
0.0
 11
180.2060497776
 21
127.4395407987
 31
0.0
  0
LINE
  5
1D3
330
1F
100
AcDbEntity
  8
0
  6
SLD-Gestrichelt
 62
     7
370
     0
100
AcDbLine
 10
180.2060497776
 20
96.5321259451
 30
0.0
 11
180.2060497776
 21
127.4395407987
 31
0.0
  0
ARC
  5
1D4
330
1F
100
AcDbEntity
  8
0
  6
SLD-Gestrichelt
 62
     7
370
     0
100
AcDbCircle
 10
169.6386777243
 20
99.6358333719
 30
0.0
 40
0.4000000000000069
100
AcDbArc
 50
210.0
 51
270.0
  0
ARC
  5
1D5
330
1F
100
AcDbEntity
  8
0
  6
SLD-Gestrichelt
 62
     7
370
     0
100
AcDbCircle
 10
169.6386777243
 20
124.3358333719
 30
0.0
 40
0.4000000000000057
100
AcDbArc
 50
90.0
 51
150.0
  0
LINE
  5
1D6
330
1F
100
AcDbEntity
  8
0
  6
SLD-Gestrichelt
 62
     7
370
     0
100
AcDbLine
 10
169.6386778768
 20
99.2358336103
 30
0.0
 11
171.8357386108
 21
99.2358336103
 31
0.0
  0
LINE
  5
1D7
330
1F
100
AcDbEntity
  8
0
  6
SLD-Gestrichelt
 62
     7
370
     0
100
AcDbLine
 10
171.8357386108
 20
124.7358331335
 30
0.0
 11
169.6386778768
 21
124.7358331335
 31
0.0
  0
ARC
  5
1D8
330
1F
100
AcDbEntity
  8
0
  6
SLD-Gestrichelt
 62
     7
370
     0
100
AcDbCircle
 10
175.930226508
 20
104.2358333719
 30
0.0
 40
5.000000000000004
100
AcDbArc
 50
275.4119375774
 51
326.6329870308
  0
ARC
  5
1D9
330
1F
100
AcDbEntity
  8
0
  6
SLD-Gestrichelt
 62
     7
370
     0
100
AcDbCircle
 10
175.930226508
 20
119.7358333719
 30
0.0
 40
4.999999999999987
100
AcDbArc
 50
33.3670129692
 51
84.5874612352
  0
LINE
  5
1DA
330
1F
100
AcDbEntity
  8
0
  6
SLD-Gestrichelt
 62
     7
370
     0
100
AcDbLine
 10
169.2922677886
 20
124.5358334732
 30
0.0
 11
168.1086992886
 21
122.4858332304
 31
0.0
  0
LINE
  5
1DB
330
1F
100
AcDbEntity
  8
0
  6
SLD-Gestrichelt
 62
     7
370
     0
100
AcDbLine
 10
168.1086992886
 20
101.4858335135
 30
0.0
 11
169.2922677886
 21
99.4358332706
 31
0.0
  0
LINE
  5
1DC
330
1F
100
AcDbEntity
  8
0
  6
SLD-Gestrichelt
 62
     7
370
     0
100
AcDbLine
 10
202.4660225999
 20
109.7689517652
 30
0.0
 11
200.5556341302
 21
108.7705425331
 31
0.0
  0
LINE
  5
1DD
330
1F
100
AcDbEntity
  8
0
  6
SLD-Gestrichelt
 62
     7
370
     0
100
AcDbLine
 10
200.5556341302
 20
108.7705425331
 30
0.0
 11
200.3048904281
 21
106.629624485
 31
0.0
  0
LINE
  5
1DE
330
1F
100
AcDbEntity
  8
0
  6
SLD-Gestrichelt
 62
     7
370
     0
100
AcDbLine
 10
204.6155225526
 20
108.5251844366
 30
0.0
 11
202.7541328262
 21
109.8065755674
 31
0.0
  0
LINE
  5
1DF
330
1F
100
AcDbEntity
  8
0
  6
SLD-Gestrichelt
 62
     7
370
     0
100
AcDbLine
 10
208.764551584
 20
105.6689671119
 30
0.0
 11
205.9016156983
 21
107.639829616
 31
0.0
  0
LINE
  5
1E0
330
1F
100
AcDbEntity
  8
0
  6
SLD-Gestrichelt
 62
     7
370
     0
100
AcDbLine
 10
200.3725845408
 20
106.3470630785
 30
0.0
 11
208.9776381891
 21
100.4232922447
 31
0.0
  0
ARC
  5
1E1
330
1F
100
AcDbEntity
  8
0
  6
SLD-Gestrichelt
 62
     7
370
     0
100
AcDbCircle
 10
187.0560497802
 20
102.1108333719
 30
0.0
 40
1.000000000000001
100
AcDbArc
 50
218.6821874535
 51
0.0
  0
ARC
  5
1E2
330
1F
100
AcDbEntity
  8
0
  6
SLD-Gestrichelt
 62
     7
370
     0
100
AcDbCircle
 10
187.0560497802
 20
121.8608333719
 30
0.0
 40
1.00000000000001
100
AcDbArc
 50
0.0
 51
141.3178125465
  0
LINE
  5
1E3
330
1F
100
AcDbEntity
  8
0
  6
SLD-Gestrichelt
 62
     7
370
     0
100
AcDbLine
 10
166.3060499396
 20
101.4858335135
 30
0.0
 11
168.1086992886
 21
101.4858335135
 31
0.0
  0
LINE
  5
1E4
330
1F
100
AcDbEntity
  8
0
  6
SLD-Gestrichelt
 62
     7
370
     0
100
AcDbLine
 10
168.1086992886
 20
122.4858332304
 30
0.0
 11
163.8060495298
 21
122.4858332304
 31
0.0
  0
LINE
  5
1E5
330
1F
100
AcDbEntity
  8
0
  6
SLD-Gestrichelt
 62
     7
370
     0
100
AcDbLine
 10
180.1060497802
 20
101.4858335135
 30
0.0
 11
186.2754248124
 21
101.4858335135
 31
0.0
  0
LINE
  5
1E6
330
1F
100
AcDbEntity
  8
0
  6
SLD-Gestrichelt
 62
     7
370
     0
100
AcDbLine
 10
186.2754248124
 20
122.4858332304
 30
0.0
 11
180.1060497802
 21
122.4858332304
 31
0.0
  0
LINE
  5
1E7
330
1F
100
AcDbEntity
  8
0
  6
SLD-Gestrichelt
 62
     7
370
     0
100
AcDbLine
 10
206.2060501467
 20
107.0984420245
 30
0.0
 11
206.2060501467
 21
111.5578831983
 31
0.0
  0
LINE
  5
1E8
330
1F
100
AcDbEntity
  8
0
  6
SLD-Gestrichelt
 62
     7
370
     0
100
AcDbLine
 10
202.0060498308
 20
110.7063164114
 30
0.0
 11
202.0060498308
 21
107.199593435
 31
0.0
  0
LINE
  5
1E9
330
1F
100
AcDbEntity
  8
0
  6
SLD-Gestrichelt
 62
     7
370
     0
100
AcDbLine
 10
193.4060495388
 20
105.7358332788
 30
0.0
 11
195.9060490172
 21
105.7358332788
 31
0.0
  0
LINE
  5
1EA
330
1F
100
AcDbEntity
  8
0
  6
SLD-Gestrichelt
 62
     7
370
     0
100
AcDbLine
 10
195.9060490172
 20
118.2358334651
 30
0.0
 11
193.4060495388
 21
118.2358334651
 31
0.0
  0
LINE
  5
1EB
330
1F
100
AcDbEntity
  8
0
  6
SLD-Gestrichelt
 62
     7
370
     0
100
AcDbLine
 10
188.0560502451
 20
105.9858333198
 30
0.0
 11
188.5560493957
 21
106.4858334017
 31
0.0
  0
LINE
  5
1EC
330
1F
100
AcDbEntity
  8
0
  6
SLD-Gestrichelt
 62
     7
370
     0
100
AcDbLine
 10
188.5560493957
 20
117.4858333421
 30
0.0
 11
188.0560502451
 21
117.9858334241
 31
0.0
  0
LINE
  5
1ED
330
1F
100
AcDbEntity
  8
0
  6
SLD-Gestrichelt
 62
     7
370
     0
100
AcDbLine
 10
188.5560493957
 20
106.4858334017
 30
0.0
 11
193.4060495388
 21
106.4858334017
 31
0.0
  0
LINE
  5
1EE
330
1F
100
AcDbEntity
  8
0
  6
SLD-Gestrichelt
 62
     7
370
     0
100
AcDbLine
 10
193.4060495388
 20
117.4858333421
 30
0.0
 11
188.5560493957
 21
117.4858333421
 31
0.0
  0
LINE
  5
1EF
330
1F
100
AcDbEntity
  8
0
  6
SLD-Gestrichelt
 62
     7
370
     0
100
AcDbLine
 10
188.0560502451
 20
131.9858329249
 30
0.0
 11
188.0560502451
 21
128.885832603
 31
0.0
  0
LINE
  5
1F0
330
1F
100
AcDbEntity
  8
0
  6
SLD-Gestrichelt
 62
     7
370
     0
100
AcDbLine
 10
176.8732291222
 20
96.9445286197
 30
0.0
 11
176.40530053
 21
97.4403656897
 31
0.0
  0
LINE
  5
1F1
330
1F
100
AcDbEntity
  8
0
  6
SLD-Gestrichelt
 62
     7
370
     0
100
AcDbLine
 10
171.8073956709
 20
97.7202188102
 30
0.0
 11
171.2899221148
 21
97.2243938473
 31
0.0
  0
LINE
  5
1F2
330
1F
100
AcDbEntity
  8
0
  6
SLD-Gestrichelt
 62
     7
370
     0
100
AcDbLine
 10
171.2892878842
 20
126.7473231879
 30
0.0
 11
171.8069737818
 21
126.2514358265
 31
0.0
  0
LINE
  5
1F3
330
1F
100
AcDbEntity
  8
0
  6
SLD-Gestrichelt
 62
     7
370
     0
100
AcDbLine
 10
176.404614611
 20
126.5310831246
 30
0.0
 11
176.872518523
 21
127.0269770053
 31
0.0
  0
LINE
  5
1F4
330
1F
100
AcDbEntity
  8
0
  6
SLD-Gestrichelt
 62
     7
370
     0
100
AcDbLine
 10
205.2060499828
 20
109.4858334278
 30
0.0
 11
206.7082006525
 21
111.9858333719
 31
0.0
  0
LINE
  5
1F5
330
1F
100
AcDbEntity
  8
0
  6
SLD-Gestrichelt
 62
     7
370
     0
100
AcDbLine
 10
206.7082006525
 20
111.9858333719
 30
0.0
 11
205.2060499828
 21
114.485833316
 31
0.0
  0
LINE
  5
1F6
330
1F
100
AcDbEntity
  8
0
  6
SLD-Gestrichelt
 62
     7
370
     0
100
AcDbLine
 10
195.9060490172
 20
109.4858334278
 30
0.0
 11
205.2060499828
 21
109.4858334278
 31
0.0
  0
LINE
  5
1F7
330
1F
100
AcDbEntity
  8
0
  6
SLD-Gestrichelt
 62
     7
370
     0
100
AcDbLine
 10
205.2060499828
 20
114.485833316
 30
0.0
 11
195.9060490172
 21
114.485833316
 31
0.0
  0
LINE
  5
1F8
330
1F
100
AcDbEntity
  8
0
  6
SLD-Gestrichelt
 62
     7
370
     0
100
AcDbLine
 10
176.4060497791
 20
97.4406096963
 30
0.0
 11
176.4060497791
 21
99.258978839
 31
0.0
  0
LINE
  5
1F9
330
1F
100
AcDbEntity
  8
0
  6
SLD-Gestrichelt
 62
     7
370
     0
100
AcDbLine
 10
171.8060499098
 20
99.2411337671
 30
0.0
 11
171.8060499098
 21
97.7272270126
 31
0.0
  0
LINE
  5
1FA
330
1F
100
AcDbEntity
  8
0
  6
SLD-Gestrichelt
 62
     7
370
     0
100
AcDbLine
 10
176.4060497791
 20
124.7126879049
 30
0.0
 11
176.4060497791
 21
126.5308726457
 31
0.0
  0
LINE
  5
1FB
330
1F
100
AcDbEntity
  8
0
  6
SLD-Gestrichelt
 62
     7
370
     0
100
AcDbLine
 10
171.8060499098
 20
126.2503340719
 30
0.0
 11
171.8060499098
 21
124.7305329767
 31
0.0
  0
LINE
  5
1FC
330
1F
100
AcDbEntity
  8
0
  6
SLD-Gestrichelt
 62
     7
370
     0
100
AcDbLine
 10
206.2060501467
 20
112.4075896683
 30
0.0
 11
206.2060501467
 21
117.2699467157
 31
0.0
  0
LINE
  5
1FD
330
1F
100
AcDbEntity
  8
0
  6
SLD-Gestrichelt
 62
     7
370
     0
100
AcDbLine
 10
202.0060498308
 20
117.2699467157
 30
0.0
 11
202.0060498308
 21
113.2653503324
 31
0.0
  0
ARC
  5
1FE
330
1F
100
AcDbEntity
  8
0
  6
SLD-Gestrichelt
 62
     7
370
     0
100
AcDbCircle
 10
162.9060497802
 20
125.7658333719
 30
0.0
 40
0.9000000000000206
100
AcDbArc
 50
270.0
 51
311.1792132368
  0
ARC
  5
1FF
330
1F
100
AcDbEntity
  8
0
  6
SLD-Gestrichelt
 62
     7
370
     0
100
AcDbCircle
 10
165.4060497802
 20
98.2648333719
 30
0.0
 40
0.9000000000000057
100
AcDbArc
 50
29.8499024808
 51
90.0
  0
LINE
  5
200
330
1F
100
AcDbEntity
  8
0
  6
SLD-Gestrichelt
 62
     7
370
     0
100
AcDbLine
 10
162.906049196
 20
124.8658336577
 30
0.0
 11
161.1560493749
 21
124.8658336577
 31
0.0
  0
LINE
  5
201
330
1F
100
AcDbEntity
  8
0
  6
SLD-Gestrichelt
 62
     7
370
     0
100
AcDbLine
 10
161.1560493749
 20
124.8658336577
 30
0.0
 11
160.2060500573
 21
123.9158334089
 31
0.0
  0
LINE
  5
202
330
1F
100
AcDbEntity
  8
0
  6
SLD-Gestrichelt
 62
     7
370
     0
100
AcDbLine
 10
161.1560493749
 20
99.1648333025
 30
0.0
 11
165.4060496058
 21
99.1648333025
 31
0.0
  0
LINE
  5
203
330
1F
100
AcDbEntity
  8
0
  6
SLD-Gestrichelt
 62
     7
370
     0
100
AcDbLine
 10
160.2060500573
 20
100.1148335514
 30
0.0
 11
161.1560493749
 21
99.1648333025
 31
0.0
  0
LINE
  5
204
330
1F
100
AcDbEntity
  8
0
  6
SLD-Gestrichelt
 62
     7
370
     0
100
AcDbLine
 10
206.6060494672
 20
117.3937329901
 30
0.0
 11
206.6060494672
 21
120.4837392894
 31
0.0
  0
LINE
  5
205
330
1F
100
AcDbEntity
  8
0
  6
SLD-Gestrichelt
 62
     7
370
     0
100
AcDbLine
 10
201.6060505103
 20
120.4815581319
 30
0.0
 11
201.6060505103
 21
117.3937329901
 31
0.0
  0
DIMENSION
  5
206
330
1F
100
AcDbEntity
  8
VERMASSUNG
100
AcDbDimension
  2
_D
 10
156.2758796457
 20
91.9858333719
 30
0.0
 11
156.2758796457
 21
111.9858333719
 31
0.0
 70
   160
  1
HSK %%c<>
 71
     2
 42
-1.0
  3
SLDDIMSTYLE0
100
AcDbAlignedDimension
 13
180.4060497802
 23
131.9858333719
 33
0.0
 14
180.4060497802
 24
91.9858333719
 34
0.0
 50
90.0
100
AcDbRotatedDimension
  0
DIMENSION
  5
213
330
1F
100
AcDbEntity
  8
VERMASSUNG
100
AcDbDimension
  2
_D_1
 10
235.1060497802
 20
141.9858333719
 30
0.0
 11
197.6560497802
 21
141.9858333719
 31
0.0
 70
   160
  1
<>
 71
     2
 42
-1.0
  3
SLDDIMSTYLE0
100
AcDbAlignedDimension
 13
160.2060497802
 23
123.9158333719
 33
0.0
 14
235.1060497802
 24
84.9858333719
 34
0.0
100
AcDbRotatedDimension
  0
DIMENSION
  5
21D
330
1F
100
AcDbEntity
  8
VERMASSUNG
100
AcDbDimension
  2
_D_2
 10
235.1060497802
 20
135.9858333719
 30
0.0
 11
207.6060497802
 21
135.9858333719
 31
0.0
 70
   160
  1
<>
 71
     2
 42
-1.0
  3
SLDDIMSTYLE0
100
AcDbAlignedDimension
 13
180.1060497802
 23
131.6858333719
 33
0.0
 14
235.1060497802
 24
84.9858333719
 34
0.0
100
AcDbRotatedDimension
  0
DIMENSION
  5
227
330
1F
100
AcDbEntity
  8
VERMASSUNG
100
AcDbDimension
  2
_D_3
 10
244.1400276303
 20
84.9858333719
 30
0.0
 11
244.1400276303
 21
98.4858333719
 31
0.0
 70
   160
  1
<>
 71
     2
 42
-1.0
  3
SLDDIMSTYLE0
100
AcDbAlignedDimension
 13
232.4085963003
 23
111.9858333719
 33
0.0
 14
235.1060497802
 24
84.9858333719
 34
0.0
 50
90.0
100
AcDbRotatedDimension
  0
DIMENSION
  5
231
330
1F
100
AcDbEntity
  8
VERMASSUNG
100
AcDbDimension
  2
_D_4
 10
234.2943236134
 20
96.3596758948
 30
0.0
 11
229.0847528611
 21
104.734397951
 31
0.0
 70
   162
  1
<>
 71
     1
 42
-1.0
  3
SLDDIMSTYLE1
100
AcDb2LineAngularDimension
 13
235.1060497802
 23
111.9858333719
 33
0.0
 14
235.1060497802
 24
84.9858333719
 34
0.0
 15
233.7436583649
 25
106.8669947698
 35
0.0
 16
234.4618006089
 26
105.4739012093
 36
0.0
  0
LINE
  5
23C
330
1F
100
AcDbEntity
  8
VERMASSUNG
  6
SLD-Punktstrich
370
     0
100
AcDbLine
 10
158.0562568009
 20
111.9858333719
 30
0.0
 11
232.4085963003
 21
111.9858333719
 31
0.0
  0
ARC
  5
23D
330
1F
100
AcDbEntity
  8
0
  6
SLD-Durchgehend
 62
     7
370
    15
100
AcDbCircle
 10
92.4598603144
 20
44.4551823424
 30
0.0
 40
41.46020163838166
100
AcDbArc
 50
96.5823047909
 51
102.2460851163
  0
LINE
  5
23E
330
1F
100
AcDbEntity
  8
0
  6
SLD-Durchgehend
 62
     7
370
    15
100
AcDbLine
 10
84.0039173157
 20
102.0215991763
 30
0.0
 11
83.6656996392
 21
102.0806534094
 31
0.0
  0
LINE
  5
23F
330
1F
100
AcDbEntity
  8
0
  6
SLD-Durchgehend
 62
     7
370
    15
100
AcDbLine
 10
87.673917263
 20
85.7394309593
 30
0.0
 11
87.673917263
 21
95.9208560986
 31
0.0
  0
LINE
  5
240
330
1F
100
AcDbEntity
  8
0
  6
SLD-Durchgehend
 62
     7
370
    15
100
AcDbLine
 10
83.7039173014
 20
85.3980881972
 30
0.0
 11
83.7039173014
 21
96.044984634
 31
0.0
  0
LINE
  5
241
330
1F
100
AcDbEntity
  8
0
  6
SLD-Durchgehend
 62
     7
370
    15
100
AcDbLine
 10
87.673917263
 20
85.7394309593
 30
0.0
 11
87.673917263
 21
85.6347111863
 31
0.0
  0
LINE
  5
242
330
1F
100
AcDbEntity
  8
0
  6
SLD-Durchgehend
 62
     7
370
    15
100
AcDbLine
 10
83.7039173014
 20
85.3980881972
 30
0.0
 11
83.7039173014
 21
84.9834130955
 31
0.0
  0
LINE
  5
243
330
1F
100
AcDbEntity
  8
0
  6
SLD-Durchgehend
 62
     7
370
    15
100
AcDbLine
 10
87.673917263
 20
95.9998341155
 30
0.0
 11
87.673917263
 21
95.9208560986
 31
0.0
  0
LINE
  5
244
330
1F
100
AcDbEntity
  8
0
  6
SLD-Durchgehend
 62
     7
370
    15
100
AcDbLine
 10
83.7039173014
 20
96.044984634
 30
0.0
 11
83.7039173014
 21
96.36088832
 31
0.0
  0
LINE
  5
245
330
1F
100
AcDbEntity
  8
0
  6
SLD-Durchgehend
 62
     7
370
    15
100
AcDbLine
 10
87.673917263
 20
95.9998341155
 30
0.0
 11
87.673917263
 21
96.1018362892
 31
0.0
  0
LINE
  5
246
330
1F
100
AcDbEntity
  8
0
  6
SLD-Durchgehend
 62
     7
370
    15
100
AcDbLine
 10
83.7039173014
 20
96.36088832
 30
0.0
 11
83.7039173014
 21
102.0106263337
 31
0.0
  0
LINE
  5
247
330
1F
100
AcDbEntity
  8
0
  6
SLD-Durchgehend
 62
     7
370
    15
100
AcDbLine
 10
83.7039173014
 20
102.0106263337
 30
0.0
 11
83.7039173014
 21
102.0666938153
 31
0.0
  0
LINE
  5
248
330
1F
100
AcDbEntity
  8
0
  6
SLD-Durchgehend
 62
     7
370
    15
100
AcDbLine
 10
87.673917263
 20
96.3263669861
 30
0.0
 11
86.1739172499
 21
96.2072210265
 31
0.0
  0
LINE
  5
249
330
1F
100
AcDbEntity
  8
0
  6
SLD-Durchgehend
 62
     7
370
    15
100
AcDbLine
 10
84.0039173157
 20
96.3596766693
 30
0.0
 11
84.0039173157
 21
106.8669948605
 31
0.0
  0
LINE
  5
24A
330
1F
100
AcDbEntity
  8
0
  6
SLD-Durchgehend
 62
     7
370
    15
100
AcDbLine
 10
100.7039182253
 20
106.1725136702
 30
0.0
 11
84.0039173157
 21
106.8669948605
 31
0.0
  0
LINE
  5
24B
330
1F
100
AcDbEntity
  8
0
  6
SLD-Durchgehend
 62
     7
370
    15
100
AcDbLine
 10
100.7039182253
 20
99.9858332676
 30
0.0
 11
100.7039182253
 21
106.1725136702
 31
0.0
  0
ARC
  5
24C
330
1F
100
AcDbEntity
  8
0
  6
SLD-Durchgehend
 62
     7
370
    15
100
AcDbCircle
 10
76.7039173014
 20
106.9858333719
 30
0.0
 40
25.00000000000002
100
AcDbArc
 50
308.467115198
 51
343.7397952917
  0
LINE
  5
24D
330
1F
100
AcDbEntity
  8
0
  6
SLD-Durchgehend
 62
     7
370
    15
100
AcDbLine
 10
87.673917263
 20
86.4661773545
 30
0.0
 11
92.2555512182
 21
87.4117007357
 31
0.0
  0
LINE
  5
24E
330
1F
100
AcDbEntity
  8
0
  6
SLD-Durchgehend
 62
     7
370
    15
100
AcDbLine
 10
87.673917263
 20
96.3263669861
 30
0.0
 11
87.673917263
 21
96.1018362892
 31
0.0
  0
LINE
  5
24F
330
1F
100
AcDbEntity
  8
0
  6
SLD-Durchgehend
 62
     7
370
    15
100
AcDbLine
 10
87.673917263
 20
95.9998341155
 30
0.0
 11
87.673917263
 21
95.9978019697
 31
0.0
  0
ARC
  5
250
330
1F
100
AcDbEntity
  8
0
  6
SLD-Durchgehend
 62
     7
370
    15
100
AcDbCircle
 10
76.7039173014
 20
106.9858333719
 30
0.0
 40
25.00000000000002
100
AcDbArc
 50
307.2521585242
 51
308.467115198
  0
LINE
  5
251
330
1F
100
AcDbEntity
  8
0
  6
SLD-Durchgehend
 62
     7
370
    15
100
AcDbLine
 10
91.8370167158
 20
87.0863525075
 30
0.0
 11
87.673917263
 21
86.2272037071
 31
0.0
  0
LINE
  5
252
330
1F
100
AcDbEntity
  8
0
  6
SLD-Durchgehend
 62
     7
370
    15
100
AcDbLine
 10
100.7039182253
 20
106.1725136702
 30
0.0
 11
100.7039182253
 21
111.9858333719
 31
0.0
  0
ARC
  5
253
330
1F
100
AcDbEntity
  8
0
  6
SLD-Durchgehend
 62
     7
370
    15
100
AcDbCircle
 10
83.7039173014
 20
111.9858333719
 30
0.0
 40
17.0
100
AcDbArc
 50
0.0
 51
88.9888455219
  0
LINE
  5
254
330
1F
100
AcDbEntity
  8
0
  6
SLD-Durchgehend
 62
     7
370
    15
100
AcDbLine
 10
84.0039173157
 20
106.8669948605
 30
0.0
 11
84.0039173157
 21
128.9831856144
 31
0.0
  0
ARC
  5
255
330
1F
100
AcDbEntity
  8
0
  6
SLD-Durchgehend
 62
     7
370
    15
100
AcDbCircle
 10
83.7039290504
 20
111.9857347614
 30
0.0
 40
16.50009887708291
100
AcDbArc
 50
88.9582481483
 51
96.6946711694
  0
ARC
  5
256
330
1F
100
AcDbEntity
  8
0
  6
SLD-Durchgehend
 62
     7
370
    15
100
AcDbCircle
 10
83.6513383733
 20
111.2858833906
 30
0.0
 40
15.79871994917464
100
AcDbArc
 50
263.198784678
 51
270.1906835638
  0
ELLIPSE
  5
257
330
1F
100
AcDbEntity
  8
0
  6
SLD-Durchgehend
 62
     7
370
    15
100
AcDbEllipse
 10
75.6629551772
 20
103.0461300004
 30
0.0
 11
-1.721753363541126
 21
2.36836082093599
 31
0.0
210
0.0
220
0.0
230
1.0
 40
0.7016899908
 41
0.0
 42
6.283185307179586
  0
ARC
  5
258
330
1F
100
AcDbEntity
  8
0
  6
SLD-Durchgehend
 62
     7
370
    15
100
AcDbCircle
 10
83.7039173014
 20
111.9858333719
 30
0.0
 40
16.50000000000001
100
AcDbArc
 50
96.6946705528
 51
263.3053294472
  0
LWPOLYLINE
  5
259
330
1F
100
AcDbEntity
  8
0
  6
SLD-Durchgehend
 62
     7
370
    15
100
AcDbPolyline
 90
        3
 70
   128
 43
0.0
 10
74.8511542
 20
104.390859126
 10
74.508041925
 20
104.9178177369
 10
74.4875416524
 20
104.9960111146
  0
ARC
  5
25A
330
1F
100
AcDbEntity
  8
0
  6
SLD-Durchgehend
 62
     7
370
    15
100
AcDbCircle
 10
74.5779308999
 20
105.7978863544
 30
0.0
 40
0.8069536023278998
100
AcDbArc
 50
263.5686340703
 51
346.2662560041
  0
LWPOLYLINE
  5
25B
330
1F
100
AcDbEntity
  8
0
  6
SLD-Durchgehend
 62
     7
370
    15
100
AcDbPolyline
 90
        9
 70
   128
 43
0.0
 10
76.3638749152
 20
105.1540127834
 10
76.3085608735
 20
105.0934828696
 10
76.0011536434
 20
104.9403194216
 10
75.6175339587
 20
104.8233616044
 10
75.4234491281
 20
104.7706240666
 10
75.2591377489
 20
104.7111214017
 10
75.1413878418
 20
104.6470329044
 10
75.0363896034
 20
104.5681862039
 10
74.8511542
 20
104.390859126
  0
LWPOLYLINE
  5
25C
330
1F
100
AcDbEntity
  8
0
  6
SLD-Durchgehend
 62
     7
370
    15
100
AcDbPolyline
 90
        9
 70
   128
 43
0.0
 10
74.4875416524
 20
104.9960111146
 10
74.5465902976
 20
104.8977379565
 10
74.602247066
 20
104.8051100102
 10
74.654241874
 20
104.7185771045
 10
74.7023223333
 20
104.6385574033
 10
74.7462556131
 20
104.5654392679
 10
74.7858303032
 20
104.4995770668
 10
74.8208526887
 20
104.4412893121
 10
74.8511542
 20
104.390859126
  0
LINE
  5
25D
330
1F
100
AcDbEntity
  8
0
  6
SLD-Durchgehend
 62
     7
370
    15
100
AcDbLine
 10
79.2039174951
 20
128.885832603
 30
0.0
 11
79.2039174951
 21
128.8973679644
 31
0.0
  0
LINE
  5
25E
330
1F
100
AcDbEntity
  8
0
  6
SLD-Durchgehend
 62
     7
370
    15
100
AcDbLine
 10
88.2039171077
 20
128.885832603
 30
0.0
 11
85.1177331891
 21
128.885832603
 31
0.0
  0
LINE
  5
25F
330
1F
100
AcDbEntity
  8
0
  6
SLD-Durchgehend
 62
     7
370
    15
100
AcDbLine
 10
84.0039173157
 20
128.885832603
 30
0.0
 11
79.2039174951
 21
128.885832603
 31
0.0
  0
LINE
  5
260
330
1F
100
AcDbEntity
  8
0
  6
SLD-Durchgehend
 62
     7
370
    15
100
AcDbLine
 10
88.2039171077
 20
128.8973679644
 30
0.0
 11
88.2039171077
 21
128.885832603
 31
0.0
  0
LINE
  5
261
330
1F
100
AcDbEntity
  8
0
  6
SLD-Durchgehend
 62
     7
370
    15
100
AcDbLine
 10
83.7039173014
 20
95.0858341408
 30
0.0
 11
79.1607907407
 21
95.0858341408
 31
0.0
  0
LINE
  5
262
330
1F
100
AcDbEntity
  8
0
  6
SLD-Durchgehend
 62
     7
370
    15
100
AcDbLine
 10
70.8265144743
 20
123.835833731
 30
0.0
 11
71.8539169423
 21
123.835833731
 31
0.0
  0
LINE
  5
263
330
1F
100
AcDbEntity
  8
0
  6
SLD-Durchgehend
 62
     7
370
    15
100
AcDbLine
 10
71.8539169423
 20
124.8632361991
 30
0.0
 11
71.8539169423
 21
123.835833731
 31
0.0
  0
LINE
  5
264
330
1F
100
AcDbEntity
  8
0
  6
SLD-Durchgehend
 62
     7
370
    15
100
AcDbLine
 10
79.2039174951
 20
130.8567104739
 30
0.0
 11
79.2039174951
 21
131.4730094624
 31
0.0
  0
ARC
  5
265
330
1F
100
AcDbEntity
  8
0
  6
SLD-Durchgehend
 62
     7
370
    15
100
AcDbCircle
 10
83.7039173014
 20
111.9858333719
 30
0.0
 40
19.99999999999999
100
AcDbArc
 50
103.0028781629
 51
126.3346172154
  0
LINE
  5
266
330
1F
100
AcDbEntity
  8
0
  6
SLD-Durchgehend
 62
     7
370
    15
100
AcDbLine
 10
71.8539169423
 20
128.0972426635
 30
0.0
 11
71.8539169423
 21
127.3460909602
 31
0.0
  0
LINE
  5
267
330
1F
100
AcDbEntity
  8
0
  6
SLD-Durchgehend
 62
     7
370
    15
100
AcDbLine
 10
78.2039173312
 20
93.3818006766
 30
0.0
 11
78.2039173312
 21
92.7569484216
 31
0.0
  0
ARC
  5
268
330
1F
100
AcDbEntity
  8
0
  6
SLD-Durchgehend
 62
     7
370
    15
100
AcDbCircle
 10
83.7039173014
 20
111.9858333719
 30
0.0
 40
20.0
100
AcDbArc
 50
143.6653827846
 51
254.0379858372
  0
LINE
  5
269
330
1F
100
AcDbEntity
  8
0
  6
SLD-Durchgehend
 62
     7
370
    15
100
AcDbLine
 10
67.5925080098
 20
123.835833731
 30
0.0
 11
68.3436597131
 21
123.835833731
 31
0.0
  0
LINE
  5
26A
330
1F
100
AcDbEntity
  8
0
  6
SLD-Durchgehend
 62
     7
370
    15
100
AcDbLine
 10
88.2039171077
 20
131.4730094624
 30
0.0
 11
88.2039171077
 21
130.8567104739
 31
0.0
  0
ARC
  5
26B
330
1F
100
AcDbEntity
  8
0
  6
SLD-Durchgehend
 62
     7
370
    15
100
AcDbCircle
 10
83.7039173014
 20
111.9858333719
 30
0.0
 40
20.0
100
AcDbArc
 50
328.2116693829
 51
76.9971218371
  0
LINE
  5
26C
330
1F
100
AcDbEntity
  8
0
  6
SLD-Durchgehend
 62
     7
370
    15
100
AcDbLine
 10
88.2039171077
 20
130.8567104739
 30
0.0
 11
88.2039171077
 21
128.8973679644
 31
0.0
  0
LINE
  5
26D
330
1F
100
AcDbEntity
  8
0
  6
SLD-Durchgehend
 62
     7
370
    15
100
AcDbLine
 10
78.2039173312
 20
95.0858341408
 30
0.0
 11
78.2039173312
 21
93.3818006766
 31
0.0
  0
LINE
  5
26E
330
1F
100
AcDbEntity
  8
0
  6
SLD-Durchgehend
 62
     7
370
    15
100
AcDbLine
 10
79.1607907407
 20
95.0858341408
 30
0.0
 11
78.2039173312
 21
95.0858341408
 31
0.0
  0
LINE
  5
26F
330
1F
100
AcDbEntity
  8
0
  6
SLD-Durchgehend
 62
     7
370
    15
100
AcDbLine
 10
68.3436597131
 20
123.835833731
 30
0.0
 11
70.8265144743
 21
123.835833731
 31
0.0
  0
LINE
  5
270
330
1F
100
AcDbEntity
  8
0
  6
SLD-Durchgehend
 62
     7
370
    15
100
AcDbLine
 10
79.2039174951
 20
128.8973679644
 30
0.0
 11
79.2039174951
 21
130.8567104739
 31
0.0
  0
LINE
  5
271
330
1F
100
AcDbEntity
  8
0
  6
SLD-Durchgehend
 62
     7
370
    15
100
AcDbLine
 10
71.8539169423
 20
127.3460909602
 30
0.0
 11
71.8539169423
 21
124.8632361991
 31
0.0
  0
ARC
  5
272
330
1F
100
AcDbEntity
  8
0
  6
SLD-Durchgehend
 62
     7
370
    15
100
AcDbCircle
 10
83.7001117355
 20
111.9896389379
 30
0.0
 40
19.9946800139612
100
AcDbArc
 50
126.3322940084
 51
143.6677059916
  0
ARC
  5
273
330
1F
100
AcDbEntity
  8
0
  6
SLD-Durchgehend
 62
     7
370
    15
100
AcDbCircle
 10
83.7051673808
 20
111.9933871854
 30
0.0
 40
20.00760676394768
100
AcDbArc
 50
254.0404931874
 51
267.1315220815
  0
ARC
  5
274
330
1F
100
AcDbEntity
  8
0
  6
SLD-Durchgehend
 62
     7
370
    15
100
AcDbCircle
 10
83.7039173014
 20
111.9837388226
 30
0.0
 40
20.00204160398591
100
AcDbArc
 50
76.9984728682
 51
103.0015271318
  0
ARC
  5
275
330
1F
100
AcDbEntity
  8
0
  6
SLD-Durchgehend
 62
     7
370
    15
100
AcDbCircle
 10
83.7039173014
 20
111.9858333719
 30
0.0
 40
20.0
100
AcDbArc
 50
267.1340160174
 51
270.0
  0
CIRCLE
  5
276
330
1F
100
AcDbEntity
  8
VERMASSUNG
  6
SLD-Punktstrich
100
AcDbCircle
 10
83.7039173014
 20
109.9803170561
 30
0.0
 40
25.0
  0
POINT
  5
277
330
1F
100
AcDbEntity
  8
VERMASSUNG
100
AcDbPoint
 10
83.7039173014
 20
84.9803170561
 30
0.0
  0
DIMENSION
  5
278
330
1F
100
AcDbEntity
  8
VERMASSUNG
100
AcDbDimension
  2
_D_5
 10
53.7039173014
 20
134.9803170561
 30
0.0
 11
53.7039173014
 21
109.9803170561
 31
0.0
 70
   160
  1
%%c<>
 71
     2
 42
-1.0
  3
SLDDIMSTYLE0
100
AcDbAlignedDimension
 13
83.7039173014
 23
84.9803170561
 33
0.0
 14
83.7039173014
 24
134.9803170561
 34
0.0
 50
90.0
100
AcDbRotatedDimension
  0
INSERT
  5
28E
330
1F
100
AcDbEntity
  8
VERMASSUNG
100
AcDbBlockReference
  2
SW_CENTERMARKSYMBOL_0
 10
83.7039173014
 20
111.9858333719
 30
0.0
  0
INSERT
  5
29A
330
1F
100
AcDbEntity
  8
VERMASSUNG
100
AcDbBlockReference
  2
SW_CENTERMARKSYMBOL_1
 10
83.7039173014
 20
111.9858333719
 30
0.0
  0
OLE2FRAME
  5
29B
330
1F
100
AcDbEntity
  8
0
100
AcDbOle2Frame
 70
     2
  3
Paintbrush-Bild
 10
13.8511154363
 20
38.264191557
 30
0.0
 11
51.6290888628
 21
31.9806341108
 31
0.0
 71
     2
 72
     0
 73
     1
 90
    12928
310
80552BED0767C5B32B40DDAF6807D121434000000000000000006FFBDDFB85D0
310
4940DDAF6807D121434000000000000000006FFBDDFB85D04940416F4BD60AFB
310
3F4000000000000000002BED0767C5B32B40416F4BD60AFB3F40000000000000
310
0000000000000100000000010000010000000100000000000100000000320000
310
D0CF11E0A1B11AE1000000000000000000000000000000003E000300FEFF0900
310
0600000000000000000000000100000001000000000000000010000002000000
310
01000000FEFFFFFF0000000000000000FFFFFFFFFFFFFFFFFFFFFFFFFFFFFFFF
310
FFFFFFFFFFFFFFFFFFFFFFFFFFFFFFFFFFFFFFFFFFFFFFFFFFFFFFFFFFFFFFFF
310
FFFFFFFFFFFFFFFFFFFFFFFFFFFFFFFFFFFFFFFFFFFFFFFFFFFFFFFFFFFFFFFF
310
FFFFFFFFFFFFFFFFFFFFFFFFFFFFFFFFFFFFFFFFFFFFFFFFFFFFFFFFFFFFFFFF
310
FFFFFFFFFFFFFFFFFFFFFFFFFFFFFFFFFFFFFFFFFFFFFFFFFFFFFFFFFFFFFFFF
310
FFFFFFFFFFFFFFFFFFFFFFFFFFFFFFFFFFFFFFFFFFFFFFFFFFFFFFFFFFFFFFFF
310
FFFFFFFFFFFFFFFFFFFFFFFFFFFFFFFFFFFFFFFFFFFFFFFFFFFFFFFFFFFFFFFF
310
FFFFFFFFFFFFFFFFFFFFFFFFFFFFFFFFFFFFFFFFFFFFFFFFFFFFFFFFFFFFFFFF
310
FFFFFFFFFFFFFFFFFFFFFFFFFFFFFFFFFFFFFFFFFFFFFFFFFFFFFFFFFFFFFFFF
310
FFFFFFFFFFFFFFFFFFFFFFFFFFFFFFFFFFFFFFFFFFFFFFFFFFFFFFFFFFFFFFFF
310
FFFFFFFFFFFFFFFFFFFFFFFFFFFFFFFFFFFFFFFFFFFFFFFFFFFFFFFFFFFFFFFF
310
FFFFFFFFFFFFFFFFFFFFFFFFFFFFFFFFFFFFFFFFFFFFFFFFFFFFFFFFFFFFFFFF
310
FFFFFFFFFFFFFFFFFFFFFFFFFFFFFFFFFFFFFFFFFFFFFFFFFFFFFFFFFFFFFFFF
310
FFFFFFFFFFFFFFFFFFFFFFFFFFFFFFFFFFFFFFFFFFFFFFFFFFFFFFFFFFFFFFFF
310
FDFFFFFFFEFFFFFFFEFFFFFFFEFFFFFF05000000060000000700000008000000
310
090000000A0000000B0000000C0000000D0000000E0000000F00000010000000
310
11000000120000001300000014000000150000001600000017000000FEFFFFFF
310
FFFFFFFFFFFFFFFFFFFFFFFFFFFFFFFFFFFFFFFFFFFFFFFFFFFFFFFFFFFFFFFF
310
FFFFFFFFFFFFFFFFFFFFFFFFFFFFFFFFFFFFFFFFFFFFFFFFFFFFFFFFFFFFFFFF
310
FFFFFFFFFFFFFFFFFFFFFFFFFFFFFFFFFFFFFFFFFFFFFFFFFFFFFFFFFFFFFFFF
310
FFFFFFFFFFFFFFFFFFFFFFFFFFFFFFFFFFFFFFFFFFFFFFFFFFFFFFFFFFFFFFFF
310
FFFFFFFFFFFFFFFFFFFFFFFFFFFFFFFFFFFFFFFFFFFFFFFFFFFFFFFFFFFFFFFF
310
FFFFFFFFFFFFFFFFFFFFFFFFFFFFFFFFFFFFFFFFFFFFFFFFFFFFFFFFFFFFFFFF
310
FFFFFFFFFFFFFFFFFFFFFFFFFFFFFFFFFFFFFFFFFFFFFFFFFFFFFFFFFFFFFFFF
310
FFFFFFFFFFFFFFFFFFFFFFFFFFFFFFFFFFFFFFFFFFFFFFFFFFFFFFFFFFFFFFFF
310
FFFFFFFFFFFFFFFFFFFFFFFFFFFFFFFFFFFFFFFFFFFFFFFFFFFFFFFFFFFFFFFF
310
FFFFFFFFFFFFFFFFFFFFFFFFFFFFFFFFFFFFFFFFFFFFFFFFFFFFFFFFFFFFFFFF
310
FFFFFFFFFFFFFFFFFFFFFFFFFFFFFFFFFFFFFFFFFFFFFFFFFFFFFFFFFFFFFFFF
310
FFFFFFFFFFFFFFFFFFFFFFFFFFFFFFFFFFFFFFFFFFFFFFFFFFFFFFFFFFFFFFFF
310
FFFFFFFFFFFFFFFFFFFFFFFFFFFFFFFFFFFFFFFFFFFFFFFFFFFFFFFFFFFFFFFF
310
52006F006F007400200045006E00740072007900000000000000000000000000
310
0000000000000000000000000000000000000000000000000000000000000000
310
16000500FFFFFFFFFFFFFFFF020000000A00030000000000C000000000000046
310
000000000000000000000000D0A82460C349D00103000000C000000000000000
310
01004F006C006500000000000000000000000000000000000000000000000000
310
0000000000000000000000000000000000000000000000000000000000000000
310
0A000200FFFFFFFFFFFFFFFFFFFFFFFF00000000000000000000000000000000
310
0000000000000000000000000000000000000000000000001400000000000000
310
010043006F006D0070004F0062006A0000000000000000000000000000000000
310
0000000000000000000000000000000000000000000000000000000000000000
310
120002010100000003000000FFFFFFFF00000000000000000000000000000000
310
0000000000000000000000000000000000000000010000004D00000000000000
310
01004F006C006500310030004E00610074006900760065000000000000000000
310
0000000000000000000000000000000000000000000000000000000000000000
310
1A000200FFFFFFFFFFFFFFFFFFFFFFFF00000000000000000000000000000000
310
0000000000000000000000000000000000000000040000002426000000000000
310
FEFFFFFF02000000FEFFFFFFFFFFFFFFFFFFFFFFFFFFFFFFFFFFFFFFFFFFFFFF
310
FFFFFFFFFFFFFFFFFFFFFFFFFFFFFFFFFFFFFFFFFFFFFFFFFFFFFFFFFFFFFFFF
310
FFFFFFFFFFFFFFFFFFFFFFFFFFFFFFFFFFFFFFFFFFFFFFFFFFFFFFFFFFFFFFFF
310
FFFFFFFFFFFFFFFFFFFFFFFFFFFFFFFFFFFFFFFFFFFFFFFFFFFFFFFFFFFFFFFF
310
FFFFFFFFFFFFFFFFFFFFFFFFFFFFFFFFFFFFFFFFFFFFFFFFFFFFFFFFFFFFFFFF
310
FFFFFFFFFFFFFFFFFFFFFFFFFFFFFFFFFFFFFFFFFFFFFFFFFFFFFFFFFFFFFFFF
310
FFFFFFFFFFFFFFFFFFFFFFFFFFFFFFFFFFFFFFFFFFFFFFFFFFFFFFFFFFFFFFFF
310
FFFFFFFFFFFFFFFFFFFFFFFFFFFFFFFFFFFFFFFFFFFFFFFFFFFFFFFFFFFFFFFF
310
FFFFFFFFFFFFFFFFFFFFFFFFFFFFFFFFFFFFFFFFFFFFFFFFFFFFFFFFFFFFFFFF
310
FFFFFFFFFFFFFFFFFFFFFFFFFFFFFFFFFFFFFFFFFFFFFFFFFFFFFFFFFFFFFFFF
310
FFFFFFFFFFFFFFFFFFFFFFFFFFFFFFFFFFFFFFFFFFFFFFFFFFFFFFFFFFFFFFFF
310
FFFFFFFFFFFFFFFFFFFFFFFFFFFFFFFFFFFFFFFFFFFFFFFFFFFFFFFFFFFFFFFF
310
FFFFFFFFFFFFFFFFFFFFFFFFFFFFFFFFFFFFFFFFFFFFFFFFFFFFFFFFFFFFFFFF
310
FFFFFFFFFFFFFFFFFFFFFFFFFFFFFFFFFFFFFFFFFFFFFFFFFFFFFFFFFFFFFFFF
310
FFFFFFFFFFFFFFFFFFFFFFFFFFFFFFFFFFFFFFFFFFFFFFFFFFFFFFFFFFFFFFFF
310
FFFFFFFFFFFFFFFFFFFFFFFFFFFFFFFFFFFFFFFFFFFFFFFFFFFFFFFFFFFFFFFF
310
0100000200000000000000000000000000000000000000000000000000000000
310
0000000000000000000000000000000000000000000000000000000000000000
310
0100FEFF030A0000FFFFFFFF0A00030000000000C00000000000004607000000
310
5042727573680007000000504272757368000700000050427275736800F439B2
310
7100000000000000000000000000000000000000000000000000000000000000
310
0000000000000000000000000000000000000000000000000000000000000000
310
0000000000000000000000000000000000000000000000000000000000000000
310
0000000000000000000000000000000000000000000000000000000000000000
310
0000000000000000000000000000000000000000000000000000000000000000
310
0000000000000000000000000000000000000000000000000000000000000000
310
0000000000000000000000000000000000000000000000000000000000000000
310
0000000000000000000000000000000000000000000000000000000000000000
310
0000000000000000000000000000000000000000000000000000000000000000
310
0000000000000000000000000000000000000000000000000000000000000000
310
0000000000000000000000000000000000000000000000000000000000000000
310
0000000000000000000000000000000000000000000000000000000000000000
310
20260000424D0E260000000000003E00000028000000B40200006E0000000100
310
01000000000000000000130B0000130B00000200000002000000000000FFFFFF
310
FFFFFFFFFFFFFFFFFFFFFFFFFFFFFFFFFFFFFFFFFFFFFFFFFFFFFFFFFFFFFFFF
310
FFFFFFFFFFFFFFFFFFFFFFFFFFFFFFFFFFFFFFFFFFFFFFFFFFFFFFFFFFFFFFFF
310
FFFFFFFFFFFFFFFFFFFFFFFFFFFFFFFFFFFFFFFFFFFFFFFFF000FFFFFFFFFFFF
310
FFFFFFFFFFFFFFFFFFFFFFFFFFFFFFFFFFFFFFFFFFFFFFFFFFFFFFFFFFFFFFFF
310
FFFFFFFFFFFFFFFFFFFFFFFFFFFFFFFFFFFFFFFFFFFFFFFFFFFFFFFFFFFFFFFF
310
FFFFFFFFFFFFFFFFFFFFFFFFFFFFFFFFF000FFFFFFFFFFFFFFFFFFFFFFFFFFFF
310
FFFFFFFFFFFFFFFFFFFFFFFFFFFFFFFFFFFFFFFFFFFFFFFFFFFFFFFFFFFFFFFF
310
FFFFFFFFFFFFFFFFFFFFFFFFFFFFFFFFFFFFFFFFFFFFFFFFFFFFFFFFFFFFFFFF
310
FFFFFFFFFFFFFFFFF000FFFFFFFFFFFFFFFFFFFFFFFFFFFFFFFFFFFFFFFFFFFF
310
FFFFFFFFFFFFFFFFFFFFFFFFFFFFFFFFFFFFFFFFFFFFFFFFFFFFFFFFFFFFFFFF
310
FFFFFFFFFFFFFFFFFFFFFFFFFFFFFFFFFFFFFFFFFFFFFFFFFFFFFFFFFFFFFFFF
310
F000FFFFFFFFFFFFFFFFFFFFFFFFFFFFFFFFFFFFFFFFFFFFFFFFFFFFFFFFFFFF
310
FFFFFFFFFFFFFFFFFFFFFFFFFFFFFFFFFFFFFFFFFFFFFFFFFFFFFFFFFFFFFFFF
310
FFFFFFFFFFFFFFFFFFFFFFFFFFFFFFFFFFFFFFFFFFFFFFFFF000FFFFFFFFFFFF
310
FFFFFFFFFFFFFFFFFFFFFFFFFFFFFFFFFFFFFFFFFFFFFFFFFFFFFFFFFFFFFFFF
310
FFFFFFFFFFFFFFFFFFFFFFFFFFFFFFFFFFFFFFFFFFFFFFFFFFFFFFFFFFFFFFFF
310
FFFFFFFFFFFFFFFFFFFFFFFFFFFFFFFFF000FFFFFFFFFFFFFFFFFFFFFFFFFFFF
310
FFFFFFFFFFFFFFFFFFFFFFFFFFFFFFFFFFFFFFFFFFFFFFFFFFFFFFFFFFFFFFFF
310
FFFFFFFFFFFFFFFFFFFFFFFFFFFFFFFFFFFFFFFFFFFFFFFFFFFFFFFFFFFFFFFF
310
FFFFFFFFFFFFFFFFF000FFFFFFFFFFFFFFFFFFFFFFFFFFFFFFFFFFFFFFFFFFFF
310
FFFFFFFFFFFFFFFFFFFFFFFFFFFFFFFFFFFFFFFFFFFFFFFFFFFFFFFFFFFFFFFF
310
FFFFFFFFFFFFFFFFFFFFFFFFFFFFFFFFFFFFFFFFFFFFFFFFFFFFFFFFFFFFFFFF
310
F000FFFFFFFFFFFFFFFFFFFFFFFFFFFFFFFFFFFFFFFFFFFFFFFFFFFFFFFFFFFF
310
FFFFFFFFFFFFFFFFFFFFFFFFFFFFFFFFFFFFFFFFFFFFFFFFFFFFFFFFFFFFFFFF
310
FFFFFFFFFFFFFFFFFFFFFFFFFFFFFFFFFFFFFFFFFFFFFFFFF000FFFFFFFFFFFF
310
FFFFFFFFFFFFFFFFFFFFFFFFFFFFFFFFFFFFFFFFFFFFFFFFFFFFFFFFFFFFFFFF
310
FFFFFFFFFFFFFFFFFFFFFFFFFFFFFFFFFFFFFFFFFFFFFFFFFFFFFFFFFFFFFFFF
310
FFFFFFFFFFFFFFFFFFFFFFFFFFFFFFFFF000FFFFFFFFFFFFFFFFFFFFFFFFFFFF
310
FFFFFFFFFFFFFFFFFFFFFFFFFFFFFFFFFFFFFFFFFFFFFFFFFFFFFFFFFFFFFFFF
310
FFFFFFFFFFFFFFFFFFFFFFFFFFFFFFFFFFFFFFFFFFFFFFFFFFFFFFFFFFFFFFFF
310
FFFFFFFFFFFFFFFFF000FFFFFFFFFFFFFFFFFFFFFFFFFFFFFFFFFFFFFFFFFFFF
310
FFFFFFFFFFFFFFFFFFFFFFFFFFFFFFFFFFFFFFFFFFFFFFFFFFFFFFFFFFFFFFFF
310
FFFFFFFFFFFFFFFFFFFFFFFFFFFFFFFFFFFFFFFFFFFFFFFFFFFFFFFFFFFFFFFF
310
F000FFFFFFFFFFFFFFFFFFFFFFFFFFFFFFFFFFFFFFFFFFFFFFFFFFFFFFFFFFFF
310
FFFFFFFFFFFFFFFFFFFFFFFFFFFFFFFFFFFFFFFFFFFFFFFFFFFFFFFFFFFFFFFF
310
FFFFFFFFFFFFFFFFFFFFFFFFFFFFFFFFFFFFFFFFFFFFFFFFF000FFFFFFFFFFFF
310
FFFFFFFFFFFFFFFFFFFFFFFFFFFFFFFFFFFFFFFFFFFFFFFFFFFFFFFFFFFFFFFF
310
FFFFFFFFFFFFFFFFFFFFFFFFFFFFFFFFFFFFFFFFFFFFFFFFFFFFFFFFFFFFFFFF
310
FFFFFFFFFFFFFFFFFFFFFFFFFFFFFFFFF000FFFFFFFFFFFFFFFFFFFFFFFFFFFF
310
FFFFFFFFFFFFFFFFFFFFFFFFFFFFFFFFFFFFFFFFFFFFFFFFFFFFFFFFFFFFFFFF
310
FFFFFFFFFFFFFFFFFFFFFFFFFFFFFFFFFFFFFFFFFFFFFFFFFFFFFFFFFFFFFFFF
310
FFFFFFFFFFFFFFFFF000FFFFFFFFFFFFFFFFFFFFFFFFFFFFFFFFFFFFFFFFFFFF
310
FFFFFFFFFFFFFFFFFFFFFFFFFFFFFFFFFFFFFFFFFFFFFFFFFFFFFFFFFFFFFFFF
310
FFFFFFFFFFFFFFFFFFFFFFFFFFFFFFFFFFFFFFFFFFFFFFFFFFFFFFFFFFFFFFFF
310
F000FFFFFFFFFFFFFFFFFFFFFFFFFFFFFFFFFFFFFFFFFFFFFFFFFFFFFFFFFFFF
310
FFFFFFFFFFFFFFFFFFFFFFFFFFFFFFFFFFFFFFFFFFFFFFFFFFFFFFFFFFFFFFFF
310
FFFFFFFFFFFFFFFFFFFFFFFFFFFFFFFFFFFFFFFFFFFFFFFFF000FFFFFFFFFFFF
310
FFFFFFFFFFFFFFFFFFFFFFFFFFFFFFFFFFFFFFFFFFFFFFFFFFFFFFFFFFFFFFFF
310
FFFFFFFFFFFFFFFFFFFFFFFFFFFFFFFFFFFFFFFFFFFFFFFFFFFFFFFFFFFFFFFF
310
FFFFFFFFFFFFFFFFFFFFFFFFFFFFFFFFF000FFFFFFFFFFFFFFFFFFFFFFFFFFFF
310
FFFFFFFFFFFFFFFFFFFFFFFFFFFFFFFFFFFFFFFFFFFFFFFFFFFFFFFFFFFFFFFF
310
FFFFFFFFFFFFFFFFFFFFFFFFFFFFFFFFFFFFFFFFFFFFFFFFFFFFFFFFFFFFFFFF
310
FFFFFFFFFFFFFFFFF000FFFFF80003FFFFFFFFFFFFFFFFFFFFFFFFFFFFFFFFFF
310
FFFFF00007FFFFFFFFFF00007FFFFFF800000000000000007FFFFFFFFFFFFFFF
310
FFFFFFFC001FFFFFFFFFFFFFFC001FFFFFFFFFFFFFFFFFFFFFFFFFFE0007FFFF
310
F000FFFF8000007FFFFFFFF8000FFFFFC0007FFFFF80007FFFFF0000007FFFFF
310
FFF8000007FFFFF800000000000000007FFFFFF0001FFFFFFFFFFFC00001FFFF
310
FFFFFFFFC00001FFFFFFFF000000000003FFFFE000007FFFF000FFFE0000000F
310
FFFFFFF0000FFFFF80007FFFFF80007FFFFC0000001FFFFFFFC0000001FFFFF8
310
00000000000000007FFFFFF0001FFFFFFFFFFE0000003FFFFFFFFFFE0000003F
310
FFFFFF000000000003FFFF0000000FFFF000FFF800000003FFFFFFF00007FFFF
310
80007FFFFF80007FFFF000000007FFFFFF000000003FFFF80000000000000000
310
7FFFFFF0001FFFFFFFFFF80000000FFFFFFFFFF80000000FFFFFFF0000000000
310
03FFFC00000003FFF000FFE000000000FFFFFFF00007FFFF80003FFFFF80007F
310
FFC000000001FFFFFC000000001FFFF800000000000000007FFFFFF0001FFFFF
310
FFFFE000000003FFFFFFFFE000000003FFFFFF000000000003FFF000000000FF
310
F000FF80000000007FFFFFF00007FFFF80003FFFFF80007FFF8000000000FFFF
310
F80000000007FFF800000000000000007FFFFFF0001FFFFFFFFFC000000001FF
310
FFFFFFC000000001FFFFFF000000000003FFC0000000007FF000FF0000000000
310
3FFFFFE00007FFFF00003FFFFF80007FFE00000000003FFFF00000000003FFF8
310
00000000000000007FFFFFF0001FFFFFFFFF8000000000FFFFFFFF8000000000
310
FFFFFF000000000003FF80000000003FF000FE00000000001FFFFFE00003FFFF
310
00003FFFFF80007FFC00000000001FFFE00000000001FFF8000001FFFE000000
310
7FFFFFF0001FFFFFFFFE00000000003FFFFFFE00000000003FFFFF0000000000
310
03FF00000000001FF000FC00000000000FFFFFE00003FFFF00001FFFFF80007F
310
F800000000001FFFC00000000000FFF8000001FFFE0000007FFFFFF0001FFFFF
310
FFFC00000000001FFFFFFC00000000001FFFFF000000000003FE00000000000F
310
F000F8000000000007FFFFE00003FFFF00001FFFFF80007FF800000000000FFF
310
800000000000FFF8000001FFFE0000007FFFFFF0001FFFFFFFF800000000000F
310
FFFFF800000000000FFFFF000000000003FC000000000007F000F80000000000
310
03FFFFC00003FFFE00001FFFFF80007FF0000000000007FF0000000000007FF8
310
000001FFFE0000007FFFFFF0001FFFFFFFF0000000000007FFFFF00000000000
310
07FFFF000000000003F8000000000003F000F0000000000003FFFFC00001FFFE
310
00001FFFFF80007FE0000000000007FE0000000000003FF8000001FFFE000000
310
7FFFFFF0001FFFFFFFF0000000000007FFFFF0000000000007FFFF0000000000
310
03F800001F800003F000E00001FFF00001FFFFC00001FFFE00000FFFFF80007F
310
E00001FFE00003FE00001FFF00003FF8000001FFFE0000007FFFFFF0001FFFFF
310
FFE000003E000003FFFFE000003E000003FFFF000000000003F00001FFF80001
310
F000E00007FFFC0001FFFFC00001FFFE00000FFFFF80007FC0000FFFFC0003FC
310
0000FFFFC0001FF8000001FFFE0000007FFFFFF0001FFFFFFFC00003FFE00001
310
FFFFC00003FFE00001FFFF0001FFFFFFFFF00007FFFE0001F000E0000FFFFF00
310
00FFFF800001FFFC00000FFFFF80007FC0001FFFFE0001FC0001FFFFE0001FF8
310
000001FFFE0000007FFFFFF0001FFFFFFF80000FFFF80000FFFF80000FFFF800
310
00FFFF0003FFFFFFFFE0000FFFFF8000F000C0003FFFFF8000FFFF800000FFFC
310
000007FFFF80007F80003FFFFF0001FC0003FFFFF0001FF8000001FFFE000000
310
7FFFFFF0001FFFFFFF80003FFFFE0000FFFF80003FFFFE0000FFFF0003FFFFFF
310
FFE0003FFFFF8000F000C0003FFFFF8000FFFF800000FFFC000007FFFF80007F
310
80007FFFFF8001F80007FFFFF8000FF8000001FFFE0000007FFFFFF0001FFFFF
310
FF00007FFFFF00007FFF00007FFFFF00007FFF0003FFFFFFFFE0003FFFFFC000
310
F000C0007FFFFFC000FFFF000000FFFC000007FFFF80007F8000FFFFFF8000F8
310
000FFFFFF8000FF8000001FFFE0000007FFFFFF0001FFFFFFF0000FFFFFF8000
310
7FFF0000FFFFFF80007FFF0003FFFFFFFFC0007FFFFFC00070008000FFFFFFC0
310
00FFFF000000FFF8000007FFFF80007F8000FFFFFF8000F8000FFFFFF8000FF8
310
000001FFFE0000007FFFFFF0001FFFFFFE0001FFFFFFC0003FFE0001FFFFFFC0
310
003FFF0003FFFFFFFFC0007FFFFFE00070008000FFFFFFC0007FFF0000007FF8
310
000003FFFF80007F0001FFFFFF8000F8000FFFFFF8000FF8000001FFFE000000
310
7FFFFFF0001FFFFFFE0001FFFFFFC0003FFE0001FFFFFFC0003FFF0003FFFFFF
310
FFC000FFFFFFE00070008000FFFFFFC0007FFF0000007FF8000003FFFF80007F
310
0001FFFFFF8000F8001FFFFFF8000FF8000001FFFE0000007FFFFFF0001FFFFF
310
FE0003FFFFFFE0003FFE0003FFFFFFE0003FFF0003FFFFFFFFC000FFFFFFE000
310
70008000FFFFFFC0007FFE0000007FF8000003FFFF80007F0001FFFFFF8000F0
310
001FFFFFF8000FF8000001FFFE0000007FFFFFF0001FFFFFFC0003FFFFFFE000
310
1FFC0003FFFFFFE0001FFF0003FFFFFFFFC000FFFFFFC00070008000FFFFFF80
310
007FFE0000007FF0000003FFFF80007F0001FFFFFF0000F0001FFFFFF8000FF8
310
000001FFFE0000007FFFFFF0001FFFFFFC0007FFFFFFF0001FFC0007FFFFFFF0
310
001FFF0003FFFFFFFFC000FFFFFFC00070008001FFFFFF0000FFFE0000003FF0
310
000001FFFF80007F0001FFFFFF0000F8001FFFFFF0000FF8000001FFFE000000
310
7FFFFFF0001FFFFFFC0007FFFFFFF0001FFC0007FFFFFFF0001FFF0003FFFFFF
310
FFC001FFFFFF80007000FFFFFFFFFE0000FFFE0008003FF0008001FFFF80007F
310
FFFFFFFFFC0000FFFFFFFFFFE0000FF8000001FFFE0000007FFFFFF0001FFFFF
310
F8000FFFFFFFF8000FF8000FFFFFFFF8000FFF0003FFFFFFFFFFFFFFFFFF0000
310
7000FFFFFFFFFC0000FFFC0008003FF0008001FFFF80007FFFFFFFFFF80001FF
310
FFFFFFFF80000FF8000001FFFE0000007FFFFFF0001FFFFFF8000FFFFFFFF800
310
0FF8000FFFFFFFF8000FFF0003FFFFFFFFFFFFFFFFFE0000F000FFFFFFFFE000
310
00FFFC000C003FE000C001FFFF80007FFFFFFFFFC00001FFFFFFFFFE00001FF8
310
000001FFFE0000007FFFFFF0001FFFFFF8000FFFFFFFF8000FF8000FFFFFFFF8
310
000FFF0003FFFFFFFFFFFFFFFFF00000F000FFFFFFFE000001FFFC000C001FE0
310
00C000FFFF80007FFFFFFFFE000001FFFFFFFFE000001FF80FFFFFFFFFFFFFC0
310
7FFFFFF0001FFFFFF8000FFFFFFFF8000FF8000FFFFFFFF8000FFF0003FFFFFF
310
FFFFFFFFFF800000F000FFFFFFC0000001FFFC001C001FE001C000FFFF80007F
310
FFFFFF80000003FFFFFFF80000001FF80FFFFFFFFFFFFFC07FFFFFF0001FFFFF
310
F8001FFFFFFFFC000FF8001FFFFFFFFC000FFF0003FFFFFFFFFFFFFFF0000001
310
F000FFFFF800000001FFF8001C001FE001C000FFFF80007FFFFFF800000003FF
310
FFFF800000003FF80FFFFFFFFFFFFFC07FFFFFF0001FFFFFF8001FFFFFFFFC00
310
0FF8001FFFFFFFFC000FFF0003FFFFFFFFFFFFFE00000001F000FFFFC0000000
310
03FFF8001E001FC001E000FFFF80007FFFFF8000000007FFFFFC000000003FF8
310
0FFFFFFFFFFFFFC07FFFFFF0001FFFFFF8001FFFFFFFFC000FF8001FFFFFFFFC
310
000FFF0003FFFFFFFFFFFFE000000003F000FFFE0000000007FFF8001E000FC0
310
01E0007FFF80007FFFFE0000000007FFFFE0000000007FF80FFFFFFFFFFFFFC0
310
7FFFFFF0001FFFFFF0001FFFFFFFFC0007F0001FFFFFFFFC0007FF0003FFFFFF
310
FFFFFF0000000003F000FFF80000000007FFF8001E000FC003E0007FFF80007F
310
FFF0000000000FFFFF8000000000FFF80FFFFFFFFFFFFFC07FFFFFF0001FFFFF
310
F0001FFFFFFFFC0007F0001FFFFFFFFC0007FF0003FFFFFFFFFFFC0000000007
310
F000FFE0000000000FFFF0003E000FC003E0007FFF80007FFFC0000000001FFF
310
FE0000000001FFF80FFFFFFFFFFFFFC07FFFFFF0001FFFFFF0001FFFFFFFFC00
310
07F0001FFFFFFFFC0007FF0003FFFFFFFFFFF0000000000FF000FFC000000000
310
1FFFF0003F000F8003F0003FFF80007FFF80000000003FFFF80000000003FFF8
310
0FFFFFFFFFFFFFC07FFFFFF0001FFFFFF0001FFFFFFFFC0007F0001FFFFFFFFC
310
0007FF0003FFFFFFFFFFE0000000001FF000FF00000000007FFFF0003F000780
310
03F0003FFF80007FFF00000000007FFFF00000000007FFF80FFFFFFFFFFFFFC0
310
7FFFFFF0001FFFFFF0001FFFFFFFFC0007F0001FFFFFFFFC0007FF0003FFFFFF
310
FFFF80000000007FF000FE0000000000FFFFE0003F00078007F0003FFF80007F
310
FE0000000001FFFFE0000000001FFFF80FFFFFFFFFFFFFC07FFFFFF0001FFFFF
310
F0001FFFFFFFFC0007F0001FFFFFFFFC0007FF0003FFFFFFFFFF0000000000FF
310
F000FC0000000003FFFFE0007F00078007F0003FFF80007FFC0000000007FFFF
310
C0000000007FFFF80FFFFFFFFFFFFFC07FFFFFF0001FFFFFF8001FFFFFFFFC00
310
0FF8001FFFFFFFFC000FFF0003FFFFFFFFFE0000000003FFF000FC000000000F
310
FFFFE0007F80070007F8001FFF80007FF8000000001FFFFF8000000001FFFFF8
310
0FFFFFFFFFFFFFC07FFFFFF0001FFFFFF8001FFFFFFFFC000FF8001FFFFFFFFC
310
000FFF0003FFFFFFFFFC000000000FFFF000F8000000007FFFFFE0007F800700
310
07F8001FFF80007FF000000000FFFFFF800000000FFFFFF80FFFFFFFFFFFFFC0
310
7FFFFFF0001FFFFFF8000FFFFFFFF8000FF8000FFFFFFFF8000FFF0003FFFFFF
310
FFFC000000007FFFF000F800000007FFFFFFC0007F8003000FF8001FFF80007F
310
F000000007FFFFFF000000007FFFFFF80FFFFFFFFFFFFFC07FFFFFF0001FFFFF
310
F8000FFFFFFFF8000FF8000FFFFFFFF8000FFF0003FFFFFFFFF80000000FFFFF
310
F000F0000000FFFFFFFFC000FF8003000FF8001FFF80007FE0000000FFFFFFFF
310
0000000FFFFFFFF8000001FFFE0000007FFFFFF0001FFFFFF8000FFFFFFFF800
310
0FF8000FFFFFFFF8000FFF0003FFFFFFFFF8000000FFFFFFF000F000000FFFFF
310
FFFFC000FFC002000FF8000FFF80007FE000001FFFFFFFFE000001FFFFFFFFF8
310
000001FFFE0000007FFFFFF0001FFFFFF8000FFFFFFFF8000FF8000FFFFFFFF8
310
000FFF0003FFFFFFFFF000001FFFFFFFF000E00000FFFFFFFFFFC000FFC00200
310
0FFC000FFF80007FE00001FFFFFFFFFE00001FFFFFFFFFF8000001FFFE000000
310
7FFFFFF0001FFFFFFC000FFFFFFFF8001FFC000FFFFFFFF8001FFF0003FFFFFF
310
FFF00001FFFFFFFFF000E00007FFFFFFFFFF8000FFC000001FFC000FFF80007F
310
C0000FFFFFFFFFFE0000FFFFFFFFFFF8000001FFFE0000007FFFFFF0001FFFFF
310
FC0007FFFFFFF0001FFC0007FFFFFFF0001FFF0003FFFFFFFFF00007FFFFFFFF
310
F000E0001FFFFFFFFFFF8000FFC000001FFC000FFF80007FC0003FFFFFFFFFFE
310
0001FFFFFFFFFFF8000001FFFE0000007FFFFFF0001FFFFFFC0007FFFFFFF000
310
1FFC0007FFFFFFF0001FFF0003FFFFFFFFF0001FFFFFFFFFF000E0003FFFFF00
310
03FF8001FFE000001FFC0007FF80007FC0007FFFFF0007FC0003FFFFF0003FF8
310
000001FFFE0000007FFFFFF0001FFFFFFC0003FFFFFFE0001FFC0003FFFFFFE0
310
001FFF0003FFFFFFFFF0003FFFFFFFFFF000E0003FFFFF0001FF8001FFE00000
310
1FFE0007FF80007FC0007FFFFE0003FC0007FFFFE0003FF8000001FFFE000000
310
7FFFFFF0001FFFFFFE0003FFFFFFE0003FFE0003FFFFFFE0003FFF0003FFFFFF
310
FFF0003FFFFF8001F000E0003FFFFF0001FF0001FFE000001FFE0007FF80007F
310
C0007FFFFE0003FC0007FFFFE0003FF8000001FFFE0000007FFFFFF0001FFFFF
310
FE0001FFFFFFC0003FFE0001FFFFFFC0003FFF0003FFFFFFFFF0003FFFFF0001
310
F000E0003FFFFF0003FF0001FFE000003FFE0007FF80007FC0007FFFFE0003FC
310
0007FFFFE0003FF8000001FFFE0000007FFFFFF0001FFFFFFF0001FFFFFFC000
310
7FFF0001FFFFFFC0007FFF0003FFFFFFFFF0003FFFFF0001F000E0003FFFFE00
310
03FF0003FFF000003FFE0003FF80007FC0007FFFFC0003FE0007FFFFE0003FF8
310
000001FFFE0000007FFFFFF0001FFFFFFF0000FFFFFF80007FFF0000FFFFFF80
310
007FFF0003FFFFFFFFF0003FFFFF0001F000E0003FFFFE0003FF0003FFF00000
310
3FFF0003FF80007FC0007FFFFC0007FE0007FFFFC0003FF8000001FFFE000000
310
7FFFFFF0001FFFFFFF80007FFFFF0000FFFF80007FFFFF0000FFFF0003FFFFFF
310
FFF0003FFFFF0003F000E0003FFFFC0003FE0003FFF000003FFF0003FF80007F
310
E0003FFFF80007FE0003FFFFC0007FF8000001FFFE0000007FFFFFF0001FFFFF
310
FF80003FFFFE0000FFFF80003FFFFE0000FFFF0003FFFFFFFFF0001FFFFE0003
310
F000F0001FFFF80003FE0003FFF000007FFF0001FF80007FE0003FFFF00007FE
310
0001FFFF80007FF8000001FFFE0000007FFFFFF0001FFFFFFFC0000FFFF80001
310
FFFFC0000FFFF80001FFFF0003FFFFFFFFF0001FFFFC0003F000F0000FFFF000
310
07FE0007FFF800007FFF0001FF80007FE0001FFFE00007FF0000FFFE00007FF8
310
000001FFFE0000007FFFFFF0001FFFFFFFC00003FFE00001FFFFC00003FFE000
310
01FFFF0003FFFFFFFFF8000FFFF80003F000F00003FFC00007FC0007FFF80000
310
7FFF8001FF80007FF00007FF80000FFF00007FF80000FFF8000001FFFE000000
310
7F80000000000001FFE000003E000003FFFFE000003E000003FFFF0003FFFFFF
310
FFF80003FFE00007F000F800000000000FFC0007FFF800007FFF8001FF80007F
310
F000000000000FFF000000000000FFF8000001FFFE0000007F80000000000001
310
FFF0000000000007FFFFF0000000000007FFFF0003FFFFFFFFFC00007E000007
310
F000F800000000000FFC0007FFF80000FFFF8000FF80007FF800000000001FFF
310
800000000001FFF8000001FFFE0000007F80000000000001FFF800000000000F
310
FFFFF800000000000FFFFF0003FFFFFFFFFC00000000000FF000FC0000000000
310
1FFC0007FFFC0000FFFF8000FF80007FF800000000003FFFC00000000001FFF8
310
000001FFFE0000007F80000000000001FFF800000000000FFFFFF80000000000
310
0FFFFF0003FFFFFFFFFE00000000001FF000FE00000000003FF8000FFFFC0000
310
FFFF8000FF80007FFC00000000003FFFC00000000003FFF8000001FFFE000000
310
7F80000000000001FFFC00000000001FFFFFFC00000000001FFFFF0003FFFFFF
310
FFFF00000000001FF000FF00000000003FF8000FFFFC0000FFFFC000FF80007F
310
FE00000000007FFFE00000000007FFF8000001FFFE0000007F80000000000001
310
FFFE00000000003FFFFFFE00000000003FFFFF0003FFFFFFFFFF80000000003F
310
F000FF80000000007FF8000FFFFC0001FFFFC0007F80007FFF0000000000FFFF
310
F0000000000FFFF800000000000000007F80000000000001FFFF8000000000FF
310
FFFFFF8000000000FFFFFF0003FFFFFFFFFFC0000000007FF000FFC000000000
310
FFF8000FFFFE0001FFFFC0007F80007FFF8000000001FFFFF8000000001FFFF8
310
00000000000000007F80000000000001FFFFC000000001FFFFFFFFC000000001
310
FFFFFF0003FFFFFFFFFFE000000000FFF000FFE000000003FFF0001FFFFE0001
310
FFFFC0007F80007FFFC000000007FFFFFE000000003FFFF80000000000000000
310
7F80000000000001FFFFE000000003FFFFFFFFE000000003FFFFFF0003FFFFFF
310
FFFFF000000003FFF000FFF80000000FFFF0001FFFFE0001FFFFE0007F80007F
310
FFF00000000FFFFFFF00000000FFFFF800000000000000007F80000000000001
310
FFFFF80000000FFFFFFFFFF80000000FFFFFFF0003FFFFFFFFFFFC0000000FFF
310
F000FFFE0000003FFFF0001FFFFE0003FFFFE0003F80007FFFFC0000003FFFFF
310
FFC0000003FFFFF800000000000000007F80000000000001FFFFFE0000003FFF
310
FFFFFFFE0000003FFFFFFF0003FFFFFFFFFFFF0000003FFFF000FFFF800000FF
310
FFF0001FFFFF0003FFFFE0003F80007FFFFF000001FFFFFFFFF800001FFFFFF8
310
00000000000000007F80000000000001FFFFFFC00001FFFFFFFFFFFFC00001FF
310
FFFFFF0003FFFFFFFFFFFFC00000FFFFF000FFFFF8000FFFFFFFFFFFFFFFFFFF
310
FFFFFFFFFFFFFFFFFFFFF0001FFFFFFFFFFF0000FFFFFFF80000000000000000
310
7FFFFFFFFFFFFFFFFFFFFFFC001FFFFFFFFFFFFFFC001FFFFFFFFFFFFFFFFFFF
310
FFFFFFFC001FFFFFF000FFFFFFFFFFFFFFFFFFFFFFFFFFFFFFFFFFFFFFFFFFFF
310
FFFFFFFFFFFFFFFFFFFFFFFFFFFFFFFFFFFFFFFFFFFFFFFFFFFFFFFFFFFFFFFF
310
FFFFFFFFFFFFFFFFFFFFFFFFFFFFFFFFFFFFFFFFFFFFFFFFFFFFFFFFFFFFFFFF
310
F000FFFFFFFFFFFFFFFFFFFFFFFFFFFFFFFFFFFFFFFFFFFFFFFFFFFFFFFFFFFF
310
FFFFFFFFFFFFFFFFFFFFFFFFFFFFFFFFFFFFFFFFFFFFFFFFFFFFFFFFFFFFFFFF
310
FFFFFFFFFFFFFFFFFFFFFFFFFFFFFFFFFFFFFFFFFFFFFFFFF000FFFFFFFFFFFF
310
FFFFFFFFFFFFFFFFFFFFFFFFFFFFFFFFFFFFFFFFFFFFFFFFFFFFFFFFFFFFFFFF
310
FFFFFFFFFFFFFFFFFFFFFFFFFFFFFFFFFFFFFFFFFFFFFFFFFFFFFFFFFFFFFFFF
310
FFFFFFFFFFFFFFFFFFFFFFFFFFFFFFFFF000FFFFFFFFFFFFFFFFFFFFFFFFFFFF
310
FFFFFFFFFFFFFFFFFFFFFFFFFFFFFFFFFFFFFFFFFFFFFFFFFFFFFFFFFFFFFFFF
310
FFFFFFFFFFFFFFFFFFFFFFFFFFFFFFFFFFFFFFFFFFFFFFFFFFFFFFFFFFFFFFFF
310
FFFFFFFFFFFFFFFFF000FFFFFFFFFFFFFFFFFFFFFFFFFFFFFFFFFFFFFFFFFFFF
310
FFFFFFFFFFFFFFFFFFFFFFFFFFFFFFFFFFFFFFFFFFFFFFFFFFFFFFFFFFFFFFFF
310
FFFFFFFFFFFFFFFFFFFFFFFFFFFFFFFFFFFFFFFFFFFFFFFFFFFFFFFFFFFFFFFF
310
F000FFFFFFFFFFFFFFFFFFFFFFFFFFFFFFFFFFFFFFFFFFFFFFFFFFFFFFFFFFFF
310
FFFFFFFFFFFFFFFFFFFFFFFFFFFFFFFFFFFFFFFFFFFFFFFFFFFFFFFFFFFFFFFF
310
FFFFFFFFFFFFFFFFFFFFFFFFFFFFFFFFFFFFFFFFFFFFFFFFF000FFFFFFFFFFFF
310
FFFFFFFFFFFFFFFFFFFFFFFFFFFFFFFFFFFFFFFFFFFFFFFFFFFFFFFFFFFFFFFF
310
FFFFFFFFFFFFFFFFFFFFFFFFFFFFFFFFFFFFFFFFFFFFFFFFFFFFFFFFFFFFFFFF
310
FFFFFFFFFFFFFFFFFFFFFFFFFFFFFFFFF000FFFFFFFFFFFFFFFFFFFFFFFFFFFF
310
FFFFFFFFFFFFFFFFFFFFFFFFFFFFFFFFFFFFFFFFFFFFFFFFFFFFFFFFFFFFFFFF
310
FFFFFFFFFFFFFFFFFFFFFFFFFFFFFFFFFFFFFFFFFFFFFFFFFFFFFFFFFFFFFFFF
310
FFFFFFFFFFFFFFFFF000FFFFFFFFFFFFFFFFFFFFFFFFFFFFFFFFFFFFFFFFFFFF
310
FFFFFFFFFFFFFFFFFFFFFFFFFFFFFFFFFFFFFFFFFFFFFFFFFFFFFFFFFFFFFFFF
310
FFFFFFFFFFFFFFFFFFFFFFFFFFFFFFFFFFFFFFFFFFFFFFFFFFFFFFFFFFFFFFFF
310
F000FFFFFFFFFFFFFFFFFFFFFFFFFFFFFFFFFFFFFFFFFFFFFFFFFFFFFFFFFFFF
310
FFFFFFFFFFFFFFFFFFFFFFFFFFFFFFFFFFFFFFFFFFFFFFFFFFFFFFFFFFFFFFFF
310
FFFFFFFFFFFFFFFFFFFFFFFFFFFFFFFFFFFFFFFFFFFFFFFFF000FFFFFFFFFFFF
310
FFFFFFFFFFFFFFFFFFFFFFFFFFFFFFFFFFFFFFFFFFFFFFFFFFFFFFFFFFFFFFFF
310
FFFFFFFFFFFFFFFFFFFFFFFFFFFFFFFFFFFFFFFFFFFFFFFFFFFFFFFFFFFFFFFF
310
FFFFFFFFFFFFFFFFFFFFFFFFFFFFFFFFF000FFFFFFFFFFFFFFFFFFFFFFFFFFFF
310
FFFFFFFFFFFFFFFFFFFFFFFFFFFFFFFFFFFFFFFFFFFFFFFFFFFFFFFFFFFFFFFF
310
FFFFFFFFFFFFFFFFFFFFFFFFFFFFFFFFFFFFFFFFFFFFFFFFFFFFFFFFFFFFFFFF
310
FFFFFFFFFFFFFFFFF000FFFFFFFFFFFFFFFFFFFFFFFFFFFFFFFFFFFFFFFFFFFF
310
FFFFFFFFFFFFFFFFFFFFFFFFFFFFFFFFFFFFFFFFFFFFFFFFFFFFFFFFFFFFFFFF
310
FFFFFFFFFFFFFFFFFFFFFFFFFFFFFFFFFFFFFFFFFFFFFFFFFFFFFFFFFFFFFFFF
310
F000FFFFFFFFFFFFFFFFFFFFFFFFFFFFFFFFFFFFFFFFFFFFFFFFFFFFFFFFFFFF
310
FFFFFFFFFFFFFFFFFFFFFFFFFFFFFFFFFFFFFFFFFFFFFFFFFFFFFFFFFFFFFFFF
310
FFFFFFFFFFFFFFFFFFFFFFFFFFFFFFFFFFFFFFFFFFFFFFFFF000FFFFFFFFFFFF
310
FFFFFFFFFFFFFFFFFFFFFFFFFFFFFFFFFFFFFFFFFFFFFFFFFFFFFFFFFFFFFFFF
310
FFFFFFFFFFFFFFFFFFFFFFFFFFFFFFFFFFFFFFFFFFFFFFFFFFFFFFFFFFFFFFFF
310
FFFFFFFFFFFFFFFFFFFFFFFFFFFFFFFFF000FFFFFFFFFFFFFFFFFFFFFFFFFFFF
310
FFFFFFFFFFFFFFFFFFFFFFFFFFFFFFFFFFFFFFFFFFFFFFFFFFFFFFFFFFFFFFFF
310
FFFFFFFFFFFFFFFFFFFFFFFFFFFFFFFFFFFFFFFFFFFFFFFFFFFFFFFFFFFFFFFF
310
FFFFFFFFFFFFFFFFF000FFFFFFFFFFFFFFFFFFFFFFFFFFFFFFFFFFFFFFFFFFFF
310
FFFFFFFFFFFFFFFFFFFFFFFFFFFFFFFFFFFFFFFFFFFFFFFFFFFFFFFFFFFFFFFF
310
FFFFFFFFFFFFFFFFFFFFFFFFFFFFFFFFFFFFFFFFFFFFFFFFFFFFFFFFFFFFFFFF
310
F000FFFFFFFFFFFFFFFFFFFFFFFFFFFFFFFFFFFFFFFFFFFFFFFFFFFFFFFFFFFF
310
FFFFFFFFFFFFFFFFFFFFFFFFFFFFFFFFFFFFFFFFFFFFFFFFFFFFFFFFFFFFFFFF
310
FFFFFFFFFFFFFFFFFFFFFFFFFFFFFFFFFFFFFFFFFFFFFFFFF000FFFFFFFFFFFF
310
FFFFFFFFFFFFFFFFFFFFFFFFFFFFFFFFFFFFFFFFFFFFFFFFFFFFFFFFFFFFFFFF
310
FFFFFFFFFFFFFFFFFFFFFFFFFFFFFFFFFFFFFFFFFFFFFFFFFFFFFFFFFFFFFFFF
310
FFFFFFFFFFFFFFFFFFFFFFFFFFFFFFFFF000FFFFFFFFFFFFFFFFFFFFFFFFFFFF
310
FFFFFFFFFFFFFFFFFFFFFFFFFFFFFFFFFFFFFFFFFFFFFFFFFFFFFFFFFFFFFFFF
310
FFFFFFFFFFFFFFFFFFFFFFFFFFFFFFFFFFFFFFFFFFFFFFFFFFFFFFFFFFFFFFFF
310
FFFFFFFFFFFFFFFFF000FFFFFFFFFFFFFFFFFFFFFFFFFFFFFFFFFFFFFFFFFFFF
310
FFFFFFFFFFFFFFFFFFFFFFFFFFFFFFFFFFFFFFFFFFFFFFFFFFFFFFFFFFFFFFFF
310
FFFFFFFFFFFFFFFFFFFFFFFFFFFFFFFFFFFFFFFFFFFFFFFFFFFFFFFFFFFFFFFF
310
F000FFFFFFFFFFFFFFFFFFFFFFFFFFFFFFFFFFFFFFFFFFFFFFFFFFFFFFFFFFFF
310
FFFFFFFFFFFFFFFFFFFFFFFFFFFFFFFFFFFFFFFFFFFFFFFFFFFFFFFFFFFFFFFF
310
FFFFFFFFFFFFFFFFFFFFFFFFFFFFFFFFFFFFFFFFFFFFFFFFF000FFFFFFFFFFFF
310
FFFFFFFFFFFFFFFFFFFFFFFFFFFFFFFFFFFFFFFFFFFFFFFFFFFFFFFFFFFFFFFF
310
FFFFFFFFFFFFFFFFFFFFFFFFFFFFFFFFFFFFFFFFFFFFFFFFFFFFFFFFFFFFFFFF
310
FFFFFFFFFFFFFFFFFFFFFFFFFFFFFFFFF0000000000000000000000000000000
310
0000000000000000000000000000000000000000000000000000000000000000
310
0000000000000000000000000000000000000000000000000000000000000000
310
0000000000000000000000000000000000000000000000000000000000000000
310
0000000000000000000000000000000000000000000000000000000000000000
310
0000000000000000000000000000000000000000000000000000000000000000
310
0000000000000000000000000000000000000000000000000000000000000000
310
0000000000000000000000000000000000000000000000000000000000000000
310
0000000000000000000000000000000000000000000000000000000000000000
310
0000000000000000000000000000000000000000000000000000000000000000
310
0000000000000000000000000000000000000000000000000000000000000000
310
0000000000000000000000000000000000000000000000000000000000000000
310
0000000000000000000000000000000000000000000000000000000000000000
310
0000000000000000000000000000000000000000000000000000000000000000
310
0000000000000000000000000000000000000000000000000000000000000000
310
0000000000000000000000000000000000000000000000000000000000000000
  1
OLE
  0
ENDSEC
  0
SECTION
  2
OBJECTS
  0
DICTIONARY
  5
C
330
0
100
AcDbDictionary
281
     1
  3
ACAD_GROUP
350
D
  3
ACAD_LAYOUT
350
1A
  3
ACAD_MLINESTYLE
350
17
  3
ACAD_PLOTSETTINGS
350
19
  3
ACAD_PLOTSTYLENAME
350
E
  0
DICTIONARY
  5
D
102
{ACAD_REACTORS
330
C
102
}
330
C
100
AcDbDictionary
281
     1
  0
DICTIONARY
  5
1A
102
{ACAD_REACTORS
330
C
102
}
330
C
100
AcDbDictionary
281
     1
  3
Layout1
350
1E
  3
Layout2
350
26
  3
Model
350
22
  0
DICTIONARY
  5
17
102
{ACAD_REACTORS
330
C
102
}
330
C
100
AcDbDictionary
281
     1
  3
Standard
350
18
  0
DICTIONARY
  5
19
102
{ACAD_REACTORS
330
C
102
}
330
C
100
AcDbDictionary
281
     1
  0
ACDBDICTIONARYWDFLT
  5
E
102
{ACAD_REACTORS
330
C
102
}
330
C
100
AcDbDictionary
281
     1
  3
Normal
350
F
100
AcDbDictionaryWithDefault
340
F
  0
LAYOUT
  5
1E
102
{ACAD_REACTORS
330
1A
102
}
330
1A
100
AcDbPlotSettings
  1

  2
none_device
  4

  6

 40
0.0
 41
0.0
 42
0.0
 43
0.0
 44
0.0
 45
0.0
 46
0.0
 47
0.0
 48
0.0
 49
0.0
140
0.0
141
0.0
142
1.0
143
1.0
 70
   688
 72
     0
 73
     0
 74
     5
  7

 75
    16
147
1.0
148
0.0
149
0.0
100
AcDbLayout
  1
Layout1
 70
     1
 71
     1
 10
0.0
 20
0.0
 11
420.0
 21
297.0
 12
0.0
 22
0.0
 32
0.0
 14
1.0000000000E+20
 24
1.0000000000E+20
 34
1.0000000000E+20
 15
-1.0000000000E+20
 25
-1.0000000000E+20
 35
-1.0000000000E+20
146
0.0
 13
0.0
 23
0.0
 33
0.0
 16
1.0
 26
0.0
 36
0.0
 17
0.0
 27
1.0
 37
0.0
 76
     0
330
1B
  0
LAYOUT
  5
26
102
{ACAD_REACTORS
330
1A
102
}
330
1A
100
AcDbPlotSettings
  1

  2
none_device
  4

  6

 40
0.0
 41
0.0
 42
0.0
 43
0.0
 44
0.0
 45
0.0
 46
0.0
 47
0.0
 48
0.0
 49
0.0
140
0.0
141
0.0
142
1.0
143
1.0
 70
   688
 72
     0
 73
     0
 74
     5
  7

 75
    16
147
1.0
148
0.0
149
0.0
100
AcDbLayout
  1
Layout2
 70
     1
 71
     2
 10
0.0
 20
0.0
 11
0.0
 21
0.0
 12
0.0
 22
0.0
 32
0.0
 14
0.0
 24
0.0
 34
0.0
 15
0.0
 25
0.0
 35
0.0
146
0.0
 13
0.0
 23
0.0
 33
0.0
 16
1.0
 26
0.0
 36
0.0
 17
0.0
 27
1.0
 37
0.0
 76
     0
330
23
  0
LAYOUT
  5
22
102
{ACAD_REACTORS
330
1A
102
}
330
1A
100
AcDbPlotSettings
  1

  2
none_device
  4

  6

 40
0.0
 41
0.0
 42
0.0
 43
0.0
 44
0.0
 45
0.0
 46
0.0
 47
0.0
 48
0.0
 49
0.0
140
0.0
141
0.0
142
1.0
143
1.0
 70
  1712
 72
     0
 73
     0
 74
     0
  7

 75
     0
147
1.0
148
0.0
149
0.0
100
AcDbLayout
  1
Model
 70
     1
 71
     0
 10
0.0
 20
0.0
 11
297.0
 21
210.0
 12
0.0
 22
0.0
 32
0.0
 14
0.0
 24
0.0
 34
0.0
 15
297.0
 25
210.0
 35
0.0
146
0.0
 13
0.0
 23
0.0
 33
0.0
 16
1.0
 26
0.0
 36
0.0
 17
0.0
 27
1.0
 37
0.0
 76
     0
330
1F
331
29
  0
MLINESTYLE
  5
18
102
{ACAD_REACTORS
330
17
102
}
330
17
100
AcDbMlineStyle
  2
Standard
 70
     0
  3

 62
   256
 51
90.0
 52
90.0
 71
     2
 49
0.5
 62
   256
  6
BYLAYER
 49
-0.5
 62
   256
  6
BYLAYER
  0
ACDBPLACEHOLDER
  5
F
102
{ACAD_REACTORS
330
E
102
}
330
E
  0
ENDSEC
  0
EOF
