  0
SECTION
  2
HEADER
  9
$ACADVER
  1
AC1015
  9
$ACADMAINTVER
 70
     6
  9
$DWGCODEPAGE
  3
ANSI_1252
  9
$INSBASE
 10
0.0
 20
0.0
 30
0.0
  9
$EXTMIN
 10
0.0
 20
0.0
 30
0.0
  9
$EXTMAX
 10
297.0
 20
210.0
 30
0.0
  9
$LIMMIN
 10
0.0
 20
0.0
  9
$LIMMAX
 10
297.0
 20
210.0
  9
$ORTHOMODE
 70
     0
  9
$REGENMODE
 70
     1
  9
$FILLMODE
 70
     1
  9
$QTEXTMODE
 70
     0
  9
$MIRRTEXT
 70
     1
  9
$LTSCALE
 40
1.0
  9
$ATTMODE
 70
     1
  9
$TEXTSIZE
 40
2.0
  9
$TRACEWID
 40
1.0
  9
$TEXTSTYLE
  7
STANDARD
  9
$CLAYER
  8
0
  9
$CELTYPE
  6
ByLayer
  9
$CECOLOR
 62
   256
  9
$CELTSCALE
 40
1.0
  9
$DISPSILH
 70
     0
  9
$DIMSCALE
 40
1.0
  9
$DIMASZ
 40
3.0
  9
$DIMEXO
 40
0.0
  9
$DIMDLI
 40
3.75
  9
$DIMRND
 40
0.0
  9
$DIMDLE
 40
0.0
  9
$DIMEXE
 40
1.0
  9
$DIMTP
 40
0.0
  9
$DIMTM
 40
0.0
  9
$DIMTXT
 40
2.0
  9
$DIMCEN
 40
2.5
  9
$DIMTSZ
 40
0.0
  9
$DIMTOL
 70
     0
  9
$DIMLIM
 70
     0
  9
$DIMTIH
 70
     1
  9
$DIMTOH
 70
     1
  9
$DIMSE1
 70
     0
  9
$DIMSE2
 70
     0
  9
$DIMTAD
 70
     1
  9
$DIMZIN
 70
     0
  9
$DIMBLK
  1

  9
$DIMASO
 70
     1
  9
$DIMSHO
 70
     1
  9
$DIMPOST
  1

  9
$DIMAPOST
  1

  9
$DIMALT
 70
     0
  9
$DIMALTD
 70
     3
  9
$DIMALTF
 40
0.0393700787
  9
$DIMLFAC
 40
1.0
  9
$DIMTOFL
 70
     1
  9
$DIMTVP
 40
0.0
  9
$DIMTIX
 70
     0
  9
$DIMSOXD
 70
     0
  9
$DIMSAH
 70
     0
  9
$DIMBLK1
  1

  9
$DIMBLK2
  1

  9
$DIMSTYLE
  2
ISO-25
  9
$DIMCLRD
 70
     0
  9
$DIMCLRE
 70
     0
  9
$DIMCLRT
 70
     0
  9
$DIMTFAC
 40
1.0
  9
$DIMGAP
 40
1.524
  9
$DIMJUST
 70
     0
  9
$DIMSD1
 70
     0
  9
$DIMSD2
 70
     0
  9
$DIMTOLJ
 70
     0
  9
$DIMTZIN
 70
     0
  9
$DIMALTZ
 70
     0
  9
$DIMALTTZ
 70
     0
  9
$DIMUPT
 70
     0
  9
$DIMDEC
 70
     2
  9
$DIMTDEC
 70
     2
  9
$DIMALTU
 70
     2
  9
$DIMALTTD
 70
     3
  9
$DIMTXSTY
  7
STANDARD
  9
$DIMAUNIT
 70
     0
  9
$DIMADEC
 70
     0
  9
$DIMALTRND
 40
0.0
  9
$DIMAZIN
 70
     0
  9
$DIMDSEP
 70
    44
  9
$DIMATFIT
 70
     3
  9
$DIMFRAC
 70
     0
  9
$DIMLDRBLK
  1

  9
$DIMLUNIT
 70
     2
  9
$DIMLWD
 70
    -2
  9
$DIMLWE
 70
    -2
  9
$DIMTMOVE
 70
     0
  9
$LUNITS
 70
     2
  9
$LUPREC
 70
     2
  9
$SKETCHINC
 40
1.0
  9
$FILLETRAD
 40
10.0
  9
$AUNITS
 70
     0
  9
$AUPREC
 70
     0
  9
$MENU
  1
.
  9
$ELEVATION
 40
0.0
  9
$PELEVATION
 40
0.0
  9
$THICKNESS
 40
0.0
  9
$LIMCHECK
 70
     0
  9
$CHAMFERA
 40
10.0
  9
$CHAMFERB
 40
10.0
  9
$CHAMFERC
 40
20.0
  9
$CHAMFERD
 40
0.0
  9
$SKPOLY
 70
     0
  9
$TDCREATE
 40
2454910.398400614
  9
$TDUCREATE
 40
2454910.356733947
  9
$TDUPDATE
 40
2454910.398400625
  9
$TDUUPDATE
 40
2454910.356733958
  9
$TDINDWG
 40
0.0000000116
  9
$TDUSRTIMER
 40
0.0000000116
  9
$USRTIMER
 70
     1
  9
$ANGBASE
 50
0.0
  9
$ANGDIR
 70
     0
  9
$PDMODE
 70
     0
  9
$PDSIZE
 40
-1.0
  9
$PLINEWID
 40
0.0
  9
$SPLFRAME
 70
     0
  9
$SPLINETYPE
 70
     6
  9
$SPLINESEGS
 70
     8
  9
$HANDSEED
  5
268
  9
$SURFTAB1
 70
     6
  9
$SURFTAB2
 70
     6
  9
$SURFTYPE
 70
     6
  9
$SURFU
 70
     6
  9
$SURFV
 70
     6
  9
$UCSBASE
  2

  9
$UCSNAME
  2

  9
$UCSORG
 10
0.0
 20
0.0
 30
0.0
  9
$UCSXDIR
 10
1.0
 20
0.0
 30
0.0
  9
$UCSYDIR
 10
0.0
 20
1.0
 30
0.0
  9
$UCSORTHOREF
  2

  9
$UCSORTHOVIEW
 70
     0
  9
$UCSORGTOP
 10
0.0
 20
0.0
 30
0.0
  9
$UCSORGBOTTOM
 10
0.0
 20
0.0
 30
0.0
  9
$UCSORGLEFT
 10
0.0
 20
0.0
 30
0.0
  9
$UCSORGRIGHT
 10
0.0
 20
0.0
 30
0.0
  9
$UCSORGFRONT
 10
0.0
 20
0.0
 30
0.0
  9
$UCSORGBACK
 10
0.0
 20
0.0
 30
0.0
  9
$PUCSBASE
  2

  9
$PUCSNAME
  2

  9
$PUCSORG
 10
0.0
 20
0.0
 30
0.0
  9
$PUCSXDIR
 10
1.0
 20
0.0
 30
0.0
  9
$PUCSYDIR
 10
0.0
 20
1.0
 30
0.0
  9
$PUCSORTHOREF
  2

  9
$PUCSORTHOVIEW
 70
     0
  9
$PUCSORGTOP
 10
0.0
 20
0.0
 30
0.0
  9
$PUCSORGBOTTOM
 10
0.0
 20
0.0
 30
0.0
  9
$PUCSORGLEFT
 10
0.0
 20
0.0
 30
0.0
  9
$PUCSORGRIGHT
 10
0.0
 20
0.0
 30
0.0
  9
$PUCSORGFRONT
 10
0.0
 20
0.0
 30
0.0
  9
$PUCSORGBACK
 10
0.0
 20
0.0
 30
0.0
  9
$USERI1
 70
     0
  9
$USERI2
 70
     0
  9
$USERI3
 70
     0
  9
$USERI4
 70
     0
  9
$USERI5
 70
     0
  9
$USERR1
 40
0.0
  9
$USERR2
 40
0.0
  9
$USERR3
 40
0.0
  9
$USERR4
 40
0.0
  9
$USERR5
 40
0.0
  9
$WORLDVIEW
 70
     1
  9
$SHADEDGE
 70
     3
  9
$SHADEDIF
 70
    70
  9
$TILEMODE
 70
     1
  9
$MAXACTVP
 70
    64
  9
$PINSBASE
 10
0.0
 20
0.0
 30
0.0
  9
$PLIMCHECK
 70
     0
  9
$PEXTMIN
 10
1.0000000000E+20
 20
1.0000000000E+20
 30
1.0000000000E+20
  9
$PEXTMAX
 10
-1.0000000000E+20
 20
-1.0000000000E+20
 30
-1.0000000000E+20
  9
$PLIMMIN
 10
0.0
 20
0.0
  9
$PLIMMAX
 10
420.0
 20
297.0
  9
$UNITMODE
 70
     0
  9
$VISRETAIN
 70
     1
  9
$PLINEGEN
 70
     0
  9
$PSLTSCALE
 70
     1
  9
$TREEDEPTH
 70
  3020
  9
$CMLSTYLE
  2
Standard
  9
$CMLJUST
 70
     0
  9
$CMLSCALE
 40
20.0
  9
$PROXYGRAPHICS
 70
     1
  9
$MEASUREMENT
 70
     1
  9
$CELWEIGHT
370
    -1
  9
$ENDCAPS
280
     0
  9
$JOINSTYLE
280
     0
  9
$LWDISPLAY
290
     1
  9
$INSUNITS
 70
     4
  9
$HYPERLINKBASE
  1

  9
$STYLESHEET
  1

  9
$XEDIT
290
     1
  9
$CEPSNTYPE
380
     0
  9
$PSTYLEMODE
290
     1
  9
$FINGERPRINTGUID
  2
{6D4F578F-2748-46EB-A430-9A7A24011416}
  9
$VERSIONGUID
  2
{FAEB1C32-E019-11D5-929B-00C0DF256EC4}
  9
$EXTNAMES
290
     1
  9
$PSVPSCALE
 40
0.0
  9
$OLESTARTUP
290
     0
  0
ENDSEC
  0
SECTION
  2
CLASSES
  0
CLASS
  1
ACDBDICTIONARYWDFLT
  2
AcDbDictionaryWithDefault
  3
ObjectDBX Classes
 90
        0
280
     0
281
     0
  0
CLASS
  1
VISUALSTYLE
  2
AcDbVisualStyle
  3
ObjectDBX Classes
 90
     4095
280
     0
281
     0
  0
CLASS
  1
SCALE
  2
AcDbScale
  3
ObjectDBX Classes
 90
     1153
280
     0
281
     0
  0
CLASS
  1
DICTIONARYVAR
  2
AcDbDictionaryVar
  3
ObjectDBX Classes
 90
        0
280
     0
281
     0
  0
CLASS
  1
ACDBPLACEHOLDER
  2
AcDbPlaceHolder
  3
ObjectDBX Classes
 90
        0
280
     0
281
     0
  0
CLASS
  1
LAYOUT
  2
AcDbLayout
  3
ObjectDBX Classes
 90
        0
280
     0
281
     0
  0
ENDSEC
  0
SECTION
  2
TABLES
  0
TABLE
  2
VPORT
  5
8
330
0
100
AcDbSymbolTable
 70
     1
  0
VPORT
  5
29
330
8
100
AcDbSymbolTableRecord
100
AcDbViewportTableRecord
  2
*Active
 70
     0
 10
0.0
 20
0.0
 11
1.0
 21
1.0
 12
148.5
 22
105.0
 13
0.0
 23
0.0
 14
10.0
 24
10.0
 15
10.0
 25
10.0
 16
0.0
 26
0.0
 36
1.0
 17
0.0
 27
0.0
 37
0.0
 40
210.0
 41
1.4142857143
 42
50.0
 43
0.0
 44
0.0
 50
0.0
 51
0.0
 71
     0
 72
  2000
 73
     1
 74
     3
 75
     0
 76
     0
 77
     0
 78
     0
281
     0
 65
     1
110
0.0
120
0.0
130
0.0
111
1.0
121
0.0
131
0.0
112
0.0
122
1.0
132
0.0
 79
     0
146
0.0
  0
ENDTAB
  0
TABLE
  2
LTYPE
  5
5
330
0
100
AcDbSymbolTable
 70
     8
  0
LTYPE
  5
14
330
5
100
AcDbSymbolTableRecord
100
AcDbLinetypeTableRecord
  2
ByBlock
 70
     0
  3

 72
    65
 73
     0
 40
0.0
  0
LTYPE
  5
15
330
5
100
AcDbSymbolTableRecord
100
AcDbLinetypeTableRecord
  2
ByLayer
 70
     0
  3

 72
    65
 73
     0
 40
0.0
  0
LTYPE
  5
16
330
5
100
AcDbSymbolTableRecord
100
AcDbLinetypeTableRecord
  2
Continuous
 70
     0
  3
Solid line
 72
    65
 73
     0
 40
0.0
  0
LTYPE
  5
5D
330
5
100
AcDbSymbolTableRecord
100
AcDbLinetypeTableRecord
  2
SLD-Durchgehend
 70
     0
  3
SolidWorks Line Style
 72
    65
 73
     0
 40
0.0
  0
LTYPE
  5
5E
330
5
100
AcDbSymbolTableRecord
100
AcDbLinetypeTableRecord
  2
SLD-Gestrichelt
 70
     0
  3
SolidWorks Line Style
 72
    65
 73
     2
 40
1.905
 49
1.27
 74
     0
 49
-0.635
 74
     0
  0
LTYPE
  5
5F
330
5
100
AcDbSymbolTableRecord
100
AcDbLinetypeTableRecord
  2
SLD-Phantom
 70
     0
  3
SolidWorks Line Style
 72
    65
 73
     6
 40
12.7
 49
6.35
 74
     0
 49
-1.27
 74
     0
 49
1.27
 74
     0
 49
-1.27
 74
     0
 49
1.27
 74
     0
 49
-1.27
 74
     0
  0
LTYPE
  5
60
330
5
100
AcDbSymbolTableRecord
100
AcDbLinetypeTableRecord
  2
SLD-Kette
 70
     0
  3
SolidWorks Line Style
 72
    65
 73
     4
 40
10.16
 49
6.35
 74
     0
 49
-1.27
 74
     0
 49
1.27
 74
     0
 49
-1.27
 74
     0
  0
LTYPE
  5
61
330
5
100
AcDbSymbolTableRecord
100
AcDbLinetypeTableRecord
  2
SLD-Punktstrich
 70
     0
  3
SolidWorks Line Style
 72
    65
 73
     4
 40
19.05
 49
15.24
 74
     0
 49
-1.27
 74
     0
 49
1.27
 74
     0
 49
-1.27
 74
     0
  0
LTYPE
  5
62
330
5
100
AcDbSymbolTableRecord
100
AcDbLinetypeTableRecord
  2
SLD-Naht
 70
     0
  3
SolidWorks Line Style
 72
    65
 73
     2
 40
0.635
 49
0.0
 74
     0
 49
-0.635
 74
     0
  0
LTYPE
  5
63
330
5
100
AcDbSymbolTableRecord
100
AcDbLinetypeTableRecord
  2
SLD-Dicke-Dünne-Kette
 70
     0
  3
SolidWorks Line Style
 72
    65
 73
     4
 40
10.16
 49
6.35
 74
     0
 49
-1.27
 74
     0
 49
1.27
 74
     0
 49
-1.27
 74
     0
  0
ENDTAB
  0
TABLE
  2
LAYER
  5
2
330
0
100
AcDbSymbolTable
 70
     5
  0
LAYER
  5
10
330
2
100
AcDbSymbolTableRecord
100
AcDbLayerTableRecord
  2
0
 70
     0
 62
     7
  6
Continuous
370
    -3
390
F
  0
LAYER
  5
64
330
2
100
AcDbSymbolTableRecord
100
AcDbLayerTableRecord
  2
FORMAT
 70
     0
 62
     7
  6
SLD-Durchgehend
370
    -3
390
F
  0
LAYER
  5
65
330
2
100
AcDbSymbolTableRecord
100
AcDbLayerTableRecord
  2
VERMASSUNG
 70
     0
 62
     7
  6
SLD-Durchgehend
370
    -3
390
F
  0
LAYER
  5
66
330
2
100
AcDbSymbolTableRecord
100
AcDbLayerTableRecord
  2
KOPF_DÜNN
 70
     0
 62
     7
  6
SLD-Durchgehend
370
    -3
390
F
  0
LAYER
  5
67
330
2
100
AcDbSymbolTableRecord
100
AcDbLayerTableRecord
  2
KOPF_DICK
 70
     0
 62
     7
  6
SLD-Durchgehend
370
    15
390
F
  0
ENDTAB
  0
TABLE
  2
STYLE
  5
3
330
0
100
AcDbSymbolTable
 70
     2
  0
STYLE
  5
11
330
3
100
AcDbSymbolTableRecord
100
AcDbTextStyleTableRecord
  2
STANDARD
 70
     0
 40
0.0
 41
1.0
 50
0.0
 71
     0
 42
2.5
  3
ISOCPEUR.TTF
  4

1001
ACAD
1000
ISOCPEUR
1071
       34
  0
STYLE
  5
68
330
3
100
AcDbSymbolTableRecord
100
AcDbTextStyleTableRecord
  2
SLDTEXTSTYLE0
 70
     0
 40
0.0
 41
1.0
 50
0.0
 71
     0
 42
0.2
  3
ISOCPEUR.TTF
  4

1001
ACAD
1000
ISOCPEUR
1071
      290
  0
ENDTAB
  0
TABLE
  2
VIEW
  5
6
330
0
100
AcDbSymbolTable
 70
     0
  0
ENDTAB
  0
TABLE
  2
UCS
  5
7
330
0
100
AcDbSymbolTable
 70
     0
  0
ENDTAB
  0
TABLE
  2
APPID
  5
9
330
0
100
AcDbSymbolTable
 70
     1
  0
APPID
  5
12
330
9
100
AcDbSymbolTableRecord
100
AcDbRegAppTableRecord
  2
ACAD
 70
     0
  0
ENDTAB
  0
TABLE
  2
DIMSTYLE
  5
A
330
0
100
AcDbSymbolTable
 70
     4
100
AcDbDimStyleTable
  0
DIMSTYLE
105
27
330
A
100
AcDbSymbolTableRecord
100
AcDbDimStyleTableRecord
  2
ISO-25
 70
     0
 41
2.5
 42
0.625
 43
3.75
 44
1.25
 73
     0
 74
     0
 77
     1
 78
     8
140
2.5
141
2.5
143
0.0393700787
147
0.625
171
     3
172
     1
271
     2
272
     2
274
     3
278
    44
283
     0
284
     8
340
11
  0
DIMSTYLE
105
1D7
102
{ACAD_REACTORS
330
1D6
102
}
330
A
100
AcDbSymbolTableRecord
100
AcDbDimStyleTableRecord
  2
SLDDIMSTYLE0
 70
     0
 41
3.0
 44
0.0
 73
     0
 74
     0
 77
     1
 78
    12
140
2.0
147
0.5
173
     1
179
     2
272
     3
284
    12
340
68
  0
DIMSTYLE
105
1E4
102
{ACAD_REACTORS
330
1E3
330
1F0
330
1FA
330
204
102
}
330
A
100
AcDbSymbolTableRecord
100
AcDbDimStyleTableRecord
  2
SLDDIMSTYLE1
 70
     0
 41
3.0
 44
0.0
 45
0.000000001
 73
     0
 74
     0
 77
     1
 78
    12
140
2.0
147
0.5
173
     1
271
     2
272
     3
284
    12
340
68
  0
DIMSTYLE
105
24A
102
{ACAD_REACTORS
330
249
102
}
330
A
100
AcDbSymbolTableRecord
100
AcDbDimStyleTableRecord
  2
SLDDIMSTYLE2
 70
     0
 41
3.0
 44
0.0
 45
0.000000001
 73
     0
 74
     0
 77
     1
 78
    12
140
2.0
147
0.5
173
     1
271
     2
272
     3
284
    12
340
68
  0
ENDTAB
  0
TABLE
  2
BLOCK_RECORD
  5
1
330
0
100
AcDbSymbolTable
 70
     8
  0
BLOCK_RECORD
  5
1F
330
1
100
AcDbSymbolTableRecord
100
AcDbBlockTableRecord
  2
*Model_Space
340
22
  0
BLOCK_RECORD
  5
1B
330
1
100
AcDbSymbolTableRecord
100
AcDbBlockTableRecord
  2
*Paper_Space
340
1E
  0
BLOCK_RECORD
  5
23
330
1
100
AcDbSymbolTableRecord
100
AcDbBlockTableRecord
  2
*Paper_Space0
340
26
  0
BLOCK_RECORD
  5
1D8
330
1
100
AcDbSymbolTableRecord
100
AcDbBlockTableRecord
  2
*D1
340
0
  0
BLOCK_RECORD
  5
1E5
330
1
100
AcDbSymbolTableRecord
100
AcDbBlockTableRecord
  2
*D2
340
0
  0
BLOCK_RECORD
  5
1F1
330
1
100
AcDbSymbolTableRecord
100
AcDbBlockTableRecord
  2
*D3
340
0
  0
BLOCK_RECORD
  5
1FB
330
1
100
AcDbSymbolTableRecord
100
AcDbBlockTableRecord
  2
*D4
340
0
  0
BLOCK_RECORD
  5
205
330
1
100
AcDbSymbolTableRecord
100
AcDbBlockTableRecord
  2
*D5
340
0
  0
BLOCK_RECORD
  5
24B
330
1
100
AcDbSymbolTableRecord
100
AcDbBlockTableRecord
  2
*D6
340
0
  0
BLOCK_RECORD
  5
255
330
1
100
AcDbSymbolTableRecord
100
AcDbBlockTableRecord
  2
SW_CENTERMARKSYMBOL_0
340
0
102
{BLKREFS
331
260
102
}
  0
ENDTAB
  0
ENDSEC
  0
SECTION
  2
BLOCKS
  0
BLOCK
  5
20
330
1F
100
AcDbEntity
  8
0
100
AcDbBlockBegin
  2
*Model_Space
 70
     0
 10
0.0
 20
0.0
 30
0.0
  3
*Model_Space
  1

  0
ENDBLK
  5
21
330
1F
100
AcDbEntity
  8
0
100
AcDbBlockEnd
  0
BLOCK
  5
1C
330
1B
100
AcDbEntity
 67
     1
  8
0
100
AcDbBlockBegin
  2
*Paper_Space
 70
     0
 10
0.0
 20
0.0
 30
0.0
  3
*Paper_Space
  1

  0
ENDBLK
  5
1D
330
1B
100
AcDbEntity
 67
     1
  8
0
100
AcDbBlockEnd
  0
BLOCK
  5
24
330
23
100
AcDbEntity
  8
0
100
AcDbBlockBegin
  2
*Paper_Space0
 70
     0
 10
0.0
 20
0.0
 30
0.0
  3
*Paper_Space0
  1

  0
ENDBLK
  5
25
330
23
100
AcDbEntity
  8
0
100
AcDbBlockEnd
  0
BLOCK
  5
1D9
330
1D8
100
AcDbEntity
  8
0
100
AcDbBlockBegin
  2
*D1
 70
     1
 10
0.0
 20
0.0
 30
0.0
  3
*D1
  1

  0
ARC
  5
1DB
330
1D8
100
AcDbEntity
  8
VERMASSUNG
100
AcDbCircle
 10
243.2596893204
 20
81.9707671503
 30
0.0
 40
28.15877076576351
100
AcDbArc
 50
177.0
 51
180.0
  0
ARC
  5
1DC
330
1D8
100
AcDbEntity
  8
VERMASSUNG
100
AcDbCircle
 10
243.2596893204
 20
81.9707671503
 30
0.0
 40
28.15877076576353
100
AcDbArc
 50
164.8546240154
 51
177.0
  0
ARC
  5
1DD
330
1D8
100
AcDbEntity
  8
VERMASSUNG
100
AcDbCircle
 10
243.2596893204
 20
81.9707671503
 30
0.0
 40
28.15877076576351
100
AcDbArc
 50
180.0
 51
199.72752505
  0
SOLID
  5
1DE
330
1D8
100
AcDbEntity
  8
VERMASSUNG
100
AcDbTrace
 10
215.1395091713
 20
83.4444833449
 30
0.0
 11
215.902712131
 21
86.3804706137
 31
0.0
 12
215.0077093791
 22
86.4751810888
 32
0.0
 13
215.0077093791
 23
86.4751810888
 33
0.0
  0
SOLID
  5
1DF
330
1D8
100
AcDbEntity
  8
VERMASSUNG
100
AcDbTrace
 10
215.1009185546
 20
81.9707671503
 30
0.0
 11
214.810684925
 21
78.9511207405
 31
0.0
 12
215.70941787
 22
78.9988605933
 32
0.0
 13
215.70941787
 23
78.9988605933
 33
0.0
  0
LINE
  5
1E0
330
1D8
100
AcDbEntity
  8
VERMASSUNG
100
AcDbLine
 10
220.3964464322
 20
83.1689789372
 30
0.0
 11
214.1408796366
 21
83.4968193012
 31
0.0
  0
LINE
  5
1E1
330
1D8
100
AcDbEntity
  8
VERMASSUNG
100
AcDbLine
 10
217.569855787
 20
81.9707671503
 30
0.0
 11
214.1009185546
 21
81.9707671503
 31
0.0
  0
MTEXT
  5
1E2
330
1D8
100
AcDbEntity
  8
VERMASSUNG
100
AcDbMText
 10
218.1348686321
 20
77.1042088789
 30
0.0
 40
2.0
 41
0.0
 71
     1
 72
     1
  1
3°
  7
SLDTEXTSTYLE0
 11
0.2397749939602186
 21
-0.9708284875668705
 31
0.0
 73
     1
 44
1.0
  0
ENDBLK
  5
1DA
330
1D8
100
AcDbEntity
  8
0
100
AcDbBlockEnd
  0
BLOCK
  5
1E6
330
1E5
100
AcDbEntity
  8
0
100
AcDbBlockBegin
  2
*D2
 70
     1
 10
0.0
 20
0.0
 30
0.0
  3
*D2
  1

  0
SOLID
  5
1E8
330
1E5
100
AcDbEntity
  8
VERMASSUNG
100
AcDbTrace
 10
157.4219365507
 20
128.9707671503
 30
0.0
 11
156.9719365507
 21
125.9707671503
 31
0.0
 12
157.8719365507
 22
125.9707671503
 32
0.0
 13
157.8719365507
 23
125.9707671503
 33
0.0
  0
SOLID
  5
1E9
330
1E5
100
AcDbEntity
  8
VERMASSUNG
100
AcDbTrace
 10
157.4219365507
 20
88.9707671503
 30
0.0
 11
157.8719365507
 21
91.9707671503
 31
0.0
 12
156.9719365507
 22
91.9707671503
 32
0.0
 13
156.9719365507
 23
91.9707671503
 33
0.0
  0
LINE
  5
1EA
330
1E5
100
AcDbEntity
  8
VERMASSUNG
100
AcDbLine
 10
183.2035724873
 20
128.9707671503
 30
0.0
 11
156.4219365507
 21
128.9707671503
 31
0.0
  0
LINE
  5
1EB
330
1E5
100
AcDbEntity
  8
VERMASSUNG
100
AcDbLine
 10
183.2035724873
 20
88.9707671503
 30
0.0
 11
156.4219365507
 21
88.9707671503
 31
0.0
  0
LINE
  5
1EC
330
1E5
100
AcDbEntity
  8
VERMASSUNG
100
AcDbLine
 10
157.4219365507
 20
128.9707671503
 30
0.0
 11
157.4219365507
 21
88.9707671503
 31
0.0
  0
MTEXT
  5
1ED
330
1E5
100
AcDbEntity
  8
VERMASSUNG
100
AcDbMText
 10
154.621936774
 20
102.6676606986
 30
0.0
 40
2.0
 41
0.0
 71
     1
 72
     1
  1
HSK 
  7
SLDTEXTSTYLE0
 11
-7.044195017643634E-15
 21
1.0
 31
0.0
 73
     1
 44
1.0
  0
MTEXT
  5
1EE
330
1E5
100
AcDbEntity
  8
VERMASSUNG
100
AcDbMText
 10
154.8219367253
 20
108.6676607508
 30
0.0
 40
2.0
 41
0.0
 71
     1
 72
     1
  1
%%c
  7
SLDTEXTSTYLE0
 11
-7.044195017643634E-15
 21
1.0
 31
0.0
 73
     1
 44
1.0
  0
MTEXT
  5
1EF
330
1E5
100
AcDbEntity
  8
VERMASSUNG
100
AcDbMText
 10
154.8219364343
 20
112.2762334406
 30
0.0
 40
2.0
 41
0.0
 71
     1
 72
     1
  1
40
  7
SLDTEXTSTYLE0
 11
-7.044195017643634E-15
 21
1.0
 31
0.0
 73
     1
 44
1.0
  0
ENDBLK
  5
1E7
330
1E5
100
AcDbEntity
  8
0
100
AcDbBlockEnd
  0
BLOCK
  5
1F2
330
1F1
100
AcDbEntity
  8
0
100
AcDbBlockBegin
  2
*D3
 70
     1
 10
0.0
 20
0.0
 30
0.0
  3
*D3
  1

  0
SOLID
  5
1F4
330
1F1
100
AcDbEntity
  8
VERMASSUNG
100
AcDbTrace
 10
163.0035724873
 20
140.1946209677
 30
0.0
 11
166.0035724873
 21
139.7446209677
 31
0.0
 12
166.0035724873
 22
140.6446209677
 32
0.0
 13
166.0035724873
 23
140.6446209677
 33
0.0
  0
SOLID
  5
1F5
330
1F1
100
AcDbEntity
  8
VERMASSUNG
100
AcDbTrace
 10
237.9035724873
 20
140.1946209677
 30
0.0
 11
234.9035724873
 21
140.6446209677
 31
0.0
 12
234.9035724873
 22
139.7446209677
 32
0.0
 13
234.9035724873
 23
139.7446209677
 33
0.0
  0
LINE
  5
1F6
330
1F1
100
AcDbEntity
  8
VERMASSUNG
100
AcDbLine
 10
163.0035724873
 20
120.9007671503
 30
0.0
 11
163.0035724873
 21
141.1946209677
 31
0.0
  0
LINE
  5
1F7
330
1F1
100
AcDbEntity
  8
VERMASSUNG
100
AcDbLine
 10
237.9035724873
 20
81.9707671503
 30
0.0
 11
237.9035724873
 21
141.1946209677
 31
0.0
  0
LINE
  5
1F8
330
1F1
100
AcDbEntity
  8
VERMASSUNG
100
AcDbLine
 10
163.0035724873
 20
140.1946209677
 30
0.0
 11
237.9035724873
 21
140.1946209677
 31
0.0
  0
MTEXT
  5
1F9
330
1F1
100
AcDbEntity
  8
VERMASSUNG
100
AcDbMText
 10
197.9543174873
 20
142.7946210842
 30
0.0
 40
2.0
 41
0.0
 71
     1
 72
     1
  1
74.9
  7
SLDTEXTSTYLE0
 73
     1
 44
1.0
  0
ENDBLK
  5
1F3
330
1F1
100
AcDbEntity
  8
0
100
AcDbBlockEnd
  0
BLOCK
  5
1FC
330
1FB
100
AcDbEntity
  8
0
100
AcDbBlockBegin
  2
*D4
 70
     1
 10
0.0
 20
0.0
 30
0.0
  3
*D4
  1

  0
SOLID
  5
1FE
330
1FB
100
AcDbEntity
  8
VERMASSUNG
100
AcDbTrace
 10
182.9035724873
 20
134.1946209677
 30
0.0
 11
185.9035724873
 21
133.7446209677
 31
0.0
 12
185.9035724873
 22
134.6446209677
 32
0.0
 13
185.9035724873
 23
134.6446209677
 33
0.0
  0
SOLID
  5
1FF
330
1FB
100
AcDbEntity
  8
VERMASSUNG
100
AcDbTrace
 10
237.9035724873
 20
134.1946209677
 30
0.0
 11
234.9035724873
 21
134.6446209677
 31
0.0
 12
234.9035724873
 22
133.7446209677
 32
0.0
 13
234.9035724873
 23
133.7446209677
 33
0.0
  0
LINE
  5
200
330
1FB
100
AcDbEntity
  8
VERMASSUNG
100
AcDbLine
 10
182.9035724873
 20
128.6707671503
 30
0.0
 11
182.9035724873
 21
135.1946209677
 31
0.0
  0
LINE
  5
201
330
1FB
100
AcDbEntity
  8
VERMASSUNG
100
AcDbLine
 10
237.9035724873
 20
81.9707671503
 30
0.0
 11
237.9035724873
 21
135.1946209677
 31
0.0
  0
LINE
  5
202
330
1FB
100
AcDbEntity
  8
VERMASSUNG
100
AcDbLine
 10
182.9035724873
 20
134.1946209677
 30
0.0
 11
237.9035724873
 21
134.1946209677
 31
0.0
  0
MTEXT
  5
203
330
1FB
100
AcDbEntity
  8
VERMASSUNG
100
AcDbMText
 10
209.0036965195
 20
136.7946210842
 30
0.0
 40
2.0
 41
0.0
 71
     1
 72
     1
  1
55
  7
SLDTEXTSTYLE0
 73
     1
 44
1.0
  0
ENDBLK
  5
1FD
330
1FB
100
AcDbEntity
  8
0
100
AcDbBlockEnd
  0
BLOCK
  5
206
330
205
100
AcDbEntity
  8
0
100
AcDbBlockBegin
  2
*D5
 70
     1
 10
0.0
 20
0.0
 30
0.0
  3
*D5
  1

  0
SOLID
  5
208
330
205
100
AcDbEntity
  8
VERMASSUNG
100
AcDbTrace
 10
248.4593713264
 20
81.9707671503
 30
0.0
 11
248.9093713264
 21
84.9707671503
 31
0.0
 12
248.0093713264
 22
84.9707671503
 32
0.0
 13
248.0093713264
 23
84.9707671503
 33
0.0
  0
SOLID
  5
209
330
205
100
AcDbEntity
  8
VERMASSUNG
100
AcDbTrace
 10
248.4593713264
 20
108.9707671503
 30
0.0
 11
248.0093713264
 21
105.9707671503
 31
0.0
 12
248.9093713264
 22
105.9707671503
 32
0.0
 13
248.9093713264
 23
105.9707671503
 33
0.0
  0
LINE
  5
20A
330
205
100
AcDbEntity
  8
VERMASSUNG
100
AcDbLine
 10
237.9035724873
 20
81.9707671503
 30
0.0
 11
249.4593713264
 21
81.9707671503
 31
0.0
  0
LINE
  5
20B
330
205
100
AcDbEntity
  8
VERMASSUNG
100
AcDbLine
 10
231.197733871
 20
108.9707671503
 30
0.0
 11
249.4593713264
 21
108.9707671503
 31
0.0
  0
LINE
  5
20C
330
205
100
AcDbEntity
  8
VERMASSUNG
100
AcDbLine
 10
248.4593713264
 20
81.9707671503
 30
0.0
 11
248.4593713264
 21
108.9707671503
 31
0.0
  0
MTEXT
  5
20D
330
205
100
AcDbEntity
  8
VERMASSUNG
100
AcDbMText
 10
245.85937121
 20
94.0708911825
 30
0.0
 40
2.0
 41
0.0
 71
     1
 72
     1
  1
27
  7
SLDTEXTSTYLE0
 11
6.123233995736766E-17
 21
1.0
 31
0.0
 73
     1
 44
1.0
  0
ENDBLK
  5
207
330
205
100
AcDbEntity
  8
0
100
AcDbBlockEnd
  0
BLOCK
  5
24C
330
24B
100
AcDbEntity
  8
0
100
AcDbBlockBegin
  2
*D6
 70
     1
 10
0.0
 20
0.0
 30
0.0
  3
*D6
  1

  0
SOLID
  5
24E
330
24B
100
AcDbEntity
  8
VERMASSUNG
100
AcDbTrace
 10
54.8581693548
 20
81.9785387193
 30
0.0
 11
55.3081693548
 21
84.9785387193
 31
0.0
 12
54.4081693548
 22
84.9785387193
 32
0.0
 13
54.4081693548
 23
84.9785387193
 33
0.0
  0
SOLID
  5
24F
330
24B
100
AcDbEntity
  8
VERMASSUNG
100
AcDbTrace
 10
54.8581693548
 20
131.9785387193
 30
0.0
 11
54.4081693548
 21
128.9785387193
 31
0.0
 12
55.3081693548
 22
128.9785387193
 32
0.0
 13
55.3081693548
 23
128.9785387193
 33
0.0
  0
LINE
  5
250
330
24B
100
AcDbEntity
  8
VERMASSUNG
100
AcDbLine
 10
84.8581693548
 20
81.9785387193
 30
0.0
 11
53.8581693548
 21
81.9785387193
 31
0.0
  0
LINE
  5
251
330
24B
100
AcDbEntity
  8
VERMASSUNG
100
AcDbLine
 10
84.8581693548
 20
131.9785387193
 30
0.0
 11
53.8581693548
 21
131.9785387193
 31
0.0
  0
LINE
  5
252
330
24B
100
AcDbEntity
  8
VERMASSUNG
100
AcDbLine
 10
54.8581693548
 20
81.9785387193
 30
0.0
 11
54.8581693548
 21
131.9785387193
 31
0.0
  0
MTEXT
  5
253
330
24B
100
AcDbEntity
  8
VERMASSUNG
100
AcDbMText
 10
52.2581692966
 20
103.7744596064
 30
0.0
 40
2.0
 41
0.0
 71
     1
 72
     1
  1
%%c
  7
SLDTEXTSTYLE0
 11
6.123233995736766E-17
 21
1.0
 31
0.0
 73
     1
 44
1.0
  0
MTEXT
  5
254
330
24B
100
AcDbEntity
  8
VERMASSUNG
100
AcDbMText
 10
52.2581692384
 20
107.3828658968
 30
0.0
 40
2.0
 41
0.0
 71
     1
 72
     1
  1
50
  7
SLDTEXTSTYLE0
 11
6.123233995736766E-17
 21
1.0
 31
0.0
 73
     1
 44
1.0
  0
ENDBLK
  5
24D
330
24B
100
AcDbEntity
  8
0
100
AcDbBlockEnd
  0
BLOCK
  5
256
330
255
100
AcDbEntity
  8
0
100
AcDbBlockBegin
  2
SW_CENTERMARKSYMBOL_0
 70
     0
 10
0.0
 20
0.0
 30
0.0
  3
SW_CENTERMARKSYMBOL_0
  1

  0
LINE
  5
258
330
255
100
AcDbEntity
  8
VERMASSUNG
 62
     0
100
AcDbLine
 10
0.0
 20
0.0
 30
0.0
 11
0.0
 21
2.5
 31
0.0
  0
LINE
  5
259
330
255
100
AcDbEntity
  8
VERMASSUNG
 62
     0
100
AcDbLine
 10
0.0
 20
0.0
 30
0.0
 11
-2.5
 21
0.0
 31
0.0
  0
LINE
  5
25A
330
255
100
AcDbEntity
  8
VERMASSUNG
 62
     0
100
AcDbLine
 10
0.0
 20
0.0
 30
0.0
 11
0.0
 21
-2.5
 31
0.0
  0
LINE
  5
25B
330
255
100
AcDbEntity
  8
VERMASSUNG
 62
     0
100
AcDbLine
 10
0.0
 20
0.0
 30
0.0
 11
2.5
 21
0.0
 31
0.0
  0
LINE
  5
25C
330
255
100
AcDbEntity
  8
VERMASSUNG
 62
     0
100
AcDbLine
 10
0.0
 20
5.0
 30
0.0
 11
0.0
 21
22.5
 31
0.0
  0
LINE
  5
25D
330
255
100
AcDbEntity
  8
VERMASSUNG
 62
     0
100
AcDbLine
 10
-5.0
 20
0.0
 30
0.0
 11
-22.5
 21
0.0
 31
0.0
  0
LINE
  5
25E
330
255
100
AcDbEntity
  8
VERMASSUNG
 62
     0
100
AcDbLine
 10
0.0
 20
-5.0
 30
0.0
 11
0.0
 21
-22.5
 31
0.0
  0
LINE
  5
25F
330
255
100
AcDbEntity
  8
VERMASSUNG
 62
     0
100
AcDbLine
 10
5.0
 20
0.0
 30
0.0
 11
22.5
 21
0.0
 31
0.0
  0
ENDBLK
  5
257
330
255
100
AcDbEntity
  8
0
100
AcDbBlockEnd
  0
ENDSEC
  0
SECTION
  2
ENTITIES
  0
MTEXT
  5
69
330
1F
100
AcDbEntity
  8
KOPF_DÜNN
100
AcDbMText
 10
13.8892156294
 20
23.8770940835
 30
0.0
 40
3.0
 41
0.0
 71
     1
 72
     1
  1
HA4.KDB.LJA.055
  7
SLDTEXTSTYLE0
 73
     1
 44
1.0
  0
MTEXT
  5
6A
330
1F
100
AcDbEntity
  8
VERMASSUNG
100
AcDbMText
 10
13.9329988022
 20
28.9162328764
 30
0.0
 40
3.0
 41
0.0
 71
     1
 72
     1
  1
Klemmhalter links_Turning tool left 93° /55°
  7
SLDTEXTSTYLE0
 73
     1
 44
1.0
  0
MTEXT
  5
6B
330
1F
100
AcDbEntity
  8
VERMASSUNG
100
AcDbMText
 10
98.8601118557
 20
13.8584013966
 30
0.0
 40
2.0
 41
0.0
 71
     1
 72
     1
  1
Datum: 26.02.2009
  7
SLDTEXTSTYLE0
 73
     1
 44
1.0
  0
MTEXT
  5
6C
330
1F
100
AcDbEntity
  8
VERMASSUNG
100
AcDbMText
 10
13.933048693
 20
18.0701447943
 30
0.0
 40
2.0
 41
0.0
 71
     1
 72
     1
  1
DIN 69893 HSK 40 A ICTM / DC.. 11 T3..
  7
SLDTEXTSTYLE0
 73
     1
 44
1.0
  0
MTEXT
  5
6D
330
1F
100
AcDbEntity
  8
VERMASSUNG
100
AcDbMText
 10
13.9808475933
 20
13.9309619479
 30
0.0
 40
2.0
 41
0.0
 71
     1
 72
     1
  1
Gewicht: 318g
  7
SLDTEXTSTYLE0
 73
     1
 44
1.0
  0
LINE
  5
6E
330
1F
100
AcDbEntity
  8
0
  6
SLD-Durchgehend
 62
     7
370
    15
100
AcDbLine
 10
183.2035725015
 20
88.9707675973
 30
0.0
 11
190.8535729522
 21
88.9707675973
 31
0.0
  0
LINE
  5
6F
330
1F
100
AcDbEntity
  8
0
  6
SLD-Durchgehend
 62
     7
370
    15
100
AcDbLine
 10
190.8690999622
 20
128.9707667032
 30
0.0
 11
183.2035725015
 21
128.9707667032
 31
0.0
  0
ARC
  5
70
330
1F
100
AcDbEntity
  8
0
  6
SLD-Durchgehend
 62
     7
370
    15
100
AcDbCircle
 10
183.2035724873
 20
89.2707671503
 30
0.0
 40
0.3000000000000114
100
AcDbArc
 50
180.0
 51
270.0
  0
ARC
  5
71
330
1F
100
AcDbEntity
  8
0
  6
SLD-Durchgehend
 62
     7
370
    15
100
AcDbCircle
 10
183.2035724873
 20
128.6707671503
 30
0.0
 40
0.3000000000000114
100
AcDbArc
 50
90.0
 51
180.0
  0
ARC
  5
72
330
1F
100
AcDbEntity
  8
0
  6
SLD-Durchgehend
 62
     7
370
    15
100
AcDbCircle
 10
203.8535724873
 20
91.4707671503
 30
0.0
 40
1.0
100
AcDbArc
 50
90.0
 51
143.1137328946
  0
ARC
  5
73
330
1F
100
AcDbEntity
  8
0
  6
SLD-Durchgehend
 62
     7
370
    15
100
AcDbCircle
 10
203.8535724873
 20
126.4707671503
 30
0.0
 40
1.0
100
AcDbArc
 50
216.8998129703
 51
270.0
  0
LINE
  5
74
330
1F
100
AcDbEntity
  8
0
  6
SLD-Durchgehend
 62
     7
370
    15
100
AcDbLine
 10
203.8535732204
 20
92.4707672397
 30
0.0
 11
215.482245701
 21
92.4707672397
 31
0.0
  0
LINE
  5
75
330
1F
100
AcDbEntity
  8
0
  6
SLD-Durchgehend
 62
     7
370
    15
100
AcDbLine
 10
215.489368456
 20
125.4707670609
 30
0.0
 11
203.8535732204
 21
125.4707670609
 31
0.0
  0
ARC
  5
76
330
1F
100
AcDbEntity
  8
0
  6
SLD-Durchgehend
 62
     7
370
    15
100
AcDbCircle
 10
182.4035657346
 20
93.5170599968
 30
0.0
 40
0.60000675266771
100
AcDbArc
 50
33.5571153394
 51
90.0
  0
ARC
  5
77
330
1F
100
AcDbEntity
  8
0
  6
SLD-Durchgehend
 62
     7
370
    15
100
AcDbCircle
 10
182.4035657346
 20
124.4244743037
 30
0.0
 40
0.6000067526677242
100
AcDbArc
 50
270.0
 51
326.4428846606
  0
LINE
  5
78
330
1F
100
AcDbEntity
  8
0
  6
SLD-Durchgehend
 62
     7
370
    15
100
AcDbLine
 10
180.9035723923
 20
93.8670665795
 30
0.0
 11
181.7602843871
 21
94.0966217617
 31
0.0
  0
LINE
  5
79
330
1F
100
AcDbEntity
  8
0
  6
SLD-Durchgehend
 62
     7
370
    15
100
AcDbLine
 10
181.7602843871
 20
123.8449125389
 30
0.0
 11
180.9035723923
 21
124.074467721
 31
0.0
  0
LINE
  5
7A
330
1F
100
AcDbEntity
  8
0
  6
SLD-Durchgehend
 62
     7
370
    15
100
AcDbLine
 10
174.0876394684
 20
123.7329880545
 30
0.0
 11
166.6035722369
 21
123.358034792
 31
0.0
  0
LINE
  5
7B
330
1F
100
AcDbEntity
  8
0
  6
SLD-Durchgehend
 62
     7
370
    15
100
AcDbLine
 10
180.9035723923
 20
124.074467721
 30
0.0
 11
179.668839824
 21
124.012607413
 31
0.0
  0
LINE
  5
7C
330
1F
100
AcDbEntity
  8
0
  6
SLD-Durchgehend
 62
     7
370
    15
100
AcDbLine
 10
179.6698358735
 20
93.9288775275
 30
0.0
 11
180.9035723923
 21
93.8670665795
 31
0.0
  0
LINE
  5
7D
330
1F
100
AcDbEntity
  8
0
  6
SLD-Durchgehend
 62
     7
370
    15
100
AcDbLine
 10
169.1035726467
 20
94.4582487294
 30
0.0
 11
174.0881023357
 21
94.208522963
 31
0.0
  0
ARC
  5
7E
330
1F
100
AcDbEntity
  8
0
  6
SLD-Durchgehend
 62
     7
370
    15
100
AcDbCircle
 10
181.9155775767
 20
93.5170599968
 30
0.0
 40
0.60000675266771
100
AcDbArc
 50
90.0
 51
105.0
  0
ARC
  5
7F
330
1F
100
AcDbEntity
  8
0
  6
SLD-Durchgehend
 62
     7
370
    15
100
AcDbCircle
 10
181.9155775767
 20
124.4244743037
 30
0.0
 40
0.6000067526677242
100
AcDbArc
 50
255.0
 51
270.0
  0
LINE
  5
80
330
1F
100
AcDbEntity
  8
0
  6
SLD-Durchgehend
 62
     7
370
    15
100
AcDbLine
 10
181.915577537
 20
94.1170670861
 30
0.0
 11
182.4035657114
 21
94.1170670861
 31
0.0
  0
LINE
  5
81
330
1F
100
AcDbEntity
  8
0
  6
SLD-Durchgehend
 62
     7
370
    15
100
AcDbLine
 10
182.4035657114
 20
123.8244672144
 30
0.0
 11
181.915577537
 21
123.8244672144
 31
0.0
  0
ARC
  5
82
330
1F
100
AcDbEntity
  8
0
  6
SLD-Durchgehend
 62
     7
370
    15
100
AcDbCircle
 10
165.7035724873
 20
122.7507671503
 30
0.0
 40
0.9000000000000071
100
AcDbArc
 50
270.0
 51
311.1792132369
  0
ARC
  5
83
330
1F
100
AcDbEntity
  8
0
  6
SLD-Durchgehend
 62
     7
370
    15
100
AcDbCircle
 10
168.2035724873
 20
95.2497671503
 30
0.0
 40
0.8999999999999915
100
AcDbArc
 50
29.8499024808
 51
90.0
  0
LINE
  5
84
330
1F
100
AcDbEntity
  8
0
  6
SLD-Durchgehend
 62
     7
370
    15
100
AcDbLine
 10
163.953572082
 20
121.8507674361
 30
0.0
 11
163.0035727644
 21
120.9007671872
 31
0.0
  0
LINE
  5
85
330
1F
100
AcDbEntity
  8
0
  6
SLD-Durchgehend
 62
     7
370
    15
100
AcDbLine
 10
165.7035719032
 20
121.8507674361
 30
0.0
 11
163.953572082
 21
121.8507674361
 31
0.0
  0
LINE
  5
86
330
1F
100
AcDbEntity
  8
0
  6
SLD-Durchgehend
 62
     7
370
    15
100
AcDbLine
 10
163.953572082
 20
96.1497670809
 30
0.0
 11
168.2035723129
 21
96.1497670809
 31
0.0
  0
LINE
  5
87
330
1F
100
AcDbEntity
  8
0
  6
SLD-Durchgehend
 62
     7
370
    15
100
AcDbLine
 10
163.0035727644
 20
97.0997673297
 30
0.0
 11
163.953572082
 21
96.1497670809
 31
0.0
  0
LINE
  5
88
330
1F
100
AcDbEntity
  8
0
  6
SLD-Durchgehend
 62
     7
370
    15
100
AcDbLine
 10
237.825829106
 20
82.5721363375
 30
0.0
 11
232.1815225655
 21
91.604916642
 31
0.0
  0
LINE
  5
89
330
1F
100
AcDbEntity
  8
0
  6
SLD-Durchgehend
 62
     7
370
    15
100
AcDbLine
 10
235.7738870556
 20
83.3896289418
 30
0.0
 11
237.5035728687
 21
82.3707676331
 31
0.0
  0
LINE
  5
8A
330
1F
100
AcDbEntity
  8
0
  6
SLD-Durchgehend
 62
     7
370
    15
100
AcDbLine
 10
231.7331093723
 20
91.1893772731
 30
0.0
 11
231.8592663283
 21
91.403546075
 31
0.0
  0
LWPOLYLINE
  5
8B
330
1F
100
AcDbEntity
  8
0
  6
SLD-Durchgehend
 62
     7
370
    15
100
AcDbPolyline
 90
        5
 70
   128
 43
0.0
 10
231.7331093723
 20
91.1893772731
 10
231.6182288701
 20
90.9943471501
 10
231.4981031591
 20
90.7904173085
 10
231.3825744564
 20
90.5942844996
 10
231.3796389276
 20
90.5893000612
  0
LWPOLYLINE
  5
8C
330
1F
100
AcDbEntity
  8
0
  6
SLD-Durchgehend
 62
     7
370
    15
100
AcDbPolyline
 90
        5
 70
   128
 43
0.0
 10
227.3465390677
 20
83.7424586365
 10
227.3436035389
 20
83.7374723354
 10
227.2280711109
 20
83.5413395265
 10
227.1079491252
 20
83.337409685
 10
226.9930648977
 20
83.142379562
  0
LINE
  5
8D
330
1F
100
AcDbEntity
  8
0
  6
SLD-Durchgehend
 62
     7
370
    15
100
AcDbLine
 10
220.900345164
 20
91.7596204976
 30
0.0
 11
226.5446517045
 21
82.7268420557
 31
0.0
  0
LINE
  5
8E
330
1F
100
AcDbEntity
  8
0
  6
SLD-Durchgehend
 62
     7
370
    15
100
AcDbLine
 10
222.9522872144
 20
90.9421278933
 30
0.0
 11
221.2226051265
 21
91.9609910646
 31
0.0
  0
LINE
  5
8F
330
1F
100
AcDbEntity
  8
0
  6
SLD-Durchgehend
 62
     7
370
    15
100
AcDbLine
 10
226.9930648977
 20
83.142379562
 30
0.0
 11
226.866911667
 21
82.9282107601
 31
0.0
  0
LINE
  5
90
330
1F
100
AcDbEntity
  8
0
  6
SLD-Durchgehend
 62
     7
370
    15
100
AcDbLine
 10
237.8473985368
 20
82.5753643015
 30
0.0
 11
232.1976605231
 21
91.6168338457
 31
0.0
  0
LINE
  5
91
330
1F
100
AcDbEntity
  8
0
  6
SLD-Durchgehend
 62
     7
370
    15
100
AcDbLine
 10
226.8444220895
 20
82.5288410136
 30
0.0
 11
237.4913166637
 21
81.9708595822
 31
0.0
  0
LINE
  5
92
330
1F
100
AcDbEntity
  8
0
  6
SLD-Durchgehend
 62
     7
370
    15
100
AcDbLine
 10
220.8787794584
 20
91.7563925335
 30
0.0
 11
226.5285174722
 21
82.7149229893
 31
0.0
  0
LINE
  5
93
330
1F
100
AcDbEntity
  8
0
  6
SLD-Durchgehend
 62
     7
370
    15
100
AcDbLine
 10
231.8817559058
 20
91.8029176841
 30
0.0
 11
221.2348613316
 21
92.3608972529
 31
0.0
  0
ARC
  5
94
330
1F
100
AcDbEntity
  8
0
  6
SLD-Durchgehend
 62
     7
370
    15
100
AcDbCircle
 10
237.5035724873
 20
82.3707671503
 30
0.0
 40
0.3800000000000069
100
AcDbArc
 50
267.0
 51
32.0
  0
ARC
  5
95
330
1F
100
AcDbEntity
  8
0
  6
SLD-Durchgehend
 62
     7
370
    15
100
AcDbCircle
 10
231.8592655327
 20
91.4035464622
 30
0.0
 40
0.3799999999999912
100
AcDbArc
 50
32.0
 51
87.0
  0
LINE
  5
96
330
1F
100
AcDbEntity
  8
0
  6
SLD-Durchgehend
 62
     7
370
    15
100
AcDbLine
 10
231.8791519279
 20
91.7830264965
 30
0.0
 11
221.2424907262
 21
92.3404696235
 31
0.0
  0
ARC
  5
97
330
1F
100
AcDbEntity
  8
0
  6
SLD-Durchgehend
 62
     7
370
    15
100
AcDbCircle
 10
221.2226044251
 20
91.9609902498
 30
0.0
 40
0.3800000000000054
100
AcDbArc
 50
87.0
 51
212.0
  0
ARC
  5
98
330
1F
100
AcDbEntity
  8
0
  6
SLD-Durchgehend
 62
     7
370
    15
100
AcDbCircle
 10
226.8669113796
 20
82.9282109379
 30
0.0
 40
0.3800000000000203
100
AcDbArc
 50
212.0
 51
267.0
  0
LINE
  5
99
330
1F
100
AcDbEntity
  8
0
  6
SLD-Durchgehend
 62
     7
370
    15
100
AcDbLine
 10
226.8470223421
 20
82.5487322012
 30
0.0
 11
237.4836835438
 21
81.9912872115
 31
0.0
  0
ARC
  5
9A
330
1F
100
AcDbEntity
  8
0
  6
SLD-Durchgehend
 62
     7
370
    15
100
AcDbCircle
 10
226.8650138774
 20
82.9249898349
 30
0.0
 40
0.3966836400354142
100
AcDbArc
 50
211.97557007
 51
267.0244473786
  0
ARC
  5
9B
330
1F
100
AcDbEntity
  8
0
  6
SLD-Durchgehend
 62
     7
370
    15
100
AcDbCircle
 10
231.8611550857
 20
91.4067556321
 30
0.0
 40
0.3966973219231962
100
AcDbArc
 50
31.9762720417
 51
87.0232437965
  0
ARC
  5
9C
330
1F
100
AcDbEntity
  8
0
  6
SLD-Durchgehend
 62
     7
370
    15
100
AcDbCircle
 10
221.2110341243
 20
91.9678057122
 30
0.0
 40
0.3938130205396242
100
AcDbArc
 50
86.5312657209
 51
212.4685399524
  0
ARC
  5
9D
330
1F
100
AcDbEntity
  8
0
  6
SLD-Durchgehend
 62
     7
370
    15
100
AcDbCircle
 10
237.5151428906
 20
82.3639517003
 30
0.0
 40
0.3938135376139332
100
AcDbArc
 50
266.531413166
 51
32.4683925072
  0
ARC
  5
9E
330
1F
100
AcDbEntity
  8
0
  6
SLD-Durchgehend
 62
     7
370
    15
100
AcDbCircle
 10
233.3610224474
 20
84.8109156065
 30
0.0
 40
1.000000000295376
100
AcDbArc
 50
267.0
 51
32.0
  0
LINE
  5
9F
330
1F
100
AcDbEntity
  8
0
  6
SLD-Durchgehend
 62
     7
370
    15
100
AcDbLine
 10
234.2090714151
 20
85.3408354172
 30
0.0
 11
231.4370531017
 21
89.7769911984
 31
0.0
  0
LINE
  5
A0
330
1F
100
AcDbEntity
  8
0
  6
SLD-Durchgehend
 62
     7
370
    15
100
AcDbLine
 10
224.5171065802
 20
88.9909232805
 30
0.0
 11
227.2891248936
 21
84.5547674993
 31
0.0
  0
ARC
  5
A1
330
1F
100
AcDbEntity
  8
0
  6
SLD-Durchgehend
 62
     7
370
    15
100
AcDbCircle
 10
225.365154465
 20
89.5208417935
 30
0.0
 40
1.000000000000012
100
AcDbArc
 50
87.0
 51
212.0
  0
LINE
  5
A2
330
1F
100
AcDbEntity
  8
0
  6
SLD-Durchgehend
 62
     7
370
    15
100
AcDbLine
 10
230.6413422698
 20
90.2457016358
 30
0.0
 11
225.4174906189
 21
90.5194713572
 31
0.0
  0
ARC
  5
A3
330
1F
100
AcDbEntity
  8
0
  6
SLD-Durchgehend
 62
     7
370
    15
100
AcDbCircle
 10
230.5890046479
 20
89.2470714061
 30
0.0
 40
1.000000000000012
100
AcDbArc
 50
32.0
 51
87.0
  0
LINE
  5
A4
330
1F
100
AcDbEntity
  8
0
  6
SLD-Durchgehend
 62
     7
370
    15
100
AcDbLine
 10
228.0848357255
 20
84.0860570619
 30
0.0
 11
233.3086873764
 21
83.8122854779
 31
0.0
  0
ARC
  5
A5
330
1F
100
AcDbEntity
  8
0
  6
SLD-Durchgehend
 62
     7
370
    15
100
AcDbCircle
 10
228.1371722644
 20
85.0846859939
 30
0.0
 40
0.9999999999999959
100
AcDbArc
 50
212.0
 51
267.0
  0
CIRCLE
  5
A6
330
1F
100
AcDbEntity
  8
0
  6
SLD-Durchgehend
 62
     7
370
    15
100
AcDbCircle
 10
229.3630884562
 20
87.1658787
 30
0.0
 40
3.050000000000001
  0
LWPOLYLINE
  5
A7
330
1F
100
AcDbEntity
  8
0
  6
SLD-Durchgehend
 62
     7
370
    15
100
AcDbPolyline
 90
        5
 70
   128
 43
0.0
 10
235.1814764911
 20
83.7385861972
 10
235.1853545183
 20
83.7363025943
 10
235.2503422076
 20
83.6980215112
 10
235.5216439242
 20
83.5382121453
 10
235.7738870556
 20
83.3896289418
  0
LWPOLYLINE
  5
A8
330
1F
100
AcDbEntity
  8
0
  6
SLD-Durchgehend
 62
     7
370
    15
100
AcDbPolyline
 90
        5
 70
   128
 43
0.0
 10
222.9522872144
 20
90.9421278933
 10
223.2045340711
 20
90.7935446898
 10
223.4758357877
 20
90.6337371865
 10
223.540823477
 20
90.5954561034
 10
223.5447015042
 20
90.5931706378
  0
ARC
  5
A9
330
1F
100
AcDbEntity
  8
0
  6
SLD-Durchgehend
 62
     7
370
    15
100
AcDbCircle
 10
229.2525791517
 20
87.2309736551
 30
0.0
 40
1.675000000000038
100
AcDbArc
 50
289.6332340985
 51
348.2331672257
  0
ARC
  5
AA
330
1F
100
AcDbEntity
  8
0
  6
SLD-Durchgehend
 62
     7
370
    15
100
AcDbCircle
 10
229.2525791517
 20
87.2309736551
 30
0.0
 40
1.675000000000038
100
AcDbArc
 50
348.2331672257
 51
48.3400089604
  0
ARC
  5
AB
330
1F
100
AcDbEntity
  8
0
  6
SLD-Durchgehend
 62
     7
370
    15
100
AcDbCircle
 10
229.2525791517
 20
87.2309736551
 30
0.0
 40
1.675000000000008
100
AcDbArc
 50
48.3400089604
 51
106.9399420877
  0
LINE
  5
AC
330
1F
100
AcDbEntity
  8
0
  6
SLD-Durchgehend
 62
     7
370
    15
100
AcDbLine
 10
228.6839108342
 20
88.8064878831
 30
0.0
 11
228.7645372922
 21
88.8332969347
 31
0.0
  0
ARC
  5
AD
330
1F
100
AcDbEntity
  8
0
  6
SLD-Durchgehend
 62
     7
370
    15
100
AcDbCircle
 10
229.2525791517
 20
87.2309736551
 30
0.0
 40
1.67499999999999
100
AcDbArc
 50
109.8465728595
 51
166.2902910258
  0
LINE
  5
AE
330
1F
100
AcDbEntity
  8
0
  6
SLD-Durchgehend
 62
     7
370
    15
100
AcDbLine
 10
227.6010881538
 20
87.5106177131
 30
0.0
 11
227.6253025407
 21
87.6279531816
 31
0.0
  0
ARC
  5
AF
330
1F
100
AcDbEntity
  8
0
  6
SLD-Durchgehend
 62
     7
370
    15
100
AcDbCircle
 10
229.2525791517
 20
87.2309736551
 30
0.0
 40
1.674999999999996
100
AcDbArc
 50
170.3893829261
 51
226.1837932601
  0
LINE
  5
B0
330
1F
100
AcDbEntity
  8
0
  6
SLD-Durchgehend
 62
     7
370
    15
100
AcDbLine
 10
228.1822595174
 20
85.9425498942
 30
0.0
 11
228.0928972537
 21
86.022353063
 31
0.0
  0
ARC
  5
B1
330
1F
100
AcDbEntity
  8
0
  6
SLD-Durchgehend
 62
     7
370
    15
100
AcDbCircle
 10
229.2525791517
 20
87.2309736551
 30
0.0
 40
1.675000000000017
100
AcDbArc
 50
230.2828851603
 51
286.7266033266
  0
LINE
  5
B2
330
1F
100
AcDbEntity
  8
0
  6
SLD-Durchgehend
 62
     7
370
    15
100
AcDbLine
 10
229.8153746301
 20
85.6533537457
 30
0.0
 11
229.7346513147
 21
85.6268445799
 31
0.0
  0
CIRCLE
  5
B3
330
1F
100
AcDbEntity
  8
0
  6
SLD-Durchgehend
 62
     7
370
    15
100
AcDbCircle
 10
229.2525791517
 20
87.2309736551
 30
0.0
 40
1.800000000000008
  0
ARC
  5
B4
330
1F
100
AcDbEntity
  8
0
  6
SLD-Durchgehend
 62
     7
370
    15
100
AcDbCircle
 10
228.3571247796
 20
86.2282845398
 30
0.0
 40
0.3349957426858508
100
AcDbArc
 50
238.5340009973
 51
305.0429894054
  0
ARC
  5
B5
330
1F
100
AcDbEntity
  8
0
  6
SLD-Durchgehend
 62
     7
370
    15
100
AcDbCircle
 10
228.8860964912
 20
85.4740390701
 30
0.0
 40
0.5862519440278262
100
AcDbArc
 50
31.5302775933
 51
125.0429514928
  0
ARC
  5
B6
330
1F
100
AcDbEntity
  8
0
  6
SLD-Durchgehend
 62
     7
370
    15
100
AcDbCircle
 10
229.671337476
 20
85.9558056157
 30
0.0
 40
0.3349985152812023
100
AcDbArc
 50
211.5301732904
 51
280.8942776977
  0
ARC
  5
B7
330
1F
100
AcDbEntity
  8
0
  6
SLD-Durchgehend
 62
     7
370
    15
100
AcDbCircle
 10
227.9359929326
 20
87.5026704119
 30
0.0
 40
0.3349990603984417
100
AcDbArc
 50
178.6406244287
 51
245.0428022072
  0
ARC
  5
B8
330
1F
100
AcDbEntity
  8
0
  6
SLD-Durchgehend
 62
     7
370
    15
100
AcDbCircle
 10
227.5472783274
 20
86.6674419814
 30
0.0
 40
0.5862531175087294
100
AcDbArc
 50
331.5305581694
 51
65.0427535496
  0
ARC
  5
B9
330
1F
100
AcDbEntity
  8
0
  6
SLD-Durchgehend
 62
     7
370
    15
100
AcDbCircle
 10
228.357121738
 20
86.2282873175
 30
0.0
 40
0.3349977542102537
100
AcDbArc
 50
151.5298575378
 51
217.9325395312
  0
ARC
  5
BA
330
1F
100
AcDbEntity
  8
0
  6
SLD-Durchgehend
 62
     7
370
    15
100
AcDbCircle
 10
228.8290748118
 20
88.5045755634
 30
0.0
 40
0.3349979539815534
100
AcDbArc
 50
115.6789465476
 51
185.0435058227
  0
ARC
  5
BB
330
1F
100
AcDbEntity
  8
0
  6
SLD-Durchgehend
 62
     7
370
    15
100
AcDbCircle
 10
227.9113889487
 20
88.4235958466
 30
0.0
 40
0.5862539431167162
100
AcDbArc
 50
271.5305071349
 51
5.042572158
  0
ARC
  5
BC
330
1F
100
AcDbEntity
  8
0
  6
SLD-Durchgehend
 62
     7
370
    15
100
AcDbCircle
 10
227.9359860629
 20
87.5026821508
 30
0.0
 40
0.3349881821125785
100
AcDbArc
 50
91.5290464554
 51
158.0401629722
  0
ARC
  5
BD
330
1F
100
AcDbEntity
  8
0
  6
SLD-Durchgehend
 62
     7
370
    15
100
AcDbCircle
 10
230.5890205468
 20
86.0367865924
 30
0.0
 40
0.5862494498949915
100
AcDbArc
 50
91.5300562521
 51
185.0428567536
  0
ARC
  5
BE
330
1F
100
AcDbEntity
  8
0
  6
SLD-Durchgehend
 62
     7
370
    15
100
AcDbCircle
 10
230.5644195438
 20
86.9577056759
 30
0.0
 40
0.334998164948788
100
AcDbArc
 50
271.5304758085
 51
348.2335722191
  0
ARC
  5
BF
330
1F
100
AcDbEntity
  8
0
  6
SLD-Durchgehend
 62
     7
370
    15
100
AcDbCircle
 10
229.6713422755
 20
85.9558044018
 30
0.0
 40
0.3349951023100375
100
AcDbArc
 50
295.4646163602
 51
5.0435433805
  0
ARC
  5
C0
330
1F
100
AcDbEntity
  8
0
  6
SLD-Durchgehend
 62
     7
370
    15
100
AcDbCircle
 10
230.1432909348
 20
88.2321488373
 30
0.0
 40
0.3349549816735005
100
AcDbArc
 50
48.333914049
 51
125.0489685427
  0
ARC
  5
C1
330
1F
100
AcDbEntity
  8
0
  6
SLD-Durchgehend
 62
     7
370
    15
100
AcDbCircle
 10
229.6143147038
 20
88.9863334696
 30
0.0
 40
0.5862454929636479
100
AcDbArc
 50
211.5298166664
 51
305.0433109507
  0
ARC
  5
C2
330
1F
100
AcDbEntity
  8
0
  6
SLD-Durchgehend
 62
     7
370
    15
100
AcDbCircle
 10
228.8290759014
 20
88.5045720397
 30
0.0
 40
0.3350004308937808
100
AcDbArc
 50
31.5304293369
 51
101.1076110152
  0
CIRCLE
  5
C3
330
1F
100
AcDbEntity
  8
0
  6
SLD-Durchgehend
 62
     7
370
    15
100
AcDbCircle
 10
229.2525791517
 20
87.2309736551
 30
0.0
 40
2.625000000000017
  0
ARC
  5
C4
330
1F
100
AcDbEntity
  8
0
  6
SLD-Durchgehend
 62
     7
370
    15
100
AcDbCircle
 10
230.9531295256
 20
87.7929358453
 30
0.0
 40
0.5862485181681856
100
AcDbArc
 50
151.5300802254
 51
245.0432314936
  0
ARC
  5
C5
330
1F
100
AcDbEntity
  8
0
  6
SLD-Durchgehend
 62
     7
370
    15
100
AcDbCircle
 10
230.1432944071
 20
88.2320914772
 30
0.0
 40
0.3349955256337286
100
AcDbArc
 50
331.5298723451
 51
48.3408796512
  0
ARC
  5
C6
330
1F
100
AcDbEntity
  8
0
  6
SLD-Durchgehend
 62
     7
370
    15
100
AcDbCircle
 10
230.5644526326
 20
86.9577268836
 30
0.0
 40
0.3349700972724071
100
AcDbArc
 50
348.2288667737
 51
65.0464088765
  0
LINE
  5
C7
330
1F
100
AcDbEntity
  8
0
  6
SLD-Durchgehend
 62
     7
370
    15
100
AcDbLine
 10
202.2535722131
 20
89.7418822
 30
0.0
 11
200.9387328649
 21
89.7418822
 31
0.0
  0
LINE
  5
C8
330
1F
100
AcDbEntity
  8
0
  6
SLD-Durchgehend
 62
     7
370
    15
100
AcDbLine
 10
200.9387328649
 20
89.7418822
 30
0.0
 11
200.9387328649
 21
120.8207675094
 31
0.0
  0
LINE
  5
C9
330
1F
100
AcDbEntity
  8
0
  6
SLD-Durchgehend
 62
     7
370
    15
100
AcDbLine
 10
200.9387328649
 20
120.8207675094
 30
0.0
 11
202.2535722131
 21
120.8207675094
 31
0.0
  0
LWPOLYLINE
  5
CA
330
1F
100
AcDbEntity
  8
0
  6
SLD-Durchgehend
 62
     7
370
    15
100
AcDbPolyline
 90
        3
 70
   128
 43
0.0
 10
200.9387328649
 20
89.7418822
 10
199.9994214052
 20
91.4402364591
 10
199.9435718531
 20
91.541644449
  0
LINE
  5
CB
330
1F
100
AcDbEntity
  8
0
  6
SLD-Durchgehend
 62
     7
370
    15
100
AcDbLine
 10
199.9435718531
 20
91.541644449
 30
0.0
 11
199.9435718531
 21
120.8207675094
 31
0.0
  0
LINE
  5
CC
330
1F
100
AcDbEntity
  8
0
  6
SLD-Durchgehend
 62
     7
370
    15
100
AcDbLine
 10
199.9435718531
 20
120.8207675094
 30
0.0
 11
200.9387328649
 21
120.8207675094
 31
0.0
  0
LINE
  5
CD
330
1F
100
AcDbEntity
  8
0
  6
SLD-Durchgehend
 62
     7
370
    15
100
AcDbLine
 10
190.8535729522
 20
120.8207675094
 30
0.0
 11
196.8684126983
 21
120.8207675094
 31
0.0
  0
LINE
  5
CE
330
1F
100
AcDbEntity
  8
0
  6
SLD-Durchgehend
 62
     7
370
    15
100
AcDbLine
 10
196.8684126983
 20
89.7418822
 30
0.0
 11
196.8684126983
 21
120.8207675094
 31
0.0
  0
LINE
  5
CF
330
1F
100
AcDbEntity
  8
0
  6
SLD-Durchgehend
 62
     7
370
    15
100
AcDbLine
 10
196.8684126983
 20
89.7418822
 30
0.0
 11
195.3535727585
 21
89.7418822
 31
0.0
  0
ARC
  5
D0
330
1F
100
AcDbEntity
  8
0
  6
SLD-Durchgehend
 62
     7
370
    15
100
AcDbCircle
 10
194.8192231406
 20
79.0211131949
 30
0.0
 40
10.73407739745365
100
AcDbArc
 50
87.1465980851
 51
111.6813871243
  0
LINE
  5
D1
330
1F
100
AcDbEntity
  8
0
  6
SLD-Durchgehend
 62
     7
370
    15
100
AcDbLine
 10
190.8535729522
 20
88.9957829216
 30
0.0
 11
190.8535729522
 21
88.9707675973
 31
0.0
  0
LWPOLYLINE
  5
D2
330
1F
100
AcDbEntity
  8
0
  6
SLD-Durchgehend
 62
     7
370
    15
100
AcDbPolyline
 90
       11
 70
   128
 43
0.0
 10
195.3535727585
 20
128.4579432407
 10
194.6195667038
 20
128.4717603425
 10
193.8855606491
 20
128.5131576309
 10
193.2136430765
 20
128.5750849942
 10
192.5834152276
 20
128.6538506696
 10
192.0372802192
 20
128.7381092856
 10
191.5700170571
 20
128.8218444983
 10
191.21686885
 20
128.8921705285
 10
190.9738392929
 20
128.9440507838
 10
190.8634952629
 20
128.968537117
 10
190.8690999622
 20
128.9672798315
  0
LINE
  5
D3
330
1F
100
AcDbEntity
  8
0
  6
SLD-Durchgehend
 62
     7
370
    15
100
AcDbLine
 10
196.8684126983
 20
128.4579432407
 30
0.0
 11
195.3535727585
 21
128.4579432407
 31
0.0
  0
LINE
  5
D4
330
1F
100
AcDbEntity
  8
0
  6
SLD-Durchgehend
 62
     7
370
    15
100
AcDbLine
 10
196.8684126983
 20
125.0821764419
 30
0.0
 11
196.8684126983
 21
128.4579432407
 31
0.0
  0
LINE
  5
D5
330
1F
100
AcDbEntity
  8
0
  6
SLD-Durchgehend
 62
     7
370
    15
100
AcDbLine
 10
195.3472425589
 20
125.0821764419
 30
0.0
 11
196.8684126983
 21
125.0821764419
 31
0.0
  0
ARC
  5
D6
330
1F
100
AcDbEntity
  8
0
  6
SLD-Durchgehend
 62
     7
370
    15
100
AcDbCircle
 10
195.0233300481
 20
120.9237441516
 30
0.0
 40
4.171028461616044
100
AcDbArc
 50
85.5460566573
 51
181.4146934227
  0
LINE
  5
D7
330
1F
100
AcDbEntity
  8
0
  6
SLD-Durchgehend
 62
     7
370
    15
100
AcDbLine
 10
197.8635727787
 20
91.541644449
 30
0.0
 11
197.8635727787
 21
120.8207675094
 31
0.0
  0
LWPOLYLINE
  5
D8
330
1F
100
AcDbEntity
  8
0
  6
SLD-Durchgehend
 62
     7
370
    15
100
AcDbPolyline
 90
        3
 70
   128
 43
0.0
 10
197.8635727787
 20
91.541644449
 10
197.8077241579
 20
91.4402364591
 10
196.8684126983
 20
89.7418822
  0
LINE
  5
D9
330
1F
100
AcDbEntity
  8
0
  6
SLD-Durchgehend
 62
     7
370
    15
100
AcDbLine
 10
196.8684126983
 20
120.8207675094
 30
0.0
 11
197.8635727787
 21
120.8207675094
 31
0.0
  0
LINE
  5
DA
330
1F
100
AcDbEntity
  8
0
  6
SLD-Durchgehend
 62
     7
370
    15
100
AcDbLine
 10
202.8535730565
 20
90.366734455
 30
0.0
 11
202.8535730565
 21
120.8207675094
 31
0.0
  0
ARC
  5
DB
330
1F
100
AcDbEntity
  8
0
  6
SLD-Durchgehend
 62
     7
370
    15
100
AcDbCircle
 10
202.2423123513
 20
90.3531892727
 30
0.0
 40
0.6114107634496255
100
AcDbArc
 50
271.0552300829
 51
1.2694334473
  0
LINE
  5
DC
330
1F
100
AcDbEntity
  8
0
  6
SLD-Durchgehend
 62
     7
370
    15
100
AcDbLine
 10
202.2535722131
 20
120.8207675094
 30
0.0
 11
202.8535730565
 21
120.8207675094
 31
0.0
  0
LINE
  5
DD
330
1F
100
AcDbEntity
  8
0
  6
SLD-Durchgehend
 62
     7
370
    15
100
AcDbLine
 10
182.9035724873
 20
89.2707670877
 30
0.0
 11
182.9035724873
 21
128.6707672128
 31
0.0
  0
LINE
  5
DE
330
1F
100
AcDbEntity
  8
0
  6
SLD-Durchgehend
 62
     7
370
    15
100
AcDbLine
 10
199.9083492333
 20
92.0707679192
 30
0.0
 11
199.3435728723
 21
92.0707679192
 31
0.0
  0
LINE
  5
DF
330
1F
100
AcDbEntity
  8
0
  6
SLD-Durchgehend
 62
     7
370
    15
100
AcDbLine
 10
199.3435728723
 20
120.8207675094
 30
0.0
 11
199.9435718531
 21
120.8207675094
 31
0.0
  0
LINE
  5
E0
330
1F
100
AcDbEntity
  8
0
  6
SLD-Durchgehend
 62
     7
370
    15
100
AcDbLine
 10
198.4635726908
 20
92.0707679192
 30
0.0
 11
197.8987944672
 21
92.0707679192
 31
0.0
  0
LINE
  5
E1
330
1F
100
AcDbEntity
  8
0
  6
SLD-Durchgehend
 62
     7
370
    15
100
AcDbLine
 10
197.8635727787
 20
120.8207675094
 30
0.0
 11
198.4635726908
 21
120.8207675094
 31
0.0
  0
LINE
  5
E2
330
1F
100
AcDbEntity
  8
0
  6
SLD-Durchgehend
 62
     7
370
    15
100
AcDbLine
 10
202.8536345238
 20
125.8707663814
 30
0.0
 11
203.0535727168
 21
125.8707663814
 31
0.0
  0
LINE
  5
E3
330
1F
100
AcDbEntity
  8
0
  6
SLD-Durchgehend
 62
     7
370
    15
100
AcDbLine
 10
202.956683504
 20
92.0707679192
 30
0.0
 11
203.0535727168
 21
92.0707679192
 31
0.0
  0
LINE
  5
E4
330
1F
100
AcDbEntity
  8
0
  6
SLD-Durchgehend
 62
     7
370
    15
100
AcDbLine
 10
202.8535730565
 20
120.8207675094
 30
0.0
 11
203.1826968664
 21
120.8207675094
 31
0.0
  0
ARC
  5
E5
330
1F
100
AcDbEntity
  8
0
  6
SLD-Durchgehend
 62
     7
370
    15
100
AcDbCircle
 10
204.5612173275
 20
121.8287883145
 30
0.0
 40
1.707754257787363
100
AcDbArc
 50
179.3497241651
 51
216.175534614
  0
LINE
  5
E6
330
1F
100
AcDbEntity
  8
0
  6
SLD-Durchgehend
 62
     7
370
    15
100
AcDbLine
 10
199.3435728723
 20
92.0707679192
 30
0.0
 11
198.4635726908
 21
92.0707679192
 31
0.0
  0
LINE
  5
E7
330
1F
100
AcDbEntity
  8
0
  6
SLD-Durchgehend
 62
     7
370
    15
100
AcDbLine
 10
198.4635726908
 20
120.8207675094
 30
0.0
 11
199.3435728723
 21
120.8207675094
 31
0.0
  0
ELLIPSE
  5
E8
330
1F
100
AcDbEntity
  8
0
  6
SLD-Durchgehend
 62
     7
370
    15
100
AcDbEllipse
 10
213.8231877295
 20
108.9707671503
 30
0.0
 11
0.0
 21
16.50000000000001
 31
0.0
210
0.0
220
0.0
230
1.0
 40
0.2679491924
 41
0.1622088096104408
 42
2.979383843979351
  0
ARC
  5
E9
330
1F
100
AcDbEntity
  8
0
  6
SLD-Durchgehend
 62
     7
370
    15
100
AcDbCircle
 10
215.8203345416
 20
106.6591678207
 30
0.0
 40
14.23241713916561
100
AcDbArc
 50
259.0185227851
 51
274.644914349
  0
LINE
  5
EA
330
1F
100
AcDbEntity
  8
0
  6
SLD-Durchgehend
 62
     7
370
    15
100
AcDbLine
 10
217.0567806238
 20
92.4734941522
 30
0.0
 11
216.9728796357
 21
92.4734941522
 31
0.0
  0
LINE
  5
EB
330
1F
100
AcDbEntity
  8
0
  6
SLD-Durchgehend
 62
     7
370
    15
100
AcDbLine
 10
217.1362447912
 20
92.4761968503
 30
0.0
 11
217.0567806238
 21
92.4734941522
 31
0.0
  0
ARC
  5
EC
330
1F
100
AcDbEntity
  8
0
  6
SLD-Durchgehend
 62
     7
370
    15
100
AcDbCircle
 10
215.3108561636
 20
114.8085887035
 30
0.0
 40
10.67509161234355
100
AcDbArc
 50
87.1187935496
 51
101.90235617
  0
ELLIPSE
  5
ED
330
1F
100
AcDbEntity
  8
0
  6
SLD-Durchgehend
 62
     7
370
    15
100
AcDbEllipse
 10
211.668618422
 20
100.0310637788
 30
0.0
 11
-0.2199441409949827
 21
2.658240935926187
 31
0.0
210
0.0
220
0.0
230
1.0
 40
0.2265727024
 41
0.0
 42
6.283185307179586
  0
LINE
  5
EE
330
1F
100
AcDbEntity
  8
0
  6
SLD-Durchgehend
 62
     7
370
    15
100
AcDbLine
 10
180.9035723923
 20
93.8670665795
 30
0.0
 11
180.9035723923
 21
124.074467721
 31
0.0
  0
LINE
  5
EF
330
1F
100
AcDbEntity
  8
0
  6
SLD-Durchgehend
 62
     7
370
    15
100
AcDbLine
 10
169.1035726467
 20
94.4582487294
 30
0.0
 11
169.1035726467
 21
95.3671906913
 31
0.0
  0
ARC
  5
F0
330
1F
100
AcDbEntity
  8
0
  6
SLD-Durchgehend
 62
     7
370
    15
100
AcDbCircle
 10
165.9650320415
 20
94.4001842996
 30
0.0
 40
3.284134359664614
100
AcDbArc
 50
17.1244326527
 51
29.8895177058
  0
LWPOLYLINE
  5
F1
330
1F
100
AcDbEntity
  8
0
  6
SLD-Durchgehend
 62
     7
370
    15
100
AcDbPolyline
 90
        7
 70
   128
 43
0.0
 10
168.2035723129
 20
96.686893406
 10
168.2668873468
 20
96.6864407832
 10
168.3282615045
 20
96.6750004167
 10
168.405664655
 20
96.64453313
 10
168.5110279718
 20
96.5714261705
 10
168.6991011152
 20
96.3203443984
 10
168.8123369018
 20
96.036764125
  0
ARC
  5
F2
330
1F
100
AcDbEntity
  8
0
  6
SLD-Durchgehend
 62
     7
370
    15
100
AcDbCircle
 10
173.9587125955
 20
21.8183951109
 30
0.0
 40
75.08937126268323
100
AcDbArc
 50
94.395681249
 51
97.5337113535
  0
LINE
  5
F3
330
1F
100
AcDbEntity
  8
0
  6
SLD-Durchgehend
 62
     7
370
    15
100
AcDbLine
 10
163.953572082
 20
96.2402320305
 30
0.0
 11
164.1137819165
 21
96.2595867762
 31
0.0
  0
LINE
  5
F4
330
1F
100
AcDbEntity
  8
0
  6
SLD-Durchgehend
 62
     7
370
    15
100
AcDbLine
 10
163.9450560683
 20
96.2675896311
 30
0.0
 11
163.953572082
 21
96.2402320305
 31
0.0
  0
ELLIPSE
  5
F5
330
1F
100
AcDbEntity
  8
0
  6
SLD-Durchgehend
 62
     7
370
    15
100
AcDbEllipse
 10
150.4768302794
 20
108.3314694725
 30
0.0
 11
13.37355272666627
 21
-13.37146352987013
 31
0.0
210
0.0
220
0.0
230
1.0
 40
0.1761188775
 41
0.3023035477142441
 42
0.382273043534032
  0
ELLIPSE
  5
F6
330
1F
100
AcDbEntity
  8
0
  6
SLD-Durchgehend
 62
     7
370
    15
100
AcDbEllipse
 10
150.3974518487
 20
109.6098776016
 30
0.0
 11
13.36963611134306
 21
13.36754752639482
 31
0.0
210
0.0
220
0.0
230
1.0
 40
0.1761188775
 41
5.933076931846602
 42
5.976720052691197
  0
LINE
  5
F7
330
1F
100
AcDbEntity
  8
0
  6
SLD-Durchgehend
 62
     7
370
    15
100
AcDbLine
 10
163.953572082
 20
121.8363477686
 30
0.0
 11
163.8544048542
 21
121.644202883
 31
0.0
  0
LWPOLYLINE
  5
F8
330
1F
100
AcDbEntity
  8
0
  6
SLD-Durchgehend
 62
     7
370
    15
100
AcDbPolyline
 90
        3
 70
   128
 43
0.0
 10
165.7035719032
 20
121.7515610928
 10
164.8399378533
 20
121.8101897115
 10
163.953572082
 20
121.8363477686
  0
ARC
  5
F9
330
1F
100
AcDbEntity
  8
0
  6
SLD-Durchgehend
 62
     7
370
    15
100
AcDbCircle
 10
165.5486072584
 20
122.8409011845
 30
0.0
 40
1.100307173752291
100
AcDbArc
 50
278.0963186522
 51
343.4942707128
  0
LINE
  5
FA
330
1F
100
AcDbEntity
  8
0
  6
SLD-Durchgehend
 62
     7
370
    15
100
AcDbLine
 10
166.6035722369
 20
122.5282915706
 30
0.0
 11
166.6035722369
 21
123.358034792
 31
0.0
  0
LWPOLYLINE
  5
FB
330
1F
100
AcDbEntity
  8
0
  6
SLD-Durchgehend
 62
     7
370
    15
100
AcDbPolyline
 90
       18
 70
   128
 43
0.0
 10
174.0881153742
 20
94.2088004971
 10
174.0867165277
 20
94.2086002627
 10
174.1420165995
 20
94.2170967186
 10
174.3030450666
 20
94.2399578938
 10
174.5668151775
 20
94.2732191483
 10
174.9173407802
 20
94.3104515621
 10
175.3402161771
 20
94.3432620564
 10
175.8219423132
 20
94.3643881777
 10
176.3517321447
 20
94.3677018234
 10
176.9002592551
 20
94.3502134481
 10
177.4417893389
 20
94.3110774109
 10
177.9590985166
 20
94.2534779036
 10
178.4421187254
 20
94.1822214821
 10
178.8648302095
 20
94.1070497805
 10
179.208043533
 20
94.0368047753
 10
179.4620557116
 20
93.979381288
 10
179.6182911271
 20
93.94158263
 10
179.6698505418
 20
93.9291690314
  0
LWPOLYLINE
  5
FC
330
1F
100
AcDbEntity
  8
0
  6
SLD-Durchgehend
 62
     7
370
    15
100
AcDbPolyline
 90
       18
 70
   128
 43
0.0
 10
179.6688516984
 20
124.0123662004
 10
179.6181807654
 20
123.9996508533
 10
179.463266431
 20
123.9622126171
 10
179.2052847227
 20
123.9041101957
 10
178.8629698927
 20
123.8339192072
 10
178.4411762269
 20
123.7588806847
 10
177.9600074874
 20
123.6879967922
 10
177.4426340485
 20
123.6305062497
 10
176.9011943029
 20
123.5914242292
 10
176.3519458832
 20
123.5739051202
 10
175.8216694357
 20
123.5771880323
 10
175.3388662251
 20
123.5983299861
 10
174.9162408883
 20
123.631142343
 10
174.5654023612
 20
123.6684827903
 10
174.3025533283
 20
123.7016751269
 10
174.1414755011
 20
123.7244953239
 10
174.0867370168
 20
123.7329396257
 10
174.0876497129
 20
123.732796202
  0
LWPOLYLINE
  5
FD
330
1F
100
AcDbEntity
  8
0
  6
SLD-Durchgehend
 62
     7
370
    15
100
AcDbPolyline
 90
       13
 70
   128
 43
0.0
 10
163.7635431612
 20
121.3588475088
 10
163.5988201374
 20
120.9612798715
 10
163.5163347596
 20
120.8022975201
 10
163.4083702588
 20
120.6250444824
 10
163.3551339978
 20
120.5501307571
 10
163.2906473601
 20
120.4713697383
 10
163.2518484617
 20
120.4312083149
 10
163.2124814564
 20
120.3971349472
 10
163.1809655005
 20
120.3757638881
 10
163.1413991923
 20
120.3586387286
 10
163.0914206976
 20
120.3603337357
 10
163.0200925643
 20
120.4914974818
 10
163.0035727644
 20
120.7489988605
  0
LWPOLYLINE
  5
FE
330
1F
100
AcDbEntity
  8
0
  6
SLD-Durchgehend
 62
     7
370
    15
100
AcDbPolyline
 90
       11
 70
   128
 43
0.0
 10
163.0035727644
 20
97.4232538441
 10
163.0285564238
 20
97.6752343426
 10
163.0871030862
 20
97.7546398366
 10
163.1389032478
 20
97.7552526468
 10
163.1726543779
 20
97.7409745404
 10
163.2164693797
 20
97.7113445127
 10
163.259956556
 20
97.6726396779
 10
163.3076849753
 20
97.6217494184
 10
163.3762172783
 20
97.5359727466
 10
163.5154257888
 20
97.3223962659
 10
163.7635431612
 20
96.8037818396
  0
LINE
  5
FF
330
1F
100
AcDbEntity
  8
0
  6
SLD-Durchgehend
 62
     7
370
    15
100
AcDbLine
 10
163.0035727644
 20
97.4232538441
 30
0.0
 11
163.0035727644
 21
120.7489988605
 31
0.0
  0
LWPOLYLINE
  5
100
330
1F
100
AcDbEntity
  8
0
  6
SLD-Durchgehend
 62
     7
370
    15
100
AcDbPolyline
 90
        3
 70
   128
 43
0.0
 10
197.8635727787
 20
126.6844442883
 10
196.9344965542
 20
128.34045131
 10
196.8684126983
 20
128.4579432407
  0
LINE
  5
101
330
1F
100
AcDbEntity
  8
0
  6
SLD-Durchgehend
 62
     7
370
    15
100
AcDbLine
 10
197.8635727787
 20
122.8848549375
 30
0.0
 11
197.8635727787
 21
126.6844442883
 31
0.0
  0
LINE
  5
102
330
1F
100
AcDbEntity
  8
0
  6
SLD-Durchgehend
 62
     7
370
    15
100
AcDbLine
 10
196.8684126983
 20
125.0821764419
 30
0.0
 11
197.8635727787
 21
122.8848549375
 31
0.0
  0
LINE
  5
103
330
1F
100
AcDbEntity
  8
0
  6
SLD-Durchgehend
 62
     7
370
    15
100
AcDbLine
 10
199.3435728723
 20
125.8707663814
 30
0.0
 11
198.4635726908
 21
125.8707663814
 31
0.0
  0
LINE
  5
104
330
1F
100
AcDbEntity
  8
0
  6
SLD-Durchgehend
 62
     7
370
    15
100
AcDbLine
 10
198.4635726908
 20
121.6777779931
 30
0.0
 11
199.3435728723
 21
121.6777779931
 31
0.0
  0
LINE
  5
105
330
1F
100
AcDbEntity
  8
0
  6
SLD-Durchgehend
 62
     7
370
    15
100
AcDbLine
 10
199.695227238
 20
125.8707663814
 30
0.0
 11
199.3435728723
 21
125.8707663814
 31
0.0
  0
ARC
  5
106
330
1F
100
AcDbEntity
  8
0
  6
SLD-Durchgehend
 62
     7
370
    15
100
AcDbCircle
 10
199.3163821792
 20
126.3706172528
 30
0.0
 40
0.6271957208092315
100
AcDbArc
 50
307.1590768283
 51
0.2515960212
  0
ARC
  5
107
330
1F
100
AcDbEntity
  8
0
  6
SLD-Durchgehend
 62
     7
370
    15
100
AcDbCircle
 10
199.2180308791
 20
122.3978649952
 30
0.0
 40
0.730948755117504
100
AcDbArc
 50
279.8897062559
 51
6.9738377009
  0
ARC
  5
108
330
1F
100
AcDbEntity
  8
0
  6
SLD-Durchgehend
 62
     7
370
    15
100
AcDbCircle
 10
198.4902764892
 20
126.3703764299
 30
0.0
 40
0.6267108666970234
100
AcDbArc
 50
179.726192355
 51
232.8629641269
  0
LINE
  5
109
330
1F
100
AcDbEntity
  8
0
  6
SLD-Durchgehend
 62
     7
370
    15
100
AcDbLine
 10
198.4635726908
 20
125.8707663814
 30
0.0
 11
198.1119164625
 21
125.8707663814
 31
0.0
  0
LWPOLYLINE
  5
10A
330
1F
100
AcDbEntity
  8
0
  6
SLD-Durchgehend
 62
     7
370
    15
100
AcDbPolyline
 90
        6
 70
   128
 43
0.0
 10
197.8635727787
 20
122.486613954
 10
197.9085873241
 20
122.1818591306
 10
198.0330343718
 20
121.9256662602
 10
198.1801451543
 20
121.7749112124
 10
198.3303507218
 20
121.6982493946
 10
198.4635726908
 20
121.6777779931
  0
LINE
  5
10B
330
1F
100
AcDbEntity
  8
0
  6
SLD-Durchgehend
 62
     7
370
    15
100
AcDbLine
 10
199.9435718531
 20
122.8848549375
 30
0.0
 11
200.9387328649
 21
125.0821764419
 31
0.0
  0
LINE
  5
10C
330
1F
100
AcDbEntity
  8
0
  6
SLD-Durchgehend
 62
     7
370
    15
100
AcDbLine
 10
200.9387328649
 20
125.0821764419
 30
0.0
 11
202.2535722131
 21
125.0821764419
 31
0.0
  0
ARC
  5
10D
330
1F
100
AcDbEntity
  8
0
  6
SLD-Durchgehend
 62
     7
370
    15
100
AcDbCircle
 10
202.1579935077
 20
124.3906220618
 30
0.0
 40
0.6981280323795271
100
AcDbArc
 50
355.1028521375
 51
82.1310855252
  0
LINE
  5
10E
330
1F
100
AcDbEntity
  8
0
  6
SLD-Durchgehend
 62
     7
370
    15
100
AcDbLine
 10
202.8535730565
 20
124.3310247386
 30
0.0
 11
202.8535730565
 21
121.8481699774
 31
0.0
  0
LINE
  5
10F
330
1F
100
AcDbEntity
  8
0
  6
SLD-Durchgehend
 62
     7
370
    15
100
AcDbLine
 10
199.9435718531
 20
122.486613954
 30
0.0
 11
199.9435718531
 21
122.8848549375
 31
0.0
  0
LINE
  5
110
330
1F
100
AcDbEntity
  8
0
  6
SLD-Durchgehend
 62
     7
370
    15
100
AcDbLine
 10
197.8635727787
 20
122.8848549375
 30
0.0
 11
197.8635727787
 21
122.486613954
 31
0.0
  0
ARC
  5
111
330
1F
100
AcDbEntity
  8
0
  6
SLD-Durchgehend
 62
     7
370
    15
100
AcDbCircle
 10
202.2454679171
 20
127.8498369172
 30
0.0
 40
0.6081603245705436
100
AcDbArc
 50
359.2281322855
 51
89.2364584066
  0
LINE
  5
112
330
1F
100
AcDbEntity
  8
0
  6
SLD-Durchgehend
 62
     7
370
    15
100
AcDbLine
 10
202.8535730565
 20
124.3310247386
 30
0.0
 11
202.8535730565
 21
127.8416442523
 31
0.0
  0
LINE
  5
113
330
1F
100
AcDbEntity
  8
0
  6
SLD-Durchgehend
 62
     7
370
    15
100
AcDbLine
 10
202.2535722131
 20
128.4579432407
 30
0.0
 11
200.9387328649
 21
128.4579432407
 31
0.0
  0
LINE
  5
114
330
1F
100
AcDbEntity
  8
0
  6
SLD-Durchgehend
 62
     7
370
    15
100
AcDbLine
 10
200.9387328649
 20
125.0821764419
 30
0.0
 11
200.9387328649
 21
128.4579432407
 31
0.0
  0
LWPOLYLINE
  5
115
330
1F
100
AcDbEntity
  8
0
  6
SLD-Durchgehend
 62
     7
370
    15
100
AcDbPolyline
 90
        3
 70
   128
 43
0.0
 10
200.9387328649
 20
128.4579432407
 10
200.8726480776
 20
128.34045131
 10
199.9435718531
 20
126.6844442883
  0
LINE
  5
116
330
1F
100
AcDbEntity
  8
0
  6
SLD-Durchgehend
 62
     7
370
    15
100
AcDbLine
 10
199.9435718531
 20
122.8848549375
 30
0.0
 11
199.9435718531
 21
126.6844442883
 31
0.0
  0
LINE
  5
117
330
1F
100
AcDbEntity
  8
0
  6
SLD-Durchgehend
 62
     7
370
    15
100
AcDbLine
 10
163.0035727644
 20
97.1522948543
 30
0.0
 11
163.0035727644
 21
97.4232538441
 31
0.0
  0
LINE
  5
118
330
1F
100
AcDbEntity
  8
0
  6
SLD-Durchgehend
 62
     7
370
    15
100
AcDbLine
 10
163.0035727644
 20
120.8446810791
 30
0.0
 11
163.0035727644
 21
120.7489988605
 31
0.0
  0
LINE
  5
119
330
1F
100
AcDbEntity
  8
0
  6
SLD-Durchgehend
 62
     7
370
    15
100
AcDbLine
 10
163.953572082
 20
121.8507674361
 30
0.0
 11
163.953572082
 21
121.8363477686
 31
0.0
  0
LINE
  5
11A
330
1F
100
AcDbEntity
  8
0
  6
SLD-Durchgehend
 62
     7
370
    15
100
AcDbLine
 10
163.0035727644
 20
120.9007671872
 30
0.0
 11
163.0035727644
 21
120.8446810791
 31
0.0
  0
LINE
  5
11B
330
1F
100
AcDbEntity
  8
0
  6
SLD-Durchgehend
 62
     7
370
    15
100
AcDbLine
 10
163.953572082
 20
96.1497670809
 30
0.0
 11
163.953572082
 21
96.2402320305
 31
0.0
  0
LINE
  5
11C
330
1F
100
AcDbEntity
  8
0
  6
SLD-Durchgehend
 62
     7
370
    15
100
AcDbLine
 10
163.0035727644
 20
97.0997673297
 30
0.0
 11
163.0035727644
 21
97.1522948543
 31
0.0
  0
LWPOLYLINE
  5
11D
330
1F
100
AcDbEntity
  8
0
  6
SLD-Durchgehend
 62
     7
370
    15
100
AcDbPolyline
 90
        4
 70
   128
 43
0.0
 10
216.9728796357
 20
123.8628935838
 10
216.5931719715
 20
124.4051729167
 10
216.2168915743
 20
124.9425562868
 10
215.8474433595
 20
125.4701859156
  0
LINE
  5
11E
330
1F
100
AcDbEntity
  8
0
  6
SLD-Durchgehend
 62
     7
370
    15
100
AcDbLine
 10
222.4620390112
 20
89.2226493755
 30
0.0
 11
218.7220002884
 21
89.4186573872
 31
0.0
  0
LINE
  5
11F
330
1F
100
AcDbEntity
  8
0
  6
SLD-Durchgehend
 62
     7
370
    15
100
AcDbLine
 10
220.3964474971
 20
83.1689781347
 30
0.0
 11
226.4427985424
 21
82.8521030793
 31
0.0
  0
LINE
  5
120
330
1F
100
AcDbEntity
  8
0
  6
SLD-Durchgehend
 62
     7
370
    15
100
AcDbLine
 10
218.7220002884
 20
89.4186573872
 30
0.0
 11
220.3964474971
 21
83.1689781347
 31
0.0
  0
LWPOLYLINE
  5
121
330
1F
100
AcDbEntity
  8
0
  6
SLD-Durchgehend
 62
     7
370
    15
100
AcDbPolyline
 90
        3
 70
   128
 43
0.0
 10
217.9528396005
 20
92.2292063782
 10
217.7491779799
 20
92.3417343596
 10
217.5086024577
 20
92.4304409722
  0
LINE
  5
122
330
1F
100
AcDbEntity
  8
0
  6
SLD-Durchgehend
 62
     7
370
    15
100
AcDbLine
 10
217.5132478947
 20
92.5190525899
 30
0.0
 11
221.0733997995
 21
92.3324732879
 31
0.0
  0
LINE
  5
123
330
1F
100
AcDbEntity
  8
0
  6
SLD-Durchgehend
 62
     7
370
    15
100
AcDbLine
 10
220.8337965781
 20
92.078222225
 30
0.0
 11
217.9528396005
 21
92.2292063782
 31
0.0
  0
ARC
  5
124
330
1F
100
AcDbEntity
  8
0
  6
SLD-Durchgehend
 62
     7
370
    15
100
AcDbCircle
 10
217.4338829968
 20
91.0046881645
 30
0.0
 40
1.516442497159256
100
AcDbArc
 50
87.0
 51
104.3991163045
  0
LINE
  5
125
330
1F
100
AcDbEntity
  8
0
  6
SLD-Durchgehend
 62
     7
370
    15
100
AcDbLine
 10
230.9035729045
 20
92.5555585721
 30
0.0
 11
230.9035729045
 21
103.9678033279
 31
0.0
  0
LINE
  5
126
330
1F
100
AcDbEntity
  8
0
  6
SLD-Durchgehend
 62
     7
370
    15
100
AcDbLine
 10
231.3566799635
 20
91.8304345408
 30
0.0
 11
230.9035729045
 21
92.5555585721
 31
0.0
  0
LINE
  5
127
330
1F
100
AcDbEntity
  8
0
  6
SLD-Durchgehend
 62
     7
370
    15
100
AcDbLine
 10
230.9035729045
 20
103.9678033279
 30
0.0
 11
216.9728796357
 21
123.8628935838
 31
0.0
  0
LINE
  5
128
330
1F
100
AcDbEntity
  8
0
  6
SLD-Durchgehend
 62
     7
370
    15
100
AcDbLine
 10
222.2896735543
 20
89.498492221
 30
0.0
 11
218.6916801507
 21
89.68705524
 31
0.0
  0
LINE
  5
129
330
1F
100
AcDbEntity
  8
0
  6
SLD-Durchgehend
 62
     7
370
    15
100
AcDbLine
 10
218.6916801507
 20
89.68705524
 30
0.0
 11
218.7220002884
 21
89.4186573872
 31
0.0
  0
LINE
  5
12A
330
1F
100
AcDbEntity
  8
0
  6
SLD-Durchgehend
 62
     7
370
    15
100
AcDbLine
 10
217.5086024577
 20
92.4304409722
 30
0.0
 11
217.1362447912
 21
92.4761968503
 31
0.0
  0
LWPOLYLINE
  5
12B
330
1F
100
AcDbEntity
  8
0
  6
SLD-Durchgehend
 62
     7
370
    15
100
AcDbPolyline
 90
        3
 70
   128
 43
0.0
 10
218.1021715874
 20
92.1928829351
 10
218.1926551634
 20
91.8460528204
 10
218.7587502772
 20
89.683538566
  0
LWPOLYLINE
  5
12C
330
1F
100
AcDbEntity
  8
0
  6
SLD-Gestrichelt
 62
     7
370
     0
100
AcDbPolyline
 90
       29
 70
   128
 43
0.0
 10
204.9726671899
 20
112.3620334851
 10
204.8729113663
 20
111.9495556062
 10
204.8702682728
 20
111.5213295283
 10
204.9648701573
 20
111.0988278246
 10
205.1519747252
 20
110.703236803
 10
205.4221979702
 20
110.3543930525
 10
205.7619910115
 20
110.0697890228
 10
206.154316234
 20
109.8636959517
 10
206.579498517
 20
109.7464481439
 10
207.0162198866
 20
109.7239249806
 10
207.4425774986
 20
109.7972558649
 10
207.8371956373
 20
109.9627636444
 10
208.1802855605
 20
110.2121490125
 10
208.4546438778
 20
110.5329068681
 10
208.6465112293
 20
110.9089529213
 10
208.7462670529
 20
111.3214309165
 10
208.7489101464
 20
111.7496572273
 10
208.6543082619
 20
112.1721586982
 10
208.467203694
 20
112.5677498361
 10
208.196980449
 20
112.9165937031
 10
207.857185545
 20
113.2011975
 10
207.4648621852
 20
113.4072908038
 10
207.0396799022
 20
113.5245382624
 10
206.6029585326
 20
113.5470613675
 10
206.1766009206
 20
113.4737308906
 10
205.7819809193
 20
113.3082227619
 10
205.4388928587
 20
113.0588373939
 10
205.1645345414
 20
112.7380796546
 10
204.9726671899
 20
112.3620334851
  0
LWPOLYLINE
  5
12D
330
1F
100
AcDbEntity
  8
0
  6
SLD-Gestrichelt
 62
     7
370
     0
100
AcDbPolyline
 90
       32
 70
   128
 43
0.0
 10
204.5427891785
 20
112.6291300474
 10
204.4237419391
 20
112.160114369
 10
204.40450454
 20
111.672751403
 10
204.4858648801
 20
111.1869935716
 10
204.6644906873
 20
110.7227277547
 10
204.9330692167
 20
110.2989613149
 10
205.2806071365
 20
109.9330431038
 10
205.692873838
 20
109.6399539687
 10
206.1529918933
 20
109.4316929824
 10
206.6421225095
 20
109.3167863741
 10
207.1402441138
 20
109.2999384285
 10
207.6269607419
 20
109.3818389066
 10
208.0823458159
 20
109.5591347852
 10
208.4877579832
 20
109.8245675397
 10
208.8265973503
 20
110.1672703238
 10
209.0849946613
 20
110.5732129958
 10
209.2523682291
 20
111.0257758131
 10
209.3218672449
 20
111.5064313939
 10
209.2906455869
 20
111.9955010084
 10
209.1599810297
 20
112.4729626184
 10
208.9352249527
 20
112.9192684615
 10
208.6255788231
 20
113.3161469201
 10
208.2437179411
 20
113.6473499076
 10
207.8052754873
 20
113.8993178332
 10
207.3282036359
 20
114.0617349023
 10
206.832032221
 20
114.1279519374
 10
206.3370733881
 20
114.0952578584
 10
205.8635927165
 20
113.9649914416
 10
205.4309747541
 20
113.74248544
 10
205.0569295311
 20
113.4368495854
 10
204.7567717159
 20
113.0605966622
 10
204.5427891785
 20
112.6291300474
  0
LWPOLYLINE
  5
12E
330
1F
100
AcDbEntity
  8
0
  6
SLD-Gestrichelt
 62
     7
370
     0
100
AcDbPolyline
 90
       32
 70
   128
 43
0.0
 10
204.846672284
 20
113.075182105
 10
204.7276250446
 20
112.6061666595
 10
204.7083876455
 20
112.1188036935
 10
204.7897479856
 20
111.6330458621
 10
204.9683737928
 20
111.1687799288
 10
205.2369541848
 20
110.745013489
 10
205.584490242
 20
110.379095336
 10
205.9967569435
 20
110.0860062592
 10
206.4568749988
 20
109.8777452438
 10
206.9460074777
 20
109.7628386646
 10
207.4441272194
 20
109.7459906899
 10
207.9308438474
 20
109.8278911389
 10
208.3862307841
 20
110.0051870175
 10
208.7916410888
 20
110.270619772
 10
209.1304823184
 20
110.6133226143
 10
209.3888777668
 20
111.0192651698
 10
209.5562513346
 20
111.4718281036
 10
209.6257503504
 20
111.9524836844
 10
209.5945286924
 20
112.4415532989
 10
209.4638659978
 20
112.9190146761
 10
209.2391099209
 20
113.365320752
 10
208.9294637913
 20
113.7621992106
 10
208.5476010466
 20
114.0934021981
 10
208.1091604555
 20
114.3453701237
 10
207.6320867414
 20
114.5077871928
 10
207.1359153265
 20
114.5740042279
 10
206.6409583563
 20
114.5413101489
 10
206.1674776847
 20
114.4110437321
 10
205.7348597223
 20
114.1885377305
 10
205.3608144993
 20
113.8829018759
 10
205.0606566841
 20
113.5066489527
 10
204.846672284
 20
113.075182105
  0
LWPOLYLINE
  5
12F
330
1F
100
AcDbEntity
  8
0
  6
SLD-Gestrichelt
 62
     7
370
     0
100
AcDbPolyline
 90
       29
 70
   128
 43
0.0
 10
205.9095385844
 20
113.7711082423
 10
205.8087936962
 20
113.3545448842
 10
205.8061245257
 20
112.9220773304
 10
205.9016633207
 20
112.4953907287
 10
206.0906212205
 20
112.0958815167
 10
206.3635210866
 20
111.7435826758
 10
206.7066799277
 20
111.4561595326
 10
207.102890628
 20
111.2480252353
 10
207.5322843516
 20
111.1296161847
 10
207.9733307833
 20
111.106869795
 10
208.4039128745
 20
111.1809271691
 10
208.8024388427
 20
111.3480741927
 10
209.1489280934
 20
111.5999296611
 10
209.4260021472
 20
111.9238646073
 10
209.6197693968
 20
112.3036353687
 10
209.720514285
 20
112.7201987268
 10
209.7231834555
 20
113.1526662806
 10
209.6276446605
 20
113.5793526495
 10
209.4386867607
 20
113.9788620943
 10
209.1657868946
 20
114.3311609352
 10
208.8226280535
 20
114.6185838455
 10
208.4264173532
 20
114.8267181428
 10
207.9970236296
 20
114.9451274263
 10
207.5559771979
 20
114.9678735832
 10
207.1253951067
 20
114.8938166747
 10
206.7268691385
 20
114.7266694183
 10
206.3803798879
 20
114.474813717
 10
206.103305834
 20
114.1508792365
 10
205.9095385844
 20
113.7711082423
  0
LWPOLYLINE
  5
130
330
1F
100
AcDbEntity
  8
0
  6
SLD-Gestrichelt
 62
     7
370
     0
100
AcDbPolyline
 90
       29
 70
   128
 43
0.0
 10
205.1897137785
 20
112.7145253425
 10
205.088970753
 20
112.2979619844
 10
205.0862997199
 20
111.8654941978
 10
205.1818403775
 20
111.4388078289
 10
205.3707964147
 20
111.0392986169
 10
205.6436981434
 20
110.6869996596
 10
205.9868569845
 20
110.3995766329
 10
206.3830676848
 20
110.1914422192
 10
206.8124614084
 20
110.0730331685
 10
207.2535059774
 20
110.0502868952
 10
207.6840880686
 20
110.124344153
 10
208.0826158995
 20
110.2914911766
 10
208.4291032875
 20
110.5433466449
 10
208.706179204
 20
110.8672815911
 10
208.8999464536
 20
111.2470522361
 10
209.0006913418
 20
111.6636155942
 10
209.0033605123
 20
112.0960833808
 10
208.9078198547
 20
112.5227697497
 10
208.7188638175
 20
112.9222789617
 10
208.4459620887
 20
113.2745782683
 10
208.1028032476
 20
113.5620011786
 10
207.7065925473
 20
113.7701354759
 10
207.2771988237
 20
113.8885442937
 10
206.8361542547
 20
113.9112909162
 10
206.4055721635
 20
113.8372335421
 10
206.0070443327
 20
113.6700862857
 10
205.6605569447
 20
113.4182310501
 10
205.3834828908
 20
113.0942961039
 10
205.1897137785
 20
112.7145253425
  0
LWPOLYLINE
  5
131
330
1F
100
AcDbEntity
  8
0
  6
SLD-Gestrichelt
 62
     7
370
     0
100
AcDbPolyline
 90
       32
 70
   128
 43
0.0
 10
204.9664906586
 20
113.251054457
 10
204.8474434191
 20
112.7820387786
 10
204.82820602
 20
112.2946755799
 10
204.9095663602
 20
111.8089177484
 10
205.0881921673
 20
111.3446520479
 10
205.3567706967
 20
110.9208856082
 10
205.7043086166
 20
110.5549673388
 10
206.116575318
 20
110.2618782619
 10
206.5766933734
 20
110.0536173047
 10
207.0658239896
 20
109.9387106673
 10
207.5639455939
 20
109.9218627509
 10
208.050662222
 20
110.0037631417
 10
208.506047296
 20
110.1810590202
 10
208.9114594633
 20
110.4464918911
 10
209.2502988303
 20
110.789194617
 10
209.5086961413
 20
111.195137289
 10
209.6760697091
 20
111.6477002228
 10
209.7455687249
 20
112.1283555707
 10
209.7143470669
 20
112.6174254181
 10
209.5836825097
 20
113.0948870281
 10
209.3589264328
 20
113.5411926383
 10
209.0492803032
 20
113.9380715625
 10
208.6674194211
 20
114.2692745501
 10
208.2289769674
 20
114.52124201
 10
207.7519051159
 20
114.6836590791
 10
207.255733701
 20
114.7498761142
 10
206.7607748682
 20
114.7171825008
 10
206.2872941965
 20
114.5869156184
 10
205.8546762342
 20
114.3644096168
 10
205.4806310112
 20
114.0587737622
 10
205.180473196
 20
113.682520839
 10
204.9664906586
 20
113.251054457
  0
LWPOLYLINE
  5
132
330
1F
100
AcDbEntity
  8
0
  6
SLD-Gestrichelt
 62
     7
370
     0
100
AcDbPolyline
 90
       31
 70
   128
 43
0.0
 10
205.0633947725
 20
113.0476214761
 10
204.9517888004
 20
112.6013526531
 10
204.9382976616
 20
112.1377097746
 10
205.0235155398
 20
111.6769563245
 10
205.2037134195
 20
111.239229825
 10
205.4710178996
 20
110.8436604567
 10
205.8137464697
 20
110.5075369427
 10
206.2169216001
 20
110.2455492668
 10
206.6629189426
 20
110.0691476908
 10
207.1322496409
 20
109.9860417029
 10
207.6044003839
 20
109.9998634612
 10
208.0587367887
 20
110.1100088866
 10
208.4754011953
 20
110.3116640892
 10
208.8361843849
 20
110.5960158469
 10
209.1253153408
 20
110.950636475
 10
209.3301616037
 20
111.3600274852
 10
209.4417694384
 20
111.806296541
 10
209.4552587146
 20
112.2699394194
 10
209.370042699
 20
112.7306926368
 10
209.1898448193
 20
113.1684191363
 10
208.9225403393
 20
113.563988621
 10
208.5798117692
 20
113.9001122514
 10
208.1766366387
 20
114.1620998109
 10
207.7306374336
 20
114.3385011541
 10
207.2613067353
 20
114.4216072584
 10
206.7891559923
 20
114.4077855
 10
206.3348214502
 20
114.2976403074
 10
205.9181570435
 20
114.0959847556
 10
205.557373854
 20
113.8116333472
 10
205.2682410354
 20
113.4570127191
 10
205.0633947725
 20
113.0476214761
  0
LWPOLYLINE
  5
133
330
1F
100
AcDbEntity
  8
0
  6
SLD-Gestrichelt
 62
     7
370
     0
100
AcDbPolyline
 90
       32
 70
   128
 43
0.0
 10
205.0863071704
 20
113.4269263433
 10
204.967259931
 20
112.9579108978
 10
204.9480225319
 20
112.470547699
 10
205.029382872
 20
111.9847898675
 10
205.2080086792
 20
111.5205241671
 10
205.4765890712
 20
111.0967574945
 10
205.8241251284
 20
110.7308394579
 10
206.2363918299
 20
110.4377502646
 10
206.6965098852
 20
110.2294893075
 10
207.1856423641
 20
110.1145827282
 10
207.6837621057
 20
110.0977347536
 10
208.1704787338
 20
110.1796352608
 10
208.6258638078
 20
110.3569311393
 10
209.0312759751
 20
110.6223638939
 10
209.3701172048
 20
110.9650666198
 10
209.6285126532
 20
111.3710091753
 10
209.795886221
 20
111.8235723419
 10
209.8653852368
 20
112.3042276898
 10
209.8341635788
 20
112.7932973044
 10
209.7035008842
 20
113.2707589144
 10
209.4787448073
 20
113.7170649903
 10
209.169096815
 20
114.1139434488
 10
208.787235933
 20
114.4451464364
 10
208.3487953419
 20
114.697114362
 10
207.8717216278
 20
114.8595314311
 10
207.3755502129
 20
114.9257484661
 10
206.88059138
 20
114.8930543872
 10
206.407112571
 20
114.7627879703
 10
205.974492746
 20
114.5402819687
 10
205.600447523
 20
114.2346461141
 10
205.3002897078
 20
113.8583927253
 10
205.0863071704
 20
113.4269263433
  0
LWPOLYLINE
  5
134
330
1F
100
AcDbEntity
  8
0
  6
SLD-Gestrichelt
 62
     7
370
     0
100
AcDbPolyline
 90
       31
 70
   128
 43
0.0
 10
205.183213147
 20
113.2234933624
 10
205.0716053123
 20
112.7772245394
 10
205.0581160361
 20
112.3135816609
 10
205.1433320517
 20
111.8528284436
 10
205.3235299313
 20
111.4151017113
 10
205.5908344114
 20
111.0195324594
 10
205.9335648442
 20
110.6834089454
 10
206.336738112
 20
110.4214213859
 10
206.7827373171
 20
110.2450196935
 10
207.2520680154
 20
110.1619137056
 10
207.7242187584
 20
110.1757354639
 10
208.1785551632
 20
110.2858808894
 10
208.5952177072
 20
110.4875362083
 10
208.9560008967
 20
110.7718878496
 10
209.2451337153
 20
111.1265085941
 10
209.4499799782
 20
111.5358996043
 10
209.5615859503
 20
111.9821684273
 10
209.5750770891
 20
112.4458113058
 10
209.4898610735
 20
112.9065647559
 10
209.3096613312
 20
113.3442914883
 10
209.0423568511
 20
113.7398605073
 10
208.699628281
 20
114.0759841377
 10
208.2964531506
 20
114.3379716972
 10
207.8504558081
 20
114.514373506
 10
207.3811251098
 20
114.5974791447
 10
206.9089743668
 20
114.5836573863
 10
206.454637962
 20
114.4735121937
 10
206.0379735554
 20
114.2718571076
 10
205.6771922285
 20
113.9875052335
 10
205.3880594099
 20
113.6328846054
 10
205.183213147
 20
113.2234933624
  0
LWPOLYLINE
  5
135
330
1F
100
AcDbEntity
  8
0
  6
SLD-Gestrichelt
 62
     7
370
     0
100
AcDbPolyline
 90
       32
 70
   128
 43
0.0
 10
205.2061255449
 20
113.6027982296
 10
205.0870783055
 20
113.1337827841
 10
205.0678409064
 20
112.6464198181
 10
205.1491993839
 20
112.1606617538
 10
205.3278270537
 20
111.6963960534
 10
205.5964055831
 20
111.2726296136
 10
205.9439435029
 20
110.9067114606
 10
206.3562102044
 20
110.6136223838
 10
206.8163282597
 20
110.4053613102
 10
207.3054588759
 20
110.2904547309
 10
207.8035804803
 20
110.2736067563
 10
208.2902952457
 20
110.3555072635
 10
208.7456821824
 20
110.5328031421
 10
209.1510943497
 20
110.7982358966
 10
209.4899337167
 20
111.1409387389
 10
209.748329165
 20
111.5468812944
 10
209.9157027328
 20
111.9994442282
 10
209.9852017487
 20
112.4800995762
 10
209.9539800907
 20
112.9691696564
 10
209.8233173961
 20
113.4466308007
 10
209.5985613192
 20
113.8929368766
 10
209.2889151895
 20
114.2898153352
 10
208.9070543075
 20
114.6210183227
 10
208.4686118538
 20
114.8729862483
 10
207.9915400023
 20
115.0354033174
 10
207.4953667248
 20
115.1016203525
 10
207.0004097546
 20
115.0689262735
 10
206.5269290829
 20
114.9386598567
 10
206.0943111206
 20
114.7161538551
 10
205.7202658976
 20
114.4105180005
 10
205.4201080823
 20
114.0342650773
 10
205.2061255449
 20
113.6027982296
  0
LWPOLYLINE
  5
136
330
1F
100
AcDbEntity
  8
0
  6
SLD-Gestrichelt
 62
     7
370
     0
100
AcDbPolyline
 90
       31
 70
   128
 43
0.0
 10
205.3030296588
 20
113.3993657144
 10
205.1914236868
 20
112.9530964257
 10
205.177932548
 20
112.4894537801
 10
205.2631485635
 20
112.0287003299
 10
205.4433483059
 20
111.5909738304
 10
205.7106527859
 20
111.1954045786
 10
206.053381356
 20
110.8592809482
 10
206.4565546239
 20
110.5972933887
 10
206.902553829
 20
110.4208918126
 10
207.3718845272
 20
110.3377858248
 10
207.8440352703
 20
110.3516075831
 10
208.2983716751
 20
110.4617530085
 10
208.7150360817
 20
110.6634082111
 10
209.0758174086
 20
110.9477598524
 10
209.3649502272
 20
111.3023804804
 10
209.5697964901
 20
111.7117714906
 10
209.6814043248
 20
112.1580405464
 10
209.694893601
 20
112.6216834249
 10
209.6096775854
 20
113.0824366422
 10
209.4294797057
 20
113.5201633746
 10
209.162173363
 20
113.9157323936
 10
208.8194447929
 20
114.251856024
 10
208.4162715251
 20
114.5138435835
 10
207.97027232
 20
114.6902453924
 10
207.5009416217
 20
114.7733514966
 10
207.0287908787
 20
114.7595297383
 10
206.5744544739
 20
114.6493840801
 10
206.1577900672
 20
114.4477289939
 10
205.7970087403
 20
114.1633771198
 10
205.5078759218
 20
113.8087564917
 10
205.3030296588
 20
113.3993657144
  0
LWPOLYLINE
  5
137
330
1F
100
AcDbEntity
  8
0
  6
SLD-Gestrichelt
 62
     7
370
     0
100
AcDbPolyline
 90
       32
 70
   128
 43
0.0
 10
205.3259420568
 20
113.7786705816
 10
205.2068948174
 20
113.3096546704
 10
205.1876574183
 20
112.8222917045
 10
205.2690177584
 20
112.336533873
 10
205.4476435656
 20
111.8722681725
 10
205.7162220949
 20
111.4485017328
 10
206.0637600148
 20
111.0825834634
 10
206.4760267163
 20
110.7894943865
 10
206.9361447716
 20
110.5812334293
 10
207.4252772505
 20
110.4663267337
 10
207.9233969921
 20
110.4494787591
 10
208.4101136202
 20
110.5313792663
 10
208.8654986942
 20
110.7086751448
 10
209.2709108615
 20
110.9741078993
 10
209.6097502286
 20
111.3168108581
 10
209.8681475395
 20
111.7227534136
 10
210.0355211074
 20
112.1753163474
 10
210.1050201232
 20
112.6559716953
 10
210.0737984652
 20
113.1450415427
 10
209.9431357706
 20
113.6225031527
 10
209.7183796937
 20
114.0688087629
 10
209.4087317014
 20
114.4656876871
 10
209.0268708194
 20
114.7968906747
 10
208.5884283656
 20
115.0488581346
 10
208.1113565141
 20
115.2112752037
 10
207.6151850993
 20
115.2774922388
 10
207.1202262664
 20
115.2447986254
 10
206.6467455948
 20
115.114531743
 10
206.2141276324
 20
114.8920257414
 10
205.8400824094
 20
114.5863898868
 10
205.5399245942
 20
114.2101369636
 10
205.3259420568
 20
113.7786705816
  0
LWPOLYLINE
  5
138
330
1F
100
AcDbEntity
  8
0
  6
SLD-Gestrichelt
 62
     7
370
     0
100
AcDbPolyline
 90
       31
 70
   128
 43
0.0
 10
205.4228480334
 20
113.5752376007
 10
205.3112401987
 20
113.1289687777
 10
205.2977509225
 20
112.6653256664
 10
205.3829669381
 20
112.2045724491
 10
205.5631648177
 20
111.7668457167
 10
205.8304692978
 20
111.3712764649
 10
206.1731978679
 20
111.0351530673
 10
206.5763729984
 20
110.7731653914
 10
207.0223722035
 20
110.5967638154
 10
207.4917029018
 20
110.5136578275
 10
207.9638536448
 20
110.5274795858
 10
208.4181881869
 20
110.6376250112
 10
208.8348525936
 20
110.8392802138
 10
209.1956357831
 20
111.1236319715
 10
209.4847686017
 20
111.4782525996
 10
209.689613002
 20
111.8876436098
 10
209.8012208367
 20
112.3339126656
 10
209.8147101129
 20
112.7975553112
 10
209.7294940973
 20
113.2583085285
 10
209.5492962176
 20
113.6960352609
 10
209.2819917375
 20
114.0916047456
 10
208.9392631674
 20
114.427728376
 10
208.5360880369
 20
114.6897159355
 10
208.0900906945
 20
114.8661172787
 10
207.6207599962
 20
114.949223383
 10
207.1486073906
 20
114.9354016246
 10
206.6942728484
 20
114.825256432
 10
206.2776084418
 20
114.6236008802
 10
205.9168252522
 20
114.3392494718
 10
205.6276942963
 20
113.984628378
 10
205.4228480334
 20
113.5752376007
  0
ARC
  5
139
330
1F
100
AcDbEntity
  8
0
  6
SLD-Gestrichelt
 62
     7
370
     0
100
AcDbCircle
 10
207.7649045579
 20
113.1109436994
 30
0.0
 40
2.478812054899248
100
AcDbArc
 50
160.9781825969
 51
230.2006333867
  0
LWPOLYLINE
  5
13A
330
1F
100
AcDbEntity
  8
0
  6
SLD-Gestrichelt
 62
     7
370
     0
100
AcDbPolyline
 90
       25
 70
   128
 43
0.0
 10
207.097552287
 20
110.6999625057
 10
207.5207825178
 20
110.6065146463
 10
208.0189041222
 20
110.5896666717
 10
208.5056188876
 20
110.6715671789
 10
208.9610058242
 20
110.8488630574
 10
209.3664179916
 20
111.1142956955
 10
209.7052573586
 20
111.4569986543
 10
209.9636528069
 20
111.8629412098
 10
210.1310282374
 20
112.3155041436
 10
210.2005253905
 20
112.7961594915
 10
210.1693055952
 20
113.2852293389
 10
210.038641038
 20
113.7626909489
 10
209.8138849611
 20
114.2089965591
 10
209.5042388314
 20
114.6058754833
 10
209.1223779494
 20
114.9370784709
 10
208.6839354957
 20
115.1890459308
 10
208.2068636442
 20
115.3514634656
 10
207.7106903667
 20
115.417680035
 10
207.2157333965
 20
115.3849864217
 10
206.7422527248
 20
115.2547195392
 10
206.3096347624
 20
115.0322140032
 10
205.9355895395
 20
114.726577683
 10
205.6354317242
 20
114.3503247598
 10
205.4214491868
 20
113.9188583778
 10
205.4214491868
 20
113.9188583778
  0
LWPOLYLINE
  5
13B
330
1F
100
AcDbEntity
  8
0
  6
SLD-Gestrichelt
 62
     7
370
     0
100
AcDbPolyline
 90
       31
 70
   128
 43
0.0
 10
205.5756166006
 20
113.9031809593
 10
205.4610993141
 20
113.4452701384
 10
205.4472561354
 20
112.9695324065
 10
205.5346961493
 20
112.4967593072
 10
205.7195953453
 20
112.0476136288
 10
205.9938735688
 20
111.6417253228
 10
206.3455428356
 20
111.2968332903
 10
206.7592344606
 20
111.0280112201
 10
207.2168677473
 20
110.8470077464
 10
207.6984416122
 20
110.761733756
 10
208.1829100275
 20
110.775916169
 10
208.6490984434
 20
110.8889349574
 10
209.0766313845
 20
111.0958506191
 10
209.44682652
 20
111.3876202447
 10
209.7435011888
 20
111.7514919328
 10
209.9536913807
 20
112.1715626517
 10
210.0682086671
 20
112.6294734726
 10
210.0820518458
 20
113.1052112045
 10
209.9946118319
 20
113.5779845366
 10
209.8097126359
 20
114.0271297494
 10
209.5354344124
 20
114.4330182882
 10
209.1837651456
 20
114.7779103206
 10
208.7700735206
 20
115.0467323909
 10
208.3124402339
 20
115.2277358646
 10
207.8308663691
 20
115.3130096221
 10
207.3463979537
 20
115.298827442
 10
206.8802095378
 20
115.1858086536
 10
206.4526765967
 20
114.9788929919
 10
206.0824814612
 20
114.6871231334
 10
205.7858067924
 20
114.3232516782
 10
205.5756166006
 20
113.9031809593
  0
CIRCLE
  5
13C
330
1F
100
AcDbEntity
  8
0
  6
SLD-Gestrichelt
 62
     7
370
     0
100
AcDbCircle
 10
229.3630884562
 20
87.1658787
 30
0.0
 40
2.200000000000011
  0
LINE
  5
13D
330
1F
100
AcDbEntity
  8
0
  6
SLD-Gestrichelt
 62
     7
370
     0
100
AcDbLine
 10
221.4868325168
 20
91.703169311
 30
0.0
 11
226.8895726079
 21
83.0569810072
 31
0.0
  0
LINE
  5
13E
330
1F
100
AcDbEntity
  8
0
  6
SLD-Gestrichelt
 62
     7
370
     0
100
AcDbLine
 10
231.7576255078
 20
91.3212991158
 30
0.0
 11
221.5762022311
 21
91.8548836211
 31
0.0
  0
LINE
  5
13F
330
1F
100
AcDbEntity
  8
0
  6
SLD-Gestrichelt
 62
     7
370
     0
100
AcDbLine
 10
226.9685487622
 20
83.0104595819
 30
0.0
 11
237.1499757642
 21
82.476873214
 31
0.0
  0
LINE
  5
140
330
1F
100
AcDbEntity
  8
0
  6
SLD-Gestrichelt
 62
     7
370
     0
100
AcDbLine
 10
237.2393417532
 20
82.6285893867
 30
0.0
 11
231.8366053874
 21
91.2747758279
 31
0.0
  0
ARC
  5
141
330
1F
100
AcDbEntity
  8
0
  6
SLD-Gestrichelt
 62
     7
370
     0
100
AcDbCircle
 10
226.9736934056
 20
83.1094901275
 30
0.0
 40
0.0991640878295152
100
AcDbArc
 50
211.9728603606
 51
267.0261538697
  0
ARC
  5
142
330
1F
100
AcDbEntity
  8
0
  6
SLD-Gestrichelt
 62
     7
370
     0
100
AcDbCircle
 10
231.7524729413
 20
91.2222504857
 30
0.0
 40
0.0991825592349023
100
AcDbArc
 50
31.9772466173
 51
87.0221249678
  0
ARC
  5
143
330
1F
100
AcDbEntity
  8
0
  6
SLD-Gestrichelt
 62
     7
370
     0
100
AcDbCircle
 10
221.569953197
 20
91.7563852365
 30
0.0
 40
0.0986964143015693
100
AcDbArc
 50
86.3698484996
 51
212.6283817963
  0
ARC
  5
144
330
1F
100
AcDbEntity
  8
0
  6
SLD-Gestrichelt
 62
     7
370
     0
100
AcDbCircle
 10
237.1562234225
 20
82.5753710214
 30
0.0
 40
0.0986957511717604
100
AcDbArc
 50
266.3706243684
 51
32.6303100906
  0
CIRCLE
  5
145
330
1F
100
AcDbEntity
  8
0
  6
SLD-Gestrichelt
 62
     7
370
     0
100
AcDbCircle
 10
229.2525791517
 20
87.2309736551
 30
0.0
 40
2.000000000000003
  0
CIRCLE
  5
146
330
1F
100
AcDbEntity
  8
0
  6
SLD-Gestrichelt
 62
     7
370
     0
100
AcDbCircle
 10
229.2525791517
 20
87.2309736551
 30
0.0
 40
1.900000000000005
  0
LINE
  5
147
330
1F
100
AcDbEntity
  8
0
  6
SLD-Gestrichelt
 62
     7
370
     0
100
AcDbLine
 10
196.8684126983
 20
125.0821764419
 30
0.0
 11
196.8684126983
 21
120.8207675094
 31
0.0
  0
LINE
  5
148
330
1F
100
AcDbEntity
  8
0
  6
SLD-Gestrichelt
 62
     7
370
     0
100
AcDbLine
 10
202.8535730565
 20
121.8481699774
 30
0.0
 11
202.8535730565
 21
120.8207675094
 31
0.0
  0
LWPOLYLINE
  5
149
330
1F
100
AcDbEntity
  8
0
  6
SLD-Gestrichelt
 62
     7
370
     0
100
AcDbPolyline
 90
       20
 70
   128
 43
0.0
 10
208.2426953489
 20
110.8240896441
 10
207.8699837798
 20
110.7771634428
 10
207.0394563848
 20
110.9166114196
 10
206.3023778969
 20
111.321595295
 10
205.7476989353
 20
111.9377943991
 10
205.4287414426
 20
112.6940399712
 10
205.3797743643
 20
113.5042619729
 10
205.6077677185
 20
114.2751246529
 10
206.0886300528
 20
114.9212543691
 10
206.7682142729
 20
115.3739833111
 10
207.5686804378
 20
115.590369592
 10
208.4076232636
 20
115.5545350933
 10
209.2058523918
 20
115.2643177496
 10
209.8712805087
 20
114.7323532799
 10
210.3024754101
 20
114.0164400289
 10
210.4420788014
 20
113.2249038504
 10
210.3024269814
 20
112.4557492161
 10
209.9150843347
 20
111.7654708518
 10
209.3028757149
 20
111.2073171256
 10
208.9682962174
 20
111.0598321842
  0
LINE
  5
14A
330
1F
100
AcDbEntity
  8
0
  6
SLD-Gestrichelt
 62
     7
370
     0
100
AcDbLine
 10
174.5525640795
 20
94.2720121542
 30
0.0
 11
174.3536056379
 21
94.2463337282
 31
0.0
  0
LWPOLYLINE
  5
14B
330
1F
100
AcDbEntity
  8
0
  6
SLD-Gestrichelt
 62
     7
370
     0
100
AcDbPolyline
 90
        3
 70
   128
 43
0.0
 10
174.9100764642
 20
94.3096804271
 10
174.8971348057
 20
94.3086745987
 10
174.5525640795
 20
94.2720121542
  0
LWPOLYLINE
  5
14C
330
1F
100
AcDbEntity
  8
0
  6
SLD-Gestrichelt
 62
     7
370
     0
100
AcDbPolyline
 90
        3
 70
   128
 43
0.0
 10
174.5524458015
 20
123.6695072452
 10
174.897886383
 20
123.6329137186
 10
174.9042016814
 20
123.6324229116
  0
LWPOLYLINE
  5
14D
330
1F
100
AcDbEntity
  8
0
  6
SLD-Gestrichelt
 62
     7
370
     0
100
AcDbPolyline
 90
        3
 70
   128
 43
0.0
 10
174.1383648837
 20
123.7248240808
 10
174.2936014557
 20
123.70238852
 10
174.5524458015
 20
123.6695072452
  0
LWPOLYLINE
  5
14E
330
1F
100
AcDbEntity
  8
0
  6
SLD-Gestrichelt
 62
     7
370
     0
100
AcDbPolyline
 90
        3
 70
   128
 43
0.0
 10
203.7096298659
 20
107.9935976608
 10
204.4502622807
 20
107.388998645
 10
204.7542422438
 20
107.1630522214
  0
LWPOLYLINE
  5
14F
330
1F
100
AcDbEntity
  8
0
  6
SLD-Gestrichelt
 62
     7
370
     0
100
AcDbPolyline
 90
        4
 70
   128
 43
0.0
 10
202.8513863111
 20
108.3945455915
 10
203.4265152538
 20
108.2449910767
 10
203.6506994987
 20
108.0832035817
 10
203.7096298659
 20
107.9935976608
  0
LWPOLYLINE
  5
150
330
1F
100
AcDbEntity
  8
0
  6
SLD-Gestrichelt
 62
     7
370
     0
100
AcDbPolyline
 90
       23
 70
   128
 43
0.0
 10
202.8513863111
 20
108.3945455915
 10
203.027205112
 20
108.4616579768
 10
203.1514156038
 20
108.4437191906
 10
203.2179809535
 20
108.3416007181
 10
203.2236694718
 20
108.1602641801
 10
203.1682036245
 20
107.9085197138
 10
203.0542786593
 20
107.5985986112
 10
202.8874284947
 20
107.2455583211
 10
202.6757612253
 20
106.8665515935
 10
202.4295605147
 20
106.4799928876
 10
202.1607864076
 20
106.1046629051
 10
201.8824997718
 20
105.7587971749
 10
201.6082196856
 20
105.4592002487
 10
201.3512733752
 20
105.220427767
 10
201.1241424257
 20
105.0540807495
 10
200.9378648723
 20
104.9682412134
 10
200.801489445
 20
104.9670798542
 10
200.7216434354
 20
105.0506525511
 10
200.7022048706
 20
105.214899669
 10
200.7441181118
 20
105.451840472
 10
200.8453472877
 20
105.7499635803
 10
201.0009731526
 20
106.0947843665
 10
201.2034370923
 20
106.4695497347
  0
LWPOLYLINE
  5
151
330
1F
100
AcDbEntity
  8
0
  6
SLD-Gestrichelt
 62
     7
370
     0
100
AcDbPolyline
 90
       19
 70
   128
 43
0.0
 10
204.7542422438
 20
107.1630522214
 10
204.7992269868
 20
107.2233250901
 10
204.9302305454
 20
107.2049602238
 10
205.1479365105
 20
107.0569457091
 10
205.3342811191
 20
106.823647658
 10
205.471761095
 20
106.3397047414
 10
205.4083529288
 20
105.9400178796
 10
205.2292819494
 20
105.5860515056
 10
204.9280661518
 20
105.2411021968
 10
204.5781831617
 20
104.9736256549
 10
204.0281291479
 20
104.697013537
 10
203.208325001
 20
104.4933495881
 10
202.700370493
 20
104.4759133669
 10
202.1888527447
 20
104.5670451434
 10
201.8837067658
 20
104.7171482654
 10
201.6951977635
 20
104.8822191382
 10
201.4979510928
 20
105.1572554583
 10
201.257830056
 20
105.8136448568
 10
201.2034370923
 20
106.4695497347
  0
LWPOLYLINE
  5
152
330
1F
100
AcDbEntity
  8
0
  6
SLD-Gestrichelt
 62
     7
370
     0
100
AcDbPolyline
 90
       11
 70
   128
 43
0.0
 10
201.2034370923
 20
106.4695497347
 10
201.1409527982
 20
106.6545464868
 10
201.1506981576
 20
106.8534411328
 10
201.231915074
 20
107.1190180095
 10
201.5538490737
 20
107.616401075
 10
202.0319081271
 20
107.9658812681
 10
202.1380938018
 20
108.0171492371
 10
202.2185991878
 20
108.0562380679
 10
202.2943362022
 20
108.094881028
 10
202.4748525942
 20
108.1925741468
 10
202.8513863111
 20
108.3945455915
  0
LWPOLYLINE
  5
153
330
1F
100
AcDbEntity
  8
0
  6
SLD-Gestrichelt
 62
     7
370
     0
100
AcDbPolyline
 90
        9
 70
   128
 43
0.0
 10
178.7277493054
 20
96.2979572663
 10
178.1602944607
 20
96.3671228686
 10
177.4491668107
 20
96.4180708701
 10
176.6810147451
 20
96.4279587219
 10
175.9472755143
 20
96.3935258636
 10
175.3164474281
 20
96.3299025619
 10
174.8546590457
 20
96.2636613125
 10
174.6237795228
 20
96.2243967528
 10
174.6343472401
 20
96.2262761617
  0
ARC
  5
154
330
1F
100
AcDbEntity
  8
0
  6
SLD-Gestrichelt
 62
     7
370
     0
100
AcDbCircle
 10
176.9021008253
 20
134.30278577
 30
0.0
 40
12.79017428301061
100
AcDbArc
 50
259.7872147634
 51
278.2063343813
  0
LWPOLYLINE
  5
155
330
1F
100
AcDbEntity
  8
0
  6
SLD-Gestrichelt
 62
     7
370
     0
100
AcDbPolyline
 90
        3
 70
   128
 43
0.0
 10
178.7277493054
 20
121.6435770342
 10
179.0861199038
 20
121.6872234667
 10
179.198418547
 20
121.6976002628
  0
LWPOLYLINE
  5
156
330
1F
100
AcDbEntity
  8
0
  6
SLD-Gestrichelt
 62
     7
370
     0
100
AcDbPolyline
 90
        4
 70
   128
 43
0.0
 10
179.1985205269
 20
96.2439247245
 10
179.2033613088
 20
96.2434776897
 10
179.0646382501
 20
96.2564798841
 10
178.7277493054
 20
96.2979572663
  0
LINE
  5
157
330
1F
100
AcDbEntity
  8
0
  6
SLD-Gestrichelt
 62
     7
370
     0
100
AcDbLine
 10
170.9062219957
 20
98.4707672918
 30
0.0
 11
170.9062219957
 21
119.4707670087
 31
0.0
  0
LWPOLYLINE
  5
158
330
1F
100
AcDbEntity
  8
0
  6
SLD-Gestrichelt
 62
     7
370
     0
100
AcDbPolyline
 90
       25
 70
   128
 43
0.0
 10
204.7549966151
 20
106.5912437929
 10
204.2642846132
 20
106.6221597442
 10
203.5942669386
 20
106.7814485008
 10
202.9901720012
 20
107.1218371229
 10
202.6200439209
 20
107.5579062175
 10
202.4500291223
 20
108.0171652442
 10
202.4354818637
 20
108.5472358403
 10
202.5606385792
 20
109.0259751994
 10
202.8882350201
 20
109.6037484543
 10
203.5341780061
 20
110.2226932138
 10
203.9244338298
 20
110.4482721142
 10
204.372537824
 20
110.604023242
 10
204.7921470726
 20
110.6476945873
 10
205.2082284713
 20
110.5793833571
 10
205.6704066122
 20
110.3486602964
 10
206.2003105307
 20
109.8127416057
 10
206.5578434045
 20
109.1014609714
 10
206.6785241837
 20
108.5060918425
 10
206.6486510808
 20
107.9257343967
 10
206.4822647149
 20
107.4433100015
 10
206.1750586504
 20
107.0407673554
 10
205.6769631231
 20
106.7369545648
 10
205.2428662205
 20
106.6258559307
 10
204.8489130462
 20
106.5924107401
 10
204.7549966151
 20
106.5912437929
  0
ARC
  5
159
330
1F
100
AcDbEntity
  8
0
  6
SLD-Gestrichelt
 62
     7
370
     0
100
AcDbCircle
 10
202.9276090261
 20
105.9378172765
 30
0.0
 40
2.199497574976434
100
AcDbArc
 50
33.8521813006
 51
69.1731369118
  0
LINE
  5
15A
330
1F
100
AcDbEntity
  8
0
  6
SLD-Gestrichelt
 62
     7
370
     0
100
AcDbLine
 10
189.0729475195
 20
98.4707672918
 30
0.0
 11
189.0729475195
 21
119.4707670087
 31
0.0
  0
LINE
  5
15B
330
1F
100
AcDbEntity
  8
0
  6
SLD-Gestrichelt
 62
     7
370
     0
100
AcDbLine
 10
190.8535729522
 20
99.0957666958
 30
0.0
 11
190.8535729522
 21
118.8457666734
 31
0.0
  0
LWPOLYLINE
  5
15C
330
1F
100
AcDbEntity
  8
0
  6
SLD-Gestrichelt
 62
     7
370
     0
100
AcDbPolyline
 90
        6
 70
   128
 43
0.0
 10
166.6035722369
 20
118.9949570993
 10
166.5477916027
 20
118.8923383901
 10
166.3866299564
 20
118.7931013132
 10
166.1381158406
 20
118.714344951
 10
165.8463734562
 20
118.67339656
 10
165.7035719032
 20
118.6686728919
  0
LINE
  5
15D
330
1F
100
AcDbEntity
  8
0
  6
SLD-Gestrichelt
 62
     7
370
     0
100
AcDbLine
 10
165.7035719032
 20
118.6686728919
 30
0.0
 11
163.953572082
 21
118.6686728919
 31
0.0
  0
LINE
  5
15E
330
1F
100
AcDbEntity
  8
0
  6
SLD-Gestrichelt
 62
     7
370
     0
100
AcDbLine
 10
163.953572082
 20
99.2728614086
 30
0.0
 11
168.2035723129
 21
99.2728614086
 31
0.0
  0
LWPOLYLINE
  5
15F
330
1F
100
AcDbEntity
  8
0
  6
SLD-Gestrichelt
 62
     7
370
     0
100
AcDbPolyline
 90
        6
 70
   128
 43
0.0
 10
168.2035723129
 20
99.2728614086
 10
168.4856028656
 20
99.2541716272
 10
168.7355586687
 20
99.2024385208
 10
168.936418871
 20
99.1246395582
 10
169.0679821545
 20
99.0281629214
 10
169.1035726467
 20
98.9465772012
  0
LINE
  5
160
330
1F
100
AcDbEntity
  8
0
  6
SLD-Gestrichelt
 62
     7
370
     0
100
AcDbLine
 10
163.953572082
 20
99.2728614086
 30
0.0
 11
163.953572082
 21
118.6686728919
 31
0.0
  0
LINE
  5
161
330
1F
100
AcDbEntity
  8
0
  6
SLD-Gestrichelt
 62
     7
370
     0
100
AcDbLine
 10
166.6035722369
 20
119.9707670907
 30
0.0
 11
166.6035722369
 21
122.5282915706
 31
0.0
  0
LINE
  5
162
330
1F
100
AcDbEntity
  8
0
  6
SLD-Gestrichelt
 62
     7
370
     0
100
AcDbLine
 10
169.1035726467
 20
97.9707672099
 30
0.0
 11
169.1035726467
 21
95.3671906913
 31
0.0
  0
LINE
  5
163
330
1F
100
AcDbEntity
  8
0
  6
SLD-Gestrichelt
 62
     7
370
     0
100
AcDbLine
 10
163.953572082
 20
119.9707670907
 30
0.0
 11
163.953572082
 21
121.8363477686
 31
0.0
  0
LINE
  5
164
330
1F
100
AcDbEntity
  8
0
  6
SLD-Gestrichelt
 62
     7
370
     0
100
AcDbLine
 10
163.953572082
 20
97.9707672099
 30
0.0
 11
163.953572082
 21
96.2402320305
 31
0.0
  0
LINE
  5
165
330
1F
100
AcDbEntity
  8
0
  6
SLD-Gestrichelt
 62
     7
370
     0
100
AcDbLine
 10
196.2035722459
 20
102.7207670571
 30
0.0
 11
196.2035722459
 21
115.2207672434
 31
0.0
  0
LINE
  5
166
330
1F
100
AcDbEntity
  8
0
  6
SLD-Gestrichelt
 62
     7
370
     0
100
AcDbLine
 10
198.7035717243
 20
102.7207670571
 30
0.0
 11
198.7035717243
 21
115.2207672434
 31
0.0
  0
LINE
  5
167
330
1F
100
AcDbEntity
  8
0
  6
SLD-Gestrichelt
 62
     7
370
     0
100
AcDbLine
 10
191.3535721028
 20
103.4707671801
 30
0.0
 11
191.3535721028
 21
114.4707671205
 31
0.0
  0
LINE
  5
168
330
1F
100
AcDbEntity
  8
0
  6
SLD-Gestrichelt
 62
     7
370
     0
100
AcDbLine
 10
197.8987944672
 20
92.0707679192
 30
0.0
 11
195.3535727585
 21
92.0707679192
 31
0.0
  0
LINE
  5
169
330
1F
100
AcDbEntity
  8
0
  6
SLD-Gestrichelt
 62
     7
370
     0
100
AcDbLine
 10
190.8535729522
 20
88.9957829216
 30
0.0
 11
190.8535729522
 21
92.0707679192
 31
0.0
  0
LINE
  5
16A
330
1F
100
AcDbEntity
  8
0
  6
SLD-Gestrichelt
 62
     7
370
     0
100
AcDbLine
 10
195.3535727585
 20
92.0707679192
 30
0.0
 11
190.8535729522
 21
92.0707679192
 31
0.0
  0
LINE
  5
16B
330
1F
100
AcDbEntity
  8
0
  6
SLD-Gestrichelt
 62
     7
370
     0
100
AcDbLine
 10
202.8535730565
 20
92.0707679192
 30
0.0
 11
199.9083492333
 21
92.0707679192
 31
0.0
  0
ELLIPSE
  5
16C
330
1F
100
AcDbEntity
  8
0
  6
SLD-Gestrichelt
 62
     7
370
     0
100
AcDbEllipse
 10
160.8978057475
 20
108.9707671503
 30
0.0
 11
12.26424774976735
 21
0.0
 31
0.0
210
0.0
220
0.0
230
1.0
 40
0.8164965809
 41
4.884943637108984
 42
4.964202354313278
  0
ELLIPSE
  5
16D
330
1F
100
AcDbEntity
  8
0
  6
SLD-Gestrichelt
 62
     7
370
     0
100
AcDbEllipse
 10
160.8978057475
 20
108.9707671503
 30
0.0
 11
12.26424774976738
 21
0.0
 31
0.0
210
0.0
220
0.0
230
1.0
 40
0.8164965809
 41
1.318982952866322
 42
1.398241670070614
  0
LINE
  5
16E
330
1F
100
AcDbEntity
  8
0
  6
SLD-Gestrichelt
 62
     7
370
     0
100
AcDbLine
 10
202.8536345238
 20
125.8707663814
 30
0.0
 11
199.695227238
 21
125.8707663814
 31
0.0
  0
LINE
  5
16F
330
1F
100
AcDbEntity
  8
0
  6
SLD-Gestrichelt
 62
     7
370
     0
100
AcDbLine
 10
198.1119164625
 20
125.8707663814
 30
0.0
 11
195.3535727585
 21
125.8707663814
 31
0.0
  0
LINE
  5
170
330
1F
100
AcDbEntity
  8
0
  6
SLD-Gestrichelt
 62
     7
370
     0
100
AcDbLine
 10
195.3535727585
 20
125.8707663814
 30
0.0
 11
190.8535729522
 21
125.8707663814
 31
0.0
  0
LINE
  5
171
330
1F
100
AcDbEntity
  8
0
  6
SLD-Gestrichelt
 62
     7
370
     0
100
AcDbLine
 10
169.1035726467
 20
97.9707672099
 30
0.0
 11
169.1035726467
 21
98.9465772012
 31
0.0
  0
LINE
  5
172
330
1F
100
AcDbEntity
  8
0
  6
SLD-Gestrichelt
 62
     7
370
     0
100
AcDbLine
 10
163.953572082
 20
97.9707672099
 30
0.0
 11
163.953572082
 21
99.2728614086
 31
0.0
  0
LINE
  5
173
330
1F
100
AcDbEntity
  8
0
  6
SLD-Gestrichelt
 62
     7
370
     0
100
AcDbLine
 10
163.953572082
 20
119.9707670907
 30
0.0
 11
163.953572082
 21
118.6686728919
 31
0.0
  0
LINE
  5
174
330
1F
100
AcDbEntity
  8
0
  6
SLD-Gestrichelt
 62
     7
370
     0
100
AcDbLine
 10
166.6035722369
 20
119.9707670907
 30
0.0
 11
166.6035722369
 21
118.9949570993
 31
0.0
  0
ARC
  5
175
330
1F
100
AcDbEntity
  8
0
  6
SLD-Gestrichelt
 62
     7
370
     0
100
AcDbCircle
 10
176.3359188312
 20
84.6407330157
 30
0.0
 40
10.21355223330722
100
AcDbArc
 50
91.0920632565
 51
97.5839560477
  0
ARC
  5
176
330
1F
100
AcDbEntity
  8
0
  6
SLD-Gestrichelt
 62
     7
370
     0
100
AcDbCircle
 10
176.3019283232
 20
84.696660863
 30
0.0
 40
10.152122954974
100
AcDbArc
 50
73.3976215464
 51
99.410621388
  0
LINE
  5
177
330
1F
100
AcDbEntity
  8
0
  6
SLD-Gestrichelt
 62
     7
370
     0
100
AcDbLine
 10
174.9879434133
 20
123.1765209535
 30
0.0
 11
174.7620026941
 21
123.2094506571
 31
0.0
  0
LWPOLYLINE
  5
178
330
1F
100
AcDbEntity
  8
0
  6
SLD-Gestrichelt
 62
     7
370
     0
100
AcDbPolyline
 90
       28
 70
   128
 43
0.0
 10
174.608235749
 20
123.2352138335
 10
174.6041835645
 20
123.2360361913
 10
174.6495101029
 20
123.2289516205
 10
174.6943085814
 20
123.2209524909
 10
174.7630522946
 20
123.2092718432
 10
174.8618591005
 20
123.1939096773
 10
174.9968794534
 20
123.1748659933
 10
175.2287401246
 20
123.1470483193
 10
175.4322974371
 20
123.1265238324
 10
175.5182724806
 20
123.1186830277
 10
175.5865989612
 20
123.1128436351
 10
175.6355371686
 20
123.1090047235
 10
176.0535468707
 20
123.0892550969
 10
176.4943334634
 20
123.0884355331
 10
176.9382246198
 20
123.1065469632
 10
177.3679354588
 20
123.143588456
 10
177.5501692096
 20
123.1658219198
 10
177.7509870367
 20
123.1942179451
 10
177.9664359415
 20
123.2287765319
 10
178.1910467321
 20
123.2694976801
 10
178.4871807681
 20
123.3301584447
 10
178.6780441539
 20
123.3744605282
 10
178.7439822579
 20
123.3911377216
 10
178.7903667787
 20
123.4033268714
 10
178.8194342876
 20
123.4110261152
 10
179.0385377022
 20
123.4689003626
 10
179.1645922126
 20
123.5039050529
 10
179.2027280094
 20
123.5157794157
  0
ARC
  5
179
330
1F
100
AcDbEntity
  8
0
  6
SLD-Gestrichelt
 62
     7
370
     0
100
AcDbCircle
 10
176.4383132929
 20
134.3580510137
 30
0.0
 40
11.27520231635064
100
AcDbArc
 50
262.6093594996
 51
268.0698675987
  0
LINE
  5
17A
330
1F
100
AcDbEntity
  8
0
  6
SLD-Gestrichelt
 62
     7
370
     0
100
AcDbLine
 10
208.0035726899
 20
106.4707672061
 30
0.0
 11
208.0035726899
 21
111.4707670944
 31
0.0
  0
LWPOLYLINE
  5
17B
330
1F
100
AcDbEntity
  8
0
  6
SLD-Gestrichelt
 62
     7
370
     0
100
AcDbPolyline
 90
       25
 70
   128
 43
0.0
 10
205.2333592797
 20
107.293402108
 10
205.7240694189
 20
107.3651949713
 10
206.3940889562
 20
107.6782688336
 10
206.998182031
 20
108.2108936111
 10
207.3683101112
 20
108.7784336863
 10
207.5383249098
 20
109.3004152948
 10
207.5528721685
 20
109.8359098263
 10
207.427715453
 20
110.2682738869
 10
207.100119012
 20
110.7282149909
 10
206.454176026
 20
111.1369422009
 10
206.0563764894
 20
111.2604569947
 10
205.6158162082
 20
111.3315797715
 10
205.1962069595
 20
111.3501095982
 10
204.7801255608
 20
111.3207335887
 10
204.3179474199
 20
111.2070593821
 10
203.7880435014
 20
110.8769132128
 10
203.4305106277
 20
110.3322420107
 10
203.3098298485
 20
109.7965644161
 10
203.339704814
 20
109.2012934981
 10
203.5060893172
 20
108.6375052704
 10
203.8132953817
 20
108.0938666431
 10
204.311390909
 20
107.5974952267
 10
204.7454878116
 20
107.3734287942
 10
205.139440986
 20
107.2962191259
 10
205.2333592797
 20
107.293402108
  0
LINE
  5
17C
330
1F
100
AcDbEntity
  8
0
  6
SLD-Gestrichelt
 62
     7
370
     0
100
AcDbLine
 10
222.5069436604
 20
89.2202968547
 30
0.0
 11
222.4620390112
 21
89.2226493755
 31
0.0
  0
LINE
  5
17D
330
1F
100
AcDbEntity
  8
0
  6
SLD-Gestrichelt
 62
     7
370
     0
100
AcDbLine
 10
226.4877031917
 20
82.8497505585
 30
0.0
 11
222.5069436604
 21
89.2202968547
 31
0.0
  0
LINE
  5
17E
330
1F
100
AcDbEntity
  8
0
  6
SLD-Gestrichelt
 62
     7
370
     0
100
AcDbLine
 10
226.4427985424
 20
82.8521030793
 30
0.0
 11
226.4877031917
 21
82.8497505585
 31
0.0
  0
LINE
  5
17F
330
1F
100
AcDbEntity
  8
0
  6
SLD-Gestrichelt
 62
     7
370
     0
100
AcDbLine
 10
221.0733997995
 20
92.3324732879
 30
0.0
 11
231.3805106456
 21
91.7923006067
 31
0.0
  0
LINE
  5
180
330
1F
100
AcDbEntity
  8
0
  6
SLD-Gestrichelt
 62
     7
370
     0
100
AcDbLine
 10
231.5528761024
 20
91.5164577613
 30
0.0
 11
231.3805106456
 21
91.7923006067
 31
0.0
  0
LINE
  5
181
330
1F
100
AcDbEntity
  8
0
  6
SLD-Gestrichelt
 62
     7
370
     0
100
AcDbLine
 10
231.5528761024
 20
91.5164577613
 30
0.0
 11
220.8337965781
 21
92.078222225
 31
0.0
  0
LINE
  5
182
330
1F
100
AcDbEntity
  8
0
  6
SLD-Gestrichelt
 62
     7
370
     0
100
AcDbLine
 10
231.3805106456
 20
91.7923006067
 30
0.0
 11
231.3566799635
 21
91.8304345408
 31
0.0
  0
LINE
  5
183
330
1F
100
AcDbEntity
  8
0
  6
SLD-Gestrichelt
 62
     7
370
     0
100
AcDbLine
 10
222.6594011659
 20
89.4791151235
 30
0.0
 11
222.2896735543
 21
89.498492221
 31
0.0
  0
LINE
  5
184
330
1F
100
AcDbEntity
  8
0
  6
SLD-Gestrichelt
 62
     7
370
     0
100
AcDbLine
 10
222.6594011659
 20
89.4791151235
 30
0.0
 11
222.5069436604
 21
89.2202968547
 31
0.0
  0
LINE
  5
185
330
1F
100
AcDbEntity
  8
0
  6
SLD-Gestrichelt
 62
     7
370
     0
100
AcDbLine
 10
222.6594011659
 20
89.4791151235
 30
0.0
 11
226.7345595533
 21
82.9574952671
 31
0.0
  0
ELLIPSE
  5
186
330
1F
100
AcDbEntity
  8
0
  6
SLD-Gestrichelt
 62
     7
370
     0
100
AcDbEllipse
 10
210.2711626562
 20
108.7321286894
 30
0.0
 11
-16.39758273769115
 21
25.83055662471861
 31
0.0
210
0.0
220
0.0
230
1.0
 40
0.1000778042
 41
3.082570168878796
 42
3.169531329436016
  0
LWPOLYLINE
  5
187
330
1F
100
AcDbEntity
  8
0
  6
SLD-Gestrichelt
 62
     7
370
     0
100
AcDbPolyline
 90
       10
 70
   128
 43
0.0
 10
220.3964474971
 20
83.1689781347
 10
220.3954640204
 20
83.2802320668
 10
220.3929755265
 20
83.5627934733
 10
220.3888553554
 20
84.0309525678
 10
220.3831929142
 20
84.6749602655
 10
220.3762638742
 20
85.4654258886
 10
220.3679862792
 20
86.4120221535
 10
220.358129161
 20
87.5426719734
 10
220.3470091695
 20
88.8233634481
 10
220.3296604926
 20
90.8318239102
  0
LWPOLYLINE
  5
188
330
1F
100
AcDbEntity
  8
0
  6
SLD-Gestrichelt
 62
     7
370
     0
100
AcDbPolyline
 90
       30
 70
   128
 43
0.0
 10
206.8199473793
 20
109.6222545324
 10
207.2645272488
 20
109.6493892559
 10
207.6883199984
 20
109.7701029806
 10
208.0715070838
 20
109.9787513098
 10
208.3961717213
 20
110.2655779408
 10
208.6471352154
 20
110.6171714213
 10
208.8126629019
 20
111.0170914629
 10
208.8850117648
 20
111.4466381563
 10
208.8608011032
 20
111.8857264822
 10
208.7411615426
 20
112.3138254346
 10
208.5316884691
 20
112.7109171661
 10
208.2421775335
 20
113.0584341312
 10
207.8861627156
 20
113.3401270794
 10
207.4802942002
 20
113.5428243155
 10
207.0435486162
 20
113.6570477696
 10
206.596348005
 20
113.6774567725
 10
206.159602421
 20
113.6030962529
 10
205.7537339056
 20
113.4374442348
 10
205.3977190876
 20
113.1882460626
 10
205.1082081521
 20
112.8671537457
 10
204.8987350786
 20
112.4891813682
 10
204.779095518
 20
112.0720024059
 10
204.7548848564
 20
111.6351238755
 10
204.8272337193
 20
111.1989734067
 10
204.9927595431
 20
110.7839453338
 10
205.2437230373
 20
110.4094456254
 10
205.5683895374
 20
110.0929854741
 10
205.9515766228
 20
109.8493623152
 10
206.3753693724
 20
109.6899676207
 10
206.8199473793
 20
109.6222545324
  0
LWPOLYLINE
  5
189
330
1F
100
AcDbEntity
  8
0
  6
SLD-Gestrichelt
 62
     7
370
     0
100
AcDbPolyline
 90
        7
 70
   128
 43
0.0
 10
231.8895790154
 20
90.2263431648
 10
233.1095259065
 20
88.2481171587
 10
234.1536912495
 20
86.5513331095
 10
235.0224028701
 20
85.1423277358
 10
235.7157464499
 20
84.0226935992
 10
236.2335804278
 20
83.1897335896
 10
236.5755658025
 20
82.636954526
  0
CIRCLE
  5
18A
330
1F
100
AcDbEntity
  8
0
  6
SLD-Gestrichelt
 62
     7
370
     0
100
AcDbCircle
 10
229.2525791517
 20
87.2309736551
 30
0.0
 40
2.400000000000006
  0
LINE
  5
18B
330
1F
100
AcDbEntity
  8
0
  6
SLD-Gestrichelt
 62
     7
370
     0
100
AcDbLine
 10
236.5755285496
 20
82.6348050335
 30
0.0
 11
236.8276785487
 21
83.0750840554
 31
0.0
  0
LINE
  5
18C
330
1F
100
AcDbEntity
  8
0
  6
SLD-Gestrichelt
 62
     7
370
     0
100
AcDbLine
 10
226.6084696526
 20
83.1592849294
 30
0.0
 11
236.5741241152
 21
82.6370066801
 31
0.0
  0
LINE
  5
18D
330
1F
100
AcDbEntity
  8
0
  6
SLD-Gestrichelt
 62
     7
370
     0
100
AcDbLine
 10
236.8276040429
 20
83.0751287589
 30
0.0
 11
231.5528761024
 21
91.5164577613
 31
0.0
  0
LINE
  5
18E
330
1F
100
AcDbEntity
  8
0
  6
SLD-Gestrichelt
 62
     7
370
     0
100
AcDbLine
 10
199.9435718531
 20
122.486613954
 30
0.0
 11
199.9435718531
 21
120.8207675094
 31
0.0
  0
LINE
  5
18F
330
1F
100
AcDbEntity
  8
0
  6
SLD-Gestrichelt
 62
     7
370
     0
100
AcDbLine
 10
197.8635727787
 20
122.486613954
 30
0.0
 11
197.8635727787
 21
120.8207675094
 31
0.0
  0
CIRCLE
  5
190
330
1F
100
AcDbEntity
  8
0
  6
SLD-Gestrichelt
 62
     7
370
     0
100
AcDbCircle
 10
229.2525791517
 20
87.2309736551
 30
0.0
 40
1.650000000000006
  0
LINE
  5
191
330
1F
100
AcDbEntity
  8
0
  6
SLD-Gestrichelt
 62
     7
370
     0
100
AcDbLine
 10
200.9387328649
 20
125.0821764419
 30
0.0
 11
200.9387328649
 21
120.8207675094
 31
0.0
  0
LWPOLYLINE
  5
192
330
1F
100
AcDbEntity
  8
0
  6
SLD-Gestrichelt
 62
     7
370
     0
100
AcDbPolyline
 90
        3
 70
   128
 43
0.0
 10
163.0035727644
 20
97.4232538441
 10
163.0285564238
 20
97.6752343426
 10
163.0871030862
 20
97.7546398366
  0
LWPOLYLINE
  5
193
330
1F
100
AcDbEntity
  8
0
  6
SLD-Gestrichelt
 62
     7
370
     0
100
AcDbPolyline
 90
       32
 70
   128
 43
0.0
 10
206.8616836691
 20
109.2971448101
 10
207.3572851146
 20
109.3239585765
 10
207.8325949037
 20
109.4485373773
 10
208.2681577081
 20
109.6657809407
 10
208.6461368376
 20
109.9667953398
 10
208.9510611618
 20
110.3392568488
 10
209.1704472328
 20
110.7679170394
 10
209.295311513
 20
111.2352265349
 10
209.3205429042
 20
111.7220532918
 10
209.2451076383
 20
112.2084670072
 10
209.0720958436
 20
112.6745534433
 10
208.808589297
 20
113.1012311975
 10
208.4653745765
 20
113.4710323835
 10
208.0565053398
 20
113.7688162575
 10
207.5987211788
 20
113.9823927382
 10
207.1107621664
 20
114.1030171724
 10
206.6126051718
 20
114.1257512221
 10
206.1246461595
 20
114.0496649617
 10
205.6668601358
 20
113.8778722683
 10
205.2579908991
 20
113.6174069555
 10
204.9147780413
 20
113.2789322013
 10
204.6512714947
 20
112.8763056198
 10
204.4782597
 20
112.4260106893
 10
204.4028244341
 20
111.9464822417
 10
204.4280558253
 20
111.457352324
 10
204.5529201055
 20
110.9786462342
 10
204.7723043138
 20
110.5299619097
 10
205.077228638
 20
110.1296687569
 10
205.4552096302
 20
109.7941547936
 10
205.8907724345
 20
109.5371559799
 10
206.3660822237
 20
109.3691938453
 10
206.8616836691
 20
109.2971448101
  0
LINE
  5
194
330
1F
100
AcDbEntity
  8
0
  6
SLD-Gestrichelt
 62
     7
370
     0
100
AcDbLine
 10
218.3054979319
 20
121.9597210014
 30
0.0
 11
218.3054979319
 21
108.9707671503
 31
0.0
  0
LWPOLYLINE
  5
195
330
1F
100
AcDbEntity
  8
0
  6
SLD-Gestrichelt
 62
     7
370
     0
100
AcDbPolyline
 90
       11
 70
   128
 43
0.0
 10
227.6804703647
 20
86.7299998948
 10
228.4552152628
 20
87.0147666732
 10
228.8807030195
 20
87.1775991121
 10
229.0767799491
 20
87.2506911704
 10
229.1739504213
 20
87.2810131708
 10
229.2242865438
 20
87.2901103297
 10
229.2659390146
 20
87.2900488624
 10
229.3060790176
 20
87.2822071264
 10
229.4702674622
 20
87.2125516484
 10
230.0683143908
 20
86.9097824046
 10
230.7637106055
 20
86.5684135655
  0
CIRCLE
  5
196
330
1F
100
AcDbEntity
  8
0
  6
SLD-Gestrichelt
 62
     7
370
     0
100
AcDbCircle
 10
189.9035724873
 20
108.9707671503
 30
0.0
 40
4.999999999999986
  0
LINE
  5
197
330
1F
100
AcDbEntity
  8
0
  6
SLD-Gestrichelt
 62
     7
370
     0
100
AcDbLine
 10
232.0036436791
 20
90.7971991995
 30
0.0
 11
231.8912963742
 21
90.2242439637
 31
0.0
  0
LINE
  5
198
330
1F
100
AcDbEntity
  8
0
  6
SLD-Gestrichelt
 62
     7
370
     0
100
AcDbLine
 10
231.8886029894
 20
90.2260451416
 30
0.0
 11
220.3296604926
 21
90.8318239102
 31
0.0
  0
ARC
  5
199
330
1F
100
AcDbEntity
  8
0
  6
SLD-Gestrichelt
 62
     7
370
     0
100
AcDbCircle
 10
314.460650213
 20
110.5185095367
 30
0.0
 40
96.16760793890954
100
AcDbArc
 50
180.9221705436
 51
191.8126538818
  0
LINE
  5
19A
330
1F
100
AcDbEntity
  8
0
  6
SLD-Gestrichelt
 62
     7
370
     0
100
AcDbLine
 10
208.9277743721
 20
110.3043833585
 30
0.0
 11
209.2316574777
 21
110.7504355326
 31
0.0
  0
LINE
  5
19B
330
1F
100
AcDbEntity
  8
0
  6
SLD-Gestrichelt
 62
     7
370
     0
100
AcDbLine
 10
205.0994779343
 20
113.5655877018
 30
0.0
 11
204.7955929661
 21
113.1195354113
 31
0.0
  0
LINE
  5
19C
330
1F
100
AcDbEntity
  8
0
  6
SLD-Gestrichelt
 62
     7
370
     0
100
AcDbLine
 10
208.697702306
 20
110.8547280613
 30
0.0
 11
209.4175271118
 21
111.9113108447
 31
0.0
  0
LINE
  5
19D
330
1F
100
AcDbEntity
  8
0
  6
SLD-Gestrichelt
 62
     7
370
     0
100
AcDbLine
 10
206.1117808694
 20
114.1634325335
 30
0.0
 11
205.3919579262
 21
113.1068498665
 31
0.0
  0
LINE
  5
19E
330
1F
100
AcDbEntity
  8
0
  6
SLD-Gestrichelt
 62
     7
370
     0
100
AcDbLine
 10
209.7109272504
 20
111.45392366
 30
0.0
 11
209.8064343805
 21
111.5941114562
 31
0.0
  0
LINE
  5
19F
330
1F
100
AcDbEntity
  8
0
  6
SLD-Gestrichelt
 62
     7
370
     0
100
AcDbLine
 10
205.6742529744
 20
114.409263509
 30
0.0
 11
205.5787458444
 21
114.2690757127
 31
0.0
  0
CIRCLE
  5
1A0
330
1F
100
AcDbEntity
  8
0
  6
SLD-Gestrichelt
 62
     7
370
     0
100
AcDbCircle
 10
207.3478983187
 20
112.4256429873
 30
0.0
 40
1.999999999999999
  0
CIRCLE
  5
1A1
330
1F
100
AcDbEntity
  8
0
  6
SLD-Gestrichelt
 62
     7
370
     0
100
AcDbCircle
 10
229.2525791517
 20
87.2309736551
 30
0.0
 40
1.809570484150194
  0
LINE
  5
1A2
330
1F
100
AcDbEntity
  8
0
  6
SLD-Gestrichelt
 62
     7
370
     0
100
AcDbLine
 10
182.9035724873
 20
92.7635657439
 30
0.0
 11
182.9977332596
 21
93.4335554788
 31
0.0
  0
LINE
  5
1A3
330
1F
100
AcDbEntity
  8
0
  6
SLD-Gestrichelt
 62
     7
370
     0
100
AcDbLine
 10
182.9977332596
 20
124.5079788217
 30
0.0
 11
182.9035724873
 21
125.1779685566
 31
0.0
  0
ARC
  5
1A4
330
1F
100
AcDbEntity
  8
0
  6
SLD-Gestrichelt
 62
     7
370
     0
100
AcDbCircle
 10
182.4035657346
 20
93.5170599968
 30
0.0
 40
0.6000067526677242
100
AcDbArc
 50
352.0
 51
0.0
  0
ARC
  5
1A5
330
1F
100
AcDbEntity
  8
0
  6
SLD-Gestrichelt
 62
     7
370
     0
100
AcDbCircle
 10
182.4035657346
 20
93.5170599968
 30
0.0
 40
0.6000067526677242
100
AcDbArc
 50
0.0
 51
33.5571153394
  0
ARC
  5
1A6
330
1F
100
AcDbEntity
  8
0
  6
SLD-Gestrichelt
 62
     7
370
     0
100
AcDbCircle
 10
182.4035657346
 20
124.4244743037
 30
0.0
 40
0.6000067526677062
100
AcDbArc
 50
348.75
 51
8.0
  0
LWPOLYLINE
  5
1A7
330
1F
100
AcDbEntity
  8
0
  6
SLD-Gestrichelt
 62
     7
370
     0
100
AcDbPolyline
 90
        3
 70
   128
 43
0.0
 10
182.9920435262
 20
124.3074185053
 10
182.9578996945
 20
124.1948616529
 10
182.9035724873
 20
124.0928101191
  0
LINE
  5
1A8
330
1F
100
AcDbEntity
  8
0
  6
SLD-Gestrichelt
 62
     7
370
     0
100
AcDbLine
 10
183.0035724848
 20
93.5170597235
 30
0.0
 11
183.0035724848
 21
124.424474577
 31
0.0
  0
LINE
  5
1A9
330
1F
100
AcDbEntity
  8
0
  6
SLD-Gestrichelt
 62
     7
370
     0
100
AcDbLine
 10
203.5283591026
 20
108.1843577862
 30
0.0
 11
203.1557481164
 21
108.4408655019
 31
0.0
  0
LINE
  5
1AA
330
1F
100
AcDbEntity
  8
0
  6
SLD-Gestrichelt
 62
     7
370
     0
100
AcDbLine
 10
211.5620742912
 20
102.6539008902
 30
0.0
 11
205.04911946
 21
107.1374583129
 31
0.0
  0
LINE
  5
1AB
330
1F
100
AcDbEntity
  8
0
  6
SLD-Gestrichelt
 62
     7
370
     0
100
AcDbLine
 10
200.7741998309
 20
104.981353304
 30
0.0
 11
211.7751608962
 21
97.4082260231
 31
0.0
  0
LINE
  5
1AC
330
1F
100
AcDbEntity
  8
0
  6
SLD-Gestrichelt
 62
     7
370
     0
100
AcDbLine
 10
201.9907995487
 20
107.9449868133
 30
0.0
 11
200.957251283
 21
107.4048325257
 31
0.0
  0
LINE
  5
1AD
330
1F
100
AcDbEntity
  8
0
  6
SLD-Gestrichelt
 62
     7
370
     0
100
AcDbLine
 10
200.957251283
 20
107.4048325257
 30
0.0
 11
200.7065075809
 21
105.2639144776
 31
0.0
  0
LINE
  5
1AE
330
1F
100
AcDbEntity
  8
0
  6
SLD-Gestrichelt
 62
     7
370
     0
100
AcDbLine
 10
172.4362005839
 20
96.2207673887
 30
0.0
 11
174.6343472401
 21
96.2207673887
 31
0.0
  0
LINE
  5
1AF
330
1F
100
AcDbEntity
  8
0
  6
SLD-Gestrichelt
 62
     7
370
     0
100
AcDbLine
 10
174.6343472401
 20
121.7207669118
 30
0.0
 11
172.4362005839
 21
121.7207669118
 31
0.0
  0
ARC
  5
1B0
330
1F
100
AcDbEntity
  8
0
  6
SLD-Gestrichelt
 62
     7
370
     0
100
AcDbCircle
 10
172.4362004314
 20
96.6207671503
 30
0.0
 40
0.4000000000000057
100
AcDbArc
 50
210.0
 51
270.0
  0
ARC
  5
1B1
330
1F
100
AcDbEntity
  8
0
  6
SLD-Gestrichelt
 62
     7
370
     0
100
AcDbCircle
 10
172.4362004314
 20
121.3207671503
 30
0.0
 40
0.4000000000000057
100
AcDbArc
 50
90.0
 51
150.0
  0
ARC
  5
1B2
330
1F
100
AcDbEntity
  8
0
  6
SLD-Gestrichelt
 62
     7
370
     0
100
AcDbCircle
 10
178.7277492152
 20
101.2207671503
 30
0.0
 40
5.000000000000006
100
AcDbArc
 50
275.4066837042
 51
326.6329870308
  0
ARC
  5
1B3
330
1F
100
AcDbEntity
  8
0
  6
SLD-Gestrichelt
 62
     7
370
     0
100
AcDbCircle
 10
178.7277492152
 20
116.7207671503
 30
0.0
 40
5.0
100
AcDbArc
 50
33.3670129692
 51
84.5888208471
  0
LINE
  5
1B4
330
1F
100
AcDbEntity
  8
0
  6
SLD-Gestrichelt
 62
     7
370
     0
100
AcDbLine
 10
172.0897904957
 20
121.5207672516
 30
0.0
 11
170.9062219957
 21
119.4707670087
 31
0.0
  0
LINE
  5
1B5
330
1F
100
AcDbEntity
  8
0
  6
SLD-Gestrichelt
 62
     7
370
     0
100
AcDbLine
 10
170.9062219957
 20
98.4707672918
 30
0.0
 11
172.0897904957
 21
96.4207670489
 31
0.0
  0
LINE
  5
1B6
330
1F
100
AcDbEntity
  8
0
  6
SLD-Gestrichelt
 62
     7
370
     0
100
AcDbLine
 10
205.2274546946
 20
105.5833630102
 30
0.0
 11
206.3928204948
 21
107.2939285381
 31
0.0
  0
LINE
  5
1B7
330
1F
100
AcDbEntity
  8
0
  6
SLD-Gestrichelt
 62
     7
370
     0
100
AcDbLine
 10
202.8144407446
 20
109.5010874282
 30
0.0
 11
201.3935163045
 21
107.4154053653
 31
0.0
  0
ARC
  5
1B8
330
1F
100
AcDbEntity
  8
0
  6
SLD-Gestrichelt
 62
     7
370
     0
100
AcDbCircle
 10
189.8535724873
 20
99.0957671503
 30
0.0
 40
1.00000000000001
100
AcDbArc
 50
218.6821874535
 51
0.0
  0
ARC
  5
1B9
330
1F
100
AcDbEntity
  8
0
  6
SLD-Gestrichelt
 62
     7
370
     0
100
AcDbCircle
 10
189.8535724873
 20
118.8457671503
 30
0.0
 40
1.00000000000001
100
AcDbArc
 50
0.0
 51
141.3178125465
  0
LINE
  5
1BA
330
1F
100
AcDbEntity
  8
0
  6
SLD-Gestrichelt
 62
     7
370
     0
100
AcDbLine
 10
169.1035726467
 20
98.4707672918
 30
0.0
 11
170.9062219957
 21
98.4707672918
 31
0.0
  0
LINE
  5
1BB
330
1F
100
AcDbEntity
  8
0
  6
SLD-Gestrichelt
 62
     7
370
     0
100
AcDbLine
 10
170.9062219957
 20
119.4707670087
 30
0.0
 11
166.6035722369
 21
119.4707670087
 31
0.0
  0
LINE
  5
1BC
330
1F
100
AcDbEntity
  8
0
  6
SLD-Gestrichelt
 62
     7
370
     0
100
AcDbLine
 10
182.9035724873
 20
98.4707672918
 30
0.0
 11
189.0729475195
 21
98.4707672918
 31
0.0
  0
LINE
  5
1BD
330
1F
100
AcDbEntity
  8
0
  6
SLD-Gestrichelt
 62
     7
370
     0
100
AcDbLine
 10
189.0729475195
 20
119.4707670087
 30
0.0
 11
182.9035724873
 21
119.4707670087
 31
0.0
  0
LINE
  5
1BE
330
1F
100
AcDbEntity
  8
0
  6
SLD-Gestrichelt
 62
     7
370
     0
100
AcDbLine
 10
196.2035722459
 20
102.7207670571
 30
0.0
 11
198.7035717243
 21
102.7207670571
 31
0.0
  0
LINE
  5
1BF
330
1F
100
AcDbEntity
  8
0
  6
SLD-Gestrichelt
 62
     7
370
     0
100
AcDbLine
 10
198.7035717243
 20
115.2207672434
 30
0.0
 11
196.2035722459
 21
115.2207672434
 31
0.0
  0
LINE
  5
1C0
330
1F
100
AcDbEntity
  8
0
  6
SLD-Gestrichelt
 62
     7
370
     0
100
AcDbLine
 10
190.8535729522
 20
102.9707670981
 30
0.0
 11
191.3535721028
 21
103.4707671801
 31
0.0
  0
LINE
  5
1C1
330
1F
100
AcDbEntity
  8
0
  6
SLD-Gestrichelt
 62
     7
370
     0
100
AcDbLine
 10
191.3535721028
 20
114.4707671205
 30
0.0
 11
190.8535729522
 21
114.9707672024
 31
0.0
  0
LINE
  5
1C2
330
1F
100
AcDbEntity
  8
0
  6
SLD-Gestrichelt
 62
     7
370
     0
100
AcDbLine
 10
191.3535721028
 20
103.4707671801
 30
0.0
 11
196.2035722459
 21
103.4707671801
 31
0.0
  0
LINE
  5
1C3
330
1F
100
AcDbEntity
  8
0
  6
SLD-Gestrichelt
 62
     7
370
     0
100
AcDbLine
 10
196.2035722459
 20
114.4707671205
 30
0.0
 11
191.3535721028
 21
114.4707671205
 31
0.0
  0
LINE
  5
1C4
330
1F
100
AcDbEntity
  8
0
  6
SLD-Gestrichelt
 62
     7
370
     0
100
AcDbLine
 10
190.8535729522
 20
128.9707667032
 30
0.0
 11
190.8535729522
 21
125.8707663814
 31
0.0
  0
LINE
  5
1C5
330
1F
100
AcDbEntity
  8
0
  6
SLD-Gestrichelt
 62
     7
370
     0
100
AcDbLine
 10
179.6707518293
 20
93.929462398
 30
0.0
 11
179.2028232371
 21
94.4252994681
 31
0.0
  0
LINE
  5
1C6
330
1F
100
AcDbEntity
  8
0
  6
SLD-Gestrichelt
 62
     7
370
     0
100
AcDbLine
 10
174.604918378
 20
94.7051525885
 30
0.0
 11
174.0874448219
 21
94.2093276257
 31
0.0
  0
LINE
  5
1C7
330
1F
100
AcDbEntity
  8
0
  6
SLD-Gestrichelt
 62
     7
370
     0
100
AcDbLine
 10
174.0868105913
 20
123.7322569663
 30
0.0
 11
174.6044964889
 21
123.2363696048
 31
0.0
  0
LINE
  5
1C8
330
1F
100
AcDbEntity
  8
0
  6
SLD-Gestrichelt
 62
     7
370
     0
100
AcDbLine
 10
179.2021373181
 20
123.516016903
 30
0.0
 11
179.6700412301
 21
124.0119107837
 31
0.0
  0
LINE
  5
1C9
330
1F
100
AcDbEntity
  8
0
  6
SLD-Gestrichelt
 62
     7
370
     0
100
AcDbLine
 10
208.0035726899
 20
106.4707672061
 30
0.0
 11
209.5057233596
 21
108.9707671503
 31
0.0
  0
LINE
  5
1CA
330
1F
100
AcDbEntity
  8
0
  6
SLD-Gestrichelt
 62
     7
370
     0
100
AcDbLine
 10
209.5057233596
 20
108.9707671503
 30
0.0
 11
208.0035726899
 21
111.4707670944
 31
0.0
  0
LINE
  5
1CB
330
1F
100
AcDbEntity
  8
0
  6
SLD-Gestrichelt
 62
     7
370
     0
100
AcDbLine
 10
198.7035717243
 20
106.4707672061
 30
0.0
 11
208.0035726899
 21
106.4707672061
 31
0.0
  0
LINE
  5
1CC
330
1F
100
AcDbEntity
  8
0
  6
SLD-Gestrichelt
 62
     7
370
     0
100
AcDbLine
 10
208.0035726899
 20
111.4707670944
 30
0.0
 11
198.7035717243
 21
111.4707670944
 31
0.0
  0
LINE
  5
1CD
330
1F
100
AcDbEntity
  8
0
  6
SLD-Gestrichelt
 62
     7
370
     0
100
AcDbLine
 10
179.2035724862
 20
121.6976216832
 30
0.0
 11
179.2035724862
 21
123.5158064241
 31
0.0
  0
LINE
  5
1CE
330
1F
100
AcDbEntity
  8
0
  6
SLD-Gestrichelt
 62
     7
370
     0
100
AcDbLine
 10
174.6035726169
 20
123.2352641249
 30
0.0
 11
174.6035726169
 21
121.7152646581
 31
0.0
  0
LINE
  5
1CF
330
1F
100
AcDbEntity
  8
0
  6
SLD-Gestrichelt
 62
     7
370
     0
100
AcDbLine
 10
179.2035724862
 20
94.4255434746
 30
0.0
 11
179.2035724862
 21
96.2439126173
 31
0.0
  0
LINE
  5
1D0
330
1F
100
AcDbEntity
  8
0
  6
SLD-Gestrichelt
 62
     7
370
     0
100
AcDbLine
 10
174.6035726169
 20
96.2262696424
 30
0.0
 11
174.6035726169
 21
94.7121589283
 31
0.0
  0
LINE
  5
1D1
330
1F
100
AcDbEntity
  8
0
  6
SLD-Gestrichelt
 62
     7
370
     0
100
AcDbLine
 10
207.1730043167
 20
108.439110308
 30
0.0
 11
208.5554632718
 21
110.468334898
 31
0.0
  0
LINE
  5
1D2
330
1F
100
AcDbEntity
  8
0
  6
SLD-Gestrichelt
 62
     7
370
     0
100
AcDbLine
 10
205.0844314868
 20
112.8330626829
 30
0.0
 11
203.5942240978
 21
110.6456813008
 31
0.0
  0
LINE
  5
1D3
330
1F
100
AcDbEntity
  8
0
  6
SLD-Gestrichelt
 62
     7
370
     0
100
AcDbLine
 10
208.9277743721
 20
110.3043833585
 30
0.0
 11
210.0230860883
 21
111.9121206297
 31
0.0
  0
LINE
  5
1D4
330
1F
100
AcDbEntity
  8
0
  6
SLD-Gestrichelt
 62
     7
370
     0
100
AcDbLine
 10
205.7638685579
 20
114.5408035094
 30
0.0
 11
204.7955929661
 21
113.1195354113
 31
0.0
  0
LINE
  5
1D5
330
1F
100
AcDbEntity
  8
VERMASSUNG
100
AcDbLine
 10
237.9035724873
 20
81.9707671503
 30
0.0
 11
217.569855787
 21
81.9707671503
 31
0.0
  0
DIMENSION
  5
1D6
330
1F
100
AcDbEntity
  8
VERMASSUNG
100
AcDbDimension
  2
*D1
 10
217.569855787
 20
81.9707671503
 30
0.0
 11
215.9223524861
 21
75.21899806
 31
0.0
 70
   162
 71
     1
 42
-1.0
  3
SLDDIMSTYLE0
100
AcDb2LineAngularDimension
 13
220.3964464322
 23
83.1689789372
 33
0.0
 14
226.4877035244
 24
82.84974968
 34
0.0
 15
237.9035724873
 25
81.9707671503
 35
0.0
 16
215.1105678621
 26
82.707877837
 36
0.0
  0
DIMENSION
  5
1E3
330
1F
100
AcDbEntity
  8
VERMASSUNG
100
AcDbDimension
  2
*D2
 10
157.4219365507
 20
88.9707671503
 30
0.0
 11
157.4219365507
 21
108.9707671503
 31
0.0
 70
   160
  1
HSK %%c<>
 71
     2
 42
-1.0
  3
SLDDIMSTYLE1
100
AcDbAlignedDimension
 13
183.2035724873
 23
128.9707671503
 33
0.0
 14
183.2035724873
 24
88.9707671503
 34
0.0
 50
90.0
100
AcDbRotatedDimension
  0
DIMENSION
  5
1F0
330
1F
100
AcDbEntity
  8
VERMASSUNG
100
AcDbDimension
  2
*D3
 10
237.9035724873
 20
140.1946209677
 30
0.0
 11
200.4535724873
 21
140.1946209677
 31
0.0
 70
   160
 71
     2
 42
-1.0
  3
SLDDIMSTYLE1
100
AcDbAlignedDimension
 13
163.0035724873
 23
120.9007671503
 33
0.0
 14
237.9035724873
 24
81.9707671503
 34
0.0
100
AcDbRotatedDimension
  0
DIMENSION
  5
1FA
330
1F
100
AcDbEntity
  8
VERMASSUNG
100
AcDbDimension
  2
*D4
 10
237.9035724873
 20
134.1946209677
 30
0.0
 11
210.4035724873
 21
134.1946209677
 31
0.0
 70
   160
 71
     2
 42
-1.0
  3
SLDDIMSTYLE1
100
AcDbAlignedDimension
 13
182.9035724873
 23
128.6707671503
 33
0.0
 14
237.9035724873
 24
81.9707671503
 34
0.0
100
AcDbRotatedDimension
  0
DIMENSION
  5
204
330
1F
100
AcDbEntity
  8
VERMASSUNG
100
AcDbDimension
  2
*D5
 10
248.4593713264
 20
108.9707671503
 30
0.0
 11
248.4593713264
 21
95.4707671503
 31
0.0
 70
   160
 71
     2
 42
-1.0
  3
SLDDIMSTYLE1
100
AcDbAlignedDimension
 13
237.9035724873
 23
81.9707671503
 33
0.0
 14
231.197733871
 24
108.9707671503
 34
0.0
 50
90.0
100
AcDbRotatedDimension
  0
LINE
  5
20E
330
1F
100
AcDbEntity
  8
VERMASSUNG
  6
SLD-Punktstrich
370
     0
100
AcDbLine
 10
159.86025
 20
108.9707671503
 30
0.0
 11
231.197733871
 21
108.9707671503
 31
0.0
  0
ARC
  5
20F
330
1F
100
AcDbEntity
  8
0
  6
SLD-Durchgehend
 62
     7
370
    15
100
AcDbCircle
 10
123.6655091074
 20
-209.7619174266
 30
0.0
 40
294.3102995130317
100
AcDbArc
 50
96.7923713677
 51
97.5881158882
  0
LINE
  5
210
330
1F
100
AcDbEntity
  8
0
  6
SLD-Durchgehend
 62
     7
370
    15
100
AcDbLine
 10
84.8581693548
 20
92.3534597108
 30
0.0
 11
84.8016007926
 21
92.3606644223
 31
0.0
  0
LINE
  5
211
330
1F
100
AcDbEntity
  8
0
  6
SLD-Durchgehend
 62
     7
370
    15
100
AcDbLine
 10
88.8281693164
 20
82.6285893867
 30
0.0
 11
88.8281693164
 21
91.2747758279
 31
0.0
  0
LINE
  5
212
330
1F
100
AcDbEntity
  8
0
  6
SLD-Durchgehend
 62
     7
370
    15
100
AcDbLine
 10
84.8581693548
 20
82.5753643015
 30
0.0
 11
84.8581693548
 21
91.6168338457
 31
0.0
  0
LINE
  5
213
330
1F
100
AcDbEntity
  8
0
  6
SLD-Durchgehend
 62
     7
370
    15
100
AcDbLine
 10
88.8281693164
 20
82.6285893867
 30
0.0
 11
88.8281693164
 21
82.476873214
 31
0.0
  0
LINE
  5
214
330
1F
100
AcDbEntity
  8
0
  6
SLD-Durchgehend
 62
     7
370
    15
100
AcDbLine
 10
84.8581693548
 20
81.983421261
 30
0.0
 11
84.8581693548
 21
82.5753643015
 31
0.0
  0
LINE
  5
215
330
1F
100
AcDbEntity
  8
0
  6
SLD-Durchgehend
 62
     7
370
    15
100
AcDbLine
 10
88.8281693164
 20
91.3212991158
 30
0.0
 11
88.8281693164
 21
91.2747758279
 31
0.0
  0
LINE
  5
216
330
1F
100
AcDbEntity
  8
0
  6
SLD-Durchgehend
 62
     7
370
    15
100
AcDbLine
 10
84.8581693548
 20
91.6168338457
 30
0.0
 11
84.8581693548
 21
91.8029176841
 31
0.0
  0
LINE
  5
217
330
1F
100
AcDbEntity
  8
0
  6
SLD-Durchgehend
 62
     7
370
    15
100
AcDbLine
 10
85.1581693691
 20
92.3220368871
 30
0.0
 11
84.8581693548
 21
92.3608972529
 31
0.0
  0
LINE
  5
218
330
1F
100
AcDbEntity
  8
0
  6
SLD-Durchgehend
 62
     7
370
    15
100
AcDbLine
 10
84.8581693548
 20
91.8029176841
 30
0.0
 11
84.8581693548
 21
92.3608972529
 31
0.0
  0
ARC
  5
219
330
1F
100
AcDbEntity
  8
0
  6
SLD-Durchgehend
 62
     7
370
    15
100
AcDbCircle
 10
84.7063463069
 20
107.1735076927
 30
0.0
 40
24.44842561478617
100
AcDbArc
 50
279.707216285
 51
317.9408485143
  0
LINE
  5
21A
330
1F
100
AcDbEntity
  8
0
  6
SLD-Durchgehend
 62
     7
370
    15
100
AcDbLine
 10
102.85816858
 20
90.7971991995
 30
0.0
 11
102.85816858
 21
90.2242439637
 31
0.0
  0
ARC
  5
21B
330
1F
100
AcDbEntity
  8
0
  6
SLD-Durchgehend
 62
     7
370
    15
100
AcDbCircle
 10
84.7001787779
 20
107.0316751002
 30
0.0
 40
24.74154302188276
100
AcDbArc
 50
279.6047589468
 51
317.2160764397
  0
LINE
  5
21C
330
1F
100
AcDbEntity
  8
0
  6
SLD-Durchgehend
 62
     7
370
    15
100
AcDbLine
 10
88.8281693164
 20
91.5164577613
 30
0.0
 11
87.3281693034
 21
91.5164577613
 31
0.0
  0
LINE
  5
21D
330
1F
100
AcDbEntity
  8
0
  6
SLD-Durchgehend
 62
     7
370
    15
100
AcDbLine
 10
85.1581693691
 20
91.7923006067
 30
0.0
 11
85.1581693691
 21
92.5555585721
 31
0.0
  0
LINE
  5
21E
330
1F
100
AcDbEntity
  8
0
  6
SLD-Durchgehend
 62
     7
370
    15
100
AcDbLine
 10
102.85816858
 20
92.5555585721
 30
0.0
 11
85.1581693691
 21
92.5555585721
 31
0.0
  0
LINE
  5
21F
330
1F
100
AcDbEntity
  8
0
  6
SLD-Durchgehend
 62
     7
370
    15
100
AcDbLine
 10
102.85816858
 20
90.795569385
 30
0.0
 11
102.85816858
 21
92.5555585721
 31
0.0
  0
LINE
  5
220
330
1F
100
AcDbEntity
  8
0
  6
SLD-Durchgehend
 62
     7
370
    15
100
AcDbLine
 10
88.8281693164
 20
91.2747758279
 30
0.0
 11
88.8281693164
 21
91.5164577613
 31
0.0
  0
LINE
  5
221
330
1F
100
AcDbEntity
  8
0
  6
SLD-Durchgehend
 62
     7
370
    15
100
AcDbLine
 10
102.85816858
 20
103.9678033279
 30
0.0
 11
85.1581693691
 21
103.9678033279
 31
0.0
  0
ELLIPSE
  5
222
330
1F
100
AcDbEntity
  8
0
  6
SLD-Durchgehend
 62
     7
370
    15
100
AcDbEllipse
 10
81.1581693548
 20
123.8628933616
 30
0.0
 11
8.526512829121202E-14
 21
5.712592026968564
 31
0.0
210
0.0
220
0.0
230
1.0
 40
0.7002075382
 41
4.712388980384713
 42
4.997599751264582
  0
ARC
  5
223
330
1F
100
AcDbEntity
  8
0
  6
SLD-Durchgehend
 62
     7
370
    15
100
AcDbCircle
 10
84.8581693548
 20
108.9707671503
 30
0.0
 40
16.50000000000002
100
AcDbArc
 50
62.674514525
 51
89.5193713692
  0
ARC
  5
224
330
1F
100
AcDbEntity
  8
0
  6
SLD-Durchgehend
 62
     7
370
    15
100
AcDbCircle
 10
99.3672659936
 20
135.8983747408
 30
0.0
 40
14.09310020503065
100
AcDbArc
 50
240.5229640429
 51
255.5663000454
  0
LINE
  5
225
330
1F
100
AcDbEntity
  8
0
  6
SLD-Durchgehend
 62
     7
370
    15
100
AcDbLine
 10
97.3195932287
 20
121.9597210014
 30
0.0
 11
95.8544263098
 21
122.2500989983
 31
0.0
  0
ARC
  5
226
330
1F
100
AcDbEntity
  8
0
  6
SLD-Durchgehend
 62
     7
370
    15
100
AcDbCircle
 10
84.8581693548
 20
108.9707671503
 30
0.0
 40
18.00000000000002
100
AcDbArc
 50
0.0
 51
46.187443923
  0
LINE
  5
227
330
1F
100
AcDbEntity
  8
0
  6
SLD-Durchgehend
 62
     7
370
    15
100
AcDbLine
 10
85.1581693691
 20
103.9678033279
 30
0.0
 11
85.1581693691
 21
123.8628935838
 31
0.0
  0
LINE
  5
228
330
1F
100
AcDbEntity
  8
0
  6
SLD-Durchgehend
 62
     7
370
    15
100
AcDbLine
 10
102.85816858
 20
103.9678033279
 30
0.0
 11
102.85816858
 21
108.9707671503
 31
0.0
  0
LINE
  5
229
330
1F
100
AcDbEntity
  8
0
  6
SLD-Durchgehend
 62
     7
370
    15
100
AcDbLine
 10
85.1581693691
 20
92.5555585721
 30
0.0
 11
85.1581693691
 21
103.9678033279
 31
0.0
  0
LINE
  5
22A
330
1F
100
AcDbEntity
  8
0
  6
SLD-Durchgehend
 62
     7
370
    15
100
AcDbLine
 10
102.85816858
 20
92.5555585721
 30
0.0
 11
102.85816858
 21
103.9678033279
 31
0.0
  0
ARC
  5
22B
330
1F
100
AcDbEntity
  8
0
  6
SLD-Durchgehend
 62
     7
370
    15
100
AcDbCircle
 10
84.8582099311
 20
108.9712959113
 30
0.0
 40
16.50052843236163
100
AcDbArc
 50
260.7062770363
 51
271.0416246139
  0
ARC
  5
22C
330
1F
100
AcDbEntity
  8
0
  6
SLD-Durchgehend
 62
     7
370
    15
100
AcDbCircle
 10
84.8581409985
 20
108.9710768316
 30
0.0
 40
16.49968986373289
100
AcDbArc
 50
89.5192638864
 51
99.2939569333
  0
ELLIPSE
  5
22D
330
1F
100
AcDbEntity
  8
0
  6
SLD-Durchgehend
 62
     7
370
    15
100
AcDbEllipse
 10
76.8172072306
 20
100.0310637788
 30
0.0
 11
-1.721753363541098
 21
2.368360820935976
 31
0.0
210
0.0
220
0.0
230
1.0
 40
0.7016899908
 41
0.0
 42
6.283185307179586
  0
ARC
  5
22E
330
1F
100
AcDbEntity
  8
0
  6
SLD-Durchgehend
 62
     7
370
    15
100
AcDbCircle
 10
84.8581693548
 20
108.9707671503
 30
0.0
 40
16.5
100
AcDbArc
 50
99.2938801905
 51
260.7061198095
  0
LINE
  5
22F
330
1F
100
AcDbEntity
  8
0
  6
SLD-Durchgehend
 62
     7
370
    15
100
AcDbLine
 10
80.3581695486
 20
125.8707663814
 30
0.0
 11
80.3581695486
 21
125.8823017428
 31
0.0
  0
LINE
  5
230
330
1F
100
AcDbEntity
  8
0
  6
SLD-Durchgehend
 62
     7
370
    15
100
AcDbLine
 10
89.3581691611
 20
125.8707663814
 30
0.0
 11
80.3581695486
 21
125.8707663814
 31
0.0
  0
LINE
  5
231
330
1F
100
AcDbEntity
  8
0
  6
SLD-Durchgehend
 62
     7
370
    15
100
AcDbLine
 10
89.3581691611
 20
125.8823017428
 30
0.0
 11
89.3581691611
 21
125.8707663814
 31
0.0
  0
LINE
  5
232
330
1F
100
AcDbEntity
  8
0
  6
SLD-Durchgehend
 62
     7
370
    15
100
AcDbLine
 10
84.8581693548
 20
92.0707679192
 30
0.0
 11
80.3150427941
 21
92.0707679192
 31
0.0
  0
LINE
  5
233
330
1F
100
AcDbEntity
  8
0
  6
SLD-Durchgehend
 62
     7
370
    15
100
AcDbLine
 10
71.9807665277
 20
120.8207675094
 30
0.0
 11
73.0081689957
 21
120.8207675094
 31
0.0
  0
LINE
  5
234
330
1F
100
AcDbEntity
  8
0
  6
SLD-Durchgehend
 62
     7
370
    15
100
AcDbLine
 10
73.0081689957
 20
121.8481699774
 30
0.0
 11
73.0081689957
 21
120.8207675094
 31
0.0
  0
LINE
  5
235
330
1F
100
AcDbEntity
  8
0
  6
SLD-Durchgehend
 62
     7
370
    15
100
AcDbLine
 10
80.3581695486
 20
127.8416442523
 30
0.0
 11
80.3581695486
 21
128.4579432407
 31
0.0
  0
ARC
  5
236
330
1F
100
AcDbEntity
  8
0
  6
SLD-Durchgehend
 62
     7
370
    15
100
AcDbCircle
 10
84.8581693548
 20
108.9707671503
 30
0.0
 40
20.00000000000001
100
AcDbArc
 50
103.0028781629
 51
126.3346172154
  0
LINE
  5
237
330
1F
100
AcDbEntity
  8
0
  6
SLD-Durchgehend
 62
     7
370
    15
100
AcDbLine
 10
73.0081689957
 20
125.0821764419
 30
0.0
 11
73.0081689957
 21
124.3310247386
 31
0.0
  0
LINE
  5
238
330
1F
100
AcDbEntity
  8
0
  6
SLD-Durchgehend
 62
     7
370
    15
100
AcDbLine
 10
79.3581693846
 20
90.366734455
 30
0.0
 11
79.3581693846
 21
89.7418822
 31
0.0
  0
ARC
  5
239
330
1F
100
AcDbEntity
  8
0
  6
SLD-Durchgehend
 62
     7
370
    15
100
AcDbCircle
 10
84.8581693548
 20
108.9707671503
 30
0.0
 40
20.00000000000001
100
AcDbArc
 50
143.6653827846
 51
254.0379858372
  0
LINE
  5
23A
330
1F
100
AcDbEntity
  8
0
  6
SLD-Durchgehend
 62
     7
370
    15
100
AcDbLine
 10
68.7467600632
 20
120.8207675094
 30
0.0
 11
69.4979117665
 21
120.8207675094
 31
0.0
  0
LINE
  5
23B
330
1F
100
AcDbEntity
  8
0
  6
SLD-Durchgehend
 62
     7
370
    15
100
AcDbLine
 10
89.3581691611
 20
128.4579432407
 30
0.0
 11
89.3581691611
 21
127.8416442523
 31
0.0
  0
ARC
  5
23C
330
1F
100
AcDbEntity
  8
0
  6
SLD-Durchgehend
 62
     7
370
    15
100
AcDbCircle
 10
84.8581693548
 20
108.9707671503
 30
0.0
 40
20.0
100
AcDbArc
 50
334.1580672368
 51
76.9971218371
  0
LINE
  5
23D
330
1F
100
AcDbEntity
  8
0
  6
SLD-Durchgehend
 62
     7
370
    15
100
AcDbLine
 10
89.3581691611
 20
127.8416442523
 30
0.0
 11
89.3581691611
 21
125.8823017428
 31
0.0
  0
LINE
  5
23E
330
1F
100
AcDbEntity
  8
0
  6
SLD-Durchgehend
 62
     7
370
    15
100
AcDbLine
 10
79.3581693846
 20
92.0707679192
 30
0.0
 11
79.3581693846
 21
90.366734455
 31
0.0
  0
LINE
  5
23F
330
1F
100
AcDbEntity
  8
0
  6
SLD-Durchgehend
 62
     7
370
    15
100
AcDbLine
 10
80.3150427941
 20
92.0707679192
 30
0.0
 11
79.3581693846
 21
92.0707679192
 31
0.0
  0
LINE
  5
240
330
1F
100
AcDbEntity
  8
0
  6
SLD-Durchgehend
 62
     7
370
    15
100
AcDbLine
 10
69.4979117665
 20
120.8207675094
 30
0.0
 11
71.9807665277
 21
120.8207675094
 31
0.0
  0
LINE
  5
241
330
1F
100
AcDbEntity
  8
0
  6
SLD-Durchgehend
 62
     7
370
    15
100
AcDbLine
 10
80.3581695486
 20
125.8823017428
 30
0.0
 11
80.3581695486
 21
127.8416442523
 31
0.0
  0
LINE
  5
242
330
1F
100
AcDbEntity
  8
0
  6
SLD-Durchgehend
 62
     7
370
    15
100
AcDbLine
 10
73.0081689957
 20
124.3310247386
 30
0.0
 11
73.0081689957
 21
121.8481699774
 31
0.0
  0
ARC
  5
243
330
1F
100
AcDbEntity
  8
0
  6
SLD-Durchgehend
 62
     7
370
    15
100
AcDbCircle
 10
84.8543637889
 20
108.9745727162
 30
0.0
 40
19.99468001395999
100
AcDbArc
 50
126.3322940084
 51
143.6677059916
  0
ARC
  5
244
330
1F
100
AcDbEntity
  8
0
  6
SLD-Durchgehend
 62
     7
370
    15
100
AcDbCircle
 10
84.8602564366
 20
108.9833692334
 30
0.0
 40
20.01269060333596
100
AcDbArc
 50
254.0421632182
 51
267.1298520507
  0
ARC
  5
245
330
1F
100
AcDbEntity
  8
0
  6
SLD-Durchgehend
 62
     7
370
    15
100
AcDbCircle
 10
84.8581693548
 20
108.9686726009
 30
0.0
 40
20.00204160398593
100
AcDbArc
 50
76.9984728682
 51
103.0015271318
  0
ARC
  5
246
330
1F
100
AcDbEntity
  8
0
  6
SLD-Durchgehend
 62
     7
370
    15
100
AcDbCircle
 10
84.8581693548
 20
108.9707671503
 30
0.0
 40
20.0
100
AcDbArc
 50
267.1340160174
 51
270.0
  0
CIRCLE
  5
247
330
1F
100
AcDbEntity
  8
VERMASSUNG
  6
SLD-Punktstrich
100
AcDbCircle
 10
84.8581693548
 20
106.9785387193
 30
0.0
 40
25.0
  0
POINT
  5
248
330
1F
100
AcDbEntity
  8
VERMASSUNG
100
AcDbPoint
 10
84.8581693548
 20
81.9785387193
 30
0.0
  0
DIMENSION
  5
249
330
1F
100
AcDbEntity
  8
VERMASSUNG
100
AcDbDimension
  2
*D6
 10
54.8581693548
 20
131.9785387193
 30
0.0
 11
54.8581693548
 21
106.9785387193
 31
0.0
 70
   160
  1
%%c<>
 71
     2
 42
-1.0
  3
SLDDIMSTYLE2
100
AcDbAlignedDimension
 13
84.8581693548
 23
81.9785387193
 33
0.0
 14
84.8581693548
 24
131.9785387193
 34
0.0
 50
90.0
100
AcDbRotatedDimension
  0
INSERT
  5
260
330
1F
100
AcDbEntity
  8
VERMASSUNG
100
AcDbBlockReference
  2
SW_CENTERMARKSYMBOL_0
 10
84.8581693548
 20
108.9707671503
 30
0.0
  0
OLE2FRAME
  5
261
330
1F
100
AcDbEntity
  8
0
100
AcDbOle2Frame
 70
     2
  3
Bitmap
 10
13.8511154363
 20
38.264191557
 30
0.0
 11
51.6290888628
 21
31.9806341108
 31
0.0
 71
     2
 72
     0
 73
     1
 90
    12928
310
80552BED0767C5B32B40DDAF6807D121434000000000000000006FFBDDFB85D0
310
4940DDAF6807D121434000000000000000006FFBDDFB85D04940416F4BD60AFB
310
3F4000000000000000002BED0767C5B32B40416F4BD60AFB3F40000000000000
310
0000000000000100000000010000010000000100000000000100000000320000
310
D0CF11E0A1B11AE1000000000000000000000000000000003E000300FEFF0900
310
0600000000000000000000000100000001000000000000000010000002000000
310
01000000FEFFFFFF0000000000000000FFFFFFFFFFFFFFFFFFFFFFFFFFFFFFFF
310
FFFFFFFFFFFFFFFFFFFFFFFFFFFFFFFFFFFFFFFFFFFFFFFFFFFFFFFFFFFFFFFF
310
FFFFFFFFFFFFFFFFFFFFFFFFFFFFFFFFFFFFFFFFFFFFFFFFFFFFFFFFFFFFFFFF
310
FFFFFFFFFFFFFFFFFFFFFFFFFFFFFFFFFFFFFFFFFFFFFFFFFFFFFFFFFFFFFFFF
310
FFFFFFFFFFFFFFFFFFFFFFFFFFFFFFFFFFFFFFFFFFFFFFFFFFFFFFFFFFFFFFFF
310
FFFFFFFFFFFFFFFFFFFFFFFFFFFFFFFFFFFFFFFFFFFFFFFFFFFFFFFFFFFFFFFF
310
FFFFFFFFFFFFFFFFFFFFFFFFFFFFFFFFFFFFFFFFFFFFFFFFFFFFFFFFFFFFFFFF
310
FFFFFFFFFFFFFFFFFFFFFFFFFFFFFFFFFFFFFFFFFFFFFFFFFFFFFFFFFFFFFFFF
310
FFFFFFFFFFFFFFFFFFFFFFFFFFFFFFFFFFFFFFFFFFFFFFFFFFFFFFFFFFFFFFFF
310
FFFFFFFFFFFFFFFFFFFFFFFFFFFFFFFFFFFFFFFFFFFFFFFFFFFFFFFFFFFFFFFF
310
FFFFFFFFFFFFFFFFFFFFFFFFFFFFFFFFFFFFFFFFFFFFFFFFFFFFFFFFFFFFFFFF
310
FFFFFFFFFFFFFFFFFFFFFFFFFFFFFFFFFFFFFFFFFFFFFFFFFFFFFFFFFFFFFFFF
310
FFFFFFFFFFFFFFFFFFFFFFFFFFFFFFFFFFFFFFFFFFFFFFFFFFFFFFFFFFFFFFFF
310
FFFFFFFFFFFFFFFFFFFFFFFFFFFFFFFFFFFFFFFFFFFFFFFFFFFFFFFFFFFFFFFF
310
FDFFFFFFFEFFFFFFFEFFFFFFFEFFFFFF05000000060000000700000008000000
310
090000000A0000000B0000000C0000000D0000000E0000000F00000010000000
310
11000000120000001300000014000000150000001600000017000000FEFFFFFF
310
FFFFFFFFFFFFFFFFFFFFFFFFFFFFFFFFFFFFFFFFFFFFFFFFFFFFFFFFFFFFFFFF
310
FFFFFFFFFFFFFFFFFFFFFFFFFFFFFFFFFFFFFFFFFFFFFFFFFFFFFFFFFFFFFFFF
310
FFFFFFFFFFFFFFFFFFFFFFFFFFFFFFFFFFFFFFFFFFFFFFFFFFFFFFFFFFFFFFFF
310
FFFFFFFFFFFFFFFFFFFFFFFFFFFFFFFFFFFFFFFFFFFFFFFFFFFFFFFFFFFFFFFF
310
FFFFFFFFFFFFFFFFFFFFFFFFFFFFFFFFFFFFFFFFFFFFFFFFFFFFFFFFFFFFFFFF
310
FFFFFFFFFFFFFFFFFFFFFFFFFFFFFFFFFFFFFFFFFFFFFFFFFFFFFFFFFFFFFFFF
310
FFFFFFFFFFFFFFFFFFFFFFFFFFFFFFFFFFFFFFFFFFFFFFFFFFFFFFFFFFFFFFFF
310
FFFFFFFFFFFFFFFFFFFFFFFFFFFFFFFFFFFFFFFFFFFFFFFFFFFFFFFFFFFFFFFF
310
FFFFFFFFFFFFFFFFFFFFFFFFFFFFFFFFFFFFFFFFFFFFFFFFFFFFFFFFFFFFFFFF
310
FFFFFFFFFFFFFFFFFFFFFFFFFFFFFFFFFFFFFFFFFFFFFFFFFFFFFFFFFFFFFFFF
310
FFFFFFFFFFFFFFFFFFFFFFFFFFFFFFFFFFFFFFFFFFFFFFFFFFFFFFFFFFFFFFFF
310
FFFFFFFFFFFFFFFFFFFFFFFFFFFFFFFFFFFFFFFFFFFFFFFFFFFFFFFFFFFFFFFF
310
FFFFFFFFFFFFFFFFFFFFFFFFFFFFFFFFFFFFFFFFFFFFFFFFFFFFFFFFFFFFFFFF
310
52006F006F007400200045006E00740072007900000000000000000000000000
310
0000000000000000000000000000000000000000000000000000000000000000
310
16000500FFFFFFFFFFFFFFFF020000000A00030000000000C000000000000046
310
00000000000000000000000030C6BF686DA8C90103000000C000000000000000
310
01004F006C006500000000000000000000000000000000000000000000000000
310
0000000000000000000000000000000000000000000000000000000000000000
310
0A000200FFFFFFFFFFFFFFFFFFFFFFFF00000000000000000000000000000000
310
0000000000000000000000000000000000000000000000001400000000000000
310
010043006F006D0070004F0062006A0000000000000000000000000000000000
310
0000000000000000000000000000000000000000000000000000000000000000
310
120002010100000003000000FFFFFFFF00000000000000000000000000000000
310
0000000000000000000000000000000000000000010000004D00000000000000
310
01004F006C006500310030004E00610074006900760065000000000000000000
310
0000000000000000000000000000000000000000000000000000000000000000
310
1A000200FFFFFFFFFFFFFFFFFFFFFFFF00000000000000000000000000000000
310
0000000000000000000000000000000000000000040000002426000000000000
310
FEFFFFFF02000000FEFFFFFFFFFFFFFFFFFFFFFFFFFFFFFFFFFFFFFFFFFFFFFF
310
FFFFFFFFFFFFFFFFFFFFFFFFFFFFFFFFFFFFFFFFFFFFFFFFFFFFFFFFFFFFFFFF
310
FFFFFFFFFFFFFFFFFFFFFFFFFFFFFFFFFFFFFFFFFFFFFFFFFFFFFFFFFFFFFFFF
310
FFFFFFFFFFFFFFFFFFFFFFFFFFFFFFFFFFFFFFFFFFFFFFFFFFFFFFFFFFFFFFFF
310
FFFFFFFFFFFFFFFFFFFFFFFFFFFFFFFFFFFFFFFFFFFFFFFFFFFFFFFFFFFFFFFF
310
FFFFFFFFFFFFFFFFFFFFFFFFFFFFFFFFFFFFFFFFFFFFFFFFFFFFFFFFFFFFFFFF
310
FFFFFFFFFFFFFFFFFFFFFFFFFFFFFFFFFFFFFFFFFFFFFFFFFFFFFFFFFFFFFFFF
310
FFFFFFFFFFFFFFFFFFFFFFFFFFFFFFFFFFFFFFFFFFFFFFFFFFFFFFFFFFFFFFFF
310
FFFFFFFFFFFFFFFFFFFFFFFFFFFFFFFFFFFFFFFFFFFFFFFFFFFFFFFFFFFFFFFF
310
FFFFFFFFFFFFFFFFFFFFFFFFFFFFFFFFFFFFFFFFFFFFFFFFFFFFFFFFFFFFFFFF
310
FFFFFFFFFFFFFFFFFFFFFFFFFFFFFFFFFFFFFFFFFFFFFFFFFFFFFFFFFFFFFFFF
310
FFFFFFFFFFFFFFFFFFFFFFFFFFFFFFFFFFFFFFFFFFFFFFFFFFFFFFFFFFFFFFFF
310
FFFFFFFFFFFFFFFFFFFFFFFFFFFFFFFFFFFFFFFFFFFFFFFFFFFFFFFFFFFFFFFF
310
FFFFFFFFFFFFFFFFFFFFFFFFFFFFFFFFFFFFFFFFFFFFFFFFFFFFFFFFFFFFFFFF
310
FFFFFFFFFFFFFFFFFFFFFFFFFFFFFFFFFFFFFFFFFFFFFFFFFFFFFFFFFFFFFFFF
310
FFFFFFFFFFFFFFFFFFFFFFFFFFFFFFFFFFFFFFFFFFFFFFFFFFFFFFFFFFFFFFFF
310
0100000200000000000000000000000000000000780115000000000000000000
310
0000000000000000000000000000000000000000000000000000000000000000
310
0100FEFF030A0000FFFFFFFF0A00030000000000C00000000000004607000000
310
5042727573680007000000504272757368000700000050427275736800F439B2
310
7100000000000000000000000000000000000000000000000000000000000000
310
0000000000000000000000000000000000000000000000000000000000000000
310
0000000000000000000000000000000000000000000000000000000000000000
310
0000000000000000000000000000000000000000000000000000000000000000
310
0000000000000000000000000000000000000000000000000000000000000000
310
0000000000000000000000000000000000000000000000000000000000000000
310
0000000000000000000000000000000000000000000000000000000000000000
310
0000000000000000000000000000000000000000000000000000000000000000
310
0000000000000000000000000000000000000000000000000000000000000000
310
0000000000000000000000000000000000000000000000000000000000000000
310
0000000000000000000000000000000000000000000000000000000000000000
310
0000000000000000000000000000000000000000000000000000000000000000
310
20260000424D0E260000000000003E00000028000000B40200006E0000000100
310
01000000000000000000130B0000130B00000200000002000000000000FFFFFF
310
FFFFFFFFFFFFFFFFFFFFFFFFFFFFFFFFFFFFFFFFFFFFFFFFFFFFFFFFFFFFFFFF
310
FFFFFFFFFFFFFFFFFFFFFFFFFFFFFFFFFFFFFFFFFFFFFFFFFFFFFFFFFFFFFFFF
310
FFFFFFFFFFFFFFFFFFFFFFFFFFFFFFFFFFFFFFFFFFFFFFFFF000FFFFFFFFFFFF
310
FFFFFFFFFFFFFFFFFFFFFFFFFFFFFFFFFFFFFFFFFFFFFFFFFFFFFFFFFFFFFFFF
310
FFFFFFFFFFFFFFFFFFFFFFFFFFFFFFFFFFFFFFFFFFFFFFFFFFFFFFFFFFFFFFFF
310
FFFFFFFFFFFFFFFFFFFFFFFFFFFFFFFFF000FFFFFFFFFFFFFFFFFFFFFFFFFFFF
310
FFFFFFFFFFFFFFFFFFFFFFFFFFFFFFFFFFFFFFFFFFFFFFFFFFFFFFFFFFFFFFFF
310
FFFFFFFFFFFFFFFFFFFFFFFFFFFFFFFFFFFFFFFFFFFFFFFFFFFFFFFFFFFFFFFF
310
FFFFFFFFFFFFFFFFF000FFFFFFFFFFFFFFFFFFFFFFFFFFFFFFFFFFFFFFFFFFFF
310
FFFFFFFFFFFFFFFFFFFFFFFFFFFFFFFFFFFFFFFFFFFFFFFFFFFFFFFFFFFFFFFF
310
FFFFFFFFFFFFFFFFFFFFFFFFFFFFFFFFFFFFFFFFFFFFFFFFFFFFFFFFFFFFFFFF
310
F000FFFFFFFFFFFFFFFFFFFFFFFFFFFFFFFFFFFFFFFFFFFFFFFFFFFFFFFFFFFF
310
FFFFFFFFFFFFFFFFFFFFFFFFFFFFFFFFFFFFFFFFFFFFFFFFFFFFFFFFFFFFFFFF
310
FFFFFFFFFFFFFFFFFFFFFFFFFFFFFFFFFFFFFFFFFFFFFFFFF000FFFFFFFFFFFF
310
FFFFFFFFFFFFFFFFFFFFFFFFFFFFFFFFFFFFFFFFFFFFFFFFFFFFFFFFFFFFFFFF
310
FFFFFFFFFFFFFFFFFFFFFFFFFFFFFFFFFFFFFFFFFFFFFFFFFFFFFFFFFFFFFFFF
310
FFFFFFFFFFFFFFFFFFFFFFFFFFFFFFFFF000FFFFFFFFFFFFFFFFFFFFFFFFFFFF
310
FFFFFFFFFFFFFFFFFFFFFFFFFFFFFFFFFFFFFFFFFFFFFFFFFFFFFFFFFFFFFFFF
310
FFFFFFFFFFFFFFFFFFFFFFFFFFFFFFFFFFFFFFFFFFFFFFFFFFFFFFFFFFFFFFFF
310
FFFFFFFFFFFFFFFFF000FFFFFFFFFFFFFFFFFFFFFFFFFFFFFFFFFFFFFFFFFFFF
310
FFFFFFFFFFFFFFFFFFFFFFFFFFFFFFFFFFFFFFFFFFFFFFFFFFFFFFFFFFFFFFFF
310
FFFFFFFFFFFFFFFFFFFFFFFFFFFFFFFFFFFFFFFFFFFFFFFFFFFFFFFFFFFFFFFF
310
F000FFFFFFFFFFFFFFFFFFFFFFFFFFFFFFFFFFFFFFFFFFFFFFFFFFFFFFFFFFFF
310
FFFFFFFFFFFFFFFFFFFFFFFFFFFFFFFFFFFFFFFFFFFFFFFFFFFFFFFFFFFFFFFF
310
FFFFFFFFFFFFFFFFFFFFFFFFFFFFFFFFFFFFFFFFFFFFFFFFF000FFFFFFFFFFFF
310
FFFFFFFFFFFFFFFFFFFFFFFFFFFFFFFFFFFFFFFFFFFFFFFFFFFFFFFFFFFFFFFF
310
FFFFFFFFFFFFFFFFFFFFFFFFFFFFFFFFFFFFFFFFFFFFFFFFFFFFFFFFFFFFFFFF
310
FFFFFFFFFFFFFFFFFFFFFFFFFFFFFFFFF000FFFFFFFFFFFFFFFFFFFFFFFFFFFF
310
FFFFFFFFFFFFFFFFFFFFFFFFFFFFFFFFFFFFFFFFFFFFFFFFFFFFFFFFFFFFFFFF
310
FFFFFFFFFFFFFFFFFFFFFFFFFFFFFFFFFFFFFFFFFFFFFFFFFFFFFFFFFFFFFFFF
310
FFFFFFFFFFFFFFFFF000FFFFFFFFFFFFFFFFFFFFFFFFFFFFFFFFFFFFFFFFFFFF
310
FFFFFFFFFFFFFFFFFFFFFFFFFFFFFFFFFFFFFFFFFFFFFFFFFFFFFFFFFFFFFFFF
310
FFFFFFFFFFFFFFFFFFFFFFFFFFFFFFFFFFFFFFFFFFFFFFFFFFFFFFFFFFFFFFFF
310
F000FFFFFFFFFFFFFFFFFFFFFFFFFFFFFFFFFFFFFFFFFFFFFFFFFFFFFFFFFFFF
310
FFFFFFFFFFFFFFFFFFFFFFFFFFFFFFFFFFFFFFFFFFFFFFFFFFFFFFFFFFFFFFFF
310
FFFFFFFFFFFFFFFFFFFFFFFFFFFFFFFFFFFFFFFFFFFFFFFFF000FFFFFFFFFFFF
310
FFFFFFFFFFFFFFFFFFFFFFFFFFFFFFFFFFFFFFFFFFFFFFFFFFFFFFFFFFFFFFFF
310
FFFFFFFFFFFFFFFFFFFFFFFFFFFFFFFFFFFFFFFFFFFFFFFFFFFFFFFFFFFFFFFF
310
FFFFFFFFFFFFFFFFFFFFFFFFFFFFFFFFF000FFFFFFFFFFFFFFFFFFFFFFFFFFFF
310
FFFFFFFFFFFFFFFFFFFFFFFFFFFFFFFFFFFFFFFFFFFFFFFFFFFFFFFFFFFFFFFF
310
FFFFFFFFFFFFFFFFFFFFFFFFFFFFFFFFFFFFFFFFFFFFFFFFFFFFFFFFFFFFFFFF
310
FFFFFFFFFFFFFFFFF000FFFFFFFFFFFFFFFFFFFFFFFFFFFFFFFFFFFFFFFFFFFF
310
FFFFFFFFFFFFFFFFFFFFFFFFFFFFFFFFFFFFFFFFFFFFFFFFFFFFFFFFFFFFFFFF
310
FFFFFFFFFFFFFFFFFFFFFFFFFFFFFFFFFFFFFFFFFFFFFFFFFFFFFFFFFFFFFFFF
310
F000FFFFFFFFFFFFFFFFFFFFFFFFFFFFFFFFFFFFFFFFFFFFFFFFFFFFFFFFFFFF
310
FFFFFFFFFFFFFFFFFFFFFFFFFFFFFFFFFFFFFFFFFFFFFFFFFFFFFFFFFFFFFFFF
310
FFFFFFFFFFFFFFFFFFFFFFFFFFFFFFFFFFFFFFFFFFFFFFFFF000FFFFFFFFFFFF
310
FFFFFFFFFFFFFFFFFFFFFFFFFFFFFFFFFFFFFFFFFFFFFFFFFFFFFFFFFFFFFFFF
310
FFFFFFFFFFFFFFFFFFFFFFFFFFFFFFFFFFFFFFFFFFFFFFFFFFFFFFFFFFFFFFFF
310
FFFFFFFFFFFFFFFFFFFFFFFFFFFFFFFFF000FFFFFFFFFFFFFFFFFFFFFFFFFFFF
310
FFFFFFFFFFFFFFFFFFFFFFFFFFFFFFFFFFFFFFFFFFFFFFFFFFFFFFFFFFFFFFFF
310
FFFFFFFFFFFFFFFFFFFFFFFFFFFFFFFFFFFFFFFFFFFFFFFFFFFFFFFFFFFFFFFF
310
FFFFFFFFFFFFFFFFF000FFFFF80003FFFFFFFFFFFFFFFFFFFFFFFFFFFFFFFFFF
310
FFFFF00007FFFFFFFFFF00007FFFFFF800000000000000007FFFFFFFFFFFFFFF
310
FFFFFFFC001FFFFFFFFFFFFFFC001FFFFFFFFFFFFFFFFFFFFFFFFFFE0007FFFF
310
F000FFFF8000007FFFFFFFF8000FFFFFC0007FFFFF80007FFFFF0000007FFFFF
310
FFF8000007FFFFF800000000000000007FFFFFF0001FFFFFFFFFFFC00001FFFF
310
FFFFFFFFC00001FFFFFFFF000000000003FFFFE000007FFFF000FFFE0000000F
310
FFFFFFF0000FFFFF80007FFFFF80007FFFFC0000001FFFFFFFC0000001FFFFF8
310
00000000000000007FFFFFF0001FFFFFFFFFFE0000003FFFFFFFFFFE0000003F
310
FFFFFF000000000003FFFF0000000FFFF000FFF800000003FFFFFFF00007FFFF
310
80007FFFFF80007FFFF000000007FFFFFF000000003FFFF80000000000000000
310
7FFFFFF0001FFFFFFFFFF80000000FFFFFFFFFF80000000FFFFFFF0000000000
310
03FFFC00000003FFF000FFE000000000FFFFFFF00007FFFF80003FFFFF80007F
310
FFC000000001FFFFFC000000001FFFF800000000000000007FFFFFF0001FFFFF
310
FFFFE000000003FFFFFFFFE000000003FFFFFF000000000003FFF000000000FF
310
F000FF80000000007FFFFFF00007FFFF80003FFFFF80007FFF8000000000FFFF
310
F80000000007FFF800000000000000007FFFFFF0001FFFFFFFFFC000000001FF
310
FFFFFFC000000001FFFFFF000000000003FFC0000000007FF000FF0000000000
310
3FFFFFE00007FFFF00003FFFFF80007FFE00000000003FFFF00000000003FFF8
310
00000000000000007FFFFFF0001FFFFFFFFF8000000000FFFFFFFF8000000000
310
FFFFFF000000000003FF80000000003FF000FE00000000001FFFFFE00003FFFF
310
00003FFFFF80007FFC00000000001FFFE00000000001FFF8000001FFFE000000
310
7FFFFFF0001FFFFFFFFE00000000003FFFFFFE00000000003FFFFF0000000000
310
03FF00000000001FF000FC00000000000FFFFFE00003FFFF00001FFFFF80007F
310
F800000000001FFFC00000000000FFF8000001FFFE0000007FFFFFF0001FFFFF
310
FFFC00000000001FFFFFFC00000000001FFFFF000000000003FE00000000000F
310
F000F8000000000007FFFFE00003FFFF00001FFFFF80007FF800000000000FFF
310
800000000000FFF8000001FFFE0000007FFFFFF0001FFFFFFFF800000000000F
310
FFFFF800000000000FFFFF000000000003FC000000000007F000F80000000000
310
03FFFFC00003FFFE00001FFFFF80007FF0000000000007FF0000000000007FF8
310
000001FFFE0000007FFFFFF0001FFFFFFFF0000000000007FFFFF00000000000
310
07FFFF000000000003F8000000000003F000F0000000000003FFFFC00001FFFE
310
00001FFFFF80007FE0000000000007FE0000000000003FF8000001FFFE000000
310
7FFFFFF0001FFFFFFFF0000000000007FFFFF0000000000007FFFF0000000000
310
03F800001F800003F000E00001FFF00001FFFFC00001FFFE00000FFFFF80007F
310
E00001FFE00003FE00001FFF00003FF8000001FFFE0000007FFFFFF0001FFFFF
310
FFE000003E000003FFFFE000003E000003FFFF000000000003F00001FFF80001
310
F000E00007FFFC0001FFFFC00001FFFE00000FFFFF80007FC0000FFFFC0003FC
310
0000FFFFC0001FF8000001FFFE0000007FFFFFF0001FFFFFFFC00003FFE00001
310
FFFFC00003FFE00001FFFF0001FFFFFFFFF00007FFFE0001F000E0000FFFFF00
310
00FFFF800001FFFC00000FFFFF80007FC0001FFFFE0001FC0001FFFFE0001FF8
310
000001FFFE0000007FFFFFF0001FFFFFFF80000FFFF80000FFFF80000FFFF800
310
00FFFF0003FFFFFFFFE0000FFFFF8000F000C0003FFFFF8000FFFF800000FFFC
310
000007FFFF80007F80003FFFFF0001FC0003FFFFF0001FF8000001FFFE000000
310
7FFFFFF0001FFFFFFF80003FFFFE0000FFFF80003FFFFE0000FFFF0003FFFFFF
310
FFE0003FFFFF8000F000C0003FFFFF8000FFFF800000FFFC000007FFFF80007F
310
80007FFFFF8001F80007FFFFF8000FF8000001FFFE0000007FFFFFF0001FFFFF
310
FF00007FFFFF00007FFF00007FFFFF00007FFF0003FFFFFFFFE0003FFFFFC000
310
F000C0007FFFFFC000FFFF000000FFFC000007FFFF80007F8000FFFFFF8000F8
310
000FFFFFF8000FF8000001FFFE0000007FFFFFF0001FFFFFFF0000FFFFFF8000
310
7FFF0000FFFFFF80007FFF0003FFFFFFFFC0007FFFFFC00070008000FFFFFFC0
310
00FFFF000000FFF8000007FFFF80007F8000FFFFFF8000F8000FFFFFF8000FF8
310
000001FFFE0000007FFFFFF0001FFFFFFE0001FFFFFFC0003FFE0001FFFFFFC0
310
003FFF0003FFFFFFFFC0007FFFFFE00070008000FFFFFFC0007FFF0000007FF8
310
000003FFFF80007F0001FFFFFF8000F8000FFFFFF8000FF8000001FFFE000000
310
7FFFFFF0001FFFFFFE0001FFFFFFC0003FFE0001FFFFFFC0003FFF0003FFFFFF
310
FFC000FFFFFFE00070008000FFFFFFC0007FFF0000007FF8000003FFFF80007F
310
0001FFFFFF8000F8001FFFFFF8000FF8000001FFFE0000007FFFFFF0001FFFFF
310
FE0003FFFFFFE0003FFE0003FFFFFFE0003FFF0003FFFFFFFFC000FFFFFFE000
310
70008000FFFFFFC0007FFE0000007FF8000003FFFF80007F0001FFFFFF8000F0
310
001FFFFFF8000FF8000001FFFE0000007FFFFFF0001FFFFFFC0003FFFFFFE000
310
1FFC0003FFFFFFE0001FFF0003FFFFFFFFC000FFFFFFC00070008000FFFFFF80
310
007FFE0000007FF0000003FFFF80007F0001FFFFFF0000F0001FFFFFF8000FF8
310
000001FFFE0000007FFFFFF0001FFFFFFC0007FFFFFFF0001FFC0007FFFFFFF0
310
001FFF0003FFFFFFFFC000FFFFFFC00070008001FFFFFF0000FFFE0000003FF0
310
000001FFFF80007F0001FFFFFF0000F8001FFFFFF0000FF8000001FFFE000000
310
7FFFFFF0001FFFFFFC0007FFFFFFF0001FFC0007FFFFFFF0001FFF0003FFFFFF
310
FFC001FFFFFF80007000FFFFFFFFFE0000FFFE0008003FF0008001FFFF80007F
310
FFFFFFFFFC0000FFFFFFFFFFE0000FF8000001FFFE0000007FFFFFF0001FFFFF
310
F8000FFFFFFFF8000FF8000FFFFFFFF8000FFF0003FFFFFFFFFFFFFFFFFF0000
310
7000FFFFFFFFFC0000FFFC0008003FF0008001FFFF80007FFFFFFFFFF80001FF
310
FFFFFFFF80000FF8000001FFFE0000007FFFFFF0001FFFFFF8000FFFFFFFF800
310
0FF8000FFFFFFFF8000FFF0003FFFFFFFFFFFFFFFFFE0000F000FFFFFFFFE000
310
00FFFC000C003FE000C001FFFF80007FFFFFFFFFC00001FFFFFFFFFE00001FF8
310
000001FFFE0000007FFFFFF0001FFFFFF8000FFFFFFFF8000FF8000FFFFFFFF8
310
000FFF0003FFFFFFFFFFFFFFFFF00000F000FFFFFFFE000001FFFC000C001FE0
310
00C000FFFF80007FFFFFFFFE000001FFFFFFFFE000001FF80FFFFFFFFFFFFFC0
310
7FFFFFF0001FFFFFF8000FFFFFFFF8000FF8000FFFFFFFF8000FFF0003FFFFFF
310
FFFFFFFFFF800000F000FFFFFFC0000001FFFC001C001FE001C000FFFF80007F
310
FFFFFF80000003FFFFFFF80000001FF80FFFFFFFFFFFFFC07FFFFFF0001FFFFF
310
F8001FFFFFFFFC000FF8001FFFFFFFFC000FFF0003FFFFFFFFFFFFFFF0000001
310
F000FFFFF800000001FFF8001C001FE001C000FFFF80007FFFFFF800000003FF
310
FFFF800000003FF80FFFFFFFFFFFFFC07FFFFFF0001FFFFFF8001FFFFFFFFC00
310
0FF8001FFFFFFFFC000FFF0003FFFFFFFFFFFFFE00000001F000FFFFC0000000
310
03FFF8001E001FC001E000FFFF80007FFFFF8000000007FFFFFC000000003FF8
310
0FFFFFFFFFFFFFC07FFFFFF0001FFFFFF8001FFFFFFFFC000FF8001FFFFFFFFC
310
000FFF0003FFFFFFFFFFFFE000000003F000FFFE0000000007FFF8001E000FC0
310
01E0007FFF80007FFFFE0000000007FFFFE0000000007FF80FFFFFFFFFFFFFC0
310
7FFFFFF0001FFFFFF0001FFFFFFFFC0007F0001FFFFFFFFC0007FF0003FFFFFF
310
FFFFFF0000000003F000FFF80000000007FFF8001E000FC003E0007FFF80007F
310
FFF0000000000FFFFF8000000000FFF80FFFFFFFFFFFFFC07FFFFFF0001FFFFF
310
F0001FFFFFFFFC0007F0001FFFFFFFFC0007FF0003FFFFFFFFFFFC0000000007
310
F000FFE0000000000FFFF0003E000FC003E0007FFF80007FFFC0000000001FFF
310
FE0000000001FFF80FFFFFFFFFFFFFC07FFFFFF0001FFFFFF0001FFFFFFFFC00
310
07F0001FFFFFFFFC0007FF0003FFFFFFFFFFF0000000000FF000FFC000000000
310
1FFFF0003F000F8003F0003FFF80007FFF80000000003FFFF80000000003FFF8
310
0FFFFFFFFFFFFFC07FFFFFF0001FFFFFF0001FFFFFFFFC0007F0001FFFFFFFFC
310
0007FF0003FFFFFFFFFFE0000000001FF000FF00000000007FFFF0003F000780
310
03F0003FFF80007FFF00000000007FFFF00000000007FFF80FFFFFFFFFFFFFC0
310
7FFFFFF0001FFFFFF0001FFFFFFFFC0007F0001FFFFFFFFC0007FF0003FFFFFF
310
FFFF80000000007FF000FE0000000000FFFFE0003F00078007F0003FFF80007F
310
FE0000000001FFFFE0000000001FFFF80FFFFFFFFFFFFFC07FFFFFF0001FFFFF
310
F0001FFFFFFFFC0007F0001FFFFFFFFC0007FF0003FFFFFFFFFF0000000000FF
310
F000FC0000000003FFFFE0007F00078007F0003FFF80007FFC0000000007FFFF
310
C0000000007FFFF80FFFFFFFFFFFFFC07FFFFFF0001FFFFFF8001FFFFFFFFC00
310
0FF8001FFFFFFFFC000FFF0003FFFFFFFFFE0000000003FFF000FC000000000F
310
FFFFE0007F80070007F8001FFF80007FF8000000001FFFFF8000000001FFFFF8
310
0FFFFFFFFFFFFFC07FFFFFF0001FFFFFF8001FFFFFFFFC000FF8001FFFFFFFFC
310
000FFF0003FFFFFFFFFC000000000FFFF000F8000000007FFFFFE0007F800700
310
07F8001FFF80007FF000000000FFFFFF800000000FFFFFF80FFFFFFFFFFFFFC0
310
7FFFFFF0001FFFFFF8000FFFFFFFF8000FF8000FFFFFFFF8000FFF0003FFFFFF
310
FFFC000000007FFFF000F800000007FFFFFFC0007F8003000FF8001FFF80007F
310
F000000007FFFFFF000000007FFFFFF80FFFFFFFFFFFFFC07FFFFFF0001FFFFF
310
F8000FFFFFFFF8000FF8000FFFFFFFF8000FFF0003FFFFFFFFF80000000FFFFF
310
F000F0000000FFFFFFFFC000FF8003000FF8001FFF80007FE0000000FFFFFFFF
310
0000000FFFFFFFF8000001FFFE0000007FFFFFF0001FFFFFF8000FFFFFFFF800
310
0FF8000FFFFFFFF8000FFF0003FFFFFFFFF8000000FFFFFFF000F000000FFFFF
310
FFFFC000FFC002000FF8000FFF80007FE000001FFFFFFFFE000001FFFFFFFFF8
310
000001FFFE0000007FFFFFF0001FFFFFF8000FFFFFFFF8000FF8000FFFFFFFF8
310
000FFF0003FFFFFFFFF000001FFFFFFFF000E00000FFFFFFFFFFC000FFC00200
310
0FFC000FFF80007FE00001FFFFFFFFFE00001FFFFFFFFFF8000001FFFE000000
310
7FFFFFF0001FFFFFFC000FFFFFFFF8001FFC000FFFFFFFF8001FFF0003FFFFFF
310
FFF00001FFFFFFFFF000E00007FFFFFFFFFF8000FFC000001FFC000FFF80007F
310
C0000FFFFFFFFFFE0000FFFFFFFFFFF8000001FFFE0000007FFFFFF0001FFFFF
310
FC0007FFFFFFF0001FFC0007FFFFFFF0001FFF0003FFFFFFFFF00007FFFFFFFF
310
F000E0001FFFFFFFFFFF8000FFC000001FFC000FFF80007FC0003FFFFFFFFFFE
310
0001FFFFFFFFFFF8000001FFFE0000007FFFFFF0001FFFFFFC0007FFFFFFF000
310
1FFC0007FFFFFFF0001FFF0003FFFFFFFFF0001FFFFFFFFFF000E0003FFFFF00
310
03FF8001FFE000001FFC0007FF80007FC0007FFFFF0007FC0003FFFFF0003FF8
310
000001FFFE0000007FFFFFF0001FFFFFFC0003FFFFFFE0001FFC0003FFFFFFE0
310
001FFF0003FFFFFFFFF0003FFFFFFFFFF000E0003FFFFF0001FF8001FFE00000
310
1FFE0007FF80007FC0007FFFFE0003FC0007FFFFE0003FF8000001FFFE000000
310
7FFFFFF0001FFFFFFE0003FFFFFFE0003FFE0003FFFFFFE0003FFF0003FFFFFF
310
FFF0003FFFFF8001F000E0003FFFFF0001FF0001FFE000001FFE0007FF80007F
310
C0007FFFFE0003FC0007FFFFE0003FF8000001FFFE0000007FFFFFF0001FFFFF
310
FE0001FFFFFFC0003FFE0001FFFFFFC0003FFF0003FFFFFFFFF0003FFFFF0001
310
F000E0003FFFFF0003FF0001FFE000003FFE0007FF80007FC0007FFFFE0003FC
310
0007FFFFE0003FF8000001FFFE0000007FFFFFF0001FFFFFFF0001FFFFFFC000
310
7FFF0001FFFFFFC0007FFF0003FFFFFFFFF0003FFFFF0001F000E0003FFFFE00
310
03FF0003FFF000003FFE0003FF80007FC0007FFFFC0003FE0007FFFFE0003FF8
310
000001FFFE0000007FFFFFF0001FFFFFFF0000FFFFFF80007FFF0000FFFFFF80
310
007FFF0003FFFFFFFFF0003FFFFF0001F000E0003FFFFE0003FF0003FFF00000
310
3FFF0003FF80007FC0007FFFFC0007FE0007FFFFC0003FF8000001FFFE000000
310
7FFFFFF0001FFFFFFF80007FFFFF0000FFFF80007FFFFF0000FFFF0003FFFFFF
310
FFF0003FFFFF0003F000E0003FFFFC0003FE0003FFF000003FFF0003FF80007F
310
E0003FFFF80007FE0003FFFFC0007FF8000001FFFE0000007FFFFFF0001FFFFF
310
FF80003FFFFE0000FFFF80003FFFFE0000FFFF0003FFFFFFFFF0001FFFFE0003
310
F000F0001FFFF80003FE0003FFF000007FFF0001FF80007FE0003FFFF00007FE
310
0001FFFF80007FF8000001FFFE0000007FFFFFF0001FFFFFFFC0000FFFF80001
310
FFFFC0000FFFF80001FFFF0003FFFFFFFFF0001FFFFC0003F000F0000FFFF000
310
07FE0007FFF800007FFF0001FF80007FE0001FFFE00007FF0000FFFE00007FF8
310
000001FFFE0000007FFFFFF0001FFFFFFFC00003FFE00001FFFFC00003FFE000
310
01FFFF0003FFFFFFFFF8000FFFF80003F000F00003FFC00007FC0007FFF80000
310
7FFF8001FF80007FF00007FF80000FFF00007FF80000FFF8000001FFFE000000
310
7F80000000000001FFE000003E000003FFFFE000003E000003FFFF0003FFFFFF
310
FFF80003FFE00007F000F800000000000FFC0007FFF800007FFF8001FF80007F
310
F000000000000FFF000000000000FFF8000001FFFE0000007F80000000000001
310
FFF0000000000007FFFFF0000000000007FFFF0003FFFFFFFFFC00007E000007
310
F000F800000000000FFC0007FFF80000FFFF8000FF80007FF800000000001FFF
310
800000000001FFF8000001FFFE0000007F80000000000001FFF800000000000F
310
FFFFF800000000000FFFFF0003FFFFFFFFFC00000000000FF000FC0000000000
310
1FFC0007FFFC0000FFFF8000FF80007FF800000000003FFFC00000000001FFF8
310
000001FFFE0000007F80000000000001FFF800000000000FFFFFF80000000000
310
0FFFFF0003FFFFFFFFFE00000000001FF000FE00000000003FF8000FFFFC0000
310
FFFF8000FF80007FFC00000000003FFFC00000000003FFF8000001FFFE000000
310
7F80000000000001FFFC00000000001FFFFFFC00000000001FFFFF0003FFFFFF
310
FFFF00000000001FF000FF00000000003FF8000FFFFC0000FFFFC000FF80007F
310
FE00000000007FFFE00000000007FFF8000001FFFE0000007F80000000000001
310
FFFE00000000003FFFFFFE00000000003FFFFF0003FFFFFFFFFF80000000003F
310
F000FF80000000007FF8000FFFFC0001FFFFC0007F80007FFF0000000000FFFF
310
F0000000000FFFF800000000000000007F80000000000001FFFF8000000000FF
310
FFFFFF8000000000FFFFFF0003FFFFFFFFFFC0000000007FF000FFC000000000
310
FFF8000FFFFE0001FFFFC0007F80007FFF8000000001FFFFF8000000001FFFF8
310
00000000000000007F80000000000001FFFFC000000001FFFFFFFFC000000001
310
FFFFFF0003FFFFFFFFFFE000000000FFF000FFE000000003FFF0001FFFFE0001
310
FFFFC0007F80007FFFC000000007FFFFFE000000003FFFF80000000000000000
310
7F80000000000001FFFFE000000003FFFFFFFFE000000003FFFFFF0003FFFFFF
310
FFFFF000000003FFF000FFF80000000FFFF0001FFFFE0001FFFFE0007F80007F
310
FFF00000000FFFFFFF00000000FFFFF800000000000000007F80000000000001
310
FFFFF80000000FFFFFFFFFF80000000FFFFFFF0003FFFFFFFFFFFC0000000FFF
310
F000FFFE0000003FFFF0001FFFFE0003FFFFE0003F80007FFFFC0000003FFFFF
310
FFC0000003FFFFF800000000000000007F80000000000001FFFFFE0000003FFF
310
FFFFFFFE0000003FFFFFFF0003FFFFFFFFFFFF0000003FFFF000FFFF800000FF
310
FFF0001FFFFF0003FFFFE0003F80007FFFFF000001FFFFFFFFF800001FFFFFF8
310
00000000000000007F80000000000001FFFFFFC00001FFFFFFFFFFFFC00001FF
310
FFFFFF0003FFFFFFFFFFFFC00000FFFFF000FFFFF8000FFFFFFFFFFFFFFFFFFF
310
FFFFFFFFFFFFFFFFFFFFF0001FFFFFFFFFFF0000FFFFFFF80000000000000000
310
7FFFFFFFFFFFFFFFFFFFFFFC001FFFFFFFFFFFFFFC001FFFFFFFFFFFFFFFFFFF
310
FFFFFFFC001FFFFFF000FFFFFFFFFFFFFFFFFFFFFFFFFFFFFFFFFFFFFFFFFFFF
310
FFFFFFFFFFFFFFFFFFFFFFFFFFFFFFFFFFFFFFFFFFFFFFFFFFFFFFFFFFFFFFFF
310
FFFFFFFFFFFFFFFFFFFFFFFFFFFFFFFFFFFFFFFFFFFFFFFFFFFFFFFFFFFFFFFF
310
F000FFFFFFFFFFFFFFFFFFFFFFFFFFFFFFFFFFFFFFFFFFFFFFFFFFFFFFFFFFFF
310
FFFFFFFFFFFFFFFFFFFFFFFFFFFFFFFFFFFFFFFFFFFFFFFFFFFFFFFFFFFFFFFF
310
FFFFFFFFFFFFFFFFFFFFFFFFFFFFFFFFFFFFFFFFFFFFFFFFF000FFFFFFFFFFFF
310
FFFFFFFFFFFFFFFFFFFFFFFFFFFFFFFFFFFFFFFFFFFFFFFFFFFFFFFFFFFFFFFF
310
FFFFFFFFFFFFFFFFFFFFFFFFFFFFFFFFFFFFFFFFFFFFFFFFFFFFFFFFFFFFFFFF
310
FFFFFFFFFFFFFFFFFFFFFFFFFFFFFFFFF000FFFFFFFFFFFFFFFFFFFFFFFFFFFF
310
FFFFFFFFFFFFFFFFFFFFFFFFFFFFFFFFFFFFFFFFFFFFFFFFFFFFFFFFFFFFFFFF
310
FFFFFFFFFFFFFFFFFFFFFFFFFFFFFFFFFFFFFFFFFFFFFFFFFFFFFFFFFFFFFFFF
310
FFFFFFFFFFFFFFFFF000FFFFFFFFFFFFFFFFFFFFFFFFFFFFFFFFFFFFFFFFFFFF
310
FFFFFFFFFFFFFFFFFFFFFFFFFFFFFFFFFFFFFFFFFFFFFFFFFFFFFFFFFFFFFFFF
310
FFFFFFFFFFFFFFFFFFFFFFFFFFFFFFFFFFFFFFFFFFFFFFFFFFFFFFFFFFFFFFFF
310
F000FFFFFFFFFFFFFFFFFFFFFFFFFFFFFFFFFFFFFFFFFFFFFFFFFFFFFFFFFFFF
310
FFFFFFFFFFFFFFFFFFFFFFFFFFFFFFFFFFFFFFFFFFFFFFFFFFFFFFFFFFFFFFFF
310
FFFFFFFFFFFFFFFFFFFFFFFFFFFFFFFFFFFFFFFFFFFFFFFFF000FFFFFFFFFFFF
310
FFFFFFFFFFFFFFFFFFFFFFFFFFFFFFFFFFFFFFFFFFFFFFFFFFFFFFFFFFFFFFFF
310
FFFFFFFFFFFFFFFFFFFFFFFFFFFFFFFFFFFFFFFFFFFFFFFFFFFFFFFFFFFFFFFF
310
FFFFFFFFFFFFFFFFFFFFFFFFFFFFFFFFF000FFFFFFFFFFFFFFFFFFFFFFFFFFFF
310
FFFFFFFFFFFFFFFFFFFFFFFFFFFFFFFFFFFFFFFFFFFFFFFFFFFFFFFFFFFFFFFF
310
FFFFFFFFFFFFFFFFFFFFFFFFFFFFFFFFFFFFFFFFFFFFFFFFFFFFFFFFFFFFFFFF
310
FFFFFFFFFFFFFFFFF000FFFFFFFFFFFFFFFFFFFFFFFFFFFFFFFFFFFFFFFFFFFF
310
FFFFFFFFFFFFFFFFFFFFFFFFFFFFFFFFFFFFFFFFFFFFFFFFFFFFFFFFFFFFFFFF
310
FFFFFFFFFFFFFFFFFFFFFFFFFFFFFFFFFFFFFFFFFFFFFFFFFFFFFFFFFFFFFFFF
310
F000FFFFFFFFFFFFFFFFFFFFFFFFFFFFFFFFFFFFFFFFFFFFFFFFFFFFFFFFFFFF
310
FFFFFFFFFFFFFFFFFFFFFFFFFFFFFFFFFFFFFFFFFFFFFFFFFFFFFFFFFFFFFFFF
310
FFFFFFFFFFFFFFFFFFFFFFFFFFFFFFFFFFFFFFFFFFFFFFFFF000FFFFFFFFFFFF
310
FFFFFFFFFFFFFFFFFFFFFFFFFFFFFFFFFFFFFFFFFFFFFFFFFFFFFFFFFFFFFFFF
310
FFFFFFFFFFFFFFFFFFFFFFFFFFFFFFFFFFFFFFFFFFFFFFFFFFFFFFFFFFFFFFFF
310
FFFFFFFFFFFFFFFFFFFFFFFFFFFFFFFFF000FFFFFFFFFFFFFFFFFFFFFFFFFFFF
310
FFFFFFFFFFFFFFFFFFFFFFFFFFFFFFFFFFFFFFFFFFFFFFFFFFFFFFFFFFFFFFFF
310
FFFFFFFFFFFFFFFFFFFFFFFFFFFFFFFFFFFFFFFFFFFFFFFFFFFFFFFFFFFFFFFF
310
FFFFFFFFFFFFFFFFF000FFFFFFFFFFFFFFFFFFFFFFFFFFFFFFFFFFFFFFFFFFFF
310
FFFFFFFFFFFFFFFFFFFFFFFFFFFFFFFFFFFFFFFFFFFFFFFFFFFFFFFFFFFFFFFF
310
FFFFFFFFFFFFFFFFFFFFFFFFFFFFFFFFFFFFFFFFFFFFFFFFFFFFFFFFFFFFFFFF
310
F000FFFFFFFFFFFFFFFFFFFFFFFFFFFFFFFFFFFFFFFFFFFFFFFFFFFFFFFFFFFF
310
FFFFFFFFFFFFFFFFFFFFFFFFFFFFFFFFFFFFFFFFFFFFFFFFFFFFFFFFFFFFFFFF
310
FFFFFFFFFFFFFFFFFFFFFFFFFFFFFFFFFFFFFFFFFFFFFFFFF000FFFFFFFFFFFF
310
FFFFFFFFFFFFFFFFFFFFFFFFFFFFFFFFFFFFFFFFFFFFFFFFFFFFFFFFFFFFFFFF
310
FFFFFFFFFFFFFFFFFFFFFFFFFFFFFFFFFFFFFFFFFFFFFFFFFFFFFFFFFFFFFFFF
310
FFFFFFFFFFFFFFFFFFFFFFFFFFFFFFFFF000FFFFFFFFFFFFFFFFFFFFFFFFFFFF
310
FFFFFFFFFFFFFFFFFFFFFFFFFFFFFFFFFFFFFFFFFFFFFFFFFFFFFFFFFFFFFFFF
310
FFFFFFFFFFFFFFFFFFFFFFFFFFFFFFFFFFFFFFFFFFFFFFFFFFFFFFFFFFFFFFFF
310
FFFFFFFFFFFFFFFFF000FFFFFFFFFFFFFFFFFFFFFFFFFFFFFFFFFFFFFFFFFFFF
310
FFFFFFFFFFFFFFFFFFFFFFFFFFFFFFFFFFFFFFFFFFFFFFFFFFFFFFFFFFFFFFFF
310
FFFFFFFFFFFFFFFFFFFFFFFFFFFFFFFFFFFFFFFFFFFFFFFFFFFFFFFFFFFFFFFF
310
F000FFFFFFFFFFFFFFFFFFFFFFFFFFFFFFFFFFFFFFFFFFFFFFFFFFFFFFFFFFFF
310
FFFFFFFFFFFFFFFFFFFFFFFFFFFFFFFFFFFFFFFFFFFFFFFFFFFFFFFFFFFFFFFF
310
FFFFFFFFFFFFFFFFFFFFFFFFFFFFFFFFFFFFFFFFFFFFFFFFF000FFFFFFFFFFFF
310
FFFFFFFFFFFFFFFFFFFFFFFFFFFFFFFFFFFFFFFFFFFFFFFFFFFFFFFFFFFFFFFF
310
FFFFFFFFFFFFFFFFFFFFFFFFFFFFFFFFFFFFFFFFFFFFFFFFFFFFFFFFFFFFFFFF
310
FFFFFFFFFFFFFFFFFFFFFFFFFFFFFFFFF000FFFFFFFFFFFFFFFFFFFFFFFFFFFF
310
FFFFFFFFFFFFFFFFFFFFFFFFFFFFFFFFFFFFFFFFFFFFFFFFFFFFFFFFFFFFFFFF
310
FFFFFFFFFFFFFFFFFFFFFFFFFFFFFFFFFFFFFFFFFFFFFFFFFFFFFFFFFFFFFFFF
310
FFFFFFFFFFFFFFFFF000FFFFFFFFFFFFFFFFFFFFFFFFFFFFFFFFFFFFFFFFFFFF
310
FFFFFFFFFFFFFFFFFFFFFFFFFFFFFFFFFFFFFFFFFFFFFFFFFFFFFFFFFFFFFFFF
310
FFFFFFFFFFFFFFFFFFFFFFFFFFFFFFFFFFFFFFFFFFFFFFFFFFFFFFFFFFFFFFFF
310
F000FFFFFFFFFFFFFFFFFFFFFFFFFFFFFFFFFFFFFFFFFFFFFFFFFFFFFFFFFFFF
310
FFFFFFFFFFFFFFFFFFFFFFFFFFFFFFFFFFFFFFFFFFFFFFFFFFFFFFFFFFFFFFFF
310
FFFFFFFFFFFFFFFFFFFFFFFFFFFFFFFFFFFFFFFFFFFFFFFFF000FFFFFFFFFFFF
310
FFFFFFFFFFFFFFFFFFFFFFFFFFFFFFFFFFFFFFFFFFFFFFFFFFFFFFFFFFFFFFFF
310
FFFFFFFFFFFFFFFFFFFFFFFFFFFFFFFFFFFFFFFFFFFFFFFFFFFFFFFFFFFFFFFF
310
FFFFFFFFFFFFFFFFFFFFFFFFFFFFFFFFF0000000000000000000000000000000
310
0000000000000000000000000000000000000000000000000000000000000000
310
0000000000000000000000000000000000000000000000000000000000000000
310
0000000000000000000000000000000000000000000000000000000000000000
310
0000000000000000000000000000000000000000000000000000000000000000
310
0000000000000000000000000000000000000000000000000000000000000000
310
0000000000000000000000000000000000000000000000000000000000000000
310
0000000000000000000000000000000000000000000000000000000000000000
310
0000000000000000000000000000000000000000000000000000000000000000
310
0000000000000000000000000000000000000000000000000000000000000000
310
0000000000000000000000000000000000000000000000000000000000000000
310
0000000000000000000000000000000000000000000000000000000000000000
310
0000000000000000000000000000000000000000000000000000000000000000
310
0000000000000000000000000000000000000000000000000000000000000000
310
0000000000000000000000000000000000000000000000000000000000000000
310
0000000000000000000000000000000000000000000000000000000000000000
  1
OLE
  0
ENDSEC
  0
SECTION
  2
OBJECTS
  0
DICTIONARY
  5
C
330
0
100
AcDbDictionary
281
     1
  3
ACAD_GROUP
350
D
  3
ACAD_LAYOUT
350
1A
  3
ACAD_MLEADERSTYLE
350
265
  3
ACAD_MLINESTYLE
350
17
  3
ACAD_PLOTSETTINGS
350
19
  3
ACAD_PLOTSTYLENAME
350
E
  3
ACAD_SCALELIST
350
3B
  3
ACAD_TABLESTYLE
350
264
  3
ACAD_VISUALSTYLE
350
2A
  3
AcDbVariableDictionary
350
262
  0
DICTIONARY
  5
D
102
{ACAD_REACTORS
330
C
102
}
330
C
100
AcDbDictionary
281
     1
  0
DICTIONARY
  5
1A
102
{ACAD_REACTORS
330
C
102
}
330
C
100
AcDbDictionary
281
     1
  3
Layout1
350
1E
  3
Layout2
350
26
  3
Model
350
22
  0
DICTIONARY
  5
265
102
{ACAD_REACTORS
330
C
102
}
330
C
100
AcDbDictionary
281
     1
  0
DICTIONARY
  5
17
102
{ACAD_REACTORS
330
C
102
}
330
C
100
AcDbDictionary
281
     1
  3
Standard
350
18
  0
DICTIONARY
  5
19
102
{ACAD_REACTORS
330
C
102
}
330
C
100
AcDbDictionary
281
     1
  0
ACDBDICTIONARYWDFLT
  5
E
102
{ACAD_REACTORS
330
C
102
}
330
C
100
AcDbDictionary
281
     1
  3
Normal
350
F
100
AcDbDictionaryWithDefault
340
F
  0
DICTIONARY
  5
3B
102
{ACAD_REACTORS
330
C
102
}
330
C
100
AcDbDictionary
281
     1
  3
A0
350
3C
  3
A1
350
3D
  3
A2
350
3E
  3
A3
350
3F
  3
A4
350
40
  3
A5
350
41
  3
A6
350
42
  3
A7
350
43
  3
A8
350
44
  3
A9
350
45
  3
B0
350
46
  3
B1
350
47
  3
B2
350
48
  3
B3
350
49
  3
B4
350
4A
  3
B5
350
4B
  3
B6
350
4C
  3
B7
350
4D
  3
B8
350
4E
  3
B9
350
4F
  3
C0
350
50
  3
C1
350
51
  3
C2
350
52
  3
C3
350
53
  3
C4
350
54
  3
C5
350
55
  3
C6
350
56
  3
C7
350
57
  3
C8
350
58
  3
C9
350
59
  3
D0
350
5A
  3
D1
350
5B
  3
D2
350
5C
  0
DICTIONARY
  5
264
102
{ACAD_REACTORS
330
C
102
}
330
C
100
AcDbDictionary
281
     1
  0
DICTIONARY
  5
2A
102
{ACAD_REACTORS
330
C
102
}
330
C
100
AcDbDictionary
281
     1
  3
2dWireframe
350
2F
  3
3D Hidden
350
31
  3
3dWireframe
350
30
  3
Basic
350
32
  3
Brighten
350
36
  3
ColorChange
350
3A
  3
Conceptual
350
34
  3
Dim
350
35
  3
Facepattern
350
39
  3
Flat
350
2B
  3
FlatWithEdges
350
2C
  3
Gouraud
350
2D
  3
GouraudWithEdges
350
2E
  3
Linepattern
350
38
  3
Realistic
350
33
  3
Thicken
350
37
  0
DICTIONARY
  5
262
102
{ACAD_REACTORS
330
C
102
}
330
C
100
AcDbDictionary
281
     1
  3
CANNOSCALE
350
263
  3
PSOLHEIGHT
350
267
  3
PSOLWIDTH
350
266
  0
LAYOUT
  5
1E
102
{ACAD_REACTORS
330
1A
102
}
330
1A
100
AcDbPlotSettings
  1

  2
none_device
  4

  6

 40
0.0
 41
0.0
 42
0.0
 43
0.0
 44
0.0
 45
0.0
 46
0.0
 47
0.0
 48
0.0
 49
0.0
140
0.0
141
0.0
142
1.0
143
1.0
 70
   688
 72
     0
 73
     0
 74
     5
  7

 75
    16
147
1.0
148
0.0
149
0.0
100
AcDbLayout
  1
Layout1
 70
     1
 71
     1
 10
0.0
 20
0.0
 11
420.0
 21
297.0
 12
0.0
 22
0.0
 32
0.0
 14
1.0000000000E+20
 24
1.0000000000E+20
 34
1.0000000000E+20
 15
-1.0000000000E+20
 25
-1.0000000000E+20
 35
-1.0000000000E+20
146
0.0
 13
0.0
 23
0.0
 33
0.0
 16
1.0
 26
0.0
 36
0.0
 17
0.0
 27
1.0
 37
0.0
 76
     0
330
1B
  0
LAYOUT
  5
26
102
{ACAD_REACTORS
330
1A
102
}
330
1A
100
AcDbPlotSettings
  1

  2
none_device
  4

  6

 40
0.0
 41
0.0
 42
0.0
 43
0.0
 44
0.0
 45
0.0
 46
0.0
 47
0.0
 48
0.0
 49
0.0
140
0.0
141
0.0
142
1.0
143
1.0
 70
   688
 72
     0
 73
     0
 74
     5
  7

 75
    16
147
1.0
148
0.0
149
0.0
100
AcDbLayout
  1
Layout2
 70
     1
 71
     2
 10
0.0
 20
0.0
 11
0.0
 21
0.0
 12
0.0
 22
0.0
 32
0.0
 14
0.0
 24
0.0
 34
0.0
 15
0.0
 25
0.0
 35
0.0
146
0.0
 13
0.0
 23
0.0
 33
0.0
 16
1.0
 26
0.0
 36
0.0
 17
0.0
 27
1.0
 37
0.0
 76
     0
330
23
  0
LAYOUT
  5
22
102
{ACAD_REACTORS
330
1A
102
}
330
1A
100
AcDbPlotSettings
  1

  2
none_device
  4

  6

 40
0.0
 41
0.0
 42
0.0
 43
0.0
 44
0.0
 45
0.0
 46
0.0
 47
0.0
 48
0.0
 49
0.0
140
0.0
141
0.0
142
1.0
143
1.0
 70
  1712
 72
     0
 73
     0
 74
     0
  7

 75
     0
147
1.0
148
0.0
149
0.0
100
AcDbLayout
  1
Model
 70
     1
 71
     0
 10
0.0
 20
0.0
 11
297.0
 21
210.0
 12
0.0
 22
0.0
 32
0.0
 14
0.0
 24
0.0
 34
0.0
 15
297.0
 25
210.0
 35
0.0
146
0.0
 13
0.0
 23
0.0
 33
0.0
 16
1.0
 26
0.0
 36
0.0
 17
0.0
 27
1.0
 37
0.0
 76
     0
330
1F
331
29
  0
MLINESTYLE
  5
18
102
{ACAD_REACTORS
330
17
102
}
330
17
100
AcDbMlineStyle
  2
Standard
 70
     0
  3

 62
   256
 51
90.0
 52
90.0
 71
     2
 49
0.5
 62
   256
  6
BYLAYER
 49
-0.5
 62
   256
  6
BYLAYER
  0
ACDBPLACEHOLDER
  5
F
102
{ACAD_REACTORS
330
E
102
}
330
E
  0
SCALE
  5
3C
102
{ACAD_REACTORS
330
3B
102
}
330
3B
100
AcDbScale
 70
     0
300
1:1
140
1.0
141
1.0
290
     1
  0
SCALE
  5
3D
102
{ACAD_REACTORS
330
3B
102
}
330
3B
100
AcDbScale
 70
     0
300
1:2
140
1.0
141
2.0
290
     0
  0
SCALE
  5
3E
102
{ACAD_REACTORS
330
3B
102
}
330
3B
100
AcDbScale
 70
     0
300
1:4
140
1.0
141
4.0
290
     0
  0
SCALE
  5
3F
102
{ACAD_REACTORS
330
3B
102
}
330
3B
100
AcDbScale
 70
     0
300
1:5
140
1.0
141
5.0
290
     0
  0
SCALE
  5
40
102
{ACAD_REACTORS
330
3B
102
}
330
3B
100
AcDbScale
 70
     0
300
1:8
140
1.0
141
8.0
290
     0
  0
SCALE
  5
41
102
{ACAD_REACTORS
330
3B
102
}
330
3B
100
AcDbScale
 70
     0
300
1:10
140
1.0
141
10.0
290
     0
  0
SCALE
  5
42
102
{ACAD_REACTORS
330
3B
102
}
330
3B
100
AcDbScale
 70
     0
300
1:16
140
1.0
141
16.0
290
     0
  0
SCALE
  5
43
102
{ACAD_REACTORS
330
3B
102
}
330
3B
100
AcDbScale
 70
     0
300
1:20
140
1.0
141
20.0
290
     0
  0
SCALE
  5
44
102
{ACAD_REACTORS
330
3B
102
}
330
3B
100
AcDbScale
 70
     0
300
1:30
140
1.0
141
30.0
290
     0
  0
SCALE
  5
45
102
{ACAD_REACTORS
330
3B
102
}
330
3B
100
AcDbScale
 70
     0
300
1:40
140
1.0
141
40.0
290
     0
  0
SCALE
  5
46
102
{ACAD_REACTORS
330
3B
102
}
330
3B
100
AcDbScale
 70
     0
300
1:50
140
1.0
141
50.0
290
     0
  0
SCALE
  5
47
102
{ACAD_REACTORS
330
3B
102
}
330
3B
100
AcDbScale
 70
     0
300
1:100
140
1.0
141
100.0
290
     0
  0
SCALE
  5
48
102
{ACAD_REACTORS
330
3B
102
}
330
3B
100
AcDbScale
 70
     0
300
2:1
140
2.0
141
1.0
290
     0
  0
SCALE
  5
49
102
{ACAD_REACTORS
330
3B
102
}
330
3B
100
AcDbScale
 70
     0
300
4:1
140
4.0
141
1.0
290
     0
  0
SCALE
  5
4A
102
{ACAD_REACTORS
330
3B
102
}
330
3B
100
AcDbScale
 70
     0
300
8:1
140
8.0
141
1.0
290
     0
  0
SCALE
  5
4B
102
{ACAD_REACTORS
330
3B
102
}
330
3B
100
AcDbScale
 70
     0
300
10:1
140
10.0
141
1.0
290
     0
  0
SCALE
  5
4C
102
{ACAD_REACTORS
330
3B
102
}
330
3B
100
AcDbScale
 70
     0
300
100:1
140
100.0
141
1.0
290
     0
  0
SCALE
  5
4D
102
{ACAD_REACTORS
330
3B
102
}
330
3B
100
AcDbScale
 70
     0
300
1/128" = 1'-0"
140
0.0078125
141
12.0
290
     0
  0
SCALE
  5
4E
102
{ACAD_REACTORS
330
3B
102
}
330
3B
100
AcDbScale
 70
     0
300
1/64" = 1'-0"
140
0.015625
141
12.0
290
     0
  0
SCALE
  5
4F
102
{ACAD_REACTORS
330
3B
102
}
330
3B
100
AcDbScale
 70
     0
300
1/32" = 1'-0"
140
0.03125
141
12.0
290
     0
  0
SCALE
  5
50
102
{ACAD_REACTORS
330
3B
102
}
330
3B
100
AcDbScale
 70
     0
300
1/16" = 1'-0"
140
0.0625
141
12.0
290
     0
  0
SCALE
  5
51
102
{ACAD_REACTORS
330
3B
102
}
330
3B
100
AcDbScale
 70
     0
300
3/32" = 1'-0"
140
0.09375
141
12.0
290
     0
  0
SCALE
  5
52
102
{ACAD_REACTORS
330
3B
102
}
330
3B
100
AcDbScale
 70
     0
300
1/8" = 1'-0"
140
0.125
141
12.0
290
     0
  0
SCALE
  5
53
102
{ACAD_REACTORS
330
3B
102
}
330
3B
100
AcDbScale
 70
     0
300
3/16" = 1'-0"
140
0.1875
141
12.0
290
     0
  0
SCALE
  5
54
102
{ACAD_REACTORS
330
3B
102
}
330
3B
100
AcDbScale
 70
     0
300
1/4" = 1'-0"
140
0.25
141
12.0
290
     0
  0
SCALE
  5
55
102
{ACAD_REACTORS
330
3B
102
}
330
3B
100
AcDbScale
 70
     0
300
3/8" = 1'-0"
140
0.375
141
12.0
290
     0
  0
SCALE
  5
56
102
{ACAD_REACTORS
330
3B
102
}
330
3B
100
AcDbScale
 70
     0
300
1/2" = 1'-0"
140
0.5
141
12.0
290
     0
  0
SCALE
  5
57
102
{ACAD_REACTORS
330
3B
102
}
330
3B
100
AcDbScale
 70
     0
300
3/4" = 1'-0"
140
0.75
141
12.0
290
     0
  0
SCALE
  5
58
102
{ACAD_REACTORS
330
3B
102
}
330
3B
100
AcDbScale
 70
     0
300
1" = 1'-0"
140
1.0
141
12.0
290
     0
  0
SCALE
  5
59
102
{ACAD_REACTORS
330
3B
102
}
330
3B
100
AcDbScale
 70
     0
300
1-1/2" = 1'-0"
140
1.5
141
12.0
290
     0
  0
SCALE
  5
5A
102
{ACAD_REACTORS
330
3B
102
}
330
3B
100
AcDbScale
 70
     0
300
3" = 1'-0"
140
3.0
141
12.0
290
     0
  0
SCALE
  5
5B
102
{ACAD_REACTORS
330
3B
102
}
330
3B
100
AcDbScale
 70
     0
300
6" = 1'-0"
140
6.0
141
12.0
290
     0
  0
SCALE
  5
5C
102
{ACAD_REACTORS
330
3B
102
}
330
3B
100
AcDbScale
 70
     0
300
1'-0" = 1'-0"
140
12.0
141
12.0
290
     0
  0
VISUALSTYLE
  5
2F
102
{ACAD_REACTORS
330
2A
102
}
330
2A
100
AcDbVisualStyle
  2
2dWireframe
 70
     4
 71
     0
 72
     2
 73
     0
 90
        0
 40
-0.6
 41
-30.0
 62
     5
 63
     7
 74
     1
 91
        4
 64
     7
 65
   257
 75
     1
175
     1
 42
1.0
 92
        0
 66
   257
 43
1.0
 76
     1
 77
     6
 78
     2
 67
     7
 79
     5
170
     0
171
     0
290
     0
174
     0
 93
        1
 44
0.0
173
     0
291
     0
 45
0.0
1001
ACAD
1000
AcDbSavedByObjectVersion
1070
     0
  0
VISUALSTYLE
  5
31
102
{ACAD_REACTORS
330
2A
102
}
330
2A
100
AcDbVisualStyle
  2
3D Hidden
 70
     6
 71
     1
 72
     2
 73
     2
 90
        0
 40
-0.6
 41
-30.0
 62
     5
 63
     7
 74
     2
 91
        2
 64
     7
 65
   257
 75
     2
175
     1
 42
40.0
 92
        0
 66
   257
 43
1.0
 76
     1
 77
     6
 78
     2
 67
     7
 79
     3
170
     0
171
     0
290
     0
174
     0
 93
        1
 44
0.0
173
     0
291
     0
 45
0.0
1001
ACAD
1000
AcDbSavedByObjectVersion
1070
     0
  0
VISUALSTYLE
  5
30
102
{ACAD_REACTORS
330
2A
102
}
330
2A
100
AcDbVisualStyle
  2
3dWireframe
 70
     5
 71
     0
 72
     2
 73
     0
 90
        0
 40
-0.6
 41
-30.0
 62
     5
 63
     7
 74
     1
 91
        4
 64
     7
 65
   257
 75
     1
175
     1
 42
1.0
 92
        0
 66
   257
 43
1.0
 76
     1
 77
     6
 78
     2
 67
     7
 79
     5
170
     0
171
     0
290
     0
174
     0
 93
        1
 44
0.0
173
     0
291
     0
 45
0.0
1001
ACAD
1000
AcDbSavedByObjectVersion
1070
     0
  0
VISUALSTYLE
  5
32
102
{ACAD_REACTORS
330
2A
102
}
330
2A
100
AcDbVisualStyle
  2
Basic
 70
     7
 71
     1
 72
     0
 73
     1
 90
        0
 40
-0.6
 41
-30.0
 62
     5
 63
     7
 74
     0
 91
        4
 64
     7
 65
   257
 75
     1
175
     1
 42
1.0
 92
        8
 66
     7
 43
1.0
 76
     1
 77
     6
 78
     2
 67
     7
 79
     5
170
     0
171
     0
290
     0
174
     0
 93
        1
 44
0.0
173
     0
291
     1
 45
0.0
1001
ACAD
1000
AcDbSavedByObjectVersion
1070
     0
  0
VISUALSTYLE
  5
36
102
{ACAD_REACTORS
330
2A
102
}
330
2A
100
AcDbVisualStyle
  2
Brighten
 70
    12
 71
     2
 72
     2
 73
     0
 90
        0
 40
-0.6
 41
-30.0
 62
     5
 63
     7
 74
     1
 91
        4
 64
     7
 65
   257
 75
     1
175
     1
 42
1.0
 92
        8
 66
     7
 43
1.0
 76
     1
 77
     6
 78
     2
 67
     7
 79
     5
170
     0
171
     0
290
     0
174
     0
 93
        1
 44
50.0
173
     0
291
     1
 45
0.0
1001
ACAD
1000
AcDbSavedByObjectVersion
1070
     0
  0
VISUALSTYLE
  5
3A
102
{ACAD_REACTORS
330
2A
102
}
330
2A
100
AcDbVisualStyle
  2
ColorChange
 70
    16
 71
     2
 72
     2
 73
     3
 90
        0
 40
-0.6
 41
-30.0
 62
     5
 63
     8
 74
     1
 91
        4
 64
     7
 65
   257
 75
     1
175
     1
 42
1.0
 92
        8
 66
     8
 43
1.0
 76
     1
 77
     6
 78
     2
 67
     7
 79
     5
170
     0
171
     0
290
     0
174
     0
 93
        1
 44
0.0
173
     0
291
     1
 45
0.0
1001
ACAD
1000
AcDbSavedByObjectVersion
1070
     0
  0
VISUALSTYLE
  5
34
102
{ACAD_REACTORS
330
2A
102
}
330
2A
100
AcDbVisualStyle
  2
Conceptual
 70
     9
 71
     3
 72
     2
 73
     0
 90
        0
 40
-0.6
 41
-30.0
 62
     5
 63
     7
 74
     2
 91
        2
 64
     7
 65
   257
 75
     1
175
     1
 42
40.0
 92
        8
 66
     7
 43
1.0
 76
     1
 77
     6
 78
     2
 67
     7
 79
     3
170
     0
171
     0
290
     0
174
     0
 93
        1
 44
0.0
173
     0
291
     0
 45
0.0
1001
ACAD
1000
AcDbSavedByObjectVersion
1070
     0
  0
VISUALSTYLE
  5
35
102
{ACAD_REACTORS
330
2A
102
}
330
2A
100
AcDbVisualStyle
  2
Dim
 70
    11
 71
     2
 72
     2
 73
     0
 90
        0
 40
-0.6
 41
-30.0
 62
     5
 63
     7
 74
     1
 91
        4
 64
     7
 65
   257
 75
     1
175
     1
 42
1.0
 92
        8
 66
     7
 43
1.0
 76
     1
 77
     6
 78
     2
 67
     7
 79
     5
170
     0
171
     0
290
     0
174
     0
 93
        1
 44
-50.0
173
     0
291
     1
 45
0.0
1001
ACAD
1000
AcDbSavedByObjectVersion
1070
     0
  0
VISUALSTYLE
  5
39
102
{ACAD_REACTORS
330
2A
102
}
330
2A
100
AcDbVisualStyle
  2
Facepattern
 70
    15
 71
     2
 72
     2
 73
     0
 90
        0
 40
-0.6
 41
-30.0
 62
     5
 63
     7
 74
     1
 91
        4
 64
     7
 65
   257
 75
     1
175
     1
 42
1.0
 92
        8
 66
     7
 43
1.0
 76
     1
 77
     6
 78
     2
 67
     7
 79
     5
170
     0
171
     0
290
     0
174
     0
 93
        1
 44
0.0
173
     0
291
     1
 45
0.0
1001
ACAD
1000
AcDbSavedByObjectVersion
1070
     0
  0
VISUALSTYLE
  5
2B
102
{ACAD_REACTORS
330
2A
102
}
330
2A
100
AcDbVisualStyle
  2
Flat
 70
     0
 71
     2
 72
     1
 73
     1
 90
        2
 40
-0.6
 41
30.0
 62
     5
 63
     7
 74
     0
 91
        4
 64
     7
 65
   257
 75
     1
175
     1
 42
1.0
 92
        8
 66
     7
 43
1.0
 76
     1
 77
     6
 78
     2
 67
     7
 79
     5
170
     0
171
     0
290
     0
174
     0
 93
       13
 44
0.0
173
     0
291
     1
 45
0.0
1001
ACAD
1000
AcDbSavedByObjectVersion
1070
     0
  0
VISUALSTYLE
  5
2C
102
{ACAD_REACTORS
330
2A
102
}
330
2A
100
AcDbVisualStyle
  2
FlatWithEdges
 70
     1
 71
     2
 72
     1
 73
     1
 90
        2
 40
-0.6
 41
30.0
 62
     5
 63
     7
 74
     1
 91
        4
 64
     7
 65
   257
 75
     1
175
     1
 42
1.0
 92
        0
 66
   257
 43
1.0
 76
     1
 77
     6
 78
     2
 67
     7
 79
     5
170
     0
171
     0
290
     0
174
     0
 93
       13
 44
0.0
173
     0
291
     1
 45
0.0
1001
ACAD
1000
AcDbSavedByObjectVersion
1070
     0
  0
VISUALSTYLE
  5
2D
102
{ACAD_REACTORS
330
2A
102
}
330
2A
100
AcDbVisualStyle
  2
Gouraud
 70
     2
 71
     2
 72
     2
 73
     1
 90
        2
 40
-0.6
 41
30.0
 62
     5
 63
     7
 74
     0
 91
        4
 64
     7
 65
   257
 75
     1
175
     1
 42
1.0
 92
        0
 66
     7
 43
1.0
 76
     1
 77
     6
 78
     2
 67
     7
 79
     5
170
     0
171
     0
290
     0
174
     0
 93
       13
 44
0.0
173
     0
291
     1
 45
0.0
1001
ACAD
1000
AcDbSavedByObjectVersion
1070
     0
  0
VISUALSTYLE
  5
2E
102
{ACAD_REACTORS
330
2A
102
}
330
2A
100
AcDbVisualStyle
  2
GouraudWithEdges
 70
     3
 71
     2
 72
     2
 73
     1
 90
        2
 40
-0.6
 41
30.0
 62
     5
 63
     7
 74
     1
 91
        4
 64
     7
 65
   257
 75
     1
175
     1
 42
1.0
 92
        0
 66
   257
 43
1.0
 76
     1
 77
     6
 78
     2
 67
     7
 79
     5
170
     0
171
     0
290
     0
174
     0
 93
       13
 44
0.0
173
     0
291
     1
 45
0.0
1001
ACAD
1000
AcDbSavedByObjectVersion
1070
     0
  0
VISUALSTYLE
  5
38
102
{ACAD_REACTORS
330
2A
102
}
330
2A
100
AcDbVisualStyle
  2
Linepattern
 70
    14
 71
     2
 72
     2
 73
     0
 90
        0
 40
-0.6
 41
-30.0
 62
     5
 63
     7
 74
     1
 91
        4
 64
     7
 65
   257
 75
     7
175
     7
 42
1.0
 92
        8
 66
     7
 43
1.0
 76
     1
 77
     6
 78
     2
 67
     7
 79
     5
170
     0
171
     0
290
     0
174
     0
 93
        1
 44
0.0
173
     0
291
     1
 45
0.0
1001
ACAD
1000
AcDbSavedByObjectVersion
1070
     0
  0
VISUALSTYLE
  5
33
102
{ACAD_REACTORS
330
2A
102
}
330
2A
100
AcDbVisualStyle
  2
Realistic
 70
     8
 71
     2
 72
     2
 73
     0
 90
        0
 40
-0.6
 41
-30.0
 62
     5
 63
     7
 74
     1
 91
        0
 64
     7
 65
   257
 75
     1
175
     1
 42
1.0
 92
        8
 66
     8
 43
1.0
 76
     1
 77
     6
 78
     2
 67
     7
 79
     5
170
     0
171
     0
290
     0
174
     0
 93
       13
 44
0.0
173
     0
291
     0
 45
0.0
1001
ACAD
1000
AcDbSavedByObjectVersion
1070
     0
  0
VISUALSTYLE
  5
37
102
{ACAD_REACTORS
330
2A
102
}
330
2A
100
AcDbVisualStyle
  2
Thicken
 70
    13
 71
     2
 72
     2
 73
     0
 90
        0
 40
-0.6
 41
-30.0
 62
     5
 63
     7
 74
     1
 91
        4
 64
     7
 65
   257
 75
     1
175
     1
 42
1.0
 92
       12
 66
     7
 43
1.0
 76
     1
 77
     6
 78
     2
 67
     7
 79
     5
170
     0
171
     0
290
     0
174
     0
 93
        1
 44
0.0
173
     0
291
     1
 45
0.0
1001
ACAD
1000
AcDbSavedByObjectVersion
1070
     0
  0
DICTIONARYVAR
  5
263
102
{ACAD_REACTORS
330
262
102
}
330
262
100
DictionaryVariables
280
     0
  1
1:1
  0
DICTIONARYVAR
  5
267
102
{ACAD_REACTORS
330
262
102
}
330
262
100
DictionaryVariables
280
     0
  1
80.000000
  0
DICTIONARYVAR
  5
266
102
{ACAD_REACTORS
330
262
102
}
330
262
100
DictionaryVariables
280
     0
  1
5.000000
  0
ENDSEC
  0
EOF
