  0
SECTION
  2
HEADER
  9
$ACADVER
  1
AC1015
  9
$ACADMAINTVER
 70
     6
  9
$DWGCODEPAGE
  3
ANSI_1252
  9
$INSBASE
 10
0.0
 20
0.0
 30
0.0
  9
$EXTMIN
 10
0.0
 20
0.0
 30
0.0
  9
$EXTMAX
 10
297.0
 20
210.0
 30
0.0
  9
$LIMMIN
 10
0.0
 20
0.0
  9
$LIMMAX
 10
297.0
 20
210.0
  9
$ORTHOMODE
 70
     0
  9
$REGENMODE
 70
     1
  9
$FILLMODE
 70
     1
  9
$QTEXTMODE
 70
     0
  9
$MIRRTEXT
 70
     1
  9
$LTSCALE
 40
1.0
  9
$ATTMODE
 70
     1
  9
$TEXTSIZE
 40
2.0
  9
$TRACEWID
 40
1.0
  9
$TEXTSTYLE
  7
Standard
  9
$CLAYER
  8
0
  9
$CELTYPE
  6
ByLayer
  9
$CECOLOR
 62
   256
  9
$CELTSCALE
 40
1.0
  9
$DISPSILH
 70
     0
  9
$DIMSCALE
 40
1.0
  9
$DIMASZ
 40
3.0
  9
$DIMEXO
 40
0.0
  9
$DIMDLI
 40
3.75
  9
$DIMRND
 40
0.0
  9
$DIMDLE
 40
0.0
  9
$DIMEXE
 40
1.0
  9
$DIMTP
 40
0.0
  9
$DIMTM
 40
0.0
  9
$DIMTXT
 40
2.0
  9
$DIMCEN
 40
2.5
  9
$DIMTSZ
 40
0.0
  9
$DIMTOL
 70
     0
  9
$DIMLIM
 70
     0
  9
$DIMTIH
 70
     1
  9
$DIMTOH
 70
     1
  9
$DIMSE1
 70
     0
  9
$DIMSE2
 70
     0
  9
$DIMTAD
 70
     1
  9
$DIMZIN
 70
     0
  9
$DIMBLK
  1

  9
$DIMASO
 70
     1
  9
$DIMSHO
 70
     1
  9
$DIMPOST
  1

  9
$DIMAPOST
  1

  9
$DIMALT
 70
     0
  9
$DIMALTD
 70
     3
  9
$DIMALTF
 40
0.0393700787
  9
$DIMLFAC
 40
1.0
  9
$DIMTOFL
 70
     1
  9
$DIMTVP
 40
0.0
  9
$DIMTIX
 70
     0
  9
$DIMSOXD
 70
     0
  9
$DIMSAH
 70
     0
  9
$DIMBLK1
  1

  9
$DIMBLK2
  1

  9
$DIMSTYLE
  2
ISO-25
  9
$DIMCLRD
 70
     0
  9
$DIMCLRE
 70
     0
  9
$DIMCLRT
 70
     0
  9
$DIMTFAC
 40
1.0
  9
$DIMGAP
 40
1.524
  9
$DIMJUST
 70
     0
  9
$DIMSD1
 70
     0
  9
$DIMSD2
 70
     0
  9
$DIMTOLJ
 70
     0
  9
$DIMTZIN
 70
     0
  9
$DIMALTZ
 70
     0
  9
$DIMALTTZ
 70
     0
  9
$DIMUPT
 70
     0
  9
$DIMDEC
 70
     2
  9
$DIMTDEC
 70
     3
  9
$DIMALTU
 70
     2
  9
$DIMALTTD
 70
     3
  9
$DIMTXSTY
  7
Standard
  9
$DIMAUNIT
 70
     0
  9
$DIMADEC
 70
     2
  9
$DIMALTRND
 40
0.0
  9
$DIMAZIN
 70
     0
  9
$DIMDSEP
 70
    44
  9
$DIMATFIT
 70
     3
  9
$DIMFRAC
 70
     0
  9
$DIMLDRBLK
  1

  9
$DIMLUNIT
 70
     2
  9
$DIMLWD
 70
    -2
  9
$DIMLWE
 70
    -2
  9
$DIMTMOVE
 70
     0
  9
$LUNITS
 70
     2
  9
$LUPREC
 70
     2
  9
$SKETCHINC
 40
1.0
  9
$FILLETRAD
 40
10.0
  9
$AUNITS
 70
     0
  9
$AUPREC
 70
     2
  9
$MENU
  1
.
  9
$ELEVATION
 40
0.0
  9
$PELEVATION
 40
0.0
  9
$THICKNESS
 40
0.0
  9
$LIMCHECK
 70
     0
  9
$CHAMFERA
 40
10.0
  9
$CHAMFERB
 40
10.0
  9
$CHAMFERC
 40
20.0
  9
$CHAMFERD
 40
0.0
  9
$SKPOLY
 70
     0
  9
$TDCREATE
 40
2456091.456136875
  9
$TDUCREATE
 40
2456091.372803542
  9
$TDUPDATE
 40
2456091.456138507
  9
$TDUUPDATE
 40
2456091.372805174
  9
$TDINDWG
 40
0.0000000116
  9
$TDUSRTIMER
 40
0.0000000116
  9
$USRTIMER
 70
     1
  9
$ANGBASE
 50
0.0
  9
$ANGDIR
 70
     0
  9
$PDMODE
 70
     0
  9
$PDSIZE
 40
-1.0
  9
$PLINEWID
 40
0.0
  9
$SPLFRAME
 70
     0
  9
$SPLINETYPE
 70
     6
  9
$SPLINESEGS
 70
     8
  9
$HANDSEED
  5
2AE
  9
$SURFTAB1
 70
     6
  9
$SURFTAB2
 70
     6
  9
$SURFTYPE
 70
     6
  9
$SURFU
 70
     6
  9
$SURFV
 70
     6
  9
$UCSBASE
  2

  9
$UCSNAME
  2

  9
$UCSORG
 10
0.0
 20
0.0
 30
0.0
  9
$UCSXDIR
 10
1.0
 20
0.0
 30
0.0
  9
$UCSYDIR
 10
0.0
 20
1.0
 30
0.0
  9
$UCSORTHOREF
  2

  9
$UCSORTHOVIEW
 70
     0
  9
$UCSORGTOP
 10
0.0
 20
0.0
 30
0.0
  9
$UCSORGBOTTOM
 10
0.0
 20
0.0
 30
0.0
  9
$UCSORGLEFT
 10
0.0
 20
0.0
 30
0.0
  9
$UCSORGRIGHT
 10
0.0
 20
0.0
 30
0.0
  9
$UCSORGFRONT
 10
0.0
 20
0.0
 30
0.0
  9
$UCSORGBACK
 10
0.0
 20
0.0
 30
0.0
  9
$PUCSBASE
  2

  9
$PUCSNAME
  2

  9
$PUCSORG
 10
0.0
 20
0.0
 30
0.0
  9
$PUCSXDIR
 10
1.0
 20
0.0
 30
0.0
  9
$PUCSYDIR
 10
0.0
 20
1.0
 30
0.0
  9
$PUCSORTHOREF
  2

  9
$PUCSORTHOVIEW
 70
     0
  9
$PUCSORGTOP
 10
0.0
 20
0.0
 30
0.0
  9
$PUCSORGBOTTOM
 10
0.0
 20
0.0
 30
0.0
  9
$PUCSORGLEFT
 10
0.0
 20
0.0
 30
0.0
  9
$PUCSORGRIGHT
 10
0.0
 20
0.0
 30
0.0
  9
$PUCSORGFRONT
 10
0.0
 20
0.0
 30
0.0
  9
$PUCSORGBACK
 10
0.0
 20
0.0
 30
0.0
  9
$USERI1
 70
     0
  9
$USERI2
 70
     0
  9
$USERI3
 70
     0
  9
$USERI4
 70
     0
  9
$USERI5
 70
     0
  9
$USERR1
 40
0.0
  9
$USERR2
 40
0.0
  9
$USERR3
 40
0.0
  9
$USERR4
 40
0.0
  9
$USERR5
 40
0.0
  9
$WORLDVIEW
 70
     1
  9
$SHADEDGE
 70
     3
  9
$SHADEDIF
 70
    70
  9
$TILEMODE
 70
     1
  9
$MAXACTVP
 70
    64
  9
$PINSBASE
 10
0.0
 20
0.0
 30
0.0
  9
$PLIMCHECK
 70
     0
  9
$PEXTMIN
 10
1.0000000000E+20
 20
1.0000000000E+20
 30
1.0000000000E+20
  9
$PEXTMAX
 10
-1.0000000000E+20
 20
-1.0000000000E+20
 30
-1.0000000000E+20
  9
$PLIMMIN
 10
0.0
 20
0.0
  9
$PLIMMAX
 10
420.0
 20
297.0
  9
$UNITMODE
 70
     0
  9
$VISRETAIN
 70
     1
  9
$PLINEGEN
 70
     0
  9
$PSLTSCALE
 70
     1
  9
$TREEDEPTH
 70
  3020
  9
$CMLSTYLE
  2
Standard
  9
$CMLJUST
 70
     0
  9
$CMLSCALE
 40
20.0
  9
$PROXYGRAPHICS
 70
     1
  9
$MEASUREMENT
 70
     1
  9
$CELWEIGHT
370
    -1
  9
$ENDCAPS
280
     0
  9
$JOINSTYLE
280
     0
  9
$LWDISPLAY
290
     1
  9
$INSUNITS
 70
     4
  9
$HYPERLINKBASE
  1

  9
$STYLESHEET
  1

  9
$XEDIT
290
     1
  9
$CEPSNTYPE
380
     0
  9
$PSTYLEMODE
290
     1
  9
$FINGERPRINTGUID
  2
{B07F67FC-E25E-442F-A231-1E52D992A91A}
  9
$VERSIONGUID
  2
{FAEB1C32-E019-11D5-929B-00C0DF256EC4}
  9
$EXTNAMES
290
     1
  9
$PSVPSCALE
 40
0.0
  9
$OLESTARTUP
290
     0
  0
ENDSEC
  0
SECTION
  2
CLASSES
  0
CLASS
  1
ACDBDICTIONARYWDFLT
  2
AcDbDictionaryWithDefault
  3
ObjectDBX Classes
 90
        0
280
     0
281
     0
  0
CLASS
  1
VISUALSTYLE
  2
AcDbVisualStyle
  3
ObjectDBX Classes
 90
     4095
280
     0
281
     0
  0
CLASS
  1
MATERIAL
  2
AcDbMaterial
  3
ObjectDBX Classes
 90
     1153
280
     0
281
     0
  0
CLASS
  1
ACDBPLACEHOLDER
  2
AcDbPlaceHolder
  3
ObjectDBX Classes
 90
        0
280
     0
281
     0
  0
CLASS
  1
LAYOUT
  2
AcDbLayout
  3
ObjectDBX Classes
 90
        0
280
     0
281
     0
  0
ENDSEC
  0
SECTION
  2
TABLES
  0
TABLE
  2
VPORT
  5
8
330
0
100
AcDbSymbolTable
 70
     1
  0
VPORT
  5
29
330
8
100
AcDbSymbolTableRecord
100
AcDbViewportTableRecord
  2
*Active
 70
     0
 10
0.0
 20
0.0
 11
1.0
 21
1.0
 12
148.5
 22
105.0
 13
0.0
 23
0.0
 14
10.0
 24
10.0
 15
10.0
 25
10.0
 16
0.0
 26
0.0
 36
1.0
 17
0.0
 27
0.0
 37
0.0
 40
210.0
 41
1.4142857143
 42
50.0
 43
0.0
 44
0.0
 50
0.0
 51
0.0
 71
     0
 72
  2000
 73
     1
 74
     3
 75
     0
 76
     0
 77
     0
 78
     0
281
     0
 65
     1
110
0.0
120
0.0
130
0.0
111
1.0
121
0.0
131
0.0
112
0.0
122
1.0
132
0.0
 79
     0
146
0.0
  0
ENDTAB
  0
TABLE
  2
LTYPE
  5
5
330
0
100
AcDbSymbolTable
 70
     6
  0
LTYPE
  5
14
330
5
100
AcDbSymbolTableRecord
100
AcDbLinetypeTableRecord
  2
ByBlock
 70
     0
  3

 72
    65
 73
     0
 40
0.0
  0
LTYPE
  5
15
330
5
100
AcDbSymbolTableRecord
100
AcDbLinetypeTableRecord
  2
ByLayer
 70
     0
  3

 72
    65
 73
     0
 40
0.0
  0
LTYPE
  5
16
330
5
100
AcDbSymbolTableRecord
100
AcDbLinetypeTableRecord
  2
Continuous
 70
     0
  3
Solid line
 72
    65
 73
     0
 40
0.0
  0
LTYPE
  5
3F
330
5
100
AcDbSymbolTableRecord
100
AcDbLinetypeTableRecord
  2
HIDDEN
 70
     0
  3
Hidden __ __ __ __ __ __ __ __ __ __ __ __ __ __
 72
    65
 73
     2
 40
1.905
 49
1.27
 74
     0
 49
-0.635
 74
     0
  0
LTYPE
  5
40
330
5
100
AcDbSymbolTableRecord
100
AcDbLinetypeTableRecord
  2
PHANTOM
 70
     0
  3
Phantom ______  __  __  ______  __  __  ______
 72
    65
 73
     6
 40
12.7
 49
6.35
 74
     0
 49
-1.27
 74
     0
 49
1.27
 74
     0
 49
-1.27
 74
     0
 49
1.27
 74
     0
 49
-1.27
 74
     0
  0
LTYPE
  5
41
330
5
100
AcDbSymbolTableRecord
100
AcDbLinetypeTableRecord
  2
CENTER
 70
     0
  3
Center ____ _ ____ _ ____ _ ____ _ ____ _ ____
 72
    65
 73
     4
 40
10.16
 49
6.35
 74
     0
 49
-1.27
 74
     0
 49
1.27
 74
     0
 49
-1.27
 74
     0
  0
LTYPE
  5
42
330
5
100
AcDbSymbolTableRecord
100
AcDbLinetypeTableRecord
  2
CENTERX2
 70
     0
  3
Center (2x) ________  __  ________  __  _____
 72
    65
 73
     4
 40
20.32
 49
12.7
 74
     0
 49
-2.54
 74
     0
 49
2.54
 74
     0
 49
-2.54
 74
     0
  0
LTYPE
  5
43
330
5
100
AcDbSymbolTableRecord
100
AcDbLinetypeTableRecord
  2
DOT2
 70
     0
  3
Dot (.5x) ........................................
 72
    65
 73
     2
 40
0.635
 49
0.0
 74
     0
 49
-0.635
 74
     0
  0
ENDTAB
  0
TABLE
  2
LAYER
  5
2
330
0
100
AcDbSymbolTable
 70
     5
  0
LAYER
  5
10
330
2
100
AcDbSymbolTableRecord
100
AcDbLayerTableRecord
  2
0
 70
     0
 62
     7
  6
Continuous
370
    -3
390
F
  0
LAYER
  5
44
330
2
100
AcDbSymbolTableRecord
100
AcDbLayerTableRecord
  2
FORMAT
 70
     0
 62
     7
  6
Continuous
370
    -3
390
F
  0
LAYER
  5
45
330
2
100
AcDbSymbolTableRecord
100
AcDbLayerTableRecord
  2
VERMASSUNG
 70
     0
 62
     7
  6
Continuous
370
    -3
390
F
  0
LAYER
  5
46
330
2
100
AcDbSymbolTableRecord
100
AcDbLayerTableRecord
  2
KOPF_DÜNN
 70
     0
 62
     7
  6
Continuous
370
    -3
390
F
  0
LAYER
  5
47
330
2
100
AcDbSymbolTableRecord
100
AcDbLayerTableRecord
  2
KOPF_DICK
 70
     0
 62
     7
  6
Continuous
370
    15
390
F
  0
ENDTAB
  0
TABLE
  2
STYLE
  5
3
330
0
100
AcDbSymbolTable
 70
     3
  0
STYLE
  5
11
330
3
100
AcDbSymbolTableRecord
100
AcDbTextStyleTableRecord
  2
Standard
 70
     0
 40
0.0
 41
1.0
 50
0.0
 71
     0
 42
2.0
  3
txt
  4

  0
STYLE
  5
48
330
3
100
AcDbSymbolTableRecord
100
AcDbTextStyleTableRecord
  2
SLDTEXTSTYLE0
 70
     0
 40
0.0
 41
0.7
 50
0.0
 71
     0
 42
0.2
  3
TXT
  4

  0
STYLE
  5
4C
330
3
100
AcDbSymbolTableRecord
100
AcDbTextStyleTableRecord
  2
SLDTEXTSTYLE1
 70
     0
 40
0.0
 41
0.6470588235
 50
0.0
 71
     0
 42
0.2
  3
TXT
  4

  0
ENDTAB
  0
TABLE
  2
VIEW
  5
6
330
0
100
AcDbSymbolTable
 70
     0
  0
ENDTAB
  0
TABLE
  2
UCS
  5
7
330
0
100
AcDbSymbolTable
 70
     0
  0
ENDTAB
  0
TABLE
  2
APPID
  5
9
330
0
100
AcDbSymbolTable
 70
     1
  0
APPID
  5
12
330
9
100
AcDbSymbolTableRecord
100
AcDbRegAppTableRecord
  2
ACAD
 70
     0
  0
ENDTAB
  0
TABLE
  2
DIMSTYLE
  5
A
330
0
100
AcDbSymbolTable
 70
     5
100
AcDbDimStyleTable
  0
DIMSTYLE
105
27
330
A
100
AcDbSymbolTableRecord
100
AcDbDimStyleTableRecord
  2
ISO-25
 70
     0
 41
2.5
 42
0.625
 43
3.75
 44
1.25
 73
     0
 74
     0
 77
     1
 78
     8
140
2.5
141
2.5
143
0.0393700787
147
0.625
171
     3
172
     1
178
     0
271
     2
272
     2
274
     3
278
    44
283
     0
284
     8
340
11
  0
DIMSTYLE
105
214
102
{ACAD_REACTORS
330
213
330
21E
330
228
330
23C
330
247
102
}
330
A
100
AcDbSymbolTableRecord
100
AcDbDimStyleTableRecord
  2
SLDDIMSTYLE0
 70
     0
 41
3.0
 44
0.0
 45
0.000000001
 73
     0
 74
     0
 77
     1
 78
    12
 79
     3
140
2.0
147
0.5
173
     1
178
     0
271
     2
272
     3
276
     2
284
    12
340
48
  0
DIMSTYLE
105
233
102
{ACAD_REACTORS
330
232
102
}
330
A
100
AcDbSymbolTableRecord
100
AcDbDimStyleTableRecord
  2
SLDDIMSTYLE1
 70
     0
 41
3.0
 44
0.0
 73
     0
 74
     0
 77
     1
 78
    12
 79
     3
140
2.0
147
0.5
173
     1
178
     0
179
     1
272
     3
276
     2
284
    12
340
48
  0
DIMSTYLE
105
286
102
{ACAD_REACTORS
330
285
102
}
330
A
100
AcDbSymbolTableRecord
100
AcDbDimStyleTableRecord
  2
SLDDIMSTYLE2
 70
     0
 41
3.0
 44
0.0
 45
0.000000001
 73
     0
 74
     0
 77
     1
 78
    12
 79
     3
140
2.0
147
0.5
172
     1
173
     1
178
     0
271
     2
272
     3
276
     2
284
    12
289
     0
340
48
  0
DIMSTYLE
105
295
102
{ACAD_REACTORS
330
294
102
}
330
A
100
AcDbSymbolTableRecord
100
AcDbDimStyleTableRecord
  2
SLDDIMSTYLE3
 70
     0
 41
3.0
 44
0.0
 73
     0
 74
     0
 77
     1
 78
    12
 79
     3
140
2.0
147
0.5
173
     1
178
     0
179
     2
272
     3
276
     2
284
    12
340
48
  0
ENDTAB
  0
TABLE
  2
BLOCK_RECORD
  5
1
330
0
100
AcDbSymbolTable
 70
    10
  0
BLOCK_RECORD
  5
1F
330
1
100
AcDbSymbolTableRecord
100
AcDbBlockTableRecord
  2
*Model_Space
340
22
  0
BLOCK_RECORD
  5
1B
330
1
100
AcDbSymbolTableRecord
100
AcDbBlockTableRecord
  2
*Paper_Space
340
1E
  0
BLOCK_RECORD
  5
23
330
1
100
AcDbSymbolTableRecord
100
AcDbBlockTableRecord
  2
*Paper_Space0
340
26
  0
BLOCK_RECORD
  5
215
330
1
100
AcDbSymbolTableRecord
100
AcDbBlockTableRecord
  2
_D
340
0
  0
BLOCK_RECORD
  5
21F
330
1
100
AcDbSymbolTableRecord
100
AcDbBlockTableRecord
  2
_D_1
340
0
  0
BLOCK_RECORD
  5
229
330
1
100
AcDbSymbolTableRecord
100
AcDbBlockTableRecord
  2
_D_2
340
0
  0
BLOCK_RECORD
  5
234
330
1
100
AcDbSymbolTableRecord
100
AcDbBlockTableRecord
  2
_D_3
340
0
  0
BLOCK_RECORD
  5
23D
330
1
100
AcDbSymbolTableRecord
100
AcDbBlockTableRecord
  2
_D_4
340
0
  0
BLOCK_RECORD
  5
248
330
1
100
AcDbSymbolTableRecord
100
AcDbBlockTableRecord
  2
_D_5
340
0
  0
BLOCK_RECORD
  5
287
330
1
100
AcDbSymbolTableRecord
100
AcDbBlockTableRecord
  2
_D_6
340
0
  0
BLOCK_RECORD
  5
296
330
1
100
AcDbSymbolTableRecord
100
AcDbBlockTableRecord
  2
_D_7
340
0
  0
BLOCK_RECORD
  5
2A1
330
1
100
AcDbSymbolTableRecord
100
AcDbBlockTableRecord
  2
SW_CENTERMARKSYMBOL_0
340
0
102
{BLKREFS
331
2AC
102
}
  0
ENDTAB
  0
ENDSEC
  0
SECTION
  2
BLOCKS
  0
BLOCK
  5
20
330
1F
100
AcDbEntity
  8
0
100
AcDbBlockBegin
  2
*Model_Space
 70
     0
 10
0.0
 20
0.0
 30
0.0
  3
*Model_Space
  1

  0
ENDBLK
  5
21
330
1F
100
AcDbEntity
  8
0
100
AcDbBlockEnd
  0
BLOCK
  5
1C
330
1B
100
AcDbEntity
 67
     1
  8
0
100
AcDbBlockBegin
  2
*Paper_Space
 70
     0
 10
0.0
 20
0.0
 30
0.0
  3
*Paper_Space
  1

  0
ENDBLK
  5
1D
330
1B
100
AcDbEntity
 67
     1
  8
0
100
AcDbBlockEnd
  0
BLOCK
  5
24
330
23
100
AcDbEntity
  8
0
100
AcDbBlockBegin
  2
*Paper_Space0
 70
     0
 10
0.0
 20
0.0
 30
0.0
  3
*Paper_Space0
  1

  0
ENDBLK
  5
25
330
23
100
AcDbEntity
  8
0
100
AcDbBlockEnd
  0
BLOCK
  5
216
330
215
100
AcDbEntity
  8
0
100
AcDbBlockBegin
  2
_D
 70
     0
 10
0.0
 20
0.0
 30
0.0
  3
_D
  1

  0
SOLID
  5
218
330
215
100
AcDbEntity
  8
VERMASSUNG
100
AcDbTrace
 10
278.4887513819
 20
128.8568843673
 30
0.0
 11
278.0387513819
 21
125.8568843673
 31
0.0
 12
278.9387513819
 22
125.8568843673
 32
0.0
 13
278.9387513819
 23
125.8568843673
 33
0.0
  0
SOLID
  5
219
330
215
100
AcDbEntity
  8
VERMASSUNG
100
AcDbTrace
 10
278.4887513819
 20
111.8568843673
 30
0.0
 11
278.9387513819
 21
114.8568843673
 31
0.0
 12
278.0387513819
 22
114.8568843673
 32
0.0
 13
278.0387513819
 23
114.8568843673
 33
0.0
  0
LINE
  5
21A
330
215
100
AcDbEntity
  8
VERMASSUNG
100
AcDbLine
 10
262.341109528
 20
128.8568843673
 30
0.0
 11
279.4887513819
 21
128.8568843673
 31
0.0
  0
LINE
  5
21B
330
215
100
AcDbEntity
  8
VERMASSUNG
100
AcDbLine
 10
262.341109528
 20
111.8568843673
 30
0.0
 11
279.4887513819
 21
111.8568843673
 31
0.0
  0
LINE
  5
21C
330
215
100
AcDbEntity
  8
VERMASSUNG
100
AcDbLine
 10
278.4887513819
 20
128.8568843673
 30
0.0
 11
278.4887513819
 21
111.8568843673
 31
0.0
  0
MTEXT
  5
21D
330
215
100
AcDbEntity
  8
VERMASSUNG
100
AcDbMText
 10
275.9106160187
 20
118.2568842094
 30
0.1
 40
2.0
 41
0.0
 71
     1
 72
     1
  1
17
  7
SLDTEXTSTYLE0
 11
-7.044195017643634E-15
 21
1.0
 31
0.0
 73
     1
 44
1.0
  0
ENDBLK
  5
217
330
215
100
AcDbEntity
  8
0
100
AcDbBlockEnd
  0
BLOCK
  5
220
330
21F
100
AcDbEntity
  8
0
100
AcDbBlockBegin
  2
_D_1
 70
     0
 10
0.0
 20
0.0
 30
0.0
  3
_D_1
  1

  0
SOLID
  5
222
330
21F
100
AcDbEntity
  8
VERMASSUNG
100
AcDbTrace
 10
262.341109528
 20
141.8568843673
 30
0.0
 11
259.341109528
 21
142.3068843673
 31
0.0
 12
259.341109528
 22
141.4068843673
 32
0.0
 13
259.341109528
 23
141.4068843673
 33
0.0
  0
SOLID
  5
223
330
21F
100
AcDbEntity
  8
VERMASSUNG
100
AcDbTrace
 10
122.341109528
 20
141.8568843673
 30
0.0
 11
125.341109528
 21
141.4068843673
 31
0.0
 12
125.341109528
 22
142.3068843673
 32
0.0
 13
125.341109528
 23
142.3068843673
 33
0.0
  0
LINE
  5
224
330
21F
100
AcDbEntity
  8
VERMASSUNG
100
AcDbLine
 10
262.341109528
 20
128.8568843673
 30
0.0
 11
262.341109528
 21
142.8568843673
 31
0.0
  0
LINE
  5
225
330
21F
100
AcDbEntity
  8
VERMASSUNG
100
AcDbLine
 10
122.341109528
 20
131.5568843673
 30
0.0
 11
122.341109528
 21
142.8568843673
 31
0.0
  0
LINE
  5
226
330
21F
100
AcDbEntity
  8
VERMASSUNG
100
AcDbLine
 10
262.341109528
 20
141.8568843673
 30
0.0
 11
122.341109528
 21
141.8568843673
 31
0.0
  0
MTEXT
  5
227
330
21F
100
AcDbEntity
  8
VERMASSUNG
100
AcDbMText
 10
189.4411093321
 20
144.4350197305
 30
0.1
 40
2.0
 41
0.0
 71
     1
 72
     1
  1
140
  7
SLDTEXTSTYLE0
 73
     1
 44
1.0
  0
ENDBLK
  5
221
330
21F
100
AcDbEntity
  8
0
100
AcDbBlockEnd
  0
BLOCK
  5
22A
330
229
100
AcDbEntity
  8
0
100
AcDbBlockBegin
  2
_D_2
 70
     0
 10
0.0
 20
0.0
 30
0.0
  3
_D_2
  1

  0
SOLID
  5
22C
330
229
100
AcDbEntity
  8
VERMASSUNG
100
AcDbTrace
 10
102.441109528
 20
149.9991190507
 30
0.0
 11
105.441109528
 21
149.5491190507
 31
0.0
 12
105.441109528
 22
150.4491190507
 32
0.0
 13
105.441109528
 23
150.4491190507
 33
0.0
  0
SOLID
  5
22D
330
229
100
AcDbEntity
  8
VERMASSUNG
100
AcDbTrace
 10
262.341109528
 20
149.9991190507
 30
0.0
 11
259.341109528
 21
150.4491190507
 31
0.0
 12
259.341109528
 22
149.5491190507
 32
0.0
 13
259.341109528
 23
149.5491190507
 33
0.0
  0
LINE
  5
22E
330
229
100
AcDbEntity
  8
VERMASSUNG
100
AcDbLine
 10
102.441109528
 20
123.7868843673
 30
0.0
 11
102.441109528
 21
150.9991190507
 31
0.0
  0
LINE
  5
22F
330
229
100
AcDbEntity
  8
VERMASSUNG
100
AcDbLine
 10
262.341109528
 20
128.8568843673
 30
0.0
 11
262.341109528
 21
150.9991190507
 31
0.0
  0
LINE
  5
230
330
229
100
AcDbEntity
  8
VERMASSUNG
100
AcDbLine
 10
102.441109528
 20
149.9991190507
 30
0.0
 11
262.341109528
 21
149.9991190507
 31
0.0
  0
MTEXT
  5
231
330
229
100
AcDbEntity
  8
VERMASSUNG
100
AcDbMText
 10
178.5911094639
 20
152.5772544139
 30
0.1
 40
2.0
 41
0.0
 71
     1
 72
     1
  1
159.9
  7
SLDTEXTSTYLE0
 73
     1
 44
1.0
  0
ENDBLK
  5
22B
330
229
100
AcDbEntity
  8
0
100
AcDbBlockEnd
  0
BLOCK
  5
235
330
234
100
AcDbEntity
  8
0
100
AcDbBlockBegin
  2
_D_3
 70
     0
 10
0.0
 20
0.0
 30
0.0
  3
_D_3
  1

  0
ARC
  5
237
330
234
100
AcDbEntity
  8
VERMASSUNG
100
AcDbCircle
 10
262.4866406936
 20
128.8568843673
 30
0.0
 40
11.03314011186683
100
AcDbArc
 50
252.4598841946
 51
0.0
  0
SOLID
  5
238
330
234
100
AcDbEntity
  8
VERMASSUNG
100
AcDbTrace
 10
259.1615449353
 20
118.3367171193
 30
0.0
 11
262.0389283991
 21
117.3759026718
 31
0.0
 12
262.1941969354
 22
118.2624079914
 32
0.0
 13
262.1941969354
 23
118.2624079914
 33
0.0
  0
SOLID
  5
239
330
234
100
AcDbEntity
  8
VERMASSUNG
100
AcDbTrace
 10
273.5197808055
 20
128.8568843673
 30
0.0
 11
272.676674151
 21
125.9428371527
 31
0.0
 12
273.5687562672
 22
125.8237174738
 32
0.0
 13
273.5687562672
 23
125.8237174738
 33
0.0
  0
LINE
  5
23A
330
234
100
AcDbEntity
  8
VERMASSUNG
100
AcDbLine
 10
271.6554408103
 20
128.8568843673
 30
0.0
 11
274.5197808055
 21
128.8568843673
 31
0.0
  0
MTEXT
  5
23B
330
234
100
AcDbEntity
  8
VERMASSUNG
100
AcDbMText
 10
263.9345124406
 20
119.4361215269
 30
0.1
 40
2.0
 41
0.0
 71
     1
 72
     1
  1
107.5°
  7
SLDTEXTSTYLE0
 11
0.8066515584257054
 21
0.5910272948767941
 31
0.0
 73
     1
 44
1.0
  0
ENDBLK
  5
236
330
234
100
AcDbEntity
  8
0
100
AcDbBlockEnd
  0
BLOCK
  5
23E
330
23D
100
AcDbEntity
  8
0
100
AcDbBlockBegin
  2
_D_4
 70
     0
 10
0.0
 20
0.0
 30
0.0
  3
_D_4
  1

  0
SOLID
  5
240
330
23D
100
AcDbEntity
  8
VERMASSUNG
100
AcDbTrace
 10
162.7074026634
 20
124.3568843673
 30
0.0
 11
162.2574026634
 21
121.3568843673
 31
0.0
 12
163.1574026634
 22
121.3568843673
 32
0.0
 13
163.1574026634
 23
121.3568843673
 33
0.0
  0
SOLID
  5
241
330
23D
100
AcDbEntity
  8
VERMASSUNG
100
AcDbTrace
 10
162.7074026634
 20
99.3568843673
 30
0.0
 11
163.1574026634
 21
102.3568843673
 31
0.0
 12
162.2574026634
 22
102.3568843673
 32
0.0
 13
162.2574026634
 23
102.3568843673
 33
0.0
  0
LINE
  5
242
330
23D
100
AcDbEntity
  8
VERMASSUNG
100
AcDbLine
 10
145.291109528
 20
124.3568843673
 30
0.0
 11
163.7074026634
 21
124.3568843673
 31
0.0
  0
LINE
  5
243
330
23D
100
AcDbEntity
  8
VERMASSUNG
100
AcDbLine
 10
145.291109528
 20
99.3568843673
 30
0.0
 11
163.7074026634
 21
99.3568843673
 31
0.0
  0
LINE
  5
244
330
23D
100
AcDbEntity
  8
VERMASSUNG
100
AcDbLine
 10
162.7074026634
 20
124.3568843673
 30
0.0
 11
162.7074026634
 21
99.3568843673
 31
0.0
  0
MTEXT
  5
245
330
23D
100
AcDbEntity
  8
VERMASSUNG
100
AcDbMText
 10
160.1292671838
 20
101.9223522659
 30
0.1
 40
2.0
 41
0.0
 71
     1
 72
     1
  1
%%c
  7
SLDTEXTSTYLE0
 11
-7.044195017643634E-15
 21
1.0
 31
0.0
 73
     1
 44
1.0
  0
MTEXT
  5
246
330
23D
100
AcDbEntity
  8
VERMASSUNG
100
AcDbMText
 10
159.9292671743
 20
105.5323522802
 30
0.1
 40
2.0
 41
0.0
 71
     1
 72
     1
  1
25
  7
SLDTEXTSTYLE0
 11
-7.044195017643634E-15
 21
1.0
 31
0.0
 73
     1
 44
1.0
  0
ENDBLK
  5
23F
330
23D
100
AcDbEntity
  8
0
100
AcDbBlockEnd
  0
BLOCK
  5
249
330
248
100
AcDbEntity
  8
0
100
AcDbBlockBegin
  2
_D_5
 70
     0
 10
0.0
 20
0.0
 30
0.0
  3
_D_5
  1

  0
SOLID
  5
24B
330
248
100
AcDbEntity
  8
VERMASSUNG
100
AcDbTrace
 10
92.441109528
 20
131.8568843673
 30
0.0
 11
91.991109528
 21
128.8568843673
 31
0.0
 12
92.891109528
 22
128.8568843673
 32
0.0
 13
92.891109528
 23
128.8568843673
 33
0.0
  0
SOLID
  5
24C
330
248
100
AcDbEntity
  8
VERMASSUNG
100
AcDbTrace
 10
92.441109528
 20
91.8568843673
 30
0.0
 11
92.891109528
 21
94.8568843673
 31
0.0
 12
91.991109528
 22
94.8568843673
 32
0.0
 13
91.991109528
 23
94.8568843673
 33
0.0
  0
LINE
  5
24D
330
248
100
AcDbEntity
  8
VERMASSUNG
100
AcDbLine
 10
122.641109528
 20
131.8568843673
 30
0.0
 11
91.441109528
 21
131.8568843673
 31
0.0
  0
LINE
  5
24E
330
248
100
AcDbEntity
  8
VERMASSUNG
100
AcDbLine
 10
122.641109528
 20
91.8568843673
 30
0.0
 11
91.441109528
 21
91.8568843673
 31
0.0
  0
LINE
  5
24F
330
248
100
AcDbEntity
  8
VERMASSUNG
100
AcDbLine
 10
92.441109528
 20
131.8568843673
 30
0.0
 11
92.441109528
 21
91.8568843673
 31
0.0
  0
MTEXT
  5
250
330
248
100
AcDbEntity
  8
VERMASSUNG
100
AcDbMText
 10
89.662974039
 20
103.8518837164
 30
0.1
 40
2.0
 41
0.0
 71
     1
 72
     1
  1
HSK T
  7
SLDTEXTSTYLE0
 11
-7.044195017643634E-15
 21
1.0
 31
0.0
 73
     1
 44
1.0
  0
MTEXT
  5
251
330
248
100
AcDbEntity
  8
VERMASSUNG
100
AcDbMText
 10
89.8629740485
 20
111.4518838446
 30
0.1
 40
2.0
 41
0.0
 71
     1
 72
     1
  1
%%c
  7
SLDTEXTSTYLE0
 11
-7.044195017643634E-15
 21
1.0
 31
0.0
 73
     1
 44
1.0
  0
MTEXT
  5
252
330
248
100
AcDbEntity
  8
VERMASSUNG
100
AcDbMText
 10
89.662974039
 20
115.0618838589
 30
0.1
 40
2.0
 41
0.0
 71
     1
 72
     1
  1
40
  7
SLDTEXTSTYLE0
 11
-7.044195017643634E-15
 21
1.0
 31
0.0
 73
     1
 44
1.0
  0
ENDBLK
  5
24A
330
248
100
AcDbEntity
  8
0
100
AcDbBlockEnd
  0
BLOCK
  5
288
330
287
100
AcDbEntity
  8
0
100
AcDbBlockBegin
  2
_D_6
 70
     0
 10
0.0
 20
0.0
 30
0.0
  3
_D_6
  1

  0
SOLID
  5
28A
330
287
100
AcDbEntity
  8
VERMASSUNG
100
AcDbTrace
 10
59.5100067141
 20
99.0384165945
 30
0.0
 11
60.6202952824
 21
96.2153403831
 31
0.0
 12
61.3997181458
 22
96.6653403831
 32
0.0
 13
61.3997181458
 23
96.6653403831
 33
0.0
  0
SOLID
  5
28B
330
287
100
AcDbEntity
  8
VERMASSUNG
100
AcDbTrace
 10
43.5100067141
 20
126.7512295156
 30
0.0
 11
42.3997181458
 21
129.5743057269
 31
0.0
 12
41.6202952824
 22
129.1243057269
 32
0.0
 13
41.6202952824
 23
129.1243057269
 33
0.0
  0
LINE
  5
28C
330
287
100
AcDbEntity
  8
VERMASSUNG
100
AcDbLine
 10
59.1509727029
 20
98.8311282115
 30
0.0
 11
60.3760321179
 21
99.5384165945
 31
0.0
  0
LINE
  5
28D
330
287
100
AcDbEntity
  8
VERMASSUNG
100
AcDbLine
 10
43.1509727029
 20
126.5439411326
 30
0.0
 11
44.3760321179
 21
127.2512295156
 31
0.0
  0
LINE
  5
28E
330
287
100
AcDbEntity
  8
VERMASSUNG
100
AcDbLine
 10
59.5100067141
 20
99.0384165945
 30
0.0
 11
62.5100067141
 21
93.8422641718
 31
0.0
  0
LINE
  5
28F
330
287
100
AcDbEntity
  8
VERMASSUNG
100
AcDbLine
 10
59.5100067141
 20
99.0384165945
 30
0.0
 11
43.5100067141
 21
126.7512295156
 31
0.0
  0
LINE
  5
290
330
287
100
AcDbEntity
  8
VERMASSUNG
100
AcDbLine
 10
43.5100067141
 20
126.7512295156
 30
0.0
 11
34.9034048682
 21
141.6583011932
 31
0.0
  0
MTEXT
  5
291
330
287
100
AcDbEntity
  8
VERMASSUNG
100
AcDbMText
 10
37.1361356878
 20
142.947368933
 30
0.1
 40
2.0
 41
0.0
 71
     1
 72
     1
  1
%%c
  7
SLDTEXTSTYLE0
 11
0.4999999999999991
 21
-0.8660254037844392
 31
0.0
 73
     1
 44
1.0
  0
MTEXT
  5
292
330
287
100
AcDbEntity
  8
VERMASSUNG
100
AcDbMText
 10
39.114340784
 20
139.9210172177
 30
0.1
 40
2.0
 41
0.0
 71
     1
 72
     1
  1
32
  7
SLDTEXTSTYLE0
 11
0.4999999999999991
 21
-0.8660254037844392
 31
0.0
 73
     1
 44
1.0
  0
MTEXT
  5
293
330
287
100
AcDbEntity
  8
VERMASSUNG
100
AcDbMText
 10
42.0080910678
 20
134.9088947016
 30
0.1
 40
2.0
 41
0.0
 71
     1
 72
     1
  1
min.
  7
SLDTEXTSTYLE0
 11
0.4999999999999991
 21
-0.8660254037844392
 31
0.0
 73
     1
 44
1.0
  0
ENDBLK
  5
289
330
287
100
AcDbEntity
  8
0
100
AcDbBlockEnd
  0
BLOCK
  5
297
330
296
100
AcDbEntity
  8
0
100
AcDbBlockBegin
  2
_D_7
 70
     0
 10
0.0
 20
0.0
 30
0.0
  3
_D_7
  1

  0
ARC
  5
299
330
296
100
AcDbEntity
  8
VERMASSUNG
100
AcDbCircle
 10
51.1509727029
 20
124.5562082595
 30
0.0
 40
38.92740730614456
100
AcDbArc
 50
266.0
 51
270.0
  0
ARC
  5
29A
330
296
100
AcDbEntity
  8
VERMASSUNG
100
AcDbCircle
 10
51.1509727029
 20
124.5562082595
 30
0.0
 40
38.92740730614457
100
AcDbArc
 50
253.7835676453
 51
266.0
  0
ARC
  5
29B
330
296
100
AcDbEntity
  8
VERMASSUNG
100
AcDbCircle
 10
51.1509727029
 20
124.5562082595
 30
0.0
 40
38.92740730614457
100
AcDbArc
 50
270.0
 51
278.8072222513
  0
SOLID
  5
29C
330
296
100
AcDbEntity
  8
VERMASSUNG
100
AcDbTrace
 10
48.4355340372
 20
85.723626161
 30
0.0
 11
45.5017271452
 21
86.4951682015
 31
0.0
 12
45.4044740381
 22
85.6004381678
 32
0.0
 13
45.4044740381
 23
85.6004381678
 33
0.0
  0
SOLID
  5
29D
330
296
100
AcDbEntity
  8
VERMASSUNG
100
AcDbTrace
 10
51.1509727029
 20
85.6288009533
 30
0.0
 11
54.1660560322
 21
85.2944769826
 31
0.0
 12
54.1314530409
 22
86.1938115327
 32
0.0
 13
54.1314530409
 23
86.1938115327
 33
0.0
  0
LINE
  5
29E
330
296
100
AcDbEntity
  8
VERMASSUNG
100
AcDbLine
 10
49.3625442839
 20
98.980490315
 30
0.0
 11
48.3657775635
 21
84.7260621108
 31
0.0
  0
LINE
  5
29F
330
296
100
AcDbEntity
  8
VERMASSUNG
100
AcDbLine
 10
51.1509727029
 20
89.3568843673
 30
0.0
 11
51.1509727029
 21
84.6288009533
 31
0.0
  0
MTEXT
  5
2A0
330
296
100
AcDbEntity
  8
VERMASSUNG
100
AcDbMText
 10
40.8336140961
 20
89.626111174
 30
-60.0238209269
 40
2.0
 41
0.0
 71
     1
 72
     1
  1
4°
  7
SLDTEXTSTYLE0
 11
0.9750135248597266
 21
-0.2221455071357763
 31
0.0
 73
     1
 44
1.0
  0
ENDBLK
  5
298
330
296
100
AcDbEntity
  8
0
100
AcDbBlockEnd
  0
BLOCK
  5
2A2
330
2A1
100
AcDbEntity
  8
0
100
AcDbBlockBegin
  2
SW_CENTERMARKSYMBOL_0
 70
     0
 10
0.0
 20
0.0
 30
0.0
  3
SW_CENTERMARKSYMBOL_0
  1

  0
LINE
  5
2A4
330
2A1
100
AcDbEntity
  8
VERMASSUNG
 62
     0
100
AcDbLine
 10
0.0
 20
0.0
 30
0.0
 11
0.0
 21
2.5
 31
0.0
  0
LINE
  5
2A5
330
2A1
100
AcDbEntity
  8
VERMASSUNG
 62
     0
100
AcDbLine
 10
0.0
 20
0.0
 30
0.0
 11
-2.5
 21
0.0
 31
0.0
  0
LINE
  5
2A6
330
2A1
100
AcDbEntity
  8
VERMASSUNG
 62
     0
100
AcDbLine
 10
0.0
 20
0.0
 30
0.0
 11
0.0
 21
-2.5
 31
0.0
  0
LINE
  5
2A7
330
2A1
100
AcDbEntity
  8
VERMASSUNG
 62
     0
100
AcDbLine
 10
0.0
 20
0.0
 30
0.0
 11
2.5
 21
0.0
 31
0.0
  0
LINE
  5
2A8
330
2A1
100
AcDbEntity
  8
VERMASSUNG
 62
     0
100
AcDbLine
 10
0.0
 20
5.0
 30
0.0
 11
0.0
 21
22.5
 31
0.0
  0
LINE
  5
2A9
330
2A1
100
AcDbEntity
  8
VERMASSUNG
 62
     0
100
AcDbLine
 10
-5.0
 20
0.0
 30
0.0
 11
-22.5
 21
0.0
 31
0.0
  0
LINE
  5
2AA
330
2A1
100
AcDbEntity
  8
VERMASSUNG
 62
     0
100
AcDbLine
 10
0.0
 20
-5.0
 30
0.0
 11
0.0
 21
-22.5
 31
0.0
  0
LINE
  5
2AB
330
2A1
100
AcDbEntity
  8
VERMASSUNG
 62
     0
100
AcDbLine
 10
5.0
 20
0.0
 30
0.0
 11
22.5
 21
0.0
 31
0.0
  0
ENDBLK
  5
2A3
330
2A1
100
AcDbEntity
  8
0
100
AcDbBlockEnd
  0
ENDSEC
  0
SECTION
  2
ENTITIES
  0
MTEXT
  5
49
330
1F
100
AcDbEntity
  8
KOPF_DÜNN
100
AcDbMText
 10
13.8892156294
 20
23.8442973028
 30
0.0
 40
3.0
 41
0.0
 71
     1
 72
     1
  1
HA4.BDB.RLA.140
  7
SLDTEXTSTYLE0
 73
     1
 44
1.0
  0
MTEXT
  5
4A
330
1F
100
AcDbEntity
  8
VERMASSUNG
100
AcDbMText
 10
13.9329988022
 20
28.8834360957
 30
0.0
 40
3.0
 41
0.0
 71
     1
 72
     1
  1
Bohrstange rechts_Boring bar right
  7
SLDTEXTSTYLE0
 73
     1
 44
1.0
  0
MTEXT
  5
4B
330
1F
100
AcDbEntity
  8
VERMASSUNG
100
AcDbMText
 10
98.8601118557
 20
13.8365368179
 30
0.0
 40
2.0
 41
0.0
 71
     1
 72
     1
  1
Datum: 12.06.2012
  7
SLDTEXTSTYLE0
 73
     1
 44
1.0
  0
MTEXT
  5
4D
330
1F
100
AcDbEntity
  8
VERMASSUNG
100
AcDbMText
 10
13.933048693
 20
18.0482802738
 30
0.0
 40
2.0
 41
0.0
 71
     1
 72
     1
  1
DIN 69893 HSK T 40  / DC.. 11 T3..
  7
SLDTEXTSTYLE1
 73
     1
 44
1.0
  0
MTEXT
  5
4E
330
1F
100
AcDbEntity
  8
VERMASSUNG
100
AcDbMText
 10
13.9808475933
 20
13.9090973692
 30
0.0
 40
2.0
 41
0.0
 71
     1
 72
     1
  1
Gewicht: 581g
  7
SLDTEXTSTYLE0
 73
     1
 44
1.0
  0
LINE
  5
4F
330
1F
100
AcDbEntity
  8
0
  6
Continuous
 62
     7
370
    15
100
AcDbLine
 10
122.6411095423
 20
91.8568848144
 30
0.0
 11
130.2911099929
 21
91.8568848144
 31
0.0
  0
LINE
  5
50
330
1F
100
AcDbEntity
  8
0
  6
Continuous
 62
     7
370
    15
100
AcDbLine
 10
130.3452570874
 20
131.8568839203
 30
0.0
 11
122.6411095423
 21
131.8568839203
 31
0.0
  0
ARC
  5
51
330
1F
100
AcDbEntity
  8
0
  6
Continuous
 62
     7
370
    15
100
AcDbCircle
 10
122.641109528
 20
92.1568843673
 30
0.0
 40
0.3000000000000114
100
AcDbArc
 50
180.0
 51
270.0
  0
ARC
  5
52
330
1F
100
AcDbEntity
  8
0
  6
Continuous
 62
     7
370
    15
100
AcDbCircle
 10
122.641109528
 20
131.5568843673
 30
0.0
 40
0.3000000000000114
100
AcDbArc
 50
90.0
 51
180.0
  0
ARC
  5
53
330
1F
100
AcDbEntity
  8
0
  6
Continuous
 62
     7
370
    15
100
AcDbCircle
 10
121.8411027753
 20
96.4031772139
 30
0.0
 40
0.6000067526677124
100
AcDbArc
 50
33.5571153394
 51
90.0
  0
ARC
  5
54
330
1F
100
AcDbEntity
  8
0
  6
Continuous
 62
     7
370
    15
100
AcDbCircle
 10
121.8411027753
 20
127.3105915208
 30
0.0
 40
0.6000067526677045
100
AcDbArc
 50
270.0
 51
326.4428846606
  0
ARC
  5
55
330
1F
100
AcDbEntity
  8
0
  6
Continuous
 62
     7
370
    15
100
AcDbCircle
 10
145.291109528
 20
96.3568843673
 30
0.0
 40
3.0
100
AcDbArc
 50
90.0
 51
180.0
  0
ARC
  5
56
330
1F
100
AcDbEntity
  8
0
  6
Continuous
 62
     7
370
    15
100
AcDbCircle
 10
145.291109528
 20
127.3568843673
 30
0.0
 40
3.0
100
AcDbArc
 50
180.0
 51
270.0
  0
LINE
  5
57
330
1F
100
AcDbEntity
  8
0
  6
Continuous
 62
     7
370
    15
100
AcDbLine
 10
120.341109433
 20
96.7531837966
 30
0.0
 11
121.1978214279
 21
96.9827389787
 31
0.0
  0
LINE
  5
58
330
1F
100
AcDbEntity
  8
0
  6
Continuous
 62
     7
370
    15
100
AcDbLine
 10
121.1978214279
 20
126.7310297559
 30
0.0
 11
120.341109433
 21
126.9605849381
 31
0.0
  0
LINE
  5
59
330
1F
100
AcDbEntity
  8
0
  6
Continuous
 62
     7
370
    15
100
AcDbLine
 10
113.5768928516
 20
126.621696211
 30
0.0
 11
106.0411092777
 21
126.244152009
 31
0.0
  0
LINE
  5
5A
330
1F
100
AcDbEntity
  8
0
  6
Continuous
 62
     7
370
    15
100
AcDbLine
 10
120.341109433
 20
126.9605849381
 30
0.0
 11
119.0538013771
 21
126.8960899185
 31
0.0
  0
LINE
  5
5B
330
1F
100
AcDbEntity
  8
0
  6
Continuous
 62
     7
370
    15
100
AcDbLine
 10
119.0538893871
 20
96.8176741596
 30
0.0
 11
120.341109433
 21
96.7531837966
 31
0.0
  0
LINE
  5
5C
330
1F
100
AcDbEntity
  8
0
  6
Continuous
 62
     7
370
    15
100
AcDbLine
 10
108.5411096874
 20
97.3443659465
 30
0.0
 11
113.5782153297
 21
97.0920063998
 31
0.0
  0
ARC
  5
5D
330
1F
100
AcDbEntity
  8
0
  6
Continuous
 62
     7
370
    15
100
AcDbCircle
 10
121.3531146175
 20
96.4031772139
 30
0.0
 40
0.6000067526676959
100
AcDbArc
 50
90.0
 51
105.0
  0
ARC
  5
5E
330
1F
100
AcDbEntity
  8
0
  6
Continuous
 62
     7
370
    15
100
AcDbCircle
 10
121.3531146175
 20
127.3105915208
 30
0.0
 40
0.6000067526676822
100
AcDbArc
 50
255.0
 51
270.0
  0
LINE
  5
5F
330
1F
100
AcDbEntity
  8
0
  6
Continuous
 62
     7
370
    15
100
AcDbLine
 10
121.3531145777
 20
97.0031843032
 30
0.0
 11
121.8411027522
 21
97.0031843032
 31
0.0
  0
LINE
  5
60
330
1F
100
AcDbEntity
  8
0
  6
Continuous
 62
     7
370
    15
100
AcDbLine
 10
121.8411027522
 20
126.7105844314
 30
0.0
 11
121.3531145777
 21
126.7105844314
 31
0.0
  0
LINE
  5
61
330
1F
100
AcDbEntity
  8
0
  6
Continuous
 62
     7
370
    15
100
AcDbLine
 10
236.458314671
 20
124.3568845536
 30
0.0
 11
145.2911087263
 21
124.3568845536
 31
0.0
  0
LINE
  5
62
330
1F
100
AcDbEntity
  8
0
  6
Continuous
 62
     7
370
    15
100
AcDbLine
 10
237.9268986124
 20
124.3568845536
 30
0.0
 11
236.458314671
 21
124.3568845536
 31
0.0
  0
LINE
  5
63
330
1F
100
AcDbEntity
  8
0
  6
Continuous
 62
     7
370
    15
100
AcDbLine
 10
145.2911087263
 20
99.3568841811
 30
0.0
 11
237.9268986124
 21
99.3568841811
 31
0.0
  0
ARC
  5
64
330
1F
100
AcDbEntity
  8
0
  6
Continuous
 62
     7
370
    15
100
AcDbCircle
 10
105.141109528
 20
125.6368843673
 30
0.0
 40
0.9000000000000199
100
AcDbArc
 50
270.0
 51
311.1792132368
  0
ARC
  5
65
330
1F
100
AcDbEntity
  8
0
  6
Continuous
 62
     7
370
    15
100
AcDbCircle
 10
107.641109528
 20
98.0768843673
 30
0.0
 40
0.8999999999999877
100
AcDbArc
 50
34.6391318474
 51
90.0
  0
LINE
  5
66
330
1F
100
AcDbEntity
  8
0
  6
Continuous
 62
     7
370
    15
100
AcDbLine
 10
103.3911091227
 20
124.7368846531
 30
0.0
 11
102.4411098052
 21
123.7868844043
 31
0.0
  0
LINE
  5
67
330
1F
100
AcDbEntity
  8
0
  6
Continuous
 62
     7
370
    15
100
AcDbLine
 10
105.1411089439
 20
124.7368846531
 30
0.0
 11
103.3911091227
 21
124.7368846531
 31
0.0
  0
LINE
  5
68
330
1F
100
AcDbEntity
  8
0
  6
Continuous
 62
     7
370
    15
100
AcDbLine
 10
103.4501102704
 20
98.9768840815
 30
0.0
 11
107.6411093537
 21
98.9768840815
 31
0.0
  0
LINE
  5
69
330
1F
100
AcDbEntity
  8
0
  6
Continuous
 62
     7
370
    15
100
AcDbLine
 10
102.4411098052
 20
99.9858845468
 30
0.0
 11
103.4501102704
 21
98.9768840815
 31
0.0
  0
ARC
  5
6A
330
1F
100
AcDbEntity
  8
0
  6
Continuous
 62
     7
370
    15
100
AcDbCircle
 10
237.9268959656
 20
98.3568843673
 30
0.0
 40
0.999999999999998
100
AcDbArc
 50
45.0
 51
90.0
  0
LINE
  5
6B
330
1F
100
AcDbEntity
  8
0
  6
Continuous
 62
     7
370
    15
100
AcDbLine
 10
238.6340034146
 20
99.0639916132
 30
0.0
 11
238.8411072034
 21
98.8568840991
 31
0.0
  0
LINE
  5
6C
330
1F
100
AcDbEntity
  8
0
  6
Continuous
 62
     7
370
    15
100
AcDbLine
 10
238.8411072034
 20
98.8568840991
 30
0.0
 11
252.6102197308
 21
98.8568840991
 31
0.0
  0
LINE
  5
6D
330
1F
100
AcDbEntity
  8
0
  6
Continuous
 62
     7
370
    15
100
AcDbLine
 10
253.9645117659
 20
121.5559216659
 30
0.0
 11
253.9645117659
 21
121.6479624133
 31
0.0
  0
LINE
  5
6E
330
1F
100
AcDbEntity
  8
0
  6
Continuous
 62
     7
370
    15
100
AcDbLine
 10
256.3777548212
 20
121.7427244853
 30
0.0
 11
256.3777548212
 21
121.6506539355
 31
0.0
  0
LINE
  5
6F
330
1F
100
AcDbEntity
  8
0
  6
Continuous
 62
     7
370
    15
100
AcDbLine
 10
252.5448334355
 20
121.6838583793
 30
0.0
 11
252.5448334355
 21
121.6333155032
 31
0.0
  0
LINE
  5
70
330
1F
100
AcDbEntity
  8
0
  6
Continuous
 62
     7
370
    15
100
AcDbLine
 10
257.7948254484
 20
121.6333155032
 30
0.0
 11
257.7948254484
 21
121.6838583793
 31
0.0
  0
LINE
  5
71
330
1F
100
AcDbEntity
  8
0
  6
Continuous
 62
     7
370
    15
100
AcDbLine
 10
142.2911100972
 20
93.252851672
 30
0.0
 11
142.2911100972
 21
123.7068847264
 31
0.0
  0
SPLINE
  5
72
330
1F
100
AcDbEntity
  8
0
  6
Continuous
 62
     7
370
    15
100
AcDbSpline
210
0.0
220
0.0
230
1.0
 70
     8
 71
     3
 72
    10
 73
     6
 74
     0
 42
0.00000001
 43
0.00000001
 12
1.0
 22
0.0
 32
0.0
 13
1.0
 23
0.0
 33
0.0
 40
0.0
 40
0.0
 40
0.0
 40
0.0
 40
0.5
 40
0.5
 40
1.0
 40
1.0
 40
1.0
 40
1.0
 10
142.2911095280008
 20
93.25285254623549
 30
0.0
 10
142.2911095280008
 20
93.09177977950608
 30
0.0
 10
142.229305018176
 20
92.931846270995
 30
0.0
 10
142.010089500717
 20
92.69894605703092
 30
0.0
 10
141.8510486606588
 20
92.6279998442926
 30
0.0
 10
141.6911095280008
 20
92.6279998442926
 30
0.0
  0
SPLINE
  5
73
330
1F
100
AcDbEntity
  8
0
  6
Continuous
 62
     7
370
    15
100
AcDbSpline
210
0.0
220
0.0
230
1.0
 70
    24
 71
     3
 72
    12
 73
     8
 74
     0
 42
0.00000001
 43
0.00000001
 12
1.0
 22
0.0
 32
0.0
 13
1.0
 23
0.0
 33
0.0
 40
0.0
 40
0.0
 40
0.0
 40
0.0
 40
0.249999999999998
 40
0.249999999999998
 40
0.499999999999996
 40
0.499999999999996
 40
1.0
 40
1.0
 40
1.0
 40
1.0
 10
141.6911095280008
 20
123.7068843673221
 30
0.0
 10
141.7805719532905
 20
123.7068843673221
 30
0.0
 10
141.8683961974318
 20
123.7068843673221
 30
0.0
 10
142.0215515165352
 20
123.7068843673221
 30
0.0
 10
142.0871886970882
 20
123.7068843673221
 30
0.0
 10
142.2426991284314
 20
123.7068843673221
 30
0.0
 10
142.2911095280008
 20
123.7068843673221
 30
0.0
 10
142.2911095280008
 20
123.7068843673221
 30
0.0
  0
LINE
  5
74
330
1F
100
AcDbEntity
  8
0
  6
Continuous
 62
     7
370
    15
100
AcDbLine
 10
141.6911092538
 20
92.627999417
 30
0.0
 11
140.3762699056
 21
92.627999417
 31
0.0
  0
LINE
  5
75
330
1F
100
AcDbEntity
  8
0
  6
Continuous
 62
     7
370
    15
100
AcDbLine
 10
140.3762699056
 20
92.627999417
 30
0.0
 11
140.3762699056
 21
123.7068847264
 31
0.0
  0
LINE
  5
76
330
1F
100
AcDbEntity
  8
0
  6
Continuous
 62
     7
370
    15
100
AcDbLine
 10
140.3762699056
 20
123.7068847264
 30
0.0
 11
141.6911092538
 21
123.7068847264
 31
0.0
  0
LINE
  5
77
330
1F
100
AcDbEntity
  8
0
  6
Continuous
 62
     7
370
    15
100
AcDbLine
 10
130.2911099929
 20
123.7068847264
 30
0.0
 11
136.305949739
 21
123.7068847264
 31
0.0
  0
LINE
  5
78
330
1F
100
AcDbEntity
  8
0
  6
Continuous
 62
     7
370
    15
100
AcDbLine
 10
136.305949739
 20
92.627999417
 30
0.0
 11
136.305949739
 21
123.7068847264
 31
0.0
  0
LINE
  5
79
330
1F
100
AcDbEntity
  8
0
  6
Continuous
 62
     7
370
    15
100
AcDbLine
 10
136.305949739
 20
92.627999417
 30
0.0
 11
134.7911097992
 21
92.627999417
 31
0.0
  0
SPLINE
  5
7A
330
1F
100
AcDbEntity
  8
0
  6
Continuous
 62
     7
370
    15
100
AcDbSpline
210
0.0
220
0.0
230
1.0
 70
     8
 71
     3
 72
    22
 73
    18
 74
     0
 42
0.00000001
 43
0.00000001
 12
1.0
 22
0.0
 32
0.0
 13
1.0
 23
0.0
 33
0.0
 40
0.0
 40
0.0
 40
0.0
 40
0.0
 40
0.125
 40
0.125
 40
0.25
 40
0.25
 40
0.375
 40
0.375
 40
0.5
 40
0.5
 40
0.625
 40
0.625
 40
0.75
 40
0.75
 40
0.875
 40
0.875
 40
1.0
 40
1.0
 40
1.0
 40
1.0
 10
134.7911095280008
 20
92.6279998442926
 30
0.0
 10
134.4919850989602
 20
92.6279998442926
 30
0.0
 10
134.1981626507114
 20
92.61948574322625
 30
0.0
 10
133.620598374465
 20
92.58704197434436
 30
0.0
 10
133.3337806966511
 20
92.56270808564231
 30
0.0
 10
132.7893181677518
 20
92.50224806088549
 30
0.0
 10
132.5313628971304
 20
92.466334640107
 30
0.0
 10
132.0433049537705
 20
92.38662461403784
 30
0.0
 10
131.8136066551068
 20
92.34274631284852
 30
0.0
 10
131.4011876721542
 20
92.25450269047835
 30
0.0
 10
131.2156607292941
 20
92.20969434901738
 30
0.0
 10
130.8871406843933
 20
92.1223733410982
 30
0.0
 10
130.7487267974938
 20
92.08108255252253
 30
0.0
 10
130.5241346508779
 20
92.0067443292287
 30
0.0
 10
130.4370558387536
 20
91.97333420349405
 30
0.0
 10
130.3205540307986
 20
91.9183148019679
 30
0.0
 10
130.2911095280008
 20
91.89685303550161
 30
0.0
 10
130.2911095280008
 20
91.88190001188381
 30
0.0
  0
LINE
  5
7B
330
1F
100
AcDbEntity
  8
0
  6
Continuous
 62
     7
370
    15
100
AcDbLine
 10
130.2911099929
 20
91.8819001387
 30
0.0
 11
130.2911099929
 21
91.8568848144
 31
0.0
  0
SPLINE
  5
7C
330
1F
100
AcDbEntity
  8
0
  6
Continuous
 62
     7
370
    15
100
AcDbSpline
210
0.0
220
0.0
230
1.0
 70
     8
 71
     3
 72
    12
 73
     8
 74
     0
 42
0.00000001
 43
0.00000001
 12
1.0
 22
0.0
 32
0.0
 13
1.0
 23
0.0
 33
0.0
 40
0.0
 40
0.0
 40
0.0
 40
0.0
 40
0.211117100542305
 40
0.4221029713453049
 40
0.6364761097001761
 40
0.8531927327909691
 40
1.0
 40
1.0
 40
1.0
 40
1.0
 10
134.7911097992019
 20
131.3440604578009
 30
0.0
 10
134.292537999118
 20
131.3555201053284
 30
0.0
 10
133.2957043096452
 20
131.3784322771017
 30
0.0
 10
131.9595973163218
 20
131.5385712609319
 30
0.0
 10
130.9445402391446
 20
131.7139165722346
 30
0.0
 10
130.352455960914
 20
131.8429234734347
 30
0.0
 10
130.3473279916235
 20
131.844272790288
 30
0.0
 10
130.3452570874052
 20
131.8448177050105
 30
0.0
  0
LINE
  5
7D
330
1F
100
AcDbEntity
  8
0
  6
Continuous
 62
     7
370
    15
100
AcDbLine
 10
136.305949739
 20
131.3440604578
 30
0.0
 11
134.7911097992
 21
131.3440604578
 31
0.0
  0
LINE
  5
7E
330
1F
100
AcDbEntity
  8
0
  6
Continuous
 62
     7
370
    15
100
AcDbLine
 10
136.305949739
 20
127.9682936589
 30
0.0
 11
136.305949739
 21
131.3440604578
 31
0.0
  0
LINE
  5
7F
330
1F
100
AcDbEntity
  8
0
  6
Continuous
 62
     7
370
    15
100
AcDbLine
 10
134.7847795997
 20
127.9682936589
 30
0.0
 11
136.305949739
 21
127.9682936589
 31
0.0
  0
SPLINE
  5
80
330
1F
100
AcDbEntity
  8
0
  6
Continuous
 62
     7
370
    15
100
AcDbSpline
210
0.0
220
0.0
230
1.0
 70
     8
 71
     3
 72
    22
 73
    18
 74
     0
 42
0.00000001
 43
0.00000001
 12
1.0
 22
0.0
 32
0.0
 13
1.0
 23
0.0
 33
0.0
 40
0.0
 40
0.0
 40
0.0
 40
0.0
 40
0.2500000000000002
 40
0.2500000000000002
 40
0.3750000000000002
 40
0.3750000000000002
 40
0.5000000000000001
 40
0.5000000000000001
 40
0.6250000000000001
 40
0.6250000000000001
 40
0.7500000000000001
 40
0.7500000000000001
 40
0.8750000000000001
 40
0.8750000000000001
 40
0.9375
 40
0.9375
 40
1.0
 40
1.0
 40
1.0
 40
1.0
 10
130.2911095280008
 20
123.7068843673221
 30
0.0
 10
130.3130905459874
 20
124.2697570092201
 30
0.0
 10
130.3920674293422
 20
124.8003818929496
 30
0.0
 10
130.6384653223745
 20
125.5460928838712
 30
0.0
 10
130.7429899374655
 20
125.7877131102699
 30
0.0
 10
131.004836532772
 20
126.2465718855958
 30
0.0
 10
131.1600531549378
 20
126.4607505580656
 30
0.0
 10
131.5286449080018
 20
126.8579791172111
 30
0.0
 10
131.7447786004667
 20
127.0424239522309
 30
0.0
 10
132.2286730954536
 20
127.3635038001146
 30
0.0
 10
132.4991386404613
 20
127.5028546302206
 30
0.0
 10
133.0953652059715
 20
127.7321601646461
 30
0.0
 10
133.4108584726914
 20
127.8186961741225
 30
0.0
 10
133.91157512071
 20
127.9075857784537
 30
0.0
 10
134.0843715553251
 20
127.9303942843154
 30
0.0
 10
134.4327403281071
 20
127.9606854470116
 30
0.0
 10
134.6081413570176
 20
127.9682933683995
 30
0.0
 10
134.7847800027056
 20
127.9682933683995
 30
0.0
  0
SPLINE
  5
81
330
1F
100
AcDbEntity
  8
0
  6
Continuous
 62
     7
370
    15
100
AcDbSpline
210
0.0
220
0.0
230
1.0
 70
     8
 71
     3
 72
     8
 73
     4
 74
     0
 42
0.00000001
 43
0.00000001
 12
1.0
 22
0.0
 32
0.0
 13
1.0
 23
0.0
 33
0.0
 40
0.0
 40
0.0
 40
0.0
 40
0.0
 40
1.0
 40
1.0
 40
1.0
 40
1.0
 10
140.3762692268942
 20
92.62799984429263
 30
0.0
 10
140.0435639551889
 20
93.22737151751629
 30
0.0
 10
139.7117481546154
 20
93.82724062822133
 30
0.0
 10
139.3811095280008
 20
94.42776097933232
 30
0.0
  0
LINE
  5
82
330
1F
100
AcDbEntity
  8
0
  6
Continuous
 62
     7
370
    15
100
AcDbLine
 10
139.3811088938
 20
94.427761666
 30
0.0
 11
139.3811088938
 21
123.7068847264
 31
0.0
  0
SPLINE
  5
83
330
1F
100
AcDbEntity
  8
0
  6
Continuous
 62
     7
370
    15
100
AcDbSpline
210
0.0
220
0.0
230
1.0
 70
    24
 71
     3
 72
     8
 73
     4
 74
     0
 42
0.00000001
 43
0.00000001
 12
1.0
 22
0.0
 32
0.0
 13
1.0
 23
0.0
 33
0.0
 40
0.0
 40
0.0
 40
0.0
 40
0.0
 40
1.0
 40
1.0
 40
1.0
 40
1.0
 10
139.3811095280008
 20
123.7068843673221
 30
0.0
 10
139.704746183623
 20
123.7068843673221
 30
0.0
 10
140.0372364051397
 20
123.7068843673221
 30
0.0
 10
140.3762692268942
 20
123.7068843673221
 30
0.0
  0
LINE
  5
84
330
1F
100
AcDbEntity
  8
0
  6
Continuous
 62
     7
370
    15
100
AcDbLine
 10
122.341109528
 20
92.1568843047
 30
0.0
 11
122.341109528
 21
131.5568844299
 31
0.0
  0
LINE
  5
85
330
1F
100
AcDbEntity
  8
0
  6
Continuous
 62
     7
370
    15
100
AcDbLine
 10
137.3011098195
 20
94.427761666
 30
0.0
 11
137.3011098195
 21
123.7068847264
 31
0.0
  0
SPLINE
  5
86
330
1F
100
AcDbEntity
  8
0
  6
Continuous
 62
     7
370
    15
100
AcDbSpline
210
0.0
220
0.0
230
1.0
 70
     8
 71
     3
 72
     8
 73
     4
 74
     0
 42
0.00000001
 43
0.00000001
 12
1.0
 22
0.0
 32
0.0
 13
1.0
 23
0.0
 33
0.0
 40
0.0
 40
0.0
 40
0.0
 40
0.0
 40
1.0
 40
1.0
 40
1.0
 40
1.0
 10
137.3011095280008
 20
94.42776097933232
 30
0.0
 10
136.9704709013862
 20
93.82724062822132
 30
0.0
 10
136.6386551008127
 20
93.22737151751629
 30
0.0
 10
136.3059498291073
 20
92.62799984429262
 30
0.0
  0
SPLINE
  5
87
330
1F
100
AcDbEntity
  8
0
  6
Continuous
 62
     7
370
    15
100
AcDbSpline
210
0.0
220
0.0
230
1.0
 70
    24
 71
     3
 72
     8
 73
     4
 74
     0
 42
0.00000001
 43
0.00000001
 12
1.0
 22
0.0
 32
0.0
 13
1.0
 23
0.0
 33
0.0
 40
0.0
 40
0.0
 40
0.0
 40
0.0
 40
1.0
 40
1.0
 40
1.0
 40
1.0
 10
136.3059498291073
 20
123.7068843673221
 30
0.0
 10
136.6449826508619
 20
123.7068843673221
 30
0.0
 10
136.9774728723785
 20
123.7068843673221
 30
0.0
 10
137.3011095280008
 20
123.7068843673221
 30
0.0
  0
SPLINE
  5
88
330
1F
100
AcDbEntity
  8
0
  6
Continuous
 62
     7
370
    15
100
AcDbSpline
210
0.0
220
0.0
230
1.0
 70
    24
 71
     3
 72
    16
 73
    12
 74
     0
 42
0.00000001
 43
0.00000001
 12
1.0
 22
0.0
 32
0.0
 13
1.0
 23
0.0
 33
0.0
 40
0.0
 40
0.0
 40
0.0
 40
0.0
 40
0.4999999999999992
 40
0.4999999999999992
 40
0.7499999999999996
 40
0.7499999999999996
 40
0.8749999999999998
 40
0.8749999999999998
 40
0.9374999999999999
 40
0.9374999999999999
 40
1.0
 40
1.0
 40
1.0
 40
1.0
 10
139.3458871274195
 20
94.95688436732205
 30
0.0
 10
139.3158507078929
 20
94.95688436732203
 30
0.0
 10
139.2692166106881
 20
94.95688436732203
 30
0.0
 10
139.1588321991094
 20
94.95688436732205
 30
0.0
 10
139.1154945505888
 20
94.95688436732205
 30
0.0
 10
139.0270129162042
 20
94.95688436732203
 30
0.0
 10
138.9936374115875
 20
94.95688436732203
 30
0.0
 10
138.929145202137
 20
94.95688436732205
 30
0.0
 10
138.9049408649504
 20
94.95688436732203
 30
0.0
 10
138.84918705514
 20
94.95688436732203
 30
0.0
 10
138.8156030290718
 20
94.95688436732203
 30
0.0
 10
138.7811095280008
 20
94.95688436732205
 30
0.0
  0
SPLINE
  5
89
330
1F
100
AcDbEntity
  8
0
  6
Continuous
 62
     7
370
    15
100
AcDbSpline
210
0.0
220
0.0
230
1.0
 70
    24
 71
     3
 72
    12
 73
     8
 74
     0
 42
0.00000001
 43
0.00000001
 12
1.0
 22
0.0
 32
0.0
 13
1.0
 23
0.0
 33
0.0
 40
0.0
 40
0.0
 40
0.0
 40
0.0
 40
0.250000000000001
 40
0.250000000000001
 40
0.500000000000002
 40
0.500000000000002
 40
1.0
 40
1.0
 40
1.0
 40
1.0
 10
138.7811095280008
 20
123.7068843673221
 30
0.0
 10
138.873767617507
 20
123.7068843673221
 30
0.0
 10
138.9658310270648
 20
123.7068843673221
 30
0.0
 10
139.1199885775555
 20
123.7068843673221
 30
0.0
 10
139.1844775109202
 20
123.7068843673221
 30
0.0
 10
139.3345290598697
 20
123.7068843673221
 30
0.0
 10
139.3811095280008
 20
123.7068843673221
 30
0.0
 10
139.3811095280008
 20
123.7068843673221
 30
0.0
  0
SPLINE
  5
8A
330
1F
100
AcDbEntity
  8
0
  6
Continuous
 62
     7
370
    15
100
AcDbSpline
210
0.0
220
0.0
230
1.0
 70
    24
 71
     3
 72
    16
 73
    12
 74
     0
 42
0.00000001
 43
0.00000001
 12
1.0
 22
0.0
 32
0.0
 13
1.0
 23
0.0
 33
0.0
 40
0.0
 40
0.0
 40
0.0
 40
0.0
 40
0.0624999999999987
 40
0.0624999999999987
 40
0.1249999999999974
 40
0.1249999999999974
 40
0.2499999999999969
 40
0.2499999999999969
 40
0.4999999999999971
 40
0.4999999999999971
 40
1.0
 40
1.0
 40
1.0
 40
1.0
 10
137.9011095280008
 20
94.95688436732202
 30
0.0
 10
137.8660030393867
 20
94.95688436732202
 30
0.0
 10
137.8329083543009
 20
94.95688436732205
 30
0.0
 10
137.776308642375
 20
94.95688436732205
 30
0.0
 10
137.7520065882394
 20
94.95688436732205
 30
0.0
 10
137.6874785995984
 20
94.95688436732205
 30
0.0
 10
137.6538897740822
 20
94.95688436732205
 30
0.0
 10
137.5658503597332
 20
94.95688436732205
 30
0.0
 10
137.5227425958607
 20
94.95688436732205
 30
0.0
 10
137.4123083816875
 20
94.95688436732205
 30
0.0
 10
137.3661283633101
 20
94.95688436732205
 30
0.0
 10
137.3363319285822
 20
94.95688436732205
 30
0.0
  0
SPLINE
  5
8B
330
1F
100
AcDbEntity
  8
0
  6
Continuous
 62
     7
370
    15
100
AcDbSpline
210
0.0
220
0.0
230
1.0
 70
    24
 71
     3
 72
    14
 73
    10
 74
     0
 42
0.00000001
 43
0.00000001
 12
1.0
 22
0.0
 32
0.0
 13
1.0
 23
0.0
 33
0.0
 40
0.0
 40
0.0
 40
0.0
 40
0.0
 40
0.25
 40
0.25
 40
0.5
 40
0.5
 40
0.75
 40
0.75
 40
1.0
 40
1.0
 40
1.0
 40
1.0
 10
137.3011095280008
 20
123.7068843673221
 30
0.0
 10
137.3011095280008
 20
123.7068843673221
 30
0.0
 10
137.3129865392618
 20
123.7068843673221
 30
0.0
 10
137.3615150290416
 20
123.7068843673221
 30
0.0
 10
137.3979334852659
 20
123.7068843673221
 30
0.0
 10
137.4980608197945
 20
123.7068843673221
 30
0.0
 10
137.5612376312305
 20
123.7068843673221
 30
0.0
 10
137.7168081339164
 20
123.7068843673221
 30
0.0
 10
137.8086844816712
 20
123.7068843673221
 30
0.0
 10
137.901109528002
 20
123.7068843673221
 30
0.0
  0
LINE
  5
8C
330
1F
100
AcDbEntity
  8
0
  6
Continuous
 62
     7
370
    15
100
AcDbLine
 10
138.781109913
 20
94.9568851362
 30
0.0
 11
137.9011097316
 21
94.9568851362
 31
0.0
  0
LINE
  5
8D
330
1F
100
AcDbEntity
  8
0
  6
Continuous
 62
     7
370
    15
100
AcDbLine
 10
137.9011097316
 20
123.7068847264
 30
0.0
 11
138.781109913
 21
123.7068847264
 31
0.0
  0
LINE
  5
8E
330
1F
100
AcDbEntity
  8
0
  6
Continuous
 62
     7
370
    15
100
AcDbLine
 10
120.341109433
 20
96.7531837966
 30
0.0
 11
120.341109433
 21
126.9605849381
 31
0.0
  0
LINE
  5
8F
330
1F
100
AcDbEntity
  8
0
  6
Continuous
 62
     7
370
    15
100
AcDbLine
 10
108.5411096874
 20
97.3443659465
 30
0.0
 11
108.5411096874
 21
98.2201379235
 31
0.0
  0
SPLINE
  5
90
330
1F
100
AcDbEntity
  8
0
  6
Continuous
 62
     7
370
    15
100
AcDbSpline
210
0.0
220
0.0
230
1.0
 70
     8
 71
     3
 72
    12
 73
     8
 74
     0
 42
0.00000001
 43
0.00000001
 12
1.0
 22
0.0
 32
0.0
 13
1.0
 23
0.0
 33
0.0
 40
0.0
 40
0.0
 40
0.0
 40
0.0
 40
0.2499999999999998
 40
0.2499999999999998
 40
0.4999999999999996
 40
0.4999999999999996
 40
1.0
 40
1.0
 40
1.0
 40
1.0
 10
108.1733744351439
 20
98.92650850443732
 30
0.0
 10
108.1987986520378
 20
98.85962291136352
 30
0.0
 10
108.2394104916071
 20
98.79517442167992
 30
0.0
 10
108.3240116378793
 20
98.67017376160206
 30
0.0
 10
108.3681084341648
 20
98.60965501640993
 30
0.0
 10
108.4841775426509
 20
98.43344896030152
 30
0.0
 10
108.5411095280008
 20
98.32305454532973
 30
0.0
 10
108.5411095280008
 20
98.22013766923656
 30
0.0
  0
SPLINE
  5
91
330
1F
100
AcDbEntity
  8
0
  6
Continuous
 62
     7
370
    15
100
AcDbSpline
210
0.0
220
0.0
230
1.0
 70
     8
 71
     3
 72
    14
 73
    10
 74
     0
 42
0.00000001
 43
0.00000001
 12
1.0
 22
0.0
 32
0.0
 13
1.0
 23
0.0
 33
0.0
 40
0.0
 40
0.0
 40
0.0
 40
0.0
 40
0.1250000000000015
 40
0.1250000000000015
 40
0.250000000000003
 40
0.250000000000003
 40
0.500000000000002
 40
0.500000000000002
 40
1.0
 40
1.0
 40
1.0
 40
1.0
 10
107.6411095280008
 20
99.41651431981094
 30
0.0
 10
107.6901218508122
 20
99.4210393789661
 30
0.0
 10
107.7429280758075
 20
99.4129199934116
 30
0.0
 10
107.8279951675371
 20
99.38258991826018
 30
0.0
 10
107.8625793528778
 20
99.36193496118372
 30
0.0
 10
107.951135038215
 20
99.2973988378569
 30
0.0
 10
107.9920707395363
 20
99.25016065780429
 30
0.0
 10
108.0959512664392
 20
99.11036455652061
 30
0.0
 10
108.1391750658713
 20
99.01647961765133
 30
0.0
 10
108.1733744351439
 20
98.92650850443731
 30
0.0
  0
SPLINE
  5
92
330
1F
100
AcDbEntity
  8
0
  6
Continuous
 62
     7
370
    15
100
AcDbSpline
210
0.0
220
0.0
230
1.0
 70
     8
 71
     3
 72
    10
 73
     6
 74
     0
 42
0.00000001
 43
0.00000001
 12
1.0
 22
0.0
 32
0.0
 13
1.0
 23
0.0
 33
0.0
 40
0.0
 40
0.0
 40
0.0
 40
0.0
 40
0.5
 40
0.5
 40
1.0
 40
1.0
 40
1.0
 40
1.0
 10
104.7202861363024
 20
99.09026224024439
 30
0.0
 10
105.1931905668921
 20
99.15729515336791
 30
0.0
 10
105.6761954997365
 20
99.21516365453377
 30
0.0
 10
106.6520098780894
 20
99.32200480289399
 30
0.0
 10
107.1454840911134
 20
99.3707557372327
 30
0.0
 10
107.6411095280008
 20
99.41651431981096
 30
0.0
  0
SPLINE
  5
93
330
1F
100
AcDbEntity
  8
0
  6
Continuous
 62
     7
370
    15
100
AcDbSpline
210
0.0
220
0.0
230
1.0
 70
     8
 71
     3
 72
    10
 73
     6
 74
     0
 42
0.00000001
 43
0.00000001
 12
1.0
 22
0.0
 32
0.0
 13
1.0
 23
0.0
 33
0.0
 40
0.0
 40
0.0
 40
0.0
 40
0.0
 40
0.5
 40
0.5
 40
1.0
 40
1.0
 40
1.0
 40
1.0
 10
103.4501095280008
 20
99.00581748976572
 30
0.0
 10
103.6654685585582
 20
99.01283032073626
 30
0.0
 10
103.8799098968822
 20
99.02160504439155
 30
0.0
 10
104.3049011155027
 20
99.04665822193937
 30
0.0
 10
104.5162738472254
 20
99.06134405473969
 30
0.0
 10
104.7202861363023
 20
99.09026224024443
 30
0.0
  0
SPLINE
  5
94
330
1F
100
AcDbEntity
  8
0
  6
Continuous
 62
     7
370
    15
100
AcDbSpline
210
0.0
220
0.0
230
1.0
 70
     8
 71
     3
 72
     8
 73
     4
 74
     0
 42
0.00000001
 43
0.00000001
 12
1.0
 22
0.0
 32
0.0
 13
1.0
 23
0.0
 33
0.0
 40
0.0
 40
0.0
 40
0.0
 40
0.0
 40
1.0
 40
1.0
 40
1.0
 40
1.0
 10
103.3825933784317
 20
99.15370666777848
 30
0.0
 10
103.3967278230598
 20
99.10291034414526
 30
0.0
 10
103.4197851982084
 20
99.05367159358501
 30
0.0
 10
103.4501095280008
 20
99.00581748976576
 30
0.0
  0
ELLIPSE
  5
95
330
1F
100
AcDbEntity
  8
0
  6
Continuous
 62
     7
370
    15
100
AcDbEllipse
 10
89.9143673202
 20
111.2175866895
 30
0.0
 11
13.37355272666622
 21
-13.37146352987017
 31
0.0
210
0.0
220
0.0
230
1.0
 40
0.1761188775
 41
0.3023035477142488
 42
0.3822730435340339
  0
ELLIPSE
  5
96
330
1F
100
AcDbEntity
  8
0
  6
Continuous
 62
     7
370
    15
100
AcDbEllipse
 10
89.8349888895
 20
112.4959948186
 30
0.0
 11
13.369636111343
 21
13.36754752639487
 31
0.0
210
0.0
220
0.0
230
1.0
 40
0.1761188775
 41
5.933076931846601
 42
5.976720052691196
  0
SPLINE
  5
97
330
1F
100
AcDbEntity
  8
0
  6
Continuous
 62
     7
370
    15
100
AcDbSpline
210
0.0
220
0.0
230
1.0
 70
     8
 71
     3
 72
     8
 73
     4
 74
     0
 42
0.00000001
 43
0.00000001
 12
1.0
 22
0.0
 32
0.0
 13
1.0
 23
0.0
 33
0.0
 40
0.0
 40
0.0
 40
0.0
 40
0.0
 40
1.0
 40
1.0
 40
1.0
 40
1.0
 10
103.3911095280008
 20
124.7224649143004
 30
0.0
 10
103.3453446203115
 20
124.6609445351416
 30
0.0
 10
103.3109574986815
 20
124.5970496753921
 30
0.0
 10
103.2919422450086
 20
124.5303197303484
 30
0.0
  0
SPLINE
  5
98
330
1F
100
AcDbEntity
  8
0
  6
Continuous
 62
     7
370
    15
100
AcDbSpline
210
0.0
220
0.0
230
1.0
 70
     8
 71
     3
 72
    12
 73
     8
 74
     0
 42
0.00000001
 43
0.00000001
 12
1.0
 22
0.0
 32
0.0
 13
1.0
 23
0.0
 33
0.0
 40
0.0
 40
0.0
 40
0.0
 40
0.0
 40
0.2500000000000015
 40
0.2500000000000015
 40
0.500000000000003
 40
0.500000000000003
 40
1.0
 40
1.0
 40
1.0
 40
1.0
 10
105.1411095280009
 20
124.6376782259813
 30
0.0
 10
104.9990671248116
 20
124.6535039541575
 30
0.0
 10
104.8549490183075
 20
124.6645250879328
 30
0.0
 10
104.565194504635
 20
124.6830614498
 30
0.0
 10
104.4194526012762
 20
124.6903321555358
 30
0.0
 10
103.9807723620964
 20
124.7087930058638
 30
0.0
 10
103.6863967460251
 20
124.7166718726873
 30
0.0
 10
103.3911095280008
 20
124.7224649143004
 30
0.0
  0
SPLINE
  5
99
330
1F
100
AcDbEntity
  8
0
  6
Continuous
 62
     7
370
    15
100
AcDbSpline
210
0.0
220
0.0
230
1.0
 70
     8
 71
     3
 72
    20
 73
    16
 74
     0
 42
0.00000001
 43
0.00000001
 12
1.0
 22
0.0
 32
0.0
 13
1.0
 23
0.0
 33
0.0
 40
0.0
 40
0.0
 40
0.0
 40
0.0
 40
0.2500000000000012
 40
0.2500000000000012
 40
0.5000000000000024
 40
0.5000000000000024
 40
0.7500000000000037
 40
0.7500000000000037
 40
0.8750000000000042
 40
0.8750000000000042
 40
0.9375000000000021
 40
0.9375000000000021
 40
0.9687500000000011
 40
0.9687500000000011
 40
1.0
 40
1.0
 40
1.0
 40
1.0
 10
106.0411095280017
 20
125.4144084890699
 30
0.0
 10
106.0411095280017
 20
125.3537990893725
 30
0.0
 10
106.0157145084248
 20
125.287973123969
 30
0.0
 10
105.9294213226429
 20
125.1539253546224
 30
0.0
 10
105.8687853439596
 20
125.0852299964806
 30
0.0
 10
105.7206835497383
 20
124.9448314448261
 30
0.0
 10
105.6339139429597
 20
124.8731279402448
 30
0.0
 10
105.4852761476305
 20
124.7669645384959
 30
0.0
 10
105.4329869307443
 20
124.7314361898644
 30
0.0
 10
105.3422231024343
 20
124.6817322593489
 30
0.0
 10
105.3098571099823
 20
124.6654712613338
 30
0.0
 10
105.2521679543161
 20
124.6463586929879
 30
0.0
 10
105.2311809264287
 20
124.6409675509064
 30
0.0
 10
105.1858919474383
 20
124.6352301825139
 30
0.0
 10
105.1628776785998
 20
124.6352529161673
 30
0.0
 10
105.1411095280002
 20
124.6376782259802
 30
0.0
  0
LINE
  5
9A
330
1F
100
AcDbEntity
  8
0
  6
Continuous
 62
     7
370
    15
100
AcDbLine
 10
106.0411092777
 20
125.4144087876
 30
0.0
 11
106.0411092777
 21
126.244152009
 31
0.0
  0
SPLINE
  5
9B
330
1F
100
AcDbEntity
  8
0
  6
Continuous
 62
     7
370
    15
100
AcDbSpline
210
0.0
220
0.0
230
1.0
 70
     8
 71
     3
 72
    18
 73
    14
 74
     0
 42
0.00000001
 43
0.00000001
 12
1.0
 22
0.0
 32
0.0
 13
1.0
 23
0.0
 33
0.0
 40
0.0
 40
0.0
 40
0.0
 40
0.0
 40
0.0647987055308793
 40
0.1911457431666448
 40
0.3159453184352518
 40
0.3775977083606854
 40
0.4397856493455953
 40
0.5017220995336993
 40
0.5630628754677616
 40
0.6866516188868883
 40
0.8118021473332026
 40
0.9380327409414257
 40
1.0
 40
1.0
 40
1.0
 40
1.0
 10
113.5787564281182
 20
97.10280322239312
 30
0.0
 10
113.5681113013294
 20
97.10136851328508
 30
0.0
 10
113.5367098920809
 20
97.09713635252754
 30
0.0
 10
113.9555932402445
 20
97.15795368240548
 30
0.0
 10
114.6001568459032
 20
97.22350381566591
 30
0.0
 10
115.2538182027666
 20
97.25370840833322
 30
0.0
 10
115.7850031912305
 20
97.25728313422916
 30
0.0
 10
116.3364105825933
 20
97.24020267347234
 30
0.0
 10
117.0673124037772
 20
97.18718506706051
 30
0.0
 10
117.9291839056207
 20
97.06940095677146
 30
0.0
 10
118.6954882535453
 20
96.91685930002959
 30
0.0
 10
119.0959677037246
 20
96.81766638882728
 30
0.0
 10
119.0647101970795
 20
96.82561176147745
 30
0.0
 10
119.0544181454734
 20
96.82822790697726
 30
0.0
  0
SPLINE
  5
9C
330
1F
100
AcDbEntity
  8
0
  6
Continuous
 62
     7
370
    15
100
AcDbSpline
210
0.0
220
0.0
230
1.0
 70
     8
 71
     3
 72
    18
 73
    14
 74
     0
 42
0.00000001
 43
0.00000001
 12
1.0
 22
0.0
 32
0.0
 13
1.0
 23
0.0
 33
0.0
 40
0.0
 40
0.0
 40
0.0
 40
0.0
 40
0.0628581906661193
 40
0.188821099002829
 40
0.3136429384039809
 40
0.4369193679427552
 40
0.4982390324135774
 40
0.5602488727579926
 40
0.6224808204920839
 40
0.684256874301895
 40
0.8091590031135478
 40
0.9354526781227457
 40
1.0
 40
1.0
 40
1.0
 40
1.0
 10
119.0543385173933
 20
126.8853685329905
 30
0.0
 10
119.0649985401692
 20
126.8880121660741
 30
0.0
 10
119.097020416628
 20
126.8959534335352
 30
0.0
 10
118.6915465082517
 20
126.7962594594888
 30
0.0
 10
117.9286096483261
 20
126.643842014521
 30
0.0
 10
117.0672070835804
 20
126.5265622480936
 30
0.0
 10
116.3370802335448
 20
126.4736637927816
 30
0.0
 10
115.7853003062159
 20
126.456559347366
 30
0.0
 10
115.2533327868643
 20
126.4601036264982
 30
0.0
 10
114.5987131704819
 20
126.4902943442041
 30
0.0
 10
113.9543074377271
 20
126.555957963873
 30
0.0
 10
113.5368745987924
 20
126.6167834538537
 30
0.0
 10
113.5671870793085
 20
126.6122960660943
 30
0.0
 10
113.5774395379977
 20
126.6107783164135
 30
0.0
  0
SPLINE
  5
9D
330
1F
100
AcDbEntity
  8
0
  6
Continuous
 62
     7
370
    15
100
AcDbSpline
210
0.0
220
0.0
230
1.0
 70
     8
 71
     3
 72
    26
 73
    22
 74
     0
 42
0.00000001
 43
0.00000001
 12
1.0
 22
0.0
 32
0.0
 13
1.0
 23
0.0
 33
0.0
 40
0.0
 40
0.0
 40
0.0
 40
0.0
 40
0.2499999999999971
 40
0.2499999999999971
 40
0.3749999999999958
 40
0.3749999999999958
 40
0.4374999999999952
 40
0.4374999999999952
 40
0.4687499999999964
 40
0.4687499999999964
 40
0.4999999999999977
 40
0.4999999999999977
 40
0.5312499999999989
 40
0.5312499999999989
 40
0.5625
 40
0.5625
 40
0.6250000000000001
 40
0.6250000000000001
 40
0.7500000000000002
 40
0.7500000000000002
 40
1.0
 40
1.0
 40
1.0
 40
1.0
 10
103.2010795743886
 20
124.244964946935
 30
0.0
 10
103.1536914649601
 20
124.1093092049119
 30
0.0
 10
103.0960501630558
 20
123.9653478065827
 30
0.0
 10
102.9740023505125
 20
123.7225752333282
 30
0.0
 10
102.9279533427359
 20
123.6375355928789
 30
0.0
 10
102.8373000585703
 20
123.4971596198385
 30
0.0
 10
102.8029475582847
 20
123.4472482424997
 30
0.0
 10
102.7405123858942
 20
123.3707129776455
 30
0.0
 10
102.7172183670962
 20
123.3443084986586
 30
0.0
 10
102.6681658299696
 20
123.2967137333976
 30
0.0
 10
102.6437343803128
 20
123.2772711195458
 30
0.0
 10
102.603104784693
 20
123.2523633418776
 30
0.0
 10
102.5869425028419
 20
123.2462935105667
 30
0.0
 10
102.5599604587387
 20
123.2406046389729
 30
0.0
 10
102.5492109359159
 20
123.2409951470536
 30
0.0
 10
102.5211749617588
 20
123.247137493842
 30
0.0
 10
102.5083137297261
 20
123.25780150026
 30
0.0
 10
102.4773108685658
 20
123.2968142906202
 30
0.0
 10
102.4664513864967
 20
123.3328662810245
 30
0.0
 10
102.4431741305587
 20
123.4505456785236
 30
0.0
 10
102.4411095280007
 20
123.5418755788566
 30
0.0
 10
102.4411095280007
 20
123.6351158317629
 30
0.0
  0
SPLINE
  5
9E
330
1F
100
AcDbEntity
  8
0
  6
Continuous
 62
     7
370
    15
100
AcDbSpline
210
0.0
220
0.0
230
1.0
 70
     8
 71
     3
 72
    24
 73
    20
 74
     0
 42
0.00000001
 43
0.00000001
 12
1.0
 22
0.0
 32
0.0
 13
1.0
 23
0.0
 33
0.0
 40
0.0
 40
0.0
 40
0.0
 40
0.0
 40
0.2499999999999979
 40
0.2499999999999979
 40
0.3749999999999973
 40
0.3749999999999973
 40
0.4374999999999967
 40
0.4374999999999967
 40
0.4999999999999961
 40
0.4999999999999961
 40
0.5312499999999962
 40
0.5312499999999962
 40
0.5624999999999962
 40
0.5624999999999962
 40
0.6249999999999969
 40
0.6249999999999969
 40
0.7499999999999979
 40
0.7499999999999979
 40
1.0
 40
1.0
 40
1.0
 40
1.0
 10
102.4411095280008
 20
100.3093711661007
 30
0.0
 10
102.4411095280008
 20
100.3942801197703
 30
0.0
 10
102.4438341564332
 20
100.4766098158171
 30
0.0
 10
102.4701914775512
 20
100.5790222032361
 30
0.0
 10
102.4824051958233
 20
100.6098392996205
 30
0.0
 10
102.5170158459558
 20
100.6389368156974
 30
0.0
 10
102.5314025563231
 20
100.6458944563361
 30
0.0
 10
102.5726510394256
 20
100.6447847150592
 30
0.0
 10
102.6011905893564
 20
100.6364913094504
 30
0.0
 10
102.6621132548677
 20
100.5919078755892
 30
0.0
 10
102.6851792250076
 20
100.5714461623319
 30
0.0
 10
102.7290751050138
 20
100.5268335440516
 30
0.0
 10
102.7499551405739
 20
100.5029574658452
 30
0.0
 10
102.807165403867
 20
100.4330603686832
 30
0.0
 10
102.8395120276434
 20
100.3874827798987
 30
0.0
 10
102.9256779711352
 20
100.2585992922799
 30
0.0
 10
102.9713419911753
 20
100.1787661151478
 30
0.0
 10
103.0918895546265
 20
99.95298530603549
 30
0.0
 10
103.1509496433276
 20
99.81815392106417
 30
0.0
 10
103.2010795743886
 20
99.68989878239664
 30
0.0
  0
LINE
  5
9F
330
1F
100
AcDbEntity
  8
0
  6
Continuous
 62
     7
370
    15
100
AcDbLine
 10
102.4411098052
 20
100.3093710612
 30
0.0
 11
102.4411098052
 21
123.6351160775
 31
0.0
  0
LINE
  5
A0
330
1F
100
AcDbEntity
  8
0
  6
Continuous
 62
     7
370
    15
100
AcDbLine
 10
236.6430890698
 20
124.3568761717
 30
0.0
 11
237.9268986124
 21
124.3568761717
 31
0.0
  0
SPLINE
  5
A1
330
1F
100
AcDbEntity
  8
0
  6
Continuous
 62
     7
370
    15
100
AcDbSpline
210
0.0
220
0.0
230
1.0
 70
     8
 71
     3
 72
    14
 73
    10
 74
     0
 42
0.00000001
 43
0.00000001
 12
1.0
 22
0.0
 32
0.0
 13
1.0
 23
0.0
 33
0.0
 40
0.0
 40
0.0
 40
0.0
 40
0.0
 40
0.25
 40
0.25
 40
0.5
 40
0.5
 40
0.75
 40
0.75
 40
1.0
 40
1.0
 40
1.0
 40
1.0
 10
233.7453130130705
 20
124.1513824788524
 30
0.0
 10
233.828834289048
 20
124.2094977794661
 30
0.0
 10
233.9601597666455
 20
124.2515225879973
 30
0.0
 10
234.3227981540398
 20
124.31239391893
 30
0.0
 10
234.5447823847978
 20
124.3297311036334
 30
0.0
 10
235.0681639282741
 20
124.3507811014919
 30
0.0
 10
235.3576643879342
 20
124.3541242316464
 30
0.0
 10
235.9850711352776
 20
124.3571619714929
 30
0.0
 10
236.3105520050479
 20
124.3568765959059
 30
0.0
 10
236.6430904919377
 20
124.3568765959059
 30
0.0
  0
ELLIPSE
  5
A2
330
1F
100
AcDbEntity
  8
0
  6
Continuous
 62
     7
370
    15
100
AcDbEllipse
 10
234.578475014
 20
111.8568843673
 30
0.0
 11
-0.251606368271041
 21
12.49981921343799
 31
0.0
210
0.0
220
0.0
230
1.0
 40
0.2671959542
 41
0.1762003290778045
 42
2.815009419910927
  0
SPLINE
  5
A3
330
1F
100
AcDbEntity
  8
0
  6
Continuous
 62
     7
370
    15
100
AcDbSpline
210
0.0
220
0.0
230
1.0
 70
     8
 71
     3
 72
    14
 73
    10
 74
     0
 42
0.00000001
 43
0.00000001
 12
1.0
 22
0.0
 32
0.0
 13
1.0
 23
0.0
 33
0.0
 40
0.0
 40
0.0
 40
0.0
 40
0.0
 40
0.2500000000000001
 40
0.2500000000000001
 40
0.5
 40
0.5
 40
0.75
 40
0.75
 40
1.0
 40
1.0
 40
1.0
 40
1.0
 10
236.6430904919377
 20
99.48048108588497
 30
0.0
 10
236.310551302284
 20
99.48048108588497
 30
0.0
 10
235.9871819124168
 20
99.48770005459217
 30
0.0
 10
235.3587562428172
 20
99.520688729758
 30
0.0
 10
235.0698101889078
 20
99.54573814518527
 30
0.0
 10
234.5462385056681
 20
99.62320718167689
 30
0.0
 10
234.3236271860852
 20
99.67408378997816
 30
0.0
 10
233.9613854197728
 20
99.8109820237825
 30
0.0
 10
233.828837845071
 20
99.89458162205325
 30
0.0
 10
233.7453130130705
 20
99.99618822185819
 30
0.0
  0
LINE
  5
A4
330
1F
100
AcDbEntity
  8
0
  6
Continuous
 62
     7
370
    15
100
AcDbLine
 10
237.9268986124
 20
99.4804809313
 30
0.0
 11
236.6430890698
 21
99.4804809313
 31
0.0
  0
ELLIPSE
  5
A5
330
1F
100
AcDbEntity
  8
0
  6
Continuous
 62
     7
370
    15
100
AcDbEllipse
 10
232.7111647849
 20
117.4321894744
 30
0.0
 11
0.07031259843779482
 21
2.263843720993506
 31
0.0
210
0.0
220
0.0
230
1.0
 40
0.2654103329
 41
0.0
 42
6.283185307179586
  0
SPLINE
  5
A6
330
1F
100
AcDbEntity
  8
0
  6
Continuous
 62
     7
370
    15
100
AcDbSpline
210
0.0
220
0.0
230
1.0
 70
     8
 71
     3
 72
     8
 73
     4
 74
     0
 42
0.00000001
 43
0.00000001
 12
1.0
 22
0.0
 32
0.0
 13
1.0
 23
0.0
 33
0.0
 40
0.0
 40
0.0
 40
0.0
 40
0.0
 40
1.0
 40
1.0
 40
1.0
 40
1.0
 10
136.3059498291073
 20
127.9682933683995
 30
0.0
 10
136.645372870389
 20
127.2385025068802
 30
0.0
 10
136.977883613884
 20
126.5063341514585
 30
0.0
 10
137.3011095280007
 20
125.7709722667775
 30
0.0
  0
LINE
  5
A7
330
1F
100
AcDbEntity
  8
0
  6
Continuous
 62
     7
370
    15
100
AcDbLine
 10
137.3011098195
 20
125.7709721546
 30
0.0
 11
137.3011098195
 21
125.3727311711
 31
0.0
  0
SPLINE
  5
A8
330
1F
100
AcDbEntity
  8
0
  6
Continuous
 62
     7
370
    15
100
AcDbSpline
210
0.0
220
0.0
230
1.0
 70
     8
 71
     3
 72
    12
 73
     8
 74
     0
 42
0.00000001
 43
0.00000001
 12
1.0
 22
0.0
 32
0.0
 13
1.0
 23
0.0
 33
0.0
 40
0.0
 40
0.0
 40
0.0
 40
0.0
 40
0.5
 40
0.5
 40
0.75
 40
0.75
 40
1.0
 40
1.0
 40
1.0
 40
1.0
 10
137.3011095280008
 20
125.3727315475768
 30
0.0
 10
137.3011095280008
 20
125.1882923219504
 30
0.0
 10
137.3479522224533
 20
125.001383102443
 30
0.0
 10
137.4975042451499
 20
124.7677477498222
 30
0.0
 10
137.5616092404541
 20
124.697498118045
 30
0.0
 10
137.7158381957607
 20
124.5952573690838
 30
0.0
 10
137.8085147036937
 20
124.5638952274734
 30
0.0
 10
137.9011095280004
 20
124.5638952274733
 30
0.0
  0
LINE
  5
A9
330
1F
100
AcDbEntity
  8
0
  6
Continuous
 62
     7
370
    15
100
AcDbLine
 10
137.9011097316
 20
124.5638952102
 30
0.0
 11
138.781109913
 21
124.5638952102
 31
0.0
  0
SPLINE
  5
AA
330
1F
100
AcDbEntity
  8
0
  6
Continuous
 62
     7
370
    15
100
AcDbSpline
210
0.0
220
0.0
230
1.0
 70
     8
 71
     3
 72
    12
 73
     8
 74
     0
 42
0.00000001
 43
0.00000001
 12
1.0
 22
0.0
 32
0.0
 13
1.0
 23
0.0
 33
0.0
 40
0.0
 40
0.0
 40
0.0
 40
0.0
 40
0.250000000000001
 40
0.250000000000001
 40
0.500000000000002
 40
0.500000000000002
 40
1.0
 40
1.0
 40
1.0
 40
1.0
 10
138.7811095280008
 20
124.5638952274733
 30
0.0
 10
138.8736514947226
 20
124.5638952274733
 30
0.0
 10
138.965860871867
 20
124.5949285743896
 30
0.0
 10
139.1209978322439
 20
124.6977394402144
 30
0.0
 10
139.1848077297049
 20
124.7679122545601
 30
0.0
 10
139.333934165506
 20
125.000824738088
 30
0.0
 10
139.3811095280008
 20
125.1876201001579
 30
0.0
 10
139.3811095280008
 20
125.3727315475768
 30
0.0
  0
LINE
  5
AB
330
1F
100
AcDbEntity
  8
0
  6
Continuous
 62
     7
370
    15
100
AcDbLine
 10
139.3811088938
 20
125.3727311711
 30
0.0
 11
139.3811088938
 21
125.7709721546
 31
0.0
  0
SPLINE
  5
AC
330
1F
100
AcDbEntity
  8
0
  6
Continuous
 62
     7
370
    15
100
AcDbSpline
210
0.0
220
0.0
230
1.0
 70
     8
 71
     3
 72
     8
 73
     4
 74
     0
 42
0.00000001
 43
0.00000001
 12
1.0
 22
0.0
 32
0.0
 13
1.0
 23
0.0
 33
0.0
 40
0.0
 40
0.0
 40
0.0
 40
0.0
 40
1.0
 40
1.0
 40
1.0
 40
1.0
 10
139.3811095280008
 20
125.7709722667774
 30
0.0
 10
139.7046670862557
 20
126.5070886654
 30
0.0
 10
140.0371614064726
 20
127.2391802608187
 30
0.0
 10
140.3762692268942
 20
127.9682933683995
 30
0.0
  0
LINE
  5
AD
330
1F
100
AcDbEntity
  8
0
  6
Continuous
 62
     7
370
    15
100
AcDbLine
 10
140.3762699056
 20
127.9682936589
 30
0.0
 11
141.6911092538
 21
127.9682936589
 31
0.0
  0
SPLINE
  5
AE
330
1F
100
AcDbEntity
  8
0
  6
Continuous
 62
     7
370
    15
100
AcDbSpline
210
0.0
220
0.0
230
1.0
 70
     8
 71
     3
 72
    12
 73
     8
 74
     0
 42
0.00000001
 43
0.00000001
 12
1.0
 22
0.0
 32
0.0
 13
1.0
 23
0.0
 33
0.0
 40
0.0
 40
0.0
 40
0.0
 40
0.0
 40
0.2499999999999994
 40
0.2499999999999994
 40
0.4999999999999989
 40
0.4999999999999989
 40
1.0
 40
1.0
 40
1.0
 40
1.0
 10
141.6911095280008
 20
127.9682933683995
 30
0.0
 10
141.7801595238848
 20
127.9682933683995
 30
0.0
 10
141.8680666853858
 20
127.9430304246595
 30
0.0
 10
142.0227592763647
 20
127.8530324213933
 30
0.0
 10
142.087823926297
 20
127.790143956692
 30
0.0
 10
142.2420529928227
 20
127.5739114532893
 30
0.0
 10
142.2911095280008
 20
127.3935369161585
 30
0.0
 10
142.2911095280008
 20
127.2171415266277
 30
0.0
  0
LINE
  5
AF
330
1F
100
AcDbEntity
  8
0
  6
Continuous
 62
     7
370
    15
100
AcDbLine
 10
142.2911100972
 20
127.2171419556
 30
0.0
 11
142.2911100972
 21
123.7068847264
 31
0.0
  0
LINE
  5
B0
330
1F
100
AcDbEntity
  8
0
  6
Continuous
 62
     7
370
    15
100
AcDbLine
 10
141.6911092538
 20
131.3440604578
 30
0.0
 11
140.3762699056
 21
131.3440604578
 31
0.0
  0
LINE
  5
B1
330
1F
100
AcDbEntity
  8
0
  6
Continuous
 62
     7
370
    15
100
AcDbLine
 10
140.3762699056
 20
127.9682936589
 30
0.0
 11
140.3762699056
 21
131.3440604578
 31
0.0
  0
SPLINE
  5
B2
330
1F
100
AcDbEntity
  8
0
  6
Continuous
 62
     7
370
    15
100
AcDbSpline
210
0.0
220
0.0
230
1.0
 70
     8
 71
     3
 72
     8
 73
     4
 74
     0
 42
0.00000001
 43
0.00000001
 12
1.0
 22
0.0
 32
0.0
 13
1.0
 23
0.0
 33
0.0
 40
0.0
 40
0.0
 40
0.0
 40
0.0
 40
1.0
 40
1.0
 40
1.0
 40
1.0
 10
137.3011095280008
 20
129.5705610628523
 30
0.0
 10
136.9700891969811
 20
130.16211675931
 30
0.0
 10
136.638307925497
 20
130.7532494235552
 30
0.0
 10
136.3059498291073
 20
131.3440596372272
 30
0.0
  0
LINE
  5
B3
330
1F
100
AcDbEntity
  8
0
  6
Continuous
 62
     7
370
    15
100
AcDbLine
 10
137.3011098195
 20
125.7709721546
 30
0.0
 11
137.3011098195
 21
129.5705615054
 31
0.0
  0
SPLINE
  5
B4
330
1F
100
AcDbEntity
  8
0
  6
Continuous
 62
     7
370
    15
100
AcDbSpline
210
0.0
220
0.0
230
1.0
 70
     8
 71
     3
 72
    10
 73
     6
 74
     0
 42
0.00000001
 43
0.00000001
 12
1.0
 22
0.0
 32
0.0
 13
1.0
 23
0.0
 33
0.0
 40
0.0
 40
0.0
 40
0.0
 40
0.0
 40
0.5
 40
0.5
 40
1.0
 40
1.0
 40
1.0
 40
1.0
 10
142.2911095280008
 20
130.727761400465
 30
0.0
 10
142.2911095280008
 20
130.8874383553621
 30
0.0
 10
142.2289235189411
 20
131.0454288009988
 30
0.0
 10
142.0077820676449
 20
131.2757225837932
 30
0.0
 10
141.85057393566
 20
131.3440596372271
 30
0.0
 10
141.6911095280008
 20
131.3440596372271
 30
0.0
  0
LINE
  5
B5
330
1F
100
AcDbEntity
  8
0
  6
Continuous
 62
     7
370
    15
100
AcDbLine
 10
142.2911100972
 20
127.2171419556
 30
0.0
 11
142.2911100972
 21
130.7277614693
 31
0.0
  0
SPLINE
  5
B6
330
1F
100
AcDbEntity
  8
0
  6
Continuous
 62
     7
370
    15
100
AcDbSpline
210
0.0
220
0.0
230
1.0
 70
     8
 71
     3
 72
     8
 73
     4
 74
     0
 42
0.00000001
 43
0.00000001
 12
1.0
 22
0.0
 32
0.0
 13
1.0
 23
0.0
 33
0.0
 40
0.0
 40
0.0
 40
0.0
 40
0.0
 40
1.0
 40
1.0
 40
1.0
 40
1.0
 10
140.3762692268942
 20
131.3440596372272
 30
0.0
 10
140.0439111305046
 20
130.7532494235552
 30
0.0
 10
139.7121298590205
 20
130.16211675931
 30
0.0
 10
139.3811095280008
 20
129.5705610628523
 30
0.0
  0
LINE
  5
B7
330
1F
100
AcDbEntity
  8
0
  6
Continuous
 62
     7
370
    15
100
AcDbLine
 10
139.3811088938
 20
125.7709721546
 30
0.0
 11
139.3811088938
 21
129.5705615054
 31
0.0
  0
LINE
  5
B8
330
1F
100
AcDbEntity
  8
0
  6
Continuous
 62
     7
370
    15
100
AcDbLine
 10
138.781109913
 20
128.7568835984
 30
0.0
 11
137.9011097316
 21
128.7568835984
 31
0.0
  0
SPLINE
  5
B9
330
1F
100
AcDbEntity
  8
0
  6
Continuous
 62
     7
370
    15
100
AcDbSpline
210
0.0
220
0.0
230
1.0
 70
    24
 71
     3
 72
    12
 73
     8
 74
     0
 42
0.00000001
 43
0.00000001
 12
1.0
 22
0.0
 32
0.0
 13
1.0
 23
0.0
 33
0.0
 40
0.0
 40
0.0
 40
0.0
 40
0.0
 40
0.5
 40
0.5
 40
0.75
 40
0.75
 40
1.0
 40
1.0
 40
1.0
 40
1.0
 10
139.1327651422509
 20
128.7568843673221
 30
0.0
 10
139.0986193939599
 20
128.7568843673221
 30
0.0
 10
139.0594262355549
 20
128.7568843673221
 30
0.0
 10
138.9815785769012
 20
128.7568843673221
 30
0.0
 10
138.9521741181158
 20
128.7568843673221
 30
0.0
 10
138.87916659681
 20
128.7568843673221
 30
0.0
 10
138.832261279002
 20
128.7568843673221
 30
0.0
 10
138.7811095280008
 20
128.7568843673221
 30
0.0
  0
SPLINE
  5
BA
330
1F
100
AcDbEntity
  8
0
  6
Continuous
 62
     7
370
    15
100
AcDbSpline
210
0.0
220
0.0
230
1.0
 70
     8
 71
     3
 72
    10
 73
     6
 74
     0
 42
0.00000001
 43
0.00000001
 12
1.0
 22
0.0
 32
0.0
 13
1.0
 23
0.0
 33
0.0
 40
0.0
 40
0.0
 40
0.0
 40
0.0
 40
0.5
 40
0.5
 40
1.0
 40
1.0
 40
1.0
 40
1.0
 10
139.3811095280008
 20
129.2594883391408
 30
0.0
 10
139.3811095280006
 20
129.1629457916643
 30
0.0
 10
139.3591689054192
 20
129.0664845913942
 30
0.0
 10
139.2730387200273
 20
128.8910819971499
 30
0.0
 10
139.2099564128837
 20
128.8146664647828
 30
0.0
 10
139.1327651422508
 20
128.7568843673221
 30
0.0
  0
SPLINE
  5
BB
330
1F
100
AcDbEntity
  8
0
  6
Continuous
 62
     7
370
    15
100
AcDbSpline
210
0.0
220
0.0
230
1.0
 70
     8
 71
     3
 72
    10
 73
     6
 74
     0
 42
0.00000001
 43
0.00000001
 12
1.0
 22
0.0
 32
0.0
 13
1.0
 23
0.0
 33
0.0
 40
0.0
 40
0.0
 40
0.0
 40
0.0
 40
0.5
 40
0.5
 40
1.0
 40
1.0
 40
1.0
 40
1.0
 10
137.5494539137508
 20
128.756884367322
 30
0.0
 10
137.4721291818765
 20
128.8147663681837
 30
0.0
 10
137.40874935634
 20
128.8918397128176
 30
0.0
 10
137.323178907567
 20
129.0663427710115
 30
0.0
 10
137.3011095280008
 20
129.1631479744919
 30
0.0
 10
137.3011095280008
 20
129.2594883391419
 30
0.0
  0
SPLINE
  5
BC
330
1F
100
AcDbEntity
  8
0
  6
Continuous
 62
     7
370
    15
100
AcDbSpline
210
0.0
220
0.0
230
1.0
 70
    24
 71
     3
 72
    12
 73
     8
 74
     0
 42
0.00000001
 43
0.00000001
 12
1.0
 22
0.0
 32
0.0
 13
1.0
 23
0.0
 33
0.0
 40
0.0
 40
0.0
 40
0.0
 40
0.0
 40
0.25
 40
0.25
 40
0.5
 40
0.5
 40
1.0
 40
1.0
 40
1.0
 40
1.0
 10
137.9011095280005
 20
128.7568843673221
 30
0.0
 10
137.8498202829642
 20
128.7568843673221
 30
0.0
 10
137.8026322572925
 20
128.7568843673221
 30
0.0
 10
137.7296160485974
 20
128.7568843673221
 30
0.0
 10
137.7001244410578
 20
128.7568843673221
 30
0.0
 10
137.6225424019634
 20
128.7568843673221
 30
0.0
 10
137.5833810892481
 20
128.7568843673221
 30
0.0
 10
137.5494539137499
 20
128.7568843673221
 30
0.0
  0
LINE
  5
BD
330
1F
100
AcDbEntity
  8
0
  6
Continuous
 62
     7
370
    15
100
AcDbLine
 10
102.4411098052
 20
100.0384120713
 30
0.0
 11
102.4411098052
 21
100.3093710612
 31
0.0
  0
LINE
  5
BE
330
1F
100
AcDbEntity
  8
0
  6
Continuous
 62
     7
370
    15
100
AcDbLine
 10
102.4411098052
 20
123.7307982962
 30
0.0
 11
102.4411098052
 21
123.6351160775
 31
0.0
  0
LINE
  5
BF
330
1F
100
AcDbEntity
  8
0
  6
Continuous
 62
     7
370
    15
100
AcDbLine
 10
103.3911091227
 20
124.7368846531
 30
0.0
 11
103.3911091227
 21
124.7224649857
 31
0.0
  0
LINE
  5
C0
330
1F
100
AcDbEntity
  8
0
  6
Continuous
 62
     7
370
    15
100
AcDbLine
 10
102.4411098052
 20
123.7868844043
 30
0.0
 11
102.4411098052
 21
123.7307982962
 31
0.0
  0
LINE
  5
C1
330
1F
100
AcDbEntity
  8
0
  6
Continuous
 62
     7
370
    15
100
AcDbLine
 10
103.4501102704
 20
98.9768840815
 30
0.0
 11
103.4501102704
 21
99.0058174799
 31
0.0
  0
LINE
  5
C2
330
1F
100
AcDbEntity
  8
0
  6
Continuous
 62
     7
370
    15
100
AcDbLine
 10
102.4411098052
 20
99.9858845468
 30
0.0
 11
102.4411098052
 21
100.0384120713
 31
0.0
  0
SPLINE
  5
C3
330
1F
100
AcDbEntity
  8
0
  6
Continuous
 62
     7
370
    15
100
AcDbSpline
210
0.0
220
0.0
230
1.0
 70
     8
 71
     3
 72
    10
 73
     6
 74
     0
 42
0.00000001
 43
0.00000001
 12
1.0
 22
0.0
 32
0.0
 13
1.0
 23
0.0
 33
0.0
 40
0.0
 40
0.0
 40
0.0
 40
0.0
 40
0.5
 40
0.5
 40
1.0
 40
1.0
 40
1.0
 40
1.0
 10
237.9268959656277
 20
124.3568765959059
 30
0.0
 10
238.0589472190497
 20
124.3568765959059
 30
0.0
 10
238.1885335103702
 20
124.3828684069081
 30
0.0
 10
238.4305238232309
 20
124.4830933347496
 30
0.0
 10
238.5407418026565
 20
124.5565182918624
 30
0.0
 10
238.6340027468145
 20
124.6497759129648
 30
0.0
  0
SPLINE
  5
C4
330
1F
100
AcDbEntity
  8
0
  6
Continuous
 62
     7
370
    15
100
AcDbSpline
210
0.0
220
0.0
230
1.0
 70
     8
 71
     3
 72
    10
 73
     6
 74
     0
 42
0.00000001
 43
0.00000001
 12
1.0
 22
0.0
 32
0.0
 13
1.0
 23
0.0
 33
0.0
 40
0.0
 40
0.0
 40
0.0
 40
0.0
 40
0.5
 40
0.5
 40
1.0
 40
1.0
 40
1.0
 40
1.0
 10
238.6340027468142
 20
99.18758176882584
 30
0.0
 10
238.5407432309459
 20
99.28083796168936
 30
0.0
 10
238.4308396163031
 20
99.35408305986057
 30
0.0
 10
238.1888750009215
 20
99.45439819847661
 30
0.0
 10
238.058953294901
 20
99.4804810858852
 30
0.0
 10
237.9268959656277
 20
99.4804810858852
 30
0.0
  0
LINE
  5
C5
330
1F
100
AcDbEntity
  8
0
  6
Continuous
 62
     7
370
    15
100
AcDbLine
 10
249.0869146723
 20
118.0602210085
 30
0.0
 11
246.8868550796
 21
117.3682343657
 31
0.0
  0
ARC
  5
C6
330
1F
100
AcDbEntity
  8
0
  6
Continuous
 62
     7
370
    15
100
AcDbCircle
 10
247.3407901089
 20
115.9248472672
 30
0.0
 40
1.513084044946081
100
AcDbArc
 50
107.4579927681
 51
287.6221342514
  0
LINE
  5
C7
330
1F
100
AcDbEntity
  8
0
  6
Continuous
 62
     7
370
    15
100
AcDbLine
 10
247.7988582987
 20
114.4827665272
 30
0.0
 11
248.5924047369
 21
114.7323598131
 31
0.0
  0
LINE
  5
C8
330
1F
100
AcDbEntity
  8
0
  6
Continuous
 62
     7
370
    15
100
AcDbLine
 10
258.8315737385
 20
117.9352933984
 30
0.0
 11
252.8405618805
 21
98.9804901625
 31
0.0
  0
LINE
  5
C9
330
1F
100
AcDbEntity
  8
0
  6
Continuous
 62
     7
370
    15
100
AcDbLine
 10
252.8405618805
 20
98.9804901625
 30
0.0
 11
238.8411072034
 21
98.9804901625
 31
0.0
  0
LINE
  5
CA
330
1F
100
AcDbEntity
  8
0
  6
Continuous
 62
     7
370
    15
100
AcDbLine
 10
238.8411072034
 20
98.9804901625
 30
0.0
 11
238.6340034146
 21
99.1875818442
 31
0.0
  0
LINE
  5
CB
330
1F
100
AcDbEntity
  8
0
  6
Continuous
 62
     7
370
    15
100
AcDbLine
 10
238.6340034146
 20
124.6497761901
 30
0.0
 11
239.0771863002
 21
125.0929059903
 31
0.0
  0
LINE
  5
CC
330
1F
100
AcDbEntity
  8
0
  6
Continuous
 62
     7
370
    15
100
AcDbLine
 10
239.0771863002
 20
125.0929059903
 30
0.0
 11
246.7922699589
 21
125.0929059903
 31
0.0
  0
ELLIPSE
  5
CD
330
1F
100
AcDbEntity
  8
0
  6
Continuous
 62
     7
370
    15
100
AcDbEllipse
 10
246.7922668672
 20
151.2243515248
 30
0.0
 11
1.705302565824240E-13
 21
26.1314451361938
 31
0.0
210
0.0
220
0.0
230
1.0
 40
0.9949698482
 41
3.141592653589813
 42
3.323309815865631
  0
LINE
  5
CE
330
1F
100
AcDbEntity
  8
0
  6
Continuous
 62
     7
370
    15
100
AcDbLine
 10
238.8411072034
 20
98.9804901625
 30
0.0
 11
238.8411072034
 21
98.8568840991
 31
0.0
  0
ELLIPSE
  5
CF
330
1F
100
AcDbEntity
  8
0
  6
Continuous
 62
     7
370
    15
100
AcDbEllipse
 10
256.8158638941
 20
111.8568843673
 30
0.0
 11
4.247080252763055
 21
12.993570470854
 31
0.0
210
0.0
220
0.0
230
1.0
 40
0.0962569477
 41
3.173044837569621
 42
3.311053936035262
  0
ARC
  5
D0
330
1F
100
AcDbEntity
  8
0
  6
Continuous
 62
     7
370
    15
100
AcDbCircle
 10
247.3409441969
 20
115.7735256788
 30
0.0
 40
1.247232223063424
100
AcDbArc
 50
107.4481337495
 51
287.6320562396
  0
LINE
  5
D1
330
1F
100
AcDbEntity
  8
0
  6
Continuous
 62
     7
370
    15
100
AcDbLine
 10
247.718734755
 20
114.584886746
 30
0.0
 11
248.3633142847
 21
114.7876279871
 31
0.0
  0
LINE
  5
D2
330
1F
100
AcDbEntity
  8
0
  6
Continuous
 62
     7
370
    15
100
AcDbLine
 10
246.9669711727
 20
116.9633712131
 30
0.0
 11
248.9359808106
 21
117.5826839614
 31
0.0
  0
ARC
  5
D3
330
1F
100
AcDbEntity
  8
0
  6
Continuous
 62
     7
370
    15
100
AcDbCircle
 10
247.3399335849
 20
115.6687036111
 30
0.0
 40
1.247108055019668
100
AcDbArc
 50
107.4012629387
 51
177.5593268152
  0
LINE
  5
D4
330
1F
100
AcDbEntity
  8
0
  6
Continuous
 62
     7
370
    15
100
AcDbLine
 10
248.8992494482
 20
117.4664986762
 30
0.0
 11
246.9669711727
 21
116.8587361905
 31
0.0
  0
CIRCLE
  5
D5
330
1F
100
AcDbEntity
  8
0
  6
Continuous
 62
     7
370
    15
100
AcDbCircle
 10
255.174018038
 20
121.6847498103
 30
0.0
 40
2.620789079719485
  0
CIRCLE
  5
D6
330
1F
100
AcDbEntity
  8
0
  6
Continuous
 62
     7
370
    15
100
AcDbCircle
 10
255.1726765558
 20
121.7038411254
 30
0.0
 40
1.797130833392371
  0
ARC
  5
D7
330
1F
100
AcDbEntity
  8
0
  6
Continuous
 62
     7
370
    15
100
AcDbCircle
 10
255.1704333344
 20
121.6979080703
 30
0.0
 40
1.676100749451358
100
AcDbArc
 50
32.9594931019
 51
91.4834963381
  0
ARC
  5
D8
330
1F
100
AcDbEntity
  8
0
  6
Continuous
 62
     7
370
    15
100
AcDbCircle
 10
255.1689278193
 20
121.6985159739
 30
0.0
 40
1.675454735254111
100
AcDbArc
 50
91.4325674553
 51
151.4772336012
  0
ARC
  5
D9
330
1F
100
AcDbEntity
  8
0
  6
Continuous
 62
     7
370
    15
100
AcDbCircle
 10
255.1623021292
 20
121.7030605764
 30
0.0
 40
1.667463344584604
100
AcDbArc
 50
151.5057255397
 51
210.239020783
  0
LINE
  5
DA
330
1F
100
AcDbEntity
  8
0
  6
Continuous
 62
     7
370
    15
100
AcDbLine
 10
253.7662816185
 20
120.7911400567
 30
0.0
 11
253.7217271466
 21
120.8633119683
 31
0.0
  0
ARC
  5
DB
330
1F
100
AcDbEntity
  8
0
  6
Continuous
 62
     7
370
    15
100
AcDbCircle
 10
255.1691442748
 20
121.7081376521
 30
0.0
 40
1.675979779834978
100
AcDbArc
 50
213.1711078483
 51
269.5443113392
  0
LINE
  5
DC
330
1F
100
AcDbEntity
  8
0
  6
Continuous
 62
     7
370
    15
100
AcDbLine
 10
255.2755755324
 20
120.0354863401
 30
0.0
 11
255.1558148999
 21
120.0322108786
 31
0.0
  0
ARC
  5
DD
330
1F
100
AcDbEntity
  8
0
  6
Continuous
 62
     7
370
    15
100
AcDbCircle
 10
255.1707846472
 20
121.7076559666
 30
0.0
 40
1.675449906539456
100
AcDbArc
 50
273.5859006359
 51
329.3236865982
  0
LINE
  5
DE
330
1F
100
AcDbEntity
  8
0
  6
Continuous
 62
     7
370
    15
100
AcDbLine
 10
256.6690129179
 20
120.9578598361
 30
0.0
 11
256.6117775578
 21
120.852862529
 31
0.0
  0
ARC
  5
DF
330
1F
100
AcDbEntity
  8
0
  6
Continuous
 62
     7
370
    15
100
AcDbCircle
 10
255.1774282744
 20
121.7030873199
 30
0.0
 40
1.667389801904845
100
AcDbArc
 50
333.452309009
 51
30.0263882222
  0
LINE
  5
E0
330
1F
100
AcDbEntity
  8
0
  6
Continuous
 62
     7
370
    15
100
AcDbLine
 10
256.5767747301
 20
122.6097839396
 30
0.0
 11
256.62104608
 21
122.5374471839
 31
0.0
  0
SPLINE
  5
E1
330
1F
100
AcDbEntity
  8
0
  6
Continuous
 62
     7
370
    15
100
AcDbSpline
210
0.0
220
0.0
230
1.0
 70
     8
 71
     3
 72
    11
 73
     7
 74
     0
 42
0.00000001
 43
0.00000001
 12
1.0
 22
0.0
 32
0.0
 13
1.0
 23
0.0
 33
0.0
 40
0.0
 40
0.0
 40
0.0
 40
0.0
 40
0.2431199953323216
 40
0.5182848231615528
 40
0.7947657517755718
 40
1.0
 40
1.0
 40
1.0
 40
1.0
 10
253.7662816185312
 20
120.7911400567046
 30
0.0
 10
253.7892538462569
 20
120.7672161703995
 30
0.0
 10
253.8382261941222
 20
120.7162150704445
 30
0.0
 10
253.938981056308
 20
120.6718947372438
 30
0.0
 10
254.042372329458
 20
120.6594839727609
 30
0.0
 10
254.1052232490362
 20
120.67458423188
 30
0.0
 10
254.1320008177118
 20
120.6810176815143
 30
0.0
  0
SPLINE
  5
E2
330
1F
100
AcDbEntity
  8
0
  6
Continuous
 62
     7
370
    15
100
AcDbSpline
210
0.0
220
0.0
230
1.0
 70
     8
 71
     3
 72
    12
 73
     8
 74
     0
 42
0.00000001
 43
0.00000001
 12
1.0
 22
0.0
 32
0.0
 13
1.0
 23
0.0
 33
0.0
 40
0.0
 40
0.0
 40
0.0
 40
0.0
 40
0.2058123530772419
 40
0.4120228775057375
 40
0.6140816233470252
 40
0.8132127929379791
 40
1.0
 40
1.0
 40
1.0
 40
1.0
 10
254.1320008177118
 20
120.6810176815143
 30
0.0
 10
254.195949773643
 20
120.6947591903017
 30
0.0
 10
254.3239714032599
 20
120.7222687926514
 30
0.0
 10
254.5213955585943
 20
120.6815134903531
 30
0.0
 10
254.6918692426535
 20
120.5845019708915
 30
0.0
 10
254.8210526304666
 20
120.4437089318733
 30
0.0
 10
254.8626081534331
 20
120.3298259974044
 30
0.0
 10
254.8827213186578
 20
120.2747058565966
 30
0.0
  0
SPLINE
  5
E3
330
1F
100
AcDbEntity
  8
0
  6
Continuous
 62
     7
370
    15
100
AcDbSpline
210
0.0
220
0.0
230
1.0
 70
     8
 71
     3
 72
    11
 73
     7
 74
     0
 42
0.00000001
 43
0.00000001
 12
1.0
 22
0.0
 32
0.0
 13
1.0
 23
0.0
 33
0.0
 40
0.0
 40
0.0
 40
0.0
 40
0.0
 40
0.2908652269555747
 40
0.5839466088936139
 40
0.8745968672410207
 40
1.0
 40
1.0
 40
1.0
 40
1.0
 10
254.8827213186578
 20
120.2747058565966
 30
0.0
 10
254.8958161782085
 20
120.2398358135227
 30
0.0
 10
254.9221056694226
 20
120.1698300461846
 30
0.0
 10
255.0037275440507
 20
120.0886448955441
 30
0.0
 10
255.086796214946
 20
120.0457566108575
 30
0.0
 10
255.1398299427551
 20
120.0353481152568
 30
0.0
 10
255.1558148998575
 20
120.0322108785859
 30
0.0
  0
SPLINE
  5
E4
330
1F
100
AcDbEntity
  8
0
  6
Continuous
 62
     7
370
    15
100
AcDbSpline
210
0.0
220
0.0
230
1.0
 70
     8
 71
     3
 72
    12
 73
     8
 74
     0
 42
0.00000001
 43
0.00000001
 12
1.0
 22
0.0
 32
0.0
 13
1.0
 23
0.0
 33
0.0
 40
0.0
 40
0.0
 40
0.0
 40
0.0
 40
0.2058372173548176
 40
0.4120625983065954
 40
0.6141377948347851
 40
0.8132757423262255
 40
1.0
 40
1.0
 40
1.0
 40
1.0
 10
255.5346769232111
 20
120.2919371868721
 30
0.0
 10
255.5541327337689
 20
120.3537208417499
 30
0.0
 10
255.5930810442526
 20
120.477404661853
 30
0.0
 10
255.7262500252901
 20
120.6270371335518
 30
0.0
 10
255.8957984729597
 20
120.7258381625996
 30
0.0
 10
256.0836207699243
 20
120.767610484217
 30
0.0
 10
256.204363313365
 20
120.7472072460071
 30
0.0
 10
256.262792362626
 20
120.7373338262788
 30
0.0
  0
SPLINE
  5
E5
330
1F
100
AcDbEntity
  8
0
  6
Continuous
 62
     7
370
    15
100
AcDbSpline
210
0.0
220
0.0
230
1.0
 70
     8
 71
     3
 72
    11
 73
     7
 74
     0
 42
0.00000001
 43
0.00000001
 12
1.0
 22
0.0
 32
0.0
 13
1.0
 23
0.0
 33
0.0
 40
0.0
 40
0.0
 40
0.0
 40
0.0
 40
0.2928953499543458
 40
0.5864223563977252
 40
0.8775169960001914
 40
1.0
 40
1.0
 40
1.0
 40
1.0
 10
256.262792362626
 20
120.7373338262788
 30
0.0
 10
256.3001615905669
 20
120.7313950829453
 30
0.0
 10
256.3749806367183
 20
120.7195047888175
 30
0.0
 10
256.4871698395293
 20
120.7501252056618
 30
0.0
 10
256.5658762669424
 20
120.8005879609982
 30
0.0
 10
256.601289699714
 20
120.8409184585963
 30
0.0
 10
256.611777557786
 20
120.8528625290147
 30
0.0
  0
SPLINE
  5
E6
330
1F
100
AcDbEntity
  8
0
  6
Continuous
 62
     7
370
    15
100
AcDbSpline
210
0.0
220
0.0
230
1.0
 70
     8
 71
     3
 72
    11
 73
     7
 74
     0
 42
0.00000001
 43
0.00000001
 12
1.0
 22
0.0
 32
0.0
 13
1.0
 23
0.0
 33
0.0
 40
0.0
 40
0.0
 40
0.0
 40
0.0
 40
0.2668954196489256
 40
0.5546269372928812
 40
0.8439013415553408
 40
0.9999999999999999
 40
0.9999999999999999
 40
0.9999999999999999
 40
0.9999999999999999
 10
255.2755755323724
 20
120.0354863400808
 30
0.0
 10
255.308913605667
 20
120.0455979825759
 30
0.0
 10
255.3781924022492
 20
120.0666106673024
 30
0.0
 10
255.4633527128498
 20
120.1380355050297
 30
0.0
 10
255.5149432534919
 20
120.2182456079847
 30
0.0
 10
255.5295554864734
 20
120.2728121703527
 30
0.0
 10
255.5346769232111
 20
120.2919371868721
 30
0.0
  0
ARC
  5
E7
330
1F
100
AcDbEntity
  8
0
  6
Continuous
 62
     7
370
    15
100
AcDbCircle
 10
256.3521531038
 20
120.9647553286
 30
0.0
 40
0.3336864567122406
100
AcDbArc
 50
8.0236192519
 51
48.3740230979
  0
SPLINE
  5
E8
330
1F
100
AcDbEntity
  8
0
  6
Continuous
 62
     7
370
    15
100
AcDbSpline
210
0.0
220
0.0
230
1.0
 70
     8
 71
     3
 72
    11
 73
     7
 74
     0
 42
0.00000001
 43
0.00000001
 12
1.0
 22
0.0
 32
0.0
 13
1.0
 23
0.0
 33
0.0
 40
0.0
 40
0.0
 40
0.0
 40
0.0
 40
0.2657613008470204
 40
0.5530011804222229
 40
0.8418186923135885
 40
1.0
 40
1.0
 40
1.0
 40
1.0
 10
256.6690129179315
 20
120.9578598360768
 30
0.0
 10
256.6768798426248
 20
120.9915638520368
 30
0.0
 10
256.6932494894764
 20
121.0616958108714
 30
0.0
 10
256.6734979475189
 20
121.1705782642529
 30
0.0
 10
256.6290400344098
 20
121.2552403503411
 30
0.0
 10
256.5882455210213
 20
121.2950750177195
 30
0.0
 10
256.573809399064
 20
121.3091714750281
 30
0.0
  0
LWPOLYLINE
  5
E9
330
1F
100
AcDbEntity
  8
0
  6
Continuous
 62
     7
370
    15
100
AcDbPolyline
 90
        3
 70
   128
 43
0.0
 10
253.6962014574
 20
120.9563743766
 10
253.7259888787
 20
121.0501380707
 10
253.7910771508
 20
121.1406663503
  0
SPLINE
  5
EA
330
1F
100
AcDbEntity
  8
0
  6
Continuous
 62
     7
370
    15
100
AcDbSpline
210
0.0
220
0.0
230
1.0
 70
     8
 71
     3
 72
    11
 73
     7
 74
     0
 42
0.00000001
 43
0.00000001
 12
1.0
 22
0.0
 32
0.0
 13
1.0
 23
0.0
 33
0.0
 40
0.0
 40
0.0
 40
0.0
 40
0.0
 40
0.27940301642528
 40
0.5596266774035696
 40
0.837502500598398
 40
1.0
 40
1.0
 40
1.0
 40
1.0
 10
253.7910771507578
 20
121.2356239999882
 30
0.0
 10
253.7669027007333
 20
121.2069238099138
 30
0.0
 10
253.7184827970462
 20
121.1494391334145
 30
0.0
 10
253.6882434062123
 20
121.0385784115622
 30
0.0
 10
253.6923503492214
 20
120.9396428677721
 30
0.0
 10
253.7138089393205
 20
120.8838861607132
 30
0.0
 10
253.7217271465616
 20
120.8633119683019
 30
0.0
  0
SPLINE
  5
EB
330
1F
100
AcDbEntity
  8
0
  6
Continuous
 62
     7
370
    15
100
AcDbSpline
210
0.0
220
0.0
230
1.0
 70
     8
 71
     3
 72
    12
 73
     8
 74
     0
 42
0.00000001
 43
0.00000001
 12
1.0
 22
0.0
 32
0.0
 13
1.0
 23
0.0
 33
0.0
 40
0.0
 40
0.0
 40
0.0
 40
0.0
 40
0.2057924459311647
 40
0.4120338722360219
 40
0.6141274070902397
 40
0.8132603457152024
 40
1.0
 40
1.0
 40
1.0
 40
1.0
 10
256.573809399064
 20
121.3091714750281
 30
0.0
 10
256.5293185158208
 20
121.3565173416808
 30
0.0
 10
256.440239682927
 20
121.4513123701524
 30
0.0
 10
256.3759539015545
 20
121.6406095384178
 30
0.0
 10
256.3750181036061
 20
121.8365343768628
 30
0.0
 10
256.4336704309133
 20
122.0202740869711
 30
0.0
 10
256.512874313688
 20
122.1150263464179
 30
0.0
 10
256.551204337533
 20
122.1608808706752
 30
0.0
  0
SPLINE
  5
EC
330
1F
100
AcDbEntity
  8
0
  6
Continuous
 62
     7
370
    15
100
AcDbSpline
210
0.0
220
0.0
230
1.0
 70
     8
 71
     3
 72
    11
 73
     7
 74
     0
 42
0.00000001
 43
0.00000001
 12
1.0
 22
0.0
 32
0.0
 13
1.0
 23
0.0
 33
0.0
 40
0.0
 40
0.0
 40
0.0
 40
0.0
 40
0.2802227030768931
 40
0.5612831596502584
 40
0.8399904365676064
 40
1.0
 40
1.0
 40
1.0
 40
1.0
 10
256.551204337533
 20
122.1608808706752
 30
0.0
 10
256.57537224071
 20
122.1903749623469
 30
0.0
 10
256.6237802994019
 20
122.2494513211957
 30
0.0
 10
256.6540285295582
 20
122.3620348543254
 30
0.0
 10
256.6499192505171
 20
122.4615126466172
 30
0.0
 10
256.6287624315781
 20
122.5171536874197
 30
0.0
 10
256.6210460800485
 20
122.5374471838823
 30
0.0
  0
SPLINE
  5
ED
330
1F
100
AcDbEntity
  8
0
  6
Continuous
 62
     7
370
    15
100
AcDbSpline
210
0.0
220
0.0
230
1.0
 70
     8
 71
     3
 72
    12
 73
     8
 74
     0
 42
0.00000001
 43
0.00000001
 12
1.0
 22
0.0
 32
0.0
 13
1.0
 23
0.0
 33
0.0
 40
0.0
 40
0.0
 40
0.0
 40
0.0
 40
0.0091731151475425
 40
0.2576771959018206
 40
0.5061888528031923
 40
0.7560370629929823
 40
1.0
 40
1.0
 40
1.0
 40
1.0
 10
253.6968273062067
 20
122.4985588784567
 30
0.0
 10
253.6961790822805
 20
122.4973530943573
 30
0.0
 10
253.677970161873
 20
122.4634820417659
 30
0.0
 10
253.6538579078228
 20
122.389874495985
 30
0.0
 10
253.656223453008
 20
122.2766270599747
 30
0.0
 10
253.6935794928769
 20
122.1689154625814
 30
0.0
 10
253.7436970577958
 20
122.1143104894169
 30
0.0
 10
253.7684571880655
 20
122.0873333956352
 30
0.0
  0
SPLINE
  5
EE
330
1F
100
AcDbEntity
  8
0
  6
Continuous
 62
     7
370
    15
100
AcDbSpline
210
0.0
220
0.0
230
1.0
 70
     8
 71
     3
 72
    12
 73
     8
 74
     0
 42
0.00000001
 43
0.00000001
 12
1.0
 22
0.0
 32
0.0
 13
1.0
 23
0.0
 33
0.0
 40
0.0
 40
0.0
 40
0.0
 40
0.0
 40
0.2057563287759304
 40
0.4119620493993219
 40
0.614016456509261
 40
0.8131408543760029
 40
1.0
 40
1.0
 40
1.0
 40
1.0
 10
253.7684571880655
 20
122.0873333956352
 30
0.0
 10
253.8129423463502
 20
122.0386331326571
 30
0.0
 10
253.9020098228347
 20
121.9411262405868
 30
0.0
 10
253.9662916917158
 20
121.7496680107871
 30
0.0
 10
253.9672579062715
 20
121.5539358168634
 30
0.0
 10
253.9086430713283
 20
121.372484213677
 30
0.0
 10
253.8294267149396
 20
121.2802672905211
 30
0.0
 10
253.7910771507578
 20
121.2356239999882
 30
0.0
  0
ARC
  5
EF
330
1F
100
AcDbEntity
  8
0
  6
Continuous
 62
     7
370
    15
100
AcDbCircle
 10
253.3804198959
 20
121.5560263659
 30
0.0
 40
0.5840918794028891
100
AcDbArc
 50
314.6738016964
 51
359.9897295772
  0
ARC
  5
F0
330
1F
100
AcDbEntity
  8
0
  6
Continuous
 62
     7
370
    15
100
AcDbCircle
 10
256.9620184843
 20
121.6508287046
 30
0.0
 40
0.5842636892122977
100
AcDbArc
 50
180.0171387184
 51
228.3605012801
  0
ARC
  5
F1
330
1F
100
AcDbEntity
  8
0
  6
Continuous
 62
     7
370
    15
100
AcDbCircle
 10
256.3154607825
 20
122.3025729999
 30
0.0
 40
0.334906482234842
100
AcDbArc
 50
6.5501970027
 51
108.3066500106
  0
SPLINE
  5
F2
330
1F
100
AcDbEntity
  8
0
  6
Continuous
 62
     7
370
    15
100
AcDbSpline
210
0.0
220
0.0
230
1.0
 70
     8
 71
     3
 72
    11
 73
     7
 74
     0
 42
0.00000001
 43
0.00000001
 12
1.0
 22
0.0
 32
0.0
 13
1.0
 23
0.0
 33
0.0
 40
0.0
 40
0.0
 40
0.0
 40
0.0
 40
0.2423602953980818
 40
0.5166929309889305
 40
0.7923424953294842
 40
1.0
 40
1.0
 40
1.0
 40
1.0
 10
256.5767747301416
 20
122.6097839395753
 30
0.0
 10
256.5538931891057
 20
122.6336555727099
 30
0.0
 10
256.5051115580881
 20
122.6845480015689
 30
0.0
 10
256.4045135272756
 20
122.7279676311722
 30
0.0
 10
256.3007337858423
 20
122.739112222527
 30
0.0
 10
256.2374543739552
 20
122.7225866346938
 30
0.0
 10
256.2102657694177
 20
122.7154862578264
 30
0.0
  0
ARC
  5
F3
330
1F
100
AcDbEntity
  8
0
  6
Continuous
 62
     7
370
    15
100
AcDbCircle
 10
253.9912032636
 20
122.2412715483
 30
0.0
 40
0.3348137791466413
100
AcDbArc
 50
74.7110830285
 51
174.4656905406
  0
SPLINE
  5
F4
330
1F
100
AcDbEntity
  8
0
  6
Continuous
 62
     7
370
    15
100
AcDbSpline
210
0.0
220
0.0
230
1.0
 70
     8
 71
     3
 72
    11
 73
     7
 74
     0
 42
0.00000001
 43
0.00000001
 12
1.0
 22
0.0
 32
0.0
 13
1.0
 23
0.0
 33
0.0
 40
0.0
 40
0.0
 40
0.0
 40
0.0
 40
0.2535181535010579
 40
0.5075841677917085
 40
0.7595167602276645
 40
1.0
 40
1.0
 40
1.0
 40
1.0
 10
254.0794891256647
 20
122.659170113062
 30
0.0
 10
254.0421015104533
 20
122.6659107778657
 30
0.0
 10
253.9672454842054
 20
122.6794066742641
 30
0.0
 10
253.8552465024015
 20
122.6504401542313
 30
0.0
 10
253.7584914246276
 20
122.5902864609802
 30
0.0
 10
253.7170609066334
 20
122.5286570830596
 30
0.0
 10
253.6968273062067
 20
122.4985588784567
 30
0.0
  0
SPLINE
  5
F5
330
1F
100
AcDbEntity
  8
0
  6
Continuous
 62
     7
370
    15
100
AcDbSpline
210
0.0
220
0.0
230
1.0
 70
     8
 71
     3
 72
    12
 73
     8
 74
     0
 42
0.00000001
 43
0.00000001
 12
1.0
 22
0.0
 32
0.0
 13
1.0
 23
0.0
 33
0.0
 40
0.0
 40
0.0
 40
0.0
 40
0.0
 40
0.2058531224178837
 40
0.4121065503943067
 40
0.6141979028559155
 40
0.8133144835202983
 40
0.9999999999999999
 40
0.9999999999999999
 40
0.9999999999999999
 40
0.9999999999999999
 10
256.2102657694177
 20
122.7154862578264
 30
0.0
 10
256.1463067463877
 20
122.7003816801491
 30
0.0
 10
256.0182643245003
 20
122.6701431521701
 30
0.0
 10
255.8208142064781
 20
122.708727136225
 30
0.0
 10
255.6503316133303
 20
122.8059332114887
 30
0.0
 10
255.5211901722775
 20
122.9490515599785
 30
0.0
 10
255.4796473814807
 20
123.0654668822973
 30
0.0
 10
255.4595452684717
 20
123.1217990140668
 30
0.0
  0
SPLINE
  5
F6
330
1F
100
AcDbEntity
  8
0
  6
Continuous
 62
     7
370
    15
100
AcDbSpline
210
0.0
220
0.0
230
1.0
 70
     8
 71
     3
 72
    11
 73
     7
 74
     0
 42
0.00000001
 43
0.00000001
 12
1.0
 22
0.0
 32
0.0
 13
1.0
 23
0.0
 33
0.0
 40
0.0
 40
0.0
 40
0.0
 40
0.0
 40
0.2524801167292094
 40
0.5068907811478198
 40
0.759169384521043
 40
0.9999999999999999
 40
0.9999999999999999
 40
0.9999999999999999
 40
0.9999999999999999
 10
255.4595452684717
 20
123.1217990140668
 30
0.0
 10
255.4464482427923
 20
123.1574738908948
 30
0.0
 10
255.4201540471806
 20
123.2290964266293
 30
0.0
 10
255.338565183004
 20
123.3117977741109
 30
0.0
 10
255.2375806087242
 20
123.3657785644268
 30
0.0
 10
255.1633126413867
 20
123.3709307459269
 30
0.0
 10
255.1270407575922
 20
123.3734470303408
 30
0.0
  0
SPLINE
  5
F7
330
1F
100
AcDbEntity
  8
0
  6
Continuous
 62
     7
370
    15
100
AcDbSpline
210
0.0
220
0.0
230
1.0
 70
     8
 71
     3
 72
    12
 73
     8
 74
     0
 42
0.00000001
 43
0.00000001
 12
1.0
 22
0.0
 32
0.0
 13
1.0
 23
0.0
 33
0.0
 40
0.0
 40
0.0
 40
0.0
 40
0.0
 40
0.009160029606639
 40
0.2573153451496782
 40
0.5054750747276731
 40
0.7549920314799381
 40
0.9999999999999999
 40
0.9999999999999999
 40
0.9999999999999999
 40
0.9999999999999999
 10
255.1270407575922
 20
123.3734470303408
 30
0.0
 10
255.1256698983761
 20
123.373406505828
 30
0.0
 10
255.0871609494449
 20
123.3722681275217
 30
0.0
 10
255.0112918257346
 20
123.3563726042164
 30
0.0
 10
254.9145498649079
 20
123.2975902707586
 30
0.0
 10
254.8401464266096
 20
123.2110220237394
 30
0.0
 10
254.8183757511304
 20
123.1398361103748
 30
0.0
 10
254.8075896639185
 20
123.1045676837912
 30
0.0
  0
SPLINE
  5
F8
330
1F
100
AcDbEntity
  8
0
  6
Continuous
 62
     7
370
    15
100
AcDbSpline
210
0.0
220
0.0
230
1.0
 70
     8
 71
     3
 72
    12
 73
     8
 74
     0
 42
0.00000001
 43
0.00000001
 12
1.0
 22
0.0
 32
0.0
 13
1.0
 23
0.0
 33
0.0
 40
0.0
 40
0.0
 40
0.0
 40
0.0
 40
0.2058432392765033
 40
0.4120726248473944
 40
0.6141472474339332
 40
0.8132721379460213
 40
0.9999999999999999
 40
0.9999999999999999
 40
0.9999999999999999
 40
0.9999999999999999
 10
254.8075896639185
 20
123.1045676837912
 30
0.0
 10
254.7881338644963
 20
123.0414210924096
 30
0.0
 10
254.7491857680487
 20
122.9150094514335
 30
0.0
 10
254.6160188367326
 20
122.7631832957559
 30
0.0
 10
254.4464706437484
 20
122.664550157532
 30
0.0
 10
254.2586554497163
 20
122.6250894129678
 30
0.0
 10
254.1379181813959
 20
122.6480558418076
 30
0.0
 10
254.0794891256647
 20
122.659170113062
 30
0.0
  0
ARC
  5
F9
330
1F
100
AcDbEntity
  8
0
  6
Continuous
 62
     7
370
    15
100
AcDbCircle
 10
254.2337737312
 20
123.1298430129
 30
0.0
 40
0.5862723935733792
100
AcDbArc
 50
254.7422339207
 51
348.1680260255
  0
ARC
  5
FA
330
1F
100
AcDbEntity
  8
0
  6
Continuous
 62
     7
370
    15
100
AcDbCircle
 10
256.0263353942
 20
123.1773742689
 30
0.0
 40
0.5864353635671543
100
AcDbArc
 50
194.8722302018
 51
288.2788124027
  0
ARC
  5
FB
330
1F
100
AcDbEntity
  8
0
  6
Continuous
 62
     7
370
    15
100
AcDbCircle
 10
255.169829442
 20
121.6380239482
 30
0.0
 40
2.625000229245101
100
AcDbArc
 50
180.1027711047
 51
359.8972288953
  0
ARC
  5
FC
330
1F
100
AcDbEntity
  8
0
  6
Continuous
 62
     7
370
    15
100
AcDbCircle
 10
255.1356128252
 20
122.9408283691
 30
0.0
 40
0.3351614342916152
100
AcDbArc
 50
14.8730835017
 51
168.1537466487
  0
LINE
  5
FD
330
1F
100
AcDbEntity
  8
0
  6
Continuous
 62
     7
370
    15
100
AcDbLine
 10
248.694194569
 20
114.7676955885
 30
0.0
 11
258.8524800677
 21
117.9627888347
 31
0.0
  0
LINE
  5
FE
330
1F
100
AcDbEntity
  8
0
  6
Continuous
 62
     7
370
    15
100
AcDbLine
 10
249.9994170803
 20
116.4926188509
 30
0.0
 11
248.579932465
 21
115.1139210421
 31
0.0
  0
LINE
  5
FF
330
1F
100
AcDbEntity
  8
0
  6
Continuous
 62
     7
370
    15
100
AcDbLine
 10
258.5624587674
 20
118.4754670109
 30
0.0
 11
258.7382179636
 21
118.3090140554
 31
0.0
  0
SPLINE
  5
100
330
1F
100
AcDbEntity
  8
0
  6
Continuous
 62
     7
370
    15
100
AcDbSpline
210
0.0
220
0.0
230
1.0
 70
     8
 71
     3
 72
    10
 73
     6
 74
     0
 42
0.00000001
 43
0.00000001
 12
1.0
 22
0.0
 32
0.0
 13
1.0
 23
0.0
 33
0.0
 40
0.0
 40
0.0
 40
0.0
 40
0.0
 40
0.3518039577406555
 40
0.7034263912578217
 40
1.0
 40
1.0
 40
1.0
 40
1.0
 10
258.8599753517465
 20
117.9442280414751
 30
0.0
 10
258.9011497104937
 20
117.9618544353332
 30
0.0
 10
258.9834771827934
 20
117.9970981281618
 30
0.0
 10
259.07354145332
 20
118.0921899987224
 30
0.0
 10
259.1048849485207
 20
118.1681108718371
 30
0.0
 10
259.1192257541971
 20
118.2028474728814
 30
0.0
  0
LINE
  5
101
330
1F
100
AcDbEntity
  8
0
  6
Continuous
 62
     7
370
    15
100
AcDbLine
 10
248.6919295925
 20
114.7460604995
 30
0.0
 11
258.8599753517
 21
117.9442280415
 31
0.0
  0
SPLINE
  5
102
330
1F
100
AcDbEntity
  8
0
  6
Continuous
 62
     7
370
    15
100
AcDbSpline
210
0.0
220
0.0
230
1.0
 70
     8
 71
     3
 72
    14
 73
    10
 74
     0
 42
0.00000001
 43
0.00000001
 12
1.0
 22
0.0
 32
0.0
 13
1.0
 23
0.0
 33
0.0
 40
0.0
 40
0.0
 40
0.0
 40
0.0
 40
0.1588486232945766
 40
0.317329076788765
 40
0.4720125109348635
 40
0.6236426135272728
 40
0.7746586057783896
 40
0.9277356743860439
 40
1.0
 40
1.0
 40
1.0
 40
1.0
 10
248.1958252329187
 20
115.2409457578561
 30
0.0
 10
248.1862935259012
 20
115.1959592151158
 30
0.0
 10
248.1672522038842
 20
115.1060903967427
 30
0.0
 10
248.1977496650579
 20
114.9700805436255
 30
0.0
 10
248.2683161187909
 20
114.8544293630903
 30
0.0
 10
248.3729175707067
 20
114.7704728711194
 30
0.0
 10
248.4984359338663
 20
114.7263742292696
 30
0.0
 10
248.6091417123158
 20
114.7241323150801
 30
0.0
 10
248.6718271216081
 20
114.7407359195002
 30
0.0
 10
248.6919295925455
 20
114.7460604994795
 30
0.0
  0
LINE
  5
103
330
1F
100
AcDbEntity
  8
0
  6
Continuous
 62
     7
370
    15
100
AcDbLine
 10
251.4018100638
 20
125.3842367302
 30
0.0
 11
248.1958252329
 21
115.2409457579
 31
0.0
  0
SPLINE
  5
104
330
1F
100
AcDbEntity
  8
0
  6
Continuous
 62
     7
370
    15
100
AcDbSpline
210
0.0
220
0.0
230
1.0
 70
     8
 71
     3
 72
    10
 73
     6
 74
     0
 42
0.00000001
 43
0.00000001
 12
1.0
 22
0.0
 32
0.0
 13
1.0
 23
0.0
 33
0.0
 40
0.0
 40
0.0
 40
0.0
 40
0.0
 40
0.3518044204897122
 40
0.7034282112960015
 40
1.0
 40
1.0
 40
1.0
 40
1.0
 10
251.6610604662256
 20
125.6428556959382
 30
0.0
 10
251.6198860755979
 20
125.6252293273413
 30
0.0
 10
251.5375584348306
 20
125.5899856401912
 30
0.0
 10
251.4474947700427
 20
125.494893478571
 30
0.0
 10
251.4161509433503
 20
125.4189729741647
 30
0.0
 10
251.401810063775
 20
125.3842367301932
 30
0.0
  0
LINE
  5
105
330
1F
100
AcDbEntity
  8
0
  6
Continuous
 62
     7
370
    15
100
AcDbLine
 10
261.8291211266
 20
128.8410230051
 30
0.0
 11
251.6610604662
 21
125.6428556959
 31
0.0
  0
SPLINE
  5
106
330
1F
100
AcDbEntity
  8
0
  6
Continuous
 62
     7
370
    15
100
AcDbSpline
210
0.0
220
0.0
230
1.0
 70
     8
 71
     3
 72
    14
 73
    10
 74
     0
 42
0.00000001
 43
0.00000001
 12
1.0
 22
0.0
 32
0.0
 13
1.0
 23
0.0
 33
0.0
 40
0.0
 40
0.0
 40
0.0
 40
0.0
 40
0.1588513633052708
 40
0.3173329682564475
 40
0.4720199930436205
 40
0.6236530492167461
 40
0.7746715559812316
 40
0.9277512568295359
 40
1.0
 40
1.0
 40
1.0
 40
1.0
 10
262.3252105850534
 20
128.3461386780492
 30
0.0
 10
262.3347423552116
 20
128.3911252338794
 30
0.0
 10
262.3537837084244
 20
128.4809936303236
 30
0.0
 10
262.3232856463615
 20
128.6170030874978
 30
0.0
 10
262.2527199116247
 20
128.7326544189769
 30
0.0
 10
262.1481183760736
 20
128.8166118276308
 30
0.0
 10
262.022600021511
 20
128.8607092818328
 30
0.0
 10
261.9118984762437
 20
128.8629535502814
 30
0.0
 10
261.8492186331612
 20
128.8463475205378
 30
0.0
 10
261.8291211265878
 20
128.8410230051032
 30
0.0
  0
LINE
  5
107
330
1F
100
AcDbEntity
  8
0
  6
Continuous
 62
     7
370
    15
100
AcDbLine
 10
259.1192257542
 20
118.2028474729
 30
0.0
 11
262.3252105851
 21
128.346138678
 31
0.0
  0
ARC
  5
108
330
1F
100
AcDbEntity
  8
0
  6
Continuous
 62
     7
370
    15
100
AcDbCircle
 10
248.5796233669
 20
115.1295210658
 30
0.0
 40
0.379531601254155
100
AcDbArc
 50
162.5685682713
 51
287.5702706763
  0
ARC
  5
109
330
1F
100
AcDbEntity
  8
0
  6
Continuous
 62
     7
370
    15
100
AcDbCircle
 10
258.7387829946
 20
118.3249156676
 30
0.0
 40
0.3795561454090168
100
AcDbArc
 50
287.4307400117
 51
342.4283462535
  0
LINE
  5
10A
330
1F
100
AcDbEntity
  8
0
  6
Continuous
 62
     7
370
    15
100
AcDbLine
 10
259.100629105
 20
118.2103283215
 30
0.0
 11
262.3035293955
 21
128.3438681136
 31
0.0
  0
ARC
  5
10B
330
1F
100
AcDbEntity
  8
0
  6
Continuous
 62
     7
370
    15
100
AcDbCircle
 10
261.9414108981
 20
128.4575498333
 30
0.0
 40
0.3795435937878785
100
AcDbArc
 50
342.5710943582
 51
107.5694515033
  0
LINE
  5
10C
330
1F
100
AcDbEntity
  8
0
  6
Continuous
 62
     7
370
    15
100
AcDbLine
 10
261.8268412489
 20
128.8193883817
 30
0.0
 11
251.6685557503
 21
125.6242953683
 31
0.0
  0
ARC
  5
10D
330
1F
100
AcDbEntity
  8
0
  6
Continuous
 62
     7
370
    15
100
AcDbCircle
 10
251.7822523922
 20
125.2621691832
 30
0.0
 40
0.3795553982096098
100
AcDbArc
 50
107.4307072055
 51
162.4284868418
  0
LINE
  5
10E
330
1F
100
AcDbEntity
  8
0
  6
Continuous
 62
     7
370
    15
100
AcDbLine
 10
251.4204067129
 20
125.376755416
 30
0.0
 11
248.2175213236
 21
115.2432151581
 31
0.0
  0
LINE
  5
10F
330
1F
100
AcDbEntity
  8
0
  6
Continuous
 62
     7
370
    15
100
AcDbLine
 10
251.9585919518
 20
125.0632498856
 30
0.0
 11
251.7828178543
 21
125.2474617656
 31
0.0
  0
SPLINE
  5
110
330
1F
100
AcDbEntity
  8
0
  6
Continuous
 62
     7
370
    15
100
AcDbSpline
210
0.0
220
0.0
230
1.0
 70
     8
 71
     3
 72
    11
 73
     7
 74
     0
 42
0.00000001
 43
0.00000001
 12
1.0
 22
0.0
 32
0.0
 13
1.0
 23
0.0
 33
0.0
 40
0.0
 40
0.0
 40
0.0
 40
0.0
 40
0.0072906713675672
 40
0.1268369389812193
 40
0.5874298347549578
 40
1.0
 40
1.0
 40
1.0
 40
1.0
 10
250.4855823654489
 20
116.9854240003279
 30
0.0
 10
250.4845249025822
 20
116.9843056555057
 30
0.0
 10
250.4661280573067
 20
116.9648496374213
 30
0.0
 10
250.3787403729725
 20
116.8733587419482
 30
0.0
 10
250.2150136025566
 20
116.7046513734919
 30
0.0
 10
250.068598377812
 20
116.5606565208576
 30
0.0
 10
249.9994170803384
 20
116.4926188509217
 30
0.0
  0
LINE
  5
111
330
1F
100
AcDbEntity
  8
0
  6
Continuous
 62
     7
370
    15
100
AcDbLine
 10
252.2802633185
 20
117.5691858377
 30
0.0
 11
257.2691869873
 21
119.1383516859
 31
0.0
  0
LINE
  5
112
330
1F
100
AcDbEntity
  8
0
  6
Continuous
 62
     7
370
    15
100
AcDbLine
 10
258.2407724995
 20
126.0178983654
 30
0.0
 11
253.2518637318
 21
124.4487325172
 31
0.0
  0
ARC
  5
113
330
1F
100
AcDbEntity
  8
0
  6
Continuous
 62
     7
370
    15
100
AcDbCircle
 10
258.5422656377
 20
125.0656999699
 30
0.0
 40
0.9987892154014877
100
AcDbArc
 50
342.5705523263
 51
107.5692706413
  0
LINE
  5
114
330
1F
100
AcDbEntity
  8
0
  6
Continuous
 62
     7
370
    15
100
AcDbLine
 10
257.9221856732
 20
119.7897727113
 30
0.0
 11
259.4951969523
 21
124.7665314446
 31
0.0
  0
ARC
  5
115
330
1F
100
AcDbEntity
  8
0
  6
Continuous
 62
     7
370
    15
100
AcDbCircle
 10
256.9700302267
 20
120.0912335631
 30
0.0
 40
0.9987385240266444
100
AcDbArc
 50
287.429653254
 51
342.4317514151
  0
ARC
  5
116
330
1F
100
AcDbEntity
  8
0
  6
Continuous
 62
     7
370
    15
100
AcDbCircle
 10
251.9787661369
 20
118.5213688327
 30
0.0
 40
0.9987757538443723
100
AcDbArc
 50
162.5693839022
 51
287.5697584536
  0
LINE
  5
117
330
1F
100
AcDbEntity
  8
0
  6
Continuous
 62
     7
370
    15
100
AcDbLine
 10
252.5988501448
 20
123.7973114918
 30
0.0
 11
251.0258537669
 21
118.8205527584
 31
0.0
  0
ARC
  5
118
330
1F
100
AcDbEntity
  8
0
  6
Continuous
 62
     7
370
    15
100
AcDbCircle
 10
253.5509857368
 20
123.4958636999
 30
0.0
 40
0.998715653660834
100
AcDbArc
 50
107.4279753195
 51
162.4321219024
  0
CIRCLE
  5
119
330
1F
100
AcDbEntity
  8
0
  6
Continuous
 62
     7
370
    15
100
AcDbCircle
 10
255.255086463
 20
121.7899133663
 30
0.0
 40
3.04523743747114
  0
SPLINE
  5
11A
330
1F
100
AcDbEntity
  8
0
  6
Continuous
 62
     7
370
    15
100
AcDbSpline
210
0.0
220
0.0
230
1.0
 70
     8
 71
     3
 72
    11
 73
     7
 74
     0
 42
0.00000001
 43
0.00000001
 12
1.0
 22
0.0
 32
0.0
 13
1.0
 23
0.0
 33
0.0
 40
0.0
 40
0.0
 40
0.0
 40
0.0
 40
0.3277672364767863
 40
0.6551581502010307
 40
0.9907807144025715
 40
1.0
 40
1.0
 40
1.0
 40
1.0
 10
258.5624587673502
 20
118.4754670108906
 30
0.0
 10
258.5099020632206
 20
118.525874609526
 30
0.0
 10
258.4048489974281
 20
118.6266319318046
 30
0.0
 10
258.2315795930047
 20
118.8002856653049
 30
0.0
 10
258.1224030296652
 20
118.9132872378136
 30
0.0
 10
258.0713550497302
 20
118.9670123155159
 30
0.0
 10
258.0699902910547
 20
118.9684486459247
 30
0.0
  0
LWPOLYLINE
  5
11B
330
1F
100
AcDbEntity
  8
0
  6
Continuous
 62
     7
370
    15
100
AcDbPolyline
 90
        3
 70
   128
 43
0.0
 10
252.3516845841
 20
122.638806745
 10
252.2167247671
 20
121.9177861209
 10
252.2105258841
 20
121.7238884862
  0
ARC
  5
11C
330
1F
100
AcDbEntity
  8
0
  6
Continuous
 62
     7
370
    15
100
AcDbCircle
 10
255.2598081134
 20
121.7169946277
 30
0.0
 40
3.050724510870958
100
AcDbArc
 50
0.129473944
 51
162.4125135471
  0
LINE
  5
11D
330
1F
100
AcDbEntity
  8
0
  6
Continuous
 62
     7
370
    15
100
AcDbLine
 10
260.5216187376
 20
126.9891942363
 30
0.0
 11
261.941103353
 21
128.4425547789
 31
0.0
  0
SPLINE
  5
11E
330
1F
100
AcDbEntity
  8
0
  6
Continuous
 62
     7
370
    15
100
AcDbSpline
210
0.0
220
0.0
230
1.0
 70
     8
 71
     3
 72
    11
 73
     7
 74
     0
 42
0.00000001
 43
0.00000001
 12
1.0
 22
0.0
 32
0.0
 13
1.0
 23
0.0
 33
0.0
 40
0.0
 40
0.0
 40
0.0
 40
0.0
 40
0.0092189852857915
 40
0.3448468795969333
 40
0.6722279089141819
 40
1.0
 40
1.0
 40
1.0
 40
1.0
 10
252.4510455269174
 20
124.5737076248279
 30
0.0
 10
252.4496807674583
 20
124.5749895683504
 30
0.0
 10
252.3986303507077
 20
124.6229421585599
 30
0.0
 10
252.2894569180195
 20
124.7280297936356
 30
0.0
 10
252.1162015910058
 20
124.8999398139371
 30
0.0
 10
252.0111494001215
 20
125.0087915371289
 30
0.0
 10
251.9585919517831
 20
125.063249885594
 30
0.0
  0
SPLINE
  5
11F
330
1F
100
AcDbEntity
  8
0
  6
Continuous
 62
     7
370
    15
100
AcDbSpline
210
0.0
220
0.0
230
1.0
 70
     8
 71
     3
 72
    11
 73
     7
 74
     0
 42
0.00000001
 43
0.00000001
 12
1.0
 22
0.0
 32
0.0
 13
1.0
 23
0.0
 33
0.0
 40
0.0
 40
0.0
 40
0.0
 40
0.0
 40
0.4125710612173202
 40
0.8731498909601845
 40
0.992696661237406
 40
1.0
 40
1.0
 40
1.0
 40
1.0
 10
260.5216187376337
 20
126.9891942362538
 30
0.0
 10
260.4524458360723
 20
126.9192168101571
 30
0.0
 10
260.3060509064875
 20
126.7711192150766
 30
0.0
 10
260.1422184735699
 20
126.6130222626766
 30
0.0
 10
260.0549707143481
 20
126.5303548761432
 30
0.0
 10
260.0365159759034
 20
126.5130242610155
 30
0.0
 10
260.0354534525232
 20
126.5120264585367
 30
0.0
  0
LINE
  5
120
330
1F
100
AcDbEntity
  8
0
  6
HIDDEN
 62
     7
370
     0
100
AcDbLine
 10
130.2911099929
 20
91.8568848144
 30
0.0
 11
130.2911099929
 21
91.8819001387
 31
0.0
  0
SPLINE
  5
121
330
1F
100
AcDbEntity
  8
0
  6
HIDDEN
 62
     7
370
     0
100
AcDbSpline
210
0.0
220
0.0
230
1.0
 70
     8
 71
     3
 72
    22
 73
    18
 74
     0
 42
0.00000001
 43
0.00000001
 12
1.0
 22
0.0
 32
0.0
 13
1.0
 23
0.0
 33
0.0
 40
0.0
 40
0.0
 40
0.0
 40
0.0
 40
0.125
 40
0.125
 40
0.25
 40
0.25
 40
0.375
 40
0.375
 40
0.5
 40
0.5
 40
0.625
 40
0.625
 40
0.75
 40
0.75
 40
0.875
 40
0.875
 40
1.0
 40
1.0
 40
1.0
 40
1.0
 10
130.2911095280008
 20
91.88190001188384
 30
0.0
 10
130.2911095280008
 20
91.89685560449318
 30
0.0
 10
130.320557949131
 20
91.91824380113957
 30
0.0
 10
130.4353958153548
 20
91.97262204775488
 30
0.0
 10
130.5222086538926
 20
92.00606821136326
 30
0.0
 10
130.7478560261885
 20
92.080832486761
 30
0.0
 10
130.8856931678527
 20
92.12193097572194
 30
0.0
 10
131.2108941277571
 20
92.2084839046857
 30
0.0
 10
131.3995964076651
 20
92.2541348037836
 30
0.0
 10
131.8119281278973
 20
92.34241435894843
 30
0.0
 10
132.0370750542492
 20
92.3855157089557
 30
0.0
 10
132.5270509056065
 20
92.46571988881094
 30
0.0
 10
132.7877585477284
 20
92.50201473620051
 30
0.0
 10
133.328615928444
 20
92.56219395535021
 30
0.0
 10
133.612306554498
 20
92.58648129278133
 30
0.0
 10
134.1963889254275
 20
92.61947938709268
 30
0.0
 10
134.4919564804194
 20
92.62799984429262
 30
0.0
 10
134.7911095280008
 20
92.62799984429262
 30
0.0
  0
LINE
  5
122
330
1F
100
AcDbEntity
  8
0
  6
HIDDEN
 62
     7
370
     0
100
AcDbLine
 10
134.7911097992
 20
92.627999417
 30
0.0
 11
136.305949739
 21
92.627999417
 31
0.0
  0
LINE
  5
123
330
1F
100
AcDbEntity
  8
0
  6
HIDDEN
 62
     7
370
     0
100
AcDbLine
 10
136.305949739
 20
131.3440604578
 30
0.0
 11
136.305949739
 21
92.627999417
 31
0.0
  0
LINE
  5
124
330
1F
100
AcDbEntity
  8
0
  6
HIDDEN
 62
     7
370
     0
100
AcDbLine
 10
134.7911097992
 20
131.3440604578
 30
0.0
 11
136.305949739
 21
131.3440604578
 31
0.0
  0
SPLINE
  5
125
330
1F
100
AcDbEntity
  8
0
  6
HIDDEN
 62
     7
370
     0
100
AcDbSpline
210
0.0
220
0.0
230
1.0
 70
     8
 71
     3
 72
    13
 73
     9
 74
     0
 42
0.00000001
 43
0.00000001
 12
1.0
 22
0.0
 32
0.0
 13
1.0
 23
0.0
 33
0.0
 40
0.0
 40
0.0
 40
0.0
 40
0.0
 40
0.0662296901117483
 40
0.2753215162072686
 40
0.4860563994664933
 40
0.7014171961323141
 40
0.9174301267263636
 40
1.0
 40
1.0
 40
1.0
 40
1.0
 10
130.3452570874052
 20
131.8448177050105
 30
0.0
 10
130.3297938680771
 20
131.8482593040376
 30
0.0
 10
130.265512169285
 20
131.8625662751367
 30
0.0
 10
130.6563789050294
 20
131.774677554609
 30
0.0
 10
131.4810733178532
 20
131.614419822808
 30
0.0
 10
132.7164923743531
 20
131.4386375654805
 30
0.0
 10
133.8935203254899
 20
131.3522753535471
 30
0.0
 10
134.5966631809806
 20
131.3458400672367
 30
0.0
 10
134.7911097992019
 20
131.3440604578009
 30
0.0
  0
SPLINE
  5
126
330
1F
100
AcDbEntity
  8
0
  6
HIDDEN
 62
     7
370
     0
100
AcDbSpline
210
0.0
220
0.0
230
1.0
 70
     8
 71
     3
 72
    76
 73
    72
 74
     0
 42
0.00000001
 43
0.00000001
 12
1.0
 22
0.0
 32
0.0
 13
1.0
 23
0.0
 33
0.0
 40
-0.0312499999999999
 40
-0.0312499999999999
 40
0.0
 40
0.0
 40
0.03125
 40
0.03125
 40
0.0625000000000001
 40
0.0625000000000001
 40
0.0937500000000001
 40
0.0937500000000001
 40
0.1250000000000001
 40
0.1250000000000001
 40
0.1562500000000002
 40
0.1562500000000002
 40
0.1875000000000002
 40
0.1875000000000002
 40
0.2031250000000002
 40
0.2031250000000002
 40
0.2187500000000002
 40
0.2187500000000002
 40
0.2500000000000001
 40
0.2500000000000001
 40
0.2812500000000001
 40
0.2812500000000001
 40
0.3125000000000001
 40
0.3125000000000001
 40
0.3437500000000002
 40
0.3437500000000002
 40
0.3750000000000002
 40
0.3750000000000002
 40
0.4062500000000002
 40
0.4062500000000002
 40
0.4375000000000003
 40
0.4375000000000003
 40
0.4687500000000003
 40
0.4687500000000003
 40
0.4843750000000003
 40
0.4843750000000003
 40
0.5000000000000003
 40
0.5000000000000003
 40
0.5312500000000003
 40
0.5312500000000003
 40
0.5625000000000004
 40
0.5625000000000004
 40
0.5937500000000004
 40
0.5937500000000004
 40
0.6250000000000004
 40
0.6250000000000004
 40
0.6562500000000006
 40
0.6562500000000006
 40
0.6875000000000006
 40
0.6875000000000006
 40
0.7187500000000006
 40
0.7187500000000006
 40
0.7343750000000006
 40
0.7343750000000006
 40
0.7500000000000006
 40
0.7500000000000006
 40
0.7812500000000006
 40
0.7812500000000006
 40
0.8125000000000004
 40
0.8125000000000004
 40
0.8437500000000003
 40
0.8437500000000003
 40
0.8750000000000003
 40
0.8750000000000003
 40
0.9062500000000002
 40
0.9062500000000002
 40
0.9375000000000001
 40
0.9375000000000001
 40
0.9687500000000001
 40
0.9687500000000001
 40
1.0
 40
1.0
 40
1.03125
 40
1.03125
 10
124.3411095280008
 20
112.1886190113678
 30
0.0
 10
124.3411095280008
 20
111.5251497232763
 30
0.0
 10
124.3737944637188
 20
111.1992152607636
 30
0.0
 10
124.5016187057295
 20
110.5583944048207
 30
0.0
 10
124.5983969789852
 20
110.2401089627784
 30
0.0
 10
124.8498496529697
 20
109.6352026245284
 30
0.0
 10
125.0035298336645
 20
109.3485193078045
 30
0.0
 10
125.3663623569786
 20
108.8060028876546
 30
0.0
 10
125.5766253141356
 20
108.5502097990605
 30
0.0
 10
126.0359289945579
 20
108.091088337506
 30
0.0
 10
126.2867698539336
 20
107.884612279877
 30
0.0
 10
126.8328012463994
 20
107.5191054488287
 30
0.0
 10
127.1216723590989
 20
107.3646692442102
 30
0.0
 10
127.5724218152484
 20
107.1773311525896
 30
0.0
 10
127.7259081309212
 20
107.1221191322288
 30
0.0
 10
128.0395370344859
 20
107.0264820622649
 30
0.0
 10
128.2006412186189
 20
106.9859035972764
 30
0.0
 10
128.6851380866211
 20
106.889169804716
 30
0.0
 10
129.010419156237
 20
106.8570920824774
 30
0.0
 10
129.6654885291632
 20
106.8566786438368
 30
0.0
 10
129.9983098617973
 20
106.8894570701144
 30
0.0
 10
130.6406184585231
 20
107.0176155412204
 30
0.0
 10
130.9529399399694
 20
107.1124193355655
 30
0.0
 10
131.5599192545225
 20
107.3641314126182
 30
0.0
 10
131.8504792730248
 20
107.5199915377267
 30
0.0
 10
132.3906688072316
 20
107.881237987789
 30
0.0
 10
132.6446735571791
 20
108.089427501806
 30
0.0
 10
133.1078975690557
 20
108.5525577517813
 30
0.0
 10
133.3138642499226
 20
108.8035279689505
 30
0.0
 10
133.6759181566184
 20
109.3438782930573
 30
0.0
 10
133.8330640830792
 20
109.6367248309974
 30
0.0
 10
134.0837997969998
 20
110.240204713227
 30
0.0
 10
134.1789696879108
 20
110.5519255971973
 30
0.0
 10
134.2758001705822
 20
111.0348257674266
 30
0.0
 10
134.3004254177725
 20
111.1993398352528
 30
0.0
 10
134.3329681219595
 20
111.5274504830352
 30
0.0
 10
134.3410398898376
 20
111.6912396419581
 30
0.0
 10
134.3412474616705
 20
112.1818271889238
 30
0.0
 10
134.3096121428813
 20
112.5078529070588
 30
0.0
 10
134.1802717486468
 20
113.1577637914323
 30
0.0
 10
134.0847718949537
 20
113.4705688023121
 30
0.0
 10
133.8350317370382
 20
114.0729559560787
 30
0.0
 10
133.6785712406113
 20
114.3654793566741
 30
0.0
 10
133.3154677366356
 20
114.9082938381112
 30
0.0
 10
133.109541686406
 20
115.1591867303924
 30
0.0
 10
132.6488270026521
 20
115.6205643401052
 30
0.0
 10
132.3930435240638
 20
115.8307080488037
 30
0.0
 10
131.8530703546066
 20
116.1922769185713
 30
0.0
 10
131.5664896420001
 20
116.3464454485724
 30
0.0
 10
130.9583509572774
 20
116.5995635166524
 30
0.0
 10
130.6436109225393
 20
116.6952716802728
 30
0.0
 10
130.1636361152057
 20
116.7914639270784
 30
0.0
 10
130.0019114666924
 20
116.8157491424444
 30
0.0
 10
129.6749131513168
 20
116.8484346476647
 30
0.0
 10
129.5086613503854
 20
116.8567970001361
 30
0.0
 10
129.0138892078747
 20
116.8570570301336
 30
0.0
 10
128.6884495673211
 20
116.8249055773229
 30
0.0
 10
128.0461614995364
 20
116.6973708481284
 30
0.0
 10
127.7269949395914
 20
116.6004314175928
 30
0.0
 10
127.1238188962207
 20
116.3502379898259
 30
0.0
 10
126.8366863849922
 20
116.1968593954038
 30
0.0
 10
126.2913420943946
 20
115.8326153849495
 30
0.0
 10
126.0375586509867
 20
115.6240900343639
 30
0.0
 10
125.578365812209
 20
115.1655165112876
 30
0.0
 10
125.3695058847767
 20
114.9120280817818
 30
0.0
 10
125.0044937622629
 20
114.3671238609216
 30
0.0
 10
124.8508667335096
 20
114.0803912586315
 30
0.0
 10
124.6001762196421
 20
113.478554683655
 30
0.0
 10
124.5027303089885
 20
113.1599819098359
 30
0.0
 10
124.3738035993897
 20
112.5155561246185
 30
0.0
 10
124.3411095280008
 20
112.1886190113678
 30
0.0
 10
124.3411095280008
 20
111.5251497232763
 30
0.0
  0
LINE
  5
127
330
1F
100
AcDbEntity
  8
0
  6
HIDDEN
 62
     7
370
     0
100
AcDbLine
 10
122.341109528
 20
131.5568844299
 30
0.0
 11
122.341109528
 21
92.1568843047
 31
0.0
  0
SPLINE
  5
128
330
1F
100
AcDbEntity
  8
0
  6
HIDDEN
 62
     7
370
     0
100
AcDbSpline
210
0.0
220
0.0
230
1.0
 70
     8
 71
     3
 72
    10
 73
     6
 74
     0
 42
0.00000001
 43
0.00000001
 12
1.0
 22
0.0
 32
0.0
 13
1.0
 23
0.0
 33
0.0
 40
0.0
 40
0.0
 40
0.0
 40
0.0
 40
0.5
 40
0.5
 40
1.0
 40
1.0
 40
1.0
 40
1.0
 10
139.3811095280008
 20
94.74400544529377
 30
0.0
 10
139.3811095280008
 20
94.7802279347344
 30
0.0
 10
139.3781397987034
 20
94.81642113199284
 30
0.0
 10
139.3662608163555
 20
94.88805962340749
 30
0.0
 10
139.3574655885149
 20
94.92293294804908
 30
0.0
 10
139.3458871274197
 20
94.9568843673214
 30
0.0
  0
LINE
  5
129
330
1F
100
AcDbEntity
  8
0
  6
HIDDEN
 62
     7
370
     0
100
AcDbLine
 10
139.3811088938
 20
94.7440052848
 30
0.0
 11
139.3811088938
 21
123.7068847264
 31
0.0
  0
SPLINE
  5
12A
330
1F
100
AcDbEntity
  8
0
  6
HIDDEN
 62
     7
370
     0
100
AcDbSpline
210
0.0
220
0.0
230
1.0
 70
     8
 71
     3
 72
    10
 73
     6
 74
     0
 42
0.00000001
 43
0.00000001
 12
1.0
 22
0.0
 32
0.0
 13
1.0
 23
0.0
 33
0.0
 40
0.0
 40
0.0
 40
0.0
 40
0.0
 40
0.5
 40
0.5
 40
1.0
 40
1.0
 40
1.0
 40
1.0
 10
137.3363319285822
 20
94.95688436732205
 30
0.0
 10
137.324619811619
 20
94.92254103012806
 30
0.0
 10
137.315821741747
 20
94.88744849238985
 30
0.0
 10
137.3040081839749
 20
94.81577671699911
 30
0.0
 10
137.3011095280008
 20
94.77983306263384
 30
0.0
 10
137.3011095280008
 20
94.74400544529374
 30
0.0
  0
LINE
  5
12B
330
1F
100
AcDbEntity
  8
0
  6
HIDDEN
 62
     7
370
     0
100
AcDbLine
 10
137.3011098195
 20
94.7440052848
 30
0.0
 11
137.3011098195
 21
123.7068847264
 31
0.0
  0
LINE
  5
12C
330
1F
100
AcDbEntity
  8
0
  6
HIDDEN
 62
     7
370
     0
100
AcDbLine
 10
130.2911099929
 20
123.7068847264
 30
0.0
 11
134.7847795997
 21
123.7068847264
 31
0.0
  0
LINE
  5
12D
330
1F
100
AcDbEntity
  8
0
  6
HIDDEN
 62
     7
370
     0
100
AcDbLine
 10
122.341109528
 20
95.649682961
 30
0.0
 11
122.341109528
 21
128.0425964366
 31
0.0
  0
LINE
  5
12E
330
1F
100
AcDbEntity
  8
0
  6
HIDDEN
 62
     7
370
     0
100
AcDbLine
 10
142.2911100972
 20
96.3568846206
 30
0.0
 11
142.2911100972
 21
127.356884114
 31
0.0
  0
LINE
  5
12F
330
1F
100
AcDbEntity
  8
0
  6
HIDDEN
 62
     7
370
     0
100
AcDbLine
 10
120.341109433
 20
126.9605849381
 30
0.0
 11
120.341109433
 21
96.7531837966
 31
0.0
  0
SPLINE
  5
130
330
1F
100
AcDbEntity
  8
0
  6
HIDDEN
 62
     7
370
     0
100
AcDbSpline
210
0.0
220
0.0
230
1.0
 70
     8
 71
     3
 72
     8
 73
     4
 74
     0
 42
0.00000001
 43
0.00000001
 12
1.0
 22
0.0
 32
0.0
 13
1.0
 23
0.0
 33
0.0
 40
0.0
 40
0.0
 40
0.0
 40
0.0
 40
1.0
 40
1.0
 40
1.0
 40
1.0
 10
103.3825933784317
 20
99.15370666777848
 30
0.0
 10
103.3967278230598
 20
99.10291034414524
 30
0.0
 10
103.4197851982084
 20
99.05367159358501
 30
0.0
 10
103.4501095280008
 20
99.00581748976576
 30
0.0
  0
SPLINE
  5
131
330
1F
100
AcDbEntity
  8
0
  6
HIDDEN
 62
     7
370
     0
100
AcDbSpline
210
0.0
220
0.0
230
1.0
 70
     8
 71
     3
 72
    10
 73
     6
 74
     0
 42
0.00000001
 43
0.00000001
 12
1.0
 22
0.0
 32
0.0
 13
1.0
 23
0.0
 33
0.0
 40
0.0
 40
0.0
 40
0.0
 40
0.0
 40
0.5
 40
0.5
 40
1.0
 40
1.0
 40
1.0
 40
1.0
 10
103.4501095280008
 20
99.00581748976572
 30
0.0
 10
103.6654685585582
 20
99.01283032073627
 30
0.0
 10
103.8799098968822
 20
99.02160504439155
 30
0.0
 10
104.3049011155027
 20
99.04665822193937
 30
0.0
 10
104.5162738472254
 20
99.06134405473969
 30
0.0
 10
104.7202861363023
 20
99.09026224024443
 30
0.0
  0
SPLINE
  5
132
330
1F
100
AcDbEntity
  8
0
  6
HIDDEN
 62
     7
370
     0
100
AcDbSpline
210
0.0
220
0.0
230
1.0
 70
     8
 71
     3
 72
    10
 73
     6
 74
     0
 42
0.00000001
 43
0.00000001
 12
1.0
 22
0.0
 32
0.0
 13
1.0
 23
0.0
 33
0.0
 40
0.0
 40
0.0
 40
0.0
 40
0.0
 40
0.5
 40
0.5
 40
1.0
 40
1.0
 40
1.0
 40
1.0
 10
104.7202861363024
 20
99.0902622402444
 30
0.0
 10
105.1931905668921
 20
99.15729515336793
 30
0.0
 10
105.6761954997365
 20
99.21516365453377
 30
0.0
 10
106.6520098780893
 20
99.32200480289399
 30
0.0
 10
107.1454840911133
 20
99.3707557372327
 30
0.0
 10
107.6411095280007
 20
99.41651431981097
 30
0.0
  0
SPLINE
  5
133
330
1F
100
AcDbEntity
  8
0
  6
HIDDEN
 62
     7
370
     0
100
AcDbSpline
210
0.0
220
0.0
230
1.0
 70
     8
 71
     3
 72
    14
 73
    10
 74
     0
 42
0.00000001
 43
0.00000001
 12
1.0
 22
0.0
 32
0.0
 13
1.0
 23
0.0
 33
0.0
 40
0.0
 40
0.0
 40
0.0
 40
0.0
 40
0.1249999999999998
 40
0.1249999999999998
 40
0.2499999999999996
 40
0.2499999999999996
 40
0.4999999999999992
 40
0.4999999999999992
 40
1.0
 40
1.0
 40
1.0
 40
1.0
 10
107.6411095280008
 20
99.41651431981093
 30
0.0
 10
107.6901218508121
 20
99.42103937896609
 30
0.0
 10
107.7429280758075
 20
99.4129199934116
 30
0.0
 10
107.827995167537
 20
99.38258991826018
 30
0.0
 10
107.8625793528777
 20
99.36193496118374
 30
0.0
 10
107.951135038215
 20
99.2973988378569
 30
0.0
 10
107.9920707395362
 20
99.25016065780432
 30
0.0
 10
108.0959512664392
 20
99.11036455652061
 30
0.0
 10
108.1391750658713
 20
99.01647961765133
 30
0.0
 10
108.1733744351439
 20
98.92650850443731
 30
0.0
  0
SPLINE
  5
134
330
1F
100
AcDbEntity
  8
0
  6
HIDDEN
 62
     7
370
     0
100
AcDbSpline
210
0.0
220
0.0
230
1.0
 70
     8
 71
     3
 72
    12
 73
     8
 74
     0
 42
0.00000001
 43
0.00000001
 12
1.0
 22
0.0
 32
0.0
 13
1.0
 23
0.0
 33
0.0
 40
0.0
 40
0.0
 40
0.0
 40
0.0
 40
0.2499999999999994
 40
0.2499999999999994
 40
0.4999999999999989
 40
0.4999999999999989
 40
1.0
 40
1.0
 40
1.0
 40
1.0
 10
108.1733744351439
 20
98.92650850443731
 30
0.0
 10
108.1987986520378
 20
98.85962291136352
 30
0.0
 10
108.2394104916071
 20
98.79517442167992
 30
0.0
 10
108.3240116378793
 20
98.67017376160206
 30
0.0
 10
108.3681084341648
 20
98.60965501640993
 30
0.0
 10
108.4841775426509
 20
98.43344896030152
 30
0.0
 10
108.5411095280008
 20
98.32305454532973
 30
0.0
 10
108.5411095280008
 20
98.22013766923656
 30
0.0
  0
LINE
  5
135
330
1F
100
AcDbEntity
  8
0
  6
HIDDEN
 62
     7
370
     0
100
AcDbLine
 10
108.5411096874
 20
98.2201379235
 30
0.0
 11
108.5411096874
 21
97.3443659465
 31
0.0
  0
LINE
  5
136
330
1F
100
AcDbEntity
  8
0
  6
HIDDEN
 62
     7
370
     0
100
AcDbLine
 10
106.0411092777
 20
126.244152009
 30
0.0
 11
106.0411092777
 21
125.4144087876
 31
0.0
  0
SPLINE
  5
137
330
1F
100
AcDbEntity
  8
0
  6
HIDDEN
 62
     7
370
     0
100
AcDbSpline
210
0.0
220
0.0
230
1.0
 70
     8
 71
     3
 72
    20
 73
    16
 74
     0
 42
0.00000001
 43
0.00000001
 12
1.0
 22
0.0
 32
0.0
 13
1.0
 23
0.0
 33
0.0
 40
0.0
 40
0.0
 40
0.0
 40
0.0
 40
0.2500000000000002
 40
0.2500000000000002
 40
0.5000000000000003
 40
0.5000000000000003
 40
0.7500000000000004
 40
0.7500000000000004
 40
0.8750000000000019
 40
0.8750000000000019
 40
0.937500000000003
 40
0.937500000000003
 40
0.9687500000000016
 40
0.9687500000000016
 40
1.0
 40
1.0
 40
1.0
 40
1.0
 10
106.0411095280017
 20
125.4144084890699
 30
0.0
 10
106.0411095280017
 20
125.3537990893725
 30
0.0
 10
106.0157145084248
 20
125.287973123969
 30
0.0
 10
105.9294213226429
 20
125.1539253546224
 30
0.0
 10
105.8687853439596
 20
125.0852299964806
 30
0.0
 10
105.7206835497383
 20
124.9448314448261
 30
0.0
 10
105.6339139429597
 20
124.8731279402448
 30
0.0
 10
105.4852761476305
 20
124.7669645384959
 30
0.0
 10
105.4329869307443
 20
124.7314361898644
 30
0.0
 10
105.3422231024343
 20
124.6817322593489
 30
0.0
 10
105.3098571099824
 20
124.6654712613338
 30
0.0
 10
105.2521679543161
 20
124.6463586929879
 30
0.0
 10
105.2311809264287
 20
124.6409675509064
 30
0.0
 10
105.1858919474383
 20
124.6352301825139
 30
0.0
 10
105.1628776785998
 20
124.6352529161673
 30
0.0
 10
105.1411095280002
 20
124.6376782259802
 30
0.0
  0
SPLINE
  5
138
330
1F
100
AcDbEntity
  8
0
  6
HIDDEN
 62
     7
370
     0
100
AcDbSpline
210
0.0
220
0.0
230
1.0
 70
     8
 71
     3
 72
    12
 73
     8
 74
     0
 42
0.00000001
 43
0.00000001
 12
1.0
 22
0.0
 32
0.0
 13
1.0
 23
0.0
 33
0.0
 40
0.0
 40
0.0
 40
0.0
 40
0.0
 40
0.2499999999999986
 40
0.2499999999999986
 40
0.4999999999999971
 40
0.4999999999999971
 40
1.0
 40
1.0
 40
1.0
 40
1.0
 10
105.1411095280009
 20
124.6376782259813
 30
0.0
 10
104.9990671248116
 20
124.6535039541575
 30
0.0
 10
104.8549490183075
 20
124.6645250879328
 30
0.0
 10
104.565194504635
 20
124.6830614498
 30
0.0
 10
104.4194526012762
 20
124.6903321555358
 30
0.0
 10
103.9807723620963
 20
124.7087930058637
 30
0.0
 10
103.6863967460251
 20
124.7166718726873
 30
0.0
 10
103.3911095280008
 20
124.7224649143004
 30
0.0
  0
SPLINE
  5
139
330
1F
100
AcDbEntity
  8
0
  6
HIDDEN
 62
     7
370
     0
100
AcDbSpline
210
0.0
220
0.0
230
1.0
 70
     8
 71
     3
 72
     8
 73
     4
 74
     0
 42
0.00000001
 43
0.00000001
 12
1.0
 22
0.0
 32
0.0
 13
1.0
 23
0.0
 33
0.0
 40
0.0
 40
0.0
 40
0.0
 40
0.0
 40
1.0
 40
1.0
 40
1.0
 40
1.0
 10
103.3911095280008
 20
124.7224649143004
 30
0.0
 10
103.3453446203115
 20
124.6609445351416
 30
0.0
 10
103.3109574986815
 20
124.5970496753921
 30
0.0
 10
103.2919422450086
 20
124.5303197303484
 30
0.0
  0
ELLIPSE
  5
13A
330
1F
100
AcDbEntity
  8
0
  6
HIDDEN
 62
     7
370
     0
100
AcDbEllipse
 10
89.8349888895
 20
112.4959948186
 30
0.0
 11
13.369636111343
 21
13.36754752639487
 31
0.0
210
0.0
220
0.0
230
1.0
 40
0.1761188775
 41
5.933076931846597
 42
5.976720052691191
  0
ELLIPSE
  5
13B
330
1F
100
AcDbEntity
  8
0
  6
HIDDEN
 62
     7
370
     0
100
AcDbEllipse
 10
89.9143673202
 20
111.2175866895
 30
0.0
 11
13.37355272666622
 21
-13.37146352987018
 31
0.0
210
0.0
220
0.0
230
1.0
 40
0.1761188775
 41
0.3023035477142482
 42
0.3822730435340365
  0
SPLINE
  5
13C
330
1F
100
AcDbEntity
  8
0
  6
HIDDEN
 62
     7
370
     0
100
AcDbSpline
210
0.0
220
0.0
230
1.0
 70
     8
 71
     3
 72
    10
 73
     6
 74
     0
 42
0.00000001
 43
0.00000001
 12
1.0
 22
0.0
 32
0.0
 13
1.0
 23
0.0
 33
0.0
 40
0.0
 40
0.0
 40
0.0
 40
0.0
 40
0.3556500133838636
 40
0.6701422857082747
 40
0.9999999999999999
 40
0.9999999999999999
 40
0.9999999999999999
 40
0.9999999999999999
 10
113.9901011202292
 20
97.15812937126073
 30
0.0
 10
113.9222241481289
 20
97.1489590036977
 30
0.0
 10
113.7943252938664
 20
97.13167951305185
 30
0.0
 10
113.5235767284984
 20
97.09497925433064
 30
0.0
 10
113.5600730923419
 20
97.10015409919345
 30
0.0
 10
113.5787564281182
 20
97.10280322239312
 30
0.0
  0
SPLINE
  5
13D
330
1F
100
AcDbEntity
  8
0
  6
HIDDEN
 62
     7
370
     0
100
AcDbSpline
210
0.0
220
0.0
230
1.0
 70
     8
 71
     3
 72
    18
 73
    14
 74
     0
 42
0.00000001
 43
0.00000001
 12
1.0
 22
0.0
 32
0.0
 13
1.0
 23
0.0
 33
0.0
 40
0.0
 40
0.0
 40
0.0
 40
0.0
 40
0.0797648011226086
 40
0.2353261320378015
 40
0.3892122252592616
 40
0.4654319374907336
 40
0.5419046091824082
 40
0.6184021347586394
 40
0.6937209719064595
 40
0.769308580431867
 40
0.8460925159706034
 40
0.8462967226860687
 40
1.0
 40
1.0
 40
1.0
 40
1.0
 10
119.0544181454734
 20
96.82822790697726
 30
0.0
 10
119.0648038617832
 20
96.82579480976953
 30
0.0
 10
119.0954443249098
 20
96.8186165638928
 30
0.0
 10
118.6763744292943
 20
96.91977338733636
 30
0.0
 10
118.0375750952319
 20
97.0481560441477
 30
0.0
 10
117.3893734354636
 20
97.14386484161534
 30
0.0
 10
116.8611919180684
 20
97.20163674626487
 30
0.0
 10
116.3113492111981
 20
97.24150784267698
 30
0.0
 10
115.763875037987
 20
97.25796651535423
 30
0.0
 10
115.2313871527738
 20
97.2541081879927
 30
0.0
 10
114.9228001274429
 20
97.23537830976937
 30
0.0
 10
114.4376944947
 20
97.2129467421026
 30
0.0
 10
114.2137492405347
 20
97.18551986148718
 30
0.0
 10
113.9901011202292
 20
97.15812937126073
 30
0.0
  0
SPLINE
  5
13E
330
1F
100
AcDbEntity
  8
0
  6
HIDDEN
 62
     7
370
     0
100
AcDbSpline
210
0.0
220
0.0
230
1.0
 70
     8
 71
     3
 72
    17
 73
    13
 74
     0
 42
0.00000001
 43
0.00000001
 12
1.0
 22
0.0
 32
0.0
 13
1.0
 23
0.0
 33
0.0
 40
0.0
 40
0.0
 40
0.0
 40
0.0
 40
0.0739032592964082
 40
0.1539091980336703
 40
0.2309802373583709
 40
0.3067447509546574
 40
0.3820733627555467
 40
0.4587871621567985
 40
0.610816575411645
 40
0.7646256279590509
 40
0.9200673208647654
 40
1.0
 40
1.0
 40
1.0
 40
1.0
 10
113.9899828422622
 20
126.5556244622222
 30
0.0
 10
114.1154683001025
 20
126.5446772927286
 30
0.0
 10
114.3768013774925
 20
126.5218789737703
 30
0.0
 10
114.7299539701272
 20
126.4837015579458
 30
0.0
 10
115.2404994598616
 20
126.4609067240547
 30
0.0
 10
115.7631236889244
 20
126.4554410833396
 30
0.0
 10
116.3142308036049
 20
126.472435124959
 30
0.0
 10
117.0436746266346
 20
126.5250057759904
 30
0.0
 10
117.915582407764
 20
126.6403474738429
 30
0.0
 10
118.6769575497589
 20
126.7941634604561
 30
0.0
 10
119.0955149906074
 20
126.8952080302845
 30
0.0
 10
119.0647770591546
 20
126.8878629186286
 30
0.0
 10
119.0543385173933
 20
126.8853685329905
 30
0.0
  0
SPLINE
  5
13F
330
1F
100
AcDbEntity
  8
0
  6
HIDDEN
 62
     7
370
     0
100
AcDbSpline
210
0.0
220
0.0
230
1.0
 70
     8
 71
     3
 72
     9
 73
     5
 74
     0
 42
0.00000001
 43
0.00000001
 12
1.0
 22
0.0
 32
0.0
 13
1.0
 23
0.0
 33
0.0
 40
0.0
 40
0.0
 40
0.0
 40
0.0
 40
0.3345276464619002
 40
1.0
 40
1.0
 40
1.0
 40
1.0
 10
113.5774395379977
 20
126.6107783164135
 30
0.0
 10
113.5652356609104
 20
126.6123921174324
 30
0.0
 10
113.528754738582
 20
126.617216235965
 30
0.0
 10
113.8056900492765
 20
126.5802346711783
 30
0.0
 10
113.9899828422622
 20
126.5556244622222
 30
0.0
  0
SPLINE
  5
140
330
1F
100
AcDbEntity
  8
0
  6
HIDDEN
 62
     7
370
     0
100
AcDbSpline
210
0.0
220
0.0
230
1.0
 70
    11
 71
     3
 72
    14
 73
    10
 74
     0
 42
0.00000001
 43
0.00000001
 12
1.0
 22
0.0
 32
0.0
 13
1.0
 23
0.0
 33
0.0
 40
0.0
 40
0.0
 40
0.0
 40
0.0
 40
0.25
 40
0.25
 40
0.5
 40
0.5
 40
0.75
 40
0.75
 40
1.0
 40
1.0
 40
1.0
 40
1.0
 10
118.1652862558783
 20
124.5296946608019
 30
0.0
 10
118.3191621515811
 20
124.5518441936539
 30
0.0
 10
118.4370427192102
 20
124.5646562607276
 30
0.0
 10
118.6001065091228
 20
124.581008969558
 30
0.0
 10
118.6410230277465
 20
124.5841847322759
 30
0.0
 10
118.6411957602627
 20
124.5841994344526
 30
0.0
 10
118.6002680020288
 20
124.5810198834592
 30
0.0
 10
118.4379306365633
 20
124.5647505519817
 30
0.0
 10
118.3191603684572
 20
124.5518439369837
 30
0.0
 10
118.1652862558783
 20
124.5296946608019
 30
0.0
  0
SPLINE
  5
141
330
1F
100
AcDbEntity
  8
0
  6
HIDDEN
 62
     7
370
     0
100
AcDbSpline
210
0.0
220
0.0
230
1.0
 70
    11
 71
     3
 72
    14
 73
    10
 74
     0
 42
0.00000001
 43
0.00000001
 12
1.0
 22
0.0
 32
0.0
 13
1.0
 23
0.0
 33
0.0
 40
0.0
 40
0.0
 40
0.0
 40
0.0
 40
0.25
 40
0.25
 40
0.5
 40
0.5
 40
0.75
 40
0.75
 40
1.0
 40
1.0
 40
1.0
 40
1.0
 10
118.1652862558783
 20
99.18407407384217
 30
0.0
 10
118.3191621515811
 20
99.16192454099019
 30
0.0
 10
118.4370427192102
 20
99.14911247391655
 30
0.0
 10
118.6001065091228
 20
99.13275976508609
 30
0.0
 10
118.6410230277465
 20
99.12958400236822
 30
0.0
 10
118.6411957602627
 20
99.1295693001915
 30
0.0
 10
118.6002680020289
 20
99.13274885118491
 30
0.0
 10
118.4379306365633
 20
99.1490181826624
 30
0.0
 10
118.3191603684572
 20
99.1619247976604
 30
0.0
 10
118.1652862558783
 20
99.18407407384217
 30
0.0
  0
LINE
  5
142
330
1F
100
AcDbEntity
  8
0
  6
HIDDEN
 62
     7
370
     0
100
AcDbLine
 10
122.341109528
 20
101.3568845089
 30
0.0
 11
122.341109528
 21
122.3353110696
 31
0.0
  0
SPLINE
  5
143
330
1F
100
AcDbEntity
  8
0
  6
HIDDEN
 62
     7
370
     0
100
AcDbSpline
210
0.0
220
0.0
230
1.0
 70
    11
 71
     3
 72
    50
 73
    46
 74
     0
 42
0.00000001
 43
0.00000001
 12
1.0
 22
0.0
 32
0.0
 13
1.0
 23
0.0
 33
0.0
 40
0.0
 40
0.0
 40
0.0
 40
0.0
 40
0.0624999999999998
 40
0.0624999999999998
 40
0.1249999999999995
 40
0.1249999999999995
 40
0.1562499999999995
 40
0.1562499999999995
 40
0.1874999999999994
 40
0.1874999999999994
 40
0.2187499999999994
 40
0.2187499999999994
 40
0.2499999999999994
 40
0.2499999999999994
 40
0.2812499999999994
 40
0.2812499999999994
 40
0.3124999999999994
 40
0.3124999999999994
 40
0.3749999999999996
 40
0.3749999999999996
 40
0.4374999999999997
 40
0.4374999999999997
 40
0.4999999999999999
 40
0.4999999999999999
 40
0.53125
 40
0.53125
 40
0.5625000000000001
 40
0.5625000000000001
 40
0.5937500000000002
 40
0.5937500000000002
 40
0.6250000000000003
 40
0.6250000000000003
 40
0.6562500000000004
 40
0.6562500000000004
 40
0.6875000000000006
 40
0.6875000000000006
 40
0.7500000000000003
 40
0.7500000000000003
 40
0.8125000000000002
 40
0.8125000000000002
 40
0.8750000000000001
 40
0.8750000000000001
 40
0.9375
 40
0.9375
 40
1.0
 40
1.0
 40
1.0
 40
1.0
 10
118.1652862558783
 20
99.18407407384214
 30
0.0
 10
118.0190314210767
 20
99.2051265996676
 30
0.0
 10
117.8475627841183
 20
99.22740782434965
 30
0.0
 10
117.4544181786083
 20
99.26824931469856
 30
0.0
 10
117.2391739930431
 20
99.2860069496195
 30
0.0
 10
116.8964342064934
 20
99.3042802424631
 30
0.0
 10
116.7781878234379
 20
99.30899018147714
 30
0.0
 10
116.5424088212596
 20
99.31498927653593
 30
0.0
 10
116.4238425115536
 20
99.31634510893176
 30
0.0
 10
116.1853474307531
 20
99.31565069692105
 30
0.0
 10
116.0645550372312
 20
99.31355219392972
 30
0.0
 10
115.8294890717661
 20
99.30616904440393
 30
0.0
 10
115.7144335592661
 20
99.30090628113298
 30
0.0
 10
115.4892138045232
 20
99.28765251908446
 30
0.0
 10
115.3781316349209
 20
99.27957344440699
 30
0.0
 10
115.1668801879853
 20
99.26163771741197
 30
0.0
 10
115.0665219534845
 20
99.25180148219853
 30
0.0
 10
114.7808779964611
 20
99.22078581377708
 30
0.0
 10
114.6105992528652
 20
99.1979541195584
 30
0.0
 10
114.3344481229449
 20
99.1572568452277
 30
0.0
 10
114.2247489365602
 20
99.13893079565553
 30
0.0
 10
114.0792058553962
 20
99.11390319641058
 30
0.0
 10
114.041199219939
 20
99.10690054704311
 30
0.0
 10
114.0410649265811
 20
99.10687632157631
 30
0.0
 10
114.0501826818234
 20
99.10853090883245
 30
0.0
 10
114.087101227337
 20
99.11511355210533
 30
0.0
 10
114.1150748823617
 20
99.120069793628
 30
0.0
 10
114.187846461814
 20
99.13258646632633
 30
0.0
 10
114.2327716999757
 20
99.14017100563979
 30
0.0
 10
114.3398150149312
 20
99.15747926101295
 30
0.0
 10
114.4023830558977
 20
99.16726355280568
 30
0.0
 10
114.5407739586371
 20
99.18766875447176
 30
0.0
 10
114.6169574144115
 20
99.19835370939484
 30
0.0
 10
114.7833131482226
 20
99.21993744697222
 30
0.0
 10
114.8743414506673
 20
99.23092355597336
 30
0.0
 10
115.1609952673402
 20
99.26208063973945
 30
0.0
 10
115.3730473254578
 20
99.28077682677564
 30
0.0
 10
115.8262246014124
 20
99.30752410749112
 30
0.0
 10
116.0608542501523
 20
99.31522971419294
 30
0.0
 10
116.5422777996109
 20
99.3167477216911
 30
0.0
 10
116.7775831698794
 20
99.31055903345876
 30
0.0
 10
117.2374908215549
 20
99.28615369776593
 30
0.0
 10
117.4519193335141
 20
99.26847054384062
 30
0.0
 10
117.8451185182795
 20
99.227699626808
 30
0.0
 10
118.0190275899446
 20
99.20512715113658
 30
0.0
 10
118.1652862558783
 20
99.18407407384213
 30
0.0
  0
SPLINE
  5
144
330
1F
100
AcDbEntity
  8
0
  6
HIDDEN
 62
     7
370
     0
100
AcDbSpline
210
0.0
220
0.0
230
1.0
 70
    11
 71
     3
 72
    50
 73
    46
 74
     0
 42
0.00000001
 43
0.00000001
 12
1.0
 22
0.0
 32
0.0
 13
1.0
 23
0.0
 33
0.0
 40
0.0
 40
0.0
 40
0.0
 40
0.0
 40
0.0625
 40
0.0625
 40
0.1250000000000001
 40
0.1250000000000001
 40
0.1562500000000002
 40
0.1562500000000002
 40
0.1875000000000003
 40
0.1875000000000003
 40
0.2187500000000005
 40
0.2187500000000005
 40
0.2500000000000006
 40
0.2500000000000006
 40
0.2812500000000007
 40
0.2812500000000007
 40
0.3125000000000008
 40
0.3125000000000008
 40
0.375000000000001
 40
0.375000000000001
 40
0.4375000000000011
 40
0.4375000000000011
 40
0.5000000000000011
 40
0.5000000000000011
 40
0.5312500000000011
 40
0.5312500000000011
 40
0.5625000000000011
 40
0.5625000000000011
 40
0.5937500000000011
 40
0.5937500000000011
 40
0.6250000000000012
 40
0.6250000000000012
 40
0.6562500000000011
 40
0.6562500000000011
 40
0.687500000000001
 40
0.687500000000001
 40
0.7500000000000008
 40
0.7500000000000008
 40
0.8125000000000006
 40
0.8125000000000006
 40
0.8750000000000004
 40
0.8750000000000004
 40
0.9375000000000002
 40
0.9375000000000002
 40
1.0
 40
1.0
 40
1.0
 40
1.0
 10
118.1652862558783
 20
124.529694660802
 30
0.0
 10
118.0190314210767
 20
124.5086421349765
 30
0.0
 10
117.8475627841183
 20
124.4863609102945
 30
0.0
 10
117.4544181786083
 20
124.4455194199455
 30
0.0
 10
117.2391739930431
 20
124.4277617850246
 30
0.0
 10
116.8964342064934
 20
124.409488492181
 30
0.0
 10
116.7781878234379
 20
124.404778553167
 30
0.0
 10
116.5424088212596
 20
124.3987794581082
 30
0.0
 10
116.4238425115537
 20
124.3974236257123
 30
0.0
 10
116.1853474307531
 20
124.3981180377231
 30
0.0
 10
116.0645550372312
 20
124.4002165407144
 30
0.0
 10
115.8294890717661
 20
124.4075996902402
 30
0.0
 10
115.7144335592661
 20
124.4128624535111
 30
0.0
 10
115.4892138045232
 20
124.4261162155596
 30
0.0
 10
115.3781316349209
 20
124.4341952902371
 30
0.0
 10
115.1668801879853
 20
124.4521310172321
 30
0.0
 10
115.0665219534845
 20
124.4619672524456
 30
0.0
 10
114.7808779964611
 20
124.492982920867
 30
0.0
 10
114.6105992528652
 20
124.5158146150857
 30
0.0
 10
114.3344481229449
 20
124.5565118894164
 30
0.0
 10
114.2247489365602
 20
124.5748379389886
 30
0.0
 10
114.0792058553962
 20
124.5998655382335
 30
0.0
 10
114.041199219939
 20
124.606868187601
 30
0.0
 10
114.0410649265811
 20
124.6068924130678
 30
0.0
 10
114.0501826818234
 20
124.6052378258116
 30
0.0
 10
114.087101227337
 20
124.5986551825388
 30
0.0
 10
114.1150748823617
 20
124.5936989410161
 30
0.0
 10
114.187846461814
 20
124.5811822683178
 30
0.0
 10
114.2327716999757
 20
124.5735977290043
 30
0.0
 10
114.3398150149312
 20
124.5562894736312
 30
0.0
 10
114.4023830558977
 20
124.5465051818384
 30
0.0
 10
114.5407739586371
 20
124.5260999801724
 30
0.0
 10
114.6169574144115
 20
124.5154150252493
 30
0.0
 10
114.7833131482226
 20
124.4938312876719
 30
0.0
 10
114.8743414506673
 20
124.4828451786708
 30
0.0
 10
115.1609952673402
 20
124.4516880949046
 30
0.0
 10
115.3730473254578
 20
124.4329919078685
 30
0.0
 10
115.8262246014124
 20
124.406244627153
 30
0.0
 10
116.0608542501523
 20
124.3985390204512
 30
0.0
 10
116.5422777996109
 20
124.397021012953
 30
0.0
 10
116.7775831698794
 20
124.4032097011853
 30
0.0
 10
117.2374908215549
 20
124.4276150368782
 30
0.0
 10
117.4519193335141
 20
124.4452981908035
 30
0.0
 10
117.8451185182795
 20
124.4860691078361
 30
0.0
 10
118.0190275899446
 20
124.5086415835075
 30
0.0
 10
118.1652862558783
 20
124.529694660802
 30
0.0
  0
LINE
  5
145
330
1F
100
AcDbEntity
  8
0
  6
HIDDEN
 62
     7
370
     0
100
AcDbLine
 10
110.3437590364
 20
122.3568842258
 30
0.0
 11
110.3437590364
 21
101.3568845089
 31
0.0
  0
SPLINE
  5
146
330
1F
100
AcDbEntity
  8
0
  6
HIDDEN
 62
     7
370
     0
100
AcDbSpline
210
0.0
220
0.0
230
1.0
 70
     8
 71
     3
 72
    62
 73
    58
 74
     0
 42
0.00000001
 43
0.00000001
 12
1.0
 22
0.0
 32
0.0
 13
1.0
 23
0.0
 33
0.0
 40
-0.03125
 40
-0.03125
 40
0.0
 40
0.0
 40
0.0312499999999996
 40
0.0312499999999996
 40
0.0624999999999992
 40
0.0624999999999992
 40
0.0937499999999988
 40
0.0937499999999988
 40
0.1249999999999983
 40
0.1249999999999983
 40
0.1874999999999974
 40
0.1874999999999974
 40
0.2187499999999975
 40
0.2187499999999975
 40
0.2499999999999976
 40
0.2499999999999976
 40
0.2812499999999977
 40
0.2812499999999977
 40
0.3124999999999978
 40
0.3124999999999978
 40
0.3437499999999978
 40
0.3437499999999978
 40
0.3749999999999979
 40
0.3749999999999979
 40
0.406249999999998
 40
0.406249999999998
 40
0.4374999999999981
 40
0.4374999999999981
 40
0.4687499999999982
 40
0.4687499999999982
 40
0.4999999999999983
 40
0.4999999999999983
 40
0.5624999999999984
 40
0.5624999999999984
 40
0.5937499999999987
 40
0.5937499999999987
 40
0.6249999999999988
 40
0.6249999999999988
 40
0.6562499999999988
 40
0.6562499999999988
 40
0.6874999999999988
 40
0.6874999999999988
 40
0.749999999999999
 40
0.749999999999999
 40
0.7812499999999991
 40
0.7812499999999991
 40
0.8124999999999992
 40
0.8124999999999992
 40
0.8437499999999994
 40
0.8437499999999994
 40
0.8749999999999996
 40
0.8749999999999996
 40
0.9374999999999998
 40
0.9374999999999998
 40
0.96875
 40
0.96875
 40
1.0
 40
1.0
 40
1.03125
 40
1.03125
 10
220.175499005088
 20
108.2989621326675
 30
0.0
 10
220.5067200509136
 20
108.2989621326675
 30
0.0
 10
220.6694773307626
 20
108.3149002321863
 30
0.0
 10
220.989545816566
 20
108.377303428499
 30
0.0
 10
221.1485442975417
 20
108.4245553044036
 30
0.0
 10
221.4510784761281
 20
108.5476393915464
 30
0.0
 10
221.5945001888031
 20
108.622940115112
 30
0.0
 10
221.8659306998574
 20
108.8009819202948
 30
0.0
 10
221.9941120932807
 20
108.9044214886847
 30
0.0
 10
222.3390289738215
 20
109.2438116998655
 30
0.0
 10
222.5251635429957
 20
109.5181394656205
 30
0.0
 10
222.7124061338689
 20
109.9643560686989
 30
0.0
 10
222.7606406986829
 20
110.120934749344
 30
0.0
 10
222.8250313687744
 20
110.4415001695422
 30
0.0
 10
222.8410122758447
 20
110.6030849938434
 30
0.0
 10
222.8412059036199
 20
110.9288408167761
 30
0.0
 10
222.8248755257349
 20
111.0946235690857
 30
0.0
 10
222.7609117739858
 20
111.4154486761219
 30
0.0
 10
222.7135904677125
 20
111.5717018151199
 30
0.0
 10
222.5879935816249
 20
111.8757796837518
 30
0.0
 10
222.5099063505158
 20
112.0221966812103
 30
0.0
 10
222.3291666513179
 20
112.2941952796132
 30
0.0
 10
222.2253706622437
 20
112.4218811898054
 30
0.0
 10
221.9930585920916
 20
112.6562908228
 30
0.0
 10
221.8672929737853
 20
112.7604585766538
 30
0.0
 10
221.5969771933223
 20
112.943443126511
 30
0.0
 10
221.4506310969419
 20
113.0228769708183
 30
0.0
 10
221.1485055325029
 20
113.1498669916718
 30
0.0
 10
220.9926857031844
 20
113.1979749286119
 30
0.0
 10
220.6714281779623
 20
113.2631926323465
 30
0.0
 10
220.5054965074359
 20
113.2798680209178
 30
0.0
 10
220.0153867546455
 20
113.2800701982143
 30
0.0
 10
219.6856067318563
 20
113.2134127435266
 30
0.0
 10
219.2340634072469
 20
113.0240651806936
 30
0.0
 10
219.0880658130628
 20
112.9451735262181
 30
0.0
 10
218.8158750771674
 20
112.7612796971531
 30
0.0
 10
218.6902661637973
 20
112.6571523673101
 30
0.0
 10
218.4596009260741
 20
112.4249084958898
 30
0.0
 10
218.3541726076604
 20
112.2956854246679
 30
0.0
 10
218.1730413868715
 20
112.0234869691472
 30
0.0
 10
218.0960384748663
 20
111.8794877824678
 30
0.0
 10
217.9067274199764
 20
111.4231736407941
 30
0.0
 10
217.8413417901268
 20
111.0980895598033
 30
0.0
 10
217.8409943199616
 20
110.6047326967769
 30
0.0
 10
217.8570710184729
 20
110.4430240078342
 30
0.0
 10
217.9205992084681
 20
110.1248824608866
 30
0.0
 10
217.9688947780783
 20
109.9668825457557
 30
0.0
 10
218.094040732361
 20
109.6679752051853
 30
0.0
 10
218.1707032214313
 20
109.5261640983816
 30
0.0
 10
218.3523380080565
 20
109.2576261832813
 30
0.0
 10
218.4572647982956
 20
109.1317007608
 30
0.0
 10
218.8017220734324
 20
108.7923568397186
 30
0.0
 10
219.0798142808095
 20
108.6094988672685
 30
0.0
 10
219.5307812304673
 20
108.4255872673731
 30
0.0
 10
219.6893665600732
 20
108.378083157107
 30
0.0
 10
220.0120440025044
 20
108.3149029001487
 30
0.0
 10
220.175499005088
 20
108.2989621326675
 30
0.0
 10
220.5067200509136
 20
108.2989621326675
 30
0.0
  0
LINE
  5
147
330
1F
100
AcDbEntity
  8
0
  6
HIDDEN
 62
     7
370
     0
100
AcDbLine
 10
134.7847795997
 20
123.7068847264
 30
0.0
 11
142.2911100972
 21
123.7068847264
 31
0.0
  0
LINE
  5
148
330
1F
100
AcDbEntity
  8
0
  6
HIDDEN
 62
     7
370
     0
100
AcDbLine
 10
139.3811088938
 20
125.3727311711
 30
0.0
 11
139.3811088938
 21
129.2594885896
 31
0.0
  0
LINE
  5
149
330
1F
100
AcDbEntity
  8
0
  6
HIDDEN
 62
     7
370
     0
100
AcDbLine
 10
137.3011098195
 20
125.3727311711
 30
0.0
 11
137.3011098195
 21
129.2594885896
 31
0.0
  0
LWPOLYLINE
  5
14A
330
1F
100
AcDbEntity
  8
0
  6
HIDDEN
 62
     7
370
     0
100
AcDbPolyline
 90
       23
 70
   128
 43
0.0
 10
217.746248557
 20
113.9127251669
 10
217.88911344
 20
113.8766427036
 10
218.0816140909
 20
113.6847452005
 10
218.3081489939
 20
113.3525789925
 10
218.5503748197
 20
112.9070541798
 10
218.7886518378
 20
112.3842645181
 10
219.003690495
 20
111.8265633637
 10
219.1780638832
 20
111.2791322964
 10
219.2976457018
 20
110.7863209187
 10
219.3527501959
 20
110.3880539746
 10
219.3389144677
 20
110.1165964944
 10
219.2572486538
 20
109.9939406128
 10
219.1143837709
 20
110.0300229597
 10
218.92188312
 20
110.2219204628
 10
218.6953482169
 20
110.5540866708
 10
218.4531298417
 20
110.9996114834
 10
218.2148453731
 20
111.5224011161
 10
217.9998067159
 20
112.0801022923
 10
217.8254333276
 20
112.6275333669
 10
217.705851509
 20
113.1203447446
 10
217.6507470149
 20
113.5186116887
 10
217.6645901937
 20
113.7900691689
 10
217.746248557
 20
113.9127251669
  0
SPLINE
  5
14B
330
1F
100
AcDbEntity
  8
0
  6
HIDDEN
 62
     7
370
     0
100
AcDbSpline
210
0.0
220
0.0
230
1.0
 70
     8
 71
     3
 72
     8
 73
     4
 74
     0
 42
0.00000001
 43
0.00000001
 12
1.0
 22
0.0
 32
0.0
 13
1.0
 23
0.0
 33
0.0
 40
0.0
 40
0.0
 40
0.0
 40
0.0
 40
1.0
 40
1.0
 40
1.0
 40
1.0
 10
219.3459345733003
 20
114.5270503694693
 30
0.0
 10
219.5013525796338
 20
114.5890111674043
 30
0.0
 10
219.6573653091802
 20
114.6494701332586
 30
0.0
 10
219.8134465885678
 20
114.7097559927865
 30
0.0
  0
SPLINE
  5
14C
330
1F
100
AcDbEntity
  8
0
  6
HIDDEN
 62
     7
370
     0
100
AcDbSpline
210
0.0
220
0.0
230
1.0
 70
     8
 71
     3
 72
    78
 73
    74
 74
     0
 42
0.00000001
 43
0.00000001
 12
1.0
 22
0.0
 32
0.0
 13
1.0
 23
0.0
 33
0.0
 40
0.0
 40
0.0
 40
0.0
 40
0.0
 40
0.0078124999999998
 40
0.0078124999999998
 40
0.0156249999999997
 40
0.0156249999999997
 40
0.0312499999999993
 40
0.0312499999999993
 40
0.0625000000000003
 40
0.0625000000000003
 40
0.125000000000001
 40
0.125000000000001
 40
0.1562500000000021
 40
0.1562500000000021
 40
0.1875000000000032
 40
0.1875000000000032
 40
0.2187500000000044
 40
0.2187500000000044
 40
0.2500000000000056
 40
0.2500000000000056
 40
0.2812500000000067
 40
0.2812500000000067
 40
0.3125000000000078
 40
0.3125000000000078
 40
0.37500000000001
 40
0.37500000000001
 40
0.4375000000000124
 40
0.4375000000000124
 40
0.4687500000000129
 40
0.4687500000000129
 40
0.5000000000000134
 40
0.5000000000000134
 40
0.5156250000000128
 40
0.5156250000000128
 40
0.5234375000000133
 40
0.5234375000000133
 40
0.531250000000014
 40
0.531250000000014
 40
0.5390625000000145
 40
0.5390625000000145
 40
0.5468750000000152
 40
0.5468750000000152
 40
0.5625000000000167
 40
0.5625000000000167
 40
0.6250000000000162
 40
0.6250000000000162
 40
0.6562500000000149
 40
0.6562500000000149
 40
0.6875000000000135
 40
0.6875000000000135
 40
0.7187500000000122
 40
0.7187500000000122
 40
0.7500000000000108
 40
0.7500000000000108
 40
0.7812500000000094
 40
0.7812500000000094
 40
0.8125000000000081
 40
0.8125000000000081
 40
0.8437500000000068
 40
0.8437500000000068
 40
0.8750000000000054
 40
0.8750000000000054
 40
0.9062500000000041
 40
0.9062500000000041
 40
0.9375000000000027
 40
0.9375000000000027
 40
0.9687500000000013
 40
0.9687500000000013
 40
0.9843750000000008
 40
0.9843750000000008
 40
0.9921875000000004
 40
0.9921875000000004
 40
1.0
 40
1.0
 40
1.0
 40
1.0
 10
219.8134465885667
 20
114.7097559927859
 30
0.0
 10
219.7911221131422
 20
114.7009079034871
 30
0.0
 10
219.7727847156693
 20
114.6924020973528
 30
0.0
 10
219.7583939869291
 20
114.6811356868674
 30
0.0
 10
219.7636402653834
 20
114.6789245266631
 30
0.0
 10
219.8007426290091
 20
114.678832087412
 30
0.0
 10
219.8459702061825
 20
114.6845330178133
 30
0.0
 10
219.9841216712943
 20
114.6967415720622
 30
0.0
 10
220.088680358435
 20
114.7013208520575
 30
0.0
 10
220.4061003341726
 20
114.6903231390093
 30
0.0
 10
220.6311360349612
 20
114.6528361057887
 30
0.0
 10
220.977252533642
 20
114.5342346763266
 30
0.0
 10
221.0928805545803
 20
114.4847607194765
 30
0.0
 10
221.3244774012323
 20
114.3616692996377
 30
0.0
 10
221.4417180841048
 20
114.2871223405485
 30
0.0
 10
221.6690648750489
 20
114.1108115653259
 30
0.0
 10
221.7795079117605
 20
114.0091582872615
 30
0.0
 10
221.9885964785337
 20
113.7720666040621
 30
0.0
 10
222.0835472187997
 20
113.6407825947666
 30
0.0
 10
222.2477115089813
 20
113.3490445610027
 30
0.0
 10
222.3121694825702
 20
113.1970554823292
 30
0.0
 10
222.4049647335378
 20
112.880525035029
 30
0.0
 10
222.4305179119764
 20
112.7247623123331
 30
0.0
 10
222.454238462083
 20
112.2735449135388
 30
0.0
 10
222.3998844220816
 20
112.0084916118635
 30
0.0
 10
222.2195020396432
 20
111.5604471881278
 30
0.0
 10
222.0910802719116
 20
111.3721246459504
 30
0.0
 10
221.8682619055781
 20
111.1413301602837
 30
0.0
 10
221.7885197481712
 20
111.0724654207948
 30
0.0
 10
221.6176323130287
 20
110.9484947727983
 30
0.0
 10
221.5268725853456
 20
110.8935724507825
 30
0.0
 10
221.3763273515219
 20
110.8184731556473
 30
0.0
 10
221.3240303318046
 20
110.7947831994838
 30
0.0
 10
221.2342974413181
 20
110.7575235523184
 30
0.0
 10
221.2018852780045
 20
110.7445599158503
 30
0.0
 10
221.1300713397681
 20
110.7164960639906
 30
0.0
 10
221.0905219409231
 20
110.7012859666391
 30
0.0
 10
221.0128866489768
 20
110.6722203007412
 30
0.0
 10
220.9761957599173
 20
110.6589436222655
 30
0.0
 10
220.9048858297404
 20
110.6345391697908
 30
0.0
 10
220.8707220718526
 20
110.6235526692273
 30
0.0
 10
220.7695051703279
 20
110.5932423957092
 30
0.0
 10
220.7037520099864
 20
110.5765772487701
 30
0.0
 10
220.373735133702
 20
110.5084119339259
 30
0.0
 10
220.11104551422
 20
110.5021851641694
 30
0.0
 10
219.7099689612424
 20
110.5756060006811
 30
0.0
 10
219.5784396782146
 20
110.6137136927162
 30
0.0
 10
219.3198953519225
 20
110.7205616761181
 30
0.0
 10
219.1913858006849
 20
110.7904584550848
 30
0.0
 10
218.9504069530991
 20
110.9616422774309
 30
0.0
 10
218.8365288166629
 20
111.0635206552257
 30
0.0
 10
218.6300215171347
 20
111.3012514289284
 30
0.0
 10
218.5408846028967
 20
111.4327464651026
 30
0.0
 10
218.3928011439673
 20
111.7227921752717
 30
0.0
 10
218.3353968379143
 20
111.8801873364482
 30
0.0
 10
218.260212313922
 20
112.1996911909174
 30
0.0
 10
218.2416085041751
 20
112.3652332799481
 30
0.0
 10
218.2406309667872
 20
112.6862657541319
 30
0.0
 10
218.258032224874
 20
112.8455584166671
 30
0.0
 10
218.3214922690555
 20
113.1465811355559
 30
0.0
 10
218.3679618664077
 20
113.2912273260437
 30
0.0
 10
218.4828352409594
 20
113.5611663689561
 30
0.0
 10
218.5507243661067
 20
113.6860268992251
 30
0.0
 10
218.7039363957868
 20
113.9183381211142
 30
0.0
 10
218.7900339147636
 20
114.0263966057662
 30
0.0
 10
218.9733694021527
 20
114.2211461830753
 30
0.0
 10
219.0714845429699
 20
114.3084441680327
 30
0.0
 10
219.2185635753501
 20
114.4221008866116
 30
0.0
 10
219.2687876476737
 20
114.457605193809
 30
0.0
 10
219.3282448622708
 20
114.5000154243231
 30
0.0
 10
219.3453949054279
 20
114.5124759319357
 30
0.0
 10
219.3602803549007
 20
114.5274621140061
 30
0.0
 10
219.356663756029
 20
114.5292989333752
 30
0.0
 10
219.3459345733033
 20
114.5270503694705
 30
0.0
  0
LINE
  5
14D
330
1F
100
AcDbEntity
  8
0
  6
HIDDEN
 62
     7
370
     0
100
AcDbLine
 10
102.4411098052
 20
101.9918779354
 30
0.0
 11
102.4411098052
 21
121.7218907993
 31
0.0
  0
LINE
  5
14E
330
1F
100
AcDbEntity
  8
0
  6
HIDDEN
 62
     7
370
     0
100
AcDbLine
 10
128.5104845602
 20
122.3568842258
 30
0.0
 11
128.5104845602
 21
101.3568845089
 31
0.0
  0
LINE
  5
14F
330
1F
100
AcDbEntity
  8
0
  6
HIDDEN
 62
     7
370
     0
100
AcDbLine
 10
130.2911099929
 20
121.7316203262
 30
0.0
 11
130.2911099929
 21
101.9818839128
 31
0.0
  0
LINE
  5
150
330
1F
100
AcDbEntity
  8
0
  6
HIDDEN
 62
     7
370
     0
100
AcDbLine
 10
103.4501102704
 20
102.1347009088
 30
0.0
 11
107.6411093537
 21
102.1347009088
 31
0.0
  0
ARC
  5
151
330
1F
100
AcDbEntity
  8
0
  6
HIDDEN
 62
     7
370
     0
100
AcDbCircle
 10
107.416109528
 20
111.8568843673
 30
0.0
 40
10.5
100
AcDbArc
 50
247.4596895365
 51
247.8078280674
  0
LINE
  5
152
330
1F
100
AcDbEntity
  8
0
  6
HIDDEN
 62
     7
370
     0
100
AcDbLine
 10
103.3911091227
 20
121.554790109
 30
0.0
 11
103.3911091227
 21
102.1589786257
 31
0.0
  0
LINE
  5
153
330
1F
100
AcDbEntity
  8
0
  6
HIDDEN
 62
     7
370
     0
100
AcDbLine
 10
105.1411089439
 20
121.554790109
 30
0.0
 11
103.3911091227
 21
121.554790109
 31
0.0
  0
SPLINE
  5
154
330
1F
100
AcDbEntity
  8
0
  6
HIDDEN
 62
     7
370
     0
100
AcDbSpline
210
0.0
220
0.0
230
1.0
 70
     8
 71
     3
 72
    14
 73
    10
 74
     0
 42
0.00000001
 43
0.00000001
 12
1.0
 22
0.0
 32
0.0
 13
1.0
 23
0.0
 33
0.0
 40
0.0
 40
0.0
 40
0.0
 40
0.0
 40
0.2499999999999999
 40
0.2499999999999999
 40
0.4999999999999998
 40
0.4999999999999998
 40
0.7499999999999997
 40
0.7499999999999997
 40
1.0
 40
1.0
 40
1.0
 40
1.0
 10
106.0411095280008
 20
121.8810738607425
 30
0.0
 10
106.0411095280008
 20
121.8446019962087
 30
0.0
 10
106.0187388961967
 20
121.8068662436961
 30
0.0
 10
105.9315233649485
 20
121.7317305219967
 30
0.0
 10
105.8675021588718
 20
121.6953582357746
 30
0.0
 10
105.7040168611306
 20
121.6311346966125
 30
0.0
 10
105.6047019869573
 20
121.60361173399
 30
0.0
 10
105.3848757162523
 20
121.5654395671029
 30
0.0
 10
105.2638721539431
 20
121.5547900690703
 30
0.0
 10
105.1411095280008
 20
121.5547900690703
 30
0.0
  0
LINE
  5
155
330
1F
100
AcDbEntity
  8
0
  6
HIDDEN
 62
     7
370
     0
100
AcDbLine
 10
106.0411092777
 20
121.8810743164
 30
0.0
 11
106.0411092777
 21
122.3568842258
 31
0.0
  0
SPLINE
  5
156
330
1F
100
AcDbEntity
  8
0
  6
HIDDEN
 62
     7
370
     0
100
AcDbSpline
210
0.0
220
0.0
230
1.0
 70
     8
 71
     3
 72
    14
 73
    10
 74
     0
 42
0.00000001
 43
0.00000001
 12
1.0
 22
0.0
 32
0.0
 13
1.0
 23
0.0
 33
0.0
 40
0.0
 40
0.0
 40
0.0
 40
0.0
 40
0.2500000000000001
 40
0.2500000000000001
 40
0.5000000000000002
 40
0.5000000000000002
 40
0.7500000000000003
 40
0.7500000000000003
 40
1.0
 40
1.0
 40
1.0
 40
1.0
 10
106.0411095280008
 20
121.8810738607425
 30
0.0
 10
106.0411095280008
 20
121.8446019962086
 30
0.0
 10
106.0187388961967
 20
121.8068662436961
 30
0.0
 10
105.9315233649485
 20
121.7317305219967
 30
0.0
 10
105.8675021588718
 20
121.6953582357746
 30
0.0
 10
105.7040168611306
 20
121.6311346966125
 30
0.0
 10
105.6047019869573
 20
121.60361173399
 30
0.0
 10
105.3848757162523
 20
121.5654395671029
 30
0.0
 10
105.2638721539431
 20
121.5547900690703
 30
0.0
 10
105.1411095280008
 20
121.5547900690703
 30
0.0
  0
SPLINE
  5
157
330
1F
100
AcDbEntity
  8
0
  6
HIDDEN
 62
     7
370
     0
100
AcDbSpline
210
0.0
220
0.0
230
1.0
 70
     8
 71
     3
 72
    14
 73
    10
 74
     0
 42
0.00000001
 43
0.00000001
 12
1.0
 22
0.0
 32
0.0
 13
1.0
 23
0.0
 33
0.0
 40
0.0
 40
0.0
 40
0.0
 40
0.0
 40
0.25
 40
0.25
 40
0.5
 40
0.5
 40
0.75
 40
0.75
 40
1.0
 40
1.0
 40
1.0
 40
1.0
 10
107.6411095280008
 20
102.1347012791468
 30
0.0
 10
107.7635776159197
 20
102.1347012791468
 30
0.0
 10
107.8837886947885
 20
102.124364259427
 30
0.0
 10
108.1039950140412
 20
102.086897030849
 30
0.0
 10
108.2036504667392
 20
102.0597658625597
 30
0.0
 10
108.366637819695
 20
101.9969988163529
 30
0.0
 10
108.4313751804414
 20
101.960935122426
 30
0.0
 10
108.5182105305585
 20
101.8877424525579
 30
0.0
 10
108.5411095280008
 20
101.8501996670469
 30
0.0
 10
108.5411095280008
 20
101.8144920228655
 30
0.0
  0
LINE
  5
158
330
1F
100
AcDbEntity
  8
0
  6
HIDDEN
 62
     7
370
     0
100
AcDbLine
 10
108.5411096874
 20
101.8144917186
 30
0.0
 11
108.5411096874
 21
101.3568845089
 31
0.0
  0
SPLINE
  5
159
330
1F
100
AcDbEntity
  8
0
  6
HIDDEN
 62
     7
370
     0
100
AcDbSpline
210
0.0
220
0.0
230
1.0
 70
     8
 71
     3
 72
    14
 73
    10
 74
     0
 42
0.00000001
 43
0.00000001
 12
1.0
 22
0.0
 32
0.0
 13
1.0
 23
0.0
 33
0.0
 40
0.0
 40
0.0
 40
0.0
 40
0.0
 40
0.2500000000000003
 40
0.2500000000000003
 40
0.5000000000000002
 40
0.5000000000000002
 40
0.7500000000000001
 40
0.7500000000000001
 40
1.0
 40
1.0
 40
1.0
 40
1.0
 10
107.6411095280008
 20
102.1347012791468
 30
0.0
 10
107.7635776159197
 20
102.1347012791468
 30
0.0
 10
107.8837886947885
 20
102.124364259427
 30
0.0
 10
108.1039950140412
 20
102.086897030849
 30
0.0
 10
108.2036504667392
 20
102.0597658625597
 30
0.0
 10
108.366637819695
 20
101.9969988163529
 30
0.0
 10
108.4313751804414
 20
101.960935122426
 30
0.0
 10
108.5182105305585
 20
101.8877424525579
 30
0.0
 10
108.5411095280008
 20
101.8501996670469
 30
0.0
 10
108.5411095280008
 20
101.8144920228655
 30
0.0
  0
LINE
  5
15A
330
1F
100
AcDbEntity
  8
0
  6
HIDDEN
 62
     7
370
     0
100
AcDbLine
 10
103.3911091227
 20
102.1589786257
 30
0.0
 11
103.3911091227
 21
121.554790109
 31
0.0
  0
SPLINE
  5
15B
330
1F
100
AcDbEntity
  8
0
  6
HIDDEN
 62
     7
370
     0
100
AcDbSpline
210
0.0
220
0.0
230
1.0
 70
     8
 71
     3
 72
    64
 73
    60
 74
     0
 42
0.00000001
 43
0.00000001
 12
1.0
 22
0.0
 32
0.0
 13
1.0
 23
0.0
 33
0.0
 40
-0.0625000000000022
 40
-0.0625000000000022
 40
0.0
 40
0.0
 40
0.0312499999999996
 40
0.0312499999999996
 40
0.0624999999999993
 40
0.0624999999999993
 40
0.0937499999999989
 40
0.0937499999999989
 40
0.1249999999999985
 40
0.1249999999999985
 40
0.1562499999999982
 40
0.1562499999999982
 40
0.1874999999999978
 40
0.1874999999999978
 40
0.2187499999999975
 40
0.2187499999999975
 40
0.2499999999999971
 40
0.2499999999999971
 40
0.2812499999999967
 40
0.2812499999999967
 40
0.3124999999999964
 40
0.3124999999999964
 40
0.343749999999996
 40
0.343749999999996
 40
0.3749999999999956
 40
0.3749999999999956
 40
0.4062499999999953
 40
0.4062499999999953
 40
0.437499999999995
 40
0.437499999999995
 40
0.4687499999999947
 40
0.4687499999999947
 40
0.4999999999999943
 40
0.4999999999999943
 40
0.5624999999999937
 40
0.5624999999999937
 40
0.5937499999999939
 40
0.5937499999999939
 40
0.6249999999999941
 40
0.6249999999999941
 40
0.6562499999999942
 40
0.6562499999999942
 40
0.6874999999999944
 40
0.6874999999999944
 40
0.7187499999999947
 40
0.7187499999999947
 40
0.7499999999999948
 40
0.7499999999999948
 40
0.781249999999995
 40
0.781249999999995
 40
0.8124999999999952
 40
0.8124999999999952
 40
0.8749999999999956
 40
0.8749999999999956
 40
0.9062499999999967
 40
0.9062499999999967
 40
0.9374999999999978
 40
0.9374999999999978
 40
1.0
 40
1.0
 40
1.03125
 40
1.03125
 10
222.4411095280008
 20
111.7785081571159
 30
0.0
 10
222.4411095280008
 20
112.2229065077288
 30
0.0
 10
222.4255039294596
 20
112.3661348640932
 30
0.0
 10
222.3655745088807
 20
112.6436655643924
 30
0.0
 10
222.3207060619769
 20
112.7778817366333
 30
0.0
 10
222.2088850894529
 20
113.024334012588
 30
0.0
 10
222.1407054094244
 20
113.1397187191093
 30
0.0
 10
221.9873292101612
 20
113.3484676595276
 30
0.0
 10
221.9025016987712
 20
113.4419734469053
 30
0.0
 10
221.7171332216215
 20
113.6107994563038
 30
0.0
 10
221.615730132428
 20
113.6864966374233
 30
0.0
 10
221.4013605896264
 20
113.8171317503799
 30
0.0
 10
221.288091394216
 20
113.8726591015012
 30
0.0
 10
221.0446970307485
 20
113.9652589498093
 30
0.0
 10
220.913301055241
 20
114.0024318268248
 30
0.0
 10
220.6374636187155
 20
114.0531822986589
 30
0.0
 10
220.4894465867398
 20
114.0669875938001
 30
0.0
 10
220.1970587709133
 20
114.0672445919747
 30
0.0
 10
220.0486801520737
 20
114.0536457045859
 30
0.0
 10
219.7732065784718
 20
114.0034719572617
 30
0.0
 10
219.6417088154752
 20
113.9665731391889
 30
0.0
 10
219.3978438327772
 20
113.8743427169568
 30
0.0
 10
219.2842880529508
 20
113.818952226983
 30
0.0
 10
219.0692640542999
 20
113.6884495962619
 30
0.0
 10
218.9679259817891
 20
113.6130493752449
 30
0.0
 10
218.782487374737
 20
113.4448229902587
 30
0.0
 10
218.6974720397762
 20
113.3515342544319
 30
0.0
 10
218.5434939206763
 20
113.1428486665845
 30
0.0
 10
218.4753497151381
 20
113.0280057431348
 30
0.0
 10
218.3632105844535
 20
112.7823689917378
 30
0.0
 10
218.3180274211589
 20
112.64834479624
 30
0.0
 10
218.2574679903066
 20
112.37128603621
 30
0.0
 10
218.241587937694
 20
112.2285942491553
 30
0.0
 10
218.2401842781336
 20
111.7869987649864
 30
0.0
 10
218.3040516979862
 20
111.4905515364265
 30
0.0
 10
218.4712898823724
 20
111.0958032296391
 30
0.0
 10
218.5393846738959
 20
110.9704417069106
 30
0.0
 10
218.6923202876705
 20
110.740425419058
 30
0.0
 10
218.7770112607204
 20
110.6353121428393
 30
0.0
 10
218.9623149931714
 20
110.4421452461318
 30
0.0
 10
219.0636590188842
 20
110.3537409763109
 30
0.0
 10
219.2777527053938
 20
110.1983865848282
 30
0.0
 10
219.3909838022604
 20
110.1306298828678
 30
0.0
 10
219.634625746151
 20
110.0153827093621
 30
0.0
 10
219.7657192927763
 20
109.9679480084175
 30
0.0
 10
220.0415065527271
 20
109.9020492240833
 30
0.0
 10
220.1891717057453
 20
109.8835606645832
 30
0.0
 10
220.4815551086123
 20
109.8826557254412
 30
0.0
 10
220.6300507537571
 20
109.9003060124562
 30
0.0
 10
220.9072163013508
 20
109.9649812476389
 30
0.0
 10
221.038701121853
 20
110.0118998443627
 30
0.0
 10
221.4043975050453
 20
110.1827868977187
 30
0.0
 10
221.6205627423941
 20
110.3400700915046
 30
0.0
 10
221.8996366904148
 20
110.6287988378397
 30
0.0
 10
221.9862639843283
 20
110.7356214880915
 30
0.0
 10
222.1398684016195
 20
110.9653459765947
 30
0.0
 10
222.2070244839908
 20
111.0879758454545
 30
0.0
 10
222.3762465400494
 20
111.4833561573737
 30
0.0
 10
222.4411095280008
 20
111.7785081571159
 30
0.0
 10
222.4411095280008
 20
112.2229065077288
 30
0.0
  0
ARC
  5
15C
330
1F
100
AcDbEntity
  8
0
  6
HIDDEN
 62
     7
370
     0
100
AcDbCircle
 10
220.3403161064
 20
112.6720755256
 30
0.0
 40
2.104692353363137
100
AcDbArc
 50
104.4970146748
 51
118.1941067978
  0
LINE
  5
15D
330
1F
100
AcDbEntity
  8
0
  6
HIDDEN
 62
     7
370
     0
100
AcDbLine
 10
106.0411092777
 20
122.8568843077
 30
0.0
 11
106.0411092777
 21
125.4144087876
 31
0.0
  0
LINE
  5
15E
330
1F
100
AcDbEntity
  8
0
  6
HIDDEN
 62
     7
370
     0
100
AcDbLine
 10
108.5411096874
 20
100.8568844269
 30
0.0
 11
108.5411096874
 21
98.2201379235
 31
0.0
  0
LINE
  5
15F
330
1F
100
AcDbEntity
  8
0
  6
HIDDEN
 62
     7
370
     0
100
AcDbLine
 10
103.3911091227
 20
122.8568843077
 30
0.0
 11
103.3911091227
 21
124.7368846531
 31
0.0
  0
LINE
  5
160
330
1F
100
AcDbEntity
  8
0
  6
HIDDEN
 62
     7
370
     0
100
AcDbLine
 10
102.4411098052
 20
122.8568843077
 30
0.0
 11
102.4411098052
 21
123.7868844043
 31
0.0
  0
LINE
  5
161
330
1F
100
AcDbEntity
  8
0
  6
HIDDEN
 62
     7
370
     0
100
AcDbLine
 10
103.4501102704
 20
100.8568844269
 30
0.0
 11
103.4501102704
 21
98.9768840815
 31
0.0
  0
LINE
  5
162
330
1F
100
AcDbEntity
  8
0
  6
HIDDEN
 62
     7
370
     0
100
AcDbLine
 10
102.4411098052
 20
100.8568844269
 30
0.0
 11
102.4411098052
 21
99.9858845468
 31
0.0
  0
LINE
  5
163
330
1F
100
AcDbEntity
  8
0
  6
HIDDEN
 62
     7
370
     0
100
AcDbLine
 10
135.6411092866
 20
118.1068844605
 30
0.0
 11
135.6411092866
 21
105.6068842742
 31
0.0
  0
LINE
  5
164
330
1F
100
AcDbEntity
  8
0
  6
HIDDEN
 62
     7
370
     0
100
AcDbLine
 10
138.1411087651
 20
118.1068844605
 30
0.0
 11
138.1411087651
 21
105.6068842742
 31
0.0
  0
LINE
  5
165
330
1F
100
AcDbEntity
  8
0
  6
HIDDEN
 62
     7
370
     0
100
AcDbLine
 10
130.7911091436
 20
117.3568843375
 30
0.0
 11
130.7911091436
 21
106.3568843971
 31
0.0
  0
LINE
  5
166
330
1F
100
AcDbEntity
  8
0
  6
HIDDEN
 62
     7
370
     0
100
AcDbLine
 10
130.2911099929
 20
105.8568843152
 30
0.0
 11
130.2911099929
 21
117.8352693538
 31
0.0
  0
LINE
  5
167
330
1F
100
AcDbEntity
  8
0
  6
HIDDEN
 62
     7
370
     0
100
AcDbLine
 10
137.3363315079
 20
94.9568851362
 30
0.0
 11
134.7911097992
 21
94.9568851362
 31
0.0
  0
LINE
  5
168
330
1F
100
AcDbEntity
  8
0
  6
HIDDEN
 62
     7
370
     0
100
AcDbLine
 10
137.3011098195
 20
94.7440052848
 30
0.0
 11
137.3011098195
 21
94.427761666
 31
0.0
  0
LINE
  5
169
330
1F
100
AcDbEntity
  8
0
  6
HIDDEN
 62
     7
370
     0
100
AcDbLine
 10
130.2911099929
 20
91.8819001387
 30
0.0
 11
130.2911099929
 21
94.9568851362
 31
0.0
  0
LINE
  5
16A
330
1F
100
AcDbEntity
  8
0
  6
HIDDEN
 62
     7
370
     0
100
AcDbLine
 10
134.7911097992
 20
94.9568851362
 30
0.0
 11
130.2911099929
 21
94.9568851362
 31
0.0
  0
LINE
  5
16B
330
1F
100
AcDbEntity
  8
0
  6
HIDDEN
 62
     7
370
     0
100
AcDbLine
 10
142.2911100972
 20
94.9568851362
 30
0.0
 11
139.345886274
 21
94.9568851362
 31
0.0
  0
LINE
  5
16C
330
1F
100
AcDbEntity
  8
0
  6
HIDDEN
 62
     7
370
     0
100
AcDbLine
 10
139.3811088938
 20
94.427761666
 30
0.0
 11
139.3811088938
 21
94.7440052848
 31
0.0
  0
LINE
  5
16D
330
1F
100
AcDbEntity
  8
0
  6
HIDDEN
 62
     7
370
     0
100
AcDbLine
 10
142.2911100972
 20
94.9568851362
 30
0.0
 11
142.2911100972
 21
93.252851672
 31
0.0
  0
LINE
  5
16E
330
1F
100
AcDbEntity
  8
0
  6
HIDDEN
 62
     7
370
     0
100
AcDbLine
 10
135.6411092866
 20
106.3568843971
 30
0.0
 11
135.6411092866
 21
117.3347430746
 31
0.0
  0
ELLIPSE
  5
16F
330
1F
100
AcDbEntity
  8
0
  6
HIDDEN
 62
     7
370
     0
100
AcDbEllipse
 10
100.3353427883
 20
111.8568843673
 30
0.0
 11
12.26424774976726
 21
0.0
 31
0.0
210
0.0
220
0.0
230
1.0
 40
0.8164965809
 41
4.884943637108981
 42
4.964202354313272
  0
LINE
  5
170
330
1F
100
AcDbEntity
  8
0
  6
HIDDEN
 62
     7
370
     0
100
AcDbLine
 10
102.4411098052
 20
100.8568844269
 30
0.0
 11
102.4411098052
 21
101.9918779354
 31
0.0
  0
ELLIPSE
  5
171
330
1F
100
AcDbEntity
  8
0
  6
HIDDEN
 62
     7
370
     0
100
AcDbEllipse
 10
100.3353427883
 20
111.8568843673
 30
0.0
 11
12.26424774976726
 21
0.0
 31
0.0
210
0.0
220
0.0
230
1.0
 40
0.8164965809
 41
1.318982952866325
 42
1.398241670070617
  0
LINE
  5
172
330
1F
100
AcDbEntity
  8
0
  6
HIDDEN
 62
     7
370
     0
100
AcDbLine
 10
102.4411098052
 20
122.8568843077
 30
0.0
 11
102.4411098052
 21
121.7218907993
 31
0.0
  0
LINE
  5
173
330
1F
100
AcDbEntity
  8
0
  6
HIDDEN
 62
     7
370
     0
100
AcDbLine
 10
142.2911100972
 20
128.7568835984
 30
0.0
 11
139.1327642787
 21
128.7568835984
 31
0.0
  0
LINE
  5
174
330
1F
100
AcDbEntity
  8
0
  6
HIDDEN
 62
     7
370
     0
100
AcDbLine
 10
139.3811088938
 20
129.5705615054
 30
0.0
 11
139.3811088938
 21
129.2594885896
 31
0.0
  0
LINE
  5
175
330
1F
100
AcDbEntity
  8
0
  6
HIDDEN
 62
     7
370
     0
100
AcDbLine
 10
142.2911100972
 20
128.7568835984
 30
0.0
 11
142.2911100972
 21
130.7277614693
 31
0.0
  0
LINE
  5
176
330
1F
100
AcDbEntity
  8
0
  6
HIDDEN
 62
     7
370
     0
100
AcDbLine
 10
137.5494535032
 20
128.7568835984
 30
0.0
 11
134.7911097992
 21
128.7568835984
 31
0.0
  0
LINE
  5
177
330
1F
100
AcDbEntity
  8
0
  6
HIDDEN
 62
     7
370
     0
100
AcDbLine
 10
137.3011098195
 20
129.2594885896
 30
0.0
 11
137.3011098195
 21
129.5705615054
 31
0.0
  0
LINE
  5
178
330
1F
100
AcDbEntity
  8
0
  6
HIDDEN
 62
     7
370
     0
100
AcDbLine
 10
134.7911097992
 20
128.7568835984
 30
0.0
 11
130.2911099929
 21
128.7568835984
 31
0.0
  0
LINE
  5
179
330
1F
100
AcDbEntity
  8
0
  6
HIDDEN
 62
     7
370
     0
100
AcDbLine
 10
106.0411092777
 20
122.8568843077
 30
0.0
 11
106.0411092777
 21
121.8810743164
 31
0.0
  0
LINE
  5
17A
330
1F
100
AcDbEntity
  8
0
  6
HIDDEN
 62
     7
370
     0
100
AcDbLine
 10
103.3911091227
 20
122.8568843077
 30
0.0
 11
103.3911091227
 21
121.554790109
 31
0.0
  0
LINE
  5
17B
330
1F
100
AcDbEntity
  8
0
  6
HIDDEN
 62
     7
370
     0
100
AcDbLine
 10
103.4501102704
 20
100.8568844269
 30
0.0
 11
103.4501102704
 21
102.1347009088
 31
0.0
  0
LINE
  5
17C
330
1F
100
AcDbEntity
  8
0
  6
HIDDEN
 62
     7
370
     0
100
AcDbLine
 10
108.5411096874
 20
100.8568844269
 30
0.0
 11
108.5411096874
 21
101.8144917186
 31
0.0
  0
SPLINE
  5
17D
330
1F
100
AcDbEntity
  8
0
  6
HIDDEN
 62
     7
370
     0
100
AcDbSpline
210
0.0
220
0.0
230
1.0
 70
     8
 71
     3
 72
    35
 73
    31
 74
     0
 42
0.00000001
 43
0.00000001
 12
1.0
 22
0.0
 32
0.0
 13
1.0
 23
0.0
 33
0.0
 40
-0.0968759714483647
 40
-0.0666637413368607
 40
-0.0343786692018836
 40
0.0
 40
0.0402501655237433
 40
0.0744868222973418
 40
0.102707132101208
 40
0.124917950876687
 40
0.1620537620852394
 40
0.2036866237676774
 40
0.2499064447776576
 40
0.2843401084202793
 40
0.3106265058260227
 40
0.328751666058391
 40
0.3698185614122192
 40
0.4071583507675881
 40
0.451949094510117
 40
0.5000414664482354
 40
0.5203026886965173
 40
0.5628788326113869
 40
0.5977565701864994
 40
0.6256573753262465
 40
0.6860513535191518
 40
0.7499481360754524
 40
0.7710338114888532
 40
0.8124324596667042
 40
0.8472054374202815
 40
0.874958922179049
 40
0.9031240285516352
 40
0.9333362586631392
 40
0.9656213307981163
 40
0.9999999999999999
 40
1.040250165523743
 40
1.074486822297342
 40
1.102707132101208
 10
114.1848833089474
 20
97.61603845537289
 30
0.0
 10
114.4235460989541
 20
97.6526059148671
 30
0.0
 10
114.7699804173773
 20
97.69301671742343
 30
0.0
 10
115.1747405039463
 20
97.72239049837032
 30
0.0
 10
115.5483389234614
 20
97.73959767890527
 30
0.0
 10
115.9569697084013
 20
97.74479047695579
 30
0.0
 10
116.4470364508702
 20
97.71986216140198
 30
0.0
 10
117.0454267576073
 20
97.65904525904737
 30
0.0
 10
117.5805529603979
 20
97.57153248383854
 30
0.0
 10
117.9748092667339
 20
97.48777565964801
 30
0.0
 10
118.2147382923756
 20
97.42989309166728
 30
0.0
 10
118.4285200409638
 20
97.37188023163274
 30
0.0
 10
118.5962878572823
 20
97.32534603636572
 30
0.0
 10
118.6667514783023
 20
97.30328509965645
 30
0.0
 10
118.5772262859642
 20
97.33206183557867
 30
0.0
 10
118.3443897917039
 20
97.39362402487667
 30
0.0
 10
118.0249556392423
 20
97.4775646946132
 30
0.0
 10
117.6728640946462
 20
97.55255734419583
 30
0.0
 10
117.2251635363722
 20
97.63033203802527
 30
0.0
 10
116.6582900011984
 20
97.70721642840255
 30
0.0
 10
115.9054397892417
 20
97.75250563915935
 30
0.0
 10
115.2342683419196
 20
97.7350321350033
 30
0.0
 10
114.7494752520082
 20
97.6902630235252
 30
0.0
 10
114.435118547106
 20
97.6547137895325
 30
0.0
 10
114.2002845940372
 20
97.61902804149383
 30
0.0
 10
114.0753462679583
 20
97.5962459911263
 30
0.0
 10
114.0285219614408
 20
97.58926754021176
 30
0.0
 10
114.0600355936377
 20
97.59622610626117
 30
0.0
 10
114.1848833089474
 20
97.61603845537289
 30
0.0
 10
114.4235460989541
 20
97.6526059148671
 30
0.0
 10
114.7699804173773
 20
97.69301671742343
 30
0.0
  0
SPLINE
  5
17E
330
1F
100
AcDbEntity
  8
0
  6
HIDDEN
 62
     7
370
     0
100
AcDbSpline
210
0.0
220
0.0
230
1.0
 70
    11
 71
     3
 72
    32
 73
    28
 74
     0
 42
0.00000001
 43
0.00000001
 12
1.0
 22
0.0
 32
0.0
 13
1.0
 23
0.0
 33
0.0
 40
0.0
 40
0.0
 40
0.0
 40
0.0
 40
0.0075613761610121
 40
0.0419796999955475
 40
0.0742914582580193
 40
0.1003735313431257
 40
0.1324300344983634
 40
0.1947364045274068
 40
0.2571094890134636
 40
0.2897713910746649
 40
0.3214987370259637
 40
0.3820777912803977
 40
0.4444969715513887
 40
0.507007192672073
 40
0.5398536240007775
 40
0.5712134044220377
 40
0.6003490565625617
 40
0.6288395984963934
 40
0.6598139138152794
 40
0.6938203283547312
 40
0.7573387902076956
 40
0.8178822085190316
 40
0.847436928341061
 40
0.8798324444747395
 40
0.9352845455994486
 40
0.9675812194198148
 40
1.0
 40
1.0
 40
1.0
 40
1.0
 10
114.4966819274978
 20
126.0545626725307
 30
0.0
 10
114.4723472406727
 20
126.0572688122897
 30
0.0
 10
114.3372444722546
 20
126.072292920707
 30
0.0
 10
114.1964801508538
 20
126.0965398243968
 30
0.0
 10
114.0443261473348
 20
126.1200981935187
 30
0.0
 10
114.0935874823778
 20
126.113204708883
 30
0.0
 10
114.0465420536439
 20
126.1225533303974
 30
0.0
 10
114.3982375125654
 20
126.0607903601489
 30
0.0
 10
114.9348702002054
 20
125.9996305058079
 30
0.0
 10
115.4813801181007
 20
125.9721580095584
 30
0.0
 10
116.0629579284559
 20
125.9708467692522
 30
0.0
 10
116.8281773700956
 20
126.0175092224291
 30
0.0
 10
117.6610535903807
 20
126.1527373952249
 30
0.0
 10
118.2072202333551
 20
126.2826427779989
 30
0.0
 10
118.4821789602812
 20
126.3562895941127
 30
0.0
 10
118.6328913962327
 20
126.3986737637053
 30
0.0
 10
118.5885237021621
 20
126.3861942672161
 30
0.0
 10
118.6340313252338
 20
126.39963350454
 30
0.0
 10
118.4856465937285
 20
126.3557560397604
 30
0.0
 10
118.2090149921872
 20
126.2809899471223
 30
0.0
 10
117.6578186884689
 20
126.1652450957712
 30
0.0
 10
116.969300985369
 20
126.0371108620255
 30
0.0
 10
116.382361313598
 20
125.9838771118401
 30
0.0
 10
115.8145863604999
 20
125.9645761837932
 30
0.0
 10
115.2622749238612
 20
125.9815422214739
 30
0.0
 10
114.7854158194044
 20
126.0191431462417
 30
0.0
 10
114.5930475465778
 20
126.0427413218891
 30
0.0
 10
114.4966819274978
 20
126.0545626725307
 30
0.0
  0
SPLINE
  5
17F
330
1F
100
AcDbEntity
  8
0
  6
HIDDEN
 62
     7
370
     0
100
AcDbSpline
210
0.0
220
0.0
230
1.0
 70
     8
 71
     3
 72
    64
 73
    60
 74
     0
 42
0.00000001
 43
0.00000001
 12
1.0
 22
0.0
 32
0.0
 13
1.0
 23
0.0
 33
0.0
 40
-0.0625000000000009
 40
-0.0625000000000009
 40
0.0
 40
0.0
 40
0.0312499999999998
 40
0.0312499999999998
 40
0.0624999999999996
 40
0.0624999999999996
 40
0.0937499999999994
 40
0.0937499999999994
 40
0.1249999999999993
 40
0.1249999999999993
 40
0.1562499999999991
 40
0.1562499999999991
 40
0.1874999999999989
 40
0.1874999999999989
 40
0.2187499999999987
 40
0.2187499999999987
 40
0.2499999999999985
 40
0.2499999999999985
 40
0.2812499999999983
 40
0.2812499999999983
 40
0.3124999999999981
 40
0.3124999999999981
 40
0.3437499999999979
 40
0.3437499999999979
 40
0.3749999999999978
 40
0.3749999999999978
 40
0.4062499999999976
 40
0.4062499999999976
 40
0.4374999999999974
 40
0.4374999999999974
 40
0.4687499999999972
 40
0.4687499999999972
 40
0.499999999999997
 40
0.499999999999997
 40
0.5624999999999967
 40
0.5624999999999967
 40
0.5937499999999964
 40
0.5937499999999964
 40
0.6249999999999962
 40
0.6249999999999962
 40
0.6562499999999961
 40
0.6562499999999961
 40
0.6874999999999959
 40
0.6874999999999959
 40
0.7187499999999957
 40
0.7187499999999957
 40
0.7499999999999956
 40
0.7499999999999956
 40
0.7812499999999953
 40
0.7812499999999953
 40
0.8124999999999951
 40
0.8124999999999951
 40
0.8749999999999971
 40
0.8749999999999971
 40
0.9062499999999981
 40
0.9062499999999981
 40
0.9374999999999991
 40
0.9374999999999991
 40
1.0
 40
1.0
 40
1.03125
 40
1.03125
 10
222.4411095280008
 20
111.9352605775282
 30
0.0
 10
222.4411095280008
 20
111.4908622269153
 30
0.0
 10
222.4255039294596
 20
111.3476338705509
 30
0.0
 10
222.3655745088807
 20
111.0701031702517
 30
0.0
 10
222.3207060619769
 20
110.9358869980108
 30
0.0
 10
222.2088850894528
 20
110.6894347220561
 30
0.0
 10
222.1407054094244
 20
110.5740500155348
 30
0.0
 10
221.9873292101612
 20
110.3653010751165
 30
0.0
 10
221.9025016987712
 20
110.2717952877388
 30
0.0
 10
221.7171332216214
 20
110.1029692783403
 30
0.0
 10
221.615730132428
 20
110.0272720972208
 30
0.0
 10
221.4013605896264
 20
109.8966369842642
 30
0.0
 10
221.2880913942161
 20
109.8411096331429
 30
0.0
 10
221.0446970307485
 20
109.7485097848348
 30
0.0
 10
220.913301055241
 20
109.7113369078194
 30
0.0
 10
220.6374636187154
 20
109.6605864359853
 30
0.0
 10
220.4894465867398
 20
109.6467811408441
 30
0.0
 10
220.1970587709133
 20
109.6465241426694
 30
0.0
 10
220.0486801520736
 20
109.6601230300582
 30
0.0
 10
219.7732065784717
 20
109.7102967773824
 30
0.0
 10
219.6417088154753
 20
109.7471955954552
 30
0.0
 10
219.3978438327772
 20
109.8394260176873
 30
0.0
 10
219.2842880529509
 20
109.8948165076611
 30
0.0
 10
219.0692640542999
 20
110.0253191383822
 30
0.0
 10
218.9679259817891
 20
110.1007193593992
 30
0.0
 10
218.7824873747369
 20
110.2689457443854
 30
0.0
 10
218.6974720397762
 20
110.3622344802122
 30
0.0
 10
218.5434939206764
 20
110.5709200680596
 30
0.0
 10
218.4753497151381
 20
110.6857629915093
 30
0.0
 10
218.3632105844534
 20
110.9313997429063
 30
0.0
 10
218.318027421159
 20
111.0654239384041
 30
0.0
 10
218.2574679903066
 20
111.3424826984341
 30
0.0
 10
218.241587937694
 20
111.4851744854888
 30
0.0
 10
218.2401842781336
 20
111.9267699696577
 30
0.0
 10
218.3040516979862
 20
112.2232171982176
 30
0.0
 10
218.4712898823723
 20
112.617965505005
 30
0.0
 10
218.5393846738958
 20
112.7433270277335
 30
0.0
 10
218.6923202876705
 20
112.9733433155861
 30
0.0
 10
218.7770112607204
 20
113.0784565918049
 30
0.0
 10
218.9623149931714
 20
113.2716234885123
 30
0.0
 10
219.0636590188841
 20
113.3600277583332
 30
0.0
 10
219.2777527053937
 20
113.5153821498159
 30
0.0
 10
219.3909838022603
 20
113.5831388517764
 30
0.0
 10
219.634625746151
 20
113.698386025282
 30
0.0
 10
219.7657192927763
 20
113.7458207262266
 30
0.0
 10
220.0415065527271
 20
113.8117195105608
 30
0.0
 10
220.1891717057453
 20
113.8302080700609
 30
0.0
 10
220.4815551086123
 20
113.8311130092029
 30
0.0
 10
220.6300507537571
 20
113.8134627221879
 30
0.0
 10
220.9072163013508
 20
113.7487874870052
 30
0.0
 10
221.038701121853
 20
113.7018688902814
 30
0.0
 10
221.4043975050454
 20
113.5309818369255
 30
0.0
 10
221.6205627423942
 20
113.3736986431395
 30
0.0
 10
221.8996366904148
 20
113.0849698968044
 30
0.0
 10
221.9862639843283
 20
112.9781472465526
 30
0.0
 10
222.1398684016195
 20
112.7484227580495
 30
0.0
 10
222.2070244839908
 20
112.6257928891896
 30
0.0
 10
222.3762465400494
 20
112.2304125772704
 30
0.0
 10
222.4411095280008
 20
111.9352605775282
 30
0.0
 10
222.4411095280008
 20
111.4908622269153
 30
0.0
  0
LINE
  5
180
330
1F
100
AcDbEntity
  8
0
  6
HIDDEN
 62
     7
370
     0
100
AcDbLine
 10
222.4411127109
 20
112.0747737302
 30
0.0
 11
222.4411127109
 21
109.3568844232
 31
0.0
  0
LINE
  5
181
330
1F
100
AcDbEntity
  8
0
  6
HIDDEN
 62
     7
370
     0
100
AcDbLine
 10
222.4411127109
 20
111.6389950045
 30
0.0
 11
222.4411127109
 21
114.3568843114
 31
0.0
  0
LINE
  5
182
330
1F
100
AcDbEntity
  8
0
  6
HIDDEN
 62
     7
370
     0
100
AcDbLine
 10
138.1411087651
 20
109.3568844232
 30
0.0
 11
138.1411087651
 21
114.3568843114
 31
0.0
  0
LINE
  5
183
330
1F
100
AcDbEntity
  8
0
  6
HIDDEN
 62
     7
370
     0
100
AcDbLine
 10
251.49094881
 20
125.5231649126
 30
0.0
 11
249.1371464867
 21
118.0760204303
 31
0.0
  0
LINE
  5
184
330
1F
100
AcDbEntity
  8
0
  6
HIDDEN
 62
     7
370
     0
100
AcDbLine
 10
249.1371464867
 20
118.0760204303
 30
0.0
 11
249.0869146723
 21
118.0602210085
 31
0.0
  0
LINE
  5
185
330
1F
100
AcDbEntity
  8
0
  6
HIDDEN
 62
     7
370
     0
100
AcDbLine
 10
248.5924047369
 20
114.7323598131
 30
0.0
 11
258.8377577204
 21
117.9548381339
 31
0.0
  0
LINE
  5
186
330
1F
100
AcDbEntity
  8
0
  6
HIDDEN
 62
     7
370
     0
100
AcDbLine
 10
258.8377577204
 20
117.9548381339
 30
0.0
 11
258.8315737385
 21
117.9352933984
 31
0.0
  0
LINE
  5
187
330
1F
100
AcDbEntity
  8
0
  6
HIDDEN
 62
     7
370
     0
100
AcDbLine
 10
238.8411072034
 20
98.8568840991
 30
0.0
 11
238.8411072034
 21
111.8568843673
 31
0.0
  0
SPLINE
  5
188
330
1F
100
AcDbEntity
  8
0
  6
HIDDEN
 62
     7
370
     0
100
AcDbSpline
210
0.0
220
0.0
230
1.0
 70
     8
 71
     3
 72
    10
 73
     6
 74
     0
 42
0.00000001
 43
0.00000001
 12
1.0
 22
0.0
 32
0.0
 13
1.0
 23
0.0
 33
0.0
 40
0.0
 40
0.0
 40
0.0
 40
0.0
 40
0.5000000000000001
 40
0.5000000000000001
 40
1.0
 40
1.0
 40
1.0
 40
1.0
 10
238.8411095280008
 20
111.8568843673221
 30
0.0
 10
238.8411095280009
 20
112.1898642967344
 30
0.0
 10
238.8539217685693
 20
112.5232476710031
 30
0.0
 10
238.905129838976
 20
113.1908200216085
 30
0.0
 10
238.9437500421115
 20
113.5260488063325
 30
0.0
 10
238.9940559659667
 20
113.8568843673221
 30
0.0
  0
SPLINE
  5
189
330
1F
100
AcDbEntity
  8
0
  6
HIDDEN
 62
     7
370
     0
100
AcDbSpline
210
0.0
220
0.0
230
1.0
 70
     8
 71
     3
 72
    16
 73
    12
 74
     0
 42
0.00000001
 43
0.00000001
 12
1.0
 22
0.0
 32
0.0
 13
1.0
 23
0.0
 33
0.0
 40
0.0
 40
0.0
 40
0.0
 40
0.0
 40
0.2500000000000001
 40
0.2500000000000001
 40
0.5000000000000002
 40
0.5000000000000002
 40
0.6250000000000001
 40
0.6250000000000001
 40
0.7499999999999999
 40
0.7499999999999999
 40
1.0
 40
1.0
 40
1.0
 40
1.0
 10
238.9940559659667
 20
113.8568843673221
 30
0.0
 10
239.1205888617173
 20
114.6890245675462
 30
0.0
 10
239.261778006711
 20
115.508097128329
 30
0.0
 10
239.5690934685374
 20
117.1221482745955
 30
0.0
 10
239.7352343928482
 20
117.9171179864403
 30
0.0
 10
240.0014260228786
 20
119.0917449280143
 30
0.0
 10
240.0933691880202
 20
119.481756289945
 30
0.0
 10
240.2803449178207
 20
120.2457628182258
 30
0.0
 10
240.3754676093939
 20
120.6202905700757
 30
0.0
 10
240.6652765257143
 20
121.7221347240152
 30
0.0
 10
240.8643646618966
 20
122.4278249460755
 30
0.0
 10
241.0686362573011
 20
123.1050106038662
 30
0.0
  0
SPLINE
  5
18A
330
1F
100
AcDbEntity
  8
0
  6
HIDDEN
 62
     7
370
     0
100
AcDbSpline
210
0.0
220
0.0
230
1.0
 70
     8
 71
     3
 72
    18
 73
    14
 74
     0
 42
0.00000001
 43
0.00000001
 12
1.0
 22
0.0
 32
0.0
 13
1.0
 23
0.0
 33
0.0
 40
0.0
 40
0.0
 40
0.0
 40
0.0
 40
0.2500000000000013
 40
0.2500000000000013
 40
0.3750000000000012
 40
0.3750000000000012
 40
0.5000000000000012
 40
0.5000000000000012
 40
0.7500000000000007
 40
0.7500000000000007
 40
0.8750000000000003
 40
0.8750000000000003
 40
1.0
 40
1.0
 40
1.0
 40
1.0
 10
241.0686362573011
 20
123.1050106038662
 30
0.0
 10
240.6539108183494
 20
123.2569747083835
 30
0.0
 10
240.2750478886925
 20
123.412217933954
 30
0.0
 10
239.7861724062945
 20
123.6523445125443
 30
0.0
 10
239.6365599012868
 20
123.733607008024
 30
0.0
 10
239.36982773331
 20
123.8991030114558
 30
0.0
 10
239.2535887595912
 20
123.9829186763155
 30
0.0
 10
238.9671287033309
 20
124.2349336935873
 30
0.0
 10
238.8578610680527
 20
124.4048205947954
 30
0.0
 10
238.835418631318
 20
124.662900448833
 30
0.0
 10
238.851660110828
 20
124.7499161295157
 30
0.0
 10
238.9309924607764
 20
124.9226338444726
 30
0.0
 10
238.9936662960725
 20
125.0081512764848
 30
0.0
 10
239.0771847551143
 20
125.0929063885997
 30
0.0
  0
ELLIPSE
  5
18B
330
1F
100
AcDbEntity
  8
0
  6
HIDDEN
 62
     7
370
     0
100
AcDbEllipse
 10
256.8158638941
 20
111.8568843673
 30
0.0
 11
4.247080252763055
 21
12.993570470854
 31
0.0
210
0.0
220
0.0
230
1.0
 40
0.0962569477
 41
1.602248510774567
 42
3.173044837569621
  0
LINE
  5
18C
330
1F
100
AcDbEntity
  8
0
  6
HIDDEN
 62
     7
370
     0
100
AcDbLine
 10
248.3633142847
 20
114.7876279871
 30
0.0
 11
258.6253565687
 21
118.0153517495
 31
0.0
  0
LINE
  5
18D
330
1F
100
AcDbEntity
  8
0
  6
HIDDEN
 62
     7
370
     0
100
AcDbLine
 10
258.8377577204
 20
117.9548381339
 30
0.0
 11
258.6253565687
 21
118.0153517495
 31
0.0
  0
LINE
  5
18E
330
1F
100
AcDbEntity
  8
0
  6
HIDDEN
 62
     7
370
     0
100
AcDbLine
 10
249.1371464867
 20
118.0760204303
 30
0.0
 11
249.3495476384
 21
117.712763648
 31
0.0
  0
LINE
  5
18F
330
1F
100
AcDbEntity
  8
0
  6
HIDDEN
 62
     7
370
     0
100
AcDbLine
 10
248.9359808106
 20
117.5826839614
 30
0.0
 11
249.3495476384
 21
117.712763648
 31
0.0
  0
ELLIPSE
  5
190
330
1F
100
AcDbEntity
  8
0
  6
HIDDEN
 62
     7
370
     0
100
AcDbEllipse
 10
246.7922668672
 20
178.6035458766
 30
0.0
 11
-21.39702621087624
 21
70.55389860331989
 31
0.0
210
0.0
220
0.0
230
1.0
 40
0.2093503934
 41
2.356703451171835
 42
2.364834494054953
  0
LINE
  5
191
330
1F
100
AcDbEntity
  8
0
  6
HIDDEN
 62
     7
370
     0
100
AcDbLine
 10
251.6987157006
 20
125.1452481817
 30
0.0
 11
249.3495476384
 21
117.712763648
 31
0.0
  0
LINE
  5
192
330
1F
100
AcDbEntity
  8
0
  6
HIDDEN
 62
     7
370
     0
100
AcDbLine
 10
130.2911099929
 20
94.9568851362
 30
0.0
 11
134.7911097992
 21
94.9568851362
 31
0.0
  0
CIRCLE
  5
193
330
1F
100
AcDbEntity
  8
0
  6
HIDDEN
 62
     7
370
     0
100
AcDbCircle
 10
220.3397182333
 20
111.2963465289
 30
0.0
 40
2.097983912039701
  0
ARC
  5
194
330
1F
100
AcDbEntity
  8
0
  6
HIDDEN
 62
     7
370
     0
100
AcDbCircle
 10
247.3422965787
 20
115.6715425883
 30
0.0
 40
1.249351459922656
100
AcDbArc
 50
177.6940203449
 51
287.5361136015
  0
LINE
  5
195
330
1F
100
AcDbEntity
  8
0
  6
HIDDEN
 62
     7
370
     0
100
AcDbLine
 10
258.6253565687
 20
118.0153517495
 30
0.0
 11
258.410913958
 21
117.8432717431
 31
0.0
  0
LINE
  5
196
330
1F
100
AcDbEntity
  8
0
  6
HIDDEN
 62
     7
370
     0
100
AcDbLine
 10
249.3495476384
 20
117.712763648
 30
0.0
 11
249.3495476384
 21
117.6081290911
 31
0.0
  0
LINE
  5
197
330
1F
100
AcDbEntity
  8
0
  6
HIDDEN
 62
     7
370
     0
100
AcDbLine
 10
249.3495476384
 20
117.6081290911
 30
0.0
 11
248.8992494482
 21
117.4664986762
 31
0.0
  0
LINE
  5
198
330
1F
100
AcDbEntity
  8
0
  6
HIDDEN
 62
     7
370
     0
100
AcDbLine
 10
251.6369056839
 20
124.8450233112
 30
0.0
 11
249.3495476384
 21
117.6081290911
 31
0.0
  0
ELLIPSE
  5
199
330
1F
100
AcDbEntity
  8
0
  6
HIDDEN
 62
     7
370
     0
100
AcDbEllipse
 10
246.7922668672
 20
86.1664881203
 30
0.0
 11
25.84177378472356
 21
129.962307297635
 31
0.0
210
0.0
220
0.0
230
1.0
 40
0.02203747
 41
1.270568719841662
 42
1.272989345452441
  0
LINE
  5
19A
330
1F
100
AcDbEntity
  8
0
  6
HIDDEN
 62
     7
370
     0
100
AcDbLine
 10
261.0622328657
 20
127.6259916346
 30
0.0
 11
254.5575630802
 21
125.5800696532
 31
0.0
  0
LINE
  5
19B
330
1F
100
AcDbEntity
  8
0
  6
HIDDEN
 62
     7
370
     0
100
AcDbLine
 10
261.3973897833
 20
127.2920817579
 30
0.0
 11
261.0622328657
 21
127.6259916346
 31
0.0
  0
CIRCLE
  5
19C
330
1F
100
AcDbEntity
  8
0
  6
HIDDEN
 62
     7
370
     0
100
AcDbCircle
 10
255.1688169931
 20
121.430214398
 30
0.0
 40
2.398229273927657
  0
LINE
  5
19D
330
1F
100
AcDbEntity
  8
0
  6
HIDDEN
 62
     7
370
     0
100
AcDbLine
 10
247.718734755
 20
114.4802519563
 30
0.0
 11
258.410913958
 21
117.8432717431
 31
0.0
  0
ELLIPSE
  5
19E
330
1F
100
AcDbEntity
  8
0
  6
HIDDEN
 62
     7
370
     0
100
AcDbEllipse
 10
246.7922668672
 20
150.5188236137
 30
0.0
 11
2.842170943040401E-14
 21
26.13144513619378
 31
0.0
210
0.0
220
0.0
230
1.0
 40
0.9949698482
 41
3.329020233137967
 42
3.444886158282743
  0
LINE
  5
19F
330
1F
100
AcDbEntity
  8
0
  6
HIDDEN
 62
     7
370
     0
100
AcDbLine
 10
258.410913958
 20
117.8432717431
 30
0.0
 11
261.3973897833
 21
127.2920817579
 31
0.0
  0
LINE
  5
1A0
330
1F
100
AcDbEntity
  8
0
  6
HIDDEN
 62
     7
370
     0
100
AcDbLine
 10
108.5411096874
 20
100.8568844269
 30
0.0
 11
108.5411096874
 21
98.2201379235
 31
0.0
  0
LINE
  5
1A1
330
1F
100
AcDbEntity
  8
0
  6
HIDDEN
 62
     7
370
     0
100
AcDbLine
 10
106.0411092777
 20
122.8568843077
 30
0.0
 11
106.0411092777
 21
125.4144087876
 31
0.0
  0
CIRCLE
  5
1A2
330
1F
100
AcDbEntity
  8
0
  6
HIDDEN
 62
     7
370
     0
100
AcDbCircle
 10
255.1689985766
 20
121.3766349085
 30
0.0
 40
1.648794422722389
  0
LINE
  5
1A3
330
1F
100
AcDbEntity
  8
0
  6
HIDDEN
 62
     7
370
     0
100
AcDbLine
 10
261.0622328657
 20
127.6259916346
 30
0.0
 11
260.4811471838
 21
126.8424448068
 31
0.0
  0
LINE
  5
1A4
330
1F
100
AcDbEntity
  8
0
  6
HIDDEN
 62
     7
370
     0
100
AcDbLine
 10
260.7096266884
 20
126.3646996091
 30
0.0
 11
261.3973897833
 21
127.2920817579
 31
0.0
  0
LINE
  5
1A5
330
1F
100
AcDbEntity
  8
0
  6
HIDDEN
 62
     7
370
     0
100
AcDbLine
 10
139.3811088938
 20
129.2594885896
 30
0.0
 11
139.3811088938
 21
94.7440052848
 31
0.0
  0
SPLINE
  5
1A6
330
1F
100
AcDbEntity
  8
0
  6
HIDDEN
 62
     7
370
     0
100
AcDbSpline
210
0.0
220
0.0
230
1.0
 70
     8
 71
     3
 72
    10
 73
     6
 74
     0
 42
0.00000001
 43
0.00000001
 12
1.0
 22
0.0
 32
0.0
 13
1.0
 23
0.0
 33
0.0
 40
0.0
 40
0.0
 40
0.0
 40
0.0
 40
0.5
 40
0.5
 40
1.0
 40
1.0
 40
1.0
 40
1.0
 10
139.1327651422508
 20
128.7568843673221
 30
0.0
 10
139.2101931467994
 20
128.8148436737091
 30
0.0
 10
139.273372763686
 20
128.8918283288272
 30
0.0
 10
139.3586679429471
 20
129.0653984616997
 30
0.0
 10
139.3811095280008
 20
129.1622997241814
 30
0.0
 10
139.3811095280008
 20
129.259488339142
 30
0.0
  0
SPLINE
  5
1A7
330
1F
100
AcDbEntity
  8
0
  6
HIDDEN
 62
     7
370
     0
100
AcDbSpline
210
0.0
220
0.0
230
1.0
 70
     8
 71
     3
 72
    10
 73
     6
 74
     0
 42
0.00000001
 43
0.00000001
 12
1.0
 22
0.0
 32
0.0
 13
1.0
 23
0.0
 33
0.0
 40
0.0
 40
0.0
 40
0.0
 40
0.0
 40
0.5
 40
0.5
 40
1.0
 40
1.0
 40
1.0
 40
1.0
 10
139.3458871274194
 20
94.956884367322
 30
0.0
 10
139.3575992443825
 20
94.92254103012803
 30
0.0
 10
139.3663973142546
 20
94.88744849238981
 30
0.0
 10
139.3782108720267
 20
94.81577671699908
 30
0.0
 10
139.3811095280008
 20
94.77983306263381
 30
0.0
 10
139.3811095280008
 20
94.74400544529371
 30
0.0
  0
SPLINE
  5
1A8
330
1F
100
AcDbEntity
  8
0
  6
HIDDEN
 62
     7
370
     0
100
AcDbSpline
210
0.0
220
0.0
230
1.0
 70
    24
 71
     3
 72
    14
 73
    10
 74
     0
 42
0.00000001
 43
0.00000001
 12
1.0
 22
0.0
 32
0.0
 13
1.0
 23
0.0
 33
0.0
 40
0.0
 40
0.0
 40
0.0
 40
0.0
 40
0.125
 40
0.125
 40
0.25
 40
0.25
 40
0.5000000000000029
 40
0.5000000000000029
 40
1.0
 40
1.0
 40
1.0
 40
1.0
 10
138.7811095280008
 20
128.7568843673221
 30
0.0
 10
138.8065507590853
 20
128.7568843673221
 30
0.0
 10
138.8321650617128
 20
128.7568843673221
 30
0.0
 10
138.8776415022399
 20
128.7568843673221
 30
0.0
 10
138.8976447039794
 20
128.7568843673221
 30
0.0
 10
138.9527898959522
 20
128.7568843673221
 30
0.0
 10
138.9822241144743
 20
128.7568843673221
 30
0.0
 10
139.060137127053
 20
128.7568843673221
 30
0.0
 10
139.0987132275736
 20
128.7568843673221
 30
0.0
 10
139.1327651422516
 20
128.7568843673221
 30
0.0
  0
SPLINE
  5
1A9
330
1F
100
AcDbEntity
  8
0
  6
HIDDEN
 62
     7
370
     0
100
AcDbSpline
210
0.0
220
0.0
230
1.0
 70
    24
 71
     3
 72
    16
 73
    12
 74
     0
 42
0.00000001
 43
0.00000001
 12
1.0
 22
0.0
 32
0.0
 13
1.0
 23
0.0
 33
0.0
 40
0.0
 40
0.0
 40
0.0
 40
0.0
 40
0.0625
 40
0.0625
 40
0.1250000000000001
 40
0.1250000000000001
 40
0.2499999999999989
 40
0.2499999999999989
 40
0.4999999999999993
 40
0.4999999999999993
 40
1.0
 40
1.0
 40
1.0
 40
1.0
 10
138.7811095280008
 20
94.95688436732205
 30
0.0
 10
138.8153973514608
 20
94.95688436732203
 30
0.0
 10
138.8492812607824
 20
94.95688436732205
 30
0.0
 10
138.9056174535993
 20
94.95688436732205
 30
0.0
 10
138.9298793097662
 20
94.95688436732205
 30
0.0
 10
138.9941724278134
 20
94.95688436732205
 30
0.0
 10
139.0277362172401
 20
94.95688436732205
 30
0.0
 10
139.1156525894626
 20
94.95688436732205
 30
0.0
 10
139.1584091321793
 20
94.95688436732205
 30
0.0
 10
139.2689538738294
 20
94.95688436732205
 30
0.0
 10
139.3159332875916
 20
94.95688436732205
 30
0.0
 10
139.3458871274194
 20
94.95688436732205
 30
0.0
  0
LINE
  5
1AA
330
1F
100
AcDbEntity
  8
0
  6
HIDDEN
 62
     7
370
     0
100
AcDbLine
 10
103.4501102704
 20
100.8568844269
 30
0.0
 11
103.4501102704
 21
98.9785930584
 31
0.0
  0
LINE
  5
1AB
330
1F
100
AcDbEntity
  8
0
  6
HIDDEN
 62
     7
370
     0
100
AcDbLine
 10
102.4411098052
 20
100.8568844269
 30
0.0
 11
102.4411098052
 21
99.9910608377
 31
0.0
  0
SPLINE
  5
1AC
330
1F
100
AcDbEntity
  8
0
  6
HIDDEN
 62
     7
370
     0
100
AcDbSpline
210
0.0
220
0.0
230
1.0
 70
     8
 71
     3
 72
    10
 73
     6
 74
     0
 42
0.00000001
 43
0.00000001
 12
1.0
 22
0.0
 32
0.0
 13
1.0
 23
0.0
 33
0.0
 40
0.0
 40
0.0
 40
0.0
 40
0.0
 40
0.5
 40
0.5
 40
1.0
 40
1.0
 40
1.0
 40
1.0
 10
137.3011095280008
 20
129.259488339142
 30
0.0
 10
137.3011095280008
 20
129.1625532739102
 30
0.0
 10
137.3235591638463
 20
129.065493995171
 30
0.0
 10
137.4085548221143
 20
128.892309907764
 30
0.0
 10
137.4714109060448
 20
128.8153040388785
 30
0.0
 10
137.5494539137507
 20
128.7568843673221
 30
0.0
  0
LINE
  5
1AD
330
1F
100
AcDbEntity
  8
0
  6
HIDDEN
 62
     7
370
     0
100
AcDbLine
 10
137.3011098195
 20
129.2594885896
 30
0.0
 11
137.3011098195
 21
94.7440052848
 31
0.0
  0
SPLINE
  5
1AE
330
1F
100
AcDbEntity
  8
0
  6
HIDDEN
 62
     7
370
     0
100
AcDbSpline
210
0.0
220
0.0
230
1.0
 70
     8
 71
     3
 72
    10
 73
     6
 74
     0
 42
0.00000001
 43
0.00000001
 12
1.0
 22
0.0
 32
0.0
 13
1.0
 23
0.0
 33
0.0
 40
0.0
 40
0.0
 40
0.0
 40
0.0
 40
0.5
 40
0.5
 40
1.0
 40
1.0
 40
1.0
 40
1.0
 10
137.3011095280008
 20
94.74400544529371
 30
0.0
 10
137.3011095280008
 20
94.78022793473446
 30
0.0
 10
137.3040792572982
 20
94.81642113199301
 30
0.0
 10
137.3159582396462
 20
94.8880596234079
 30
0.0
 10
137.3247534674869
 20
94.92293294804959
 30
0.0
 10
137.3363319285821
 20
94.956884367322
 30
0.0
  0
SPLINE
  5
1AF
330
1F
100
AcDbEntity
  8
0
  6
HIDDEN
 62
     7
370
     0
100
AcDbSpline
210
0.0
220
0.0
230
1.0
 70
    24
 71
     3
 72
    12
 73
     8
 74
     0
 42
0.00000001
 43
0.00000001
 12
1.0
 22
0.0
 32
0.0
 13
1.0
 23
0.0
 33
0.0
 40
0.0
 40
0.0
 40
0.0
 40
0.0
 40
0.4999999999999978
 40
0.4999999999999978
 40
0.7499999999999989
 40
0.7499999999999989
 40
1.0
 40
1.0
 40
1.0
 40
1.0
 10
137.5494539137507
 20
128.7568843673221
 30
0.0
 10
137.5831501574097
 20
128.7568843673221
 30
0.0
 10
137.6211870321778
 20
128.7568843673221
 30
0.0
 10
137.6997473535821
 20
128.7568843673221
 30
0.0
 10
137.7293758590076
 20
128.7568843673221
 30
0.0
 10
137.8023196017533
 20
128.7568843673221
 30
0.0
 10
137.84947208201
 20
128.7568843673221
 30
0.0
 10
137.9011095280007
 20
128.7568843673221
 30
0.0
  0
SPLINE
  5
1B0
330
1F
100
AcDbEntity
  8
0
  6
HIDDEN
 62
     7
370
     0
100
AcDbSpline
210
0.0
220
0.0
230
1.0
 70
    24
 71
     3
 72
    16
 73
    12
 74
     0
 42
0.00000001
 43
0.00000001
 12
1.0
 22
0.0
 32
0.0
 13
1.0
 23
0.0
 33
0.0
 40
0.0
 40
0.0
 40
0.0
 40
0.0
 40
0.5000000000000006
 40
0.5000000000000006
 40
0.7500000000000013
 40
0.7500000000000013
 40
0.8750000000000017
 40
0.8750000000000017
 40
0.9375000000000008
 40
0.9375000000000008
 40
1.0
 40
1.0
 40
1.0
 40
1.0
 10
137.3363319285821
 20
94.95688436732205
 30
0.0
 10
137.3661883677028
 20
94.95688436732203
 30
0.0
 10
137.4131102415576
 20
94.95688436732205
 30
0.0
 10
137.5235776479776
 20
94.95688436732205
 30
0.0
 10
137.5668035001887
 20
94.95688436732205
 30
0.0
 10
137.6552214007158
 20
94.95688436732205
 30
0.0
 10
137.6880947413563
 20
94.95688436732205
 30
0.0
 10
137.7523868724311
 20
94.95688436732205
 30
0.0
 10
137.7765410264385
 20
94.95688436732203
 30
0.0
 10
137.8332757970961
 20
94.95688436732205
 30
0.0
 10
137.8666468532817
 20
94.95688436732205
 30
0.0
 10
137.9011095280008
 20
94.95688436732205
 30
0.0
  0
LINE
  5
1B1
330
1F
100
AcDbEntity
  8
0
  6
HIDDEN
 62
     7
370
     0
100
AcDbLine
 10
102.4411098052
 20
121.7218907993
 30
0.0
 11
102.4411098052
 21
101.9918779354
 31
0.0
  0
LINE
  5
1B2
330
1F
100
AcDbEntity
  8
0
  6
HIDDEN
 62
     7
370
     0
100
AcDbLine
 10
103.3911091227
 20
122.8568843077
 30
0.0
 11
103.3911091227
 21
124.7296249937
 31
0.0
  0
LINE
  5
1B3
330
1F
100
AcDbEntity
  8
0
  6
HIDDEN
 62
     7
370
     0
100
AcDbLine
 10
102.4411098052
 20
122.8568843077
 30
0.0
 11
102.4411098052
 21
123.7813570048
 31
0.0
  0
LINE
  5
1B4
330
1F
100
AcDbEntity
  8
0
  6
HIDDEN
 62
     7
370
     0
100
AcDbLine
 10
137.9011097316
 20
128.7568835984
 30
0.0
 11
138.781109913
 21
128.7568835984
 31
0.0
  0
LINE
  5
1B5
330
1F
100
AcDbEntity
  8
0
  6
HIDDEN
 62
     7
370
     0
100
AcDbLine
 10
137.9011097316
 20
94.9568851362
 30
0.0
 11
138.781109913
 21
94.9568851362
 31
0.0
  0
SPLINE
  5
1B6
330
1F
100
AcDbEntity
  8
0
  6
HIDDEN
 62
     7
370
     0
100
AcDbSpline
210
0.0
220
0.0
230
1.0
 70
    11
 71
     3
 72
    30
 73
    26
 74
     0
 42
0.00000001
 43
0.00000001
 12
1.0
 22
0.0
 32
0.0
 13
1.0
 23
0.0
 33
0.0
 40
0.0
 40
0.0
 40
0.0
 40
0.0
 40
0.0206934586633165
 40
0.0678815932431566
 40
0.1150272598485839
 40
0.1552801792446556
 40
0.1633654302301525
 40
0.1638317446175818
 40
0.2150751773868767
 40
0.2716661872189545
 40
0.3337404342758953
 40
0.3991885369715194
 40
0.4507483144531583
 40
0.5026125538948152
 40
0.5469939032069904
 40
0.5883340044766627
 40
0.6327130244342279
 40
0.6840331213719543
 40
0.743645556239562
 40
0.8086957495099845
 40
0.8727401253105036
 40
0.9308971339255847
 40
0.9554371450568844
 40
0.9829253303252009
 40
1.0
 40
1.0
 40
1.0
 40
1.0
 10
255.3963941473322
 20
119.1940419818512
 30
0.0
 10
255.320926878043
 20
119.1811980273201
 30
0.0
 10
255.0733685283054
 20
119.1390654814127
 30
0.0
 10
254.6507678147013
 20
119.2304215677543
 30
0.0
 10
254.1864352971277
 20
119.44115666898
 30
0.0
 10
253.9982094719089
 20
119.725292779414
 30
0.0
 10
253.8505844093428
 20
119.8338434004619
 30
0.0
 10
253.7599455415719
 20
120.0208699871078
 30
0.0
 10
253.5509201863034
 20
120.3451299718993
 30
0.0
 10
253.4915513561108
 20
120.9326292091696
 30
0.0
 10
253.61093845548
 20
121.5408434226034
 30
0.0
 10
253.9399665261631
 20
122.0615391350539
 30
0.0
 10
254.4131993786172
 20
122.425739727396
 30
0.0
 10
254.9370181275536
 20
122.5955039266763
 30
0.0
 10
255.4551737611538
 20
122.5799077452882
 30
0.0
 10
255.9074882545239
 20
122.4242227166995
 30
0.0
 10
256.3042489398534
 20
122.1437926770141
 30
0.0
 10
256.6318452245862
 20
121.7230754832127
 30
0.0
 10
256.8316295955914
 20
121.1634115564475
 30
0.0
 10
256.8293609593303
 20
120.5137192338013
 30
0.0
 10
256.5759946096557
 20
119.912688662724
 30
0.0
 10
256.2234986604208
 20
119.4889956413698
 30
0.0
 10
255.8417229157486
 20
119.3510063180087
 30
0.0
 10
255.6261311989209
 20
119.2092258003905
 30
0.0
 10
255.4600353187169
 20
119.1982481644902
 30
0.0
 10
255.3963941473322
 20
119.1940419818512
 30
0.0
  0
SPLINE
  5
1B7
330
1F
100
AcDbEntity
  8
0
  6
HIDDEN
 62
     7
370
     0
100
AcDbSpline
210
0.0
220
0.0
230
1.0
 70
     8
 71
     3
 72
     8
 73
     4
 74
     0
 42
0.00000001
 43
0.00000001
 12
1.0
 22
0.0
 32
0.0
 13
1.0
 23
0.0
 33
0.0
 40
0.0
 40
0.0
 40
0.0
 40
0.0
 40
1.0
 40
1.0
 40
1.0
 40
1.0
 10
139.3811095280008
 20
129.5705610628523
 30
0.0
 10
139.7121298590205
 20
130.16211675931
 30
0.0
 10
140.0439111305046
 20
130.7532494235552
 30
0.0
 10
140.3762692268942
 20
131.3440596372271
 30
0.0
  0
LINE
  5
1B8
330
1F
100
AcDbEntity
  8
0
  6
HIDDEN
 62
     7
370
     0
100
AcDbLine
 10
140.3762699056
 20
131.3440604578
 30
0.0
 11
141.6911092538
 21
131.3440604578
 31
0.0
  0
SPLINE
  5
1B9
330
1F
100
AcDbEntity
  8
0
  6
HIDDEN
 62
     7
370
     0
100
AcDbSpline
210
0.0
220
0.0
230
1.0
 70
     8
 71
     3
 72
    12
 73
     8
 74
     0
 42
0.00000001
 43
0.00000001
 12
1.0
 22
0.0
 32
0.0
 13
1.0
 23
0.0
 33
0.0
 40
0.0
 40
0.0
 40
0.0
 40
0.0
 40
0.249999999999998
 40
0.249999999999998
 40
0.499999999999996
 40
0.499999999999996
 40
1.0
 40
1.0
 40
1.0
 40
1.0
 10
141.6911095280008
 20
131.3440596372271
 30
0.0
 10
141.7705922369292
 20
131.3440596372271
 30
0.0
 10
141.851470525713
 20
131.3271619894724
 30
0.0
 10
141.9969146256384
 20
131.264223744333
 30
0.0
 10
142.063786642869
 20
131.2174715366142
 30
0.0
 10
142.2282756056571
 20
131.0459602601052
 30
0.0
 10
142.2911095280008
 20
130.8872991966036
 30
0.0
 10
142.2911095280008
 20
130.727761400465
 30
0.0
  0
SPLINE
  5
1BA
330
1F
100
AcDbEntity
  8
0
  6
HIDDEN
 62
     7
370
     0
100
AcDbSpline
210
0.0
220
0.0
230
1.0
 70
     8
 71
     3
 72
    10
 73
     6
 74
     0
 42
0.00000001
 43
0.00000001
 12
1.0
 22
0.0
 32
0.0
 13
1.0
 23
0.0
 33
0.0
 40
0.0
 40
0.0
 40
0.0
 40
0.0
 40
0.5
 40
0.5
 40
1.0
 40
1.0
 40
1.0
 40
1.0
 10
141.6911095280008
 20
92.62799984429265
 30
0.0
 10
141.8525874685536
 20
92.62799984429265
 30
0.0
 10
142.0104955907077
 20
92.6992415809328
 30
0.0
 10
142.2293893018982
 20
92.93207203749596
 30
0.0
 10
142.2911095280008
 20
93.09287569829051
 30
0.0
 10
142.2911095280008
 20
93.25285254623564
 30
0.0
  0
LINE
  5
1BB
330
1F
100
AcDbEntity
  8
0
  6
HIDDEN
 62
     7
370
     0
100
AcDbLine
 10
142.2911100972
 20
130.7277614693
 30
0.0
 11
142.2911100972
 21
93.252851672
 31
0.0
  0
SPLINE
  5
1BC
330
1F
100
AcDbEntity
  8
0
  6
HIDDEN
 62
     7
370
     0
100
AcDbSpline
210
0.0
220
0.0
230
1.0
 70
     8
 71
     3
 72
     8
 73
     4
 74
     0
 42
0.00000001
 43
0.00000001
 12
1.0
 22
0.0
 32
0.0
 13
1.0
 23
0.0
 33
0.0
 40
0.0
 40
0.0
 40
0.0
 40
0.0
 40
1.0
 40
1.0
 40
1.0
 40
1.0
 10
136.3059498291073
 20
131.3440596372272
 30
0.0
 10
136.638307925497
 20
130.7532494235552
 30
0.0
 10
136.9700891969811
 20
130.16211675931
 30
0.0
 10
137.3011095280008
 20
129.5705610628523
 30
0.0
  0
LINE
  5
1BD
330
1F
100
AcDbEntity
  8
0
  6
HIDDEN
 62
     7
370
     0
100
AcDbLine
 10
140.3762699056
 20
131.3440604578
 30
0.0
 11
140.3762699056
 21
92.627999417
 31
0.0
  0
LINE
  5
1BE
330
1F
100
AcDbEntity
  8
0
  6
HIDDEN
 62
     7
370
     0
100
AcDbLine
 10
139.3811088938
 20
129.5705615054
 30
0.0
 11
139.3811088938
 21
94.427761666
 31
0.0
  0
LINE
  5
1BF
330
1F
100
AcDbEntity
  8
0
  6
HIDDEN
 62
     7
370
     0
100
AcDbLine
 10
137.3011098195
 20
129.5705615054
 30
0.0
 11
137.3011098195
 21
94.427761666
 31
0.0
  0
SPLINE
  5
1C0
330
1F
100
AcDbEntity
  8
0
  6
HIDDEN
 62
     7
370
     0
100
AcDbSpline
210
0.0
220
0.0
230
1.0
 70
     8
 71
     3
 72
     8
 73
     4
 74
     0
 42
0.00000001
 43
0.00000001
 12
1.0
 22
0.0
 32
0.0
 13
1.0
 23
0.0
 33
0.0
 40
0.0
 40
0.0
 40
0.0
 40
0.0
 40
1.0
 40
1.0
 40
1.0
 40
1.0
 10
139.3811095280008
 20
94.4277609793323
 30
0.0
 10
139.7117481546154
 20
93.82724062822132
 30
0.0
 10
140.0435639551889
 20
93.22737151751627
 30
0.0
 10
140.3762692268942
 20
92.6279998442926
 30
0.0
  0
LINE
  5
1C1
330
1F
100
AcDbEntity
  8
0
  6
HIDDEN
 62
     7
370
     0
100
AcDbLine
 10
140.3762699056
 20
92.627999417
 30
0.0
 11
141.6911092538
 21
92.627999417
 31
0.0
  0
SPLINE
  5
1C2
330
1F
100
AcDbEntity
  8
0
  6
HIDDEN
 62
     7
370
     0
100
AcDbSpline
210
0.0
220
0.0
230
1.0
 70
     8
 71
     3
 72
     8
 73
     4
 74
     0
 42
0.00000001
 43
0.00000001
 12
1.0
 22
0.0
 32
0.0
 13
1.0
 23
0.0
 33
0.0
 40
0.0
 40
0.0
 40
0.0
 40
0.0
 40
1.0
 40
1.0
 40
1.0
 40
1.0
 10
136.3059498291073
 20
92.6279998442926
 30
0.0
 10
136.6386551008127
 20
93.22737151751626
 30
0.0
 10
136.9704709013862
 20
93.8272406282213
 30
0.0
 10
137.3011095280008
 20
94.42776097933229
 30
0.0
  0
LINE
  5
1C3
330
1F
100
AcDbEntity
  8
0
  6
HIDDEN
 62
     7
370
     0
100
AcDbLine
 10
102.4411098052
 20
100.0384120713
 30
0.0
 11
102.4411098052
 21
100.3093710612
 31
0.0
  0
LINE
  5
1C4
330
1F
100
AcDbEntity
  8
0
  6
HIDDEN
 62
     7
370
     0
100
AcDbLine
 10
102.4411098052
 20
123.7307982962
 30
0.0
 11
102.4411098052
 21
123.6351160775
 31
0.0
  0
SPLINE
  5
1C5
330
1F
100
AcDbEntity
  8
0
  6
HIDDEN
 62
     7
370
     0
100
AcDbSpline
210
0.0
220
0.0
230
1.0
 70
     8
 71
     3
 72
    26
 73
    22
 74
     0
 42
0.00000001
 43
0.00000001
 12
1.0
 22
0.0
 32
0.0
 13
1.0
 23
0.0
 33
0.0
 40
0.0
 40
0.0
 40
0.0
 40
0.0
 40
0.2500000000000028
 40
0.2500000000000028
 40
0.3750000000000048
 40
0.3750000000000048
 40
0.4375000000000058
 40
0.4375000000000058
 40
0.4687500000000051
 40
0.4687500000000051
 40
0.5000000000000044
 40
0.5000000000000044
 40
0.5312500000000038
 40
0.5312500000000038
 40
0.5625000000000031
 40
0.5625000000000031
 40
0.6250000000000023
 40
0.6250000000000023
 40
0.7500000000000018
 40
0.7500000000000018
 40
1.0
 40
1.0
 40
1.0
 40
1.0
 10
103.2010795743886
 20
124.244964946935
 30
0.0
 10
103.1536914649602
 20
124.1093092049119
 30
0.0
 10
103.0960501630558
 20
123.9653478065826
 30
0.0
 10
102.9740023505125
 20
123.7225752333282
 30
0.0
 10
102.9279533427359
 20
123.6375355928788
 30
0.0
 10
102.8373000585703
 20
123.4971596198385
 30
0.0
 10
102.8029475582847
 20
123.4472482424997
 30
0.0
 10
102.7405123858942
 20
123.3707129776454
 30
0.0
 10
102.7172183670962
 20
123.3443084986585
 30
0.0
 10
102.6681658299696
 20
123.2967137333975
 30
0.0
 10
102.6437343803128
 20
123.2772711195457
 30
0.0
 10
102.603104784693
 20
123.2523633418776
 30
0.0
 10
102.5869425028419
 20
123.2462935105666
 30
0.0
 10
102.5599604587387
 20
123.2406046389728
 30
0.0
 10
102.5492109359159
 20
123.2409951470536
 30
0.0
 10
102.5211749617588
 20
123.247137493842
 30
0.0
 10
102.5083137297261
 20
123.25780150026
 30
0.0
 10
102.4773108685658
 20
123.2968142906202
 30
0.0
 10
102.4664513864967
 20
123.3328662810245
 30
0.0
 10
102.4431741305587
 20
123.4505456785236
 30
0.0
 10
102.4411095280007
 20
123.5418755788566
 30
0.0
 10
102.4411095280007
 20
123.6351158317629
 30
0.0
  0
SPLINE
  5
1C6
330
1F
100
AcDbEntity
  8
0
  6
HIDDEN
 62
     7
370
     0
100
AcDbSpline
210
0.0
220
0.0
230
1.0
 70
     8
 71
     3
 72
    24
 73
    20
 74
     0
 42
0.00000001
 43
0.00000001
 12
1.0
 22
0.0
 32
0.0
 13
1.0
 23
0.0
 33
0.0
 40
0.0
 40
0.0
 40
0.0
 40
0.0
 40
0.2500000000000059
 40
0.2500000000000059
 40
0.375000000000009
 40
0.375000000000009
 40
0.4375000000000108
 40
0.4375000000000108
 40
0.5000000000000124
 40
0.5000000000000124
 40
0.5312500000000121
 40
0.5312500000000121
 40
0.5625000000000117
 40
0.5625000000000117
 40
0.6250000000000095
 40
0.6250000000000095
 40
0.7500000000000062
 40
0.7500000000000062
 40
1.0
 40
1.0
 40
1.0
 40
1.0
 10
102.4411095280008
 20
100.3093711661007
 30
0.0
 10
102.4411095280008
 20
100.3942801197702
 30
0.0
 10
102.4438341564332
 20
100.4766098158171
 30
0.0
 10
102.4701914775512
 20
100.5790222032361
 30
0.0
 10
102.4824051958233
 20
100.6098392996205
 30
0.0
 10
102.5170158459558
 20
100.6389368156974
 30
0.0
 10
102.5314025563232
 20
100.645894456336
 30
0.0
 10
102.5726510394256
 20
100.6447847150591
 30
0.0
 10
102.6011905893564
 20
100.6364913094504
 30
0.0
 10
102.6621132548677
 20
100.5919078755891
 30
0.0
 10
102.6851792250076
 20
100.5714461623319
 30
0.0
 10
102.7290751050138
 20
100.5268335440515
 30
0.0
 10
102.7499551405739
 20
100.5029574658452
 30
0.0
 10
102.807165403867
 20
100.4330603686832
 30
0.0
 10
102.8395120276434
 20
100.3874827798987
 30
0.0
 10
102.9256779711352
 20
100.2585992922798
 30
0.0
 10
102.9713419911753
 20
100.1787661151478
 30
0.0
 10
103.0918895546264
 20
99.95298530603547
 30
0.0
 10
103.1509496433276
 20
99.81815392106417
 30
0.0
 10
103.2010795743886
 20
99.68989878239664
 30
0.0
  0
LINE
  5
1C7
330
1F
100
AcDbEntity
  8
0
  6
HIDDEN
 62
     7
370
     0
100
AcDbLine
 10
102.4411098052
 20
123.6351160775
 30
0.0
 11
102.4411098052
 21
100.3093710612
 31
0.0
  0
CIRCLE
  5
1C8
330
1F
100
AcDbEntity
  8
0
  6
HIDDEN
 62
     7
370
     0
100
AcDbCircle
 10
220.3365444352
 20
111.275827344
 30
0.0
 40
2.496129896291652
  0
ELLIPSE
  5
1C9
330
1F
100
AcDbEntity
  8
0
  6
HIDDEN
 62
     7
370
     0
100
AcDbEllipse
 10
277.9083567218
 20
113.8568843673
 30
0.0
 11
17.78422892287995
 21
-16.57047652107812
 31
0.0
210
0.0
220
0.0
230
1.0
 40
0.2135193148
 41
3.617851655321103
 42
3.660340201999738
  0
ELLIPSE
  5
1CA
330
1F
100
AcDbEntity
  8
0
  6
HIDDEN
 62
     7
370
     0
100
AcDbEllipse
 10
213.0597732513
 20
113.8568843673
 30
0.0
 11
54.31434441551304
 21
16.73983078825403
 31
0.0
210
0.0
220
0.0
230
1.0
 40
0.054548757
 41
5.564947578262794
 42
5.756832388436099
  0
LINE
  5
1CB
330
1F
100
AcDbEntity
  8
0
  6
HIDDEN
 62
     7
370
     0
100
AcDbLine
 10
241.0686370868
 20
123.1050109933
 30
0.0
 11
246.7922699589
 21
123.1050109933
 31
0.0
  0
SPLINE
  5
1CC
330
1F
100
AcDbEntity
  8
0
  6
HIDDEN
 62
     7
370
     0
100
AcDbSpline
210
0.0
220
0.0
230
1.0
 70
     8
 71
     3
 72
    12
 73
     8
 74
     0
 42
0.00000001
 43
0.00000001
 12
1.0
 22
0.0
 32
0.0
 13
1.0
 23
0.0
 33
0.0
 40
0.0
 40
0.0
 40
0.0
 40
0.0
 40
0.499999999999995
 40
0.499999999999995
 40
0.7499999999999974
 40
0.7499999999999974
 40
1.0
 40
1.0
 40
1.0
 40
1.0
 10
246.7922668672018
 20
123.1050106038663
 30
0.0
 10
248.138581521889
 20
123.1050106038663
 30
0.0
 10
249.4615400126702
 20
123.225730509893
 30
0.0
 10
251.410778642981
 20
123.579525167902
 30
0.0
 10
252.054723669884
 20
123.7264909857179
 30
0.0
 10
253.3291544784858
 20
124.0791963938537
 30
0.0
 10
253.9513142165219
 20
124.2826421891612
 30
0.0
 10
254.5575569557413
 20
124.5117341071243
 30
0.0
  0
ELLIPSE
  5
1CD
330
1F
100
AcDbEntity
  8
0
  6
HIDDEN
 62
     7
370
     0
100
AcDbEllipse
 10
257.8886284879
 20
113.8568843673
 30
0.0
 11
5.553874176690158
 21
16.99159215419367
 31
0.0
210
0.0
220
0.0
230
1.0
 40
0.0962569477
 41
0.7754693734149247
 42
1.602248510774583
  0
LINE
  5
1CE
330
1F
100
AcDbEntity
  8
0
  6
HIDDEN
 62
     7
370
     0
100
AcDbLine
 10
255.4322016377
 20
111.8568843673
 30
0.0
 11
256.0792249579
 21
113.8568844623
 31
0.0
  0
CIRCLE
  5
1CF
330
1F
100
AcDbEntity
  8
0
  6
HIDDEN
 62
     7
370
     0
100
AcDbCircle
 10
129.341109528
 20
111.8568843673
 30
0.0
 40
5.000000000000014
  0
LINE
  5
1D0
330
1F
100
AcDbEntity
  8
0
  6
HIDDEN
 62
     7
370
     0
100
AcDbLine
 10
122.341109528
 20
95.649682961
 30
0.0
 11
122.4352703003
 21
96.3196726959
 31
0.0
  0
LINE
  5
1D1
330
1F
100
AcDbEntity
  8
0
  6
HIDDEN
 62
     7
370
     0
100
AcDbLine
 10
122.4352703003
 20
127.3940960388
 30
0.0
 11
122.341109528
 21
128.0640857737
 31
0.0
  0
ARC
  5
1D2
330
1F
100
AcDbEntity
  8
0
  6
HIDDEN
 62
     7
370
     0
100
AcDbCircle
 10
121.8411027753
 20
96.4031772139
 30
0.0
 40
0.60000675266771
100
AcDbArc
 50
352.0
 51
0.0
  0
ARC
  5
1D3
330
1F
100
AcDbEntity
  8
0
  6
HIDDEN
 62
     7
370
     0
100
AcDbCircle
 10
121.8411027753
 20
96.4031772139
 30
0.0
 40
0.6000067526677124
100
AcDbArc
 50
0.0
 51
33.5571153394
  0
ARC
  5
1D4
330
1F
100
AcDbEntity
  8
0
  6
HIDDEN
 62
     7
370
     0
100
AcDbCircle
 10
121.8411027753
 20
127.3105915208
 30
0.0
 40
0.6000067526677141
100
AcDbArc
 50
348.75
 51
8.0
  0
LWPOLYLINE
  5
1D5
330
1F
100
AcDbEntity
  8
0
  6
HIDDEN
 62
     7
370
     0
100
AcDbPolyline
 90
        3
 70
   128
 43
0.0
 10
122.4295805669
 20
127.1935357224
 10
122.3954367352
 20
127.0809788699
 10
122.341109528
 20
126.9789273362
  0
LINE
  5
1D6
330
1F
100
AcDbEntity
  8
0
  6
HIDDEN
 62
     7
370
     0
100
AcDbLine
 10
122.4411095255
 20
96.4031769405
 30
0.0
 11
122.4411095255
 21
127.3105917941
 31
0.0
  0
LINE
  5
1D7
330
1F
100
AcDbEntity
  8
0
  6
HIDDEN
 62
     7
370
     0
100
AcDbLine
 10
122.4411095255
 20
96.4031769405
 30
0.0
 11
122.4411095255
 21
127.3105917941
 31
0.0
  0
ARC
  5
1D8
330
1F
100
AcDbEntity
  8
0
  6
HIDDEN
 62
     7
370
     0
100
AcDbCircle
 10
111.8737374722
 20
99.5068843673
 30
0.0
 40
0.4000000000000199
100
AcDbArc
 50
210.0
 51
270.0
  0
ARC
  5
1D9
330
1F
100
AcDbEntity
  8
0
  6
HIDDEN
 62
     7
370
     0
100
AcDbCircle
 10
111.8737374722
 20
124.2068843673
 30
0.0
 40
0.4000000000000199
100
AcDbArc
 50
90.0
 51
150.0
  0
ARC
  5
1DA
330
1F
100
AcDbEntity
  8
0
  6
HIDDEN
 62
     7
370
     0
100
AcDbCircle
 10
118.1652862559
 20
104.1068843673
 30
0.0
 40
4.999999999999998
100
AcDbArc
 50
275.4010419043
 51
326.6329870308
  0
ARC
  5
1DB
330
1F
100
AcDbEntity
  8
0
  6
HIDDEN
 62
     7
370
     0
100
AcDbCircle
 10
118.1652862559
 20
119.6068843673
 30
0.0
 40
5.000000000000006
100
AcDbArc
 50
33.3670129692
 51
84.5979589707
  0
LINE
  5
1DC
330
1F
100
AcDbEntity
  8
0
  6
HIDDEN
 62
     7
370
     0
100
AcDbLine
 10
111.8737376246
 20
99.1068846057
 30
0.0
 11
114.0718842808
 21
99.1068846057
 31
0.0
  0
LINE
  5
1DD
330
1F
100
AcDbEntity
  8
0
  6
HIDDEN
 62
     7
370
     0
100
AcDbLine
 10
114.0718842808
 20
124.6068841289
 30
0.0
 11
111.8737376246
 21
124.6068841289
 31
0.0
  0
LINE
  5
1DE
330
1F
100
AcDbEntity
  8
0
  6
HIDDEN
 62
     7
370
     0
100
AcDbLine
 10
111.5273275364
 20
124.4068844686
 30
0.0
 11
110.3437590364
 21
122.3568842258
 31
0.0
  0
LINE
  5
1DF
330
1F
100
AcDbEntity
  8
0
  6
HIDDEN
 62
     7
370
     0
100
AcDbLine
 10
110.3437590364
 20
101.3568845089
 30
0.0
 11
111.5273275364
 21
99.306884266
 31
0.0
  0
LINE
  5
1E0
330
1F
100
AcDbEntity
  8
0
  6
HIDDEN
 62
     7
370
     0
100
AcDbLine
 10
217.6550758023
 20
113.7388162758
 30
0.0
 11
217.3490357537
 21
111.5088684461
 31
0.0
  0
LINE
  5
1E1
330
1F
100
AcDbEntity
  8
0
  6
HIDDEN
 62
     7
370
     0
100
AcDbLine
 10
217.3490357537
 20
111.5088684461
 30
0.0
 11
219.0729287404
 21
110.0616235496
 31
0.0
  0
LINE
  5
1E2
330
1F
100
AcDbEntity
  8
0
  6
HIDDEN
 62
     7
370
     0
100
AcDbLine
 10
219.3985489148
 20
114.5498180273
 30
0.0
 11
217.746248557
 21
113.9127251669
 31
0.0
  0
LINE
  5
1E3
330
1F
100
AcDbEntity
  8
0
  6
HIDDEN
 62
     7
370
     0
100
AcDbLine
 10
219.6606081862
 20
114.6508630342
 30
0.0
 11
219.3985489148
 21
114.5498180273
 31
0.0
  0
LINE
  5
1E4
330
1F
100
AcDbEntity
  8
0
  6
HIDDEN
 62
     7
370
     0
100
AcDbLine
 10
219.8188361663
 20
114.7118721134
 30
0.0
 11
219.6606081862
 21
114.6508630342
 31
0.0
  0
LINE
  5
1E5
330
1F
100
AcDbEntity
  8
0
  6
HIDDEN
 62
     7
370
     0
100
AcDbLine
 10
232.7142116565
 20
119.6840620111
 30
0.0
 11
219.8188361663
 21
114.7118721134
 31
0.0
  0
LINE
  5
1E6
330
1F
100
AcDbEntity
  8
0
  6
HIDDEN
 62
     7
370
     0
100
AcDbLine
 10
221.1422827977
 20
110.7207707106
 30
0.0
 11
232.7081170816
 21
115.1803168911
 31
0.0
  0
LINE
  5
1E7
330
1F
100
AcDbEntity
  8
0
  6
HIDDEN
 62
     7
370
     0
100
AcDbLine
 10
219.2572486538
 20
109.9939406128
 30
0.0
 11
221.1422827977
 21
110.7207707106
 31
0.0
  0
ARC
  5
1E8
330
1F
100
AcDbEntity
  8
0
  6
HIDDEN
 62
     7
370
     0
100
AcDbCircle
 10
129.291109528
 20
101.9818843673
 30
0.0
 40
1.000000000000019
100
AcDbArc
 50
218.6821874535
 51
0.0
  0
ARC
  5
1E9
330
1F
100
AcDbEntity
  8
0
  6
HIDDEN
 62
     7
370
     0
100
AcDbCircle
 10
129.291109528
 20
121.7318843673
 30
0.0
 40
1.000000000000019
100
AcDbArc
 50
0.0
 51
141.3178125465
  0
LINE
  5
1EA
330
1F
100
AcDbEntity
  8
0
  6
HIDDEN
 62
     7
370
     0
100
AcDbLine
 10
108.5411096874
 20
101.3568845089
 30
0.0
 11
110.3437590364
 21
101.3568845089
 31
0.0
  0
LINE
  5
1EB
330
1F
100
AcDbEntity
  8
0
  6
HIDDEN
 62
     7
370
     0
100
AcDbLine
 10
110.3437590364
 20
122.3568842258
 30
0.0
 11
106.0411092777
 21
122.3568842258
 31
0.0
  0
LINE
  5
1EC
330
1F
100
AcDbEntity
  8
0
  6
HIDDEN
 62
     7
370
     0
100
AcDbLine
 10
122.341109528
 20
101.3568845089
 30
0.0
 11
128.5104845602
 21
101.3568845089
 31
0.0
  0
LINE
  5
1ED
330
1F
100
AcDbEntity
  8
0
  6
HIDDEN
 62
     7
370
     0
100
AcDbLine
 10
128.5104845602
 20
122.3568842258
 30
0.0
 11
122.341109528
 21
122.3568842258
 31
0.0
  0
LINE
  5
1EE
330
1F
100
AcDbEntity
  8
0
  6
HIDDEN
 62
     7
370
     0
100
AcDbLine
 10
218.2411086697
 20
112.5335643743
 30
0.0
 11
218.2411086697
 21
112.0742811915
 31
0.0
  0
LINE
  5
1EF
330
1F
100
AcDbEntity
  8
0
  6
HIDDEN
 62
     7
370
     0
100
AcDbLine
 10
222.4411127109
 20
112.0747737302
 30
0.0
 11
222.4411127109
 21
112.4737051875
 31
0.0
  0
LINE
  5
1F0
330
1F
100
AcDbEntity
  8
0
  6
HIDDEN
 62
     7
370
     0
100
AcDbLine
 10
135.6411092866
 20
105.6068842742
 30
0.0
 11
138.1411087651
 21
105.6068842742
 31
0.0
  0
LINE
  5
1F1
330
1F
100
AcDbEntity
  8
0
  6
HIDDEN
 62
     7
370
     0
100
AcDbLine
 10
138.1411087651
 20
118.1068844605
 30
0.0
 11
135.6411092866
 21
118.1068844605
 31
0.0
  0
LINE
  5
1F2
330
1F
100
AcDbEntity
  8
0
  6
HIDDEN
 62
     7
370
     0
100
AcDbLine
 10
130.2911099929
 20
105.8568843152
 30
0.0
 11
130.7911091436
 21
106.3568843971
 31
0.0
  0
LINE
  5
1F3
330
1F
100
AcDbEntity
  8
0
  6
HIDDEN
 62
     7
370
     0
100
AcDbLine
 10
130.7911091436
 20
117.3568843375
 30
0.0
 11
130.2911099929
 21
117.8568844195
 31
0.0
  0
LINE
  5
1F4
330
1F
100
AcDbEntity
  8
0
  6
HIDDEN
 62
     7
370
     0
100
AcDbLine
 10
130.7911091436
 20
106.3568843971
 30
0.0
 11
135.6411092866
 21
106.3568843971
 31
0.0
  0
LINE
  5
1F5
330
1F
100
AcDbEntity
  8
0
  6
HIDDEN
 62
     7
370
     0
100
AcDbLine
 10
135.6411092866
 20
117.3568843375
 30
0.0
 11
130.7911091436
 21
117.3568843375
 31
0.0
  0
LINE
  5
1F6
330
1F
100
AcDbEntity
  8
0
  6
HIDDEN
 62
     7
370
     0
100
AcDbLine
 10
130.2911099929
 20
131.8568839203
 30
0.0
 11
130.2911099929
 21
128.7568835984
 31
0.0
  0
LINE
  5
1F7
330
1F
100
AcDbEntity
  8
0
  6
HIDDEN
 62
     7
370
     0
100
AcDbLine
 10
119.10828887
 20
96.8155796151
 30
0.0
 11
118.6403602779
 21
97.3114166851
 31
0.0
  0
LINE
  5
1F8
330
1F
100
AcDbEntity
  8
0
  6
HIDDEN
 62
     7
370
     0
100
AcDbLine
 10
114.0424554188
 20
97.5912698056
 30
0.0
 11
113.5249818627
 21
97.0954448427
 31
0.0
  0
LINE
  5
1F9
330
1F
100
AcDbEntity
  8
0
  6
HIDDEN
 62
     7
370
     0
100
AcDbLine
 10
113.524347632
 20
126.6183741833
 30
0.0
 11
114.0420335296
 21
126.1224868219
 31
0.0
  0
LINE
  5
1FA
330
1F
100
AcDbEntity
  8
0
  6
HIDDEN
 62
     7
370
     0
100
AcDbLine
 10
118.6396743588
 20
126.40213412
 30
0.0
 11
119.1075782709
 21
126.8980280007
 31
0.0
  0
LINE
  5
1FB
330
1F
100
AcDbEntity
  8
0
  6
HIDDEN
 62
     7
370
     0
100
AcDbLine
 10
222.4411127109
 20
114.3568843114
 30
0.0
 11
138.1411087651
 21
114.3568843114
 31
0.0
  0
LINE
  5
1FC
330
1F
100
AcDbEntity
  8
0
  6
HIDDEN
 62
     7
370
     0
100
AcDbLine
 10
138.1411087651
 20
109.3568844232
 30
0.0
 11
222.4411127109
 21
109.3568844232
 31
0.0
  0
LINE
  5
1FD
330
1F
100
AcDbEntity
  8
0
  6
HIDDEN
 62
     7
370
     0
100
AcDbLine
 10
222.4411127109
 20
109.3568844232
 30
0.0
 11
223.9432615179
 21
111.8568843673
 31
0.0
  0
LINE
  5
1FE
330
1F
100
AcDbEntity
  8
0
  6
HIDDEN
 62
     7
370
     0
100
AcDbLine
 10
223.9432615179
 20
111.8568843673
 30
0.0
 11
222.4411127109
 21
114.3568843114
 31
0.0
  0
LINE
  5
1FF
330
1F
100
AcDbEntity
  8
0
  6
HIDDEN
 62
     7
370
     0
100
AcDbLine
 10
118.6411095269
 20
97.3234717245
 30
0.0
 11
118.6411095269
 21
99.1300298344
 31
0.0
  0
LINE
  5
200
330
1F
100
AcDbEntity
  8
0
  6
HIDDEN
 62
     7
370
     0
100
AcDbLine
 10
114.0411096576
 20
99.1123868595
 30
0.0
 11
114.0411096576
 21
97.598278008
 31
0.0
  0
LINE
  5
201
330
1F
100
AcDbEntity
  8
0
  6
HIDDEN
 62
     7
370
     0
100
AcDbLine
 10
118.6411095269
 20
124.5837389003
 30
0.0
 11
118.6411095269
 21
126.3904050435
 31
0.0
  0
LINE
  5
202
330
1F
100
AcDbEntity
  8
0
  6
HIDDEN
 62
     7
370
     0
100
AcDbLine
 10
114.0411096576
 20
126.1154562677
 30
0.0
 11
114.0411096576
 21
124.6013818751
 31
0.0
  0
LINE
  5
203
330
1F
100
AcDbEntity
  8
0
  6
HIDDEN
 62
     7
370
     0
100
AcDbLine
 10
218.2411086697
 20
111.6394875432
 30
0.0
 11
218.2411086697
 21
111.2903720211
 31
0.0
  0
LINE
  5
204
330
1F
100
AcDbEntity
  8
0
  6
HIDDEN
 62
     7
370
     0
100
AcDbLine
 10
222.4411127109
 20
111.2903720211
 30
0.0
 11
222.4411127109
 21
111.6389950045
 31
0.0
  0
LINE
  5
205
330
1F
100
AcDbEntity
  8
0
  6
HIDDEN
 62
     7
370
     0
100
AcDbLine
 10
246.092854156
 20
115.774129096
 30
0.0
 11
246.092854156
 21
115.6694943062
 31
0.0
  0
ARC
  5
206
330
1F
100
AcDbEntity
  8
0
  6
HIDDEN
 62
     7
370
     0
100
AcDbCircle
 10
107.641109528
 20
98.0768843673
 30
0.0
 40
0.8999999999999958
100
AcDbArc
 50
34.6391318474
 51
90.0
  0
ARC
  5
207
330
1F
100
AcDbEntity
  8
0
  6
HIDDEN
 62
     7
370
     0
100
AcDbCircle
 10
105.141109528
 20
125.6368843673
 30
0.0
 40
0.9000000000000005
100
AcDbArc
 50
270.0
 51
311.1792132368
  0
LINE
  5
208
330
1F
100
AcDbEntity
  8
0
  6
HIDDEN
 62
     7
370
     0
100
AcDbLine
 10
103.4501102704
 20
98.9768840815
 30
0.0
 11
107.6411093537
 21
98.9768840815
 31
0.0
  0
LINE
  5
209
330
1F
100
AcDbEntity
  8
0
  6
HIDDEN
 62
     7
370
     0
100
AcDbLine
 10
102.4411098052
 20
99.9858845468
 30
0.0
 11
103.4501102704
 21
98.9768840815
 31
0.0
  0
LINE
  5
20A
330
1F
100
AcDbEntity
  8
0
  6
HIDDEN
 62
     7
370
     0
100
AcDbLine
 10
105.1411089439
 20
124.7368846531
 30
0.0
 11
103.3911091227
 21
124.7368846531
 31
0.0
  0
LINE
  5
20B
330
1F
100
AcDbEntity
  8
0
  6
HIDDEN
 62
     7
370
     0
100
AcDbLine
 10
103.3911091227
 20
124.7368846531
 30
0.0
 11
102.4411098052
 21
123.7868844043
 31
0.0
  0
LINE
  5
20C
330
1F
100
AcDbEntity
  8
0
  6
HIDDEN
 62
     7
370
     0
100
AcDbLine
 10
253.5198313135
 20
121.3738210942
 30
0.0
 11
253.5198313135
 21
120.8648458566
 31
0.0
  0
LINE
  5
20D
330
1F
100
AcDbEntity
  8
0
  6
HIDDEN
 62
     7
370
     0
100
AcDbLine
 10
256.8198275704
 20
120.8650591295
 30
0.0
 11
256.8198275704
 21
121.3738210942
 31
0.0
  0
LINE
  5
20E
330
1F
100
AcDbEntity
  8
0
  6
HIDDEN
 62
     7
370
     0
100
AcDbLine
 10
217.8411093492
 20
111.2694246555
 30
0.0
 11
217.8411093492
 21
110.7632760401
 31
0.0
  0
LINE
  5
20F
330
1F
100
AcDbEntity
  8
0
  6
HIDDEN
 62
     7
370
     0
100
AcDbLine
 10
222.8411120314
 20
110.7632760401
 30
0.0
 11
222.8411120314
 21
111.2694246555
 31
0.0
  0
LINE
  5
210
330
1F
100
AcDbEntity
  8
VERMASSUNG
  6
CENTERX2
100
AcDbLine
 10
98.0571443918
 20
111.8568843673
 30
0.0
 11
262.341109528
 21
111.8568843673
 31
0.0
  0
LINE
  5
211
330
1F
100
AcDbEntity
  8
VERMASSUNG
  6
CENTERX2
100
AcDbLine
 10
262.341109528
 20
128.8568843673
 30
0.0
 11
271.6554408103
 21
128.8568843673
 31
0.0
  0
LINE
  5
212
330
1F
100
AcDbEntity
  8
VERMASSUNG
  6
CENTERX2
100
AcDbLine
 10
262.341109528
 20
128.8568843673
 30
0.0
 11
262.341109528
 21
111.8568843673
 31
0.0
  0
DIMENSION
  5
213
330
1F
100
AcDbEntity
  8
VERMASSUNG
100
AcDbDimension
  2
_D
 10
278.4887513819
 20
111.8568843673
 30
0.0
 11
278.4887513819
 21
120.3568843673
 31
0.0
 70
   160
  1
<>
 71
     2
 42
-1.0
  3
SLDDIMSTYLE0
100
AcDbAlignedDimension
 13
262.341109528
 23
128.8568843673
 33
0.0
 14
262.341109528
 24
111.8568843673
 34
0.0
 50
90.0
100
AcDbRotatedDimension
  0
DIMENSION
  5
21E
330
1F
100
AcDbEntity
  8
VERMASSUNG
100
AcDbDimension
  2
_D_1
 10
122.341109528
 20
141.8568843673
 30
0.0
 11
192.341109528
 21
141.8568843673
 31
0.0
 70
   160
  1
<>
 71
     2
 42
-1.0
  3
SLDDIMSTYLE0
100
AcDbAlignedDimension
 13
262.341109528
 23
128.8568843673
 33
0.0
 14
122.341109528
 24
131.5568843673
 34
0.0
100
AcDbRotatedDimension
  0
DIMENSION
  5
228
330
1F
100
AcDbEntity
  8
VERMASSUNG
100
AcDbDimension
  2
_D_2
 10
262.341109528
 20
149.9991190507
 30
0.0
 11
182.391109528
 21
149.9991190507
 31
0.0
 70
   160
  1
<>
 71
     2
 42
-1.0
  3
SLDDIMSTYLE0
100
AcDbAlignedDimension
 13
102.441109528
 23
123.7868843673
 33
0.0
 14
262.341109528
 24
128.8568843673
 34
0.0
100
AcDbRotatedDimension
  0
DIMENSION
  5
232
330
1F
100
AcDbEntity
  8
VERMASSUNG
100
AcDbDimension
  2
_D_3
 10
271.6554408103
 20
128.8568843673
 30
0.0
 11
269.0075276479
 21
119.9569847018
 31
0.0
 70
   162
  1
<>
 71
     1
 42
-1.0
  3
SLDDIMSTYLE1
100
AcDb2LineAngularDimension
 13
259.1192329593
 23
118.2028475718
 33
0.0
 14
262.3252097948
 24
128.3461381581
 34
0.0
 15
262.341109528
 25
128.8568843673
 35
0.0
 16
269.0075276479
 26
119.9569847018
 36
0.0
  0
DIMENSION
  5
23C
330
1F
100
AcDbEntity
  8
VERMASSUNG
100
AcDbDimension
  2
_D_4
 10
162.7074026634
 20
99.3568843673
 30
0.0
 11
162.7074026634
 21
106.0273520913
 31
0.0
 70
   160
  1
%%c<>
 71
     2
 42
-1.0
  3
SLDDIMSTYLE0
100
AcDbAlignedDimension
 13
145.291109528
 23
124.3568843673
 33
0.0
 14
145.291109528
 24
99.3568843673
 34
0.0
 50
90.0
100
AcDbRotatedDimension
  0
DIMENSION
  5
247
330
1F
100
AcDbEntity
  8
VERMASSUNG
100
AcDbDimension
  2
_D_5
 10
92.441109528
 20
91.8568843673
 30
0.0
 11
92.441109528
 21
111.8568843673
 31
0.0
 70
   160
  1
HSK T%%c<>
 71
     2
 42
-1.0
  3
SLDDIMSTYLE0
100
AcDbAlignedDimension
 13
122.641109528
 23
131.8568843673
 33
0.0
 14
122.641109528
 24
91.8568843673
 34
0.0
 50
90.0
100
AcDbRotatedDimension
  0
LINE
  5
253
330
1F
100
AcDbEntity
  8
0
  6
Continuous
 62
     7
370
    15
100
AcDbLine
 10
61.7536564631
 20
122.5807089801
 30
0.0
 11
61.741376975
 21
122.5815676595
 31
0.0
  0
LINE
  5
254
330
1F
100
AcDbEntity
  8
0
  6
Continuous
 62
     7
370
    15
100
AcDbLine
 10
50.5021666567
 20
120.0305382232
 30
0.0
 11
50.5336206214
 21
120.0283384393
 31
0.0
  0
LINE
  5
255
330
1F
100
AcDbEntity
  8
0
  6
Continuous
 62
     7
370
    15
100
AcDbLine
 10
64.1509729711
 20
111.8568843673
 30
0.0
 11
64.1509729711
 21
113.8568844623
 31
0.0
  0
ARC
  5
256
330
1F
100
AcDbEntity
  8
0
  6
Continuous
 62
     7
370
    15
100
AcDbCircle
 10
51.1509727029
 20
111.8568843673
 30
0.0
 40
13.00000000000004
100
AcDbArc
 50
262.0926611235
 51
0.0
  0
LINE
  5
257
330
1F
100
AcDbEntity
  8
0
  6
Continuous
 62
     7
370
    15
100
AcDbLine
 10
50.6893599621
 20
117.9548381339
 30
0.0
 11
49.3625443004
 21
98.9804901625
 31
0.0
  0
LINE
  5
258
330
1F
100
AcDbEntity
  8
0
  6
Continuous
 62
     7
370
    15
100
AcDbLine
 10
50.6893599621
 20
117.9548381339
 30
0.0
 11
52.8688904404
 21
118.0153517495
 31
0.0
  0
LINE
  5
259
330
1F
100
AcDbEntity
  8
0
  6
Continuous
 62
     7
370
    15
100
AcDbLine
 10
52.8688904404
 20
118.0153517495
 30
0.0
 11
54.3605203082
 21
117.8432717431
 31
0.0
  0
LINE
  5
25A
330
1F
100
AcDbEntity
  8
0
  6
Continuous
 62
     7
370
    15
100
AcDbLine
 10
54.3605203082
 20
117.8432717431
 30
0.0
 11
54.3754782801
 21
118.0571816373
 31
0.0
  0
LINE
  5
25B
330
1F
100
AcDbEntity
  8
0
  6
Continuous
 62
     7
370
    15
100
AcDbLine
 10
54.3785725994
 20
118.1014329638
 30
0.0
 11
54.3791691115
 21
118.1099620159
 31
0.0
  0
LINE
  5
25C
330
1F
100
AcDbEntity
  8
0
  6
Continuous
 62
     7
370
    15
100
AcDbLine
 10
58.6642061634
 20
126.3646996091
 30
0.0
 11
55.0212452462
 21
127.2920817579
 31
0.0
  0
ARC
  5
25D
330
1F
100
AcDbEntity
  8
0
  6
Continuous
 62
     7
370
    15
100
AcDbCircle
 10
47.1509727029
 20
113.8568843673
 30
0.0
 40
17.00000000000007
100
AcDbArc
 50
0.0
 51
47.3709551602
  0
LINE
  5
25E
330
1F
100
AcDbEntity
  8
0
  6
Continuous
 62
     7
370
    15
100
AcDbLine
 10
55.0445946673
 20
127.6259916346
 30
0.0
 11
58.1225363811
 21
126.8424448068
 31
0.0
  0
ARC
  5
25F
330
1F
100
AcDbEntity
  8
0
  6
Continuous
 62
     7
370
    15
100
AcDbCircle
 10
47.1509727029
 20
113.8568843673
 30
0.0
 40
17.00000000000007
100
AcDbArc
 50
47.3709551602
 51
49.8053695625
  0
SPLINE
  5
260
330
1F
100
AcDbEntity
  8
0
  6
Continuous
 62
     7
370
    15
100
AcDbSpline
210
0.0
220
0.0
230
1.0
 70
     8
 71
     3
 72
    10
 73
     6
 74
     0
 42
0.00000001
 43
0.00000001
 12
1.0
 22
0.0
 32
0.0
 13
1.0
 23
0.0
 33
0.0
 40
0.0
 40
0.0
 40
0.0
 40
0.0
 40
0.3757245432799622
 40
0.751633824126184
 40
1.0
 40
1.0
 40
1.0
 40
1.0
 10
48.89369195267983
 20
124.1513826395622
 30
0.0
 10
49.20433769674508
 20
124.2009924430826
 30
0.0
 10
49.8257819242687
 20
124.3002364424461
 30
0.0
 10
50.51309195464162
 20
124.3438439495714
 30
0.0
 10
50.74401856386831
 20
124.3489782715725
 30
0.0
 10
50.83589204411447
 20
124.3510209466568
 30
0.0
  0
SPLINE
  5
261
330
1F
100
AcDbEntity
  8
0
  6
Continuous
 62
     7
370
    15
100
AcDbSpline
210
0.0
220
0.0
230
1.0
 70
     8
 71
     3
 72
    14
 73
    10
 74
     0
 42
0.00000001
 43
0.00000001
 12
1.0
 22
0.0
 32
0.0
 13
1.0
 23
0.0
 33
0.0
 40
0.0
 40
0.0
 40
0.0
 40
0.0
 40
0.2500000000000001
 40
0.2500000000000001
 40
0.5
 40
0.5
 40
0.75
 40
0.75
 40
1.0
 40
1.0
 40
1.0
 40
1.0
 10
49.39750704446693
 20
99.48048108588497
 30
0.0
 10
49.39750704446693
 20
99.48048108588497
 30
0.0
 10
49.34407181347155
 20
99.48770005459217
 30
0.0
 10
49.13109929640771
 20
99.520688729758
 30
0.0
 10
48.97674640288214
 20
99.54573814518527
 30
0.0
 10
48.57634188976122
 20
99.62320718167689
 30
0.0
 10
48.33912426767093
 20
99.67408378997816
 30
0.0
 10
47.80084460684743
 20
99.8109820237825
 30
0.0
 10
47.50997134758228
 20
99.89458162205325
 30
0.0
 10
47.20459627063494
 20
99.99618822185819
 30
0.0
  0
ELLIPSE
  5
262
330
1F
100
AcDbEntity
  8
0
  6
Continuous
 62
     7
370
    15
100
AcDbEllipse
 10
44.554922031
 20
117.4321894744
 30
0.0
 11
1.791520314584566
 21
1.69668010386475
 31
0.0
210
0.0
220
0.0
230
1.0
 40
0.8366473185
 41
0.0
 42
6.283185307179586
  0
ARC
  5
263
330
1F
100
AcDbEntity
  8
0
  6
Continuous
 62
     7
370
    15
100
AcDbCircle
 10
51.1509727029
 20
111.8568843673
 30
0.0
 40
12.50000000000003
100
AcDbArc
 50
100.4036880773
 51
251.5963119227
  0
SPLINE
  5
264
330
1F
100
AcDbEntity
  8
0
  6
Continuous
 62
     7
370
    15
100
AcDbSpline
210
0.0
220
0.0
230
1.0
 70
    24
 71
     3
 72
    10
 73
     6
 74
     0
 42
0.00000001
 43
0.00000001
 12
1.0
 22
0.0
 32
0.0
 13
1.0
 23
0.0
 33
0.0
 40
0.0
 40
0.0
 40
0.0
 40
0.0
 40
0.5
 40
0.5
 40
1.0
 40
1.0
 40
1.0
 40
1.0
 10
45.65097270287998
 20
93.25285254623549
 30
0.0
 10
45.65097270287998
 20
93.09177977950608
 30
0.0
 10
45.65097270287998
 20
92.931846270995
 30
0.0
 10
45.65097270287998
 20
92.69894605703092
 30
0.0
 10
45.65097270287998
 20
92.6279998442926
 30
0.0
 10
45.65097270287998
 20
92.6279998442926
 30
0.0
  0
ARC
  5
265
330
1F
100
AcDbEntity
  8
0
  6
Continuous
 62
     7
370
    15
100
AcDbCircle
 10
51.1509727029
 20
111.8568843673
 30
0.0
 40
20.00000000000004
100
AcDbArc
 50
143.6653827846
 51
254.0379858372
  0
SPLINE
  5
266
330
1F
100
AcDbEntity
  8
0
  6
Continuous
 62
     7
370
    15
100
AcDbSpline
210
0.0
220
0.0
230
1.0
 70
    24
 71
     3
 72
    12
 73
     8
 74
     0
 42
0.00000001
 43
0.00000001
 12
1.0
 22
0.0
 32
0.0
 13
1.0
 23
0.0
 33
0.0
 40
0.0
 40
0.0
 40
0.0
 40
0.0
 40
0.249999999999998
 40
0.249999999999998
 40
0.499999999999996
 40
0.499999999999996
 40
1.0
 40
1.0
 40
1.0
 40
1.0
 10
35.03956370180253
 20
123.7068843673221
 30
0.0
 10
35.03956370180254
 20
123.7068843673221
 30
0.0
 10
35.06511259398567
 20
123.7068843673221
 30
0.0
 10
35.15402828696909
 20
123.7068843673221
 30
0.0
 10
35.21689940152598
 20
123.7068843673221
 30
0.0
 10
35.43469818899213
 20
123.7068843673221
 30
0.0
 10
35.61380545418368
 20
123.7068843673221
 30
0.0
 10
35.7907155435743
 20
123.7068843673221
 30
0.0
  0
SPLINE
  5
267
330
1F
100
AcDbEntity
  8
0
  6
Continuous
 62
     7
370
    15
100
AcDbSpline
210
0.0
220
0.0
230
1.0
 70
    24
 71
     3
 72
    12
 73
     8
 74
     0
 42
0.00000001
 43
0.00000001
 12
1.0
 22
0.0
 32
0.0
 13
1.0
 23
0.0
 33
0.0
 40
0.0
 40
0.0
 40
0.0
 40
0.0
 40
0.2499999999999994
 40
0.2499999999999994
 40
0.4999999999999989
 40
0.4999999999999989
 40
1.0
 40
1.0
 40
1.0
 40
1.0
 10
39.30097270287997
 20
127.9682933683995
 30
0.0
 10
39.30097270287997
 20
127.9682933683995
 30
0.0
 10
39.30097270287997
 20
127.9430304246595
 30
0.0
 10
39.30097270287997
 20
127.8530324213933
 30
0.0
 10
39.30097270287997
 20
127.790143956692
 30
0.0
 10
39.30097270287997
 20
127.5739114532893
 30
0.0
 10
39.30097270287997
 20
127.3935369161585
 30
0.0
 10
39.30097270287997
 20
127.2171415266277
 30
0.0
  0
ARC
  5
268
330
1F
100
AcDbEntity
  8
0
  6
Continuous
 62
     7
370
    15
100
AcDbCircle
 10
51.1509727029
 20
111.8568843673
 30
0.0
 40
20.00000000000003
100
AcDbArc
 50
103.0028781629
 51
126.3346172154
  0
SPLINE
  5
269
330
1F
100
AcDbEntity
  8
0
  6
Continuous
 62
     7
370
    15
100
AcDbSpline
210
0.0
220
0.0
230
1.0
 70
    24
 71
     3
 72
    10
 73
     6
 74
     0
 42
0.00000001
 43
0.00000001
 12
1.0
 22
0.0
 32
0.0
 13
1.0
 23
0.0
 33
0.0
 40
0.0
 40
0.0
 40
0.0
 40
0.0
 40
0.5
 40
0.5
 40
1.0
 40
1.0
 40
1.0
 40
1.0
 10
46.65097270287998
 20
130.727761400465
 30
0.0
 10
46.65097270287998
 20
130.8874383553621
 30
0.0
 10
46.65097270287998
 20
131.0454288009988
 30
0.0
 10
46.65097270287998
 20
131.2757225837932
 30
0.0
 10
46.65097270287998
 20
131.3440596372271
 30
0.0
 10
46.65097270287998
 20
131.3440596372271
 30
0.0
  0
SPLINE
  5
26A
330
1F
100
AcDbEntity
  8
0
  6
Continuous
 62
     7
370
    15
100
AcDbSpline
210
0.0
220
0.0
230
1.0
 70
    24
 71
     3
 72
    12
 73
     8
 74
     0
 42
0.00000001
 43
0.00000001
 12
1.0
 22
0.0
 32
0.0
 13
1.0
 23
0.0
 33
0.0
 40
0.0
 40
0.0
 40
0.0
 40
0.0
 40
0.249999999999998
 40
0.249999999999998
 40
0.499999999999996
 40
0.499999999999996
 40
1.0
 40
1.0
 40
1.0
 40
1.0
 10
55.65097270288
 20
131.3440596372271
 30
0.0
 10
55.65097270288
 20
131.3440596372271
 30
0.0
 10
55.65097270288
 20
131.3271619894724
 30
0.0
 10
55.65097270288
 20
131.264223744333
 30
0.0
 10
55.65097270288
 20
131.2174715366142
 30
0.0
 10
55.65097270288
 20
131.0459602601052
 30
0.0
 10
55.65097270288
 20
130.8872991966036
 30
0.0
 10
55.65097270288
 20
130.727761400465
 30
0.0
  0
ARC
  5
26B
330
1F
100
AcDbEntity
  8
0
  6
Continuous
 62
     7
370
    15
100
AcDbCircle
 10
51.1509727029
 20
111.8568843673
 30
0.0
 40
20.00000000000006
100
AcDbArc
 50
285.9620141628
 51
76.9971218371
  0
SPLINE
  5
26C
330
1F
100
AcDbEntity
  8
0
  6
Continuous
 62
     7
370
    15
100
AcDbSpline
210
0.0
220
0.0
230
1.0
 70
    24
 71
     3
 72
    10
 73
     6
 74
     0
 42
0.00000001
 43
0.00000001
 12
1.0
 22
0.0
 32
0.0
 13
1.0
 23
0.0
 33
0.0
 40
0.0
 40
0.0
 40
0.0
 40
0.0
 40
0.5
 40
0.5
 40
1.0
 40
1.0
 40
1.0
 40
1.0
 10
56.65097270288
 20
92.62799984429265
 30
0.0
 10
56.65097270288
 20
92.62799984429265
 30
0.0
 10
56.65097270288
 20
92.6992415809328
 30
0.0
 10
56.65097270288
 20
92.93207203749596
 30
0.0
 10
56.65097270288
 20
93.09287569829051
 30
0.0
 10
56.65097270288
 20
93.25285254623564
 30
0.0
  0
LINE
  5
26D
330
1F
100
AcDbEntity
  8
0
  6
Continuous
 62
     7
370
    15
100
AcDbLine
 10
55.6509725092
 20
128.7568835984
 30
0.0
 11
46.6509728966
 21
128.7568835984
 31
0.0
  0
LINE
  5
26E
330
1F
100
AcDbEntity
  8
0
  6
Continuous
 62
     7
370
    15
100
AcDbLine
 10
56.6509726731
 20
94.9568851362
 30
0.0
 11
45.6509727327
 21
94.9568851362
 31
0.0
  0
LINE
  5
26F
330
1F
100
AcDbEntity
  8
0
  6
Continuous
 62
     7
370
    15
100
AcDbLine
 10
56.6509726731
 20
93.252851672
 30
0.0
 11
56.6509726731
 21
94.9568851362
 31
0.0
  0
LINE
  5
270
330
1F
100
AcDbEntity
  8
0
  6
Continuous
 62
     7
370
    15
100
AcDbLine
 10
55.6509725092
 20
130.7277614693
 30
0.0
 11
55.6509725092
 21
128.7568835984
 31
0.0
  0
LINE
  5
271
330
1F
100
AcDbEntity
  8
0
  6
Continuous
 62
     7
370
    15
100
AcDbLine
 10
39.3009723438
 20
127.2171419556
 30
0.0
 11
39.3009723438
 21
123.7068847264
 31
0.0
  0
LINE
  5
272
330
1F
100
AcDbEntity
  8
0
  6
Continuous
 62
     7
370
    15
100
AcDbLine
 10
46.6509728966
 20
128.7568835984
 30
0.0
 11
46.6509728966
 21
130.7277614693
 31
0.0
  0
LINE
  5
273
330
1F
100
AcDbEntity
  8
0
  6
Continuous
 62
     7
370
    15
100
AcDbLine
 10
45.6509727327
 20
94.9568851362
 30
0.0
 11
45.6509727327
 21
93.252851672
 31
0.0
  0
LINE
  5
274
330
1F
100
AcDbEntity
  8
0
  6
Continuous
 62
     7
370
    15
100
AcDbLine
 10
35.7907151146
 20
123.7068847264
 30
0.0
 11
39.3009723438
 21
123.7068847264
 31
0.0
  0
SPLINE
  5
275
330
1F
100
AcDbEntity
  8
0
  6
Continuous
 62
     7
370
    15
100
AcDbSpline
210
0.0
220
0.0
230
1.0
 70
     8
 71
     3
 72
    22
 73
    18
 74
     0
 42
0.00000001
 43
0.00000001
 12
1.0
 22
0.0
 32
0.0
 13
1.0
 23
0.0
 33
0.0
 40
0.0
 40
0.0
 40
0.0
 40
0.0
 40
0.2500000000000002
 40
0.2500000000000002
 40
0.3750000000000002
 40
0.3750000000000002
 40
0.5000000000000001
 40
0.5000000000000001
 40
0.6250000000000001
 40
0.6250000000000001
 40
0.7500000000000001
 40
0.7500000000000001
 40
0.8750000000000001
 40
0.8750000000000001
 40
0.9375
 40
0.9375
 40
1.0
 40
1.0
 40
1.0
 40
1.0
 10
35.03956370180248
 20
123.7068843673221
 30
0.0
 10
35.45355857996897
 20
124.2697570092201
 30
0.0
 10
35.88936838127793
 20
124.8003818929496
 30
0.0
 10
36.56610918426227
 20
125.5460928838712
 30
0.0
 10
36.79696431143694
 20
125.7877131102699
 30
0.0
 10
37.25700136659908
 20
126.2465718855958
 30
0.0
 10
37.48296904337759
 20
126.4607505580656
 30
0.0
 10
37.9201606318783
 20
126.8579791172111
 30
0.0
 10
38.13321335617084
 20
127.0424239522309
 30
0.0
 10
38.51738949540437
 20
127.3635038001146
 30
0.0
 10
38.69150650419583
 20
127.5028546302206
 30
0.0
 10
38.98502424899636
 20
127.7321601646461
 30
0.0
 10
39.09981655359377
 20
127.8186961741225
 30
0.0
 10
39.21877112968974
 20
127.9075857784537
 30
0.0
 10
39.24958921267633
 20
127.9303942843154
 30
0.0
 10
39.29060842439494
 20
127.9606854470116
 30
0.0
 10
39.30097270287995
 20
127.9682933683995
 30
0.0
 10
39.30097270287995
 20
127.9682933683995
 30
0.0
  0
SPLINE
  5
276
330
1F
100
AcDbEntity
  8
0
  6
Continuous
 62
     7
370
    15
100
AcDbSpline
210
0.0
220
0.0
230
1.0
 70
     8
 71
     3
 72
    22
 73
    18
 74
     0
 42
0.00000001
 43
0.00000001
 12
1.0
 22
0.0
 32
0.0
 13
1.0
 23
0.0
 33
0.0
 40
0.0
 40
0.0
 40
0.0
 40
0.0
 40
0.125
 40
0.125
 40
0.25
 40
0.25
 40
0.375
 40
0.375
 40
0.5
 40
0.5
 40
0.625
 40
0.625
 40
0.75
 40
0.75
 40
0.875
 40
0.875
 40
1.0
 40
1.0
 40
1.0
 40
1.0
 10
52.15097270288
 20
91.88190001188384
 30
0.0
 10
52.44971043127765
 20
91.89685560449318
 30
0.0
 10
52.7429157561121
 20
91.91824380113957
 30
0.0
 10
53.31887083673969
 20
91.97262204775488
 30
0.0
 10
53.60461313055507
 20
92.00606821136326
 30
0.0
 10
54.14814227154873
 20
92.080832486761
 30
0.0
 10
54.40563545977035
 20
92.12193097572194
 30
0.0
 10
54.89284045703564
 20
92.2084839046857
 30
0.0
 10
55.12298007922478
 20
92.2541348037836
 30
0.0
 10
55.53618573542827
 20
92.34241435894843
 30
0.0
 10
55.72202147612414
 20
92.3855157089557
 30
0.0
 10
56.05111805630757
 20
92.46571988881094
 30
0.0
 10
56.19107791312161
 20
92.50201473620051
 30
0.0
 10
56.41676427435127
 20
92.56219395535021
 30
0.0
 10
56.50403568269001
 20
92.58648129278133
 30
0.0
 10
56.62143589604088
 20
92.61947938709268
 30
0.0
 10
56.65097270288
 20
92.62799984429262
 30
0.0
 10
56.65097270288
 20
92.62799984429262
 30
0.0
  0
SPLINE
  5
277
330
1F
100
AcDbEntity
  8
0
  6
Continuous
 62
     7
370
    15
100
AcDbSpline
210
0.0
220
0.0
230
1.0
 70
     8
 71
     3
 72
    22
 73
    18
 74
     0
 42
0.00000001
 43
0.00000001
 12
1.0
 22
0.0
 32
0.0
 13
1.0
 23
0.0
 33
0.0
 40
0.0
 40
0.0
 40
0.0
 40
0.0
 40
0.125
 40
0.125
 40
0.25
 40
0.25
 40
0.375
 40
0.375
 40
0.5
 40
0.5
 40
0.625
 40
0.625
 40
0.75
 40
0.75
 40
0.875
 40
0.875
 40
1.0
 40
1.0
 40
1.0
 40
1.0
 10
45.65097270287997
 20
92.6279998442926
 30
0.0
 10
45.65097270287997
 20
92.6279998442926
 30
0.0
 10
45.6804986012999
 20
92.61948574322625
 30
0.0
 10
45.79590343458657
 20
92.58704197434436
 30
0.0
 10
45.88328623965241
 20
92.56270808564231
 30
0.0
 10
46.10995965896002
 20
92.50224806088549
 30
0.0
 10
46.24843550529258
 20
92.466334640107
 30
0.0
 10
46.57524600245636
 20
92.38662461403784
 30
0.0
 10
46.76429083843635
 20
92.34274631284852
 30
0.0
 10
47.17715912091207
 20
92.25450269047835
 30
0.0
 10
47.4026310121634
 20
92.20969434901738
 30
0.0
 10
47.89348661671109
 20
92.1223733410982
 30
0.0
 10
48.15232677465314
 20
92.08108255252253
 30
0.0
 10
48.69207960044897
 20
92.0067443292287
 30
0.0
 10
48.97618268927803
 20
91.97333420349405
 30
0.0
 10
49.55763582441995
 20
91.9183148019679
 30
0.0
 10
49.85228629004823
 20
91.89685303550161
 30
0.0
 10
50.15097270287998
 20
91.88190001188381
 30
0.0
  0
SPLINE
  5
278
330
1F
100
AcDbEntity
  8
0
  6
Continuous
 62
     7
370
    15
100
AcDbSpline
210
0.0
220
0.0
230
1.0
 70
     8
 71
     3
 72
    38
 73
    34
 74
     0
 42
0.00000001
 43
0.00000001
 12
1.0
 22
0.0
 32
0.0
 13
1.0
 23
0.0
 33
0.0
 40
0.0
 40
0.0
 40
0.0
 40
0.0
 40
0.0625
 40
0.0625
 40
0.125
 40
0.125
 40
0.1875
 40
0.1875
 40
0.25
 40
0.25
 40
0.3125
 40
0.3125
 40
0.375
 40
0.375
 40
0.4375
 40
0.4375
 40
0.5
 40
0.5
 40
0.5625
 40
0.5625
 40
0.625
 40
0.625
 40
0.6875
 40
0.6875
 40
0.75
 40
0.75
 40
0.8125
 40
0.8125
 40
0.875
 40
0.875
 40
0.9375
 40
0.9375
 40
1.0
 40
1.0
 40
1.0
 40
1.0
 10
46.65097270287998
 20
131.3440596372272
 30
0.0
 10
46.65097270287998
 20
131.3440596372272
 30
0.0
 10
46.6803331254515
 20
131.3509052044833
 30
0.0
 10
46.79518671595881
 20
131.3768893639169
 30
0.0
 10
46.88213879870334
 20
131.3963422827399
 30
0.0
 10
47.10825168258797
 20
131.4443743872792
 30
0.0
 10
47.24647700706166
 20
131.4727584042585
 30
0.0
 10
47.57288184229892
 20
131.5349144177373
 30
0.0
 10
47.76220361662421
 20
131.5688125934141
 30
0.0
 10
48.17577267014093
 20
131.6354600257398
 30
0.0
 10
48.40161876006462
 20
131.6685574431528
 30
0.0
 10
48.89304924902736
 20
131.730563413815
 30
0.0
 10
49.15340670417766
 20
131.7587293830626
 30
0.0
 10
49.69435151573583
 20
131.8056176520921
 30
0.0
 10
49.97889535764814
 20
131.8246296394121
 30
0.0
 10
50.56010853227549
 20
131.8502706759536
 30
0.0
 10
50.85267014013647
 20
131.856827792159
 30
0.0
 10
51.44164013074619
 20
131.856940213794
 30
0.0
 10
51.74087126409047
 20
131.850274690562
 30
0.0
 10
52.31871360555066
 20
131.8248591798606
 30
0.0
 10
52.59968383869163
 20
131.8062282864589
 30
0.0
 10
53.14568863828994
 20
131.7590499554194
 30
0.0
 10
53.40770093801332
 20
131.7306683021659
 30
0.0
 10
53.89420277620588
 20
131.6693753510652
 30
0.0
 10
54.12257236743888
 20
131.6360237678034
 30
0.0
 10
54.54031906632888
 20
131.568735909444
 30
0.0
 10
54.72587070729903
 20
131.5354926132945
 30
0.0
 10
55.05179741878706
 20
131.4734866413201
 30
0.0
 10
55.19321930019763
 20
131.4444715838494
 30
0.0
 10
55.41909644640143
 20
131.3964967030001
 30
0.0
 10
55.50473721485899
 20
131.3773424656596
 30
0.0
 10
55.62096209804495
 20
131.3510564349384
 30
0.0
 10
55.65097270288
 20
131.3440596372272
 30
0.0
 10
55.65097270288
 20
131.3440596372272
 30
0.0
  0
ARC
  5
279
330
1F
100
AcDbEntity
  8
0
  6
Continuous
 62
     7
370
    15
100
AcDbCircle
 10
51.1509727029
 20
111.8568843673
 30
0.0
 40
20.00000000000005
100
AcDbArc
 50
267.1340160174
 51
272.8659839826
  0
SPLINE
  5
27A
330
1F
100
AcDbEntity
  8
0
  6
Continuous
 62
     7
370
    15
100
AcDbSpline
210
0.0
220
0.0
230
1.0
 70
     8
 71
     3
 72
    14
 73
    10
 74
     0
 42
0.00000001
 43
0.00000001
 12
1.0
 22
0.0
 32
0.0
 13
1.0
 23
0.0
 33
0.0
 40
0.0
 40
0.0
 40
0.0
 40
0.0
 40
0.1588513633052708
 40
0.3173329682564475
 40
0.4720199930436205
 40
0.6236530492167461
 40
0.7746715559812316
 40
0.9277512568295359
 40
1.0
 40
1.0
 40
1.0
 40
1.0
 10
51.11525785002351
 20
128.3461386780492
 30
0.0
 10
51.11840360312697
 20
128.3911252338794
 30
0.0
 10
51.12468778696368
 20
128.4809936303236
 30
0.0
 10
51.13419867553479
 20
128.6170030874978
 30
0.0
 10
51.1422856913638
 20
128.7326544189769
 30
0.0
 10
51.14815653646482
 20
128.8166118276308
 30
0.0
 10
51.15124014393
 20
128.8607092818328
 30
0.0
 10
51.15139713070435
 20
128.8629535502814
 30
0.0
 10
51.15023592090786
 20
128.8463475205378
 30
0.0
 10
51.14986359353162
 20
128.8410230051032
 30
0.0
  0
SPLINE
  5
27B
330
1F
100
AcDbEntity
  8
0
  6
Continuous
 62
     7
370
    15
100
AcDbSpline
210
0.0
220
0.0
230
1.0
 70
     8
 71
     3
 72
    10
 73
     6
 74
     0
 42
0.00000001
 43
0.00000001
 12
1.0
 22
0.0
 32
0.0
 13
1.0
 23
0.0
 33
0.0
 40
0.0
 40
0.0
 40
0.0
 40
0.0
 40
0.2789470843569214
 40
0.5613894381833375
 40
1.0
 40
1.0
 40
1.0
 40
1.0
 10
51.14986359353162
 20
128.8410230051032
 30
0.0
 10
51.51256089316364
 20
128.7566061841548
 30
0.0
 10
52.24250017086011
 20
128.5867147805766
 30
0.0
 10
53.56191797821638
 20
128.3413738531652
 30
0.0
 10
54.49964567483732
 20
128.1229790651237
 30
0.0
 10
55.07005772494205
 20
127.9901313106767
 30
0.0
  0
SPLINE
  5
27C
330
1F
100
AcDbEntity
  8
0
  6
Continuous
 62
     7
370
    15
100
AcDbSpline
210
0.0
220
0.0
230
1.0
 70
     8
 71
     3
 72
    14
 73
    10
 74
     0
 42
0.00000001
 43
0.00000001
 12
1.0
 22
0.0
 32
0.0
 13
1.0
 23
0.0
 33
0.0
 40
0.0
 40
0.0
 40
0.0
 40
0.0
 40
0.1583298996140242
 40
0.3168150193379446
 40
0.4713504097180525
 40
0.6221095756529227
 40
0.772121551610595
 40
0.9245892507942641
 40
1.0
 40
1.0
 40
1.0
 40
1.0
 10
55.07005772494205
 20
127.9901313106767
 30
0.0
 10
55.07022557436272
 20
127.9925311576411
 30
0.0
 10
55.07056143775671
 20
127.9973332042811
 30
0.0
 10
55.07003932219187
 20
127.9898620872404
 30
0.0
 10
55.06880945283102
 20
127.9722852680799
 30
0.0
 10
55.06698718983675
 20
127.9462137107915
 30
0.0
 10
55.06479991067508
 20
127.9149433231743
 30
0.0
 10
55.0628523622552
 20
127.8870859912033
 30
0.0
 10
55.06174058989891
 20
127.8711889898072
 30
0.0
 10
55.06137267627247
 20
127.8659282694808
 30
0.0
  0
LINE
  5
27D
330
1F
100
AcDbEntity
  8
0
  6
Continuous
 62
     7
370
    15
100
AcDbLine
 10
54.3830939376
 20
118.1660895678
 30
0.0
 11
55.0613726763
 21
127.8659282695
 31
0.0
  0
LINE
  5
27E
330
1F
100
AcDbEntity
  8
0
  6
Continuous
 62
     7
370
    15
100
AcDbLine
 10
50.4059698823
 20
118.2028474729
 30
0.0
 11
51.11525785
 21
128.346138678
 31
0.0
  0
SPLINE
  5
27F
330
1F
100
AcDbEntity
  8
0
  6
Continuous
 62
     7
370
    15
100
AcDbSpline
210
0.0
220
0.0
230
1.0
 70
     8
 71
     3
 72
    10
 73
     6
 74
     0
 42
0.00000001
 43
0.00000001
 12
1.0
 22
0.0
 32
0.0
 13
1.0
 23
0.0
 33
0.0
 40
0.0
 40
0.0
 40
0.0
 40
0.0
 40
0.2657094371107149
 40
0.6164592562974677
 40
1.0
 40
1.0
 40
1.0
 40
1.0
 10
54.38309393763967
 20
118.1660895678452
 30
0.0
 10
54.38254889642309
 20
118.1582953486383
 30
0.0
 10
54.38128437339116
 20
118.1402123681166
 30
0.0
 10
54.37957220993714
 20
118.1157289029354
 30
0.0
 10
54.37891557722229
 20
118.1063380644793
 30
0.0
 10
54.37857259937056
 20
118.1014329637638
 30
0.0
  0
SPLINE
  5
280
330
1F
100
AcDbEntity
  8
0
  6
Continuous
 62
     7
370
    15
100
AcDbSpline
210
0.0
220
0.0
230
1.0
 70
     8
 71
     3
 72
    10
 73
     6
 74
     0
 42
0.00000001
 43
0.00000001
 12
1.0
 22
0.0
 32
0.0
 13
1.0
 23
0.0
 33
0.0
 40
0.0
 40
0.0
 40
0.0
 40
0.0
 40
0.3518039577406555
 40
0.7034263912578217
 40
1.0
 40
1.0
 40
1.0
 40
1.0
 10
50.38788540229626
 20
117.9442280414751
 30
0.0
 10
50.38911798974507
 20
117.9618544353332
 30
0.0
 10
50.39158252865075
 20
117.9970981281618
 30
0.0
 10
50.39823193255253
 20
118.0921899987224
 30
0.0
 10
50.40354085454092
 20
118.1681108718371
 30
0.0
 10
50.40596988225781
 20
118.2028474728814
 30
0.0
  0
LINE
  5
281
330
1F
100
AcDbEntity
  8
0
  6
Continuous
 62
     7
370
    15
100
AcDbLine
 10
50.1642477274
 20
114.7460604995
 30
0.0
 11
50.4667099257
 21
114.7707947972
 31
0.0
  0
LINE
  5
282
330
1F
100
AcDbEntity
  8
0
  6
Continuous
 62
     7
370
    15
100
AcDbLine
 10
54.3754782801
 20
118.0571816373
 30
0.0
 11
54.3785725994
 21
118.1014329638
 31
0.0
  0
LINE
  5
283
330
1F
100
AcDbEntity
  8
0
  6
Continuous
 62
     7
370
    15
100
AcDbLine
 10
50.1642477274
 20
114.7460604995
 30
0.0
 11
50.3878854023
 21
117.9442280415
 31
0.0
  0
CIRCLE
  5
284
330
1F
100
AcDbEntity
  8
VERMASSUNG
  6
CENTERX2
100
AcDbCircle
 10
51.1509727029
 20
112.687534672
 30
0.0
 40
16.0
  0
DIMENSION
  5
285
330
1F
100
AcDbEntity
  8
VERMASSUNG
100
AcDbDimension
  2
_D_6
 10
43.5100067141
 20
126.7512295156
 30
0.0
 11
38.3559047309
 21
135.6783960178
 31
0.0
 70
   160
  1
%%c<> min. 
 71
     2
 42
-1.0
  3
SLDDIMSTYLE2
100
AcDbAlignedDimension
 13
59.1509727029
 23
98.8311282115
 33
0.0
 14
43.1509727029
 24
126.5439411326
 34
0.0
 50
-60.0
100
AcDbRotatedDimension
  0
DIMENSION
  5
294
330
1F
100
AcDbEntity
  8
VERMASSUNG
100
AcDbDimension
  2
_D_7
 10
51.1509727029
 20
134.3568843673
 30
0.0
 11
42.5034240654
 21
86.6014596483
 31
0.0
 70
   162
  1
<>
 71
     1
 42
-1.0
  3
SLDDIMSTYLE3
100
AcDb2LineAngularDimension
 13
49.3625442839
 23
98.980490315
 33
0.0
 14
50.6893599476
 24
117.9548383066
 34
0.0
 15
51.1509727029
 25
89.3568843673
 35
0.0
 16
49.79242578
 26
85.6525144781
 36
0.0
  0
INSERT
  5
2AC
330
1F
100
AcDbEntity
  8
VERMASSUNG
100
AcDbBlockReference
  2
SW_CENTERMARKSYMBOL_0
 10
51.1509727029
 20
111.8568843673
 30
0.0
  0
OLE2FRAME
  5
2AD
330
1F
100
AcDbEntity
  8
0
100
AcDbOle2Frame
 70
     2
  3
Paintbrush-Bild
 10
13.8511154363
 20
38.264191557
 30
0.0
 11
51.6290888628
 21
31.9806341108
 31
0.0
 71
     2
 72
     0
 73
     1
 90
    12928
310
80552BED0767C5B32B40DDAF6807D121434000000000000000006FFBDDFB85D0
310
4940DDAF6807D121434000000000000000006FFBDDFB85D04940416F4BD60AFB
310
3F4000000000000000002BED0767C5B32B40416F4BD60AFB3F40000000000000
310
0000000000000100000000010000010000000100000000000100000000320000
310
D0CF11E0A1B11AE1000000000000000000000000000000003E000300FEFF0900
310
0600000000000000000000000100000001000000000000000010000002000000
310
01000000FEFFFFFF0000000000000000FFFFFFFFFFFFFFFFFFFFFFFFFFFFFFFF
310
FFFFFFFFFFFFFFFFFFFFFFFFFFFFFFFFFFFFFFFFFFFFFFFFFFFFFFFFFFFFFFFF
310
FFFFFFFFFFFFFFFFFFFFFFFFFFFFFFFFFFFFFFFFFFFFFFFFFFFFFFFFFFFFFFFF
310
FFFFFFFFFFFFFFFFFFFFFFFFFFFFFFFFFFFFFFFFFFFFFFFFFFFFFFFFFFFFFFFF
310
FFFFFFFFFFFFFFFFFFFFFFFFFFFFFFFFFFFFFFFFFFFFFFFFFFFFFFFFFFFFFFFF
310
FFFFFFFFFFFFFFFFFFFFFFFFFFFFFFFFFFFFFFFFFFFFFFFFFFFFFFFFFFFFFFFF
310
FFFFFFFFFFFFFFFFFFFFFFFFFFFFFFFFFFFFFFFFFFFFFFFFFFFFFFFFFFFFFFFF
310
FFFFFFFFFFFFFFFFFFFFFFFFFFFFFFFFFFFFFFFFFFFFFFFFFFFFFFFFFFFFFFFF
310
FFFFFFFFFFFFFFFFFFFFFFFFFFFFFFFFFFFFFFFFFFFFFFFFFFFFFFFFFFFFFFFF
310
FFFFFFFFFFFFFFFFFFFFFFFFFFFFFFFFFFFFFFFFFFFFFFFFFFFFFFFFFFFFFFFF
310
FFFFFFFFFFFFFFFFFFFFFFFFFFFFFFFFFFFFFFFFFFFFFFFFFFFFFFFFFFFFFFFF
310
FFFFFFFFFFFFFFFFFFFFFFFFFFFFFFFFFFFFFFFFFFFFFFFFFFFFFFFFFFFFFFFF
310
FFFFFFFFFFFFFFFFFFFFFFFFFFFFFFFFFFFFFFFFFFFFFFFFFFFFFFFFFFFFFFFF
310
FFFFFFFFFFFFFFFFFFFFFFFFFFFFFFFFFFFFFFFFFFFFFFFFFFFFFFFFFFFFFFFF
310
FDFFFFFFFEFFFFFFFEFFFFFFFEFFFFFF05000000060000000700000008000000
310
090000000A0000000B0000000C0000000D0000000E0000000F00000010000000
310
11000000120000001300000014000000150000001600000017000000FEFFFFFF
310
FFFFFFFFFFFFFFFFFFFFFFFFFFFFFFFFFFFFFFFFFFFFFFFFFFFFFFFFFFFFFFFF
310
FFFFFFFFFFFFFFFFFFFFFFFFFFFFFFFFFFFFFFFFFFFFFFFFFFFFFFFFFFFFFFFF
310
FFFFFFFFFFFFFFFFFFFFFFFFFFFFFFFFFFFFFFFFFFFFFFFFFFFFFFFFFFFFFFFF
310
FFFFFFFFFFFFFFFFFFFFFFFFFFFFFFFFFFFFFFFFFFFFFFFFFFFFFFFFFFFFFFFF
310
FFFFFFFFFFFFFFFFFFFFFFFFFFFFFFFFFFFFFFFFFFFFFFFFFFFFFFFFFFFFFFFF
310
FFFFFFFFFFFFFFFFFFFFFFFFFFFFFFFFFFFFFFFFFFFFFFFFFFFFFFFFFFFFFFFF
310
FFFFFFFFFFFFFFFFFFFFFFFFFFFFFFFFFFFFFFFFFFFFFFFFFFFFFFFFFFFFFFFF
310
FFFFFFFFFFFFFFFFFFFFFFFFFFFFFFFFFFFFFFFFFFFFFFFFFFFFFFFFFFFFFFFF
310
FFFFFFFFFFFFFFFFFFFFFFFFFFFFFFFFFFFFFFFFFFFFFFFFFFFFFFFFFFFFFFFF
310
FFFFFFFFFFFFFFFFFFFFFFFFFFFFFFFFFFFFFFFFFFFFFFFFFFFFFFFFFFFFFFFF
310
FFFFFFFFFFFFFFFFFFFFFFFFFFFFFFFFFFFFFFFFFFFFFFFFFFFFFFFFFFFFFFFF
310
FFFFFFFFFFFFFFFFFFFFFFFFFFFFFFFFFFFFFFFFFFFFFFFFFFFFFFFFFFFFFFFF
310
FFFFFFFFFFFFFFFFFFFFFFFFFFFFFFFFFFFFFFFFFFFFFFFFFFFFFFFFFFFFFFFF
310
52006F006F007400200045006E00740072007900000000000000000000000000
310
0000000000000000000000000000000000000000000000000000000000000000
310
16000500FFFFFFFFFFFFFFFF020000000A00030000000000C000000000000046
310
000000000000000000000000F0B4304E7948CD0103000000C000000000000000
310
01004F006C006500000000000000000000000000000000000000000000000000
310
0000000000000000000000000000000000000000000000000000000000000000
310
0A000200FFFFFFFFFFFFFFFFFFFFFFFF00000000000000000000000000000000
310
0000000000000000000000000000000000000000000000001400000000000000
310
010043006F006D0070004F0062006A0000000000000000000000000000000000
310
0000000000000000000000000000000000000000000000000000000000000000
310
120002010100000003000000FFFFFFFF00000000000000000000000000000000
310
0000000000000000000000000000000000000000010000004D00000000000000
310
01004F006C006500310030004E00610074006900760065000000000000000000
310
0000000000000000000000000000000000000000000000000000000000000000
310
1A000200FFFFFFFFFFFFFFFFFFFFFFFF00000000000000000000000000000000
310
0000000000000000000000000000000000000000040000002426000000000000
310
FEFFFFFF02000000FEFFFFFFFFFFFFFFFFFFFFFFFFFFFFFFFFFFFFFFFFFFFFFF
310
FFFFFFFFFFFFFFFFFFFFFFFFFFFFFFFFFFFFFFFFFFFFFFFFFFFFFFFFFFFFFFFF
310
FFFFFFFFFFFFFFFFFFFFFFFFFFFFFFFFFFFFFFFFFFFFFFFFFFFFFFFFFFFFFFFF
310
FFFFFFFFFFFFFFFFFFFFFFFFFFFFFFFFFFFFFFFFFFFFFFFFFFFFFFFFFFFFFFFF
310
FFFFFFFFFFFFFFFFFFFFFFFFFFFFFFFFFFFFFFFFFFFFFFFFFFFFFFFFFFFFFFFF
310
FFFFFFFFFFFFFFFFFFFFFFFFFFFFFFFFFFFFFFFFFFFFFFFFFFFFFFFFFFFFFFFF
310
FFFFFFFFFFFFFFFFFFFFFFFFFFFFFFFFFFFFFFFFFFFFFFFFFFFFFFFFFFFFFFFF
310
FFFFFFFFFFFFFFFFFFFFFFFFFFFFFFFFFFFFFFFFFFFFFFFFFFFFFFFFFFFFFFFF
310
FFFFFFFFFFFFFFFFFFFFFFFFFFFFFFFFFFFFFFFFFFFFFFFFFFFFFFFFFFFFFFFF
310
FFFFFFFFFFFFFFFFFFFFFFFFFFFFFFFFFFFFFFFFFFFFFFFFFFFFFFFFFFFFFFFF
310
FFFFFFFFFFFFFFFFFFFFFFFFFFFFFFFFFFFFFFFFFFFFFFFFFFFFFFFFFFFFFFFF
310
FFFFFFFFFFFFFFFFFFFFFFFFFFFFFFFFFFFFFFFFFFFFFFFFFFFFFFFFFFFFFFFF
310
FFFFFFFFFFFFFFFFFFFFFFFFFFFFFFFFFFFFFFFFFFFFFFFFFFFFFFFFFFFFFFFF
310
FFFFFFFFFFFFFFFFFFFFFFFFFFFFFFFFFFFFFFFFFFFFFFFFFFFFFFFFFFFFFFFF
310
FFFFFFFFFFFFFFFFFFFFFFFFFFFFFFFFFFFFFFFFFFFFFFFFFFFFFFFFFFFFFFFF
310
FFFFFFFFFFFFFFFFFFFFFFFFFFFFFFFFFFFFFFFFFFFFFFFFFFFFFFFFFFFFFFFF
310
0100000200000000000000000000000000000000000000000000000000000000
310
0000000000000000000000000000000000000000000000000000000000000000
310
0100FEFF030A0000FFFFFFFF0A00030000000000C00000000000004607000000
310
5042727573680007000000504272757368000700000050427275736800F439B2
310
7100000000000000000000000000000000000000000000000000000000000000
310
0000000000000000000000000000000000000000000000000000000000000000
310
0000000000000000000000000000000000000000000000000000000000000000
310
0000000000000000000000000000000000000000000000000000000000000000
310
0000000000000000000000000000000000000000000000000000000000000000
310
0000000000000000000000000000000000000000000000000000000000000000
310
0000000000000000000000000000000000000000000000000000000000000000
310
0000000000000000000000000000000000000000000000000000000000000000
310
0000000000000000000000000000000000000000000000000000000000000000
310
0000000000000000000000000000000000000000000000000000000000000000
310
0000000000000000000000000000000000000000000000000000000000000000
310
0000000000000000000000000000000000000000000000000000000000000000
310
20260000424D0E260000000000003E00000028000000B40200006E0000000100
310
01000000000000000000130B0000130B00000200000002000000000000FFFFFF
310
FFFFFFFFFFFFFFFFFFFFFFFFFFFFFFFFFFFFFFFFFFFFFFFFFFFFFFFFFFFFFFFF
310
FFFFFFFFFFFFFFFFFFFFFFFFFFFFFFFFFFFFFFFFFFFFFFFFFFFFFFFFFFFFFFFF
310
FFFFFFFFFFFFFFFFFFFFFFFFFFFFFFFFFFFFFFFFFFFFFFFFF000FFFFFFFFFFFF
310
FFFFFFFFFFFFFFFFFFFFFFFFFFFFFFFFFFFFFFFFFFFFFFFFFFFFFFFFFFFFFFFF
310
FFFFFFFFFFFFFFFFFFFFFFFFFFFFFFFFFFFFFFFFFFFFFFFFFFFFFFFFFFFFFFFF
310
FFFFFFFFFFFFFFFFFFFFFFFFFFFFFFFFF000FFFFFFFFFFFFFFFFFFFFFFFFFFFF
310
FFFFFFFFFFFFFFFFFFFFFFFFFFFFFFFFFFFFFFFFFFFFFFFFFFFFFFFFFFFFFFFF
310
FFFFFFFFFFFFFFFFFFFFFFFFFFFFFFFFFFFFFFFFFFFFFFFFFFFFFFFFFFFFFFFF
310
FFFFFFFFFFFFFFFFF000FFFFFFFFFFFFFFFFFFFFFFFFFFFFFFFFFFFFFFFFFFFF
310
FFFFFFFFFFFFFFFFFFFFFFFFFFFFFFFFFFFFFFFFFFFFFFFFFFFFFFFFFFFFFFFF
310
FFFFFFFFFFFFFFFFFFFFFFFFFFFFFFFFFFFFFFFFFFFFFFFFFFFFFFFFFFFFFFFF
310
F000FFFFFFFFFFFFFFFFFFFFFFFFFFFFFFFFFFFFFFFFFFFFFFFFFFFFFFFFFFFF
310
FFFFFFFFFFFFFFFFFFFFFFFFFFFFFFFFFFFFFFFFFFFFFFFFFFFFFFFFFFFFFFFF
310
FFFFFFFFFFFFFFFFFFFFFFFFFFFFFFFFFFFFFFFFFFFFFFFFF000FFFFFFFFFFFF
310
FFFFFFFFFFFFFFFFFFFFFFFFFFFFFFFFFFFFFFFFFFFFFFFFFFFFFFFFFFFFFFFF
310
FFFFFFFFFFFFFFFFFFFFFFFFFFFFFFFFFFFFFFFFFFFFFFFFFFFFFFFFFFFFFFFF
310
FFFFFFFFFFFFFFFFFFFFFFFFFFFFFFFFF000FFFFFFFFFFFFFFFFFFFFFFFFFFFF
310
FFFFFFFFFFFFFFFFFFFFFFFFFFFFFFFFFFFFFFFFFFFFFFFFFFFFFFFFFFFFFFFF
310
FFFFFFFFFFFFFFFFFFFFFFFFFFFFFFFFFFFFFFFFFFFFFFFFFFFFFFFFFFFFFFFF
310
FFFFFFFFFFFFFFFFF000FFFFFFFFFFFFFFFFFFFFFFFFFFFFFFFFFFFFFFFFFFFF
310
FFFFFFFFFFFFFFFFFFFFFFFFFFFFFFFFFFFFFFFFFFFFFFFFFFFFFFFFFFFFFFFF
310
FFFFFFFFFFFFFFFFFFFFFFFFFFFFFFFFFFFFFFFFFFFFFFFFFFFFFFFFFFFFFFFF
310
F000FFFFFFFFFFFFFFFFFFFFFFFFFFFFFFFFFFFFFFFFFFFFFFFFFFFFFFFFFFFF
310
FFFFFFFFFFFFFFFFFFFFFFFFFFFFFFFFFFFFFFFFFFFFFFFFFFFFFFFFFFFFFFFF
310
FFFFFFFFFFFFFFFFFFFFFFFFFFFFFFFFFFFFFFFFFFFFFFFFF000FFFFFFFFFFFF
310
FFFFFFFFFFFFFFFFFFFFFFFFFFFFFFFFFFFFFFFFFFFFFFFFFFFFFFFFFFFFFFFF
310
FFFFFFFFFFFFFFFFFFFFFFFFFFFFFFFFFFFFFFFFFFFFFFFFFFFFFFFFFFFFFFFF
310
FFFFFFFFFFFFFFFFFFFFFFFFFFFFFFFFF000FFFFFFFFFFFFFFFFFFFFFFFFFFFF
310
FFFFFFFFFFFFFFFFFFFFFFFFFFFFFFFFFFFFFFFFFFFFFFFFFFFFFFFFFFFFFFFF
310
FFFFFFFFFFFFFFFFFFFFFFFFFFFFFFFFFFFFFFFFFFFFFFFFFFFFFFFFFFFFFFFF
310
FFFFFFFFFFFFFFFFF000FFFFFFFFFFFFFFFFFFFFFFFFFFFFFFFFFFFFFFFFFFFF
310
FFFFFFFFFFFFFFFFFFFFFFFFFFFFFFFFFFFFFFFFFFFFFFFFFFFFFFFFFFFFFFFF
310
FFFFFFFFFFFFFFFFFFFFFFFFFFFFFFFFFFFFFFFFFFFFFFFFFFFFFFFFFFFFFFFF
310
F000FFFFFFFFFFFFFFFFFFFFFFFFFFFFFFFFFFFFFFFFFFFFFFFFFFFFFFFFFFFF
310
FFFFFFFFFFFFFFFFFFFFFFFFFFFFFFFFFFFFFFFFFFFFFFFFFFFFFFFFFFFFFFFF
310
FFFFFFFFFFFFFFFFFFFFFFFFFFFFFFFFFFFFFFFFFFFFFFFFF000FFFFFFFFFFFF
310
FFFFFFFFFFFFFFFFFFFFFFFFFFFFFFFFFFFFFFFFFFFFFFFFFFFFFFFFFFFFFFFF
310
FFFFFFFFFFFFFFFFFFFFFFFFFFFFFFFFFFFFFFFFFFFFFFFFFFFFFFFFFFFFFFFF
310
FFFFFFFFFFFFFFFFFFFFFFFFFFFFFFFFF000FFFFFFFFFFFFFFFFFFFFFFFFFFFF
310
FFFFFFFFFFFFFFFFFFFFFFFFFFFFFFFFFFFFFFFFFFFFFFFFFFFFFFFFFFFFFFFF
310
FFFFFFFFFFFFFFFFFFFFFFFFFFFFFFFFFFFFFFFFFFFFFFFFFFFFFFFFFFFFFFFF
310
FFFFFFFFFFFFFFFFF000FFFFFFFFFFFFFFFFFFFFFFFFFFFFFFFFFFFFFFFFFFFF
310
FFFFFFFFFFFFFFFFFFFFFFFFFFFFFFFFFFFFFFFFFFFFFFFFFFFFFFFFFFFFFFFF
310
FFFFFFFFFFFFFFFFFFFFFFFFFFFFFFFFFFFFFFFFFFFFFFFFFFFFFFFFFFFFFFFF
310
F000FFFFFFFFFFFFFFFFFFFFFFFFFFFFFFFFFFFFFFFFFFFFFFFFFFFFFFFFFFFF
310
FFFFFFFFFFFFFFFFFFFFFFFFFFFFFFFFFFFFFFFFFFFFFFFFFFFFFFFFFFFFFFFF
310
FFFFFFFFFFFFFFFFFFFFFFFFFFFFFFFFFFFFFFFFFFFFFFFFF000FFFFFFFFFFFF
310
FFFFFFFFFFFFFFFFFFFFFFFFFFFFFFFFFFFFFFFFFFFFFFFFFFFFFFFFFFFFFFFF
310
FFFFFFFFFFFFFFFFFFFFFFFFFFFFFFFFFFFFFFFFFFFFFFFFFFFFFFFFFFFFFFFF
310
FFFFFFFFFFFFFFFFFFFFFFFFFFFFFFFFF000FFFFFFFFFFFFFFFFFFFFFFFFFFFF
310
FFFFFFFFFFFFFFFFFFFFFFFFFFFFFFFFFFFFFFFFFFFFFFFFFFFFFFFFFFFFFFFF
310
FFFFFFFFFFFFFFFFFFFFFFFFFFFFFFFFFFFFFFFFFFFFFFFFFFFFFFFFFFFFFFFF
310
FFFFFFFFFFFFFFFFF000FFFFF80003FFFFFFFFFFFFFFFFFFFFFFFFFFFFFFFFFF
310
FFFFF00007FFFFFFFFFF00007FFFFFF800000000000000007FFFFFFFFFFFFFFF
310
FFFFFFFC001FFFFFFFFFFFFFFC001FFFFFFFFFFFFFFFFFFFFFFFFFFE0007FFFF
310
F000FFFF8000007FFFFFFFF8000FFFFFC0007FFFFF80007FFFFF0000007FFFFF
310
FFF8000007FFFFF800000000000000007FFFFFF0001FFFFFFFFFFFC00001FFFF
310
FFFFFFFFC00001FFFFFFFF000000000003FFFFE000007FFFF000FFFE0000000F
310
FFFFFFF0000FFFFF80007FFFFF80007FFFFC0000001FFFFFFFC0000001FFFFF8
310
00000000000000007FFFFFF0001FFFFFFFFFFE0000003FFFFFFFFFFE0000003F
310
FFFFFF000000000003FFFF0000000FFFF000FFF800000003FFFFFFF00007FFFF
310
80007FFFFF80007FFFF000000007FFFFFF000000003FFFF80000000000000000
310
7FFFFFF0001FFFFFFFFFF80000000FFFFFFFFFF80000000FFFFFFF0000000000
310
03FFFC00000003FFF000FFE000000000FFFFFFF00007FFFF80003FFFFF80007F
310
FFC000000001FFFFFC000000001FFFF800000000000000007FFFFFF0001FFFFF
310
FFFFE000000003FFFFFFFFE000000003FFFFFF000000000003FFF000000000FF
310
F000FF80000000007FFFFFF00007FFFF80003FFFFF80007FFF8000000000FFFF
310
F80000000007FFF800000000000000007FFFFFF0001FFFFFFFFFC000000001FF
310
FFFFFFC000000001FFFFFF000000000003FFC0000000007FF000FF0000000000
310
3FFFFFE00007FFFF00003FFFFF80007FFE00000000003FFFF00000000003FFF8
310
00000000000000007FFFFFF0001FFFFFFFFF8000000000FFFFFFFF8000000000
310
FFFFFF000000000003FF80000000003FF000FE00000000001FFFFFE00003FFFF
310
00003FFFFF80007FFC00000000001FFFE00000000001FFF8000001FFFE000000
310
7FFFFFF0001FFFFFFFFE00000000003FFFFFFE00000000003FFFFF0000000000
310
03FF00000000001FF000FC00000000000FFFFFE00003FFFF00001FFFFF80007F
310
F800000000001FFFC00000000000FFF8000001FFFE0000007FFFFFF0001FFFFF
310
FFFC00000000001FFFFFFC00000000001FFFFF000000000003FE00000000000F
310
F000F8000000000007FFFFE00003FFFF00001FFFFF80007FF800000000000FFF
310
800000000000FFF8000001FFFE0000007FFFFFF0001FFFFFFFF800000000000F
310
FFFFF800000000000FFFFF000000000003FC000000000007F000F80000000000
310
03FFFFC00003FFFE00001FFFFF80007FF0000000000007FF0000000000007FF8
310
000001FFFE0000007FFFFFF0001FFFFFFFF0000000000007FFFFF00000000000
310
07FFFF000000000003F8000000000003F000F0000000000003FFFFC00001FFFE
310
00001FFFFF80007FE0000000000007FE0000000000003FF8000001FFFE000000
310
7FFFFFF0001FFFFFFFF0000000000007FFFFF0000000000007FFFF0000000000
310
03F800001F800003F000E00001FFF00001FFFFC00001FFFE00000FFFFF80007F
310
E00001FFE00003FE00001FFF00003FF8000001FFFE0000007FFFFFF0001FFFFF
310
FFE000003E000003FFFFE000003E000003FFFF000000000003F00001FFF80001
310
F000E00007FFFC0001FFFFC00001FFFE00000FFFFF80007FC0000FFFFC0003FC
310
0000FFFFC0001FF8000001FFFE0000007FFFFFF0001FFFFFFFC00003FFE00001
310
FFFFC00003FFE00001FFFF0001FFFFFFFFF00007FFFE0001F000E0000FFFFF00
310
00FFFF800001FFFC00000FFFFF80007FC0001FFFFE0001FC0001FFFFE0001FF8
310
000001FFFE0000007FFFFFF0001FFFFFFF80000FFFF80000FFFF80000FFFF800
310
00FFFF0003FFFFFFFFE0000FFFFF8000F000C0003FFFFF8000FFFF800000FFFC
310
000007FFFF80007F80003FFFFF0001FC0003FFFFF0001FF8000001FFFE000000
310
7FFFFFF0001FFFFFFF80003FFFFE0000FFFF80003FFFFE0000FFFF0003FFFFFF
310
FFE0003FFFFF8000F000C0003FFFFF8000FFFF800000FFFC000007FFFF80007F
310
80007FFFFF8001F80007FFFFF8000FF8000001FFFE0000007FFFFFF0001FFFFF
310
FF00007FFFFF00007FFF00007FFFFF00007FFF0003FFFFFFFFE0003FFFFFC000
310
F000C0007FFFFFC000FFFF000000FFFC000007FFFF80007F8000FFFFFF8000F8
310
000FFFFFF8000FF8000001FFFE0000007FFFFFF0001FFFFFFF0000FFFFFF8000
310
7FFF0000FFFFFF80007FFF0003FFFFFFFFC0007FFFFFC00070008000FFFFFFC0
310
00FFFF000000FFF8000007FFFF80007F8000FFFFFF8000F8000FFFFFF8000FF8
310
000001FFFE0000007FFFFFF0001FFFFFFE0001FFFFFFC0003FFE0001FFFFFFC0
310
003FFF0003FFFFFFFFC0007FFFFFE00070008000FFFFFFC0007FFF0000007FF8
310
000003FFFF80007F0001FFFFFF8000F8000FFFFFF8000FF8000001FFFE000000
310
7FFFFFF0001FFFFFFE0001FFFFFFC0003FFE0001FFFFFFC0003FFF0003FFFFFF
310
FFC000FFFFFFE00070008000FFFFFFC0007FFF0000007FF8000003FFFF80007F
310
0001FFFFFF8000F8001FFFFFF8000FF8000001FFFE0000007FFFFFF0001FFFFF
310
FE0003FFFFFFE0003FFE0003FFFFFFE0003FFF0003FFFFFFFFC000FFFFFFE000
310
70008000FFFFFFC0007FFE0000007FF8000003FFFF80007F0001FFFFFF8000F0
310
001FFFFFF8000FF8000001FFFE0000007FFFFFF0001FFFFFFC0003FFFFFFE000
310
1FFC0003FFFFFFE0001FFF0003FFFFFFFFC000FFFFFFC00070008000FFFFFF80
310
007FFE0000007FF0000003FFFF80007F0001FFFFFF0000F0001FFFFFF8000FF8
310
000001FFFE0000007FFFFFF0001FFFFFFC0007FFFFFFF0001FFC0007FFFFFFF0
310
001FFF0003FFFFFFFFC000FFFFFFC00070008001FFFFFF0000FFFE0000003FF0
310
000001FFFF80007F0001FFFFFF0000F8001FFFFFF0000FF8000001FFFE000000
310
7FFFFFF0001FFFFFFC0007FFFFFFF0001FFC0007FFFFFFF0001FFF0003FFFFFF
310
FFC001FFFFFF80007000FFFFFFFFFE0000FFFE0008003FF0008001FFFF80007F
310
FFFFFFFFFC0000FFFFFFFFFFE0000FF8000001FFFE0000007FFFFFF0001FFFFF
310
F8000FFFFFFFF8000FF8000FFFFFFFF8000FFF0003FFFFFFFFFFFFFFFFFF0000
310
7000FFFFFFFFFC0000FFFC0008003FF0008001FFFF80007FFFFFFFFFF80001FF
310
FFFFFFFF80000FF8000001FFFE0000007FFFFFF0001FFFFFF8000FFFFFFFF800
310
0FF8000FFFFFFFF8000FFF0003FFFFFFFFFFFFFFFFFE0000F000FFFFFFFFE000
310
00FFFC000C003FE000C001FFFF80007FFFFFFFFFC00001FFFFFFFFFE00001FF8
310
000001FFFE0000007FFFFFF0001FFFFFF8000FFFFFFFF8000FF8000FFFFFFFF8
310
000FFF0003FFFFFFFFFFFFFFFFF00000F000FFFFFFFE000001FFFC000C001FE0
310
00C000FFFF80007FFFFFFFFE000001FFFFFFFFE000001FF80FFFFFFFFFFFFFC0
310
7FFFFFF0001FFFFFF8000FFFFFFFF8000FF8000FFFFFFFF8000FFF0003FFFFFF
310
FFFFFFFFFF800000F000FFFFFFC0000001FFFC001C001FE001C000FFFF80007F
310
FFFFFF80000003FFFFFFF80000001FF80FFFFFFFFFFFFFC07FFFFFF0001FFFFF
310
F8001FFFFFFFFC000FF8001FFFFFFFFC000FFF0003FFFFFFFFFFFFFFF0000001
310
F000FFFFF800000001FFF8001C001FE001C000FFFF80007FFFFFF800000003FF
310
FFFF800000003FF80FFFFFFFFFFFFFC07FFFFFF0001FFFFFF8001FFFFFFFFC00
310
0FF8001FFFFFFFFC000FFF0003FFFFFFFFFFFFFE00000001F000FFFFC0000000
310
03FFF8001E001FC001E000FFFF80007FFFFF8000000007FFFFFC000000003FF8
310
0FFFFFFFFFFFFFC07FFFFFF0001FFFFFF8001FFFFFFFFC000FF8001FFFFFFFFC
310
000FFF0003FFFFFFFFFFFFE000000003F000FFFE0000000007FFF8001E000FC0
310
01E0007FFF80007FFFFE0000000007FFFFE0000000007FF80FFFFFFFFFFFFFC0
310
7FFFFFF0001FFFFFF0001FFFFFFFFC0007F0001FFFFFFFFC0007FF0003FFFFFF
310
FFFFFF0000000003F000FFF80000000007FFF8001E000FC003E0007FFF80007F
310
FFF0000000000FFFFF8000000000FFF80FFFFFFFFFFFFFC07FFFFFF0001FFFFF
310
F0001FFFFFFFFC0007F0001FFFFFFFFC0007FF0003FFFFFFFFFFFC0000000007
310
F000FFE0000000000FFFF0003E000FC003E0007FFF80007FFFC0000000001FFF
310
FE0000000001FFF80FFFFFFFFFFFFFC07FFFFFF0001FFFFFF0001FFFFFFFFC00
310
07F0001FFFFFFFFC0007FF0003FFFFFFFFFFF0000000000FF000FFC000000000
310
1FFFF0003F000F8003F0003FFF80007FFF80000000003FFFF80000000003FFF8
310
0FFFFFFFFFFFFFC07FFFFFF0001FFFFFF0001FFFFFFFFC0007F0001FFFFFFFFC
310
0007FF0003FFFFFFFFFFE0000000001FF000FF00000000007FFFF0003F000780
310
03F0003FFF80007FFF00000000007FFFF00000000007FFF80FFFFFFFFFFFFFC0
310
7FFFFFF0001FFFFFF0001FFFFFFFFC0007F0001FFFFFFFFC0007FF0003FFFFFF
310
FFFF80000000007FF000FE0000000000FFFFE0003F00078007F0003FFF80007F
310
FE0000000001FFFFE0000000001FFFF80FFFFFFFFFFFFFC07FFFFFF0001FFFFF
310
F0001FFFFFFFFC0007F0001FFFFFFFFC0007FF0003FFFFFFFFFF0000000000FF
310
F000FC0000000003FFFFE0007F00078007F0003FFF80007FFC0000000007FFFF
310
C0000000007FFFF80FFFFFFFFFFFFFC07FFFFFF0001FFFFFF8001FFFFFFFFC00
310
0FF8001FFFFFFFFC000FFF0003FFFFFFFFFE0000000003FFF000FC000000000F
310
FFFFE0007F80070007F8001FFF80007FF8000000001FFFFF8000000001FFFFF8
310
0FFFFFFFFFFFFFC07FFFFFF0001FFFFFF8001FFFFFFFFC000FF8001FFFFFFFFC
310
000FFF0003FFFFFFFFFC000000000FFFF000F8000000007FFFFFE0007F800700
310
07F8001FFF80007FF000000000FFFFFF800000000FFFFFF80FFFFFFFFFFFFFC0
310
7FFFFFF0001FFFFFF8000FFFFFFFF8000FF8000FFFFFFFF8000FFF0003FFFFFF
310
FFFC000000007FFFF000F800000007FFFFFFC0007F8003000FF8001FFF80007F
310
F000000007FFFFFF000000007FFFFFF80FFFFFFFFFFFFFC07FFFFFF0001FFFFF
310
F8000FFFFFFFF8000FF8000FFFFFFFF8000FFF0003FFFFFFFFF80000000FFFFF
310
F000F0000000FFFFFFFFC000FF8003000FF8001FFF80007FE0000000FFFFFFFF
310
0000000FFFFFFFF8000001FFFE0000007FFFFFF0001FFFFFF8000FFFFFFFF800
310
0FF8000FFFFFFFF8000FFF0003FFFFFFFFF8000000FFFFFFF000F000000FFFFF
310
FFFFC000FFC002000FF8000FFF80007FE000001FFFFFFFFE000001FFFFFFFFF8
310
000001FFFE0000007FFFFFF0001FFFFFF8000FFFFFFFF8000FF8000FFFFFFFF8
310
000FFF0003FFFFFFFFF000001FFFFFFFF000E00000FFFFFFFFFFC000FFC00200
310
0FFC000FFF80007FE00001FFFFFFFFFE00001FFFFFFFFFF8000001FFFE000000
310
7FFFFFF0001FFFFFFC000FFFFFFFF8001FFC000FFFFFFFF8001FFF0003FFFFFF
310
FFF00001FFFFFFFFF000E00007FFFFFFFFFF8000FFC000001FFC000FFF80007F
310
C0000FFFFFFFFFFE0000FFFFFFFFFFF8000001FFFE0000007FFFFFF0001FFFFF
310
FC0007FFFFFFF0001FFC0007FFFFFFF0001FFF0003FFFFFFFFF00007FFFFFFFF
310
F000E0001FFFFFFFFFFF8000FFC000001FFC000FFF80007FC0003FFFFFFFFFFE
310
0001FFFFFFFFFFF8000001FFFE0000007FFFFFF0001FFFFFFC0007FFFFFFF000
310
1FFC0007FFFFFFF0001FFF0003FFFFFFFFF0001FFFFFFFFFF000E0003FFFFF00
310
03FF8001FFE000001FFC0007FF80007FC0007FFFFF0007FC0003FFFFF0003FF8
310
000001FFFE0000007FFFFFF0001FFFFFFC0003FFFFFFE0001FFC0003FFFFFFE0
310
001FFF0003FFFFFFFFF0003FFFFFFFFFF000E0003FFFFF0001FF8001FFE00000
310
1FFE0007FF80007FC0007FFFFE0003FC0007FFFFE0003FF8000001FFFE000000
310
7FFFFFF0001FFFFFFE0003FFFFFFE0003FFE0003FFFFFFE0003FFF0003FFFFFF
310
FFF0003FFFFF8001F000E0003FFFFF0001FF0001FFE000001FFE0007FF80007F
310
C0007FFFFE0003FC0007FFFFE0003FF8000001FFFE0000007FFFFFF0001FFFFF
310
FE0001FFFFFFC0003FFE0001FFFFFFC0003FFF0003FFFFFFFFF0003FFFFF0001
310
F000E0003FFFFF0003FF0001FFE000003FFE0007FF80007FC0007FFFFE0003FC
310
0007FFFFE0003FF8000001FFFE0000007FFFFFF0001FFFFFFF0001FFFFFFC000
310
7FFF0001FFFFFFC0007FFF0003FFFFFFFFF0003FFFFF0001F000E0003FFFFE00
310
03FF0003FFF000003FFE0003FF80007FC0007FFFFC0003FE0007FFFFE0003FF8
310
000001FFFE0000007FFFFFF0001FFFFFFF0000FFFFFF80007FFF0000FFFFFF80
310
007FFF0003FFFFFFFFF0003FFFFF0001F000E0003FFFFE0003FF0003FFF00000
310
3FFF0003FF80007FC0007FFFFC0007FE0007FFFFC0003FF8000001FFFE000000
310
7FFFFFF0001FFFFFFF80007FFFFF0000FFFF80007FFFFF0000FFFF0003FFFFFF
310
FFF0003FFFFF0003F000E0003FFFFC0003FE0003FFF000003FFF0003FF80007F
310
E0003FFFF80007FE0003FFFFC0007FF8000001FFFE0000007FFFFFF0001FFFFF
310
FF80003FFFFE0000FFFF80003FFFFE0000FFFF0003FFFFFFFFF0001FFFFE0003
310
F000F0001FFFF80003FE0003FFF000007FFF0001FF80007FE0003FFFF00007FE
310
0001FFFF80007FF8000001FFFE0000007FFFFFF0001FFFFFFFC0000FFFF80001
310
FFFFC0000FFFF80001FFFF0003FFFFFFFFF0001FFFFC0003F000F0000FFFF000
310
07FE0007FFF800007FFF0001FF80007FE0001FFFE00007FF0000FFFE00007FF8
310
000001FFFE0000007FFFFFF0001FFFFFFFC00003FFE00001FFFFC00003FFE000
310
01FFFF0003FFFFFFFFF8000FFFF80003F000F00003FFC00007FC0007FFF80000
310
7FFF8001FF80007FF00007FF80000FFF00007FF80000FFF8000001FFFE000000
310
7F80000000000001FFE000003E000003FFFFE000003E000003FFFF0003FFFFFF
310
FFF80003FFE00007F000F800000000000FFC0007FFF800007FFF8001FF80007F
310
F000000000000FFF000000000000FFF8000001FFFE0000007F80000000000001
310
FFF0000000000007FFFFF0000000000007FFFF0003FFFFFFFFFC00007E000007
310
F000F800000000000FFC0007FFF80000FFFF8000FF80007FF800000000001FFF
310
800000000001FFF8000001FFFE0000007F80000000000001FFF800000000000F
310
FFFFF800000000000FFFFF0003FFFFFFFFFC00000000000FF000FC0000000000
310
1FFC0007FFFC0000FFFF8000FF80007FF800000000003FFFC00000000001FFF8
310
000001FFFE0000007F80000000000001FFF800000000000FFFFFF80000000000
310
0FFFFF0003FFFFFFFFFE00000000001FF000FE00000000003FF8000FFFFC0000
310
FFFF8000FF80007FFC00000000003FFFC00000000003FFF8000001FFFE000000
310
7F80000000000001FFFC00000000001FFFFFFC00000000001FFFFF0003FFFFFF
310
FFFF00000000001FF000FF00000000003FF8000FFFFC0000FFFFC000FF80007F
310
FE00000000007FFFE00000000007FFF8000001FFFE0000007F80000000000001
310
FFFE00000000003FFFFFFE00000000003FFFFF0003FFFFFFFFFF80000000003F
310
F000FF80000000007FF8000FFFFC0001FFFFC0007F80007FFF0000000000FFFF
310
F0000000000FFFF800000000000000007F80000000000001FFFF8000000000FF
310
FFFFFF8000000000FFFFFF0003FFFFFFFFFFC0000000007FF000FFC000000000
310
FFF8000FFFFE0001FFFFC0007F80007FFF8000000001FFFFF8000000001FFFF8
310
00000000000000007F80000000000001FFFFC000000001FFFFFFFFC000000001
310
FFFFFF0003FFFFFFFFFFE000000000FFF000FFE000000003FFF0001FFFFE0001
310
FFFFC0007F80007FFFC000000007FFFFFE000000003FFFF80000000000000000
310
7F80000000000001FFFFE000000003FFFFFFFFE000000003FFFFFF0003FFFFFF
310
FFFFF000000003FFF000FFF80000000FFFF0001FFFFE0001FFFFE0007F80007F
310
FFF00000000FFFFFFF00000000FFFFF800000000000000007F80000000000001
310
FFFFF80000000FFFFFFFFFF80000000FFFFFFF0003FFFFFFFFFFFC0000000FFF
310
F000FFFE0000003FFFF0001FFFFE0003FFFFE0003F80007FFFFC0000003FFFFF
310
FFC0000003FFFFF800000000000000007F80000000000001FFFFFE0000003FFF
310
FFFFFFFE0000003FFFFFFF0003FFFFFFFFFFFF0000003FFFF000FFFF800000FF
310
FFF0001FFFFF0003FFFFE0003F80007FFFFF000001FFFFFFFFF800001FFFFFF8
310
00000000000000007F80000000000001FFFFFFC00001FFFFFFFFFFFFC00001FF
310
FFFFFF0003FFFFFFFFFFFFC00000FFFFF000FFFFF8000FFFFFFFFFFFFFFFFFFF
310
FFFFFFFFFFFFFFFFFFFFF0001FFFFFFFFFFF0000FFFFFFF80000000000000000
310
7FFFFFFFFFFFFFFFFFFFFFFC001FFFFFFFFFFFFFFC001FFFFFFFFFFFFFFFFFFF
310
FFFFFFFC001FFFFFF000FFFFFFFFFFFFFFFFFFFFFFFFFFFFFFFFFFFFFFFFFFFF
310
FFFFFFFFFFFFFFFFFFFFFFFFFFFFFFFFFFFFFFFFFFFFFFFFFFFFFFFFFFFFFFFF
310
FFFFFFFFFFFFFFFFFFFFFFFFFFFFFFFFFFFFFFFFFFFFFFFFFFFFFFFFFFFFFFFF
310
F000FFFFFFFFFFFFFFFFFFFFFFFFFFFFFFFFFFFFFFFFFFFFFFFFFFFFFFFFFFFF
310
FFFFFFFFFFFFFFFFFFFFFFFFFFFFFFFFFFFFFFFFFFFFFFFFFFFFFFFFFFFFFFFF
310
FFFFFFFFFFFFFFFFFFFFFFFFFFFFFFFFFFFFFFFFFFFFFFFFF000FFFFFFFFFFFF
310
FFFFFFFFFFFFFFFFFFFFFFFFFFFFFFFFFFFFFFFFFFFFFFFFFFFFFFFFFFFFFFFF
310
FFFFFFFFFFFFFFFFFFFFFFFFFFFFFFFFFFFFFFFFFFFFFFFFFFFFFFFFFFFFFFFF
310
FFFFFFFFFFFFFFFFFFFFFFFFFFFFFFFFF000FFFFFFFFFFFFFFFFFFFFFFFFFFFF
310
FFFFFFFFFFFFFFFFFFFFFFFFFFFFFFFFFFFFFFFFFFFFFFFFFFFFFFFFFFFFFFFF
310
FFFFFFFFFFFFFFFFFFFFFFFFFFFFFFFFFFFFFFFFFFFFFFFFFFFFFFFFFFFFFFFF
310
FFFFFFFFFFFFFFFFF000FFFFFFFFFFFFFFFFFFFFFFFFFFFFFFFFFFFFFFFFFFFF
310
FFFFFFFFFFFFFFFFFFFFFFFFFFFFFFFFFFFFFFFFFFFFFFFFFFFFFFFFFFFFFFFF
310
FFFFFFFFFFFFFFFFFFFFFFFFFFFFFFFFFFFFFFFFFFFFFFFFFFFFFFFFFFFFFFFF
310
F000FFFFFFFFFFFFFFFFFFFFFFFFFFFFFFFFFFFFFFFFFFFFFFFFFFFFFFFFFFFF
310
FFFFFFFFFFFFFFFFFFFFFFFFFFFFFFFFFFFFFFFFFFFFFFFFFFFFFFFFFFFFFFFF
310
FFFFFFFFFFFFFFFFFFFFFFFFFFFFFFFFFFFFFFFFFFFFFFFFF000FFFFFFFFFFFF
310
FFFFFFFFFFFFFFFFFFFFFFFFFFFFFFFFFFFFFFFFFFFFFFFFFFFFFFFFFFFFFFFF
310
FFFFFFFFFFFFFFFFFFFFFFFFFFFFFFFFFFFFFFFFFFFFFFFFFFFFFFFFFFFFFFFF
310
FFFFFFFFFFFFFFFFFFFFFFFFFFFFFFFFF000FFFFFFFFFFFFFFFFFFFFFFFFFFFF
310
FFFFFFFFFFFFFFFFFFFFFFFFFFFFFFFFFFFFFFFFFFFFFFFFFFFFFFFFFFFFFFFF
310
FFFFFFFFFFFFFFFFFFFFFFFFFFFFFFFFFFFFFFFFFFFFFFFFFFFFFFFFFFFFFFFF
310
FFFFFFFFFFFFFFFFF000FFFFFFFFFFFFFFFFFFFFFFFFFFFFFFFFFFFFFFFFFFFF
310
FFFFFFFFFFFFFFFFFFFFFFFFFFFFFFFFFFFFFFFFFFFFFFFFFFFFFFFFFFFFFFFF
310
FFFFFFFFFFFFFFFFFFFFFFFFFFFFFFFFFFFFFFFFFFFFFFFFFFFFFFFFFFFFFFFF
310
F000FFFFFFFFFFFFFFFFFFFFFFFFFFFFFFFFFFFFFFFFFFFFFFFFFFFFFFFFFFFF
310
FFFFFFFFFFFFFFFFFFFFFFFFFFFFFFFFFFFFFFFFFFFFFFFFFFFFFFFFFFFFFFFF
310
FFFFFFFFFFFFFFFFFFFFFFFFFFFFFFFFFFFFFFFFFFFFFFFFF000FFFFFFFFFFFF
310
FFFFFFFFFFFFFFFFFFFFFFFFFFFFFFFFFFFFFFFFFFFFFFFFFFFFFFFFFFFFFFFF
310
FFFFFFFFFFFFFFFFFFFFFFFFFFFFFFFFFFFFFFFFFFFFFFFFFFFFFFFFFFFFFFFF
310
FFFFFFFFFFFFFFFFFFFFFFFFFFFFFFFFF000FFFFFFFFFFFFFFFFFFFFFFFFFFFF
310
FFFFFFFFFFFFFFFFFFFFFFFFFFFFFFFFFFFFFFFFFFFFFFFFFFFFFFFFFFFFFFFF
310
FFFFFFFFFFFFFFFFFFFFFFFFFFFFFFFFFFFFFFFFFFFFFFFFFFFFFFFFFFFFFFFF
310
FFFFFFFFFFFFFFFFF000FFFFFFFFFFFFFFFFFFFFFFFFFFFFFFFFFFFFFFFFFFFF
310
FFFFFFFFFFFFFFFFFFFFFFFFFFFFFFFFFFFFFFFFFFFFFFFFFFFFFFFFFFFFFFFF
310
FFFFFFFFFFFFFFFFFFFFFFFFFFFFFFFFFFFFFFFFFFFFFFFFFFFFFFFFFFFFFFFF
310
F000FFFFFFFFFFFFFFFFFFFFFFFFFFFFFFFFFFFFFFFFFFFFFFFFFFFFFFFFFFFF
310
FFFFFFFFFFFFFFFFFFFFFFFFFFFFFFFFFFFFFFFFFFFFFFFFFFFFFFFFFFFFFFFF
310
FFFFFFFFFFFFFFFFFFFFFFFFFFFFFFFFFFFFFFFFFFFFFFFFF000FFFFFFFFFFFF
310
FFFFFFFFFFFFFFFFFFFFFFFFFFFFFFFFFFFFFFFFFFFFFFFFFFFFFFFFFFFFFFFF
310
FFFFFFFFFFFFFFFFFFFFFFFFFFFFFFFFFFFFFFFFFFFFFFFFFFFFFFFFFFFFFFFF
310
FFFFFFFFFFFFFFFFFFFFFFFFFFFFFFFFF000FFFFFFFFFFFFFFFFFFFFFFFFFFFF
310
FFFFFFFFFFFFFFFFFFFFFFFFFFFFFFFFFFFFFFFFFFFFFFFFFFFFFFFFFFFFFFFF
310
FFFFFFFFFFFFFFFFFFFFFFFFFFFFFFFFFFFFFFFFFFFFFFFFFFFFFFFFFFFFFFFF
310
FFFFFFFFFFFFFFFFF000FFFFFFFFFFFFFFFFFFFFFFFFFFFFFFFFFFFFFFFFFFFF
310
FFFFFFFFFFFFFFFFFFFFFFFFFFFFFFFFFFFFFFFFFFFFFFFFFFFFFFFFFFFFFFFF
310
FFFFFFFFFFFFFFFFFFFFFFFFFFFFFFFFFFFFFFFFFFFFFFFFFFFFFFFFFFFFFFFF
310
F000FFFFFFFFFFFFFFFFFFFFFFFFFFFFFFFFFFFFFFFFFFFFFFFFFFFFFFFFFFFF
310
FFFFFFFFFFFFFFFFFFFFFFFFFFFFFFFFFFFFFFFFFFFFFFFFFFFFFFFFFFFFFFFF
310
FFFFFFFFFFFFFFFFFFFFFFFFFFFFFFFFFFFFFFFFFFFFFFFFF000FFFFFFFFFFFF
310
FFFFFFFFFFFFFFFFFFFFFFFFFFFFFFFFFFFFFFFFFFFFFFFFFFFFFFFFFFFFFFFF
310
FFFFFFFFFFFFFFFFFFFFFFFFFFFFFFFFFFFFFFFFFFFFFFFFFFFFFFFFFFFFFFFF
310
FFFFFFFFFFFFFFFFFFFFFFFFFFFFFFFFF000FFFFFFFFFFFFFFFFFFFFFFFFFFFF
310
FFFFFFFFFFFFFFFFFFFFFFFFFFFFFFFFFFFFFFFFFFFFFFFFFFFFFFFFFFFFFFFF
310
FFFFFFFFFFFFFFFFFFFFFFFFFFFFFFFFFFFFFFFFFFFFFFFFFFFFFFFFFFFFFFFF
310
FFFFFFFFFFFFFFFFF000FFFFFFFFFFFFFFFFFFFFFFFFFFFFFFFFFFFFFFFFFFFF
310
FFFFFFFFFFFFFFFFFFFFFFFFFFFFFFFFFFFFFFFFFFFFFFFFFFFFFFFFFFFFFFFF
310
FFFFFFFFFFFFFFFFFFFFFFFFFFFFFFFFFFFFFFFFFFFFFFFFFFFFFFFFFFFFFFFF
310
F000FFFFFFFFFFFFFFFFFFFFFFFFFFFFFFFFFFFFFFFFFFFFFFFFFFFFFFFFFFFF
310
FFFFFFFFFFFFFFFFFFFFFFFFFFFFFFFFFFFFFFFFFFFFFFFFFFFFFFFFFFFFFFFF
310
FFFFFFFFFFFFFFFFFFFFFFFFFFFFFFFFFFFFFFFFFFFFFFFFF000FFFFFFFFFFFF
310
FFFFFFFFFFFFFFFFFFFFFFFFFFFFFFFFFFFFFFFFFFFFFFFFFFFFFFFFFFFFFFFF
310
FFFFFFFFFFFFFFFFFFFFFFFFFFFFFFFFFFFFFFFFFFFFFFFFFFFFFFFFFFFFFFFF
310
FFFFFFFFFFFFFFFFFFFFFFFFFFFFFFFFF0000000000000000000000000000000
310
0000000000000000000000000000000000000000000000000000000000000000
310
0000000000000000000000000000000000000000000000000000000000000000
310
0000000000000000000000000000000000000000000000000000000000000000
310
0000000000000000000000000000000000000000000000000000000000000000
310
0000000000000000000000000000000000000000000000000000000000000000
310
0000000000000000000000000000000000000000000000000000000000000000
310
0000000000000000000000000000000000000000000000000000000000000000
310
0000000000000000000000000000000000000000000000000000000000000000
310
0000000000000000000000000000000000000000000000000000000000000000
310
0000000000000000000000000000000000000000000000000000000000000000
310
0000000000000000000000000000000000000000000000000000000000000000
310
0000000000000000000000000000000000000000000000000000000000000000
310
0000000000000000000000000000000000000000000000000000000000000000
310
0000000000000000000000000000000000000000000000000000000000000000
310
0000000000000000000000000000000000000000000000000000000000000000
  1
OLE
  0
ENDSEC
  0
SECTION
  2
OBJECTS
  0
DICTIONARY
  5
C
330
0
100
AcDbDictionary
281
     1
  3
ACAD_GROUP
350
D
  3
ACAD_LAYOUT
350
1A
  3
ACAD_MLINESTYLE
350
17
  3
ACAD_PLOTSETTINGS
350
19
  3
ACAD_PLOTSTYLENAME
350
E
  0
DICTIONARY
  5
D
102
{ACAD_REACTORS
330
C
102
}
330
C
100
AcDbDictionary
281
     1
  0
DICTIONARY
  5
1A
102
{ACAD_REACTORS
330
C
102
}
330
C
100
AcDbDictionary
281
     1
  3
Layout1
350
1E
  3
Layout2
350
26
  3
Model
350
22
  0
DICTIONARY
  5
17
102
{ACAD_REACTORS
330
C
102
}
330
C
100
AcDbDictionary
281
     1
  3
Standard
350
18
  0
DICTIONARY
  5
19
102
{ACAD_REACTORS
330
C
102
}
330
C
100
AcDbDictionary
281
     1
  0
ACDBDICTIONARYWDFLT
  5
E
102
{ACAD_REACTORS
330
C
102
}
330
C
100
AcDbDictionary
281
     1
  3
Normal
350
F
100
AcDbDictionaryWithDefault
340
F
  0
LAYOUT
  5
1E
102
{ACAD_REACTORS
330
1A
102
}
330
1A
100
AcDbPlotSettings
  1

  2
none_device
  4

  6

 40
0.0
 41
0.0
 42
0.0
 43
0.0
 44
0.0
 45
0.0
 46
0.0
 47
0.0
 48
0.0
 49
0.0
140
0.0
141
0.0
142
1.0
143
1.0
 70
   688
 72
     0
 73
     0
 74
     5
  7

 75
    16
147
1.0
148
0.0
149
0.0
100
AcDbLayout
  1
Layout1
 70
     1
 71
     1
 10
0.0
 20
0.0
 11
420.0
 21
297.0
 12
0.0
 22
0.0
 32
0.0
 14
1.0000000000E+20
 24
1.0000000000E+20
 34
1.0000000000E+20
 15
-1.0000000000E+20
 25
-1.0000000000E+20
 35
-1.0000000000E+20
146
0.0
 13
0.0
 23
0.0
 33
0.0
 16
1.0
 26
0.0
 36
0.0
 17
0.0
 27
1.0
 37
0.0
 76
     0
330
1B
  0
LAYOUT
  5
26
102
{ACAD_REACTORS
330
1A
102
}
330
1A
100
AcDbPlotSettings
  1

  2
none_device
  4

  6

 40
0.0
 41
0.0
 42
0.0
 43
0.0
 44
0.0
 45
0.0
 46
0.0
 47
0.0
 48
0.0
 49
0.0
140
0.0
141
0.0
142
1.0
143
1.0
 70
   688
 72
     0
 73
     0
 74
     5
  7

 75
    16
147
1.0
148
0.0
149
0.0
100
AcDbLayout
  1
Layout2
 70
     1
 71
     2
 10
0.0
 20
0.0
 11
0.0
 21
0.0
 12
0.0
 22
0.0
 32
0.0
 14
0.0
 24
0.0
 34
0.0
 15
0.0
 25
0.0
 35
0.0
146
0.0
 13
0.0
 23
0.0
 33
0.0
 16
1.0
 26
0.0
 36
0.0
 17
0.0
 27
1.0
 37
0.0
 76
     0
330
23
  0
LAYOUT
  5
22
102
{ACAD_REACTORS
330
1A
102
}
330
1A
100
AcDbPlotSettings
  1

  2
none_device
  4

  6

 40
0.0
 41
0.0
 42
0.0
 43
0.0
 44
0.0
 45
0.0
 46
0.0
 47
0.0
 48
0.0
 49
0.0
140
0.0
141
0.0
142
1.0
143
1.0
 70
  1712
 72
     0
 73
     0
 74
     0
  7

 75
     0
147
1.0
148
0.0
149
0.0
100
AcDbLayout
  1
Model
 70
     1
 71
     0
 10
0.0
 20
0.0
 11
297.0
 21
210.0
 12
0.0
 22
0.0
 32
0.0
 14
0.0
 24
0.0
 34
0.0
 15
297.0
 25
210.0
 35
0.0
146
0.0
 13
0.0
 23
0.0
 33
0.0
 16
1.0
 26
0.0
 36
0.0
 17
0.0
 27
1.0
 37
0.0
 76
     0
330
1F
331
29
  0
MLINESTYLE
  5
18
102
{ACAD_REACTORS
330
17
102
}
330
17
100
AcDbMlineStyle
  2
Standard
 70
     0
  3

 62
   256
 51
90.0
 52
90.0
 71
     2
 49
0.5
 62
   256
  6
BYLAYER
 49
-0.5
 62
   256
  6
BYLAYER
  0
ACDBPLACEHOLDER
  5
F
102
{ACAD_REACTORS
330
E
102
}
330
E
  0
ENDSEC
  0
EOF
