  0
SECTION
  2
HEADER
  9
$ACADVER
  1
AC1015
  9
$ACADMAINTVER
 70
     6
  9
$DWGCODEPAGE
  3
ANSI_1252
  9
$INSBASE
 10
0.0
 20
0.0
 30
0.0
  9
$EXTMIN
 10
0.0
 20
0.0
 30
0.0
  9
$EXTMAX
 10
297.0
 20
210.0
 30
0.0
  9
$LIMMIN
 10
0.0
 20
0.0
  9
$LIMMAX
 10
297.0
 20
210.0
  9
$ORTHOMODE
 70
     0
  9
$REGENMODE
 70
     1
  9
$FILLMODE
 70
     1
  9
$QTEXTMODE
 70
     0
  9
$MIRRTEXT
 70
     1
  9
$LTSCALE
 40
1.0
  9
$ATTMODE
 70
     1
  9
$TEXTSIZE
 40
2.0
  9
$TRACEWID
 40
1.0
  9
$TEXTSTYLE
  7
Standard
  9
$CLAYER
  8
0
  9
$CELTYPE
  6
ByLayer
  9
$CECOLOR
 62
   256
  9
$CELTSCALE
 40
1.0
  9
$DISPSILH
 70
     0
  9
$DIMSCALE
 40
1.0
  9
$DIMASZ
 40
3.0
  9
$DIMEXO
 40
0.0
  9
$DIMDLI
 40
3.75
  9
$DIMRND
 40
0.0
  9
$DIMDLE
 40
0.0
  9
$DIMEXE
 40
1.0
  9
$DIMTP
 40
0.0
  9
$DIMTM
 40
0.0
  9
$DIMTXT
 40
2.0
  9
$DIMCEN
 40
2.5
  9
$DIMTSZ
 40
0.0
  9
$DIMTOL
 70
     0
  9
$DIMLIM
 70
     0
  9
$DIMTIH
 70
     1
  9
$DIMTOH
 70
     1
  9
$DIMSE1
 70
     0
  9
$DIMSE2
 70
     0
  9
$DIMTAD
 70
     1
  9
$DIMZIN
 70
     0
  9
$DIMBLK
  1

  9
$DIMASO
 70
     1
  9
$DIMSHO
 70
     1
  9
$DIMPOST
  1

  9
$DIMAPOST
  1

  9
$DIMALT
 70
     0
  9
$DIMALTD
 70
     3
  9
$DIMALTF
 40
0.0393700787
  9
$DIMLFAC
 40
1.0
  9
$DIMTOFL
 70
     1
  9
$DIMTVP
 40
0.0
  9
$DIMTIX
 70
     0
  9
$DIMSOXD
 70
     0
  9
$DIMSAH
 70
     0
  9
$DIMBLK1
  1

  9
$DIMBLK2
  1

  9
$DIMSTYLE
  2
ISO-25
  9
$DIMCLRD
 70
     0
  9
$DIMCLRE
 70
     0
  9
$DIMCLRT
 70
     0
  9
$DIMTFAC
 40
1.0
  9
$DIMGAP
 40
1.524
  9
$DIMJUST
 70
     0
  9
$DIMSD1
 70
     0
  9
$DIMSD2
 70
     0
  9
$DIMTOLJ
 70
     0
  9
$DIMTZIN
 70
     0
  9
$DIMALTZ
 70
     0
  9
$DIMALTTZ
 70
     0
  9
$DIMUPT
 70
     0
  9
$DIMDEC
 70
     2
  9
$DIMTDEC
 70
     3
  9
$DIMALTU
 70
     2
  9
$DIMALTTD
 70
     3
  9
$DIMTXSTY
  7
Standard
  9
$DIMAUNIT
 70
     0
  9
$DIMADEC
 70
     2
  9
$DIMALTRND
 40
0.0
  9
$DIMAZIN
 70
     0
  9
$DIMDSEP
 70
    44
  9
$DIMATFIT
 70
     3
  9
$DIMFRAC
 70
     0
  9
$DIMLDRBLK
  1

  9
$DIMLUNIT
 70
     2
  9
$DIMLWD
 70
    -2
  9
$DIMLWE
 70
    -2
  9
$DIMTMOVE
 70
     0
  9
$LUNITS
 70
     2
  9
$LUPREC
 70
     2
  9
$SKETCHINC
 40
1.0
  9
$FILLETRAD
 40
10.0
  9
$AUNITS
 70
     0
  9
$AUPREC
 70
     2
  9
$MENU
  1
.
  9
$ELEVATION
 40
0.0
  9
$PELEVATION
 40
0.0
  9
$THICKNESS
 40
0.0
  9
$LIMCHECK
 70
     0
  9
$CHAMFERA
 40
10.0
  9
$CHAMFERB
 40
10.0
  9
$CHAMFERC
 40
20.0
  9
$CHAMFERD
 40
0.0
  9
$SKPOLY
 70
     0
  9
$TDCREATE
 40
2455617.464804734
  9
$TDUCREATE
 40
2455617.423138067
  9
$TDUPDATE
 40
2455617.464804745
  9
$TDUUPDATE
 40
2455617.423138079
  9
$TDINDWG
 40
0.0000000116
  9
$TDUSRTIMER
 40
0.0000000116
  9
$USRTIMER
 70
     1
  9
$ANGBASE
 50
0.0
  9
$ANGDIR
 70
     0
  9
$PDMODE
 70
     0
  9
$PDSIZE
 40
-1.0
  9
$PLINEWID
 40
0.0
  9
$SPLFRAME
 70
     0
  9
$SPLINETYPE
 70
     6
  9
$SPLINESEGS
 70
     8
  9
$HANDSEED
  5
2B6
  9
$SURFTAB1
 70
     6
  9
$SURFTAB2
 70
     6
  9
$SURFTYPE
 70
     6
  9
$SURFU
 70
     6
  9
$SURFV
 70
     6
  9
$UCSBASE
  2

  9
$UCSNAME
  2

  9
$UCSORG
 10
0.0
 20
0.0
 30
0.0
  9
$UCSXDIR
 10
1.0
 20
0.0
 30
0.0
  9
$UCSYDIR
 10
0.0
 20
1.0
 30
0.0
  9
$UCSORTHOREF
  2

  9
$UCSORTHOVIEW
 70
     0
  9
$UCSORGTOP
 10
0.0
 20
0.0
 30
0.0
  9
$UCSORGBOTTOM
 10
0.0
 20
0.0
 30
0.0
  9
$UCSORGLEFT
 10
0.0
 20
0.0
 30
0.0
  9
$UCSORGRIGHT
 10
0.0
 20
0.0
 30
0.0
  9
$UCSORGFRONT
 10
0.0
 20
0.0
 30
0.0
  9
$UCSORGBACK
 10
0.0
 20
0.0
 30
0.0
  9
$PUCSBASE
  2

  9
$PUCSNAME
  2

  9
$PUCSORG
 10
0.0
 20
0.0
 30
0.0
  9
$PUCSXDIR
 10
1.0
 20
0.0
 30
0.0
  9
$PUCSYDIR
 10
0.0
 20
1.0
 30
0.0
  9
$PUCSORTHOREF
  2

  9
$PUCSORTHOVIEW
 70
     0
  9
$PUCSORGTOP
 10
0.0
 20
0.0
 30
0.0
  9
$PUCSORGBOTTOM
 10
0.0
 20
0.0
 30
0.0
  9
$PUCSORGLEFT
 10
0.0
 20
0.0
 30
0.0
  9
$PUCSORGRIGHT
 10
0.0
 20
0.0
 30
0.0
  9
$PUCSORGFRONT
 10
0.0
 20
0.0
 30
0.0
  9
$PUCSORGBACK
 10
0.0
 20
0.0
 30
0.0
  9
$USERI1
 70
     0
  9
$USERI2
 70
     0
  9
$USERI3
 70
     0
  9
$USERI4
 70
     0
  9
$USERI5
 70
     0
  9
$USERR1
 40
0.0
  9
$USERR2
 40
0.0
  9
$USERR3
 40
0.0
  9
$USERR4
 40
0.0
  9
$USERR5
 40
0.0
  9
$WORLDVIEW
 70
     1
  9
$SHADEDGE
 70
     3
  9
$SHADEDIF
 70
    70
  9
$TILEMODE
 70
     1
  9
$MAXACTVP
 70
    64
  9
$PINSBASE
 10
0.0
 20
0.0
 30
0.0
  9
$PLIMCHECK
 70
     0
  9
$PEXTMIN
 10
1.0000000000E+20
 20
1.0000000000E+20
 30
1.0000000000E+20
  9
$PEXTMAX
 10
-1.0000000000E+20
 20
-1.0000000000E+20
 30
-1.0000000000E+20
  9
$PLIMMIN
 10
0.0
 20
0.0
  9
$PLIMMAX
 10
420.0
 20
297.0
  9
$UNITMODE
 70
     0
  9
$VISRETAIN
 70
     1
  9
$PLINEGEN
 70
     0
  9
$PSLTSCALE
 70
     1
  9
$TREEDEPTH
 70
  3020
  9
$CMLSTYLE
  2
Standard
  9
$CMLJUST
 70
     0
  9
$CMLSCALE
 40
20.0
  9
$PROXYGRAPHICS
 70
     1
  9
$MEASUREMENT
 70
     1
  9
$CELWEIGHT
370
    -1
  9
$ENDCAPS
280
     0
  9
$JOINSTYLE
280
     0
  9
$LWDISPLAY
290
     1
  9
$INSUNITS
 70
     4
  9
$HYPERLINKBASE
  1

  9
$STYLESHEET
  1

  9
$XEDIT
290
     1
  9
$CEPSNTYPE
380
     0
  9
$PSTYLEMODE
290
     1
  9
$FINGERPRINTGUID
  2
{12ACD21F-0292-4BD9-BEAE-80AAA01F66E9}
  9
$VERSIONGUID
  2
{FAEB1C32-E019-11D5-929B-00C0DF256EC4}
  9
$EXTNAMES
290
     1
  9
$PSVPSCALE
 40
0.0
  9
$OLESTARTUP
290
     0
  0
ENDSEC
  0
SECTION
  2
CLASSES
  0
CLASS
  1
ACDBDICTIONARYWDFLT
  2
AcDbDictionaryWithDefault
  3
ObjectDBX Classes
 90
        0
280
     0
281
     0
  0
CLASS
  1
VISUALSTYLE
  2
AcDbVisualStyle
  3
ObjectDBX Classes
 90
     4095
280
     0
281
     0
  0
CLASS
  1
DICTIONARYVAR
  2
AcDbDictionaryVar
  3
ObjectDBX Classes
 90
        0
280
     0
281
     0
  0
CLASS
  1
ACDBPLACEHOLDER
  2
AcDbPlaceHolder
  3
ObjectDBX Classes
 90
        0
280
     0
281
     0
  0
CLASS
  1
LAYOUT
  2
AcDbLayout
  3
ObjectDBX Classes
 90
        0
280
     0
281
     0
  0
ENDSEC
  0
SECTION
  2
TABLES
  0
TABLE
  2
VPORT
  5
8
330
0
100
AcDbSymbolTable
 70
     1
  0
VPORT
  5
29
330
8
100
AcDbSymbolTableRecord
100
AcDbViewportTableRecord
  2
*Active
 70
     0
 10
0.0
 20
0.0
 11
1.0
 21
1.0
 12
148.5
 22
105.0
 13
0.0
 23
0.0
 14
10.0
 24
10.0
 15
10.0
 25
10.0
 16
0.0
 26
0.0
 36
1.0
 17
0.0
 27
0.0
 37
0.0
 40
210.0
 41
1.4142857143
 42
50.0
 43
0.0
 44
0.0
 50
0.0
 51
0.0
 71
     0
 72
  2000
 73
     1
 74
     3
 75
     0
 76
     0
 77
     0
 78
     0
281
     0
 65
     1
110
0.0
120
0.0
130
0.0
111
1.0
121
0.0
131
0.0
112
0.0
122
1.0
132
0.0
 79
     0
146
0.0
  0
ENDTAB
  0
TABLE
  2
LTYPE
  5
5
330
0
100
AcDbSymbolTable
 70
     6
  0
LTYPE
  5
14
330
5
100
AcDbSymbolTableRecord
100
AcDbLinetypeTableRecord
  2
ByBlock
 70
     0
  3

 72
    65
 73
     0
 40
0.0
  0
LTYPE
  5
15
330
5
100
AcDbSymbolTableRecord
100
AcDbLinetypeTableRecord
  2
ByLayer
 70
     0
  3

 72
    65
 73
     0
 40
0.0
  0
LTYPE
  5
16
330
5
100
AcDbSymbolTableRecord
100
AcDbLinetypeTableRecord
  2
Continuous
 70
     0
  3
Solid line
 72
    65
 73
     0
 40
0.0
  0
LTYPE
  5
3B
330
5
100
AcDbSymbolTableRecord
100
AcDbLinetypeTableRecord
  2
HIDDEN
 70
     0
  3
Hidden __ __ __ __ __ __ __ __ __ __ __ __ __ __
 72
    65
 73
     2
 40
1.905
 49
1.27
 74
     0
 49
-0.635
 74
     0
  0
LTYPE
  5
3C
330
5
100
AcDbSymbolTableRecord
100
AcDbLinetypeTableRecord
  2
PHANTOM
 70
     0
  3
Phantom ______  __  __  ______  __  __  ______
 72
    65
 73
     6
 40
12.7
 49
6.35
 74
     0
 49
-1.27
 74
     0
 49
1.27
 74
     0
 49
-1.27
 74
     0
 49
1.27
 74
     0
 49
-1.27
 74
     0
  0
LTYPE
  5
3D
330
5
100
AcDbSymbolTableRecord
100
AcDbLinetypeTableRecord
  2
CENTER
 70
     0
  3
Center ____ _ ____ _ ____ _ ____ _ ____ _ ____
 72
    65
 73
     4
 40
10.16
 49
6.35
 74
     0
 49
-1.27
 74
     0
 49
1.27
 74
     0
 49
-1.27
 74
     0
  0
LTYPE
  5
3E
330
5
100
AcDbSymbolTableRecord
100
AcDbLinetypeTableRecord
  2
CENTERX2
 70
     0
  3
Center (2x) ________  __  ________  __  _____
 72
    65
 73
     4
 40
20.32
 49
12.7
 74
     0
 49
-2.54
 74
     0
 49
2.54
 74
     0
 49
-2.54
 74
     0
  0
LTYPE
  5
3F
330
5
100
AcDbSymbolTableRecord
100
AcDbLinetypeTableRecord
  2
DOT2
 70
     0
  3
Dot (.5x) ........................................
 72
    65
 73
     2
 40
0.635
 49
0.0
 74
     0
 49
-0.635
 74
     0
  0
ENDTAB
  0
TABLE
  2
LAYER
  5
2
330
0
100
AcDbSymbolTable
 70
     5
  0
LAYER
  5
10
330
2
100
AcDbSymbolTableRecord
100
AcDbLayerTableRecord
  2
0
 70
     0
 62
     7
  6
Continuous
370
    -3
390
F
  0
LAYER
  5
40
330
2
100
AcDbSymbolTableRecord
100
AcDbLayerTableRecord
  2
FORMAT
 70
     0
 62
     7
  6
Continuous
370
    -3
390
F
  0
LAYER
  5
41
330
2
100
AcDbSymbolTableRecord
100
AcDbLayerTableRecord
  2
VERMASSUNG
 70
     0
 62
     7
  6
Continuous
370
    -3
390
F
  0
LAYER
  5
42
330
2
100
AcDbSymbolTableRecord
100
AcDbLayerTableRecord
  2
KOPF_DÜNN
 70
     0
 62
     7
  6
Continuous
370
    -3
390
F
  0
LAYER
  5
43
330
2
100
AcDbSymbolTableRecord
100
AcDbLayerTableRecord
  2
KOPF_DICK
 70
     0
 62
     7
  6
Continuous
370
    15
390
F
  0
ENDTAB
  0
TABLE
  2
STYLE
  5
3
330
0
100
AcDbSymbolTable
 70
     3
  0
STYLE
  5
11
330
3
100
AcDbSymbolTableRecord
100
AcDbTextStyleTableRecord
  2
Standard
 70
     0
 40
0.0
 41
1.0
 50
0.0
 71
     0
 42
2.5
  3
txt
  4

  0
STYLE
  5
44
330
3
100
AcDbSymbolTableRecord
100
AcDbTextStyleTableRecord
  2
SLDTEXTSTYLE0
 70
     0
 40
0.0
 41
0.7
 50
0.0
 71
     0
 42
0.2
  3
TXT
  4

  0
STYLE
  5
48
330
3
100
AcDbSymbolTableRecord
100
AcDbTextStyleTableRecord
  2
SLDTEXTSTYLE1
 70
     0
 40
0.0
 41
0.6526315789
 50
0.0
 71
     0
 42
0.2
  3
TXT
  4

  0
ENDTAB
  0
TABLE
  2
VIEW
  5
6
330
0
100
AcDbSymbolTable
 70
     0
  0
ENDTAB
  0
TABLE
  2
UCS
  5
7
330
0
100
AcDbSymbolTable
 70
     0
  0
ENDTAB
  0
TABLE
  2
APPID
  5
9
330
0
100
AcDbSymbolTable
 70
     1
  0
APPID
  5
12
330
9
100
AcDbSymbolTableRecord
100
AcDbRegAppTableRecord
  2
ACAD
 70
     0
  0
ENDTAB
  0
TABLE
  2
DIMSTYLE
  5
A
330
0
100
AcDbSymbolTable
 70
     4
100
AcDbDimStyleTable
  0
DIMSTYLE
105
27
330
A
100
AcDbSymbolTableRecord
100
AcDbDimStyleTableRecord
  2
ISO-25
 70
     0
 41
2.5
 42
0.625
 43
3.75
 44
1.25
 73
     0
 74
     0
 77
     1
 78
     8
140
2.5
141
2.5
143
0.0393700787
147
0.625
171
     3
172
     1
271
     2
272
     2
274
     3
278
    44
283
     0
284
     8
340
11
  0
DIMSTYLE
105
222
102
{ACAD_REACTORS
330
221
330
22C
330
236
330
24C
102
}
330
A
100
AcDbSymbolTableRecord
100
AcDbDimStyleTableRecord
  2
SLDDIMSTYLE0
 70
     0
 41
3.0
 44
0.0
 45
0.000000001
 73
     0
 74
     0
 77
     1
 78
    12
140
2.0
147
0.5
173
     1
271
     2
272
     3
284
    12
340
44
  0
DIMSTYLE
105
241
102
{ACAD_REACTORS
330
240
102
}
330
A
100
AcDbSymbolTableRecord
100
AcDbDimStyleTableRecord
  2
SLDDIMSTYLE1
 70
     0
 41
3.0
 44
0.0
 73
     0
 74
     0
 77
     1
 78
    12
140
2.0
147
0.5
173
     1
179
     1
272
     3
284
    12
340
44
  0
DIMSTYLE
105
299
102
{ACAD_REACTORS
330
298
102
}
330
A
100
AcDbSymbolTableRecord
100
AcDbDimStyleTableRecord
  2
SLDDIMSTYLE2
 70
     0
 41
3.0
 44
0.0
 45
0.000000001
 73
     0
 74
     0
 77
     1
 78
    12
140
2.0
147
0.5
173
     1
271
     2
272
     3
284
    12
340
44
  0
ENDTAB
  0
TABLE
  2
BLOCK_RECORD
  5
1
330
0
100
AcDbSymbolTable
 70
     8
  0
BLOCK_RECORD
  5
1F
330
1
100
AcDbSymbolTableRecord
100
AcDbBlockTableRecord
  2
*Model_Space
340
22
  0
BLOCK_RECORD
  5
1B
330
1
100
AcDbSymbolTableRecord
100
AcDbBlockTableRecord
  2
*Paper_Space
340
1E
  0
BLOCK_RECORD
  5
23
330
1
100
AcDbSymbolTableRecord
100
AcDbBlockTableRecord
  2
*Paper_Space0
340
26
  0
BLOCK_RECORD
  5
223
330
1
100
AcDbSymbolTableRecord
100
AcDbBlockTableRecord
  2
*D1
340
0
  0
BLOCK_RECORD
  5
22D
330
1
100
AcDbSymbolTableRecord
100
AcDbBlockTableRecord
  2
*D2
340
0
  0
BLOCK_RECORD
  5
237
330
1
100
AcDbSymbolTableRecord
100
AcDbBlockTableRecord
  2
*D3
340
0
  0
BLOCK_RECORD
  5
242
330
1
100
AcDbSymbolTableRecord
100
AcDbBlockTableRecord
  2
*D4
340
0
  0
BLOCK_RECORD
  5
24D
330
1
100
AcDbSymbolTableRecord
100
AcDbBlockTableRecord
  2
*D5
340
0
  0
BLOCK_RECORD
  5
29A
330
1
100
AcDbSymbolTableRecord
100
AcDbBlockTableRecord
  2
*D6
340
0
  0
BLOCK_RECORD
  5
2A4
330
1
100
AcDbSymbolTableRecord
100
AcDbBlockTableRecord
  2
SW_CENTERMARKSYMBOL_0
340
0
102
{BLKREFS
331
2AF
102
}
  0
ENDTAB
  0
ENDSEC
  0
SECTION
  2
BLOCKS
  0
BLOCK
  5
20
330
1F
100
AcDbEntity
  8
0
100
AcDbBlockBegin
  2
*Model_Space
 70
     0
 10
0.0
 20
0.0
 30
0.0
  3
*Model_Space
  1

  0
ENDBLK
  5
21
330
1F
100
AcDbEntity
  8
0
100
AcDbBlockEnd
  0
BLOCK
  5
1C
330
1B
100
AcDbEntity
 67
     1
  8
0
100
AcDbBlockBegin
  2
*Paper_Space
 70
     0
 10
0.0
 20
0.0
 30
0.0
  3
*Paper_Space
  1

  0
ENDBLK
  5
1D
330
1B
100
AcDbEntity
 67
     1
  8
0
100
AcDbBlockEnd
  0
BLOCK
  5
24
330
23
100
AcDbEntity
  8
0
100
AcDbBlockBegin
  2
*Paper_Space0
 70
     0
 10
0.0
 20
0.0
 30
0.0
  3
*Paper_Space0
  1

  0
ENDBLK
  5
25
330
23
100
AcDbEntity
  8
0
100
AcDbBlockEnd
  0
BLOCK
  5
224
330
223
100
AcDbEntity
  8
0
100
AcDbBlockBegin
  2
*D1
 70
     1
 10
0.0
 20
0.0
 30
0.0
  3
*D1
  1

  0
SOLID
  5
226
330
223
100
AcDbEntity
  8
VERMASSUNG
100
AcDbTrace
 10
268.2723438247
 20
140.3568132033
 30
0.0
 11
265.2723438247
 21
140.8068132033
 31
0.0
 12
265.2723438247
 22
139.9068132033
 32
0.0
 13
265.2723438247
 23
139.9068132033
 33
0.0
  0
SOLID
  5
227
330
223
100
AcDbEntity
  8
VERMASSUNG
100
AcDbTrace
 10
108.3738659454
 20
140.3568132033
 30
0.0
 11
111.3738659454
 21
139.9068132033
 31
0.0
 12
111.3738659454
 22
140.8068132033
 32
0.0
 13
111.3738659454
 23
140.8068132033
 33
0.0
  0
LINE
  5
228
330
223
100
AcDbEntity
  8
VERMASSUNG
100
AcDbLine
 10
268.2723438247
 20
93.7906161977
 30
0.0
 11
268.2723438247
 21
141.3568132033
 31
0.0
  0
LINE
  5
229
330
223
100
AcDbEntity
  8
VERMASSUNG
100
AcDbLine
 10
108.3738659454
 20
122.2868132033
 30
0.0
 11
108.3738659454
 21
141.3568132033
 31
0.0
  0
LINE
  5
22A
330
223
100
AcDbEntity
  8
VERMASSUNG
100
AcDbLine
 10
268.2723438247
 20
140.3568132033
 30
0.0
 11
108.3738659454
 21
140.3568132033
 31
0.0
  0
MTEXT
  5
22B
330
223
100
AcDbEntity
  8
VERMASSUNG
100
AcDbMText
 10
185.4236751336
 20
142.9349485664
 30
0.0
 40
2.0
 41
0.0
 71
     1
 72
     1
  1
159.9
  7
SLDTEXTSTYLE0
 73
     1
 44
1.0
  0
ENDBLK
  5
225
330
223
100
AcDbEntity
  8
0
100
AcDbBlockEnd
  0
BLOCK
  5
22E
330
22D
100
AcDbEntity
  8
0
100
AcDbBlockBegin
  2
*D2
 70
     1
 10
0.0
 20
0.0
 30
0.0
  3
*D2
  1

  0
SOLID
  5
230
330
22D
100
AcDbEntity
  8
VERMASSUNG
100
AcDbTrace
 10
128.2738659454
 20
134.3568132033
 30
0.0
 11
131.2738659454
 21
133.9068132033
 31
0.0
 12
131.2738659454
 22
134.8068132033
 32
0.0
 13
131.2738659454
 23
134.8068132033
 33
0.0
  0
SOLID
  5
231
330
22D
100
AcDbEntity
  8
VERMASSUNG
100
AcDbTrace
 10
268.2723438247
 20
134.3568132033
 30
0.0
 11
265.2723438247
 21
134.8068132033
 31
0.0
 12
265.2723438247
 22
133.9068132033
 32
0.0
 13
265.2723438247
 23
133.9068132033
 33
0.0
  0
LINE
  5
232
330
22D
100
AcDbEntity
  8
VERMASSUNG
100
AcDbLine
 10
128.2738659454
 20
130.0568132033
 30
0.0
 11
128.2738659454
 21
135.3568132033
 31
0.0
  0
LINE
  5
233
330
22D
100
AcDbEntity
  8
VERMASSUNG
100
AcDbLine
 10
268.2723438247
 20
93.7906161977
 30
0.0
 11
268.2723438247
 21
135.3568132033
 31
0.0
  0
LINE
  5
234
330
22D
100
AcDbEntity
  8
VERMASSUNG
100
AcDbLine
 10
128.2738659454
 20
134.3568132033
 30
0.0
 11
268.2723438247
 21
134.3568132033
 31
0.0
  0
MTEXT
  5
235
330
22D
100
AcDbEntity
  8
VERMASSUNG
100
AcDbMText
 10
196.273749472
 20
136.9349485664
 30
0.0
 40
2.0
 41
0.0
 71
     1
 72
     1
  1
140
  7
SLDTEXTSTYLE0
 73
     1
 44
1.0
  0
ENDBLK
  5
22F
330
22D
100
AcDbEntity
  8
0
100
AcDbBlockEnd
  0
BLOCK
  5
238
330
237
100
AcDbEntity
  8
0
100
AcDbBlockBegin
  2
*D3
 70
     1
 10
0.0
 20
0.0
 30
0.0
  3
*D3
  1

  0
SOLID
  5
23A
330
237
100
AcDbEntity
  8
VERMASSUNG
100
AcDbTrace
 10
274.6287286209
 20
110.3568132033
 30
0.0
 11
274.1787286209
 21
107.3568132033
 31
0.0
 12
275.0787286209
 22
107.3568132033
 32
0.0
 13
275.0787286209
 23
107.3568132033
 33
0.0
  0
SOLID
  5
23B
330
237
100
AcDbEntity
  8
VERMASSUNG
100
AcDbTrace
 10
274.6287286209
 20
93.3568132033
 30
0.0
 11
275.0787286209
 21
96.3568132033
 31
0.0
 12
274.1787286209
 22
96.3568132033
 32
0.0
 13
274.1787286209
 23
96.3568132033
 33
0.0
  0
LINE
  5
23C
330
237
100
AcDbEntity
  8
VERMASSUNG
100
AcDbLine
 10
274.5489576178
 20
110.3568132033
 30
0.0
 11
275.6287286209
 21
110.3568132033
 31
0.0
  0
LINE
  5
23D
330
237
100
AcDbEntity
  8
VERMASSUNG
100
AcDbLine
 10
268.2738659454
 20
93.3568132033
 30
0.0
 11
275.6287286209
 21
93.3568132033
 31
0.0
  0
LINE
  5
23E
330
237
100
AcDbEntity
  8
VERMASSUNG
100
AcDbLine
 10
274.6287286209
 20
110.3568132033
 30
0.0
 11
274.6287286209
 21
93.3568132033
 31
0.0
  0
MTEXT
  5
23F
330
237
100
AcDbEntity
  8
VERMASSUNG
100
AcDbMText
 10
272.0505932578
 20
100.6579287606
 30
0.0
 40
2.0
 41
0.0
 71
     1
 72
     1
  1
17
  7
SLDTEXTSTYLE0
 11
-7.044195017643634E-15
 21
1.0
 31
0.0
 73
     1
 44
1.0
  0
ENDBLK
  5
239
330
237
100
AcDbEntity
  8
0
100
AcDbBlockEnd
  0
BLOCK
  5
243
330
242
100
AcDbEntity
  8
0
100
AcDbBlockBegin
  2
*D4
 70
     1
 10
0.0
 20
0.0
 30
0.0
  3
*D4
  1

  0
ARC
  5
245
330
242
100
AcDbEntity
  8
VERMASSUNG
100
AcDbCircle
 10
268.2738659454
 20
93.7732606582
 30
0.0
 40
27.10999363148223
100
AcDbArc
 50
90.0
 51
95.0121473722
  0
ARC
  5
246
330
242
100
AcDbEntity
  8
VERMASSUNG
100
AcDbCircle
 10
268.2738659454
 20
93.7732606582
 30
0.0
 40
27.10999363148223
100
AcDbArc
 50
77.3898949011
 51
90.0
  0
ARC
  5
247
330
242
100
AcDbEntity
  8
VERMASSUNG
100
AcDbCircle
 10
268.2738659454
 20
93.7732606582
 30
0.0
 40
27.10999363148223
100
AcDbArc
 50
95.0121473722
 51
110.6773246228
  0
SOLID
  5
248
330
242
100
AcDbEntity
  8
VERMASSUNG
100
AcDbTrace
 10
268.2738659454
 20
120.8832542897
 30
0.0
 11
271.244526975
 21
120.2687031958
 31
0.0
 12
271.2940972262
 22
121.1673370423
 32
0.0
 13
271.2940972262
 23
121.1673370423
 33
0.0
  0
SOLID
  5
249
330
242
100
AcDbEntity
  8
VERMASSUNG
100
AcDbTrace
 10
265.905348605
 20
120.7795910329
 30
0.0
 11
262.8718466492
 21
120.7987191271
 31
0.0
 12
262.999738248
 22
119.9078522801
 32
0.0
 13
262.999738248
 23
119.9078522801
 33
0.0
  0
LINE
  5
24A
330
242
100
AcDbEntity
  8
VERMASSUNG
100
AcDbLine
 10
267.2191907239
 20
105.7988882453
 30
0.0
 11
265.8179816593
 21
121.7757672306
 31
0.0
  0
MTEXT
  5
24B
330
242
100
AcDbEntity
  8
VERMASSUNG
100
AcDbMText
 10
259.5335252353
 20
122.1753851214
 30
0.0
 40
2.0
 41
0.0
 71
     1
 72
     1
  1
5°
  7
SLDTEXTSTYLE0
 11
0.9677168108205554
 21
0.2520400247089604
 31
0.0
 73
     1
 44
1.0
  0
ENDBLK
  5
244
330
242
100
AcDbEntity
  8
0
100
AcDbBlockEnd
  0
BLOCK
  5
24E
330
24D
100
AcDbEntity
  8
0
100
AcDbBlockBegin
  2
*D5
 70
     1
 10
0.0
 20
0.0
 30
0.0
  3
*D5
  1

  0
SOLID
  5
250
330
24D
100
AcDbEntity
  8
VERMASSUNG
100
AcDbTrace
 10
103.1291322465
 20
130.3568132033
 30
0.0
 11
102.6791322465
 21
127.3568132033
 31
0.0
 12
103.5791322465
 22
127.3568132033
 32
0.0
 13
103.5791322465
 23
127.3568132033
 33
0.0
  0
SOLID
  5
251
330
24D
100
AcDbEntity
  8
VERMASSUNG
100
AcDbTrace
 10
103.1291322465
 20
90.3568132033
 30
0.0
 11
103.5791322465
 21
93.3568132033
 31
0.0
 12
102.6791322465
 22
93.3568132033
 32
0.0
 13
102.6791322465
 23
93.3568132033
 33
0.0
  0
LINE
  5
252
330
24D
100
AcDbEntity
  8
VERMASSUNG
100
AcDbLine
 10
128.5738659454
 20
130.3568132033
 30
0.0
 11
102.1291322465
 21
130.3568132033
 31
0.0
  0
LINE
  5
253
330
24D
100
AcDbEntity
  8
VERMASSUNG
100
AcDbLine
 10
128.5738659454
 20
90.3568132033
 30
0.0
 11
102.1291322465
 21
90.3568132033
 31
0.0
  0
LINE
  5
254
330
24D
100
AcDbEntity
  8
VERMASSUNG
100
AcDbLine
 10
103.1291322465
 20
130.3568132033
 30
0.0
 11
103.1291322465
 21
90.3568132033
 31
0.0
  0
MTEXT
  5
255
330
24D
100
AcDbEntity
  8
VERMASSUNG
100
AcDbMText
 10
100.3509967574
 20
104.053863484
 30
0.0
 40
2.0
 41
0.0
 71
     1
 72
     1
  1
HSK 
  7
SLDTEXTSTYLE0
 11
-7.044195017643634E-15
 21
1.0
 31
0.0
 73
     1
 44
1.0
  0
MTEXT
  5
256
330
24D
100
AcDbEntity
  8
VERMASSUNG
100
AcDbMText
 10
100.5509967669
 20
110.0538635361
 30
0.0
 40
2.0
 41
0.0
 71
     1
 72
     1
  1
%%c
  7
SLDTEXTSTYLE0
 11
-7.044195017643634E-15
 21
1.0
 31
0.0
 73
     1
 44
1.0
  0
MTEXT
  5
257
330
24D
100
AcDbEntity
  8
VERMASSUNG
100
AcDbMText
 10
100.5509968834
 20
113.6619444784
 30
0.0
 40
2.0
 41
0.0
 71
     1
 72
     1
  1
40
  7
SLDTEXTSTYLE0
 11
-7.044195017643634E-15
 21
1.0
 31
0.0
 73
     1
 44
1.0
  0
ENDBLK
  5
24F
330
24D
100
AcDbEntity
  8
0
100
AcDbBlockEnd
  0
BLOCK
  5
29B
330
29A
100
AcDbEntity
  8
0
100
AcDbBlockBegin
  2
*D6
 70
     1
 10
0.0
 20
0.0
 30
0.0
  3
*D6
  1

  0
SOLID
  5
29D
330
29A
100
AcDbEntity
  8
VERMASSUNG
100
AcDbTrace
 10
31.4688588845
 20
93.3568132033
 30
0.0
 11
31.9188588845
 21
96.3568132033
 31
0.0
 12
31.0188588845
 22
96.3568132033
 32
0.0
 13
31.0188588845
 23
96.3568132033
 33
0.0
  0
SOLID
  5
29E
330
29A
100
AcDbEntity
  8
VERMASSUNG
100
AcDbTrace
 10
31.4688588845
 20
125.3568132033
 30
0.0
 11
31.0188588845
 21
122.3568132033
 31
0.0
 12
31.9188588845
 22
122.3568132033
 32
0.0
 13
31.9188588845
 23
122.3568132033
 33
0.0
  0
LINE
  5
29F
330
29A
100
AcDbEntity
  8
VERMASSUNG
100
AcDbLine
 10
56.0937197097
 20
93.3568132033
 30
0.0
 11
30.4688588845
 21
93.3568132033
 31
0.0
  0
LINE
  5
2A0
330
29A
100
AcDbEntity
  8
VERMASSUNG
100
AcDbLine
 10
56.0937197097
 20
125.3568132033
 30
0.0
 11
30.4688588845
 21
125.3568132033
 31
0.0
  0
LINE
  5
2A1
330
29A
100
AcDbEntity
  8
VERMASSUNG
100
AcDbLine
 10
31.4688588845
 20
93.3568132033
 30
0.0
 11
31.4688588845
 21
125.3568132033
 31
0.0
  0
MTEXT
  5
2A2
330
29A
100
AcDbEntity
  8
VERMASSUNG
100
AcDbMText
 10
28.8907234049
 20
106.1537146468
 30
0.0
 40
2.0
 41
0.0
 71
     1
 72
     1
  1
%%c
  7
SLDTEXTSTYLE0
 11
6.123233995736766E-17
 21
1.0
 31
0.0
 73
     1
 44
1.0
  0
MTEXT
  5
2A3
330
29A
100
AcDbEntity
  8
VERMASSUNG
100
AcDbMText
 10
28.8907235213
 20
109.7613000517
 30
0.0
 40
2.0
 41
0.0
 71
     1
 72
     1
  1
32
  7
SLDTEXTSTYLE0
 11
6.123233995736766E-17
 21
1.0
 31
0.0
 73
     1
 44
1.0
  0
ENDBLK
  5
29C
330
29A
100
AcDbEntity
  8
0
100
AcDbBlockEnd
  0
BLOCK
  5
2A5
330
2A4
100
AcDbEntity
  8
0
100
AcDbBlockBegin
  2
SW_CENTERMARKSYMBOL_0
 70
     0
 10
0.0
 20
0.0
 30
0.0
  3
SW_CENTERMARKSYMBOL_0
  1

  0
LINE
  5
2A7
330
2A4
100
AcDbEntity
  8
VERMASSUNG
 62
     0
100
AcDbLine
 10
0.0
 20
0.0
 30
0.0
 11
0.0
 21
2.5
 31
0.0
  0
LINE
  5
2A8
330
2A4
100
AcDbEntity
  8
VERMASSUNG
 62
     0
100
AcDbLine
 10
0.0
 20
0.0
 30
0.0
 11
-2.5
 21
0.0
 31
0.0
  0
LINE
  5
2A9
330
2A4
100
AcDbEntity
  8
VERMASSUNG
 62
     0
100
AcDbLine
 10
0.0
 20
0.0
 30
0.0
 11
0.0
 21
-2.5
 31
0.0
  0
LINE
  5
2AA
330
2A4
100
AcDbEntity
  8
VERMASSUNG
 62
     0
100
AcDbLine
 10
0.0
 20
0.0
 30
0.0
 11
2.5
 21
0.0
 31
0.0
  0
LINE
  5
2AB
330
2A4
100
AcDbEntity
  8
VERMASSUNG
 62
     0
100
AcDbLine
 10
0.0
 20
5.0
 30
0.0
 11
0.0
 21
22.5
 31
0.0
  0
LINE
  5
2AC
330
2A4
100
AcDbEntity
  8
VERMASSUNG
 62
     0
100
AcDbLine
 10
-5.0
 20
0.0
 30
0.0
 11
-22.5
 21
0.0
 31
0.0
  0
LINE
  5
2AD
330
2A4
100
AcDbEntity
  8
VERMASSUNG
 62
     0
100
AcDbLine
 10
0.0
 20
-5.0
 30
0.0
 11
0.0
 21
-22.5
 31
0.0
  0
LINE
  5
2AE
330
2A4
100
AcDbEntity
  8
VERMASSUNG
 62
     0
100
AcDbLine
 10
5.0
 20
0.0
 30
0.0
 11
22.5
 21
0.0
 31
0.0
  0
ENDBLK
  5
2A6
330
2A4
100
AcDbEntity
  8
0
100
AcDbBlockEnd
  0
ENDSEC
  0
SECTION
  2
ENTITIES
  0
MTEXT
  5
45
330
1F
100
AcDbEntity
  8
KOPF_DÜNN
100
AcDbMText
 10
13.8892156294
 20
23.8442973028
 30
0.0
 40
3.0
 41
0.0
 71
     1
 72
     1
  1
HA4.BCC.LLA.140
  7
SLDTEXTSTYLE0
 73
     1
 44
1.0
  0
MTEXT
  5
46
330
1F
100
AcDbEntity
  8
VERMASSUNG
100
AcDbMText
 10
13.9329988022
 20
28.8834360957
 30
0.0
 40
3.0
 41
0.0
 71
     1
 72
     1
  1
Bohrstange_Boring bar
  7
SLDTEXTSTYLE0
 73
     1
 44
1.0
  0
MTEXT
  5
47
330
1F
100
AcDbEntity
  8
VERMASSUNG
100
AcDbMText
 10
98.8601118557
 20
13.8365368179
 30
0.0
 40
2.0
 41
0.0
 71
     1
 72
     1
  1
Datum: 21.04.2009
  7
SLDTEXTSTYLE0
 73
     1
 44
1.0
  0
MTEXT
  5
49
330
1F
100
AcDbEntity
  8
VERMASSUNG
100
AcDbMText
 10
13.933048693
 20
18.0482802738
 30
0.0
 40
2.0
 41
0.0
 71
     1
 72
     1
  1
DIN 69893 HSK 40 A ICTM / CC.. 12 04..
  7
SLDTEXTSTYLE1
 73
     1
 44
1.0
  0
MTEXT
  5
4A
330
1F
100
AcDbEntity
  8
VERMASSUNG
100
AcDbMText
 10
13.9808475933
 20
13.9090973692
 30
0.0
 40
2.0
 41
0.0
 71
     1
 72
     1
  1
Gewicht: 572g
  7
SLDTEXTSTYLE0
 73
     1
 44
1.0
  0
LINE
  5
4B
330
1F
100
AcDbEntity
  8
0
  6
Continuous
 62
     7
370
    15
100
AcDbLine
 10
262.7302711109
 20
100.6898473559
 30
0.0
 11
262.7302711109
 21
100.5781749818
 31
0.0
  0
LINE
  5
4C
330
1F
100
AcDbEntity
  8
0
  6
Continuous
 62
     7
370
    15
100
AcDbLine
 10
259.9303211936
 20
100.0015935656
 30
0.0
 11
259.9303211936
 21
100.1132337832
 31
0.0
  0
LINE
  5
4D
330
1F
100
AcDbEntity
  8
0
  6
Continuous
 62
     7
370
    15
100
AcDbLine
 10
264.828491883
 20
100.3201469204
 30
0.0
 11
264.828491883
 21
100.3340982152
 31
0.0
  0
LINE
  5
4E
330
1F
100
AcDbEntity
  8
0
  6
Continuous
 62
     7
370
    15
100
AcDbLine
 10
257.828491883
 20
100.3340982152
 30
0.0
 11
257.828491883
 21
100.3201469204
 31
0.0
  0
LINE
  5
4F
330
1F
100
AcDbEntity
  8
0
  6
Continuous
 62
     7
370
    15
100
AcDbLine
 10
128.5738659454
 20
90.3568132033
 30
0.0
 11
136.2238659454
 21
90.3568132033
 31
0.0
  0
LINE
  5
50
330
1F
100
AcDbEntity
  8
0
  6
Continuous
 62
     7
370
    15
100
AcDbLine
 10
136.2393931543
 20
130.3568132033
 30
0.0
 11
128.5738659454
 21
130.3568132033
 31
0.0
  0
ARC
  5
51
330
1F
100
AcDbEntity
  8
0
  6
Continuous
 62
     7
370
    15
100
AcDbCircle
 10
128.5738659454
 20
90.6568132033
 30
0.0
 40
0.3000000000000114
100
AcDbArc
 50
180.0
 51
270.0
  0
ARC
  5
52
330
1F
100
AcDbEntity
  8
0
  6
Continuous
 62
     7
370
    15
100
AcDbCircle
 10
128.5738659454
 20
130.0568132033
 30
0.0
 40
0.3000000000000114
100
AcDbArc
 50
90.0
 51
180.0
  0
ARC
  5
53
330
1F
100
AcDbEntity
  8
0
  6
Continuous
 62
     7
370
    15
100
AcDbCircle
 10
127.7738659454
 20
94.9031128025
 30
0.0
 40
0.6000000000000059
100
AcDbArc
 50
33.5573097619
 51
90.0
  0
ARC
  5
54
330
1F
100
AcDbEntity
  8
0
  6
Continuous
 62
     7
370
    15
100
AcDbCircle
 10
127.7738659454
 20
125.8105136041
 30
0.0
 40
0.6000000000000136
100
AcDbArc
 50
270.0
 51
326.4426902381
  0
LINE
  5
55
330
1F
100
AcDbEntity
  8
0
  6
Continuous
 62
     7
370
    15
100
AcDbLine
 10
119.5096492533
 20
125.1216249923
 30
0.0
 11
111.9738659454
 21
124.7440807384
 31
0.0
  0
LINE
  5
56
330
1F
100
AcDbEntity
  8
0
  6
Continuous
 62
     7
370
    15
100
AcDbLine
 10
126.2738659454
 20
125.4605136041
 30
0.0
 11
124.9865576985
 21
125.396019203
 31
0.0
  0
LINE
  5
57
330
1F
100
AcDbEntity
  8
0
  6
Continuous
 62
     7
370
    15
100
AcDbLine
 10
124.9866458436
 20
95.3176027876
 30
0.0
 11
126.2738659454
 21
95.2531128025
 31
0.0
  0
LINE
  5
58
330
1F
100
AcDbEntity
  8
0
  6
Continuous
 62
     7
370
    15
100
AcDbLine
 10
114.4738659454
 20
95.8442951672
 30
0.0
 11
119.510971468
 21
95.5919351711
 31
0.0
  0
LINE
  5
59
330
1F
100
AcDbEntity
  8
0
  6
Continuous
 62
     7
370
    15
100
AcDbLine
 10
126.2738659454
 20
95.2531128025
 30
0.0
 11
127.1305787188
 21
95.4826682983
 31
0.0
  0
LINE
  5
5A
330
1F
100
AcDbEntity
  8
0
  6
Continuous
 62
     7
370
    15
100
AcDbLine
 10
127.1305787188
 20
125.2309581083
 30
0.0
 11
126.2738659454
 21
125.4605136041
 31
0.0
  0
ARC
  5
5B
330
1F
100
AcDbEntity
  8
0
  6
Continuous
 62
     7
370
    15
100
AcDbCircle
 10
127.2858701459
 20
94.9031128025
 30
0.0
 40
0.5999999999999943
100
AcDbArc
 50
90.0
 51
105.0
  0
ARC
  5
5C
330
1F
100
AcDbEntity
  8
0
  6
Continuous
 62
     7
370
    15
100
AcDbCircle
 10
127.2858701459
 20
125.8105136041
 30
0.0
 40
0.6000000000000044
100
AcDbArc
 50
255.0
 51
270.0
  0
LINE
  5
5D
330
1F
100
AcDbEntity
  8
0
  6
Continuous
 62
     7
370
    15
100
AcDbLine
 10
127.2858701459
 20
95.5031128025
 30
0.0
 11
127.7738659454
 21
95.5031128025
 31
0.0
  0
LINE
  5
5E
330
1F
100
AcDbEntity
  8
0
  6
Continuous
 62
     7
370
    15
100
AcDbLine
 10
127.7738659454
 20
125.2105136041
 30
0.0
 11
127.2858701459
 21
125.2105136041
 31
0.0
  0
ARC
  5
5F
330
1F
100
AcDbEntity
  8
0
  6
Continuous
 62
     7
370
    15
100
AcDbCircle
 10
149.2238659454
 20
96.8568132033
 30
0.0
 40
1.000000000000028
100
AcDbArc
 50
90.0
 51
180.0
  0
ARC
  5
60
330
1F
100
AcDbEntity
  8
0
  6
Continuous
 62
     7
370
    15
100
AcDbCircle
 10
149.2238659454
 20
123.8568132033
 30
0.0
 40
1.000000000000028
100
AcDbArc
 50
180.0
 51
270.0
  0
LINE
  5
61
330
1F
100
AcDbEntity
  8
0
  6
Continuous
 62
     7
370
    15
100
AcDbLine
 10
239.7581558842
 20
97.8568132033
 30
0.0
 11
244.2738659454
 21
97.8568132033
 31
0.0
  0
LINE
  5
62
330
1F
100
AcDbEntity
  8
0
  6
Continuous
 62
     7
370
    15
100
AcDbLine
 10
149.2238659454
 20
97.8568132033
 30
0.0
 11
239.7581558842
 21
97.8568132033
 31
0.0
  0
LINE
  5
63
330
1F
100
AcDbEntity
  8
0
  6
Continuous
 62
     7
370
    15
100
AcDbLine
 10
244.2738659454
 20
122.8568132033
 30
0.0
 11
149.2238659454
 21
122.8568132033
 31
0.0
  0
ARC
  5
64
330
1F
100
AcDbEntity
  8
0
  6
Continuous
 62
     7
370
    15
100
AcDbCircle
 10
111.0738659454
 20
124.1368132033
 30
0.0
 40
0.8999999999999885
100
AcDbArc
 50
270.0
 51
311.1792132368
  0
ARC
  5
65
330
1F
100
AcDbEntity
  8
0
  6
Continuous
 62
     7
370
    15
100
AcDbCircle
 10
113.5738659454
 20
96.6358132033
 30
0.0
 40
0.9000000000000108
100
AcDbArc
 50
30.4426030216
 51
90.0
  0
LINE
  5
66
330
1F
100
AcDbEntity
  8
0
  6
Continuous
 62
     7
370
    15
100
AcDbLine
 10
109.3238659454
 20
123.2368132033
 30
0.0
 11
108.3738659454
 21
122.2868132033
 31
0.0
  0
LINE
  5
67
330
1F
100
AcDbEntity
  8
0
  6
Continuous
 62
     7
370
    15
100
AcDbLine
 10
111.0738659454
 20
123.2368132033
 30
0.0
 11
109.3238659454
 21
123.2368132033
 31
0.0
  0
LINE
  5
68
330
1F
100
AcDbEntity
  8
0
  6
Continuous
 62
     7
370
    15
100
AcDbLine
 10
109.3238659454
 20
97.5358132033
 30
0.0
 11
113.5738659454
 21
97.5358132033
 31
0.0
  0
LINE
  5
69
330
1F
100
AcDbEntity
  8
0
  6
Continuous
 62
     7
370
    15
100
AcDbLine
 10
108.3738659454
 20
98.4858132033
 30
0.0
 11
109.3238659454
 21
97.5358132033
 31
0.0
  0
LINE
  5
6A
330
1F
100
AcDbEntity
  8
0
  6
Continuous
 62
     7
370
    15
100
AcDbLine
 10
249.9851877543
 20
123.3568132033
 30
0.0
 11
244.7738659454
 21
123.3568132033
 31
0.0
  0
LINE
  5
6B
330
1F
100
AcDbEntity
  8
0
  6
Continuous
 62
     7
370
    15
100
AcDbLine
 10
244.7738659454
 20
123.3568132033
 30
0.0
 11
244.2738659454
 21
122.8568132033
 31
0.0
  0
CIRCLE
  5
6C
330
1F
100
AcDbEntity
  8
0
  6
Continuous
 62
     7
370
    15
100
AcDbCircle
 10
261.3341502565
 20
100.3198724207
 30
0.0
 40
3.494273726073266
  0
CIRCLE
  5
6D
330
1F
100
AcDbEntity
  8
0
  6
Continuous
 62
     7
370
    15
100
AcDbCircle
 10
261.3327308066
 20
100.2852210335
 30
0.0
 40
2.629662774366946
  0
CIRCLE
  5
6E
330
1F
100
AcDbEntity
  8
0
  6
Continuous
 62
     7
370
    15
100
AcDbCircle
 10
261.3319818704
 20
100.2853491372
 30
0.0
 40
1.996441320634918
  0
SPLINE
  5
6F
330
1F
100
AcDbEntity
  8
0
  6
Continuous
 62
     7
370
    15
100
AcDbSpline
210
0.0
220
0.0
230
1.0
 70
     8
 71
     3
 72
    15
 73
    11
 74
     0
 42
0.00000001
 43
0.00000001
 40
0.0
 40
0.0
 40
0.0
 40
0.0
 40
0.1262470803730132
 40
0.253363335051336
 40
0.3794185517357078
 40
0.5042689738351023
 40
0.6284502821607507
 40
0.7526361292231347
 40
0.8774891912115067
 40
1.0
 40
1.0
 40
1.0
 40
1.0
 10
261.4815524693312
 20
101.9879809803932
 30
0.0
 10
261.4616271655674
 20
102.0270363631742
 30
0.0
 10
261.4216393781384
 20
102.1054160136489
 30
0.0
 10
261.3154399452558
 20
102.1901082143488
 30
0.0
 10
261.1892565954849
 20
102.2368574191873
 30
0.0
 10
261.0546279355229
 20
102.2391552481068
 30
0.0
 10
260.9273179440898
 20
102.1978844084689
 30
0.0
 10
260.8217201119803
 20
102.1178311233711
 30
0.0
 10
260.7460398289855
 20
102.0090209843161
 30
0.0
 10
260.7297909190919
 20
101.9248414715198
 30
0.0
 10
260.7217433934499
 20
101.8831502570198
 30
0.0
  0
SPLINE
  5
70
330
1F
100
AcDbEntity
  8
0
  6
Continuous
 62
     7
370
    15
100
AcDbSpline
210
0.0
220
0.0
230
1.0
 70
     8
 71
     3
 72
    12
 73
     8
 74
     0
 42
0.00000001
 43
0.00000001
 40
0.0
 40
0.0
 40
0.0
 40
0.0
 40
0.2058748011360287
 40
0.4120995812663009
 40
0.6141693366125375
 40
0.8132901286728359
 40
1.0
 40
1.0
 40
1.0
 40
1.0
 10
260.7217433934499
 20
101.8831502570198
 30
0.0
 10
260.7071517716327
 20
101.8083976376825
 30
0.0
 10
260.6779437228202
 20
101.6587653225208
 30
0.0
 10
260.5419541958384
 20
101.4665621893754
 30
0.0
 10
260.356655763992
 20
101.3290624168556
 30
0.0
 10
260.1424299916631
 20
101.2558340797375
 30
0.0
 10
259.9984780821337
 20
101.2639861782308
 30
0.0
 10
259.9288173603301
 20
101.2679311141967
 30
0.0
  0
SPLINE
  5
71
330
1F
100
AcDbEntity
  8
0
  6
Continuous
 62
     7
370
    15
100
AcDbSpline
210
0.0
220
0.0
230
1.0
 70
     8
 71
     3
 72
    15
 73
    11
 74
     0
 42
0.00000001
 43
0.00000001
 40
0.0
 40
0.0
 40
0.0
 40
0.0
 40
0.1268765508970892
 40
0.2539936290345263
 40
0.38004963798838
 40
0.5049006370991528
 40
0.6290821973265683
 40
0.753267940771831
 40
0.8781205851189633
 40
1.0
 40
1.0
 40
1.0
 40
1.0
 10
259.9288173603301
 20
101.2679311141967
 30
0.0
 10
259.8843191680778
 20
101.2700016507197
 30
0.0
 10
259.795238425768
 20
101.274146649002
 30
0.0
 10
259.6675942540046
 20
101.2239296683698
 30
0.0
 10
259.5635054999142
 20
101.13779689749
 30
0.0
 10
259.4942147154248
 20
101.022418165002
 30
0.0
 10
259.4668133671382
 20
100.8918680302545
 30
0.0
 10
259.4843064769407
 20
100.7609704385637
 30
0.0
 10
259.5419198635673
 20
100.6419985702611
 30
0.0
 10
259.6075218796377
 20
100.5865049611093
 30
0.0
 10
259.639927621148
 20
100.559092517691
 30
0.0
  0
SPLINE
  5
72
330
1F
100
AcDbEntity
  8
0
  6
Continuous
 62
     7
370
    15
100
AcDbSpline
210
0.0
220
0.0
230
1.0
 70
     8
 71
     3
 72
    12
 73
     8
 74
     0
 42
0.00000001
 43
0.00000001
 40
0.0
 40
0.0
 40
0.0
 40
0.0
 40
0.2057949882088218
 40
0.4120010155283616
 40
0.6140549927930774
 40
0.813181082668416
 40
1.0
 40
1.0
 40
1.0
 40
1.0
 10
259.639927621148
 20
100.559092517691
 30
0.0
 10
259.6982034773784
 20
100.5095306214851
 30
0.0
 10
259.8148715855604
 20
100.4103078379466
 30
0.0
 10
259.9148673055657
 20
100.1974121159609
 30
0.0
 10
259.9415385440187
 20
99.96854475506777
 30
0.0
 10
259.8968487931998
 20
99.74613262637136
 30
0.0
 10
259.8164692344632
 20
99.6250526802226
 30
0.0
 10
259.7775610432485
 20
99.56644323061789
 30
0.0
  0
SPLINE
  5
73
330
1F
100
AcDbEntity
  8
0
  6
Continuous
 62
     7
370
    15
100
AcDbSpline
210
0.0
220
0.0
230
1.0
 70
     8
 71
     3
 72
    15
 73
    11
 74
     0
 42
0.00000001
 43
0.00000001
 40
0.0
 40
0.0
 40
0.0
 40
0.0
 40
0.1268036956060521
 40
0.2539263442698618
 40
0.379987267176628
 40
0.5048410097957085
 40
0.6290227167746371
 40
0.7532063308915079
 40
0.878055336159123
 40
1.0
 40
1.0
 40
1.0
 40
1.0
 10
259.7775610432485
 20
99.56644323061789
 30
0.0
 10
259.7531204026174
 20
99.52882521482394
 30
0.0
 10
259.7041776450944
 20
99.45349456153666
 30
0.0
 10
259.6830380936706
 20
99.31762747489267
 30
0.0
 10
259.7051872443548
 20
99.18430657176403
 30
0.0
 10
259.7705104726088
 20
99.06663860878278
 30
0.0
 10
259.8703335869926
 20
98.97778826795819
 30
0.0
 10
259.9932798498115
 20
98.92775924105787
 30
0.0
 10
260.1262739244987
 20
98.91852770309994
 30
0.0
 10
260.2080657449688
 20
98.94791476693558
 30
0.0
 10
260.2484803799479
 20
98.96243538099206
 30
0.0
  0
SPLINE
  5
74
330
1F
100
AcDbEntity
  8
0
  6
Continuous
 62
     7
370
    15
100
AcDbSpline
210
0.0
220
0.0
230
1.0
 70
     8
 71
     3
 72
    12
 73
     8
 74
     0
 42
0.00000001
 43
0.00000001
 40
0.0
 40
0.0
 40
0.0
 40
0.0
 40
0.2058497400954228
 40
0.4120524486337122
 40
0.6141081262895081
 40
0.8132431903675031
 40
1.0
 40
1.0
 40
1.0
 40
1.0
 10
260.2484803799479
 20
98.96243538099206
 30
0.0
 10
260.32136048724
 20
98.98840509407208
 30
0.0
 10
260.4672456685983
 20
99.0403890502334
 30
0.0
 10
260.7032006389971
 20
99.02094668541092
 30
0.0
 10
260.9151316669509
 20
98.92948574414494
 30
0.0
 10
261.0846574771813
 20
98.77898688806603
 30
0.0
 10
261.1482590989577
 20
98.64826811852348
 30
0.0
 10
261.1790398351681
 20
98.58500526687513
 30
0.0
  0
SPLINE
  5
75
330
1F
100
AcDbEntity
  8
0
  6
Continuous
 62
     7
370
    15
100
AcDbSpline
210
0.0
220
0.0
230
1.0
 70
     8
 71
     3
 72
    15
 73
    11
 74
     0
 42
0.00000001
 43
0.00000001
 40
0.0
 40
0.0
 40
0.0
 40
0.0
 40
0.1262564375372719
 40
0.253382097284179
 40
0.379445481130774
 40
0.5043002379034172
 40
0.628481453046599
 40
0.7526634909000627
 40
0.8775104621121567
 40
1.0
 40
1.0
 40
1.0
 40
1.0
 10
261.1790398351681
 20
98.58500526687513
 30
0.0
 10
261.1989662858869
 20
98.54501599182535
 30
0.0
 10
261.2389563725158
 20
98.46476213246873
 30
0.0
 10
261.3451628297343
 20
98.37802005614535
 30
0.0
 10
261.4713536560753
 20
98.32998687713004
 30
0.0
 10
261.6059869245989
 20
98.32728735852972
 30
0.0
 10
261.7332959753741
 20
98.36903142126376
 30
0.0
 10
261.8388880262117
 20
98.45040608334327
 30
0.0
 10
261.9145571417754
 20
98.56124636254448
 30
0.0
 10
261.9308032700864
 20
98.64724602558456
 30
0.0
 10
261.9388489110494
 20
98.68983601370489
 30
0.0
  0
SPLINE
  5
76
330
1F
100
AcDbEntity
  8
0
  6
Continuous
 62
     7
370
    15
100
AcDbSpline
210
0.0
220
0.0
230
1.0
 70
     8
 71
     3
 72
    12
 73
     8
 74
     0
 42
0.00000001
 43
0.00000001
 40
0.0
 40
0.0
 40
0.0
 40
0.0
 40
0.2058713741444194
 40
0.4120924153876792
 40
0.6141683533432613
 40
0.8133068872802974
 40
1.0
 40
1.0
 40
1.0
 40
1.0
 10
261.9388489110494
 20
98.6898360137049
 30
0.0
 10
261.9534403232457
 20
98.76619038702916
 30
0.0
 10
261.9826479307673
 20
98.91902881956685
 30
0.0
 10
262.1186359219546
 20
99.11380785679479
 30
0.0
 10
262.3039372918933
 20
99.25112102797995
 30
0.0
 10
262.5181673450845
 20
99.32162716121485
 30
0.0
 10
262.6621201966311
 20
99.31045907852149
 30
0.0
 10
262.7317749441692
 20
99.30505515652803
 30
0.0
  0
SPLINE
  5
77
330
1F
100
AcDbEntity
  8
0
  6
Continuous
 62
     7
370
    15
100
AcDbSpline
210
0.0
220
0.0
230
1.0
 70
     8
 71
     3
 72
    15
 73
    11
 74
     0
 42
0.00000001
 43
0.00000001
 40
0.0
 40
0.0
 40
0.0
 40
0.0
 40
0.1268702503424965
 40
0.2539810595565839
 40
0.3800301963394063
 40
0.5048749967544831
 40
0.6290527571813194
 40
0.7532384607996091
 40
0.878095394214186
 40
1.0
 40
1.0
 40
1.0
 40
1.0
 10
262.7317749441692
 20
99.30505515652803
 30
0.0
 10
262.7762717247035
 20
99.30204801570906
 30
0.0
 10
262.8653496561844
 20
99.29602803222693
 30
0.0
 10
262.9929907506137
 20
99.34419351661954
 30
0.0
 10
263.0970781906957
 20
99.42903818818753
 30
0.0
 10
263.166370780931
 20
99.54400573262242
 30
0.0
 10
263.1937777561609
 20
99.6750197159226
 30
0.0
 10
263.1762924797097
 20
99.80723573536595
 30
0.0
 10
263.1186833068643
 20
99.92825074867581
 30
0.0
 10
263.0530759091216
 20
99.98557468274561
 30
0.0
 10
263.0206646833512
 20
100.0138937295773
 30
0.0
  0
SPLINE
  5
78
330
1F
100
AcDbEntity
  8
0
  6
Continuous
 62
     7
370
    15
100
AcDbSpline
210
0.0
220
0.0
230
1.0
 70
     8
 71
     3
 72
    12
 73
     8
 74
     0
 42
0.00000001
 43
0.00000001
 40
0.0
 40
0.0
 40
0.0
 40
0.0
 40
0.2058321750920661
 40
0.4120750343576178
 40
0.6141697879283549
 40
0.8133029339856384
 40
1.0
 40
1.0
 40
1.0
 40
1.0
 10
263.0206646833512
 20
100.0138937295773
 30
0.0
 10
262.9623812698976
 20
100.0650657543313
 30
0.0
 10
262.8456981537103
 20
100.1675119042067
 30
0.0
 10
262.7457029437074
 20
100.3830214573331
 30
0.0
 10
262.7190545481259
 20
100.6117350448675
 30
0.0
 10
262.763779534365
 20
100.8314016624409
 30
0.0
 10
262.8441441228053
 20
100.9494306486524
 30
0.0
 10
262.8830312612507
 20
101.0065429865173
 30
0.0
  0
SPLINE
  5
79
330
1F
100
AcDbEntity
  8
0
  6
Continuous
 62
     7
370
    15
100
AcDbSpline
210
0.0
220
0.0
230
1.0
 70
     8
 71
     3
 72
    15
 73
    11
 74
     0
 42
0.00000001
 43
0.00000001
 40
0.0
 40
0.0
 40
0.0
 40
0.0
 40
0.1267880291974369
 40
0.2538950064075732
 40
0.3799409022877001
 40
0.5047841289691706
 40
0.6289621452108672
 40
0.7531495391280034
 40
0.8780089278148321
 40
1.0
 40
1.0
 40
1.0
 40
1.0
 10
262.8830312612507
 20
101.0065429865173
 30
0.0
 10
262.9074702666736
 20
101.0432218770092
 30
0.0
 10
262.9564097562902
 20
101.1166719274231
 30
0.0
 10
262.977553043231
 20
101.2504797557271
 30
0.0
 10
262.9554141353065
 20
101.3825085884456
 30
0.0
 10
262.8901060971594
 20
101.4997693297564
 30
0.0
 10
262.7902971230683
 20
101.5890954822496
 30
0.0
 10
262.6673578382756
 20
101.6404576456947
 30
0.0
 10
262.5343491581905
 20
101.6517391518574
 30
0.0
 10
262.4525408075705
 20
101.6241735069792
 30
0.0
 10
262.4121119245514
 20
101.6105508361432
 30
0.0
  0
SPLINE
  5
7A
330
1F
100
AcDbEntity
  8
0
  6
Continuous
 62
     7
370
    15
100
AcDbSpline
210
0.0
220
0.0
230
1.0
 70
     8
 71
     3
 72
    12
 73
     8
 74
     0
 42
0.00000001
 43
0.00000001
 40
0.0
 40
0.0
 40
0.0
 40
0.0
 40
0.2058903596432993
 40
0.4121336430767398
 40
0.6142239121176277
 40
0.8133482777367067
 40
0.9999999999999999
 40
0.9999999999999999
 40
0.9999999999999999
 40
0.9999999999999999
 10
262.4121119245514
 20
101.6105508361432
 30
0.0
 10
262.3392202734277
 20
101.5861809159838
 30
0.0
 10
262.1933120250788
 20
101.5373993023415
 30
0.0
 10
261.9573240293261
 20
101.5594380948679
 30
0.0
 10
261.7453781055415
 20
101.6507456957885
 30
0.0
 10
261.5758926139161
 20
101.7985372763421
 30
0.0
 10
261.5123139909646
 20
101.9262090101878
 30
0.0
 10
261.4815524693312
 20
101.9879809803932
 30
0.0
  0
LWPOLYLINE
  5
7B
330
1F
100
AcDbEntity
  8
0
  6
Continuous
 62
     7
370
    15
100
AcDbPolyline
 90
        3
 70
   128
 43
0.0
 10
262.9664075961
 20
101.313042402
 10
262.9472801916
 20
101.2358717279
 10
262.8830312613
 20
101.1215985438
  0
ARC
  5
7C
330
1F
100
AcDbEntity
  8
0
  6
Continuous
 62
     7
370
    15
100
AcDbCircle
 10
259.8668177854
 20
100.994824378
 30
0.0
 40
0.3928544416156681
100
AcDbArc
 50
190.0520479183
 51
234.7221148476
  0
ARC
  5
7D
330
1F
100
AcDbEntity
  8
0
  6
Continuous
 62
     7
370
    15
100
AcDbCircle
 10
263.4170006229
 20
100.6897720171
 30
0.0
 40
0.6867295160902287
100
AcDbArc
 50
141.0371748503
 51
179.9937142764
  0
ARC
  5
7E
330
1F
100
AcDbEntity
  8
0
  6
Continuous
 62
     7
370
    15
100
AcDbCircle
 10
259.2429784029
 20
100.1129793877
 30
0.0
 40
0.6873428377164775
100
AcDbArc
 50
0.0212059954
 51
54.7242112869
  0
ARC
  5
7F
330
1F
100
AcDbEntity
  8
0
  6
Continuous
 62
     7
370
    15
100
AcDbCircle
 10
262.7928433635
 20
99.8092279113
 30
0.0
 40
0.3938540006164528
100
AcDbArc
 50
261.0801041468
 51
351.5707732945
  0
ARC
  5
80
330
1F
100
AcDbEntity
  8
0
  6
Continuous
 62
     7
370
    15
100
AcDbCircle
 10
260.0841818495
 20
99.4356142047
 30
0.0
 40
0.3940130468742991
100
AcDbArc
 50
188.1032458986
 51
294.6445437413
  0
ARC
  5
81
330
1F
100
AcDbEntity
  8
0
  6
Continuous
 62
     7
370
    15
100
AcDbCircle
 10
262.6248583732
 20
98.7393452445
 30
0.0
 40
0.6891362486109969
100
AcDbArc
 50
81.074749721
 51
174.5399258812
  0
ARC
  5
82
330
1F
100
AcDbEntity
  8
0
  6
Continuous
 62
     7
370
    15
100
AcDbCircle
 10
260.5358544254
 20
98.4501346739
 30
0.0
 40
0.6900432772262962
100
AcDbArc
 50
21.2363314771
 51
114.6111675068
  0
ARC
  5
83
330
1F
100
AcDbEntity
  8
0
  6
Continuous
 62
     7
370
    15
100
AcDbCircle
 10
261.5464991331
 20
98.8426942376
 30
0.0
 40
0.3941641688382297
100
AcDbArc
 50
201.2117898173
 51
354.500398542
  0
ARC
  5
84
330
1F
100
AcDbEntity
  8
0
  6
Continuous
 62
     7
370
    15
100
AcDbCircle
 10
261.328491883
 20
100.3277641164
 30
0.0
 40
3.500005731539147
100
AcDbArc
 50
0.1036904939
 51
179.8963095061
  0
LINE
  5
85
330
1F
100
AcDbEntity
  8
0
  6
Continuous
 62
     7
370
    15
100
AcDbLine
 10
268.2723438247
 20
93.7906161977
 30
0.0
 11
267.2191907239
 21
105.7988882453
 31
0.0
  0
ARC
  5
86
330
1F
100
AcDbEntity
  8
0
  6
Continuous
 62
     7
370
    15
100
AcDbCircle
 10
267.8743082806
 20
93.7562822388
 30
0.0
 40
0.3995135980505997
100
AcDbArc
 50
264.9302140244
 51
4.9300462061
  0
LINE
  5
87
330
1F
100
AcDbEntity
  8
0
  6
Continuous
 62
     7
370
    15
100
AcDbLine
 10
255.8014086243
 20
94.4089192889
 30
0.0
 11
267.8390036483
 21
93.3583316163
 31
0.0
  0
ARC
  5
88
330
1F
100
AcDbEntity
  8
0
  6
Continuous
 62
     7
370
    15
100
AcDbCircle
 10
255.8357437668
 20
94.806954938
 30
0.0
 40
0.3995138043827766
100
AcDbArc
 50
185.0699537939
 51
265.0697859757
  0
LINE
  5
89
330
1F
100
AcDbEntity
  8
0
  6
Continuous
 62
     7
370
    15
100
AcDbLine
 10
254.3846399414
 20
106.7799211694
 30
0.0
 11
255.4377930421
 21
94.7716491218
 31
0.0
  0
ARC
  5
8A
330
1F
100
AcDbEntity
  8
0
  6
Continuous
 62
     7
370
    15
100
AcDbCircle
 10
254.7826754854
 20
106.8142551283
 30
0.0
 40
0.3995135980505184
100
AcDbArc
 50
84.9302140244
 51
184.9300462061
  0
LINE
  5
8B
330
1F
100
AcDbEntity
  8
0
  6
Continuous
 62
     7
370
    15
100
AcDbLine
 10
266.8555751418
 20
106.1616180781
 30
0.0
 11
254.8179801178
 21
107.2122057508
 31
0.0
  0
ARC
  5
8C
330
1F
100
AcDbEntity
  8
0
  6
Continuous
 62
     7
370
    15
100
AcDbCircle
 10
266.8212399993
 20
105.7635824291
 30
0.0
 40
0.3995138043828265
100
AcDbArc
 50
5.0699537939
 51
85.0697859757
  0
ARC
  5
8D
330
1F
100
AcDbEntity
  8
0
  6
Continuous
 62
     7
370
    15
100
AcDbCircle
 10
254.7826976022
 20
106.8142772991
 30
0.0
 40
0.3795379181481311
100
AcDbArc
 50
84.9302140244
 51
184.930046206
  0
LINE
  5
8E
330
1F
100
AcDbEntity
  8
0
  6
Continuous
 62
     7
370
    15
100
AcDbLine
 10
254.4045638354
 20
106.7816600381
 30
0.0
 11
255.4577169364
 21
94.7733879905
 31
0.0
  0
ARC
  5
8F
330
1F
100
AcDbEntity
  8
0
  6
Continuous
 62
     7
370
    15
100
AcDbCircle
 10
255.8357701252
 20
94.8069285163
 30
0.0
 40
0.3795381146289962
100
AcDbArc
 50
185.0699538432
 51
265.0697858713
  0
LINE
  5
90
330
1F
100
AcDbEntity
  8
0
  6
Continuous
 62
     7
370
    15
100
AcDbLine
 10
255.8031517391
 20
94.4287946493
 30
0.0
 11
267.8407467632
 21
93.3782069766
 31
0.0
  0
ARC
  5
91
330
1F
100
AcDbEntity
  8
0
  6
Continuous
 62
     7
370
    15
100
AcDbCircle
 10
267.8742861639
 20
93.756260068
 30
0.0
 40
0.3795379181481509
100
AcDbArc
 50
264.9302140244
 51
4.930046206
  0
LINE
  5
92
330
1F
100
AcDbEntity
  8
0
  6
Continuous
 62
     7
370
    15
100
AcDbLine
 10
268.2524199307
 20
93.788877329
 30
0.0
 11
267.19926683
 21
105.7971493765
 31
0.0
  0
ARC
  5
93
330
1F
100
AcDbEntity
  8
0
  6
Continuous
 62
     7
370
    15
100
AcDbCircle
 10
266.8212136416
 20
105.7636088512
 30
0.0
 40
0.3795381141636942
100
AcDbArc
 50
5.0699537939
 51
85.0697859757
  0
LINE
  5
94
330
1F
100
AcDbEntity
  8
0
  6
Continuous
 62
     7
370
    15
100
AcDbLine
 10
266.8538320269
 20
106.1417427177
 30
0.0
 11
254.8162370029
 21
107.1923303904
 31
0.0
  0
LINE
  5
95
330
1F
100
AcDbEntity
  8
0
  6
Continuous
 62
     7
370
    15
100
AcDbLine
 10
254.7831178207
 20
106.8300026328
 30
0.0
 11
254.4045638354
 21
106.7816600381
 31
0.0
  0
LINE
  5
96
330
1F
100
AcDbEntity
  8
0
  6
Continuous
 62
     7
370
    15
100
AcDbLine
 10
254.7831178207
 20
106.8300026328
 30
0.0
 11
254.8162370029
 21
107.1923303904
 31
0.0
  0
LINE
  5
97
330
1F
100
AcDbEntity
  8
0
  6
Continuous
 62
     7
370
    15
100
AcDbLine
 10
266.8207128447
 20
105.7794149601
 30
0.0
 11
266.8538320269
 21
106.1417427177
 31
0.0
  0
LINE
  5
98
330
1F
100
AcDbEntity
  8
0
  6
Continuous
 62
     7
370
    15
100
AcDbLine
 10
266.2470185155
 20
105.2321488455
 30
0.0
 11
266.8207128447
 21
105.7794149601
 31
0.0
  0
LINE
  5
99
330
1F
100
AcDbEntity
  8
0
  6
Continuous
 62
     7
370
    15
100
AcDbLine
 10
255.7021181652
 20
105.9468860453
 30
0.0
 11
254.7831178207
 21
106.8300026328
 31
0.0
  0
LINE
  5
9A
330
1F
100
AcDbEntity
  8
0
  6
Continuous
 62
     7
370
    15
100
AcDbLine
 10
255.8362709214
 20
94.8217305853
 30
0.0
 11
255.4577169364
 21
94.7733879905
 31
0.0
  0
LINE
  5
9B
330
1F
100
AcDbEntity
  8
0
  6
Continuous
 62
     7
370
    15
100
AcDbLine
 10
256.4099652506
 20
95.419058148
 30
0.0
 11
255.8362709214
 21
94.8217305853
 31
0.0
  0
LINE
  5
9C
330
1F
100
AcDbEntity
  8
0
  6
Continuous
 62
     7
370
    15
100
AcDbLine
 10
266.8207128447
 20
105.7794149601
 30
0.0
 11
267.19926683
 21
105.7971493765
 31
0.0
  0
LINE
  5
9D
330
1F
100
AcDbEntity
  8
0
  6
Continuous
 62
     7
370
    15
100
AcDbLine
 10
267.8738659454
 20
93.7711429126
 30
0.0
 11
268.2524199307
 21
93.788877329
 31
0.0
  0
LINE
  5
9E
330
1F
100
AcDbEntity
  8
0
  6
Continuous
 62
     7
370
    15
100
AcDbLine
 10
266.9548656009
 20
94.7215497367
 30
0.0
 11
267.8738659454
 21
93.7711429126
 31
0.0
  0
ARC
  5
9F
330
1F
100
AcDbEntity
  8
0
  6
Continuous
 62
     7
370
    15
100
AcDbCircle
 10
257.6641766955
 20
103.9384461009
 30
0.0
 40
0.9987839949515696
100
AcDbArc
 50
84.9302140094
 51
184.9300462359
  0
LINE
  5
A0
330
1F
100
AcDbEntity
  8
0
  6
Continuous
 62
     7
370
    15
100
AcDbLine
 10
264.4894452396
 20
104.3453466987
 30
0.0
 11
257.7524382766
 21
104.933322657
 31
0.0
  0
ARC
  5
A1
330
1F
100
AcDbEntity
  8
0
  6
Continuous
 62
     7
370
    15
100
AcDbCircle
 10
264.4036073834
 20
103.3502575762
 30
0.0
 40
0.9987845109570427
100
AcDbArc
 50
5.0699537939
 51
85.0697859757
  0
LINE
  5
A2
330
1F
100
AcDbEntity
  8
0
  6
Continuous
 62
     7
370
    15
100
AcDbLine
 10
265.9878959303
 20
96.7179261639
 30
0.0
 11
265.398484195
 21
103.4385221166
 31
0.0
  0
ARC
  5
A3
330
1F
100
AcDbEntity
  8
0
  6
Continuous
 62
     7
370
    15
100
AcDbCircle
 10
264.9928070703
 20
96.6320912666
 30
0.0
 40
0.9987839951264558
100
AcDbArc
 50
264.9302140244
 51
4.930046206
  0
LINE
  5
A4
330
1F
100
AcDbEntity
  8
0
  6
Continuous
 62
     7
370
    15
100
AcDbLine
 10
258.1675385265
 20
96.2251906683
 30
0.0
 11
264.9045454895
 21
95.6372147103
 31
0.0
  0
ARC
  5
A5
330
1F
100
AcDbEntity
  8
0
  6
Continuous
 62
     7
370
    15
100
AcDbCircle
 10
258.2533763827
 20
97.2202797908
 30
0.0
 40
0.9987845109570777
100
AcDbArc
 50
185.0699537939
 51
265.0697859757
  0
LINE
  5
A6
330
1F
100
AcDbEntity
  8
0
  6
Continuous
 62
     7
370
    15
100
AcDbLine
 10
256.6690878358
 20
103.8526112031
 30
0.0
 11
257.2584995711
 21
97.1320152504
 31
0.0
  0
CIRCLE
  5
A7
330
1F
100
AcDbEntity
  8
0
  6
Continuous
 62
     7
370
    15
100
AcDbCircle
 10
261.3308057788
 20
100.2789000608
 30
0.0
 40
3.796956981136866
  0
ARC
  5
A8
330
1F
100
AcDbEntity
  8
0
  6
Continuous
 62
     7
370
    15
100
AcDbCircle
 10
261.328491883
 20
100.3725763048
 30
0.0
 40
3.800006609883487
100
AcDbArc
 50
180.106866705
 51
359.893133295
  0
SPLINE
  5
A9
330
1F
100
AcDbEntity
  8
0
  6
Continuous
 62
     7
370
    15
100
AcDbSpline
210
0.0
220
0.0
230
1.0
 70
     8
 71
     3
 72
    11
 73
     7
 74
     0
 42
0.00000001
 43
0.00000001
 40
0.0
 40
0.0
 40
0.0
 40
0.0
 40
0.007628266008157
 40
0.3209888652312729
 40
0.6632168868587245
 40
1.0
 40
1.0
 40
1.0
 40
1.0
 10
256.1910457427543
 20
105.4538928604612
 30
0.0
 10
256.1899301820801
 20
105.4550689641015
 30
0.0
 10
256.1429886419533
 20
105.5045580842357
 30
0.0
 10
256.0389326692441
 20
105.6126201015246
 30
0.0
 10
255.8694848051544
 20
105.7841969943729
 30
0.0
 10
255.7576080029623
 20
105.8929470461765
 30
0.0
 10
255.7021181651655
 20
105.9468860452965
 30
0.0
  0
SPLINE
  5
AA
330
1F
100
AcDbEntity
  8
0
  6
Continuous
 62
     7
370
    15
100
AcDbSpline
210
0.0
220
0.0
230
1.0
 70
     8
 71
     3
 72
    11
 73
     7
 74
     0
 42
0.00000001
 43
0.00000001
 40
0.0
 40
0.0
 40
0.0
 40
0.0
 40
0.0081164391031162
 40
0.3263678516928515
 40
0.6627685813478674
 40
1.0
 40
1.0
 40
1.0
 40
1.0
 10
265.7563626820105
 20
104.7392019800093
 30
0.0
 10
265.7575553043673
 20
104.7404592730305
 30
0.0
 10
265.8055115067768
 20
104.7910159293496
 30
0.0
 10
265.9109901509725
 20
104.9003533301359
 30
0.0
 10
266.0824423200257
 20
105.0732229758809
 30
0.0
 10
266.1921147028454
 20
105.1791300225699
 30
0.0
 10
266.2470185154652
 20
105.2321488455134
 30
0.0
  0
LINE
  5
AB
330
1F
100
AcDbEntity
  8
0
  6
Continuous
 62
     7
370
    15
100
AcDbLine
 10
267.8738659454
 20
93.7711429126
 30
0.0
 11
267.8407467632
 21
93.3782069766
 31
0.0
  0
LINE
  5
AC
330
1F
100
AcDbEntity
  8
0
  6
Continuous
 62
     7
370
    15
100
AcDbLine
 10
255.8362709214
 20
94.8217305853
 30
0.0
 11
255.8031517391
 21
94.4287946493
 31
0.0
  0
SPLINE
  5
AD
330
1F
100
AcDbEntity
  8
0
  6
Continuous
 62
     7
370
    15
100
AcDbSpline
210
0.0
220
0.0
230
1.0
 70
     8
 71
     3
 72
    11
 73
     7
 74
     0
 42
0.00000001
 43
0.00000001
 40
0.0
 40
0.0
 40
0.0
 40
0.0
 40
0.337231418652117
 40
0.6736321483071392
 40
0.99188356089688
 40
1.0
 40
1.0
 40
1.0
 40
1.0
 10
256.4099652506146
 20
95.4190581480075
 30
0.0
 10
256.4648690632342
 20
95.47557946444716
 30
0.0
 10
256.5745414460539
 20
95.58848287057279
 30
0.0
 10
256.7459936151075
 20
95.75768226520125
 30
0.0
 10
256.8514722593023
 20
95.85878827145322
 30
0.0
 10
256.8994284617124
 20
95.90391038215638
 30
0.0
 10
256.9006210840692
 20
95.9050325235126
 30
0.0
  0
SPLINE
  5
AE
330
1F
100
AcDbEntity
  8
0
  6
Continuous
 62
     7
370
    15
100
AcDbSpline
210
0.0
220
0.0
230
1.0
 70
     8
 71
     3
 72
    11
 73
     7
 74
     0
 42
0.00000001
 43
0.00000001
 40
0.0
 40
0.0
 40
0.0
 40
0.0
 40
0.3367831131414221
 40
0.6790111347689766
 40
0.9923717339918563
 40
1.0
 40
1.0
 40
1.0
 40
1.0
 10
266.9548656009144
 20
94.72154973673942
 30
0.0
 10
266.8993757631176
 20
94.77832007230155
 30
0.0
 10
266.7874989609252
 20
94.89277857234833
 30
0.0
 10
266.6180510968358
 20
95.05927187471711
 30
0.0
 10
266.5139951241262
 20
95.15881485260992
 30
0.0
 10
266.4670535839996
 20
95.20298011826249
 30
0.0
 10
266.4659380233254
 20
95.20402970107115
 30
0.0
  0
LINE
  5
AF
330
1F
100
AcDbEntity
  8
0
  6
Continuous
 62
     7
370
    15
100
AcDbLine
 10
142.2387062465
 20
91.1279286803
 30
0.0
 11
142.2387062465
 21
122.2068132033
 31
0.0
  0
LINE
  5
B0
330
1F
100
AcDbEntity
  8
0
  6
Continuous
 62
     7
370
    15
100
AcDbLine
 10
142.2387062465
 20
91.1279286803
 30
0.0
 11
140.7238659454
 21
91.1279286803
 31
0.0
  0
SPLINE
  5
B1
330
1F
100
AcDbEntity
  8
0
  6
Continuous
 62
     7
370
    15
100
AcDbSpline
210
0.0
220
0.0
230
1.0
 70
     8
 71
     3
 72
    22
 73
    18
 74
     0
 42
0.00000001
 43
0.00000001
 40
0.0
 40
0.0
 40
0.0
 40
0.0
 40
0.125
 40
0.125
 40
0.2500000000000001
 40
0.2500000000000001
 40
0.3750000000000001
 40
0.3750000000000001
 40
0.5000000000000001
 40
0.5000000000000001
 40
0.6250000000000001
 40
0.6250000000000001
 40
0.7500000000000002
 40
0.7500000000000002
 40
0.8750000000000002
 40
0.8750000000000002
 40
1.0
 40
1.0
 40
1.0
 40
1.0
 10
140.7238659454171
 20
91.12792868026825
 30
0.0
 10
140.4247415163765
 20
91.12792868026825
 30
0.0
 10
140.1309190681278
 20
91.11941457920194
 30
0.0
 10
139.5533547918814
 20
91.08697081032005
 30
0.0
 10
139.2665371140674
 20
91.06263692161802
 30
0.0
 10
138.7220745851681
 20
91.00217689686119
 30
0.0
 10
138.4641193145468
 20
90.96626347608269
 30
0.0
 10
137.9760613711868
 20
90.88655345001355
 30
0.0
 10
137.7463630725231
 20
90.84267514882421
 30
0.0
 10
137.3339440895705
 20
90.75443152645404
 30
0.0
 10
137.1484171467104
 20
90.70962318499306
 30
0.0
 10
136.8198971018096
 20
90.62230217707389
 30
0.0
 10
136.6814832149101
 20
90.58101138849823
 30
0.0
 10
136.4568910682942
 20
90.5066731652044
 30
0.0
 10
136.36981225617
 20
90.47326303946973
 30
0.0
 10
136.2533104482149
 20
90.41824363794359
 30
0.0
 10
136.2238659454171
 20
90.39678187147726
 30
0.0
 10
136.2238659454171
 20
90.3818288478595
 30
0.0
  0
LINE
  5
B2
330
1F
100
AcDbEntity
  8
0
  6
Continuous
 62
     7
370
    15
100
AcDbLine
 10
136.2238659454
 20
90.3818288479
 30
0.0
 11
136.2238659454
 21
90.3568132033
 31
0.0
  0
SPLINE
  5
B3
330
1F
100
AcDbEntity
  8
0
  6
Continuous
 62
     7
370
    15
100
AcDbSpline
210
0.0
220
0.0
230
1.0
 70
     8
 71
     3
 72
    17
 73
    13
 74
     0
 42
0.00000001
 43
0.00000001
 40
0.0
 40
0.0
 40
0.0
 40
0.0
 40
0.1039928027398877
 40
0.2110507583651601
 40
0.3150299276010394
 40
0.4219351577673529
 40
0.5275775719344155
 40
0.6362134668260584
 40
0.7429488749763832
 40
0.8528788158890309
 40
0.9578277250162005
 40
1.0
 40
1.0
 40
1.0
 40
1.0
 10
140.7238659454171
 20
129.8439884732029
 30
0.0
 10
140.478048931005
 20
129.8467049507195
 30
0.0
 10
139.9791695283552
 20
129.8522179730141
 30
0.0
 10
139.2556861401187
 20
129.8953014497836
 30
0.0
 10
138.5678909008085
 20
129.9591677497321
 30
0.0
 10
137.9431452798987
 20
130.0385026330187
 30
0.0
 10
137.3871942121973
 20
130.1254405499657
 30
0.0
 10
136.9252076621068
 20
130.2094022368058
 30
0.0
 10
136.5629429542554
 20
130.2825637286901
 30
0.0
 10
136.3311636842741
 20
130.3327015842571
 30
0.0
 10
136.2215982467838
 20
130.357320178163
 30
0.0
 10
136.2354286658202
 20
130.354216220007
 30
0.0
 10
136.2393931542674
 20
130.3533264706641
 30
0.0
  0
LINE
  5
B4
330
1F
100
AcDbEntity
  8
0
  6
Continuous
 62
     7
370
    15
100
AcDbLine
 10
142.2387062465
 20
129.8439884732
 30
0.0
 11
140.7238659454
 21
129.8439884732
 31
0.0
  0
LINE
  5
B5
330
1F
100
AcDbEntity
  8
0
  6
Continuous
 62
     7
370
    15
100
AcDbLine
 10
142.2387062465
 20
126.4163172394
 30
0.0
 11
142.2387062465
 21
129.8439884732
 31
0.0
  0
SPLINE
  5
B6
330
1F
100
AcDbEntity
  8
0
  6
Continuous
 62
     7
370
    15
100
AcDbSpline
210
0.0
220
0.0
230
1.0
 70
     8
 71
     3
 72
    20
 73
    16
 74
     0
 42
0.00000001
 43
0.00000001
 40
0.0
 40
0.0
 40
0.0
 40
0.0
 40
0.2499999999999998
 40
0.2499999999999998
 40
0.3749999999999998
 40
0.3749999999999998
 40
0.4999999999999999
 40
0.4999999999999999
 40
0.6249999999999999
 40
0.6249999999999999
 40
0.7499999999999999
 40
0.7499999999999999
 40
0.875
 40
0.875
 40
1.0
 40
1.0
 40
1.0
 40
1.0
 10
136.2238659454172
 20
122.2068132032978
 30
0.0
 10
136.4476671750662
 20
122.7824575973959
 30
0.0
 10
136.7266145878276
 20
123.3120826423648
 30
0.0
 10
137.2585739665692
 20
124.0356900094515
 30
0.0
 10
137.4561626567757
 20
124.2662495152798
 30
0.0
 10
137.8913535402484
 20
124.6972922991968
 30
0.0
 10
138.1266729276541
 20
124.8958844522506
 30
0.0
 10
138.6358391569019
 20
125.2605211486448
 30
0.0
 10
138.9096496080793
 20
125.4265841960555
 30
0.0
 10
139.5004977931092
 20
125.726381055063
 30
0.0
 10
139.8125499683586
 20
125.8573194661979
 30
0.0
 10
140.4604955318644
 20
126.0803919880868
 30
0.0
 10
140.7978414292396
 20
126.1733014458962
 30
0.0
 10
141.5007595570263
 20
126.3229664026087
 30
0.0
 10
141.8673802315302
 20
126.3795490046751
 30
0.0
 10
142.2387062465237
 20
126.4163172394362
 30
0.0
  0
LINE
  5
B7
330
1F
100
AcDbEntity
  8
0
  6
Continuous
 62
     7
370
    15
100
AcDbLine
 10
136.2238659454
 20
122.2068132033
 30
0.0
 11
142.2387062465
 21
122.2068132033
 31
0.0
  0
LINE
  5
B8
330
1F
100
AcDbEntity
  8
0
  6
Continuous
 62
     7
370
    15
100
AcDbLine
 10
143.2338659454
 20
92.9276898153
 30
0.0
 11
143.2338659454
 21
122.2068132033
 31
0.0
  0
SPLINE
  5
B9
330
1F
100
AcDbEntity
  8
0
  6
Continuous
 62
     7
370
    15
100
AcDbSpline
210
0.0
220
0.0
230
1.0
 70
     8
 71
     3
 72
     8
 73
     4
 74
     0
 42
0.00000001
 43
0.00000001
 40
0.0
 40
0.0
 40
0.0
 40
0.0
 40
1.0
 40
1.0
 40
1.0
 40
1.0
 10
143.2338659454171
 20
92.92768981530796
 30
0.0
 10
142.9032273188025
 20
92.32716946419697
 30
0.0
 10
142.571411518229
 20
91.72730035349193
 30
0.0
 10
142.2387062465237
 20
91.12792868026827
 30
0.0
  0
SPLINE
  5
BA
330
1F
100
AcDbEntity
  8
0
  6
Continuous
 62
     7
370
    15
100
AcDbSpline
210
0.0
220
0.0
230
1.0
 70
    24
 71
     3
 72
     8
 73
     4
 74
     0
 42
0.00000001
 43
0.00000001
 40
0.0
 40
0.0
 40
0.0
 40
0.0
 40
1.0
 40
1.0
 40
1.0
 40
1.0
 10
142.2387062465237
 20
122.2068132032978
 30
0.0
 10
142.5778075809204
 20
122.2068132032978
 30
0.0
 10
142.9106298993679
 20
122.2068132032978
 30
0.0
 10
143.2338659454171
 20
122.2068132032978
 30
0.0
  0
LINE
  5
BB
330
1F
100
AcDbEntity
  8
0
  6
Continuous
 62
     7
370
    15
100
AcDbLine
 10
148.2238659454
 20
91.7527813822
 30
0.0
 11
148.2238659454
 21
122.2068132033
 31
0.0
  0
SPLINE
  5
BC
330
1F
100
AcDbEntity
  8
0
  6
Continuous
 62
     7
370
    15
100
AcDbSpline
210
0.0
220
0.0
230
1.0
 70
     8
 71
     3
 72
    10
 73
     6
 74
     0
 42
0.00000001
 43
0.00000001
 40
0.0
 40
0.0
 40
0.0
 40
0.0
 40
0.5
 40
0.5
 40
1.0
 40
1.0
 40
1.0
 40
1.0
 10
148.2238659454171
 20
91.75278138221117
 30
0.0
 10
148.2238659454171
 20
91.59314921330794
 30
0.0
 10
148.1622294317118
 20
91.43209957954392
 30
0.0
 10
147.9432030654689
 20
91.19910869586732
 30
0.0
 10
147.7855861774216
 20
91.12792868026834
 30
0.0
 10
147.6238659454172
 20
91.12792868026834
 30
0.0
  0
SPLINE
  5
BD
330
1F
100
AcDbEntity
  8
0
  6
Continuous
 62
     7
370
    15
100
AcDbSpline
210
0.0
220
0.0
230
1.0
 70
    24
 71
     3
 72
    12
 73
     8
 74
     0
 42
0.00000001
 43
0.00000001
 40
0.0
 40
0.0
 40
0.0
 40
0.0
 40
0.25
 40
0.25
 40
0.5
 40
0.5
 40
1.0
 40
1.0
 40
1.0
 40
1.0
 10
147.6238659454172
 20
122.2068132032978
 30
0.0
 10
147.7133819567075
 20
122.2068132032978
 30
0.0
 10
147.801009460628
 20
122.2068132032978
 30
0.0
 10
147.9542733191078
 20
122.2068132032978
 30
0.0
 10
148.0200370839647
 20
122.2068132032978
 30
0.0
 10
148.1752747429589
 20
122.2068132032978
 30
0.0
 10
148.2238659454171
 20
122.2068132032978
 30
0.0
 10
148.2238659454171
 20
122.2068132032978
 30
0.0
  0
LINE
  5
BE
330
1F
100
AcDbEntity
  8
0
  6
Continuous
 62
     7
370
    15
100
AcDbLine
 10
146.3090256443
 20
91.1279286803
 30
0.0
 11
146.3090256443
 21
122.2068132033
 31
0.0
  0
SPLINE
  5
BF
330
1F
100
AcDbEntity
  8
0
  6
Continuous
 62
     7
370
    15
100
AcDbSpline
210
0.0
220
0.0
230
1.0
 70
     8
 71
     3
 72
     8
 73
     4
 74
     0
 42
0.00000001
 43
0.00000001
 40
0.0
 40
0.0
 40
0.0
 40
0.0
 40
1.0
 40
1.0
 40
1.0
 40
1.0
 10
146.3090256443106
 20
91.12792868026828
 30
0.0
 10
145.9763203726053
 20
91.72730035349194
 30
0.0
 10
145.6445045720318
 20
92.32716946419697
 30
0.0
 10
145.3138659454172
 20
92.92768981530797
 30
0.0
  0
LINE
  5
C0
330
1F
100
AcDbEntity
  8
0
  6
Continuous
 62
     7
370
    15
100
AcDbLine
 10
145.3138659454
 20
92.9276898153
 30
0.0
 11
145.3138659454
 21
122.2068132033
 31
0.0
  0
SPLINE
  5
C1
330
1F
100
AcDbEntity
  8
0
  6
Continuous
 62
     7
370
    15
100
AcDbSpline
210
0.0
220
0.0
230
1.0
 70
    24
 71
     3
 72
     8
 73
     4
 74
     0
 42
0.00000001
 43
0.00000001
 40
0.0
 40
0.0
 40
0.0
 40
0.0
 40
1.0
 40
1.0
 40
1.0
 40
1.0
 10
145.3138659454172
 20
122.2068132032978
 30
0.0
 10
145.6373702454936
 20
122.2068132032978
 30
0.0
 10
145.9700011159488
 20
122.2068132032978
 30
0.0
 10
146.3090256443106
 20
122.2068132032978
 30
0.0
  0
LINE
  5
C2
330
1F
100
AcDbEntity
  8
0
  6
Continuous
 62
     7
370
    15
100
AcDbLine
 10
147.6238659454
 20
91.1279286803
 30
0.0
 11
146.3090256443
 21
91.1279286803
 31
0.0
  0
LINE
  5
C3
330
1F
100
AcDbEntity
  8
0
  6
Continuous
 62
     7
370
    15
100
AcDbLine
 10
146.3090256443
 20
122.2068132033
 30
0.0
 11
147.6238659454
 21
122.2068132033
 31
0.0
  0
LINE
  5
C4
330
1F
100
AcDbEntity
  8
0
  6
Continuous
 62
     7
370
    15
100
AcDbLine
 10
128.2738659454
 20
90.6568132033
 30
0.0
 11
128.2738659454
 21
130.0568131826
 31
0.0
  0
SPLINE
  5
C5
330
1F
100
AcDbEntity
  8
0
  6
Continuous
 62
     7
370
    15
100
AcDbSpline
210
0.0
220
0.0
230
1.0
 70
    24
 71
     3
 72
    16
 73
    12
 74
     0
 42
0.00000001
 43
0.00000001
 40
0.0
 40
0.0
 40
0.0
 40
0.0
 40
0.5000000000000044
 40
0.5000000000000044
 40
0.750000000000005
 40
0.750000000000005
 40
0.8750000000000046
 40
0.8750000000000046
 40
0.9375000000000023
 40
0.9375000000000023
 40
1.0
 40
1.0
 40
1.0
 40
1.0
 10
145.2786435448359
 20
93.45681320329767
 30
0.0
 10
145.2486692269817
 20
93.45681320329766
 30
0.0
 10
145.2021528323765
 20
93.45681320329767
 30
0.0
 10
145.0922915266422
 20
93.45681320329767
 30
0.0
 10
145.0491388761127
 20
93.45681320329767
 30
0.0
 10
144.9603548229989
 20
93.45681320329766
 30
0.0
 10
144.9271656551204
 20
93.45681320329767
 30
0.0
 10
144.8624193547707
 20
93.45681320329766
 30
0.0
 10
144.8381481437884
 20
93.45681320329767
 30
0.0
 10
144.7816868665694
 20
93.45681320329766
 30
0.0
 10
144.7488832604959
 20
93.45681320329768
 30
0.0
 10
144.7138659454172
 20
93.45681320329768
 30
0.0
  0
SPLINE
  5
C6
330
1F
100
AcDbEntity
  8
0
  6
Continuous
 62
     7
370
    15
100
AcDbSpline
210
0.0
220
0.0
230
1.0
 70
    24
 71
     3
 72
    12
 73
     8
 74
     0
 42
0.00000001
 43
0.00000001
 40
0.0
 40
0.0
 40
0.0
 40
0.0
 40
0.2500000000000012
 40
0.2500000000000012
 40
0.5000000000000024
 40
0.5000000000000024
 40
1.0
 40
1.0
 40
1.0
 40
1.0
 10
144.7138659454172
 20
122.2068132032978
 30
0.0
 10
144.8076519397968
 20
122.2068132032978
 30
0.0
 10
144.8986844166036
 20
122.2068132032978
 30
0.0
 10
145.0526472612773
 20
122.2068132032978
 30
0.0
 10
145.1170882937152
 20
122.2068132032978
 30
0.0
 10
145.2675603958465
 20
122.2068132032978
 30
0.0
 10
145.3138659454172
 20
122.2068132032978
 30
0.0
 10
145.3138659454172
 20
122.2068132032978
 30
0.0
  0
SPLINE
  5
C7
330
1F
100
AcDbEntity
  8
0
  6
Continuous
 62
     7
370
    15
100
AcDbSpline
210
0.0
220
0.0
230
1.0
 70
    24
 71
     3
 72
    16
 73
    12
 74
     0
 42
0.00000001
 43
0.00000001
 40
0.0
 40
0.0
 40
0.0
 40
0.0
 40
0.0624999999999998
 40
0.0624999999999998
 40
0.1249999999999996
 40
0.1249999999999996
 40
0.2500000000000004
 40
0.2500000000000004
 40
0.5000000000000007
 40
0.5000000000000007
 40
1.0
 40
1.0
 40
1.0
 40
1.0
 10
143.8338659453906
 20
93.45681320329767
 30
0.0
 10
143.7993872782054
 20
93.45681320329766
 30
0.0
 10
143.7655671013683
 20
93.45681320329767
 30
0.0
 10
143.7090450341847
 20
93.45681320329767
 30
0.0
 10
143.6847189546584
 20
93.45681320329767
 30
0.0
 10
143.6202660551072
 20
93.45681320329767
 30
0.0
 10
143.5866377797486
 20
93.45681320329766
 30
0.0
 10
143.4985604642237
 20
93.45681320329767
 30
0.0
 10
143.4557410109562
 20
93.45681320329767
 30
0.0
 10
143.3450843767591
 20
93.45681320329767
 30
0.0
 10
143.2988517908152
 20
93.45681320329767
 30
0.0
 10
143.2690883459985
 20
93.45681320329767
 30
0.0
  0
SPLINE
  5
C8
330
1F
100
AcDbEntity
  8
0
  6
Continuous
 62
     7
370
    15
100
AcDbSpline
210
0.0
220
0.0
230
1.0
 70
    24
 71
     3
 72
    14
 73
    10
 74
     0
 42
0.00000001
 43
0.00000001
 40
0.0
 40
0.0
 40
0.0
 40
0.0
 40
0.25
 40
0.25
 40
0.5
 40
0.5
 40
0.75
 40
0.75
 40
1.0
 40
1.0
 40
1.0
 40
1.0
 10
143.2338659454171
 20
122.2068132032978
 30
0.0
 10
143.2338659454171
 20
122.2068132032978
 30
0.0
 10
143.2458924463048
 20
122.2068132032978
 30
0.0
 10
143.2940455772659
 20
122.2068132032978
 30
0.0
 10
143.3307728288441
 20
122.2068132032978
 30
0.0
 10
143.4303475489742
 20
122.2068132032978
 30
0.0
 10
143.4941075684583
 20
122.2068132032978
 30
0.0
 10
143.6497604956751
 20
122.2068132032978
 30
0.0
 10
143.7414414758136
 20
122.2068132032978
 30
0.0
 10
143.8338659454171
 20
122.2068132032978
 30
0.0
  0
LINE
  5
C9
330
1F
100
AcDbEntity
  8
0
  6
Continuous
 62
     7
370
    15
100
AcDbLine
 10
144.7138659454
 20
93.4568132033
 30
0.0
 11
143.8338659454
 21
93.4568132033
 31
0.0
  0
LINE
  5
CA
330
1F
100
AcDbEntity
  8
0
  6
Continuous
 62
     7
370
    15
100
AcDbLine
 10
143.8338659454
 20
122.2068132033
 30
0.0
 11
144.7138659454
 21
122.2068132033
 31
0.0
  0
SPLINE
  5
CB
330
1F
100
AcDbEntity
  8
0
  6
Continuous
 62
     7
370
    15
100
AcDbSpline
210
0.0
220
0.0
230
1.0
 70
     8
 71
     3
 72
     8
 73
     4
 74
     0
 42
0.00000001
 43
0.00000001
 40
0.0
 40
0.0
 40
0.0
 40
0.0
 40
1.0
 40
1.0
 40
1.0
 40
1.0
 10
143.2338659454171
 20
123.8724450261013
 30
0.0
 10
143.2338659454171
 20
123.7510015773872
 30
0.0
 10
143.2541728700936
 20
123.6302396182382
 30
0.0
 10
143.2965554863814
 20
123.5154682344251
 30
0.0
  0
SPLINE
  5
CC
330
1F
100
AcDbEntity
  8
0
  6
Continuous
 62
     7
370
    15
100
AcDbSpline
210
0.0
220
0.0
230
1.0
 70
     8
 71
     3
 72
     8
 73
     4
 74
     0
 42
0.00000001
 43
0.00000001
 40
0.0
 40
0.0
 40
0.0
 40
0.0
 40
1.0
 40
1.0
 40
1.0
 40
1.0
 10
142.2387062465238
 20
126.4163172394362
 30
0.0
 10
142.5830313590944
 20
125.7076883327426
 30
0.0
 10
142.9155415794525
 20
124.9927887601009
 30
0.0
 10
143.2338659454172
 20
124.2706919092284
 30
0.0
  0
LINE
  5
CD
330
1F
100
AcDbEntity
  8
0
  6
Continuous
 62
     7
370
    15
100
AcDbLine
 10
143.2338659454
 20
124.2706919092
 30
0.0
 11
143.2338659454
 21
123.8724450261
 31
0.0
  0
LINE
  5
CE
330
1F
100
AcDbEntity
  8
0
  6
Continuous
 62
     7
370
    15
100
AcDbLine
 10
114.4738659454
 20
95.8442951672
 30
0.0
 11
114.4738659454
 21
96.7532370176
 31
0.0
  0
SPLINE
  5
CF
330
1F
100
AcDbEntity
  8
0
  6
Continuous
 62
     7
370
    15
100
AcDbSpline
210
0.0
220
0.0
230
1.0
 70
     8
 71
     3
 72
    10
 73
     6
 74
     0
 42
0.00000001
 43
0.00000001
 40
0.0
 40
0.0
 40
0.0
 40
0.0
 40
0.5
 40
0.5
 40
1.0
 40
1.0
 40
1.0
 40
1.0
 10
114.1826307429318
 20
97.42280985608981
 30
0.0
 10
114.2205051458765
 20
97.29664774803717
 30
0.0
 10
114.3012961932024
 20
97.17868870705527
 30
0.0
 10
114.4264261357937
 20
96.95564272446629
 30
0.0
 10
114.4738659454171
 20
96.85084765097093
 30
0.0
 10
114.4738659454171
 20
96.75323701757351
 30
0.0
  0
SPLINE
  5
D0
330
1F
100
AcDbEntity
  8
0
  6
Continuous
 62
     7
370
    15
100
AcDbSpline
210
0.0
220
0.0
230
1.0
 70
     8
 71
     3
 72
    16
 73
    12
 74
     0
 42
0.00000001
 43
0.00000001
 40
0.0
 40
0.0
 40
0.0
 40
0.0
 40
0.062500000000001
 40
0.062500000000001
 40
0.1250000000000019
 40
0.1250000000000019
 40
0.2500000000000018
 40
0.2500000000000018
 40
0.5000000000000012
 40
0.5000000000000012
 40
1.0
 40
1.0
 40
1.0
 40
1.0
 10
113.5738659454171
 20
98.07293990474474
 30
0.0
 10
113.6051817447443
 20
98.07554452663682
 30
0.0
 10
113.6378960831699
 20
98.0737756261769
 30
0.0
 10
113.6992026366468
 20
98.06224073172694
 30
0.0
 10
113.7277135268647
 20
98.05271375438075
 30
0.0
 10
113.803607500221
 20
98.01920015425586
 30
0.0
 10
113.8429470852541
 20
97.99081263993602
 30
0.0
 10
113.9443828662355
 20
97.9027916897281
 30
0.0
 10
113.9892082258415
 20
97.841159037521
 30
0.0
 10
114.1034905808067
 20
97.6577708438458
 30
0.0
 10
114.1483044886495
 20
97.53715284938093
 30
0.0
 10
114.1826307429318
 20
97.42280985608981
 30
0.0
  0
SPLINE
  5
D1
330
1F
100
AcDbEntity
  8
0
  6
Continuous
 62
     7
370
    15
100
AcDbSpline
210
0.0
220
0.0
230
1.0
 70
     8
 71
     3
 72
    10
 73
     6
 74
     0
 42
0.00000001
 43
0.00000001
 40
0.0
 40
0.0
 40
0.0
 40
0.0
 40
0.5
 40
0.5
 40
1.0
 40
1.0
 40
1.0
 40
1.0
 10
109.4840745107016
 20
97.64563294084648
 30
0.0
 10
110.1478896163853
 20
97.73934212791141
 30
0.0
 10
110.8258772846629
 20
97.81516032433659
 30
0.0
 10
112.1923029767085
 20
97.95360452198447
 30
0.0
 10
112.8814394130749
 20
98.01534886943575
 30
0.0
 10
113.5738659454171
 20
98.07293990474477
 30
0.0
  0
SPLINE
  5
D2
330
1F
100
AcDbEntity
  8
0
  6
Continuous
 62
     7
370
    15
100
AcDbSpline
210
0.0
220
0.0
230
1.0
 70
     8
 71
     3
 72
     8
 73
     4
 74
     0
 42
0.00000001
 43
0.00000001
 40
0.0000002108190109
 40
0.0000002108190109
 40
0.0000002108190109
 40
0.0000002108190109
 40
0.0001710235456397
 40
0.0001710235456397
 40
0.0001710235456397
 40
0.0001710235456397
 10
109.3238659454172
 20
97.62627765233827
 30
0.0
 10
109.377854131507
 20
97.63190779494182
 30
0.0
 10
109.4314437915829
 20
97.63820318840335
 30
0.0
 10
109.4840745107017
 20
97.64563294084651
 30
0.0
  0
SPLINE
  5
D3
330
1F
100
AcDbEntity
  8
0
  6
Continuous
 62
     7
370
    15
100
AcDbSpline
210
0.0
220
0.0
230
1.0
 70
     8
 71
     3
 72
     8
 73
     4
 74
     0
 42
0.00000001
 43
0.00000001
 40
0.000003532078448
 40
0.000003532078448
 40
0.000003532078448
 40
0.000003532078448
 40
0.0000638548434643
 40
0.0000638548434643
 40
0.0000638548434643
 40
0.0000638548434643
 10
109.315349795848
 20
97.65363550375417
 30
0.0
 10
109.3178989669701
 20
97.64447430041544
 30
0.0
 10
109.3207408897519
 20
97.63535329710672
 30
0.0
 10
109.323865945417
 20
97.62627765233837
 30
0.0
  0
ELLIPSE
  5
D4
330
1F
100
AcDbEntity
  8
0
  6
Continuous
 62
     7
370
    15
100
AcDbEllipse
 10
95.8471237376
 20
109.7175155255
 30
0.0
 11
13.37355272666618
 21
-13.37146352987012
 31
0.0
210
0.0
220
0.0
230
1.0
 40
0.1761188775
 41
0.3023035477142525
 42
0.3822730435340386
  0
ELLIPSE
  5
D5
330
1F
100
AcDbEntity
  8
0
  6
Continuous
 62
     7
370
    15
100
AcDbEllipse
 10
95.7677453069
 20
110.9959236546
 30
0.0
 11
13.369636111343
 21
13.36754752639487
 31
0.0
210
0.0
220
0.0
230
1.0
 40
0.1761188775
 41
5.933076931846602
 42
5.976720052691192
  0
SPLINE
  5
D6
330
1F
100
AcDbEntity
  8
0
  6
Continuous
 62
     7
370
    15
100
AcDbSpline
210
0.0
220
0.0
230
1.0
 70
     8
 71
     3
 72
     8
 73
     4
 74
     0
 42
0.00000001
 43
0.00000001
 40
0.0
 40
0.0
 40
0.0
 40
0.0
 40
1.0
 40
1.0
 40
1.0
 40
1.0
 10
109.3238659454171
 20
123.2223937502761
 30
0.0
 10
109.2781010377278
 20
123.1608733711172
 30
0.0
 10
109.2437139160978
 20
123.0969785113678
 30
0.0
 10
109.2246986624249
 20
123.0302485663241
 30
0.0
  0
SPLINE
  5
D7
330
1F
100
AcDbEntity
  8
0
  6
Continuous
 62
     7
370
    15
100
AcDbSpline
210
0.0
220
0.0
230
1.0
 70
     8
 71
     3
 72
    12
 73
     8
 74
     0
 42
0.00000001
 43
0.00000001
 40
0.0
 40
0.0
 40
0.0
 40
0.0
 40
0.2500000000000015
 40
0.2500000000000015
 40
0.500000000000003
 40
0.500000000000003
 40
1.0
 40
1.0
 40
1.0
 40
1.0
 10
111.0738659454173
 20
123.1376070619571
 30
0.0
 10
110.931823542228
 20
123.1534327901332
 30
0.0
 10
110.7877054357239
 20
123.1644539239086
 30
0.0
 10
110.4979509220514
 20
123.1829902857757
 30
0.0
 10
110.3522090186926
 20
123.1902609915115
 30
0.0
 10
109.9135287795127
 20
123.2087218418395
 30
0.0
 10
109.6191531634415
 20
123.216600708663
 30
0.0
 10
109.3238659454172
 20
123.2223937502761
 30
0.0
  0
SPLINE
  5
D8
330
1F
100
AcDbEntity
  8
0
  6
Continuous
 62
     7
370
    15
100
AcDbSpline
210
0.0
220
0.0
230
1.0
 70
     8
 71
     3
 72
    20
 73
    16
 74
     0
 42
0.00000001
 43
0.00000001
 40
0.0
 40
0.0
 40
0.0
 40
0.0
 40
0.2499999999999983
 40
0.2499999999999983
 40
0.4999999999999967
 40
0.4999999999999967
 40
0.749999999999995
 40
0.749999999999995
 40
0.8749999999999954
 40
0.8749999999999954
 40
0.9374999999999978
 40
0.9374999999999978
 40
0.9687499999999989
 40
0.9687499999999989
 40
1.0
 40
1.0
 40
1.0
 40
1.0
 10
111.9738659454181
 20
123.9143373250456
 30
0.0
 10
111.9738659454181
 20
123.8537279253482
 30
0.0
 10
111.9484709258412
 20
123.7879019599447
 30
0.0
 10
111.8621777400592
 20
123.653854190598
 30
0.0
 10
111.801541761376
 20
123.5851588324563
 30
0.0
 10
111.6534399671547
 20
123.4447602808018
 30
0.0
 10
111.566670360376
 20
123.3730567762205
 30
0.0
 10
111.4180325650468
 20
123.2668933744716
 30
0.0
 10
111.3657433481606
 20
123.2313650258401
 30
0.0
 10
111.2749795198507
 20
123.1816610953246
 30
0.0
 10
111.2426135273987
 20
123.1654000973096
 30
0.0
 10
111.1849243717324
 20
123.1462875289636
 30
0.0
 10
111.1639373438451
 20
123.1408963868821
 30
0.0
 10
111.1186483648547
 20
123.1351590184896
 30
0.0
 10
111.0956340960163
 20
123.1351817521431
 30
0.0
 10
111.0738659454166
 20
123.1376070619559
 30
0.0
  0
LINE
  5
D9
330
1F
100
AcDbEntity
  8
0
  6
Continuous
 62
     7
370
    15
100
AcDbLine
 10
111.9738659454
 20
123.914337325
 30
0.0
 11
111.9738659454
 21
124.7440807384
 31
0.0
  0
LINE
  5
DA
330
1F
100
AcDbEntity
  8
0
  6
Continuous
 62
     7
370
    15
100
AcDbLine
 10
126.2738659454
 20
95.2531128025
 30
0.0
 11
126.2738659454
 21
125.4605136041
 31
0.0
  0
SPLINE
  5
DB
330
1F
100
AcDbEntity
  8
0
  6
Continuous
 62
     7
370
    15
100
AcDbSpline
210
0.0
220
0.0
230
1.0
 70
     8
 71
     3
 72
    18
 73
    14
 74
     0
 42
0.00000001
 43
0.00000001
 40
0.0
 40
0.0
 40
0.0
 40
0.0
 40
0.0647987051964533
 40
0.1911457418934235
 40
0.3159453219936768
 40
0.3775977181138804
 40
0.4397856484594565
 40
0.5017220926040681
 40
0.5630628839447089
 40
0.6866516283643279
 40
0.811802158222269
 40
0.9380327414081004
 40
1.0
 40
1.0
 40
1.0
 40
1.0
 10
119.5115124020552
 20
95.60273221402464
 30
0.0
 10
119.5008674466128
 20
95.60129748996114
 30
0.0
 10
119.4694665428556
 20
95.5970652850938
 30
0.0
 10
119.8883497383229
 20
95.65788138770777
 30
0.0
 10
120.5329131243538
 20
95.72343413917335
 30
0.0
 10
121.186574851595
 20
95.75363614365492
 30
0.0
 10
121.7177596552524
 20
95.75721276123184
 30
0.0
 10
122.2691670816893
 20
95.74013158770042
 30
0.0
 10
123.0000688899026
 20
95.6871142187211
 30
0.0
 10
123.8619405602032
 20
95.56933008782165
 30
0.0
 10
124.6282446836922
 20
95.41678759715941
 30
0.0
 10
125.0287241235554
 20
95.31759493126799
 30
0.0
 10
124.9974666527381
 20
95.32554072733193
 30
0.0
 10
124.9871746124109
 20
95.3281570123794
 30
0.0
  0
SPLINE
  5
DC
330
1F
100
AcDbEntity
  8
0
  6
Continuous
 62
     7
370
    15
100
AcDbSpline
210
0.0
220
0.0
230
1.0
 70
     8
 71
     3
 72
    18
 73
    14
 74
     0
 42
0.00000001
 43
0.00000001
 40
0.0
 40
0.0
 40
0.0
 40
0.0
 40
0.0628581874977814
 40
0.1888210925071328
 40
0.3136429531910614
 40
0.4369193488098661
 40
0.4982390280781325
 40
0.5602488697629628
 40
0.6224807882811995
 40
0.6842568515517162
 40
0.8091590186753604
 40
0.9354526810760696
 40
1.0
 40
1.0
 40
1.0
 40
1.0
 10
124.9870948665096
 20
125.385297329252
 30
0.0
 10
124.9977549000754
 20
125.38794082163
 30
0.0
 10
125.0297768094589
 20
125.3958816665494
 30
0.0
 10
124.6243030180019
 20
125.2961883126631
 30
0.0
 10
123.8613660640579
 20
125.1437702431117
 30
0.0
 10
122.9999634679605
 20
125.0264910381017
 30
0.0
 10
122.2698366293885
 20
124.9735930925425
 30
0.0
 10
121.7180567572474
 20
124.9564875957863
 30
0.0
 10
121.1860893008724
 20
124.9600321609685
 30
0.0
 10
120.531469668336
 20
124.990223231085
 30
0.0
 10
119.8870635411493
 20
125.0558863924301
 30
0.0
 10
119.4696305494501
 20
125.1167115746918
 30
0.0
 10
119.4999435874557
 20
125.1122247836312
 30
0.0
 10
119.5101962350691
 20
125.110707235715
 30
0.0
  0
SPLINE
  5
DD
330
1F
100
AcDbEntity
  8
0
  6
Continuous
 62
     7
370
    15
100
AcDbSpline
210
0.0
220
0.0
230
1.0
 70
     8
 71
     3
 72
    26
 73
    22
 74
     0
 42
0.00000001
 43
0.00000001
 40
0.0
 40
0.0
 40
0.0
 40
0.0
 40
0.2500000000000038
 40
0.2500000000000038
 40
0.3750000000000044
 40
0.3750000000000044
 40
0.4375000000000045
 40
0.4375000000000045
 40
0.4687500000000048
 40
0.4687500000000048
 40
0.5000000000000052
 40
0.5000000000000052
 40
0.5312500000000056
 40
0.5312500000000056
 40
0.5625000000000059
 40
0.5625000000000059
 40
0.6250000000000051
 40
0.6250000000000051
 40
0.7500000000000031
 40
0.7500000000000031
 40
1.0
 40
1.0
 40
1.0
 40
1.0
 10
109.133835991805
 20
122.7448937829107
 30
0.0
 10
109.0864478823765
 20
122.6092380408875
 30
0.0
 10
109.0288065804721
 20
122.4652766425582
 30
0.0
 10
108.9067587679287
 20
122.2225040693037
 30
0.0
 10
108.8607097601521
 20
122.1374644288543
 30
0.0
 10
108.7700564759864
 20
121.9970884558138
 30
0.0
 10
108.7357039757008
 20
121.947177078475
 30
0.0
 10
108.6732688033102
 20
121.8706418136207
 30
0.0
 10
108.6499747845121
 20
121.8442373346337
 30
0.0
 10
108.6009222473855
 20
121.7966425693728
 30
0.0
 10
108.5764907977287
 20
121.777199955521
 30
0.0
 10
108.535861202109
 20
121.752292177853
 30
0.0
 10
108.5196989202578
 20
121.7462223465421
 30
0.0
 10
108.4927168761547
 20
121.7405334749484
 30
0.0
 10
108.4819673533319
 20
121.7409239830292
 30
0.0
 10
108.4539313791749
 20
121.7470663298176
 30
0.0
 10
108.4410701471423
 20
121.7577303362357
 30
0.0
 10
108.410067285982
 20
121.7967431265959
 30
0.0
 10
108.3992078039129
 20
121.8327951170002
 30
0.0
 10
108.3759305479749
 20
121.9504745144993
 30
0.0
 10
108.373865945417
 20
122.0418044148323
 30
0.0
 10
108.373865945417
 20
122.1350446677385
 30
0.0
  0
SPLINE
  5
DE
330
1F
100
AcDbEntity
  8
0
  6
Continuous
 62
     7
370
    15
100
AcDbSpline
210
0.0
220
0.0
230
1.0
 70
     8
 71
     3
 72
    24
 73
    20
 74
     0
 42
0.00000001
 43
0.00000001
 40
0.0
 40
0.0
 40
0.0
 40
0.0
 40
0.2499999999999959
 40
0.2499999999999959
 40
0.3749999999999944
 40
0.3749999999999944
 40
0.437499999999993
 40
0.437499999999993
 40
0.4999999999999916
 40
0.4999999999999916
 40
0.5312499999999923
 40
0.5312499999999923
 40
0.5624999999999932
 40
0.5624999999999932
 40
0.624999999999994
 40
0.624999999999994
 40
0.7499999999999963
 40
0.7499999999999963
 40
1.0
 40
1.0
 40
1.0
 40
1.0
 10
108.3738659454171
 20
98.80930000207644
 30
0.0
 10
108.3738659454171
 20
98.894208955746
 30
0.0
 10
108.3765905738494
 20
98.97653865179286
 30
0.0
 10
108.4029478949674
 20
99.07895103921186
 30
0.0
 10
108.4151616132395
 20
99.10976813559625
 30
0.0
 10
108.4497722633719
 20
99.13886565167324
 30
0.0
 10
108.4641589737393
 20
99.14582329231187
 30
0.0
 10
108.5054074568416
 20
99.1447135510351
 30
0.0
 10
108.5339470067724
 20
99.13642014542641
 30
0.0
 10
108.5948696722836
 20
99.09183671156534
 30
0.0
 10
108.6179356424236
 20
99.07137499830802
 30
0.0
 10
108.6618315224298
 20
99.02676238002769
 30
0.0
 10
108.68271155799
 20
99.00288630182129
 30
0.0
 10
108.7399218212832
 20
98.93298920465926
 30
0.0
 10
108.7722684450596
 20
98.88741161587475
 30
0.0
 10
108.8584343885515
 20
98.7585281282558
 30
0.0
 10
108.9040984085915
 20
98.67869495112372
 30
0.0
 10
109.0246459720428
 20
98.45291414201131
 30
0.0
 10
109.083706060744
 20
98.31808275703993
 30
0.0
 10
109.133835991805
 20
98.18982761837235
 30
0.0
  0
LINE
  5
DF
330
1F
100
AcDbEntity
  8
0
  6
Continuous
 62
     7
370
    15
100
AcDbLine
 10
108.3738659454
 20
98.8093000021
 30
0.0
 11
108.3738659454
 21
122.1350446677
 31
0.0
  0
SPLINE
  5
E0
330
1F
100
AcDbEntity
  8
0
  6
Continuous
 62
     7
370
    15
100
AcDbSpline
210
0.0
220
0.0
230
1.0
 70
     8
 71
     3
 72
    14
 73
    10
 74
     0
 42
0.00000001
 43
0.00000001
 40
0.0
 40
0.0
 40
0.0
 40
0.0
 40
0.2500000000000001
 40
0.2500000000000001
 40
0.5
 40
0.5
 40
0.75
 40
0.75
 40
1.0
 40
1.0
 40
1.0
 40
1.0
 10
239.8778278732912
 20
122.7332164847348
 30
0.0
 10
239.2042388552992
 20
122.7332164847348
 30
0.0
 10
238.5493824969474
 20
122.7191755901955
 30
0.0
 10
237.2773059796659
 20
122.64542744137
 30
0.0
 10
236.6955221286867
 20
122.587450656502
 30
0.0
 10
235.6428727802932
 20
122.3842148911496
 30
0.0
 10
235.2024478916923
 20
122.2440497243696
 30
0.0
 10
234.4905709824615
 20
121.8372176365367
 30
0.0
 10
234.240904845816
 20
121.5824478900826
 30
0.0
 10
234.0822729155566
 20
121.2625613261795
 30
0.0
  0
ELLIPSE
  5
E1
330
1F
100
AcDbEntity
  8
0
  6
Continuous
 62
     7
370
    15
100
AcDbEllipse
 10
235.5112314314
 20
110.3568132033
 30
0.0
 11
0.2516063682710126
 21
12.499819213438
 31
0.0
210
0.0
220
0.0
230
1.0
 40
0.2671959542
 41
0.5159610820477442
 42
2.77601447614308
  0
SPLINE
  5
E2
330
1F
100
AcDbEntity
  8
0
  6
Continuous
 62
     7
370
    15
100
AcDbSpline
210
0.0
220
0.0
230
1.0
 70
     8
 71
     3
 72
    22
 73
    18
 74
     0
 42
0.00000001
 43
0.00000001
 40
0.0
 40
0.0
 40
0.0
 40
0.0
 40
0.125
 40
0.125
 40
0.25
 40
0.25
 40
0.375
 40
0.375
 40
0.5
 40
0.5
 40
0.625
 40
0.625
 40
0.75
 40
0.75
 40
0.875
 40
0.875
 40
1.0
 40
1.0
 40
1.0
 40
1.0
 10
234.0822729155565
 20
98.7070500954299
 30
0.0
 10
234.1615239032451
 20
98.58850140751986
 30
0.0
 10
234.263879960323
 20
98.48566765026962
 30
0.0
 10
234.5173771495081
 20
98.30735171214934
 30
0.0
 10
234.6691075748198
 20
98.23166534453861
 30
0.0
 10
235.0241017181947
 20
98.10503210659289
 30
0.0
 10
235.2230649637732
 20
98.0554118052411
 30
0.0
 10
235.6635793394648
 20
97.97646571501468
 30
0.0
 10
235.9066837542305
 20
97.94704387360807
 30
0.0
 10
236.4310545697707
 20
97.90331086738479
 30
0.0
 10
236.7078327659265
 20
97.88919579056173
 30
0.0
 10
237.2896835672291
 20
97.86985712360406
 30
0.0
 10
237.59735069919
 20
97.86463981171667
 30
0.0
 10
238.2296479376857
 20
97.85855132617361
 30
0.0
 10
238.5515519928823
 20
97.85763068920699
 30
0.0
 10
239.2065653145937
 20
97.85676219388223
 30
0.0
 10
239.5413101551881
 20
97.85682097471386
 30
0.0
 10
239.8778278732912
 20
97.85682097471386
 30
0.0
  0
LINE
  5
E3
330
1F
100
AcDbEntity
  8
0
  6
Continuous
 62
     7
370
    15
100
AcDbLine
 10
239.8778278733
 20
97.8568209747
 30
0.0
 11
244.2738659454
 21
97.8568209747
 31
0.0
  0
LINE
  5
E4
330
1F
100
AcDbEntity
  8
0
  6
Continuous
 62
     7
370
    15
100
AcDbLine
 10
244.2738659454
 20
122.8568132033
 30
0.0
 11
244.2738659454
 21
122.7332164847
 31
0.0
  0
LINE
  5
E5
330
1F
100
AcDbEntity
  8
0
  6
Continuous
 62
     7
370
    15
100
AcDbLine
 10
244.2738659454
 20
122.7332164847
 30
0.0
 11
239.8778278733
 21
122.7332164847
 31
0.0
  0
ELLIPSE
  5
E6
330
1F
100
AcDbEntity
  8
0
  6
Continuous
 62
     7
370
    15
100
AcDbEllipse
 10
233.5362829862
 20
105.5329217074
 30
0.0
 11
-0.05251766933000113
 21
2.2415414086243
 31
0.0
210
0.0
220
0.0
230
0.9999999999999998
 40
0.2635807735
 41
5.025218534508508
 42
10.50543399615055
  0
SPLINE
  5
E7
330
1F
100
AcDbEntity
  8
0
  6
Continuous
 62
     7
370
    15
100
AcDbSpline
210
0.0
220
0.0
230
1.0
 70
     8
 71
     3
 72
     8
 73
     4
 74
     0
 42
0.00000001
 43
0.00000001
 40
0.0
 40
0.0
 40
0.0
 40
0.0
 40
1.0
 40
1.0
 40
1.0
 40
1.0
 10
143.2338659454171
 20
128.070489898828
 30
0.0
 10
142.9028456143975
 20
128.6620455952857
 30
0.0
 10
142.5710643429134
 20
129.2531782595309
 30
0.0
 10
142.2387062465237
 20
129.8439884732029
 30
0.0
  0
LINE
  5
E8
330
1F
100
AcDbEntity
  8
0
  6
Continuous
 62
     7
370
    15
100
AcDbLine
 10
143.2338659454
 20
124.2706919092
 30
0.0
 11
143.2338659454
 21
128.0704898988
 31
0.0
  0
SPLINE
  5
E9
330
1F
100
AcDbEntity
  8
0
  6
Continuous
 62
     7
370
    15
100
AcDbSpline
210
0.0
220
0.0
230
1.0
 70
     8
 71
     3
 72
    10
 73
     6
 74
     0
 42
0.00000001
 43
0.00000001
 40
0.0
 40
0.0
 40
0.0
 40
0.0
 40
0.5
 40
0.5
 40
1.0
 40
1.0
 40
1.0
 40
1.0
 10
143.4822103311671
 20
127.2568132032977
 30
0.0
 10
143.4048855992928
 20
127.3146952041594
 30
0.0
 10
143.3415057737564
 20
127.3917685487933
 30
0.0
 10
143.2559353249833
 20
127.5662716069872
 30
0.0
 10
143.2338659454171
 20
127.6630768104676
 30
0.0
 10
143.2338659454171
 20
127.7594171751176
 30
0.0
  0
SPLINE
  5
EA
330
1F
100
AcDbEntity
  8
0
  6
Continuous
 62
     7
370
    15
100
AcDbSpline
210
0.0
220
0.0
230
1.0
 70
    24
 71
     3
 72
    12
 73
     8
 74
     0
 42
0.00000001
 43
0.00000001
 40
0.0
 40
0.0
 40
0.0
 40
0.0
 40
0.2499999999999991
 40
0.2499999999999991
 40
0.4999999999999982
 40
0.4999999999999982
 40
1.0
 40
1.0
 40
1.0
 40
1.0
 10
143.8338659454171
 20
127.2568132032978
 30
0.0
 10
143.7822737451426
 20
127.2568132032978
 30
0.0
 10
143.7353687363479
 20
127.2568132032978
 30
0.0
 10
143.6620350104714
 20
127.2568132032978
 30
0.0
 10
143.6328051810224
 20
127.2568132032978
 30
0.0
 10
143.5545724009595
 20
127.2568132032978
 30
0.0
 10
143.5161382430519
 20
127.2568132032978
 30
0.0
 10
143.482210331167
 20
127.2568132032978
 30
0.0
  0
SPLINE
  5
EB
330
1F
100
AcDbEntity
  8
0
  6
Continuous
 62
     7
370
    15
100
AcDbSpline
210
0.0
220
0.0
230
1.0
 70
     8
 71
     3
 72
    12
 73
     8
 74
     0
 42
0.00000001
 43
0.00000001
 40
0.0
 40
0.0
 40
0.0
 40
0.0
 40
0.5000000000000049
 40
0.5000000000000049
 40
0.7500000000000024
 40
0.7500000000000024
 40
1.0
 40
1.0
 40
1.0
 40
1.0
 10
143.2965554863821
 20
123.5154682344249
 30
0.0
 10
143.3394633303828
 20
123.3992745431492
 30
0.0
 10
143.4057504923459
 20
123.2891393447968
 30
0.0
 10
143.5428424781086
 20
123.1626849814667
 30
0.0
 10
143.5952088072908
 20
123.1270143778908
 30
0.0
 10
143.7093700235672
 20
123.0775199054838
 30
0.0
 10
143.7719068591607
 20
123.0638240634489
 30
0.0
 10
143.8338659454171
 20
123.0638240634489
 30
0.0
  0
SPLINE
  5
EC
330
1F
100
AcDbEntity
  8
0
  6
Continuous
 62
     7
370
    15
100
AcDbSpline
210
0.0
220
0.0
230
1.0
 70
    24
 71
     3
 72
    12
 73
     8
 74
     0
 42
0.00000001
 43
0.00000001
 40
0.0
 40
0.0
 40
0.0
 40
0.0
 40
0.4999999999999938
 40
0.4999999999999938
 40
0.7499999999999969
 40
0.7499999999999969
 40
1.0
 40
1.0
 40
1.0
 40
1.0
 10
145.0655215596681
 20
127.2568132032978
 30
0.0
 10
145.0313515983175
 20
127.2568132032978
 30
0.0
 10
144.992101457266
 20
127.2568132032978
 30
0.0
 10
144.914101446753
 20
127.2568132032978
 30
0.0
 10
144.8846985183521
 20
127.2568132032978
 30
0.0
 10
144.8115539242037
 20
127.2568132032978
 30
0.0
 10
144.7649239462356
 20
127.2568132032978
 30
0.0
 10
144.7138659454172
 20
127.2568132032978
 30
0.0
  0
SPLINE
  5
ED
330
1F
100
AcDbEntity
  8
0
  6
Continuous
 62
     7
370
    15
100
AcDbSpline
210
0.0
220
0.0
230
1.0
 70
     8
 71
     3
 72
    10
 73
     6
 74
     0
 42
0.00000001
 43
0.00000001
 40
0.0
 40
0.0
 40
0.0
 40
0.0
 40
0.5
 40
0.5
 40
1.0
 40
1.0
 40
1.0
 40
1.0
 10
145.3138659454172
 20
127.7594171751165
 30
0.0
 10
145.313865945417
 20
127.6628746276409
 30
0.0
 10
145.2919253228361
 20
127.5664134273719
 30
0.0
 10
145.2057951374458
 20
127.3910108331288
 30
0.0
 10
145.1427128303035
 20
127.3145953007622
 30
0.0
 10
145.0655215596719
 20
127.2568132033013
 30
0.0
  0
SPLINE
  5
EE
330
1F
100
AcDbEntity
  8
0
  6
Continuous
 62
     7
370
    15
100
AcDbSpline
210
0.0
220
0.0
230
1.0
 70
     8
 71
     3
 72
    12
 73
     8
 74
     0
 42
0.00000001
 43
0.00000001
 40
0.0
 40
0.0
 40
0.0
 40
0.0
 40
0.249999999999999
 40
0.249999999999999
 40
0.499999999999998
 40
0.499999999999998
 40
1.0
 40
1.0
 40
1.0
 40
1.0
 10
144.7138659454172
 20
123.0638240634489
 30
0.0
 10
144.8071169637503
 20
123.0638240634489
 30
0.0
 10
144.8986226725762
 20
123.0948853818482
 30
0.0
 10
145.0535462071113
 20
123.1975060322289
 30
0.0
 10
145.1171410250536
 20
123.2671585603076
 30
0.0
 10
145.2676999817366
 20
123.5023734922095
 30
0.0
 10
145.3138659454172
 20
123.6871795816188
 30
0.0
 10
145.3138659454172
 20
123.8726603835525
 30
0.0
  0
SPLINE
  5
EF
330
1F
100
AcDbEntity
  8
0
  6
Continuous
 62
     7
370
    15
100
AcDbSpline
210
0.0
220
0.0
230
1.0
 70
     8
 71
     3
 72
    10
 73
     6
 74
     0
 42
0.00000001
 43
0.00000001
 40
0.0
 40
0.0
 40
0.0
 40
0.0
 40
0.5
 40
0.5
 40
1.0
 40
1.0
 40
1.0
 40
1.0
 10
148.2238659454171
 20
129.2276902364407
 30
0.0
 10
148.2238659454171
 20
129.3861246793285
 30
0.0
 10
148.1617047289342
 20
129.5451453741304
 30
0.0
 10
147.9411953882625
 20
129.7751531983861
 30
0.0
 10
147.7822802853175
 20
129.8439884732028
 30
0.0
 10
147.6238659454172
 20
129.8439884732028
 30
0.0
  0
SPLINE
  5
F0
330
1F
100
AcDbEntity
  8
0
  6
Continuous
 62
     7
370
    15
100
AcDbSpline
210
0.0
220
0.0
230
1.0
 70
     8
 71
     3
 72
    12
 73
     8
 74
     0
 42
0.00000001
 43
0.00000001
 40
0.0
 40
0.0
 40
0.0
 40
0.0
 40
0.249999999999998
 40
0.249999999999998
 40
0.499999999999996
 40
0.499999999999996
 40
1.0
 40
1.0
 40
1.0
 40
1.0
 10
147.6238659454172
 20
126.4682222043752
 30
0.0
 10
147.7131543044609
 20
126.4682222043752
 30
0.0
 10
147.801213135363
 20
126.4425975717704
 30
0.0
 10
147.9538668486122
 20
126.3540541988386
 30
0.0
 10
148.0196603419542
 20
126.291171715724
 30
0.0
 10
148.1751009886703
 20
126.0738105277904
 30
0.0
 10
148.2238659454171
 20
125.8951635177791
 30
0.0
 10
148.2238659454171
 20
125.7170703626034
 30
0.0
  0
LINE
  5
F1
330
1F
100
AcDbEntity
  8
0
  6
Continuous
 62
     7
370
    15
100
AcDbLine
 10
148.2238659454
 20
125.7170703626
 30
0.0
 11
148.2238659454
 21
129.2276902364
 31
0.0
  0
LINE
  5
F2
330
1F
100
AcDbEntity
  8
0
  6
Continuous
 62
     7
370
    15
100
AcDbLine
 10
143.8338659454
 20
123.0638240634
 30
0.0
 11
144.7138659454
 21
123.0638240634
 31
0.0
  0
LINE
  5
F3
330
1F
100
AcDbEntity
  8
0
  6
Continuous
 62
     7
370
    15
100
AcDbLine
 10
145.3138659454
 20
123.8726603836
 30
0.0
 11
145.3138659454
 21
124.2709011028
 31
0.0
  0
SPLINE
  5
F4
330
1F
100
AcDbEntity
  8
0
  6
Continuous
 62
     7
370
    15
100
AcDbSpline
210
0.0
220
0.0
230
1.0
 70
     8
 71
     3
 72
     8
 73
     4
 74
     0
 42
0.00000001
 43
0.00000001
 40
0.0
 40
0.0
 40
0.0
 40
0.0
 40
1.0
 40
1.0
 40
1.0
 40
1.0
 10
145.3138659454172
 20
124.2709011027532
 30
0.0
 10
145.6374235036721
 20
125.0070175013757
 30
0.0
 10
145.969917823889
 20
125.7391090967944
 30
0.0
 10
146.3090256443106
 20
126.4682222043752
 30
0.0
  0
LINE
  5
F5
330
1F
100
AcDbEntity
  8
0
  6
Continuous
 62
     7
370
    15
100
AcDbLine
 10
146.3090256443
 20
126.4682222044
 30
0.0
 11
147.6238659454
 21
126.4682222044
 31
0.0
  0
LINE
  5
F6
330
1F
100
AcDbEntity
  8
0
  6
Continuous
 62
     7
370
    15
100
AcDbLine
 10
148.2238659454
 20
125.7170703626
 30
0.0
 11
148.2238659454
 21
122.2068132033
 31
0.0
  0
SPLINE
  5
F7
330
1F
100
AcDbEntity
  8
0
  6
Continuous
 62
     7
370
    15
100
AcDbSpline
210
0.0
220
0.0
230
1.0
 70
     8
 71
     3
 72
     8
 73
     4
 74
     0
 42
0.00000001
 43
0.00000001
 40
0.0
 40
0.0
 40
0.0
 40
0.0
 40
1.0
 40
1.0
 40
1.0
 40
1.0
 10
146.3090256443106
 20
129.8439884732028
 30
0.0
 10
145.9766675479209
 20
129.2531782595309
 30
0.0
 10
145.6448862764368
 20
128.6620455952857
 30
0.0
 10
145.3138659454172
 20
128.070489898828
 30
0.0
  0
LINE
  5
F8
330
1F
100
AcDbEntity
  8
0
  6
Continuous
 62
     7
370
    15
100
AcDbLine
 10
146.3090256443
 20
126.4682222044
 30
0.0
 11
146.3090256443
 21
129.8439884732
 31
0.0
  0
LINE
  5
F9
330
1F
100
AcDbEntity
  8
0
  6
Continuous
 62
     7
370
    15
100
AcDbLine
 10
145.3138659454
 20
124.2709011028
 30
0.0
 11
145.3138659454
 21
128.0704898988
 31
0.0
  0
LINE
  5
FA
330
1F
100
AcDbEntity
  8
0
  6
Continuous
 62
     7
370
    15
100
AcDbLine
 10
147.6238659454
 20
129.8439884732
 30
0.0
 11
146.3090256443
 21
129.8439884732
 31
0.0
  0
LINE
  5
FB
330
1F
100
AcDbEntity
  8
0
  6
Continuous
 62
     7
370
    15
100
AcDbLine
 10
144.7138659454
 20
127.2568132033
 30
0.0
 11
143.8338659454
 21
127.2568132033
 31
0.0
  0
SPLINE
  5
FC
330
1F
100
AcDbEntity
  8
0
  6
Continuous
 62
     7
370
    15
100
AcDbSpline
210
0.0
220
0.0
230
1.0
 70
     8
 71
     3
 72
    12
 73
     8
 74
     0
 42
0.00000001
 43
0.00000001
 40
0.0
 40
0.0
 40
0.0
 40
0.0
 40
0.25
 40
0.25
 40
0.5
 40
0.5
 40
1.0
 40
1.0
 40
1.0
 40
1.0
 10
234.0822729155565
 20
104.4899297441441
 30
0.0
 10
234.0987763626783
 20
104.63119716579
 30
0.0
 10
234.1117050410158
 20
104.7758400646079
 30
0.0
 10
234.1288207998187
 20
105.0714382950927
 30
0.0
 10
234.1329405323525
 20
105.2239258318613
 30
0.0
 10
234.1313847093571
 20
105.6714274223328
 30
0.0
 10
234.1118222475329
 20
105.9645929795439
 30
0.0
 10
234.0822729155566
 20
106.2359315798501
 30
0.0
  0
LINE
  5
FD
330
1F
100
AcDbEntity
  8
0
  6
Continuous
 62
     7
370
    15
100
AcDbLine
 10
108.3738659454
 20
98.5383409306
 30
0.0
 11
108.3738659454
 21
98.8093000021
 31
0.0
  0
LINE
  5
FE
330
1F
100
AcDbEntity
  8
0
  6
Continuous
 62
     7
370
    15
100
AcDbLine
 10
108.3738659454
 20
122.2307273406
 30
0.0
 11
108.3738659454
 21
122.1350446677
 31
0.0
  0
LINE
  5
FF
330
1F
100
AcDbEntity
  8
0
  6
Continuous
 62
     7
370
    15
100
AcDbLine
 10
109.3238659454
 20
123.2368132033
 30
0.0
 11
109.3238659454
 21
123.2223937503
 31
0.0
  0
LINE
  5
100
330
1F
100
AcDbEntity
  8
0
  6
Continuous
 62
     7
370
    15
100
AcDbLine
 10
108.3738659454
 20
122.2868132033
 30
0.0
 11
108.3738659454
 21
122.2307273406
 31
0.0
  0
LINE
  5
101
330
1F
100
AcDbEntity
  8
0
  6
Continuous
 62
     7
370
    15
100
AcDbLine
 10
109.3238659454
 20
97.5358132033
 30
0.0
 11
109.3238659454
 21
97.6262776523
 31
0.0
  0
LINE
  5
102
330
1F
100
AcDbEntity
  8
0
  6
Continuous
 62
     7
370
    15
100
AcDbLine
 10
108.3738659454
 20
98.4858132033
 30
0.0
 11
108.3738659454
 21
98.5383409306
 31
0.0
  0
SPLINE
  5
103
330
1F
100
AcDbEntity
  8
0
  6
Continuous
 62
     7
370
    15
100
AcDbSpline
210
0.0
220
0.0
230
1.0
 70
     8
 71
     3
 72
     8
 73
     4
 74
     0
 42
0.00000001
 43
0.00000001
 40
0.0
 40
0.0
 40
0.0
 40
0.0
 40
1.0
 40
1.0
 40
1.0
 40
1.0
 10
246.5086746591414
 20
95.62269150360326
 30
0.0
 10
245.7636173470648
 20
96.36728074888244
 30
0.0
 10
245.0186594125824
 20
97.1119689648493
 30
0.0
 10
244.2738659454173
 20
97.85682097471387
 30
0.0
  0
LINE
  5
104
330
1F
100
AcDbEntity
  8
0
  6
Continuous
 62
     7
370
    15
100
AcDbLine
 10
244.2738659454
 20
122.7332164847
 30
0.0
 11
244.7738659454
 21
123.2332072556
 31
0.0
  0
LINE
  5
105
330
1F
100
AcDbEntity
  8
0
  6
Continuous
 62
     7
370
    15
100
AcDbLine
 10
250.2950280052
 20
123.2332072556
 30
0.0
 11
244.7738659454
 21
123.2332072556
 31
0.0
  0
LINE
  5
106
330
1F
100
AcDbEntity
  8
0
  6
Continuous
 62
     7
370
    15
100
AcDbLine
 10
266.9076743398
 20
106.6610284926
 30
0.0
 11
266.953319634
 21
106.1405712949
 31
0.0
  0
ARC
  5
107
330
1F
100
AcDbEntity
  8
0
  6
Continuous
 62
     7
370
    15
100
AcDbCircle
 10
255.5456383005
 20
106.0773445348
 30
0.0
 40
2.097569642593662
100
AcDbArc
 50
25.0945977006
 51
243.5377782819
  0
LINE
  5
108
330
1F
100
AcDbEntity
  8
0
  6
Continuous
 62
     7
370
    15
100
AcDbLine
 10
255.4314519795
 20
94.8439512452
 30
0.0
 11
246.5086746591
 21
95.6226915036
 31
0.0
  0
LINE
  5
109
330
1F
100
AcDbEntity
  8
0
  6
Continuous
 62
     7
370
    15
100
AcDbLine
 10
250.2950280052
 20
123.2332072556
 30
0.0
 11
266.9076743398
 21
106.6610284926
 31
0.0
  0
LINE
  5
10A
330
1F
100
AcDbEntity
  8
0
  6
Continuous
 62
     7
370
    15
100
AcDbLine
 10
244.7738659454
 20
123.2332072556
 30
0.0
 11
244.7738659454
 21
123.3568132033
 31
0.0
  0
ELLIPSE
  5
10B
330
1F
100
AcDbEntity
  8
0
  6
Continuous
 62
     7
370
    15
100
AcDbEllipse
 10
263.1109863477
 20
110.3568132033
 30
0.0
 11
13.17784690311692
 21
-12.98255003967748
 31
0.0
210
0.0
220
0.0
230
1.0
 40
0.0510967938
 41
2.951764542306726
 42
3.089773640772415
  0
ARC
  5
10C
330
1F
100
AcDbEntity
  8
0
  6
Continuous
 62
     7
370
    15
100
AcDbCircle
 10
255.5396292465
 20
106.4124559938
 30
0.0
 40
2.095132720537597
100
AcDbArc
 50
184.6281526363
 51
242.7467765949
  0
LINE
  5
10D
330
1F
100
AcDbEntity
  8
0
  6
HIDDEN
 62
     7
370
     0
100
AcDbLine
 10
136.2238659454
 20
90.3568132033
 30
0.0
 11
136.2238659454
 21
90.3818288479
 31
0.0
  0
SPLINE
  5
10E
330
1F
100
AcDbEntity
  8
0
  6
HIDDEN
 62
     7
370
     0
100
AcDbSpline
210
0.0
220
0.0
230
1.0
 70
     8
 71
     3
 72
    22
 73
    18
 74
     0
 42
0.00000001
 43
0.00000001
 40
0.0
 40
0.0
 40
0.0
 40
0.0
 40
0.1250000000000001
 40
0.1250000000000001
 40
0.2500000000000001
 40
0.2500000000000001
 40
0.3750000000000001
 40
0.3750000000000001
 40
0.5000000000000001
 40
0.5000000000000001
 40
0.6250000000000001
 40
0.6250000000000001
 40
0.75
 40
0.75
 40
0.875
 40
0.875
 40
1.0
 40
1.0
 40
1.0
 40
1.0
 10
136.2238659454172
 20
90.38182884785951
 30
0.0
 10
136.2238659454172
 20
90.39678444046883
 30
0.0
 10
136.2533143665473
 20
90.41817263711526
 30
0.0
 10
136.3681522327712
 20
90.47255088373058
 30
0.0
 10
136.4549650713089
 20
90.50599704733894
 30
0.0
 10
136.6806124436049
 20
90.58076132273669
 30
0.0
 10
136.818449585269
 20
90.62185981169762
 30
0.0
 10
137.1436505451734
 20
90.7084127406614
 30
0.0
 10
137.3323528250814
 20
90.75406363975928
 30
0.0
 10
137.7446845453137
 20
90.84234319492413
 30
0.0
 10
137.9698314716655
 20
90.88544454493139
 30
0.0
 10
138.4598073230228
 20
90.96564872478665
 30
0.0
 10
138.7205149651447
 20
91.0019435721762
 30
0.0
 10
139.2613723458604
 20
91.06212279132592
 30
0.0
 10
139.5450629719144
 20
91.08641012875701
 30
0.0
 10
140.1291453428439
 20
91.11940822306838
 30
0.0
 10
140.4247128978357
 20
91.12792868026827
 30
0.0
 10
140.7238659454171
 20
91.12792868026827
 30
0.0
  0
LINE
  5
10F
330
1F
100
AcDbEntity
  8
0
  6
HIDDEN
 62
     7
370
     0
100
AcDbLine
 10
140.7238659454
 20
91.1279286803
 30
0.0
 11
142.2387062465
 21
91.1279286803
 31
0.0
  0
LINE
  5
110
330
1F
100
AcDbEntity
  8
0
  6
HIDDEN
 62
     7
370
     0
100
AcDbLine
 10
142.2387062465
 20
129.8439884732
 30
0.0
 11
142.2387062465
 21
91.1279286803
 31
0.0
  0
LINE
  5
111
330
1F
100
AcDbEntity
  8
0
  6
HIDDEN
 62
     7
370
     0
100
AcDbLine
 10
140.7238659454
 20
129.8439884732
 30
0.0
 11
142.2387062465
 21
129.8439884732
 31
0.0
  0
SPLINE
  5
112
330
1F
100
AcDbEntity
  8
0
  6
HIDDEN
 62
     7
370
     0
100
AcDbSpline
210
0.0
220
0.0
230
1.0
 70
     8
 71
     3
 72
    17
 73
    13
 74
     0
 42
0.00000001
 43
0.00000001
 40
0.0
 40
0.0
 40
0.0
 40
0.0
 40
0.0659340447050229
 40
0.1690661488254303
 40
0.2751488439570361
 40
0.3791231894735145
 40
0.4859867790311599
 40
0.5922066012940099
 40
0.7014821189234417
 40
0.8079661745661482
 40
0.9176705158082212
 40
1.0
 40
1.0
 40
1.0
 40
1.0
 10
136.2393931542674
 20
130.3533264706641
 30
0.0
 10
136.2379566533443
 20
130.3536453141969
 30
0.0
 10
136.234273219696
 20
130.3544628834573
 30
0.0
 10
136.3681503947026
 20
130.3245386982506
 30
0.0
 10
136.6178685333304
 20
130.2711100387196
 30
0.0
 10
136.9872621157705
 20
130.1975817958707
 30
0.0
 10
137.4568469552694
 20
130.1137285106734
 30
0.0
 10
138.0258954652514
 20
130.0267913089961
 30
0.0
 10
138.6715327033591
 20
129.9477648375902
 30
0.0
 10
139.3843461054646
 20
129.8857117008811
 30
0.0
 10
140.0756894145509
 20
129.8497305790549
 30
0.0
 10
140.5293645759584
 20
129.8457115338177
 30
0.0
 10
140.7238659454171
 20
129.8439884732029
 30
0.0
  0
SPLINE
  5
113
330
1F
100
AcDbEntity
  8
0
  6
HIDDEN
 62
     7
370
     0
100
AcDbSpline
210
0.0
220
0.0
230
1.0
 70
     8
 71
     3
 72
    76
 73
    72
 74
     0
 42
0.00000001
 43
0.00000001
 40
-0.0312500000000002
 40
-0.0312500000000002
 40
0.0
 40
0.0
 40
0.0312499999999999
 40
0.0312499999999999
 40
0.0624999999999999
 40
0.0624999999999999
 40
0.0937499999999998
 40
0.0937499999999998
 40
0.1249999999999997
 40
0.1249999999999997
 40
0.1562499999999997
 40
0.1562499999999997
 40
0.1874999999999996
 40
0.1874999999999996
 40
0.2031249999999996
 40
0.2031249999999996
 40
0.2187499999999996
 40
0.2187499999999996
 40
0.2499999999999995
 40
0.2499999999999995
 40
0.2812499999999994
 40
0.2812499999999994
 40
0.3124999999999993
 40
0.3124999999999993
 40
0.3437499999999993
 40
0.3437499999999993
 40
0.3749999999999992
 40
0.3749999999999992
 40
0.4062499999999992
 40
0.4062499999999992
 40
0.4374999999999991
 40
0.4374999999999991
 40
0.468749999999999
 40
0.468749999999999
 40
0.484374999999999
 40
0.484374999999999
 40
0.499999999999999
 40
0.499999999999999
 40
0.5312499999999989
 40
0.5312499999999989
 40
0.5624999999999989
 40
0.5624999999999989
 40
0.5937499999999988
 40
0.5937499999999988
 40
0.6249999999999987
 40
0.6249999999999987
 40
0.6562499999999987
 40
0.6562499999999987
 40
0.6874999999999986
 40
0.6874999999999986
 40
0.7187499999999986
 40
0.7187499999999986
 40
0.7343749999999986
 40
0.7343749999999986
 40
0.7499999999999987
 40
0.7499999999999987
 40
0.7812499999999988
 40
0.7812499999999988
 40
0.812499999999999
 40
0.812499999999999
 40
0.8437499999999991
 40
0.8437499999999991
 40
0.8749999999999992
 40
0.8749999999999992
 40
0.9062499999999994
 40
0.9062499999999994
 40
0.9374999999999996
 40
0.9374999999999996
 40
0.9687499999999998
 40
0.9687499999999998
 40
1.0
 40
1.0
 40
1.03125
 40
1.03125
 10
130.2738659454172
 20
110.6885478473435
 30
0.0
 10
130.2738659454172
 20
110.025078559252
 30
0.0
 10
130.3065508811352
 20
109.6991440967393
 30
0.0
 10
130.4343751231459
 20
109.0583232407964
 30
0.0
 10
130.5311533964016
 20
108.7400377987541
 30
0.0
 10
130.7826060703861
 20
108.1351314605041
 30
0.0
 10
130.9362862510809
 20
107.8484481437802
 30
0.0
 10
131.299118774395
 20
107.3059317236303
 30
0.0
 10
131.509381731552
 20
107.0501386350362
 30
0.0
 10
131.9686854119743
 20
106.5910171734817
 30
0.0
 10
132.21952627135
 20
106.3845411158527
 30
0.0
 10
132.7655576638158
 20
106.0190342848044
 30
0.0
 10
133.0544287765152
 20
105.8645980801859
 30
0.0
 10
133.5051782326647
 20
105.6772599885653
 30
0.0
 10
133.6586645483376
 20
105.6220479682045
 30
0.0
 10
133.9722934519023
 20
105.5264108982406
 30
0.0
 10
134.1333976360353
 20
105.4858324332521
 30
0.0
 10
134.6178945040375
 20
105.3890986406917
 30
0.0
 10
134.9431755736534
 20
105.3570209184531
 30
0.0
 10
135.5982449465796
 20
105.3566074798125
 30
0.0
 10
135.9310662792138
 20
105.3893859060901
 30
0.0
 10
136.5733748759395
 20
105.5175443771961
 30
0.0
 10
136.8856963573857
 20
105.6123481715412
 30
0.0
 10
137.4926756719389
 20
105.8640602485939
 30
0.0
 10
137.7832356904412
 20
106.0199203737024
 30
0.0
 10
138.323425224648
 20
106.3811668237647
 30
0.0
 10
138.5774299745955
 20
106.5893563377817
 30
0.0
 10
139.0406539864721
 20
107.052486587757
 30
0.0
 10
139.246620667339
 20
107.3034568049262
 30
0.0
 10
139.6086745740348
 20
107.843807129033
 30
0.0
 10
139.7658205004956
 20
108.1366536669731
 30
0.0
 10
140.0165562144162
 20
108.7401335492027
 30
0.0
 10
140.1117261053272
 20
109.051854433173
 30
0.0
 10
140.2085565879986
 20
109.5347546034023
 30
0.0
 10
140.2331818351888
 20
109.6992686712285
 30
0.0
 10
140.2657245393759
 20
110.0273793190109
 30
0.0
 10
140.2737963072539
 20
110.1911684779338
 30
0.0
 10
140.2740038790868
 20
110.6817560248995
 30
0.0
 10
140.2423685602977
 20
111.0077817430345
 30
0.0
 10
140.1130281660633
 20
111.6576926274081
 30
0.0
 10
140.0175283123701
 20
111.9704976382878
 30
0.0
 10
139.7677881544546
 20
112.5728847920545
 30
0.0
 10
139.6113276580277
 20
112.8654081926498
 30
0.0
 10
139.248224154052
 20
113.4082226740869
 30
0.0
 10
139.0422981038224
 20
113.6591155663681
 30
0.0
 10
138.5815834200684
 20
114.1204931760809
 30
0.0
 10
138.3257999414802
 20
114.3306368847794
 30
0.0
 10
137.7858267720229
 20
114.692205754547
 30
0.0
 10
137.4992460594164
 20
114.8463742845481
 30
0.0
 10
136.8911073746937
 20
115.0994923526281
 30
0.0
 10
136.5763673399557
 20
115.1952005162485
 30
0.0
 10
136.0963925326221
 20
115.2913927630541
 30
0.0
 10
135.9346678841088
 20
115.3156779784201
 30
0.0
 10
135.6076695687332
 20
115.3483634836404
 30
0.0
 10
135.4414177678017
 20
115.3567258361118
 30
0.0
 10
134.9466456252911
 20
115.3569858661093
 30
0.0
 10
134.6212059847375
 20
115.3248344132985
 30
0.0
 10
133.9789179169528
 20
115.197299684104
 30
0.0
 10
133.6597513570078
 20
115.1003602535685
 30
0.0
 10
133.056575313637
 20
114.8501668258016
 30
0.0
 10
132.7694428024086
 20
114.6967882313794
 30
0.0
 10
132.224098511811
 20
114.3325442209252
 30
0.0
 10
131.9703150684031
 20
114.1240188703396
 30
0.0
 10
131.5111222296254
 20
113.6654453472633
 30
0.0
 10
131.3022623021931
 20
113.4119569177574
 30
0.0
 10
130.9372501796792
 20
112.8670526968973
 30
0.0
 10
130.783623150926
 20
112.5803200946071
 30
0.0
 10
130.5329326370584
 20
111.9784835196307
 30
0.0
 10
130.4354867264049
 20
111.6599107458116
 30
0.0
 10
130.306560016806
 20
111.0154849605942
 30
0.0
 10
130.2738659454172
 20
110.6885478473435
 30
0.0
 10
130.2738659454172
 20
110.025078559252
 30
0.0
  0
LINE
  5
114
330
1F
100
AcDbEntity
  8
0
  6
HIDDEN
 62
     7
370
     0
100
AcDbLine
 10
128.2738659454
 20
130.0568131826
 30
0.0
 11
128.2738659454
 21
90.6568132033
 31
0.0
  0
SPLINE
  5
115
330
1F
100
AcDbEntity
  8
0
  6
HIDDEN
 62
     7
370
     0
100
AcDbSpline
210
0.0
220
0.0
230
1.0
 70
     8
 71
     3
 72
    10
 73
     6
 74
     0
 42
0.00000001
 43
0.00000001
 40
0.0
 40
0.0
 40
0.0
 40
0.0
 40
0.5
 40
0.5
 40
1.0
 40
1.0
 40
1.0
 40
1.0
 10
145.3138659454172
 20
93.24393428126939
 30
0.0
 10
145.3138659454172
 20
93.28015677071002
 30
0.0
 10
145.3108962161198
 20
93.31634996796848
 30
0.0
 10
145.2990172337719
 20
93.38798845938315
 30
0.0
 10
145.2902220059312
 20
93.42286178402476
 30
0.0
 10
145.2786435448361
 20
93.45681320329707
 30
0.0
  0
LINE
  5
116
330
1F
100
AcDbEntity
  8
0
  6
HIDDEN
 62
     7
370
     0
100
AcDbLine
 10
145.3138659454
 20
93.2439342813
 30
0.0
 11
145.3138659454
 21
122.2068132033
 31
0.0
  0
SPLINE
  5
117
330
1F
100
AcDbEntity
  8
0
  6
HIDDEN
 62
     7
370
     0
100
AcDbSpline
210
0.0
220
0.0
230
1.0
 70
     8
 71
     3
 72
    10
 73
     6
 74
     0
 42
0.00000001
 43
0.00000001
 40
0.0
 40
0.0
 40
0.0
 40
0.0
 40
0.5
 40
0.5
 40
1.0
 40
1.0
 40
1.0
 40
1.0
 10
143.2690883459985
 20
93.45681320329768
 30
0.0
 10
143.2573762290354
 20
93.42246986610371
 30
0.0
 10
143.2485781591633
 20
93.38737732836549
 30
0.0
 10
143.2367646013912
 20
93.31570555297476
 30
0.0
 10
143.2338659454171
 20
93.2797618986095
 30
0.0
 10
143.2338659454171
 20
93.2439342812694
 30
0.0
  0
LINE
  5
118
330
1F
100
AcDbEntity
  8
0
  6
HIDDEN
 62
     7
370
     0
100
AcDbLine
 10
143.2338659454
 20
93.2439342813
 30
0.0
 11
143.2338659454
 21
122.2068132033
 31
0.0
  0
LINE
  5
119
330
1F
100
AcDbEntity
  8
0
  6
HIDDEN
 62
     7
370
     0
100
AcDbLine
 10
136.2238659454
 20
122.2068132033
 30
0.0
 11
143.2965554864
 21
122.2068132033
 31
0.0
  0
LINE
  5
11A
330
1F
100
AcDbEntity
  8
0
  6
HIDDEN
 62
     7
370
     0
100
AcDbLine
 10
128.2738659454
 20
94.1496197431
 30
0.0
 11
128.2738659454
 21
126.5425173818
 31
0.0
  0
LWPOLYLINE
  5
11B
330
1F
100
AcDbEntity
  8
0
  6
HIDDEN
 62
     7
370
     0
100
AcDbPolyline
 90
        2
 70
   128
 43
0.0
 10
145.3138659454
 20
122.2068132033
 10
145.3138659454
 20
122.2068132033
  0
LWPOLYLINE
  5
11C
330
1F
100
AcDbEntity
  8
0
  6
HIDDEN
 62
     7
370
     0
100
AcDbPolyline
 90
        2
 70
   128
 43
0.0
 10
143.2338659454
 20
122.2068132033
 10
143.2338659454
 20
122.2068132033
  0
LWPOLYLINE
  5
11D
330
1F
100
AcDbEntity
  8
0
  6
HIDDEN
 62
     7
370
     0
100
AcDbPolyline
 90
        2
 70
   128
 43
0.0
 10
148.2238659454
 20
122.2068132033
 10
148.2238659454
 20
122.2068132033
  0
SPLINE
  5
11E
330
1F
100
AcDbEntity
  8
0
  6
HIDDEN
 62
     7
370
     0
100
AcDbSpline
210
0.0
220
0.0
230
1.0
 70
     8
 71
     3
 72
     8
 73
     4
 74
     0
 42
0.00000001
 43
0.00000001
 40
0.000003532078448
 40
0.000003532078448
 40
0.000003532078448
 40
0.000003532078448
 40
0.0000638548434644
 40
0.0000638548434644
 40
0.0000638548434644
 40
0.0000638548434644
 10
109.315349795848
 20
97.65363550375417
 30
0.0
 10
109.3178989669702
 20
97.64447430041544
 30
0.0
 10
109.3207408897519
 20
97.63535329710672
 30
0.0
 10
109.3238659454171
 20
97.62627765233836
 30
0.0
  0
SPLINE
  5
11F
330
1F
100
AcDbEntity
  8
0
  6
HIDDEN
 62
     7
370
     0
100
AcDbSpline
210
0.0
220
0.0
230
1.0
 70
     8
 71
     3
 72
     8
 73
     4
 74
     0
 42
0.00000001
 43
0.00000001
 40
0.0000002108190109
 40
0.0000002108190109
 40
0.0000002108190109
 40
0.0000002108190109
 40
0.0001710235456398
 40
0.0001710235456398
 40
0.0001710235456398
 40
0.0001710235456398
 10
109.3238659454172
 20
97.62627765233826
 30
0.0
 10
109.3778541315071
 20
97.63190779494181
 30
0.0
 10
109.431443791583
 20
97.63820318840334
 30
0.0
 10
109.4840745107017
 20
97.6456329408465
 30
0.0
  0
SPLINE
  5
120
330
1F
100
AcDbEntity
  8
0
  6
HIDDEN
 62
     7
370
     0
100
AcDbSpline
210
0.0
220
0.0
230
1.0
 70
     8
 71
     3
 72
    10
 73
     6
 74
     0
 42
0.00000001
 43
0.00000001
 40
0.0
 40
0.0
 40
0.0
 40
0.0
 40
0.5
 40
0.5
 40
1.0
 40
1.0
 40
1.0
 40
1.0
 10
109.4840745107017
 20
97.64563294084643
 30
0.0
 10
110.1478896163853
 20
97.73934212791137
 30
0.0
 10
110.825877284663
 20
97.81516032433655
 30
0.0
 10
112.1923029767086
 20
97.95360452198445
 30
0.0
 10
112.881439413075
 20
98.01534886943573
 30
0.0
 10
113.5738659454173
 20
98.07293990474474
 30
0.0
  0
SPLINE
  5
121
330
1F
100
AcDbEntity
  8
0
  6
HIDDEN
 62
     7
370
     0
100
AcDbSpline
210
0.0
220
0.0
230
1.0
 70
     8
 71
     3
 72
    16
 73
    12
 74
     0
 42
0.00000001
 43
0.00000001
 40
0.0
 40
0.0
 40
0.0
 40
0.0
 40
0.0624999999999999
 40
0.0624999999999999
 40
0.1249999999999998
 40
0.1249999999999998
 40
0.2500000000000006
 40
0.2500000000000006
 40
0.5000000000000004
 40
0.5000000000000004
 40
1.0
 40
1.0
 40
1.0
 40
1.0
 10
113.5738659454172
 20
98.07293990474473
 30
0.0
 10
113.6051817447444
 20
98.0755445266368
 30
0.0
 10
113.63789608317
 20
98.07377562617687
 30
0.0
 10
113.6992026366469
 20
98.0622407317269
 30
0.0
 10
113.7277135268648
 20
98.0527137543807
 30
0.0
 10
113.8036075002211
 20
98.0192001542558
 30
0.0
 10
113.8429470852541
 20
97.99081263993597
 30
0.0
 10
113.9443828662355
 20
97.90279168972808
 30
0.0
 10
113.9892082258415
 20
97.84115903752095
 30
0.0
 10
114.1034905808067
 20
97.65777084384577
 30
0.0
 10
114.1483044886495
 20
97.53715284938092
 30
0.0
 10
114.1826307429319
 20
97.42280985608981
 30
0.0
  0
SPLINE
  5
122
330
1F
100
AcDbEntity
  8
0
  6
HIDDEN
 62
     7
370
     0
100
AcDbSpline
210
0.0
220
0.0
230
1.0
 70
     8
 71
     3
 72
    10
 73
     6
 74
     0
 42
0.00000001
 43
0.00000001
 40
0.0
 40
0.0
 40
0.0
 40
0.0
 40
0.5
 40
0.5
 40
1.0
 40
1.0
 40
1.0
 40
1.0
 10
114.1826307429319
 20
97.42280985608981
 30
0.0
 10
114.2205051458766
 20
97.29664774803716
 30
0.0
 10
114.3012961932024
 20
97.17868870705527
 30
0.0
 10
114.4264261357938
 20
96.95564272446629
 30
0.0
 10
114.4738659454172
 20
96.85084765097093
 30
0.0
 10
114.4738659454172
 20
96.75323701757351
 30
0.0
  0
LINE
  5
123
330
1F
100
AcDbEntity
  8
0
  6
HIDDEN
 62
     7
370
     0
100
AcDbLine
 10
114.4738659454
 20
96.7532370176
 30
0.0
 11
114.4738659454
 21
95.8442951672
 31
0.0
  0
LINE
  5
124
330
1F
100
AcDbEntity
  8
0
  6
HIDDEN
 62
     7
370
     0
100
AcDbLine
 10
111.9738659454
 20
124.7440807384
 30
0.0
 11
111.9738659454
 21
123.914337325
 31
0.0
  0
SPLINE
  5
125
330
1F
100
AcDbEntity
  8
0
  6
HIDDEN
 62
     7
370
     0
100
AcDbSpline
210
0.0
220
0.0
230
1.0
 70
     8
 71
     3
 72
    20
 73
    16
 74
     0
 42
0.00000001
 43
0.00000001
 40
0.0
 40
0.0
 40
0.0
 40
0.0
 40
0.2499999999999992
 40
0.2499999999999992
 40
0.4999999999999984
 40
0.4999999999999984
 40
0.7499999999999977
 40
0.7499999999999977
 40
0.874999999999996
 40
0.874999999999996
 40
0.937499999999996
 40
0.937499999999996
 40
0.968749999999998
 40
0.968749999999998
 40
1.0
 40
1.0
 40
1.0
 40
1.0
 10
111.9738659454181
 20
123.9143373250456
 30
0.0
 10
111.9738659454181
 20
123.8537279253482
 30
0.0
 10
111.9484709258412
 20
123.7879019599447
 30
0.0
 10
111.8621777400592
 20
123.653854190598
 30
0.0
 10
111.801541761376
 20
123.5851588324563
 30
0.0
 10
111.6534399671547
 20
123.4447602808018
 30
0.0
 10
111.5666703603761
 20
123.3730567762205
 30
0.0
 10
111.4180325650469
 20
123.2668933744716
 30
0.0
 10
111.3657433481607
 20
123.2313650258401
 30
0.0
 10
111.2749795198507
 20
123.1816610953246
 30
0.0
 10
111.2426135273987
 20
123.1654000973095
 30
0.0
 10
111.1849243717325
 20
123.1462875289636
 30
0.0
 10
111.1639373438451
 20
123.1408963868821
 30
0.0
 10
111.1186483648546
 20
123.1351590184896
 30
0.0
 10
111.0956340960162
 20
123.135181752143
 30
0.0
 10
111.0738659454166
 20
123.1376070619559
 30
0.0
  0
SPLINE
  5
126
330
1F
100
AcDbEntity
  8
0
  6
HIDDEN
 62
     7
370
     0
100
AcDbSpline
210
0.0
220
0.0
230
1.0
 70
     8
 71
     3
 72
    12
 73
     8
 74
     0
 42
0.00000001
 43
0.00000001
 40
0.0
 40
0.0
 40
0.0
 40
0.0
 40
0.25
 40
0.25
 40
0.5
 40
0.5
 40
1.0
 40
1.0
 40
1.0
 40
1.0
 10
111.0738659454172
 20
123.137607061957
 30
0.0
 10
110.931823542228
 20
123.1534327901332
 30
0.0
 10
110.7877054357239
 20
123.1644539239086
 30
0.0
 10
110.4979509220513
 20
123.1829902857757
 30
0.0
 10
110.3522090186925
 20
123.1902609915115
 30
0.0
 10
109.9135287795127
 20
123.2087218418394
 30
0.0
 10
109.6191531634415
 20
123.216600708663
 30
0.0
 10
109.3238659454171
 20
123.2223937502761
 30
0.0
  0
SPLINE
  5
127
330
1F
100
AcDbEntity
  8
0
  6
HIDDEN
 62
     7
370
     0
100
AcDbSpline
210
0.0
220
0.0
230
1.0
 70
     8
 71
     3
 72
     8
 73
     4
 74
     0
 42
0.00000001
 43
0.00000001
 40
0.0
 40
0.0
 40
0.0
 40
0.0
 40
1.0
 40
1.0
 40
1.0
 40
1.0
 10
109.3238659454171
 20
123.2223937502761
 30
0.0
 10
109.2781010377278
 20
123.1608733711172
 30
0.0
 10
109.2437139160978
 20
123.0969785113678
 30
0.0
 10
109.2246986624249
 20
123.0302485663241
 30
0.0
  0
ELLIPSE
  5
128
330
1F
100
AcDbEntity
  8
0
  6
HIDDEN
 62
     7
370
     0
100
AcDbEllipse
 10
95.7677453069
 20
110.9959236546
 30
0.0
 11
13.36963611134301
 21
13.36754752639486
 31
0.0
210
0.0
220
0.0
230
1.0
 40
0.1761188775
 41
5.933076931846602
 42
5.976720052691205
  0
ELLIPSE
  5
129
330
1F
100
AcDbEntity
  8
0
  6
HIDDEN
 62
     7
370
     0
100
AcDbEllipse
 10
95.8471237376
 20
109.7175155255
 30
0.0
 11
13.37355272666616
 21
-13.37146352987011
 31
0.0
210
0.0
220
0.0
230
1.0
 40
0.1761188775
 41
0.3023035477142472
 42
0.3822730435340278
  0
LINE
  5
12A
330
1F
100
AcDbEntity
  8
0
  6
HIDDEN
 62
     7
370
     0
100
AcDbLine
 10
126.2738659454
 20
125.4605136041
 30
0.0
 11
126.2738659454
 21
95.2531128025
 31
0.0
  0
SPLINE
  5
12B
330
1F
100
AcDbEntity
  8
0
  6
HIDDEN
 62
     7
370
     0
100
AcDbSpline
210
0.0
220
0.0
230
1.0
 70
     8
 71
     3
 72
    10
 73
     6
 74
     0
 42
0.00000001
 43
0.00000001
 40
0.0
 40
0.0
 40
0.0
 40
0.0
 40
0.3556499614370418
 40
0.6701422322688179
 40
1.0
 40
1.0
 40
1.0
 40
1.0
 10
119.9228570910072
 20
95.65805849858111
 30
0.0
 10
119.8549802674075
 20
95.64888821235044
 30
0.0
 10
119.7270816844789
 20
95.63160887381112
 30
0.0
 10
119.4563336380477
 20
95.59490781864366
 30
0.0
 10
119.4928293820628
 20
95.60008294599626
 30
0.0
 10
119.5115124020552
 20
95.60273221402463
 30
0.0
  0
SPLINE
  5
12C
330
1F
100
AcDbEntity
  8
0
  6
HIDDEN
 62
     7
370
     0
100
AcDbSpline
210
0.0
220
0.0
230
1.0
 70
     8
 71
     3
 72
    18
 73
    14
 74
     0
 42
0.00000001
 43
0.00000001
 40
0.0
 40
0.0
 40
0.0
 40
0.0
 40
0.0797648005083274
 40
0.2353261136654752
 40
0.3892122120045898
 40
0.4654319170565206
 40
0.5419046188109912
 40
0.618402120957116
 40
0.6937209707400129
 40
0.769308570662658
 40
0.8460925071824833
 40
0.8462966662925693
 40
1.0
 40
1.0
 40
1.0
 40
1.0
 10
124.9871746124109
 20
95.3281570123794
 30
0.0
 10
124.9975603496036
 20
95.32572399210729
 30
0.0
 10
125.0282008721843
 20
95.31854597371495
 30
0.0
 10
124.6091308594764
 20
95.41970097359862
 30
0.0
 10
123.9703316517279
 20
95.54808579037058
 30
0.0
 10
123.3221297478515
 20
95.64379328873662
 30
0.0
 10
122.7939481363425
 20
95.70156471366683
 30
0.0
 10
122.2441059179097
 20
95.74143945311525
 30
0.0
 10
121.6966299000444
 20
95.75788801491984
 30
0.0
 10
121.1641489153323
 20
95.75406509741735
 30
0.0
 10
120.8555445462893
 20
95.73524601481996
 30
0.0
 10
120.3704747954786
 20
95.71299794813405
 30
0.0
 10
120.146517402905
 20
95.6855099918973
 30
0.0
 10
119.9228570910072
 20
95.65805849858111
 30
0.0
  0
SPLINE
  5
12D
330
1F
100
AcDbEntity
  8
0
  6
HIDDEN
 62
     7
370
     0
100
AcDbSpline
210
0.0
220
0.0
230
1.0
 70
     8
 71
     3
 72
    17
 73
    13
 74
     0
 42
0.00000001
 43
0.00000001
 40
0.0
 40
0.0
 40
0.0
 40
0.0
 40
0.0739032256017013
 40
0.1539091808618508
 40
0.2309802340482592
 40
0.3067446977525684
 40
0.3820733276054966
 40
0.4587871252855208
 40
0.6108165472069151
 40
0.7646256181232804
 40
0.9200673128621545
 40
1.0
 40
1.0
 40
1.0
 40
1.0
 10
119.9227396607201
 20
125.0555534240783
 30
0.0
 10
120.0482249258856
 20
125.044606425974
 30
0.0
 10
120.3095576920078
 20
125.0218084560963
 30
0.0
 10
120.6627106691901
 20
124.9836301161335
 30
0.0
 10
121.1732558818197
 20
124.9608352624755
 30
0.0
 10
121.6958800904044
 20
124.9553704555442
 30
0.0
 10
122.2469870922747
 20
124.9723633750207
 30
0.0
 10
122.9764309503359
 20
125.0249344346906
 30
0.0
 10
123.8483385712282
 20
125.1402760558278
 30
0.0
 10
124.609713888273
 20
125.2940923709799
 30
0.0
 10
125.0282713787007
 20
125.3951364658232
 30
0.0
 10
124.9975334186064
 20
125.3877916235528
 30
0.0
 10
124.9870948665096
 20
125.385297329252
 30
0.0
  0
SPLINE
  5
12E
330
1F
100
AcDbEntity
  8
0
  6
HIDDEN
 62
     7
370
     0
100
AcDbSpline
210
0.0
220
0.0
230
1.0
 70
     8
 71
     3
 72
     9
 73
     5
 74
     0
 42
0.00000001
 43
0.00000001
 40
0.0
 40
0.0
 40
0.0
 40
0.0
 40
0.3345275994140716
 40
0.9999999999999999
 40
0.9999999999999999
 40
0.9999999999999999
 40
0.9999999999999999
 10
119.5101962350691
 20
125.110707235715
 30
0.0
 10
119.4979921767299
 20
125.1123208954139
 30
0.0
 10
119.4615107074564
 20
125.1171445921783
 30
0.0
 10
119.7384465204434
 20
125.0801633920826
 30
0.0
 10
119.9227396607201
 20
125.0555534240783
 30
0.0
  0
LINE
  5
12F
330
1F
100
AcDbEntity
  8
0
  6
HIDDEN
 62
     7
370
     0
100
AcDbLine
 10
148.2238659454
 20
96.8568132033
 30
0.0
 11
148.2238659454
 21
123.8347961063
 31
0.0
  0
SPLINE
  5
130
330
1F
100
AcDbEntity
  8
0
  6
HIDDEN
 62
     7
370
     0
100
AcDbSpline
210
0.0
220
0.0
230
1.0
 70
    11
 71
     3
 72
    50
 73
    46
 74
     0
 42
0.00000001
 43
0.00000001
 40
0.0
 40
0.0
 40
0.0
 40
0.0
 40
0.0624999999999997
 40
0.0624999999999997
 40
0.1249999999999993
 40
0.1249999999999993
 40
0.1562499999999993
 40
0.1562499999999993
 40
0.1874999999999992
 40
0.1874999999999992
 40
0.2187499999999991
 40
0.2187499999999991
 40
0.2499999999999991
 40
0.2499999999999991
 40
0.281249999999999
 40
0.281249999999999
 40
0.3124999999999989
 40
0.3124999999999989
 40
0.374999999999999
 40
0.374999999999999
 40
0.4374999999999991
 40
0.4374999999999991
 40
0.4999999999999992
 40
0.4999999999999992
 40
0.5312499999999992
 40
0.5312499999999992
 40
0.5624999999999993
 40
0.5624999999999993
 40
0.5937499999999993
 40
0.5937499999999993
 40
0.6249999999999994
 40
0.6249999999999994
 40
0.6562499999999994
 40
0.6562499999999994
 40
0.6874999999999996
 40
0.6874999999999996
 40
0.7499999999999996
 40
0.7499999999999996
 40
0.8124999999999997
 40
0.8124999999999997
 40
0.8749999999999998
 40
0.8749999999999998
 40
0.9374999999999999
 40
0.9374999999999999
 40
1.0
 40
1.0
 40
1.0
 40
1.0
 10
124.0980426732946
 20
97.6840029098178
 30
0.0
 10
123.951787838493
 20
97.70505543564326
 30
0.0
 10
123.7803192015347
 20
97.72733666032534
 30
0.0
 10
123.3871745960247
 20
97.76817815067425
 30
0.0
 10
123.1719304104595
 20
97.78593578559519
 30
0.0
 10
122.8291906239098
 20
97.80420907843879
 30
0.0
 10
122.7109442408543
 20
97.80891901745282
 30
0.0
 10
122.475165238676
 20
97.81491811251162
 30
0.0
 10
122.35659892897
 20
97.81627394490744
 30
0.0
 10
122.1181038481695
 20
97.81557953289675
 30
0.0
 10
121.9973114546476
 20
97.81348102990542
 30
0.0
 10
121.7622454891824
 20
97.80609788037961
 30
0.0
 10
121.6471899766824
 20
97.80083511710868
 30
0.0
 10
121.4219702219396
 20
97.78758135506015
 30
0.0
 10
121.3108880523373
 20
97.77950228038269
 30
0.0
 10
121.0996366054016
 20
97.76156655338767
 30
0.0
 10
120.9992783709009
 20
97.75173031817422
 30
0.0
 10
120.7136344138775
 20
97.72071464975278
 30
0.0
 10
120.5433556702816
 20
97.6978829555341
 30
0.0
 10
120.2672045403613
 20
97.65718568120339
 30
0.0
 10
120.1575053539765
 20
97.63885963163122
 30
0.0
 10
120.0119622728126
 20
97.61383203238627
 30
0.0
 10
119.9739556373553
 20
97.6068293830188
 30
0.0
 10
119.9738213439975
 20
97.60680515755199
 30
0.0
 10
119.9829390992398
 20
97.60845974480814
 30
0.0
 10
120.0198576447534
 20
97.61504238808101
 30
0.0
 10
120.0478312997781
 20
97.61999862960369
 30
0.0
 10
120.1206028792304
 20
97.63251530230202
 30
0.0
 10
120.1655281173921
 20
97.64009984161547
 30
0.0
 10
120.2725714323475
 20
97.65740809698865
 30
0.0
 10
120.335139473314
 20
97.66719238878137
 30
0.0
 10
120.4735303760534
 20
97.68759759044744
 30
0.0
 10
120.5497138318279
 20
97.69828254537052
 30
0.0
 10
120.716069565639
 20
97.71986628294792
 30
0.0
 10
120.8070978680837
 20
97.73085239194904
 30
0.0
 10
121.0937516847566
 20
97.76200947571515
 30
0.0
 10
121.3058037428742
 20
97.78070566275132
 30
0.0
 10
121.7589810188288
 20
97.8074529434668
 30
0.0
 10
121.9936106675687
 20
97.81515855016862
 30
0.0
 10
122.4750342170273
 20
97.8166765576668
 30
0.0
 10
122.7103395872957
 20
97.81048786943444
 30
0.0
 10
123.1702472389713
 20
97.78608253374162
 30
0.0
 10
123.3846757509305
 20
97.76839937981632
 30
0.0
 10
123.7778749356959
 20
97.7276284627837
 30
0.0
 10
123.951784007361
 20
97.70505598711226
 30
0.0
 10
124.0980426732946
 20
97.6840029098178
 30
0.0
  0
SPLINE
  5
131
330
1F
100
AcDbEntity
  8
0
  6
HIDDEN
 62
     7
370
     0
100
AcDbSpline
210
0.0
220
0.0
230
1.0
 70
    11
 71
     3
 72
    50
 73
    46
 74
     0
 42
0.00000001
 43
0.00000001
 40
0.0
 40
0.0
 40
0.0
 40
0.0
 40
0.0624999999999998
 40
0.0624999999999998
 40
0.1249999999999996
 40
0.1249999999999996
 40
0.1562499999999996
 40
0.1562499999999996
 40
0.1874999999999996
 40
0.1874999999999996
 40
0.2187499999999996
 40
0.2187499999999996
 40
0.2499999999999997
 40
0.2499999999999997
 40
0.2812499999999997
 40
0.2812499999999997
 40
0.3124999999999997
 40
0.3124999999999997
 40
0.3749999999999999
 40
0.3749999999999999
 40
0.4375000000000002
 40
0.4375000000000002
 40
0.5000000000000004
 40
0.5000000000000004
 40
0.5312500000000006
 40
0.5312500000000006
 40
0.5625000000000007
 40
0.5625000000000007
 40
0.5937500000000008
 40
0.5937500000000008
 40
0.6250000000000009
 40
0.6250000000000009
 40
0.656250000000001
 40
0.656250000000001
 40
0.687500000000001
 40
0.687500000000001
 40
0.7500000000000008
 40
0.7500000000000008
 40
0.8125000000000006
 40
0.8125000000000006
 40
0.8750000000000003
 40
0.8750000000000003
 40
0.9375000000000002
 40
0.9375000000000002
 40
1.0
 40
1.0
 40
1.0
 40
1.0
 10
124.0980426732946
 20
123.0296234967777
 30
0.0
 10
123.951787838493
 20
123.0085709709522
 30
0.0
 10
123.7803192015347
 20
122.9862897462701
 30
0.0
 10
123.3871745960247
 20
122.9454482559212
 30
0.0
 10
123.1719304104594
 20
122.9276906210003
 30
0.0
 10
122.8291906239098
 20
122.9094173281567
 30
0.0
 10
122.7109442408543
 20
122.9047073891427
 30
0.0
 10
122.475165238676
 20
122.8987082940839
 30
0.0
 10
122.35659892897
 20
122.897352461688
 30
0.0
 10
122.1181038481695
 20
122.8980468736987
 30
0.0
 10
121.9973114546476
 20
122.9001453766901
 30
0.0
 10
121.7622454891824
 20
122.9075285262159
 30
0.0
 10
121.6471899766824
 20
122.9127912894868
 30
0.0
 10
121.4219702219395
 20
122.9260450515353
 30
0.0
 10
121.3108880523373
 20
122.9341241262128
 30
0.0
 10
121.0996366054016
 20
122.9520598532078
 30
0.0
 10
120.9992783709009
 20
122.9618960884213
 30
0.0
 10
120.7136344138775
 20
122.9929117568427
 30
0.0
 10
120.5433556702816
 20
123.0157434510614
 30
0.0
 10
120.2672045403613
 20
123.0564407253921
 30
0.0
 10
120.1575053539765
 20
123.0747667749643
 30
0.0
 10
120.0119622728126
 20
123.0997943742092
 30
0.0
 10
119.9739556373553
 20
123.1067970235767
 30
0.0
 10
119.9738213439975
 20
123.1068212490435
 30
0.0
 10
119.9829390992398
 20
123.1051666617874
 30
0.0
 10
120.0198576447534
 20
123.0985840185145
 30
0.0
 10
120.0478312997781
 20
123.0936277769918
 30
0.0
 10
120.1206028792304
 20
123.0811111042935
 30
0.0
 10
120.1655281173921
 20
123.07352656498
 30
0.0
 10
120.2725714323476
 20
123.0562183096068
 30
0.0
 10
120.335139473314
 20
123.0464340178141
 30
0.0
 10
120.4735303760534
 20
123.026028816148
 30
0.0
 10
120.5497138318279
 20
123.015343861225
 30
0.0
 10
120.716069565639
 20
122.9937601236476
 30
0.0
 10
120.8070978680837
 20
122.9827740146464
 30
0.0
 10
121.0937516847566
 20
122.9516169308803
 30
0.0
 10
121.3058037428742
 20
122.9329207438442
 30
0.0
 10
121.7589810188288
 20
122.9061734631287
 30
0.0
 10
121.9936106675687
 20
122.8984678564269
 30
0.0
 10
122.4750342170273
 20
122.8969498489287
 30
0.0
 10
122.7103395872957
 20
122.903138537161
 30
0.0
 10
123.1702472389713
 20
122.9275438728539
 30
0.0
 10
123.3846757509305
 20
122.9452270267792
 30
0.0
 10
123.7778749356959
 20
122.9859979438118
 30
0.0
 10
123.951784007361
 20
123.0085704194832
 30
0.0
 10
124.0980426732946
 20
123.0296234967776
 30
0.0
  0
SPLINE
  5
132
330
1F
100
AcDbEntity
  8
0
  6
HIDDEN
 62
     7
370
     0
100
AcDbSpline
210
0.0
220
0.0
230
1.0
 70
    11
 71
     3
 72
    14
 73
    10
 74
     0
 42
0.00000001
 43
0.00000001
 40
0.0
 40
0.0
 40
0.0
 40
0.0
 40
0.2500000000000001
 40
0.2500000000000001
 40
0.5000000000000001
 40
0.5000000000000001
 40
0.75
 40
0.75
 40
1.0
 40
1.0
 40
1.0
 40
1.0
 10
124.0980426732946
 20
123.0296234967776
 30
0.0
 10
124.2519185689975
 20
123.0517730296296
 30
0.0
 10
124.3697991366265
 20
123.0645850967032
 30
0.0
 10
124.5328629265392
 20
123.0809378055337
 30
0.0
 10
124.5737794451629
 20
123.0841135682516
 30
0.0
 10
124.5739521776791
 20
123.0841282704283
 30
0.0
 10
124.5330244194452
 20
123.0809487194349
 30
0.0
 10
124.3706870539797
 20
123.0646793879574
 30
0.0
 10
124.2519167858736
 20
123.0517727729594
 30
0.0
 10
124.0980426732946
 20
123.0296234967776
 30
0.0
  0
SPLINE
  5
133
330
1F
100
AcDbEntity
  8
0
  6
HIDDEN
 62
     7
370
     0
100
AcDbSpline
210
0.0
220
0.0
230
1.0
 70
    11
 71
     3
 72
    14
 73
    10
 74
     0
 42
0.00000001
 43
0.00000001
 40
0.0
 40
0.0
 40
0.0
 40
0.0
 40
0.25
 40
0.25
 40
0.5
 40
0.5
 40
0.75
 40
0.75
 40
1.0
 40
1.0
 40
1.0
 40
1.0
 10
124.0980426732946
 20
97.68400290981785
 30
0.0
 10
124.2519185689975
 20
97.66185337696587
 30
0.0
 10
124.3697991366265
 20
97.64904130989223
 30
0.0
 10
124.5328629265392
 20
97.63268860106177
 30
0.0
 10
124.5737794451629
 20
97.62951283834393
 30
0.0
 10
124.5739521776791
 20
97.6294981361672
 30
0.0
 10
124.5330244194452
 20
97.63267768716062
 30
0.0
 10
124.3706870539797
 20
97.64894701863811
 30
0.0
 10
124.2519167858736
 20
97.6618536336361
 30
0.0
 10
124.0980426732946
 20
97.68400290981785
 30
0.0
  0
LINE
  5
134
330
1F
100
AcDbEntity
  8
0
  6
HIDDEN
 62
     7
370
     0
100
AcDbLine
 10
128.2738659454
 20
99.8568132033
 30
0.0
 11
128.2738659454
 21
120.8352398272
 31
0.0
  0
LINE
  5
135
330
1F
100
AcDbEntity
  8
0
  6
HIDDEN
 62
     7
370
     0
100
AcDbLine
 10
116.2765156762
 20
120.8568132033
 30
0.0
 11
116.2765156762
 21
99.8568132033
 31
0.0
  0
LWPOLYLINE
  5
136
330
1F
100
AcDbEntity
  8
0
  6
HIDDEN
 62
     7
370
     0
100
AcDbPolyline
 90
        2
 70
   128
 43
0.0
 10
116.2765156762
 20
99.8568132033
 10
116.2765156762
 20
99.8568132033
  0
SPLINE
  5
137
330
1F
100
AcDbEntity
  8
0
  6
HIDDEN
 62
     7
370
     0
100
AcDbSpline
210
0.0
220
0.0
230
1.0
 70
     8
 71
     3
 72
    62
 73
    58
 74
     0
 42
0.00000001
 43
0.00000001
 40
-0.0312499999999989
 40
-0.0312499999999989
 40
0.0
 40
0.0
 40
0.0312499999999998
 40
0.0312499999999998
 40
0.0624999999999995
 40
0.0624999999999995
 40
0.0937499999999993
 40
0.0937499999999993
 40
0.124999999999999
 40
0.124999999999999
 40
0.1874999999999986
 40
0.1874999999999986
 40
0.2187499999999979
 40
0.2187499999999979
 40
0.2499999999999971
 40
0.2499999999999971
 40
0.2812499999999964
 40
0.2812499999999964
 40
0.3124999999999957
 40
0.3124999999999957
 40
0.3437499999999951
 40
0.3437499999999951
 40
0.3749999999999944
 40
0.3749999999999944
 40
0.4062499999999937
 40
0.4062499999999937
 40
0.437499999999993
 40
0.437499999999993
 40
0.4687499999999923
 40
0.4687499999999923
 40
0.4999999999999916
 40
0.4999999999999916
 40
0.5624999999999929
 40
0.5624999999999929
 40
0.5937499999999934
 40
0.5937499999999934
 40
0.6249999999999941
 40
0.6249999999999941
 40
0.6562499999999948
 40
0.6562499999999948
 40
0.6874999999999954
 40
0.6874999999999954
 40
0.7499999999999976
 40
0.7499999999999976
 40
0.7812499999999987
 40
0.7812499999999987
 40
0.8124999999999998
 40
0.8124999999999998
 40
0.8437500000000009
 40
0.8437500000000009
 40
0.875000000000002
 40
0.875000000000002
 40
0.9375000000000022
 40
0.9375000000000022
 40
0.9687500000000011
 40
0.9687500000000011
 40
1.0
 40
1.0
 40
1.03125
 40
1.03125
 10
226.4394764683301
 20
111.1118716186527
 30
0.0
 10
226.1082554225044
 20
111.1118716186527
 30
0.0
 10
225.9454981426554
 20
111.1284781973646
 30
0.0
 10
225.625429656852
 20
111.1933639233233
 30
0.0
 10
225.4664311758764
 20
111.2424586202698
 30
0.0
 10
225.16389699729
 20
111.3699086125513
 30
0.0
 10
225.020475284615
 20
111.4477141383528
 30
0.0
 10
224.7490447735607
 20
111.630848432906
 30
0.0
 10
224.6208633801373
 20
111.7368799376418
 30
0.0
 10
224.2759464995966
 20
112.0828769181981
 30
0.0
 10
224.0898119304225
 20
112.3601327788347
 30
0.0
 10
223.9025693395492
 20
112.8047005805087
 30
0.0
 10
223.8543347747352
 20
112.9597384501013
 30
0.0
 10
223.7899441046437
 20
113.2749030040833
 30
0.0
 10
223.7739631975734
 20
113.4326857703512
 30
0.0
 10
223.7737695697982
 20
113.7485569629555
 30
0.0
 10
223.7900999476832
 20
113.9081711259514
 30
0.0
 10
223.8540636994322
 20
114.2149374456519
 30
0.0
 10
223.9013850057055
 20
114.3632846125136
 30
0.0
 10
224.0269818917931
 20
114.6501321676125
 30
0.0
 10
224.1050691229022
 20
114.7872870680748
 30
0.0
 10
224.2858088221001
 20
115.040639034652
 30
0.0
 10
224.3896048111743
 20
115.1588075837057
 30
0.0
 10
224.6219168813264
 20
115.3746985329809
 30
0.0
 10
224.7476824996326
 20
115.4700782893222
 30
0.0
 10
225.0179982800957
 20
115.6370296082039
 30
0.0
 10
225.1643443764762
 20
115.7091553568705
 30
0.0
 10
225.4664699409151
 20
115.8241940851813
 30
0.0
 10
225.6222897702336
 20
115.8676162382481
 30
0.0
 10
225.9435472954558
 20
115.9264345816707
 30
0.0
 10
226.1094789659823
 20
115.9414398742518
 30
0.0
 10
226.5995887187725
 20
115.9416219350794
 30
0.0
 10
226.9293687415618
 20
115.8817565708299
 30
0.0
 10
227.3809120661712
 20
115.7102331505134
 30
0.0
 10
227.5269096603552
 20
115.6386051262602
 30
0.0
 10
227.7991003962507
 20
115.4708306805731
 30
0.0
 10
227.9247093096208
 20
115.3754857565573
 30
0.0
 10
228.155374547344
 20
115.1616018822598
 30
0.0
 10
228.2608028657577
 20
115.0420218160644
 30
0.0
 10
228.4419340865465
 20
114.7884940565146
 30
0.0
 10
228.5189369985517
 20
114.6536148073217
 30
0.0
 10
228.7082480534417
 20
114.2232028016491
 30
0.0
 10
228.7736336832912
 20
113.9126406025585
 30
0.0
 10
228.7739811534564
 20
113.4342979973094
 30
0.0
 10
228.7579044549452
 20
113.2763888676555
 30
0.0
 10
228.6943762649499
 20
112.9636317422724
 30
0.0
 10
228.6460806953397
 20
112.807209960569
 30
0.0
 10
228.5209347410571
 20
112.5094225328824
 30
0.0
 10
228.4442722519868
 20
112.3671904774255
 30
0.0
 10
228.2626374653615
 20
112.096372773696
 30
0.0
 10
228.1577106751224
 20
111.9685800791524
 30
0.0
 10
227.8132533999857
 20
111.6226406898393
 30
0.0
 10
227.5351611926086
 20
111.4339593086217
 30
0.0
 10
227.0841942429508
 20
111.243528669344
 30
0.0
 10
226.925608913345
 20
111.1941742863145
 30
0.0
 10
226.6029314709136
 20
111.128481351579
 30
0.0
 10
226.4394764683301
 20
111.1118716186527
 30
0.0
 10
226.1082554225044
 20
111.1118716186527
 30
0.0
  0
LINE
  5
138
330
1F
100
AcDbEntity
  8
0
  6
HIDDEN
 62
     7
370
     0
100
AcDbLine
 10
244.2738659454
 20
97.8568209747
 30
0.0
 11
244.2738659454
 21
122.8568132033
 31
0.0
  0
LINE
  5
139
330
1F
100
AcDbEntity
  8
0
  6
HIDDEN
 62
     7
370
     0
100
AcDbLine
 10
143.2338659454
 20
123.8724450261
 30
0.0
 11
143.2338659454
 21
127.7594171751
 31
0.0
  0
LINE
  5
13A
330
1F
100
AcDbEntity
  8
0
  6
HIDDEN
 62
     7
370
     0
100
AcDbLine
 10
145.3138659454
 20
123.8726603836
 30
0.0
 11
145.3138659454
 21
127.7594171751
 31
0.0
  0
LINE
  5
13B
330
1F
100
AcDbEntity
  8
0
  6
HIDDEN
 62
     7
370
     0
100
AcDbLine
 10
143.2965554864
 20
122.2068132033
 30
0.0
 11
148.2238659454
 21
122.2068132033
 31
0.0
  0
LINE
  5
13C
330
1F
100
AcDbEntity
  8
0
  6
HIDDEN
 62
     7
370
     0
100
AcDbLine
 10
108.3738659454
 20
100.4918070602
 30
0.0
 11
108.3738659454
 21
120.2218193464
 31
0.0
  0
LINE
  5
13D
330
1F
100
AcDbEntity
  8
0
  6
HIDDEN
 62
     7
370
     0
100
AcDbLine
 10
134.4432411956
 20
120.8568132033
 30
0.0
 11
134.4432411956
 21
99.8568132033
 31
0.0
  0
LINE
  5
13E
330
1F
100
AcDbEntity
  8
0
  6
HIDDEN
 62
     7
370
     0
100
AcDbLine
 10
136.2238659454
 20
120.2318131727
 30
0.0
 11
136.2238659454
 21
100.4818132033
 31
0.0
  0
SPLINE
  5
13F
330
1F
100
AcDbEntity
  8
0
  6
HIDDEN
 62
     7
370
     0
100
AcDbSpline
210
0.0
220
0.0
230
1.0
 70
    11
 71
     3
 72
    62
 73
    58
 74
     0
 42
0.00000001
 43
0.00000001
 40
0.0
 40
0.0
 40
0.0
 40
0.0
 40
0.0000199610010071
 40
0.0000199610010071
 40
0.0000199610010071
 40
0.0000420510319874
 40
0.0000420510319874
 40
0.0000420510319874
 40
0.0000647011391136
 40
0.0000647011391136
 40
0.0000647011391136
 40
0.0000877094689646
 40
0.0000877094689646
 40
0.0000877094689646
 40
0.0001106617354473
 40
0.0001106617354473
 40
0.0001106617354473
 40
0.0001332009088829
 40
0.0001332009088829
 40
0.0001332009088829
 40
0.0001552351602099
 40
0.0001552351602099
 40
0.0001552351602099
 40
0.0001769508306573
 40
0.0001769508306573
 40
0.0001769508306573
 40
0.0001986426065521
 40
0.0001986426065521
 40
0.0001986426065521
 40
0.0002205227935952
 40
0.0002205227935952
 40
0.0002205227935952
 40
0.0002426475605063
 40
0.0002426475605063
 40
0.0002426475605063
 40
0.0002649844494339
 40
0.0002649844494339
 40
0.0002649844494339
 40
0.0002875175834047
 40
0.0002875175834047
 40
0.0002875175834047
 40
0.0003102411492766
 40
0.0003102411492766
 40
0.0003102411492766
 40
0.0003330366117379
 40
0.0003330366117379
 40
0.0003330366117379
 40
0.0003556173291438
 40
0.0003556173291438
 40
0.0003556173291438
 40
0.0003777035265182
 40
0.0003777035265182
 40
0.0003777035265182
 40
0.0003992988729429
 40
0.0003992988729429
 40
0.0003992988729429
 40
0.0004141893145673
 40
0.0004141893145673
 40
0.0004141893145673
 40
0.0004141893145673
 10
226.3012396078877
 20
107.51719468085
 30
0.0
 10
226.3075028306712
 20
107.5193992775901
 30
0.0
 10
226.3134851032921
 20
107.5225602961622
 30
0.0
 10
226.3187902202481
 20
107.526446695951
 30
0.0
 10
226.3246488147713
 20
107.5307385599582
 30
0.0
 10
226.3298304079989
 20
107.5360273476724
 30
0.0
 10
226.3339447652878
 20
107.5418833621595
 30
0.0
 10
226.3381617246322
 20
107.5478854113929
 30
0.0
 10
226.3413721033472
 20
107.5546456048492
 30
0.0
 10
226.3433245535136
 20
107.5616182717012
 30
0.0
 10
226.3453068962413
 20
107.568697692044
 30
0.0
 10
226.3460457904719
 20
107.5761928219824
 30
0.0
 10
226.3454649222034
 20
107.583476877322
 30
0.0
 10
226.3448856366422
 20
107.5907410856013
 30
0.0
 10
226.3429743779097
 20
107.5980004948405
 30
0.0
 10
226.3398686400219
 20
107.6046184960888
 30
0.0
 10
226.3368185203118
 20
107.6111179808417
 30
0.0
 10
226.3325274083114
 20
107.6171823022822
 30
0.0
 10
226.3273477726386
 20
107.6222675994188
 30
0.0
 10
226.3222821916155
 20
107.6272409192235
 30
0.0
 10
226.316224177271
 20
107.6314170743463
 30
0.0
 10
226.3096851460672
 20
107.6344311321708
 30
0.0
 10
226.3032380222062
 20
107.6374028268321
 30
0.0
 10
226.2961458888646
 20
107.6393280050671
 30
0.0
 10
226.2889984129507
 20
107.6400536707842
 30
0.0
 10
226.2818573815252
 20
107.6407786822082
 30
0.0
 10
226.2744665473995
 20
107.6403278368075
 30
0.0
 10
226.2674258493922
 20
107.6387538414459
 30
0.0
 10
226.2603242397852
 20
107.6371662288868
 30
0.0
 10
226.2533856572557
 20
107.6343939194062
 30
0.0
 10
226.2471663964075
 20
107.6306775606167
 30
0.0
 10
226.240878458404
 20
107.6269201633571
 30
0.0
 10
226.2351546655224
 20
107.622095972038
 30
0.0
 10
226.2304521969836
 20
107.6166090225214
 30
0.0
 10
226.2257051389277
 20
107.6110700449205
 30
0.0
 10
226.2218694427082
 20
107.6047052782935
 30
0.0
 10
226.2192477428325
 20
107.5980392928573
 30
0.0
 10
226.2166032441228
 20
107.5913153386592
 30
0.0
 10
226.2151211290166
 20
107.5841017977136
 30
0.0
 10
226.2149148163727
 20
107.5769854693654
 30
0.0
 10
226.2147067980073
 20
107.5698103056757
 30
0.0
 10
226.2157897105114
 20
107.5625362447373
 30
0.0
 10
226.2180790122455
 20
107.555757662864
 30
0.0
 10
226.2203749155669
 20
107.5489595338079
 30
0.0
 10
226.2239499131397
 20
107.5424692645392
 30
0.0
 10
226.2285221943047
 20
107.5368384898847
 30
0.0
 10
226.2330506703823
 20
107.5312616612949
 30
0.0
 10
226.2386888103467
 20
107.5263706710024
 30
0.0
 10
226.2449702702646
 20
107.5226061529621
 30
0.0
 10
226.2511155009126
 20
107.5189232779714
 30
0.0
 10
226.2580521716869
 20
107.5162158239776
 30
0.0
 10
226.265187952048
 20
107.5147345710982
 30
0.0
 10
226.2721688587464
 20
107.5132854670585
 30
0.0
 10
226.279534000764
 20
107.5129693941023
 30
0.0
 10
226.2866649611027
 20
107.5138115587249
 30
0.0
 10
226.2916195809731
 20
107.5143966980855
 30
0.0
 10
226.2965430900786
 20
107.5155415498327
 30
0.0
 10
226.3012396078877
 20
107.51719468085
 30
0.0
  0
SPLINE
  5
140
330
1F
100
AcDbEntity
  8
0
  6
HIDDEN
 62
     7
370
     0
100
AcDbSpline
210
0.0
220
0.0
230
1.0
 70
     8
 71
     3
 72
    14
 73
    10
 74
     0
 42
0.00000001
 43
0.00000001
 40
0.0
 40
0.0
 40
0.0
 40
0.0
 40
0.25
 40
0.25
 40
0.5
 40
0.5
 40
0.75
 40
0.75
 40
1.0
 40
1.0
 40
1.0
 40
1.0
 10
226.5596348223613
 20
105.8884570448192
 30
0.0
 10
226.4236821838646
 20
105.9504408174306
 30
0.0
 10
226.2858506886801
 20
106.0139659010885
 30
0.0
 10
225.9959037551443
 20
106.1379458931604
 30
0.0
 10
225.8403690940551
 20
106.1985914496067
 30
0.0
 10
225.5249676892913
 20
106.3031765249747
 30
0.0
 10
225.362954094322
 20
106.3485798602854
 30
0.0
 10
225.0427747711925
 20
106.4356054839878
 30
0.0
 10
224.8857896316757
 20
106.4774364370379
 30
0.0
 10
224.7309092260813
 20
106.5220423503191
 30
0.0
  0
SPLINE
  5
141
330
1F
100
AcDbEntity
  8
0
  6
HIDDEN
 62
     7
370
     0
100
AcDbSpline
210
0.0
220
0.0
230
1.0
 70
     8
 71
     3
 72
    62
 73
    58
 74
     0
 42
0.00000001
 43
0.00000001
 40
0.0
 40
0.0
 40
0.0
 40
0.0
 40
0.0624999999999882
 40
0.0624999999999882
 40
0.1249999999999765
 40
0.1249999999999765
 40
0.1562499999999721
 40
0.1562499999999721
 40
0.1874999999999677
 40
0.1874999999999677
 40
0.203124999999967
 40
0.203124999999967
 40
0.2187499999999664
 40
0.2187499999999664
 40
0.2343749999999657
 40
0.2343749999999657
 40
0.249999999999965
 40
0.249999999999965
 40
0.2812499999999664
 40
0.2812499999999664
 40
0.3124999999999678
 40
0.3124999999999678
 40
0.3749999999999691
 40
0.3749999999999691
 40
0.4374999999999705
 40
0.4374999999999705
 40
0.4687499999999708
 40
0.4687499999999708
 40
0.499999999999971
 40
0.499999999999971
 40
0.5312499999999712
 40
0.5312499999999712
 40
0.5624999999999715
 40
0.5624999999999715
 40
0.6249999999999732
 40
0.6249999999999732
 40
0.6562499999999754
 40
0.6562499999999754
 40
0.6874999999999775
 40
0.6874999999999775
 40
0.7499999999999816
 40
0.7499999999999816
 40
0.8124999999999858
 40
0.8124999999999858
 40
0.843749999999989
 40
0.843749999999989
 40
0.8749999999999922
 40
0.8749999999999922
 40
0.8906249999999929
 40
0.8906249999999929
 40
0.9062499999999937
 40
0.9062499999999937
 40
0.9374999999999958
 40
0.9374999999999958
 40
0.9687499999999979
 40
0.9687499999999979
 40
1.0
 40
1.0
 40
1.0
 40
1.0
 10
225.0032494867314
 20
110.1808539485641
 30
0.0
 10
225.1768774804001
 20
110.2826722517247
 30
0.0
 10
225.3573796812317
 20
110.3451127476002
 30
0.0
 10
225.7301564841971
 20
110.4118681276925
 30
0.0
 10
225.9198466718164
 20
110.4146781226641
 30
0.0
 10
226.2021520303698
 20
110.3817718450097
 30
0.0
 10
226.2964393880594
 20
110.3645970203658
 30
0.0
 10
226.4880748993166
 20
110.3181786142496
 30
0.0
 10
226.5853684669176
 20
110.2887967579726
 30
0.0
 10
226.7371224794649
 20
110.2363536722902
 30
0.0
 10
226.7891653961661
 20
110.2173219851525
 30
0.0
 10
226.896094401716
 20
110.177427764608
 30
0.0
 10
226.9524097191579
 20
110.1560901794003
 30
0.0
 10
227.0634288302282
 20
110.1152151247991
 30
0.0
 10
227.1186445507759
 20
110.0955751957324
 30
0.0
 10
227.2199150766698
 20
110.0600520614629
 30
0.0
 10
227.2667562454483
 20
110.0437441227955
 30
0.0
 10
227.3973087167782
 20
109.9964661459932
 30
0.0
 10
227.4744934943792
 20
109.965789281834
 30
0.0
 10
227.6189774416416
 20
109.8986090326488
 30
0.0
 10
227.6856229906596
 20
109.8625587154135
 30
0.0
 10
227.8738445366808
 20
109.7432042291609
 30
0.0
 10
227.9838441456804
 20
109.6490800786157
 30
0.0
 10
228.1730167196874
 20
109.4186266532543
 30
0.0
 10
228.2496214378124
 20
109.285085251812
 30
0.0
 10
228.3280686497065
 20
109.0508949713062
 30
0.0
 10
228.3481060537625
 20
108.9664109100123
 30
0.0
 10
228.3722998424645
 20
108.7890204450527
 30
0.0
 10
228.3767452360142
 20
108.6955951333398
 30
0.0
 10
228.3673131696098
 20
108.497252850553
 30
0.0
 10
228.3533165630611
 20
108.3938660742717
 30
0.0
 10
228.3057639680914
 20
108.183667445921
 30
0.0
 10
228.2714509501135
 20
108.0745359144966
 30
0.0
 10
228.1419648107079
 20
107.7547921906665
 30
0.0
 10
228.0174885201534
 20
107.5457571502897
 30
0.0
 10
227.8016320788924
 20
107.2688438616155
 30
0.0
 10
227.7241456107462
 20
107.1814127337416
 30
0.0
 10
227.5661380738779
 20
107.0215279898178
 30
0.0
 10
227.484858066829
 20
106.948055325517
 30
0.0
 10
227.2354234800224
 20
106.7440318363384
 30
0.0
 10
227.0646928681253
 20
106.6324727100454
 30
0.0
 10
226.7301440262053
 20
106.4512146145871
 30
0.0
 10
226.562489778432
 20
106.3800484807495
 30
0.0
 10
226.3261555281728
 20
106.2980801278395
 30
0.0
 10
226.2496611360191
 20
106.2747823810247
 30
0.0
 10
226.1055342973972
 20
106.2332616514642
 30
0.0
 10
226.0368513689567
 20
106.2155381298821
 30
0.0
 10
225.9549633695707
 20
106.1853066776124
 30
0.0
 10
225.9318438546509
 20
106.174570246015
 30
0.0
 10
225.9050493235757
 20
106.1487175445024
 30
0.0
 10
225.9025002780431
 20
106.1334628303784
 30
0.0
 10
225.9340866404371
 20
106.0818288689647
 30
0.0
 10
225.999170735221
 20
106.0445027490742
 30
0.0
 10
226.1403348731418
 20
105.9818797768685
 30
0.0
 10
226.2199687563809
 20
105.9551858480831
 30
0.0
 10
226.3858627492298
 20
105.9129639453643
 30
0.0
 10
226.4719225811756
 20
105.8975616687776
 30
0.0
 10
226.5596348223613
 20
105.8884570448192
 30
0.0
  0
LWPOLYLINE
  5
142
330
1F
100
AcDbEntity
  8
0
  6
HIDDEN
 62
     7
370
     0
100
AcDbPolyline
 90
       19
 70
   128
 43
0.0
 10
225.0032494867
 20
110.1808539486
 10
225.2032275913
 20
110.5021626862
 10
225.3649050988
 20
110.6767999001
 10
225.4749215323
 20
110.6903341676
 10
225.5241855099
 20
110.5416470633
 10
225.5086260247
 20
110.2430255813
 10
225.4295288596
 20
109.8191467802
 10
225.2934303338
 20
109.3050385557
 10
225.1115771644
 20
108.7431850544
 10
224.8989970759
 20
108.1800159295
 10
224.6732569603
 20
107.6620695529
 10
224.4530112093
 20
107.232147243
 10
224.256460179
 20
106.9257763103
 10
224.0998461748
 20
106.7682742016
 10
223.996111243
 20
106.772656353
 10
223.9538276836
 20
106.9385606384
 10
223.9764896656
 20
107.2522772946
 10
224.0622244801
 20
107.6878818493
 10
224.2039472952
 20
108.2093774308
  0
SPLINE
  5
143
330
1F
100
AcDbEntity
  8
0
  6
HIDDEN
 62
     7
370
     0
100
AcDbSpline
210
0.0
220
0.0
230
1.0
 70
     8
 71
     3
 72
    22
 73
    18
 74
     0
 42
0.00000001
 43
0.00000001
 40
0.0
 40
0.0
 40
0.0
 40
0.0
 40
0.1249999999999935
 40
0.1249999999999935
 40
0.1874999999999931
 40
0.1874999999999931
 40
0.2499999999999926
 40
0.2499999999999926
 40
0.3124999999999922
 40
0.3124999999999922
 40
0.3749999999999917
 40
0.3749999999999917
 40
0.499999999999991
 40
0.499999999999991
 40
0.7499999999999954
 40
0.7499999999999954
 40
1.0
 40
1.0
 40
1.0
 40
1.0
 10
224.7309092260813
 20
106.522042350319
 30
0.0
 10
224.7972849880302
 20
106.4803523433123
 30
0.0
 10
224.8663618397313
 20
106.4464675480914
 30
0.0
 10
224.9670353152285
 20
106.4109267328585
 30
0.0
 10
224.9998283023039
 20
106.4017481753584
 30
0.0
 10
225.0595549648243
 20
106.3912816724833
 30
0.0
 10
225.0868479892513
 20
106.3897281197789
 30
0.0
 10
225.12328593827
 20
106.4025751529512
 30
0.0
 10
225.1295073719889
 20
106.4179045732731
 30
0.0
 10
225.1084932839056
 20
106.468645502913
 30
0.0
 10
225.0831591836831
 20
106.5024875005555
 30
0.0
 10
224.9933594256439
 20
106.613290605999
 30
0.0
 10
224.9176427755502
 20
106.6993513617467
 30
0.0
 10
224.6989334945982
 20
106.9779760966883
 30
0.0
 10
224.5607944522926
 20
107.1886326305632
 30
0.0
 10
224.3343321673003
 20
107.6667168788279
 30
0.0
 10
224.2478879161192
 20
107.92674826524
 30
0.0
 10
224.2039472952352
 20
108.2093774308434
 30
0.0
  0
SPLINE
  5
144
330
1F
100
AcDbEntity
  8
0
  6
HIDDEN
 62
     7
370
     0
100
AcDbSpline
210
0.0
220
0.0
230
1.0
 70
     8
 71
     3
 72
    10
 73
     6
 74
     0
 42
0.00000001
 43
0.00000001
 40
0.0
 40
0.0
 40
0.0
 40
0.0
 40
0.5
 40
0.5
 40
1.0
 40
1.0
 40
1.0
 40
1.0
 10
226.331007011342
 20
109.9257254553252
 30
0.0
 10
226.5534772776049
 20
109.7794517562929
 30
0.0
 10
226.7792576938726
 20
109.6375835475288
 30
0.0
 10
227.2739172224649
 20
109.4236457514521
 30
0.0
 10
227.5238007422237
 20
109.3629639845406
 30
0.0
 10
227.7719552836818
 20
109.3195286853045
 30
0.0
  0
SPLINE
  5
145
330
1F
100
AcDbEntity
  8
0
  6
HIDDEN
 62
     7
370
     0
100
AcDbSpline
210
0.0
220
0.0
230
1.0
 70
     8
 71
     3
 72
    18
 73
    14
 74
     0
 42
0.00000001
 43
0.00000001
 40
0.0
 40
0.0
 40
0.0
 40
0.0
 40
0.2500000000000004
 40
0.2500000000000004
 40
0.3750000000000007
 40
0.3750000000000007
 40
0.5000000000000009
 40
0.5000000000000009
 40
0.6250000000000011
 40
0.6250000000000011
 40
0.7500000000000013
 40
0.7500000000000013
 40
1.0
 40
1.0
 40
1.0
 40
1.0
 10
227.7719552836817
 20
109.3195286853045
 30
0.0
 10
227.683566016368
 20
109.4307557745996
 30
0.0
 10
227.5876918077048
 20
109.5343106917559
 30
0.0
 10
227.4267796480785
 20
109.6768881293565
 30
0.0
 10
227.3705625914165
 20
109.7220496648297
 30
0.0
 10
227.2480628348763
 20
109.8066625476097
 30
0.0
 10
227.1797674249424
 20
109.84704263015
 30
0.0
 10
227.0359525641732
 20
109.9103065271734
 30
0.0
 10
226.9611353069643
 20
109.9321910741411
 30
0.0
 10
226.8215240505885
 20
109.9573682479319
 30
0.0
 10
226.7571006921061
 20
109.9618557419115
 30
0.0
 10
226.5691836373655
 20
109.9637401731201
 30
0.0
 10
226.4499787264182
 20
109.9493760476132
 30
0.0
 10
226.331007011342
 20
109.9257254553252
 30
0.0
  0
SPLINE
  5
146
330
1F
100
AcDbEntity
  8
0
  6
HIDDEN
 62
     7
370
     0
100
AcDbSpline
210
0.0
220
0.0
230
1.0
 70
     8
 71
     3
 72
    22
 73
    18
 74
     0
 42
0.00000001
 43
0.00000001
 40
0.0
 40
0.0
 40
0.0
 40
0.0
 40
0.125
 40
0.125
 40
0.25
 40
0.25
 40
0.375
 40
0.375
 40
0.5
 40
0.5
 40
0.625
 40
0.625
 40
0.75
 40
0.75
 40
0.875
 40
0.875
 40
1.0
 40
1.0
 40
1.0
 40
1.0
 10
224.2039472952352
 20
108.2093774308435
 30
0.0
 10
224.1896374422683
 20
108.2769528026271
 30
0.0
 10
224.1795877634101
 20
108.3519410613759
 30
0.0
 10
224.1717462276555
 20
108.517584467857
 30
0.0
 10
224.1741598781591
 20
108.6048560440342
 30
0.0
 10
224.1929620773546
 20
108.7852504405979
 30
0.0
 10
224.209585671928
 20
108.8788476861397
 30
0.0
 10
224.2561250143987
 20
109.0624832703019
 30
0.0
 10
224.286036875068
 20
109.1533393409142
 30
0.0
 10
224.3591549882282
 20
109.3324869761081
 30
0.0
 10
224.4028227520089
 20
109.4214326916995
 30
0.0
 10
224.5006742807693
 20
109.5915729229767
 30
0.0
 10
224.5549823674817
 20
109.673313296284
 30
0.0
 10
224.6731741973987
 20
109.8312436026046
 30
0.0
 10
224.7380827180557
 20
109.9084802513701
 30
0.0
 10
224.8697944991252
 20
110.0519041985474
 30
0.0
 10
224.9365639265847
 20
110.1183994322135
 30
0.0
 10
225.0032494867314
 20
110.1808539485641
 30
0.0
  0
LINE
  5
147
330
1F
100
AcDbEntity
  8
0
  6
HIDDEN
 62
     7
370
     0
100
AcDbLine
 10
109.3238659454
 20
100.6589075015
 30
0.0
 11
113.5738659454
 21
100.6589075015
 31
0.0
  0
LINE
  5
148
330
1F
100
AcDbEntity
  8
0
  6
HIDDEN
 62
     7
370
     0
100
AcDbLine
 10
109.3238659454
 20
120.054718905
 30
0.0
 11
109.3238659454
 21
100.6589075015
 31
0.0
  0
LINE
  5
149
330
1F
100
AcDbEntity
  8
0
  6
HIDDEN
 62
     7
370
     0
100
AcDbLine
 10
111.0738659454
 20
120.054718905
 30
0.0
 11
109.3238659454
 21
120.054718905
 31
0.0
  0
SPLINE
  5
14A
330
1F
100
AcDbEntity
  8
0
  6
HIDDEN
 62
     7
370
     0
100
AcDbSpline
210
0.0
220
0.0
230
1.0
 70
     8
 71
     3
 72
    14
 73
    10
 74
     0
 42
0.00000001
 43
0.00000001
 40
0.0
 40
0.0
 40
0.0
 40
0.0
 40
0.25
 40
0.25
 40
0.5
 40
0.5
 40
0.75
 40
0.75
 40
1.0
 40
1.0
 40
1.0
 40
1.0
 10
111.9738659454171
 20
120.3810026967182
 30
0.0
 10
111.9738659454171
 20
120.3445308321844
 30
0.0
 10
111.9514953136131
 20
120.3067950796718
 30
0.0
 10
111.8642797823648
 20
120.2316593579724
 30
0.0
 10
111.8002585762882
 20
120.1952870717503
 30
0.0
 10
111.6367732785469
 20
120.1310635325882
 30
0.0
 10
111.5374584043737
 20
120.1035405699657
 30
0.0
 10
111.3176321336686
 20
120.0653684030786
 30
0.0
 10
111.1966285713595
 20
120.0547189050459
 30
0.0
 10
111.0738659454171
 20
120.0547189050459
 30
0.0
  0
LINE
  5
14B
330
1F
100
AcDbEntity
  8
0
  6
HIDDEN
 62
     7
370
     0
100
AcDbLine
 10
111.9738659454
 20
120.3810026967
 30
0.0
 11
111.9738659454
 21
120.8568132033
 31
0.0
  0
SPLINE
  5
14C
330
1F
100
AcDbEntity
  8
0
  6
HIDDEN
 62
     7
370
     0
100
AcDbSpline
210
0.0
220
0.0
230
1.0
 70
     8
 71
     3
 72
    14
 73
    10
 74
     0
 42
0.00000001
 43
0.00000001
 40
0.0
 40
0.0
 40
0.0
 40
0.0
 40
0.2499999999999996
 40
0.2499999999999996
 40
0.4999999999999992
 40
0.4999999999999992
 40
0.7499999999999994
 40
0.7499999999999994
 40
1.0
 40
1.0
 40
1.0
 40
1.0
 10
111.9738659454172
 20
120.3810026967182
 30
0.0
 10
111.9738659454172
 20
120.3445308321843
 30
0.0
 10
111.9514953136131
 20
120.3067950796718
 30
0.0
 10
111.8642797823648
 20
120.2316593579724
 30
0.0
 10
111.8002585762882
 20
120.1952870717503
 30
0.0
 10
111.6367732785469
 20
120.1310635325882
 30
0.0
 10
111.5374584043737
 20
120.1035405699657
 30
0.0
 10
111.3176321336686
 20
120.0653684030786
 30
0.0
 10
111.1966285713595
 20
120.0547189050459
 30
0.0
 10
111.0738659454172
 20
120.0547189050459
 30
0.0
  0
LINE
  5
14D
330
1F
100
AcDbEntity
  8
0
  6
HIDDEN
 62
     7
370
     0
100
AcDbLine
 10
111.0738659454
 20
120.054718905
 30
0.0
 11
109.3238659454
 21
120.054718905
 31
0.0
  0
LINE
  5
14E
330
1F
100
AcDbEntity
  8
0
  6
HIDDEN
 62
     7
370
     0
100
AcDbLine
 10
109.3238659454
 20
100.6589075015
 30
0.0
 11
113.5738659454
 21
100.6589075015
 31
0.0
  0
SPLINE
  5
14F
330
1F
100
AcDbEntity
  8
0
  6
HIDDEN
 62
     7
370
     0
100
AcDbSpline
210
0.0
220
0.0
230
1.0
 70
     8
 71
     3
 72
    14
 73
    10
 74
     0
 42
0.00000001
 43
0.00000001
 40
0.0
 40
0.0
 40
0.0
 40
0.0
 40
0.2499999999999998
 40
0.2499999999999998
 40
0.4999999999999999
 40
0.4999999999999999
 40
0.75
 40
0.75
 40
1.0
 40
1.0
 40
1.0
 40
1.0
 10
113.5738659454172
 20
100.6589075015495
 30
0.0
 10
113.6964713688036
 20
100.6589075015495
 30
0.0
 10
113.8168144708964
 20
100.6483641596396
 30
0.0
 10
114.0371144750754
 20
100.6101811990149
 30
0.0
 10
114.1367582213629
 20
100.5825399308741
 30
0.0
 10
114.2996463064238
 20
100.5186086060868
 30
0.0
 10
114.3642909632266
 20
100.4818898671229
 30
0.0
 10
114.4510139281224
 20
100.4073132216773
 30
0.0
 10
114.4738659454172
 20
100.3690574878035
 30
0.0
 10
114.4738659454172
 20
100.3326237098773
 30
0.0
  0
LINE
  5
150
330
1F
100
AcDbEntity
  8
0
  6
HIDDEN
 62
     7
370
     0
100
AcDbLine
 10
114.4738659454
 20
100.3326237099
 30
0.0
 11
114.4738659454
 21
99.8568132033
 31
0.0
  0
SPLINE
  5
151
330
1F
100
AcDbEntity
  8
0
  6
HIDDEN
 62
     7
370
     0
100
AcDbSpline
210
0.0
220
0.0
230
1.0
 70
     8
 71
     3
 72
    14
 73
    10
 74
     0
 42
0.00000001
 43
0.00000001
 40
0.0
 40
0.0
 40
0.0
 40
0.0
 40
0.2499999999999997
 40
0.2499999999999997
 40
0.4999999999999993
 40
0.4999999999999993
 40
0.7499999999999997
 40
0.7499999999999997
 40
1.0
 40
1.0
 40
1.0
 40
1.0
 10
113.5738659454172
 20
100.6589075015495
 30
0.0
 10
113.6964713688037
 20
100.6589075015495
 30
0.0
 10
113.8168144708964
 20
100.6483641596396
 30
0.0
 10
114.0371144750754
 20
100.6101811990149
 30
0.0
 10
114.1367582213629
 20
100.5825399308741
 30
0.0
 10
114.2996463064238
 20
100.5186086060868
 30
0.0
 10
114.3642909632266
 20
100.4818898671229
 30
0.0
 10
114.4510139281225
 20
100.4073132216773
 30
0.0
 10
114.4738659454171
 20
100.3690574878035
 30
0.0
 10
114.4738659454171
 20
100.3326237098773
 30
0.0
  0
LINE
  5
152
330
1F
100
AcDbEntity
  8
0
  6
HIDDEN
 62
     7
370
     0
100
AcDbLine
 10
109.3238659454
 20
100.6589075015
 30
0.0
 11
109.3238659454
 21
120.054718905
 31
0.0
  0
ARC
  5
153
330
1F
100
AcDbEntity
  8
0
  6
HIDDEN
 62
     7
370
     0
100
AcDbCircle
 10
226.2810153703
 20
107.791206341
 30
0.0
 40
2.135104450232085
100
AcDbArc
 50
45.7093607297
 51
88.6583458142
  0
SPLINE
  5
154
330
1F
100
AcDbEntity
  8
0
  6
HIDDEN
 62
     7
370
     0
100
AcDbSpline
210
0.0
220
0.0
230
1.0
 70
     8
 71
     3
 72
    64
 73
    60
 74
     0
 42
0.00000001
 43
0.00000001
 40
-0.062499999999999
 40
-0.062499999999999
 40
0.0
 40
0.0
 40
0.0312499999999999
 40
0.0312499999999999
 40
0.0624999999999998
 40
0.0624999999999998
 40
0.0937499999999996
 40
0.0937499999999996
 40
0.1249999999999995
 40
0.1249999999999995
 40
0.1562499999999994
 40
0.1562499999999994
 40
0.1874999999999993
 40
0.1874999999999993
 40
0.2187499999999991
 40
0.2187499999999991
 40
0.249999999999999
 40
0.249999999999999
 40
0.2812499999999989
 40
0.2812499999999989
 40
0.3124999999999988
 40
0.3124999999999988
 40
0.3437499999999986
 40
0.3437499999999986
 40
0.3749999999999985
 40
0.3749999999999985
 40
0.4062499999999984
 40
0.4062499999999984
 40
0.4374999999999982
 40
0.4374999999999982
 40
0.4687499999999981
 40
0.4687499999999981
 40
0.499999999999998
 40
0.499999999999998
 40
0.5624999999999978
 40
0.5624999999999978
 40
0.5937499999999982
 40
0.5937499999999982
 40
0.6249999999999986
 40
0.6249999999999986
 40
0.656249999999999
 40
0.656249999999999
 40
0.6874999999999994
 40
0.6874999999999994
 40
0.7187499999999999
 40
0.7187499999999999
 40
0.7500000000000003
 40
0.7500000000000003
 40
0.7812500000000008
 40
0.7812500000000008
 40
0.8125000000000012
 40
0.8125000000000012
 40
0.875000000000002
 40
0.875000000000002
 40
0.9062500000000014
 40
0.9062500000000014
 40
0.937500000000001
 40
0.937500000000001
 40
1.0
 40
1.0
 40
1.03125
 40
1.03125
 10
228.3738659454172
 20
109.9970292782788
 30
0.0
 10
228.3738659454172
 20
109.5661337466728
 30
0.0
 10
228.358260346876
 20
109.4295493496175
 30
0.0
 10
228.2983309262971
 20
109.1691688732321
 30
0.0
 10
228.2534624793933
 20
109.0455335044915
 30
0.0
 10
228.1416415068692
 20
108.8224992093601
 30
0.0
 10
228.0734618268407
 20
108.7202222887223
 30
0.0
 10
227.9200856275776
 20
108.538822168505
 30
0.0
 10
227.8352581161875
 20
108.4595210827482
 30
0.0
 10
227.6498896390378
 20
108.3195617021286
 30
0.0
 10
227.5484865498443
 20
108.2586456879167
 30
0.0
 10
227.3341170070427
 20
108.1563551573379
 30
0.0
 10
227.2208478116323
 20
108.1144898153623
 30
0.0
 10
226.9774534481647
 20
108.0467554514865
 30
0.0
 10
226.8460574726572
 20
108.0208573946823
 30
0.0
 10
226.5702200361317
 20
107.9863093023985
 30
0.0
 10
226.422203004156
 20
107.9773746846806
 30
0.0
 10
226.1298151883296
 20
107.9772060198619
 30
0.0
 10
225.98143656949
 20
107.9860047603456
 30
0.0
 10
225.7059629958881
 20
108.0201387351914
 30
0.0
 10
225.5744652328916
 20
108.0458212164821
 30
0.0
 10
225.3306002501936
 20
108.1132320994621
 30
0.0
 10
225.2170444703673
 20
108.1549609986833
 30
0.0
 10
225.0020204717163
 20
108.2570860452121
 30
0.0
 10
224.9006823992055
 20
108.3177332216043
 30
0.0
 10
224.7152437921534
 20
108.4571231262532
 30
0.0
 10
224.6302284571925
 20
108.5361969742951
 30
0.0
 10
224.4762503380927
 20
108.7174639271805
 30
0.0
 10
224.4081061325545
 20
108.8192235943999
 30
0.0
 10
224.2959670018699
 20
109.0414269458532
 30
0.0
 10
224.2507838385754
 20
109.164832268632
 30
0.0
 10
224.1902244077231
 20
109.4246648912858
 30
0.0
 10
224.1743443551104
 20
109.5606888738248
 30
0.0
 10
224.1729406955499
 20
109.9886611768227
 30
0.0
 10
224.2368081154026
 20
110.2855578858169
 30
0.0
 10
224.4040462997888
 20
110.6921438977606
 30
0.0
 10
224.4721410913122
 20
110.8232897953871
 30
0.0
 10
224.6250767050869
 20
111.0672738175786
 30
0.0
 10
224.7097676781368
 20
111.180546562068
 30
0.0
 10
224.8950714105878
 20
111.391593161403
 30
0.0
 10
224.9964154363005
 20
111.4897974813625
 30
0.0
 10
225.2105091228101
 20
111.6648109369946
 30
0.0
 10
225.3237402196767
 20
111.7425047320714
 30
0.0
 10
225.5673821635673
 20
111.8763833633224
 30
0.0
 10
225.6984757101926
 20
111.9325355846342
 30
0.0
 10
225.9742629701434
 20
112.0111883453557
 30
0.0
 10
226.1219281231616
 20
112.0336207925011
 30
0.0
 10
226.4143115260286
 20
112.0347141295714
 30
0.0
 10
226.5628071711733
 20
112.0132899492727
 30
0.0
 10
226.8399727187671
 20
111.9360569911188
 30
0.0
 10
226.9714575392693
 20
111.8804788777207
 30
0.0
 10
227.3371539224616
 20
111.6818217758948
 30
0.0
 10
227.5533191598106
 20
111.5032535377925
 30
0.0
 10
227.8323931078312
 20
111.1875974593198
 30
0.0
 10
227.9190204017447
 20
111.0724219854036
 30
0.0
 10
228.0726248190358
 20
110.8286446600097
 30
0.0
 10
228.1397809014072
 20
110.7002852532072
 30
0.0
 10
228.3090029574658
 20
110.2928172261362
 30
0.0
 10
228.3738659454172
 20
109.9970292782788
 30
0.0
 10
228.3738659454172
 20
109.5661337466728
 30
0.0
  0
ARC
  5
155
330
1F
100
AcDbEntity
  8
0
  6
HIDDEN
 62
     7
370
     0
100
AcDbCircle
 10
226.2707938342
 20
108.0107015206
 30
0.0
 40
2.141810152992006
100
AcDbArc
 50
224.0309793221
 51
277.750429172
  0
LINE
  5
156
330
1F
100
AcDbEntity
  8
0
  6
HIDDEN
 62
     7
370
     0
100
AcDbLine
 10
111.9738659454
 20
121.3568132033
 30
0.0
 11
111.9738659454
 21
123.914337325
 31
0.0
  0
LINE
  5
157
330
1F
100
AcDbEntity
  8
0
  6
HIDDEN
 62
     7
370
     0
100
AcDbLine
 10
114.4738659454
 20
99.3568132033
 30
0.0
 11
114.4738659454
 21
96.7532370176
 31
0.0
  0
LINE
  5
158
330
1F
100
AcDbEntity
  8
0
  6
HIDDEN
 62
     7
370
     0
100
AcDbLine
 10
109.3238659454
 20
121.3568132033
 30
0.0
 11
109.3238659454
 21
123.2368132033
 31
0.0
  0
LINE
  5
159
330
1F
100
AcDbEntity
  8
0
  6
HIDDEN
 62
     7
370
     0
100
AcDbLine
 10
108.3738659454
 20
121.3568132033
 30
0.0
 11
108.3738659454
 21
122.2868132033
 31
0.0
  0
LINE
  5
15A
330
1F
100
AcDbEntity
  8
0
  6
HIDDEN
 62
     7
370
     0
100
AcDbLine
 10
109.3238659454
 20
99.3568132033
 30
0.0
 11
109.3238659454
 21
97.5358132033
 31
0.0
  0
LINE
  5
15B
330
1F
100
AcDbEntity
  8
0
  6
HIDDEN
 62
     7
370
     0
100
AcDbLine
 10
108.3738659454
 20
99.3568132033
 30
0.0
 11
108.3738659454
 21
98.4858132033
 31
0.0
  0
LINE
  5
15C
330
1F
100
AcDbEntity
  8
0
  6
HIDDEN
 62
     7
370
     0
100
AcDbLine
 10
141.5738659454
 20
116.6068132033
 30
0.0
 11
141.5738659454
 21
104.1068132033
 31
0.0
  0
LWPOLYLINE
  5
15D
330
1F
100
AcDbEntity
  8
0
  6
HIDDEN
 62
     7
370
     0
100
AcDbPolyline
 90
        2
 70
   128
 43
0.0
 10
141.5738659454
 20
104.1068132033
 10
141.5738659454
 20
104.1068132033
  0
LINE
  5
15E
330
1F
100
AcDbEntity
  8
0
  6
HIDDEN
 62
     7
370
     0
100
AcDbLine
 10
144.0738659454
 20
116.6068132033
 30
0.0
 11
144.0738659454
 21
104.1068132033
 31
0.0
  0
LWPOLYLINE
  5
15F
330
1F
100
AcDbEntity
  8
0
  6
HIDDEN
 62
     7
370
     0
100
AcDbPolyline
 90
        2
 70
   128
 43
0.0
 10
144.0738659454
 20
104.1068132033
 10
144.0738659454
 20
104.1068132033
  0
LINE
  5
160
330
1F
100
AcDbEntity
  8
0
  6
HIDDEN
 62
     7
370
     0
100
AcDbLine
 10
136.7238659454
 20
115.8568132033
 30
0.0
 11
136.7238659454
 21
104.8568132033
 31
0.0
  0
LWPOLYLINE
  5
161
330
1F
100
AcDbEntity
  8
0
  6
HIDDEN
 62
     7
370
     0
100
AcDbPolyline
 90
        2
 70
   128
 43
0.0
 10
136.7238659454
 20
104.8568132033
 10
136.7238659454
 20
104.8568132033
  0
LINE
  5
162
330
1F
100
AcDbEntity
  8
0
  6
HIDDEN
 62
     7
370
     0
100
AcDbLine
 10
136.2238659454
 20
104.3568132033
 30
0.0
 11
136.2238659454
 21
116.3351981346
 31
0.0
  0
LWPOLYLINE
  5
163
330
1F
100
AcDbEntity
  8
0
  6
HIDDEN
 62
     7
370
     0
100
AcDbPolyline
 90
        2
 70
   128
 43
0.0
 10
148.2238659454
 20
93.4568132033
 10
148.2238659454
 20
93.4568132033
  0
LINE
  5
164
330
1F
100
AcDbEntity
  8
0
  6
HIDDEN
 62
     7
370
     0
100
AcDbLine
 10
143.269088346
 20
93.4568132033
 30
0.0
 11
140.7238659454
 21
93.4568132033
 31
0.0
  0
LINE
  5
165
330
1F
100
AcDbEntity
  8
0
  6
HIDDEN
 62
     7
370
     0
100
AcDbLine
 10
143.2338659454
 20
93.2439342813
 30
0.0
 11
143.2338659454
 21
92.9276898153
 31
0.0
  0
LINE
  5
166
330
1F
100
AcDbEntity
  8
0
  6
HIDDEN
 62
     7
370
     0
100
AcDbLine
 10
148.2238659454
 20
93.4568132033
 30
0.0
 11
145.2786435448
 21
93.4568132033
 31
0.0
  0
LINE
  5
167
330
1F
100
AcDbEntity
  8
0
  6
HIDDEN
 62
     7
370
     0
100
AcDbLine
 10
145.3138659454
 20
92.9276898153
 30
0.0
 11
145.3138659454
 21
93.2439342813
 31
0.0
  0
LINE
  5
168
330
1F
100
AcDbEntity
  8
0
  6
HIDDEN
 62
     7
370
     0
100
AcDbLine
 10
148.2238659454
 20
93.4568132033
 30
0.0
 11
148.2238659454
 21
91.7527813822
 31
0.0
  0
LINE
  5
169
330
1F
100
AcDbEntity
  8
0
  6
HIDDEN
 62
     7
370
     0
100
AcDbLine
 10
141.5738659454
 20
104.8568132033
 30
0.0
 11
141.5738659454
 21
115.8346718203
 31
0.0
  0
LINE
  5
16A
330
1F
100
AcDbEntity
  8
0
  6
HIDDEN
 62
     7
370
     0
100
AcDbLine
 10
136.2238659454
 20
90.3818288479
 30
0.0
 11
136.2238659454
 21
93.4568132033
 31
0.0
  0
LINE
  5
16B
330
1F
100
AcDbEntity
  8
0
  6
HIDDEN
 62
     7
370
     0
100
AcDbLine
 10
140.7238659454
 20
93.4568132033
 30
0.0
 11
136.2238659454
 21
93.4568132033
 31
0.0
  0
ELLIPSE
  5
16C
330
1F
100
AcDbEntity
  8
0
  6
HIDDEN
 62
     7
370
     0
100
AcDbEllipse
 10
106.2680992057
 20
110.3568132033
 30
0.0
 11
12.26424774976725
 21
0.0
 31
0.0
210
0.0
220
0.0
230
1.0
 40
0.8164965809
 41
4.884943637108985
 42
4.964202354313273
  0
LINE
  5
16D
330
1F
100
AcDbEntity
  8
0
  6
HIDDEN
 62
     7
370
     0
100
AcDbLine
 10
108.3738659454
 20
99.3568132033
 30
0.0
 11
108.3738659454
 21
100.4918070602
 31
0.0
  0
ELLIPSE
  5
16E
330
1F
100
AcDbEntity
  8
0
  6
HIDDEN
 62
     7
370
     0
100
AcDbEllipse
 10
106.2680992057
 20
110.3568132033
 30
0.0
 11
12.26424774976725
 21
0.0
 31
0.0
210
0.0
220
0.0
230
1.0
 40
0.8164965809
 41
1.318982952866324
 42
1.398241670070613
  0
LINE
  5
16F
330
1F
100
AcDbEntity
  8
0
  6
HIDDEN
 62
     7
370
     0
100
AcDbLine
 10
108.3738659454
 20
121.3568132033
 30
0.0
 11
108.3738659454
 21
120.2218193464
 31
0.0
  0
LWPOLYLINE
  5
170
330
1F
100
AcDbEntity
  8
0
  6
HIDDEN
 62
     7
370
     0
100
AcDbPolyline
 90
        2
 70
   128
 43
0.0
 10
148.2238659454
 20
127.2568132033
 10
148.2238659454
 20
127.2568132033
  0
LINE
  5
171
330
1F
100
AcDbEntity
  8
0
  6
HIDDEN
 62
     7
370
     0
100
AcDbLine
 10
143.4822103312
 20
127.2568132033
 30
0.0
 11
140.7238659454
 21
127.2568132033
 31
0.0
  0
LINE
  5
172
330
1F
100
AcDbEntity
  8
0
  6
HIDDEN
 62
     7
370
     0
100
AcDbLine
 10
143.2338659454
 20
127.7594171751
 30
0.0
 11
143.2338659454
 21
128.0704898988
 31
0.0
  0
LINE
  5
173
330
1F
100
AcDbEntity
  8
0
  6
HIDDEN
 62
     7
370
     0
100
AcDbLine
 10
148.2238659454
 20
127.2568132033
 30
0.0
 11
145.0655215597
 21
127.2568132033
 31
0.0
  0
LINE
  5
174
330
1F
100
AcDbEntity
  8
0
  6
HIDDEN
 62
     7
370
     0
100
AcDbLine
 10
145.3138659454
 20
128.0704898988
 30
0.0
 11
145.3138659454
 21
127.7594171751
 31
0.0
  0
LINE
  5
175
330
1F
100
AcDbEntity
  8
0
  6
HIDDEN
 62
     7
370
     0
100
AcDbLine
 10
148.2238659454
 20
127.2568132033
 30
0.0
 11
148.2238659454
 21
129.2276902364
 31
0.0
  0
LINE
  5
176
330
1F
100
AcDbEntity
  8
0
  6
HIDDEN
 62
     7
370
     0
100
AcDbLine
 10
140.7238659454
 20
127.2568132033
 30
0.0
 11
136.2238659454
 21
127.2568132033
 31
0.0
  0
LINE
  5
177
330
1F
100
AcDbEntity
  8
0
  6
HIDDEN
 62
     7
370
     0
100
AcDbLine
 10
111.9738659454
 20
121.3568132033
 30
0.0
 11
111.9738659454
 21
120.3810026967
 31
0.0
  0
LINE
  5
178
330
1F
100
AcDbEntity
  8
0
  6
HIDDEN
 62
     7
370
     0
100
AcDbLine
 10
109.3238659454
 20
121.3568132033
 30
0.0
 11
109.3238659454
 21
120.054718905
 31
0.0
  0
LINE
  5
179
330
1F
100
AcDbEntity
  8
0
  6
HIDDEN
 62
     7
370
     0
100
AcDbLine
 10
114.4738659454
 20
99.3568132033
 30
0.0
 11
114.4738659454
 21
100.3326237099
 31
0.0
  0
LINE
  5
17A
330
1F
100
AcDbEntity
  8
0
  6
HIDDEN
 62
     7
370
     0
100
AcDbLine
 10
109.3238659454
 20
99.3568132033
 30
0.0
 11
109.3238659454
 21
100.6589075015
 31
0.0
  0
SPLINE
  5
17B
330
1F
100
AcDbEntity
  8
0
  6
HIDDEN
 62
     7
370
     0
100
AcDbSpline
210
0.0
220
0.0
230
1.0
 70
     8
 71
     3
 72
    35
 73
    31
 74
     0
 42
0.00000001
 43
0.00000001
 40
-0.0968719547595068
 40
-0.0666583833390609
 40
-0.0343746550663483
 40
0.0
 40
0.0402441098613983
 40
0.074478739416619
 40
0.102701076924022
 40
0.1249180007539639
 40
0.1620538085083517
 40
0.2036866663215517
 40
0.2499064830388483
 40
0.2843401434909126
 40
0.3106265384536741
 40
0.3287516969918937
 40
0.3698185885315975
 40
0.4071583744141847
 40
0.4519491139940273
 40
0.5000414814625437
 40
0.5203027018277739
 40
0.5628788417857715
 40
0.5977565761194594
 40
0.6256573786661747
 40
0.6860513512462504
 40
0.7499481278641553
 40
0.7710338012910367
 40
0.8124324456481248
 40
0.8472054201793584
 40
0.8749589023494178
 40
0.9031280452404932
 40
0.9333416166609391
 40
0.9656253449336517
 40
1.0
 40
1.040244109861398
 40
1.074478739416619
 40
1.102701076924022
 10
120.1176592392369
 20
96.11596383760369
 30
0.0
 10
120.3563018862783
 20
96.15253435540522
 30
0.0
 10
120.7026883561812
 20
96.19294861582945
 30
0.0
 10
121.1074110639744
 20
96.2223226819083
 30
0.0
 10
121.4810291888682
 20
96.23952876041892
 30
0.0
 10
121.8896965817826
 20
96.24471912384935
 30
0.0
 10
122.3797928337438
 20
96.2197916162213
 30
0.0
 10
122.9781831859837
 20
96.15897389803166
 30
0.0
 10
123.5133093756023
 20
96.07146136002989
 30
0.0
 10
123.9075656846122
 20
95.9877044885787
 30
0.0
 10
124.1474947097845
 20
95.9298219286917
 30
0.0
 10
124.3612764584366
 20
95.87180906700249
 30
0.0
 10
124.5290442746914
 20
95.82527487253323
 30
0.0
 10
124.5995078957202
 20
95.8032139355721
 30
0.0
 10
124.5099827033795
 20
95.8319906715734
 30
0.0
 10
124.2771462091203
 20
95.89355286085143
 30
0.0
 10
123.9577120566587
 20
95.97749353058762
 30
0.0
 10
123.6056205120625
 20
96.05248618018837
 30
0.0
 10
123.1579199537888
 20
96.13026087395517
 30
0.0
 10
122.5910464186134
 20
96.20714526457682
 30
0.0
 10
121.8381962066696
 20
96.25243447332095
 30
0.0
 10
121.1670247594279
 20
96.23496097600312
 30
0.0
 10
120.6822316695662
 20
96.19019185197361
 30
0.0
 10
120.3678749641969
 20
96.15464268369276
 30
0.0
 10
120.1330410124177
 20
96.11895671646421
 30
0.0
 10
120.0080971181021
 20
96.09617428470342
 30
0.0
 10
119.9612750881222
 20
96.08919412273411
 30
0.0
 10
119.9928032312099
 20
96.09615137570971
 30
0.0
 10
120.1176592392369
 20
96.11596383760369
 30
0.0
 10
120.3563018862783
 20
96.15253435540522
 30
0.0
 10
120.7026883561812
 20
96.19294861582945
 30
0.0
  0
SPLINE
  5
17C
330
1F
100
AcDbEntity
  8
0
  6
HIDDEN
 62
     7
370
     0
100
AcDbSpline
210
0.0
220
0.0
230
1.0
 70
    11
 71
     3
 72
    32
 73
    28
 74
     0
 42
0.00000001
 43
0.00000001
 40
0.0
 40
0.0
 40
0.0
 40
0.0
 40
0.0075774511995856
 40
0.0419997932230259
 40
0.0743128968656972
 40
0.1003893146090559
 40
0.1324461518245111
 40
0.1947525129996724
 40
0.2571256246964955
 40
0.2897875153796954
 40
0.3215148656045796
 40
0.3820938872839943
 40
0.4445130701497378
 40
0.5070232972620641
 40
0.539869709061914
 40
0.57122949070211
 40
0.6003652579666531
 40
0.6288556771713785
 40
0.659829988933969
 40
0.6938364018780655
 40
0.7573548527542068
 40
0.8178982817483955
 40
0.8474529845126002
 40
0.8798485043108647
 40
0.9352908012876456
 40
0.9675884714667775
 40
1.0
 40
1.0
 40
1.0
 40
1.0
 10
120.4295920259211
 20
124.5544753243212
 30
0.0
 10
120.4052039310614
 20
124.5571868661714
 30
0.0
 10
120.2700272187039
 20
124.5722162202406
 30
0.0
 10
120.1292156253672
 20
124.5964653289541
 30
0.0
 10
119.9770770036802
 20
124.6200231252112
 30
0.0
 10
120.0263341093824
 20
124.6131331179751
 30
0.0
 10
119.9793018741892
 20
124.6224830955986
 30
0.0
 10
120.3309918898852
 20
124.560719014438
 30
0.0
 10
120.8676269153009
 20
124.4995602217232
 30
0.0
 10
121.4141366166897
 20
124.4720866713699
 30
0.0
 10
121.9957143762821
 20
124.4707759082091
 30
0.0
 10
122.7609337087411
 20
124.5174387356021
 30
0.0
 10
123.5938099217377
 20
124.6526659223466
 30
0.0
 10
124.1399768142233
 20
124.7825723218578
 30
0.0
 10
124.4149352230418
 20
124.8562181332656
 30
0.0
 10
124.5656480666564
 20
124.8986020110439
 30
0.0
 10
124.5212800394253
 20
124.8861236423384
 30
0.0
 10
124.5667876470004
 20
124.8995618297374
 30
0.0
 10
124.4184029784962
 20
124.8556844599942
 30
0.0
 10
124.1417713343912
 20
124.780918565016
 30
0.0
 10
123.5905750933177
 20
124.6651736423579
 30
0.0
 10
122.9020572462845
 20
124.5370394412577
 30
0.0
 10
122.3151177291799
 20
124.4838054353356
 30
0.0
 10
121.7473894044846
 20
124.4645066128069
 30
0.0
 10
121.1951193111031
 20
124.4814708920252
 30
0.0
 10
120.7182963328103
 20
124.5190677964292
 30
0.0
 10
120.5259396145954
 20
124.5426589784895
 30
0.0
 10
120.4295920259211
 20
124.5544753243212
 30
0.0
  0
SPLINE
  5
17D
330
1F
100
AcDbEntity
  8
0
  6
HIDDEN
 62
     7
370
     0
100
AcDbSpline
210
0.0
220
0.0
230
1.0
 70
     8
 71
     3
 72
    64
 73
    60
 74
     0
 42
0.00000001
 43
0.00000001
 40
-0.0625000000000027
 40
-0.0625000000000027
 40
0.0
 40
0.0
 40
0.0312499999999998
 40
0.0312499999999998
 40
0.0624999999999996
 40
0.0624999999999996
 40
0.0937499999999993
 40
0.0937499999999993
 40
0.1249999999999991
 40
0.1249999999999991
 40
0.1562499999999989
 40
0.1562499999999989
 40
0.1874999999999988
 40
0.1874999999999988
 40
0.2187499999999986
 40
0.2187499999999986
 40
0.2499999999999984
 40
0.2499999999999984
 40
0.2812499999999983
 40
0.2812499999999983
 40
0.3124999999999981
 40
0.3124999999999981
 40
0.3437499999999979
 40
0.3437499999999979
 40
0.3749999999999978
 40
0.3749999999999978
 40
0.4062499999999976
 40
0.4062499999999976
 40
0.4374999999999974
 40
0.4374999999999974
 40
0.4687499999999973
 40
0.4687499999999973
 40
0.4999999999999971
 40
0.4999999999999971
 40
0.5624999999999969
 40
0.5624999999999969
 40
0.5937499999999968
 40
0.5937499999999968
 40
0.6249999999999967
 40
0.6249999999999967
 40
0.6562499999999966
 40
0.6562499999999966
 40
0.6874999999999964
 40
0.6874999999999964
 40
0.7187499999999963
 40
0.7187499999999963
 40
0.7499999999999962
 40
0.7499999999999962
 40
0.7812499999999961
 40
0.7812499999999961
 40
0.812499999999996
 40
0.812499999999996
 40
0.8749999999999958
 40
0.8749999999999958
 40
0.9062499999999966
 40
0.9062499999999966
 40
0.9374999999999973
 40
0.9374999999999973
 40
1.0
 40
1.0
 40
1.03125
 40
1.03125
 10
228.3738659454173
 20
110.7165971283167
 30
0.0
 10
228.3738659454172
 20
111.1474926599227
 30
0.0
 10
228.358260346876
 20
111.284077056978
 30
0.0
 10
228.298330926297
 20
111.5444575333634
 30
0.0
 10
228.2534624793933
 20
111.6680929021039
 30
0.0
 10
228.1416415068692
 20
111.8911271972353
 30
0.0
 10
228.0734618268407
 20
111.9934041178731
 30
0.0
 10
227.9200856275776
 20
112.1748042380904
 30
0.0
 10
227.8352581161876
 20
112.2541053238472
 30
0.0
 10
227.6498896390378
 20
112.3940647044668
 30
0.0
 10
227.5484865498444
 20
112.4549807186787
 30
0.0
 10
227.3341170070428
 20
112.5572712492576
 30
0.0
 10
227.2208478116324
 20
112.5991365912332
 30
0.0
 10
226.9774534481648
 20
112.666870955109
 30
0.0
 10
226.8460574726573
 20
112.6927690119132
 30
0.0
 10
226.5702200361317
 20
112.727317104197
 30
0.0
 10
226.422203004156
 20
112.7362517219149
 30
0.0
 10
226.1298151883297
 20
112.7364203867336
 30
0.0
 10
225.9814365694899
 20
112.7276216462499
 30
0.0
 10
225.705962995888
 20
112.6934876714041
 30
0.0
 10
225.5744652328916
 20
112.6678051901134
 30
0.0
 10
225.3306002501935
 20
112.6003943071334
 30
0.0
 10
225.2170444703672
 20
112.5586654079121
 30
0.0
 10
225.0020204717163
 20
112.4565403613834
 30
0.0
 10
224.9006823992054
 20
112.3958931849911
 30
0.0
 10
224.7152437921534
 20
112.2565032803423
 30
0.0
 10
224.6302284571925
 20
112.1774294323003
 30
0.0
 10
224.4762503380927
 20
111.9961624794149
 30
0.0
 10
224.4081061325545
 20
111.8944028121955
 30
0.0
 10
224.2959670018699
 20
111.6721994607423
 30
0.0
 10
224.2507838385754
 20
111.5487941379634
 30
0.0
 10
224.1902244077231
 20
111.2889615153097
 30
0.0
 10
224.1743443551104
 20
111.1529375327707
 30
0.0
 10
224.17294069555
 20
110.7249652297728
 30
0.0
 10
224.2368081154026
 20
110.4280685207786
 30
0.0
 10
224.4040462997888
 20
110.0214825088349
 30
0.0
 10
224.4721410913122
 20
109.8903366112084
 30
0.0
 10
224.6250767050869
 20
109.646352589017
 30
0.0
 10
224.7097676781368
 20
109.5330798445275
 30
0.0
 10
224.8950714105877
 20
109.3220332451925
 30
0.0
 10
224.9964154363004
 20
109.2238289252331
 30
0.0
 10
225.21050912281
 20
109.048815469601
 30
0.0
 10
225.3237402196766
 20
108.9711216745241
 30
0.0
 10
225.5673821635673
 20
108.8372430432731
 30
0.0
 10
225.6984757101926
 20
108.7810908219613
 30
0.0
 10
225.9742629701433
 20
108.7024380612398
 30
0.0
 10
226.1219281231616
 20
108.6800056140944
 30
0.0
 10
226.4143115260286
 20
108.6789122770241
 30
0.0
 10
226.5628071711734
 20
108.7003364573228
 30
0.0
 10
226.8399727187672
 20
108.7775694154767
 30
0.0
 10
226.9714575392694
 20
108.8331475288748
 30
0.0
 10
227.3371539224617
 20
109.0318046307006
 30
0.0
 10
227.5533191598106
 20
109.2103728688031
 30
0.0
 10
227.8323931078312
 20
109.5260289472757
 30
0.0
 10
227.9190204017447
 20
109.6412044211919
 30
0.0
 10
228.0726248190359
 20
109.8849817465858
 30
0.0
 10
228.1397809014072
 20
110.0133411533883
 30
0.0
 10
228.3090029574659
 20
110.4208091804594
 30
0.0
 10
228.3738659454173
 20
110.7165971283167
 30
0.0
 10
228.3738659454172
 20
111.1474926599227
 30
0.0
  0
LINE
  5
17E
330
1F
100
AcDbEntity
  8
0
  6
HIDDEN
 62
     7
370
     0
100
AcDbLine
 10
228.3738659454
 20
111.0038608161
 30
0.0
 11
228.3738659454
 21
107.8568132033
 31
0.0
  0
LINE
  5
17F
330
1F
100
AcDbEntity
  8
0
  6
HIDDEN
 62
     7
370
     0
100
AcDbLine
 10
228.3738659454
 20
109.7097655905
 30
0.0
 11
228.3738659454
 21
112.8568132033
 31
0.0
  0
LINE
  5
180
330
1F
100
AcDbEntity
  8
0
  6
HIDDEN
 62
     7
370
     0
100
AcDbLine
 10
144.0738659454
 20
107.8568132033
 30
0.0
 11
144.0738659454
 21
112.8335280684
 31
0.0
  0
LINE
  5
181
330
1F
100
AcDbEntity
  8
0
  6
HIDDEN
 62
     7
370
     0
100
AcDbLine
 10
266.953319634
 20
106.1405712949
 30
0.0
 11
266.9536239204
 21
106.1371017581
 31
0.0
  0
LINE
  5
182
330
1F
100
AcDbEntity
  8
0
  6
HIDDEN
 62
     7
370
     0
100
AcDbLine
 10
266.9536239204
 20
106.1371017581
 30
0.0
 11
257.4452158104
 21
106.9669532631
 31
0.0
  0
LINE
  5
183
330
1F
100
AcDbEntity
  8
0
  6
HIDDEN
 62
     7
370
     0
100
AcDbLine
 10
254.61094525
 20
104.1995406827
 30
0.0
 11
254.6514693543
 21
104.180012233
 31
0.0
  0
LINE
  5
184
330
1F
100
AcDbEntity
  8
0
  6
HIDDEN
 62
     7
370
     0
100
AcDbLine
 10
254.6514693543
 20
104.180012233
 30
0.0
 11
255.4705627582
 21
94.8405378307
 31
0.0
  0
LINE
  5
185
330
1F
100
AcDbEntity
  8
0
  6
HIDDEN
 62
     7
370
     0
100
AcDbLine
 10
255.4705627582
 20
94.8405378307
 30
0.0
 11
255.4314519795
 21
94.8439512452
 31
0.0
  0
LINE
  5
186
330
1F
100
AcDbEntity
  8
0
  6
HIDDEN
 62
     7
370
     0
100
AcDbLine
 10
244.7738659454
 20
123.3568132033
 30
0.0
 11
244.7738659454
 21
110.3568132033
 31
0.0
  0
ELLIPSE
  5
187
330
1F
100
AcDbEntity
  8
0
  6
HIDDEN
 62
     7
370
     0
100
AcDbEllipse
 10
263.1109863477
 20
110.3568132033
 30
0.0
 11
13.17784690311692
 21
-12.98255003967748
 31
0.0
210
0.0
220
0.0
230
1.0
 40
0.0510967938
 41
3.089773640772415
 42
4.660569967567247
  0
SPLINE
  5
188
330
1F
100
AcDbEntity
  8
0
  6
HIDDEN
 62
     7
370
     0
100
AcDbSpline
210
0.0
220
0.0
230
1.0
 70
     8
 71
     3
 72
    12
 73
     8
 74
     0
 42
0.00000001
 43
0.00000001
 40
0.0
 40
0.0
 40
0.0
 40
0.0
 40
0.4999999999999993
 40
0.4999999999999993
 40
0.7499999999999997
 40
0.7499999999999997
 40
1.0
 40
1.0
 40
1.0
 40
1.0
 10
246.9876098764309
 20
102.4537755342457
 30
0.0
 10
246.3552478157488
 20
103.6711042204773
 30
0.0
 10
245.8042897074853
 20
104.9285485723621
 30
0.0
 10
245.2039194534487
 20
106.9261203113802
 30
0.0
 10
245.0444400580362
 20
107.6057424705583
 30
0.0
 10
244.8289998742321
 20
108.9795787289566
 30
0.0
 10
244.7738659454173
 20
109.6676115940579
 30
0.0
 10
244.7738659454173
 20
110.3568132032977
 30
0.0
  0
SPLINE
  5
189
330
1F
100
AcDbEntity
  8
0
  6
HIDDEN
 62
     7
370
     0
100
AcDbSpline
210
0.0
220
0.0
230
1.0
 70
     8
 71
     3
 72
    20
 73
    16
 74
     0
 42
0.00000001
 43
0.00000001
 40
0.0
 40
0.0
 40
0.0
 40
0.0
 40
0.2499999999999993
 40
0.2499999999999993
 40
0.3124999999999992
 40
0.3124999999999992
 40
0.3749999999999991
 40
0.3749999999999991
 40
0.4999999999999993
 40
0.4999999999999993
 40
0.6249999999999996
 40
0.6249999999999996
 40
0.7499999999999997
 40
0.7499999999999997
 40
1.0
 40
1.0
 40
1.0
 40
1.0
 10
246.5086746591414
 20
95.62269150360328
 30
0.0
 10
246.4988525982766
 20
95.64475400679021
 30
0.0
 10
246.5025856110531
 20
95.81437342896966
 30
0.0
 10
246.5237425276529
 20
96.20680247059832
 30
0.0
 10
246.528807012656
 20
96.29442725566189
 30
0.0
 10
246.5406258386817
 20
96.48833861211817
 30
0.0
 10
246.5473937106239
 20
96.59480442586852
 30
0.0
 10
246.5699478342459
 20
96.93803229004735
 30
0.0
 10
246.5880463236928
 20
97.19971968522086
 30
0.0
 10
246.6300666833891
 20
97.78716032398945
 30
0.0
 10
246.6539889318334
 20
98.11291583121616
 30
0.0
 10
246.7075718237153
 20
98.82953285413602
 30
0.0
 10
246.7374299935436
 20
99.22294072389121
 30
0.0
 10
246.833512886731
 20
100.4767772096626
 30
0.0
 10
246.9064306826075
 20
101.4137363286658
 30
0.0
 10
246.9876098764316
 20
102.4537755342451
 30
0.0
  0
LWPOLYLINE
  5
18A
330
1F
100
AcDbEntity
  8
0
  6
HIDDEN
 62
     7
370
     0
100
AcDbPolyline
 90
        2
 70
   128
 43
0.0
 10
136.2238659454
 20
93.4568132033
 10
136.2238659454
 20
93.4568132033
  0
ELLIPSE
  5
18B
330
1F
100
AcDbEntity
  8
0
  6
HIDDEN
 62
     7
370
     0
100
AcDbEllipse
 10
255.5446113198
 20
106.6755771222
 30
0.0
 11
1.616902374425166
 21
2.318196838028285
 31
0.0
210
0.0
220
0.0
230
1.0
 40
0.57803977
 41
3.581061319781684
 42
3.716801279715265
  0
ELLIPSE
  5
18C
330
1F
100
AcDbEntity
  8
0
  6
HIDDEN
 62
     7
370
     0
100
AcDbEllipse
 10
255.5446113198
 20
106.6755771222
 30
0.0
 11
2.099281448397704
 21
-0.1276543563555492
 31
0.0
210
0.0
220
0.0
230
0.9999999999999998
 40
0.4303093993
 41
0.3297202086628843
 42
0.4654601685964873
  0
LINE
  5
18D
330
1F
100
AcDbEntity
  8
0
  6
HIDDEN
 62
     7
370
     0
100
AcDbLine
 10
257.5485961381
 20
106.84728121
 30
0.0
 11
257.5485961381
 21
107.0133016175
 31
0.0
  0
ARC
  5
18E
330
1F
100
AcDbEntity
  8
0
  6
HIDDEN
 62
     7
370
     0
100
AcDbCircle
 10
255.5462855221
 20
106.3887791099
 30
0.0
 40
2.097445151940772
100
AcDbArc
 50
252.5375122871
 51
17.3227479433
  0
LINE
  5
18F
330
1F
100
AcDbEntity
  8
0
  6
HIDDEN
 62
     7
370
     0
100
AcDbLine
 10
254.9168814032
 20
104.3879976075
 30
0.0
 11
254.9168814032
 21
104.2219772
 31
0.0
  0
ARC
  5
190
330
1F
100
AcDbEntity
  8
0
  6
HIDDEN
 62
     7
370
     0
100
AcDbCircle
 10
255.5415243439
 20
106.4129965324
 30
0.0
 40
2.097065289557158
100
AcDbArc
 50
270.0843420349
 51
184.6386951473
  0
LWPOLYLINE
  5
191
330
1F
100
AcDbEntity
  8
0
  6
HIDDEN
 62
     7
370
     0
100
AcDbPolyline
 90
        3
 70
   128
 43
0.0
 10
254.580217838
 20
104.5499010642
 10
254.9256254535
 20
104.4090033558
 10
255.5446113198
 20
104.315933515
  0
LINE
  5
192
330
1F
100
AcDbEntity
  8
0
  6
HIDDEN
 62
     7
370
     0
100
AcDbLine
 10
266.7178812862
 20
106.0470268465
 30
0.0
 11
266.9536239204
 21
106.1371017581
 31
0.0
  0
LINE
  5
193
330
1F
100
AcDbEntity
  8
0
  6
HIDDEN
 62
     7
370
     0
100
AcDbLine
 10
266.7178812862
 20
106.0470268465
 30
0.0
 11
257.5485961381
 21
106.84728121
 31
0.0
  0
LINE
  5
194
330
1F
100
AcDbEntity
  8
0
  6
HIDDEN
 62
     7
370
     0
100
AcDbLine
 10
265.295908879
 20
106.8606883291
 30
0.0
 11
266.9076743398
 21
106.6610284926
 31
0.0
  0
LINE
  5
195
330
1F
100
AcDbEntity
  8
0
  6
HIDDEN
 62
     7
370
     0
100
AcDbLine
 10
254.9168814032
 20
104.2219772
 30
0.0
 11
255.7266678058
 21
94.9886231741
 31
0.0
  0
ELLIPSE
  5
196
330
1F
100
AcDbEntity
  8
0
  6
HIDDEN
 62
     7
370
     0
100
AcDbEllipse
 10
254.1615830827
 20
111.0133702023
 30
0.0
 11
-1.31909153596132
 21
16.17220446745449
 31
0.0
210
0.0
220
0.0
230
1.0
 40
0.1269385516
 41
3.136674700348907
 42
3.266776059962309
  0
ELLIPSE
  5
197
330
1F
100
AcDbEntity
  8
0
  6
HIDDEN
 62
     7
370
     0
100
AcDbEllipse
 10
266.5215033009
 20
109.9346514224
 30
0.0
 11
-1.590591225297203
 21
16.19597217585877
 31
0.0
210
0.0
220
0.0
230
1.0
 40
0.1142563444
 41
2.170788766079955
 42
2.822813890232508
  0
LWPOLYLINE
  5
198
330
1F
100
AcDbEntity
  8
0
  6
HIDDEN
 62
     7
370
     0
100
AcDbPolyline
 90
       22
 70
   128
 43
0.0
 10
226.2738659454
 20
110.0106927613
 10
226.8928518117
 20
110.1008108472
 10
227.4568380674
 20
110.3631577178
 10
227.9157120586
 20
110.7744227022
 10
228.2287008176
 20
111.2980631017
 10
228.3679939195
 20
111.8875511689
 10
228.321214561
 20
112.4905083022
 10
228.0925192934
 20
113.0533591141
 10
227.7022286947
 20
113.52609184
 10
227.1850217976
 20
113.8667021027
 10
226.5868547044
 20
114.0449251855
 10
225.9608771864
 20
114.0449251855
 10
225.3627100933
 20
113.8667021027
 10
224.8455031961
 20
113.52609184
 10
224.4552125975
 20
113.0533591141
 10
224.2265173298
 20
112.4905083022
 10
224.1797379713
 20
111.8875511689
 10
224.3190310733
 20
111.2980631017
 10
224.6320198322
 20
110.7744227022
 10
225.0908938235
 20
110.3631577178
 10
225.6548800792
 20
110.1008108472
 10
226.2738659454
 20
110.0106927613
  0
LINE
  5
199
330
1F
100
AcDbEntity
  8
0
  6
HIDDEN
 62
     7
370
     0
100
AcDbLine
 10
136.2238659454
 20
90.3818288479
 30
0.0
 11
136.2238659454
 21
93.4568132033
 31
0.0
  0
LINE
  5
19A
330
1F
100
AcDbEntity
  8
0
  6
HIDDEN
 62
     7
370
     0
100
AcDbLine
 10
136.2238659454
 20
93.4568132033
 30
0.0
 11
140.7238659454
 21
93.4568132033
 31
0.0
  0
LINE
  5
19B
330
1F
100
AcDbEntity
  8
0
  6
HIDDEN
 62
     7
370
     0
100
AcDbLine
 10
266.4222751224
 20
106.2388464432
 30
0.0
 11
266.7178812862
 21
106.0470268465
 31
0.0
  0
LINE
  5
19C
330
1F
100
AcDbEntity
  8
0
  6
HIDDEN
 62
     7
370
     0
100
AcDbLine
 10
254.9168814032
 20
104.3879976075
 30
0.0
 11
255.6942871625
 21
95.5238544526
 31
0.0
  0
ELLIPSE
  5
19D
330
1F
100
AcDbEntity
  8
0
  6
HIDDEN
 62
     7
370
     0
100
AcDbEllipse
 10
254.3148830615
 20
110.999990863
 30
0.0
 11
-1.412683827498597
 21
16.18410441030953
 31
0.0
210
0.0
220
0.0
230
1.0
 40
0.0059881853
 41
3.287305445903094
 42
3.437945314484372
  0
LINE
  5
19E
330
1F
100
AcDbEntity
  8
0
  6
HIDDEN
 62
     7
370
     0
100
AcDbLine
 10
111.9738659454
 20
121.3568132033
 30
0.0
 11
111.9738659454
 21
120.3810026967
 31
0.0
  0
LINE
  5
19F
330
1F
100
AcDbEntity
  8
0
  6
HIDDEN
 62
     7
370
     0
100
AcDbLine
 10
114.4738659454
 20
99.3568132033
 30
0.0
 11
114.4738659454
 21
100.3326237099
 31
0.0
  0
LINE
  5
1A0
330
1F
100
AcDbEntity
  8
0
  6
HIDDEN
 62
     7
370
     0
100
AcDbLine
 10
111.9738659454
 20
121.3568132033
 30
0.0
 11
111.9738659454
 21
123.914337325
 31
0.0
  0
LINE
  5
1A1
330
1F
100
AcDbEntity
  8
0
  6
HIDDEN
 62
     7
370
     0
100
AcDbLine
 10
114.4738659454
 20
99.3568132033
 30
0.0
 11
114.4738659454
 21
96.7532370176
 31
0.0
  0
CIRCLE
  5
1A2
330
1F
100
AcDbEntity
  8
0
  6
HIDDEN
 62
     7
370
     0
100
AcDbCircle
 10
261.3273975638
 20
100.6226958927
 30
0.0
 40
2.998078744686158
  0
LINE
  5
1A3
330
1F
100
AcDbEntity
  8
0
  6
HIDDEN
 62
     7
370
     0
100
AcDbLine
 10
266.4222751224
 20
106.2388464432
 30
0.0
 11
257.5485961381
 21
107.0133016175
 31
0.0
  0
LINE
  5
1A4
330
1F
100
AcDbEntity
  8
0
  6
HIDDEN
 62
     7
370
     0
100
AcDbLine
 10
255.6942871625
 20
95.5238544526
 30
0.0
 11
267.4520012592
 21
94.4976935405
 31
0.0
  0
LINE
  5
1A5
330
1F
100
AcDbEntity
  8
0
  6
HIDDEN
 62
     7
370
     0
100
AcDbLine
 10
267.4520012592
 20
94.4976935405
 30
0.0
 11
266.4222751224
 21
106.2388464432
 31
0.0
  0
LINE
  5
1A6
330
1F
100
AcDbEntity
  8
0
  6
HIDDEN
 62
     7
370
     0
100
AcDbLine
 10
145.3138659454
 20
127.7594171751
 30
0.0
 11
145.3138659454
 21
93.2439342813
 31
0.0
  0
SPLINE
  5
1A7
330
1F
100
AcDbEntity
  8
0
  6
HIDDEN
 62
     7
370
     0
100
AcDbSpline
210
0.0
220
0.0
230
1.0
 70
     8
 71
     3
 72
    10
 73
     6
 74
     0
 42
0.00000001
 43
0.00000001
 40
0.0
 40
0.0
 40
0.0
 40
0.0
 40
0.5
 40
0.5
 40
1.0
 40
1.0
 40
1.0
 40
1.0
 10
145.0655215596672
 20
127.2568132032977
 30
0.0
 10
145.1429495642158
 20
127.3147725096848
 30
0.0
 10
145.2061291811023
 20
127.3917571648029
 30
0.0
 10
145.2914243603635
 20
127.5653272976753
 30
0.0
 10
145.3138659454172
 20
127.6622285601571
 30
0.0
 10
145.3138659454172
 20
127.7594171751177
 30
0.0
  0
SPLINE
  5
1A8
330
1F
100
AcDbEntity
  8
0
  6
HIDDEN
 62
     7
370
     0
100
AcDbSpline
210
0.0
220
0.0
230
1.0
 70
     8
 71
     3
 72
    10
 73
     6
 74
     0
 42
0.00000001
 43
0.00000001
 40
0.0
 40
0.0
 40
0.0
 40
0.0
 40
0.5
 40
0.5
 40
1.0
 40
1.0
 40
1.0
 40
1.0
 10
145.2786435448358
 20
93.45681320329771
 30
0.0
 10
145.2903556617989
 20
93.42246986610373
 30
0.0
 10
145.299153731671
 20
93.3873773283655
 30
0.0
 10
145.3109672894431
 20
93.31570555297476
 30
0.0
 10
145.3138659454172
 20
93.2797618986095
 30
0.0
 10
145.3138659454172
 20
93.2439342812694
 30
0.0
  0
SPLINE
  5
1A9
330
1F
100
AcDbEntity
  8
0
  6
HIDDEN
 62
     7
370
     0
100
AcDbSpline
210
0.0
220
0.0
230
1.0
 70
    24
 71
     3
 72
    12
 73
     8
 74
     0
 42
0.00000001
 43
0.00000001
 40
0.0
 40
0.0
 40
0.0
 40
0.0
 40
0.2500000000000031
 40
0.2500000000000031
 40
0.5000000000000061
 40
0.5000000000000061
 40
1.0
 40
1.0
 40
1.0
 40
1.0
 10
144.7138659454172
 20
127.2568132032978
 30
0.0
 10
144.7655828633266
 20
127.2568132032978
 30
0.0
 10
144.8126706514654
 20
127.2568132032978
 30
0.0
 10
144.8857346461405
 20
127.2568132032978
 30
0.0
 10
144.9153635534263
 20
127.2568132032978
 30
0.0
 10
144.9939368979513
 20
127.2568132032978
 30
0.0
 10
145.0319007661837
 20
127.2568132032978
 30
0.0
 10
145.0655215596672
 20
127.2568132032978
 30
0.0
  0
SPLINE
  5
1AA
330
1F
100
AcDbEntity
  8
0
  6
HIDDEN
 62
     7
370
     0
100
AcDbSpline
210
0.0
220
0.0
230
1.0
 70
    24
 71
     3
 72
    16
 73
    12
 74
     0
 42
0.00000001
 43
0.00000001
 40
0.0
 40
0.0
 40
0.0
 40
0.0
 40
0.0624999999999996
 40
0.0624999999999996
 40
0.1249999999999993
 40
0.1249999999999993
 40
0.2499999999999998
 40
0.2499999999999998
 40
0.4999999999999993
 40
0.4999999999999993
 40
1.0
 40
1.0
 40
1.0
 40
1.0
 10
144.7138659454172
 20
93.45681320329767
 30
0.0
 10
144.7481952830599
 20
93.45681320329766
 30
0.0
 10
144.7822105245208
 20
93.45681320329767
 30
0.0
 10
144.838695099077
 20
93.45681320329767
 30
0.0
 10
144.8629974819191
 20
93.45681320329767
 30
0.0
 10
144.927262758738
 20
93.45681320329767
 30
0.0
 10
144.9606201282441
 20
93.45681320329767
 30
0.0
 10
145.0490438635616
 20
93.45681320329767
 30
0.0
 10
145.0915834071706
 20
93.45681320329767
 30
0.0
 10
145.2015674922406
 20
93.45681320329767
 30
0.0
 10
145.2487941592681
 20
93.45681320329767
 30
0.0
 10
145.2786435448358
 20
93.45681320329767
 30
0.0
  0
SPLINE
  5
1AB
330
1F
100
AcDbEntity
  8
0
  6
HIDDEN
 62
     7
370
     0
100
AcDbSpline
210
0.0
220
0.0
230
1.0
 70
     8
 71
     3
 72
    10
 73
     6
 74
     0
 42
0.00000001
 43
0.00000001
 40
0.0
 40
0.0
 40
0.0
 40
0.0
 40
0.5
 40
0.5
 40
1.0
 40
1.0
 40
1.0
 40
1.0
 10
143.2338659454171
 20
127.7594171751177
 30
0.0
 10
143.2338659454171
 20
127.6624821098859
 30
0.0
 10
143.2563155812626
 20
127.5654228311467
 30
0.0
 10
143.3413112395306
 20
127.3922387437397
 30
0.0
 10
143.4041673234611
 20
127.3152328748542
 30
0.0
 10
143.482210331167
 20
127.2568132032978
 30
0.0
  0
LINE
  5
1AC
330
1F
100
AcDbEntity
  8
0
  6
HIDDEN
 62
     7
370
     0
100
AcDbLine
 10
143.2338659454
 20
127.7594171751
 30
0.0
 11
143.2338659454
 21
93.2439342813
 31
0.0
  0
SPLINE
  5
1AD
330
1F
100
AcDbEntity
  8
0
  6
HIDDEN
 62
     7
370
     0
100
AcDbSpline
210
0.0
220
0.0
230
1.0
 70
     8
 71
     3
 72
    10
 73
     6
 74
     0
 42
0.00000001
 43
0.00000001
 40
0.0
 40
0.0
 40
0.0
 40
0.0
 40
0.5
 40
0.5
 40
1.0
 40
1.0
 40
1.0
 40
1.0
 10
143.2338659454171
 20
93.24393428126939
 30
0.0
 10
143.2338659454171
 20
93.28015677071014
 30
0.0
 10
143.2368356747145
 20
93.3163499679687
 30
0.0
 10
143.2487146570625
 20
93.38798845938359
 30
0.0
 10
143.2575098849032
 20
93.4228617840253
 30
0.0
 10
143.2690883459985
 20
93.45681320329771
 30
0.0
  0
SPLINE
  5
1AE
330
1F
100
AcDbEntity
  8
0
  6
HIDDEN
 62
     7
370
     0
100
AcDbSpline
210
0.0
220
0.0
230
1.0
 70
    24
 71
     3
 72
    12
 73
     8
 74
     0
 42
0.00000001
 43
0.00000001
 40
0.0
 40
0.0
 40
0.0
 40
0.0
 40
0.4999999999999982
 40
0.4999999999999982
 40
0.7499999999999991
 40
0.7499999999999991
 40
1.0
 40
1.0
 40
1.0
 40
1.0
 10
143.482210331167
 20
127.2568132032978
 30
0.0
 10
143.5161616566428
 20
127.2568132032978
 30
0.0
 10
143.554907514845
 20
127.2568132032978
 30
0.0
 10
143.6331028618528
 20
127.2568132032978
 30
0.0
 10
143.6626115535375
 20
127.2568132032978
 30
0.0
 10
143.7354867149432
 20
127.2568132032978
 30
0.0
 10
143.7822833490776
 20
127.2568132032978
 30
0.0
 10
143.8338659454172
 20
127.2568132032978
 30
0.0
  0
SPLINE
  5
1AF
330
1F
100
AcDbEntity
  8
0
  6
HIDDEN
 62
     7
370
     0
100
AcDbSpline
210
0.0
220
0.0
230
1.0
 70
    24
 71
     3
 72
    16
 73
    12
 74
     0
 42
0.00000001
 43
0.00000001
 40
0.0
 40
0.0
 40
0.0
 40
0.0
 40
0.4999999999999983
 40
0.4999999999999983
 40
0.7499999999999982
 40
0.7499999999999982
 40
0.8749999999999976
 40
0.8749999999999976
 40
0.9374999999999988
 40
0.9374999999999988
 40
1.0
 40
1.0
 40
1.0
 40
1.0
 10
143.2690883459985
 20
93.45681320329767
 30
0.0
 10
143.2988657516887
 20
93.45681320329768
 30
0.0
 10
143.3458389975525
 20
93.45681320329766
 30
0.0
 10
143.4561564569076
 20
93.45681320329767
 30
0.0
 10
143.4993009273691
 20
93.45681320329767
 30
0.0
 10
143.587962727039
 20
93.45681320329767
 30
0.0
 10
143.6210139341685
 20
93.45681320329767
 30
0.0
 10
143.6853595186541
 20
93.45681320329767
 30
0.0
 10
143.7095046320878
 20
93.45681320329767
 30
0.0
 10
143.7661235527131
 20
93.45681320329767
 30
0.0
 10
143.7997260995916
 20
93.45681320329767
 30
0.0
 10
143.8338659454173
 20
93.45681320329767
 30
0.0
  0
LINE
  5
1B0
330
1F
100
AcDbEntity
  8
0
  6
HIDDEN
 62
     7
370
     0
100
AcDbLine
 10
109.3238659454
 20
121.3568132033
 30
0.0
 11
109.3238659454
 21
123.2295537662
 31
0.0
  0
LINE
  5
1B1
330
1F
100
AcDbEntity
  8
0
  6
HIDDEN
 62
     7
370
     0
100
AcDbLine
 10
109.3238659454
 20
121.3568132033
 30
0.0
 11
109.3238659454
 21
120.054718905
 31
0.0
  0
LINE
  5
1B2
330
1F
100
AcDbEntity
  8
0
  6
HIDDEN
 62
     7
370
     0
100
AcDbLine
 10
108.3738659454
 20
99.3568132033
 30
0.0
 11
108.3738659454
 21
98.4909901327
 31
0.0
  0
LINE
  5
1B3
330
1F
100
AcDbEntity
  8
0
  6
HIDDEN
 62
     7
370
     0
100
AcDbLine
 10
109.3238659454
 20
99.3568132033
 30
0.0
 11
109.3238659454
 21
97.5417268943
 31
0.0
  0
LINE
  5
1B4
330
1F
100
AcDbEntity
  8
0
  6
HIDDEN
 62
     7
370
     0
100
AcDbLine
 10
109.3238659454
 20
99.3568132033
 30
0.0
 11
109.3238659454
 21
100.6589075015
 31
0.0
  0
ELLIPSE
  5
1B5
330
1F
100
AcDbEntity
  8
0
  6
HIDDEN
 62
     7
370
     0
100
AcDbEllipse
 10
106.2680992057
 20
110.3568132033
 30
0.0
 11
12.26424774976725
 21
0.0
 31
0.0
210
0.0
220
0.0
230
1.0
 40
0.8164965809
 41
4.884943637108982
 42
4.964202354313265
  0
LINE
  5
1B6
330
1F
100
AcDbEntity
  8
0
  6
HIDDEN
 62
     7
370
     0
100
AcDbLine
 10
108.3738659454
 20
99.3568132033
 30
0.0
 11
108.3738659454
 21
100.4918070602
 31
0.0
  0
ELLIPSE
  5
1B7
330
1F
100
AcDbEntity
  8
0
  6
HIDDEN
 62
     7
370
     0
100
AcDbEllipse
 10
106.2680992057
 20
110.3568132033
 30
0.0
 11
12.26424774976725
 21
0.0
 31
0.0
210
0.0
220
0.0
230
1.0
 40
0.8164965809
 41
1.318982952866323
 42
1.398241670070618
  0
LINE
  5
1B8
330
1F
100
AcDbEntity
  8
0
  6
HIDDEN
 62
     7
370
     0
100
AcDbLine
 10
108.3738659454
 20
120.2218193464
 30
0.0
 11
108.3738659454
 21
100.4918070602
 31
0.0
  0
LINE
  5
1B9
330
1F
100
AcDbEntity
  8
0
  6
HIDDEN
 62
     7
370
     0
100
AcDbLine
 10
108.3738659454
 20
121.3568132033
 30
0.0
 11
108.3738659454
 21
122.2812855978
 31
0.0
  0
LINE
  5
1BA
330
1F
100
AcDbEntity
  8
0
  6
HIDDEN
 62
     7
370
     0
100
AcDbLine
 10
108.3738659454
 20
121.3568132033
 30
0.0
 11
108.3738659454
 21
120.2218193464
 31
0.0
  0
LINE
  5
1BB
330
1F
100
AcDbEntity
  8
0
  6
HIDDEN
 62
     7
370
     0
100
AcDbLine
 10
143.8338659454
 20
127.2568132033
 30
0.0
 11
144.7138659454
 21
127.2568132033
 31
0.0
  0
LINE
  5
1BC
330
1F
100
AcDbEntity
  8
0
  6
HIDDEN
 62
     7
370
     0
100
AcDbLine
 10
143.8338659454
 20
93.4568132033
 30
0.0
 11
144.7138659454
 21
93.4568132033
 31
0.0
  0
CIRCLE
  5
1BD
330
1F
100
AcDbEntity
  8
0
  6
HIDDEN
 62
     7
370
     0
100
AcDbCircle
 10
261.325680484
 20
100.6833641151
 30
0.0
 40
2.097629778112368
  0
LWPOLYLINE
  5
1BE
330
1F
100
AcDbEntity
  8
0
  6
HIDDEN
 62
     7
370
     0
100
AcDbPolyline
 90
        2
 70
   128
 43
0.0
 10
261.328491883
 20
98.5852058194
 10
261.328491883
 20
98.5852058194
  0
LINE
  5
1BF
330
1F
100
AcDbEntity
  8
0
  6
HIDDEN
 62
     7
370
     0
100
AcDbLine
 10
145.3138659454
 20
127.7594171751
 30
0.0
 11
145.3138659454
 21
128.0704898988
 31
0.0
  0
SPLINE
  5
1C0
330
1F
100
AcDbEntity
  8
0
  6
HIDDEN
 62
     7
370
     0
100
AcDbSpline
210
0.0
220
0.0
230
1.0
 70
     8
 71
     3
 72
     8
 73
     4
 74
     0
 42
0.00000001
 43
0.00000001
 40
0.0
 40
0.0
 40
0.0
 40
0.0
 40
1.0
 40
1.0
 40
1.0
 40
1.0
 10
145.3138659454172
 20
128.070489898828
 30
0.0
 10
145.6448862764368
 20
128.6620455952857
 30
0.0
 10
145.9766675479209
 20
129.2531782595309
 30
0.0
 10
146.3090256443106
 20
129.8439884732028
 30
0.0
  0
LINE
  5
1C1
330
1F
100
AcDbEntity
  8
0
  6
HIDDEN
 62
     7
370
     0
100
AcDbLine
 10
146.3090256443
 20
129.8439884732
 30
0.0
 11
147.6238659454
 21
129.8439884732
 31
0.0
  0
SPLINE
  5
1C2
330
1F
100
AcDbEntity
  8
0
  6
HIDDEN
 62
     7
370
     0
100
AcDbSpline
210
0.0
220
0.0
230
1.0
 70
     8
 71
     3
 72
    10
 73
     6
 74
     0
 42
0.00000001
 43
0.00000001
 40
0.0
 40
0.0
 40
0.0
 40
0.0
 40
0.5
 40
0.5
 40
1.0
 40
1.0
 40
1.0
 40
1.0
 10
147.6238659454171
 20
129.8439884732028
 30
0.0
 10
147.7842881700165
 20
129.8439884732028
 30
0.0
 10
147.9407709706838
 20
129.775403070697
 30
0.0
 10
148.1614245812511
 20
129.5456298013773
 30
0.0
 10
148.2238659454171
 20
129.3871315997097
 30
0.0
 10
148.2238659454171
 20
129.2276902364407
 30
0.0
  0
LINE
  5
1C3
330
1F
100
AcDbEntity
  8
0
  6
HIDDEN
 62
     7
370
     0
100
AcDbLine
 10
145.0655215597
 20
127.2568132033
 30
0.0
 11
148.2238659454
 21
127.2568132033
 31
0.0
  0
LINE
  5
1C4
330
1F
100
AcDbEntity
  8
0
  6
HIDDEN
 62
     7
370
     0
100
AcDbLine
 10
148.2238659454
 20
129.2276902364
 30
0.0
 11
148.2238659454
 21
127.2568132033
 31
0.0
  0
SPLINE
  5
1C5
330
1F
100
AcDbEntity
  8
0
  6
HIDDEN
 62
     7
370
     0
100
AcDbSpline
210
0.0
220
0.0
230
1.0
 70
     8
 71
     3
 72
     8
 73
     4
 74
     0
 42
0.00000001
 43
0.00000001
 40
0.0
 40
0.0
 40
0.0
 40
0.0
 40
1.0
 40
1.0
 40
1.0
 40
1.0
 10
142.2387062465237
 20
129.8439884732029
 30
0.0
 10
142.5710643429134
 20
129.2531782595309
 30
0.0
 10
142.9028456143975
 20
128.6620455952857
 30
0.0
 10
143.2338659454171
 20
128.070489898828
 30
0.0
  0
LINE
  5
1C6
330
1F
100
AcDbEntity
  8
0
  6
HIDDEN
 62
     7
370
     0
100
AcDbLine
 10
143.2338659454
 20
128.0704898988
 30
0.0
 11
143.2338659454
 21
127.7594171751
 31
0.0
  0
LINE
  5
1C7
330
1F
100
AcDbEntity
  8
0
  6
HIDDEN
 62
     7
370
     0
100
AcDbLine
 10
140.7238659454
 20
127.2568132033
 30
0.0
 11
143.4822103312
 21
127.2568132033
 31
0.0
  0
SPLINE
  5
1C8
330
1F
100
AcDbEntity
  8
0
  6
HIDDEN
 62
     7
370
     0
100
AcDbSpline
210
0.0
220
0.0
230
1.0
 70
     8
 71
     3
 72
    12
 73
     8
 74
     0
 42
0.00000001
 43
0.00000001
 40
0.0
 40
0.0
 40
0.0
 40
0.0
 40
0.25
 40
0.25
 40
0.5
 40
0.5
 40
1.0
 40
1.0
 40
1.0
 40
1.0
 10
147.6238659454172
 20
91.12792868026834
 30
0.0
 10
147.7036314258874
 20
91.12792868026834
 30
0.0
 10
147.7840527095445
 20
91.14490427662645
 30
0.0
 10
147.930734626207
 20
91.20937977408565
 30
0.0
 10
147.9970884357709
 20
91.25649340588024
 30
0.0
 10
148.1632925164975
 20
91.4331033198677
 30
0.0
 10
148.2238659454171
 20
91.59295219567582
 30
0.0
 10
148.2238659454171
 20
91.75278138221084
 30
0.0
  0
LINE
  5
1C9
330
1F
100
AcDbEntity
  8
0
  6
HIDDEN
 62
     7
370
     0
100
AcDbLine
 10
148.2238659454
 20
129.2276902364
 30
0.0
 11
148.2238659454
 21
91.7527813822
 31
0.0
  0
LINE
  5
1CA
330
1F
100
AcDbEntity
  8
0
  6
HIDDEN
 62
     7
370
     0
100
AcDbLine
 10
145.3138659454
 20
128.0704898988
 30
0.0
 11
145.3138659454
 21
92.9276898153
 31
0.0
  0
LINE
  5
1CB
330
1F
100
AcDbEntity
  8
0
  6
HIDDEN
 62
     7
370
     0
100
AcDbLine
 10
146.3090256443
 20
129.8439884732
 30
0.0
 11
146.3090256443
 21
91.1279286803
 31
0.0
  0
LINE
  5
1CC
330
1F
100
AcDbEntity
  8
0
  6
HIDDEN
 62
     7
370
     0
100
AcDbLine
 10
143.2338659454
 20
128.0704898988
 30
0.0
 11
143.2338659454
 21
92.9276898153
 31
0.0
  0
ELLIPSE
  5
1CD
330
1F
100
AcDbEntity
  8
0
  6
HIDDEN
 62
     7
370
     0
100
AcDbEllipse
 10
261.328491883
 20
101.2281957165
 30
0.0
 11
0.0
 21
-2.105127985970455
 31
0.0
210
0.0
220
0.0
230
1.0
 40
0.9975640503
 41
1.404042885709433
 42
4.688404414681482
  0
SPLINE
  5
1CE
330
1F
100
AcDbEntity
  8
0
  6
HIDDEN
 62
     7
370
     0
100
AcDbSpline
210
0.0
220
0.0
230
1.0
 70
     8
 71
     3
 72
    30
 73
    26
 74
     0
 42
0.00000001
 43
0.00000001
 40
0.0
 40
0.0
 40
0.0
 40
0.0
 40
0.062500000000004
 40
0.062500000000004
 40
0.125000000000008
 40
0.125000000000008
 40
0.250000000000017
 40
0.250000000000017
 40
0.3125000000000213
 40
0.3125000000000213
 40
0.3750000000000256
 40
0.3750000000000256
 40
0.4375000000000299
 40
0.4375000000000299
 40
0.5000000000000342
 40
0.5000000000000342
 40
0.6250000000000319
 40
0.6250000000000319
 40
0.6875000000000266
 40
0.6875000000000266
 40
0.7500000000000213
 40
0.7500000000000213
 40
0.8750000000000107
 40
0.8750000000000107
 40
1.0
 40
1.0
 40
1.0
 40
1.0
 10
263.3993624308902
 20
100.8787829861304
 30
0.0
 10
263.3793963975952
 20
100.7535565403327
 30
0.0
 10
263.3495669455255
 20
100.6314550670123
 30
0.0
 10
263.2707832881607
 20
100.3932797091828
 30
0.0
 10
263.2214078315253
 20
100.2765803279493
 30
0.0
 10
263.0476584446656
 20
99.94406661256261
 30
0.0
 10
262.8986497925595
 20
99.74290451025868
 30
0.0
 10
262.6127044379869
 20
99.47479572531157
 30
0.0
 10
262.5083985158827
 20
99.39290127301388
 30
0.0
 10
262.28041848354
 20
99.24739288271225
 30
0.0
 10
262.1548121493708
 20
99.18284396188567
 30
0.0
 10
261.886013032892
 20
99.08015718464321
 30
0.0
 10
261.742048626618
 20
99.04154282116009
 30
0.0
 10
261.4379375060078
 20
98.99830495504553
 30
0.0
 10
261.2814486110016
 20
98.99432890198204
 30
0.0
 10
260.8101487402611
 20
99.04063656484082
 30
0.0
 10
260.5145228306816
 20
99.14929548223323
 30
0.0
 10
260.1455195880961
 20
99.378729544994
 30
0.0
 10
260.0364130951116
 20
99.46419055937154
 30
0.0
 10
259.8391911203946
 20
99.6497666285639
 30
0.0
 10
259.7506681678611
 20
99.7508287947164
 30
0.0
 10
259.5197104051746
 20
100.0652914641009
 30
0.0
 10
259.4077246920601
 20
100.2923840468593
 30
0.0
 10
259.2584068148616
 20
100.7748443081006
 30
0.0
 10
259.2232787483345
 20
101.0229437257619
 30
0.0
 10
259.2290958764461
 20
101.2786814563057
 30
0.0
  0
SPLINE
  5
1CF
330
1F
100
AcDbEntity
  8
0
  6
HIDDEN
 62
     7
370
     0
100
AcDbSpline
210
0.0
220
0.0
230
1.0
 70
     8
 71
     3
 72
     8
 73
     4
 74
     0
 42
0.00000001
 43
0.00000001
 40
0.0
 40
0.0
 40
0.0
 40
0.0
 40
1.0
 40
1.0
 40
1.0
 40
1.0
 10
145.3138659454172
 20
92.92768981530796
 30
0.0
 10
145.6445045720318
 20
92.32716946419697
 30
0.0
 10
145.9763203726053
 20
91.72730035349194
 30
0.0
 10
146.3090256443106
 20
91.12792868026828
 30
0.0
  0
LINE
  5
1D0
330
1F
100
AcDbEntity
  8
0
  6
HIDDEN
 62
     7
370
     0
100
AcDbLine
 10
145.3138659454
 20
93.2439342813
 30
0.0
 11
145.3138659454
 21
92.9276898153
 31
0.0
  0
LINE
  5
1D1
330
1F
100
AcDbEntity
  8
0
  6
HIDDEN
 62
     7
370
     0
100
AcDbLine
 10
146.3090256443
 20
91.1279286803
 30
0.0
 11
147.6238659454
 21
91.1279286803
 31
0.0
  0
LINE
  5
1D2
330
1F
100
AcDbEntity
  8
0
  6
HIDDEN
 62
     7
370
     0
100
AcDbLine
 10
145.2786435448
 20
93.4568132033
 30
0.0
 11
148.2238659454
 21
93.4568132033
 31
0.0
  0
LINE
  5
1D3
330
1F
100
AcDbEntity
  8
0
  6
HIDDEN
 62
     7
370
     0
100
AcDbLine
 10
148.2238659454
 20
91.7527813822
 30
0.0
 11
148.2238659454
 21
93.4568132033
 31
0.0
  0
LINE
  5
1D4
330
1F
100
AcDbEntity
  8
0
  6
HIDDEN
 62
     7
370
     0
100
AcDbLine
 10
143.2338659454
 20
92.9276898153
 30
0.0
 11
143.2338659454
 21
93.2439342813
 31
0.0
  0
SPLINE
  5
1D5
330
1F
100
AcDbEntity
  8
0
  6
HIDDEN
 62
     7
370
     0
100
AcDbSpline
210
0.0
220
0.0
230
1.0
 70
     8
 71
     3
 72
     8
 73
     4
 74
     0
 42
0.00000001
 43
0.00000001
 40
0.0
 40
0.0
 40
0.0
 40
0.0
 40
1.0
 40
1.0
 40
1.0
 40
1.0
 10
142.2387062465237
 20
91.12792868026828
 30
0.0
 10
142.571411518229
 20
91.72730035349194
 30
0.0
 10
142.9032273188025
 20
92.32716946419697
 30
0.0
 10
143.2338659454171
 20
92.92768981530796
 30
0.0
  0
LINE
  5
1D6
330
1F
100
AcDbEntity
  8
0
  6
HIDDEN
 62
     7
370
     0
100
AcDbLine
 10
140.7238659454
 20
93.4568132033
 30
0.0
 11
143.269088346
 21
93.4568132033
 31
0.0
  0
LWPOLYLINE
  5
1D7
330
1F
100
AcDbEntity
  8
0
  6
HIDDEN
 62
     7
370
     0
100
AcDbPolyline
 90
       24
 70
   128
 43
0.0
 10
226.2738659454
 20
109.6865280994
 10
226.9483578733
 20
109.7760759741
 10
227.5728258205
 20
110.0380782418
 10
228.1009558561
 20
110.453103393
 10
228.4935789914
 20
110.9903709108
 10
228.7215761646
 20
111.6100341213
 10
228.7680378684
 20
112.2661354389
 10
228.6295182507
 20
112.9100148304
 10
228.3162906779
 20
113.4939187067
 10
227.8515858062
 20
113.9745415887
 10
227.26986867
 20
114.3162378758
 10
226.6142825682
 20
114.4936655177
 10
225.9334493227
 20
114.4936655177
 10
225.2778632208
 20
114.3162378758
 10
224.6961460846
 20
113.9745415887
 10
224.2314412129
 20
113.4939187067
 10
223.9182136401
 20
112.9100148304
 10
223.7796940224
 20
112.2661354389
 10
223.8261557262
 20
111.6100341213
 10
224.0541528994
 20
110.9903709108
 10
224.4467760347
 20
110.453103393
 10
224.9749060703
 20
110.0380782418
 10
225.5993740175
 20
109.7760759741
 10
226.2738659454
 20
109.6865280994
  0
LINE
  5
1D8
330
1F
100
AcDbEntity
  8
0
  6
HIDDEN
 62
     7
370
     0
100
AcDbLine
 10
108.3738659454
 20
98.5383409306
 30
0.0
 11
108.3738659454
 21
98.8093000021
 31
0.0
  0
LINE
  5
1D9
330
1F
100
AcDbEntity
  8
0
  6
HIDDEN
 62
     7
370
     0
100
AcDbLine
 10
108.3738659454
 20
122.2307273406
 30
0.0
 11
108.3738659454
 21
122.1350446677
 31
0.0
  0
SPLINE
  5
1DA
330
1F
100
AcDbEntity
  8
0
  6
HIDDEN
 62
     7
370
     0
100
AcDbSpline
210
0.0
220
0.0
230
1.0
 70
     8
 71
     3
 72
    26
 73
    22
 74
     0
 42
0.00000001
 43
0.00000001
 40
0.0
 40
0.0
 40
0.0
 40
0.0
 40
0.2500000000000036
 40
0.2500000000000036
 40
0.3750000000000054
 40
0.3750000000000054
 40
0.4375000000000057
 40
0.4375000000000057
 40
0.468750000000006
 40
0.468750000000006
 40
0.5000000000000063
 40
0.5000000000000063
 40
0.5312500000000067
 40
0.5312500000000067
 40
0.562500000000007
 40
0.562500000000007
 40
0.6250000000000061
 40
0.6250000000000061
 40
0.7500000000000039
 40
0.7500000000000039
 40
1.0
 40
1.0
 40
1.0
 40
1.0
 10
109.133835991805
 20
122.7448937829107
 30
0.0
 10
109.0864478823765
 20
122.6092380408875
 30
0.0
 10
109.0288065804721
 20
122.4652766425582
 30
0.0
 10
108.9067587679287
 20
122.2225040693037
 30
0.0
 10
108.8607097601522
 20
122.1374644288543
 30
0.0
 10
108.7700564759865
 20
121.9970884558139
 30
0.0
 10
108.7357039757009
 20
121.947177078475
 30
0.0
 10
108.6732688033103
 20
121.8706418136207
 30
0.0
 10
108.6499747845122
 20
121.8442373346338
 30
0.0
 10
108.6009222473856
 20
121.7966425693728
 30
0.0
 10
108.5764907977287
 20
121.7771999555209
 30
0.0
 10
108.535861202109
 20
121.752292177853
 30
0.0
 10
108.5196989202578
 20
121.7462223465421
 30
0.0
 10
108.4927168761547
 20
121.7405334749483
 30
0.0
 10
108.481967353332
 20
121.7409239830291
 30
0.0
 10
108.4539313791749
 20
121.7470663298176
 30
0.0
 10
108.4410701471423
 20
121.7577303362356
 30
0.0
 10
108.410067285982
 20
121.7967431265959
 30
0.0
 10
108.3992078039129
 20
121.8327951170002
 30
0.0
 10
108.3759305479749
 20
121.9504745144992
 30
0.0
 10
108.373865945417
 20
122.0418044148322
 30
0.0
 10
108.373865945417
 20
122.1350446677385
 30
0.0
  0
SPLINE
  5
1DB
330
1F
100
AcDbEntity
  8
0
  6
HIDDEN
 62
     7
370
     0
100
AcDbSpline
210
0.0
220
0.0
230
1.0
 70
     8
 71
     3
 72
    24
 73
    20
 74
     0
 42
0.00000001
 43
0.00000001
 40
0.0
 40
0.0
 40
0.0
 40
0.0
 40
0.2500000000000022
 40
0.2500000000000022
 40
0.3750000000000037
 40
0.3750000000000037
 40
0.4375000000000037
 40
0.4375000000000037
 40
0.5000000000000038
 40
0.5000000000000038
 40
0.5312500000000026
 40
0.5312500000000026
 40
0.5625000000000014
 40
0.5625000000000014
 40
0.6250000000000003
 40
0.6250000000000003
 40
0.7500000000000002
 40
0.7500000000000002
 40
1.0
 40
1.0
 40
1.0
 40
1.0
 10
108.3738659454171
 20
98.80930000207641
 30
0.0
 10
108.3738659454171
 20
98.89420895574597
 30
0.0
 10
108.3765905738494
 20
98.97653865179282
 30
0.0
 10
108.4029478949674
 20
99.0789510392118
 30
0.0
 10
108.4151616132395
 20
99.1097681355962
 30
0.0
 10
108.4497722633719
 20
99.13886565167319
 30
0.0
 10
108.4641589737393
 20
99.14582329231182
 30
0.0
 10
108.5054074568416
 20
99.14471355103504
 30
0.0
 10
108.5339470067724
 20
99.13642014542636
 30
0.0
 10
108.5948696722836
 20
99.09183671156528
 30
0.0
 10
108.6179356424235
 20
99.07137499830802
 30
0.0
 10
108.6618315224297
 20
99.02676238002769
 30
0.0
 10
108.6827115579899
 20
99.00288630182133
 30
0.0
 10
108.7399218212831
 20
98.93298920465931
 30
0.0
 10
108.7722684450595
 20
98.88741161587481
 30
0.0
 10
108.8584343885514
 20
98.75852812825583
 30
0.0
 10
108.9040984085914
 20
98.67869495112375
 30
0.0
 10
109.0246459720427
 20
98.45291414201131
 30
0.0
 10
109.0837060607439
 20
98.31808275703992
 30
0.0
 10
109.1338359918049
 20
98.18982761837235
 30
0.0
  0
LINE
  5
1DC
330
1F
100
AcDbEntity
  8
0
  6
HIDDEN
 62
     7
370
     0
100
AcDbLine
 10
108.3738659454
 20
122.1350446677
 30
0.0
 11
108.3738659454
 21
98.8093000021
 31
0.0
  0
ELLIPSE
  5
1DD
330
1F
100
AcDbEntity
  8
0
  6
HIDDEN
 62
     7
370
     0
100
AcDbEllipse
 10
2398.4084894496
 20
-76.1269483207
 30
0.0
 11
-2621.752605686556
 21
228.8148889289182
 31
1.243449787580175E-14
210
4.706965868183103E-18
220
-4.108030139779289E-19
230
1.0
 40
0.0060796773
 41
0.6197287139970931
 42
0.6213651966317746
  0
ELLIPSE
  5
1DE
330
1F
100
AcDbEntity
  8
0
  6
HIDDEN
 62
     7
370
     0
100
AcDbEllipse
 10
2398.4084894496
 20
-76.1269483207
 30
0.0
 11
-2621.752605686556
 21
228.8148889289182
 31
1.243449787580175E-14
210
4.706965868183103E-18
220
-4.108030139779289E-19
230
1.0
 40
0.0060796773
 41
0.6088599083766509
 42
0.6169827434974868
  0
LINE
  5
1DF
330
1F
100
AcDbEntity
  8
0
  6
HIDDEN
 62
     7
370
     0
100
AcDbLine
 10
265.8923234117
 20
100.6398254408
 30
0.0
 11
265.295908879
 21
106.8606883291
 31
0.0
  0
LINE
  5
1E0
330
1F
100
AcDbEntity
  8
0
  6
HIDDEN
 62
     7
370
     0
100
AcDbLine
 10
265.295908879
 20
106.8606883291
 30
0.0
 11
261.7659526516
 21
110.3568132033
 31
0.0
  0
CIRCLE
  5
1E1
330
1F
100
AcDbEntity
  8
0
  6
HIDDEN
 62
     7
370
     0
100
AcDbCircle
 10
135.2738659454
 20
110.3568132033
 30
0.0
 40
5.000000000000014
  0
LINE
  5
1E2
330
1F
100
AcDbEntity
  8
0
  6
HIDDEN
 62
     7
370
     0
100
AcDbLine
 10
128.2738659454
 20
94.1496197431
 30
0.0
 11
128.3680267867
 21
94.8196089419
 31
0.0
  0
LINE
  5
1E3
330
1F
100
AcDbEntity
  8
0
  6
HIDDEN
 62
     7
370
     0
100
AcDbLine
 10
128.3680267867
 20
125.8940174647
 30
0.0
 11
128.2738659454
 21
126.5640066635
 31
0.0
  0
ARC
  5
1E4
330
1F
100
AcDbEntity
  8
0
  6
HIDDEN
 62
     7
370
     0
100
AcDbCircle
 10
127.7738659454
 20
94.9031128025
 30
0.0
 40
0.6000000000000085
100
AcDbArc
 50
352.0
 51
0.0
  0
ARC
  5
1E5
330
1F
100
AcDbEntity
  8
0
  6
HIDDEN
 62
     7
370
     0
100
AcDbCircle
 10
127.7738659454
 20
94.9031128025
 30
0.0
 40
0.6000000000000085
100
AcDbArc
 50
0.0
 51
33.5573097619
  0
ARC
  5
1E6
330
1F
100
AcDbEntity
  8
0
  6
HIDDEN
 62
     7
370
     0
100
AcDbCircle
 10
127.7738659454
 20
125.8105136041
 30
0.0
 40
0.6000000000000016
100
AcDbArc
 50
348.75
 51
8.0
  0
LWPOLYLINE
  5
1E7
330
1F
100
AcDbEntity
  8
0
  6
HIDDEN
 62
     7
370
     0
100
AcDbPolyline
 90
        3
 70
   128
 43
0.0
 10
128.3623371137
 20
125.6934594109
 10
128.3281936649
 20
125.5809035447
 10
128.2738659454
 20
125.4788511251
  0
LINE
  5
1E8
330
1F
100
AcDbEntity
  8
0
  6
HIDDEN
 62
     7
370
     0
100
AcDbLine
 10
128.3738659454
 20
94.9031128025
 30
0.0
 11
128.3738659454
 21
125.8105136041
 31
0.0
  0
LINE
  5
1E9
330
1F
100
AcDbEntity
  8
0
  6
HIDDEN
 62
     7
370
     0
100
AcDbLine
 10
128.3738659454
 20
94.9031128025
 30
0.0
 11
128.3738659454
 21
125.8105136041
 31
0.0
  0
LINE
  5
1EA
330
1F
100
AcDbEntity
  8
0
  6
HIDDEN
 62
     7
370
     0
100
AcDbLine
 10
117.8064938896
 20
97.6068132033
 30
0.0
 11
120.0046411238
 21
97.6068132033
 31
0.0
  0
LINE
  5
1EB
330
1F
100
AcDbEntity
  8
0
  6
HIDDEN
 62
     7
370
     0
100
AcDbLine
 10
120.0046411238
 20
123.1068132033
 30
0.0
 11
117.8064938896
 21
123.1068132033
 31
0.0
  0
ARC
  5
1EC
330
1F
100
AcDbEntity
  8
0
  6
HIDDEN
 62
     7
370
     0
100
AcDbCircle
 10
117.8064938896
 20
98.0068132033
 30
0.0
 40
0.4000000000000277
100
AcDbArc
 50
210.0
 51
270.0
  0
ARC
  5
1ED
330
1F
100
AcDbEntity
  8
0
  6
HIDDEN
 62
     7
370
     0
100
AcDbCircle
 10
117.8064938896
 20
122.7068132033
 30
0.0
 40
0.4000000000000348
100
AcDbArc
 50
90.0
 51
150.0
  0
ARC
  5
1EE
330
1F
100
AcDbEntity
  8
0
  6
HIDDEN
 62
     7
370
     0
100
AcDbCircle
 10
124.0980426733
 20
102.6068132033
 30
0.0
 40
5.000000000000004
100
AcDbArc
 50
275.432351668
 51
326.6329870308
  0
ARC
  5
1EF
330
1F
100
AcDbEntity
  8
0
  6
HIDDEN
 62
     7
370
     0
100
AcDbCircle
 10
124.0980426733
 20
118.1068132033
 30
0.0
 40
5.000000000000012
100
AcDbArc
 50
33.3670129692
 51
84.5688024594
  0
LINE
  5
1F0
330
1F
100
AcDbEntity
  8
0
  6
HIDDEN
 62
     7
370
     0
100
AcDbLine
 10
117.4600837281
 20
122.9068132033
 30
0.0
 11
116.2765156762
 21
120.8568132033
 31
0.0
  0
LINE
  5
1F1
330
1F
100
AcDbEntity
  8
0
  6
HIDDEN
 62
     7
370
     0
100
AcDbLine
 10
116.2765156762
 20
99.8568132033
 30
0.0
 11
117.4600837281
 21
97.8068132033
 31
0.0
  0
ARC
  5
1F2
330
1F
100
AcDbEntity
  8
0
  6
HIDDEN
 62
     7
370
     0
100
AcDbCircle
 10
135.2238659454
 20
100.4818132033
 30
0.0
 40
1.000000000000006
100
AcDbArc
 50
218.6821874535
 51
0.0
  0
ARC
  5
1F3
330
1F
100
AcDbEntity
  8
0
  6
HIDDEN
 62
     7
370
     0
100
AcDbCircle
 10
135.2238659454
 20
120.2318132033
 30
0.0
 40
1.000000000000006
100
AcDbArc
 50
0.0
 51
141.3178125465
  0
LINE
  5
1F4
330
1F
100
AcDbEntity
  8
0
  6
HIDDEN
 62
     7
370
     0
100
AcDbLine
 10
227.2895991816
 20
110.0354947747
 30
0.0
 11
225.4565339333
 21
110.7011474283
 31
0.0
  0
LINE
  5
1F5
330
1F
100
AcDbEntity
  8
0
  6
HIDDEN
 62
     7
370
     0
100
AcDbLine
 10
233.5444390762
 20
107.7641349435
 30
0.0
 11
227.2895991816
 21
110.0354947747
 31
0.0
  0
LINE
  5
1F6
330
1F
100
AcDbEntity
  8
0
  6
HIDDEN
 62
     7
370
     0
100
AcDbLine
 10
226.1647112414
 20
105.975632476
 30
0.0
 11
233.5281268962
 21
103.3017084713
 31
0.0
  0
LINE
  5
1F7
330
1F
100
AcDbEntity
  8
0
  6
HIDDEN
 62
     7
370
     0
100
AcDbLine
 10
224.0229565554
 20
106.7533814902
 30
0.0
 11
224.925985929
 21
106.4254586848
 31
0.0
  0
LINE
  5
1F8
330
1F
100
AcDbEntity
  8
0
  6
HIDDEN
 62
     7
370
     0
100
AcDbLine
 10
225.3386639838
 20
110.6564857067
 30
0.0
 11
223.5698178883
 21
109.1521076282
 31
0.0
  0
LINE
  5
1F9
330
1F
100
AcDbEntity
  8
0
  6
HIDDEN
 62
     7
370
     0
100
AcDbLine
 10
223.5698178883
 20
109.1521076282
 30
0.0
 11
223.9612090011
 21
106.8632688594
 31
0.0
  0
LINE
  5
1FA
330
1F
100
AcDbEntity
  8
0
  6
HIDDEN
 62
     7
370
     0
100
AcDbLine
 10
128.2738659454
 20
99.8568132033
 30
0.0
 11
134.4432411956
 21
99.8568132033
 31
0.0
  0
LINE
  5
1FB
330
1F
100
AcDbEntity
  8
0
  6
HIDDEN
 62
     7
370
     0
100
AcDbLine
 10
134.4432411956
 20
120.8568132033
 30
0.0
 11
128.2738659454
 21
120.8568132033
 31
0.0
  0
LINE
  5
1FC
330
1F
100
AcDbEntity
  8
0
  6
HIDDEN
 62
     7
370
     0
100
AcDbLine
 10
114.4738659454
 20
99.8568132033
 30
0.0
 11
116.2765156762
 21
99.8568132033
 31
0.0
  0
LINE
  5
1FD
330
1F
100
AcDbEntity
  8
0
  6
HIDDEN
 62
     7
370
     0
100
AcDbLine
 10
116.2765156762
 20
120.8568132033
 30
0.0
 11
111.9738659454
 21
120.8568132033
 31
0.0
  0
LINE
  5
1FE
330
1F
100
AcDbEntity
  8
0
  6
HIDDEN
 62
     7
370
     0
100
AcDbLine
 10
228.3738659454
 20
108.6698462295
 30
0.0
 11
228.3738659454
 21
109.7097655905
 31
0.0
  0
LINE
  5
1FF
330
1F
100
AcDbEntity
  8
0
  6
HIDDEN
 62
     7
370
     0
100
AcDbLine
 10
224.1738659454
 20
109.7112282393
 30
0.0
 11
224.1738659454
 21
108.514193791
 31
0.0
  0
LINE
  5
200
330
1F
100
AcDbEntity
  8
0
  6
HIDDEN
 62
     7
370
     0
100
AcDbLine
 10
141.5738659454
 20
104.1068132033
 30
0.0
 11
144.0738659454
 21
104.1068132033
 31
0.0
  0
LINE
  5
201
330
1F
100
AcDbEntity
  8
0
  6
HIDDEN
 62
     7
370
     0
100
AcDbLine
 10
144.0738659454
 20
116.6068132033
 30
0.0
 11
141.5738659454
 21
116.6068132033
 31
0.0
  0
LINE
  5
202
330
1F
100
AcDbEntity
  8
0
  6
HIDDEN
 62
     7
370
     0
100
AcDbLine
 10
136.2238659454
 20
104.3568132033
 30
0.0
 11
136.7238659454
 21
104.8568132033
 31
0.0
  0
LINE
  5
203
330
1F
100
AcDbEntity
  8
0
  6
HIDDEN
 62
     7
370
     0
100
AcDbLine
 10
136.7238659454
 20
115.8568132033
 30
0.0
 11
136.2238659454
 21
116.3568132033
 31
0.0
  0
LINE
  5
204
330
1F
100
AcDbEntity
  8
0
  6
HIDDEN
 62
     7
370
     0
100
AcDbLine
 10
136.7238659454
 20
104.8568132033
 30
0.0
 11
141.5738659454
 21
104.8568132033
 31
0.0
  0
LINE
  5
205
330
1F
100
AcDbEntity
  8
0
  6
HIDDEN
 62
     7
370
     0
100
AcDbLine
 10
141.5738659454
 20
115.8568132033
 30
0.0
 11
136.7238659454
 21
115.8568132033
 31
0.0
  0
LINE
  5
206
330
1F
100
AcDbEntity
  8
0
  6
HIDDEN
 62
     7
370
     0
100
AcDbLine
 10
136.2238659454
 20
130.3568132033
 30
0.0
 11
136.2238659454
 21
127.2568132033
 31
0.0
  0
LINE
  5
207
330
1F
100
AcDbEntity
  8
0
  6
HIDDEN
 62
     7
370
     0
100
AcDbLine
 10
125.0410451899
 20
95.3155085899
 30
0.0
 11
124.5731166017
 21
95.8113450708
 31
0.0
  0
LINE
  5
208
330
1F
100
AcDbEntity
  8
0
  6
HIDDEN
 62
     7
370
     0
100
AcDbLine
 10
119.9752115865
 20
96.0911987844
 30
0.0
 11
119.4577378706
 21
95.5953734717
 31
0.0
  0
LINE
  5
209
330
1F
100
AcDbEntity
  8
0
  6
HIDDEN
 62
     7
370
     0
100
AcDbLine
 10
119.4571036388
 20
125.1183028762
 30
0.0
 11
119.9747898868
 21
124.6224158296
 31
0.0
  0
LINE
  5
20A
330
1F
100
AcDbEntity
  8
0
  6
HIDDEN
 62
     7
370
     0
100
AcDbLine
 10
124.5724307218
 20
124.9020633628
 30
0.0
 11
125.040334618
 21
125.3979572355
 31
0.0
  0
LINE
  5
20B
330
1F
100
AcDbEntity
  8
0
  6
HIDDEN
 62
     7
370
     0
100
AcDbLine
 10
144.0738659454
 20
107.8568132033
 30
0.0
 11
228.3738659454
 21
107.8568132033
 31
0.0
  0
LINE
  5
20C
330
1F
100
AcDbEntity
  8
0
  6
HIDDEN
 62
     7
370
     0
100
AcDbLine
 10
228.3738659454
 20
112.8568132033
 30
0.0
 11
144.0738659454
 21
112.8568132033
 31
0.0
  0
LINE
  5
20D
330
1F
100
AcDbEntity
  8
0
  6
HIDDEN
 62
     7
370
     0
100
AcDbLine
 10
228.3738659454
 20
107.8568132033
 30
0.0
 11
229.876017493
 21
110.3568132033
 31
0.0
  0
LINE
  5
20E
330
1F
100
AcDbEntity
  8
0
  6
HIDDEN
 62
     7
370
     0
100
AcDbLine
 10
229.876017493
 20
110.3568132033
 30
0.0
 11
228.3738659454
 21
112.8568132033
 31
0.0
  0
LINE
  5
20F
330
1F
100
AcDbEntity
  8
0
  6
HIDDEN
 62
     7
370
     0
100
AcDbLine
 10
124.5738659454
 20
123.0839107276
 30
0.0
 11
124.5738659454
 21
124.8903337813
 31
0.0
  0
LINE
  5
210
330
1F
100
AcDbEntity
  8
0
  6
HIDDEN
 62
     7
370
     0
100
AcDbLine
 10
119.9738659454
 20
124.6153834511
 30
0.0
 11
119.9738659454
 21
123.1013103818
 31
0.0
  0
LINE
  5
211
330
1F
100
AcDbEntity
  8
0
  6
HIDDEN
 62
     7
370
     0
100
AcDbLine
 10
124.5738659454
 20
95.8234005532
 30
0.0
 11
124.5738659454
 21
97.629715679
 31
0.0
  0
LINE
  5
212
330
1F
100
AcDbEntity
  8
0
  6
HIDDEN
 62
     7
370
     0
100
AcDbLine
 10
119.9738659454
 20
97.6123160248
 30
0.0
 11
119.9738659454
 21
96.0982051918
 31
0.0
  0
LINE
  5
213
330
1F
100
AcDbEntity
  8
0
  6
HIDDEN
 62
     7
370
     0
100
AcDbLine
 10
257.6446113198
 20
106.3871008194
 30
0.0
 11
257.6446113198
 21
106.4108180205
 31
0.0
  0
LINE
  5
214
330
1F
100
AcDbEntity
  8
0
  6
HIDDEN
 62
     7
370
     0
100
AcDbLine
 10
253.4446113198
 20
106.4108180205
 30
0.0
 11
253.4446113198
 21
106.0759869465
 31
0.0
  0
LINE
  5
215
330
1F
100
AcDbEntity
  8
0
  6
HIDDEN
 62
     7
370
     0
100
AcDbLine
 10
228.3738659454
 20
111.0038608161
 30
0.0
 11
228.3738659454
 21
112.0391369965
 31
0.0
  0
LINE
  5
216
330
1F
100
AcDbEntity
  8
0
  6
HIDDEN
 62
     7
370
     0
100
AcDbLine
 10
224.1738659454
 20
112.0391369965
 30
0.0
 11
224.1738659454
 21
111.0023981673
 31
0.0
  0
ARC
  5
217
330
1F
100
AcDbEntity
  8
0
  6
HIDDEN
 62
     7
370
     0
100
AcDbCircle
 10
111.0738659454
 20
124.1368132033
 30
0.0
 40
0.8999999999999924
100
AcDbArc
 50
270.0
 51
311.1792132368
  0
ARC
  5
218
330
1F
100
AcDbEntity
  8
0
  6
HIDDEN
 62
     7
370
     0
100
AcDbCircle
 10
113.5738659454
 20
96.6358132033
 30
0.0
 40
0.9000000000000036
100
AcDbArc
 50
30.4426030216
 51
90.0
  0
LINE
  5
219
330
1F
100
AcDbEntity
  8
0
  6
HIDDEN
 62
     7
370
     0
100
AcDbLine
 10
111.0738659454
 20
123.2368132033
 30
0.0
 11
109.3238659454
 21
123.2368132033
 31
0.0
  0
LINE
  5
21A
330
1F
100
AcDbEntity
  8
0
  6
HIDDEN
 62
     7
370
     0
100
AcDbLine
 10
108.3738659454
 20
98.4858132033
 30
0.0
 11
109.3238659454
 21
97.5358132033
 31
0.0
  0
LINE
  5
21B
330
1F
100
AcDbEntity
  8
0
  6
HIDDEN
 62
     7
370
     0
100
AcDbLine
 10
109.3238659454
 20
97.5358132033
 30
0.0
 11
113.5738659454
 21
97.5358132033
 31
0.0
  0
LINE
  5
21C
330
1F
100
AcDbEntity
  8
0
  6
HIDDEN
 62
     7
370
     0
100
AcDbLine
 10
109.3238659454
 20
123.2368132033
 30
0.0
 11
108.3738659454
 21
122.2868132033
 31
0.0
  0
LINE
  5
21D
330
1F
100
AcDbEntity
  8
0
  6
HIDDEN
 62
     7
370
     0
100
AcDbLine
 10
263.428491883
 20
100.6800903249
 30
0.0
 11
263.428491883
 21
101.2281957165
 31
0.0
  0
LINE
  5
21E
330
1F
100
AcDbEntity
  8
0
  6
HIDDEN
 62
     7
370
     0
100
AcDbLine
 10
259.228491883
 20
101.2255121735
 30
0.0
 11
259.228491883
 21
100.6800903249
 31
0.0
  0
LINE
  5
21F
330
1F
100
AcDbEntity
  8
0
  6
HIDDEN
 62
     7
370
     0
100
AcDbLine
 10
228.7738659454
 20
112.1013426651
 30
0.0
 11
228.7738659454
 21
113.5916520844
 31
0.0
  0
LINE
  5
220
330
1F
100
AcDbEntity
  8
0
  6
HIDDEN
 62
     7
370
     0
100
AcDbLine
 10
223.7738659454
 20
113.5904923355
 30
0.0
 11
223.7738659454
 21
112.1013426651
 31
0.0
  0
DIMENSION
  5
221
330
1F
100
AcDbEntity
  8
VERMASSUNG
100
AcDbDimension
  2
*D1
 10
108.3738659454
 20
140.3568132033
 30
0.0
 11
188.323104885
 21
140.3568132033
 31
0.0
 70
   160
 71
     2
 42
-1.0
  3
SLDDIMSTYLE0
100
AcDbAlignedDimension
 13
268.2723438247
 23
93.7906161977
 33
0.0
 14
108.3738659454
 24
122.2868132033
 34
0.0
100
AcDbRotatedDimension
  0
DIMENSION
  5
22C
330
1F
100
AcDbEntity
  8
VERMASSUNG
100
AcDbDimension
  2
*D2
 10
268.2723438247
 20
134.3568132033
 30
0.0
 11
198.273104885
 21
134.3568132033
 31
0.0
 70
   160
 71
     2
 42
-1.0
  3
SLDDIMSTYLE0
100
AcDbAlignedDimension
 13
128.2738659454
 23
130.0568132033
 33
0.0
 14
268.2723438247
 24
93.7906161977
 34
0.0
100
AcDbRotatedDimension
  0
DIMENSION
  5
236
330
1F
100
AcDbEntity
  8
VERMASSUNG
100
AcDbDimension
  2
*D3
 10
274.6287286209
 20
93.3568132033
 30
0.0
 11
274.6287286209
 21
101.8568132033
 31
0.0
 70
   160
 71
     2
 42
-1.0
  3
SLDDIMSTYLE0
100
AcDbAlignedDimension
 13
274.5489576178
 23
110.3568132033
 33
0.0
 14
268.2738659454
 24
93.3568132033
 34
0.0
 50
90.0
100
AcDbRotatedDimension
  0
DIMENSION
  5
240
330
1F
100
AcDbEntity
  8
VERMASSUNG
100
AcDbDimension
  2
*D4
 10
267.2191907239
 20
105.7988882453
 30
0.0
 11
261.4410624807
 21
120.0080572366
 31
0.0
 70
   162
 71
     1
 42
-1.0
  3
SLDDIMSTYLE1
100
AcDb2LineAngularDimension
 13
268.2738659454
 23
127.3568132033
 33
0.0
 14
268.2738659454
 24
86.3750465461
 34
0.0
 15
268.2723438247
 25
93.7906161977
 35
0.0
 16
267.0884735565
 26
120.8573260765
 36
0.0
  0
DIMENSION
  5
24C
330
1F
100
AcDbEntity
  8
VERMASSUNG
100
AcDbDimension
  2
*D5
 10
103.1291322465
 20
90.3568132033
 30
0.0
 11
103.1291322465
 21
110.3568132033
 31
0.0
 70
   160
  1
HSK %%c<>
 71
     2
 42
-1.0
  3
SLDDIMSTYLE0
100
AcDbAlignedDimension
 13
128.5738659454
 23
130.3568132033
 33
0.0
 14
128.5738659454
 24
90.3568132033
 34
0.0
 50
90.0
100
AcDbRotatedDimension
  0
LINE
  5
258
330
1F
100
AcDbEntity
  8
VERMASSUNG
  6
CENTERX2
370
     0
100
AcDbLine
 10
274.5489576178
 20
110.3568132033
 30
0.0
 11
105.5782103341
 21
110.3568132033
 31
0.0
  0
LINE
  5
259
330
1F
100
AcDbEntity
  8
0
  6
Continuous
 62
     7
370
    15
100
AcDbLine
 10
56.0937197097
 20
93.3568132033
 30
0.0
 11
59.3156200039
 21
93.9830871785
 31
0.0
  0
LINE
  5
25A
330
1F
100
AcDbEntity
  8
0
  6
Continuous
 62
     7
370
    15
100
AcDbLine
 10
55.4265888233
 20
107.1979054667
 30
0.0
 11
55.1247501028
 21
107.2137241638
 31
0.0
  0
LINE
  5
25B
330
1F
100
AcDbEntity
  8
0
  6
Continuous
 62
     7
370
    15
100
AcDbLine
 10
58.4759198227
 20
105.9913592261
 30
0.0
 11
55.223685068
 21
105.7988882453
 31
0.0
  0
LINE
  5
25C
330
1F
100
AcDbEntity
  8
0
  6
Continuous
 62
     7
370
    15
100
AcDbLine
 10
59.9863987655
 20
105.9263034254
 30
0.0
 11
58.4759198227
 21
105.9913592261
 31
0.0
  0
LINE
  5
25D
330
1F
100
AcDbEntity
  8
0
  6
Continuous
 62
     7
370
    15
100
AcDbLine
 10
60.8000676047
 20
94.2902969132
 30
0.0
 11
59.9863987655
 21
105.9263034254
 31
0.0
  0
LINE
  5
25E
330
1F
100
AcDbEntity
  8
0
  6
Continuous
 62
     7
370
    15
100
AcDbLine
 10
60.8000676047
 20
94.2902969132
 30
0.0
 11
59.3156200039
 21
93.9830871785
 31
0.0
  0
LINE
  5
25F
330
1F
100
AcDbEntity
  8
0
  6
Continuous
 62
     7
370
    15
100
AcDbLine
 10
59.3156200039
 20
93.9830871785
 30
0.0
 11
56.0633852493
 21
93.7906161977
 31
0.0
  0
LINE
  5
260
330
1F
100
AcDbEntity
  8
0
  6
Continuous
 62
     7
370
    15
100
AcDbLine
 10
56.0633852493
 20
93.7906161977
 30
0.0
 11
55.223685068
 21
105.7988882453
 31
0.0
  0
LINE
  5
261
330
1F
100
AcDbEntity
  8
0
  6
Continuous
 62
     7
370
    15
100
AcDbLine
 10
56.0937197097
 20
93.3568132033
 30
0.0
 11
56.0633852493
 21
93.7906161977
 31
0.0
  0
LINE
  5
262
330
1F
100
AcDbEntity
  8
0
  6
Continuous
 62
     7
370
    15
100
AcDbLine
 10
58.4759198227
 20
105.9913592261
 30
0.0
 11
56.4927455821
 21
106.094377606
 31
0.0
  0
LINE
  5
263
330
1F
100
AcDbEntity
  8
0
  6
Continuous
 62
     7
370
    15
100
AcDbLine
 10
55.5001494699
 20
106.1459392093
 30
0.0
 11
55.1983205272
 21
106.1616180781
 31
0.0
  0
LINE
  5
264
330
1F
100
AcDbEntity
  8
0
  6
Continuous
 62
     7
370
    15
100
AcDbLine
 10
55.223685068
 20
105.7988882453
 30
0.0
 11
55.1983205272
 21
106.1616180781
 31
0.0
  0
LINE
  5
265
330
1F
100
AcDbEntity
  8
0
  6
Continuous
 62
     7
370
    15
100
AcDbLine
 10
55.4266852233
 20
107.196526882
 30
0.0
 11
55.1248562806
 21
107.2122057508
 31
0.0
  0
LINE
  5
266
330
1F
100
AcDbEntity
  8
0
  6
Continuous
 62
     7
370
    15
100
AcDbLine
 10
59.9863987655
 20
105.9263034254
 30
0.0
 11
59.9851640723
 21
105.9439603611
 31
0.0
  0
LINE
  5
267
330
1F
100
AcDbEntity
  8
0
  6
Continuous
 62
     7
370
    15
100
AcDbLine
 10
55.1983205272
 20
106.1616180781
 30
0.0
 11
55.1248562806
 21
107.2122057508
 31
0.0
  0
LINE
  5
268
330
1F
100
AcDbEntity
  8
0
  6
Continuous
 62
     7
370
    15
100
AcDbLine
 10
55.1248562806
 20
107.2122057508
 30
0.0
 11
55.1247501028
 21
107.2137241638
 31
0.0
  0
LINE
  5
269
330
1F
100
AcDbEntity
  8
0
  6
Continuous
 62
     7
370
    15
100
AcDbLine
 10
59.9645436287
 20
106.2388464432
 30
0.0
 11
57.5921452441
 21
106.0470268465
 31
0.0
  0
LINE
  5
26A
330
1F
100
AcDbEntity
  8
0
  6
Continuous
 62
     7
370
    15
100
AcDbLine
 10
57.5921452441
 20
106.0470268465
 30
0.0
 11
55.5007674447
 21
106.1371017581
 31
0.0
  0
LINE
  5
26B
330
1F
100
AcDbEntity
  8
0
  6
Continuous
 62
     7
370
    15
100
AcDbLine
 10
55.4641309185
 20
106.6610284926
 30
0.0
 11
55.5007674447
 21
106.1371017581
 31
0.0
  0
LINE
  5
26C
330
1F
100
AcDbEntity
  8
0
  6
Continuous
 62
     7
370
    15
100
AcDbLine
 10
69.0937197097
 20
106.8606883291
 30
0.0
 11
55.4641309185
 21
106.6610284926
 31
0.0
  0
LINE
  5
26D
330
1F
100
AcDbEntity
  8
0
  6
Continuous
 62
     7
370
    15
100
AcDbLine
 10
69.0937197097
 20
100.6398254408
 30
0.0
 11
69.0937197097
 21
106.8606883291
 31
0.0
  0
ELLIPSE
  5
26E
330
1F
100
AcDbEntity
  8
0
  6
Continuous
 62
     7
370
    15
100
AcDbEllipse
 10
56.0830252145
 20
109.9346514224
 30
0.0
 11
4.865570281513037
 21
15.47268802889062
 31
0.0
210
0.0
220
0.0
230
0.9999999999999999
 40
0.9843475169
 41
3.749336599488402
 42
4.401361723640933
  0
LINE
  5
26F
330
1F
100
AcDbEntity
  8
0
  6
Continuous
 62
     7
370
    15
100
AcDbLine
 10
59.9851640723
 20
105.9439603611
 30
0.0
 11
59.9645436287
 21
106.2388464432
 31
0.0
  0
LINE
  5
270
330
1F
100
AcDbEntity
  8
0
  6
Continuous
 62
     7
370
    15
100
AcDbLine
 10
69.0937197097
 20
106.8606883291
 30
0.0
 11
69.0937197097
 21
110.3568132033
 31
0.0
  0
ARC
  5
271
330
1F
100
AcDbEntity
  8
0
  6
Continuous
 62
     7
370
    15
100
AcDbCircle
 10
56.0937197097
 20
110.3568132033
 30
0.0
 40
13.00000000000004
100
AcDbArc
 50
0.0
 51
97.9073388765
  0
LINE
  5
272
330
1F
100
AcDbEntity
  8
0
  6
Continuous
 62
     7
370
    15
100
AcDbLine
 10
54.3052912906
 20
123.2332072556
 30
0.0
 11
55.4641309185
 21
106.6610284926
 31
0.0
  0
SPLINE
  5
273
330
1F
100
AcDbEntity
  8
0
  6
Continuous
 62
     7
370
    15
100
AcDbSpline
210
0.0
220
0.0
230
1.0
 70
     8
 71
     3
 72
    12
 73
     8
 74
     0
 42
0.00000001
 43
0.00000001
 40
0.0
 40
0.0
 40
0.0
 40
0.0
 40
0.25
 40
0.25
 40
0.5
 40
0.5
 40
1.0
 40
1.0
 40
1.0
 40
1.0
 10
51.15800387289729
 20
104.4899297441441
 30
0.0
 10
51.20986759629035
 20
104.63119716579
 30
0.0
 10
51.24449828241404
 20
104.7758400646079
 30
0.0
 10
51.28233908076487
 20
105.0714382950927
 30
0.0
 10
51.28517288871201
 20
105.2239258318613
 30
0.0
 10
51.24869871331151
 20
105.6714274223328
 30
0.0
 10
51.16543427398477
 20
105.9645929795439
 30
0.0
 10
51.03591153087888
 20
106.2359315798501
 30
0.0
  0
SPLINE
  5
274
330
1F
100
AcDbEntity
  8
0
  6
Continuous
 62
     7
370
    15
100
AcDbSpline
210
0.0
220
0.0
230
1.0
 70
     8
 71
     3
 72
    14
 73
    10
 74
     0
 42
0.00000001
 43
0.00000001
 40
0.0
 40
0.0
 40
0.0
 40
0.0
 40
0.2500000000000001
 40
0.2500000000000001
 40
0.5
 40
0.5
 40
0.75
 40
0.75
 40
1.0
 40
1.0
 40
1.0
 40
1.0
 10
54.3402540512511
 20
122.7332164847348
 30
0.0
 10
54.3402540512511
 20
122.7332164847348
 30
0.0
 10
54.23064831284994
 20
122.7191755901955
 30
0.0
 10
53.79393734551304
 20
122.64542744137
 30
0.0
 10
53.478744395428
 20
122.587450656502
 30
0.0
 10
52.66323912454988
 20
122.3842148911496
 30
0.0
 10
52.18588660547235
 20
122.2440497243696
 30
0.0
 10
51.11598270100355
 20
121.8372176365367
 30
0.0
 10
50.55624665271618
 20
121.5824478900826
 30
0.0
 10
49.98514721846274
 20
121.2625613261795
 30
0.0
  0
SPLINE
  5
275
330
1F
100
AcDbEntity
  8
0
  6
Continuous
 62
     7
370
    15
100
AcDbSpline
210
0.0
220
0.0
230
1.0
 70
     8
 71
     3
 72
    20
 73
    16
 74
     0
 42
0.00000001
 43
0.00000001
 40
0.0
 40
0.0
 40
0.0
 40
0.0
 40
0.0778868660455004
 40
0.1562856046280936
 40
0.236349748353627
 40
0.3170133483180272
 40
0.3949080777912025
 40
0.4733650593660887
 40
0.5535794258795156
 40
0.6343957164365843
 40
0.7113475522599757
 40
0.7888112944119944
 40
0.867858109966831
 40
0.9474424234068445
 40
1.0
 40
1.0
 40
1.0
 40
1.0
 10
51.5623822105848
 20
98.7070500954299
 30
0.0
 10
51.70602942201468
 20
98.65294964529875
 30
0.0
 10
51.99426789444652
 20
98.54439319684106
 30
0.0
 10
52.42518727613536
 20
98.40466833666805
 30
0.0
 10
52.85252045068897
 20
98.28160520883218
 30
0.0
 10
53.26595084814756
 20
98.17852807937196
 30
0.0
 10
53.6598406614356
 20
98.09400627383927
 30
0.0
 10
54.03288225889951
 20
98.02602677283134
 30
0.0
 10
54.38641837436607
 20
97.97234346331072
 30
0.0
 10
54.71027406552869
 20
97.93232834596468
 30
0.0
 10
55.00095723644819
 20
97.90367719050354
 30
0.0
 10
55.25924892185423
 20
97.88390253727987
 30
0.0
 10
55.48579752093958
 20
97.87103117802285
 30
0.0
 10
55.66182796902478
 20
97.86387289498938
 30
0.0
 10
55.74548333386876
 20
97.86181963932569
 30
0.0
 10
55.77875607761499
 20
97.86100298578924
 30
0.0
  0
SPLINE
  5
276
330
1F
100
AcDbEntity
  8
0
  6
Continuous
 62
     7
370
    15
100
AcDbSpline
210
0.0
220
0.0
230
1.0
 70
     8
 71
     3
 72
    14
 73
    10
 74
     0
 42
0.00000001
 43
0.00000001
 40
0.0
 40
0.0
 40
0.0
 40
0.0
 40
0.25
 40
0.25
 40
0.5
 40
0.5
 40
0.75
 40
0.75
 40
1.0
 40
1.0
 40
1.0
 40
1.0
 10
47.45588841992729
 20
105.8884570448192
 30
0.0
 10
47.3785365970374
 20
105.9504408174306
 30
0.0
 10
47.30711823207223
 20
106.0139659010885
 30
0.0
 10
47.19446329227669
 20
106.1379458931604
 30
0.0
 10
47.15465083306758
 20
106.1985914496067
 30
0.0
 10
47.1299316211181
 20
106.3031765249747
 30
0.0
 10
47.1434767128025
 20
106.3485798602854
 30
0.0
 10
47.19948087899764
 20
106.4356054839878
 30
0.0
 10
47.24048021175782
 20
106.4774364370379
 30
0.0
 10
47.28611974898239
 20
106.5220423503191
 30
0.0
  0
SPLINE
  5
277
330
1F
100
AcDbEntity
  8
0
  6
Continuous
 62
     7
370
    15
100
AcDbSpline
210
0.0
220
0.0
230
1.0
 70
     8
 71
     3
 72
    31
 73
    27
 74
     0
 42
0.00000001
 43
0.00000001
 40
0.0
 40
0.0
 40
0.0
 40
0.0
 40
0.0021780013100644
 40
0.0436831296991559
 40
0.0855143167827387
 40
0.1282357760712182
 40
0.1712102412066861
 40
0.2300491867203491
 40
0.2893468010672636
 40
0.3498732482874262
 40
0.4107447762033172
 40
0.4722117291741125
 40
0.5339724463449972
 40
0.5967968228696505
 40
0.6285169343286392
 40
0.660441065090521
 40
0.6824253014050067
 40
0.7048131470231032
 40
0.7225224622746557
 40
0.7407632735870954
 40
0.7629423643062514
 40
0.7857486216689272
 40
0.8177849568328608
 40
0.8501665469376648
 40
0.9160786891158824
 40
1.0
 40
1.0
 40
1.0
 40
1.0
 10
50.14670976694632
 20
107.2628779723053
 30
0.0
 10
50.14625080325879
 20
107.2605450629566
 30
0.0
 10
50.13704558827714
 20
107.2137550168772
 30
0.0
 10
50.10341528842547
 20
107.1319173591782
 30
0.0
 10
50.05050674681637
 20
107.015016622539
 30
0.0
 10
49.98412840943224
 20
106.9071805587918
 30
0.0
 10
49.8987919293472
 20
106.7947872450159
 30
0.0
 10
49.79076892270466
 20
106.6827628676144
 30
0.0
 10
49.65715893974615
 20
106.5745692964195
 30
0.0
 10
49.50966404096117
 20
106.4806178304938
 30
0.0
 10
49.34922121552044
 20
106.4002911417173
 30
0.0
 10
49.17726034295237
 20
106.3331906716597
 30
0.0
 10
48.99299861235458
 20
106.2778593014998
 30
0.0
 10
48.8282481798941
 20
106.2400774988197
 30
0.0
 10
48.68642569930662
 20
106.2121337759452
 30
0.0
 10
48.58513816710266
 20
106.1930234151096
 30
0.0
 10
48.48983689062555
 20
106.1741147141401
 30
0.0
 10
48.4086178066276
 20
106.1562470314262
 30
0.0
 10
48.33058831053447
 20
106.1365627901031
 30
0.0
 10
48.25352849633101
 20
106.1145097910538
 30
0.0
 10
48.1733908949321
 20
106.0887155401398
 30
0.0
 10
48.08236889968131
 20
106.0570868197405
 30
0.0
 10
47.98670133043803
 20
106.0228023509251
 30
0.0
 10
47.85222928055612
 20
105.9766040617111
 30
0.0
 10
47.67445534978823
 20
105.9223690511019
 30
0.0
 10
47.53435708067317
 20
105.9006319411674
 30
0.0
 10
47.4558884199273
 20
105.8884570448192
 30
0.0
  0
ARC
  5
278
330
1F
100
AcDbEntity
  8
0
  6
Continuous
 62
     7
370
    15
100
AcDbCircle
 10
47.3657647563
 20
108.9716985858
 30
0.0
 40
2.221503183772173
100
AcDbArc
 50
260.911111591
 51
325.6742183669
  0
SPLINE
  5
279
330
1F
100
AcDbEntity
  8
0
  6
Continuous
 62
     7
370
    15
100
AcDbSpline
210
0.0
220
0.0
230
1.0
 70
     8
 71
     3
 72
    20
 73
    16
 74
     0
 42
0.00000001
 43
0.00000001
 40
0.0
 40
0.0
 40
0.0
 40
0.0
 40
0.0750059581240811
 40
0.1502984402227516
 40
0.2253598617108121
 40
0.3020364002262865
 40
0.3331502118134362
 40
0.3654484848982
 40
0.3966115283802717
 40
0.428846878946928
 40
0.5044570076530092
 40
0.5820307472570445
 40
0.7520981992487646
 40
0.9263400552865984
 40
1.0
 40
1.0
 40
1.0
 40
1.0
 10
47.28611974898239
 20
106.5220423503191
 30
0.0
 10
47.34707820802816
 20
106.5024492757734
 30
0.0
 10
47.46922798842034
 20
106.46318828082
 30
0.0
 10
47.65590943507948
 20
106.4204741873256
 30
0.0
 10
47.84864302453042
 20
106.3924862892676
 30
0.0
 10
48.01366429328372
 20
106.3891430957077
 30
0.0
 10
48.14563460355078
 20
106.4075953938563
 30
0.0
 10
48.23448675595496
 20
106.4306921084214
 30
0.0
 10
48.31946519808599
 20
106.4642343808082
 30
0.0
 10
48.43234388879672
 20
106.5237430028569
 30
0.0
 10
48.56161356891131
 20
106.6189170067184
 30
0.0
 10
48.75733223406758
 20
106.8043207982728
 30
0.0
 10
48.97481419665851
 20
107.0830313558807
 30
0.0
 10
49.16280609452652
 20
107.3947746030082
 30
0.0
 10
49.24680644631182
 20
107.6052867276695
 30
0.0
 10
49.27176576992166
 20
107.6678369448001
 30
0.0
  0
ELLIPSE
  5
27A
330
1F
100
AcDbEntity
  8
0
  6
Continuous
 62
     7
370
    15
100
AcDbEllipse
 10
49.0424328498
 20
105.5329217074
 30
0.0
 11
-1.689201569812639
 21
1.70977070453354
 31
0.0
210
0.0
220
0.0
230
1.0
 40
0.8581657892
 41
4.328154202176314
 42
9.808369663818347
  0
ARC
  5
27B
330
1F
100
AcDbEntity
  8
0
  6
Continuous
 62
     7
370
    15
100
AcDbCircle
 10
56.0937197097
 20
110.3568132033
 30
0.0
 40
12.50000000000005
100
AcDbArc
 50
119.2542395221
 51
248.7457604779
  0
LINE
  5
27C
330
1F
100
AcDbEntity
  8
0
  6
Continuous
 62
     7
370
    15
100
AcDbLine
 10
47.286119749
 20
106.5220423503
 30
0.0
 11
47.4598052151
 21
105.8738393663
 31
0.0
  0
SPLINE
  5
27D
330
1F
100
AcDbEntity
  8
0
  6
Continuous
 62
     7
370
    15
100
AcDbSpline
210
0.0
220
0.0
230
1.0
 70
    24
 71
     3
 72
    10
 73
     6
 74
     0
 42
0.00000001
 43
0.00000001
 40
0.0
 40
0.0
 40
0.0
 40
0.0
 40
0.5
 40
0.5
 40
1.0
 40
1.0
 40
1.0
 40
1.0
 10
51.59371970966444
 20
129.2276902364407
 30
0.0
 10
51.59371970966444
 20
129.3861246793285
 30
0.0
 10
51.59371970966444
 20
129.5451453741304
 30
0.0
 10
51.59371970966444
 20
129.7751531983861
 30
0.0
 10
51.59371970966444
 20
129.8439884732028
 30
0.0
 10
51.59371970966444
 20
129.8439884732028
 30
0.0
  0
SPLINE
  5
27E
330
1F
100
AcDbEntity
  8
0
  6
Continuous
 62
     7
370
    15
100
AcDbSpline
210
0.0
220
0.0
230
1.0
 70
    24
 71
     3
 72
    12
 73
     8
 74
     0
 42
0.00000001
 43
0.00000001
 40
0.0
 40
0.0
 40
0.0
 40
0.0
 40
0.249999999999998
 40
0.249999999999998
 40
0.499999999999996
 40
0.499999999999996
 40
1.0
 40
1.0
 40
1.0
 40
1.0
 10
44.24371970966441
 20
126.4682222043752
 30
0.0
 10
44.24371970966441
 20
126.4682222043752
 30
0.0
 10
44.24371970966441
 20
126.4425975717704
 30
0.0
 10
44.24371970966441
 20
126.3540541988386
 30
0.0
 10
44.24371970966441
 20
126.291171715724
 30
0.0
 10
44.2437197096644
 20
126.0738105277904
 30
0.0
 10
44.24371970966441
 20
125.8951635177791
 30
0.0
 10
44.24371970966441
 20
125.7170703626034
 30
0.0
  0
ARC
  5
27F
330
1F
100
AcDbEntity
  8
0
  6
Continuous
 62
     7
370
    15
100
AcDbCircle
 10
56.0937197097
 20
110.3568132033
 30
0.0
 40
20.00000000000007
100
AcDbArc
 50
103.0028781629
 51
126.3346172154
  0
SPLINE
  5
280
330
1F
100
AcDbEntity
  8
0
  6
Continuous
 62
     7
370
    15
100
AcDbSpline
210
0.0
220
0.0
230
1.0
 70
    24
 71
     3
 72
    10
 73
     6
 74
     0
 42
0.00000001
 43
0.00000001
 40
0.0
 40
0.0
 40
0.0
 40
0.0
 40
0.5
 40
0.5
 40
1.0
 40
1.0
 40
1.0
 40
1.0
 10
50.59371970966445
 20
91.75278138221117
 30
0.0
 10
50.59371970966445
 20
91.59314921330794
 30
0.0
 10
50.59371970966445
 20
91.43209957954392
 30
0.0
 10
50.59371970966445
 20
91.19910869586732
 30
0.0
 10
50.59371970966445
 20
91.12792868026834
 30
0.0
 10
50.59371970966445
 20
91.12792868026834
 30
0.0
  0
ARC
  5
281
330
1F
100
AcDbEntity
  8
0
  6
Continuous
 62
     7
370
    15
100
AcDbCircle
 10
56.0937197097
 20
110.3568132033
 30
0.0
 40
20.00000000000007
100
AcDbArc
 50
143.6653827846
 51
254.0379858372
  0
SPLINE
  5
282
330
1F
100
AcDbEntity
  8
0
  6
Continuous
 62
     7
370
    15
100
AcDbSpline
210
0.0
220
0.0
230
1.0
 70
    24
 71
     3
 72
    12
 73
     8
 74
     0
 42
0.00000001
 43
0.00000001
 40
0.0
 40
0.0
 40
0.0
 40
0.0
 40
0.25
 40
0.25
 40
0.5
 40
0.5
 40
1.0
 40
1.0
 40
1.0
 40
1.0
 10
39.98231070858703
 20
122.2068132032978
 30
0.0
 10
39.98231070858703
 20
122.2068132032978
 30
0.0
 10
40.00779552417655
 20
122.2068132032978
 30
0.0
 10
40.0967361869889
 20
122.2068132032978
 30
0.0
 10
40.15977483089138
 20
122.2068132032978
 30
0.0
 10
40.3771927427683
 20
122.2068132032978
 30
0.0
 10
40.556764910382
 20
122.2068132032978
 30
0.0
 10
40.73346255035868
 20
122.2068132032978
 30
0.0
  0
SPLINE
  5
283
330
1F
100
AcDbEntity
  8
0
  6
Continuous
 62
     7
370
    15
100
AcDbSpline
210
0.0
220
0.0
230
1.0
 70
    24
 71
     3
 72
    10
 73
     6
 74
     0
 42
0.00000001
 43
0.00000001
 40
0.0
 40
0.0
 40
0.0
 40
0.0
 40
0.5
 40
0.5
 40
1.0
 40
1.0
 40
1.0
 40
1.0
 10
60.59371970966447
 20
129.8439884732028
 30
0.0
 10
60.59371970966447
 20
129.8439884732028
 30
0.0
 10
60.59371970966447
 20
129.775403070697
 30
0.0
 10
60.59371970966447
 20
129.5456298013773
 30
0.0
 10
60.59371970966447
 20
129.3871315997097
 30
0.0
 10
60.59371970966447
 20
129.2276902364407
 30
0.0
  0
ARC
  5
284
330
1F
100
AcDbEntity
  8
0
  6
Continuous
 62
     7
370
    15
100
AcDbCircle
 10
56.0937197097
 20
110.3568132033
 30
0.0
 40
20.00000000000006
100
AcDbArc
 50
285.9620141628
 51
76.9971218371
  0
SPLINE
  5
285
330
1F
100
AcDbEntity
  8
0
  6
Continuous
 62
     7
370
    15
100
AcDbSpline
210
0.0
220
0.0
230
1.0
 70
    24
 71
     3
 72
    12
 73
     8
 74
     0
 42
0.00000001
 43
0.00000001
 40
0.0
 40
0.0
 40
0.0
 40
0.0
 40
0.25
 40
0.25
 40
0.5
 40
0.5
 40
1.0
 40
1.0
 40
1.0
 40
1.0
 10
61.59371970966448
 20
91.12792868026834
 30
0.0
 10
61.59371970966448
 20
91.12792868026834
 30
0.0
 10
61.59371970966448
 20
91.14490427662645
 30
0.0
 10
61.59371970966448
 20
91.20937977408565
 30
0.0
 10
61.59371970966448
 20
91.25649340588024
 30
0.0
 10
61.59371970966448
 20
91.4331033198677
 30
0.0
 10
61.59371970966447
 20
91.59295219567582
 30
0.0
 10
61.59371970966447
 20
91.75278138221084
 30
0.0
  0
LINE
  5
286
330
1F
100
AcDbEntity
  8
0
  6
Continuous
 62
     7
370
    15
100
AcDbLine
 10
60.5937197097
 20
127.2568132033
 30
0.0
 11
51.5937197097
 21
127.2568132033
 31
0.0
  0
LINE
  5
287
330
1F
100
AcDbEntity
  8
0
  6
Continuous
 62
     7
370
    15
100
AcDbLine
 10
61.5937197097
 20
93.4568132033
 30
0.0
 11
56.6081751113
 21
93.4568132033
 31
0.0
  0
LINE
  5
288
330
1F
100
AcDbEntity
  8
0
  6
Continuous
 62
     7
370
    15
100
AcDbLine
 10
56.0867270285
 20
93.4568132033
 30
0.0
 11
50.5937197097
 21
93.4568132033
 31
0.0
  0
LINE
  5
289
330
1F
100
AcDbEntity
  8
0
  6
Continuous
 62
     7
370
    15
100
AcDbLine
 10
61.5937197097
 20
91.7527813822
 30
0.0
 11
61.5937197097
 21
93.4568132033
 31
0.0
  0
LINE
  5
28A
330
1F
100
AcDbEntity
  8
0
  6
Continuous
 62
     7
370
    15
100
AcDbLine
 10
60.5937197097
 20
129.2276902364
 30
0.0
 11
60.5937197097
 21
127.2568132033
 31
0.0
  0
LINE
  5
28B
330
1F
100
AcDbEntity
  8
0
  6
Continuous
 62
     7
370
    15
100
AcDbLine
 10
51.5937197097
 20
127.2568132033
 30
0.0
 11
51.5937197097
 21
129.2276902364
 31
0.0
  0
LINE
  5
28C
330
1F
100
AcDbEntity
  8
0
  6
Continuous
 62
     7
370
    15
100
AcDbLine
 10
40.7334625504
 20
122.2068132033
 30
0.0
 11
44.2437197097
 21
122.2068132033
 31
0.0
  0
LINE
  5
28D
330
1F
100
AcDbEntity
  8
0
  6
Continuous
 62
     7
370
    15
100
AcDbLine
 10
50.5937197097
 20
93.4568132033
 30
0.0
 11
50.5937197097
 21
91.7527813822
 31
0.0
  0
LINE
  5
28E
330
1F
100
AcDbEntity
  8
0
  6
Continuous
 62
     7
370
    15
100
AcDbLine
 10
44.2437197097
 20
125.7170703626
 30
0.0
 11
44.2437197097
 21
122.2068132033
 31
0.0
  0
SPLINE
  5
28F
330
1F
100
AcDbEntity
  8
0
  6
Continuous
 62
     7
370
    15
100
AcDbSpline
210
0.0
220
0.0
230
1.0
 70
     8
 71
     3
 72
    20
 73
    16
 74
     0
 42
0.00000001
 43
0.00000001
 40
0.0
 40
0.0
 40
0.0
 40
0.0
 40
0.2499999999999998
 40
0.2499999999999998
 40
0.3749999999999998
 40
0.3749999999999998
 40
0.4999999999999999
 40
0.4999999999999999
 40
0.6249999999999999
 40
0.6249999999999999
 40
0.7499999999999999
 40
0.7499999999999999
 40
0.875
 40
0.875
 40
1.0
 40
1.0
 40
1.0
 40
1.0
 10
39.98231070858697
 20
122.2068132032978
 30
0.0
 10
40.40569925701293
 20
122.7824575973959
 30
0.0
 10
40.84297506396477
 20
123.3120826423648
 30
0.0
 10
41.4993925945194
 20
124.0356900094515
 30
0.0
 10
41.71942823407056
 20
124.2662495152798
 30
0.0
 10
42.14942577836421
 20
124.6972922991968
 30
0.0
 10
42.35734640219152
 20
124.8958844522506
 30
0.0
 10
42.75385337209638
 20
125.2605211486448
 30
0.0
 10
42.94246934302486
 20
125.4265841960555
 30
0.0
 10
43.2941194022258
 20
125.726381055063
 30
0.0
 10
43.45385618277399
 20
125.8573194661979
 30
0.0
 10
43.7324530034101
 20
126.0803919880868
 30
0.0
 10
43.85223739134467
 20
126.1733014458962
 30
0.0
 10
44.04809221691328
 20
126.3229664026087
 30
0.0
 10
44.1239351191859
 20
126.3795490046751
 30
0.0
 10
44.17347096589851
 20
126.4163172394362
 30
0.0
  0
SPLINE
  5
290
330
1F
100
AcDbEntity
  8
0
  6
Continuous
 62
     7
370
    15
100
AcDbSpline
210
0.0
220
0.0
230
1.0
 70
     8
 71
     3
 72
     8
 73
     4
 74
     0
 42
0.00000001
 43
0.00000001
 40
0.0
 40
0.0
 40
0.0
 40
0.0
 40
1.0
 40
1.0
 40
1.0
 40
1.0
 10
44.17347096589859
 20
126.4163172394362
 30
0.0
 10
44.2194048226899
 20
125.7076883327426
 30
0.0
 10
44.24097955459677
 20
124.9927887601009
 30
0.0
 10
44.24347408223458
 20
124.2706919092284
 30
0.0
  0
LINE
  5
291
330
1F
100
AcDbEntity
  8
0
  6
Continuous
 62
     7
370
    15
100
AcDbLine
 10
44.2434740822
 20
124.2706919092
 30
0.0
 11
44.2434740822
 21
123.8724450261
 31
0.0
  0
LINE
  5
292
330
1F
100
AcDbEntity
  8
0
  6
Continuous
 62
     7
370
    15
100
AcDbLine
 10
44.1734709659
 20
126.4163172394
 30
0.0
 11
44.2437197097
 21
126.4682222044
 31
0.0
  0
SPLINE
  5
293
330
1F
100
AcDbEntity
  8
0
  6
Continuous
 62
     7
370
    15
100
AcDbSpline
210
0.0
220
0.0
230
1.0
 70
     8
 71
     3
 72
    22
 73
    18
 74
     0
 42
0.00000001
 43
0.00000001
 40
0.0
 40
0.0
 40
0.0
 40
0.0
 40
0.1250000000000001
 40
0.1250000000000001
 40
0.2500000000000001
 40
0.2500000000000001
 40
0.3750000000000001
 40
0.3750000000000001
 40
0.5000000000000001
 40
0.5000000000000001
 40
0.6250000000000001
 40
0.6250000000000001
 40
0.75
 40
0.75
 40
0.875
 40
0.875
 40
1.0
 40
1.0
 40
1.0
 40
1.0
 10
57.09371970966451
 20
90.38182884785951
 30
0.0
 10
57.39245743806216
 20
90.39678444046883
 30
0.0
 10
57.68566276289661
 20
90.41817263711526
 30
0.0
 10
58.26161784352418
 20
90.47255088373058
 30
0.0
 10
58.54736013733956
 20
90.50599704733894
 30
0.0
 10
59.09088927833323
 20
90.58076132273669
 30
0.0
 10
59.34838246655485
 20
90.62185981169762
 30
0.0
 10
59.83558746382014
 20
90.7084127406614
 30
0.0
 10
60.06572708600928
 20
90.75406363975928
 30
0.0
 10
60.47893274221277
 20
90.84234319492413
 30
0.0
 10
60.66476848290865
 20
90.88544454493139
 30
0.0
 10
60.99386506309207
 20
90.96564872478665
 30
0.0
 10
61.13382491990612
 20
91.0019435721762
 30
0.0
 10
61.35951128113577
 20
91.06212279132592
 30
0.0
 10
61.44678268947451
 20
91.08641012875701
 30
0.0
 10
61.56418290282538
 20
91.11940822306838
 30
0.0
 10
61.59371970966451
 20
91.12792868026827
 30
0.0
 10
61.5937197096645
 20
91.12792868026827
 30
0.0
  0
SPLINE
  5
294
330
1F
100
AcDbEntity
  8
0
  6
Continuous
 62
     7
370
    15
100
AcDbSpline
210
0.0
220
0.0
230
1.0
 70
     8
 71
     3
 72
    22
 73
    18
 74
     0
 42
0.00000001
 43
0.00000001
 40
0.0
 40
0.0
 40
0.0
 40
0.0
 40
0.125
 40
0.125
 40
0.2500000000000001
 40
0.2500000000000001
 40
0.3750000000000001
 40
0.3750000000000001
 40
0.5000000000000001
 40
0.5000000000000001
 40
0.6250000000000001
 40
0.6250000000000001
 40
0.7500000000000002
 40
0.7500000000000002
 40
0.8750000000000002
 40
0.8750000000000002
 40
1.0
 40
1.0
 40
1.0
 40
1.0
 10
50.59371970966447
 20
91.12792868026825
 30
0.0
 10
50.59371970966447
 20
91.12792868026825
 30
0.0
 10
50.6232456080844
 20
91.11941457920194
 30
0.0
 10
50.73865044137106
 20
91.08697081032005
 30
0.0
 10
50.82603324643691
 20
91.06263692161802
 30
0.0
 10
51.05270666574452
 20
91.00217689686119
 30
0.0
 10
51.19118251207708
 20
90.96626347608269
 30
0.0
 10
51.51799300924087
 20
90.88655345001355
 30
0.0
 10
51.70703784522085
 20
90.84267514882421
 30
0.0
 10
52.11990612769658
 20
90.75443152645404
 30
0.0
 10
52.3453780189479
 20
90.70962318499306
 30
0.0
 10
52.83623362349559
 20
90.62230217707389
 30
0.0
 10
53.09507378143766
 20
90.58101138849823
 30
0.0
 10
53.63482660723349
 20
90.5066731652044
 30
0.0
 10
53.91892969606254
 20
90.47326303946973
 30
0.0
 10
54.50038283120445
 20
90.41824363794359
 30
0.0
 10
54.79503329683274
 20
90.39678187147726
 30
0.0
 10
55.0937197096645
 20
90.3818288478595
 30
0.0
  0
SPLINE
  5
295
330
1F
100
AcDbEntity
  8
0
  6
Continuous
 62
     7
370
    15
100
AcDbSpline
210
0.0
220
0.0
230
1.0
 70
     8
 71
     3
 72
    38
 73
    34
 74
     0
 42
0.00000001
 43
0.00000001
 40
0.0
 40
0.0
 40
0.0
 40
0.0
 40
0.0625
 40
0.0625
 40
0.125
 40
0.125
 40
0.1875
 40
0.1875
 40
0.25
 40
0.25
 40
0.3125
 40
0.3125
 40
0.375
 40
0.375
 40
0.4375
 40
0.4375
 40
0.5
 40
0.5
 40
0.5625
 40
0.5625
 40
0.625
 40
0.625
 40
0.6875
 40
0.6875
 40
0.75
 40
0.75
 40
0.8125
 40
0.8125
 40
0.875
 40
0.875
 40
0.9375
 40
0.9375
 40
1.0
 40
1.0
 40
1.0
 40
1.0
 10
51.59371970966447
 20
129.8439884732029
 30
0.0
 10
51.59371970966447
 20
129.8439884732029
 30
0.0
 10
51.62308013223598
 20
129.850834040459
 30
0.0
 10
51.73793372274329
 20
129.8768181998926
 30
0.0
 10
51.82488580548783
 20
129.8962711187155
 30
0.0
 10
52.05099868937246
 20
129.9443032232549
 30
0.0
 10
52.18922401384616
 20
129.9726872402341
 30
0.0
 10
52.51562884908342
 20
130.034843253713
 30
0.0
 10
52.70495062340871
 20
130.0687414293897
 30
0.0
 10
53.11851967692544
 20
130.1353888617155
 30
0.0
 10
53.34436576684912
 20
130.1684862791284
 30
0.0
 10
53.83579625581187
 20
130.2304922497907
 30
0.0
 10
54.09615371096216
 20
130.2586582190384
 30
0.0
 10
54.63709852252034
 20
130.3055464880678
 30
0.0
 10
54.92164236443265
 20
130.3245584753878
 30
0.0
 10
55.50285553906
 20
130.3501995119293
 30
0.0
 10
55.79541714692098
 20
130.3567566281347
 30
0.0
 10
56.38438713753069
 20
130.3568690497697
 30
0.0
 10
56.68361827087497
 20
130.3502035265377
 30
0.0
 10
57.26146061233516
 20
130.3247880158362
 30
0.0
 10
57.54243084547613
 20
130.3061571224346
 30
0.0
 10
58.08843564507443
 20
130.2589787913951
 30
0.0
 10
58.35044794479782
 20
130.2305971381415
 30
0.0
 10
58.83694978299037
 20
130.1693041870409
 30
0.0
 10
59.06531937422337
 20
130.1359526037791
 30
0.0
 10
59.48306607311338
 20
130.0686647454197
 30
0.0
 10
59.66861771408352
 20
130.0354214492702
 30
0.0
 10
59.99454442557155
 20
129.9734154772957
 30
0.0
 10
60.13596630698213
 20
129.9444004198251
 30
0.0
 10
60.36184345318592
 20
129.8964255389758
 30
0.0
 10
60.44748422164349
 20
129.8772713016353
 30
0.0
 10
60.56370910482944
 20
129.8509852709141
 30
0.0
 10
60.59371970966449
 20
129.8439884732029
 30
0.0
 10
60.59371970966449
 20
129.8439884732029
 30
0.0
  0
ARC
  5
296
330
1F
100
AcDbEntity
  8
0
  6
Continuous
 62
     7
370
    15
100
AcDbCircle
 10
56.0937197097
 20
110.3568132033
 30
0.0
 40
20.00000000000005
100
AcDbArc
 50
267.1340160174
 51
272.8659839826
  0
CIRCLE
  5
297
330
1F
100
AcDbEntity
  8
VERMASSUNG
  6
CENTERX2
100
AcDbCircle
 10
56.0937197097
 20
109.3568132033
 30
0.0
 40
16.0
  0
DIMENSION
  5
298
330
1F
100
AcDbEntity
  8
VERMASSUNG
100
AcDbDimension
  2
*D6
 10
31.4688588845
 20
125.3568132033
 30
0.0
 11
31.4688588845
 21
109.3568132033
 31
0.0
 70
   160
  1
%%c<>
 71
     2
 42
-1.0
  3
SLDDIMSTYLE2
100
AcDbAlignedDimension
 13
56.0937197097
 23
93.3568132033
 33
0.0
 14
56.0937197097
 24
125.3568132033
 34
0.0
 50
90.0
100
AcDbRotatedDimension
  0
INSERT
  5
2AF
330
1F
100
AcDbEntity
  8
VERMASSUNG
100
AcDbBlockReference
  2
SW_CENTERMARKSYMBOL_0
 10
56.0937197097
 20
110.3568132033
 30
0.0
  0
OLE2FRAME
  5
2B0
330
1F
100
AcDbEntity
  8
0
100
AcDbOle2Frame
 70
     2
  3
Bitmap Image
 10
13.8511154363
 20
38.264191557
 30
0.0
 11
51.6290888628
 21
31.9806341108
 31
0.0
 71
     2
 72
     0
 73
     1
 90
    12928
310
80552BED0767C5B32B40DDAF6807D121434000000000000000006FFBDDFB85D0
310
4940DDAF6807D121434000000000000000006FFBDDFB85D04940416F4BD60AFB
310
3F4000000000000000002BED0767C5B32B40416F4BD60AFB3F40000000000000
310
0000000000000100000000010000010000000100000000000100000000320000
310
D0CF11E0A1B11AE1000000000000000000000000000000003E000300FEFF0900
310
0600000000000000000000000100000001000000000000000010000002000000
310
01000000FEFFFFFF0000000000000000FFFFFFFFFFFFFFFFFFFFFFFFFFFFFFFF
310
FFFFFFFFFFFFFFFFFFFFFFFFFFFFFFFFFFFFFFFFFFFFFFFFFFFFFFFFFFFFFFFF
310
FFFFFFFFFFFFFFFFFFFFFFFFFFFFFFFFFFFFFFFFFFFFFFFFFFFFFFFFFFFFFFFF
310
FFFFFFFFFFFFFFFFFFFFFFFFFFFFFFFFFFFFFFFFFFFFFFFFFFFFFFFFFFFFFFFF
310
FFFFFFFFFFFFFFFFFFFFFFFFFFFFFFFFFFFFFFFFFFFFFFFFFFFFFFFFFFFFFFFF
310
FFFFFFFFFFFFFFFFFFFFFFFFFFFFFFFFFFFFFFFFFFFFFFFFFFFFFFFFFFFFFFFF
310
FFFFFFFFFFFFFFFFFFFFFFFFFFFFFFFFFFFFFFFFFFFFFFFFFFFFFFFFFFFFFFFF
310
FFFFFFFFFFFFFFFFFFFFFFFFFFFFFFFFFFFFFFFFFFFFFFFFFFFFFFFFFFFFFFFF
310
FFFFFFFFFFFFFFFFFFFFFFFFFFFFFFFFFFFFFFFFFFFFFFFFFFFFFFFFFFFFFFFF
310
FFFFFFFFFFFFFFFFFFFFFFFFFFFFFFFFFFFFFFFFFFFFFFFFFFFFFFFFFFFFFFFF
310
FFFFFFFFFFFFFFFFFFFFFFFFFFFFFFFFFFFFFFFFFFFFFFFFFFFFFFFFFFFFFFFF
310
FFFFFFFFFFFFFFFFFFFFFFFFFFFFFFFFFFFFFFFFFFFFFFFFFFFFFFFFFFFFFFFF
310
FFFFFFFFFFFFFFFFFFFFFFFFFFFFFFFFFFFFFFFFFFFFFFFFFFFFFFFFFFFFFFFF
310
FFFFFFFFFFFFFFFFFFFFFFFFFFFFFFFFFFFFFFFFFFFFFFFFFFFFFFFFFFFFFFFF
310
FDFFFFFFFEFFFFFFFEFFFFFFFEFFFFFF05000000060000000700000008000000
310
090000000A0000000B0000000C0000000D0000000E0000000F00000010000000
310
11000000120000001300000014000000150000001600000017000000FEFFFFFF
310
FFFFFFFFFFFFFFFFFFFFFFFFFFFFFFFFFFFFFFFFFFFFFFFFFFFFFFFFFFFFFFFF
310
FFFFFFFFFFFFFFFFFFFFFFFFFFFFFFFFFFFFFFFFFFFFFFFFFFFFFFFFFFFFFFFF
310
FFFFFFFFFFFFFFFFFFFFFFFFFFFFFFFFFFFFFFFFFFFFFFFFFFFFFFFFFFFFFFFF
310
FFFFFFFFFFFFFFFFFFFFFFFFFFFFFFFFFFFFFFFFFFFFFFFFFFFFFFFFFFFFFFFF
310
FFFFFFFFFFFFFFFFFFFFFFFFFFFFFFFFFFFFFFFFFFFFFFFFFFFFFFFFFFFFFFFF
310
FFFFFFFFFFFFFFFFFFFFFFFFFFFFFFFFFFFFFFFFFFFFFFFFFFFFFFFFFFFFFFFF
310
FFFFFFFFFFFFFFFFFFFFFFFFFFFFFFFFFFFFFFFFFFFFFFFFFFFFFFFFFFFFFFFF
310
FFFFFFFFFFFFFFFFFFFFFFFFFFFFFFFFFFFFFFFFFFFFFFFFFFFFFFFFFFFFFFFF
310
FFFFFFFFFFFFFFFFFFFFFFFFFFFFFFFFFFFFFFFFFFFFFFFFFFFFFFFFFFFFFFFF
310
FFFFFFFFFFFFFFFFFFFFFFFFFFFFFFFFFFFFFFFFFFFFFFFFFFFFFFFFFFFFFFFF
310
FFFFFFFFFFFFFFFFFFFFFFFFFFFFFFFFFFFFFFFFFFFFFFFFFFFFFFFFFFFFFFFF
310
FFFFFFFFFFFFFFFFFFFFFFFFFFFFFFFFFFFFFFFFFFFFFFFFFFFFFFFFFFFFFFFF
310
FFFFFFFFFFFFFFFFFFFFFFFFFFFFFFFFFFFFFFFFFFFFFFFFFFFFFFFFFFFFFFFF
310
52006F006F007400200045006E00740072007900000000000000000000000000
310
0000000000000000000000000000000000000000000000000000000000000000
310
16000500FFFFFFFFFFFFFFFF020000000A00030000000000C000000000000046
310
000000000000000000000000604284E60AD4CB0103000000C000000000000000
310
01004F006C006500000000000000000000000000000000000000000000000000
310
0000000000000000000000000000000000000000000000000000000000000000
310
0A000200FFFFFFFFFFFFFFFFFFFFFFFF00000000000000000000000000000000
310
0000000000000000000000000000000000000000000000001400000000000000
310
010043006F006D0070004F0062006A0000000000000000000000000000000000
310
0000000000000000000000000000000000000000000000000000000000000000
310
120002010100000003000000FFFFFFFF00000000000000000000000000000000
310
0000000000000000000000000000000000000000010000004D00000000000000
310
01004F006C006500310030004E00610074006900760065000000000000000000
310
0000000000000000000000000000000000000000000000000000000000000000
310
1A000200FFFFFFFFFFFFFFFFFFFFFFFF00000000000000000000000000000000
310
0000000000000000000000000000000000000000040000002426000000000000
310
FEFFFFFF02000000FEFFFFFFFFFFFFFFFFFFFFFFFFFFFFFFFFFFFFFFFFFFFFFF
310
FFFFFFFFFFFFFFFFFFFFFFFFFFFFFFFFFFFFFFFFFFFFFFFFFFFFFFFFFFFFFFFF
310
FFFFFFFFFFFFFFFFFFFFFFFFFFFFFFFFFFFFFFFFFFFFFFFFFFFFFFFFFFFFFFFF
310
FFFFFFFFFFFFFFFFFFFFFFFFFFFFFFFFFFFFFFFFFFFFFFFFFFFFFFFFFFFFFFFF
310
FFFFFFFFFFFFFFFFFFFFFFFFFFFFFFFFFFFFFFFFFFFFFFFFFFFFFFFFFFFFFFFF
310
FFFFFFFFFFFFFFFFFFFFFFFFFFFFFFFFFFFFFFFFFFFFFFFFFFFFFFFFFFFFFFFF
310
FFFFFFFFFFFFFFFFFFFFFFFFFFFFFFFFFFFFFFFFFFFFFFFFFFFFFFFFFFFFFFFF
310
FFFFFFFFFFFFFFFFFFFFFFFFFFFFFFFFFFFFFFFFFFFFFFFFFFFFFFFFFFFFFFFF
310
FFFFFFFFFFFFFFFFFFFFFFFFFFFFFFFFFFFFFFFFFFFFFFFFFFFFFFFFFFFFFFFF
310
FFFFFFFFFFFFFFFFFFFFFFFFFFFFFFFFFFFFFFFFFFFFFFFFFFFFFFFFFFFFFFFF
310
FFFFFFFFFFFFFFFFFFFFFFFFFFFFFFFFFFFFFFFFFFFFFFFFFFFFFFFFFFFFFFFF
310
FFFFFFFFFFFFFFFFFFFFFFFFFFFFFFFFFFFFFFFFFFFFFFFFFFFFFFFFFFFFFFFF
310
FFFFFFFFFFFFFFFFFFFFFFFFFFFFFFFFFFFFFFFFFFFFFFFFFFFFFFFFFFFFFFFF
310
FFFFFFFFFFFFFFFFFFFFFFFFFFFFFFFFFFFFFFFFFFFFFFFFFFFFFFFFFFFFFFFF
310
FFFFFFFFFFFFFFFFFFFFFFFFFFFFFFFFFFFFFFFFFFFFFFFFFFFFFFFFFFFFFFFF
310
FFFFFFFFFFFFFFFFFFFFFFFFFFFFFFFFFFFFFFFFFFFFFFFFFFFFFFFFFFFFFFFF
310
0100000200000000000000000000000000000000610072004E0082005C003104
310
A807250000000000A807250000000000680061007200650064005C003B004300
310
0100FEFF030A0000FFFFFFFF0A00030000000000C00000000000004607000000
310
5042727573680007000000504272757368000700000050427275736800F439B2
310
71000000000000000000000000004100540049002E004100430045005C004300
310
6F00720065002D005300740061007400690063003B0043003A005C0050007200
310
6F006700720061006D002000460069006C006500730020002800780038003600
310
29005C0043006F006D006D006F006E002000460069006C00650073005C004100
310
750074006F006400650073006B0020005300680061007200650064005C003B00
310
43003A005C00500072006F006700720061006D002000460069006C0065007300
310
5C004E006F0072006D0061006E005C004E0070006D005C00420069006E000000
310
43003A005C00500072006F006700720061006D002000460069006C0065007300
310
5C0053006F006C006900640057006F0072006B007300200043006F0072007000
310
5C0053006F006C006900640057006F0072006B00730020002800320029005C00
310
730065007400750070005C0069003300380036005C0073007700610063007400
310
770069007A002E006500780065000000220043003A005C00500072006F006700
310
20260000424D0E260000000000003E00000028000000B40200006E0000000100
310
01000000000000000000130B0000130B00000200000002000000000000FFFFFF
310
FFFFFFFFFFFFFFFFFFFFFFFFFFFFFFFFFFFFFFFFFFFFFFFFFFFFFFFFFFFFFFFF
310
FFFFFFFFFFFFFFFFFFFFFFFFFFFFFFFFFFFFFFFFFFFFFFFFFFFFFFFFFFFFFFFF
310
FFFFFFFFFFFFFFFFFFFFFFFFFFFFFFFFFFFFFFFFFFFFFFFFF000FFFFFFFFFFFF
310
FFFFFFFFFFFFFFFFFFFFFFFFFFFFFFFFFFFFFFFFFFFFFFFFFFFFFFFFFFFFFFFF
310
FFFFFFFFFFFFFFFFFFFFFFFFFFFFFFFFFFFFFFFFFFFFFFFFFFFFFFFFFFFFFFFF
310
FFFFFFFFFFFFFFFFFFFFFFFFFFFFFFFFF000FFFFFFFFFFFFFFFFFFFFFFFFFFFF
310
FFFFFFFFFFFFFFFFFFFFFFFFFFFFFFFFFFFFFFFFFFFFFFFFFFFFFFFFFFFFFFFF
310
FFFFFFFFFFFFFFFFFFFFFFFFFFFFFFFFFFFFFFFFFFFFFFFFFFFFFFFFFFFFFFFF
310
FFFFFFFFFFFFFFFFF000FFFFFFFFFFFFFFFFFFFFFFFFFFFFFFFFFFFFFFFFFFFF
310
FFFFFFFFFFFFFFFFFFFFFFFFFFFFFFFFFFFFFFFFFFFFFFFFFFFFFFFFFFFFFFFF
310
FFFFFFFFFFFFFFFFFFFFFFFFFFFFFFFFFFFFFFFFFFFFFFFFFFFFFFFFFFFFFFFF
310
F000FFFFFFFFFFFFFFFFFFFFFFFFFFFFFFFFFFFFFFFFFFFFFFFFFFFFFFFFFFFF
310
FFFFFFFFFFFFFFFFFFFFFFFFFFFFFFFFFFFFFFFFFFFFFFFFFFFFFFFFFFFFFFFF
310
FFFFFFFFFFFFFFFFFFFFFFFFFFFFFFFFFFFFFFFFFFFFFFFFF000FFFFFFFFFFFF
310
FFFFFFFFFFFFFFFFFFFFFFFFFFFFFFFFFFFFFFFFFFFFFFFFFFFFFFFFFFFFFFFF
310
FFFFFFFFFFFFFFFFFFFFFFFFFFFFFFFFFFFFFFFFFFFFFFFFFFFFFFFFFFFFFFFF
310
FFFFFFFFFFFFFFFFFFFFFFFFFFFFFFFFF000FFFFFFFFFFFFFFFFFFFFFFFFFFFF
310
FFFFFFFFFFFFFFFFFFFFFFFFFFFFFFFFFFFFFFFFFFFFFFFFFFFFFFFFFFFFFFFF
310
FFFFFFFFFFFFFFFFFFFFFFFFFFFFFFFFFFFFFFFFFFFFFFFFFFFFFFFFFFFFFFFF
310
FFFFFFFFFFFFFFFFF000FFFFFFFFFFFFFFFFFFFFFFFFFFFFFFFFFFFFFFFFFFFF
310
FFFFFFFFFFFFFFFFFFFFFFFFFFFFFFFFFFFFFFFFFFFFFFFFFFFFFFFFFFFFFFFF
310
FFFFFFFFFFFFFFFFFFFFFFFFFFFFFFFFFFFFFFFFFFFFFFFFFFFFFFFFFFFFFFFF
310
F000FFFFFFFFFFFFFFFFFFFFFFFFFFFFFFFFFFFFFFFFFFFFFFFFFFFFFFFFFFFF
310
FFFFFFFFFFFFFFFFFFFFFFFFFFFFFFFFFFFFFFFFFFFFFFFFFFFFFFFFFFFFFFFF
310
FFFFFFFFFFFFFFFFFFFFFFFFFFFFFFFFFFFFFFFFFFFFFFFFF000FFFFFFFFFFFF
310
FFFFFFFFFFFFFFFFFFFFFFFFFFFFFFFFFFFFFFFFFFFFFFFFFFFFFFFFFFFFFFFF
310
FFFFFFFFFFFFFFFFFFFFFFFFFFFFFFFFFFFFFFFFFFFFFFFFFFFFFFFFFFFFFFFF
310
FFFFFFFFFFFFFFFFFFFFFFFFFFFFFFFFF000FFFFFFFFFFFFFFFFFFFFFFFFFFFF
310
FFFFFFFFFFFFFFFFFFFFFFFFFFFFFFFFFFFFFFFFFFFFFFFFFFFFFFFFFFFFFFFF
310
FFFFFFFFFFFFFFFFFFFFFFFFFFFFFFFFFFFFFFFFFFFFFFFFFFFFFFFFFFFFFFFF
310
FFFFFFFFFFFFFFFFF000FFFFFFFFFFFFFFFFFFFFFFFFFFFFFFFFFFFFFFFFFFFF
310
FFFFFFFFFFFFFFFFFFFFFFFFFFFFFFFFFFFFFFFFFFFFFFFFFFFFFFFFFFFFFFFF
310
FFFFFFFFFFFFFFFFFFFFFFFFFFFFFFFFFFFFFFFFFFFFFFFFFFFFFFFFFFFFFFFF
310
F000FFFFFFFFFFFFFFFFFFFFFFFFFFFFFFFFFFFFFFFFFFFFFFFFFFFFFFFFFFFF
310
FFFFFFFFFFFFFFFFFFFFFFFFFFFFFFFFFFFFFFFFFFFFFFFFFFFFFFFFFFFFFFFF
310
FFFFFFFFFFFFFFFFFFFFFFFFFFFFFFFFFFFFFFFFFFFFFFFFF000FFFFFFFFFFFF
310
FFFFFFFFFFFFFFFFFFFFFFFFFFFFFFFFFFFFFFFFFFFFFFFFFFFFFFFFFFFFFFFF
310
FFFFFFFFFFFFFFFFFFFFFFFFFFFFFFFFFFFFFFFFFFFFFFFFFFFFFFFFFFFFFFFF
310
FFFFFFFFFFFFFFFFFFFFFFFFFFFFFFFFF000FFFFFFFFFFFFFFFFFFFFFFFFFFFF
310
FFFFFFFFFFFFFFFFFFFFFFFFFFFFFFFFFFFFFFFFFFFFFFFFFFFFFFFFFFFFFFFF
310
FFFFFFFFFFFFFFFFFFFFFFFFFFFFFFFFFFFFFFFFFFFFFFFFFFFFFFFFFFFFFFFF
310
FFFFFFFFFFFFFFFFF000FFFFFFFFFFFFFFFFFFFFFFFFFFFFFFFFFFFFFFFFFFFF
310
FFFFFFFFFFFFFFFFFFFFFFFFFFFFFFFFFFFFFFFFFFFFFFFFFFFFFFFFFFFFFFFF
310
FFFFFFFFFFFFFFFFFFFFFFFFFFFFFFFFFFFFFFFFFFFFFFFFFFFFFFFFFFFFFFFF
310
F000FFFFFFFFFFFFFFFFFFFFFFFFFFFFFFFFFFFFFFFFFFFFFFFFFFFFFFFFFFFF
310
FFFFFFFFFFFFFFFFFFFFFFFFFFFFFFFFFFFFFFFFFFFFFFFFFFFFFFFFFFFFFFFF
310
FFFFFFFFFFFFFFFFFFFFFFFFFFFFFFFFFFFFFFFFFFFFFFFFF000FFFFFFFFFFFF
310
FFFFFFFFFFFFFFFFFFFFFFFFFFFFFFFFFFFFFFFFFFFFFFFFFFFFFFFFFFFFFFFF
310
FFFFFFFFFFFFFFFFFFFFFFFFFFFFFFFFFFFFFFFFFFFFFFFFFFFFFFFFFFFFFFFF
310
FFFFFFFFFFFFFFFFFFFFFFFFFFFFFFFFF000FFFFFFFFFFFFFFFFFFFFFFFFFFFF
310
FFFFFFFFFFFFFFFFFFFFFFFFFFFFFFFFFFFFFFFFFFFFFFFFFFFFFFFFFFFFFFFF
310
FFFFFFFFFFFFFFFFFFFFFFFFFFFFFFFFFFFFFFFFFFFFFFFFFFFFFFFFFFFFFFFF
310
FFFFFFFFFFFFFFFFF000FFFFF80003FFFFFFFFFFFFFFFFFFFFFFFFFFFFFFFFFF
310
FFFFF00007FFFFFFFFFF00007FFFFFF800000000000000007FFFFFFFFFFFFFFF
310
FFFFFFFC001FFFFFFFFFFFFFFC001FFFFFFFFFFFFFFFFFFFFFFFFFFE0007FFFF
310
F000FFFF8000007FFFFFFFF8000FFFFFC0007FFFFF80007FFFFF0000007FFFFF
310
FFF8000007FFFFF800000000000000007FFFFFF0001FFFFFFFFFFFC00001FFFF
310
FFFFFFFFC00001FFFFFFFF000000000003FFFFE000007FFFF000FFFE0000000F
310
FFFFFFF0000FFFFF80007FFFFF80007FFFFC0000001FFFFFFFC0000001FFFFF8
310
00000000000000007FFFFFF0001FFFFFFFFFFE0000003FFFFFFFFFFE0000003F
310
FFFFFF000000000003FFFF0000000FFFF000FFF800000003FFFFFFF00007FFFF
310
80007FFFFF80007FFFF000000007FFFFFF000000003FFFF80000000000000000
310
7FFFFFF0001FFFFFFFFFF80000000FFFFFFFFFF80000000FFFFFFF0000000000
310
03FFFC00000003FFF000FFE000000000FFFFFFF00007FFFF80003FFFFF80007F
310
FFC000000001FFFFFC000000001FFFF800000000000000007FFFFFF0001FFFFF
310
FFFFE000000003FFFFFFFFE000000003FFFFFF000000000003FFF000000000FF
310
F000FF80000000007FFFFFF00007FFFF80003FFFFF80007FFF8000000000FFFF
310
F80000000007FFF800000000000000007FFFFFF0001FFFFFFFFFC000000001FF
310
FFFFFFC000000001FFFFFF000000000003FFC0000000007FF000FF0000000000
310
3FFFFFE00007FFFF00003FFFFF80007FFE00000000003FFFF00000000003FFF8
310
00000000000000007FFFFFF0001FFFFFFFFF8000000000FFFFFFFF8000000000
310
FFFFFF000000000003FF80000000003FF000FE00000000001FFFFFE00003FFFF
310
00003FFFFF80007FFC00000000001FFFE00000000001FFF8000001FFFE000000
310
7FFFFFF0001FFFFFFFFE00000000003FFFFFFE00000000003FFFFF0000000000
310
03FF00000000001FF000FC00000000000FFFFFE00003FFFF00001FFFFF80007F
310
F800000000001FFFC00000000000FFF8000001FFFE0000007FFFFFF0001FFFFF
310
FFFC00000000001FFFFFFC00000000001FFFFF000000000003FE00000000000F
310
F000F8000000000007FFFFE00003FFFF00001FFFFF80007FF800000000000FFF
310
800000000000FFF8000001FFFE0000007FFFFFF0001FFFFFFFF800000000000F
310
FFFFF800000000000FFFFF000000000003FC000000000007F000F80000000000
310
03FFFFC00003FFFE00001FFFFF80007FF0000000000007FF0000000000007FF8
310
000001FFFE0000007FFFFFF0001FFFFFFFF0000000000007FFFFF00000000000
310
07FFFF000000000003F8000000000003F000F0000000000003FFFFC00001FFFE
310
00001FFFFF80007FE0000000000007FE0000000000003FF8000001FFFE000000
310
7FFFFFF0001FFFFFFFF0000000000007FFFFF0000000000007FFFF0000000000
310
03F800001F800003F000E00001FFF00001FFFFC00001FFFE00000FFFFF80007F
310
E00001FFE00003FE00001FFF00003FF8000001FFFE0000007FFFFFF0001FFFFF
310
FFE000003E000003FFFFE000003E000003FFFF000000000003F00001FFF80001
310
F000E00007FFFC0001FFFFC00001FFFE00000FFFFF80007FC0000FFFFC0003FC
310
0000FFFFC0001FF8000001FFFE0000007FFFFFF0001FFFFFFFC00003FFE00001
310
FFFFC00003FFE00001FFFF0001FFFFFFFFF00007FFFE0001F000E0000FFFFF00
310
00FFFF800001FFFC00000FFFFF80007FC0001FFFFE0001FC0001FFFFE0001FF8
310
000001FFFE0000007FFFFFF0001FFFFFFF80000FFFF80000FFFF80000FFFF800
310
00FFFF0003FFFFFFFFE0000FFFFF8000F000C0003FFFFF8000FFFF800000FFFC
310
000007FFFF80007F80003FFFFF0001FC0003FFFFF0001FF8000001FFFE000000
310
7FFFFFF0001FFFFFFF80003FFFFE0000FFFF80003FFFFE0000FFFF0003FFFFFF
310
FFE0003FFFFF8000F000C0003FFFFF8000FFFF800000FFFC000007FFFF80007F
310
80007FFFFF8001F80007FFFFF8000FF8000001FFFE0000007FFFFFF0001FFFFF
310
FF00007FFFFF00007FFF00007FFFFF00007FFF0003FFFFFFFFE0003FFFFFC000
310
F000C0007FFFFFC000FFFF000000FFFC000007FFFF80007F8000FFFFFF8000F8
310
000FFFFFF8000FF8000001FFFE0000007FFFFFF0001FFFFFFF0000FFFFFF8000
310
7FFF0000FFFFFF80007FFF0003FFFFFFFFC0007FFFFFC00070008000FFFFFFC0
310
00FFFF000000FFF8000007FFFF80007F8000FFFFFF8000F8000FFFFFF8000FF8
310
000001FFFE0000007FFFFFF0001FFFFFFE0001FFFFFFC0003FFE0001FFFFFFC0
310
003FFF0003FFFFFFFFC0007FFFFFE00070008000FFFFFFC0007FFF0000007FF8
310
000003FFFF80007F0001FFFFFF8000F8000FFFFFF8000FF8000001FFFE000000
310
7FFFFFF0001FFFFFFE0001FFFFFFC0003FFE0001FFFFFFC0003FFF0003FFFFFF
310
FFC000FFFFFFE00070008000FFFFFFC0007FFF0000007FF8000003FFFF80007F
310
0001FFFFFF8000F8001FFFFFF8000FF8000001FFFE0000007FFFFFF0001FFFFF
310
FE0003FFFFFFE0003FFE0003FFFFFFE0003FFF0003FFFFFFFFC000FFFFFFE000
310
70008000FFFFFFC0007FFE0000007FF8000003FFFF80007F0001FFFFFF8000F0
310
001FFFFFF8000FF8000001FFFE0000007FFFFFF0001FFFFFFC0003FFFFFFE000
310
1FFC0003FFFFFFE0001FFF0003FFFFFFFFC000FFFFFFC00070008000FFFFFF80
310
007FFE0000007FF0000003FFFF80007F0001FFFFFF0000F0001FFFFFF8000FF8
310
000001FFFE0000007FFFFFF0001FFFFFFC0007FFFFFFF0001FFC0007FFFFFFF0
310
001FFF0003FFFFFFFFC000FFFFFFC00070008001FFFFFF0000FFFE0000003FF0
310
000001FFFF80007F0001FFFFFF0000F8001FFFFFF0000FF8000001FFFE000000
310
7FFFFFF0001FFFFFFC0007FFFFFFF0001FFC0007FFFFFFF0001FFF0003FFFFFF
310
FFC001FFFFFF80007000FFFFFFFFFE0000FFFE0008003FF0008001FFFF80007F
310
FFFFFFFFFC0000FFFFFFFFFFE0000FF8000001FFFE0000007FFFFFF0001FFFFF
310
F8000FFFFFFFF8000FF8000FFFFFFFF8000FFF0003FFFFFFFFFFFFFFFFFF0000
310
7000FFFFFFFFFC0000FFFC0008003FF0008001FFFF80007FFFFFFFFFF80001FF
310
FFFFFFFF80000FF8000001FFFE0000007FFFFFF0001FFFFFF8000FFFFFFFF800
310
0FF8000FFFFFFFF8000FFF0003FFFFFFFFFFFFFFFFFE0000F000FFFFFFFFE000
310
00FFFC000C003FE000C001FFFF80007FFFFFFFFFC00001FFFFFFFFFE00001FF8
310
000001FFFE0000007FFFFFF0001FFFFFF8000FFFFFFFF8000FF8000FFFFFFFF8
310
000FFF0003FFFFFFFFFFFFFFFFF00000F000FFFFFFFE000001FFFC000C001FE0
310
00C000FFFF80007FFFFFFFFE000001FFFFFFFFE000001FF80FFFFFFFFFFFFFC0
310
7FFFFFF0001FFFFFF8000FFFFFFFF8000FF8000FFFFFFFF8000FFF0003FFFFFF
310
FFFFFFFFFF800000F000FFFFFFC0000001FFFC001C001FE001C000FFFF80007F
310
FFFFFF80000003FFFFFFF80000001FF80FFFFFFFFFFFFFC07FFFFFF0001FFFFF
310
F8001FFFFFFFFC000FF8001FFFFFFFFC000FFF0003FFFFFFFFFFFFFFF0000001
310
F000FFFFF800000001FFF8001C001FE001C000FFFF80007FFFFFF800000003FF
310
FFFF800000003FF80FFFFFFFFFFFFFC07FFFFFF0001FFFFFF8001FFFFFFFFC00
310
0FF8001FFFFFFFFC000FFF0003FFFFFFFFFFFFFE00000001F000FFFFC0000000
310
03FFF8001E001FC001E000FFFF80007FFFFF8000000007FFFFFC000000003FF8
310
0FFFFFFFFFFFFFC07FFFFFF0001FFFFFF8001FFFFFFFFC000FF8001FFFFFFFFC
310
000FFF0003FFFFFFFFFFFFE000000003F000FFFE0000000007FFF8001E000FC0
310
01E0007FFF80007FFFFE0000000007FFFFE0000000007FF80FFFFFFFFFFFFFC0
310
7FFFFFF0001FFFFFF0001FFFFFFFFC0007F0001FFFFFFFFC0007FF0003FFFFFF
310
FFFFFF0000000003F000FFF80000000007FFF8001E000FC003E0007FFF80007F
310
FFF0000000000FFFFF8000000000FFF80FFFFFFFFFFFFFC07FFFFFF0001FFFFF
310
F0001FFFFFFFFC0007F0001FFFFFFFFC0007FF0003FFFFFFFFFFFC0000000007
310
F000FFE0000000000FFFF0003E000FC003E0007FFF80007FFFC0000000001FFF
310
FE0000000001FFF80FFFFFFFFFFFFFC07FFFFFF0001FFFFFF0001FFFFFFFFC00
310
07F0001FFFFFFFFC0007FF0003FFFFFFFFFFF0000000000FF000FFC000000000
310
1FFFF0003F000F8003F0003FFF80007FFF80000000003FFFF80000000003FFF8
310
0FFFFFFFFFFFFFC07FFFFFF0001FFFFFF0001FFFFFFFFC0007F0001FFFFFFFFC
310
0007FF0003FFFFFFFFFFE0000000001FF000FF00000000007FFFF0003F000780
310
03F0003FFF80007FFF00000000007FFFF00000000007FFF80FFFFFFFFFFFFFC0
310
7FFFFFF0001FFFFFF0001FFFFFFFFC0007F0001FFFFFFFFC0007FF0003FFFFFF
310
FFFF80000000007FF000FE0000000000FFFFE0003F00078007F0003FFF80007F
310
FE0000000001FFFFE0000000001FFFF80FFFFFFFFFFFFFC07FFFFFF0001FFFFF
310
F0001FFFFFFFFC0007F0001FFFFFFFFC0007FF0003FFFFFFFFFF0000000000FF
310
F000FC0000000003FFFFE0007F00078007F0003FFF80007FFC0000000007FFFF
310
C0000000007FFFF80FFFFFFFFFFFFFC07FFFFFF0001FFFFFF8001FFFFFFFFC00
310
0FF8001FFFFFFFFC000FFF0003FFFFFFFFFE0000000003FFF000FC000000000F
310
FFFFE0007F80070007F8001FFF80007FF8000000001FFFFF8000000001FFFFF8
310
0FFFFFFFFFFFFFC07FFFFFF0001FFFFFF8001FFFFFFFFC000FF8001FFFFFFFFC
310
000FFF0003FFFFFFFFFC000000000FFFF000F8000000007FFFFFE0007F800700
310
07F8001FFF80007FF000000000FFFFFF800000000FFFFFF80FFFFFFFFFFFFFC0
310
7FFFFFF0001FFFFFF8000FFFFFFFF8000FF8000FFFFFFFF8000FFF0003FFFFFF
310
FFFC000000007FFFF000F800000007FFFFFFC0007F8003000FF8001FFF80007F
310
F000000007FFFFFF000000007FFFFFF80FFFFFFFFFFFFFC07FFFFFF0001FFFFF
310
F8000FFFFFFFF8000FF8000FFFFFFFF8000FFF0003FFFFFFFFF80000000FFFFF
310
F000F0000000FFFFFFFFC000FF8003000FF8001FFF80007FE0000000FFFFFFFF
310
0000000FFFFFFFF8000001FFFE0000007FFFFFF0001FFFFFF8000FFFFFFFF800
310
0FF8000FFFFFFFF8000FFF0003FFFFFFFFF8000000FFFFFFF000F000000FFFFF
310
FFFFC000FFC002000FF8000FFF80007FE000001FFFFFFFFE000001FFFFFFFFF8
310
000001FFFE0000007FFFFFF0001FFFFFF8000FFFFFFFF8000FF8000FFFFFFFF8
310
000FFF0003FFFFFFFFF000001FFFFFFFF000E00000FFFFFFFFFFC000FFC00200
310
0FFC000FFF80007FE00001FFFFFFFFFE00001FFFFFFFFFF8000001FFFE000000
310
7FFFFFF0001FFFFFFC000FFFFFFFF8001FFC000FFFFFFFF8001FFF0003FFFFFF
310
FFF00001FFFFFFFFF000E00007FFFFFFFFFF8000FFC000001FFC000FFF80007F
310
C0000FFFFFFFFFFE0000FFFFFFFFFFF8000001FFFE0000007FFFFFF0001FFFFF
310
FC0007FFFFFFF0001FFC0007FFFFFFF0001FFF0003FFFFFFFFF00007FFFFFFFF
310
F000E0001FFFFFFFFFFF8000FFC000001FFC000FFF80007FC0003FFFFFFFFFFE
310
0001FFFFFFFFFFF8000001FFFE0000007FFFFFF0001FFFFFFC0007FFFFFFF000
310
1FFC0007FFFFFFF0001FFF0003FFFFFFFFF0001FFFFFFFFFF000E0003FFFFF00
310
03FF8001FFE000001FFC0007FF80007FC0007FFFFF0007FC0003FFFFF0003FF8
310
000001FFFE0000007FFFFFF0001FFFFFFC0003FFFFFFE0001FFC0003FFFFFFE0
310
001FFF0003FFFFFFFFF0003FFFFFFFFFF000E0003FFFFF0001FF8001FFE00000
310
1FFE0007FF80007FC0007FFFFE0003FC0007FFFFE0003FF8000001FFFE000000
310
7FFFFFF0001FFFFFFE0003FFFFFFE0003FFE0003FFFFFFE0003FFF0003FFFFFF
310
FFF0003FFFFF8001F000E0003FFFFF0001FF0001FFE000001FFE0007FF80007F
310
C0007FFFFE0003FC0007FFFFE0003FF8000001FFFE0000007FFFFFF0001FFFFF
310
FE0001FFFFFFC0003FFE0001FFFFFFC0003FFF0003FFFFFFFFF0003FFFFF0001
310
F000E0003FFFFF0003FF0001FFE000003FFE0007FF80007FC0007FFFFE0003FC
310
0007FFFFE0003FF8000001FFFE0000007FFFFFF0001FFFFFFF0001FFFFFFC000
310
7FFF0001FFFFFFC0007FFF0003FFFFFFFFF0003FFFFF0001F000E0003FFFFE00
310
03FF0003FFF000003FFE0003FF80007FC0007FFFFC0003FE0007FFFFE0003FF8
310
000001FFFE0000007FFFFFF0001FFFFFFF0000FFFFFF80007FFF0000FFFFFF80
310
007FFF0003FFFFFFFFF0003FFFFF0001F000E0003FFFFE0003FF0003FFF00000
310
3FFF0003FF80007FC0007FFFFC0007FE0007FFFFC0003FF8000001FFFE000000
310
7FFFFFF0001FFFFFFF80007FFFFF0000FFFF80007FFFFF0000FFFF0003FFFFFF
310
FFF0003FFFFF0003F000E0003FFFFC0003FE0003FFF000003FFF0003FF80007F
310
E0003FFFF80007FE0003FFFFC0007FF8000001FFFE0000007FFFFFF0001FFFFF
310
FF80003FFFFE0000FFFF80003FFFFE0000FFFF0003FFFFFFFFF0001FFFFE0003
310
F000F0001FFFF80003FE0003FFF000007FFF0001FF80007FE0003FFFF00007FE
310
0001FFFF80007FF8000001FFFE0000007FFFFFF0001FFFFFFFC0000FFFF80001
310
FFFFC0000FFFF80001FFFF0003FFFFFFFFF0001FFFFC0003F000F0000FFFF000
310
07FE0007FFF800007FFF0001FF80007FE0001FFFE00007FF0000FFFE00007FF8
310
000001FFFE0000007FFFFFF0001FFFFFFFC00003FFE00001FFFFC00003FFE000
310
01FFFF0003FFFFFFFFF8000FFFF80003F000F00003FFC00007FC0007FFF80000
310
7FFF8001FF80007FF00007FF80000FFF00007FF80000FFF8000001FFFE000000
310
7F80000000000001FFE000003E000003FFFFE000003E000003FFFF0003FFFFFF
310
FFF80003FFE00007F000F800000000000FFC0007FFF800007FFF8001FF80007F
310
F000000000000FFF000000000000FFF8000001FFFE0000007F80000000000001
310
FFF0000000000007FFFFF0000000000007FFFF0003FFFFFFFFFC00007E000007
310
F000F800000000000FFC0007FFF80000FFFF8000FF80007FF800000000001FFF
310
800000000001FFF8000001FFFE0000007F80000000000001FFF800000000000F
310
FFFFF800000000000FFFFF0003FFFFFFFFFC00000000000FF000FC0000000000
310
1FFC0007FFFC0000FFFF8000FF80007FF800000000003FFFC00000000001FFF8
310
000001FFFE0000007F80000000000001FFF800000000000FFFFFF80000000000
310
0FFFFF0003FFFFFFFFFE00000000001FF000FE00000000003FF8000FFFFC0000
310
FFFF8000FF80007FFC00000000003FFFC00000000003FFF8000001FFFE000000
310
7F80000000000001FFFC00000000001FFFFFFC00000000001FFFFF0003FFFFFF
310
FFFF00000000001FF000FF00000000003FF8000FFFFC0000FFFFC000FF80007F
310
FE00000000007FFFE00000000007FFF8000001FFFE0000007F80000000000001
310
FFFE00000000003FFFFFFE00000000003FFFFF0003FFFFFFFFFF80000000003F
310
F000FF80000000007FF8000FFFFC0001FFFFC0007F80007FFF0000000000FFFF
310
F0000000000FFFF800000000000000007F80000000000001FFFF8000000000FF
310
FFFFFF8000000000FFFFFF0003FFFFFFFFFFC0000000007FF000FFC000000000
310
FFF8000FFFFE0001FFFFC0007F80007FFF8000000001FFFFF8000000001FFFF8
310
00000000000000007F80000000000001FFFFC000000001FFFFFFFFC000000001
310
FFFFFF0003FFFFFFFFFFE000000000FFF000FFE000000003FFF0001FFFFE0001
310
FFFFC0007F80007FFFC000000007FFFFFE000000003FFFF80000000000000000
310
7F80000000000001FFFFE000000003FFFFFFFFE000000003FFFFFF0003FFFFFF
310
FFFFF000000003FFF000FFF80000000FFFF0001FFFFE0001FFFFE0007F80007F
310
FFF00000000FFFFFFF00000000FFFFF800000000000000007F80000000000001
310
FFFFF80000000FFFFFFFFFF80000000FFFFFFF0003FFFFFFFFFFFC0000000FFF
310
F000FFFE0000003FFFF0001FFFFE0003FFFFE0003F80007FFFFC0000003FFFFF
310
FFC0000003FFFFF800000000000000007F80000000000001FFFFFE0000003FFF
310
FFFFFFFE0000003FFFFFFF0003FFFFFFFFFFFF0000003FFFF000FFFF800000FF
310
FFF0001FFFFF0003FFFFE0003F80007FFFFF000001FFFFFFFFF800001FFFFFF8
310
00000000000000007F80000000000001FFFFFFC00001FFFFFFFFFFFFC00001FF
310
FFFFFF0003FFFFFFFFFFFFC00000FFFFF000FFFFF8000FFFFFFFFFFFFFFFFFFF
310
FFFFFFFFFFFFFFFFFFFFF0001FFFFFFFFFFF0000FFFFFFF80000000000000000
310
7FFFFFFFFFFFFFFFFFFFFFFC001FFFFFFFFFFFFFFC001FFFFFFFFFFFFFFFFFFF
310
FFFFFFFC001FFFFFF000FFFFFFFFFFFFFFFFFFFFFFFFFFFFFFFFFFFFFFFFFFFF
310
FFFFFFFFFFFFFFFFFFFFFFFFFFFFFFFFFFFFFFFFFFFFFFFFFFFFFFFFFFFFFFFF
310
FFFFFFFFFFFFFFFFFFFFFFFFFFFFFFFFFFFFFFFFFFFFFFFFFFFFFFFFFFFFFFFF
310
F000FFFFFFFFFFFFFFFFFFFFFFFFFFFFFFFFFFFFFFFFFFFFFFFFFFFFFFFFFFFF
310
FFFFFFFFFFFFFFFFFFFFFFFFFFFFFFFFFFFFFFFFFFFFFFFFFFFFFFFFFFFFFFFF
310
FFFFFFFFFFFFFFFFFFFFFFFFFFFFFFFFFFFFFFFFFFFFFFFFF000FFFFFFFFFFFF
310
FFFFFFFFFFFFFFFFFFFFFFFFFFFFFFFFFFFFFFFFFFFFFFFFFFFFFFFFFFFFFFFF
310
FFFFFFFFFFFFFFFFFFFFFFFFFFFFFFFFFFFFFFFFFFFFFFFFFFFFFFFFFFFFFFFF
310
FFFFFFFFFFFFFFFFFFFFFFFFFFFFFFFFF000FFFFFFFFFFFFFFFFFFFFFFFFFFFF
310
FFFFFFFFFFFFFFFFFFFFFFFFFFFFFFFFFFFFFFFFFFFFFFFFFFFFFFFFFFFFFFFF
310
FFFFFFFFFFFFFFFFFFFFFFFFFFFFFFFFFFFFFFFFFFFFFFFFFFFFFFFFFFFFFFFF
310
FFFFFFFFFFFFFFFFF000FFFFFFFFFFFFFFFFFFFFFFFFFFFFFFFFFFFFFFFFFFFF
310
FFFFFFFFFFFFFFFFFFFFFFFFFFFFFFFFFFFFFFFFFFFFFFFFFFFFFFFFFFFFFFFF
310
FFFFFFFFFFFFFFFFFFFFFFFFFFFFFFFFFFFFFFFFFFFFFFFFFFFFFFFFFFFFFFFF
310
F000FFFFFFFFFFFFFFFFFFFFFFFFFFFFFFFFFFFFFFFFFFFFFFFFFFFFFFFFFFFF
310
FFFFFFFFFFFFFFFFFFFFFFFFFFFFFFFFFFFFFFFFFFFFFFFFFFFFFFFFFFFFFFFF
310
FFFFFFFFFFFFFFFFFFFFFFFFFFFFFFFFFFFFFFFFFFFFFFFFF000FFFFFFFFFFFF
310
FFFFFFFFFFFFFFFFFFFFFFFFFFFFFFFFFFFFFFFFFFFFFFFFFFFFFFFFFFFFFFFF
310
FFFFFFFFFFFFFFFFFFFFFFFFFFFFFFFFFFFFFFFFFFFFFFFFFFFFFFFFFFFFFFFF
310
FFFFFFFFFFFFFFFFFFFFFFFFFFFFFFFFF000FFFFFFFFFFFFFFFFFFFFFFFFFFFF
310
FFFFFFFFFFFFFFFFFFFFFFFFFFFFFFFFFFFFFFFFFFFFFFFFFFFFFFFFFFFFFFFF
310
FFFFFFFFFFFFFFFFFFFFFFFFFFFFFFFFFFFFFFFFFFFFFFFFFFFFFFFFFFFFFFFF
310
FFFFFFFFFFFFFFFFF000FFFFFFFFFFFFFFFFFFFFFFFFFFFFFFFFFFFFFFFFFFFF
310
FFFFFFFFFFFFFFFFFFFFFFFFFFFFFFFFFFFFFFFFFFFFFFFFFFFFFFFFFFFFFFFF
310
FFFFFFFFFFFFFFFFFFFFFFFFFFFFFFFFFFFFFFFFFFFFFFFFFFFFFFFFFFFFFFFF
310
F000FFFFFFFFFFFFFFFFFFFFFFFFFFFFFFFFFFFFFFFFFFFFFFFFFFFFFFFFFFFF
310
FFFFFFFFFFFFFFFFFFFFFFFFFFFFFFFFFFFFFFFFFFFFFFFFFFFFFFFFFFFFFFFF
310
FFFFFFFFFFFFFFFFFFFFFFFFFFFFFFFFFFFFFFFFFFFFFFFFF000FFFFFFFFFFFF
310
FFFFFFFFFFFFFFFFFFFFFFFFFFFFFFFFFFFFFFFFFFFFFFFFFFFFFFFFFFFFFFFF
310
FFFFFFFFFFFFFFFFFFFFFFFFFFFFFFFFFFFFFFFFFFFFFFFFFFFFFFFFFFFFFFFF
310
FFFFFFFFFFFFFFFFFFFFFFFFFFFFFFFFF000FFFFFFFFFFFFFFFFFFFFFFFFFFFF
310
FFFFFFFFFFFFFFFFFFFFFFFFFFFFFFFFFFFFFFFFFFFFFFFFFFFFFFFFFFFFFFFF
310
FFFFFFFFFFFFFFFFFFFFFFFFFFFFFFFFFFFFFFFFFFFFFFFFFFFFFFFFFFFFFFFF
310
FFFFFFFFFFFFFFFFF000FFFFFFFFFFFFFFFFFFFFFFFFFFFFFFFFFFFFFFFFFFFF
310
FFFFFFFFFFFFFFFFFFFFFFFFFFFFFFFFFFFFFFFFFFFFFFFFFFFFFFFFFFFFFFFF
310
FFFFFFFFFFFFFFFFFFFFFFFFFFFFFFFFFFFFFFFFFFFFFFFFFFFFFFFFFFFFFFFF
310
F000FFFFFFFFFFFFFFFFFFFFFFFFFFFFFFFFFFFFFFFFFFFFFFFFFFFFFFFFFFFF
310
FFFFFFFFFFFFFFFFFFFFFFFFFFFFFFFFFFFFFFFFFFFFFFFFFFFFFFFFFFFFFFFF
310
FFFFFFFFFFFFFFFFFFFFFFFFFFFFFFFFFFFFFFFFFFFFFFFFF000FFFFFFFFFFFF
310
FFFFFFFFFFFFFFFFFFFFFFFFFFFFFFFFFFFFFFFFFFFFFFFFFFFFFFFFFFFFFFFF
310
FFFFFFFFFFFFFFFFFFFFFFFFFFFFFFFFFFFFFFFFFFFFFFFFFFFFFFFFFFFFFFFF
310
FFFFFFFFFFFFFFFFFFFFFFFFFFFFFFFFF000FFFFFFFFFFFFFFFFFFFFFFFFFFFF
310
FFFFFFFFFFFFFFFFFFFFFFFFFFFFFFFFFFFFFFFFFFFFFFFFFFFFFFFFFFFFFFFF
310
FFFFFFFFFFFFFFFFFFFFFFFFFFFFFFFFFFFFFFFFFFFFFFFFFFFFFFFFFFFFFFFF
310
FFFFFFFFFFFFFFFFF000FFFFFFFFFFFFFFFFFFFFFFFFFFFFFFFFFFFFFFFFFFFF
310
FFFFFFFFFFFFFFFFFFFFFFFFFFFFFFFFFFFFFFFFFFFFFFFFFFFFFFFFFFFFFFFF
310
FFFFFFFFFFFFFFFFFFFFFFFFFFFFFFFFFFFFFFFFFFFFFFFFFFFFFFFFFFFFFFFF
310
F000FFFFFFFFFFFFFFFFFFFFFFFFFFFFFFFFFFFFFFFFFFFFFFFFFFFFFFFFFFFF
310
FFFFFFFFFFFFFFFFFFFFFFFFFFFFFFFFFFFFFFFFFFFFFFFFFFFFFFFFFFFFFFFF
310
FFFFFFFFFFFFFFFFFFFFFFFFFFFFFFFFFFFFFFFFFFFFFFFFF000FFFFFFFFFFFF
310
FFFFFFFFFFFFFFFFFFFFFFFFFFFFFFFFFFFFFFFFFFFFFFFFFFFFFFFFFFFFFFFF
310
FFFFFFFFFFFFFFFFFFFFFFFFFFFFFFFFFFFFFFFFFFFFFFFFFFFFFFFFFFFFFFFF
310
FFFFFFFFFFFFFFFFFFFFFFFFFFFFFFFFF000FFFFFFFFFFFFFFFFFFFFFFFFFFFF
310
FFFFFFFFFFFFFFFFFFFFFFFFFFFFFFFFFFFFFFFFFFFFFFFFFFFFFFFFFFFFFFFF
310
FFFFFFFFFFFFFFFFFFFFFFFFFFFFFFFFFFFFFFFFFFFFFFFFFFFFFFFFFFFFFFFF
310
FFFFFFFFFFFFFFFFF000FFFFFFFFFFFFFFFFFFFFFFFFFFFFFFFFFFFFFFFFFFFF
310
FFFFFFFFFFFFFFFFFFFFFFFFFFFFFFFFFFFFFFFFFFFFFFFFFFFFFFFFFFFFFFFF
310
FFFFFFFFFFFFFFFFFFFFFFFFFFFFFFFFFFFFFFFFFFFFFFFFFFFFFFFFFFFFFFFF
310
F000FFFFFFFFFFFFFFFFFFFFFFFFFFFFFFFFFFFFFFFFFFFFFFFFFFFFFFFFFFFF
310
FFFFFFFFFFFFFFFFFFFFFFFFFFFFFFFFFFFFFFFFFFFFFFFFFFFFFFFFFFFFFFFF
310
FFFFFFFFFFFFFFFFFFFFFFFFFFFFFFFFFFFFFFFFFFFFFFFFF000FFFFFFFFFFFF
310
FFFFFFFFFFFFFFFFFFFFFFFFFFFFFFFFFFFFFFFFFFFFFFFFFFFFFFFFFFFFFFFF
310
FFFFFFFFFFFFFFFFFFFFFFFFFFFFFFFFFFFFFFFFFFFFFFFFFFFFFFFFFFFFFFFF
310
FFFFFFFFFFFFFFFFFFFFFFFFFFFFFFFFF0000000000000000000000000000000
310
000000007062D63DF1AD833E1F41D73DF8D6833EA75CD83D3AE9833ED69BD93D
310
18E3833E51E2DA3D1EC5833E1413DC3DF691833E0B13DD3D2C4E833E78CBDD3D
310
C4FF823EF82BDE3DB8AD823EF82BDE3D515F823E78CBDD3D861B823E0B13DD3D
310
5EE8813E1413DC3D65CA813E51E2DA3D43C4813ED69BD93D5FC4813E2496D93D
310
5758823E421ED63D9D85823E63D4D53DBED6823E98A3D53D3F8F883E2F2FD93D
310
25AE883E695ED93D3F8F883E2F2FD93D69DD833EBFD2DA3DDED4873EC7D9DA3D
310
1FA8883E1971DA3D7784823E5572D53D9BEE823E6589C23D0ACD823EC23BC23D
310
94D8823EBA45C23DC6E3823E9F5FC23D9BEE823E6589C23D78EF883E0288C13D
310
AFCE883E91CEC23DD8AC883EC270C43D5A8A883EA669C63D9D67883E47B3C83D
310
0A45883EBD46CB3D0A23883E411CCE3D56B4673E494DE13D9A56683E897CE13D
310
72EA683E1406E23DBD62693EB3DDE23DC9B4693E3DF0E33D4DD9693E4D25E53D
310
09CD693E6C61E63D1691693E8588E73DC62A693E5E80E83D31A3683EF232E93D
310
6206683E6390E93D4A62673E6390E93D7BC5663EF232E93DE63D663E5E80E83D
310
96D7653E8588E73DA39B653E6C61E63D608F653E4D25E53DE3B3653E3DF0E33D
310
F005663EB3DDE23D3A7E663E1406E23D1312673E897CE13D56B4673E494DE13D
  1
OLE
  0
ENDSEC
  0
SECTION
  2
OBJECTS
  0
DICTIONARY
  5
C
330
0
100
AcDbDictionary
281
     1
  3
ACAD_GROUP
350
D
  3
ACAD_LAYOUT
350
1A
  3
ACAD_MLEADERSTYLE
350
2B2
  3
ACAD_MLINESTYLE
350
17
  3
ACAD_PLOTSETTINGS
350
19
  3
ACAD_PLOTSTYLENAME
350
E
  3
ACAD_TABLESTYLE
350
2B1
  3
ACAD_VISUALSTYLE
350
2A
  3
AcDbVariableDictionary
350
2B3
  0
DICTIONARY
  5
D
102
{ACAD_REACTORS
330
C
102
}
330
C
100
AcDbDictionary
281
     1
  0
DICTIONARY
  5
1A
102
{ACAD_REACTORS
330
C
102
}
330
C
100
AcDbDictionary
281
     1
  3
Layout1
350
1E
  3
Layout2
350
26
  3
Model
350
22
  0
DICTIONARY
  5
2B2
102
{ACAD_REACTORS
330
C
102
}
330
C
100
AcDbDictionary
281
     1
  0
DICTIONARY
  5
17
102
{ACAD_REACTORS
330
C
102
}
330
C
100
AcDbDictionary
281
     1
  3
Standard
350
18
  0
DICTIONARY
  5
19
102
{ACAD_REACTORS
330
C
102
}
330
C
100
AcDbDictionary
281
     1
  0
ACDBDICTIONARYWDFLT
  5
E
102
{ACAD_REACTORS
330
C
102
}
330
C
100
AcDbDictionary
281
     1
  3
Normal
350
F
100
AcDbDictionaryWithDefault
340
F
  0
DICTIONARY
  5
2B1
102
{ACAD_REACTORS
330
C
102
}
330
C
100
AcDbDictionary
281
     1
  0
DICTIONARY
  5
2A
102
{ACAD_REACTORS
330
C
102
}
330
C
100
AcDbDictionary
281
     1
  3
2dWireframe
350
2F
  3
3D Hidden
350
31
  3
3dWireframe
350
30
  3
Basic
350
32
  3
Brighten
350
36
  3
ColorChange
350
3A
  3
Conceptual
350
34
  3
Dim
350
35
  3
Facepattern
350
39
  3
Flat
350
2B
  3
FlatWithEdges
350
2C
  3
Gouraud
350
2D
  3
GouraudWithEdges
350
2E
  3
Linepattern
350
38
  3
Realistic
350
33
  3
Thicken
350
37
  0
DICTIONARY
  5
2B3
102
{ACAD_REACTORS
330
C
102
}
330
C
100
AcDbDictionary
281
     1
  3
PSOLHEIGHT
350
2B5
  3
PSOLWIDTH
350
2B4
  0
LAYOUT
  5
1E
102
{ACAD_REACTORS
330
1A
102
}
330
1A
100
AcDbPlotSettings
  1

  2
none_device
  4

  6

 40
0.0
 41
0.0
 42
0.0
 43
0.0
 44
0.0
 45
0.0
 46
0.0
 47
0.0
 48
0.0
 49
0.0
140
0.0
141
0.0
142
1.0
143
1.0
 70
   688
 72
     0
 73
     0
 74
     5
  7

 75
    16
147
1.0
148
0.0
149
0.0
100
AcDbLayout
  1
Layout1
 70
     1
 71
     1
 10
0.0
 20
0.0
 11
420.0
 21
297.0
 12
0.0
 22
0.0
 32
0.0
 14
1.0000000000E+20
 24
1.0000000000E+20
 34
1.0000000000E+20
 15
-1.0000000000E+20
 25
-1.0000000000E+20
 35
-1.0000000000E+20
146
0.0
 13
0.0
 23
0.0
 33
0.0
 16
1.0
 26
0.0
 36
0.0
 17
0.0
 27
1.0
 37
0.0
 76
     0
330
1B
  0
LAYOUT
  5
26
102
{ACAD_REACTORS
330
1A
102
}
330
1A
100
AcDbPlotSettings
  1

  2
none_device
  4

  6

 40
0.0
 41
0.0
 42
0.0
 43
0.0
 44
0.0
 45
0.0
 46
0.0
 47
0.0
 48
0.0
 49
0.0
140
0.0
141
0.0
142
1.0
143
1.0
 70
   688
 72
     0
 73
     0
 74
     5
  7

 75
    16
147
1.0
148
0.0
149
0.0
100
AcDbLayout
  1
Layout2
 70
     1
 71
     2
 10
0.0
 20
0.0
 11
0.0
 21
0.0
 12
0.0
 22
0.0
 32
0.0
 14
0.0
 24
0.0
 34
0.0
 15
0.0
 25
0.0
 35
0.0
146
0.0
 13
0.0
 23
0.0
 33
0.0
 16
1.0
 26
0.0
 36
0.0
 17
0.0
 27
1.0
 37
0.0
 76
     0
330
23
  0
LAYOUT
  5
22
102
{ACAD_REACTORS
330
1A
102
}
330
1A
100
AcDbPlotSettings
  1

  2
none_device
  4

  6

 40
0.0
 41
0.0
 42
0.0
 43
0.0
 44
0.0
 45
0.0
 46
0.0
 47
0.0
 48
0.0
 49
0.0
140
0.0
141
0.0
142
1.0
143
1.0
 70
  1712
 72
     0
 73
     0
 74
     0
  7

 75
     0
147
1.0
148
0.0
149
0.0
100
AcDbLayout
  1
Model
 70
     1
 71
     0
 10
0.0
 20
0.0
 11
297.0
 21
210.0
 12
0.0
 22
0.0
 32
0.0
 14
0.0
 24
0.0
 34
0.0
 15
297.0
 25
210.0
 35
0.0
146
0.0
 13
0.0
 23
0.0
 33
0.0
 16
1.0
 26
0.0
 36
0.0
 17
0.0
 27
1.0
 37
0.0
 76
     0
330
1F
331
29
  0
MLINESTYLE
  5
18
102
{ACAD_REACTORS
330
17
102
}
330
17
100
AcDbMlineStyle
  2
Standard
 70
     0
  3

 62
   256
 51
90.0
 52
90.0
 71
     2
 49
0.5
 62
   256
  6
BYLAYER
 49
-0.5
 62
   256
  6
BYLAYER
  0
ACDBPLACEHOLDER
  5
F
102
{ACAD_REACTORS
330
E
102
}
330
E
  0
VISUALSTYLE
  5
2F
102
{ACAD_REACTORS
330
2A
102
}
330
2A
100
AcDbVisualStyle
  2
2dWireframe
 70
     4
 71
     0
 72
     2
 73
     0
 90
        0
 40
-0.6
 41
-30.0
 62
     5
 63
     7
 74
     1
 91
        4
 64
     7
 65
   257
 75
     1
175
     1
 42
1.0
 92
        0
 66
   257
 43
1.0
 76
     1
 77
     6
 78
     2
 67
     7
 79
     5
170
     0
171
     0
290
     0
174
     0
 93
        1
 44
0.0
173
     0
291
     0
 45
0.0
1001
ACAD
1000
AcDbSavedByObjectVersion
1070
     0
  0
VISUALSTYLE
  5
31
102
{ACAD_REACTORS
330
2A
102
}
330
2A
100
AcDbVisualStyle
  2
3D Hidden
 70
     6
 71
     1
 72
     2
 73
     2
 90
        0
 40
-0.6
 41
-30.0
 62
     5
 63
     7
 74
     2
 91
        2
 64
     7
 65
   257
 75
     2
175
     1
 42
40.0
 92
        0
 66
   257
 43
1.0
 76
     1
 77
     6
 78
     2
 67
     7
 79
     3
170
     0
171
     0
290
     0
174
     0
 93
        1
 44
0.0
173
     0
291
     0
 45
0.0
1001
ACAD
1000
AcDbSavedByObjectVersion
1070
     0
  0
VISUALSTYLE
  5
30
102
{ACAD_REACTORS
330
2A
102
}
330
2A
100
AcDbVisualStyle
  2
3dWireframe
 70
     5
 71
     0
 72
     2
 73
     0
 90
        0
 40
-0.6
 41
-30.0
 62
     5
 63
     7
 74
     1
 91
        4
 64
     7
 65
   257
 75
     1
175
     1
 42
1.0
 92
        0
 66
   257
 43
1.0
 76
     1
 77
     6
 78
     2
 67
     7
 79
     5
170
     0
171
     0
290
     0
174
     0
 93
        1
 44
0.0
173
     0
291
     0
 45
0.0
1001
ACAD
1000
AcDbSavedByObjectVersion
1070
     0
  0
VISUALSTYLE
  5
32
102
{ACAD_REACTORS
330
2A
102
}
330
2A
100
AcDbVisualStyle
  2
Basic
 70
     7
 71
     1
 72
     0
 73
     1
 90
        0
 40
-0.6
 41
-30.0
 62
     5
 63
     7
 74
     0
 91
        4
 64
     7
 65
   257
 75
     1
175
     1
 42
1.0
 92
        8
 66
     7
 43
1.0
 76
     1
 77
     6
 78
     2
 67
     7
 79
     5
170
     0
171
     0
290
     0
174
     0
 93
        1
 44
0.0
173
     0
291
     1
 45
0.0
1001
ACAD
1000
AcDbSavedByObjectVersion
1070
     0
  0
VISUALSTYLE
  5
36
102
{ACAD_REACTORS
330
2A
102
}
330
2A
100
AcDbVisualStyle
  2
Brighten
 70
    12
 71
     2
 72
     2
 73
     0
 90
        0
 40
-0.6
 41
-30.0
 62
     5
 63
     7
 74
     1
 91
        4
 64
     7
 65
   257
 75
     1
175
     1
 42
1.0
 92
        8
 66
     7
 43
1.0
 76
     1
 77
     6
 78
     2
 67
     7
 79
     5
170
     0
171
     0
290
     0
174
     0
 93
        1
 44
50.0
173
     0
291
     1
 45
0.0
1001
ACAD
1000
AcDbSavedByObjectVersion
1070
     0
  0
VISUALSTYLE
  5
3A
102
{ACAD_REACTORS
330
2A
102
}
330
2A
100
AcDbVisualStyle
  2
ColorChange
 70
    16
 71
     2
 72
     2
 73
     3
 90
        0
 40
-0.6
 41
-30.0
 62
     5
 63
     8
 74
     1
 91
        4
 64
     7
 65
   257
 75
     1
175
     1
 42
1.0
 92
        8
 66
     8
 43
1.0
 76
     1
 77
     6
 78
     2
 67
     7
 79
     5
170
     0
171
     0
290
     0
174
     0
 93
        1
 44
0.0
173
     0
291
     1
 45
0.0
1001
ACAD
1000
AcDbSavedByObjectVersion
1070
     0
  0
VISUALSTYLE
  5
34
102
{ACAD_REACTORS
330
2A
102
}
330
2A
100
AcDbVisualStyle
  2
Conceptual
 70
     9
 71
     3
 72
     2
 73
     0
 90
        0
 40
-0.6
 41
-30.0
 62
     5
 63
     7
 74
     2
 91
        2
 64
     7
 65
   257
 75
     1
175
     1
 42
40.0
 92
        8
 66
     7
 43
1.0
 76
     1
 77
     6
 78
     2
 67
     7
 79
     3
170
     0
171
     0
290
     0
174
     0
 93
        1
 44
0.0
173
     0
291
     0
 45
0.0
1001
ACAD
1000
AcDbSavedByObjectVersion
1070
     0
  0
VISUALSTYLE
  5
35
102
{ACAD_REACTORS
330
2A
102
}
330
2A
100
AcDbVisualStyle
  2
Dim
 70
    11
 71
     2
 72
     2
 73
     0
 90
        0
 40
-0.6
 41
-30.0
 62
     5
 63
     7
 74
     1
 91
        4
 64
     7
 65
   257
 75
     1
175
     1
 42
1.0
 92
        8
 66
     7
 43
1.0
 76
     1
 77
     6
 78
     2
 67
     7
 79
     5
170
     0
171
     0
290
     0
174
     0
 93
        1
 44
-50.0
173
     0
291
     1
 45
0.0
1001
ACAD
1000
AcDbSavedByObjectVersion
1070
     0
  0
VISUALSTYLE
  5
39
102
{ACAD_REACTORS
330
2A
102
}
330
2A
100
AcDbVisualStyle
  2
Facepattern
 70
    15
 71
     2
 72
     2
 73
     0
 90
        0
 40
-0.6
 41
-30.0
 62
     5
 63
     7
 74
     1
 91
        4
 64
     7
 65
   257
 75
     1
175
     1
 42
1.0
 92
        8
 66
     7
 43
1.0
 76
     1
 77
     6
 78
     2
 67
     7
 79
     5
170
     0
171
     0
290
     0
174
     0
 93
        1
 44
0.0
173
     0
291
     1
 45
0.0
1001
ACAD
1000
AcDbSavedByObjectVersion
1070
     0
  0
VISUALSTYLE
  5
2B
102
{ACAD_REACTORS
330
2A
102
}
330
2A
100
AcDbVisualStyle
  2
Flat
 70
     0
 71
     2
 72
     1
 73
     1
 90
        2
 40
-0.6
 41
30.0
 62
     5
 63
     7
 74
     0
 91
        4
 64
     7
 65
   257
 75
     1
175
     1
 42
1.0
 92
        8
 66
     7
 43
1.0
 76
     1
 77
     6
 78
     2
 67
     7
 79
     5
170
     0
171
     0
290
     0
174
     0
 93
       13
 44
0.0
173
     0
291
     1
 45
0.0
1001
ACAD
1000
AcDbSavedByObjectVersion
1070
     0
  0
VISUALSTYLE
  5
2C
102
{ACAD_REACTORS
330
2A
102
}
330
2A
100
AcDbVisualStyle
  2
FlatWithEdges
 70
     1
 71
     2
 72
     1
 73
     1
 90
        2
 40
-0.6
 41
30.0
 62
     5
 63
     7
 74
     1
 91
        4
 64
     7
 65
   257
 75
     1
175
     1
 42
1.0
 92
        0
 66
   257
 43
1.0
 76
     1
 77
     6
 78
     2
 67
     7
 79
     5
170
     0
171
     0
290
     0
174
     0
 93
       13
 44
0.0
173
     0
291
     1
 45
0.0
1001
ACAD
1000
AcDbSavedByObjectVersion
1070
     0
  0
VISUALSTYLE
  5
2D
102
{ACAD_REACTORS
330
2A
102
}
330
2A
100
AcDbVisualStyle
  2
Gouraud
 70
     2
 71
     2
 72
     2
 73
     1
 90
        2
 40
-0.6
 41
30.0
 62
     5
 63
     7
 74
     0
 91
        4
 64
     7
 65
   257
 75
     1
175
     1
 42
1.0
 92
        0
 66
     7
 43
1.0
 76
     1
 77
     6
 78
     2
 67
     7
 79
     5
170
     0
171
     0
290
     0
174
     0
 93
       13
 44
0.0
173
     0
291
     1
 45
0.0
1001
ACAD
1000
AcDbSavedByObjectVersion
1070
     0
  0
VISUALSTYLE
  5
2E
102
{ACAD_REACTORS
330
2A
102
}
330
2A
100
AcDbVisualStyle
  2
GouraudWithEdges
 70
     3
 71
     2
 72
     2
 73
     1
 90
        2
 40
-0.6
 41
30.0
 62
     5
 63
     7
 74
     1
 91
        4
 64
     7
 65
   257
 75
     1
175
     1
 42
1.0
 92
        0
 66
   257
 43
1.0
 76
     1
 77
     6
 78
     2
 67
     7
 79
     5
170
     0
171
     0
290
     0
174
     0
 93
       13
 44
0.0
173
     0
291
     1
 45
0.0
1001
ACAD
1000
AcDbSavedByObjectVersion
1070
     0
  0
VISUALSTYLE
  5
38
102
{ACAD_REACTORS
330
2A
102
}
330
2A
100
AcDbVisualStyle
  2
Linepattern
 70
    14
 71
     2
 72
     2
 73
     0
 90
        0
 40
-0.6
 41
-30.0
 62
     5
 63
     7
 74
     1
 91
        4
 64
     7
 65
   257
 75
     7
175
     7
 42
1.0
 92
        8
 66
     7
 43
1.0
 76
     1
 77
     6
 78
     2
 67
     7
 79
     5
170
     0
171
     0
290
     0
174
     0
 93
        1
 44
0.0
173
     0
291
     1
 45
0.0
1001
ACAD
1000
AcDbSavedByObjectVersion
1070
     0
  0
VISUALSTYLE
  5
33
102
{ACAD_REACTORS
330
2A
102
}
330
2A
100
AcDbVisualStyle
  2
Realistic
 70
     8
 71
     2
 72
     2
 73
     0
 90
        0
 40
-0.6
 41
-30.0
 62
     5
 63
     7
 74
     1
 91
        0
 64
     7
 65
   257
 75
     1
175
     1
 42
1.0
 92
        8
 66
     8
 43
1.0
 76
     1
 77
     6
 78
     2
 67
     7
 79
     5
170
     0
171
     0
290
     0
174
     0
 93
       13
 44
0.0
173
     0
291
     0
 45
0.0
1001
ACAD
1000
AcDbSavedByObjectVersion
1070
     0
  0
VISUALSTYLE
  5
37
102
{ACAD_REACTORS
330
2A
102
}
330
2A
100
AcDbVisualStyle
  2
Thicken
 70
    13
 71
     2
 72
     2
 73
     0
 90
        0
 40
-0.6
 41
-30.0
 62
     5
 63
     7
 74
     1
 91
        4
 64
     7
 65
   257
 75
     1
175
     1
 42
1.0
 92
       12
 66
     7
 43
1.0
 76
     1
 77
     6
 78
     2
 67
     7
 79
     5
170
     0
171
     0
290
     0
174
     0
 93
        1
 44
0.0
173
     0
291
     1
 45
0.0
1001
ACAD
1000
AcDbSavedByObjectVersion
1070
     0
  0
DICTIONARYVAR
  5
2B5
102
{ACAD_REACTORS
330
2B3
102
}
330
2B3
100
DictionaryVariables
280
     0
  1
80.000000
  0
DICTIONARYVAR
  5
2B4
102
{ACAD_REACTORS
330
2B3
102
}
330
2B3
100
DictionaryVariables
280
     0
  1
5.000000
  0
ENDSEC
  0
EOF
