  0
SECTION
  2
HEADER
  9
$ACADVER
  1
AC1015
  9
$ACADMAINTVER
 70
     6
  9
$DWGCODEPAGE
  3
ANSI_1252
  9
$INSBASE
 10
0.0
 20
0.0
 30
0.0
  9
$EXTMIN
 10
0.0
 20
0.0
 30
0.0
  9
$EXTMAX
 10
297.0
 20
210.0
 30
0.0
  9
$LIMMIN
 10
0.0
 20
0.0
  9
$LIMMAX
 10
297.0
 20
210.0
  9
$ORTHOMODE
 70
     0
  9
$REGENMODE
 70
     1
  9
$FILLMODE
 70
     1
  9
$QTEXTMODE
 70
     0
  9
$MIRRTEXT
 70
     1
  9
$LTSCALE
 40
1.0
  9
$ATTMODE
 70
     1
  9
$TEXTSIZE
 40
2.0
  9
$TRACEWID
 40
1.0
  9
$TEXTSTYLE
  7
Standard
  9
$CLAYER
  8
0
  9
$CELTYPE
  6
ByLayer
  9
$CECOLOR
 62
   256
  9
$CELTSCALE
 40
1.0
  9
$DISPSILH
 70
     0
  9
$DIMSCALE
 40
1.0
  9
$DIMASZ
 40
3.0
  9
$DIMEXO
 40
0.0
  9
$DIMDLI
 40
3.75
  9
$DIMRND
 40
0.0
  9
$DIMDLE
 40
0.0
  9
$DIMEXE
 40
1.0
  9
$DIMTP
 40
0.0
  9
$DIMTM
 40
0.0
  9
$DIMTXT
 40
2.0
  9
$DIMCEN
 40
2.5
  9
$DIMTSZ
 40
0.0
  9
$DIMTOL
 70
     0
  9
$DIMLIM
 70
     0
  9
$DIMTIH
 70
     1
  9
$DIMTOH
 70
     1
  9
$DIMSE1
 70
     0
  9
$DIMSE2
 70
     0
  9
$DIMTAD
 70
     1
  9
$DIMZIN
 70
     0
  9
$DIMBLK
  1

  9
$DIMASO
 70
     1
  9
$DIMSHO
 70
     1
  9
$DIMPOST
  1

  9
$DIMAPOST
  1

  9
$DIMALT
 70
     0
  9
$DIMALTD
 70
     3
  9
$DIMALTF
 40
0.0393700787
  9
$DIMLFAC
 40
1.0
  9
$DIMTOFL
 70
     1
  9
$DIMTVP
 40
0.0
  9
$DIMTIX
 70
     0
  9
$DIMSOXD
 70
     0
  9
$DIMSAH
 70
     0
  9
$DIMBLK1
  1

  9
$DIMBLK2
  1

  9
$DIMSTYLE
  2
ISO-25
  9
$DIMCLRD
 70
     0
  9
$DIMCLRE
 70
     0
  9
$DIMCLRT
 70
     0
  9
$DIMTFAC
 40
1.0
  9
$DIMGAP
 40
1.524
  9
$DIMJUST
 70
     0
  9
$DIMSD1
 70
     0
  9
$DIMSD2
 70
     0
  9
$DIMTOLJ
 70
     0
  9
$DIMTZIN
 70
     0
  9
$DIMALTZ
 70
     0
  9
$DIMALTTZ
 70
     0
  9
$DIMUPT
 70
     0
  9
$DIMDEC
 70
     2
  9
$DIMTDEC
 70
     3
  9
$DIMALTU
 70
     2
  9
$DIMALTTD
 70
     3
  9
$DIMTXSTY
  7
Standard
  9
$DIMAUNIT
 70
     0
  9
$DIMADEC
 70
     2
  9
$DIMALTRND
 40
0.0
  9
$DIMAZIN
 70
     0
  9
$DIMDSEP
 70
    44
  9
$DIMATFIT
 70
     3
  9
$DIMFRAC
 70
     0
  9
$DIMLDRBLK
  1

  9
$DIMLUNIT
 70
     2
  9
$DIMLWD
 70
    -2
  9
$DIMLWE
 70
    -2
  9
$DIMTMOVE
 70
     0
  9
$LUNITS
 70
     2
  9
$LUPREC
 70
     2
  9
$SKETCHINC
 40
1.0
  9
$FILLETRAD
 40
10.0
  9
$AUNITS
 70
     0
  9
$AUPREC
 70
     2
  9
$MENU
  1
.
  9
$ELEVATION
 40
0.0
  9
$PELEVATION
 40
0.0
  9
$THICKNESS
 40
0.0
  9
$LIMCHECK
 70
     0
  9
$CHAMFERA
 40
10.0
  9
$CHAMFERB
 40
10.0
  9
$CHAMFERC
 40
20.0
  9
$CHAMFERD
 40
0.0
  9
$SKPOLY
 70
     0
  9
$TDCREATE
 40
2455673.497379248
  9
$TDUCREATE
 40
2455673.414045915
  9
$TDUPDATE
 40
2455673.497379259
  9
$TDUUPDATE
 40
2455673.414045926
  9
$TDINDWG
 40
0.0000000116
  9
$TDUSRTIMER
 40
0.0000000116
  9
$USRTIMER
 70
     1
  9
$ANGBASE
 50
0.0
  9
$ANGDIR
 70
     0
  9
$PDMODE
 70
     0
  9
$PDSIZE
 40
-1.0
  9
$PLINEWID
 40
0.0
  9
$SPLFRAME
 70
     0
  9
$SPLINETYPE
 70
     6
  9
$SPLINESEGS
 70
     8
  9
$HANDSEED
  5
208
  9
$SURFTAB1
 70
     6
  9
$SURFTAB2
 70
     6
  9
$SURFTYPE
 70
     6
  9
$SURFU
 70
     6
  9
$SURFV
 70
     6
  9
$UCSBASE
  2

  9
$UCSNAME
  2

  9
$UCSORG
 10
0.0
 20
0.0
 30
0.0
  9
$UCSXDIR
 10
1.0
 20
0.0
 30
0.0
  9
$UCSYDIR
 10
0.0
 20
1.0
 30
0.0
  9
$UCSORTHOREF
  2

  9
$UCSORTHOVIEW
 70
     0
  9
$UCSORGTOP
 10
0.0
 20
0.0
 30
0.0
  9
$UCSORGBOTTOM
 10
0.0
 20
0.0
 30
0.0
  9
$UCSORGLEFT
 10
0.0
 20
0.0
 30
0.0
  9
$UCSORGRIGHT
 10
0.0
 20
0.0
 30
0.0
  9
$UCSORGFRONT
 10
0.0
 20
0.0
 30
0.0
  9
$UCSORGBACK
 10
0.0
 20
0.0
 30
0.0
  9
$PUCSBASE
  2

  9
$PUCSNAME
  2

  9
$PUCSORG
 10
0.0
 20
0.0
 30
0.0
  9
$PUCSXDIR
 10
1.0
 20
0.0
 30
0.0
  9
$PUCSYDIR
 10
0.0
 20
1.0
 30
0.0
  9
$PUCSORTHOREF
  2

  9
$PUCSORTHOVIEW
 70
     0
  9
$PUCSORGTOP
 10
0.0
 20
0.0
 30
0.0
  9
$PUCSORGBOTTOM
 10
0.0
 20
0.0
 30
0.0
  9
$PUCSORGLEFT
 10
0.0
 20
0.0
 30
0.0
  9
$PUCSORGRIGHT
 10
0.0
 20
0.0
 30
0.0
  9
$PUCSORGFRONT
 10
0.0
 20
0.0
 30
0.0
  9
$PUCSORGBACK
 10
0.0
 20
0.0
 30
0.0
  9
$USERI1
 70
     0
  9
$USERI2
 70
     0
  9
$USERI3
 70
     0
  9
$USERI4
 70
     0
  9
$USERI5
 70
     0
  9
$USERR1
 40
0.0
  9
$USERR2
 40
0.0
  9
$USERR3
 40
0.0
  9
$USERR4
 40
0.0
  9
$USERR5
 40
0.0
  9
$WORLDVIEW
 70
     1
  9
$SHADEDGE
 70
     3
  9
$SHADEDIF
 70
    70
  9
$TILEMODE
 70
     1
  9
$MAXACTVP
 70
    64
  9
$PINSBASE
 10
0.0
 20
0.0
 30
0.0
  9
$PLIMCHECK
 70
     0
  9
$PEXTMIN
 10
1.0000000000E+20
 20
1.0000000000E+20
 30
1.0000000000E+20
  9
$PEXTMAX
 10
-1.0000000000E+20
 20
-1.0000000000E+20
 30
-1.0000000000E+20
  9
$PLIMMIN
 10
0.0
 20
0.0
  9
$PLIMMAX
 10
420.0
 20
297.0
  9
$UNITMODE
 70
     0
  9
$VISRETAIN
 70
     1
  9
$PLINEGEN
 70
     0
  9
$PSLTSCALE
 70
     1
  9
$TREEDEPTH
 70
  3020
  9
$CMLSTYLE
  2
Standard
  9
$CMLJUST
 70
     0
  9
$CMLSCALE
 40
20.0
  9
$PROXYGRAPHICS
 70
     1
  9
$MEASUREMENT
 70
     1
  9
$CELWEIGHT
370
    -1
  9
$ENDCAPS
280
     0
  9
$JOINSTYLE
280
     0
  9
$LWDISPLAY
290
     1
  9
$INSUNITS
 70
     4
  9
$HYPERLINKBASE
  1

  9
$STYLESHEET
  1

  9
$XEDIT
290
     1
  9
$CEPSNTYPE
380
     0
  9
$PSTYLEMODE
290
     1
  9
$FINGERPRINTGUID
  2
{9CAB7C19-19D3-4879-9457-7B763B277EDD}
  9
$VERSIONGUID
  2
{FAEB1C32-E019-11D5-929B-00C0DF256EC4}
  9
$EXTNAMES
290
     1
  9
$PSVPSCALE
 40
0.0
  9
$OLESTARTUP
290
     0
  0
ENDSEC
  0
SECTION
  2
CLASSES
  0
CLASS
  1
ACDBDICTIONARYWDFLT
  2
AcDbDictionaryWithDefault
  3
ObjectDBX Classes
 90
        0
280
     0
281
     0
  0
CLASS
  1
VISUALSTYLE
  2
AcDbVisualStyle
  3
ObjectDBX Classes
 90
     4095
280
     0
281
     0
  0
CLASS
  1
DICTIONARYVAR
  2
AcDbDictionaryVar
  3
ObjectDBX Classes
 90
        0
280
     0
281
     0
  0
CLASS
  1
ACDBPLACEHOLDER
  2
AcDbPlaceHolder
  3
ObjectDBX Classes
 90
        0
280
     0
281
     0
  0
CLASS
  1
LAYOUT
  2
AcDbLayout
  3
ObjectDBX Classes
 90
        0
280
     0
281
     0
  0
ENDSEC
  0
SECTION
  2
TABLES
  0
TABLE
  2
VPORT
  5
8
330
0
100
AcDbSymbolTable
 70
     1
  0
VPORT
  5
29
330
8
100
AcDbSymbolTableRecord
100
AcDbViewportTableRecord
  2
*Active
 70
     0
 10
0.0
 20
0.0
 11
1.0
 21
1.0
 12
148.5
 22
105.0
 13
0.0
 23
0.0
 14
10.0
 24
10.0
 15
10.0
 25
10.0
 16
0.0
 26
0.0
 36
1.0
 17
0.0
 27
0.0
 37
0.0
 40
210.0
 41
1.4142857143
 42
50.0
 43
0.0
 44
0.0
 50
0.0
 51
0.0
 71
     0
 72
  2000
 73
     1
 74
     3
 75
     0
 76
     0
 77
     0
 78
     0
281
     0
 65
     1
110
0.0
120
0.0
130
0.0
111
1.0
121
0.0
131
0.0
112
0.0
122
1.0
132
0.0
 79
     0
146
0.0
  0
ENDTAB
  0
TABLE
  2
LTYPE
  5
5
330
0
100
AcDbSymbolTable
 70
     6
  0
LTYPE
  5
14
330
5
100
AcDbSymbolTableRecord
100
AcDbLinetypeTableRecord
  2
ByBlock
 70
     0
  3

 72
    65
 73
     0
 40
0.0
  0
LTYPE
  5
15
330
5
100
AcDbSymbolTableRecord
100
AcDbLinetypeTableRecord
  2
ByLayer
 70
     0
  3

 72
    65
 73
     0
 40
0.0
  0
LTYPE
  5
16
330
5
100
AcDbSymbolTableRecord
100
AcDbLinetypeTableRecord
  2
Continuous
 70
     0
  3
Solid line
 72
    65
 73
     0
 40
0.0
  0
LTYPE
  5
3B
330
5
100
AcDbSymbolTableRecord
100
AcDbLinetypeTableRecord
  2
HIDDEN
 70
     0
  3
Hidden __ __ __ __ __ __ __ __ __ __ __ __ __ __
 72
    65
 73
     2
 40
1.905
 49
1.27
 74
     0
 49
-0.635
 74
     0
  0
LTYPE
  5
3C
330
5
100
AcDbSymbolTableRecord
100
AcDbLinetypeTableRecord
  2
PHANTOM
 70
     0
  3
Phantom ______  __  __  ______  __  __  ______
 72
    65
 73
     6
 40
12.7
 49
6.35
 74
     0
 49
-1.27
 74
     0
 49
1.27
 74
     0
 49
-1.27
 74
     0
 49
1.27
 74
     0
 49
-1.27
 74
     0
  0
LTYPE
  5
3D
330
5
100
AcDbSymbolTableRecord
100
AcDbLinetypeTableRecord
  2
CENTER
 70
     0
  3
Center ____ _ ____ _ ____ _ ____ _ ____ _ ____
 72
    65
 73
     4
 40
10.16
 49
6.35
 74
     0
 49
-1.27
 74
     0
 49
1.27
 74
     0
 49
-1.27
 74
     0
  0
LTYPE
  5
3E
330
5
100
AcDbSymbolTableRecord
100
AcDbLinetypeTableRecord
  2
CENTERX2
 70
     0
  3
Center (2x) ________  __  ________  __  _____
 72
    65
 73
     4
 40
20.32
 49
12.7
 74
     0
 49
-2.54
 74
     0
 49
2.54
 74
     0
 49
-2.54
 74
     0
  0
LTYPE
  5
3F
330
5
100
AcDbSymbolTableRecord
100
AcDbLinetypeTableRecord
  2
DOT2
 70
     0
  3
Dot (.5x) ........................................
 72
    65
 73
     2
 40
0.635
 49
0.0
 74
     0
 49
-0.635
 74
     0
  0
ENDTAB
  0
TABLE
  2
LAYER
  5
2
330
0
100
AcDbSymbolTable
 70
     5
  0
LAYER
  5
10
330
2
100
AcDbSymbolTableRecord
100
AcDbLayerTableRecord
  2
0
 70
     0
 62
     7
  6
Continuous
370
    -3
390
F
  0
LAYER
  5
40
330
2
100
AcDbSymbolTableRecord
100
AcDbLayerTableRecord
  2
FORMAT
 70
     0
 62
     7
  6
Continuous
370
    -3
390
F
  0
LAYER
  5
41
330
2
100
AcDbSymbolTableRecord
100
AcDbLayerTableRecord
  2
VERMASSUNG
 70
     0
 62
     7
  6
Continuous
370
    -3
390
F
  0
LAYER
  5
42
330
2
100
AcDbSymbolTableRecord
100
AcDbLayerTableRecord
  2
KOPF_DÜNN
 70
     0
 62
     7
  6
Continuous
370
    -3
390
F
  0
LAYER
  5
43
330
2
100
AcDbSymbolTableRecord
100
AcDbLayerTableRecord
  2
KOPF_DICK
 70
     0
 62
     7
  6
Continuous
370
    15
390
F
  0
ENDTAB
  0
TABLE
  2
STYLE
  5
3
330
0
100
AcDbSymbolTable
 70
     3
  0
STYLE
  5
11
330
3
100
AcDbSymbolTableRecord
100
AcDbTextStyleTableRecord
  2
Standard
 70
     0
 40
0.0
 41
1.0
 50
0.0
 71
     0
 42
2.5
  3
txt
  4

  0
STYLE
  5
44
330
3
100
AcDbSymbolTableRecord
100
AcDbTextStyleTableRecord
  2
SLDTEXTSTYLE0
 70
     0
 40
0.0
 41
0.7
 50
0.0
 71
     0
 42
0.2
  3
TXT
  4

  0
STYLE
  5
48
330
3
100
AcDbSymbolTableRecord
100
AcDbTextStyleTableRecord
  2
SLDTEXTSTYLE1
 70
     0
 40
0.0
 41
0.65
 50
0.0
 71
     0
 42
0.2
  3
TXT
  4

  0
ENDTAB
  0
TABLE
  2
VIEW
  5
6
330
0
100
AcDbSymbolTable
 70
     0
  0
ENDTAB
  0
TABLE
  2
UCS
  5
7
330
0
100
AcDbSymbolTable
 70
     0
  0
ENDTAB
  0
TABLE
  2
APPID
  5
9
330
0
100
AcDbSymbolTable
 70
     1
  0
APPID
  5
12
330
9
100
AcDbSymbolTableRecord
100
AcDbRegAppTableRecord
  2
ACAD
 70
     0
  0
ENDTAB
  0
TABLE
  2
DIMSTYLE
  5
A
330
0
100
AcDbSymbolTable
 70
     2
100
AcDbDimStyleTable
  0
DIMSTYLE
105
27
330
A
100
AcDbSymbolTableRecord
100
AcDbDimStyleTableRecord
  2
ISO-25
 70
     0
 41
2.5
 42
0.625
 43
3.75
 44
1.25
 73
     0
 74
     0
 77
     1
 78
     8
140
2.5
141
2.5
143
0.0393700787
147
0.625
171
     3
172
     1
271
     2
272
     2
274
     3
278
    44
283
     0
284
     8
340
11
  0
DIMSTYLE
105
1C1
102
{ACAD_REACTORS
330
1C0
330
1CD
330
1D7
330
1E1
330
1EB
330
1F6
102
}
330
A
100
AcDbSymbolTableRecord
100
AcDbDimStyleTableRecord
  2
SLDDIMSTYLE0
 70
     0
 41
3.0
 44
0.0
 45
0.000000001
 73
     0
 74
     0
 77
     1
 78
    12
140
2.0
147
0.5
173
     1
271
     2
272
     3
284
    12
340
44
  0
ENDTAB
  0
TABLE
  2
BLOCK_RECORD
  5
1
330
0
100
AcDbSymbolTable
 70
     7
  0
BLOCK_RECORD
  5
1F
330
1
100
AcDbSymbolTableRecord
100
AcDbBlockTableRecord
  2
*Model_Space
340
22
  0
BLOCK_RECORD
  5
1B
330
1
100
AcDbSymbolTableRecord
100
AcDbBlockTableRecord
  2
*Paper_Space
340
1E
  0
BLOCK_RECORD
  5
23
330
1
100
AcDbSymbolTableRecord
100
AcDbBlockTableRecord
  2
*Paper_Space0
340
26
  0
BLOCK_RECORD
  5
1C2
330
1
100
AcDbSymbolTableRecord
100
AcDbBlockTableRecord
  2
*D1
340
0
  0
BLOCK_RECORD
  5
1CE
330
1
100
AcDbSymbolTableRecord
100
AcDbBlockTableRecord
  2
*D2
340
0
  0
BLOCK_RECORD
  5
1D8
330
1
100
AcDbSymbolTableRecord
100
AcDbBlockTableRecord
  2
*D3
340
0
  0
BLOCK_RECORD
  5
1E2
330
1
100
AcDbSymbolTableRecord
100
AcDbBlockTableRecord
  2
*D4
340
0
  0
BLOCK_RECORD
  5
1EC
330
1
100
AcDbSymbolTableRecord
100
AcDbBlockTableRecord
  2
*D5
340
0
  0
BLOCK_RECORD
  5
1F7
330
1
100
AcDbSymbolTableRecord
100
AcDbBlockTableRecord
  2
*D6
340
0
  0
ENDTAB
  0
ENDSEC
  0
SECTION
  2
BLOCKS
  0
BLOCK
  5
20
330
1F
100
AcDbEntity
  8
0
100
AcDbBlockBegin
  2
*Model_Space
 70
     0
 10
0.0
 20
0.0
 30
0.0
  3
*Model_Space
  1

  0
ENDBLK
  5
21
330
1F
100
AcDbEntity
  8
0
100
AcDbBlockEnd
  0
BLOCK
  5
1C
330
1B
100
AcDbEntity
 67
     1
  8
0
100
AcDbBlockBegin
  2
*Paper_Space
 70
     0
 10
0.0
 20
0.0
 30
0.0
  3
*Paper_Space
  1

  0
ENDBLK
  5
1D
330
1B
100
AcDbEntity
 67
     1
  8
0
100
AcDbBlockEnd
  0
BLOCK
  5
24
330
23
100
AcDbEntity
  8
0
100
AcDbBlockBegin
  2
*Paper_Space0
 70
     0
 10
0.0
 20
0.0
 30
0.0
  3
*Paper_Space0
  1

  0
ENDBLK
  5
25
330
23
100
AcDbEntity
  8
0
100
AcDbBlockEnd
  0
BLOCK
  5
1C3
330
1C2
100
AcDbEntity
  8
0
100
AcDbBlockBegin
  2
*D1
 70
     1
 10
0.0
 20
0.0
 30
0.0
  3
*D1
  1

  0
SOLID
  5
1C5
330
1C2
100
AcDbEntity
  8
VERMASSUNG
100
AcDbTrace
 10
64.5080085509
 20
162.3734798383
 30
0.0
 11
64.0580085509
 21
159.3734798383
 31
0.0
 12
64.9580085509
 22
159.3734798383
 32
0.0
 13
64.9580085509
 23
159.3734798383
 33
0.0
  0
SOLID
  5
1C6
330
1C2
100
AcDbEntity
  8
VERMASSUNG
100
AcDbTrace
 10
64.5080085509
 20
62.3734798383
 30
0.0
 11
64.9580085509
 21
65.3734798383
 31
0.0
 12
64.0580085509
 22
65.3734798383
 32
0.0
 13
64.0580085509
 23
65.3734798383
 33
0.0
  0
LINE
  5
1C7
330
1C2
100
AcDbEntity
  8
VERMASSUNG
100
AcDbLine
 10
123.3143758567
 20
162.3734798383
 30
0.0
 11
63.5080085509
 21
162.3734798383
 31
0.0
  0
LINE
  5
1C8
330
1C2
100
AcDbEntity
  8
VERMASSUNG
100
AcDbLine
 10
123.3143758567
 20
62.3734798383
 30
0.0
 11
63.5080085509
 21
62.3734798383
 31
0.0
  0
LINE
  5
1C9
330
1C2
100
AcDbEntity
  8
VERMASSUNG
100
AcDbLine
 10
64.5080085509
 20
162.3734798383
 30
0.0
 11
64.5080085509
 21
62.3734798383
 31
0.0
  0
MTEXT
  5
1CA
330
1C2
100
AcDbEntity
  8
VERMASSUNG
100
AcDbMText
 10
61.7298730619
 20
103.9335877096
 30
0.0
 40
2.0
 41
0.0
 71
     1
 72
     1
  1
HSK A 
  7
SLDTEXTSTYLE0
 11
-7.044195017643634E-15
 21
1.0
 31
0.0
 73
     1
 44
1.0
  0
MTEXT
  5
1CB
330
1C2
100
AcDbEntity
  8
VERMASSUNG
100
AcDbMText
 10
61.9298730714
 20
112.9335882535
 30
0.0
 40
2.0
 41
0.0
 71
     1
 72
     1
  1
%%c
  7
SLDTEXTSTYLE0
 11
-7.044195017643634E-15
 21
1.0
 31
0.0
 73
     1
 44
1.0
  0
MTEXT
  5
1CC
330
1C2
100
AcDbEntity
  8
VERMASSUNG
100
AcDbMText
 10
61.9298731878
 20
116.5419149035
 30
0.0
 40
2.0
 41
0.0
 71
     1
 72
     1
  1
100
  7
SLDTEXTSTYLE0
 11
-7.044195017643634E-15
 21
1.0
 31
0.0
 73
     1
 44
1.0
  0
ENDBLK
  5
1C4
330
1C2
100
AcDbEntity
  8
0
100
AcDbBlockEnd
  0
BLOCK
  5
1CF
330
1CE
100
AcDbEntity
  8
0
100
AcDbBlockBegin
  2
*D2
 70
     1
 10
0.0
 20
0.0
 30
0.0
  3
*D2
  1

  0
SOLID
  5
1D1
330
1CE
100
AcDbEntity
  8
VERMASSUNG
100
AcDbTrace
 10
72.9143758567
 20
179.6068663837
 30
0.0
 11
75.9143758567
 21
179.1568663837
 31
0.0
 12
75.9143758567
 22
180.0568663837
 32
0.0
 13
75.9143758567
 23
180.0568663837
 33
0.0
  0
SOLID
  5
1D2
330
1CE
100
AcDbEntity
  8
VERMASSUNG
100
AcDbTrace
 10
222.8143758567
 20
179.6068663837
 30
0.0
 11
219.8143758567
 21
180.0568663837
 31
0.0
 12
219.8143758567
 22
179.1568663837
 32
0.0
 13
219.8143758567
 23
179.1568663837
 33
0.0
  0
LINE
  5
1D3
330
1CE
100
AcDbEntity
  8
VERMASSUNG
100
AcDbLine
 10
72.9143758567
 20
142.8761495809
 30
0.0
 11
72.9143758567
 21
180.6068663837
 31
0.0
  0
LINE
  5
1D4
330
1CE
100
AcDbEntity
  8
VERMASSUNG
100
AcDbLine
 10
222.8143758567
 20
137.5450527136
 30
0.0
 11
222.8143758567
 21
180.6068663837
 31
0.0
  0
LINE
  5
1D5
330
1CE
100
AcDbEntity
  8
VERMASSUNG
100
AcDbLine
 10
72.9143758567
 20
179.6068663837
 30
0.0
 11
222.8143758567
 21
179.6068663837
 31
0.0
  0
MTEXT
  5
1D6
330
1CE
100
AcDbEntity
  8
VERMASSUNG
100
AcDbMText
 10
144.8648796486
 20
182.1850017468
 30
0.0
 40
2.0
 41
0.0
 71
     1
 72
     1
  1
149.9
  7
SLDTEXTSTYLE0
 73
     1
 44
1.0
  0
ENDBLK
  5
1D0
330
1CE
100
AcDbEntity
  8
0
100
AcDbBlockEnd
  0
BLOCK
  5
1D9
330
1D8
100
AcDbEntity
  8
0
100
AcDbBlockBegin
  2
*D3
 70
     1
 10
0.0
 20
0.0
 30
0.0
  3
*D3
  1

  0
SOLID
  5
1DB
330
1D8
100
AcDbEntity
  8
VERMASSUNG
100
AcDbTrace
 10
122.8143758567
 20
173.6068663837
 30
0.0
 11
125.8143758567
 21
173.1568663837
 31
0.0
 12
125.8143758567
 22
174.0568663837
 32
0.0
 13
125.8143758567
 23
174.0568663837
 33
0.0
  0
SOLID
  5
1DC
330
1D8
100
AcDbEntity
  8
VERMASSUNG
100
AcDbTrace
 10
222.8143758567
 20
173.6068663837
 30
0.0
 11
219.8143758567
 21
174.0568663837
 31
0.0
 12
219.8143758567
 22
173.1568663837
 32
0.0
 13
219.8143758567
 23
173.1568663837
 33
0.0
  0
LINE
  5
1DD
330
1D8
100
AcDbEntity
  8
VERMASSUNG
100
AcDbLine
 10
122.8143758567
 20
161.8734798383
 30
0.0
 11
122.8143758567
 21
174.6068663837
 31
0.0
  0
LINE
  5
1DE
330
1D8
100
AcDbEntity
  8
VERMASSUNG
100
AcDbLine
 10
222.8143758567
 20
137.5450527136
 30
0.0
 11
222.8143758567
 21
174.6068663837
 31
0.0
  0
LINE
  5
1DF
330
1D8
100
AcDbEntity
  8
VERMASSUNG
100
AcDbLine
 10
122.8143758567
 20
173.6068663837
 30
0.0
 11
222.8143758567
 21
173.6068663837
 31
0.0
  0
MTEXT
  5
1E0
330
1D8
100
AcDbEntity
  8
VERMASSUNG
100
AcDbMText
 10
170.914888316
 20
176.1850017468
 30
0.0
 40
2.0
 41
0.0
 71
     1
 72
     1
  1
100
  7
SLDTEXTSTYLE0
 73
     1
 44
1.0
  0
ENDBLK
  5
1DA
330
1D8
100
AcDbEntity
  8
0
100
AcDbBlockEnd
  0
BLOCK
  5
1E3
330
1E2
100
AcDbEntity
  8
0
100
AcDbBlockBegin
  2
*D4
 70
     1
 10
0.0
 20
0.0
 30
0.0
  3
*D4
  1

  0
SOLID
  5
1E5
330
1E2
100
AcDbEntity
  8
VERMASSUNG
100
AcDbTrace
 10
151.7643758567
 20
167.6068663837
 30
0.0
 11
154.7643758567
 21
167.1568663837
 31
0.0
 12
154.7643758567
 22
168.0568663837
 32
0.0
 13
154.7643758567
 23
168.0568663837
 33
0.0
  0
SOLID
  5
1E6
330
1E2
100
AcDbEntity
  8
VERMASSUNG
100
AcDbTrace
 10
222.8143758567
 20
167.6068663837
 30
0.0
 11
219.8143758567
 21
168.0568663837
 31
0.0
 12
219.8143758567
 22
167.1568663837
 32
0.0
 13
219.8143758567
 23
167.1568663837
 33
0.0
  0
LINE
  5
1E7
330
1E2
100
AcDbEntity
  8
VERMASSUNG
100
AcDbLine
 10
151.7643758567
 20
160.3422196591
 30
0.0
 11
151.7643758567
 21
168.6068663837
 31
0.0
  0
LINE
  5
1E8
330
1E2
100
AcDbEntity
  8
VERMASSUNG
100
AcDbLine
 10
222.8143758567
 20
137.5450527136
 30
0.0
 11
222.8143758567
 21
168.6068663837
 31
0.0
  0
LINE
  5
1E9
330
1E2
100
AcDbEntity
  8
VERMASSUNG
100
AcDbLine
 10
151.7643758567
 20
167.6068663837
 30
0.0
 11
222.8143758567
 21
167.6068663837
 31
0.0
  0
MTEXT
  5
1EA
330
1E2
100
AcDbEntity
  8
VERMASSUNG
100
AcDbMText
 10
184.3896694645
 20
170.1850017468
 30
0.0
 40
2.0
 41
0.0
 71
     1
 72
     1
  1
71.05
  7
SLDTEXTSTYLE0
 73
     1
 44
1.0
  0
ENDBLK
  5
1E4
330
1E2
100
AcDbEntity
  8
0
100
AcDbBlockEnd
  0
BLOCK
  5
1ED
330
1EC
100
AcDbEntity
  8
0
100
AcDbBlockBegin
  2
*D5
 70
     1
 10
0.0
 20
0.0
 30
0.0
  3
*D5
  1

  0
SOLID
  5
1EF
330
1EC
100
AcDbEntity
  8
VERMASSUNG
100
AcDbTrace
 10
232.5396794085
 20
128.3734798383
 30
0.0
 11
232.0896794085
 21
125.3734798383
 31
0.0
 12
232.9896794085
 22
125.3734798383
 32
0.0
 13
232.9896794085
 23
125.3734798383
 33
0.0
  0
SOLID
  5
1F0
330
1EC
100
AcDbEntity
  8
VERMASSUNG
100
AcDbTrace
 10
232.5396794085
 20
96.3734798383
 30
0.0
 11
232.9896794085
 21
99.3734798383
 31
0.0
 12
232.0896794085
 22
99.3734798383
 32
0.0
 13
232.0896794085
 23
99.3734798383
 33
0.0
  0
LINE
  5
1F1
330
1EC
100
AcDbEntity
  8
VERMASSUNG
100
AcDbLine
 10
222.3143758567
 20
128.3734798383
 30
0.0
 11
233.5396794085
 21
128.3734798383
 31
0.0
  0
LINE
  5
1F2
330
1EC
100
AcDbEntity
  8
VERMASSUNG
100
AcDbLine
 10
222.3143758567
 20
96.3734798383
 30
0.0
 11
233.5396794085
 21
96.3734798383
 31
0.0
  0
LINE
  5
1F3
330
1EC
100
AcDbEntity
  8
VERMASSUNG
100
AcDbLine
 10
232.5396794085
 20
128.3734798383
 30
0.0
 11
232.5396794085
 21
96.3734798383
 31
0.0
  0
MTEXT
  5
1F4
330
1EC
100
AcDbEntity
  8
VERMASSUNG
100
AcDbMText
 10
229.961543929
 20
109.1697626119
 30
0.0
 40
2.0
 41
0.0
 71
     1
 72
     1
  1
%%c
  7
SLDTEXTSTYLE0
 11
-7.044195017643634E-15
 21
1.0
 31
0.0
 73
     1
 44
1.0
  0
MTEXT
  5
1F5
330
1EC
100
AcDbEntity
  8
VERMASSUNG
100
AcDbMText
 10
229.9615440454
 20
112.7784408351
 30
0.0
 40
2.0
 41
0.0
 71
     1
 72
     1
  1
32
  7
SLDTEXTSTYLE0
 11
-7.044195017643634E-15
 21
1.0
 31
0.0
 73
     1
 44
1.0
  0
ENDBLK
  5
1EE
330
1EC
100
AcDbEntity
  8
0
100
AcDbBlockEnd
  0
BLOCK
  5
1F8
330
1F7
100
AcDbEntity
  8
0
100
AcDbBlockBegin
  2
*D6
 70
     1
 10
0.0
 20
0.0
 30
0.0
  3
*D6
  1

  0
SOLID
  5
1FA
330
1F7
100
AcDbEntity
  8
VERMASSUNG
100
AcDbTrace
 10
238.5396794085
 20
148.3734798383
 30
0.0
 11
238.0896794085
 21
145.3734798383
 31
0.0
 12
238.9896794085
 22
145.3734798383
 32
0.0
 13
238.9896794085
 23
145.3734798383
 33
0.0
  0
SOLID
  5
1FB
330
1F7
100
AcDbEntity
  8
VERMASSUNG
100
AcDbTrace
 10
238.5396794085
 20
76.3734798383
 30
0.0
 11
238.9896794085
 21
79.3734798383
 31
0.0
 12
238.0896794085
 22
79.3734798383
 32
0.0
 13
238.0896794085
 23
79.3734798383
 33
0.0
  0
LINE
  5
1FC
330
1F7
100
AcDbEntity
  8
VERMASSUNG
100
AcDbLine
 10
211.9859487319
 20
148.3734798383
 30
0.0
 11
239.5396794085
 21
148.3734798383
 31
0.0
  0
LINE
  5
1FD
330
1F7
100
AcDbEntity
  8
VERMASSUNG
100
AcDbLine
 10
211.9859487319
 20
76.3734798383
 30
0.0
 11
239.5396794085
 21
76.3734798383
 31
0.0
  0
LINE
  5
1FE
330
1F7
100
AcDbEntity
  8
VERMASSUNG
100
AcDbLine
 10
238.5396794085
 20
148.3734798383
 30
0.0
 11
238.5396794085
 21
76.3734798383
 31
0.0
  0
MTEXT
  5
1FF
330
1F7
100
AcDbEntity
  8
VERMASSUNG
100
AcDbMText
 10
235.961543929
 20
109.1697626119
 30
0.0
 40
2.0
 41
0.0
 71
     1
 72
     1
  1
%%c
  7
SLDTEXTSTYLE0
 11
-7.044195017643634E-15
 21
1.0
 31
0.0
 73
     1
 44
1.0
  0
MTEXT
  5
200
330
1F7
100
AcDbEntity
  8
VERMASSUNG
100
AcDbMText
 10
235.9615440454
 20
112.7784408351
 30
0.0
 40
2.0
 41
0.0
 71
     1
 72
     1
  1
72
  7
SLDTEXTSTYLE0
 11
-7.044195017643634E-15
 21
1.0
 31
0.0
 73
     1
 44
1.0
  0
ENDBLK
  5
1F9
330
1F7
100
AcDbEntity
  8
0
100
AcDbBlockEnd
  0
ENDSEC
  0
SECTION
  2
ENTITIES
  0
MTEXT
  5
45
330
1F
100
AcDbEntity
  8
KOPF_DÜNN
100
AcDbMText
 10
13.8892156294
 20
23.8442973028
 30
0.0
 40
3.0
 41
0.0
 71
     1
 72
     1
  1
HA0.W32.K21.100
  7
SLDTEXTSTYLE0
 73
     1
 44
1.0
  0
MTEXT
  5
46
330
1F
100
AcDbEntity
  8
VERMASSUNG
100
AcDbMText
 10
13.9329988022
 20
28.8834360957
 30
0.0
 40
3.0
 41
0.0
 71
     1
 72
     1
  1
Flächenspannfutter_End mill adapter Weldon ø32
  7
SLDTEXTSTYLE0
 73
     1
 44
1.0
  0
MTEXT
  5
47
330
1F
100
AcDbEntity
  8
VERMASSUNG
100
AcDbMText
 10
98.8601118557
 20
13.8365368179
 30
0.0
 40
2.0
 41
0.0
 71
     1
 72
     1
  1
Datum: 10.10.2006
  7
SLDTEXTSTYLE0
 73
     1
 44
1.0
  0
MTEXT
  5
49
330
1F
100
AcDbEntity
  8
VERMASSUNG
100
AcDbMText
 10
13.933048693
 20
18.0482802738
 30
0.0
 40
2.0
 41
0.0
 71
     1
 72
     1
  1
DIN 69 893 HSK A 100
  7
SLDTEXTSTYLE1
 73
     1
 44
1.0
  0
MTEXT
  5
4A
330
1F
100
AcDbEntity
  8
VERMASSUNG
100
AcDbMText
 10
13.9808475933
 20
13.9090973692
 30
0.0
 40
2.0
 41
0.0
 71
     1
 72
     1
  1
Gewicht: 3713g
  7
SLDTEXTSTYLE0
 73
     1
 44
1.0
  0
ARC
  5
4B
330
1F
100
AcDbEntity
  8
0
  6
Continuous
 62
     7
370
    15
100
AcDbCircle
 10
123.3143758567
 20
62.8734798383
 30
0.0
 40
0.5
100
AcDbArc
 50
180.0
 51
270.0
  0
ARC
  5
4C
330
1F
100
AcDbEntity
  8
0
  6
Continuous
 62
     7
370
    15
100
AcDbCircle
 10
123.3143758567
 20
161.8734798383
 30
0.0
 40
0.5
100
AcDbArc
 50
90.0
 51
180.0
  0
LINE
  5
4D
330
1F
100
AcDbEntity
  8
0
  6
Continuous
 62
     7
370
    15
100
AcDbLine
 10
123.3143758804
 20
62.3734790932
 30
0.0
 11
127.7643758298
 21
62.3734790932
 31
0.0
  0
LINE
  5
4E
330
1F
100
AcDbEntity
  8
0
  6
Continuous
 62
     7
370
    15
100
AcDbLine
 10
127.7984487319
 20
162.3734805834
 30
0.0
 11
123.3143758804
 21
162.3734805834
 31
0.0
  0
ARC
  5
4F
330
1F
100
AcDbEntity
  8
0
  6
Continuous
 62
     7
370
    15
100
AcDbCircle
 10
121.9174389382
 20
73.7449945139
 30
0.0
 40
0.9962338214386921
100
AcDbArc
 50
25.7988228126
 51
90.0
  0
ARC
  5
50
330
1F
100
AcDbEntity
  8
0
  6
Continuous
 62
     7
370
    15
100
AcDbCircle
 10
121.9174389382
 20
151.0019651627
 30
0.0
 40
0.9962338214386932
100
AcDbArc
 50
270.0
 51
334.2011771874
  0
LINE
  5
51
330
1F
100
AcDbEntity
  8
0
  6
Continuous
 62
     7
370
    15
100
AcDbLine
 10
120.3143759125
 20
74.491230036
 30
0.0
 11
121.1202219788
 21
74.7071553122
 31
0.0
  0
LINE
  5
52
330
1F
100
AcDbEntity
  8
0
  6
Continuous
 62
     7
370
    15
100
AcDbLine
 10
121.1202219788
 20
150.0398043644
 30
0.0
 11
120.3143759125
 21
150.2557296407
 31
0.0
  0
LINE
  5
53
330
1F
100
AcDbEntity
  8
0
  6
Continuous
 62
     7
370
    15
100
AcDbLine
 10
101.3336963446
 20
149.3047971379
 30
0.0
 11
83.014376411
 21
148.3869936418
 31
0.0
  0
LINE
  5
54
330
1F
100
AcDbEntity
  8
0
  6
Continuous
 62
     7
370
    15
100
AcDbLine
 10
120.3143759125
 20
150.2557296407
 30
0.0
 11
114.2463366927
 21
149.9517198753
 31
0.0
  0
LINE
  5
55
330
1F
100
AcDbEntity
  8
0
  6
Continuous
 62
     7
370
    15
100
AcDbLine
 10
114.2464596273
 20
74.7952323508
 30
0.0
 11
120.3143759125
 21
74.491230036
 31
0.0
  0
LINE
  5
56
330
1F
100
AcDbEntity
  8
0
  6
Continuous
 62
     7
370
    15
100
AcDbLine
 10
88.0143753679
 20
76.1094663393
 30
0.0
 11
101.3343277813
 21
75.4421327364
 31
0.0
  0
ARC
  5
57
330
1F
100
AcDbEntity
  8
0
  6
Continuous
 62
     7
370
    15
100
AcDbCircle
 10
121.3790410561
 20
73.7412283353
 30
0.0
 40
0.9999999999999858
100
AcDbArc
 50
90.0
 51
105.0
  0
ARC
  5
58
330
1F
100
AcDbEntity
  8
0
  6
Continuous
 62
     7
370
    15
100
AcDbCircle
 10
121.3790410561
 20
151.0057313413
 30
0.0
 40
0.9999999999999719
100
AcDbArc
 50
255.0
 51
270.0
  0
LINE
  5
59
330
1F
100
AcDbEntity
  8
0
  6
Continuous
 62
     7
370
    15
100
AcDbLine
 10
121.3790410624
 20
74.7412268173
 30
0.0
 11
121.9174389339
 21
74.7412268173
 31
0.0
  0
LINE
  5
5A
330
1F
100
AcDbEntity
  8
0
  6
Continuous
 62
     7
370
    15
100
AcDbLine
 10
121.9174389339
 20
150.0057328593
 30
0.0
 11
121.3790410624
 21
150.0057328593
 31
0.0
  0
ARC
  5
5B
330
1F
100
AcDbEntity
  8
0
  6
Continuous
 62
     7
370
    15
100
AcDbCircle
 10
152.7643758567
 20
75.3734798383
 30
0.0
 40
1.0
100
AcDbArc
 50
90.0
 51
180.0
  0
ARC
  5
5C
330
1F
100
AcDbEntity
  8
0
  6
Continuous
 62
     7
370
    15
100
AcDbCircle
 10
152.7643758567
 20
149.3734798383
 30
0.0
 40
1.0
100
AcDbArc
 50
180.0
 51
270.0
  0
LINE
  5
5D
330
1F
100
AcDbEntity
  8
0
  6
Continuous
 62
     7
370
    15
100
AcDbLine
 10
152.7643762024
 20
76.373481388
 30
0.0
 11
211.9859493764
 21
76.373481388
 31
0.0
  0
LINE
  5
5E
330
1F
100
AcDbEntity
  8
0
  6
Continuous
 62
     7
370
    15
100
AcDbLine
 10
211.9859493764
 20
148.3734782886
 30
0.0
 11
152.7643762024
 21
148.3734782886
 31
0.0
  0
ARC
  5
5F
330
1F
100
AcDbEntity
  8
0
  6
Continuous
 62
     7
370
    15
100
AcDbCircle
 10
211.9859487319
 20
78.3734798383
 30
0.0
 40
1.999999999999976
100
AcDbArc
 50
270.0
 51
315.0
  0
ARC
  5
60
330
1F
100
AcDbEntity
  8
0
  6
Continuous
 62
     7
370
    15
100
AcDbCircle
 10
211.9859487319
 20
146.3734798383
 30
0.0
 40
1.999999999999972
100
AcDbArc
 50
45.0
 51
90.0
  0
LINE
  5
61
330
1F
100
AcDbEntity
  8
0
  6
Continuous
 62
     7
370
    15
100
AcDbLine
 10
213.4001589806
 20
76.959264661
 30
0.0
 11
222.2285903485
 21
85.7876941662
 31
0.0
  0
LINE
  5
62
330
1F
100
AcDbEntity
  8
0
  6
Continuous
 62
     7
370
    15
100
AcDbLine
 10
222.2285903485
 20
138.9592655104
 30
0.0
 11
213.4001589806
 21
147.7876950156
 31
0.0
  0
ARC
  5
63
330
1F
100
AcDbEntity
  8
0
  6
Continuous
 62
     7
370
    15
100
AcDbCircle
 10
220.8143758567
 20
87.201906963
 30
0.0
 40
1.999999999999986
100
AcDbArc
 50
315.0
 51
0.0
  0
ARC
  5
64
330
1F
100
AcDbEntity
  8
0
  6
Continuous
 62
     7
370
    15
100
AcDbCircle
 10
220.8143758567
 20
137.5450527136
 30
0.0
 40
1.999999999999976
100
AcDbArc
 50
0.0
 51
45.0
  0
LINE
  5
65
330
1F
100
AcDbEntity
  8
0
  6
Continuous
 62
     7
370
    15
100
AcDbLine
 10
74.5643749328
 20
80.123481537
 30
0.0
 11
86.1143767328
 21
80.123481537
 31
0.0
  0
ARC
  5
66
330
1F
100
AcDbEntity
  8
0
  6
Continuous
 62
     7
370
    15
100
AcDbCircle
 10
86.1143758567
 20
78.2234798383
 30
0.0
 40
1.900000000000007
100
AcDbArc
 50
35.6630613694
 51
90.0
  0
ARC
  5
67
330
1F
100
AcDbEntity
  8
0
  6
Continuous
 62
     7
370
    15
100
AcDbCircle
 10
81.1143758567
 20
146.5234798383
 30
0.0
 40
1.899999999999986
100
AcDbArc
 50
270.0
 51
310.9212832533
  0
LINE
  5
68
330
1F
100
AcDbEntity
  8
0
  6
Continuous
 62
     7
370
    15
100
AcDbLine
 10
74.5643749328
 20
144.6234781396
 30
0.0
 11
72.9650593789
 21
143.0241644483
 31
0.0
  0
LINE
  5
69
330
1F
100
AcDbEntity
  8
0
  6
Continuous
 62
     7
370
    15
100
AcDbLine
 10
72.9658975692
 20
81.7219589006
 30
0.0
 11
74.5643749328
 21
80.123481537
 31
0.0
  0
LINE
  5
6A
330
1F
100
AcDbEntity
  8
0
  6
Continuous
 62
     7
370
    15
100
AcDbLine
 10
81.1143740506
 20
144.6234781396
 30
0.0
 11
74.5643749328
 21
144.6234781396
 31
0.0
  0
LINE
  5
6B
330
1F
100
AcDbEntity
  8
0
  6
Continuous
 62
     7
370
    15
100
AcDbLine
 10
222.8143773468
 20
95.404938991
 30
0.0
 11
222.9004464538
 21
95.5643180858
 31
0.0
  0
LINE
  5
6C
330
1F
100
AcDbEntity
  8
0
  6
Continuous
 62
     7
370
    15
100
AcDbLine
 10
222.8219247849
 20
129.1848227482
 30
0.0
 11
222.8143773468
 21
129.1988037627
 31
0.0
  0
SPLINE
  5
6D
330
1F
100
AcDbEntity
  8
0
  6
Continuous
 62
     7
370
    15
100
AcDbSpline
210
0.0
220
0.0
230
1.0
 70
     8
 71
     3
 72
    11
 73
     7
 74
     0
 42
0.00000001
 43
0.00000001
 40
0.0
 40
0.0
 40
0.0
 40
0.0
 40
0.2164576997128476
 40
0.4403158952152634
 40
0.751904048642535
 40
1.0
 40
1.0
 40
1.0
 40
1.0
 10
177.0857572050284
 20
112.5300353377192
 30
0.0
 10
176.878793760813
 20
112.8670554459233
 30
0.0
 10
176.4577909767245
 20
113.5526180793908
 30
0.0
 10
175.6765327177932
 20
114.8248357014004
 30
0.0
 10
174.838498453506
 20
116.189503763285
 30
0.0
 10
174.3022090329785
 20
117.0628037966879
 30
0.0
 10
174.0644834430407
 20
117.4499189581788
 30
0.0
  0
SPLINE
  5
6E
330
1F
100
AcDbEntity
  8
0
  6
Continuous
 62
     7
370
    15
100
AcDbSpline
210
0.0
220
0.0
230
1.0
 70
     8
 71
     3
 72
    13
 73
     9
 74
     0
 42
0.00000001
 43
0.00000001
 40
0.0
 40
0.0
 40
0.0
 40
0.0
 40
0.1129021346565258
 40
0.293402603361117
 40
0.4734062111718279
 40
0.6437137120239903
 40
0.8143676961976343
 40
1.0
 40
1.0
 40
1.0
 40
1.0
 10
168.2931035251806
 20
117.2933636333859
 30
0.0
 10
168.4977292791414
 20
117.2989142513044
 30
0.0
 10
169.0294971603197
 20
117.3133388301884
 30
0.0
 10
169.9358360402249
 20
117.3379241874828
 30
0.0
 10
170.9975670611993
 20
117.3667257153751
 30
0.0
 10
172.0473249517461
 20
117.3952010383874
 30
0.0
 10
173.0762613593726
 20
117.4231120566712
 30
0.0
 10
173.7259714509393
 20
117.4407363485393
 30
0.0
 10
174.0644834430407
 20
117.4499189581788
 30
0.0
  0
SPLINE
  5
6F
330
1F
100
AcDbEntity
  8
0
  6
Continuous
 62
     7
370
    15
100
AcDbSpline
210
0.0
220
0.0
230
1.0
 70
     8
 71
     3
 72
    11
 73
     7
 74
     0
 42
0.00000001
 43
0.00000001
 40
0.0
 40
0.0
 40
0.0
 40
0.0
 40
0.2164575280455476
 40
0.4403158101313976
 40
0.7519041913267804
 40
1.0
 40
1.0
 40
1.0
 40
1.0
 10
165.5429973693083
 20
112.2169243388875
 30
0.0
 10
165.7313845601437
 20
112.5646688388516
 30
0.0
 10
166.114599961798
 20
113.2720473375481
 30
0.0
 10
166.8257393271194
 20
114.5847477146733
 30
0.0
 10
167.5885611838694
 20
115.9928395261073
 30
0.0
 10
168.0767153969432
 20
116.8939299005914
 30
0.0
 10
168.2931035251806
 20
117.2933636333859
 30
0.0
  0
SPLINE
  5
70
330
1F
100
AcDbEntity
  8
0
  6
Continuous
 62
     7
370
    15
100
AcDbSpline
210
0.0
220
0.0
230
1.0
 70
     8
 71
     3
 72
    11
 73
     7
 74
     0
 42
0.00000001
 43
0.00000001
 40
0.0
 40
0.0
 40
0.0
 40
0.0
 40
0.216457465089571
 40
0.4403157276239049
 40
0.7519039743528828
 40
1.0
 40
1.0
 40
1.0
 40
1.0
 10
165.5429973693083
 20
112.2169243388875
 30
0.0
 10
165.7499593295722
 20
111.8799040975331
 30
0.0
 10
166.1709593911148
 20
111.1943407110519
 30
0.0
 10
166.9522184427415
 20
109.9221241244036
 30
0.0
 10
167.7902523277473
 20
108.55745588085
 30
0.0
 10
168.3265417952464
 20
107.6841558699456
 30
0.0
 10
168.5642674060057
 20
107.2970407184279
 30
0.0
  0
SPLINE
  5
71
330
1F
100
AcDbEntity
  8
0
  6
Continuous
 62
     7
370
    15
100
AcDbSpline
210
0.0
220
0.0
230
1.0
 70
     8
 71
     3
 72
    13
 73
     9
 74
     0
 42
0.00000001
 43
0.00000001
 40
0.0
 40
0.0
 40
0.0
 40
0.0
 40
0.1129015703528479
 40
0.2934020353978542
 40
0.4734062517461657
 40
0.6437137491454022
 40
0.8143671315749994
 40
1.0
 40
1.0
 40
1.0
 40
1.0
 10
168.5642674060057
 20
107.2970407184279
 30
0.0
 10
168.7688918846724
 20
107.3025913411174
 30
0.0
 10
169.3006580801772
 20
107.317015976574
 30
0.0
 10
170.206997464525
 20
107.3416013269124
 30
0.0
 10
171.2687296745004
 20
107.3704027467459
 30
0.0
 10
172.3184877651847
 20
107.3988780605557
 30
0.0
 10
173.3474234901956
 20
107.4267892554493
 30
0.0
 10
173.9971340321886
 20
107.4444134535497
 30
0.0
 10
174.3356473238657
 20
107.4535960432208
 30
0.0
  0
SPLINE
  5
72
330
1F
100
AcDbEntity
  8
0
  6
Continuous
 62
     7
370
    15
100
AcDbSpline
210
0.0
220
0.0
230
1.0
 70
     8
 71
     3
 72
    11
 73
     7
 74
     0
 42
0.00000001
 43
0.00000001
 40
0.0
 40
0.0
 40
0.0
 40
0.0
 40
0.2164574654255327
 40
0.4403159720450653
 40
0.7519042630995819
 40
0.9999999999999999
 40
0.9999999999999999
 40
0.9999999999999999
 40
0.9999999999999999
 10
177.0857572050284
 20
112.5300353377192
 30
0.0
 10
176.8973703129588
 20
112.1822906795071
 30
0.0
 10
176.5141552672726
 20
111.4749113941443
 30
0.0
 10
175.8030102955194
 20
110.1622132480401
 30
0.0
 10
175.0401899933927
 20
108.7541199837377
 30
0.0
 10
174.552035552909
 20
107.8530297247973
 30
0.0
 10
174.3356473238657
 20
107.4535960432208
 30
0.0
  0
CIRCLE
  5
73
330
1F
100
AcDbEntity
  8
0
  6
Continuous
 62
     7
370
    15
100
AcDbCircle
 10
171.3143758567
 20
112.3734798383
 30
0.0
 40
6.499999999999984
  0
ARC
  5
74
330
1F
100
AcDbEntity
  8
0
  6
Continuous
 62
     7
370
    15
100
AcDbCircle
 10
171.3143758567
 20
112.3734798383
 30
0.0
 40
9.00000000000044
100
AcDbArc
 50
1.5538347011
 51
115.6077509759
  0
ARC
  5
75
330
1F
100
AcDbEntity
  8
0
  6
Continuous
 62
     7
370
    15
100
AcDbCircle
 10
171.3143758567
 20
112.3734798383
 30
0.0
 40
9.000000000000025
100
AcDbArc
 50
244.0094008516
 51
1.5538347011
  0
ARC
  5
76
330
1F
100
AcDbEntity
  8
0
  6
Continuous
 62
     7
370
    15
100
AcDbCircle
 10
171.3143758567
 20
112.3734798383
 30
0.0
 40
5.000000000000028
100
AcDbArc
 50
331.5538347011
 51
31.5538347011
  0
ARC
  5
77
330
1F
100
AcDbEntity
  8
0
  6
Continuous
 62
     7
370
    15
100
AcDbCircle
 10
171.3143758567
 20
112.3734798383
 30
0.0
 40
4.999999999999944
100
AcDbArc
 50
271.5538347011
 51
331.5538347011
  0
ARC
  5
78
330
1F
100
AcDbEntity
  8
0
  6
Continuous
 62
     7
370
    15
100
AcDbCircle
 10
171.3143758567
 20
112.3734798383
 30
0.0
 40
4.999999999999979
100
AcDbArc
 50
211.5538347011
 51
271.5538347011
  0
ARC
  5
79
330
1F
100
AcDbEntity
  8
0
  6
Continuous
 62
     7
370
    15
100
AcDbCircle
 10
171.3143758567
 20
112.3734798383
 30
0.0
 40
5.000000000000115
100
AcDbArc
 50
151.5538347011
 51
211.5538347011
  0
ARC
  5
7A
330
1F
100
AcDbEntity
  8
0
  6
Continuous
 62
     7
370
    15
100
AcDbCircle
 10
171.3143758567
 20
112.3734798383
 30
0.0
 40
5.000000000000115
100
AcDbArc
 50
91.5538347011
 51
151.5538347011
  0
ARC
  5
7B
330
1F
100
AcDbEntity
  8
0
  6
Continuous
 62
     7
370
    15
100
AcDbCircle
 10
171.3143758567
 20
112.3734798383
 30
0.0
 40
5.000000000000046
100
AcDbArc
 50
31.5538347011
 51
91.5538347011
  0
SPLINE
  5
7C
330
1F
100
AcDbEntity
  8
0
  6
Continuous
 62
     7
370
    15
100
AcDbSpline
210
0.0
220
0.0
230
1.0
 70
     8
 71
     3
 72
    11
 73
     7
 74
     0
 42
0.00000001
 43
0.00000001
 40
0.0
 40
0.0
 40
0.0
 40
0.0
 40
0.2164579318796133
 40
0.4403162271113477
 40
0.7519043568836357
 40
1.0
 40
1.0
 40
1.0
 40
1.0
 10
202.1566815169047
 20
117.3988787557996
 30
0.0
 10
201.7612014728503
 20
117.3953719841394
 30
0.0
 10
200.956720531063
 20
117.3882385496964
 30
0.0
 10
199.4638281257201
 20
117.375001617024
 30
0.0
 10
197.862448455873
 20
117.3608026490962
 30
0.0
 10
196.8376682167828
 20
117.3517160406919
 30
0.0
 10
196.3834054262827
 20
117.3476881448245
 30
0.0
  0
SPLINE
  5
7D
330
1F
100
AcDbEntity
  8
0
  6
Continuous
 62
     7
370
    15
100
AcDbSpline
210
0.0
220
0.0
230
1.0
 70
     8
 71
     3
 72
    13
 73
     9
 74
     0
 42
0.00000001
 43
0.00000001
 40
0.0
 40
0.0
 40
0.0
 40
0.0
 40
0.1129015996189787
 40
0.2934021661727467
 40
0.4734063859593229
 40
0.6437134151065314
 40
0.8143671288219458
 40
1.0
 40
1.0
 40
1.0
 40
1.0
 10
193.5410983355235
 20
112.3222893073639
 30
0.0
 10
193.6418719409585
 20
112.5004653490158
 30
0.0
 10
193.9037565752546
 20
112.9634989708352
 30
0.0
 10
194.3501122223907
 20
113.7526902663745
 30
0.0
 10
194.8730065887737
 20
114.6771819846123
 30
0.0
 10
195.3899853297386
 20
115.5912581755184
 30
0.0
 10
195.8967190156704
 20
116.4871983798385
 30
0.0
 10
196.216692467829
 20
117.0529299775285
 30
0.0
 10
196.3834054262827
 20
117.3476881448245
 30
0.0
  0
SPLINE
  5
7E
330
1F
100
AcDbEntity
  8
0
  6
Continuous
 62
     7
370
    15
100
AcDbSpline
210
0.0
220
0.0
230
1.0
 70
     8
 71
     3
 72
    11
 73
     7
 74
     0
 42
0.00000001
 43
0.00000001
 40
0.0
 40
0.0
 40
0.0
 40
0.0
 40
0.2164575636308574
 40
0.440315714352728
 40
0.7519036427772432
 40
1.0
 40
1.0
 40
1.0
 40
1.0
 10
196.4720673353861
 20
107.3480809208071
 30
0.0
 10
196.2712908032879
 20
107.6888225327424
 30
0.0
 10
195.862873279441
 20
108.3819555596152
 30
0.0
 10
195.1049657591176
 20
109.6682194253956
 30
0.0
 10
194.2919847967723
 20
111.0479588487586
 30
0.0
 10
193.7717205933951
 20
111.930899952508
 30
0.0
 10
193.5410983355234
 20
112.3222893073639
 30
0.0
  0
SPLINE
  5
7F
330
1F
100
AcDbEntity
  8
0
  6
Continuous
 62
     7
370
    15
100
AcDbSpline
210
0.0
220
0.0
230
1.0
 70
     8
 71
     3
 72
    11
 73
     7
 74
     0
 42
0.00000001
 43
0.00000001
 40
0.0
 40
0.0
 40
0.0
 40
0.0
 40
0.2164579318796133
 40
0.4403162271113477
 40
0.7519043568836357
 40
1.0
 40
1.0
 40
1.0
 40
1.0
 10
196.4720673353861
 20
107.3480809208071
 30
0.0
 10
196.8675473794405
 20
107.3515876924673
 30
0.0
 10
197.6720283212278
 20
107.3587211269103
 30
0.0
 10
199.1649207265706
 20
107.3719580595827
 30
0.0
 10
200.7663003964178
 20
107.3861570275105
 30
0.0
 10
201.791080635508
 20
107.3952436359149
 30
0.0
 10
202.245343426008
 20
107.3992715317822
 30
0.0
  0
SPLINE
  5
80
330
1F
100
AcDbEntity
  8
0
  6
Continuous
 62
     7
370
    15
100
AcDbSpline
210
0.0
220
0.0
230
1.0
 70
     8
 71
     3
 72
    13
 73
     9
 74
     0
 42
0.00000001
 43
0.00000001
 40
0.0
 40
0.0
 40
0.0
 40
0.0
 40
0.1129021545779889
 40
0.2934027368711858
 40
0.4734063574142579
 40
0.6437133901018686
 40
0.8143676722371523
 40
1.0
 40
1.0
 40
1.0
 40
1.0
 10
202.2453434260081
 20
107.3992715317822
 30
0.0
 10
202.3461198506662
 20
107.5774474184494
 30
0.0
 10
202.6080110334988
 20
108.0404792621553
 30
0.0
 10
203.0543652362836
 20
108.8296708432269
 30
0.0
 10
203.577251227787
 20
109.7541659773014
 30
0.0
 10
204.094228991969
 20
110.6682424464357
 30
0.0
 10
204.6009740270323
 20
111.5641769467907
 30
0.0
 10
204.9209412852227
 20
112.1299115299894
 30
0.0
 10
205.0876505167674
 20
112.4246703692428
 30
0.0
  0
SPLINE
  5
81
330
1F
100
AcDbEntity
  8
0
  6
Continuous
 62
     7
370
    15
100
AcDbSpline
210
0.0
220
0.0
230
1.0
 70
     8
 71
     3
 72
    11
 73
     7
 74
     0
 42
0.00000001
 43
0.00000001
 40
0.0
 40
0.0
 40
0.0
 40
0.0
 40
0.2164575547718567
 40
0.4403156963318414
 40
0.7519042368651665
 40
1.0
 40
1.0
 40
1.0
 40
1.0
 10
202.1566815169047
 20
117.3988787557996
 30
0.0
 10
202.357458174641
 20
117.0581372134998
 30
0.0
 10
202.7658759540599
 20
116.3650043282788
 30
0.0
 10
203.5237818773362
 20
115.0787381592953
 30
0.0
 10
204.3367738655224
 20
113.6990046905297
 30
0.0
 10
204.8570316596469
 20
112.8160602523578
 30
0.0
 10
205.0876505167673
 20
112.4246703692428
 30
0.0
  0
CIRCLE
  5
82
330
1F
100
AcDbEntity
  8
0
  6
Continuous
 62
     7
370
    15
100
AcDbCircle
 10
199.3143758567
 20
112.3734798383
 30
0.0
 40
6.499999999999996
  0
ARC
  5
83
330
1F
100
AcDbEntity
  8
0
  6
Continuous
 62
     7
370
    15
100
AcDbCircle
 10
199.3143758567
 20
112.3734798383
 30
0.0
 40
9.000000000000005
100
AcDbArc
 50
60.5080174073
 51
115.607750976
  0
ARC
  5
84
330
1F
100
AcDbEntity
  8
0
  6
Continuous
 62
     7
370
    15
100
AcDbCircle
 10
199.3143758567
 20
112.3734798383
 30
0.0
 40
9.000000000000009
100
AcDbArc
 50
244.0094008516
 51
60.5080174073
  0
ARC
  5
85
330
1F
100
AcDbEntity
  8
0
  6
Continuous
 62
     7
370
    15
100
AcDbCircle
 10
199.3143758567
 20
112.3734798383
 30
0.0
 40
5.000000000000115
100
AcDbArc
 50
150.5080174073
 51
210.5080174073
  0
ARC
  5
86
330
1F
100
AcDbEntity
  8
0
  6
Continuous
 62
     7
370
    15
100
AcDbCircle
 10
199.3143758567
 20
112.3734798383
 30
0.0
 40
5.000000000000028
100
AcDbArc
 50
30.5080174073
 51
90.5080174073
  0
ARC
  5
87
330
1F
100
AcDbEntity
  8
0
  6
Continuous
 62
     7
370
    15
100
AcDbCircle
 10
199.3143758567
 20
112.3734798383
 30
0.0
 40
4.999999999999948
100
AcDbArc
 50
330.5080174073
 51
30.5080174073
  0
ARC
  5
88
330
1F
100
AcDbEntity
  8
0
  6
Continuous
 62
     7
370
    15
100
AcDbCircle
 10
199.3143758567
 20
112.3734798383
 30
0.0
 40
4.999999999999969
100
AcDbArc
 50
270.5080174073
 51
330.5080174073
  0
ARC
  5
89
330
1F
100
AcDbEntity
  8
0
  6
Continuous
 62
     7
370
    15
100
AcDbCircle
 10
199.3143758567
 20
112.3734798383
 30
0.0
 40
5.000000000000115
100
AcDbArc
 50
210.5080174073
 51
270.5080174073
  0
ARC
  5
8A
330
1F
100
AcDbEntity
  8
0
  6
Continuous
 62
     7
370
    15
100
AcDbCircle
 10
199.3143758567
 20
112.3734798383
 30
0.0
 40
5.000000000000064
100
AcDbArc
 50
90.5080174073
 51
150.5080174073
  0
LINE
  5
8B
330
1F
100
AcDbEntity
  8
0
  6
Continuous
 62
     7
370
    15
100
AcDbLine
 10
150.7643758745
 20
63.5984849285
 30
0.0
 11
146.0764053704
 21
63.5984849285
 31
0.0
  0
LINE
  5
8C
330
1F
100
AcDbEntity
  8
0
  6
Continuous
 62
     7
370
    15
100
AcDbLine
 10
146.0764053704
 20
63.5984849285
 30
0.0
 11
146.0764053704
 21
143.7234815311
 31
0.0
  0
LINE
  5
8D
330
1F
100
AcDbEntity
  8
0
  6
Continuous
 62
     7
370
    15
100
AcDbLine
 10
146.0764053704
 20
143.7234815311
 30
0.0
 11
150.7643758745
 21
143.7234815311
 31
0.0
  0
SPLINE
  5
8E
330
1F
100
AcDbEntity
  8
0
  6
Continuous
 62
     7
370
    15
100
AcDbSpline
210
0.0
220
0.0
230
1.0
 70
     8
 71
     3
 72
     8
 73
     4
 74
     0
 42
0.00000001
 43
0.00000001
 40
0.0
 40
0.0
 40
0.0
 40
0.0
 40
1.0
 40
1.0
 40
1.0
 40
1.0
 10
146.0764048775783
 20
63.59848624527456
 30
0.0
 10
145.625300148178
 20
64.39944617709448
 30
0.0
 10
145.1746023209347
 20
65.20063618865512
 30
0.0
 10
144.7243758566569
 20
66.00209155127989
 30
0.0
  0
LINE
  5
8F
330
1F
100
AcDbEntity
  8
0
  6
Continuous
 62
     7
370
    15
100
AcDbLine
 10
144.7243764491
 20
66.0020906579
 30
0.0
 11
144.7243764491
 21
143.7234815311
 31
0.0
  0
SPLINE
  5
90
330
1F
100
AcDbEntity
  8
0
  6
Continuous
 62
     7
370
    15
100
AcDbSpline
210
0.0
220
0.0
230
1.0
 70
    24
 71
     3
 72
     8
 73
     4
 74
     0
 42
0.00000001
 43
0.00000001
 40
0.0
 40
0.0
 40
0.0
 40
0.0
 40
1.0
 40
1.0
 40
1.0
 40
1.0
 10
144.7243758566569
 20
143.7234798383033
 30
0.0
 10
145.1685887390108
 20
143.7234798383033
 30
0.0
 10
145.61960330525
 20
143.7234798383033
 30
0.0
 10
146.0764048775783
 20
143.7234798383033
 30
0.0
  0
LINE
  5
91
330
1F
100
AcDbEntity
  8
0
  6
Continuous
 62
     7
370
    15
100
AcDbLine
 10
151.7643760385
 20
64.6241355788
 30
0.0
 11
151.7643760385
 21
143.7234815311
 31
0.0
  0
SPLINE
  5
92
330
1F
100
AcDbEntity
  8
0
  6
Continuous
 62
     7
370
    15
100
AcDbSpline
210
0.0
220
0.0
230
1.0
 70
     8
 71
     3
 72
    14
 73
    10
 74
     0
 42
0.00000001
 43
0.00000001
 40
0.0
 40
0.0
 40
0.0
 40
0.0
 40
0.25
 40
0.25
 40
0.5
 40
0.5
 40
0.75
 40
0.75
 40
1.0
 40
1.0
 40
1.0
 40
1.0
 10
151.7643758566569
 20
64.62413429305006
 30
0.0
 10
151.7643758566569
 20
64.49070859699552
 30
0.0
 10
151.739064756746
 20
64.35886078915118
 30
0.0
 10
151.6407299929013
 20
64.11233824045706
 30
0.0
 10
151.5675859886452
 20
63.99853305221653
 30
0.0
 10
151.3841479275495
 20
63.80807587526925
 30
0.0
 10
151.2724615932109
 20
63.73044101141934
 30
0.0
 10
151.0299581629046
 20
63.62614960130686
 30
0.0
 10
150.8965837342104
 20
63.59848624527451
 30
0.0
 10
150.7643758566569
 20
63.59848624527452
 30
0.0
  0
SPLINE
  5
93
330
1F
100
AcDbEntity
  8
0
  6
Continuous
 62
     7
370
    15
100
AcDbSpline
210
0.0
220
0.0
230
1.0
 70
    24
 71
     3
 72
    12
 73
     8
 74
     0
 42
0.00000001
 43
0.00000001
 40
0.0
 40
0.0
 40
0.0
 40
0.0
 40
0.2500000000000032
 40
0.2500000000000032
 40
0.5000000000000064
 40
0.5000000000000064
 40
1.0
 40
1.0
 40
1.0
 40
1.0
 10
150.7643758566569
 20
143.7234798383033
 30
0.0
 10
150.9164660936019
 20
143.7234798383033
 30
0.0
 10
151.0649253546773
 20
143.7234798383033
 30
0.0
 10
151.322328986943
 20
143.7234798383033
 30
0.0
 10
151.4314337347849
 20
143.7234798383033
 30
0.0
 10
151.6854932111924
 20
143.7234798383033
 30
0.0
 10
151.7643758566569
 20
143.7234798383033
 30
0.0
 10
151.7643758566569
 20
143.7234798383033
 30
0.0
  0
LINE
  5
94
330
1F
100
AcDbEntity
  8
0
  6
Continuous
 62
     7
370
    15
100
AcDbLine
 10
140.9043762328
 20
66.0020906579
 30
0.0
 11
140.9043762328
 21
143.7234815311
 31
0.0
  0
SPLINE
  5
95
330
1F
100
AcDbEntity
  8
0
  6
Continuous
 62
     7
370
    15
100
AcDbSpline
210
0.0
220
0.0
230
1.0
 70
     8
 71
     3
 72
     8
 73
     4
 74
     0
 42
0.00000001
 43
0.00000001
 40
0.0
 40
0.0
 40
0.0
 40
0.0
 40
1.0
 40
1.0
 40
1.0
 40
1.0
 10
140.9043758566569
 20
66.00209155127988
 30
0.0
 10
140.4541493923791
 20
65.20063618865512
 30
0.0
 10
140.0034515651357
 20
64.39944617709445
 30
0.0
 10
139.5523468357355
 20
63.59848624527454
 30
0.0
  0
LINE
  5
96
330
1F
100
AcDbEntity
  8
0
  6
Continuous
 62
     7
370
    15
100
AcDbLine
 10
139.5523473115
 20
63.5984849285
 30
0.0
 11
139.5523473115
 21
143.7234815311
 31
0.0
  0
SPLINE
  5
97
330
1F
100
AcDbEntity
  8
0
  6
Continuous
 62
     7
370
    15
100
AcDbSpline
210
0.0
220
0.0
230
1.0
 70
    24
 71
     3
 72
     8
 73
     4
 74
     0
 42
0.00000001
 43
0.00000001
 40
0.0
 40
0.0
 40
0.0
 40
0.0
 40
1.0
 40
1.0
 40
1.0
 40
1.0
 10
139.5523468357355
 20
143.7234798383033
 30
0.0
 10
140.0091484080637
 20
143.7234798383033
 30
0.0
 10
140.4601629743029
 20
143.7234798383033
 30
0.0
 10
140.9043758566569
 20
143.7234798383033
 30
0.0
  0
LINE
  5
98
330
1F
100
AcDbEntity
  8
0
  6
Continuous
 62
     7
370
    15
100
AcDbLine
 10
122.8143758567
 20
62.8734801065
 30
0.0
 11
122.8143758567
 21
161.8734795701
 31
0.0
  0
LINE
  5
99
330
1F
100
AcDbEntity
  8
0
  6
Continuous
 62
     7
370
    15
100
AcDbLine
 10
127.7643758298
 20
143.7234815311
 30
0.0
 11
139.5523473115
 21
143.7234815311
 31
0.0
  0
LINE
  5
9A
330
1F
100
AcDbEntity
  8
0
  6
Continuous
 62
     7
370
    15
100
AcDbLine
 10
139.5523473115
 20
63.5984849285
 30
0.0
 11
137.7643756063
 21
63.5984849285
 31
0.0
  0
SPLINE
  5
9B
330
1F
100
AcDbEntity
  8
0
  6
Continuous
 62
     7
370
    15
100
AcDbSpline
210
0.0
220
0.0
230
1.0
 70
     8
 71
     3
 72
    30
 73
    26
 74
     0
 42
0.00000001
 43
0.00000001
 40
0.0
 40
0.0
 40
0.0
 40
0.0
 40
0.1250000000000002
 40
0.1250000000000002
 40
0.1875000000000003
 40
0.1875000000000003
 40
0.2500000000000004
 40
0.2500000000000004
 40
0.3750000000000001
 40
0.3750000000000001
 40
0.4374999999999998
 40
0.4374999999999998
 40
0.4999999999999996
 40
0.4999999999999996
 40
0.6249999999999996
 40
0.6249999999999996
 40
0.6874999999999997
 40
0.6874999999999997
 40
0.7499999999999997
 40
0.7499999999999997
 40
0.8124999999999998
 40
0.8124999999999998
 40
0.8749999999999999
 40
0.8749999999999999
 40
1.0
 40
1.0
 40
1.0
 40
1.0
 10
137.7643758566568
 20
63.59848624527456
 30
0.0
 10
137.1016311628118
 20
63.59848624527456
 30
0.0
 10
136.4503753036961
 20
63.58364616868575
 30
0.0
 10
135.4899247654378
 20
63.54127660445613
 30
0.0
 10
135.1725333222049
 20
63.52379850167696
 30
0.0
 10
134.54336982065
 20
63.48247021512465
 30
0.0
 10
134.2312216342083
 20
63.45854494166694
 30
0.0
 10
133.32391433236
 20
63.37973842520003
 30
0.0
 10
132.7504893747188
 20
63.31743240522358
 30
0.0
 10
131.9366125051441
 20
63.21430308498422
 30
0.0
 10
131.6718063085742
 20
63.17811916593772
 30
0.0
 10
131.1648988977599
 20
63.1043243817372
 30
0.0
 10
130.9235047464064
 20
63.06685052296555
 30
0.0
 10
130.2343632742741
 20
62.95413857962581
 30
0.0
 10
129.8213084594098
 20
62.87860248215205
 30
0.0
 10
129.2731536400348
 20
62.77020922513454
 30
0.0
 10
129.1036910326892
 20
62.73513699347127
 30
0.0
 10
128.7956737846738
 20
62.66890153287144
 30
0.0
 10
128.6562937640655
 20
62.63757483611671
 30
0.0
 10
128.4065082514387
 20
62.57916606453578
 30
0.0
 10
128.2961021387848
 20
62.55208282935293
 30
0.0
 10
128.1048442851471
 20
62.50282307473934
 30
0.0
 10
128.0237247668628
 20
62.4805610949317
 30
0.0
 10
127.8295778467544
 20
62.42299418776342
 30
0.0
 10
127.7643758566568
 20
62.39673458297743
 30
0.0
 10
127.7643758566568
 20
62.3834808385034
 30
0.0
  0
LINE
  5
9C
330
1F
100
AcDbEntity
  8
0
  6
Continuous
 62
     7
370
    15
100
AcDbLine
 10
127.7643758298
 20
62.3834814977
 30
0.0
 11
127.7643758298
 21
62.3734790932
 31
0.0
  0
SPLINE
  5
9D
330
1F
100
AcDbEntity
  8
0
  6
Continuous
 62
     7
370
    15
100
AcDbSpline
210
0.0
220
0.0
230
1.0
 70
     8
 71
     3
 72
    17
 73
    13
 74
     0
 42
0.00000001
 43
0.00000001
 40
0.0
 40
0.0
 40
0.0
 40
0.0
 40
0.1043843958185158
 40
0.2118345569819801
 40
0.3162081801235555
 40
0.4235375330682647
 40
0.5292275935501746
 40
0.6379275752951962
 40
0.7444714855043735
 40
0.8541836194561564
 40
0.959308052615968
 40
1.0
 40
1.0
 40
1.0
 40
1.0
 10
137.7643756063173
 20
161.363274986676
 30
0.0
 10
137.2164370658037
 20
161.3686424270088
 30
0.0
 10
136.1044670527294
 20
161.3795349491728
 30
0.0
 10
134.4916117202069
 20
161.4647171329908
 30
0.0
 10
132.9580985694692
 20
161.5910876363223
 30
0.0
 10
131.5670776810949
 20
161.7479915078312
 30
0.0
 10
130.3315605647968
 20
161.9196869052668
 30
0.0
 10
129.3082054189404
 20
162.0850317594768
 30
0.0
 10
128.5078627460815
 20
162.2287360573089
 30
0.0
 10
127.9975311933214
 20
162.3269000532407
 30
0.0
 10
127.757622434862
 20
162.3748213677135
 30
0.0
 10
127.7895413466314
 20
162.3684548596997
 30
0.0
 10
127.7984487318884
 20
162.3666782032765
 30
0.0
  0
LINE
  5
9E
330
1F
100
AcDbEntity
  8
0
  6
Continuous
 62
     7
370
    15
100
AcDbLine
 10
139.5523473115
 20
161.3632749867
 30
0.0
 11
137.7643756063
 21
161.3632749867
 31
0.0
  0
LINE
  5
9F
330
1F
100
AcDbEntity
  8
0
  6
Continuous
 62
     7
370
    15
100
AcDbLine
 10
139.5523473115
 20
151.3244409215
 30
0.0
 11
139.5523473115
 21
161.3632749867
 31
0.0
  0
LINE
  5
A0
330
1F
100
AcDbEntity
  8
0
  6
Continuous
 62
     7
370
    15
100
AcDbLine
 10
137.4723426492
 20
151.3244409215
 30
0.0
 11
139.5523473115
 21
151.3244409215
 31
0.0
  0
SPLINE
  5
A1
330
1F
100
AcDbEntity
  8
0
  6
Continuous
 62
     7
370
    15
100
AcDbSpline
210
0.0
220
0.0
230
1.0
 70
     8
 71
     3
 72
    22
 73
    18
 74
     0
 42
0.00000001
 43
0.00000001
 40
0.0
 40
0.0
 40
0.0
 40
0.0
 40
0.2500000000000002
 40
0.2500000000000002
 40
0.3750000000000003
 40
0.3750000000000003
 40
0.5000000000000004
 40
0.5000000000000004
 40
0.6250000000000004
 40
0.6250000000000004
 40
0.7500000000000004
 40
0.7500000000000004
 40
0.8750000000000004
 40
0.8750000000000004
 40
0.9375000000000002
 40
0.9375000000000002
 40
1.0
 40
1.0
 40
1.0
 40
1.0
 10
127.7643758566568
 20
143.7234798383033
 30
0.0
 10
127.9671008125759
 20
144.742726180168
 30
0.0
 10
128.2818445343713
 20
145.7018343301073
 30
0.0
 10
128.9899000040423
 20
147.0443134076166
 30
0.0
 10
129.2683626342599
 20
147.4785219903566
 30
0.0
 10
129.9071300408971
 20
148.2901497058587
 30
0.0
 10
130.2675437206873
 20
148.6694299987955
 30
0.0
 10
131.0850759526766
 20
149.3723885778165
 30
0.0
 10
131.5462439359637
 20
149.6974173955171
 30
0.0
 10
132.5442341824476
 20
150.262432718908
 30
0.0
 10
133.0839933764398
 20
150.5061363131145
 30
0.0
 10
134.2585863404711
 20
150.9103362407595
 30
0.0
 10
134.870322526463
 20
151.062773433805
 30
0.0
 10
135.8222317513247
 20
151.2181009814137
 30
0.0
 10
136.1454649155854
 20
151.2576057614637
 30
0.0
 10
136.8045280868606
 20
151.3109148821324
 30
0.0
 10
137.1385920974346
 20
151.3244425991903
 30
0.0
 10
137.4723427048362
 20
151.3244425991903
 30
0.0
  0
SPLINE
  5
A2
330
1F
100
AcDbEntity
  8
0
  6
Continuous
 62
     7
370
    15
100
AcDbSpline
210
0.0
220
0.0
230
1.0
 70
     8
 71
     3
 72
    80
 73
    76
 74
     0
 42
0.00000001
 43
0.00000001
 40
-0.0312499999999999
 40
-0.0312499999999999
 40
0.0
 40
0.0
 40
0.0312499999999996
 40
0.0312499999999996
 40
0.0468749999999995
 40
0.0468749999999995
 40
0.0624999999999994
 40
0.0624999999999994
 40
0.093749999999999
 40
0.093749999999999
 40
0.1249999999999987
 40
0.1249999999999987
 40
0.1562499999999983
 40
0.1562499999999983
 40
0.187499999999998
 40
0.187499999999998
 40
0.2187499999999976
 40
0.2187499999999976
 40
0.2499999999999973
 40
0.2499999999999973
 40
0.2812499999999969
 40
0.2812499999999969
 40
0.3124999999999966
 40
0.3124999999999966
 40
0.3281249999999966
 40
0.3281249999999966
 40
0.3437499999999965
 40
0.3437499999999965
 40
0.3749999999999965
 40
0.3749999999999965
 40
0.4062499999999966
 40
0.4062499999999966
 40
0.4218749999999967
 40
0.4218749999999967
 40
0.4374999999999968
 40
0.4374999999999968
 40
0.4687499999999973
 40
0.4687499999999973
 40
0.4999999999999977
 40
0.4999999999999977
 40
0.5312499999999981
 40
0.5312499999999981
 40
0.5624999999999984
 40
0.5624999999999984
 40
0.5937499999999989
 40
0.5937499999999989
 40
0.6249999999999992
 40
0.6249999999999992
 40
0.6562499999999997
 40
0.6562499999999997
 40
0.6875000000000001
 40
0.6875000000000001
 40
0.7031250000000004
 40
0.7031250000000004
 40
0.7187500000000008
 40
0.7187500000000008
 40
0.7500000000000012
 40
0.7500000000000012
 40
0.7812500000000017
 40
0.7812500000000017
 40
0.7968750000000016
 40
0.7968750000000016
 40
0.8125000000000014
 40
0.8125000000000014
 40
0.8437500000000012
 40
0.8437500000000012
 40
0.8750000000000009
 40
0.8750000000000009
 40
0.9062500000000007
 40
0.9062500000000007
 40
0.9375000000000004
 40
0.9375000000000004
 40
0.9687500000000001
 40
0.9687500000000001
 40
1.0
 40
1.0
 40
1.03125
 40
1.03125
 10
132.1449211694332
 20
155.7881093019346
 30
0.0
 10
131.4838305438805
 20
155.7881093019346
 30
0.0
 10
131.1588504146289
 20
155.8043175333167
 30
0.0
 10
130.6793770033825
 20
155.8516821653364
 30
0.0
 10
130.5208951855417
 20
155.871336377227
 30
0.0
 10
130.2066756530374
 20
155.9184475334197
 30
0.0
 10
130.050555369357
 20
155.9460288529144
 30
0.0
 10
129.5965013404004
 20
156.0385646397081
 30
0.0
 10
129.3093979574606
 20
156.1136350733046
 30
0.0
 10
128.7660434014336
 20
156.2888733819152
 30
0.0
 10
128.508939790228
 20
156.3898746797535
 30
0.0
 10
128.0480335352892
 20
156.6072308782144
 30
0.0
 10
127.8411358260743
 20
156.7243952099866
 30
0.0
 10
127.4756105120821
 20
156.9744651342153
 30
0.0
 10
127.3204049899561
 20
157.1054112229743
 30
0.0
 10
127.0709746033564
 20
157.3711461666866
 30
0.0
 10
126.9748846475712
 20
157.5078997599976
 30
0.0
 10
126.8463657983776
 20
157.7819653348365
 30
0.0
 10
126.8145549281998
 20
157.9169054253054
 30
0.0
 10
126.8141982784266
 20
158.1823770623741
 30
0.0
 10
126.8466955306237
 20
158.3142015395154
 30
0.0
 10
126.9743210043381
 20
158.5636511391358
 30
0.0
 10
127.06874940539
 20
158.6820838310637
 30
0.0
 10
127.2566102253756
 20
158.8509530281579
 30
0.0
 10
127.3274382241788
 20
158.9060390232781
 30
0.0
 10
127.482160116144
 20
159.0112918517665
 30
0.0
 10
127.5661365863275
 20
159.0616270805268
 30
0.0
 10
127.8374602559719
 20
159.2062029130648
 30
0.0
 10
128.0440094745742
 20
159.2940644994819
 30
0.0
 10
128.5106196147632
 20
159.4537855924814
 30
0.0
 10
128.7629851843887
 20
159.5230238889485
 30
0.0
 10
129.1688865260674
 20
159.6128112781784
 30
0.0
 10
129.3087871435449
 20
159.6403772402647
 30
0.0
 10
129.5980110787918
 20
159.6908680411909
 30
0.0
 10
129.7478505350811
 20
159.7138314800416
 30
0.0
 10
130.2019671046919
 20
159.7744619964604
 30
0.0
 10
130.5136183234287
 20
159.8045360252563
 30
0.0
 10
131.1546147883411
 20
159.8451256125149
 30
0.0
 10
131.4861424162933
 20
159.855437842731
 30
0.0
 10
132.1389334613648
 20
159.8555134098967
 30
0.0
 10
132.4634696663966
 20
159.845611804429
 30
0.0
 10
133.108739115813
 20
159.8051252739037
 30
0.0
 10
133.4244821219757
 20
159.7746639740191
 30
0.0
 10
134.0263714169594
 20
159.6945133025825
 30
0.0
 10
134.3171206477709
 20
159.6442310707753
 30
0.0
 10
134.8640324394554
 20
159.5235608880024
 30
0.0
 10
135.1158098032923
 20
159.4543370288323
 30
0.0
 10
135.5771977959135
 20
159.2968853011917
 30
0.0
 10
135.7884670755115
 20
159.2075368265179
 30
0.0
 10
136.1517714278877
 20
159.0142889558171
 30
0.0
 10
136.3055780763305
 20
158.9101609639378
 30
0.0
 10
136.4941975459279
 20
158.7415365777543
 30
0.0
 10
136.550228032137
 20
158.6829081760794
 30
0.0
 10
136.6458017938732
 20
158.5634532612532
 30
0.0
 10
136.6855647108982
 20
158.502533472415
 30
0.0
 10
136.7813364612103
 20
158.3161287462411
 30
0.0
 10
136.8140593003364
 20
158.187015928446
 30
0.0
 10
136.8146878866655
 20
157.9183590054902
 30
0.0
 10
136.7825017419308
 20
157.7829882647334
 30
0.0
 10
136.6875910400752
 20
157.5794379564975
 30
0.0
 10
136.6481242566762
 20
157.511466032434
 30
0.0
 10
136.5531942579553
 20
157.3753738093031
 30
0.0
 10
136.497437430192
 20
157.3070237090937
 30
0.0
 10
136.3094973122221
 20
157.1063206960516
 30
0.0
 10
136.1561358425059
 20
156.9769324222389
 30
0.0
 10
135.7938716076255
 20
156.728266990189
 30
0.0
 10
135.5830231341596
 20
156.6084573478208
 30
0.0
 10
135.1223531638407
 20
156.3909350602482
 30
0.0
 10
134.8709787842569
 20
156.2918499604122
 30
0.0
 10
134.3250708973588
 20
156.1151774864954
 30
0.0
 10
134.0342483227075
 20
156.0391203983614
 30
0.0
 10
133.4329217079275
 20
155.9162754210084
 30
0.0
 10
133.1184031233151
 20
155.8685692959553
 30
0.0
 10
132.4718216671951
 20
155.8043207608357
 30
0.0
 10
132.1449211694332
 20
155.7881093019346
 30
0.0
 10
131.4838305438805
 20
155.7881093019346
 30
0.0
  0
SPLINE
  5
A3
330
1F
100
AcDbEntity
  8
0
  6
Continuous
 62
     7
370
    15
100
AcDbSpline
210
0.0
220
0.0
230
1.0
 70
     8
 71
     3
 72
    14
 73
    10
 74
     0
 42
0.00000001
 43
0.00000001
 40
0.0
 40
0.0
 40
0.0
 40
0.0
 40
0.25
 40
0.25
 40
0.5
 40
0.5
 40
0.75
 40
0.75
 40
1.0
 40
1.0
 40
1.0
 40
1.0
 10
144.7243758566569
 20
66.91030105590848
 30
0.0
 10
144.7243758566569
 20
67.01734513690286
 30
0.0
 10
144.7042581694987
 20
67.12258027714529
 30
0.0
 10
144.625766980233
 20
67.32043076399299
 30
0.0
 10
144.5676103554319
 20
67.41148252755791
 30
0.0
 10
144.4210950998138
 20
67.56464862148269
 30
0.0
 10
144.3324525511727
 20
67.6269430676921
 30
0.0
 10
144.1367292283724
 20
67.71173685322809
 30
0.0
 10
144.0314980373014
 20
67.73380438025372
 30
0.0
 10
143.9243758566568
 20
67.73380438025373
 30
0.0
  0
SPLINE
  5
A4
330
1F
100
AcDbEntity
  8
0
  6
Continuous
 62
     7
370
    15
100
AcDbSpline
210
0.0
220
0.0
230
1.0
 70
    24
 71
     3
 72
    14
 73
    10
 74
     0
 42
0.00000001
 43
0.00000001
 40
0.0
 40
0.0
 40
0.0
 40
0.0
 40
0.25
 40
0.25
 40
0.5
 40
0.5
 40
0.75
 40
0.75
 40
1.0
 40
1.0
 40
1.0
 40
1.0
 10
143.9243758566568
 20
143.7234798383033
 30
0.0
 10
144.048145621422
 20
143.7234798383033
 30
0.0
 10
144.1725127254289
 20
143.7234798383033
 30
0.0
 10
144.3788691941549
 20
143.7234798383033
 30
0.0
 10
144.4641973375733
 20
143.7234798383033
 30
0.0
 10
144.5963893962885
 20
143.7234798383033
 30
0.0
 10
144.6450346400391
 20
143.7234798383033
 30
0.0
 10
144.7085704317678
 20
143.7234798383033
 30
0.0
 10
144.7243758566569
 20
143.7234798383033
 30
0.0
 10
144.7243758566569
 20
143.7234798383033
 30
0.0
  0
SPLINE
  5
A5
330
1F
100
AcDbEntity
  8
0
  6
Continuous
 62
     7
370
    15
100
AcDbSpline
210
0.0
220
0.0
230
1.0
 70
     8
 71
     3
 72
    12
 73
     8
 74
     0
 42
0.00000001
 43
0.00000001
 40
0.0
 40
0.0
 40
0.0
 40
0.0
 40
0.25
 40
0.25
 40
0.5
 40
0.5
 40
1.0
 40
1.0
 40
1.0
 40
1.0
 10
141.7043758566568
 20
67.73380438025373
 30
0.0
 10
141.5986152033079
 20
67.7338043802537
 30
0.0
 10
141.490627575125
 20
67.7112648742533
 30
0.0
 10
141.2960329098594
 20
67.62669424225801
 30
0.0
 10
141.2071609970205
 20
67.5642125894992
 30
0.0
 10
140.9879687046947
 20
67.33482363802705
 30
0.0
 10
140.9043758566568
 20
67.12224030050466
 30
0.0
 10
140.9043758566568
 20
66.91030105590848
 30
0.0
  0
SPLINE
  5
A6
330
1F
100
AcDbEntity
  8
0
  6
Continuous
 62
     7
370
    15
100
AcDbSpline
210
0.0
220
0.0
230
1.0
 70
    24
 71
     3
 72
    14
 73
    10
 74
     0
 42
0.00000001
 43
0.00000001
 40
0.0
 40
0.0
 40
0.0
 40
0.0
 40
0.25
 40
0.25
 40
0.5
 40
0.5
 40
0.75
 40
0.75
 40
1.0
 40
1.0
 40
1.0
 40
1.0
 10
140.9043758566569
 20
143.7234798383033
 30
0.0
 10
140.9043758566568
 20
143.7234798383033
 30
0.0
 10
140.9200901771228
 20
143.7234798383033
 30
0.0
 10
140.9837741555912
 20
143.7234798383033
 30
0.0
 10
141.0323773500016
 20
143.7234798383033
 30
0.0
 10
141.1650608724272
 20
143.7234798383033
 30
0.0
 10
141.2501629767379
 20
143.7234798383033
 30
0.0
 10
141.4566052116479
 20
143.7234798383033
 30
0.0
 10
141.5806861532709
 20
143.7234798383033
 30
0.0
 10
141.7043758566568
 20
143.7234798383033
 30
0.0
  0
LINE
  5
A7
330
1F
100
AcDbEntity
  8
0
  6
Continuous
 62
     7
370
    15
100
AcDbLine
 10
143.9243759455
 20
67.733803029
 30
0.0
 11
141.7043767364
 21
67.733803029
 31
0.0
  0
LINE
  5
A8
330
1F
100
AcDbEntity
  8
0
  6
Continuous
 62
     7
370
    15
100
AcDbLine
 10
141.7043767364
 20
143.7234815311
 30
0.0
 11
143.9243759455
 21
143.7234815311
 31
0.0
  0
LINE
  5
A9
330
1F
100
AcDbEntity
  8
0
  6
Continuous
 62
     7
370
    15
100
AcDbLine
 10
120.3143759125
 20
74.491230036
 30
0.0
 11
120.3143759125
 21
150.2557296407
 31
0.0
  0
LINE
  5
AA
330
1F
100
AcDbEntity
  8
0
  6
Continuous
 62
     7
370
    15
100
AcDbLine
 10
88.0143753679
 20
76.1094663393
 30
0.0
 11
88.0143753679
 21
78.5041462731
 31
0.0
  0
SPLINE
  5
AB
330
1F
100
AcDbEntity
  8
0
  6
Continuous
 62
     7
370
    15
100
AcDbSpline
210
0.0
220
0.0
230
1.0
 70
     8
 71
     3
 72
    14
 73
    10
 74
     0
 42
0.00000001
 43
0.00000001
 40
0.0
 40
0.0
 40
0.0
 40
0.0
 40
0.25
 40
0.25
 40
0.5
 40
0.5
 40
0.75
 40
0.75
 40
1.0
 40
1.0
 40
1.0
 40
1.0
 10
87.0099533853199
 20
80.20699849455984
 30
0.0
 10
87.09872196326522
 20
80.04846436325188
 30
0.0
 10
87.22043980194414
 20
79.89602168636333
 30
0.0
 10
87.45548941180097
 20
79.5988870625344
 30
0.0
 10
87.57111959801786
 20
79.45420441891704
 30
0.0
 10
87.77152453144568
 20
79.17091521641363
 30
0.0
 10
87.85692482342999
 20
79.03236122337678
 30
0.0
 10
87.97863045714723
 20
78.76097719334324
 30
0.0
 10
88.01437585665987
 20
78.62884132470863
 30
0.0
 10
88.01437585665985
 20
78.50414657293786
 30
0.0
  0
SPLINE
  5
AC
330
1F
100
AcDbEntity
  8
0
  6
Continuous
 62
     7
370
    15
100
AcDbSpline
210
0.0
220
0.0
230
1.0
 70
     8
 71
     3
 72
    14
 73
    10
 74
     0
 42
0.00000001
 43
0.00000001
 40
0.0
 40
0.0
 40
0.0
 40
0.0
 40
0.124999999999999
 40
0.124999999999999
 40
0.249999999999998
 40
0.249999999999998
 40
0.5000000000000007
 40
0.5000000000000007
 40
1.0
 40
1.0
 40
1.0
 40
1.0
 10
86.11437585665685
 20
80.83582843365994
 30
0.0
 10
86.18195815644135
 20
80.84298431876132
 30
0.0
 10
86.25444573418925
 20
80.83855984872231
 30
0.0
 10
86.38673684345518
 20
80.80885369095198
 30
0.0
 10
86.44401422284537
 20
80.78556940937375
 30
0.0
 10
86.59366465004564
 20
80.70808416952342
 30
0.0
 10
86.66737794556714
 20
80.64623234262206
 30
0.0
 10
86.85518592889338
 20
80.46155488997374
 30
0.0
 10
86.93922623525484
 20
80.33331196668253
 30
0.0
 10
87.00995338532111
 20
80.20699849455994
 30
0.0
  0
SPLINE
  5
AD
330
1F
100
AcDbEntity
  8
0
  6
Continuous
 62
     7
370
    15
100
AcDbSpline
210
0.0
220
0.0
230
1.0
 70
     8
 71
     3
 72
     8
 73
     4
 74
     0
 42
0.00000001
 43
0.00000001
 40
0.0
 40
0.0
 40
0.0
 40
0.0
 40
1.0
 40
1.0
 40
1.0
 40
1.0
 10
82.56973546857607
 20
80.41777984886816
 30
0.0
 10
83.73503377928495
 20
80.57296732075478
 30
0.0
 10
84.91964899332476
 20
80.7093259590651
 30
0.0
 10
86.11437585665685
 20
80.83582843365994
 30
0.0
  0
SPLINE
  5
AE
330
1F
100
AcDbEntity
  8
0
  6
Continuous
 62
     7
370
    15
100
AcDbSpline
210
0.0
220
0.0
230
1.0
 70
     8
 71
     3
 72
    14
 73
    10
 74
     0
 42
0.00000001
 43
0.00000001
 40
0.0
 40
0.0
 40
0.0
 40
0.0
 40
0.4999999999999972
 40
0.4999999999999972
 40
0.7499999999999971
 40
0.7499999999999971
 40
0.8749999999999986
 40
0.8749999999999986
 40
1.0
 40
1.0
 40
1.0
 40
1.0
 10
74.81430097262816
 20
80.12764766973824
 30
0.0
 10
76.1226025351619
 20
80.13466239347936
 30
0.0
 10
77.42766190981871
 20
80.15007096992386
 30
0.0
 10
79.37353796130704
 20
80.20396752539052
 30
0.0
 10
80.02023546504604
 20
80.22699908999321
 30
0.0
 10
80.98407782890038
 20
80.27794161486398
 30
0.0
 10
81.30431652083446
 20
80.29767653709716
 30
0.0
 10
81.94101174717687
 20
80.34716366556874
 30
0.0
 10
82.25772715545979
 20
80.37622844449795
 30
0.0
 10
82.5697354685761
 20
80.41777984886811
 30
0.0
  0
SPLINE
  5
AF
330
1F
100
AcDbEntity
  8
0
  6
Continuous
 62
     7
370
    15
100
AcDbSpline
210
0.0
220
0.0
230
1.0
 70
     8
 71
     3
 72
    12
 73
     8
 74
     0
 42
0.00000001
 43
0.00000001
 40
0.0
 40
0.0
 40
0.0
 40
0.0
 40
0.2500000000000009
 40
0.2500000000000009
 40
0.5000000000000018
 40
0.5000000000000018
 40
1.0
 40
1.0
 40
1.0
 40
1.0
 10
81.11437585665686
 20
144.4600027297998
 30
0.0
 10
80.59567703482867
 20
144.492525504648
 30
0.0
 10
80.07396546162369
 20
144.5158222458185
 30
0.0
 10
79.02767344512809
 20
144.5536677602406
 30
0.0
 10
78.50300181945784
 20
144.5679362347367
 30
0.0
 10
76.92615579691861
 20
144.602145722195
 30
0.0
 10
75.87120048237169
 20
144.6136452261389
 30
0.0
 10
74.81430097262647
 20
144.6193120068685
 30
0.0
  0
SPLINE
  5
B0
330
1F
100
AcDbEntity
  8
0
  6
Continuous
 62
     7
370
    15
100
AcDbSpline
210
0.0
220
0.0
230
1.0
 70
     8
 71
     3
 72
    20
 73
    16
 74
     0
 42
0.00000001
 43
0.00000001
 40
0.0
 40
0.0
 40
0.0
 40
0.0
 40
0.2500000000000011
 40
0.2500000000000011
 40
0.5000000000000021
 40
0.5000000000000021
 40
0.7500000000000031
 40
0.7500000000000031
 40
0.8750000000000008
 40
0.8750000000000008
 40
0.9375000000000006
 40
0.9375000000000006
 40
0.9687500000000003
 40
0.9687500000000003
 40
1.0
 40
1.0
 40
1.0
 40
1.0
 10
83.01437585665686
 20
146.1180885752879
 30
0.0
 10
83.01437585665686
 20
145.9824062555412
 30
0.0
 10
82.96566406744023
 20
145.8413192694011
 30
0.0
 10
82.79650264421504
 20
145.5492475506705
 30
0.0
 10
82.67472223029674
 20
145.3975988085801
 30
0.0
 10
82.3771751355472
 20
145.095190368427
 30
0.0
 10
82.20326252984445
 20
144.9426017323037
 30
0.0
 10
81.88384769596261
 20
144.7173309684614
 30
0.0
 10
81.76880692051536
 20
144.6426078739507
 30
0.0
 10
81.56172259649894
 20
144.5431974646937
 30
0.0
 10
81.48561476169256
 20
144.5116323723491
 30
0.0
 10
81.3542202221392
 20
144.4771889881561
 30
0.0
 10
81.30766700313774
 20
144.4681374163885
 30
0.0
 10
81.21133365205704
 20
144.45796176755
 30
0.0
 10
81.16207422870158
 20
144.457012008875
 30
0.0
 10
81.11437585665487
 20
144.4600027297896
 30
0.0
  0
LINE
  5
B1
330
1F
100
AcDbEntity
  8
0
  6
Continuous
 62
     7
370
    15
100
AcDbLine
 10
83.014376411
 20
146.1180869591
 30
0.0
 11
83.014376411
 21
148.3869936418
 31
0.0
  0
SPLINE
  5
B2
330
1F
100
AcDbEntity
  8
0
  6
Continuous
 62
     7
370
    15
100
AcDbSpline
210
0.0
220
0.0
230
1.0
 70
     8
 71
     3
 72
    24
 73
    20
 74
     0
 42
0.00000001
 43
0.00000001
 40
0.0
 40
0.0
 40
0.0
 40
0.0
 40
0.0002934239329635
 40
0.0628079954843725
 40
0.1260453886222317
 40
0.1890746649056576
 40
0.2513200327496127
 40
0.3133304381321615
 40
0.3759158074016681
 40
0.4383740215105411
 40
0.5000631209931454
 40
0.5616593985498132
 40
0.6245050468179062
 40
0.6872231543007362
 40
0.7494953203649202
 40
0.811758388799549
 40
0.8747365576758938
 40
0.937898032705022
 40
1.0
 40
1.0
 40
1.0
 40
1.0
 10
101.3343315066288
 20
75.44223331921461
 30
0.0
 10
101.334136962846
 20
75.44220962195399
 30
0.0
 10
101.2924944665904
 20
75.43713717465158
 30
0.0
 10
101.4375176787632
 20
75.4555784647977
 30
0.0
 10
101.7926349057816
 20
75.49818079356449
 30
0.0
 10
102.3972004594177
 20
75.56629112689085
 30
0.0
 10
103.2036376178234
 20
75.63955644021878
 30
0.0
 10
104.1891147278446
 20
75.7040720435275
 30
0.0
 10
105.3207838692269
 20
75.74263895880678
 30
0.0
 10
106.5430767828893
 20
75.74632826065361
 30
0.0
 10
107.8104059288496
 20
75.70390983425945
 30
0.0
 10
109.0768911719465
 20
75.61565496800795
 30
0.0
 10
110.2930293028073
 20
75.48726936077693
 30
0.0
 10
111.418438728423
 20
75.334621634107
 30
0.0
 10
112.3958569216409
 20
75.17285125274198
 30
0.0
 10
113.1991216021586
 20
75.02031881626556
 30
0.0
 10
113.7876150111901
 20
74.89630517750467
 30
0.0
 10
114.1765217476755
 20
74.81138358635405
 30
0.0
 10
114.2232825640458
 20
74.80065787804597
 30
0.0
 10
114.2464652152251
 20
74.795340384177
 30
0.0
  0
SPLINE
  5
B3
330
1F
100
AcDbEntity
  8
0
  6
Continuous
 62
     7
370
    15
100
AcDbSpline
210
0.0
220
0.0
230
1.0
 70
     8
 71
     3
 72
    41
 73
    37
 74
     0
 42
0.00000001
 43
0.00000001
 40
0.0
 40
0.0
 40
0.0
 40
0.0
 40
0.0619930057521228
 40
0.125434780003805
 40
0.1886508796717336
 40
0.2510246486109843
 40
0.3131658162995061
 40
0.3756581562437795
 40
0.4382226967007958
 40
0.4998044866844433
 40
0.5615163978929774
 40
0.6240683345302142
 40
0.6867257381925739
 40
0.7488365438330932
 40
0.8110686224406419
 40
0.8741742887465523
 40
0.937321279503927
 40
0.9685511676011523
 40
0.9842086839263064
 40
0.9920641174372576
 40
0.9960004855111666
 40
0.9979710789827718
 40
0.9989570084930103
 40
0.9994501352406044
 40
0.9996967397140213
 40
0.9998200522691518
 40
0.9998817111564905
 40
0.9999125412175116
 40
0.9999279564093942
 40
0.9999356640470698
 40
0.9999395178742543
 40
0.9999414447906289
 40
0.9999424082488162
 40
0.9999433717070034
 40
0.9999501690780732
 40
1.0
 40
1.0
 40
1.0
 40
1.0
 10
114.2463441432904
 20
149.9515745889462
 30
0.0
 10
114.2227725523314
 20
149.9462650039027
 30
0.0
 10
114.1750785053916
 20
149.9355217495024
 30
0.0
 10
113.7830354120123
 20
149.8502948643269
 30
0.0
 10
113.1925227668264
 20
149.7257261833673
 30
0.0
 10
112.3884843187563
 20
149.5727772732104
 30
0.0
 10
111.4124095523683
 20
149.4110200705547
 30
0.0
 10
110.290601239426
 20
149.2587866528042
 30
0.0
 10
109.0770696038202
 20
149.1310112983124
 30
0.0
 10
107.8122391723636
 20
149.0431627828368
 30
0.0
 10
106.5441958030185
 20
149.0007747436675
 30
0.0
 10
105.3206884932134
 20
149.0045138151167
 30
0.0
 10
104.1871891806955
 20
149.0431022946045
 30
0.0
 10
103.2010844352544
 20
149.1075487245117
 30
0.0
 10
102.3924550533058
 20
149.181055596656
 30
0.0
 10
101.7958385359099
 20
149.2483691266864
 30
0.0
 10
101.4804463054266
 20
149.2863322204782
 30
0.0
 10
101.3703799908622
 20
149.300131548828
 30
0.0
 10
101.3429616344084
 20
149.3036161633484
 30
0.0
 10
101.3360378205121
 20
149.3044974452772
 30
0.0
 10
101.3342693651476
 20
149.3047205530979
 30
0.0
 10
101.3338093333942
 20
149.3047735982027
 30
0.0
 10
101.3336848745336
 20
149.3047931477407
 30
0.0
 10
101.33365050883
 20
149.3047865081479
 30
0.0
 10
101.3336394031274
 20
149.304794024222
 30
0.0
 10
101.3336359130647
 20
149.3047933584323
 30
0.0
 10
101.3336327578776
 20
149.3047934174374
 30
0.0
 10
101.3336330376155
 20
149.304793412161
 30
0.0
 10
101.3336330124247
 20
149.3047934126996
 30
0.0
 10
101.3336330152429
 20
149.3047934125513
 30
0.0
 10
101.3336330141645
 20
149.3047934127065
 30
0.0
 10
101.3336330154298
 20
149.3047934124922
 30
0.0
 10
101.3336330134148
 20
149.3047934128374
 30
0.0
 10
101.3336330320908
 20
149.3047934096359
 30
0.0
 10
101.3336307939268
 20
149.3047937933208
 30
0.0
 10
101.3336666527579
 20
149.3047876460928
 30
0.0
 10
101.3336982072781
 20
149.3047822367466
 30
0.0
  0
SPLINE
  5
B4
330
1F
100
AcDbEntity
  8
0
  6
Continuous
 62
     7
370
    15
100
AcDbSpline
210
0.0
220
0.0
230
1.0
 70
     8
 71
     3
 72
    26
 73
    22
 74
     0
 42
0.00000001
 43
0.00000001
 40
0.0
 40
0.0
 40
0.0
 40
0.0
 40
0.0197299350779453
 40
0.0782364418309545
 40
0.1478631999243897
 40
0.1984787647445292
 40
0.2446081237927562
 40
0.2862553498043432
 40
0.3234261998296091
 40
0.4149149130659796
 40
0.4985885284430595
 40
0.5838961510744224
 40
0.6133763310587345
 40
0.6433730818956078
 40
0.6738948263268393
 40
0.7507657799801923
 40
0.8494522846963588
 40
0.9013660976961939
 40
0.947961217378902
 40
0.9892404855036382
 40
1.0
 40
1.0
 40
1.0
 40
1.0
 10
175.2702518792341
 20
104.3031161751664
 30
0.0
 10
175.3902070753244
 20
104.3587509692355
 30
0.0
 10
175.8658735022115
 20
104.5793633692648
 30
0.0
 10
176.6937106880927
 20
105.1272717308275
 30
0.0
 10
177.6066412804281
 20
105.899156207796
 30
0.0
 10
178.3467682882887
 20
106.7294677039706
 30
0.0
 10
178.8863148561527
 20
107.4820588805664
 30
0.0
 10
179.3050093762683
 20
108.207099124008
 30
0.0
 10
179.7873791781807
 20
109.2426043795451
 30
0.0
 10
180.2017696940775
 20
110.6210600473301
 30
0.0
 10
180.3689558727569
 20
112.3801431395613
 30
0.0
 10
180.2399125272547
 20
113.7225486811466
 30
0.0
 10
180.0224894181592
 20
114.6732325139536
 30
0.0
 10
179.8484403069816
 20
115.2533939899419
 30
0.0
 10
179.5239247778955
 20
116.1174758366598
 30
0.0
 10
178.8846542613768
 20
117.3477321668167
 30
0.0
 10
177.9268987896477
 20
118.5418612098206
 30
0.0
 10
176.9440436519005
 20
119.4198591229109
 30
0.0
 10
176.1797428844752
 20
119.9579210197333
 30
0.0
 10
175.6118180730221
 20
120.2968614348748
 30
0.0
 10
175.2942487235593
 20
120.4411400798493
 30
0.0
 10
175.2285882325361
 20
120.4709710653937
 30
0.0
  0
SPLINE
  5
B5
330
1F
100
AcDbEntity
  8
0
  6
Continuous
 62
     7
370
    15
100
AcDbSpline
210
0.0
220
0.0
230
1.0
 70
     8
 71
     3
 72
    26
 73
    22
 74
     0
 42
0.00000001
 43
0.00000001
 40
0.0
 40
0.0
 40
0.0
 40
0.0
 40
0.0499150965043646
 40
0.1483535194025942
 40
0.200597266498368
 40
0.24735886949129
 40
0.2886413368070881
 40
0.3244496259759557
 40
0.4144625303454795
 40
0.4999208960323036
 40
0.5836182416101674
 40
0.6133014816340744
 40
0.6438717668453807
 40
0.6753369401450179
 40
0.7259301313844516
 40
0.7844503111892431
 40
0.8509072086949802
 40
0.9043182714463674
 40
0.9514284574152059
 40
0.9922393576288718
 40
1.0
 40
1.0
 40
1.0
 40
1.0
 10
167.3772371800135
 20
120.4326629739321
 30
0.0
 10
167.0763184731815
 20
120.286595313985
 30
0.0
 10
166.181952793478
 20
119.852465102053
 30
0.0
 10
165.1449955756329
 20
118.9794100270683
 30
0.0
 10
164.2660202201765
 20
118.0003735399672
 30
0.0
 10
163.7233692216171
 20
117.2349744562311
 30
0.0
 10
163.3117831628457
 20
116.5157888555742
 30
0.0
 10
162.8413447077919
 20
115.500028212907
 30
0.0
 10
162.4278255999557
 20
114.1306230375199
 30
0.0
 10
162.2597978457486
 20
112.3817141223428
 30
0.0
 10
162.387510767285
 20
111.038618778547
 30
0.0
 10
162.6007926165389
 20
110.0939111123943
 30
0.0
 10
162.7767781987407
 20
109.5029922192069
 30
0.0
 10
163.0422998659484
 20
108.7951893618986
 30
0.0
 10
163.4529611057004
 20
107.9463868264164
 30
0.0
 10
164.0895720452337
 20
106.9578831692945
 30
0.0
 10
164.868791086472
 20
106.0545734056221
 30
0.0
 10
165.701406307109
 20
105.3126592508029
 30
0.0
 10
166.4753887867124
 20
104.7726246055166
 30
0.0
 10
167.0262860790129
 20
104.4454362935727
 30
0.0
 10
167.322226319545
 20
104.3107893499724
 30
0.0
 10
167.3695109279345
 20
104.289275790385
 30
0.0
  0
SPLINE
  5
B6
330
1F
100
AcDbEntity
  8
0
  6
Continuous
 62
     7
370
    15
100
AcDbSpline
210
0.0
220
0.0
230
1.0
 70
     8
 71
     3
 72
    40
 73
    36
 74
     0
 42
0.00000001
 43
0.00000001
 40
-0.0930036339111966
 40
-0.0620474547372537
 40
-0.0308732375291211
 40
0.0
 40
0.0309015844244466
 40
0.0620939485421966
 40
0.0930588603779702
 40
0.1244206753171449
 40
0.1555630231396102
 40
0.1870278543778426
 40
0.2186607762591363
 40
0.2499150785626192
 40
0.2814274177960392
 40
0.312894200817744
 40
0.3443048109650029
 40
0.3756824627030804
 40
0.4068446952624314
 40
0.4380004212473025
 40
0.4692301721015515
 40
0.4999834690625655
 40
0.5307347927987219
 40
0.5620002943974479
 40
0.5931725556674753
 40
0.6243424509759173
 40
0.6556952032358031
 40
0.6870848148917281
 40
0.7185152475316284
 40
0.7500211275141965
 40
0.7709027451713518
 40
0.7917776157319477
 40
0.8130002254594682
 40
0.8444771261786392
 40
0.8756543539010868
 40
0.9069963660888033
 40
0.9379525452627462
 40
0.9691267624708788
 40
0.9999999999999999
 40
1.030901584424446
 40
1.062093948542197
 40
1.09305886037797
 10
173.2457829040128
 20
102.5482843136953
 30
0.0
 10
171.3137681964137
 20
102.358529861498
 30
0.0
 10
169.3814874521454
 20
102.5490237040413
 30
0.0
 10
167.5323115924213
 20
103.1265504238775
 30
0.0
 10
165.8276276608755
 20
104.0492138948816
 30
0.0
 10
164.3487003663868
 20
105.2920787772077
 30
0.0
 10
163.1263645267328
 20
106.8017646992264
 30
0.0
 10
162.2242816182493
 20
108.5343487508549
 30
0.0
 10
161.6504632293577
 20
110.41258765939
 30
0.0
 10
161.4617391611339
 20
112.3744663470568
 30
0.0
 10
161.6472796567985
 20
114.3330664673534
 30
0.0
 10
162.2155642470846
 20
116.2140791413664
 30
0.0
 10
163.1234035181616
 20
117.9443648899212
 30
0.0
 10
164.3463079294521
 20
119.4529273182012
 30
0.0
 10
165.8309082691506
 20
120.6966839328665
 30
0.0
 10
167.5385264865221
 20
121.6150616758054
 30
0.0
 10
169.3876085154781
 20
122.1968072619911
 30
0.0
 10
171.3151851017975
 20
122.3891438483217
 30
0.0
 10
173.2434476795559
 20
122.1961005698613
 30
0.0
 10
175.0932299457268
 20
121.6131743820709
 30
0.0
 10
176.8017801033797
 20
120.6939372842834
 30
0.0
 10
178.2858380773615
 20
119.4494828941737
 30
0.0
 10
179.5074286203577
 20
117.9409156694614
 30
0.0
 10
180.4139917401099
 20
116.2118354283949
 30
0.0
 10
180.9815413114175
 20
114.3322085820095
 30
0.0
 10
181.1460140052377
 20
112.589278647159
 30
0.0
 10
181.0495795393817
 20
111.068837741713
 30
0.0
 10
180.7941638165373
 20
109.7850997078835
 30
0.0
 10
180.3047849020396
 20
108.3414040083035
 30
0.0
 10
179.5011503753366
 20
106.798663744056
 30
0.0
 10
178.2775256635851
 20
105.2895884526042
 30
0.0
 10
176.7978323510369
 20
104.047390025548
 30
0.0
 10
175.0938483921123
 20
103.1255797380255
 30
0.0
 10
173.2457829040128
 20
102.5482843136953
 30
0.0
 10
171.3137681964137
 20
102.358529861498
 30
0.0
 10
169.3814874521454
 20
102.5490237040413
 30
0.0
  0
SPLINE
  5
B7
330
1F
100
AcDbEntity
  8
0
  6
Continuous
 62
     7
370
    15
100
AcDbSpline
210
0.0
220
0.0
230
1.0
 70
     8
 71
     3
 72
    40
 73
    36
 74
     0
 42
0.00000001
 43
0.00000001
 40
-0.0930036339113156
 40
-0.0620474547372771
 40
-0.0308732375296721
 40
0.0
 40
0.0309015844241317
 40
0.0620939485421816
 40
0.0930588603776452
 40
0.1244206753171416
 40
0.1555630231396062
 40
0.1870278543778376
 40
0.218660776259131
 40
0.2499150785626133
 40
0.2814274177954565
 40
0.3128942008177159
 40
0.3443048109646634
 40
0.3756824627030821
 40
0.4068446952626684
 40
0.4380004212472937
 40
0.4692301721015414
 40
0.4999834690625554
 40
0.5307347927987109
 40
0.5620002943974366
 40
0.5931725556679049
 40
0.6243424509759222
 40
0.6556952032362485
 40
0.6870848148917157
 40
0.7185152475303661
 40
0.7500211275141359
 40
0.7709027451712971
 40
0.7917776157318928
 40
0.8130002254595133
 40
0.8444771261802769
 40
0.8756543539011038
 40
0.9069963660886844
 40
0.9379525452627229
 40
0.9691267624703279
 40
1.0
 40
1.030901584424132
 40
1.062093948542182
 40
1.093058860377645
 10
201.245782904026
 20
102.5482843136878
 30
0.0
 10
199.3137681964311
 20
102.3585298614985
 30
0.0
 10
197.3814874521532
 20
102.5490237040454
 30
0.0
 10
195.5323115924333
 20
103.1265504238726
 30
0.0
 10
193.8276276608774
 20
104.0492138948728
 30
0.0
 10
192.348700366392
 20
105.2920787772038
 30
0.0
 10
191.1263645267326
 20
106.801764699226
 30
0.0
 10
190.2242816182492
 20
108.534348750855
 30
0.0
 10
189.6504632293584
 20
110.4125876593899
 30
0.0
 10
189.4617391611322
 20
112.3744663470451
 30
0.0
 10
189.6472796568069
 20
114.3330664673397
 30
0.0
 10
190.2155642470782
 20
116.2140791413487
 30
0.0
 10
191.1234035181444
 20
117.9443648899242
 30
0.0
 10
192.3463079294524
 20
119.4529273181989
 30
0.0
 10
193.8309082691569
 20
120.696683932866
 30
0.0
 10
195.5385264865265
 20
121.615061675808
 30
0.0
 10
197.3876085154782
 20
122.1968072619909
 30
0.0
 10
199.3151851017974
 20
122.3891438483217
 30
0.0
 10
201.2434476795561
 20
122.1961005698618
 30
0.0
 10
203.0932299457344
 20
121.6131743820663
 30
0.0
 10
204.801780103392
 20
120.6939372842852
 30
0.0
 10
206.2858380773748
 20
119.4494828941608
 30
0.0
 10
207.5074286203541
 20
117.9409156694484
 30
0.0
 10
208.4139917401083
 20
116.2118354284115
 30
0.0
 10
208.9815413113904
 20
114.3322085820299
 30
0.0
 10
209.14601400523
 20
112.5892786471851
 30
0.0
 10
209.0495795394135
 20
111.068837741711
 30
0.0
 10
208.794163816568
 20
109.7850997078773
 30
0.0
 10
208.30478490202
 20
108.341404008277
 30
0.0
 10
207.5011503753078
 20
106.7986637440354
 30
0.0
 10
206.277525663567
 20
105.2895884525788
 30
0.0
 10
204.7978323510264
 20
104.0473900255661
 30
0.0
 10
203.093848392126
 20
103.1255797380293
 30
0.0
 10
201.245782904026
 20
102.5482843136878
 30
0.0
 10
199.3137681964311
 20
102.3585298614985
 30
0.0
 10
197.3814874521532
 20
102.5490237040454
 30
0.0
  0
SPLINE
  5
B8
330
1F
100
AcDbEntity
  8
0
  6
Continuous
 62
     7
370
    15
100
AcDbSpline
210
0.0
220
0.0
230
1.0
 70
     8
 71
     3
 72
    68
 73
    64
 74
     0
 42
0.00000001
 43
0.00000001
 40
-0.0312499999999994
 40
-0.0312499999999994
 40
0.0
 40
0.0
 40
0.0312500000000001
 40
0.0312500000000001
 40
0.0625000000000002
 40
0.0625000000000002
 40
0.0937500000000003
 40
0.0937500000000003
 40
0.1250000000000004
 40
0.1250000000000004
 40
0.1562500000000006
 40
0.1562500000000006
 40
0.1875000000000007
 40
0.1875000000000007
 40
0.2187500000000008
 40
0.2187500000000008
 40
0.2500000000000009
 40
0.2500000000000009
 40
0.281250000000001
 40
0.281250000000001
 40
0.3125000000000011
 40
0.3125000000000011
 40
0.3437500000000012
 40
0.3437500000000012
 40
0.3750000000000013
 40
0.3750000000000013
 40
0.4062500000000014
 40
0.4062500000000014
 40
0.4375000000000016
 40
0.4375000000000016
 40
0.4687500000000017
 40
0.4687500000000017
 40
0.5000000000000018
 40
0.5000000000000018
 40
0.5312500000000019
 40
0.5312500000000019
 40
0.562500000000002
 40
0.562500000000002
 40
0.6250000000000021
 40
0.6250000000000021
 40
0.6562500000000022
 40
0.6562500000000022
 40
0.6875000000000023
 40
0.6875000000000023
 40
0.7187500000000024
 40
0.7187500000000024
 40
0.7500000000000026
 40
0.7500000000000026
 40
0.7812500000000027
 40
0.7812500000000027
 40
0.8125000000000028
 40
0.8125000000000028
 40
0.8437500000000023
 40
0.8437500000000023
 40
0.8750000000000019
 40
0.8750000000000019
 40
0.9062500000000014
 40
0.9062500000000014
 40
0.937500000000001
 40
0.937500000000001
 40
0.9687500000000006
 40
0.9687500000000006
 40
1.0
 40
1.0
 40
1.03125
 40
1.03125
 10
154.5113940844621
 20
127.9882527545463
 30
0.0
 10
154.821968492707
 20
128.2758246263017
 30
0.0
 10
154.9903424115662
 20
128.403032175331
 30
0.0
 10
155.3511702085716
 20
128.6274071605442
 30
0.0
 10
155.5455529716186
 20
128.7252524197123
 30
0.0
 10
155.9495322458392
 20
128.886666408848
 30
0.0
 10
156.1575877904569
 20
128.950051486953
 30
0.0
 10
156.5854086090756
 20
129.0436827124155
 30
0.0
 10
156.8070784091325
 20
129.0738217963792
 30
0.0
 10
157.2470304810767
 20
129.0986056996339
 30
0.0
 10
157.4666130657688
 20
129.0938217736535
 30
0.0
 10
157.9049882774156
 20
129.0497443130714
 30
0.0
 10
158.1246345589164
 20
129.0098564991998
 30
0.0
 10
158.5458728988596
 20
128.8975188107825
 30
0.0
 10
158.749649888751
 20
128.8250273527407
 30
0.0
 10
159.1430026901089
 20
128.6458202137854
 30
0.0
 10
159.3321114943863
 20
128.538733101031
 30
0.0
 10
159.6789503215647
 20
128.2976430333007
 30
0.0
 10
159.838950232863
 20
128.1627600599602
 30
0.0
 10
160.1301396648882
 20
127.8617130646719
 30
0.0
 10
160.2589983118532
 20
127.6972626532736
 30
0.0
 10
160.4743049345185
 20
127.350493475809
 30
0.0
 10
160.5625539026119
 20
127.1658597429178
 30
0.0
 10
160.6944341586382
 20
126.7770365556547
 30
0.0
 10
160.7362370460406
 20
126.5788391494189
 30
0.0
 10
160.7723203342882
 20
126.174828038326
 30
0.0
 10
160.7658857131983
 20
125.9665893318918
 30
0.0
 10
160.7045460464439
 20
125.5609938966167
 30
0.0
 10
160.6503392979396
 20
125.3621076260336
 30
0.0
 10
160.4948501861767
 20
124.9723538083121
 30
0.0
 10
160.395214187391
 20
124.7862672126898
 30
0.0
 10
160.1582700268366
 20
124.4367534177394
 30
0.0
 10
160.0187456487864
 20
124.2708093527126
 30
0.0
 10
159.7112255785233
 20
123.9707019055062
 30
0.0
 10
159.543247876367
 20
123.8356846048833
 30
0.0
 10
159.1797884673588
 20
123.5950812963659
 30
0.0
 10
158.9852202534058
 20
123.4906149396397
 30
0.0
 10
158.383127222695
 20
123.2325475930294
 30
0.0
 10
157.9442735416206
 20
123.1295357212474
 30
0.0
 10
157.2860617988255
 20
123.0889367781152
 30
0.0
 10
157.0633799879101
 20
123.0939171308308
 30
0.0
 10
156.6227257690978
 20
123.1416381846528
 30
0.0
 10
156.4073229652205
 20
123.1837800782108
 30
0.0
 10
155.9862271983129
 20
123.3039849210335
 30
0.0
 10
155.7784868325697
 20
123.3831188968209
 30
0.0
 10
155.3846973174042
 20
123.5748295385391
 30
0.0
 10
155.1992731835731
 20
123.6865595403666
 30
0.0
 10
154.8517454939053
 20
123.941982258495
 30
0.0
 10
154.6880258674712
 20
124.0876862007809
 30
0.0
 10
154.3983561357498
 20
124.4018700127711
 30
0.0
 10
154.2713831879638
 20
124.5704230613816
 30
0.0
 10
154.0547359292468
 20
124.9311054900464
 30
0.0
 10
153.9652213015111
 20
125.1246068755864
 30
0.0
 10
153.8350084564451
 20
125.5167096310537
 30
0.0
 10
153.7926598736053
 20
125.7174768199799
 30
0.0
 10
153.7562022685926
 20
126.1288510640844
 30
0.0
 10
153.76287735598
 20
126.3334151814674
 30
0.0
 10
153.8240091375433
 20
126.734422366306
 30
0.0
 10
153.8795639941769
 20
126.9340997860963
 30
0.0
 10
154.0343292283274
 20
127.3118555358143
 30
0.0
 10
154.1330486321388
 20
127.4909076866864
 30
0.0
 10
154.3721505751802
 20
127.8301918663147
 30
0.0
 10
154.5113940844621
 20
127.9882527545463
 30
0.0
 10
154.821968492707
 20
128.2758246263017
 30
0.0
  0
SPLINE
  5
B9
330
1F
100
AcDbEntity
  8
0
  6
Continuous
 62
     7
370
    15
100
AcDbSpline
210
0.0
220
0.0
230
1.0
 70
     8
 71
     3
 72
    70
 73
    66
 74
     0
 42
0.00000001
 43
0.00000001
 40
-0.03125
 40
-0.03125
 40
0.0
 40
0.0
 40
0.03125
 40
0.03125
 40
0.0625
 40
0.0625
 40
0.09375
 40
0.09375
 40
0.125
 40
0.125
 40
0.15625
 40
0.15625
 40
0.1875
 40
0.1875
 40
0.21875
 40
0.21875
 40
0.25
 40
0.25
 40
0.28125
 40
0.28125
 40
0.3125
 40
0.3125
 40
0.34375
 40
0.34375
 40
0.375
 40
0.375
 40
0.40625
 40
0.40625
 40
0.4375
 40
0.4375
 40
0.46875
 40
0.46875
 40
0.5
 40
0.5
 40
0.53125
 40
0.53125
 40
0.5625
 40
0.5625
 40
0.59375
 40
0.59375
 40
0.625
 40
0.625
 40
0.65625
 40
0.65625
 40
0.6875
 40
0.6875
 40
0.71875
 40
0.71875
 40
0.75
 40
0.75
 40
0.78125
 40
0.78125
 40
0.8125
 40
0.8125
 40
0.84375
 40
0.84375
 40
0.875
 40
0.875
 40
0.90625
 40
0.90625
 40
0.9375
 40
0.9375
 40
0.96875
 40
0.96875
 40
1.0
 40
1.0
 40
1.03125
 40
1.03125
 10
154.5373222178972
 20
78.38515136946717
 30
0.0
 10
154.2679195258589
 20
78.5039272646997
 30
0.0
 10
154.1531478868152
 20
78.56821943097944
 30
0.0
 10
153.9641841171421
 20
78.70773005094969
 30
0.0
 10
153.8903122744987
 20
78.78341314236233
 30
0.0
 10
153.7917970532502
 20
78.93992402597569
 30
0.0
 10
153.7658131733218
 20
79.02150563654126
 30
0.0
 10
153.7630532763841
 20
79.19194731997182
 30
0.0
 10
153.7863905160273
 20
79.27770210627597
 30
0.0
 10
153.8799465010721
 20
79.44938809393925
 30
0.0
 10
153.9514830639102
 20
79.53630812441884
 30
0.0
 10
154.1354938769399
 20
79.70272755039176
 30
0.0
 10
154.2478496792727
 20
79.78288259208149
 30
0.0
 10
154.5124730444056
 20
79.93632545486767
 30
0.0
 10
154.6619507266498
 20
80.00784954895177
 30
0.0
 10
154.9885893861685
 20
80.13827351471048
 30
0.0
 10
155.1683619124993
 20
80.1980178331501
 30
0.0
 10
155.5465428340307
 20
80.30146393656118
 30
0.0
 10
155.7444495688159
 20
80.34528708531954
 30
0.0
 10
156.1573184600849
 20
80.41690404962765
 30
0.0
 10
156.3733221897902
 20
80.44460563266962
 30
0.0
 10
156.8063085647786
 20
80.4814344885619
 30
0.0
 10
157.025181915185
 20
80.49097718514788
 30
0.0
 10
157.4677373718868
 20
80.49196186831834
 30
0.0
 10
157.6902136620055
 20
80.48320021200983
 30
0.0
 10
158.1229838595195
 20
80.44820527355704
 30
0.0
 10
158.3353712018001
 20
80.42200829710022
 30
0.0
 10
158.7517829553677
 20
80.35190361171344
 30
0.0
 10
158.9526354110285
 20
80.30838081278928
 30
0.0
 10
159.3300895273677
 20
80.20730579863627
 30
0.0
 10
159.50826343456
 20
80.1495064237805
 30
0.0
 10
159.8417280463179
 20
80.01912716678662
 30
0.0
 10
159.9920581564265
 20
79.94842078960818
 30
0.0
 10
160.2572977657605
 20
79.79819383870503
 30
0.0
 10
160.3735417566312
 20
79.71773672816816
 30
0.0
 10
160.5637253976701
 20
79.55091915896877
 30
0.0
 10
160.6362410799607
 20
79.46619848078166
 30
0.0
 10
160.7358628479834
 20
79.2947509193335
 30
0.0
 10
160.7626050199414
 20
79.20705814763113
 30
0.0
 10
160.7659719579763
 20
79.03809905207945
 30
0.0
 10
160.7435632768615
 20
78.95605403998499
 30
0.0
 10
160.6497484314893
 20
78.79670282395394
 30
0.0
 10
160.5792357137348
 20
78.7214104408517
 30
0.0
 10
160.3962310088776
 20
78.58109194291858
 30
0.0
 10
160.2818223037911
 20
78.51500745699954
 30
0.0
 10
160.0192248250777
 20
78.39588779360464
 30
0.0
 10
159.8711316641647
 20
78.3424490888189
 30
0.0
 10
159.5424318983736
 20
78.246400868263
 30
0.0
 10
159.3633933585616
 20
78.20442522585606
 30
0.0
 10
158.9871419403471
 20
78.13311265472908
 30
0.0
 10
158.7872952287433
 20
78.10323765477509
 30
0.0
 10
158.3719926311847
 20
78.05537424983758
 30
0.0
 10
158.1598572528186
 20
78.03767528128263
 30
0.0
 10
157.726998595186
 20
78.01369229715517
 30
0.0
 10
157.5040655825876
 20
78.00744222327779
 30
0.0
 10
157.0620330122711
 20
78.00678486577482
 30
0.0
 10
156.8430569155107
 20
78.0122291437617
 30
0.0
 10
156.4091599118158
 20
78.0347610138903
 30
0.0
 10
156.1923125540441
 20
78.05213057561721
 30
0.0
 10
155.7783510987612
 20
78.09826947216453
 30
0.0
 10
155.5799079906395
 20
78.12698801770004
 30
0.0
 10
155.2005463709374
 20
78.19682283823985
 30
0.0
 10
155.0186681678524
 20
78.23836084583571
 30
0.0
 10
154.6880196101256
 20
78.33240001492297
 30
0.0
 10
154.5373222178972
 20
78.38515136946717
 30
0.0
 10
154.2679195258589
 20
78.5039272646997
 30
0.0
  0
SPLINE
  5
BA
330
1F
100
AcDbEntity
  8
0
  6
Continuous
 62
     7
370
    15
100
AcDbSpline
210
0.0
220
0.0
230
1.0
 70
     8
 71
     3
 72
    26
 73
    22
 74
     0
 42
0.00000001
 43
0.00000001
 40
0.0
 40
0.0
 40
0.0
 40
0.0
 40
0.019729936500648
 40
0.0782366014330647
 40
0.1478630879784908
 40
0.1984787777097784
 40
0.24460814008434
 40
0.2862552778157412
 40
0.3234262076969477
 40
0.414914927530463
 40
0.4985885663224231
 40
0.5838962126658093
 40
0.613376394775903
 40
0.6433731477758072
 40
0.6738949587919555
 40
0.7507659179883838
 40
0.8494524298207194
 40
0.9013662465639994
 40
0.947961221134059
 40
0.9892406505535357
 40
1.0
 40
1.0
 40
1.0
 40
1.0
 10
203.2702527435015
 20
104.3031161751664
 30
0.0
 10
203.3902078983378
 20
104.358751023638
 30
0.0
 10
203.8658750976957
 20
104.579364073534
 30
0.0
 10
204.6937148258945
 20
105.1272677960141
 30
0.0
 10
205.6066383801594
 20
105.8991600749015
 30
0.0
 10
206.3467690560436
 20
106.7294665120505
 30
0.0
 10
206.8863167068779
 20
107.4820577391348
 30
0.0
 10
207.3050050433272
 20
108.2071010950104
 30
0.0
 10
207.7873835310875
 20
109.2426022432093
 30
0.0
 10
208.201767501323
 20
110.6210608017285
 30
0.0
 10
208.3689636110816
 20
112.3801429759188
 30
0.0
 10
208.2399130617635
 20
113.7225486291
 30
0.0
 10
208.0224901117081
 20
114.6732324213539
 30
0.0
 10
207.8484420468347
 20
115.2533947824157
 30
0.0
 10
207.5239189121794
 20
116.1174742663316
 30
0.0
 10
206.8846528267401
 20
117.3477325718178
 30
0.0
 10
205.9268961398339
 20
118.5418617721125
 30
0.0
 10
204.9440408065345
 20
119.4198573472497
 30
0.0
 10
204.1797432539583
 20
119.9579241465191
 30
0.0
 10
203.6118162438682
 20
120.2968586871462
 30
0.0
 10
203.2942482956275
 20
120.4411399864928
 30
0.0
 10
203.2285890968035
 20
120.4709710653937
 30
0.0
  0
SPLINE
  5
BB
330
1F
100
AcDbEntity
  8
0
  6
Continuous
 62
     7
370
    15
100
AcDbSpline
210
0.0
220
0.0
230
1.0
 70
     8
 71
     3
 72
    26
 73
    22
 74
     0
 42
0.00000001
 43
0.00000001
 40
0.0
 40
0.0
 40
0.0
 40
0.0
 40
0.0499151076519295
 40
0.1483534102882237
 40
0.2005971690516211
 40
0.2473588881117084
 40
0.2886412739463862
 40
0.3244496480023449
 40
0.4144625194920622
 40
0.4999209042643483
 40
0.5836182511483528
 40
0.6133015787347048
 40
0.6438718183686416
 40
0.6753369343034497
 40
0.7259302165146411
 40
0.7844505082399278
 40
0.8509071826977853
 40
0.9043182573774935
 40
0.9514284538674745
 40
0.9922395219774218
 40
1.0
 40
1.0
 40
1.0
 40
1.0
 10
195.3772343189905
 20
120.4326629739321
 30
0.0
 10
195.0763155740829
 20
120.2865953780418
 30
0.0
 10
194.1819506387613
 20
119.8524657727523
 30
0.0
 10
193.1449952023027
 20
118.97940955323
 30
0.0
 10
192.2660221177382
 20
118.0003720798384
 30
0.0
 10
191.7233646976994
 20
117.2349769404798
 30
0.0
 10
191.3117857412475
 20
116.5157867187012
 30
0.0
 10
190.8413381846912
 20
115.5000309371092
 30
0.0
 10
190.4278275710462
 20
114.1306214377405
 30
0.0
 10
190.2598028084622
 20
112.3817153791425
 30
0.0
 10
190.3874990888933
 20
111.0386161111218
 30
0.0
 10
190.6008002439383
 20
110.0939127480027
 30
0.0
 10
190.7767783004491
 20
109.5029922181925
 30
0.0
 10
191.042295784893
 20
108.7951877770309
 30
0.0
 10
191.4529626543615
 20
107.9463867540842
 30
0.0
 10
192.0895773383283
 20
106.9578866763947
 30
0.0
 10
192.8687878373217
 20
106.0545709264467
 30
0.0
 10
193.7014040766372
 20
105.3126600959868
 30
0.0
 10
194.4753857374809
 20
104.7726221279441
 30
0.0
 10
195.0262861879754
 20
104.4454396218744
 30
0.0
 10
195.3222247340596
 20
104.3107894143027
 30
0.0
 10
195.3695080669115
 20
104.289275790385
 30
0.0
  0
SPLINE
  5
BC
330
1F
100
AcDbEntity
  8
0
  6
Continuous
 62
     7
370
    15
100
AcDbSpline
210
0.0
220
0.0
230
1.0
 70
     8
 71
     3
 72
    20
 73
    16
 74
     0
 42
0.00000001
 43
0.00000001
 40
0.0
 40
0.0
 40
0.0
 40
0.0
 40
0.249999999999986
 40
0.249999999999986
 40
0.3749999999999789
 40
0.3749999999999789
 40
0.4374999999999789
 40
0.4374999999999789
 40
0.4999999999999789
 40
0.4999999999999789
 40
0.6249999999999835
 40
0.6249999999999835
 40
0.7499999999999879
 40
0.7499999999999879
 40
1.0
 40
1.0
 40
1.0
 40
1.0
 10
73.20519008837287
 20
81.69499668560265
 30
0.0
 10
73.23146230558628
 20
81.71431462668512
 30
0.0
 10
73.26214244784111
 20
81.7287033377869
 30
0.0
 10
73.33361331822304
 20
81.72179897595089
 30
0.0
 10
73.36164035526738
 20
81.71463297260247
 30
0.0
 10
73.41672394476488
 20
81.68493394589888
 30
0.0
 10
73.4376152733173
 20
81.67146030333754
 30
0.0
 10
73.48282392076277
 20
81.63626203782152
 30
0.0
 10
73.50722813315834
 20
81.61435380909427
 30
0.0
 10
73.57856045120978
 20
81.54222894909871
 30
0.0
 10
73.62045723603006
 20
81.48988840814866
 30
0.0
 10
73.69203319488594
 20
81.39240501624792
 30
0.0
 10
73.72286118470322
 20
81.3456512463695
 30
0.0
 10
73.8059611175388
 20
81.21235803053038
 30
0.0
 10
73.8508160229091
 20
81.12972063261518
 30
0.0
 10
73.89092809836167
 20
81.05061373782439
 30
0.0
  0
SPLINE
  5
BD
330
1F
100
AcDbEntity
  8
0
  6
Continuous
 62
     7
370
    15
100
AcDbSpline
210
0.0
220
0.0
230
1.0
 70
     8
 71
     3
 72
    14
 73
    10
 74
     0
 42
0.00000001
 43
0.00000001
 40
0.0
 40
0.0
 40
0.0
 40
0.0
 40
0.25
 40
0.25
 40
0.5
 40
0.5
 40
0.75
 40
0.75
 40
1.0
 40
1.0
 40
1.0
 40
1.0
 10
72.91437585665686
 20
81.87081009573544
 30
0.0
 10
72.91437585665687
 20
81.82956316471109
 30
0.0
 10
72.92298557303812
 20
81.79265619242861
 30
0.0
 10
72.95407175260846
 20
81.7317561325292
 30
0.0
 10
72.97646130609252
 20
81.70757521298951
 30
0.0
 10
73.03120523726864
 20
81.67360762210625
 30
0.0
 10
73.06365547685382
 20
81.66368753813806
 30
0.0
 10
73.13365699158189
 20
81.66233632923321
 30
0.0
 10
73.17186749170443
 20
81.67049460592938
 30
0.0
 10
73.20519008837752
 20
81.69499668559746
 30
0.0
  0
LINE
  5
BE
330
1F
100
AcDbEntity
  8
0
  6
Continuous
 62
     7
370
    15
100
AcDbLine
 10
72.9143768044
 20
81.8708103251
 30
0.0
 11
72.9143768044
 21
142.8761493515
 31
0.0
  0
SPLINE
  5
BF
330
1F
100
AcDbEntity
  8
0
  6
Continuous
 62
     7
370
    15
100
AcDbSpline
210
0.0
220
0.0
230
1.0
 70
     8
 71
     3
 72
     9
 73
     5
 74
     0
 42
0.00000001
 43
0.00000001
 40
0.0
 40
0.0
 40
0.0
 40
0.0
 40
0.0592942499244465
 40
1.0
 40
1.0
 40
1.0
 40
1.0
 10
73.20519159152015
 20
143.0519625645197
 30
0.0
 10
73.20030859382138
 20
143.0552557042174
 30
0.0
 10
73.11795663380877
 20
143.1107946426805
 30
0.0
 10
73.05182597939347
 20
143.0535024395678
 30
0.0
 10
72.98961649252875
 20
142.9996073346651
 30
0.0
  0
SPLINE
  5
C0
330
1F
100
AcDbEntity
  8
0
  6
Continuous
 62
     7
370
    15
100
AcDbSpline
210
0.0
220
0.0
230
1.0
 70
     8
 71
     3
 72
     8
 73
     4
 74
     0
 42
0.00000001
 43
0.00000001
 40
0.0
 40
0.0
 40
0.0
 40
0.0
 40
1.0
 40
1.0
 40
1.0
 40
1.0
 10
72.93800952559307
 20
142.983729081941
 30
0.0
 10
72.92266048695703
 20
142.953219026945
 30
0.0
 10
72.91437585665686
 20
142.9169074714327
 30
0.0
 10
72.91437585665686
 20
142.8761495808713
 30
0.0
  0
SPLINE
  5
C1
330
1F
100
AcDbEntity
  8
0
  6
Continuous
 62
     7
370
    15
100
AcDbSpline
210
0.0
220
0.0
230
1.0
 70
     8
 71
     3
 72
    20
 73
    16
 74
     0
 42
0.00000001
 43
0.00000001
 40
0.0
 40
0.0
 40
0.0
 40
0.0
 40
0.2500000000000037
 40
0.2500000000000037
 40
0.3750000000000055
 40
0.3750000000000055
 40
0.5000000000000073
 40
0.5000000000000073
 40
0.5625000000000057
 40
0.5625000000000057
 40
0.625000000000004
 40
0.625000000000004
 40
0.7500000000000027
 40
0.7500000000000027
 40
1.0
 40
1.0
 40
1.0
 40
1.0
 10
73.89092809835928
 20
143.6963459387815
 30
0.0
 10
73.85093188053546
 20
143.6174675322241
 30
0.0
 10
73.8058182526978
 20
143.5343378855326
 30
0.0
 10
73.72256403833127
 20
143.4008492211816
 30
0.0
 10
73.69234470971077
 20
143.3549841652996
 30
0.0
 10
73.62025647456935
 20
143.2567926128948
 30
0.0
 10
73.57833915715825
 20
143.2044827933712
 30
0.0
 10
73.50708855260679
 20
143.1324768906367
 30
0.0
 10
73.48285274022747
 20
143.1107066783351
 30
0.0
 10
73.43725455004282
 20
143.0752320200061
 30
0.0
 10
73.41645206044312
 20
143.0618618358285
 30
0.0
 10
73.361511062024
 20
143.0322919236933
 30
0.0
 10
73.33344207393719
 20
143.0251654013913
 30
0.0
 10
73.26293924387436
 20
143.0182910299087
 30
0.0
 10
73.23151515608347
 20
143.0326061889958
 30
0.0
 10
73.20519008837488
 20
143.0519629910064
 30
0.0
  0
SPLINE
  5
C2
330
1F
100
AcDbEntity
  8
0
  6
Continuous
 62
     7
370
    15
100
AcDbSpline
210
0.0
220
0.0
230
1.0
 70
     8
 71
     3
 72
    10
 73
     6
 74
     0
 42
0.00000001
 43
0.00000001
 40
0.0
 40
0.0
 40
0.0
 40
0.0
 40
0.4999999999999989
 40
0.4999999999999989
 40
1.0
 40
1.0
 40
1.0
 40
1.0
 10
74.56437585665687
 20
144.6217650401234
 30
0.0
 10
74.43948758590668
 20
144.4907687620519
 30
0.0
 10
74.31803746784622
 20
144.3470559253869
 30
0.0
 10
74.08845349288879
 20
144.0364856326977
 30
0.0
 10
73.97817851749281
 20
143.8684165596346
 30
0.0
 10
73.89092809835928
 20
143.6963459387815
 30
0.0
  0
SPLINE
  5
C3
330
1F
100
AcDbEntity
  8
0
  6
Continuous
 62
     7
370
    15
100
AcDbSpline
210
0.0
220
0.0
230
1.0
 70
     8
 71
     3
 72
     8
 73
     4
 74
     0
 42
0.00000001
 43
0.00000001
 40
0.0
 40
0.0
 40
0.0
 40
0.0
 40
1.0
 40
1.0
 40
1.0
 40
1.0
 10
74.81430097262259
 20
144.6193120068679
 30
0.0
 10
74.72728294277424
 20
144.619778571655
 30
0.0
 10
74.6443289163943
 20
144.6208185912312
 30
0.0
 10
74.56437585665455
 20
144.6217650401234
 30
0.0
  0
SPLINE
  5
C4
330
1F
100
AcDbEntity
  8
0
  6
Continuous
 62
     7
370
    15
100
AcDbSpline
210
0.0
220
0.0
230
1.0
 70
     8
 71
     3
 72
     8
 73
     4
 74
     0
 42
0.00000001
 43
0.00000001
 40
0.0
 40
0.0
 40
0.0
 40
0.0
 40
1.0
 40
1.0
 40
1.0
 40
1.0
 10
74.56437585665455
 20
80.12519463648329
 30
0.0
 10
74.64432891639483
 20
80.12614108537555
 30
0.0
 10
74.7272829427753
 20
80.12718110495167
 30
0.0
 10
74.81430097262428
 20
80.12764766973875
 30
0.0
  0
SPLINE
  5
C5
330
1F
100
AcDbEntity
  8
0
  6
Continuous
 62
     7
370
    15
100
AcDbSpline
210
0.0
220
0.0
230
1.0
 70
     8
 71
     3
 72
    10
 73
     6
 74
     0
 42
0.00000001
 43
0.00000001
 40
0.0
 40
0.0
 40
0.0
 40
0.0
 40
0.4999999999999989
 40
0.4999999999999989
 40
1.0
 40
1.0
 40
1.0
 40
1.0
 10
73.89092809835836
 20
81.05061373782696
 30
0.0
 10
73.97817851749183
 20
80.87854311697359
 30
0.0
 10
74.088453492888
 20
80.71047404391015
 30
0.0
 10
74.31803746784583
 20
80.39990375122034
 30
0.0
 10
74.43948758590646
 20
80.25619091455506
 30
0.0
 10
74.56437585665687
 20
80.12519463648334
 30
0.0
  0
LWPOLYLINE
  5
C6
330
1F
100
AcDbEntity
  8
0
  6
Continuous
 62
     7
370
    15
100
AcDbPolyline
 90
       22
 70
   128
 43
0.0
 10
157.264374146
 20
123.6194420707
 10
158.0012626441
 20
123.7220551919
 10
158.6726754399
 20
124.0207778391
 10
159.2189557345
 20
124.4890673187
 10
159.5915592702
 20
125.0853130695
 10
159.7573868425
 20
125.7565368068
 10
159.7016974778
 20
126.4430975642
 10
159.4294383617
 20
127.0839899879
 10
158.9648089798
 20
127.6222702216
 10
158.3490855487
 20
128.010108332
 10
157.6369814069
 20
128.2130416583
 10
156.8917706104
 20
128.2130416583
 10
156.1796664686
 20
128.010108332
 10
155.5639430375
 20
127.6222702216
 10
155.0993136556
 20
127.0839899879
 10
154.8270545395
 20
126.4430975642
 10
154.7713651748
 20
125.7565368068
 10
154.9371927471
 20
125.0853130695
 10
155.3097962828
 20
124.4890673187
 10
155.8560765774
 20
124.0207778391
 10
156.5274893732
 20
123.7220551919
 10
157.264374146
 20
123.6194420707
  0
SPLINE
  5
C7
330
1F
100
AcDbEntity
  8
0
  6
Continuous
 62
     7
370
    15
100
AcDbSpline
210
0.0
220
0.0
230
1.0
 70
     8
 71
     3
 72
     8
 73
     4
 74
     0
 42
0.00000001
 43
0.00000001
 40
0.0
 40
0.0
 40
0.0
 40
0.0
 40
1.0
 40
1.0
 40
1.0
 40
1.0
 10
139.5523468357355
 20
151.3244425991903
 30
0.0
 10
140.009273189535
 20
150.308524629516
 30
0.0
 10
140.460478831338
 20
149.2897288004249
 30
0.0
 10
140.9043758566569
 20
148.2689273444412
 30
0.0
  0
LINE
  5
C8
330
1F
100
AcDbEntity
  8
0
  6
Continuous
 62
     7
370
    15
100
AcDbLine
 10
140.9043762328
 20
148.2689280164
 30
0.0
 11
140.9043762328
 21
147.0877166938
 31
0.0
  0
SPLINE
  5
C9
330
1F
100
AcDbEntity
  8
0
  6
Continuous
 62
     7
370
    15
100
AcDbSpline
210
0.0
220
0.0
230
1.0
 70
     8
 71
     3
 72
    14
 73
    10
 74
     0
 42
0.00000001
 43
0.00000001
 40
0.0
 40
0.0
 40
0.0
 40
0.0
 40
0.25
 40
0.25
 40
0.5
 40
0.5
 40
0.75
 40
0.75
 40
1.0
 40
1.0
 40
1.0
 40
1.0
 10
140.9043758566568
 20
147.0877150308004
 30
0.0
 10
140.9043758566569
 20
146.9638481540112
 30
0.0
 10
140.9202349842844
 20
146.8395884771737
 30
0.0
 10
140.9835966298043
 20
146.6019801147678
 30
0.0
 10
141.0321863378537
 20
146.4851997300154
 30
0.0
 10
141.1644719426286
 20
146.2763972014064
 30
0.0
 10
141.2497967338891
 20
146.1818864978137
 30
0.0
 10
141.4566879821953
 20
146.0439296970115
 30
0.0
 10
141.5806559280853
 20
146.0020112513758
 30
0.0
 10
141.7043758566568
 20
146.0020112513758
 30
0.0
  0
LINE
  5
CA
330
1F
100
AcDbEntity
  8
0
  6
Continuous
 62
     7
370
    15
100
AcDbLine
 10
141.7043767364
 20
146.0020106386
 30
0.0
 11
143.9243759455
 21
146.0020106386
 31
0.0
  0
SPLINE
  5
CB
330
1F
100
AcDbEntity
  8
0
  6
Continuous
 62
     7
370
    15
100
AcDbSpline
210
0.0
220
0.0
230
1.0
 70
     8
 71
     3
 72
    12
 73
     8
 74
     0
 42
0.00000001
 43
0.00000001
 40
0.0
 40
0.0
 40
0.0
 40
0.0
 40
0.250000000000002
 40
0.250000000000002
 40
0.500000000000004
 40
0.500000000000004
 40
1.0
 40
1.0
 40
1.0
 40
1.0
 10
143.9243758566568
 20
146.0020112513758
 30
0.0
 10
144.0480768066368
 20
146.0020112513758
 30
0.0
 10
144.172173418907
 20
146.0440048631084
 30
0.0
 10
144.378828581994
 20
146.1818001897528
 30
0.0
 10
144.4638693487209
 20
146.2757737882176
 30
0.0
 10
144.6633479171945
 20
146.5905619944386
 30
0.0
 10
144.7243758566569
 20
146.8408009866662
 30
0.0
 10
144.7243758566569
 20
147.0877150308004
 30
0.0
  0
LINE
  5
CC
330
1F
100
AcDbEntity
  8
0
  6
Continuous
 62
     7
370
    15
100
AcDbLine
 10
144.7243764491
 20
147.0877166938
 30
0.0
 11
144.7243764491
 21
148.2689280164
 31
0.0
  0
SPLINE
  5
CD
330
1F
100
AcDbEntity
  8
0
  6
Continuous
 62
     7
370
    15
100
AcDbSpline
210
0.0
220
0.0
230
1.0
 70
     8
 71
     3
 72
     8
 73
     4
 74
     0
 42
0.00000001
 43
0.00000001
 40
0.0
 40
0.0
 40
0.0
 40
0.0
 40
1.0
 40
1.0
 40
1.0
 40
1.0
 10
144.7243758566569
 20
148.2689273444412
 30
0.0
 10
145.1685258676824
 20
149.2903105753928
 30
0.0
 10
145.6196001779403
 20
150.3087951121612
 30
0.0
 10
146.0764048775782
 20
151.3244425991903
 30
0.0
  0
LINE
  5
CE
330
1F
100
AcDbEntity
  8
0
  6
Continuous
 62
     7
370
    15
100
AcDbLine
 10
146.0764053704
 20
151.3244409215
 30
0.0
 11
150.7643758745
 21
151.3244409215
 31
0.0
  0
SPLINE
  5
CF
330
1F
100
AcDbEntity
  8
0
  6
Continuous
 62
     7
370
    15
100
AcDbSpline
210
0.0
220
0.0
230
1.0
 70
     8
 71
     3
 72
    16
 73
    12
 74
     0
 42
0.00000001
 43
0.00000001
 40
0.0
 40
0.0
 40
0.0
 40
0.0
 40
0.1249999999999978
 40
0.1249999999999978
 40
0.2499999999999955
 40
0.2499999999999955
 40
0.499999999999997
 40
0.499999999999997
 40
0.7499999999999984
 40
0.7499999999999984
 40
1.0
 40
1.0
 40
1.0
 40
1.0
 10
150.7643758566569
 20
151.3244425991903
 30
0.0
 10
150.840013563068
 20
151.3244425991903
 30
0.0
 10
150.9163292274863
 20
151.3130975990554
 30
0.0
 10
151.0607399653782
 20
151.2704450484168
 30
0.0
 10
151.1291864144866
 20
151.239510723734
 30
0.0
 10
151.3241176670998
 20
151.1202543519664
 30
0.0
 10
151.4319588408807
 20
151.0101023383458
 30
0.0
 10
151.6006715890927
 20
150.7619662526877
 30
0.0
 10
151.6630360018162
 20
150.621623928684
 30
0.0
 10
151.7443399263246
 20
150.3333522371954
 30
0.0
 10
151.7643758566569
 20
150.1825472642156
 30
0.0
 10
151.7643758566569
 20
150.0321773728703
 30
0.0
  0
LINE
  5
D0
330
1F
100
AcDbEntity
  8
0
  6
Continuous
 62
     7
370
    15
100
AcDbLine
 10
151.7643760385
 20
150.0321786951
 30
0.0
 11
151.7643760385
 21
143.7234815311
 31
0.0
  0
SPLINE
  5
D1
330
1F
100
AcDbEntity
  8
0
  6
Continuous
 62
     7
370
    15
100
AcDbSpline
210
0.0
220
0.0
230
1.0
 70
     8
 71
     3
 72
     8
 73
     4
 74
     0
 42
0.00000001
 43
0.00000001
 40
0.0
 40
0.0
 40
0.0
 40
0.0
 40
1.0
 40
1.0
 40
1.0
 40
1.0
 10
140.9043758566569
 20
158.9707506990082
 30
0.0
 10
140.4540676209723
 20
159.7684658241219
 30
0.0
 10
140.0033738044487
 20
160.5659641237791
 30
0.0
 10
139.5523468357355
 20
161.3632746939669
 30
0.0
  0
LINE
  5
D2
330
1F
100
AcDbEntity
  8
0
  6
Continuous
 62
     7
370
    15
100
AcDbLine
 10
140.9043762328
 20
148.2689280164
 30
0.0
 11
140.9043762328
 21
158.970751996
 31
0.0
  0
LINE
  5
D3
330
1F
100
AcDbEntity
  8
0
  6
Continuous
 62
     7
370
    15
100
AcDbLine
 10
150.7643758745
 20
161.3632749867
 30
0.0
 11
146.0764053704
 21
161.3632749867
 31
0.0
  0
LINE
  5
D4
330
1F
100
AcDbEntity
  8
0
  6
Continuous
 62
     7
370
    15
100
AcDbLine
 10
146.0764053704
 20
151.3244409215
 30
0.0
 11
146.0764053704
 21
161.3632749867
 31
0.0
  0
SPLINE
  5
D5
330
1F
100
AcDbEntity
  8
0
  6
Continuous
 62
     7
370
    15
100
AcDbSpline
210
0.0
220
0.0
230
1.0
 70
     8
 71
     3
 72
     8
 73
     4
 74
     0
 42
0.00000001
 43
0.00000001
 40
0.0
 40
0.0
 40
0.0
 40
0.0
 40
1.0
 40
1.0
 40
1.0
 40
1.0
 10
146.0764048775783
 20
161.3632746939669
 30
0.0
 10
145.625377908865
 20
160.5659641237791
 30
0.0
 10
145.1746840923414
 20
159.7684658241219
 30
0.0
 10
144.7243758566569
 20
158.9707506990082
 30
0.0
  0
LINE
  5
D6
330
1F
100
AcDbEntity
  8
0
  6
Continuous
 62
     7
370
    15
100
AcDbLine
 10
144.7243764491
 20
148.2689280164
 30
0.0
 11
144.7243764491
 21
158.970751996
 31
0.0
  0
SPLINE
  5
D7
330
1F
100
AcDbEntity
  8
0
  6
Continuous
 62
     7
370
    15
100
AcDbSpline
210
0.0
220
0.0
230
1.0
 70
     8
 71
     3
 72
    12
 73
     8
 74
     0
 42
0.00000001
 43
0.00000001
 40
0.0
 40
0.0
 40
0.0
 40
0.0
 40
0.4999999999999953
 40
0.4999999999999953
 40
0.7499999999999977
 40
0.7499999999999977
 40
1.0
 40
1.0
 40
1.0
 40
1.0
 10
151.7643758566569
 20
160.3422196591492
 30
0.0
 10
151.7643758566569
 20
160.6074890919156
 30
0.0
 10
151.6597691131704
 20
160.870004197568
 30
0.0
 10
151.3831007614251
 20
161.1555418036052
 30
0.0
 10
151.2727355020731
 20
161.2318634204667
 30
0.0
 10
151.0286634534574
 20
161.3362055853068
 30
0.0
 10
150.8969109921256
 20
161.3632746939669
 30
0.0
 10
150.7643758566569
 20
161.3632746939669
 30
0.0
  0
LINE
  5
D8
330
1F
100
AcDbEntity
  8
0
  6
Continuous
 62
     7
370
    15
100
AcDbLine
 10
151.7643760385
 20
150.0321786951
 30
0.0
 11
151.7643760385
 21
160.3422213446
 31
0.0
  0
SPLINE
  5
D9
330
1F
100
AcDbEntity
  8
0
  6
Continuous
 62
     7
370
    15
100
AcDbSpline
210
0.0
220
0.0
230
1.0
 70
     8
 71
     3
 72
    10
 73
     6
 74
     0
 42
0.00000001
 43
0.00000001
 40
0.0
 40
0.0
 40
0.0
 40
0.0
 40
0.5
 40
0.5
 40
1.0
 40
1.0
 40
1.0
 40
1.0
 10
141.7043758566568
 20
157.2477555984758
 30
0.0
 10
141.4918395428005
 20
157.2477555984758
 30
0.0
 10
141.2819033711465
 20
157.339168185106
 30
0.0
 10
140.9881962301353
 20
157.6439130510102
 30
0.0
 10
140.9043758566568
 20
157.8560680209188
 30
0.0
 10
140.9043758566569
 20
158.0670310791513
 30
0.0
  0
SPLINE
  5
DA
330
1F
100
AcDbEntity
  8
0
  6
Continuous
 62
     7
370
    15
100
AcDbSpline
210
0.0
220
0.0
230
1.0
 70
     8
 71
     3
 72
    14
 73
    10
 74
     0
 42
0.00000001
 43
0.00000001
 40
0.0
 40
0.0
 40
0.0
 40
0.0
 40
0.25
 40
0.25
 40
0.5
 40
0.5
 40
0.75
 40
0.75
 40
1.0
 40
1.0
 40
1.0
 40
1.0
 10
144.7243758566569
 20
158.0670310791513
 30
0.0
 10
144.7243758566569
 20
157.960674385399
 30
0.0
 10
144.7039883005156
 20
157.8548338976389
 30
0.0
 10
144.6253539550541
 20
157.6582689841024
 30
0.0
 10
144.5666225954155
 20
157.5670982418153
 30
0.0
 10
144.4200136898129
 20
157.4151871527837
 30
0.0
 10
144.3306083697863
 20
157.3531183159641
 30
0.0
 10
144.136717637186
 20
157.2698502682054
 30
0.0
 10
144.0302126472962
 20
157.2477555984758
 30
0.0
 10
143.9243758566569
 20
157.2477555984757
 30
0.0
  0
LINE
  5
DB
330
1F
100
AcDbEntity
  8
0
  6
Continuous
 62
     7
370
    15
100
AcDbLine
 10
143.9243759455
 20
157.2477568042
 30
0.0
 11
141.7043767364
 21
157.2477568042
 31
0.0
  0
LINE
  5
DC
330
1F
100
AcDbEntity
  8
0
  6
Continuous
 62
     7
370
    15
100
AcDbLine
 10
222.8143773468
 20
87.2019074958
 30
0.0
 11
222.8143773468
 21
137.5450521808
 31
0.0
  0
ARC
  5
DD
330
1F
100
AcDbEntity
  8
0
  6
Continuous
 62
     7
370
    15
100
AcDbCircle
 10
131.8144245299
 20
145.016705363
 30
0.0
 40
11.37435863118782
100
AcDbArc
 50
77.8283012511
 51
102.1901972773
  0
LINE
  5
DE
330
1F
100
AcDbEntity
  8
0
  6
Continuous
 62
     7
370
    15
100
AcDbLine
 10
74.5643749328
 20
80.123481537
 30
0.0
 11
74.5643749328
 21
80.1251951706
 31
0.0
  0
LWPOLYLINE
  5
DF
330
1F
100
AcDbEntity
  8
0
  6
Continuous
 62
     7
370
    15
100
AcDbPolyline
 90
        9
 70
   128
 43
0.0
 10
157.264374146
 20
78.6905113708
 10
158.0012626441
 20
78.7330132078
 10
158.6726754399
 20
78.8567487251
 10
159.2189557345
 20
79.0507208657
 10
159.5915592702
 20
79.2976927113
 10
159.7573868425
 20
79.5757223021
 10
159.7016974778
 20
79.8601072382
 10
159.4294383617
 20
80.1255714249
 10
159.2759042473
 20
80.2153136682
  0
LWPOLYLINE
  5
E0
330
1F
100
AcDbEntity
  8
0
  6
Continuous
 62
     7
370
    15
100
AcDbPolyline
 90
        9
 70
   128
 43
0.0
 10
155.2787981422
 20
80.2285309982
 10
155.0993136556
 20
80.1255714249
 10
154.8270545395
 20
79.8601072382
 10
154.7713651748
 20
79.5757223021
 10
154.9371927471
 20
79.2976927113
 10
155.3097962828
 20
79.0507208657
 10
155.8560765774
 20
78.8567487251
 10
156.5274893732
 20
78.7330132078
 10
157.264374146
 20
78.6905113708
  0
LINE
  5
E1
330
1F
100
AcDbEntity
  8
0
  6
Continuous
 62
     7
370
    15
100
AcDbLine
 10
74.5643749328
 20
144.6234781396
 30
0.0
 11
74.5643749328
 21
144.621764506
 31
0.0
  0
ARC
  5
E2
330
1F
100
AcDbEntity
  8
0
  6
Continuous
 62
     7
370
    15
100
AcDbCircle
 10
213.6963535132
 20
96.221340328
 30
0.0
 40
9.227513483381593
100
AcDbArc
 50
355.9169409171
 51
3.320668963
  0
ARC
  5
E3
330
1F
100
AcDbEntity
  8
0
  6
Continuous
 62
     7
370
    15
100
AcDbCircle
 10
199.206855021
 20
96.6595934496
 30
0.0
 40
23.70171425277733
100
AcDbArc
 50
0.2326552165
 51
5.1097367131
  0
ARC
  5
E4
330
1F
100
AcDbEntity
  8
0
  6
Continuous
 62
     7
370
    15
100
AcDbCircle
 10
208.519192406
 20
128.2839283448
 30
0.0
 40
14.32300116898488
100
AcDbArc
 50
356.4285872231
 51
3.5714127769
  0
ARC
  5
E5
330
1F
100
AcDbEntity
  8
0
  6
HIDDEN
 62
     7
370
     0
100
AcDbCircle
 10
171.3143758567
 20
112.3734798383
 30
0.0
 40
9.00000000000044
100
AcDbArc
 50
115.6077509759
 51
244.0094008516
  0
ARC
  5
E6
330
1F
100
AcDbEntity
  8
0
  6
HIDDEN
 62
     7
370
     0
100
AcDbCircle
 10
171.3143758567
 20
112.3734798383
 30
0.0
 40
10.00000000000002
100
AcDbArc
 50
1.5538347011
 51
75.5374718055
  0
LWPOLYLINE
  5
E7
330
1F
100
AcDbEntity
  8
0
  6
HIDDEN
 62
     7
370
     0
100
AcDbPolyline
 90
        3
 70
   128
 43
0.0
 10
171.0814721377
 20
102.3761920732
 10
171.2202727289
 20
102.37392244
 10
172.2605600448
 20
102.4183437329
  0
ARC
  5
E8
330
1F
100
AcDbEntity
  8
0
  6
HIDDEN
 62
     7
370
     0
100
AcDbCircle
 10
171.3143758567
 20
112.3734798383
 30
0.0
 40
10.00000000000003
100
AcDbArc
 50
293.1052296816
 51
1.5538347011
  0
ARC
  5
E9
330
1F
100
AcDbEntity
  8
0
  6
HIDDEN
 62
     7
370
     0
100
AcDbCircle
 10
171.3143758567
 20
112.3734798383
 30
0.0
 40
5.000000000000023
100
AcDbArc
 50
1.5538347011
 51
31.5538347011
  0
ARC
  5
EA
330
1F
100
AcDbEntity
  8
0
  6
HIDDEN
 62
     7
370
     0
100
AcDbCircle
 10
171.3143758567
 20
112.3734798383
 30
0.0
 40
4.999999999999988
100
AcDbArc
 50
331.5538347011
 51
1.5538347011
  0
CIRCLE
  5
EB
330
1F
100
AcDbEntity
  8
0
  6
HIDDEN
 62
     7
370
     0
100
AcDbCircle
 10
171.3143758567
 20
112.3734798383
 30
0.0
 40
6.999999999999983
  0
ARC
  5
EC
330
1F
100
AcDbEntity
  8
0
  6
HIDDEN
 62
     7
370
     0
100
AcDbCircle
 10
199.3143758567
 20
112.3734798383
 30
0.0
 40
9.000000000000009
100
AcDbArc
 50
115.607750976
 51
244.0094008516
  0
LINE
  5
ED
330
1F
100
AcDbEntity
  8
0
  6
HIDDEN
 62
     7
370
     0
100
AcDbLine
 10
204.237390259
 20
121.0777258601
 30
0.0
 11
203.2705582173
 21
121.5576289322
 31
0.0
  0
LWPOLYLINE
  5
EE
330
1F
100
AcDbEntity
  8
0
  6
HIDDEN
 62
     7
370
     0
100
AcDbPolyline
 90
        3
 70
   128
 43
0.0
 10
198.3536369593
 20
102.4197379228
 10
199.2812714966
 20
102.3735350099
 10
199.5353958996
 20
102.3759229209
  0
ARC
  5
EF
330
1F
100
AcDbEntity
  8
0
  6
HIDDEN
 62
     7
370
     0
100
AcDbCircle
 10
199.3143758567
 20
112.3734798383
 30
0.0
 40
10.00000000000001
100
AcDbArc
 50
284.5401838978
 51
60.5080174073
  0
ARC
  5
F0
330
1F
100
AcDbEntity
  8
0
  6
HIDDEN
 62
     7
370
     0
100
AcDbCircle
 10
199.3143758567
 20
112.3734798383
 30
0.0
 40
5.000000000000012
100
AcDbArc
 50
60.5080174073
 51
90.5080174073
  0
ARC
  5
F1
330
1F
100
AcDbEntity
  8
0
  6
HIDDEN
 62
     7
370
     0
100
AcDbCircle
 10
199.3143758567
 20
112.3734798383
 30
0.0
 40
4.999999999999988
100
AcDbArc
 50
30.5080174073
 51
60.5080174073
  0
CIRCLE
  5
F2
330
1F
100
AcDbEntity
  8
0
  6
HIDDEN
 62
     7
370
     0
100
AcDbCircle
 10
199.3143758567
 20
112.3734798383
 30
0.0
 40
6.99999999999999
  0
LINE
  5
F3
330
1F
100
AcDbEntity
  8
0
  6
HIDDEN
 62
     7
370
     0
100
AcDbLine
 10
139.5523473115
 20
151.3244409215
 30
0.0
 11
139.5523473115
 21
143.7234815311
 31
0.0
  0
SPLINE
  5
F4
330
1F
100
AcDbEntity
  8
0
  6
HIDDEN
 62
     7
370
     0
100
AcDbSpline
210
0.0
220
0.0
230
1.0
 70
     8
 71
     3
 72
    80
 73
    76
 74
     0
 42
0.00000001
 43
0.00000001
 40
-0.0312500000000004
 40
-0.0312500000000004
 40
0.0
 40
0.0
 40
0.0312499999999999
 40
0.0312499999999999
 40
0.0468749999999997
 40
0.0468749999999997
 40
0.0624999999999996
 40
0.0624999999999996
 40
0.0937499999999991
 40
0.0937499999999991
 40
0.1249999999999987
 40
0.1249999999999987
 40
0.1562499999999982
 40
0.1562499999999982
 40
0.1874999999999978
 40
0.1874999999999978
 40
0.2187499999999973
 40
0.2187499999999973
 40
0.2499999999999968
 40
0.2499999999999968
 40
0.2812499999999965
 40
0.2812499999999965
 40
0.3124999999999962
 40
0.3124999999999962
 40
0.3281249999999962
 40
0.3281249999999962
 40
0.3437499999999961
 40
0.3437499999999961
 40
0.374999999999996
 40
0.374999999999996
 40
0.4062499999999959
 40
0.4062499999999959
 40
0.4218749999999959
 40
0.4218749999999959
 40
0.4374999999999959
 40
0.4374999999999959
 40
0.4687499999999959
 40
0.4687499999999959
 40
0.4999999999999958
 40
0.4999999999999958
 40
0.5312499999999957
 40
0.5312499999999957
 40
0.5624999999999956
 40
0.5624999999999956
 40
0.5937499999999954
 40
0.5937499999999954
 40
0.6249999999999954
 40
0.6249999999999954
 40
0.6562499999999953
 40
0.6562499999999953
 40
0.6874999999999952
 40
0.6874999999999952
 40
0.7031249999999952
 40
0.7031249999999952
 40
0.7187499999999953
 40
0.7187499999999953
 40
0.749999999999996
 40
0.749999999999996
 40
0.7812499999999967
 40
0.7812499999999967
 40
0.796874999999997
 40
0.796874999999997
 40
0.8124999999999972
 40
0.8124999999999972
 40
0.8437499999999977
 40
0.8437499999999977
 40
0.8749999999999981
 40
0.8749999999999981
 40
0.9062499999999987
 40
0.9062499999999987
 40
0.9374999999999991
 40
0.9374999999999991
 40
0.9687499999999996
 40
0.9687499999999996
 40
1.0
 40
1.0
 40
1.03125
 40
1.03125
 10
132.1449211694332
 20
161.2330290947813
 30
0.0
 10
131.4838305438805
 20
161.2330290947813
 30
0.0
 10
131.1588504146289
 20
161.2261309489545
 30
0.0
 10
130.6793770033825
 20
161.205604520974
 30
0.0
 10
130.5208951855417
 20
161.1970482938864
 30
0.0
 10
130.2066756530374
 20
161.1763219186688
 30
0.0
 10
130.050555369357
 20
161.1640946184625
 30
0.0
 10
129.5965013404004
 20
161.1225253246332
 30
0.0
 10
129.3093979574606
 20
161.0881810395354
 30
0.0
 10
128.7660434014336
 20
161.0048569152131
 30
0.0
 10
128.508939790228
 20
160.9554186924387
 30
0.0
 10
128.0480335352892
 20
160.8440389626787
 30
0.0
 10
127.8411358260743
 20
160.7817444491666
 30
0.0
 10
127.4756105120821
 20
160.6418148062956
 30
0.0
 10
127.3204049899561
 20
160.5651989085466
 30
0.0
 10
127.0709746033564
 20
160.4012402886908
 30
0.0
 10
126.9748846475712
 20
160.3126834345951
 30
0.0
 10
126.8463657983777
 20
160.1252027524893
 30
0.0
 10
126.8145549281999
 20
160.0279662910348
 30
0.0
 10
126.8141982784266
 20
159.8263336517078
 30
0.0
 10
126.8466955306237
 20
159.7207848598697
 30
0.0
 10
126.9743210043381
 20
159.5106700771812
 30
0.0
 10
127.06874940539
 20
159.4056045692122
 30
0.0
 10
127.2566102253756
 20
159.2487268619611
 30
0.0
 10
127.3274382241788
 20
159.1962931282554
 30
0.0
 10
127.4821601161441
 20
159.0938546826257
 30
0.0
 10
127.5661365863275
 20
159.0437069539739
 30
0.0
 10
127.8374602559719
 20
158.8966909975403
 30
0.0
 10
128.0440094745742
 20
158.8032031771059
 30
0.0
 10
128.5106196147632
 20
158.6274163194916
 30
0.0
 10
128.7629851843887
 20
158.5480378444078
 30
0.0
 10
129.1688865260674
 20
158.4425554069138
 30
0.0
 10
129.3087871435449
 20
158.4096698420736
 30
0.0
 10
129.5980110787918
 20
158.348754362845
 30
0.0
 10
129.7478505350811
 20
158.3206737912026
 30
0.0
 10
130.2019671046919
 20
158.2458717491597
 30
0.0
 10
130.5136183234287
 20
158.2078336909136
 30
0.0
 10
131.1546147883411
 20
158.1562217643895
 30
0.0
 10
131.4861424162933
 20
158.142907830868
 30
0.0
 10
132.1389334613648
 20
158.14281074454
 30
0.0
 10
132.4634696663966
 20
158.155598829701
 30
0.0
 10
133.108739115813
 20
158.207089019297
 30
0.0
 10
133.4244821219757
 20
158.245613598617
 30
0.0
 10
134.0263714169594
 20
158.3445161614751
 30
0.0
 10
134.3171206477709
 20
158.4056202594001
 30
0.0
 10
134.8640324394554
 20
158.5474296925108
 30
0.0
 10
135.1158098032923
 20
158.62676417709
 30
0.0
 10
135.5771977959134
 20
158.8001429217515
 30
0.0
 10
135.7884670755115
 20
158.8953028665055
 30
0.0
 10
136.1517714278877
 20
159.0918753898814
 30
0.0
 10
136.3055780763305
 20
159.1936316182878
 30
0.0
 10
136.4941975459279
 20
159.3504175810732
 30
0.0
 10
136.550228032137
 20
159.4036716148233
 30
0.0
 10
136.6458017938732
 20
159.509476176376
 30
0.0
 10
136.6855647108982
 20
159.5621292407315
 30
0.0
 10
136.7813364612103
 20
159.7192029601907
 30
0.0
 10
136.8140593003364
 20
159.8227279955178
 30
0.0
 10
136.8146878866655
 20
160.0269427297449
 30
0.0
 10
136.7825017419307
 20
160.1244465673297
 30
0.0
 10
136.6875910400752
 20
160.2637736176814
 30
0.0
 10
136.6481242566762
 20
160.3090903491858
 30
0.0
 10
136.5531942579553
 20
160.3975301701746
 30
0.0
 10
136.497437430192
 20
160.4407844206346
 30
0.0
 10
136.309497312222
 20
160.5646758952246
 30
0.0
 10
136.1561358425059
 20
160.6403781859987
 30
0.0
 10
135.7938716076255
 20
160.7796325574568
 30
0.0
 10
135.5830231341596
 20
160.8433943989855
 30
0.0
 10
135.1223531638407
 20
160.9548912384534
 30
0.0
 10
134.8709787842569
 20
161.00341731077
 30
0.0
 10
134.3250708973587
 20
161.0874712941505
 30
0.0
 10
134.0342483227075
 20
161.1222698478172
 30
0.0
 10
133.4329217079275
 20
161.177466312581
 30
0.0
 10
133.1184031233151
 20
161.198284161335
 30
0.0
 10
132.4718216671951
 20
161.2261314942456
 30
0.0
 10
132.1449211694332
 20
161.2330290947813
 30
0.0
 10
131.4838305438805
 20
161.2330290947813
 30
0.0
  0
LINE
  5
F5
330
1F
100
AcDbEntity
  8
0
  6
HIDDEN
 62
     7
370
     0
100
AcDbLine
 10
103.2277997078
 20
75.6376732241
 30
0.0
 11
102.9578446837
 21
75.6137456846
 31
0.0
  0
SPLINE
  5
F6
330
1F
100
AcDbEntity
  8
0
  6
HIDDEN
 62
     7
370
     0
100
AcDbSpline
210
0.0
220
0.0
230
1.0
 70
     8
 71
     3
 72
    12
 73
     8
 74
     0
 42
0.00000001
 43
0.00000001
 40
0.0
 40
0.0
 40
0.0
 40
0.0
 40
0.1661348483723788
 40
0.3322012848936272
 40
0.5008930844532496
 40
0.7521368938593884
 40
1.0
 40
1.0
 40
1.0
 40
1.0
 10
101.3336982072781
 20
149.3047822367466
 30
0.0
 10
101.3440909488522
 20
149.3034053437131
 30
0.0
 10
101.3648721524246
 20
149.3006521246302
 30
0.0
 10
101.5381711863176
 20
149.2790463699275
 30
0.0
 10
101.8601220018341
 20
149.2411830831931
 30
0.0
 10
102.3812871353621
 20
149.1807969849332
 30
0.0
 10
102.9468461847142
 20
149.1330054571262
 30
0.0
 10
103.2277103008221
 20
149.1092715513027
 30
0.0
  0
SPLINE
  5
F7
330
1F
100
AcDbEntity
  8
0
  6
HIDDEN
 62
     7
370
     0
100
AcDbSpline
210
0.0
220
0.0
230
1.0
 70
     8
 71
     3
 72
    12
 73
     8
 74
     0
 42
0.00000001
 43
0.00000001
 40
0.0
 40
0.0
 40
0.0
 40
0.0
 40
0.418174683905725
 40
0.5636706459961199
 40
0.7121960407486694
 40
0.8637936081707709
 40
1.0
 40
1.0
 40
1.0
 40
1.0
 10
171.3143772871683
 20
103.3734802257335
 30
0.0
 10
171.8884659212343
 20
103.4033696540135
 30
0.0
 10
172.6622978237315
 20
103.443658542833
 30
0.0
 10
173.6122101627881
 20
103.6651389786329
 30
0.0
 10
174.1945737984776
 20
103.8407616566199
 30
0.0
 10
174.7548210698876
 20
104.0442827100726
 30
0.0
 10
175.1046781601025
 20
104.2199701569731
 30
0.0
 10
175.2702518792341
 20
104.3031161751664
 30
0.0
  0
SPLINE
  5
F8
330
1F
100
AcDbEntity
  8
0
  6
HIDDEN
 62
     7
370
     0
100
AcDbSpline
210
0.0
220
0.0
230
1.0
 70
     8
 71
     3
 72
    15
 73
    11
 74
     0
 42
0.00000001
 43
0.00000001
 40
0.0
 40
0.0
 40
0.0
 40
0.0
 40
0.0625554029686207
 40
0.2902292942811363
 40
0.4973731239254593
 40
0.7044137468692795
 40
0.7780661881415726
 40
0.8540270039832817
 40
0.9323173680043714
 40
1.0
 40
1.0
 40
1.0
 40
1.0
 10
175.2285882325361
 20
120.4709710653937
 30
0.0
 10
175.0762283570108
 20
120.5438541363969
 30
0.0
 10
174.369346184536
 20
120.8819992247261
 30
0.0
 10
173.0608398021291
 20
121.2579038921715
 30
0.0
 10
171.316196860426
 20
121.4279264988698
 30
0.0
 10
169.9865854318757
 20
121.3006328127194
 30
0.0
 10
169.0416946675844
 20
121.0896728389098
 30
0.0
 10
168.4511098752727
 20
120.9102845355167
 30
0.0
 10
167.8818304532171
 20
120.7124924459349
 30
0.0
 10
167.5370841315562
 20
120.5213084046717
 30
0.0
 10
167.3772371800135
 20
120.4326629739321
 30
0.0
  0
SPLINE
  5
F9
330
1F
100
AcDbEntity
  8
0
  6
HIDDEN
 62
     7
370
     0
100
AcDbSpline
210
0.0
220
0.0
230
1.0
 70
     8
 71
     3
 72
    10
 73
     6
 74
     0
 42
0.00000001
 43
0.00000001
 40
0.0
 40
0.0
 40
0.0
 40
0.0
 40
0.1322268305893017
 40
0.579565406639307
 40
1.0
 40
1.0
 40
1.0
 40
1.0
 10
167.3695109279345
 20
104.289275790385
 30
0.0
 10
167.5310866796019
 20
104.2123734325516
 30
0.0
 10
168.2392917829145
 20
103.8753015531865
 30
0.0
 10
169.5567088585815
 20
103.4739015261218
 30
0.0
 10
170.7407240051496
 20
103.4062548990538
 30
0.0
 10
171.3143772871683
 20
103.3734802257335
 30
0.0
  0
SPLINE
  5
FA
330
1F
100
AcDbEntity
  8
0
  6
HIDDEN
 62
     7
370
     0
100
AcDbSpline
210
0.0
220
0.0
230
1.0
 70
     8
 71
     3
 72
    17
 73
    13
 74
     0
 42
0.00000001
 43
0.00000001
 40
0.0
 40
0.0
 40
0.0
 40
0.0
 40
0.1071366813059968
 40
0.2142760960724734
 40
0.3213868310979978
 40
0.42849953635483
 40
0.5361061141500224
 40
0.6437060344746165
 40
0.750947481199627
 40
0.8581782822602193
 40
0.9634607646352146
 40
1.0
 40
1.0
 40
1.0
 40
1.0
 10
174.3143759162615
 20
102.4758668717063
 30
0.0
 10
173.7550685246671
 20
102.502748882925
 30
0.0
 10
172.6364394714388
 20
102.5565135912239
 30
0.0
 10
171.0056146686076
 20
102.97698612913
 30
0.0
 10
169.4708806320452
 20
103.6427910787669
 30
0.0
 10
168.0679963624745
 20
104.5539304802755
 30
0.0
 10
166.8421653706579
 20
105.6915648463388
 30
0.0
 10
165.8231361797924
 20
107.0192784240486
 30
0.0
 10
165.0435420139054
 20
108.5059562697659
 30
0.0
 10
164.5413086116618
 20
110.0939182939244
 30
0.0
 10
164.3114185007038
 20
111.3850564279812
 30
0.0
 10
164.3389971542901
 20
112.1249274612827
 30
0.0
 10
164.3461025746058
 20
112.3155493368053
 30
0.0
  0
LWPOLYLINE
  5
FB
330
1F
100
AcDbEntity
  8
0
  6
HIDDEN
 62
     7
370
     0
100
AcDbPolyline
 90
       31
 70
   128
 43
0.0
 10
164.3535084517
 20
112.7077940254
 10
164.366409132
 20
113.3908172704
 10
164.6632961424
 20
114.9849744614
 10
165.2125752957
 20
116.5062698636
 10
166.0077645869
 20
117.9197399978
 10
167.0218519361
 20
119.1810962845
 10
168.2557127865
 20
120.2748065915
 10
169.6560605855
 20
121.150245155
 10
171.2056882174
 20
121.788600656
 10
172.843780318
 20
122.1655599874
 10
174.5182871313
 20
122.268136787
 10
176.1869973929
 20
122.0993494716
 10
177.7943670244
 20
121.6624688458
 10
179.3044842274
 20
120.9716426309
 10
180.6807442994
 20
120.0351731021
 10
181.8792782219
 20
118.8827857476
 10
182.867083648
 20
117.5368430194
 10
183.615289578
 20
116.0397270795
 10
184.094216624
 20
114.4529520169
 10
184.3049600215
 20
112.8051981431
 10
184.2412575574
 20
111.1758229889
 10
183.9152425022
 20
109.5803929128
 10
183.3351738246
 20
108.0702261169
 10
182.5195140631
 20
106.6785377551
 10
181.4694143326
 20
105.4256234419
 10
180.2267021926
 20
104.3637154725
 10
178.7962763996
 20
103.5092745077
 10
177.2397905083
 20
102.9009131815
 10
175.7935173304
 20
102.5832176309
 10
174.3143759163
 20
102.4758668717
 10
174.3143759163
 20
102.4758668717
  0
SPLINE
  5
FC
330
1F
100
AcDbEntity
  8
0
  6
HIDDEN
 62
     7
370
     0
100
AcDbSpline
210
0.0
220
0.0
230
1.0
 70
     8
 71
     3
 72
    68
 73
    64
 74
     0
 42
0.00000001
 43
0.00000001
 40
-0.0312500000000002
 40
-0.0312500000000002
 40
0.0
 40
0.0
 40
0.0312500000000001
 40
0.0312500000000001
 40
0.0625000000000001
 40
0.0625000000000001
 40
0.0937500000000002
 40
0.0937500000000002
 40
0.1250000000000002
 40
0.1250000000000002
 40
0.1562500000000003
 40
0.1562500000000003
 40
0.1875000000000003
 40
0.1875000000000003
 40
0.2187500000000004
 40
0.2187500000000004
 40
0.2500000000000004
 40
0.2500000000000004
 40
0.2812500000000005
 40
0.2812500000000005
 40
0.3125000000000004
 40
0.3125000000000004
 40
0.3437500000000003
 40
0.3437500000000003
 40
0.3750000000000002
 40
0.3750000000000002
 40
0.4062500000000001
 40
0.4062500000000001
 40
0.4374999999999999
 40
0.4374999999999999
 40
0.4687499999999998
 40
0.4687499999999998
 40
0.4999999999999997
 40
0.4999999999999997
 40
0.5312499999999996
 40
0.5312499999999996
 40
0.5624999999999994
 40
0.5624999999999994
 40
0.6249999999999993
 40
0.6249999999999993
 40
0.6562499999999992
 40
0.6562499999999992
 40
0.6874999999999992
 40
0.6874999999999992
 40
0.7187499999999991
 40
0.7187499999999991
 40
0.7499999999999991
 40
0.7499999999999991
 40
0.781249999999999
 40
0.781249999999999
 40
0.812499999999999
 40
0.812499999999999
 40
0.8437499999999991
 40
0.8437499999999991
 40
0.8749999999999993
 40
0.8749999999999993
 40
0.9062499999999994
 40
0.9062499999999994
 40
0.9374999999999997
 40
0.9374999999999997
 40
0.9687499999999998
 40
0.9687499999999998
 40
1.0
 40
1.0
 40
1.03125
 40
1.03125
 10
154.511394084462
 20
144.8111807683124
 30
0.0
 10
154.8219684927071
 20
144.67117333326
 30
0.0
 10
154.9903424115662
 20
144.6080762374496
 30
0.0
 10
155.3511702085716
 20
144.4955221106227
 30
0.0
 10
155.5455529716186
 20
144.4457070978296
 30
0.0
 10
155.9495322458393
 20
144.3628983579827
 30
0.0
 10
156.1575877904569
 20
144.330013724941
 30
0.0
 10
156.5854086090756
 20
144.2812707647617
 30
0.0
 10
156.8070784091325
 20
144.2654658885907
 30
0.0
 10
157.2470304810767
 20
144.2524754415379
 30
0.0
 10
157.4666130657688
 20
144.2549914777451
 30
0.0
 10
157.9049882774156
 20
144.2780691949849
 30
0.0
 10
158.1246345589164
 20
144.2989395205031
 30
0.0
 10
158.5458728988596
 20
144.3572279044536
 30
0.0
 10
158.749649888751
 20
144.3946713131385
 30
0.0
 10
159.1430026901089
 20
144.4861106522416
 30
0.0
 10
159.3321114943864
 20
144.5402751391061
 30
0.0
 10
159.6789503215647
 20
144.6603062464681
 30
0.0
 10
159.838950232863
 20
144.7266335899351
 30
0.0
 10
160.1301396648882
 20
144.8718268596573
 30
0.0
 10
160.2589983118532
 20
144.9498242115392
 30
0.0
 10
160.4743049345185
 20
145.1107001690829
 30
0.0
 10
160.5625539026119
 20
145.1946731494347
 30
0.0
 10
160.6944341586382
 20
145.3671578312028
 30
0.0
 10
160.7362370460406
 20
145.4530180473309
 30
0.0
 10
160.7723203342882
 20
145.6236056898267
 30
0.0
 10
160.7658857131983
 20
145.7092729841651
 30
0.0
 10
160.7045460464439
 20
145.8717962636127
 30
0.0
 10
160.6503392979396
 20
145.9493493711383
 30
0.0
 10
160.4948501861767
 20
146.0975341820798
 30
0.0
 10
160.3952141873911
 20
146.1663376636133
 30
0.0
 10
160.1582700268366
 20
146.2926773664144
 30
0.0
 10
160.0187456487864
 20
146.351101146759
 30
0.0
 10
159.7112255785234
 20
146.4547010558483
 30
0.0
 10
159.5432478763671
 20
146.5002131890083
 30
0.0
 10
159.1797884673589
 20
146.5800834115541
 30
0.0
 10
158.9852202534057
 20
146.6140621025223
 30
0.0
 10
158.3831272226951
 20
146.6971351523095
 30
0.0
 10
157.9442735416207
 20
146.7290916916633
 30
0.0
 10
157.2860617988255
 20
146.7417673074947
 30
0.0
 10
157.0633799879101
 20
146.7402202896846
 30
0.0
 10
156.6227257690979
 20
146.7252977061187
 30
0.0
 10
156.4073229652205
 20
146.7121079912516
 30
0.0
 10
155.9862271983129
 20
146.6740342556856
 30
0.0
 10
155.7784868325698
 20
146.648806275711
 30
0.0
 10
155.3846973174042
 20
146.5866340261697
 30
0.0
 10
155.1992731835731
 20
146.5499683966814
 30
0.0
 10
154.8517454939053
 20
146.4643568331857
 30
0.0
 10
154.6880258674712
 20
146.414705698343
 30
0.0
 10
154.3983561357498
 20
146.3049625434211
 30
0.0
 10
154.2713831879638
 20
146.2448757173512
 30
0.0
 10
154.0547359292468
 20
146.1128177211495
 30
0.0
 10
153.9652213015111
 20
146.040272163245
 30
0.0
 10
153.8350084564452
 20
145.8891426959381
 30
0.0
 10
153.7926598736053
 20
145.8097929457184
 30
0.0
 10
153.7562022685926
 20
145.6426705724502
 30
0.0
 10
153.7628773559801
 20
145.5573277987163
 30
0.0
 10
153.8240091375433
 20
145.3857637634202
 30
0.0
 10
153.8795639941769
 20
145.2981091907228
 30
0.0
 10
154.0343292283274
 20
145.1284459164156
 30
0.0
 10
154.1330486321387
 20
145.0460751530314
 30
0.0
 10
154.3721505751802
 20
144.886941091055
 30
0.0
 10
154.511394084462
 20
144.8111807683124
 30
0.0
 10
154.8219684927071
 20
144.67117333326
 30
0.0
  0
SPLINE
  5
FD
330
1F
100
AcDbEntity
  8
0
  6
HIDDEN
 62
     7
370
     0
100
AcDbSpline
210
0.0
220
0.0
230
1.0
 70
     8
 71
     3
 72
    70
 73
    66
 74
     0
 42
0.00000001
 43
0.00000001
 40
-0.03125
 40
-0.03125
 40
0.0
 40
0.0
 40
0.0312500000000002
 40
0.0312500000000002
 40
0.0625000000000002
 40
0.0625000000000002
 40
0.0937500000000003
 40
0.0937500000000003
 40
0.1250000000000003
 40
0.1250000000000003
 40
0.1562500000000003
 40
0.1562500000000003
 40
0.1875000000000001
 40
0.1875000000000001
 40
0.2187499999999999
 40
0.2187499999999999
 40
0.2499999999999998
 40
0.2499999999999998
 40
0.2812499999999996
 40
0.2812499999999996
 40
0.3124999999999993
 40
0.3124999999999993
 40
0.3437499999999992
 40
0.3437499999999992
 40
0.3749999999999989
 40
0.3749999999999989
 40
0.4062499999999987
 40
0.4062499999999987
 40
0.4374999999999985
 40
0.4374999999999985
 40
0.4687499999999983
 40
0.4687499999999983
 40
0.4999999999999981
 40
0.4999999999999981
 40
0.5312499999999982
 40
0.5312499999999982
 40
0.5624999999999983
 40
0.5624999999999983
 40
0.5937499999999984
 40
0.5937499999999984
 40
0.6249999999999986
 40
0.6249999999999986
 40
0.6562499999999988
 40
0.6562499999999988
 40
0.6874999999999989
 40
0.6874999999999989
 40
0.718749999999999
 40
0.718749999999999
 40
0.7499999999999991
 40
0.7499999999999991
 40
0.7812499999999992
 40
0.7812499999999992
 40
0.8124999999999993
 40
0.8124999999999993
 40
0.8437499999999994
 40
0.8437499999999994
 40
0.8749999999999996
 40
0.8749999999999996
 40
0.9062499999999998
 40
0.9062499999999998
 40
0.9374999999999999
 40
0.9374999999999999
 40
0.96875
 40
0.96875
 40
1.0
 40
1.0
 40
1.03125
 40
1.03125
 10
154.5373222178972
 20
100.5065051164227
 30
0.0
 10
154.2679195258589
 20
100.1716369603134
 30
0.0
 10
154.1531478868152
 20
99.99429157713216
 30
0.0
 10
153.9641841171421
 20
99.61976569426682
 30
0.0
 10
153.8903122744987
 20
99.42151834102714
 30
0.0
 10
153.7917970532502
 20
99.0227033437072
 30
0.0
 10
153.7658131733218
 20
98.82004734024756
 30
0.0
 10
153.7630532763841
 20
98.40796461797353
 30
0.0
 10
153.7863905160273
 20
98.20606019282738
 30
0.0
 10
153.8799465010721
 20
97.81152715648652
 30
0.0
 10
153.9514830639102
 20
97.61677421551887
 30
0.0
 10
154.1354938769399
 20
97.25190082199104
 30
0.0
 10
154.2478496792727
 20
97.08018360048541
 30
0.0
 10
154.5124730444056
 20
96.75736783216502
 30
0.0
 10
154.6619507266498
 20
96.60998443317997
 30
0.0
 10
154.9885893861685
 20
96.34496510081952
 30
0.0
 10
155.1683619124993
 20
96.22563866165785
 30
0.0
 10
155.5465428340307
 20
96.02114282154557
 30
0.0
 10
155.7444495688159
 20
95.93568900186787
 30
0.0
 10
156.157318460085
 20
95.79688904081691
 30
0.0
 10
156.3733221897902
 20
95.74373016072005
 30
0.0
 10
156.8063085647786
 20
95.67320960730706
 30
0.0
 10
157.025181915185
 20
95.65504612891083
 30
0.0
 10
157.4677373718868
 20
95.65316844606723
 30
0.0
 10
157.6902136620055
 20
95.66984271379084
 30
0.0
 10
158.1229838595195
 20
95.73682537305262
 30
0.0
 10
158.3353712018001
 20
95.78706063200929
 30
0.0
 10
158.7517829553677
 20
95.92281141115657
 30
0.0
 10
158.9526354110284
 20
96.00760269306897
 30
0.0
 10
159.3300895273677
 20
96.20716430572836
 30
0.0
 10
159.50826343456
 20
96.32239665633551
 30
0.0
 10
159.841728046318
 20
96.58685267663753
 30
0.0
 10
159.9920581564266
 20
96.73231473242225
 30
0.0
 10
160.2572977657605
 20
97.04764406255612
 30
0.0
 10
160.3735417566312
 20
97.21951445888223
 30
0.0
 10
160.5637253976701
 20
97.58430355132798
 30
0.0
 10
160.6362410799607
 20
97.77359149274248
 30
0.0
 10
160.7358628479834
 20
98.16631266285115
 30
0.0
 10
160.7626050199414
 20
98.37215646733887
 30
0.0
 10
160.7659719579763
 20
98.77932772280667
 30
0.0
 10
160.7435632768615
 20
98.98232785849872
 30
0.0
 10
160.6497484314893
 20
99.38705062696911
 30
0.0
 10
160.5792357137348
 20
99.58370288574014
 30
0.0
 10
160.3962310088776
 20
99.95918607848469
 30
0.0
 10
160.2818223037911
 20
100.140923659574
 30
0.0
 10
160.0192248250777
 20
100.4757984883382
 30
0.0
 10
159.8711316641647
 20
100.6299220478581
 30
0.0
 10
159.5424318983736
 20
100.9120364552684
 30
0.0
 10
159.3633933585616
 20
101.0381906964071
 30
0.0
 10
158.9871419403471
 20
101.2554616618113
 30
0.0
 10
158.7872952287433
 20
101.3482047492842
 30
0.0
 10
158.3719926311847
 20
101.4981031126381
 30
0.0
 10
158.1598572528186
 20
101.554324196334
 30
0.0
 10
157.726998595186
 20
101.6307332849195
 30
0.0
 10
157.5040655825876
 20
101.6508187944863
 30
0.0
 10
157.0620330122711
 20
101.6529258468752
 30
0.0
 10
156.8430569155107
 20
101.6354228555653
 30
0.0
 10
156.4091599118159
 20
101.5635859185848
 30
0.0
 10
156.1923125540441
 20
101.5083636209745
 30
0.0
 10
155.7783510987612
 20
101.363678750896
 30
0.0
 10
155.5799079906395
 20
101.2743635800821
 30
0.0
 10
155.2005463709374
 20
101.0611547001113
 30
0.0
 10
155.0186681678524
 20
100.9360398450393
 30
0.0
 10
154.6880196101256
 20
100.6591182813219
 30
0.0
 10
154.5373222178972
 20
100.5065051164227
 30
0.0
 10
154.2679195258589
 20
100.1716369603134
 30
0.0
  0
SPLINE
  5
FE
330
1F
100
AcDbEntity
  8
0
  6
HIDDEN
 62
     7
370
     0
100
AcDbSpline
210
0.0
220
0.0
230
1.0
 70
     8
 71
     3
 72
    12
 73
     8
 74
     0
 42
0.00000001
 43
0.00000001
 40
0.0
 40
0.0
 40
0.0
 40
0.0
 40
0.4181743376935948
 40
0.5636710609735215
 40
0.7121954677018457
 40
0.8637929096143964
 40
1.0
 40
1.0
 40
1.0
 40
1.0
 10
199.3143744261454
 20
103.3734802257335
 30
0.0
 10
199.8884629224848
 20
103.4033701887419
 30
0.0
 10
200.6622958497016
 20
103.4436598613562
 30
0.0
 10
201.6122088813303
 20
103.665137797129
 30
0.0
 10
202.1945719817177
 20
103.8407623520413
 30
0.0
 10
202.7548190405224
 20
104.0442834606763
 30
0.0
 10
203.1046777422194
 20
104.2199702210198
 30
0.0
 10
203.2702527435015
 20
104.3031161751664
 30
0.0
  0
SPLINE
  5
FF
330
1F
100
AcDbEntity
  8
0
  6
HIDDEN
 62
     7
370
     0
100
AcDbSpline
210
0.0
220
0.0
230
1.0
 70
     8
 71
     3
 72
    15
 73
    11
 74
     0
 42
0.00000001
 43
0.00000001
 40
0.0
 40
0.0
 40
0.0
 40
0.0
 40
0.0625557901825741
 40
0.2902291571640715
 40
0.4973729063759814
 40
0.7044134489274628
 40
0.778065861601059
 40
0.8540270841862204
 40
0.9323169922691875
 40
1.0
 40
1.0
 40
1.0
 40
1.0
 10
203.2285890968035
 20
120.4709710653937
 30
0.0
 10
203.0762279581999
 20
120.5438540893752
 30
0.0
 10
202.3693446351308
 20
120.8819967067089
 30
0.0
 10
201.0608398877422
 20
121.2579050690343
 30
0.0
 10
199.3161976681094
 20
121.4279260738155
 30
0.0
 10
197.9865861545933
 20
121.3006332605967
 30
0.0
 10
197.0416945572848
 20
121.0896720635277
 30
0.0
 10
196.4511088563362
 20
120.9102862175119
 30
0.0
 10
195.8818297181716
 20
120.7124906198604
 30
0.0
 10
195.5370826102858
 20
120.5213081956907
 30
0.0
 10
195.3772343189905
 20
120.4326629739321
 30
0.0
  0
SPLINE
  5
100
330
1F
100
AcDbEntity
  8
0
  6
HIDDEN
 62
     7
370
     0
100
AcDbSpline
210
0.0
220
0.0
230
1.0
 70
     8
 71
     3
 72
    10
 73
     6
 74
     0
 42
0.00000001
 43
0.00000001
 40
0.0
 40
0.0
 40
0.0
 40
0.0
 40
0.1322276577244393
 40
0.5795653865055614
 40
1.0
 40
1.0
 40
1.0
 40
1.0
 10
195.3695080669115
 20
104.289275790385
 30
0.0
 10
195.5310850831661
 20
104.2123734844935
 30
0.0
 10
196.2392912745754
 20
103.8753039530184
 30
0.0
 10
197.5567068028771
 20
103.473900530943
 30
0.0
 10
198.740721020122
 20
103.4062545963567
 30
0.0
 10
199.3143744261454
 20
103.3734802257335
 30
0.0
  0
LWPOLYLINE
  5
101
330
1F
100
AcDbEntity
  8
0
  6
HIDDEN
 62
     7
370
     0
100
AcDbPolyline
 90
       22
 70
   128
 43
0.0
 10
157.264374146
 20
118.4828166951
 10
158.0012626441
 20
118.5854298163
 10
158.6726754399
 20
118.8841524635
 10
159.2189557345
 20
119.3524414774
 10
159.5915592702
 20
119.9486876939
 10
159.7573868425
 20
120.6199109655
 10
159.7016974778
 20
121.306471723
 10
159.4294383617
 20
121.947365078
 10
158.9648089798
 20
122.4856443804
 10
158.3490855487
 20
122.8734824907
 10
157.6369814069
 20
123.0764167484
 10
156.8917706104
 20
123.0764167484
 10
156.1796664686
 20
122.8734824907
 10
155.5639430375
 20
122.4856443804
 10
155.0993136556
 20
121.947365078
 10
154.8270545395
 20
121.306471723
 10
154.7713651748
 20
120.6199109655
 10
154.9371927471
 20
119.9486876939
 10
155.3097962828
 20
119.3524414774
 10
155.8560765774
 20
118.8841524635
 10
156.5274893732
 20
118.5854298163
 10
157.264374146
 20
118.4828166951
  0
SPLINE
  5
102
330
1F
100
AcDbEntity
  8
0
  6
HIDDEN
 62
     7
370
     0
100
AcDbSpline
210
0.0
220
0.0
230
1.0
 70
     8
 71
     3
 72
     9
 73
     5
 74
     0
 42
0.00000001
 43
0.00000001
 40
0.0
 40
0.0
 40
0.0
 40
0.0
 40
0.6612244573550451
 40
1.0
 40
1.0
 40
1.0
 40
1.0
 10
113.067581267793
 20
143.7398020278729
 30
0.0
 10
113.3590841588995
 20
143.7835877486567
 30
0.0
 10
113.7999373183131
 20
143.8498068975355
 30
0.0
 10
113.7485269824205
 20
143.8420010993313
 30
0.0
 10
113.731110417981
 20
143.839356685809
 30
0.0
  0
SPLINE
  5
103
330
1F
100
AcDbEntity
  8
0
  6
HIDDEN
 62
     7
370
     0
100
AcDbSpline
210
0.0
220
0.0
230
1.0
 70
     8
 71
     3
 72
     9
 73
     5
 74
     0
 42
0.00000001
 43
0.00000001
 40
0.0
 40
0.0
 40
0.0
 40
0.0
 40
0.3224719279240597
 40
1.0
 40
1.0
 40
1.0
 40
1.0
 10
113.731110417981
 20
80.90760299079778
 30
0.0
 10
113.7497516216721
 20
80.90483498732989
 30
0.0
 10
113.8075588355004
 20
80.8962512836701
 30
0.0
 10
113.3664469518753
 20
80.96236425483876
 30
0.0
 10
113.067581267793
 20
81.00715764873387
 30
0.0
  0
SPLINE
  5
104
330
1F
100
AcDbEntity
  8
0
  6
HIDDEN
 62
     7
370
     0
100
AcDbSpline
210
0.0
220
0.0
230
1.0
 70
     8
 71
     3
 72
    15
 73
    11
 74
     0
 42
0.00000001
 43
0.00000001
 40
0.0
 40
0.0
 40
0.0
 40
0.0
 40
0.1285821426710073
 40
0.2571635607496992
 40
0.3853235406184768
 40
0.5113778076015207
 40
0.636926046588634
 40
0.7643185585868897
 40
0.893060358186539
 40
1.0
 40
1.0
 40
1.0
 40
1.0
 10
113.067581267793
 20
81.00715764873388
 30
0.0
 10
112.6820591406493
 20
81.06896341389388
 30
0.0
 10
111.9110170588748
 20
81.192574595923
 30
0.0
 10
110.1324593955336
 20
81.38332405818957
 30
0.0
 10
108.1386481341002
 20
81.47097043911175
 30
0.0
 10
106.1146105089409
 20
81.42406653575595
 30
0.0
 10
104.2865020200869
 20
81.26381540724509
 30
0.0
 10
102.8550710652593
 20
81.06263782206375
 30
0.0
 10
101.9511858166252
 20
80.90009209403959
 30
0.0
 10
101.888603179564
 20
80.88769243043123
 30
0.0
 10
101.8602065236758
 20
80.88206612580183
 30
0.0
  0
SPLINE
  5
105
330
1F
100
AcDbEntity
  8
0
  6
HIDDEN
 62
     7
370
     0
100
AcDbSpline
210
0.0
220
0.0
230
1.0
 70
     8
 71
     3
 72
    16
 73
    12
 74
     0
 42
0.00000001
 43
0.00000001
 40
0.0
 40
0.0
 40
0.0
 40
0.0
 40
0.0205567972010308
 40
0.1461296555129789
 40
0.2720439735959893
 40
0.3999540038647748
 40
0.5285040859845025
 40
0.6552455845570215
 40
0.7805595113940985
 40
0.907037898122843
 40
1.0
 40
1.0
 40
1.0
 40
1.0
 10
101.8602065236758
 20
143.8648935508049
 30
0.0
 10
101.8455392420272
 20
143.867639246921
 30
0.0
 10
101.741275684156
 20
143.8871572498311
 30
0.0
 10
102.1920555749201
 20
143.8007911352883
 30
0.0
 10
103.2052938816329
 20
143.6296540320329
 30
0.0
 10
104.7996230393904
 20
143.4261128988981
 30
0.0
 10
106.726122435679
 20
143.2937221679556
 30
0.0
 10
108.7726142854091
 20
143.2899270809046
 30
0.0
 10
110.6857739773994
 20
143.4127017436041
 30
0.0
 10
112.1704821765572
 20
143.5945190398861
 30
0.0
 10
112.8006301615797
 20
143.6965699538066
 30
0.0
 10
113.067581267793
 20
143.7398020278729
 30
0.0
  0
LINE
  5
106
330
1F
100
AcDbEntity
  8
0
  6
HIDDEN
 62
     7
370
     0
100
AcDbLine
 10
92.8109995516
 20
85.8734801512
 30
0.0
 11
92.8109995516
 21
138.8734795254
 31
0.0
  0
LINE
  5
107
330
1F
100
AcDbEntity
  8
0
  6
HIDDEN
 62
     7
370
     0
100
AcDbLine
 10
132.0984530689
 20
85.8734801512
 30
0.0
 11
132.0984530689
 21
138.8734795254
 31
0.0
  0
LINE
  5
108
330
1F
100
AcDbEntity
  8
0
  6
HIDDEN
 62
     7
370
     0
100
AcDbLine
 10
135.2643761279
 20
87.4984797191
 30
0.0
 11
135.2643761279
 21
137.2484799575
 31
0.0
  0
SPLINE
  5
109
330
1F
100
AcDbEntity
  8
0
  6
HIDDEN
 62
     7
370
     0
100
AcDbSpline
210
0.0
220
0.0
230
1.0
 70
     8
 71
     3
 72
    20
 73
    16
 74
     0
 42
0.00000001
 43
0.00000001
 40
0.0
 40
0.0
 40
0.0
 40
0.0
 40
0.2499999999999978
 40
0.2499999999999978
 40
0.3749999999999982
 40
0.3749999999999982
 40
0.4999999999999986
 40
0.4999999999999986
 40
0.6249999999999989
 40
0.6249999999999989
 40
0.7499999999999992
 40
0.7499999999999992
 40
0.8749999999999997
 40
0.8749999999999997
 40
1.0
 40
1.0
 40
1.0
 40
1.0
 10
83.01437585665686
 20
137.6019934687177
 30
0.0
 10
83.01437585665686
 20
137.5227904821854
 30
0.0
 10
82.96739336144412
 20
137.4416942637824
 30
0.0
 10
82.82957177066655
 20
137.3214975720315
 30
0.0
 10
82.77328948675657
 20
137.2825708680294
 30
0.0
 10
82.64020463528935
 20
137.2073821356051
 30
0.0
 10
82.56236469305628
 20
137.1707399302631
 30
0.0
 10
82.38973233694195
 20
137.1031493974313
 30
0.0
 10
82.29533933985087
 20
137.0721912156556
 30
0.0
 10
82.08990203353572
 20
137.016666794286
 30
0.0
 10
81.97755579354855
 20
136.9919582804527
 30
0.0
 10
81.7453149296489
 20
136.9521620533445
 30
0.0
 10
81.62460428722618
 20
136.9367422159474
 30
0.0
 10
81.37353342795716
 20
136.9156622411078
 30
0.0
 10
81.24401143154137
 20
136.9101849960869
 30
0.0
 10
81.11437585665688
 20
136.9101849960869
 30
0.0
  0
LINE
  5
10A
330
1F
100
AcDbEntity
  8
0
  6
HIDDEN
 62
     7
370
     0
100
AcDbLine
 10
81.1143740506
 20
136.9101844829
 30
0.0
 11
74.5643749328
 21
136.9101844829
 31
0.0
  0
LINE
  5
10B
330
1F
100
AcDbEntity
  8
0
  6
HIDDEN
 62
     7
370
     0
100
AcDbLine
 10
74.5643749328
 20
87.8367751937
 30
0.0
 11
86.1143767328
 21
87.8367751937
 31
0.0
  0
SPLINE
  5
10C
330
1F
100
AcDbEntity
  8
0
  6
HIDDEN
 62
     7
370
     0
100
AcDbSpline
210
0.0
220
0.0
230
1.0
 70
     8
 71
     3
 72
    18
 73
    14
 74
     0
 42
0.00000001
 43
0.00000001
 40
0.0
 40
0.0
 40
0.0
 40
0.0
 40
0.1249999999999982
 40
0.1249999999999982
 40
0.2499999999999964
 40
0.2499999999999964
 40
0.4999999999999988
 40
0.4999999999999988
 40
0.7500000000000011
 40
0.7500000000000011
 40
0.8750000000000006
 40
0.8750000000000006
 40
1.0
 40
1.0
 40
1.0
 40
1.0
 10
86.11437585665685
 20
87.83677468051984
 30
0.0
 10
86.24384316961408
 20
87.83677468051984
 30
0.0
 10
86.3708539185107
 20
87.8314216819272
 30
0.0
 10
86.62021723970796
 20
87.81068370923842
 30
0.0
 10
86.7438408943364
 20
87.79501180498413
 30
0.0
 10
87.09287323127043
 20
87.73531707658204
 30
0.0
 10
87.30338499607723
 20
87.67755189690105
 30
0.0
 10
87.64730167377674
 20
87.54303005562356
 30
0.0
 10
87.78365207529457
 20
87.46536094211815
 30
0.0
 10
87.92069013185709
 20
87.3460698080308
 30
0.0
 10
87.95590915057
 20
87.30515079889577
 30
0.0
 10
88.00253272750855
 20
87.22449480560573
 30
0.0
 10
88.01437585665687
 20
87.18452628541287
 30
0.0
 10
88.01437585665687
 20
87.14496620788906
 30
0.0
  0
LINE
  5
10D
330
1F
100
AcDbEntity
  8
0
  6
HIDDEN
 62
     7
370
     0
100
AcDbLine
 10
74.5643749328
 20
87.8367751937
 30
0.0
 11
74.5643749328
 21
136.9101844829
 31
0.0
  0
LWPOLYLINE
  5
10E
330
1F
100
AcDbEntity
  8
0
  6
HIDDEN
 62
     7
370
     0
100
AcDbPolyline
 90
       14
 70
   128
 43
0.0
 10
131.8143754692
 20
152.3172121596
 10
132.8539344908
 20
152.3616511475
 10
133.8480589406
 20
152.4930309605
 10
134.7533016892
 20
152.7056109261
 10
135.5301001535
 20
152.9900927197
 10
136.1445029692
 20
153.3340524983
 10
136.5696582438
 20
153.7224512648
 10
136.7869851605
 20
154.1383165967
 10
136.7869851605
 20
154.5634728026
 10
136.5696582438
 20
154.9793381345
 10
136.1445029692
 20
155.367736901
 10
135.5301001535
 20
155.7116929542
 10
134.7533016892
 20
155.9961784732
 10
134.2126167805
 20
156.1353702199
  0
LWPOLYLINE
  5
10F
330
1F
100
AcDbEntity
  8
0
  6
HIDDEN
 62
     7
370
     0
100
AcDbPolyline
 90
       14
 70
   128
 43
0.0
 10
129.4126426296
 20
156.1345953595
 10
128.8754497149
 20
155.9961784732
 10
128.0986517163
 20
155.7116929542
 10
127.4842489006
 20
155.367736901
 10
127.0590931603
 20
154.9793381345
 10
126.8417662436
 20
154.5634728026
 10
126.8417662436
 20
154.1383165967
 10
127.0590931603
 20
153.7224512648
 10
127.4842489006
 20
153.3340524983
 10
128.0986517163
 20
152.9900927197
 10
128.8754497149
 20
152.7056109261
 10
129.7806924635
 20
152.4930309605
 10
130.774817379
 20
152.3616511475
 10
131.8143754692
 20
152.3172121596
  0
LWPOLYLINE
  5
110
330
1F
100
AcDbEntity
  8
0
  6
HIDDEN
 62
     7
370
     0
100
AcDbPolyline
 90
       20
 70
   128
 43
0.0
 10
162.3143776746
 20
92.2209370982
 10
161.6649776192
 20
92.2975625943
 10
161.0859520228
 20
92.5191372734
 10
160.6400422247
 20
92.861647914
 10
160.3755764158
 20
93.2879813116
 10
160.3212058039
 20
93.7519345533
 10
160.4828275235
 20
94.2032329839
 10
160.8429289849
 20
94.5929709923
 10
161.3624803217
 20
94.8789130997
 10
161.9851849468
 20
95.0300760668
 10
162.6435666771
 20
95.0300760668
 10
163.2662713022
 20
94.8789130997
 10
163.785822639
 20
94.5929709923
 10
164.1459241004
 20
94.2032329839
 10
164.30754582
 20
93.7519345533
 10
164.2531752081
 20
93.2879813116
 10
163.9887093992
 20
92.861647914
 10
163.5427996011
 20
92.5191372734
 10
162.9637740047
 20
92.2975625943
 10
162.3143776746
 20
92.2209370982
  0
SPLINE
  5
111
330
1F
100
AcDbEntity
  8
0
  6
HIDDEN
 62
     7
370
     0
100
AcDbSpline
210
0.0
220
0.0
230
1.0
 70
     8
 71
     3
 72
    58
 73
    54
 74
     0
 42
0.00000001
 43
0.00000001
 40
-0.0624999999999981
 40
-0.0624999999999981
 40
0.0
 40
0.0
 40
0.0312500000000006
 40
0.0312500000000006
 40
0.0625000000000013
 40
0.0625000000000013
 40
0.0937500000000019
 40
0.0937500000000019
 40
0.1250000000000025
 40
0.1250000000000025
 40
0.1875000000000036
 40
0.1875000000000036
 40
0.2500000000000046
 40
0.2500000000000046
 40
0.2812500000000051
 40
0.2812500000000051
 40
0.3125000000000057
 40
0.3125000000000057
 40
0.3437500000000062
 40
0.3437500000000062
 40
0.3750000000000067
 40
0.3750000000000067
 40
0.4062500000000072
 40
0.4062500000000072
 40
0.4375000000000077
 40
0.4375000000000077
 40
0.4687500000000083
 40
0.4687500000000083
 40
0.5000000000000088
 40
0.5000000000000088
 40
0.5625000000000081
 40
0.5625000000000081
 40
0.6250000000000075
 40
0.6250000000000075
 40
0.656250000000007
 40
0.656250000000007
 40
0.6875000000000066
 40
0.6875000000000066
 40
0.7187500000000061
 40
0.7187500000000061
 40
0.7500000000000056
 40
0.7500000000000056
 40
0.7812500000000051
 40
0.7812500000000051
 40
0.8125000000000047
 40
0.8125000000000047
 40
0.8437500000000042
 40
0.8437500000000042
 40
0.8750000000000037
 40
0.8750000000000037
 40
0.9375000000000019
 40
0.9375000000000019
 40
1.0
 40
1.0
 40
1.031250000000001
 40
1.031250000000001
 10
162.0498496179724
 20
99.52051634422884
 30
0.0
 10
162.4466389759991
 20
99.52051634422882
 30
0.0
 10
162.576666736825
 20
99.52855589064653
 30
0.0
 10
162.832442154828
 20
99.56017007733145
 30
0.0
 10
162.9595247000547
 20
99.58413616029101
 30
0.0
 10
163.2016647273728
 20
99.6470491206639
 30
0.0
 10
163.3164889231932
 20
99.68569602670688
 30
0.0
 10
163.5337980468464
 20
99.77779284880012
 30
0.0
 10
163.6365912355357
 20
99.83170184381623
 30
0.0
 10
163.9130310329425
 20
100.0101898692708
 30
0.0
 10
164.0620028167952
 20
100.1564712303868
 30
0.0
 10
164.2615758426267
 20
100.4807173638729
 30
0.0
 10
164.3142307882268
 20
100.6622176521165
 30
0.0
 10
164.3144479299098
 20
100.9391742096222
 30
0.0
 10
164.301437953147
 20
101.0341052875055
 30
0.0
 10
164.2503680192142
 20
101.2198934470289
 30
0.0
 10
164.2125827631784
 20
101.3112752276061
 30
0.0
 10
164.1123439028196
 20
101.4906468205801
 30
0.0
 10
164.0497756370607
 20
101.5782054684798
 30
0.0
 10
163.9050917177419
 20
101.7418165862897
 30
0.0
 10
163.8224028768802
 20
101.8189349060607
 30
0.0
 10
163.6358777271085
 20
101.9624219337721
 30
0.0
 10
163.5349994041623
 20
102.026530170163
 30
0.0
 10
163.3185610217805
 20
102.1394593702848
 30
0.0
 10
163.2016088534246
 20
102.1886826333331
 30
0.0
 10
162.9594989763324
 20
102.2677823446008
 30
0.0
 10
162.8348407585791
 20
102.2977865909588
 30
0.0
 10
162.5783452786717
 20
102.3384552025202
 30
0.0
 10
162.4457043227729
 20
102.3489044850835
 30
0.0
 10
162.0539669882359
 20
102.3490211021428
 30
0.0
 10
161.7905864012411
 20
102.3072298636116
 30
0.0
 10
161.3090641937238
 20
102.1502972515073
 30
0.0
 10
161.0860609063971
 20
102.033738974751
 30
0.0
 10
160.8092436234016
 20
101.8213430600077
 30
0.0
 10
160.7247478864802
 20
101.7429227677696
 30
0.0
 10
160.5795038128968
 20
101.5789248943311
 30
0.0
 10
160.5179703340464
 20
101.493005583921
 30
0.0
 10
160.4173147872093
 20
101.3137512835347
 30
0.0
 10
160.3787043939765
 20
101.2206870659324
 30
0.0
 10
160.3276068007308
 20
101.0355399422974
 30
0.0
 10
160.3144970142284
 20
100.942458300249
 30
0.0
 10
160.3142563545517
 20
100.7553937516052
 30
0.0
 10
160.327128182737
 20
100.6645664415733
 30
0.0
 10
160.3777770384174
 20
100.4879720890817
 30
0.0
 10
160.4161817928873
 20
100.4013114147692
 30
0.0
 10
160.5163891229635
 20
100.2380796485735
 30
0.0
 10
160.5777261995767
 20
100.1616121061712
 30
0.0
 10
160.7226874552369
 20
100.0183264223606
 30
0.0
 10
160.8069834131891
 20
99.95134894680906
 30
0.0
 10
161.0832194244552
 20
99.77274059240268
 30
0.0
 10
161.3060285296518
 20
99.67866100569682
 30
0.0
 10
161.7870460966562
 20
99.55336699396486
 30
0.0
 10
162.0498496179724
 20
99.52051634422884
 30
0.0
 10
162.4466389759991
 20
99.52051634422882
 30
0.0
  0
SPLINE
  5
112
330
1F
100
AcDbEntity
  8
0
  6
HIDDEN
 62
     7
370
     0
100
AcDbSpline
210
0.0
220
0.0
230
1.0
 70
     8
 71
     3
 72
    56
 73
    52
 74
     0
 42
0.00000001
 43
0.00000001
 40
-0.0624999999999992
 40
-0.0624999999999992
 40
0.0
 40
0.0
 40
0.0312499999999999
 40
0.0312499999999999
 40
0.0624999999999999
 40
0.0624999999999999
 40
0.1250000000000004
 40
0.1250000000000004
 40
0.1562500000000006
 40
0.1562500000000006
 40
0.1875000000000009
 40
0.1875000000000009
 40
0.2500000000000011
 40
0.2500000000000011
 40
0.2812500000000008
 40
0.2812500000000008
 40
0.3125000000000004
 40
0.3125000000000004
 40
0.3437500000000001
 40
0.3437500000000001
 40
0.3749999999999997
 40
0.3749999999999997
 40
0.4062499999999997
 40
0.4062499999999997
 40
0.4374999999999997
 40
0.4374999999999997
 40
0.4999999999999996
 40
0.4999999999999996
 40
0.5624999999999993
 40
0.5624999999999993
 40
0.5937499999999996
 40
0.5937499999999996
 40
0.6249999999999999
 40
0.6249999999999999
 40
0.6562500000000001
 40
0.6562500000000001
 40
0.6875000000000004
 40
0.6875000000000004
 40
0.7500000000000004
 40
0.7500000000000004
 40
0.8125000000000006
 40
0.8125000000000006
 40
0.8437500000000007
 40
0.8437500000000007
 40
0.8750000000000007
 40
0.8750000000000007
 40
0.9062500000000008
 40
0.9062500000000008
 40
0.9375000000000008
 40
0.9375000000000008
 40
1.0
 40
1.0
 40
1.03125
 40
1.03125
 10
163.8332161765042
 20
93.88141504682854
 30
0.0
 10
163.9920748418886
 20
93.88582850610238
 30
0.0
 10
164.0421743689616
 20
93.89698158487677
 30
0.0
 10
164.1335784805075
 20
93.93957144962175
 30
0.0
 10
164.1753134093805
 20
93.97159267162041
 30
0.0
 10
164.2779879317337
 20
94.09924161735726
 30
0.0
 10
164.3168011362155
 20
94.22984142224684
 30
0.0
 10
164.3129767899389
 20
94.47557233569714
 30
0.0
 10
164.301508556456
 20
94.56714294214365
 30
0.0
 10
164.2608303994677
 20
94.75706136495455
 30
0.0
 10
164.2313232995728
 20
94.85757117514257
 30
0.0
 10
164.1226413090269
 20
95.16321157119704
 30
0.0
 10
164.0231684360485
 20
95.37281764540751
 30
0.0
 10
163.8640637146468
 20
95.67791897119311
 30
0.0
 10
163.8086391287351
 20
95.77962091881275
 30
0.0
 10
163.7010731278586
 20
95.97838421064495
 30
0.0
 10
163.6488887210336
 20
96.07539249375355
 30
0.0
 10
163.5549632086841
 20
96.26743379693457
 30
0.0
 10
163.5126410157033
 20
96.36411157069057
 30
0.0
 10
163.4555783007349
 20
96.54839324651235
 30
0.0
 10
163.4411876684967
 20
96.63796036162461
 30
0.0
 10
163.4496305601649
 20
96.79627595086143
 30
0.0
 10
163.4721181162376
 20
96.86671890934315
 30
0.0
 10
163.5389663862175
 20
96.98339208856453
 30
0.0
 10
163.5829647017017
 20
97.03099086081669
 30
0.0
 10
163.7280563184483
 20
97.14530788083688
 30
0.0
 10
163.8385054481043
 20
97.18348561600543
 30
0.0
 10
164.0451488346143
 20
97.18790879960511
 30
0.0
 10
164.1383923377867
 20
97.15389667516484
 30
0.0
 10
164.24223798578
 20
97.03274075586162
 30
0.0
 10
164.2694076942738
 20
96.98181004355258
 30
0.0
 10
164.3061925193914
 20
96.85662658668966
 30
0.0
 10
164.315319574275
 20
96.78241378091592
 30
0.0
 10
164.3132731297369
 20
96.61831751104005
 30
0.0
 10
164.3019924657927
 20
96.52600482591478
 30
0.0
 10
164.2615496920163
 20
96.33348428298709
 30
0.0
 10
164.2322900693042
 20
96.23183004488101
 30
0.0
 10
164.1244870813965
 20
95.92147854543234
 30
0.0
 10
164.0264399963576
 20
95.70896921609703
 30
0.0
 10
163.8197161550137
 20
95.29975697894807
 30
0.0
 10
163.7071762517588
 20
95.09762855393186
 30
0.0
 10
163.5665077982274
 20
94.806793541442
 30
0.0
 10
163.5238286790324
 20
94.71009176666163
 30
0.0
 10
163.4625192400317
 20
94.52398390658333
 30
0.0
 10
163.4442720295786
 20
94.43332412702722
 30
0.0
 10
163.4450225697606
 20
94.27053515407053
 30
0.0
 10
163.4640089580745
 20
94.19799877003464
 30
0.0
 10
163.5280411065518
 20
94.07758596272751
 30
0.0
 10
163.5717908045072
 20
94.02955929715498
 30
0.0
 10
163.7195932510185
 20
93.91542021483467
 30
0.0
 10
163.8332161765042
 20
93.88141504682854
 30
0.0
 10
163.9920748418886
 20
93.88582850610238
 30
0.0
  0
LINE
  5
113
330
1F
100
AcDbEntity
  8
0
  6
HIDDEN
 62
     7
370
     0
100
AcDbLine
 10
74.5643749328
 20
85.0034795802
 30
0.0
 11
74.5643749328
 21
80.1251951706
 31
0.0
  0
ARC
  5
114
330
1F
100
AcDbEntity
  8
0
  6
HIDDEN
 62
     7
370
     0
100
AcDbCircle
 10
157.2618425027
 20
75.5318761797
 30
0.0
 40
5.098139996036203
100
AcDbArc
 50
66.7303993539
 51
112.8906792744
  0
LINE
  5
115
330
1F
100
AcDbEntity
  8
0
  6
HIDDEN
 62
     7
370
     0
100
AcDbLine
 10
88.0143753679
 20
85.0034795802
 30
0.0
 11
88.0143753679
 21
78.5041462731
 31
0.0
  0
LINE
  5
116
330
1F
100
AcDbEntity
  8
0
  6
HIDDEN
 62
     7
370
     0
100
AcDbLine
 10
83.014376411
 20
139.7434800964
 30
0.0
 11
83.014376411
 21
146.1180869591
 31
0.0
  0
LINE
  5
117
330
1F
100
AcDbEntity
  8
0
  6
HIDDEN
 62
     7
370
     0
100
AcDbLine
 10
74.5643749328
 20
139.7434800964
 30
0.0
 11
74.5643749328
 21
144.621764506
 31
0.0
  0
SPLINE
  5
118
330
1F
100
AcDbEntity
  8
0
  6
HIDDEN
 62
     7
370
     0
100
AcDbSpline
210
0.0
220
0.0
230
1.0
 70
     8
 71
     3
 72
    58
 73
    54
 74
     0
 42
0.00000001
 43
0.00000001
 40
-0.0624999999999987
 40
-0.0624999999999987
 40
0.0
 40
0.0
 40
0.0312500000000001
 40
0.0312500000000001
 40
0.0625000000000002
 40
0.0625000000000002
 40
0.0937500000000004
 40
0.0937500000000004
 40
0.1250000000000005
 40
0.1250000000000005
 40
0.1875000000000007
 40
0.1875000000000007
 40
0.2500000000000009
 40
0.2500000000000009
 40
0.2812500000000012
 40
0.2812500000000012
 40
0.3125000000000015
 40
0.3125000000000015
 40
0.3437500000000018
 40
0.3437500000000018
 40
0.3750000000000021
 40
0.3750000000000021
 40
0.4062500000000024
 40
0.4062500000000024
 40
0.4375000000000027
 40
0.4375000000000027
 40
0.4687500000000029
 40
0.4687500000000029
 40
0.5000000000000032
 40
0.5000000000000032
 40
0.5625000000000038
 40
0.5625000000000038
 40
0.6250000000000043
 40
0.6250000000000043
 40
0.6562500000000041
 40
0.6562500000000041
 40
0.6875000000000039
 40
0.6875000000000039
 40
0.7187500000000037
 40
0.7187500000000037
 40
0.7500000000000036
 40
0.7500000000000036
 40
0.7812500000000033
 40
0.7812500000000033
 40
0.8125000000000031
 40
0.8125000000000031
 40
0.8437500000000029
 40
0.8437500000000029
 40
0.8750000000000027
 40
0.8750000000000027
 40
0.9375000000000013
 40
0.9375000000000013
 40
1.0
 40
1.0
 40
1.03125
 40
1.03125
 10
162.5789020953413
 20
122.3980162076317
 30
0.0
 10
162.1821127373146
 20
122.3980162076317
 30
0.0
 10
162.0520849764887
 20
122.4083483175425
 30
0.0
 10
161.7963095584857
 20
122.4486845303231
 30
0.0
 10
161.669227013259
 20
122.4791833055954
 30
0.0
 10
161.4270869859409
 20
122.558297729276
 30
0.0
 10
161.3122627901205
 20
122.6065372060641
 30
0.0
 10
161.0949536664673
 20
122.7196864090302
 30
0.0
 10
160.992160477778
 20
122.785125419709
 30
0.0
 10
160.7157206803712
 20
122.9976643738261
 30
0.0
 10
160.5667488965185
 20
123.1666590103504
 30
0.0
 10
160.367175870687
 20
123.5229290037373
 30
0.0
 10
160.314520925087
 20
123.7138735460727
 30
0.0
 10
160.3143037834038
 20
123.9908677826787
 30
0.0
 10
160.3273137601667
 20
124.0835206028068
 30
0.0
 10
160.3783836940995
 20
124.260614923007
 30
0.0
 10
160.4161689501353
 20
124.345628262364
 30
0.0
 10
160.516407810494
 20
124.5089095482487
 30
0.0
 10
160.578976076253
 20
124.5867444821072
 30
0.0
 10
160.7236599955718
 20
124.7294305696369
 30
0.0
 10
160.8063488364335
 20
124.7952493889176
 30
0.0
 10
160.9928739862052
 20
124.9157543849633
 30
0.0
 10
161.0937523091513
 20
124.9685556069007
 30
0.0
 10
161.3101906915332
 20
125.0604860301485
 30
0.0
 10
161.427142859889
 20
125.0999270732005
 30
0.0
 10
161.6692527369813
 20
125.1628281991372
 30
0.0
 10
161.7939109547346
 20
125.1864058544395
 30
0.0
 10
162.050406434642
 20
125.2182822139255
 30
0.0
 10
162.1830473905408
 20
125.2264129272931
 30
0.0
 10
162.5747847250778
 20
125.2265038815678
 30
0.0
 10
162.8381653120726
 20
125.1941920331322
 30
0.0
 10
163.3196875195898
 20
125.0694078285152
 30
0.0
 10
163.5426908069166
 20
124.9756202678034
 30
0.0
 10
163.8195080899121
 20
124.7972858390707
 30
0.0
 10
163.9040038268335
 20
124.7303844905027
 30
0.0
 10
164.0492479004169
 20
124.5873825632715
 30
0.0
 10
164.1107813792673
 20
124.5110234178511
 30
0.0
 10
164.2114369261043
 20
124.3479146241515
 30
0.0
 10
164.2500473193371
 20
124.2613546224769
 30
0.0
 10
164.3011449125828
 20
124.0849047055941
 30
0.0
 10
164.3142546990853
 20
123.9941183432972
 30
0.0
 10
164.314495358762
 20
123.8070955546582
 30
0.0
 10
164.3016235305767
 20
123.7140142131471
 30
0.0
 10
164.2509746748963
 20
123.5287959872221
 30
0.0
 10
164.2125699204263
 20
123.4356624005674
 30
0.0
 10
164.1123625903501
 20
123.2563453634044
 30
0.0
 10
164.0510255137369
 20
123.1703388681996
 30
0.0
 10
163.9060642580768
 20
123.0060741824444
 30
0.0
 10
163.8217683001246
 20
122.927589627253
 30
0.0
 10
163.5455322888585
 20
122.7149327220765
 30
0.0
 10
163.3227231836619
 20
122.5980436276192
 30
0.0
 10
162.8417056166575
 20
122.4404970992857
 30
0.0
 10
162.5789020953413
 20
122.3980162076317
 30
0.0
 10
162.1821127373146
 20
122.3980162076317
 30
0.0
  0
LINE
  5
119
330
1F
100
AcDbEntity
  8
0
  6
HIDDEN
 62
     7
370
     0
100
AcDbLine
 10
159.8143763335
 20
96.4734789085
 30
0.0
 11
159.8143763335
 21
128.2734789055
 31
0.0
  0
LINE
  5
11A
330
1F
100
AcDbEntity
  8
0
  6
HIDDEN
 62
     7
370
     0
100
AcDbLine
 10
165.814377317
 20
119.4973832097
 30
0.0
 11
165.814377317
 21
128.3734805983
 31
0.0
  0
LINE
  5
11B
330
1F
100
AcDbEntity
  8
0
  6
HIDDEN
 62
     7
370
     0
100
AcDbLine
 10
165.814377317
 20
119.4973832097
 30
0.0
 11
165.814377317
 21
105.2495764669
 31
0.0
  0
LINE
  5
11C
330
1F
100
AcDbEntity
  8
0
  6
HIDDEN
 62
     7
370
     0
100
AcDbLine
 10
165.814377317
 20
96.3734790783
 30
0.0
 11
165.814377317
 21
105.2495764669
 31
0.0
  0
LWPOLYLINE
  5
11D
330
1F
100
AcDbEntity
  8
0
  6
HIDDEN
 62
     7
370
     0
100
AcDbPolyline
 90
       22
 70
   128
 43
0.0
 10
157.264374146
 20
91.0914216291
 10
158.0012626441
 20
91.1339253288
 10
158.6726754399
 20
91.257660846
 10
159.2189557345
 20
91.4516329866
 10
159.5915592702
 20
91.6986048322
 10
159.7573868425
 20
91.9766344231
 10
159.7016974778
 20
92.2610174965
 10
159.4294383617
 20
92.5264835458
 10
158.9648089798
 20
92.7494477581
 10
158.3490855487
 20
92.9100953143
 10
157.6369814069
 20
92.9941527646
 10
156.8917706104
 20
92.9941527646
 10
156.1796664686
 20
92.9100953143
 10
155.5639430375
 20
92.7494477581
 10
155.0993136556
 20
92.5264835458
 10
154.8270545395
 20
92.2610174965
 10
154.7713651748
 20
91.9766344231
 10
154.9371927471
 20
91.6986048322
 10
155.3097962828
 20
91.4516329866
 10
155.8560765774
 20
91.257660846
 10
156.5274893732
 20
91.1339253288
 10
157.264374146
 20
91.0914216291
  0
LINE
  5
11E
330
1F
100
AcDbEntity
  8
0
  6
HIDDEN
 62
     7
370
     0
100
AcDbLine
 10
147.1143755557
 20
99.3734795701
 30
0.0
 11
147.1143755557
 21
125.3734801065
 31
0.0
  0
LINE
  5
11F
330
1F
100
AcDbEntity
  8
0
  6
HIDDEN
 62
     7
370
     0
100
AcDbLine
 10
151.1143762113
 20
99.3734795701
 30
0.0
 11
151.1143762113
 21
125.3734801065
 31
0.0
  0
LINE
  5
120
330
1F
100
AcDbEntity
  8
0
  6
HIDDEN
 62
     7
370
     0
100
AcDbLine
 10
136.0143757851
 20
101.1234793913
 30
0.0
 11
136.0143757851
 21
123.6234802853
 31
0.0
  0
ELLIPSE
  5
121
330
1F
100
AcDbEntity
  8
0
  6
HIDDEN
 62
     7
370
     0
100
AcDbEllipse
 10
66.6297026564
 20
112.3734798383
 30
0.0
 11
31.08108570811662
 21
1.421085471520200E-14
 31
0.0
210
0.0
220
0.0
230
1.0
 40
0.8164965809
 41
1.312649268214811
 42
1.367189972061495
  0
ELLIPSE
  5
122
330
1F
100
AcDbEntity
  8
0
  6
HIDDEN
 62
     7
370
     0
100
AcDbEllipse
 10
66.6297026564
 20
112.3734798383
 30
0.0
 11
31.08108570811662
 21
-1.421085471520200E-14
 31
0.0
210
0.0
220
0.0
230
1.0
 40
0.8164965809
 41
4.915995335118103
 42
4.970536038964788
  0
LINE
  5
123
330
1F
100
AcDbEntity
  8
0
  6
HIDDEN
 62
     7
370
     0
100
AcDbLine
 10
151.7643760385
 20
68.4734780442
 30
0.0
 11
137.7643756063
 21
68.4734780442
 31
0.0
  0
LINE
  5
124
330
1F
100
AcDbEntity
  8
0
  6
HIDDEN
 62
     7
370
     0
100
AcDbLine
 10
127.7643758298
 20
62.3834814977
 30
0.0
 11
127.7643758298
 21
68.4734780442
 31
0.0
  0
LINE
  5
125
330
1F
100
AcDbEntity
  8
0
  6
HIDDEN
 62
     7
370
     0
100
AcDbLine
 10
137.7643756063
 20
68.4734780442
 30
0.0
 11
127.7643758298
 21
68.4734780442
 31
0.0
  0
LINE
  5
126
330
1F
100
AcDbEntity
  8
0
  6
HIDDEN
 62
     7
370
     0
100
AcDbLine
 10
88.0143753679
 20
85.0034795802
 30
0.0
 11
88.0143753679
 21
87.1449664336
 31
0.0
  0
LINE
  5
127
330
1F
100
AcDbEntity
  8
0
  6
HIDDEN
 62
     7
370
     0
100
AcDbLine
 10
74.5643749328
 20
85.0034795802
 30
0.0
 11
74.5643749328
 21
87.8367751937
 31
0.0
  0
LINE
  5
128
330
1F
100
AcDbEntity
  8
0
  6
HIDDEN
 62
     7
370
     0
100
AcDbLine
 10
74.5643749328
 20
139.7434800964
 30
0.0
 11
74.5643749328
 21
136.9101844829
 31
0.0
  0
LINE
  5
129
330
1F
100
AcDbEntity
  8
0
  6
HIDDEN
 62
     7
370
     0
100
AcDbLine
 10
83.014376411
 20
139.7434800964
 30
0.0
 11
83.014376411
 21
137.601993243
 31
0.0
  0
LINE
  5
12A
330
1F
100
AcDbEntity
  8
0
  6
HIDDEN
 62
     7
370
     0
100
AcDbLine
 10
137.7643756063
 20
156.2734816324
 30
0.0
 11
127.7643758298
 21
156.2734816324
 31
0.0
  0
LINE
  5
12B
330
1F
100
AcDbEntity
  8
0
  6
HIDDEN
 62
     7
370
     0
100
AcDbLine
 10
151.7643760385
 20
156.2734816324
 30
0.0
 11
137.7643756063
 21
156.2734816324
 31
0.0
  0
SPLINE
  5
12C
330
1F
100
AcDbEntity
  8
0
  6
HIDDEN
 62
     7
370
     0
100
AcDbSpline
210
0.0
220
0.0
230
1.0
 70
     8
 71
     3
 72
    30
 73
    26
 74
     0
 42
0.00000001
 43
0.00000001
 40
0.0
 40
0.0
 40
0.0
 40
0.0
 40
0.0531240990024064
 40
0.1125060184497205
 40
0.1779045282362003
 40
0.2129292173723161
 40
0.2494830298309983
 40
0.2912496255711546
 40
0.3260926071415453
 40
0.3540082718263902
 40
0.3749939023952907
 40
0.4414527802003781
 40
0.5001714734328747
 40
0.5546871979453013
 40
0.6144324039940107
 40
0.6794590016308285
 40
0.7140166089978873
 40
0.749914199624719
 40
0.791379498645699
 40
0.8260470296092767
 40
0.8539131622628999
 40
0.8749748957075343
 40
0.9411625832411673
 40
0.9999141561400158
 40
0.9999999999999999
 40
0.9999999999999999
 40
0.9999999999999999
 40
0.9999999999999999
 10
113.8138817117999
 20
75.27356335037115
 30
0.0
 10
113.7976893024423
 20
75.27846145576945
 30
0.0
 10
113.7633970783832
 20
75.28883464508759
 30
0.0
 10
113.4621032520881
 20
75.3644860961174
 30
0.0
 10
113.0199365001794
 20
75.46077303972457
 30
0.0
 10
112.525104109784
 20
75.5604343328415
 30
0.0
 10
112.0546281626869
 20
75.65271486651761
 30
0.0
 10
111.5237066113921
 20
75.74834479744408
 30
0.0
 10
110.9855559882306
 20
75.83399437429317
 30
0.0
 10
110.5275090520856
 20
75.90128859340525
 30
0.0
 10
109.8719442393661
 20
75.9896313936103
 30
0.0
 10
108.9886383952299
 20
76.08629564265799
 30
0.0
 10
107.8599760327244
 20
76.17306716403638
 30
0.0
 10
106.770214498996
 20
76.21114837002423
 30
0.0
 10
105.6741863143657
 20
76.21299912536497
 30
0.0
 10
104.768795073354
 20
76.18683727343561
 30
0.0
 10
104.0724916059164
 20
76.15023103625676
 30
0.0
 10
103.545814007117
 20
76.11121249577693
 30
0.0
 10
103.0791652870593
 20
76.06900422944126
 30
0.0
 10
102.7079528684149
 20
76.03199982549863
 30
0.0
 10
102.4539029109523
 20
76.00329856253015
 30
0.0
 10
102.1528552969721
 20
75.96691815198464
 30
0.0
 10
101.8973214980029
 20
75.93412135495664
 30
0.0
 10
101.7982235867107
 20
75.91783466099223
 30
0.0
 10
101.8144251448474
 20
75.92039294821993
 30
0.0
 10
101.8144487829397
 20
75.92039668076399
 30
0.0
  0
SPLINE
  5
12D
330
1F
100
AcDbEntity
  8
0
  6
HIDDEN
 62
     7
370
     0
100
AcDbSpline
210
0.0
220
0.0
230
1.0
 70
     8
 71
     3
 72
    30
 73
    26
 74
     0
 42
0.00000001
 43
0.00000001
 40
0.0
 40
0.0
 40
0.0
 40
0.0
 40
0.0001200588498144
 40
0.0285506262547115
 40
0.0588539493829405
 40
0.0910342297100333
 40
0.1250948553672866
 40
0.1546831799975633
 40
0.1963616518647117
 40
0.2501159433002954
 40
0.3205306629515491
 40
0.3856152227574799
 40
0.4454081113489194
 40
0.499961024921476
 40
0.52835311055331
 40
0.5586374618652117
 40
0.5908217662713976
 40
0.6249123836483821
 40
0.6541871338792499
 40
0.6958653761871779
 40
0.7499326696524065
 40
0.8215919011534804
 40
0.8871431612576248
 40
0.9466382805470211
 40
1.0
 40
1.0
 40
1.0
 40
1.0
 10
101.8144785852621
 20
148.8264884900368
 30
0.0
 10
101.8144443065491
 20
148.8264959667371
 30
0.0
 10
101.8062926482112
 20
148.8282739654159
 30
0.0
 10
101.8350293516057
 20
148.8228044471637
 30
0.0
 10
101.908383670445
 20
148.8122687471586
 30
0.0
 10
102.0520512524004
 20
148.7925812993813
 30
0.0
 10
102.2530831195255
 20
148.7677410337172
 30
0.0
 10
102.5357161969131
 20
148.733530469768
 30
0.0
 10
102.9491232279562
 20
148.689856495356
 30
0.0
 10
103.6254112861825
 20
148.6268115739212
 30
0.0
 10
104.5638428654794
 20
148.5655120033442
 30
0.0
 10
105.673335616557
 20
148.534222073797
 30
0.0
 10
106.7708160178392
 20
148.5358839848118
 30
0.0
 10
107.6708475471114
 20
148.5671808087959
 30
0.0
 10
108.3821882793043
 20
148.6140227676499
 30
0.0
 10
108.9476058734921
 20
148.661182108984
 30
0.0
 10
109.5365284112244
 20
148.7206291955577
 30
0.0
 10
110.1009385096367
 20
148.7869801565785
 30
0.0
 10
110.695134797889
 20
148.8689006170787
 30
0.0
 10
111.3617421441316
 20
148.9705527402341
 30
0.0
 10
112.1630757642504
 20
149.1126856353438
 30
0.0
 10
112.9155856303561
 20
149.2639306467726
 30
0.0
 10
113.4608714317313
 20
149.3817865668839
 30
0.0
 10
113.7635929496895
 20
149.4580098382706
 30
0.0
 10
113.7978840384714
 20
149.4684643367538
 30
0.0
 10
113.8140977786372
 20
149.4734075021065
 30
0.0
  0
LWPOLYLINE
  5
12E
330
1F
100
AcDbEntity
  8
0
  6
HIDDEN
 62
     7
370
     0
100
AcDbPolyline
 90
       22
 70
   128
 43
0.0
 10
157.264374146
 20
146.0564483058
 10
158.0012626441
 20
146.0139464688
 10
158.6726754399
 20
145.8902109515
 10
159.2189557345
 20
145.6962388109
 10
159.5915592702
 20
145.4492669653
 10
159.7573868425
 20
145.1712373745
 10
159.7016974778
 20
144.8868524384
 10
159.4294383617
 20
144.6213882517
 10
158.9648089798
 20
144.3984221768
 10
158.3490855487
 20
144.2377764832
 10
157.6369814069
 20
144.1537190329
 10
156.8917706104
 20
144.1537190329
 10
156.1796664686
 20
144.2377764832
 10
155.5639430375
 20
144.3984221768
 10
155.0993136556
 20
144.6213882517
 10
154.8270545395
 20
144.8868524384
 10
154.7713651748
 20
145.1712373745
 10
154.9371927471
 20
145.4492669653
 10
155.3097962828
 20
145.6962388109
 10
155.8560765774
 20
145.8902109515
 10
156.5274893732
 20
146.0139464688
 10
157.264374146
 20
146.0564483058
  0
LWPOLYLINE
  5
12F
330
1F
100
AcDbEntity
  8
0
  6
HIDDEN
 62
     7
370
     0
100
AcDbPolyline
 90
       22
 70
   128
 43
0.0
 10
157.264374146
 20
133.6555380475
 10
158.0012626441
 20
133.6130343478
 10
158.6726754399
 20
133.4892988306
 10
159.2189557345
 20
133.29532669
 10
159.5915592702
 20
133.0483548444
 10
159.7573868425
 20
132.7703252535
 10
159.7016974778
 20
132.4859421801
 10
159.4294383617
 20
132.2204761308
 10
158.9648089798
 20
131.9975119185
 10
158.3490855487
 20
131.8368643623
 10
157.6369814069
 20
131.752806912
 10
156.8917706104
 20
131.752806912
 10
156.1796664686
 20
131.8368643623
 10
155.5639430375
 20
131.9975119185
 10
155.0993136556
 20
132.2204761308
 10
154.8270545395
 20
132.4859421801
 10
154.7713651748
 20
132.7703252535
 10
154.9371927471
 20
133.0483548444
 10
155.3097962828
 20
133.29532669
 10
155.8560765774
 20
133.4892988306
 10
156.5274893732
 20
133.6130343478
 10
157.264374146
 20
133.6555380475
  0
LWPOLYLINE
  5
130
330
1F
100
AcDbEntity
  8
0
  6
HIDDEN
 62
     7
370
     0
100
AcDbPolyline
 90
       31
 70
   128
 43
0.0
 10
131.8143754692
 20
157.6861862194
 10
132.8539344908
 20
157.6524201881
 10
133.8480589406
 20
157.5526047599
 10
134.7533016892
 20
157.3911022496
 10
135.5301001535
 20
157.1749646317
 10
136.1445029692
 20
156.9136429679
 10
136.5696582438
 20
156.618558998
 10
136.7869851605
 20
156.302605952
 10
136.7869851605
 20
155.979597206
 10
136.5696582438
 20
155.66364416
 10
136.1445029692
 20
155.3685564648
 10
135.5301001535
 20
155.1072385263
 10
134.7533016892
 20
154.8911009084
 10
133.8480589406
 20
154.7295946729
 10
132.8539344908
 20
154.6297792446
 10
131.8143754692
 20
154.5960169386
 10
130.774817379
 20
154.6297792446
 10
129.7806924635
 20
154.7295946729
 10
128.8754497149
 20
154.8911009084
 10
128.0986517163
 20
155.1072385263
 10
127.4842489006
 20
155.3685564648
 10
127.0590931603
 20
155.66364416
 10
126.8417662436
 20
155.979597206
 10
126.8417662436
 20
156.302605952
 10
127.0590931603
 20
156.618558998
 10
127.4842489006
 20
156.9136429679
 10
128.0986517163
 20
157.1749646317
 10
128.8754497149
 20
157.3911022496
 10
129.7806924635
 20
157.5526047599
 10
130.774817379
 20
157.6524201881
 10
131.8143754692
 20
157.6861862194
  0
SPLINE
  5
131
330
1F
100
AcDbEntity
  8
0
  6
HIDDEN
 62
     7
370
     0
100
AcDbSpline
210
0.0
220
0.0
230
1.0
 70
     8
 71
     3
 72
    62
 73
    58
 74
     0
 42
0.00000001
 43
0.00000001
 40
-0.0624999999999974
 40
-0.0624999999999974
 40
0.0
 40
0.0
 40
0.0625000000000004
 40
0.0625000000000004
 40
0.0937500000000012
 40
0.0937500000000012
 40
0.1250000000000019
 40
0.1250000000000019
 40
0.1562500000000027
 40
0.1562500000000027
 40
0.1875000000000035
 40
0.1875000000000035
 40
0.2187500000000042
 40
0.2187500000000042
 40
0.250000000000005
 40
0.250000000000005
 40
0.2812500000000058
 40
0.2812500000000058
 40
0.3125000000000066
 40
0.3125000000000066
 40
0.3437500000000073
 40
0.3437500000000073
 40
0.375000000000008
 40
0.375000000000008
 40
0.4062500000000085
 40
0.4062500000000085
 40
0.4375000000000089
 40
0.4375000000000089
 40
0.4687500000000093
 40
0.4687500000000093
 40
0.5000000000000098
 40
0.5000000000000098
 40
0.5312500000000102
 40
0.5312500000000102
 40
0.5625000000000107
 40
0.5625000000000107
 40
0.6250000000000107
 40
0.6250000000000107
 40
0.6562500000000099
 40
0.6562500000000099
 40
0.6875000000000092
 40
0.6875000000000092
 40
0.7187500000000085
 40
0.7187500000000085
 40
0.7500000000000079
 40
0.7500000000000079
 40
0.7812500000000072
 40
0.7812500000000072
 40
0.8125000000000066
 40
0.8125000000000066
 40
0.8437500000000059
 40
0.8437500000000059
 40
0.8750000000000051
 40
0.8750000000000051
 40
0.9375000000000026
 40
0.9375000000000026
 40
1.0
 40
1.0
 40
1.0625
 40
1.0625
 10
164.0453180439382
 20
129.419510497452
 30
0.0
 10
163.8329258629161
 20
129.006966975777
 30
0.0
 10
163.7188706270632
 20
128.8091151119446
 30
0.0
 10
163.5717875727672
 20
128.5159372960639
 30
0.0
 10
163.5281224452031
 20
128.4208262435763
 30
0.0
 10
163.4638304919173
 20
128.2332748473488
 30
0.0
 10
163.4450164390168
 20
128.1440941316824
 30
0.0
 10
163.4442775608558
 20
127.9789405094336
 30
0.0
 10
163.4622422549396
 20
127.9070705743242
 30
0.0
 10
163.5238658674661
 20
127.783409288373
 30
0.0
 10
163.5656961998304
 20
127.7337872272303
 30
0.0
 10
163.659410416167
 20
127.652905870622
 30
0.0
 10
163.7116387305202
 20
127.621857757956
 30
0.0
 10
163.8163828141217
 20
127.5784949288678
 30
0.0
 10
163.8694108513172
 20
127.5657924129348
 30
0.0
 10
163.9729206164381
 20
127.5586135632801
 30
0.0
 10
164.0237759714242
 20
127.5643899970169
 30
0.0
 10
164.1162191391185
 20
127.5961197749345
 30
0.0
 10
164.1582553388079
 20
127.6218846879549
 30
0.0
 10
164.2305642059356
 20
127.696736945195
 30
0.0
 10
164.2599143783736
 20
127.7451957884708
 30
0.0
 10
164.3009921576328
 20
127.8642207827299
 30
0.0
 10
164.3127215107042
 20
127.9360367645052
 30
0.0
 10
164.3156936260017
 20
128.0953977404174
 30
0.0
 10
164.3070927536789
 20
128.1850861866278
 30
0.0
 10
164.2712438482281
 20
128.3751655386544
 30
0.0
 10
164.244420578033
 20
128.4747115856802
 30
0.0
 10
164.1759094739271
 20
128.6811424606972
 30
0.0
 10
164.1354302378089
 20
128.7845294531182
 30
0.0
 10
164.045568564778
 20
128.9922084617352
 30
0.0
 10
163.9956395320579
 20
129.0974274173527
 30
0.0
 10
163.8930157104594
 20
129.3031233278817
 30
0.0
 10
163.8401467731064
 20
129.4040462503453
 30
0.0
 10
163.7349707952641
 20
129.6040087752091
 30
0.0
 10
163.6821459025728
 20
129.7038795995257
 30
0.0
 10
163.5371784771604
 20
129.9967263328371
 30
0.0
 10
163.4555000841852
 20
130.1887441946092
 30
0.0
 10
163.4407394084685
 20
130.4425498612401
 30
0.0
 10
163.4541530637917
 20
130.5169828374398
 30
0.0
 10
163.5106174120531
 20
130.645148280719
 30
0.0
 10
163.5517738614553
 20
130.6963297880757
 30
0.0
 10
163.6459615078225
 20
130.7781993768005
 30
0.0
 10
163.699215520223
 20
130.8087256966959
 30
0.0
 10
163.8063737645046
 20
130.8499139878179
 30
0.0
 10
163.8608954408197
 20
130.8609951251652
 30
0.0
 10
163.9674741750829
 20
130.8641536819223
 30
0.0
 10
164.0193159036967
 20
130.855960111405
 30
0.0
 10
164.1131196109124
 20
130.8198124666186
 30
0.0
 10
164.1556818210056
 20
130.791937543292
 30
0.0
 10
164.2287974339531
 20
130.7136248334712
 30
0.0
 10
164.258854435519
 20
130.6630865779765
 30
0.0
 10
164.3004602127441
 20
130.5420926312126
 30
0.0
 10
164.3124449121038
 20
130.4698302650641
 30
0.0
 10
164.3175733759092
 20
130.2304227106575
 30
0.0
 10
164.2794302479489
 20
130.0363034888331
 30
0.0
 10
164.1422659013684
 20
129.629629604604
 30
0.0
 10
164.0453180439382
 20
129.419510497452
 30
0.0
 10
163.8329258629161
 20
129.006966975777
 30
0.0
  0
LWPOLYLINE
  5
132
330
1F
100
AcDbEntity
  8
0
  6
HIDDEN
 62
     7
370
     0
100
AcDbPolyline
 90
       20
 70
   128
 43
0.0
 10
162.3143776746
 20
129.3440416556
 10
162.9637740047
 20
129.4206690144
 10
163.5427996011
 20
129.6422436934
 10
163.9887093992
 20
129.984754334
 10
164.2531752081
 20
130.4110877317
 10
164.30754582
 20
130.8750409734
 10
164.1459241004
 20
131.3263394039
 10
163.785822639
 20
131.7160774123
 10
163.2662713022
 20
132.0020195197
 10
162.6435666771
 20
132.1531824868
 10
161.9851849468
 20
132.1531824868
 10
161.3624803217
 20
132.0020195197
 10
160.8429289849
 20
131.7160774123
 10
160.4828275235
 20
131.3263394039
 10
160.3212058039
 20
130.8750409734
 10
160.3755764158
 20
130.4110877317
 10
160.6400422247
 20
129.984754334
 10
161.0859520228
 20
129.6422436934
 10
161.6649776192
 20
129.4206690144
 10
162.3143776746
 20
129.3440416556
  0
LINE
  5
133
330
1F
100
AcDbEntity
  8
0
  6
HIDDEN
 62
     7
370
     0
100
AcDbLine
 10
146.0764053704
 20
151.3244409215
 30
0.0
 11
146.0764053704
 21
143.7234815311
 31
0.0
  0
LINE
  5
134
330
1F
100
AcDbEntity
  8
0
  6
HIDDEN
 62
     7
370
     0
100
AcDbLine
 10
140.9043762328
 20
147.0877166938
 30
0.0
 11
140.9043762328
 21
143.7234815311
 31
0.0
  0
LINE
  5
135
330
1F
100
AcDbEntity
  8
0
  6
HIDDEN
 62
     7
370
     0
100
AcDbLine
 10
144.7243764491
 20
147.0877166938
 30
0.0
 11
144.7243764491
 21
143.7234815311
 31
0.0
  0
LWPOLYLINE
  5
136
330
1F
100
AcDbEntity
  8
0
  6
HIDDEN
 62
     7
370
     0
100
AcDbPolyline
 90
       22
 70
   128
 43
0.0
 10
157.264374146
 20
101.127517606
 10
158.0012626441
 20
101.0249044847
 10
158.6726754399
 20
100.7261818376
 10
159.2189557345
 20
100.2578923579
 10
159.5915592702
 20
99.6616466072
 10
159.7573868425
 20
98.9904228699
 10
159.7016974778
 20
98.3038621124
 10
159.4294383617
 20
97.6629696887
 10
158.9648089798
 20
97.124689455
 10
158.3490855487
 20
96.7368513446
 10
157.6369814069
 20
96.5339180183
 10
156.8917706104
 20
96.5339180183
 10
156.1796664686
 20
96.7368513446
 10
155.5639430375
 20
97.124689455
 10
155.0993136556
 20
97.6629696887
 10
154.8270545395
 20
98.3038621124
 10
154.7713651748
 20
98.9904228699
 10
154.9371927471
 20
99.6616466072
 10
155.3097962828
 20
100.2578923579
 10
155.8560765774
 20
100.7261818376
 10
156.5274893732
 20
101.0249044847
 10
157.264374146
 20
101.127517606
  0
LWPOLYLINE
  5
137
330
1F
100
AcDbEntity
  8
0
  6
HIDDEN
 62
     7
370
     0
100
AcDbPolyline
 90
       22
 70
   128
 43
0.0
 10
157.264374146
 20
106.2641429816
 10
158.0012626441
 20
106.1615298603
 10
158.6726754399
 20
105.8628072131
 10
159.2189557345
 20
105.3945181992
 10
159.5915592702
 20
104.7982719828
 10
159.7573868425
 20
104.1270487111
 10
159.7016974778
 20
103.4404879537
 10
159.4294383617
 20
102.7995945986
 10
158.9648089798
 20
102.2613152962
 10
158.3490855487
 20
101.8734771859
 10
157.6369814069
 20
101.6705429282
 10
156.8917706104
 20
101.6705429282
 10
156.1796664686
 20
101.8734771859
 10
155.5639430375
 20
102.2613152962
 10
155.0993136556
 20
102.7995945986
 10
154.8270545395
 20
103.4404879537
 10
154.7713651748
 20
104.1270487111
 10
154.9371927471
 20
104.7982719828
 10
155.3097962828
 20
105.3945181992
 10
155.8560765774
 20
105.8628072131
 10
156.5274893732
 20
106.1615298603
 10
157.264374146
 20
106.2641429816
  0
CIRCLE
  5
138
330
1F
100
AcDbEntity
  8
0
  6
HIDDEN
 62
     7
370
     0
100
AcDbCircle
 10
129.8143758567
 20
112.3734798383
 30
0.0
 40
5.0
  0
LWPOLYLINE
  5
139
330
1F
100
AcDbEntity
  8
0
  6
HIDDEN
 62
     7
370
     0
100
AcDbPolyline
 90
       20
 70
   128
 43
0.0
 10
215.6772277744
 20
96.4538149636
 10
215.6862876804
 20
95.8547156405
 10
215.6870029361
 20
95.3765317898
 10
215.6792841346
 20
95.0710784745
 10
215.6639731915
 20
94.9714586239
 10
215.6427390368
 20
95.0884662669
 10
215.6178615482
 20
95.4094223779
 10
215.592052737
 20
95.8995476466
 10
215.568106571
 20
96.5057268839
 10
215.5486158521
 20
97.1622729775
 10
215.5356890948
 20
97.7980375391
 10
215.5307344587
 20
98.3441269126
 10
215.5342883856
 20
98.7413639303
 10
215.5459559949
 20
98.9467010003
 10
215.5644855888
 20
98.9378869634
 10
215.5878580601
 20
98.7158764254
 10
215.613547662
 20
98.3047282424
 10
215.6387753279
 20
97.7489968862
 10
215.6607917936
 20
97.1089044686
 10
215.6772277744
 20
96.4538149636
  0
LWPOLYLINE
  5
13A
330
1F
100
AcDbEntity
  8
0
  6
HIDDEN
 62
     7
370
     0
100
AcDbPolyline
 90
       17
 70
   128
 43
0.0
 10
214.9023003371
 20
96.6267541152
 10
214.9084619672
 20
96.1894106221
 10
214.9072028191
 20
95.8678137612
 10
214.8987389596
 20
95.7109231602
 10
214.8843444379
 20
95.7426216554
 10
214.8662097247
 20
95.9580849957
 10
214.8470989855
 20
96.324512
 10
214.8299253972
 20
96.7861155149
 10
214.8173041136
 20
97.272621664
 10
214.8111499341
 20
97.7099642258
 10
214.8124016316
 20
98.0315610867
 10
214.8208729418
 20
98.1884535503
 10
214.8352674635
 20
98.1567541238
 10
214.8533947261
 20
97.9412907835
 10
214.8725054653
 20
97.5748637792
 10
214.8896790536
 20
97.1132602643
 10
214.9023003371
 20
96.6267541152
  0
LWPOLYLINE
  5
13B
330
1F
100
AcDbEntity
  8
0
  6
HIDDEN
 62
     7
370
     0
100
AcDbPolyline
 90
       20
 70
   128
 43
0.0
 10
222.6966432722
 20
96.6488301855
 10
222.7057031782
 20
96.049732725
 10
222.7064184339
 20
95.5715470117
 10
222.6986996324
 20
95.2660936963
 10
222.6833961399
 20
95.1664738458
 10
222.6621545346
 20
95.2834814888
 10
222.637277046
 20
95.6044375997
 10
222.6114682348
 20
96.0945628684
 10
222.5875220688
 20
96.7007421058
 10
222.5680313499
 20
97.3572881993
 10
222.5551045926
 20
97.9930536922
 10
222.5501499565
 20
98.5391430657
 10
222.5537038834
 20
98.9363791522
 10
222.5653714926
 20
99.1417162221
 10
222.5839010866
 20
99.1329021853
 10
222.6072735579
 20
98.9108925786
 10
222.6329706104
 20
98.4997443955
 10
222.6581908257
 20
97.9440130394
 10
222.6802072914
 20
97.3039206218
 10
222.6966432722
 20
96.6488301855
  0
LWPOLYLINE
  5
13C
330
1F
100
AcDbEntity
  8
0
  6
HIDDEN
 62
     7
370
     0
100
AcDbPolyline
 90
       11
 70
   128
 43
0.0
 10
222.9004464538
 20
95.5643180858
 10
222.890157202
 20
95.5853268605
 10
222.8690497072
 20
95.7902494919
 10
222.845870951
 20
96.1817551505
 10
222.823735276
 20
96.7069670659
 10
222.8056378157
 20
97.2949557107
 10
222.7940223606
 20
97.8663072091
 10
222.7904609831
 20
98.3438577604
 10
222.7954305203
 20
98.663112345
 10
222.8082604201
 20
98.7809535217
 10
222.8143773468
 20
98.7705525111
  0
LINE
  5
13D
330
1F
100
AcDbEntity
  8
0
  6
HIDDEN
 62
     7
370
     0
100
AcDbLine
 10
220.3555665405
 20
97.9188691925
 30
0.0
 11
220.3948236497
 21
96.8040593069
 31
0.0
  0
LINE
  5
13E
330
1F
100
AcDbEntity
  8
0
  6
HIDDEN
 62
     7
370
     0
100
AcDbLine
 10
222.8536344559
 20
97.9882713508
 30
0.0
 11
222.8928990157
 21
96.8734614652
 31
0.0
  0
LINE
  5
13F
330
1F
100
AcDbEntity
  8
0
  6
HIDDEN
 62
     7
370
     0
100
AcDbLine
 10
220.3948236497
 20
96.8040593069
 30
0.0
 11
222.8928990157
 21
96.8734614652
 31
0.0
  0
LINE
  5
140
330
1F
100
AcDbEntity
  8
0
  6
HIDDEN
 62
     7
370
     0
100
AcDbLine
 10
220.3948236497
 20
95.9875632178
 30
0.0
 11
220.3948236497
 21
96.8040593069
 31
0.0
  0
LINE
  5
141
330
1F
100
AcDbEntity
  8
0
  6
HIDDEN
 62
     7
370
     0
100
AcDbLine
 10
222.8928990157
 20
96.0569653761
 30
0.0
 11
222.8928990157
 21
96.8734614652
 31
0.0
  0
LINE
  5
142
330
1F
100
AcDbEntity
  8
0
  6
HIDDEN
 62
     7
370
     0
100
AcDbLine
 10
220.3555665405
 20
97.9188691925
 30
0.0
 11
222.8536344559
 21
97.9882713508
 31
0.0
  0
LINE
  5
143
330
1F
100
AcDbEntity
  8
0
  6
HIDDEN
 62
     7
370
     0
100
AcDbLine
 10
220.3555665405
 20
97.9188691925
 30
0.0
 11
220.3163019808
 21
98.2171820577
 31
0.0
  0
LINE
  5
144
330
1F
100
AcDbEntity
  8
0
  6
HIDDEN
 62
     7
370
     0
100
AcDbLine
 10
222.8536344559
 20
97.9882713508
 30
0.0
 11
222.8143773468
 21
98.2865851473
 31
0.0
  0
LINE
  5
145
330
1F
100
AcDbEntity
  8
0
  6
HIDDEN
 62
     7
370
     0
100
AcDbLine
 10
220.3555665405
 20
96.2858751517
 30
0.0
 11
222.8536344559
 21
96.3552773099
 31
0.0
  0
LINE
  5
146
330
1F
100
AcDbEntity
  8
0
  6
HIDDEN
 62
     7
370
     0
100
AcDbLine
 10
220.3948236497
 20
95.9875632178
 30
0.0
 11
222.8928990157
 21
96.0569653761
 31
0.0
  0
LINE
  5
147
330
1F
100
AcDbEntity
  8
0
  6
HIDDEN
 62
     7
370
     0
100
AcDbLine
 10
220.3948236497
 20
95.9875632178
 30
0.0
 11
220.3555665405
 21
96.2858751517
 31
0.0
  0
LINE
  5
148
330
1F
100
AcDbEntity
  8
0
  6
HIDDEN
 62
     7
370
     0
100
AcDbLine
 10
222.8928990157
 20
96.0569653761
 30
0.0
 11
222.8536344559
 21
96.3552773099
 31
0.0
  0
LINE
  5
149
330
1F
100
AcDbEntity
  8
0
  6
HIDDEN
 62
     7
370
     0
100
AcDbLine
 10
220.3163019808
 20
97.4006859686
 30
0.0
 11
222.8143773468
 21
97.4700881269
 31
0.0
  0
LINE
  5
14A
330
1F
100
AcDbEntity
  8
0
  6
HIDDEN
 62
     7
370
     0
100
AcDbLine
 10
220.3163019808
 20
98.2171820577
 30
0.0
 11
222.8143773468
 21
98.2865851473
 31
0.0
  0
LINE
  5
14B
330
1F
100
AcDbEntity
  8
0
  6
HIDDEN
 62
     7
370
     0
100
AcDbLine
 10
220.3163019808
 20
98.2171820577
 30
0.0
 11
220.3163019808
 21
97.4006859686
 31
0.0
  0
LINE
  5
14C
330
1F
100
AcDbEntity
  8
0
  6
HIDDEN
 62
     7
370
     0
100
AcDbLine
 10
220.3555665405
 20
96.2858751517
 30
0.0
 11
220.3163019808
 21
97.4006859686
 31
0.0
  0
LINE
  5
14D
330
1F
100
AcDbEntity
  8
0
  6
HIDDEN
 62
     7
370
     0
100
AcDbLine
 10
222.8536344559
 20
96.3552773099
 30
0.0
 11
222.8143773468
 21
97.4700881269
 31
0.0
  0
LWPOLYLINE
  5
14E
330
1F
100
AcDbEntity
  8
0
  6
HIDDEN
 62
     7
370
     0
100
AcDbPolyline
 90
        3
 70
   128
 43
0.0
 10
222.775112787
 20
126.4389243078
 10
222.7979488166
 20
126.9267361712
 10
222.8143773468
 20
127.3917120051
  0
LWPOLYLINE
  5
14F
330
1F
100
AcDbEntity
  8
0
  6
HIDDEN
 62
     7
370
     0
100
AcDbPolyline
 90
       13
 70
   128
 43
0.0
 10
222.8143773468
 20
129.1761446845
 10
222.8083945306
 20
129.1441388529
 10
222.7867282422
 20
128.9054501902
 10
222.7635047825
 20
128.4873981129
 10
222.7418384941
 20
127.9464384642
 10
222.7246723564
 20
127.3556353625
 10
222.7143234999
 20
126.7947770756
 10
222.7121777327
 20
126.339612725
 10
222.718533078
 20
126.051613326
 10
222.7325327189
 20
125.9696755659
 10
222.7522842081
 20
126.1048654195
 10
222.775112787
 20
126.4389243078
 10
222.775112787
 20
126.4389243078
  0
LWPOLYLINE
  5
150
330
1F
100
AcDbEntity
  8
0
  6
HIDDEN
 62
     7
370
     0
100
AcDbPolyline
 90
       20
 70
   128
 43
0.0
 10
222.5501201542
 20
126.16940328
 10
222.575616041
 20
126.7048699882
 10
222.5983477624
 20
127.335562567
 10
222.6158566268
 20
127.993134978
 10
222.6262427361
 20
128.6063298684
 10
222.6283736022
 20
129.1086983036
 10
222.6220257075
 20
129.4458016854
 10
222.6078919561
 20
129.5811060917
 10
222.5874922664
 20
129.4999525052
 10
222.5630469115
 20
129.2111344736
 10
222.5372008474
 20
128.7459500235
 10
222.5127554925
 20
128.1548079204
 10
222.4923558028
 20
127.5017691877
 10
222.4782146008
 20
126.8575994399
 10
222.4718741567
 20
126.2921050292
 10
222.4740050228
 20
125.8665660497
 10
222.4843911321
 20
125.6270960074
 10
222.501892546
 20
125.5996452745
 10
222.5246242674
 20
125.7871894267
 10
222.5501201542
 20
126.16940328
  0
LWPOLYLINE
  5
151
330
1F
100
AcDbEntity
  8
0
  6
HIDDEN
 62
     7
370
     0
100
AcDbPolyline
 90
       20
 70
   128
 43
0.0
 10
215.5307046564
 20
126.3644194331
 10
215.5562005432
 20
126.89988521
 10
215.5789322646
 20
127.5305777889
 10
215.596441129
 20
128.1881511312
 10
215.6068197878
 20
128.8013450902
 10
215.6089581044
 20
129.3037135255
 10
215.6026102097
 20
129.6408169072
 10
215.5884764583
 20
129.7761213135
 10
215.5680767687
 20
129.6949695896
 10
215.5436314137
 20
129.4061515581
 10
215.517777899
 20
128.9409652453
 10
215.4933325441
 20
128.3498250049
 10
215.472940305
 20
127.6967853408
 10
215.458799103
 20
127.052615593
 10
215.4524512084
 20
126.4871211823
 10
215.454589525
 20
126.0615822028
 10
215.4649681838
 20
125.8221121606
 10
215.4824770482
 20
125.7946614277
 10
215.5052087696
 20
125.9822046485
 10
215.5307046564
 20
126.3644194331
  0
LWPOLYLINE
  5
152
330
1F
100
AcDbEntity
  8
0
  6
HIDDEN
 62
     7
370
     0
100
AcDbPolyline
 90
       17
 70
   128
 43
0.0
 10
214.7812805565
 20
126.9155696135
 10
214.8000634701
 20
127.3208383571
 10
214.8159853609
 20
127.7989719164
 10
214.82662479
 20
128.2771781188
 10
214.8303575309
 20
128.6826554786
 10
214.82662479
 20
128.9536740732
 10
214.8159853609
 20
129.0489707243
 10
214.8000634701
 20
128.9540428769
 10
214.7812805565
 20
128.6833372068
 10
214.7625050934
 20
128.2780684631
 10
214.7465832026
 20
127.7999349039
 10
214.7359437735
 20
127.3217287015
 10
214.7322110326
 20
126.9162513416
 10
214.7359437735
 20
126.6452336785
 10
214.7465832026
 20
126.5499351647
 10
214.7625050934
 20
126.6448648747
 10
214.7812805565
 20
126.9155696135
  0
LINE
  5
153
330
1F
100
AcDbEntity
  8
0
  6
HIDDEN
 62
     7
370
     0
100
AcDbLine
 10
222.8143773468
 20
128.692175458
 30
0.0
 11
222.775112787
 21
128.3938635241
 31
0.0
  0
LINE
  5
154
330
1F
100
AcDbEntity
  8
0
  6
HIDDEN
 62
     7
370
     0
100
AcDbLine
 10
222.7358556779
 20
127.2790527072
 30
0.0
 11
222.775112787
 21
128.3938635241
 31
0.0
  0
LINE
  5
155
330
1F
100
AcDbEntity
  8
0
  6
HIDDEN
 62
     7
370
     0
100
AcDbLine
 10
222.7358556779
 20
126.4625566181
 30
0.0
 11
222.7358556779
 21
127.2790527072
 31
0.0
  0
LINE
  5
156
330
1F
100
AcDbEntity
  8
0
  6
HIDDEN
 62
     7
370
     0
100
AcDbLine
 10
222.7358556779
 20
126.4625566181
 30
0.0
 11
222.775112787
 21
126.7608694833
 31
0.0
  0
LINE
  5
157
330
1F
100
AcDbEntity
  8
0
  6
HIDDEN
 62
     7
370
     0
100
AcDbLine
 10
222.8143773468
 20
127.8756793689
 30
0.0
 11
222.775112787
 21
126.7608694833
 31
0.0
  0
LINE
  5
158
330
1F
100
AcDbEntity
  8
0
  6
HIDDEN
 62
     7
370
     0
100
AcDbLine
 10
220.2377803118
 20
126.5319587763
 30
0.0
 11
220.2770448716
 21
126.8302716415
 31
0.0
  0
LINE
  5
159
330
1F
100
AcDbEntity
  8
0
  6
HIDDEN
 62
     7
370
     0
100
AcDbLine
 10
220.2377803118
 20
126.5319587763
 30
0.0
 11
220.2377803118
 21
127.3484548654
 31
0.0
  0
LINE
  5
15A
330
1F
100
AcDbEntity
  8
0
  6
HIDDEN
 62
     7
370
     0
100
AcDbLine
 10
220.3163019808
 20
128.7615776163
 30
0.0
 11
220.2770448716
 21
128.4632656824
 31
0.0
  0
LINE
  5
15B
330
1F
100
AcDbEntity
  8
0
  6
HIDDEN
 62
     7
370
     0
100
AcDbLine
 10
220.3163019808
 20
127.9450815272
 30
0.0
 11
220.3163019808
 21
128.7615776163
 31
0.0
  0
LINE
  5
15C
330
1F
100
AcDbEntity
  8
0
  6
HIDDEN
 62
     7
370
     0
100
AcDbLine
 10
220.3163019808
 20
127.9450815272
 30
0.0
 11
220.2770448716
 21
126.8302716415
 31
0.0
  0
LINE
  5
15D
330
1F
100
AcDbEntity
  8
0
  6
HIDDEN
 62
     7
370
     0
100
AcDbLine
 10
220.2377803118
 20
127.3484548654
 30
0.0
 11
220.2770448716
 21
128.4632656824
 31
0.0
  0
LINE
  5
15E
330
1F
100
AcDbEntity
  8
0
  6
HIDDEN
 62
     7
370
     0
100
AcDbLine
 10
220.2377803118
 20
127.3484548654
 30
0.0
 11
222.7358556779
 21
127.2790527072
 31
0.0
  0
LINE
  5
15F
330
1F
100
AcDbEntity
  8
0
  6
HIDDEN
 62
     7
370
     0
100
AcDbLine
 10
220.2770448716
 20
128.4632656824
 30
0.0
 11
222.775112787
 21
128.3938635241
 31
0.0
  0
LINE
  5
160
330
1F
100
AcDbEntity
  8
0
  6
HIDDEN
 62
     7
370
     0
100
AcDbLine
 10
220.2770448716
 20
126.8302716415
 30
0.0
 11
222.775112787
 21
126.7608694833
 31
0.0
  0
LINE
  5
161
330
1F
100
AcDbEntity
  8
0
  6
HIDDEN
 62
     7
370
     0
100
AcDbLine
 10
220.2377803118
 20
126.5319587763
 30
0.0
 11
222.7358556779
 21
126.4625566181
 31
0.0
  0
LINE
  5
162
330
1F
100
AcDbEntity
  8
0
  6
HIDDEN
 62
     7
370
     0
100
AcDbLine
 10
220.3163019808
 20
127.9450815272
 30
0.0
 11
222.8143773468
 21
127.8756793689
 31
0.0
  0
LINE
  5
163
330
1F
100
AcDbEntity
  8
0
  6
HIDDEN
 62
     7
370
     0
100
AcDbLine
 10
220.3163019808
 20
128.7615776163
 30
0.0
 11
222.8143773468
 21
128.692175458
 31
0.0
  0
LINE
  5
164
330
1F
100
AcDbEntity
  8
0
  6
HIDDEN
 62
     7
370
     0
100
AcDbLine
 10
122.8143758567
 20
72.9687970232
 30
0.0
 11
122.9039774775
 21
73.6063469302
 31
0.0
  0
LINE
  5
165
330
1F
100
AcDbEntity
  8
0
  6
HIDDEN
 62
     7
370
     0
100
AcDbLine
 10
122.9039774775
 20
151.1406127464
 30
0.0
 11
122.8143758567
 21
151.7781626534
 31
0.0
  0
ARC
  5
166
330
1F
100
AcDbEntity
  8
0
  6
HIDDEN
 62
     7
370
     0
100
AcDbCircle
 10
121.9174389382
 20
73.7449945139
 30
0.0
 40
0.9962338214386932
100
AcDbArc
 50
352.0
 51
0.0
  0
ARC
  5
167
330
1F
100
AcDbEntity
  8
0
  6
HIDDEN
 62
     7
370
     0
100
AcDbCircle
 10
121.9174389382
 20
73.7449945139
 30
0.0
 40
0.9962338214386932
100
AcDbArc
 50
0.0
 51
25.7988228126
  0
ARC
  5
168
330
1F
100
AcDbEntity
  8
0
  6
HIDDEN
 62
     7
370
     0
100
AcDbCircle
 10
121.9174389382
 20
151.0019651627
 30
0.0
 40
0.9962338214386939
100
AcDbArc
 50
348.75
 51
8.0
  0
LWPOLYLINE
  5
169
330
1F
100
AcDbEntity
  8
0
  6
HIDDEN
 62
     7
370
     0
100
AcDbPolyline
 90
        3
 70
   128
 43
0.0
 10
122.8945304033
 20
150.8076090466
 10
122.8378389755
 20
150.6207224082
 10
122.8143758567
 20
150.5683932554
  0
LINE
  5
16A
330
1F
100
AcDbEntity
  8
0
  6
HIDDEN
 62
     7
370
     0
100
AcDbLine
 10
122.9136727565
 20
73.7449947845
 30
0.0
 11
122.9136727565
 21
151.0019648921
 31
0.0
  0
LINE
  5
16B
330
1F
100
AcDbEntity
  8
0
  6
HIDDEN
 62
     7
370
     0
100
AcDbLine
 10
154.7643765302
 20
125.9291406822
 30
0.0
 11
154.7643765302
 21
120.7925157722
 31
0.0
  0
LINE
  5
16C
330
1F
100
AcDbEntity
  8
0
  6
HIDDEN
 62
     7
370
     0
100
AcDbLine
 10
159.7643754871
 20
120.7925157722
 30
0.0
 11
159.7643754871
 21
125.9291406822
 31
0.0
  0
ARC
  5
16D
330
1F
100
AcDbEntity
  8
0
  6
HIDDEN
 62
     7
370
     0
100
AcDbCircle
 10
113.0675815118
 20
92.8734798383
 30
0.0
 40
12.00000000000001
100
AcDbArc
 50
273.171627117
 51
324.3146652873
  0
ARC
  5
16E
330
1F
100
AcDbEntity
  8
0
  6
HIDDEN
 62
     7
370
     0
100
AcDbCircle
 10
113.0675815118
 20
131.8734798383
 30
0.0
 40
12.0
100
AcDbArc
 50
35.6853347127
 51
86.8289799182
  0
LINE
  5
16F
330
1F
100
AcDbEntity
  8
0
  6
HIDDEN
 62
     7
370
     0
100
AcDbLine
 10
96.2751022966
 20
80.8734793317
 30
0.0
 11
101.8602065237
 21
80.8734793317
 31
0.0
  0
LINE
  5
170
330
1F
100
AcDbEntity
  8
0
  6
HIDDEN
 62
     7
370
     0
100
AcDbLine
 10
101.8602065237
 20
143.8734803449
 30
0.0
 11
96.2751022966
 21
143.8734803449
 31
0.0
  0
ARC
  5
171
330
1F
100
AcDbEntity
  8
0
  6
HIDDEN
 62
     7
370
     0
100
AcDbCircle
 10
96.2751017988
 20
81.8734798383
 30
0.0
 40
1.000000000000008
100
AcDbArc
 50
210.0
 51
270.0
  0
ARC
  5
172
330
1F
100
AcDbEntity
  8
0
  6
HIDDEN
 62
     7
370
     0
100
AcDbCircle
 10
96.2751017988
 20
142.8734798383
 30
0.0
 40
1.000000000000008
100
AcDbArc
 50
90.0
 51
150.0
  0
LINE
  5
173
330
1F
100
AcDbEntity
  8
0
  6
HIDDEN
 62
     7
370
     0
100
AcDbLine
 10
95.4090766103
 20
143.3734793317
 30
0.0
 11
92.8109995516
 21
138.8734795254
 31
0.0
  0
LINE
  5
174
330
1F
100
AcDbEntity
  8
0
  6
HIDDEN
 62
     7
370
     0
100
AcDbLine
 10
92.8109995516
 20
85.8734801512
 30
0.0
 11
95.4090766103
 21
81.3734803449
 31
0.0
  0
ARC
  5
175
330
1F
100
AcDbEntity
  8
0
  6
HIDDEN
 62
     7
370
     0
100
AcDbCircle
 10
133.2643758567
 20
87.4984798383
 30
0.0
 40
2.00000000000001
100
AcDbArc
 50
234.3409123039
 51
0.0
  0
ARC
  5
176
330
1F
100
AcDbEntity
  8
0
  6
HIDDEN
 62
     7
370
     0
100
AcDbCircle
 10
133.2643758567
 20
137.2484798383
 30
0.0
 40
2.0
100
AcDbArc
 50
0.0
 51
125.6590876961
  0
LINE
  5
177
330
1F
100
AcDbEntity
  8
0
  6
HIDDEN
 62
     7
370
     0
100
AcDbLine
 10
88.0143753679
 20
85.8734801512
 30
0.0
 11
92.8109995516
 21
85.8734801512
 31
0.0
  0
LINE
  5
178
330
1F
100
AcDbEntity
  8
0
  6
HIDDEN
 62
     7
370
     0
100
AcDbLine
 10
92.8109995516
 20
138.8734795254
 30
0.0
 11
83.014376411
 21
138.8734795254
 31
0.0
  0
LINE
  5
179
330
1F
100
AcDbEntity
  8
0
  6
HIDDEN
 62
     7
370
     0
100
AcDbLine
 10
122.8143758567
 20
85.8734801512
 30
0.0
 11
132.0984530689
 21
85.8734801512
 31
0.0
  0
LINE
  5
17A
330
1F
100
AcDbEntity
  8
0
  6
HIDDEN
 62
     7
370
     0
100
AcDbLine
 10
132.0984530689
 20
138.8734795254
 30
0.0
 11
122.8143758567
 21
138.8734795254
 31
0.0
  0
LINE
  5
17B
330
1F
100
AcDbEntity
  8
0
  6
HIDDEN
 62
     7
370
     0
100
AcDbLine
 10
126.8143760466
 20
158.045032258
 30
0.0
 11
126.8143760466
 21
154.350892837
 31
0.0
  0
LINE
  5
17C
330
1F
100
AcDbEntity
  8
0
  6
HIDDEN
 62
     7
370
     0
100
AcDbLine
 10
136.8143762888
 20
154.350892837
 30
0.0
 11
136.8143762888
 21
158.0505419623
 31
0.0
  0
LINE
  5
17D
330
1F
100
AcDbEntity
  8
0
  6
HIDDEN
 62
     7
370
     0
100
AcDbLine
 10
164.3143742771
 20
96.7015896093
 30
0.0
 11
164.3143742771
 21
100.8497981455
 31
0.0
  0
LINE
  5
17E
330
1F
100
AcDbEntity
  8
0
  6
HIDDEN
 62
     7
370
     0
100
AcDbLine
 10
164.3143742771
 20
93.6351504278
 30
0.0
 11
164.3143742771
 21
94.3891771238
 31
0.0
  0
LINE
  5
17F
330
1F
100
AcDbEntity
  8
0
  6
HIDDEN
 62
     7
370
     0
100
AcDbLine
 10
160.3143773468
 20
100.8476691421
 30
0.0
 11
160.3143773468
 21
93.6351504278
 31
0.0
  0
LINE
  5
180
330
1F
100
AcDbEntity
  8
0
  6
HIDDEN
 62
     7
370
     0
100
AcDbLine
 10
163.9391220601
 20
93.8843574476
 30
0.0
 11
222.8143773468
 21
95.5200467359
 31
0.0
  0
LINE
  5
181
330
1F
100
AcDbEntity
  8
0
  6
HIDDEN
 62
     7
370
     0
100
AcDbLine
 10
222.8143773468
 20
98.8213207673
 30
0.0
 11
163.9365627856
 21
97.1855597671
 31
0.0
  0
LINE
  5
182
330
1F
100
AcDbEntity
  8
0
  6
HIDDEN
 62
     7
370
     0
100
AcDbLine
 10
159.5949083061
 20
80.1147457313
 30
0.0
 11
159.0059287341
 21
80.3335990857
 31
0.0
  0
LINE
  5
183
330
1F
100
AcDbEntity
  8
0
  6
HIDDEN
 62
     7
370
     0
100
AcDbLine
 10
155.5228232832
 20
80.3335990857
 30
0.0
 11
154.9420989545
 21
80.1178153705
 31
0.0
  0
ARC
  5
184
330
1F
100
AcDbEntity
  8
0
  6
HIDDEN
 62
     7
370
     0
100
AcDbCircle
 10
222.3143758567
 20
95.8734798383
 30
0.0
 40
0.5
100
AcDbArc
 50
0.0
 51
90.0
  0
ARC
  5
185
330
1F
100
AcDbEntity
  8
0
  6
HIDDEN
 62
     7
370
     0
100
AcDbCircle
 10
222.3143758567
 20
128.8734798383
 30
0.0
 40
0.5
100
AcDbArc
 50
270.0
 51
0.0
  0
LINE
  5
186
330
1F
100
AcDbEntity
  8
0
  6
HIDDEN
 62
     7
370
     0
100
AcDbLine
 10
160.214375654
 20
96.073479588
 30
0.0
 11
164.9196035655
 21
96.073479588
 31
0.0
  0
LINE
  5
187
330
1F
100
AcDbEntity
  8
0
  6
HIDDEN
 62
     7
370
     0
100
AcDbLine
 10
164.9196035655
 20
128.6734800886
 30
0.0
 11
160.214375654
 21
128.6734800886
 31
0.0
  0
ARC
  5
188
330
1F
100
AcDbEntity
  8
0
  6
HIDDEN
 62
     7
370
     0
100
AcDbCircle
 10
160.2143758567
 20
96.4734798383
 30
0.0
 40
0.4000000000000341
100
AcDbArc
 50
180.0
 51
270.0
  0
ARC
  5
189
330
1F
100
AcDbEntity
  8
0
  6
HIDDEN
 62
     7
370
     0
100
AcDbCircle
 10
160.2143758567
 20
128.2734798383
 30
0.0
 40
0.4000000000000341
100
AcDbArc
 50
90.0
 51
180.0
  0
LINE
  5
18A
330
1F
100
AcDbEntity
  8
0
  6
HIDDEN
 62
     7
370
     0
100
AcDbLine
 10
165.814377317
 20
96.3734790783
 30
0.0
 11
222.3143763335
 21
96.3734790783
 31
0.0
  0
LINE
  5
18B
330
1F
100
AcDbEntity
  8
0
  6
HIDDEN
 62
     7
370
     0
100
AcDbLine
 10
222.3143763335
 20
128.3734805983
 30
0.0
 11
165.814377317
 21
128.3734805983
 31
0.0
  0
LINE
  5
18C
330
1F
100
AcDbEntity
  8
0
  6
HIDDEN
 62
     7
370
     0
100
AcDbLine
 10
159.7643754871
 20
79.6472180735
 30
0.0
 11
159.7643754871
 21
92.0481301945
 31
0.0
  0
LINE
  5
18D
330
1F
100
AcDbEntity
  8
0
  6
HIDDEN
 62
     7
370
     0
100
AcDbLine
 10
154.7643765302
 20
92.0481301945
 30
0.0
 11
154.7643765302
 21
79.6472180735
 31
0.0
  0
ARC
  5
18E
330
1F
100
AcDbEntity
  8
0
  6
HIDDEN
 62
     7
370
     0
100
AcDbCircle
 10
164.9196018385
 20
96.4734798383
 30
0.0
 40
0.4000000000000038
100
AcDbArc
 50
270.0
 51
290.0
  0
ARC
  5
18F
330
1F
100
AcDbEntity
  8
0
  6
HIDDEN
 62
     7
370
     0
100
AcDbCircle
 10
164.9196018385
 20
128.2734798383
 30
0.0
 40
0.4000000000000057
100
AcDbArc
 50
70.0
 51
90.0
  0
LINE
  5
190
330
1F
100
AcDbEntity
  8
0
  6
HIDDEN
 62
     7
370
     0
100
AcDbLine
 10
165.0564111264
 20
96.0976027053
 30
0.0
 11
165.814377317
 21
96.3734790783
 31
0.0
  0
LINE
  5
191
330
1F
100
AcDbEntity
  8
0
  6
HIDDEN
 62
     7
370
     0
100
AcDbLine
 10
165.814377317
 20
128.3734805983
 30
0.0
 11
165.0564111264
 21
128.6493569713
 31
0.0
  0
LINE
  5
192
330
1F
100
AcDbEntity
  8
0
  6
HIDDEN
 62
     7
370
     0
100
AcDbLine
 10
147.1143755557
 20
99.3734795701
 30
0.0
 11
151.1143762113
 21
99.3734795701
 31
0.0
  0
LINE
  5
193
330
1F
100
AcDbEntity
  8
0
  6
HIDDEN
 62
     7
370
     0
100
AcDbLine
 10
151.1143762113
 20
125.3734801065
 30
0.0
 11
147.1143755557
 21
125.3734801065
 31
0.0
  0
LINE
  5
194
330
1F
100
AcDbEntity
  8
0
  6
HIDDEN
 62
     7
370
     0
100
AcDbLine
 10
135.2643761279
 20
100.373479734
 30
0.0
 11
136.0143757851
 21
101.1234793913
 31
0.0
  0
LINE
  5
195
330
1F
100
AcDbEntity
  8
0
  6
HIDDEN
 62
     7
370
     0
100
AcDbLine
 10
136.0143757851
 20
123.6234802853
 30
0.0
 11
135.2643761279
 21
124.3734799426
 31
0.0
  0
LINE
  5
196
330
1F
100
AcDbEntity
  8
0
  6
HIDDEN
 62
     7
370
     0
100
AcDbLine
 10
136.0143757851
 20
101.1234793913
 30
0.0
 11
147.1143755557
 21
101.1234793913
 31
0.0
  0
LINE
  5
197
330
1F
100
AcDbEntity
  8
0
  6
HIDDEN
 62
     7
370
     0
100
AcDbLine
 10
147.1143755557
 20
123.6234802853
 30
0.0
 11
136.0143757851
 21
123.6234802853
 31
0.0
  0
LINE
  5
198
330
1F
100
AcDbEntity
  8
0
  6
HIDDEN
 62
     7
370
     0
100
AcDbLine
 10
159.0754053981
 20
92.7076537263
 30
0.0
 11
157.264374146
 21
93.4359368037
 31
0.0
  0
LINE
  5
199
330
1F
100
AcDbEntity
  8
0
  6
HIDDEN
 62
     7
370
     0
100
AcDbLine
 10
157.264374146
 20
93.4359368037
 30
0.0
 11
155.4533466191
 21
92.7076537263
 31
0.0
  0
LINE
  5
19A
330
1F
100
AcDbEntity
  8
0
  6
HIDDEN
 62
     7
370
     0
100
AcDbLine
 10
127.7643758298
 20
162.3734805834
 30
0.0
 11
127.7643758298
 21
156.2734816324
 31
0.0
  0
LINE
  5
19B
330
1F
100
AcDbEntity
  8
0
  6
HIDDEN
 62
     7
370
     0
100
AcDbLine
 10
114.24708827
 20
74.7951988231
 30
0.0
 11
113.8143790381
 21
75.2734255146
 31
0.0
  0
LINE
  5
19C
330
1F
100
AcDbEntity
  8
0
  6
HIDDEN
 62
     7
370
     0
100
AcDbLine
 10
101.8143761398
 20
75.9203855049
 30
0.0
 11
101.3337484987
 21
75.4421625387
 31
0.0
  0
LINE
  5
19D
330
1F
100
AcDbEntity
  8
0
  6
HIDDEN
 62
     7
370
     0
100
AcDbLine
 10
101.3336311521
 20
149.3047934126
 30
0.0
 11
101.8143761398
 21
148.8265108418
 31
0.0
  0
LINE
  5
19E
330
1F
100
AcDbEntity
  8
0
  6
HIDDEN
 62
     7
370
     0
100
AcDbLine
 10
113.8143762441
 20
149.4734857332
 30
0.0
 11
114.2471972348
 21
149.9517645788
 31
0.0
  0
LINE
  5
19F
330
1F
100
AcDbEntity
  8
0
  6
HIDDEN
 62
     7
370
     0
100
AcDbLine
 10
113.8143762441
 20
143.8393566858
 30
0.0
 11
113.8143762441
 21
149.573487426
 31
0.0
  0
LINE
  5
1A0
330
1F
100
AcDbEntity
  8
0
  6
HIDDEN
 62
     7
370
     0
100
AcDbLine
 10
101.8143761398
 20
148.8265033912
 30
0.0
 11
101.8143761398
 21
143.8650015842
 31
0.0
  0
LINE
  5
1A1
330
1F
100
AcDbEntity
  8
0
  6
HIDDEN
 62
     7
370
     0
100
AcDbLine
 10
113.8143762441
 20
75.173297162
 30
0.0
 11
113.8143762441
 21
80.9076029908
 31
0.0
  0
LINE
  5
1A2
330
1F
100
AcDbEntity
  8
0
  6
HIDDEN
 62
     7
370
     0
100
AcDbLine
 10
101.8143761398
 20
80.8819580924
 30
0.0
 11
101.8143761398
 21
75.9204264831
 31
0.0
  0
LINE
  5
1A3
330
1F
100
AcDbEntity
  8
0
  6
HIDDEN
 62
     7
370
     0
100
AcDbLine
 10
151.1143762113
 20
106.3734797861
 30
0.0
 11
159.8143763335
 21
106.3734797861
 31
0.0
  0
LINE
  5
1A4
330
1F
100
AcDbEntity
  8
0
  6
HIDDEN
 62
     7
370
     0
100
AcDbLine
 10
159.8143763335
 20
118.3734798905
 30
0.0
 11
151.1143762113
 21
118.3734798905
 31
0.0
  0
LINE
  5
1A5
330
1F
100
AcDbEntity
  8
0
  6
HIDDEN
 62
     7
370
     0
100
AcDbLine
 10
154.7643765302
 20
145.0997416031
 30
0.0
 11
154.7643765302
 21
132.6988294821
 31
0.0
  0
LINE
  5
1A6
330
1F
100
AcDbEntity
  8
0
  6
HIDDEN
 62
     7
370
     0
100
AcDbLine
 10
159.7643754871
 20
132.6988294821
 30
0.0
 11
159.7643754871
 21
145.0997416031
 31
0.0
  0
LINE
  5
1A7
330
1F
100
AcDbEntity
  8
0
  6
HIDDEN
 62
     7
370
     0
100
AcDbLine
 10
155.4533466191
 20
132.0393059503
 30
0.0
 11
157.264374146
 21
131.3110228729
 31
0.0
  0
LINE
  5
1A8
330
1F
100
AcDbEntity
  8
0
  6
HIDDEN
 62
     7
370
     0
100
AcDbLine
 10
157.264374146
 20
131.3110228729
 30
0.0
 11
159.0754053981
 21
132.0393059503
 31
0.0
  0
LINE
  5
1A9
330
1F
100
AcDbEntity
  8
0
  6
HIDDEN
 62
     7
370
     0
100
AcDbLine
 10
126.8143760466
 20
159.9203508448
 30
0.0
 11
126.8143760466
 21
158.045032258
 31
0.0
  0
LINE
  5
1AA
330
1F
100
AcDbEntity
  8
0
  6
HIDDEN
 62
     7
370
     0
100
AcDbLine
 10
136.8143762888
 20
158.0505419623
 30
0.0
 11
136.8143762888
 21
159.9260840666
 31
0.0
  0
LINE
  5
1AB
330
1F
100
AcDbEntity
  8
0
  6
HIDDEN
 62
     7
370
     0
100
AcDbLine
 10
164.3143742771
 20
130.3587958317
 30
0.0
 11
164.3143742771
 21
130.7582568478
 31
0.0
  0
LINE
  5
1AC
330
1F
100
AcDbEntity
  8
0
  6
HIDDEN
 62
     7
370
     0
100
AcDbLine
 10
164.3143742771
 20
123.8992905345
 30
0.0
 11
164.3143742771
 21
128.0454333972
 31
0.0
  0
LINE
  5
1AD
330
1F
100
AcDbEntity
  8
0
  6
HIDDEN
 62
     7
370
     0
100
AcDbLine
 10
160.3143773468
 20
130.7582568478
 30
0.0
 11
160.3143773468
 21
123.8971615311
 31
0.0
  0
LINE
  5
1AE
330
1F
100
AcDbEntity
  8
0
  6
HIDDEN
 62
     7
370
     0
100
AcDbLine
 10
154.9451760442
 20
144.628000642
 30
0.0
 11
155.5228232832
 21
144.4133605909
 31
0.0
  0
LINE
  5
1AF
330
1F
100
AcDbEntity
  8
0
  6
HIDDEN
 62
     7
370
     0
100
AcDbLine
 10
159.0059287341
 20
144.4133605909
 30
0.0
 11
159.5763340087
 21
144.6253109824
 31
0.0
  0
LINE
  5
1B0
330
1F
100
AcDbEntity
  8
0
  6
HIDDEN
 62
     7
370
     0
100
AcDbLine
 10
163.9370768757
 20
127.5613859396
 30
0.0
 11
222.8143773468
 21
125.9256389093
 31
0.0
  0
LINE
  5
1B1
330
1F
100
AcDbEntity
  8
0
  6
HIDDEN
 62
     7
370
     0
100
AcDbLine
 10
222.8143773468
 20
129.2269129407
 30
0.0
 11
163.9390810819
 21
130.8626040917
 31
0.0
  0
LINE
  5
1B2
330
1F
100
AcDbEntity
  8
0
  6
HIDDEN
 62
     7
370
     0
100
AcDbLine
 10
159.7643754871
 20
98.8178189945
 30
0.0
 11
159.7643754871
 21
103.9544439044
 31
0.0
  0
LINE
  5
1B3
330
1F
100
AcDbEntity
  8
0
  6
HIDDEN
 62
     7
370
     0
100
AcDbLine
 10
154.7643765302
 20
103.9544439044
 30
0.0
 11
154.7643765302
 21
98.8178189945
 31
0.0
  0
LINE
  5
1B4
330
1F
100
AcDbEntity
  8
0
  6
HIDDEN
 62
     7
370
     0
100
AcDbLine
 10
215.5521623285
 20
98.9689232882
 30
0.0
 11
214.8241362961
 21
98.1986971673
 31
0.0
  0
LINE
  5
1B5
330
1F
100
AcDbEntity
  8
0
  6
HIDDEN
 62
     7
370
     0
100
AcDbLine
 10
214.8935384543
 20
95.7006245952
 30
0.0
 11
215.6632057817
 21
94.9720081043
 31
0.0
  0
LINE
  5
1B6
330
1F
100
AcDbEntity
  8
0
  6
HIDDEN
 62
     7
370
     0
100
AcDbLine
 10
222.5730977447
 20
99.164752486
 30
0.0
 11
215.5536822469
 21
98.9697372641
 31
0.0
  0
LINE
  5
1B7
330
1F
100
AcDbEntity
  8
0
  6
HIDDEN
 62
     7
370
     0
100
AcDbLine
 10
215.6647704036
 20
94.97127981
 30
0.0
 11
222.6841859014
 21
95.1662950318
 31
0.0
  0
LINE
  5
1B8
330
1F
100
AcDbEntity
  8
0
  6
HIDDEN
 62
     7
370
     0
100
AcDbLine
 10
222.6867936046
 20
95.1686829429
 30
0.0
 11
222.8143773468
 21
95.404938991
 31
0.0
  0
LINE
  5
1B9
330
1F
100
AcDbEntity
  8
0
  6
HIDDEN
 62
     7
370
     0
100
AcDbLine
 10
222.8111214431
 20
98.7793507155
 30
0.0
 11
222.5758321078
 21
99.1625126552
 31
0.0
  0
LINE
  5
1BA
330
1F
100
AcDbEntity
  8
0
  6
HIDDEN
 62
     7
370
     0
100
AcDbLine
 10
222.4973104389
 20
125.5866291102
 30
0.0
 11
222.7326072247
 21
125.9697910499
 31
0.0
  0
LINE
  5
1BB
330
1F
100
AcDbEntity
  8
0
  6
HIDDEN
 62
     7
370
     0
100
AcDbLine
 10
222.8143773468
 20
129.1988037627
 30
0.0
 11
222.6082719357
 21
129.5804578912
 31
0.0
  0
LINE
  5
1BC
330
1F
100
AcDbEntity
  8
0
  6
HIDDEN
 62
     7
370
     0
100
AcDbLine
 10
222.6056642325
 20
129.5828458022
 30
0.0
 11
215.5862487347
 21
129.7778610241
 31
0.0
  0
LINE
  5
1BD
330
1F
100
AcDbEntity
  8
0
  6
HIDDEN
 62
     7
370
     0
100
AcDbLine
 10
215.475160578
 20
125.7794045013
 30
0.0
 11
222.4945835264
 21
125.5843883481
 31
0.0
  0
LINE
  5
1BE
330
1F
100
AcDbEntity
  8
0
  6
HIDDEN
 62
     7
370
     0
100
AcDbLine
 10
215.5846841128
 20
129.7771327298
 30
0.0
 11
214.815024236
 21
129.0485162389
 31
0.0
  0
LINE
  5
1BF
330
1F
100
AcDbEntity
  8
0
  6
HIDDEN
 62
     7
370
     0
100
AcDbLine
 10
214.7456220777
 20
126.5504445981
 30
0.0
 11
215.4736406596
 21
125.7802184772
 31
0.0
  0
DIMENSION
  5
1C0
330
1F
100
AcDbEntity
  8
VERMASSUNG
100
AcDbDimension
  2
*D1
 10
64.5080085509
 20
62.3734798383
 30
0.0
 11
64.5080085509
 21
112.1372388472
 31
0.0
 70
   160
  1
HSK A %%c<>
 71
     2
 42
-1.0
  3
SLDDIMSTYLE0
100
AcDbAlignedDimension
 13
123.3143758567
 23
162.3734798383
 33
0.0
 14
123.3143758567
 24
62.3734798383
 34
0.0
 50
90.0
100
AcDbRotatedDimension
  0
DIMENSION
  5
1CD
330
1F
100
AcDbEntity
  8
VERMASSUNG
100
AcDbDimension
  2
*D2
 10
222.8143758567
 20
179.6068663837
 30
0.0
 11
147.8643758567
 21
179.6068663837
 31
0.0
 70
   160
 71
     2
 42
-1.0
  3
SLDDIMSTYLE0
100
AcDbAlignedDimension
 13
72.9143758567
 23
142.8761495809
 33
0.0
 14
222.8143758567
 24
137.5450527136
 34
0.0
100
AcDbRotatedDimension
  0
DIMENSION
  5
1D7
330
1F
100
AcDbEntity
  8
VERMASSUNG
100
AcDbDimension
  2
*D3
 10
222.8143758567
 20
173.6068663837
 30
0.0
 11
172.8143758567
 21
173.6068663837
 31
0.0
 70
   160
 71
     2
 42
-1.0
  3
SLDDIMSTYLE0
100
AcDbAlignedDimension
 13
122.8143758567
 23
161.8734798383
 33
0.0
 14
222.8143758567
 24
137.5450527136
 34
0.0
100
AcDbRotatedDimension
  0
DIMENSION
  5
1E1
330
1F
100
AcDbEntity
  8
VERMASSUNG
100
AcDbDimension
  2
*D4
 10
222.8143758567
 20
167.6068663837
 30
0.0
 11
187.2893758567
 21
167.6068663837
 31
0.0
 70
   160
 71
     2
 42
-1.0
  3
SLDDIMSTYLE0
100
AcDbAlignedDimension
 13
151.7643758567
 23
160.3422196591
 33
0.0
 14
222.8143758567
 24
137.5450527136
 34
0.0
100
AcDbRotatedDimension
  0
DIMENSION
  5
1EB
330
1F
100
AcDbEntity
  8
VERMASSUNG
100
AcDbDimension
  2
*D5
 10
232.5396794085
 20
96.3734798383
 30
0.0
 11
232.5396794085
 21
112.3734798383
 31
0.0
 70
   160
  1
%%c<>
 71
     2
 42
-1.0
  3
SLDDIMSTYLE0
100
AcDbAlignedDimension
 13
222.3143758567
 23
128.3734798383
 33
0.0
 14
222.3143758567
 24
96.3734798383
 34
0.0
 50
90.0
100
AcDbRotatedDimension
  0
DIMENSION
  5
1F6
330
1F
100
AcDbEntity
  8
VERMASSUNG
100
AcDbDimension
  2
*D6
 10
238.5396794085
 20
76.3734798383
 30
0.0
 11
238.5396794085
 21
112.3734798383
 31
0.0
 70
   160
  1
%%c<>
 71
     2
 42
-1.0
  3
SLDDIMSTYLE0
100
AcDbAlignedDimension
 13
211.9859487319
 23
148.3734798383
 33
0.0
 14
211.9859487319
 24
76.3734798383
 34
0.0
 50
90.0
100
AcDbRotatedDimension
  0
LINE
  5
201
330
1F
100
AcDbEntity
  8
VERMASSUNG
  6
CENTERX2
 62
     7
370
     0
100
AcDbLine
 10
70.6639064957
 20
112.3734798383
 30
0.0
 11
227.5609320241
 21
112.3734798383
 31
0.0
  0
OLE2FRAME
  5
202
330
1F
100
AcDbEntity
  8
0
100
AcDbOle2Frame
 70
     2
  3
Bitmap Image
 10
13.8511154363
 20
38.264191557
 30
0.0
 11
51.6290888628
 21
31.9806341108
 31
0.0
 71
     2
 72
     0
 73
     1
 90
    12928
310
80552BED0767C5B32B40DDAF6807D121434000000000000000006FFBDDFB85D0
310
4940DDAF6807D121434000000000000000006FFBDDFB85D04940416F4BD60AFB
310
3F4000000000000000002BED0767C5B32B40416F4BD60AFB3F40000000000000
310
0000000000000100000000010000010000000100000000000100000000320000
310
D0CF11E0A1B11AE1000000000000000000000000000000003E000300FEFF0900
310
0600000000000000000000000100000001000000000000000010000002000000
310
01000000FEFFFFFF0000000000000000FFFFFFFFFFFFFFFFFFFFFFFFFFFFFFFF
310
FFFFFFFFFFFFFFFFFFFFFFFFFFFFFFFFFFFFFFFFFFFFFFFFFFFFFFFFFFFFFFFF
310
FFFFFFFFFFFFFFFFFFFFFFFFFFFFFFFFFFFFFFFFFFFFFFFFFFFFFFFFFFFFFFFF
310
FFFFFFFFFFFFFFFFFFFFFFFFFFFFFFFFFFFFFFFFFFFFFFFFFFFFFFFFFFFFFFFF
310
FFFFFFFFFFFFFFFFFFFFFFFFFFFFFFFFFFFFFFFFFFFFFFFFFFFFFFFFFFFFFFFF
310
FFFFFFFFFFFFFFFFFFFFFFFFFFFFFFFFFFFFFFFFFFFFFFFFFFFFFFFFFFFFFFFF
310
FFFFFFFFFFFFFFFFFFFFFFFFFFFFFFFFFFFFFFFFFFFFFFFFFFFFFFFFFFFFFFFF
310
FFFFFFFFFFFFFFFFFFFFFFFFFFFFFFFFFFFFFFFFFFFFFFFFFFFFFFFFFFFFFFFF
310
FFFFFFFFFFFFFFFFFFFFFFFFFFFFFFFFFFFFFFFFFFFFFFFFFFFFFFFFFFFFFFFF
310
FFFFFFFFFFFFFFFFFFFFFFFFFFFFFFFFFFFFFFFFFFFFFFFFFFFFFFFFFFFFFFFF
310
FFFFFFFFFFFFFFFFFFFFFFFFFFFFFFFFFFFFFFFFFFFFFFFFFFFFFFFFFFFFFFFF
310
FFFFFFFFFFFFFFFFFFFFFFFFFFFFFFFFFFFFFFFFFFFFFFFFFFFFFFFFFFFFFFFF
310
FFFFFFFFFFFFFFFFFFFFFFFFFFFFFFFFFFFFFFFFFFFFFFFFFFFFFFFFFFFFFFFF
310
FFFFFFFFFFFFFFFFFFFFFFFFFFFFFFFFFFFFFFFFFFFFFFFFFFFFFFFFFFFFFFFF
310
FDFFFFFFFEFFFFFFFEFFFFFFFEFFFFFF05000000060000000700000008000000
310
090000000A0000000B0000000C0000000D0000000E0000000F00000010000000
310
11000000120000001300000014000000150000001600000017000000FEFFFFFF
310
FFFFFFFFFFFFFFFFFFFFFFFFFFFFFFFFFFFFFFFFFFFFFFFFFFFFFFFFFFFFFFFF
310
FFFFFFFFFFFFFFFFFFFFFFFFFFFFFFFFFFFFFFFFFFFFFFFFFFFFFFFFFFFFFFFF
310
FFFFFFFFFFFFFFFFFFFFFFFFFFFFFFFFFFFFFFFFFFFFFFFFFFFFFFFFFFFFFFFF
310
FFFFFFFFFFFFFFFFFFFFFFFFFFFFFFFFFFFFFFFFFFFFFFFFFFFFFFFFFFFFFFFF
310
FFFFFFFFFFFFFFFFFFFFFFFFFFFFFFFFFFFFFFFFFFFFFFFFFFFFFFFFFFFFFFFF
310
FFFFFFFFFFFFFFFFFFFFFFFFFFFFFFFFFFFFFFFFFFFFFFFFFFFFFFFFFFFFFFFF
310
FFFFFFFFFFFFFFFFFFFFFFFFFFFFFFFFFFFFFFFFFFFFFFFFFFFFFFFFFFFFFFFF
310
FFFFFFFFFFFFFFFFFFFFFFFFFFFFFFFFFFFFFFFFFFFFFFFFFFFFFFFFFFFFFFFF
310
FFFFFFFFFFFFFFFFFFFFFFFFFFFFFFFFFFFFFFFFFFFFFFFFFFFFFFFFFFFFFFFF
310
FFFFFFFFFFFFFFFFFFFFFFFFFFFFFFFFFFFFFFFFFFFFFFFFFFFFFFFFFFFFFFFF
310
FFFFFFFFFFFFFFFFFFFFFFFFFFFFFFFFFFFFFFFFFFFFFFFFFFFFFFFFFFFFFFFF
310
FFFFFFFFFFFFFFFFFFFFFFFFFFFFFFFFFFFFFFFFFFFFFFFFFFFFFFFFFFFFFFFF
310
FFFFFFFFFFFFFFFFFFFFFFFFFFFFFFFFFFFFFFFFFFFFFFFFFFFFFFFFFFFFFFFF
310
52006F006F007400200045006E00740072007900000000000000000000000000
310
0000000000000000000000000000000000000000000000000000000000000000
310
16000500FFFFFFFFFFFFFFFF020000000A00030000000000C000000000000046
310
000000000000000000000000C0E46F590A00CC0103000000C000000000000000
310
01004F006C006500000000000000000000000000000000000000000000000000
310
0000000000000000000000000000000000000000000000000000000000000000
310
0A000200FFFFFFFFFFFFFFFFFFFFFFFF00000000000000000000000000000000
310
0000000000000000000000000000000000000000000000001400000000000000
310
010043006F006D0070004F0062006A0000000000000000000000000000000000
310
0000000000000000000000000000000000000000000000000000000000000000
310
120002010100000003000000FFFFFFFF00000000000000000000000000000000
310
0000000000000000000000000000000000000000010000004D00000000000000
310
01004F006C006500310030004E00610074006900760065000000000000000000
310
0000000000000000000000000000000000000000000000000000000000000000
310
1A000200FFFFFFFFFFFFFFFFFFFFFFFF00000000000000000000000000000000
310
0000000000000000000000000000000000000000040000002426000000000000
310
FEFFFFFF02000000FEFFFFFFFFFFFFFFFFFFFFFFFFFFFFFFFFFFFFFFFFFFFFFF
310
FFFFFFFFFFFFFFFFFFFFFFFFFFFFFFFFFFFFFFFFFFFFFFFFFFFFFFFFFFFFFFFF
310
FFFFFFFFFFFFFFFFFFFFFFFFFFFFFFFFFFFFFFFFFFFFFFFFFFFFFFFFFFFFFFFF
310
FFFFFFFFFFFFFFFFFFFFFFFFFFFFFFFFFFFFFFFFFFFFFFFFFFFFFFFFFFFFFFFF
310
FFFFFFFFFFFFFFFFFFFFFFFFFFFFFFFFFFFFFFFFFFFFFFFFFFFFFFFFFFFFFFFF
310
FFFFFFFFFFFFFFFFFFFFFFFFFFFFFFFFFFFFFFFFFFFFFFFFFFFFFFFFFFFFFFFF
310
FFFFFFFFFFFFFFFFFFFFFFFFFFFFFFFFFFFFFFFFFFFFFFFFFFFFFFFFFFFFFFFF
310
FFFFFFFFFFFFFFFFFFFFFFFFFFFFFFFFFFFFFFFFFFFFFFFFFFFFFFFFFFFFFFFF
310
FFFFFFFFFFFFFFFFFFFFFFFFFFFFFFFFFFFFFFFFFFFFFFFFFFFFFFFFFFFFFFFF
310
FFFFFFFFFFFFFFFFFFFFFFFFFFFFFFFFFFFFFFFFFFFFFFFFFFFFFFFFFFFFFFFF
310
FFFFFFFFFFFFFFFFFFFFFFFFFFFFFFFFFFFFFFFFFFFFFFFFFFFFFFFFFFFFFFFF
310
FFFFFFFFFFFFFFFFFFFFFFFFFFFFFFFFFFFFFFFFFFFFFFFFFFFFFFFFFFFFFFFF
310
FFFFFFFFFFFFFFFFFFFFFFFFFFFFFFFFFFFFFFFFFFFFFFFFFFFFFFFFFFFFFFFF
310
FFFFFFFFFFFFFFFFFFFFFFFFFFFFFFFFFFFFFFFFFFFFFFFFFFFFFFFFFFFFFFFF
310
FFFFFFFFFFFFFFFFFFFFFFFFFFFFFFFFFFFFFFFFFFFFFFFFFFFFFFFFFFFFFFFF
310
FFFFFFFFFFFFFFFFFFFFFFFFFFFFFFFFFFFFFFFFFFFFFFFFFFFFFFFFFFFFFFFF
310
0100000200000000000000000000000000000000610072003D0082005C003107
310
9806250000000000604E280000000000680061007200650064005C003B004300
310
0100FEFF030A0000FFFFFFFF0A00030000000000C00000000000004607000000
310
5042727573680007000000504272757368000700000050427275736800F439B2
310
71000000000000000000000000004100540049002E004100430045005C004300
310
6F00720065002D005300740061007400690063003B0043003A005C0050007200
310
6F006700720061006D002000460069006C006500730020002800780038003600
310
29005C0043006F006D006D006F006E002000460069006C00650073005C004100
310
750074006F006400650073006B0020005300680061007200650064005C003B00
310
43003A005C00500072006F006700720061006D002000460069006C0065007300
310
5C004E006F0072006D0061006E005C004E0070006D005C00420069006E000000
310
43003A005C00500072006F006700720061006D002000460069006C0065007300
310
5C0053006F006C006900640057006F0072006B007300200043006F0072007000
310
5C0053006F006C006900640057006F0072006B00730020002800320029005C00
310
730065007400750070005C0069003300380036005C0073007700610063007400
310
770069007A002E006500780065000000220043003A005C00500072006F006700
310
20260000424D0E260000000000003E00000028000000B40200006E0000000100
310
01000000000000000000130B0000130B00000200000002000000000000FFFFFF
310
FFFFFFFFFFFFFFFFFFFFFFFFFFFFFFFFFFFFFFFFFFFFFFFFFFFFFFFFFFFFFFFF
310
FFFFFFFFFFFFFFFFFFFFFFFFFFFFFFFFFFFFFFFFFFFFFFFFFFFFFFFFFFFFFFFF
310
FFFFFFFFFFFFFFFFFFFFFFFFFFFFFFFFFFFFFFFFFFFFFFFFF000FFFFFFFFFFFF
310
FFFFFFFFFFFFFFFFFFFFFFFFFFFFFFFFFFFFFFFFFFFFFFFFFFFFFFFFFFFFFFFF
310
FFFFFFFFFFFFFFFFFFFFFFFFFFFFFFFFFFFFFFFFFFFFFFFFFFFFFFFFFFFFFFFF
310
FFFFFFFFFFFFFFFFFFFFFFFFFFFFFFFFF000FFFFFFFFFFFFFFFFFFFFFFFFFFFF
310
FFFFFFFFFFFFFFFFFFFFFFFFFFFFFFFFFFFFFFFFFFFFFFFFFFFFFFFFFFFFFFFF
310
FFFFFFFFFFFFFFFFFFFFFFFFFFFFFFFFFFFFFFFFFFFFFFFFFFFFFFFFFFFFFFFF
310
FFFFFFFFFFFFFFFFF000FFFFFFFFFFFFFFFFFFFFFFFFFFFFFFFFFFFFFFFFFFFF
310
FFFFFFFFFFFFFFFFFFFFFFFFFFFFFFFFFFFFFFFFFFFFFFFFFFFFFFFFFFFFFFFF
310
FFFFFFFFFFFFFFFFFFFFFFFFFFFFFFFFFFFFFFFFFFFFFFFFFFFFFFFFFFFFFFFF
310
F000FFFFFFFFFFFFFFFFFFFFFFFFFFFFFFFFFFFFFFFFFFFFFFFFFFFFFFFFFFFF
310
FFFFFFFFFFFFFFFFFFFFFFFFFFFFFFFFFFFFFFFFFFFFFFFFFFFFFFFFFFFFFFFF
310
FFFFFFFFFFFFFFFFFFFFFFFFFFFFFFFFFFFFFFFFFFFFFFFFF000FFFFFFFFFFFF
310
FFFFFFFFFFFFFFFFFFFFFFFFFFFFFFFFFFFFFFFFFFFFFFFFFFFFFFFFFFFFFFFF
310
FFFFFFFFFFFFFFFFFFFFFFFFFFFFFFFFFFFFFFFFFFFFFFFFFFFFFFFFFFFFFFFF
310
FFFFFFFFFFFFFFFFFFFFFFFFFFFFFFFFF000FFFFFFFFFFFFFFFFFFFFFFFFFFFF
310
FFFFFFFFFFFFFFFFFFFFFFFFFFFFFFFFFFFFFFFFFFFFFFFFFFFFFFFFFFFFFFFF
310
FFFFFFFFFFFFFFFFFFFFFFFFFFFFFFFFFFFFFFFFFFFFFFFFFFFFFFFFFFFFFFFF
310
FFFFFFFFFFFFFFFFF000FFFFFFFFFFFFFFFFFFFFFFFFFFFFFFFFFFFFFFFFFFFF
310
FFFFFFFFFFFFFFFFFFFFFFFFFFFFFFFFFFFFFFFFFFFFFFFFFFFFFFFFFFFFFFFF
310
FFFFFFFFFFFFFFFFFFFFFFFFFFFFFFFFFFFFFFFFFFFFFFFFFFFFFFFFFFFFFFFF
310
F000FFFFFFFFFFFFFFFFFFFFFFFFFFFFFFFFFFFFFFFFFFFFFFFFFFFFFFFFFFFF
310
FFFFFFFFFFFFFFFFFFFFFFFFFFFFFFFFFFFFFFFFFFFFFFFFFFFFFFFFFFFFFFFF
310
FFFFFFFFFFFFFFFFFFFFFFFFFFFFFFFFFFFFFFFFFFFFFFFFF000FFFFFFFFFFFF
310
FFFFFFFFFFFFFFFFFFFFFFFFFFFFFFFFFFFFFFFFFFFFFFFFFFFFFFFFFFFFFFFF
310
FFFFFFFFFFFFFFFFFFFFFFFFFFFFFFFFFFFFFFFFFFFFFFFFFFFFFFFFFFFFFFFF
310
FFFFFFFFFFFFFFFFFFFFFFFFFFFFFFFFF000FFFFFFFFFFFFFFFFFFFFFFFFFFFF
310
FFFFFFFFFFFFFFFFFFFFFFFFFFFFFFFFFFFFFFFFFFFFFFFFFFFFFFFFFFFFFFFF
310
FFFFFFFFFFFFFFFFFFFFFFFFFFFFFFFFFFFFFFFFFFFFFFFFFFFFFFFFFFFFFFFF
310
FFFFFFFFFFFFFFFFF000FFFFFFFFFFFFFFFFFFFFFFFFFFFFFFFFFFFFFFFFFFFF
310
FFFFFFFFFFFFFFFFFFFFFFFFFFFFFFFFFFFFFFFFFFFFFFFFFFFFFFFFFFFFFFFF
310
FFFFFFFFFFFFFFFFFFFFFFFFFFFFFFFFFFFFFFFFFFFFFFFFFFFFFFFFFFFFFFFF
310
F000FFFFFFFFFFFFFFFFFFFFFFFFFFFFFFFFFFFFFFFFFFFFFFFFFFFFFFFFFFFF
310
FFFFFFFFFFFFFFFFFFFFFFFFFFFFFFFFFFFFFFFFFFFFFFFFFFFFFFFFFFFFFFFF
310
FFFFFFFFFFFFFFFFFFFFFFFFFFFFFFFFFFFFFFFFFFFFFFFFF000FFFFFFFFFFFF
310
FFFFFFFFFFFFFFFFFFFFFFFFFFFFFFFFFFFFFFFFFFFFFFFFFFFFFFFFFFFFFFFF
310
FFFFFFFFFFFFFFFFFFFFFFFFFFFFFFFFFFFFFFFFFFFFFFFFFFFFFFFFFFFFFFFF
310
FFFFFFFFFFFFFFFFFFFFFFFFFFFFFFFFF000FFFFFFFFFFFFFFFFFFFFFFFFFFFF
310
FFFFFFFFFFFFFFFFFFFFFFFFFFFFFFFFFFFFFFFFFFFFFFFFFFFFFFFFFFFFFFFF
310
FFFFFFFFFFFFFFFFFFFFFFFFFFFFFFFFFFFFFFFFFFFFFFFFFFFFFFFFFFFFFFFF
310
FFFFFFFFFFFFFFFFF000FFFFFFFFFFFFFFFFFFFFFFFFFFFFFFFFFFFFFFFFFFFF
310
FFFFFFFFFFFFFFFFFFFFFFFFFFFFFFFFFFFFFFFFFFFFFFFFFFFFFFFFFFFFFFFF
310
FFFFFFFFFFFFFFFFFFFFFFFFFFFFFFFFFFFFFFFFFFFFFFFFFFFFFFFFFFFFFFFF
310
F000FFFFFFFFFFFFFFFFFFFFFFFFFFFFFFFFFFFFFFFFFFFFFFFFFFFFFFFFFFFF
310
FFFFFFFFFFFFFFFFFFFFFFFFFFFFFFFFFFFFFFFFFFFFFFFFFFFFFFFFFFFFFFFF
310
FFFFFFFFFFFFFFFFFFFFFFFFFFFFFFFFFFFFFFFFFFFFFFFFF000FFFFFFFFFFFF
310
FFFFFFFFFFFFFFFFFFFFFFFFFFFFFFFFFFFFFFFFFFFFFFFFFFFFFFFFFFFFFFFF
310
FFFFFFFFFFFFFFFFFFFFFFFFFFFFFFFFFFFFFFFFFFFFFFFFFFFFFFFFFFFFFFFF
310
FFFFFFFFFFFFFFFFFFFFFFFFFFFFFFFFF000FFFFFFFFFFFFFFFFFFFFFFFFFFFF
310
FFFFFFFFFFFFFFFFFFFFFFFFFFFFFFFFFFFFFFFFFFFFFFFFFFFFFFFFFFFFFFFF
310
FFFFFFFFFFFFFFFFFFFFFFFFFFFFFFFFFFFFFFFFFFFFFFFFFFFFFFFFFFFFFFFF
310
FFFFFFFFFFFFFFFFF000FFFFF80003FFFFFFFFFFFFFFFFFFFFFFFFFFFFFFFFFF
310
FFFFF00007FFFFFFFFFF00007FFFFFF800000000000000007FFFFFFFFFFFFFFF
310
FFFFFFFC001FFFFFFFFFFFFFFC001FFFFFFFFFFFFFFFFFFFFFFFFFFE0007FFFF
310
F000FFFF8000007FFFFFFFF8000FFFFFC0007FFFFF80007FFFFF0000007FFFFF
310
FFF8000007FFFFF800000000000000007FFFFFF0001FFFFFFFFFFFC00001FFFF
310
FFFFFFFFC00001FFFFFFFF000000000003FFFFE000007FFFF000FFFE0000000F
310
FFFFFFF0000FFFFF80007FFFFF80007FFFFC0000001FFFFFFFC0000001FFFFF8
310
00000000000000007FFFFFF0001FFFFFFFFFFE0000003FFFFFFFFFFE0000003F
310
FFFFFF000000000003FFFF0000000FFFF000FFF800000003FFFFFFF00007FFFF
310
80007FFFFF80007FFFF000000007FFFFFF000000003FFFF80000000000000000
310
7FFFFFF0001FFFFFFFFFF80000000FFFFFFFFFF80000000FFFFFFF0000000000
310
03FFFC00000003FFF000FFE000000000FFFFFFF00007FFFF80003FFFFF80007F
310
FFC000000001FFFFFC000000001FFFF800000000000000007FFFFFF0001FFFFF
310
FFFFE000000003FFFFFFFFE000000003FFFFFF000000000003FFF000000000FF
310
F000FF80000000007FFFFFF00007FFFF80003FFFFF80007FFF8000000000FFFF
310
F80000000007FFF800000000000000007FFFFFF0001FFFFFFFFFC000000001FF
310
FFFFFFC000000001FFFFFF000000000003FFC0000000007FF000FF0000000000
310
3FFFFFE00007FFFF00003FFFFF80007FFE00000000003FFFF00000000003FFF8
310
00000000000000007FFFFFF0001FFFFFFFFF8000000000FFFFFFFF8000000000
310
FFFFFF000000000003FF80000000003FF000FE00000000001FFFFFE00003FFFF
310
00003FFFFF80007FFC00000000001FFFE00000000001FFF8000001FFFE000000
310
7FFFFFF0001FFFFFFFFE00000000003FFFFFFE00000000003FFFFF0000000000
310
03FF00000000001FF000FC00000000000FFFFFE00003FFFF00001FFFFF80007F
310
F800000000001FFFC00000000000FFF8000001FFFE0000007FFFFFF0001FFFFF
310
FFFC00000000001FFFFFFC00000000001FFFFF000000000003FE00000000000F
310
F000F8000000000007FFFFE00003FFFF00001FFFFF80007FF800000000000FFF
310
800000000000FFF8000001FFFE0000007FFFFFF0001FFFFFFFF800000000000F
310
FFFFF800000000000FFFFF000000000003FC000000000007F000F80000000000
310
03FFFFC00003FFFE00001FFFFF80007FF0000000000007FF0000000000007FF8
310
000001FFFE0000007FFFFFF0001FFFFFFFF0000000000007FFFFF00000000000
310
07FFFF000000000003F8000000000003F000F0000000000003FFFFC00001FFFE
310
00001FFFFF80007FE0000000000007FE0000000000003FF8000001FFFE000000
310
7FFFFFF0001FFFFFFFF0000000000007FFFFF0000000000007FFFF0000000000
310
03F800001F800003F000E00001FFF00001FFFFC00001FFFE00000FFFFF80007F
310
E00001FFE00003FE00001FFF00003FF8000001FFFE0000007FFFFFF0001FFFFF
310
FFE000003E000003FFFFE000003E000003FFFF000000000003F00001FFF80001
310
F000E00007FFFC0001FFFFC00001FFFE00000FFFFF80007FC0000FFFFC0003FC
310
0000FFFFC0001FF8000001FFFE0000007FFFFFF0001FFFFFFFC00003FFE00001
310
FFFFC00003FFE00001FFFF0001FFFFFFFFF00007FFFE0001F000E0000FFFFF00
310
00FFFF800001FFFC00000FFFFF80007FC0001FFFFE0001FC0001FFFFE0001FF8
310
000001FFFE0000007FFFFFF0001FFFFFFF80000FFFF80000FFFF80000FFFF800
310
00FFFF0003FFFFFFFFE0000FFFFF8000F000C0003FFFFF8000FFFF800000FFFC
310
000007FFFF80007F80003FFFFF0001FC0003FFFFF0001FF8000001FFFE000000
310
7FFFFFF0001FFFFFFF80003FFFFE0000FFFF80003FFFFE0000FFFF0003FFFFFF
310
FFE0003FFFFF8000F000C0003FFFFF8000FFFF800000FFFC000007FFFF80007F
310
80007FFFFF8001F80007FFFFF8000FF8000001FFFE0000007FFFFFF0001FFFFF
310
FF00007FFFFF00007FFF00007FFFFF00007FFF0003FFFFFFFFE0003FFFFFC000
310
F000C0007FFFFFC000FFFF000000FFFC000007FFFF80007F8000FFFFFF8000F8
310
000FFFFFF8000FF8000001FFFE0000007FFFFFF0001FFFFFFF0000FFFFFF8000
310
7FFF0000FFFFFF80007FFF0003FFFFFFFFC0007FFFFFC00070008000FFFFFFC0
310
00FFFF000000FFF8000007FFFF80007F8000FFFFFF8000F8000FFFFFF8000FF8
310
000001FFFE0000007FFFFFF0001FFFFFFE0001FFFFFFC0003FFE0001FFFFFFC0
310
003FFF0003FFFFFFFFC0007FFFFFE00070008000FFFFFFC0007FFF0000007FF8
310
000003FFFF80007F0001FFFFFF8000F8000FFFFFF8000FF8000001FFFE000000
310
7FFFFFF0001FFFFFFE0001FFFFFFC0003FFE0001FFFFFFC0003FFF0003FFFFFF
310
FFC000FFFFFFE00070008000FFFFFFC0007FFF0000007FF8000003FFFF80007F
310
0001FFFFFF8000F8001FFFFFF8000FF8000001FFFE0000007FFFFFF0001FFFFF
310
FE0003FFFFFFE0003FFE0003FFFFFFE0003FFF0003FFFFFFFFC000FFFFFFE000
310
70008000FFFFFFC0007FFE0000007FF8000003FFFF80007F0001FFFFFF8000F0
310
001FFFFFF8000FF8000001FFFE0000007FFFFFF0001FFFFFFC0003FFFFFFE000
310
1FFC0003FFFFFFE0001FFF0003FFFFFFFFC000FFFFFFC00070008000FFFFFF80
310
007FFE0000007FF0000003FFFF80007F0001FFFFFF0000F0001FFFFFF8000FF8
310
000001FFFE0000007FFFFFF0001FFFFFFC0007FFFFFFF0001FFC0007FFFFFFF0
310
001FFF0003FFFFFFFFC000FFFFFFC00070008001FFFFFF0000FFFE0000003FF0
310
000001FFFF80007F0001FFFFFF0000F8001FFFFFF0000FF8000001FFFE000000
310
7FFFFFF0001FFFFFFC0007FFFFFFF0001FFC0007FFFFFFF0001FFF0003FFFFFF
310
FFC001FFFFFF80007000FFFFFFFFFE0000FFFE0008003FF0008001FFFF80007F
310
FFFFFFFFFC0000FFFFFFFFFFE0000FF8000001FFFE0000007FFFFFF0001FFFFF
310
F8000FFFFFFFF8000FF8000FFFFFFFF8000FFF0003FFFFFFFFFFFFFFFFFF0000
310
7000FFFFFFFFFC0000FFFC0008003FF0008001FFFF80007FFFFFFFFFF80001FF
310
FFFFFFFF80000FF8000001FFFE0000007FFFFFF0001FFFFFF8000FFFFFFFF800
310
0FF8000FFFFFFFF8000FFF0003FFFFFFFFFFFFFFFFFE0000F000FFFFFFFFE000
310
00FFFC000C003FE000C001FFFF80007FFFFFFFFFC00001FFFFFFFFFE00001FF8
310
000001FFFE0000007FFFFFF0001FFFFFF8000FFFFFFFF8000FF8000FFFFFFFF8
310
000FFF0003FFFFFFFFFFFFFFFFF00000F000FFFFFFFE000001FFFC000C001FE0
310
00C000FFFF80007FFFFFFFFE000001FFFFFFFFE000001FF80FFFFFFFFFFFFFC0
310
7FFFFFF0001FFFFFF8000FFFFFFFF8000FF8000FFFFFFFF8000FFF0003FFFFFF
310
FFFFFFFFFF800000F000FFFFFFC0000001FFFC001C001FE001C000FFFF80007F
310
FFFFFF80000003FFFFFFF80000001FF80FFFFFFFFFFFFFC07FFFFFF0001FFFFF
310
F8001FFFFFFFFC000FF8001FFFFFFFFC000FFF0003FFFFFFFFFFFFFFF0000001
310
F000FFFFF800000001FFF8001C001FE001C000FFFF80007FFFFFF800000003FF
310
FFFF800000003FF80FFFFFFFFFFFFFC07FFFFFF0001FFFFFF8001FFFFFFFFC00
310
0FF8001FFFFFFFFC000FFF0003FFFFFFFFFFFFFE00000001F000FFFFC0000000
310
03FFF8001E001FC001E000FFFF80007FFFFF8000000007FFFFFC000000003FF8
310
0FFFFFFFFFFFFFC07FFFFFF0001FFFFFF8001FFFFFFFFC000FF8001FFFFFFFFC
310
000FFF0003FFFFFFFFFFFFE000000003F000FFFE0000000007FFF8001E000FC0
310
01E0007FFF80007FFFFE0000000007FFFFE0000000007FF80FFFFFFFFFFFFFC0
310
7FFFFFF0001FFFFFF0001FFFFFFFFC0007F0001FFFFFFFFC0007FF0003FFFFFF
310
FFFFFF0000000003F000FFF80000000007FFF8001E000FC003E0007FFF80007F
310
FFF0000000000FFFFF8000000000FFF80FFFFFFFFFFFFFC07FFFFFF0001FFFFF
310
F0001FFFFFFFFC0007F0001FFFFFFFFC0007FF0003FFFFFFFFFFFC0000000007
310
F000FFE0000000000FFFF0003E000FC003E0007FFF80007FFFC0000000001FFF
310
FE0000000001FFF80FFFFFFFFFFFFFC07FFFFFF0001FFFFFF0001FFFFFFFFC00
310
07F0001FFFFFFFFC0007FF0003FFFFFFFFFFF0000000000FF000FFC000000000
310
1FFFF0003F000F8003F0003FFF80007FFF80000000003FFFF80000000003FFF8
310
0FFFFFFFFFFFFFC07FFFFFF0001FFFFFF0001FFFFFFFFC0007F0001FFFFFFFFC
310
0007FF0003FFFFFFFFFFE0000000001FF000FF00000000007FFFF0003F000780
310
03F0003FFF80007FFF00000000007FFFF00000000007FFF80FFFFFFFFFFFFFC0
310
7FFFFFF0001FFFFFF0001FFFFFFFFC0007F0001FFFFFFFFC0007FF0003FFFFFF
310
FFFF80000000007FF000FE0000000000FFFFE0003F00078007F0003FFF80007F
310
FE0000000001FFFFE0000000001FFFF80FFFFFFFFFFFFFC07FFFFFF0001FFFFF
310
F0001FFFFFFFFC0007F0001FFFFFFFFC0007FF0003FFFFFFFFFF0000000000FF
310
F000FC0000000003FFFFE0007F00078007F0003FFF80007FFC0000000007FFFF
310
C0000000007FFFF80FFFFFFFFFFFFFC07FFFFFF0001FFFFFF8001FFFFFFFFC00
310
0FF8001FFFFFFFFC000FFF0003FFFFFFFFFE0000000003FFF000FC000000000F
310
FFFFE0007F80070007F8001FFF80007FF8000000001FFFFF8000000001FFFFF8
310
0FFFFFFFFFFFFFC07FFFFFF0001FFFFFF8001FFFFFFFFC000FF8001FFFFFFFFC
310
000FFF0003FFFFFFFFFC000000000FFFF000F8000000007FFFFFE0007F800700
310
07F8001FFF80007FF000000000FFFFFF800000000FFFFFF80FFFFFFFFFFFFFC0
310
7FFFFFF0001FFFFFF8000FFFFFFFF8000FF8000FFFFFFFF8000FFF0003FFFFFF
310
FFFC000000007FFFF000F800000007FFFFFFC0007F8003000FF8001FFF80007F
310
F000000007FFFFFF000000007FFFFFF80FFFFFFFFFFFFFC07FFFFFF0001FFFFF
310
F8000FFFFFFFF8000FF8000FFFFFFFF8000FFF0003FFFFFFFFF80000000FFFFF
310
F000F0000000FFFFFFFFC000FF8003000FF8001FFF80007FE0000000FFFFFFFF
310
0000000FFFFFFFF8000001FFFE0000007FFFFFF0001FFFFFF8000FFFFFFFF800
310
0FF8000FFFFFFFF8000FFF0003FFFFFFFFF8000000FFFFFFF000F000000FFFFF
310
FFFFC000FFC002000FF8000FFF80007FE000001FFFFFFFFE000001FFFFFFFFF8
310
000001FFFE0000007FFFFFF0001FFFFFF8000FFFFFFFF8000FF8000FFFFFFFF8
310
000FFF0003FFFFFFFFF000001FFFFFFFF000E00000FFFFFFFFFFC000FFC00200
310
0FFC000FFF80007FE00001FFFFFFFFFE00001FFFFFFFFFF8000001FFFE000000
310
7FFFFFF0001FFFFFFC000FFFFFFFF8001FFC000FFFFFFFF8001FFF0003FFFFFF
310
FFF00001FFFFFFFFF000E00007FFFFFFFFFF8000FFC000001FFC000FFF80007F
310
C0000FFFFFFFFFFE0000FFFFFFFFFFF8000001FFFE0000007FFFFFF0001FFFFF
310
FC0007FFFFFFF0001FFC0007FFFFFFF0001FFF0003FFFFFFFFF00007FFFFFFFF
310
F000E0001FFFFFFFFFFF8000FFC000001FFC000FFF80007FC0003FFFFFFFFFFE
310
0001FFFFFFFFFFF8000001FFFE0000007FFFFFF0001FFFFFFC0007FFFFFFF000
310
1FFC0007FFFFFFF0001FFF0003FFFFFFFFF0001FFFFFFFFFF000E0003FFFFF00
310
03FF8001FFE000001FFC0007FF80007FC0007FFFFF0007FC0003FFFFF0003FF8
310
000001FFFE0000007FFFFFF0001FFFFFFC0003FFFFFFE0001FFC0003FFFFFFE0
310
001FFF0003FFFFFFFFF0003FFFFFFFFFF000E0003FFFFF0001FF8001FFE00000
310
1FFE0007FF80007FC0007FFFFE0003FC0007FFFFE0003FF8000001FFFE000000
310
7FFFFFF0001FFFFFFE0003FFFFFFE0003FFE0003FFFFFFE0003FFF0003FFFFFF
310
FFF0003FFFFF8001F000E0003FFFFF0001FF0001FFE000001FFE0007FF80007F
310
C0007FFFFE0003FC0007FFFFE0003FF8000001FFFE0000007FFFFFF0001FFFFF
310
FE0001FFFFFFC0003FFE0001FFFFFFC0003FFF0003FFFFFFFFF0003FFFFF0001
310
F000E0003FFFFF0003FF0001FFE000003FFE0007FF80007FC0007FFFFE0003FC
310
0007FFFFE0003FF8000001FFFE0000007FFFFFF0001FFFFFFF0001FFFFFFC000
310
7FFF0001FFFFFFC0007FFF0003FFFFFFFFF0003FFFFF0001F000E0003FFFFE00
310
03FF0003FFF000003FFE0003FF80007FC0007FFFFC0003FE0007FFFFE0003FF8
310
000001FFFE0000007FFFFFF0001FFFFFFF0000FFFFFF80007FFF0000FFFFFF80
310
007FFF0003FFFFFFFFF0003FFFFF0001F000E0003FFFFE0003FF0003FFF00000
310
3FFF0003FF80007FC0007FFFFC0007FE0007FFFFC0003FF8000001FFFE000000
310
7FFFFFF0001FFFFFFF80007FFFFF0000FFFF80007FFFFF0000FFFF0003FFFFFF
310
FFF0003FFFFF0003F000E0003FFFFC0003FE0003FFF000003FFF0003FF80007F
310
E0003FFFF80007FE0003FFFFC0007FF8000001FFFE0000007FFFFFF0001FFFFF
310
FF80003FFFFE0000FFFF80003FFFFE0000FFFF0003FFFFFFFFF0001FFFFE0003
310
F000F0001FFFF80003FE0003FFF000007FFF0001FF80007FE0003FFFF00007FE
310
0001FFFF80007FF8000001FFFE0000007FFFFFF0001FFFFFFFC0000FFFF80001
310
FFFFC0000FFFF80001FFFF0003FFFFFFFFF0001FFFFC0003F000F0000FFFF000
310
07FE0007FFF800007FFF0001FF80007FE0001FFFE00007FF0000FFFE00007FF8
310
000001FFFE0000007FFFFFF0001FFFFFFFC00003FFE00001FFFFC00003FFE000
310
01FFFF0003FFFFFFFFF8000FFFF80003F000F00003FFC00007FC0007FFF80000
310
7FFF8001FF80007FF00007FF80000FFF00007FF80000FFF8000001FFFE000000
310
7F80000000000001FFE000003E000003FFFFE000003E000003FFFF0003FFFFFF
310
FFF80003FFE00007F000F800000000000FFC0007FFF800007FFF8001FF80007F
310
F000000000000FFF000000000000FFF8000001FFFE0000007F80000000000001
310
FFF0000000000007FFFFF0000000000007FFFF0003FFFFFFFFFC00007E000007
310
F000F800000000000FFC0007FFF80000FFFF8000FF80007FF800000000001FFF
310
800000000001FFF8000001FFFE0000007F80000000000001FFF800000000000F
310
FFFFF800000000000FFFFF0003FFFFFFFFFC00000000000FF000FC0000000000
310
1FFC0007FFFC0000FFFF8000FF80007FF800000000003FFFC00000000001FFF8
310
000001FFFE0000007F80000000000001FFF800000000000FFFFFF80000000000
310
0FFFFF0003FFFFFFFFFE00000000001FF000FE00000000003FF8000FFFFC0000
310
FFFF8000FF80007FFC00000000003FFFC00000000003FFF8000001FFFE000000
310
7F80000000000001FFFC00000000001FFFFFFC00000000001FFFFF0003FFFFFF
310
FFFF00000000001FF000FF00000000003FF8000FFFFC0000FFFFC000FF80007F
310
FE00000000007FFFE00000000007FFF8000001FFFE0000007F80000000000001
310
FFFE00000000003FFFFFFE00000000003FFFFF0003FFFFFFFFFF80000000003F
310
F000FF80000000007FF8000FFFFC0001FFFFC0007F80007FFF0000000000FFFF
310
F0000000000FFFF800000000000000007F80000000000001FFFF8000000000FF
310
FFFFFF8000000000FFFFFF0003FFFFFFFFFFC0000000007FF000FFC000000000
310
FFF8000FFFFE0001FFFFC0007F80007FFF8000000001FFFFF8000000001FFFF8
310
00000000000000007F80000000000001FFFFC000000001FFFFFFFFC000000001
310
FFFFFF0003FFFFFFFFFFE000000000FFF000FFE000000003FFF0001FFFFE0001
310
FFFFC0007F80007FFFC000000007FFFFFE000000003FFFF80000000000000000
310
7F80000000000001FFFFE000000003FFFFFFFFE000000003FFFFFF0003FFFFFF
310
FFFFF000000003FFF000FFF80000000FFFF0001FFFFE0001FFFFE0007F80007F
310
FFF00000000FFFFFFF00000000FFFFF800000000000000007F80000000000001
310
FFFFF80000000FFFFFFFFFF80000000FFFFFFF0003FFFFFFFFFFFC0000000FFF
310
F000FFFE0000003FFFF0001FFFFE0003FFFFE0003F80007FFFFC0000003FFFFF
310
FFC0000003FFFFF800000000000000007F80000000000001FFFFFE0000003FFF
310
FFFFFFFE0000003FFFFFFF0003FFFFFFFFFFFF0000003FFFF000FFFF800000FF
310
FFF0001FFFFF0003FFFFE0003F80007FFFFF000001FFFFFFFFF800001FFFFFF8
310
00000000000000007F80000000000001FFFFFFC00001FFFFFFFFFFFFC00001FF
310
FFFFFF0003FFFFFFFFFFFFC00000FFFFF000FFFFF8000FFFFFFFFFFFFFFFFFFF
310
FFFFFFFFFFFFFFFFFFFFF0001FFFFFFFFFFF0000FFFFFFF80000000000000000
310
7FFFFFFFFFFFFFFFFFFFFFFC001FFFFFFFFFFFFFFC001FFFFFFFFFFFFFFFFFFF
310
FFFFFFFC001FFFFFF000FFFFFFFFFFFFFFFFFFFFFFFFFFFFFFFFFFFFFFFFFFFF
310
FFFFFFFFFFFFFFFFFFFFFFFFFFFFFFFFFFFFFFFFFFFFFFFFFFFFFFFFFFFFFFFF
310
FFFFFFFFFFFFFFFFFFFFFFFFFFFFFFFFFFFFFFFFFFFFFFFFFFFFFFFFFFFFFFFF
310
F000FFFFFFFFFFFFFFFFFFFFFFFFFFFFFFFFFFFFFFFFFFFFFFFFFFFFFFFFFFFF
310
FFFFFFFFFFFFFFFFFFFFFFFFFFFFFFFFFFFFFFFFFFFFFFFFFFFFFFFFFFFFFFFF
310
FFFFFFFFFFFFFFFFFFFFFFFFFFFFFFFFFFFFFFFFFFFFFFFFF000FFFFFFFFFFFF
310
FFFFFFFFFFFFFFFFFFFFFFFFFFFFFFFFFFFFFFFFFFFFFFFFFFFFFFFFFFFFFFFF
310
FFFFFFFFFFFFFFFFFFFFFFFFFFFFFFFFFFFFFFFFFFFFFFFFFFFFFFFFFFFFFFFF
310
FFFFFFFFFFFFFFFFFFFFFFFFFFFFFFFFF000FFFFFFFFFFFFFFFFFFFFFFFFFFFF
310
FFFFFFFFFFFFFFFFFFFFFFFFFFFFFFFFFFFFFFFFFFFFFFFFFFFFFFFFFFFFFFFF
310
FFFFFFFFFFFFFFFFFFFFFFFFFFFFFFFFFFFFFFFFFFFFFFFFFFFFFFFFFFFFFFFF
310
FFFFFFFFFFFFFFFFF000FFFFFFFFFFFFFFFFFFFFFFFFFFFFFFFFFFFFFFFFFFFF
310
FFFFFFFFFFFFFFFFFFFFFFFFFFFFFFFFFFFFFFFFFFFFFFFFFFFFFFFFFFFFFFFF
310
FFFFFFFFFFFFFFFFFFFFFFFFFFFFFFFFFFFFFFFFFFFFFFFFFFFFFFFFFFFFFFFF
310
F000FFFFFFFFFFFFFFFFFFFFFFFFFFFFFFFFFFFFFFFFFFFFFFFFFFFFFFFFFFFF
310
FFFFFFFFFFFFFFFFFFFFFFFFFFFFFFFFFFFFFFFFFFFFFFFFFFFFFFFFFFFFFFFF
310
FFFFFFFFFFFFFFFFFFFFFFFFFFFFFFFFFFFFFFFFFFFFFFFFF000FFFFFFFFFFFF
310
FFFFFFFFFFFFFFFFFFFFFFFFFFFFFFFFFFFFFFFFFFFFFFFFFFFFFFFFFFFFFFFF
310
FFFFFFFFFFFFFFFFFFFFFFFFFFFFFFFFFFFFFFFFFFFFFFFFFFFFFFFFFFFFFFFF
310
FFFFFFFFFFFFFFFFFFFFFFFFFFFFFFFFF000FFFFFFFFFFFFFFFFFFFFFFFFFFFF
310
FFFFFFFFFFFFFFFFFFFFFFFFFFFFFFFFFFFFFFFFFFFFFFFFFFFFFFFFFFFFFFFF
310
FFFFFFFFFFFFFFFFFFFFFFFFFFFFFFFFFFFFFFFFFFFFFFFFFFFFFFFFFFFFFFFF
310
FFFFFFFFFFFFFFFFF000FFFFFFFFFFFFFFFFFFFFFFFFFFFFFFFFFFFFFFFFFFFF
310
FFFFFFFFFFFFFFFFFFFFFFFFFFFFFFFFFFFFFFFFFFFFFFFFFFFFFFFFFFFFFFFF
310
FFFFFFFFFFFFFFFFFFFFFFFFFFFFFFFFFFFFFFFFFFFFFFFFFFFFFFFFFFFFFFFF
310
F000FFFFFFFFFFFFFFFFFFFFFFFFFFFFFFFFFFFFFFFFFFFFFFFFFFFFFFFFFFFF
310
FFFFFFFFFFFFFFFFFFFFFFFFFFFFFFFFFFFFFFFFFFFFFFFFFFFFFFFFFFFFFFFF
310
FFFFFFFFFFFFFFFFFFFFFFFFFFFFFFFFFFFFFFFFFFFFFFFFF000FFFFFFFFFFFF
310
FFFFFFFFFFFFFFFFFFFFFFFFFFFFFFFFFFFFFFFFFFFFFFFFFFFFFFFFFFFFFFFF
310
FFFFFFFFFFFFFFFFFFFFFFFFFFFFFFFFFFFFFFFFFFFFFFFFFFFFFFFFFFFFFFFF
310
FFFFFFFFFFFFFFFFFFFFFFFFFFFFFFFFF000FFFFFFFFFFFFFFFFFFFFFFFFFFFF
310
FFFFFFFFFFFFFFFFFFFFFFFFFFFFFFFFFFFFFFFFFFFFFFFFFFFFFFFFFFFFFFFF
310
FFFFFFFFFFFFFFFFFFFFFFFFFFFFFFFFFFFFFFFFFFFFFFFFFFFFFFFFFFFFFFFF
310
FFFFFFFFFFFFFFFFF000FFFFFFFFFFFFFFFFFFFFFFFFFFFFFFFFFFFFFFFFFFFF
310
FFFFFFFFFFFFFFFFFFFFFFFFFFFFFFFFFFFFFFFFFFFFFFFFFFFFFFFFFFFFFFFF
310
FFFFFFFFFFFFFFFFFFFFFFFFFFFFFFFFFFFFFFFFFFFFFFFFFFFFFFFFFFFFFFFF
310
F000FFFFFFFFFFFFFFFFFFFFFFFFFFFFFFFFFFFFFFFFFFFFFFFFFFFFFFFFFFFF
310
FFFFFFFFFFFFFFFFFFFFFFFFFFFFFFFFFFFFFFFFFFFFFFFFFFFFFFFFFFFFFFFF
310
FFFFFFFFFFFFFFFFFFFFFFFFFFFFFFFFFFFFFFFFFFFFFFFFF000FFFFFFFFFFFF
310
FFFFFFFFFFFFFFFFFFFFFFFFFFFFFFFFFFFFFFFFFFFFFFFFFFFFFFFFFFFFFFFF
310
FFFFFFFFFFFFFFFFFFFFFFFFFFFFFFFFFFFFFFFFFFFFFFFFFFFFFFFFFFFFFFFF
310
FFFFFFFFFFFFFFFFFFFFFFFFFFFFFFFFF000FFFFFFFFFFFFFFFFFFFFFFFFFFFF
310
FFFFFFFFFFFFFFFFFFFFFFFFFFFFFFFFFFFFFFFFFFFFFFFFFFFFFFFFFFFFFFFF
310
FFFFFFFFFFFFFFFFFFFFFFFFFFFFFFFFFFFFFFFFFFFFFFFFFFFFFFFFFFFFFFFF
310
FFFFFFFFFFFFFFFFF000FFFFFFFFFFFFFFFFFFFFFFFFFFFFFFFFFFFFFFFFFFFF
310
FFFFFFFFFFFFFFFFFFFFFFFFFFFFFFFFFFFFFFFFFFFFFFFFFFFFFFFFFFFFFFFF
310
FFFFFFFFFFFFFFFFFFFFFFFFFFFFFFFFFFFFFFFFFFFFFFFFFFFFFFFFFFFFFFFF
310
F000FFFFFFFFFFFFFFFFFFFFFFFFFFFFFFFFFFFFFFFFFFFFFFFFFFFFFFFFFFFF
310
FFFFFFFFFFFFFFFFFFFFFFFFFFFFFFFFFFFFFFFFFFFFFFFFFFFFFFFFFFFFFFFF
310
FFFFFFFFFFFFFFFFFFFFFFFFFFFFFFFFFFFFFFFFFFFFFFFFF000FFFFFFFFFFFF
310
FFFFFFFFFFFFFFFFFFFFFFFFFFFFFFFFFFFFFFFFFFFFFFFFFFFFFFFFFFFFFFFF
310
FFFFFFFFFFFFFFFFFFFFFFFFFFFFFFFFFFFFFFFFFFFFFFFFFFFFFFFFFFFFFFFF
310
FFFFFFFFFFFFFFFFFFFFFFFFFFFFFFFFF000FFFFFFFFFFFFFFFFFFFFFFFFFFFF
310
FFFFFFFFFFFFFFFFFFFFFFFFFFFFFFFFFFFFFFFFFFFFFFFFFFFFFFFFFFFFFFFF
310
FFFFFFFFFFFFFFFFFFFFFFFFFFFFFFFFFFFFFFFFFFFFFFFFFFFFFFFFFFFFFFFF
310
FFFFFFFFFFFFFFFFF000FFFFFFFFFFFFFFFFFFFFFFFFFFFFFFFFFFFFFFFFFFFF
310
FFFFFFFFFFFFFFFFFFFFFFFFFFFFFFFFFFFFFFFFFFFFFFFFFFFFFFFFFFFFFFFF
310
FFFFFFFFFFFFFFFFFFFFFFFFFFFFFFFFFFFFFFFFFFFFFFFFFFFFFFFFFFFFFFFF
310
F000FFFFFFFFFFFFFFFFFFFFFFFFFFFFFFFFFFFFFFFFFFFFFFFFFFFFFFFFFFFF
310
FFFFFFFFFFFFFFFFFFFFFFFFFFFFFFFFFFFFFFFFFFFFFFFFFFFFFFFFFFFFFFFF
310
FFFFFFFFFFFFFFFFFFFFFFFFFFFFFFFFFFFFFFFFFFFFFFFFF000FFFFFFFFFFFF
310
FFFFFFFFFFFFFFFFFFFFFFFFFFFFFFFFFFFFFFFFFFFFFFFFFFFFFFFFFFFFFFFF
310
FFFFFFFFFFFFFFFFFFFFFFFFFFFFFFFFFFFFFFFFFFFFFFFFFFFFFFFFFFFFFFFF
310
FFFFFFFFFFFFFFFFFFFFFFFFFFFFFFFFF0000000000000000000000000000000
310
0000000001000000010000000100000001000000010000000100000001000000
310
0000000001000000010000000100000001000000010000000100000001000000
310
0100000001000000010000000100000001000000010000000100000001000000
310
0100000001000000010000000100000001000000010000000100000001000000
310
0100000001000000010000000100000001000000010000000100000001000000
310
0100000001000000010000000000000001000000010000000100000001000000
310
0100000001000000010000000100000001000000000000000100000000000000
310
0100000001000000000000000100000001000000010000000100000001000000
310
0100000001000000010000000100000001000000010000000100000001000000
310
0100000001000000010000000100000001000000010000000100000001000000
310
0100000001000000010000000100000001000000000000000100000001000000
310
0000000001000000000000000100000001000000010000000100000001000000
310
0100000001000000010000000100000000000000010000000000000001000000
310
0000000001000000000000000100000000000000010000000100000001000000
310
0100000001000000010000000100000001000000010000000100000001000000
  1
OLE
  0
ENDSEC
  0
SECTION
  2
OBJECTS
  0
DICTIONARY
  5
C
330
0
100
AcDbDictionary
281
     1
  3
ACAD_GROUP
350
D
  3
ACAD_LAYOUT
350
1A
  3
ACAD_MLEADERSTYLE
350
204
  3
ACAD_MLINESTYLE
350
17
  3
ACAD_PLOTSETTINGS
350
19
  3
ACAD_PLOTSTYLENAME
350
E
  3
ACAD_TABLESTYLE
350
203
  3
ACAD_VISUALSTYLE
350
2A
  3
AcDbVariableDictionary
350
205
  0
DICTIONARY
  5
D
102
{ACAD_REACTORS
330
C
102
}
330
C
100
AcDbDictionary
281
     1
  0
DICTIONARY
  5
1A
102
{ACAD_REACTORS
330
C
102
}
330
C
100
AcDbDictionary
281
     1
  3
Layout1
350
1E
  3
Layout2
350
26
  3
Model
350
22
  0
DICTIONARY
  5
204
102
{ACAD_REACTORS
330
C
102
}
330
C
100
AcDbDictionary
281
     1
  0
DICTIONARY
  5
17
102
{ACAD_REACTORS
330
C
102
}
330
C
100
AcDbDictionary
281
     1
  3
Standard
350
18
  0
DICTIONARY
  5
19
102
{ACAD_REACTORS
330
C
102
}
330
C
100
AcDbDictionary
281
     1
  0
ACDBDICTIONARYWDFLT
  5
E
102
{ACAD_REACTORS
330
C
102
}
330
C
100
AcDbDictionary
281
     1
  3
Normal
350
F
100
AcDbDictionaryWithDefault
340
F
  0
DICTIONARY
  5
203
102
{ACAD_REACTORS
330
C
102
}
330
C
100
AcDbDictionary
281
     1
  0
DICTIONARY
  5
2A
102
{ACAD_REACTORS
330
C
102
}
330
C
100
AcDbDictionary
281
     1
  3
2dWireframe
350
2F
  3
3D Hidden
350
31
  3
3dWireframe
350
30
  3
Basic
350
32
  3
Brighten
350
36
  3
ColorChange
350
3A
  3
Conceptual
350
34
  3
Dim
350
35
  3
Facepattern
350
39
  3
Flat
350
2B
  3
FlatWithEdges
350
2C
  3
Gouraud
350
2D
  3
GouraudWithEdges
350
2E
  3
Linepattern
350
38
  3
Realistic
350
33
  3
Thicken
350
37
  0
DICTIONARY
  5
205
102
{ACAD_REACTORS
330
C
102
}
330
C
100
AcDbDictionary
281
     1
  3
PSOLHEIGHT
350
207
  3
PSOLWIDTH
350
206
  0
LAYOUT
  5
1E
102
{ACAD_REACTORS
330
1A
102
}
330
1A
100
AcDbPlotSettings
  1

  2
none_device
  4

  6

 40
0.0
 41
0.0
 42
0.0
 43
0.0
 44
0.0
 45
0.0
 46
0.0
 47
0.0
 48
0.0
 49
0.0
140
0.0
141
0.0
142
1.0
143
1.0
 70
   688
 72
     0
 73
     0
 74
     5
  7

 75
    16
147
1.0
148
0.0
149
0.0
100
AcDbLayout
  1
Layout1
 70
     1
 71
     1
 10
0.0
 20
0.0
 11
420.0
 21
297.0
 12
0.0
 22
0.0
 32
0.0
 14
1.0000000000E+20
 24
1.0000000000E+20
 34
1.0000000000E+20
 15
-1.0000000000E+20
 25
-1.0000000000E+20
 35
-1.0000000000E+20
146
0.0
 13
0.0
 23
0.0
 33
0.0
 16
1.0
 26
0.0
 36
0.0
 17
0.0
 27
1.0
 37
0.0
 76
     0
330
1B
  0
LAYOUT
  5
26
102
{ACAD_REACTORS
330
1A
102
}
330
1A
100
AcDbPlotSettings
  1

  2
none_device
  4

  6

 40
0.0
 41
0.0
 42
0.0
 43
0.0
 44
0.0
 45
0.0
 46
0.0
 47
0.0
 48
0.0
 49
0.0
140
0.0
141
0.0
142
1.0
143
1.0
 70
   688
 72
     0
 73
     0
 74
     5
  7

 75
    16
147
1.0
148
0.0
149
0.0
100
AcDbLayout
  1
Layout2
 70
     1
 71
     2
 10
0.0
 20
0.0
 11
0.0
 21
0.0
 12
0.0
 22
0.0
 32
0.0
 14
0.0
 24
0.0
 34
0.0
 15
0.0
 25
0.0
 35
0.0
146
0.0
 13
0.0
 23
0.0
 33
0.0
 16
1.0
 26
0.0
 36
0.0
 17
0.0
 27
1.0
 37
0.0
 76
     0
330
23
  0
LAYOUT
  5
22
102
{ACAD_REACTORS
330
1A
102
}
330
1A
100
AcDbPlotSettings
  1

  2
none_device
  4

  6

 40
0.0
 41
0.0
 42
0.0
 43
0.0
 44
0.0
 45
0.0
 46
0.0
 47
0.0
 48
0.0
 49
0.0
140
0.0
141
0.0
142
1.0
143
1.0
 70
  1712
 72
     0
 73
     0
 74
     0
  7

 75
     0
147
1.0
148
0.0
149
0.0
100
AcDbLayout
  1
Model
 70
     1
 71
     0
 10
0.0
 20
0.0
 11
297.0
 21
210.0
 12
0.0
 22
0.0
 32
0.0
 14
0.0
 24
0.0
 34
0.0
 15
297.0
 25
210.0
 35
0.0
146
0.0
 13
0.0
 23
0.0
 33
0.0
 16
1.0
 26
0.0
 36
0.0
 17
0.0
 27
1.0
 37
0.0
 76
     0
330
1F
331
29
  0
MLINESTYLE
  5
18
102
{ACAD_REACTORS
330
17
102
}
330
17
100
AcDbMlineStyle
  2
Standard
 70
     0
  3

 62
   256
 51
90.0
 52
90.0
 71
     2
 49
0.5
 62
   256
  6
BYLAYER
 49
-0.5
 62
   256
  6
BYLAYER
  0
ACDBPLACEHOLDER
  5
F
102
{ACAD_REACTORS
330
E
102
}
330
E
  0
VISUALSTYLE
  5
2F
102
{ACAD_REACTORS
330
2A
102
}
330
2A
100
AcDbVisualStyle
  2
2dWireframe
 70
     4
 71
     0
 72
     2
 73
     0
 90
        0
 40
-0.6
 41
-30.0
 62
     5
 63
     7
 74
     1
 91
        4
 64
     7
 65
   257
 75
     1
175
     1
 42
1.0
 92
        0
 66
   257
 43
1.0
 76
     1
 77
     6
 78
     2
 67
     7
 79
     5
170
     0
171
     0
290
     0
174
     0
 93
        1
 44
0.0
173
     0
291
     0
 45
0.0
1001
ACAD
1000
AcDbSavedByObjectVersion
1070
     0
  0
VISUALSTYLE
  5
31
102
{ACAD_REACTORS
330
2A
102
}
330
2A
100
AcDbVisualStyle
  2
3D Hidden
 70
     6
 71
     1
 72
     2
 73
     2
 90
        0
 40
-0.6
 41
-30.0
 62
     5
 63
     7
 74
     2
 91
        2
 64
     7
 65
   257
 75
     2
175
     1
 42
40.0
 92
        0
 66
   257
 43
1.0
 76
     1
 77
     6
 78
     2
 67
     7
 79
     3
170
     0
171
     0
290
     0
174
     0
 93
        1
 44
0.0
173
     0
291
     0
 45
0.0
1001
ACAD
1000
AcDbSavedByObjectVersion
1070
     0
  0
VISUALSTYLE
  5
30
102
{ACAD_REACTORS
330
2A
102
}
330
2A
100
AcDbVisualStyle
  2
3dWireframe
 70
     5
 71
     0
 72
     2
 73
     0
 90
        0
 40
-0.6
 41
-30.0
 62
     5
 63
     7
 74
     1
 91
        4
 64
     7
 65
   257
 75
     1
175
     1
 42
1.0
 92
        0
 66
   257
 43
1.0
 76
     1
 77
     6
 78
     2
 67
     7
 79
     5
170
     0
171
     0
290
     0
174
     0
 93
        1
 44
0.0
173
     0
291
     0
 45
0.0
1001
ACAD
1000
AcDbSavedByObjectVersion
1070
     0
  0
VISUALSTYLE
  5
32
102
{ACAD_REACTORS
330
2A
102
}
330
2A
100
AcDbVisualStyle
  2
Basic
 70
     7
 71
     1
 72
     0
 73
     1
 90
        0
 40
-0.6
 41
-30.0
 62
     5
 63
     7
 74
     0
 91
        4
 64
     7
 65
   257
 75
     1
175
     1
 42
1.0
 92
        8
 66
     7
 43
1.0
 76
     1
 77
     6
 78
     2
 67
     7
 79
     5
170
     0
171
     0
290
     0
174
     0
 93
        1
 44
0.0
173
     0
291
     1
 45
0.0
1001
ACAD
1000
AcDbSavedByObjectVersion
1070
     0
  0
VISUALSTYLE
  5
36
102
{ACAD_REACTORS
330
2A
102
}
330
2A
100
AcDbVisualStyle
  2
Brighten
 70
    12
 71
     2
 72
     2
 73
     0
 90
        0
 40
-0.6
 41
-30.0
 62
     5
 63
     7
 74
     1
 91
        4
 64
     7
 65
   257
 75
     1
175
     1
 42
1.0
 92
        8
 66
     7
 43
1.0
 76
     1
 77
     6
 78
     2
 67
     7
 79
     5
170
     0
171
     0
290
     0
174
     0
 93
        1
 44
50.0
173
     0
291
     1
 45
0.0
1001
ACAD
1000
AcDbSavedByObjectVersion
1070
     0
  0
VISUALSTYLE
  5
3A
102
{ACAD_REACTORS
330
2A
102
}
330
2A
100
AcDbVisualStyle
  2
ColorChange
 70
    16
 71
     2
 72
     2
 73
     3
 90
        0
 40
-0.6
 41
-30.0
 62
     5
 63
     8
 74
     1
 91
        4
 64
     7
 65
   257
 75
     1
175
     1
 42
1.0
 92
        8
 66
     8
 43
1.0
 76
     1
 77
     6
 78
     2
 67
     7
 79
     5
170
     0
171
     0
290
     0
174
     0
 93
        1
 44
0.0
173
     0
291
     1
 45
0.0
1001
ACAD
1000
AcDbSavedByObjectVersion
1070
     0
  0
VISUALSTYLE
  5
34
102
{ACAD_REACTORS
330
2A
102
}
330
2A
100
AcDbVisualStyle
  2
Conceptual
 70
     9
 71
     3
 72
     2
 73
     0
 90
        0
 40
-0.6
 41
-30.0
 62
     5
 63
     7
 74
     2
 91
        2
 64
     7
 65
   257
 75
     1
175
     1
 42
40.0
 92
        8
 66
     7
 43
1.0
 76
     1
 77
     6
 78
     2
 67
     7
 79
     3
170
     0
171
     0
290
     0
174
     0
 93
        1
 44
0.0
173
     0
291
     0
 45
0.0
1001
ACAD
1000
AcDbSavedByObjectVersion
1070
     0
  0
VISUALSTYLE
  5
35
102
{ACAD_REACTORS
330
2A
102
}
330
2A
100
AcDbVisualStyle
  2
Dim
 70
    11
 71
     2
 72
     2
 73
     0
 90
        0
 40
-0.6
 41
-30.0
 62
     5
 63
     7
 74
     1
 91
        4
 64
     7
 65
   257
 75
     1
175
     1
 42
1.0
 92
        8
 66
     7
 43
1.0
 76
     1
 77
     6
 78
     2
 67
     7
 79
     5
170
     0
171
     0
290
     0
174
     0
 93
        1
 44
-50.0
173
     0
291
     1
 45
0.0
1001
ACAD
1000
AcDbSavedByObjectVersion
1070
     0
  0
VISUALSTYLE
  5
39
102
{ACAD_REACTORS
330
2A
102
}
330
2A
100
AcDbVisualStyle
  2
Facepattern
 70
    15
 71
     2
 72
     2
 73
     0
 90
        0
 40
-0.6
 41
-30.0
 62
     5
 63
     7
 74
     1
 91
        4
 64
     7
 65
   257
 75
     1
175
     1
 42
1.0
 92
        8
 66
     7
 43
1.0
 76
     1
 77
     6
 78
     2
 67
     7
 79
     5
170
     0
171
     0
290
     0
174
     0
 93
        1
 44
0.0
173
     0
291
     1
 45
0.0
1001
ACAD
1000
AcDbSavedByObjectVersion
1070
     0
  0
VISUALSTYLE
  5
2B
102
{ACAD_REACTORS
330
2A
102
}
330
2A
100
AcDbVisualStyle
  2
Flat
 70
     0
 71
     2
 72
     1
 73
     1
 90
        2
 40
-0.6
 41
30.0
 62
     5
 63
     7
 74
     0
 91
        4
 64
     7
 65
   257
 75
     1
175
     1
 42
1.0
 92
        8
 66
     7
 43
1.0
 76
     1
 77
     6
 78
     2
 67
     7
 79
     5
170
     0
171
     0
290
     0
174
     0
 93
       13
 44
0.0
173
     0
291
     1
 45
0.0
1001
ACAD
1000
AcDbSavedByObjectVersion
1070
     0
  0
VISUALSTYLE
  5
2C
102
{ACAD_REACTORS
330
2A
102
}
330
2A
100
AcDbVisualStyle
  2
FlatWithEdges
 70
     1
 71
     2
 72
     1
 73
     1
 90
        2
 40
-0.6
 41
30.0
 62
     5
 63
     7
 74
     1
 91
        4
 64
     7
 65
   257
 75
     1
175
     1
 42
1.0
 92
        0
 66
   257
 43
1.0
 76
     1
 77
     6
 78
     2
 67
     7
 79
     5
170
     0
171
     0
290
     0
174
     0
 93
       13
 44
0.0
173
     0
291
     1
 45
0.0
1001
ACAD
1000
AcDbSavedByObjectVersion
1070
     0
  0
VISUALSTYLE
  5
2D
102
{ACAD_REACTORS
330
2A
102
}
330
2A
100
AcDbVisualStyle
  2
Gouraud
 70
     2
 71
     2
 72
     2
 73
     1
 90
        2
 40
-0.6
 41
30.0
 62
     5
 63
     7
 74
     0
 91
        4
 64
     7
 65
   257
 75
     1
175
     1
 42
1.0
 92
        0
 66
     7
 43
1.0
 76
     1
 77
     6
 78
     2
 67
     7
 79
     5
170
     0
171
     0
290
     0
174
     0
 93
       13
 44
0.0
173
     0
291
     1
 45
0.0
1001
ACAD
1000
AcDbSavedByObjectVersion
1070
     0
  0
VISUALSTYLE
  5
2E
102
{ACAD_REACTORS
330
2A
102
}
330
2A
100
AcDbVisualStyle
  2
GouraudWithEdges
 70
     3
 71
     2
 72
     2
 73
     1
 90
        2
 40
-0.6
 41
30.0
 62
     5
 63
     7
 74
     1
 91
        4
 64
     7
 65
   257
 75
     1
175
     1
 42
1.0
 92
        0
 66
   257
 43
1.0
 76
     1
 77
     6
 78
     2
 67
     7
 79
     5
170
     0
171
     0
290
     0
174
     0
 93
       13
 44
0.0
173
     0
291
     1
 45
0.0
1001
ACAD
1000
AcDbSavedByObjectVersion
1070
     0
  0
VISUALSTYLE
  5
38
102
{ACAD_REACTORS
330
2A
102
}
330
2A
100
AcDbVisualStyle
  2
Linepattern
 70
    14
 71
     2
 72
     2
 73
     0
 90
        0
 40
-0.6
 41
-30.0
 62
     5
 63
     7
 74
     1
 91
        4
 64
     7
 65
   257
 75
     7
175
     7
 42
1.0
 92
        8
 66
     7
 43
1.0
 76
     1
 77
     6
 78
     2
 67
     7
 79
     5
170
     0
171
     0
290
     0
174
     0
 93
        1
 44
0.0
173
     0
291
     1
 45
0.0
1001
ACAD
1000
AcDbSavedByObjectVersion
1070
     0
  0
VISUALSTYLE
  5
33
102
{ACAD_REACTORS
330
2A
102
}
330
2A
100
AcDbVisualStyle
  2
Realistic
 70
     8
 71
     2
 72
     2
 73
     0
 90
        0
 40
-0.6
 41
-30.0
 62
     5
 63
     7
 74
     1
 91
        0
 64
     7
 65
   257
 75
     1
175
     1
 42
1.0
 92
        8
 66
     8
 43
1.0
 76
     1
 77
     6
 78
     2
 67
     7
 79
     5
170
     0
171
     0
290
     0
174
     0
 93
       13
 44
0.0
173
     0
291
     0
 45
0.0
1001
ACAD
1000
AcDbSavedByObjectVersion
1070
     0
  0
VISUALSTYLE
  5
37
102
{ACAD_REACTORS
330
2A
102
}
330
2A
100
AcDbVisualStyle
  2
Thicken
 70
    13
 71
     2
 72
     2
 73
     0
 90
        0
 40
-0.6
 41
-30.0
 62
     5
 63
     7
 74
     1
 91
        4
 64
     7
 65
   257
 75
     1
175
     1
 42
1.0
 92
       12
 66
     7
 43
1.0
 76
     1
 77
     6
 78
     2
 67
     7
 79
     5
170
     0
171
     0
290
     0
174
     0
 93
        1
 44
0.0
173
     0
291
     1
 45
0.0
1001
ACAD
1000
AcDbSavedByObjectVersion
1070
     0
  0
DICTIONARYVAR
  5
207
102
{ACAD_REACTORS
330
205
102
}
330
205
100
DictionaryVariables
280
     0
  1
80.000000
  0
DICTIONARYVAR
  5
206
102
{ACAD_REACTORS
330
205
102
}
330
205
100
DictionaryVariables
280
     0
  1
5.000000
  0
ENDSEC
  0
EOF
