  0
SECTION
  2
HEADER
  9
$ACADVER
  1
AC1015
  9
$ACADMAINTVER
 70
     6
  9
$DWGCODEPAGE
  3
ANSI_1252
  9
$INSBASE
 10
0.0
 20
0.0
 30
0.0
  9
$EXTMIN
 10
0.0
 20
0.0
 30
0.0
  9
$EXTMAX
 10
297.0
 20
210.0
 30
0.0
  9
$LIMMIN
 10
0.0
 20
0.0
  9
$LIMMAX
 10
297.0
 20
210.0
  9
$ORTHOMODE
 70
     0
  9
$REGENMODE
 70
     1
  9
$FILLMODE
 70
     1
  9
$QTEXTMODE
 70
     0
  9
$MIRRTEXT
 70
     1
  9
$LTSCALE
 40
1.0
  9
$ATTMODE
 70
     1
  9
$TEXTSIZE
 40
2.0
  9
$TRACEWID
 40
1.0
  9
$TEXTSTYLE
  7
Standard
  9
$CLAYER
  8
0
  9
$CELTYPE
  6
ByLayer
  9
$CECOLOR
 62
   256
  9
$CELTSCALE
 40
1.0
  9
$DISPSILH
 70
     0
  9
$DIMSCALE
 40
1.0
  9
$DIMASZ
 40
3.0
  9
$DIMEXO
 40
0.0
  9
$DIMDLI
 40
3.75
  9
$DIMRND
 40
0.0
  9
$DIMDLE
 40
0.0
  9
$DIMEXE
 40
1.0
  9
$DIMTP
 40
0.0
  9
$DIMTM
 40
0.0
  9
$DIMTXT
 40
2.0
  9
$DIMCEN
 40
2.5
  9
$DIMTSZ
 40
0.0
  9
$DIMTOL
 70
     0
  9
$DIMLIM
 70
     0
  9
$DIMTIH
 70
     1
  9
$DIMTOH
 70
     1
  9
$DIMSE1
 70
     0
  9
$DIMSE2
 70
     0
  9
$DIMTAD
 70
     1
  9
$DIMZIN
 70
     0
  9
$DIMBLK
  1

  9
$DIMASO
 70
     1
  9
$DIMSHO
 70
     1
  9
$DIMPOST
  1

  9
$DIMAPOST
  1

  9
$DIMALT
 70
     0
  9
$DIMALTD
 70
     3
  9
$DIMALTF
 40
0.0393700787
  9
$DIMLFAC
 40
1.0
  9
$DIMTOFL
 70
     1
  9
$DIMTVP
 40
0.0
  9
$DIMTIX
 70
     0
  9
$DIMSOXD
 70
     0
  9
$DIMSAH
 70
     0
  9
$DIMBLK1
  1

  9
$DIMBLK2
  1

  9
$DIMSTYLE
  2
ISO-25
  9
$DIMCLRD
 70
     0
  9
$DIMCLRE
 70
     0
  9
$DIMCLRT
 70
     0
  9
$DIMTFAC
 40
1.0
  9
$DIMGAP
 40
1.524
  9
$DIMJUST
 70
     0
  9
$DIMSD1
 70
     0
  9
$DIMSD2
 70
     0
  9
$DIMTOLJ
 70
     0
  9
$DIMTZIN
 70
     0
  9
$DIMALTZ
 70
     0
  9
$DIMALTTZ
 70
     0
  9
$DIMUPT
 70
     0
  9
$DIMDEC
 70
     2
  9
$DIMTDEC
 70
     3
  9
$DIMALTU
 70
     2
  9
$DIMALTTD
 70
     3
  9
$DIMTXSTY
  7
Standard
  9
$DIMAUNIT
 70
     0
  9
$DIMADEC
 70
     2
  9
$DIMALTRND
 40
0.0
  9
$DIMAZIN
 70
     0
  9
$DIMDSEP
 70
    44
  9
$DIMATFIT
 70
     3
  9
$DIMFRAC
 70
     0
  9
$DIMLDRBLK
  1

  9
$DIMLUNIT
 70
     2
  9
$DIMLWD
 70
    -2
  9
$DIMLWE
 70
    -2
  9
$DIMTMOVE
 70
     0
  9
$LUNITS
 70
     2
  9
$LUPREC
 70
     2
  9
$SKETCHINC
 40
1.0
  9
$FILLETRAD
 40
10.0
  9
$AUNITS
 70
     0
  9
$AUPREC
 70
     2
  9
$MENU
  1
.
  9
$ELEVATION
 40
0.0
  9
$PELEVATION
 40
0.0
  9
$THICKNESS
 40
0.0
  9
$LIMCHECK
 70
     0
  9
$CHAMFERA
 40
10.0
  9
$CHAMFERB
 40
10.0
  9
$CHAMFERC
 40
20.0
  9
$CHAMFERD
 40
0.0
  9
$SKPOLY
 70
     0
  9
$TDCREATE
 40
2455673.496548993
  9
$TDUCREATE
 40
2455673.41321566
  9
$TDUPDATE
 40
2455673.496549005
  9
$TDUUPDATE
 40
2455673.413215671
  9
$TDINDWG
 40
0.0000000116
  9
$TDUSRTIMER
 40
0.0000000116
  9
$USRTIMER
 70
     1
  9
$ANGBASE
 50
0.0
  9
$ANGDIR
 70
     0
  9
$PDMODE
 70
     0
  9
$PDSIZE
 40
-1.0
  9
$PLINEWID
 40
0.0
  9
$SPLFRAME
 70
     0
  9
$SPLINETYPE
 70
     6
  9
$SPLINESEGS
 70
     8
  9
$HANDSEED
  5
212
  9
$SURFTAB1
 70
     6
  9
$SURFTAB2
 70
     6
  9
$SURFTYPE
 70
     6
  9
$SURFU
 70
     6
  9
$SURFV
 70
     6
  9
$UCSBASE
  2

  9
$UCSNAME
  2

  9
$UCSORG
 10
0.0
 20
0.0
 30
0.0
  9
$UCSXDIR
 10
1.0
 20
0.0
 30
0.0
  9
$UCSYDIR
 10
0.0
 20
1.0
 30
0.0
  9
$UCSORTHOREF
  2

  9
$UCSORTHOVIEW
 70
     0
  9
$UCSORGTOP
 10
0.0
 20
0.0
 30
0.0
  9
$UCSORGBOTTOM
 10
0.0
 20
0.0
 30
0.0
  9
$UCSORGLEFT
 10
0.0
 20
0.0
 30
0.0
  9
$UCSORGRIGHT
 10
0.0
 20
0.0
 30
0.0
  9
$UCSORGFRONT
 10
0.0
 20
0.0
 30
0.0
  9
$UCSORGBACK
 10
0.0
 20
0.0
 30
0.0
  9
$PUCSBASE
  2

  9
$PUCSNAME
  2

  9
$PUCSORG
 10
0.0
 20
0.0
 30
0.0
  9
$PUCSXDIR
 10
1.0
 20
0.0
 30
0.0
  9
$PUCSYDIR
 10
0.0
 20
1.0
 30
0.0
  9
$PUCSORTHOREF
  2

  9
$PUCSORTHOVIEW
 70
     0
  9
$PUCSORGTOP
 10
0.0
 20
0.0
 30
0.0
  9
$PUCSORGBOTTOM
 10
0.0
 20
0.0
 30
0.0
  9
$PUCSORGLEFT
 10
0.0
 20
0.0
 30
0.0
  9
$PUCSORGRIGHT
 10
0.0
 20
0.0
 30
0.0
  9
$PUCSORGFRONT
 10
0.0
 20
0.0
 30
0.0
  9
$PUCSORGBACK
 10
0.0
 20
0.0
 30
0.0
  9
$USERI1
 70
     0
  9
$USERI2
 70
     0
  9
$USERI3
 70
     0
  9
$USERI4
 70
     0
  9
$USERI5
 70
     0
  9
$USERR1
 40
0.0
  9
$USERR2
 40
0.0
  9
$USERR3
 40
0.0
  9
$USERR4
 40
0.0
  9
$USERR5
 40
0.0
  9
$WORLDVIEW
 70
     1
  9
$SHADEDGE
 70
     3
  9
$SHADEDIF
 70
    70
  9
$TILEMODE
 70
     1
  9
$MAXACTVP
 70
    64
  9
$PINSBASE
 10
0.0
 20
0.0
 30
0.0
  9
$PLIMCHECK
 70
     0
  9
$PEXTMIN
 10
1.0000000000E+20
 20
1.0000000000E+20
 30
1.0000000000E+20
  9
$PEXTMAX
 10
-1.0000000000E+20
 20
-1.0000000000E+20
 30
-1.0000000000E+20
  9
$PLIMMIN
 10
0.0
 20
0.0
  9
$PLIMMAX
 10
420.0
 20
297.0
  9
$UNITMODE
 70
     0
  9
$VISRETAIN
 70
     1
  9
$PLINEGEN
 70
     0
  9
$PSLTSCALE
 70
     1
  9
$TREEDEPTH
 70
  3020
  9
$CMLSTYLE
  2
Standard
  9
$CMLJUST
 70
     0
  9
$CMLSCALE
 40
20.0
  9
$PROXYGRAPHICS
 70
     1
  9
$MEASUREMENT
 70
     1
  9
$CELWEIGHT
370
    -1
  9
$ENDCAPS
280
     0
  9
$JOINSTYLE
280
     0
  9
$LWDISPLAY
290
     1
  9
$INSUNITS
 70
     4
  9
$HYPERLINKBASE
  1

  9
$STYLESHEET
  1

  9
$XEDIT
290
     1
  9
$CEPSNTYPE
380
     0
  9
$PSTYLEMODE
290
     1
  9
$FINGERPRINTGUID
  2
{B4BAB3BD-1622-42CD-A59A-E766F3E80C6E}
  9
$VERSIONGUID
  2
{FAEB1C32-E019-11D5-929B-00C0DF256EC4}
  9
$EXTNAMES
290
     1
  9
$PSVPSCALE
 40
0.0
  9
$OLESTARTUP
290
     0
  0
ENDSEC
  0
SECTION
  2
CLASSES
  0
CLASS
  1
ACDBDICTIONARYWDFLT
  2
AcDbDictionaryWithDefault
  3
ObjectDBX Classes
 90
        0
280
     0
281
     0
  0
CLASS
  1
VISUALSTYLE
  2
AcDbVisualStyle
  3
ObjectDBX Classes
 90
     4095
280
     0
281
     0
  0
CLASS
  1
DICTIONARYVAR
  2
AcDbDictionaryVar
  3
ObjectDBX Classes
 90
        0
280
     0
281
     0
  0
CLASS
  1
ACDBPLACEHOLDER
  2
AcDbPlaceHolder
  3
ObjectDBX Classes
 90
        0
280
     0
281
     0
  0
CLASS
  1
LAYOUT
  2
AcDbLayout
  3
ObjectDBX Classes
 90
        0
280
     0
281
     0
  0
ENDSEC
  0
SECTION
  2
TABLES
  0
TABLE
  2
VPORT
  5
8
330
0
100
AcDbSymbolTable
 70
     1
  0
VPORT
  5
29
330
8
100
AcDbSymbolTableRecord
100
AcDbViewportTableRecord
  2
*Active
 70
     0
 10
0.0
 20
0.0
 11
1.0
 21
1.0
 12
148.5
 22
105.0
 13
0.0
 23
0.0
 14
10.0
 24
10.0
 15
10.0
 25
10.0
 16
0.0
 26
0.0
 36
1.0
 17
0.0
 27
0.0
 37
0.0
 40
210.0
 41
1.4142857143
 42
50.0
 43
0.0
 44
0.0
 50
0.0
 51
0.0
 71
     0
 72
  2000
 73
     1
 74
     3
 75
     0
 76
     0
 77
     0
 78
     0
281
     0
 65
     1
110
0.0
120
0.0
130
0.0
111
1.0
121
0.0
131
0.0
112
0.0
122
1.0
132
0.0
 79
     0
146
0.0
  0
ENDTAB
  0
TABLE
  2
LTYPE
  5
5
330
0
100
AcDbSymbolTable
 70
     6
  0
LTYPE
  5
14
330
5
100
AcDbSymbolTableRecord
100
AcDbLinetypeTableRecord
  2
ByBlock
 70
     0
  3

 72
    65
 73
     0
 40
0.0
  0
LTYPE
  5
15
330
5
100
AcDbSymbolTableRecord
100
AcDbLinetypeTableRecord
  2
ByLayer
 70
     0
  3

 72
    65
 73
     0
 40
0.0
  0
LTYPE
  5
16
330
5
100
AcDbSymbolTableRecord
100
AcDbLinetypeTableRecord
  2
Continuous
 70
     0
  3
Solid line
 72
    65
 73
     0
 40
0.0
  0
LTYPE
  5
3B
330
5
100
AcDbSymbolTableRecord
100
AcDbLinetypeTableRecord
  2
HIDDEN
 70
     0
  3
Hidden __ __ __ __ __ __ __ __ __ __ __ __ __ __
 72
    65
 73
     2
 40
1.905
 49
1.27
 74
     0
 49
-0.635
 74
     0
  0
LTYPE
  5
3C
330
5
100
AcDbSymbolTableRecord
100
AcDbLinetypeTableRecord
  2
PHANTOM
 70
     0
  3
Phantom ______  __  __  ______  __  __  ______
 72
    65
 73
     6
 40
12.7
 49
6.35
 74
     0
 49
-1.27
 74
     0
 49
1.27
 74
     0
 49
-1.27
 74
     0
 49
1.27
 74
     0
 49
-1.27
 74
     0
  0
LTYPE
  5
3D
330
5
100
AcDbSymbolTableRecord
100
AcDbLinetypeTableRecord
  2
CENTER
 70
     0
  3
Center ____ _ ____ _ ____ _ ____ _ ____ _ ____
 72
    65
 73
     4
 40
10.16
 49
6.35
 74
     0
 49
-1.27
 74
     0
 49
1.27
 74
     0
 49
-1.27
 74
     0
  0
LTYPE
  5
3E
330
5
100
AcDbSymbolTableRecord
100
AcDbLinetypeTableRecord
  2
CENTERX2
 70
     0
  3
Center (2x) ________  __  ________  __  _____
 72
    65
 73
     4
 40
20.32
 49
12.7
 74
     0
 49
-2.54
 74
     0
 49
2.54
 74
     0
 49
-2.54
 74
     0
  0
LTYPE
  5
3F
330
5
100
AcDbSymbolTableRecord
100
AcDbLinetypeTableRecord
  2
DOT2
 70
     0
  3
Dot (.5x) ........................................
 72
    65
 73
     2
 40
0.635
 49
0.0
 74
     0
 49
-0.635
 74
     0
  0
ENDTAB
  0
TABLE
  2
LAYER
  5
2
330
0
100
AcDbSymbolTable
 70
     5
  0
LAYER
  5
10
330
2
100
AcDbSymbolTableRecord
100
AcDbLayerTableRecord
  2
0
 70
     0
 62
     7
  6
Continuous
370
    -3
390
F
  0
LAYER
  5
40
330
2
100
AcDbSymbolTableRecord
100
AcDbLayerTableRecord
  2
FORMAT
 70
     0
 62
     7
  6
Continuous
370
    -3
390
F
  0
LAYER
  5
41
330
2
100
AcDbSymbolTableRecord
100
AcDbLayerTableRecord
  2
VERMASSUNG
 70
     0
 62
     7
  6
Continuous
370
    -3
390
F
  0
LAYER
  5
42
330
2
100
AcDbSymbolTableRecord
100
AcDbLayerTableRecord
  2
KOPF_DÜNN
 70
     0
 62
     7
  6
Continuous
370
    -3
390
F
  0
LAYER
  5
43
330
2
100
AcDbSymbolTableRecord
100
AcDbLayerTableRecord
  2
KOPF_DICK
 70
     0
 62
     7
  6
Continuous
370
    15
390
F
  0
ENDTAB
  0
TABLE
  2
STYLE
  5
3
330
0
100
AcDbSymbolTable
 70
     3
  0
STYLE
  5
11
330
3
100
AcDbSymbolTableRecord
100
AcDbTextStyleTableRecord
  2
Standard
 70
     0
 40
0.0
 41
1.0
 50
0.0
 71
     0
 42
2.5
  3
txt
  4

  0
STYLE
  5
44
330
3
100
AcDbSymbolTableRecord
100
AcDbTextStyleTableRecord
  2
SLDTEXTSTYLE0
 70
     0
 40
0.0
 41
0.7
 50
0.0
 71
     0
 42
0.2
  3
TXT
  4

  0
STYLE
  5
48
330
3
100
AcDbSymbolTableRecord
100
AcDbTextStyleTableRecord
  2
SLDTEXTSTYLE1
 70
     0
 40
0.0
 41
0.65
 50
0.0
 71
     0
 42
0.2
  3
TXT
  4

  0
ENDTAB
  0
TABLE
  2
VIEW
  5
6
330
0
100
AcDbSymbolTable
 70
     0
  0
ENDTAB
  0
TABLE
  2
UCS
  5
7
330
0
100
AcDbSymbolTable
 70
     0
  0
ENDTAB
  0
TABLE
  2
APPID
  5
9
330
0
100
AcDbSymbolTable
 70
     1
  0
APPID
  5
12
330
9
100
AcDbSymbolTableRecord
100
AcDbRegAppTableRecord
  2
ACAD
 70
     0
  0
ENDTAB
  0
TABLE
  2
DIMSTYLE
  5
A
330
0
100
AcDbSymbolTable
 70
     2
100
AcDbDimStyleTable
  0
DIMSTYLE
105
27
330
A
100
AcDbSymbolTableRecord
100
AcDbDimStyleTableRecord
  2
ISO-25
 70
     0
 41
2.5
 42
0.625
 43
3.75
 44
1.25
 73
     0
 74
     0
 77
     1
 78
     8
140
2.5
141
2.5
143
0.0393700787
147
0.625
171
     3
172
     1
271
     2
272
     2
274
     3
278
    44
283
     0
284
     8
340
11
  0
DIMSTYLE
105
1CB
102
{ACAD_REACTORS
330
1CA
330
1D7
330
1E1
330
1EB
330
1F5
330
200
102
}
330
A
100
AcDbSymbolTableRecord
100
AcDbDimStyleTableRecord
  2
SLDDIMSTYLE0
 70
     0
 41
3.0
 44
0.0
 45
0.000000001
 73
     0
 74
     0
 77
     1
 78
    12
140
2.0
147
0.5
173
     1
271
     2
272
     3
284
    12
340
44
  0
ENDTAB
  0
TABLE
  2
BLOCK_RECORD
  5
1
330
0
100
AcDbSymbolTable
 70
     7
  0
BLOCK_RECORD
  5
1F
330
1
100
AcDbSymbolTableRecord
100
AcDbBlockTableRecord
  2
*Model_Space
340
22
  0
BLOCK_RECORD
  5
1B
330
1
100
AcDbSymbolTableRecord
100
AcDbBlockTableRecord
  2
*Paper_Space
340
1E
  0
BLOCK_RECORD
  5
23
330
1
100
AcDbSymbolTableRecord
100
AcDbBlockTableRecord
  2
*Paper_Space0
340
26
  0
BLOCK_RECORD
  5
1CC
330
1
100
AcDbSymbolTableRecord
100
AcDbBlockTableRecord
  2
*D1
340
0
  0
BLOCK_RECORD
  5
1D8
330
1
100
AcDbSymbolTableRecord
100
AcDbBlockTableRecord
  2
*D2
340
0
  0
BLOCK_RECORD
  5
1E2
330
1
100
AcDbSymbolTableRecord
100
AcDbBlockTableRecord
  2
*D3
340
0
  0
BLOCK_RECORD
  5
1EC
330
1
100
AcDbSymbolTableRecord
100
AcDbBlockTableRecord
  2
*D4
340
0
  0
BLOCK_RECORD
  5
1F6
330
1
100
AcDbSymbolTableRecord
100
AcDbBlockTableRecord
  2
*D5
340
0
  0
BLOCK_RECORD
  5
201
330
1
100
AcDbSymbolTableRecord
100
AcDbBlockTableRecord
  2
*D6
340
0
  0
ENDTAB
  0
ENDSEC
  0
SECTION
  2
BLOCKS
  0
BLOCK
  5
20
330
1F
100
AcDbEntity
  8
0
100
AcDbBlockBegin
  2
*Model_Space
 70
     0
 10
0.0
 20
0.0
 30
0.0
  3
*Model_Space
  1

  0
ENDBLK
  5
21
330
1F
100
AcDbEntity
  8
0
100
AcDbBlockEnd
  0
BLOCK
  5
1C
330
1B
100
AcDbEntity
 67
     1
  8
0
100
AcDbBlockBegin
  2
*Paper_Space
 70
     0
 10
0.0
 20
0.0
 30
0.0
  3
*Paper_Space
  1

  0
ENDBLK
  5
1D
330
1B
100
AcDbEntity
 67
     1
  8
0
100
AcDbBlockEnd
  0
BLOCK
  5
24
330
23
100
AcDbEntity
  8
0
100
AcDbBlockBegin
  2
*Paper_Space0
 70
     0
 10
0.0
 20
0.0
 30
0.0
  3
*Paper_Space0
  1

  0
ENDBLK
  5
25
330
23
100
AcDbEntity
  8
0
100
AcDbBlockEnd
  0
BLOCK
  5
1CD
330
1CC
100
AcDbEntity
  8
0
100
AcDbBlockBegin
  2
*D1
 70
     1
 10
0.0
 20
0.0
 30
0.0
  3
*D1
  1

  0
SOLID
  5
1CF
330
1CC
100
AcDbEntity
  8
VERMASSUNG
100
AcDbTrace
 10
31.798790239
 20
160.9849483047
 30
0.0
 11
31.348790239
 21
157.9849483047
 31
0.0
 12
32.248790239
 22
157.9849483047
 32
0.0
 13
32.248790239
 23
157.9849483047
 33
0.0
  0
SOLID
  5
1D0
330
1CC
100
AcDbEntity
  8
VERMASSUNG
100
AcDbTrace
 10
31.798790239
 20
60.9849483047
 30
0.0
 11
32.248790239
 21
63.9849483047
 31
0.0
 12
31.348790239
 22
63.9849483047
 32
0.0
 13
31.348790239
 23
63.9849483047
 33
0.0
  0
LINE
  5
1D1
330
1CC
100
AcDbEntity
  8
VERMASSUNG
100
AcDbLine
 10
88.1210446494
 20
160.9849483047
 30
0.0
 11
30.798790239
 21
160.9849483047
 31
0.0
  0
LINE
  5
1D2
330
1CC
100
AcDbEntity
  8
VERMASSUNG
100
AcDbLine
 10
88.1210446494
 20
60.9849483047
 30
0.0
 11
30.798790239
 21
60.9849483047
 31
0.0
  0
LINE
  5
1D3
330
1CC
100
AcDbEntity
  8
VERMASSUNG
100
AcDbLine
 10
31.798790239
 20
160.9849483047
 30
0.0
 11
31.798790239
 21
60.9849483047
 31
0.0
  0
MTEXT
  5
1D4
330
1CC
100
AcDbEntity
  8
VERMASSUNG
100
AcDbMText
 10
29.0206547499
 20
101.8753246542
 30
0.0
 40
2.0
 41
0.0
 71
     1
 72
     1
  1
HSK A 
  7
SLDTEXTSTYLE0
 11
-7.044195017643634E-15
 21
1.0
 31
0.0
 73
     1
 44
1.0
  0
MTEXT
  5
1D5
330
1CC
100
AcDbEntity
  8
VERMASSUNG
100
AcDbMText
 10
29.2206547594
 20
110.8753251981
 30
0.0
 40
2.0
 41
0.0
 71
     1
 72
     1
  1
%%c
  7
SLDTEXTSTYLE0
 11
-7.044195017643634E-15
 21
1.0
 31
0.0
 73
     1
 44
1.0
  0
MTEXT
  5
1D6
330
1CC
100
AcDbEntity
  8
VERMASSUNG
100
AcDbMText
 10
29.2206548758
 20
114.4836518482
 30
0.0
 40
2.0
 41
0.0
 71
     1
 72
     1
  1
100
  7
SLDTEXTSTYLE0
 11
-7.044195017643634E-15
 21
1.0
 31
0.0
 73
     1
 44
1.0
  0
ENDBLK
  5
1CE
330
1CC
100
AcDbEntity
  8
0
100
AcDbBlockEnd
  0
BLOCK
  5
1D9
330
1D8
100
AcDbEntity
  8
0
100
AcDbBlockBegin
  2
*D2
 70
     1
 10
0.0
 20
0.0
 30
0.0
  3
*D2
  1

  0
SOLID
  5
1DB
330
1D8
100
AcDbEntity
  8
VERMASSUNG
100
AcDbTrace
 10
116.5710446494
 20
164.293716143
 30
0.0
 11
119.5710446494
 21
163.843716143
 31
0.0
 12
119.5710446494
 22
164.743716143
 32
0.0
 13
119.5710446494
 23
164.743716143
 33
0.0
  0
SOLID
  5
1DC
330
1D8
100
AcDbEntity
  8
VERMASSUNG
100
AcDbTrace
 10
247.6210446494
 20
164.293716143
 30
0.0
 11
244.6210446494
 21
164.743716143
 31
0.0
 12
244.6210446494
 22
163.843716143
 32
0.0
 13
244.6210446494
 23
163.843716143
 33
0.0
  0
LINE
  5
1DD
330
1D8
100
AcDbEntity
  8
VERMASSUNG
100
AcDbLine
 10
116.5710446494
 20
158.9536881255
 30
0.0
 11
116.5710446494
 21
165.293716143
 31
0.0
  0
LINE
  5
1DE
330
1D8
100
AcDbEntity
  8
VERMASSUNG
100
AcDbLine
 10
247.6210446494
 20
132.6565211799
 30
0.0
 11
247.6210446494
 21
165.293716143
 31
0.0
  0
LINE
  5
1DF
330
1D8
100
AcDbEntity
  8
VERMASSUNG
100
AcDbLine
 10
116.5710446494
 20
164.293716143
 30
0.0
 11
247.6210446494
 21
164.293716143
 31
0.0
  0
MTEXT
  5
1E0
330
1D8
100
AcDbEntity
  8
VERMASSUNG
100
AcDbMText
 10
178.6962288315
 20
166.8718515061
 30
0.0
 40
2.0
 41
0.0
 71
     1
 72
     1
  1
131.05
  7
SLDTEXTSTYLE0
 73
     1
 44
1.0
  0
ENDBLK
  5
1DA
330
1D8
100
AcDbEntity
  8
0
100
AcDbBlockEnd
  0
BLOCK
  5
1E3
330
1E2
100
AcDbEntity
  8
0
100
AcDbBlockBegin
  2
*D3
 70
     1
 10
0.0
 20
0.0
 30
0.0
  3
*D3
  1

  0
SOLID
  5
1E5
330
1E2
100
AcDbEntity
  8
VERMASSUNG
100
AcDbTrace
 10
87.6210446494
 20
170.293716143
 30
0.0
 11
90.6210446494
 21
169.843716143
 31
0.0
 12
90.6210446494
 22
170.743716143
 32
0.0
 13
90.6210446494
 23
170.743716143
 33
0.0
  0
SOLID
  5
1E6
330
1E2
100
AcDbEntity
  8
VERMASSUNG
100
AcDbTrace
 10
247.6210446494
 20
170.293716143
 30
0.0
 11
244.6210446494
 21
170.743716143
 31
0.0
 12
244.6210446494
 22
169.843716143
 32
0.0
 13
244.6210446494
 23
169.843716143
 33
0.0
  0
LINE
  5
1E7
330
1E2
100
AcDbEntity
  8
VERMASSUNG
100
AcDbLine
 10
87.6210446494
 20
160.4849483047
 30
0.0
 11
87.6210446494
 21
171.293716143
 31
0.0
  0
LINE
  5
1E8
330
1E2
100
AcDbEntity
  8
VERMASSUNG
100
AcDbLine
 10
247.6210446494
 20
132.6565211799
 30
0.0
 11
247.6210446494
 21
171.293716143
 31
0.0
  0
LINE
  5
1E9
330
1E2
100
AcDbEntity
  8
VERMASSUNG
100
AcDbLine
 10
87.6210446494
 20
170.293716143
 30
0.0
 11
247.6210446494
 21
170.293716143
 31
0.0
  0
MTEXT
  5
1EA
330
1E2
100
AcDbEntity
  8
VERMASSUNG
100
AcDbMText
 10
165.7215571088
 20
172.8718515061
 30
0.0
 40
2.0
 41
0.0
 71
     1
 72
     1
  1
160
  7
SLDTEXTSTYLE0
 73
     1
 44
1.0
  0
ENDBLK
  5
1E4
330
1E2
100
AcDbEntity
  8
0
100
AcDbBlockEnd
  0
BLOCK
  5
1ED
330
1EC
100
AcDbEntity
  8
0
100
AcDbBlockBegin
  2
*D4
 70
     1
 10
0.0
 20
0.0
 30
0.0
  3
*D4
  1

  0
SOLID
  5
1EF
330
1EC
100
AcDbEntity
  8
VERMASSUNG
100
AcDbTrace
 10
247.6210446494
 20
176.293716143
 30
0.0
 11
244.6210446494
 21
176.743716143
 31
0.0
 12
244.6210446494
 22
175.843716143
 32
0.0
 13
244.6210446494
 23
175.843716143
 33
0.0
  0
SOLID
  5
1F0
330
1EC
100
AcDbEntity
  8
VERMASSUNG
100
AcDbTrace
 10
37.7210446494
 20
176.293716143
 30
0.0
 11
40.7210446494
 21
175.843716143
 31
0.0
 12
40.7210446494
 22
176.743716143
 32
0.0
 13
40.7210446494
 23
176.743716143
 33
0.0
  0
LINE
  5
1F1
330
1EC
100
AcDbEntity
  8
VERMASSUNG
100
AcDbLine
 10
247.6210446494
 20
125.3635070246
 30
0.0
 11
247.6210446494
 21
177.293716143
 31
0.0
  0
LINE
  5
1F2
330
1EC
100
AcDbEntity
  8
VERMASSUNG
100
AcDbLine
 10
37.7210446494
 20
141.4876180472
 30
0.0
 11
37.7210446494
 21
177.293716143
 31
0.0
  0
LINE
  5
1F3
330
1EC
100
AcDbEntity
  8
VERMASSUNG
100
AcDbLine
 10
247.6210446494
 20
176.293716143
 30
0.0
 11
37.7210446494
 21
176.293716143
 31
0.0
  0
MTEXT
  5
1F4
330
1EC
100
AcDbEntity
  8
VERMASSUNG
100
AcDbMText
 10
139.5717586256
 20
178.8718515061
 30
0.0
 40
2.0
 41
0.0
 71
     1
 72
     1
  1
209.9
  7
SLDTEXTSTYLE0
 73
     1
 44
1.0
  0
ENDBLK
  5
1EE
330
1EC
100
AcDbEntity
  8
0
100
AcDbBlockEnd
  0
BLOCK
  5
1F7
330
1F6
100
AcDbEntity
  8
0
100
AcDbBlockBegin
  2
*D5
 70
     1
 10
0.0
 20
0.0
 30
0.0
  3
*D5
  1

  0
SOLID
  5
1F9
330
1F6
100
AcDbEntity
  8
VERMASSUNG
100
AcDbTrace
 10
257.8426645517
 20
123.4849483047
 30
0.0
 11
257.3926645517
 21
120.4849483047
 31
0.0
 12
258.2926645517
 22
120.4849483047
 32
0.0
 13
258.2926645517
 23
120.4849483047
 33
0.0
  0
SOLID
  5
1FA
330
1F6
100
AcDbEntity
  8
VERMASSUNG
100
AcDbTrace
 10
257.8426645517
 20
98.4849483047
 30
0.0
 11
258.2926645517
 21
101.4849483047
 31
0.0
 12
257.3926645517
 22
101.4849483047
 32
0.0
 13
257.3926645517
 23
101.4849483047
 33
0.0
  0
LINE
  5
1FB
330
1F6
100
AcDbEntity
  8
VERMASSUNG
100
AcDbLine
 10
247.1210446494
 20
123.4849483047
 30
0.0
 11
258.8426645517
 21
123.4849483047
 31
0.0
  0
LINE
  5
1FC
330
1F6
100
AcDbEntity
  8
VERMASSUNG
100
AcDbLine
 10
247.1210446494
 20
98.4849483047
 30
0.0
 11
258.8426645517
 21
98.4849483047
 31
0.0
  0
LINE
  5
1FD
330
1F6
100
AcDbEntity
  8
VERMASSUNG
100
AcDbLine
 10
257.8426645517
 20
123.4849483047
 30
0.0
 11
257.8426645517
 21
98.4849483047
 31
0.0
  0
MTEXT
  5
1FE
330
1F6
100
AcDbEntity
  8
VERMASSUNG
100
AcDbMText
 10
255.2645290721
 20
107.7812310782
 30
0.0
 40
2.0
 41
0.0
 71
     1
 72
     1
  1
%%c
  7
SLDTEXTSTYLE0
 11
-7.044195017643634E-15
 21
1.0
 31
0.0
 73
     1
 44
1.0
  0
MTEXT
  5
1FF
330
1F6
100
AcDbEntity
  8
VERMASSUNG
100
AcDbMText
 10
255.2645291885
 20
111.3899093014
 30
0.0
 40
2.0
 41
0.0
 71
     1
 72
     1
  1
25
  7
SLDTEXTSTYLE0
 11
-7.044195017643634E-15
 21
1.0
 31
0.0
 73
     1
 44
1.0
  0
ENDBLK
  5
1F8
330
1F6
100
AcDbEntity
  8
0
100
AcDbBlockEnd
  0
BLOCK
  5
202
330
201
100
AcDbEntity
  8
0
100
AcDbBlockBegin
  2
*D6
 70
     1
 10
0.0
 20
0.0
 30
0.0
  3
*D6
  1

  0
SOLID
  5
204
330
201
100
AcDbEntity
  8
VERMASSUNG
100
AcDbTrace
 10
263.8426645517
 20
143.4849483047
 30
0.0
 11
263.3926645517
 21
140.4849483047
 31
0.0
 12
264.2926645517
 22
140.4849483047
 32
0.0
 13
264.2926645517
 23
140.4849483047
 33
0.0
  0
SOLID
  5
205
330
201
100
AcDbEntity
  8
VERMASSUNG
100
AcDbTrace
 10
263.8426645517
 20
78.4849483047
 30
0.0
 11
264.2926645517
 21
81.4849483047
 31
0.0
 12
263.3926645517
 22
81.4849483047
 32
0.0
 13
263.3926645517
 23
81.4849483047
 33
0.0
  0
LINE
  5
206
330
201
100
AcDbEntity
  8
VERMASSUNG
100
AcDbLine
 10
236.7926175247
 20
143.4849483047
 30
0.0
 11
264.8426645517
 21
143.4849483047
 31
0.0
  0
LINE
  5
207
330
201
100
AcDbEntity
  8
VERMASSUNG
100
AcDbLine
 10
236.7926175247
 20
78.4849483047
 30
0.0
 11
264.8426645517
 21
78.4849483047
 31
0.0
  0
LINE
  5
208
330
201
100
AcDbEntity
  8
VERMASSUNG
100
AcDbLine
 10
263.8426645517
 20
143.4849483047
 30
0.0
 11
263.8426645517
 21
78.4849483047
 31
0.0
  0
MTEXT
  5
209
330
201
100
AcDbEntity
  8
VERMASSUNG
100
AcDbMText
 10
261.2645290721
 20
107.7812310782
 30
0.0
 40
2.0
 41
0.0
 71
     1
 72
     1
  1
%%c
  7
SLDTEXTSTYLE0
 11
-7.044195017643634E-15
 21
1.0
 31
0.0
 73
     1
 44
1.0
  0
MTEXT
  5
20A
330
201
100
AcDbEntity
  8
VERMASSUNG
100
AcDbMText
 10
261.2645291885
 20
111.3899093014
 30
0.0
 40
2.0
 41
0.0
 71
     1
 72
     1
  1
65
  7
SLDTEXTSTYLE0
 11
-7.044195017643634E-15
 21
1.0
 31
0.0
 73
     1
 44
1.0
  0
ENDBLK
  5
203
330
201
100
AcDbEntity
  8
0
100
AcDbBlockEnd
  0
ENDSEC
  0
SECTION
  2
ENTITIES
  0
MTEXT
  5
45
330
1F
100
AcDbEntity
  8
KOPF_DÜNN
100
AcDbMText
 10
13.8892156294
 20
23.8442973028
 30
0.0
 40
3.0
 41
0.0
 71
     1
 72
     1
  1
HA0.W25.K21.160
  7
SLDTEXTSTYLE0
 73
     1
 44
1.0
  0
MTEXT
  5
46
330
1F
100
AcDbEntity
  8
VERMASSUNG
100
AcDbMText
 10
13.9329988022
 20
28.8834360957
 30
0.0
 40
3.0
 41
0.0
 71
     1
 72
     1
  1
Flächenspannfutter_End mill adapter Weldon ø25
  7
SLDTEXTSTYLE0
 73
     1
 44
1.0
  0
MTEXT
  5
47
330
1F
100
AcDbEntity
  8
VERMASSUNG
100
AcDbMText
 10
98.8601118557
 20
13.8365368179
 30
0.0
 40
2.0
 41
0.0
 71
     1
 72
     1
  1
Datum: 09.10.2006
  7
SLDTEXTSTYLE0
 73
     1
 44
1.0
  0
MTEXT
  5
49
330
1F
100
AcDbEntity
  8
VERMASSUNG
100
AcDbMText
 10
13.933048693
 20
18.0482802738
 30
0.0
 40
2.0
 41
0.0
 71
     1
 72
     1
  1
DIN 69 893 HSK A 100
  7
SLDTEXTSTYLE1
 73
     1
 44
1.0
  0
MTEXT
  5
4A
330
1F
100
AcDbEntity
  8
VERMASSUNG
100
AcDbMText
 10
13.9808475933
 20
13.9090973692
 30
0.0
 40
2.0
 41
0.0
 71
     1
 72
     1
  1
Gewicht: 5081g
  7
SLDTEXTSTYLE0
 73
     1
 44
1.0
  0
LINE
  5
4B
330
1F
100
AcDbEntity
  8
0
  6
Continuous
 62
     7
370
    15
100
AcDbLine
 10
88.1210446732
 20
60.9849475596
 30
0.0
 11
92.5710446226
 21
60.9849475596
 31
0.0
  0
LINE
  5
4C
330
1F
100
AcDbEntity
  8
0
  6
Continuous
 62
     7
370
    15
100
AcDbLine
 10
92.6051175247
 20
160.9849490497
 30
0.0
 11
88.1210446732
 21
160.9849490497
 31
0.0
  0
ARC
  5
4D
330
1F
100
AcDbEntity
  8
0
  6
Continuous
 62
     7
370
    15
100
AcDbCircle
 10
88.1210446494
 20
61.4849483047
 30
0.0
 40
0.5
100
AcDbArc
 50
180.0
 51
270.0
  0
ARC
  5
4E
330
1F
100
AcDbEntity
  8
0
  6
Continuous
 62
     7
370
    15
100
AcDbCircle
 10
88.1210446494
 20
160.4849483047
 30
0.0
 40
0.5
100
AcDbArc
 50
90.0
 51
180.0
  0
ARC
  5
4F
330
1F
100
AcDbEntity
  8
0
  6
Continuous
 62
     7
370
    15
100
AcDbCircle
 10
121.5710446494
 20
69.5673285986
 30
0.0
 40
5.000000000000003
100
AcDbArc
 50
106.5116637356
 51
180.0
  0
ARC
  5
50
330
1F
100
AcDbEntity
  8
0
  6
Continuous
 62
     7
370
    15
100
AcDbCircle
 10
121.5710446494
 20
152.4025680108
 30
0.0
 40
5.000000000000003
100
AcDbArc
 50
180.0
 51
253.4883362644
  0
ARC
  5
51
330
1F
100
AcDbEntity
  8
0
  6
Continuous
 62
     7
370
    15
100
AcDbCircle
 10
86.724107731
 20
72.3564629802
 30
0.0
 40
0.9962338214386932
100
AcDbArc
 50
25.7988228126
 51
90.0
  0
ARC
  5
52
330
1F
100
AcDbEntity
  8
0
  6
Continuous
 62
     7
370
    15
100
AcDbCircle
 10
86.724107731
 20
149.6134336291
 30
0.0
 40
0.9962338214386793
100
AcDbArc
 50
270.0
 51
334.2011771874
  0
LINE
  5
53
330
1F
100
AcDbEntity
  8
0
  6
Continuous
 62
     7
370
    15
100
AcDbLine
 10
66.1403651374
 20
147.9162656043
 30
0.0
 11
47.8210452038
 21
146.9984621082
 31
0.0
  0
LINE
  5
54
330
1F
100
AcDbEntity
  8
0
  6
Continuous
 62
     7
370
    15
100
AcDbLine
 10
85.1210447053
 20
148.867198107
 30
0.0
 11
79.0530054855
 21
148.5631883416
 31
0.0
  0
LINE
  5
55
330
1F
100
AcDbEntity
  8
0
  6
Continuous
 62
     7
370
    15
100
AcDbLine
 10
79.0531284201
 20
73.4067008171
 30
0.0
 11
85.1210447053
 21
73.1026985023
 31
0.0
  0
LINE
  5
56
330
1F
100
AcDbEntity
  8
0
  6
Continuous
 62
     7
370
    15
100
AcDbLine
 10
52.8210441607
 20
74.7209348057
 30
0.0
 11
66.1409965741
 21
74.0536012028
 31
0.0
  0
LINE
  5
57
330
1F
100
AcDbEntity
  8
0
  6
Continuous
 62
     7
370
    15
100
AcDbLine
 10
85.1210447053
 20
73.1026985023
 30
0.0
 11
85.9268907715
 21
73.3186237786
 31
0.0
  0
LINE
  5
58
330
1F
100
AcDbEntity
  8
0
  6
Continuous
 62
     7
370
    15
100
AcDbLine
 10
85.9268907715
 20
148.6512728307
 30
0.0
 11
85.1210447053
 21
148.867198107
 31
0.0
  0
ARC
  5
59
330
1F
100
AcDbEntity
  8
0
  6
Continuous
 62
     7
370
    15
100
AcDbCircle
 10
86.1857098489
 20
72.3526968017
 30
0.0
 40
1.0
100
AcDbArc
 50
90.0
 51
105.0
  0
ARC
  5
5A
330
1F
100
AcDbEntity
  8
0
  6
Continuous
 62
     7
370
    15
100
AcDbCircle
 10
86.1857098489
 20
149.6171998077
 30
0.0
 40
1.0
100
AcDbArc
 50
255.0
 51
270.0
  0
LINE
  5
5B
330
1F
100
AcDbEntity
  8
0
  6
Continuous
 62
     7
370
    15
100
AcDbLine
 10
86.1857098552
 20
73.3526952837
 30
0.0
 11
86.7241077266
 21
73.3526952837
 31
0.0
  0
LINE
  5
5C
330
1F
100
AcDbEntity
  8
0
  6
Continuous
 62
     7
370
    15
100
AcDbLine
 10
86.7241077266
 20
148.6172013257
 30
0.0
 11
86.1857098552
 21
148.6172013257
 31
0.0
  0
ARC
  5
5D
330
1F
100
AcDbEntity
  8
0
  6
Continuous
 62
     7
370
    15
100
AcDbCircle
 10
148.5710446494
 20
-21.5150516953
 30
0.0
 40
100.0
100
AcDbArc
 50
90.0
 51
106.5116637356
  0
ARC
  5
5E
330
1F
100
AcDbEntity
  8
0
  6
Continuous
 62
     7
370
    15
100
AcDbCircle
 10
148.5710446494
 20
243.4849483047
 30
0.0
 40
100.0
100
AcDbArc
 50
253.4883362644
 51
270.0
  0
LINE
  5
5F
330
1F
100
AcDbEntity
  8
0
  6
Continuous
 62
     7
370
    15
100
AcDbLine
 10
160.0365008252
 20
78.4849494968
 30
0.0
 11
236.7926205533
 21
78.4849494968
 31
0.0
  0
LINE
  5
60
330
1F
100
AcDbEntity
  8
0
  6
Continuous
 62
     7
370
    15
100
AcDbLine
 10
148.5710444885
 20
78.4849494968
 30
0.0
 11
153.1150455612
 21
78.4849494968
 31
0.0
  0
LINE
  5
61
330
1F
100
AcDbEntity
  8
0
  6
Continuous
 62
     7
370
    15
100
AcDbLine
 10
153.088826968
 20
143.4849471126
 30
0.0
 11
148.5710444885
 21
143.4849471126
 31
0.0
  0
LINE
  5
62
330
1F
100
AcDbEntity
  8
0
  6
Continuous
 62
     7
370
    15
100
AcDbLine
 10
236.7926205533
 20
143.4849471126
 30
0.0
 11
160.0271503466
 21
143.4849471126
 31
0.0
  0
ARC
  5
63
330
1F
100
AcDbEntity
  8
0
  6
Continuous
 62
     7
370
    15
100
AcDbCircle
 10
236.7926175247
 20
80.4849483047
 30
0.0
 40
1.999999999999972
100
AcDbArc
 50
270.0
 51
315.0
  0
ARC
  5
64
330
1F
100
AcDbEntity
  8
0
  6
Continuous
 62
     7
370
    15
100
AcDbCircle
 10
236.7926175247
 20
141.4849483047
 30
0.0
 40
1.999999999999976
100
AcDbArc
 50
45.0
 51
90.0
  0
LINE
  5
65
330
1F
100
AcDbEntity
  8
0
  6
Continuous
 62
     7
370
    15
100
AcDbLine
 10
238.2068301576
 20
79.070736495
 30
0.0
 11
247.0352615255
 21
87.899162275
 31
0.0
  0
LINE
  5
66
330
1F
100
AcDbEntity
  8
0
  6
Continuous
 62
     7
370
    15
100
AcDbLine
 10
247.0352615255
 20
134.0707343344
 30
0.0
 11
238.2068301576
 21
142.8991601143
 31
0.0
  0
ARC
  5
67
330
1F
100
AcDbEntity
  8
0
  6
Continuous
 62
     7
370
    15
100
AcDbCircle
 10
245.6210446494
 20
89.3133754294
 30
0.0
 40
2.0
100
AcDbArc
 50
315.0
 51
0.0
  0
ARC
  5
68
330
1F
100
AcDbEntity
  8
0
  6
Continuous
 62
     7
370
    15
100
AcDbCircle
 10
245.6210446494
 20
132.6565211799
 30
0.0
 40
2.0
100
AcDbArc
 50
0.0
 51
45.0
  0
LINE
  5
69
330
1F
100
AcDbEntity
  8
0
  6
Continuous
 62
     7
370
    15
100
AcDbLine
 10
39.3710437256
 20
78.7349500034
 30
0.0
 11
50.9210455256
 21
78.7349500034
 31
0.0
  0
ARC
  5
6A
330
1F
100
AcDbEntity
  8
0
  6
Continuous
 62
     7
370
    15
100
AcDbCircle
 10
50.9210446494
 20
76.8349483047
 30
0.0
 40
1.900000000000006
100
AcDbArc
 50
35.6630613694
 51
90.0
  0
ARC
  5
6B
330
1F
100
AcDbEntity
  8
0
  6
Continuous
 62
     7
370
    15
100
AcDbCircle
 10
45.9210446494
 20
145.1349483047
 30
0.0
 40
1.900000000000034
100
AcDbArc
 50
270.0
 51
310.9212832533
  0
LINE
  5
6C
330
1F
100
AcDbEntity
  8
0
  6
Continuous
 62
     7
370
    15
100
AcDbLine
 10
39.3710437256
 20
143.2349466059
 30
0.0
 11
37.7717281717
 21
141.6356329147
 31
0.0
  0
LINE
  5
6D
330
1F
100
AcDbEntity
  8
0
  6
Continuous
 62
     7
370
    15
100
AcDbLine
 10
37.772566362
 20
80.333427367
 30
0.0
 11
39.3710437256
 21
78.7349500034
 31
0.0
  0
LINE
  5
6E
330
1F
100
AcDbEntity
  8
0
  6
Continuous
 62
     7
370
    15
100
AcDbLine
 10
45.9210428434
 20
143.2349466059
 30
0.0
 11
39.3710437256
 21
143.2349466059
 31
0.0
  0
LINE
  5
6F
330
1F
100
AcDbEntity
  8
0
  6
Continuous
 62
     7
370
    15
100
AcDbLine
 10
247.6285959619
 20
125.3214178879
 30
0.0
 11
247.6210410732
 21
125.3353979711
 31
0.0
  0
LINE
  5
70
330
1F
100
AcDbEntity
  8
0
  6
Continuous
 62
     7
370
    15
100
AcDbLine
 10
247.6210410732
 20
96.4912817154
 30
0.0
 11
247.7071101802
 21
96.6506608103
 31
0.0
  0
LINE
  5
71
330
1F
100
AcDbEntity
  8
0
  6
Continuous
 62
     7
370
    15
100
AcDbLine
 10
92.5710446226
 20
142.3349499974
 30
0.0
 11
104.3590161043
 21
142.3349499974
 31
0.0
  0
LINE
  5
72
330
1F
100
AcDbEntity
  8
0
  6
Continuous
 62
     7
370
    15
100
AcDbLine
 10
104.3590161043
 20
62.2099533949
 30
0.0
 11
104.3590161043
 21
142.3349499974
 31
0.0
  0
LINE
  5
73
330
1F
100
AcDbEntity
  8
0
  6
Continuous
 62
     7
370
    15
100
AcDbLine
 10
104.3590161043
 20
62.2099533949
 30
0.0
 11
102.5710443991
 21
62.2099533949
 31
0.0
  0
SPLINE
  5
74
330
1F
100
AcDbEntity
  8
0
  6
Continuous
 62
     7
370
    15
100
AcDbSpline
210
0.0
220
0.0
230
1.0
 70
     8
 71
     3
 72
    30
 73
    26
 74
     0
 42
0.00000001
 43
0.00000001
 40
0.0
 40
0.0
 40
0.0
 40
0.0
 40
0.1250000000000002
 40
0.1250000000000002
 40
0.1875000000000003
 40
0.1875000000000003
 40
0.2500000000000004
 40
0.2500000000000004
 40
0.3750000000000001
 40
0.3750000000000001
 40
0.4374999999999998
 40
0.4374999999999998
 40
0.4999999999999996
 40
0.4999999999999996
 40
0.6249999999999996
 40
0.6249999999999996
 40
0.6874999999999997
 40
0.6874999999999997
 40
0.7499999999999997
 40
0.7499999999999997
 40
0.8124999999999998
 40
0.8124999999999998
 40
0.8749999999999999
 40
0.8749999999999999
 40
1.0
 40
1.0
 40
1.0
 40
1.0
 10
102.5710446494406
 20
62.20995471164901
 30
0.0
 10
101.9082999555956
 20
62.20995471164902
 30
0.0
 10
101.2570440964798
 20
62.1951146350602
 30
0.0
 10
100.2965935582216
 20
62.15274507083058
 30
0.0
 10
99.9792021149886
 20
62.13526696805141
 30
0.0
 10
99.35003861343372
 20
62.0939386814991
 30
0.0
 10
99.03789042699202
 20
62.0700134080414
 30
0.0
 10
98.13058312514376
 20
61.99120689157449
 30
0.0
 10
97.5571581675025
 20
61.92890087159803
 30
0.0
 10
96.74328129792784
 20
61.82577155135867
 30
0.0
 10
96.47847510135797
 20
61.78958763231216
 30
0.0
 10
95.97156769054364
 20
61.71579284811165
 30
0.0
 10
95.73017353919015
 20
61.67831898934001
 30
0.0
 10
95.0410320670578
 20
61.56560704600027
 30
0.0
 10
94.62797725219357
 20
61.49007094852649
 30
0.0
 10
94.07982243281852
 20
61.381677691509
 30
0.0
 10
93.91035982547294
 20
61.34660545984573
 30
0.0
 10
93.60234257745756
 20
61.28036999924589
 30
0.0
 10
93.46296255684919
 20
61.24904330249117
 30
0.0
 10
93.21317704422245
 20
61.19063453091023
 30
0.0
 10
93.10277093156853
 20
61.16355129572738
 30
0.0
 10
92.9115130779308
 20
61.1142915411138
 30
0.0
 10
92.83039355964651
 20
61.09202956130616
 30
0.0
 10
92.63624663953813
 20
61.03446265413788
 30
0.0
 10
92.57104464944058
 20
61.00820304935188
 30
0.0
 10
92.57104464944058
 20
60.99494930487786
 30
0.0
  0
LINE
  5
75
330
1F
100
AcDbEntity
  8
0
  6
Continuous
 62
     7
370
    15
100
AcDbLine
 10
92.5710446226
 20
60.9949499641
 30
0.0
 11
92.5710446226
 21
60.9849475596
 31
0.0
  0
SPLINE
  5
76
330
1F
100
AcDbEntity
  8
0
  6
Continuous
 62
     7
370
    15
100
AcDbSpline
210
0.0
220
0.0
230
1.0
 70
     8
 71
     3
 72
    17
 73
    13
 74
     0
 42
0.00000001
 43
0.00000001
 40
0.0
 40
0.0
 40
0.0
 40
0.0
 40
0.1043843958185158
 40
0.2118345569819801
 40
0.3162081801235555
 40
0.4235375330682647
 40
0.5292275935501746
 40
0.6379275752951962
 40
0.7444714855043735
 40
0.8541836194561564
 40
0.959308052615968
 40
1.0
 40
1.0
 40
1.0
 40
1.0
 10
102.5710443991011
 20
159.9747434530505
 30
0.0
 10
102.0231058585874
 20
159.9801108933833
 30
0.0
 10
100.9111358455132
 20
159.9910034155473
 30
0.0
 10
99.29828051299063
 20
160.0761855993652
 30
0.0
 10
97.76476736225293
 20
160.2025561026967
 30
0.0
 10
96.37374647387867
 20
160.3594599742056
 30
0.0
 10
95.13822935758056
 20
160.5311553716413
 30
0.0
 10
94.11487421172416
 20
160.6965002258513
 30
0.0
 10
93.31453153886518
 20
160.8402045236834
 30
0.0
 10
92.80419998610512
 20
160.9383685196152
 30
0.0
 10
92.5642912276457
 20
160.986289834088
 30
0.0
 10
92.59621013941513
 20
160.9799233260742
 30
0.0
 10
92.60511752467208
 20
160.9781466696509
 30
0.0
  0
LINE
  5
77
330
1F
100
AcDbEntity
  8
0
  6
Continuous
 62
     7
370
    15
100
AcDbLine
 10
104.3590161043
 20
159.9747434531
 30
0.0
 11
102.5710443991
 21
159.9747434531
 31
0.0
  0
LINE
  5
78
330
1F
100
AcDbEntity
  8
0
  6
Continuous
 62
     7
370
    15
100
AcDbLine
 10
104.3590161043
 20
149.9359093879
 30
0.0
 11
104.3590161043
 21
159.9747434531
 31
0.0
  0
LINE
  5
79
330
1F
100
AcDbEntity
  8
0
  6
Continuous
 62
     7
370
    15
100
AcDbLine
 10
102.279011442
 20
149.9359093879
 30
0.0
 11
104.3590161043
 21
149.9359093879
 31
0.0
  0
SPLINE
  5
7A
330
1F
100
AcDbEntity
  8
0
  6
Continuous
 62
     7
370
    15
100
AcDbSpline
210
0.0
220
0.0
230
1.0
 70
     8
 71
     3
 72
    22
 73
    18
 74
     0
 42
0.00000001
 43
0.00000001
 40
0.0
 40
0.0
 40
0.0
 40
0.0
 40
0.2500000000000002
 40
0.2500000000000002
 40
0.3750000000000003
 40
0.3750000000000003
 40
0.5000000000000004
 40
0.5000000000000004
 40
0.6250000000000004
 40
0.6250000000000004
 40
0.7500000000000004
 40
0.7500000000000004
 40
0.8750000000000004
 40
0.8750000000000004
 40
0.9375000000000002
 40
0.9375000000000002
 40
1.0
 40
1.0
 40
1.0
 40
1.0
 10
92.57104464944057
 20
142.3349483046778
 30
0.0
 10
92.77376960535966
 20
143.3541946465424
 30
0.0
 10
93.08851332715504
 20
144.3133027964817
 30
0.0
 10
93.79656879682602
 20
145.655781873991
 30
0.0
 10
94.07503142704365
 20
146.089990456731
 30
0.0
 10
94.71379883368085
 20
146.9016181722331
 30
0.0
 10
95.07421251347105
 20
147.28089846517
 30
0.0
 10
95.89174474546033
 20
147.983857044191
 30
0.0
 10
96.35291272874747
 20
148.3088858618916
 30
0.0
 10
97.35090297523125
 20
148.8739011852824
 30
0.0
 10
97.89066216922355
 20
149.117604779489
 30
0.0
 10
99.06525513325485
 20
149.521804707134
 30
0.0
 10
99.67699131924674
 20
149.6742419001795
 30
0.0
 10
100.6289005441084
 20
149.8295694477881
 30
0.0
 10
100.9521337083691
 20
149.8690742278382
 30
0.0
 10
101.6111968796443
 20
149.9223833485069
 30
0.0
 10
101.9452608902183
 20
149.9359110655648
 30
0.0
 10
102.2790114976199
 20
149.9359110655648
 30
0.0
  0
SPLINE
  5
7B
330
1F
100
AcDbEntity
  8
0
  6
Continuous
 62
     7
370
    15
100
AcDbSpline
210
0.0
220
0.0
230
1.0
 70
     8
 71
     3
 72
    80
 73
    76
 74
     0
 42
0.00000001
 43
0.00000001
 40
-0.0312499999999993
 40
-0.0312499999999993
 40
0.0
 40
0.0
 40
0.03125
 40
0.03125
 40
0.046875
 40
0.046875
 40
0.0625
 40
0.0625
 40
0.09375
 40
0.09375
 40
0.1250000000000001
 40
0.1250000000000001
 40
0.1562500000000001
 40
0.1562500000000001
 40
0.1875000000000001
 40
0.1875000000000001
 40
0.2187500000000002
 40
0.2187500000000002
 40
0.2500000000000002
 40
0.2500000000000002
 40
0.2812500000000003
 40
0.2812500000000003
 40
0.3125000000000003
 40
0.3125000000000003
 40
0.3281250000000004
 40
0.3281250000000004
 40
0.3437500000000006
 40
0.3437500000000006
 40
0.3750000000000011
 40
0.3750000000000011
 40
0.4062500000000016
 40
0.4062500000000016
 40
0.4218750000000018
 40
0.4218750000000018
 40
0.437500000000002
 40
0.437500000000002
 40
0.4687500000000023
 40
0.4687500000000023
 40
0.5000000000000027
 40
0.5000000000000027
 40
0.531250000000003
 40
0.531250000000003
 40
0.5625000000000033
 40
0.5625000000000033
 40
0.5937500000000037
 40
0.5937500000000037
 40
0.6250000000000039
 40
0.6250000000000039
 40
0.6562500000000042
 40
0.6562500000000042
 40
0.6875000000000046
 40
0.6875000000000046
 40
0.7031250000000047
 40
0.7031250000000047
 40
0.7187500000000048
 40
0.7187500000000048
 40
0.7500000000000048
 40
0.7500000000000048
 40
0.7812500000000048
 40
0.7812500000000048
 40
0.7968750000000044
 40
0.7968750000000044
 40
0.8125000000000041
 40
0.8125000000000041
 40
0.8437500000000034
 40
0.8437500000000034
 40
0.8750000000000027
 40
0.8750000000000027
 40
0.906250000000002
 40
0.906250000000002
 40
0.9375000000000013
 40
0.9375000000000013
 40
0.9687500000000007
 40
0.9687500000000007
 40
1.0
 40
1.0
 40
1.03125
 40
1.03125
 10
96.95158996221687
 20
154.3995777683091
 30
0.0
 10
96.29049933666428
 20
154.3995777683091
 30
0.0
 10
95.96551920741264
 20
154.4157859996913
 30
0.0
 10
95.48604579616621
 20
154.4631506317108
 30
0.0
 10
95.3275639783254
 20
154.4828048436015
 30
0.0
 10
95.01334444582113
 20
154.5299159997941
 30
0.0
 10
94.85722416214072
 20
154.5574973192888
 30
0.0
 10
94.40317013318415
 20
154.6500331060826
 30
0.0
 10
94.11606675024431
 20
154.7251035396791
 30
0.0
 10
93.57271219421732
 20
154.9003418482897
 30
0.0
 10
93.31560858301172
 20
155.001343146128
 30
0.0
 10
92.85470232807295
 20
155.2186993445888
 30
0.0
 10
92.64780461885796
 20
155.3358636763611
 30
0.0
 10
92.28227930486577
 20
155.5859336005897
 30
0.0
 10
92.12707378273981
 20
155.7168796893487
 30
0.0
 10
91.8776433961401
 20
155.9826146330611
 30
0.0
 10
91.78155344035494
 20
156.119368226372
 30
0.0
 10
91.65303459116136
 20
156.393433801211
 30
0.0
 10
91.62122372098358
 20
156.5283738916798
 30
0.0
 10
91.6208670712103
 20
156.7938455287486
 30
0.0
 10
91.65336432340737
 20
156.9256700058898
 30
0.0
 10
91.78098979712186
 20
157.1751196055102
 30
0.0
 10
91.87541819817375
 20
157.2935522974383
 30
0.0
 10
92.0632790181593
 20
157.4624214945323
 30
0.0
 10
92.13410701696249
 20
157.5175074896525
 30
0.0
 10
92.28882890892777
 20
157.6227603181409
 30
0.0
 10
92.37280537911116
 20
157.6730955469012
 30
0.0
 10
92.64412904875559
 20
157.8176713794393
 30
0.0
 10
92.85067826735794
 20
157.9055329658563
 30
0.0
 10
93.31728840754695
 20
158.0652540588559
 30
0.0
 10
93.56965397717241
 20
158.1344923553231
 30
0.0
 10
93.97555531885112
 20
158.2242797445528
 30
0.0
 10
94.11545593632862
 20
158.251845706639
 30
0.0
 10
94.40467987157554
 20
158.3023365075654
 30
0.0
 10
94.55451932786482
 20
158.3252999464161
 30
0.0
 10
95.0086358974756
 20
158.3859304628349
 30
0.0
 10
95.32028711621246
 20
158.4160044916307
 30
0.0
 10
95.96128358112482
 20
158.4565940788894
 30
0.0
 10
96.29281120907702
 20
158.4669063091055
 30
0.0
 10
96.94560225414848
 20
158.4669818762712
 30
0.0
 10
97.27013845918032
 20
158.4570802708035
 30
0.0
 10
97.91540790859672
 20
158.4165937402782
 30
0.0
 10
98.23115091475944
 20
158.3861324403935
 30
0.0
 10
98.83304020974315
 20
158.3059817689569
 30
0.0
 10
99.12378944055462
 20
158.2556995371498
 30
0.0
 10
99.67070123223911
 20
158.1350293543768
 30
0.0
 10
99.92247859607603
 20
158.0658054952068
 30
0.0
 10
100.3838665886972
 20
157.9083537675661
 30
0.0
 10
100.5951358682953
 20
157.8190052928924
 30
0.0
 10
100.9584402206714
 20
157.6257574221915
 30
0.0
 10
101.1122468691142
 20
157.5216294303123
 30
0.0
 10
101.3008663387116
 20
157.3530050441288
 30
0.0
 10
101.3568968249207
 20
157.2943766424538
 30
0.0
 10
101.4524705866569
 20
157.1749217276276
 30
0.0
 10
101.4922335036819
 20
157.1140019387894
 30
0.0
 10
101.5880052539941
 20
156.9275972126156
 30
0.0
 10
101.6207280931202
 20
156.7984843948205
 30
0.0
 10
101.6213566794492
 20
156.5298274718646
 30
0.0
 10
101.5891705347145
 20
156.3944567311079
 30
0.0
 10
101.4942598328589
 20
156.1909064228719
 30
0.0
 10
101.4547930494599
 20
156.1229344988085
 30
0.0
 10
101.3598630507391
 20
155.9868422756776
 30
0.0
 10
101.3041062229757
 20
155.9184921754681
 30
0.0
 10
101.1161661050058
 20
155.717789162426
 30
0.0
 10
100.9628046352896
 20
155.5884008886133
 30
0.0
 10
100.6005404004092
 20
155.3397354565635
 30
0.0
 10
100.3896919269433
 20
155.2199258141953
 30
0.0
 10
99.92902195662442
 20
155.0024035266226
 30
0.0
 10
99.67764757704059
 20
154.9033184267867
 30
0.0
 10
99.13173969014247
 20
154.7266459528699
 30
0.0
 10
98.84091711549124
 20
154.6505888647358
 30
0.0
 10
98.23959050071122
 20
154.5277438873828
 30
0.0
 10
97.92507191609882
 20
154.4800377623297
 30
0.0
 10
97.27849045997888
 20
154.4157892272101
 30
0.0
 10
96.95158996221687
 20
154.3995777683091
 30
0.0
 10
96.29049933666428
 20
154.3995777683091
 30
0.0
  0
LINE
  5
7C
330
1F
100
AcDbEntity
  8
0
  6
Continuous
 62
     7
370
    15
100
AcDbLine
 10
105.7110450255
 20
64.6135591243
 30
0.0
 11
105.7110450255
 21
142.3349499974
 31
0.0
  0
SPLINE
  5
7D
330
1F
100
AcDbEntity
  8
0
  6
Continuous
 62
     7
370
    15
100
AcDbSpline
210
0.0
220
0.0
230
1.0
 70
     8
 71
     3
 72
     8
 73
     4
 74
     0
 42
0.00000001
 43
0.00000001
 40
0.0
 40
0.0
 40
0.0
 40
0.0
 40
1.0
 40
1.0
 40
1.0
 40
1.0
 10
105.7110446494406
 20
64.61356001765435
 30
0.0
 10
105.2608181851628
 20
63.81210465502959
 30
0.0
 10
104.8101203579194
 20
63.01091464346892
 30
0.0
 10
104.3590156285192
 20
62.20995471164901
 30
0.0
  0
SPLINE
  5
7E
330
1F
100
AcDbEntity
  8
0
  6
Continuous
 62
     7
370
    15
100
AcDbSpline
210
0.0
220
0.0
230
1.0
 70
    24
 71
     3
 72
     8
 73
     4
 74
     0
 42
0.00000001
 43
0.00000001
 40
0.0
 40
0.0
 40
0.0
 40
0.0
 40
1.0
 40
1.0
 40
1.0
 40
1.0
 10
104.3590156285192
 20
142.3349483046778
 30
0.0
 10
104.8158172008474
 20
142.3349483046778
 30
0.0
 10
105.2668317670866
 20
142.3349483046778
 30
0.0
 10
105.7110446494406
 20
142.3349483046778
 30
0.0
  0
LINE
  5
7F
330
1F
100
AcDbEntity
  8
0
  6
Continuous
 62
     7
370
    15
100
AcDbLine
 10
115.5710446673
 20
62.2099533949
 30
0.0
 11
110.8830741632
 21
62.2099533949
 31
0.0
  0
LINE
  5
80
330
1F
100
AcDbEntity
  8
0
  6
Continuous
 62
     7
370
    15
100
AcDbLine
 10
110.8830741632
 20
62.2099533949
 30
0.0
 11
110.8830741632
 21
142.3349499974
 31
0.0
  0
LINE
  5
81
330
1F
100
AcDbEntity
  8
0
  6
Continuous
 62
     7
370
    15
100
AcDbLine
 10
110.8830741632
 20
142.3349499974
 30
0.0
 11
115.5710446673
 21
142.3349499974
 31
0.0
  0
LINE
  5
82
330
1F
100
AcDbEntity
  8
0
  6
Continuous
 62
     7
370
    15
100
AcDbLine
 10
87.6210446494
 20
61.4849485729
 30
0.0
 11
87.6210446494
 21
160.4849480365
 31
0.0
  0
SPLINE
  5
83
330
1F
100
AcDbEntity
  8
0
  6
Continuous
 62
     7
370
    15
100
AcDbSpline
210
0.0
220
0.0
230
1.0
 70
     8
 71
     3
 72
     8
 73
     4
 74
     0
 42
0.00000001
 43
0.00000001
 40
0.0
 40
0.0
 40
0.0
 40
0.0
 40
1.0
 40
1.0
 40
1.0
 40
1.0
 10
110.883073670362
 20
62.20995471164901
 30
0.0
 10
110.4319689409617
 20
63.01091464346892
 30
0.0
 10
109.9812711137184
 20
63.81210465502959
 30
0.0
 10
109.5310446494406
 20
64.61356001765435
 30
0.0
  0
LINE
  5
84
330
1F
100
AcDbEntity
  8
0
  6
Continuous
 62
     7
370
    15
100
AcDbLine
 10
109.5310452419
 20
64.6135591243
 30
0.0
 11
109.5310452419
 21
142.3349499974
 31
0.0
  0
SPLINE
  5
85
330
1F
100
AcDbEntity
  8
0
  6
Continuous
 62
     7
370
    15
100
AcDbSpline
210
0.0
220
0.0
230
1.0
 70
    24
 71
     3
 72
     8
 73
     4
 74
     0
 42
0.00000001
 43
0.00000001
 40
0.0
 40
0.0
 40
0.0
 40
0.0
 40
1.0
 40
1.0
 40
1.0
 40
1.0
 10
109.5310446494406
 20
142.3349483046778
 30
0.0
 10
109.9752575317945
 20
142.3349483046778
 30
0.0
 10
110.4262720980337
 20
142.3349483046778
 30
0.0
 10
110.883073670362
 20
142.3349483046778
 30
0.0
  0
LINE
  5
86
330
1F
100
AcDbEntity
  8
0
  6
Continuous
 62
     7
370
    15
100
AcDbLine
 10
116.5710448312
 20
63.2356040452
 30
0.0
 11
116.5710448312
 21
142.3349499974
 31
0.0
  0
SPLINE
  5
87
330
1F
100
AcDbEntity
  8
0
  6
Continuous
 62
     7
370
    15
100
AcDbSpline
210
0.0
220
0.0
230
1.0
 70
     8
 71
     3
 72
    14
 73
    10
 74
     0
 42
0.00000001
 43
0.00000001
 40
0.0
 40
0.0
 40
0.0
 40
0.0
 40
0.25
 40
0.25
 40
0.5
 40
0.5
 40
0.75
 40
0.75
 40
1.0
 40
1.0
 40
1.0
 40
1.0
 10
116.5710446494406
 20
63.23560275942452
 30
0.0
 10
116.5710446494406
 20
63.10217706336999
 30
0.0
 10
116.5457335495297
 20
62.97032925552562
 30
0.0
 10
116.447398785685
 20
62.72380670683153
 30
0.0
 10
116.3742547814289
 20
62.61000151859098
 30
0.0
 10
116.1908167203332
 20
62.41954434164371
 30
0.0
 10
116.0791303859946
 20
62.34190947779379
 30
0.0
 10
115.8366269556883
 20
62.23761806768132
 30
0.0
 10
115.7032525269941
 20
62.20995471164897
 30
0.0
 10
115.5710446494406
 20
62.20995471164898
 30
0.0
  0
SPLINE
  5
88
330
1F
100
AcDbEntity
  8
0
  6
Continuous
 62
     7
370
    15
100
AcDbSpline
210
0.0
220
0.0
230
1.0
 70
    24
 71
     3
 72
    12
 73
     8
 74
     0
 42
0.00000001
 43
0.00000001
 40
0.0
 40
0.0
 40
0.0
 40
0.0
 40
0.2500000000000032
 40
0.2500000000000032
 40
0.5000000000000064
 40
0.5000000000000064
 40
1.0
 40
1.0
 40
1.0
 40
1.0
 10
115.5710446494406
 20
142.3349483046778
 30
0.0
 10
115.7231348863856
 20
142.3349483046778
 30
0.0
 10
115.871594147461
 20
142.3349483046778
 30
0.0
 10
116.1289977797267
 20
142.3349483046778
 30
0.0
 10
116.2381025275686
 20
142.3349483046778
 30
0.0
 10
116.4921620039762
 20
142.3349483046778
 30
0.0
 10
116.5710446494406
 20
142.3349483046778
 30
0.0
 10
116.5710446494406
 20
142.3349483046778
 30
0.0
  0
SPLINE
  5
89
330
1F
100
AcDbEntity
  8
0
  6
Continuous
 62
     7
370
    15
100
AcDbSpline
210
0.0
220
0.0
230
1.0
 70
     8
 71
     3
 72
    14
 73
    10
 74
     0
 42
0.00000001
 43
0.00000001
 40
0.0
 40
0.0
 40
0.0
 40
0.0
 40
0.25
 40
0.25
 40
0.5
 40
0.5
 40
0.75
 40
0.75
 40
1.0
 40
1.0
 40
1.0
 40
1.0
 10
109.5310446494406
 20
65.52176952228292
 30
0.0
 10
109.5310446494406
 20
65.62881360327731
 30
0.0
 10
109.5109269622824
 20
65.73404874351976
 30
0.0
 10
109.4324357730168
 20
65.93189923036743
 30
0.0
 10
109.3742791482156
 20
66.02295099393237
 30
0.0
 10
109.2277638925975
 20
66.17611708785715
 30
0.0
 10
109.1391213439564
 20
66.23841153406656
 30
0.0
 10
108.9433980211561
 20
66.32320531960254
 30
0.0
 10
108.8381668300852
 20
66.34527284662816
 30
0.0
 10
108.7310446494406
 20
66.34527284662816
 30
0.0
  0
SPLINE
  5
8A
330
1F
100
AcDbEntity
  8
0
  6
Continuous
 62
     7
370
    15
100
AcDbSpline
210
0.0
220
0.0
230
1.0
 70
    24
 71
     3
 72
    14
 73
    10
 74
     0
 42
0.00000001
 43
0.00000001
 40
0.0
 40
0.0
 40
0.0
 40
0.0
 40
0.25
 40
0.25
 40
0.5
 40
0.5
 40
0.75
 40
0.75
 40
1.0
 40
1.0
 40
1.0
 40
1.0
 10
108.7310446494406
 20
142.3349483046778
 30
0.0
 10
108.8548144142057
 20
142.3349483046778
 30
0.0
 10
108.9791815182126
 20
142.3349483046778
 30
0.0
 10
109.1855379869387
 20
142.3349483046778
 30
0.0
 10
109.270866130357
 20
142.3349483046778
 30
0.0
 10
109.4030581890722
 20
142.3349483046778
 30
0.0
 10
109.4517034328228
 20
142.3349483046778
 30
0.0
 10
109.5152392245516
 20
142.3349483046778
 30
0.0
 10
109.5310446494406
 20
142.3349483046778
 30
0.0
 10
109.5310446494406
 20
142.3349483046778
 30
0.0
  0
SPLINE
  5
8B
330
1F
100
AcDbEntity
  8
0
  6
Continuous
 62
     7
370
    15
100
AcDbSpline
210
0.0
220
0.0
230
1.0
 70
     8
 71
     3
 72
    12
 73
     8
 74
     0
 42
0.00000001
 43
0.00000001
 40
0.0
 40
0.0
 40
0.0
 40
0.0
 40
0.250000000000003
 40
0.250000000000003
 40
0.500000000000006
 40
0.500000000000006
 40
1.0
 40
1.0
 40
1.0
 40
1.0
 10
106.5110446494406
 20
66.34527284662816
 30
0.0
 10
106.4052839960916
 20
66.34527284662816
 30
0.0
 10
106.2972963679087
 20
66.32273334062776
 30
0.0
 10
106.1027017026431
 20
66.23816270863244
 30
0.0
 10
106.0138297898042
 20
66.17568105587362
 30
0.0
 10
105.7946374974783
 20
65.9462921044014
 30
0.0
 10
105.7110446494405
 20
65.73370876687898
 30
0.0
 10
105.7110446494406
 20
65.52176952228278
 30
0.0
  0
SPLINE
  5
8C
330
1F
100
AcDbEntity
  8
0
  6
Continuous
 62
     7
370
    15
100
AcDbSpline
210
0.0
220
0.0
230
1.0
 70
    24
 71
     3
 72
    14
 73
    10
 74
     0
 42
0.00000001
 43
0.00000001
 40
0.0
 40
0.0
 40
0.0
 40
0.0
 40
0.25
 40
0.25
 40
0.5
 40
0.5
 40
0.75
 40
0.75
 40
1.0
 40
1.0
 40
1.0
 40
1.0
 10
105.7110446494406
 20
142.3349483046778
 30
0.0
 10
105.7110446494406
 20
142.3349483046778
 30
0.0
 10
105.7267589699065
 20
142.3349483046778
 30
0.0
 10
105.7904429483749
 20
142.3349483046778
 30
0.0
 10
105.8390461427854
 20
142.3349483046778
 30
0.0
 10
105.9717296652109
 20
142.3349483046778
 30
0.0
 10
106.0568317695216
 20
142.3349483046778
 30
0.0
 10
106.2632740044316
 20
142.3349483046778
 30
0.0
 10
106.3873549460547
 20
142.3349483046778
 30
0.0
 10
106.5110446494406
 20
142.3349483046778
 30
0.0
  0
LINE
  5
8D
330
1F
100
AcDbEntity
  8
0
  6
Continuous
 62
     7
370
    15
100
AcDbLine
 10
108.7310447383
 20
66.3452714954
 30
0.0
 11
106.5110455292
 21
66.3452714954
 31
0.0
  0
LINE
  5
8E
330
1F
100
AcDbEntity
  8
0
  6
Continuous
 62
     7
370
    15
100
AcDbLine
 10
106.5110455292
 20
142.3349499974
 30
0.0
 11
108.7310447383
 21
142.3349499974
 31
0.0
  0
LINE
  5
8F
330
1F
100
AcDbEntity
  8
0
  6
Continuous
 62
     7
370
    15
100
AcDbLine
 10
52.8210441607
 20
74.7209348057
 30
0.0
 11
52.8210441607
 21
77.1156147394
 31
0.0
  0
SPLINE
  5
90
330
1F
100
AcDbEntity
  8
0
  6
Continuous
 62
     7
370
    15
100
AcDbSpline
210
0.0
220
0.0
230
1.0
 70
     8
 71
     3
 72
    14
 73
    10
 74
     0
 42
0.00000001
 43
0.00000001
 40
0.0
 40
0.0
 40
0.0
 40
0.0
 40
0.25
 40
0.25
 40
0.5
 40
0.5
 40
0.75
 40
0.75
 40
1.0
 40
1.0
 40
1.0
 40
1.0
 10
51.81662217810362
 20
78.81846696093427
 30
0.0
 10
51.90539075604894
 20
78.65993282962633
 30
0.0
 10
52.02710859472785
 20
78.50749015273777
 30
0.0
 10
52.26215820458469
 20
78.21035552890886
 30
0.0
 10
52.37778839080158
 20
78.06567288529149
 30
0.0
 10
52.57819332422939
 20
77.78238368278808
 30
0.0
 10
52.66359361621372
 20
77.64382968975123
 30
0.0
 10
52.78529924993094
 20
77.37244565971771
 30
0.0
 10
52.82104464944359
 20
77.24030979108308
 30
0.0
 10
52.82104464944358
 20
77.11561503931232
 30
0.0
  0
SPLINE
  5
91
330
1F
100
AcDbEntity
  8
0
  6
Continuous
 62
     7
370
    15
100
AcDbSpline
210
0.0
220
0.0
230
1.0
 70
     8
 71
     3
 72
    14
 73
    10
 74
     0
 42
0.00000001
 43
0.00000001
 40
0.0
 40
0.0
 40
0.0
 40
0.0
 40
0.124999999999999
 40
0.124999999999999
 40
0.249999999999998
 40
0.249999999999998
 40
0.5000000000000007
 40
0.5000000000000007
 40
1.0
 40
1.0
 40
1.0
 40
1.0
 10
50.92104464944058
 20
79.44729690003439
 30
0.0
 10
50.98862694922507
 20
79.4544527851358
 30
0.0
 10
51.06111452697297
 20
79.45002831509676
 30
0.0
 10
51.19340563623892
 20
79.42032215732641
 30
0.0
 10
51.25068301562909
 20
79.3970378757482
 30
0.0
 10
51.40033344282938
 20
79.31955263589788
 30
0.0
 10
51.47404673835088
 20
79.2577008089965
 30
0.0
 10
51.66185472167712
 20
79.07302335634819
 30
0.0
 10
51.74589502803856
 20
78.94478043305698
 30
0.0
 10
51.81662217810484
 20
78.81846696093439
 30
0.0
  0
SPLINE
  5
92
330
1F
100
AcDbEntity
  8
0
  6
Continuous
 62
     7
370
    15
100
AcDbSpline
210
0.0
220
0.0
230
1.0
 70
     8
 71
     3
 72
     8
 73
     4
 74
     0
 42
0.00000001
 43
0.00000001
 40
0.0
 40
0.0
 40
0.0
 40
0.0
 40
1.0
 40
1.0
 40
1.0
 40
1.0
 10
47.3764042613598
 20
79.02924831524261
 30
0.0
 10
48.54170257206867
 20
79.18443578712922
 30
0.0
 10
49.72631778610847
 20
79.32079442543954
 30
0.0
 10
50.92104464944055
 20
79.4472969000344
 30
0.0
  0
SPLINE
  5
93
330
1F
100
AcDbEntity
  8
0
  6
Continuous
 62
     7
370
    15
100
AcDbSpline
210
0.0
220
0.0
230
1.0
 70
     8
 71
     3
 72
    14
 73
    10
 74
     0
 42
0.00000001
 43
0.00000001
 40
0.0
 40
0.0
 40
0.0
 40
0.0
 40
0.5000000000000012
 40
0.5000000000000012
 40
0.7500000000000018
 40
0.7500000000000018
 40
0.8750000000000009
 40
0.8750000000000009
 40
1.0
 40
1.0
 40
1.0
 40
1.0
 10
39.62096976541024
 20
78.73911613611267
 30
0.0
 10
40.92927132794424
 20
78.74613085985379
 30
0.0
 10
42.23433070260135
 20
78.76153943629828
 30
0.0
 10
44.18020675409004
 20
78.81543599176494
 30
0.0
 10
44.82690425782921
 20
78.83846755636765
 30
0.0
 10
45.79074662168375
 20
78.8894100812384
 30
0.0
 10
46.1109853136179
 20
78.9091450034716
 30
0.0
 10
46.74768053996045
 20
78.95863213194318
 30
0.0
 10
47.06439594824344
 20
78.98769691087242
 30
0.0
 10
47.37640426135983
 20
79.02924831524258
 30
0.0
  0
SPLINE
  5
94
330
1F
100
AcDbEntity
  8
0
  6
Continuous
 62
     7
370
    15
100
AcDbSpline
210
0.0
220
0.0
230
1.0
 70
     8
 71
     3
 72
    12
 73
     8
 74
     0
 42
0.00000001
 43
0.00000001
 40
0.0
 40
0.0
 40
0.0
 40
0.0
 40
0.2500000000000001
 40
0.2500000000000001
 40
0.5000000000000001
 40
0.5000000000000001
 40
1.0
 40
1.0
 40
1.0
 40
1.0
 10
45.92104464944058
 20
143.0714711961743
 30
0.0
 10
45.40234582761239
 20
143.1039939710225
 30
0.0
 10
44.8806342544074
 20
143.127290712193
 30
0.0
 10
43.83434223791183
 20
143.1651362266151
 30
0.0
 10
43.30967061224156
 20
143.1794047011112
 30
0.0
 10
41.73282458970235
 20
143.2136141885695
 30
0.0
 10
40.67786927515546
 20
143.2251136925134
 30
0.0
 10
39.62096976541023
 20
143.230780473243
 30
0.0
  0
SPLINE
  5
95
330
1F
100
AcDbEntity
  8
0
  6
Continuous
 62
     7
370
    15
100
AcDbSpline
210
0.0
220
0.0
230
1.0
 70
     8
 71
     3
 72
    20
 73
    16
 74
     0
 42
0.00000001
 43
0.00000001
 40
0.0
 40
0.0
 40
0.0
 40
0.0
 40
0.2500000000000011
 40
0.2500000000000011
 40
0.5000000000000021
 40
0.5000000000000021
 40
0.7500000000000031
 40
0.7500000000000031
 40
0.8750000000000008
 40
0.8750000000000008
 40
0.9375000000000006
 40
0.9375000000000006
 40
0.9687500000000003
 40
0.9687500000000003
 40
1.0
 40
1.0
 40
1.0
 40
1.0
 10
47.82104464944058
 20
144.7295570416624
 30
0.0
 10
47.82104464944057
 20
144.5938747219156
 30
0.0
 10
47.77233286022395
 20
144.4527877357755
 30
0.0
 10
47.60317143699877
 20
144.160716017045
 30
0.0
 10
47.48139102308044
 20
144.0090672749546
 30
0.0
 10
47.18384392833094
 20
143.7066588348015
 30
0.0
 10
47.00993132262815
 20
143.5540701986782
 30
0.0
 10
46.69051648874634
 20
143.3287994348359
 30
0.0
 10
46.57547571329908
 20
143.2540763403251
 30
0.0
 10
46.36839138928266
 20
143.1546659310682
 30
0.0
 10
46.29228355447626
 20
143.1231008387235
 30
0.0
 10
46.16088901492294
 20
143.0886574545306
 30
0.0
 10
46.11433579592148
 20
143.0796058827629
 30
0.0
 10
46.01800244484075
 20
143.0694302339245
 30
0.0
 10
45.96874302148532
 20
143.0684804752495
 30
0.0
 10
45.92104464943858
 20
143.0714711961641
 30
0.0
  0
LINE
  5
96
330
1F
100
AcDbEntity
  8
0
  6
Continuous
 62
     7
370
    15
100
AcDbLine
 10
47.8210452038
 20
144.7295554254
 30
0.0
 11
47.8210452038
 21
146.9984621082
 31
0.0
  0
LINE
  5
97
330
1F
100
AcDbEntity
  8
0
  6
Continuous
 62
     7
370
    15
100
AcDbLine
 10
85.1210447053
 20
73.1026985023
 30
0.0
 11
85.1210447053
 21
148.867198107
 31
0.0
  0
SPLINE
  5
98
330
1F
100
AcDbEntity
  8
0
  6
Continuous
 62
     7
370
    15
100
AcDbSpline
210
0.0
220
0.0
230
1.0
 70
     8
 71
     3
 72
    22
 73
    18
 74
     0
 42
0.00000001
 43
0.00000001
 40
0.0
 40
0.0
 40
0.0
 40
0.0
 40
0.0002937795809534
 40
0.0628841226670476
 40
0.1261981634441474
 40
0.2510182376743836
 40
0.3131038035109783
 40
0.3757650301263917
 40
0.438298947461237
 40
0.5000628179552256
 40
0.5617337540173512
 40
0.6246555751056264
 40
0.7491916931696805
 40
0.8115302283016316
 40
0.874584730621348
 40
0.9378227612722644
 40
1.0
 40
1.0
 40
1.0
 40
1.0
 10
66.14100029941254
 20
74.05370178558907
 30
0.0
 10
66.1408057551019
 20
74.0536780883962
 30
0.0
 10
66.09916314585391
 20
74.04860565558972
 30
0.0
 10
66.24433174507723
 20
74.06702829386677
 30
0.0
 10
66.71452463206373
 20
74.12365313275723
 30
0.0
 10
67.68296011381054
 20
74.22983299762353
 30
0.0
 10
68.99542351448747
 20
74.31547121780088
 30
0.0
 10
70.12754595771544
 20
74.35412785870346
 30
0.0
 10
71.34973340020696
 20
74.35778455946335
 30
0.0
 10
72.6170321725663
 20
74.31540642270865
 30
0.0
 10
73.88374363884157
 20
74.22702223411515
 30
0.0
 10
75.49940220708677
 20
74.0569808810731
 30
0.0
 10
76.9393648915142
 20
73.83479530288933
 30
0.0
 10
78.00523343502229
 20
73.63179687926763
 30
0.0
 10
78.59443361141042
 20
73.50777106264098
 30
0.0
 10
78.98315377612828
 20
73.42285268619167
 30
0.0
 10
79.02993917135042
 20
73.41212655438079
 30
0.0
 10
79.05313400800877
 20
73.40680885055146
 30
0.0
  0
SPLINE
  5
99
330
1F
100
AcDbEntity
  8
0
  6
Continuous
 62
     7
370
    15
100
AcDbSpline
210
0.0
220
0.0
230
1.0
 70
     8
 71
     3
 72
    41
 73
    37
 74
     0
 42
0.00000001
 43
0.00000001
 40
0.0
 40
0.0
 40
0.0
 40
0.0
 40
0.0619930057521228
 40
0.125434780003805
 40
0.1886508796717336
 40
0.2510246486109843
 40
0.3131658162995061
 40
0.3756581562437795
 40
0.4382226967007958
 40
0.4998044866844433
 40
0.5615163978929774
 40
0.6240683345302142
 40
0.6867257381925739
 40
0.7488365438330932
 40
0.8110686224406419
 40
0.8741742887465523
 40
0.937321279503927
 40
0.9685511676011523
 40
0.9842086839263064
 40
0.9920641174372576
 40
0.9960004855111666
 40
0.9979710789827718
 40
0.9989570084930103
 40
0.9994501352406044
 40
0.9996967397140213
 40
0.9998200522691518
 40
0.9998817111564905
 40
0.9999125412175116
 40
0.9999279564093942
 40
0.9999356640470698
 40
0.9999395178742543
 40
0.9999414447906289
 40
0.9999424082488162
 40
0.9999433717070034
 40
0.9999501690780732
 40
1.0
 40
1.0
 40
1.0
 40
1.0
 10
79.05301293607407
 20
148.5630430553206
 30
0.0
 10
79.02944134511507
 20
148.5577334702772
 30
0.0
 10
78.98174729817529
 20
148.5469902158768
 30
0.0
 10
78.58970420479604
 20
148.4617633307013
 30
0.0
 10
77.9991915596101
 20
148.3371946497417
 30
0.0
 10
77.19515311153998
 20
148.1842457395849
 30
0.0
 10
76.21907834515201
 20
148.0224885369291
 30
0.0
 10
75.09727003220974
 20
147.8702551191786
 30
0.0
 10
73.88373839660393
 20
147.7424797646868
 30
0.0
 10
72.61890796514732
 20
147.6546312492113
 30
0.0
 10
71.3508645958022
 20
147.612243210042
 30
0.0
 10
70.12735728599716
 20
147.6159822814912
 30
0.0
 10
68.99385797347921
 20
147.6545707609789
 30
0.0
 10
68.00775322803814
 20
147.7190171908861
 30
0.0
 10
67.1991238460895
 20
147.7925240630305
 30
0.0
 10
66.6025073286936
 20
147.8598375930608
 30
0.0
 10
66.28711509821028
 20
147.8978006868527
 30
0.0
 10
66.17704878364596
 20
147.9116000152025
 30
0.0
 10
66.14963042719211
 20
147.9150846297229
 30
0.0
 10
66.14270661329579
 20
147.9159659116517
 30
0.0
 10
66.14093815793132
 20
147.9161890194723
 30
0.0
 10
66.14047812617788
 20
147.9162420645772
 30
0.0
 10
66.14035366731738
 20
147.9162616141152
 30
0.0
 10
66.14031930161372
 20
147.9162549745224
 30
0.0
 10
66.14030819591112
 20
147.9162624905964
 30
0.0
 10
66.14030470584842
 20
147.9162618248068
 30
0.0
 10
66.14030155066135
 20
147.9162618838118
 30
0.0
 10
66.14030183039918
 20
147.9162618785355
 30
0.0
 10
66.14030180520842
 20
147.9162618790741
 30
0.0
 10
66.14030180802659
 20
147.9162618789257
 30
0.0
 10
66.14030180694822
 20
147.916261879081
 30
0.0
 10
66.14030180821351
 20
147.9162618788667
 30
0.0
 10
66.14030180619847
 20
147.9162618792119
 30
0.0
 10
66.14030182487446
 20
147.9162618760104
 30
0.0
 10
66.14029958671048
 20
147.9162622596952
 30
0.0
 10
66.14033544554161
 20
147.9162561124672
 30
0.0
 10
66.1403670000618
 20
147.916250703121
 30
0.0
  0
SPLINE
  5
9A
330
1F
100
AcDbEntity
  8
0
  6
Continuous
 62
     7
370
    15
100
AcDbSpline
210
0.0
220
0.0
230
1.0
 70
     8
 71
     3
 72
    20
 73
    16
 74
     0
 42
0.00000001
 43
0.00000001
 40
0.0
 40
0.0
 40
0.0
 40
0.0
 40
0.249999999999986
 40
0.249999999999986
 40
0.3749999999999789
 40
0.3749999999999789
 40
0.4374999999999789
 40
0.4374999999999789
 40
0.4999999999999789
 40
0.4999999999999789
 40
0.6249999999999835
 40
0.6249999999999835
 40
0.7499999999999879
 40
0.7499999999999879
 40
1.0
 40
1.0
 40
1.0
 40
1.0
 10
38.01185888115658
 20
80.30646515197712
 30
0.0
 10
38.03813109836999
 20
80.32578309305957
 30
0.0
 10
38.06881124062483
 20
80.34017180416134
 30
0.0
 10
38.14028211100675
 20
80.33326744232532
 30
0.0
 10
38.16830914805108
 20
80.32610143897692
 30
0.0
 10
38.2233927375486
 20
80.29640241227332
 30
0.0
 10
38.24428406610103
 20
80.28292876971199
 30
0.0
 10
38.28949271354648
 20
80.24773050419599
 30
0.0
 10
38.31389692594206
 20
80.22582227546872
 30
0.0
 10
38.38522924399351
 20
80.15369741547318
 30
0.0
 10
38.42712602881376
 20
80.10135687452312
 30
0.0
 10
38.49870198766965
 20
80.00387348262238
 30
0.0
 10
38.52952997748696
 20
79.95711971274396
 30
0.0
 10
38.61262991032252
 20
79.82382649690484
 30
0.0
 10
38.65748481569283
 20
79.74118909898962
 30
0.0
 10
38.69759689114541
 20
79.66208220419885
 30
0.0
  0
SPLINE
  5
9B
330
1F
100
AcDbEntity
  8
0
  6
Continuous
 62
     7
370
    15
100
AcDbSpline
210
0.0
220
0.0
230
1.0
 70
     8
 71
     3
 72
     8
 73
     4
 74
     0
 42
0.00000001
 43
0.00000001
 40
0.0
 40
0.0
 40
0.0
 40
0.0
 40
1.0
 40
1.0
 40
1.0
 40
1.0
 10
37.72104464944059
 20
80.4822785621099
 30
0.0
 10
37.72104464944059
 20
80.45699850488252
 30
0.0
 10
37.72423145387482
 20
80.43339893564448
 30
0.0
 10
37.73033445082225
 20
80.41182149395246
 30
0.0
  0
SPLINE
  5
9C
330
1F
100
AcDbEntity
  8
0
  6
Continuous
 62
     7
370
    15
100
AcDbSpline
210
0.0
220
0.0
230
1.0
 70
     8
 71
     3
 72
     9
 73
     5
 74
     0
 42
0.00000001
 43
0.00000001
 40
0.0
 40
0.0
 40
0.0
 40
0.0
 40
0.7766522094856231
 40
1.0
 40
1.0
 40
1.0
 40
1.0
 10
37.806377096731
 20
80.36723623910031
 30
0.0
 10
37.84956376125345
 20
80.31503732903953
 30
0.0
 10
37.90516994378276
 20
80.24782718088922
 30
0.0
 10
37.99238180728418
 20
80.29575990944518
 30
0.0
 10
38.01186038430386
 20
80.3064655784615
 30
0.0
  0
LINE
  5
9D
330
1F
100
AcDbEntity
  8
0
  6
Continuous
 62
     7
370
    15
100
AcDbLine
 10
37.7210455972
 20
80.4822787915
 30
0.0
 11
37.7210455972
 21
141.4876178179
 31
0.0
  0
SPLINE
  5
9E
330
1F
100
AcDbEntity
  8
0
  6
Continuous
 62
     7
370
    15
100
AcDbSpline
210
0.0
220
0.0
230
1.0
 70
     8
 71
     3
 72
     9
 73
     5
 74
     0
 42
0.00000001
 43
0.00000001
 40
0.0
 40
0.0
 40
0.0
 40
0.0
 40
0.0592942499244465
 40
1.0
 40
1.0
 40
1.0
 40
1.0
 10
38.01186038430384
 20
141.6634310308941
 30
0.0
 10
38.00697738660511
 20
141.6667241705919
 30
0.0
 10
37.92462542659248
 20
141.7222631090549
 30
0.0
 10
37.85849477217719
 20
141.6649709059422
 30
0.0
 10
37.79628528531246
 20
141.6110758010395
 30
0.0
  0
SPLINE
  5
9F
330
1F
100
AcDbEntity
  8
0
  6
Continuous
 62
     7
370
    15
100
AcDbSpline
210
0.0
220
0.0
230
1.0
 70
     8
 71
     3
 72
     8
 73
     4
 74
     0
 42
0.00000001
 43
0.00000001
 40
0.0
 40
0.0
 40
0.0
 40
0.0
 40
1.0
 40
1.0
 40
1.0
 40
1.0
 10
37.74467831837678
 20
141.5951975483154
 30
0.0
 10
37.72932927974075
 20
141.5646874933195
 30
0.0
 10
37.72104464944059
 20
141.5283759378071
 30
0.0
 10
37.72104464944059
 20
141.4876180472457
 30
0.0
  0
SPLINE
  5
A0
330
1F
100
AcDbEntity
  8
0
  6
Continuous
 62
     7
370
    15
100
AcDbSpline
210
0.0
220
0.0
230
1.0
 70
     8
 71
     3
 72
    20
 73
    16
 74
     0
 42
0.00000001
 43
0.00000001
 40
0.0
 40
0.0
 40
0.0
 40
0.0
 40
0.2500000000000037
 40
0.2500000000000037
 40
0.3750000000000055
 40
0.3750000000000055
 40
0.5000000000000073
 40
0.5000000000000073
 40
0.5625000000000057
 40
0.5625000000000057
 40
0.625000000000004
 40
0.625000000000004
 40
0.7500000000000027
 40
0.7500000000000027
 40
1.0
 40
1.0
 40
1.0
 40
1.0
 10
38.69759689114299
 20
142.307814405156
 30
0.0
 10
38.65760067331917
 20
142.2289359985985
 30
0.0
 10
38.61248704548151
 20
142.145806351907
 30
0.0
 10
38.52923283111498
 20
142.0123176875561
 30
0.0
 10
38.49901350249449
 20
141.9664526316741
 30
0.0
 10
38.42692526735306
 20
141.8682610792692
 30
0.0
 10
38.38500794994199
 20
141.8159512597456
 30
0.0
 10
38.31375734539051
 20
141.7439453570111
 30
0.0
 10
38.2895215330112
 20
141.7221751447096
 30
0.0
 10
38.24392334282656
 20
141.6867004863805
 30
0.0
 10
38.22312085322684
 20
141.673330302203
 30
0.0
 10
38.16817985480772
 20
141.6437603900678
 30
0.0
 10
38.1401108667209
 20
141.6366338677658
 30
0.0
 10
38.06960803665807
 20
141.6297594962831
 30
0.0
 10
38.03818394886719
 20
141.6440746553703
 30
0.0
 10
38.0118588811586
 20
141.6634314573808
 30
0.0
  0
SPLINE
  5
A1
330
1F
100
AcDbEntity
  8
0
  6
Continuous
 62
     7
370
    15
100
AcDbSpline
210
0.0
220
0.0
230
1.0
 70
     8
 71
     3
 72
    10
 73
     6
 74
     0
 42
0.00000001
 43
0.00000001
 40
0.0
 40
0.0
 40
0.0
 40
0.0
 40
0.4999999999999989
 40
0.4999999999999989
 40
1.0
 40
1.0
 40
1.0
 40
1.0
 10
39.37104464944058
 20
143.2332335064978
 30
0.0
 10
39.24615637869039
 20
143.1022372284263
 30
0.0
 10
39.12470626062994
 20
142.9585243917613
 30
0.0
 10
38.89512228567252
 20
142.6479540990721
 30
0.0
 10
38.78484731027654
 20
142.479885026009
 30
0.0
 10
38.69759689114301
 20
142.307814405156
 30
0.0
  0
SPLINE
  5
A2
330
1F
100
AcDbEntity
  8
0
  6
Continuous
 62
     7
370
    15
100
AcDbSpline
210
0.0
220
0.0
230
1.0
 70
     8
 71
     3
 72
     8
 73
     4
 74
     0
 42
0.00000001
 43
0.00000001
 40
0.0
 40
0.0
 40
0.0
 40
0.0
 40
1.0
 40
1.0
 40
1.0
 40
1.0
 10
39.62096976540636
 20
143.2307804732424
 30
0.0
 10
39.53395173555798
 20
143.2312470380295
 30
0.0
 10
39.45099770917804
 20
143.2322870576056
 30
0.0
 10
39.37104464943828
 20
143.2332335064979
 30
0.0
  0
SPLINE
  5
A3
330
1F
100
AcDbEntity
  8
0
  6
Continuous
 62
     7
370
    15
100
AcDbSpline
210
0.0
220
0.0
230
1.0
 70
     8
 71
     3
 72
     8
 73
     4
 74
     0
 42
0.00000001
 43
0.00000001
 40
0.0
 40
0.0
 40
0.0
 40
0.0
 40
1.0
 40
1.0
 40
1.0
 40
1.0
 10
39.37104464943828
 20
78.73666310285773
 30
0.0
 10
39.45099770917804
 20
78.73760955175
 30
0.0
 10
39.53395173555798
 20
78.73864957132612
 30
0.0
 10
39.62096976540637
 20
78.7391161361132
 30
0.0
  0
SPLINE
  5
A4
330
1F
100
AcDbEntity
  8
0
  6
Continuous
 62
     7
370
    15
100
AcDbSpline
210
0.0
220
0.0
230
1.0
 70
     8
 71
     3
 72
    10
 73
     6
 74
     0
 42
0.00000001
 43
0.00000001
 40
0.0
 40
0.0
 40
0.0
 40
0.0
 40
0.4999999999999989
 40
0.4999999999999989
 40
1.0
 40
1.0
 40
1.0
 40
1.0
 10
38.69759689114208
 20
79.66208220420141
 30
0.0
 10
38.78484731027557
 20
79.49001158334804
 30
0.0
 10
38.89512228567171
 20
79.3219425102846
 30
0.0
 10
39.12470626062955
 20
79.0113722175948
 30
0.0
 10
39.24615637869019
 20
78.86765938092951
 30
0.0
 10
39.37104464944058
 20
78.73666310285782
 30
0.0
  0
SPLINE
  5
A5
330
1F
100
AcDbEntity
  8
0
  6
Continuous
 62
     7
370
    15
100
AcDbSpline
210
0.0
220
0.0
230
1.0
 70
     8
 71
     3
 72
    39
 73
    35
 74
     0
 42
0.00000001
 43
0.00000001
 40
-0.0931433916039173
 40
-0.0619641987637062
 40
-0.0306703171146618
 40
0.0
 40
0.030689492203065
 40
0.0619993941499423
 40
0.093197748012684
 40
0.1243182774470527
 40
0.1554749299676763
 40
0.1869843400893024
 40
0.2186532915138281
 40
0.2499314079049537
 40
0.2812370904856163
 40
0.3129690446093949
 40
0.3445540262354255
 40
0.3757573034806906
 40
0.4068752574726665
 40
0.4380224291935552
 40
0.4692819917759812
 40
0.500013593973392
 40
0.5307425761018881
 40
0.5620344400063956
 40
0.5931976800595834
 40
0.6243292386199579
 40
0.6555145693219483
 40
0.6870757680781245
 40
0.7187637317798715
 40
0.7500676014101372
 40
0.7813443514976404
 40
0.8130504797072379
 40
0.8445809527295499
 40
0.875755004134827
 40
0.9068566083960827
 40
0.9380358012362938
 40
0.9693296828853382
 40
1.0
 40
1.030689492203065
 40
1.061999394149942
 40
1.093197748012684
 10
225.8506261463574
 20
102.1509352170399
 30
0.0
 10
224.1206840702094
 20
101.9758588443982
 30
0.0
 10
222.3904583537363
 20
102.1511754009845
 30
0.0
 10
220.7296299897304
 20
102.6775969744914
 30
0.0
 10
219.195059005431
 20
103.5041881036398
 30
0.0
 10
217.8638829529876
 20
104.618389186202
 30
0.0
 10
216.770303132744
 20
105.9740662545709
 30
0.0
 10
215.960289997568
 20
107.5325360778431
 30
0.0
 10
215.4457137383932
 20
109.221912927742
 30
0.0
 10
215.2753530804748
 20
110.9815216918581
 30
0.0
 10
215.4467964205796
 20
112.7421796201056
 30
0.0
 10
215.9620063263545
 20
114.4345321079057
 30
0.0
 10
216.7723798475287
 20
115.996697057146
 30
0.0
 10
217.8668113970083
 20
117.3545597001795
 30
0.0
 10
219.1974313163902
 20
118.4691358407734
 30
0.0
 10
220.7301360342896
 20
119.2952371673905
 30
0.0
 10
222.3905070492451
 20
119.819827550394
 30
0.0
 10
224.1217238955196
 20
119.993761593364
 30
0.0
 10
225.8534938732686
 20
119.8192623398719
 30
0.0
 10
227.5144567590772
 20
119.2937689855395
 30
0.0
 10
229.0480431254931
 20
118.4668775146986
 30
0.0
 10
230.3782965394543
 20
117.3514691540755
 30
0.0
 10
231.4717289782945
 20
115.9935176946667
 30
0.0
 10
232.2811277563552
 20
114.4326199583461
 30
0.0
 10
232.7953114965578
 20
112.7413324967731
 30
0.0
 10
232.9667204868911
 20
110.981595299048
 30
0.0
 10
232.7964272582883
 20
109.2213124208328
 30
0.0
 10
232.2810392648446
 20
107.531054008975
 30
0.0
 10
231.4702168767212
 20
105.9714341452295
 30
0.0
 10
230.3757947348062
 20
104.6159274505897
 30
0.0
 10
229.0444236542905
 20
103.5025865926222
 30
0.0
 10
227.5105502975635
 20
102.6768532285979
 30
0.0
 10
225.8506261463574
 20
102.1509352170399
 30
0.0
 10
224.1206840702094
 20
101.9758588443982
 30
0.0
 10
222.3904583537363
 20
102.1511754009845
 30
0.0
  0
LINE
  5
A6
330
1F
100
AcDbEntity
  8
0
  6
Continuous
 62
     7
370
    15
100
AcDbLine
 10
154.1852544087
 20
143.3995373819
 30
0.0
 11
154.4353554982
 21
143.3872141216
 31
0.0
  0
SPLINE
  5
A7
330
1F
100
AcDbEntity
  8
0
  6
Continuous
 62
     7
370
    15
100
AcDbSpline
210
0.0
220
0.0
230
1.0
 70
     8
 71
     3
 72
    17
 73
    13
 74
     0
 42
0.00000001
 43
0.00000001
 40
0.0
 40
0.0
 40
0.0
 40
0.0
 40
0.0401234127042999
 40
0.1341912906583497
 40
0.2305056641216704
 40
0.3336136518371257
 40
0.4449368182775411
 40
0.5625624334791488
 40
0.6824876271027683
 40
0.7999197399729723
 40
0.9099529639143203
 40
0.9999999999999999
 40
0.9999999999999999
 40
0.9999999999999999
 40
0.9999999999999999
 10
160.0271503465956
 20
143.4809908542879
 30
0.0
 10
160.0380240446005
 20
143.4819683317997
 30
0.0
 10
160.07439073106
 20
143.485237469693
 30
0.0
 10
159.771915221833
 20
143.4579873065511
 30
0.0
 10
159.1698307601137
 20
143.4110985210555
 30
0.0
 10
158.2674061530734
 20
143.3580741909784
 30
0.0
 10
157.1425013604724
 20
143.3226435229884
 30
0.0
 10
155.8976889050916
 20
143.3237512714659
 30
0.0
 10
154.7006318412902
 20
143.3655574687601
 30
0.0
 10
153.75260688074
 20
143.4263024837591
 30
0.0
 10
153.1635553932173
 20
143.4763601592319
 30
0.0
 10
153.1120204878751
 20
143.4811901188102
 30
0.0
 10
153.0888269680327
 20
143.4833638642081
 30
0.0
  0
LINE
  5
A8
330
1F
100
AcDbEntity
  8
0
  6
Continuous
 62
     7
370
    15
100
AcDbLine
 10
153.7874008554
 20
143.4264302526
 30
0.0
 11
154.1852544087
 21
143.3995373819
 31
0.0
  0
SPLINE
  5
A9
330
1F
100
AcDbEntity
  8
0
  6
Continuous
 62
     7
370
    15
100
AcDbSpline
210
0.0
220
0.0
230
1.0
 70
     8
 71
     3
 72
    68
 73
    64
 74
     0
 42
0.00000001
 43
0.00000001
 40
-0.0312499999999993
 40
-0.0312499999999993
 40
0.0
 40
0.0
 40
0.0312500000000004
 40
0.0312500000000004
 40
0.0625000000000009
 40
0.0625000000000009
 40
0.0937500000000013
 40
0.0937500000000013
 40
0.1250000000000017
 40
0.1250000000000017
 40
0.1562500000000022
 40
0.1562500000000022
 40
0.1875000000000026
 40
0.1875000000000026
 40
0.2187500000000031
 40
0.2187500000000031
 40
0.2500000000000035
 40
0.2500000000000035
 40
0.2812500000000039
 40
0.2812500000000039
 40
0.3125000000000044
 40
0.3125000000000044
 40
0.3437500000000048
 40
0.3437500000000048
 40
0.3750000000000052
 40
0.3750000000000052
 40
0.4062500000000057
 40
0.4062500000000057
 40
0.4375000000000061
 40
0.4375000000000061
 40
0.4687500000000066
 40
0.4687500000000066
 40
0.500000000000007
 40
0.500000000000007
 40
0.5312500000000074
 40
0.5312500000000074
 40
0.5625000000000079
 40
0.5625000000000079
 40
0.6250000000000069
 40
0.6250000000000069
 40
0.6562500000000063
 40
0.6562500000000063
 40
0.6875000000000058
 40
0.6875000000000058
 40
0.7187500000000052
 40
0.7187500000000052
 40
0.7500000000000046
 40
0.7500000000000046
 40
0.781250000000004
 40
0.781250000000004
 40
0.8125000000000034
 40
0.8125000000000034
 40
0.8437500000000029
 40
0.8437500000000029
 40
0.8750000000000023
 40
0.8750000000000023
 40
0.9062500000000018
 40
0.9062500000000018
 40
0.9375000000000012
 40
0.9375000000000012
 40
0.9687500000000007
 40
0.9687500000000007
 40
1.0
 40
1.0
 40
1.03125
 40
1.03125
 10
154.0169908626928
 20
113.1950015674141
 30
0.0
 10
154.3535158278657
 20
113.4841816304409
 30
0.0
 10
154.5329352421527
 20
113.6102131510003
 30
0.0
 10
154.9123121774931
 20
113.8282015596387
 30
0.0
 10
155.1140326047969
 20
113.9207079871509
 30
0.0
 10
155.5302496040731
 20
114.0677937579371
 30
0.0
 10
155.7425932137176
 20
114.1220022266709
 30
0.0
 10
156.1754477671561
 20
114.1931860351571
 30
0.0
 10
156.3980938759395
 20
114.2099751255613
 30
0.0
 10
156.8378865078497
 20
114.2045109053342
 30
0.0
 10
157.0556279542937
 20
114.1827724670147
 30
0.0
 10
157.4868012545336
 20
114.1012618426055
 30
0.0
 10
157.701924880973
 20
114.0405753570144
 30
0.0
 10
158.111721915775
 20
113.8840577372624
 30
0.0
 10
158.308036699042
 20
113.7882446110255
 30
0.0
 10
158.6829387990443
 20
113.5602831916645
 30
0.0
 10
158.8623553174035
 20
113.4268397936206
 30
0.0
 10
159.1866210199259
 20
113.1329308264357
 30
0.0
 10
159.3335828208437
 20
112.9715127774036
 30
0.0
 10
159.5951532506398
 20
112.6177536959233
 30
0.0
 10
159.7088070783702
 20
112.4254855815937
 30
0.0
 10
159.8900602615165
 20
112.0275909719211
 30
0.0
 10
159.9594862693099
 20
111.8197851315129
 30
0.0
 10
160.0522008838025
 20
111.3848689748992
 30
0.0
 10
160.0736265199663
 20
111.1661873882101
 30
0.0
 10
160.0679724910609
 20
110.727651543472
 30
0.0
 10
160.0399868848073
 20
110.5049908752001
 30
0.0
 10
159.9370020054033
 20
110.0772501989242
 30
0.0
 10
159.8625902991749
 20
109.8707384884202
 30
0.0
 10
159.668543791779
 20
109.4722135473885
 30
0.0
 10
159.550997526015
 20
109.2850114948157
 30
0.0
 10
159.2814592006592
 20
108.9385944671033
 30
0.0
 10
159.1271077264143
 20
108.7770282505863
 30
0.0
 10
158.7937563611132
 20
108.489770771334
 30
0.0
 10
158.6146877304815
 20
108.3632104435478
 30
0.0
 10
158.2326069256032
 20
108.1429812020648
 30
0.0
 10
158.0301788419713
 20
108.0501803120552
 30
0.0
 10
157.4102327033979
 20
107.8303802464448
 30
0.0
 10
156.9659279893594
 20
107.7576077674332
 30
0.0
 10
156.3089000193362
 20
107.7651083787005
 30
0.0
 10
156.0892449229051
 20
107.7866381784263
 30
0.0
 10
155.6538182752058
 20
107.8688724845081
 30
0.0
 10
155.4428241591408
 20
107.9285222376852
 30
0.0
 10
155.0340165999369
 20
108.0842315688167
 30
0.0
 10
154.8347497013358
 20
108.1811768109329
 30
0.0
 10
154.4572466631159
 20
108.4108225317865
 30
0.0
 10
154.2817741810082
 20
108.5414563449791
 30
0.0
 10
153.9576507743234
 20
108.8347420950342
 30
0.0
 10
153.8074500638345
 20
108.9995971515889
 30
0.0
 10
153.5457468112794
 20
109.3539685645473
 30
0.0
 10
153.4344913787554
 20
109.5420977791826
 30
0.0
 10
153.252464412002
 20
109.9410118087381
 30
0.0
 10
153.1816230321497
 20
110.154221102638
 30
0.0
 10
153.0902911394882
 20
110.5836290343148
 30
0.0
 10
153.0683994974359
 20
110.801766779332
 30
0.0
 10
153.0741933073288
 20
111.2452059009903
 30
0.0
 10
153.1021782725325
 20
111.4651707223778
 30
0.0
 10
153.2049366519063
 20
111.8920707792141
 30
0.0
 10
153.2810998230476
 20
112.1028724641325
 30
0.0
 10
153.4742645579795
 20
112.4987280240056
 30
0.0
 10
153.5908796230339
 20
112.6847965116104
 30
0.0
 10
153.8628924598454
 20
113.0340243328328
 30
0.0
 10
154.0169908626928
 20
113.1950015674141
 30
0.0
 10
154.3535158278657
 20
113.4841816304409
 30
0.0
  0
SPLINE
  5
AA
330
1F
100
AcDbEntity
  8
0
  6
Continuous
 62
     7
370
    15
100
AcDbSpline
210
0.0
220
0.0
230
1.0
 70
     8
 71
     3
 72
    17
 73
    13
 74
     0
 42
0.00000001
 43
0.00000001
 40
0.0
 40
0.0
 40
0.0
 40
0.0
 40
0.05373885612089
 40
0.1477746731497883
 40
0.2448745399566024
 40
0.3491875958713709
 40
0.461632631565083
 40
0.5798875117953595
 40
0.6997832428713946
 40
0.8164465839237277
 40
0.9251321641672927
 40
1.0
 40
1.0
 40
1.0
 40
1.0
 10
153.1150455611532
 20
78.48891693093857
 30
0.0
 10
153.1084779851717
 20
78.48833397998825
 30
0.0
 10
153.0904180288551
 20
78.48673094277528
 30
0.0
 10
153.4389184036587
 20
78.51775175486159
 30
0.0
 10
154.0867244656802
 20
78.56669151935084
 30
0.0
 10
155.0254769709777
 20
78.61856275446232
 30
0.0
 10
156.1764615443729
 20
78.64969654265896
 30
0.0
 10
157.4251530112215
 20
78.64240971088557
 30
0.0
 10
158.5998890844036
 20
78.59584406863553
 30
0.0
 10
159.4968934917432
 20
78.53516508812136
 30
0.0
 10
160.0114361371179
 20
78.49045033287395
 30
0.0
 10
160.0292392748033
 20
78.4887446520357
 30
0.0
 10
160.0365008252447
 20
78.48804893829903
 30
0.0
  0
SPLINE
  5
AB
330
1F
100
AcDbEntity
  8
0
  6
Continuous
 62
     7
370
    15
100
AcDbSpline
210
0.0
220
0.0
230
1.0
 70
     8
 71
     3
 72
     9
 73
     5
 74
     0
 42
0.00000001
 43
0.00000001
 40
0.0
 40
0.0
 40
0.0
 40
0.0
 40
0.0518169700868027
 40
0.9999999999999999
 40
0.9999999999999999
 40
0.9999999999999999
 40
0.9999999999999999
 10
154.9604798692053
 20
78.61027571299157
 30
0.0
 10
154.9451496040878
 20
78.60985954018716
 30
0.0
 10
154.649295464184
 20
78.60182794737688
 30
0.0
 10
154.4111037499646
 20
78.58567509138227
 30
0.0
 10
154.185254408676
 20
78.57035922744355
 30
0.0
  0
SPLINE
  5
AC
330
1F
100
AcDbEntity
  8
0
  6
Continuous
 62
     7
370
    15
100
AcDbSpline
210
0.0
220
0.0
230
1.0
 70
     8
 71
     3
 72
    39
 73
    35
 74
     0
 42
0.00000001
 43
0.00000001
 40
-0.0931433916029099
 40
-0.0619641987636639
 40
-0.0306703171136947
 40
0.0
 40
0.0306894922040319
 40
0.061999394149984
 40
0.0931977480128002
 40
0.124318277447022
 40
0.1554749299645081
 40
0.1869843400892219
 40
0.2186532915078683
 40
0.2499314079048199
 40
0.2812370904807011
 40
0.3129690446093544
 40
0.3445540262333256
 40
0.3757573034806612
 40
0.4068752574727827
 40
0.4380224291936007
 40
0.4692819917771019
 40
0.5000135939734012
 40
0.5307425761020416
 40
0.5620344400063987
 40
0.5931976800604746
 40
0.6243292386199946
 40
0.6555145693251264
 40
0.687075768078212
 40
0.7187637317846182
 40
0.7500676014102323
 40
0.7813443515001183
 40
0.8130504797072415
 40
0.8445809527295536
 40
0.8757550041348305
 40
0.9068566083970901
 40
0.9380358012363361
 40
0.9693296828863053
 40
1.0
 40
1.030689492204032
 40
1.061999394149984
 40
1.0931977480128
 10
200.8506261463359
 20
102.1509352170522
 30
0.0
 10
199.1206840701745
 20
101.9758588443979
 30
0.0
 10
197.3904583537156
 20
102.1511754009732
 30
0.0
 10
195.72962998971
 20
102.6775969744963
 30
0.0
 10
194.1950590054509
 20
103.5041881036693
 30
0.0
 10
192.8638829530188
 20
104.618389186156
 30
0.0
 10
191.7703031328009
 20
105.9740662545368
 30
0.0
 10
190.9602899976229
 20
107.5325360776858
 30
0.0
 10
190.4457137384395
 20
109.2219129276374
 30
0.0
 10
190.2753530804777
 20
110.981521691658
 30
0.0
 10
190.4467964205175
 20
112.7421796200234
 30
0.0
 10
190.9620063263148
 20
114.4345321077846
 30
0.0
 10
191.7723798474979
 20
115.9966970571184
 30
0.0
 10
192.8668113969884
 20
117.3545597001491
 30
0.0
 10
194.1974313163713
 20
118.4691358408022
 30
0.0
 10
195.7301360343125
 20
119.2952371673965
 30
0.0
 10
197.3905070492679
 20
119.8198275503847
 30
0.0
 10
199.1217238955427
 20
119.9937615933662
 30
0.0
 10
200.8534938732716
 20
119.8192623398686
 30
0.0
 10
202.514456759093
 20
119.2937689855303
 30
0.0
 10
204.048043125518
 20
118.4668775147034
 30
0.0
 10
205.3782965395006
 20
117.3514691540186
 30
0.0
 10
206.4717289783491
 20
115.9935176946311
 30
0.0
 10
207.2811277564057
 20
114.4326199582105
 30
0.0
 10
207.7953114965775
 20
112.7413324966867
 30
0.0
 10
207.9667204868977
 20
110.9815952989152
 30
0.0
 10
207.7964272582348
 20
109.2213124207954
 30
0.0
 10
207.2810392648347
 20
107.5310540089316
 30
0.0
 10
206.4702168767189
 20
105.9714341452292
 30
0.0
 10
205.3757947347924
 20
104.6159274505785
 30
0.0
 10
204.044423654285
 20
103.5025865925977
 30
0.0
 10
202.5105502975301
 20
102.676853228584
 30
0.0
 10
200.8506261463359
 20
102.1509352170522
 30
0.0
 10
199.1206840701745
 20
101.9758588443979
 30
0.0
 10
197.3904583537156
 20
102.1511754009732
 30
0.0
  0
SPLINE
  5
AD
330
1F
100
AcDbEntity
  8
0
  6
Continuous
 62
     7
370
    15
100
AcDbSpline
210
0.0
220
0.0
230
1.0
 70
     8
 71
     3
 72
    47
 73
    43
 74
     0
 42
0.00000001
 43
0.00000001
 40
-0.0754831264859697
 40
-0.0624657778335378
 40
-0.0297347557960631
 40
0.0
 40
0.0297270045900835
 40
0.0624300765702501
 40
0.0901827545151694
 40
0.1249452329398676
 40
0.1428705465346879
 40
0.1592741688638349
 40
0.1741576828600634
 40
0.1875233619240852
 40
0.2201166959483064
 40
0.2499315400287736
 40
0.2797545504446169
 40
0.3123588070298596
 40
0.3406156075868075
 40
0.3749091418766947
 40
0.3932604943862851
 40
0.4098095243261128
 40
0.4245573426480851
 40
0.4375057847430267
 40
0.4702111563807997
 40
0.4999868874621997
 40
0.5297471493823223
 40
0.5624368016837122
 40
0.5900929136949677
 40
0.6249260464596862
 40
0.6428612861972798
 40
0.6592834885997103
 40
0.6741942482826893
 40
0.6875958469951924
 40
0.7202281853944129
 40
0.7500691094999113
 40
0.779869260517543
 40
0.8124415486531076
 40
0.8406359557788587
 40
0.8749042632399662
 40
0.8932034178563473
 40
0.9097405659163738
 40
0.9245168735140303
 40
0.9375342221664622
 40
0.9702652442039369
 40
1.0
 40
1.029727004590083
 40
1.06243007657025
 40
1.090182754515169
 10
197.5672663817
 20
103.084138353044
 30
0.0
 10
199.1208760819734
 20
102.9377327166978
 30
0.0
 10
200.6742499769811
 20
103.0841052570501
 30
0.0
 10
202.1338603458298
 20
103.5218564965844
 30
0.0
 10
203.5494129021436
 20
104.2607325618308
 30
0.0
 10
204.6020380193875
 20
105.1063740078246
 30
0.0
 10
205.3692207048325
 20
105.9644320559005
 30
0.0
 10
205.8482300415953
 20
106.6317860037909
 30
0.0
 10
206.2219911140874
 20
107.2777009036152
 30
0.0
 10
206.6521312560451
 20
108.2003705069462
 30
0.0
 10
207.0209986016696
 20
109.4273207744171
 30
0.0
 10
207.1685423610496
 20
110.9815475142011
 30
0.0
 10
207.0222396495382
 20
112.5363206192467
 30
0.0
 10
206.5822183281344
 20
114.0043075837826
 30
0.0
 10
205.841618326383
 20
115.4189143506316
 30
0.0
 10
204.9897327255825
 20
116.47625639206
 30
0.0
 10
204.1293891849981
 20
117.2435467596005
 30
0.0
 10
203.4547889116031
 20
117.7246647571268
 30
0.0
 10
202.8138724692867
 20
118.0929445678423
 30
0.0
 10
201.8977356800619
 20
118.5186246456912
 30
0.0
 10
200.6764258167529
 20
118.8854678984328
 30
0.0
 10
199.1220033585925
 20
119.0322825071344
 30
0.0
 10
197.5675809535682
 20
118.8857751169098
 30
0.0
 10
196.1092440188803
 20
118.4482603726669
 30
0.0
 10
194.6941789394972
 20
117.7101118805635
 30
0.0
 10
193.6414166813425
 20
116.8649623761657
 30
0.0
 10
192.8730354143791
 20
116.0057137436666
 30
0.0
 10
192.3934704107433
 20
115.3375800327495
 30
0.0
 10
192.0191101337421
 20
114.6904045119998
 30
0.0
 10
191.5885591051229
 20
113.7660074026662
 30
0.0
 10
191.2199163592925
 20
112.5371754161659
 30
0.0
 10
191.0735416580891
 20
110.9821123825168
 30
0.0
 10
191.2210500631343
 20
109.427948754962
 30
0.0
 10
191.6614225703783
 20
107.962166783515
 30
0.0
 10
192.4015186532657
 20
106.5496601190815
 30
0.0
 10
193.2519485403068
 20
105.4942293444299
 30
0.0
 10
194.1110056297635
 20
104.7277818273681
 30
0.0
 10
194.7849319764838
 20
104.2467395472493
 30
0.0
 10
195.4269740281487
 20
103.8775184905837
 30
0.0
 10
196.3449863681054
 20
103.4509241026648
 30
0.0
 10
197.5672663817
 20
103.084138353044
 30
0.0
 10
199.1208760819734
 20
102.9377327166978
 30
0.0
 10
200.6742499769811
 20
103.0841052570501
 30
0.0
  0
SPLINE
  5
AE
330
1F
100
AcDbEntity
  8
0
  6
Continuous
 62
     7
370
    15
100
AcDbSpline
210
0.0
220
0.0
230
1.0
 70
     8
 71
     3
 72
    47
 73
    43
 74
     0
 42
0.00000001
 43
0.00000001
 40
-0.0754831264850316
 40
-0.0624657778335393
 40
-0.0297347557961949
 40
0.0
 40
0.0297270045889941
 40
0.0624300765702466
 40
0.0901827545135424
 40
0.1249452329398624
 40
0.1428705465342453
 40
0.1592741688632464
 40
0.1741576828596209
 40
0.1875233619240805
 40
0.220116695948043
 40
0.2499315400287709
 40
0.2797545504435862
 40
0.3123588070298532
 40
0.3406156075833839
 40
0.3749091418766832
 40
0.3932604943853192
 40
0.409809524324829
 40
0.4245573426471198
 40
0.4375057847430138
 40
0.4702111563788488
 40
0.4999868874621953
 40
0.5297471493821868
 40
0.5624368016837069
 40
0.5900929136959736
 40
0.6249260464596843
 40
0.6428612861964397
 40
0.6592834885985904
 40
0.6741942482818496
 40
0.6875958469951926
 40
0.7202281853944136
 40
0.7500691094999127
 40
0.7798692605176747
 40
0.8124415486531104
 40
0.8406359557777253
 40
0.8749042632399665
 40
0.8932034178572855
 40
0.9097405659176253
 40
0.9245168735149684
 40
0.9375342221664607
 40
0.9702652442038051
 40
1.0
 40
1.029727004588994
 40
1.062430076570247
 40
1.090182754513542
 10
222.5672663816978
 20
103.0841383530444
 30
0.0
 10
224.120876081953
 20
102.9377327166993
 30
0.0
 10
225.6742499769621
 20
103.0841052570463
 30
0.0
 10
227.1338603457875
 20
103.5218564965681
 30
0.0
 10
228.5494129021207
 20
104.2607325618155
 30
0.0
 10
229.6020380193637
 20
105.1063740077999
 30
0.0
 10
230.3692207048215
 20
105.9644320558875
 30
0.0
 10
230.8482300415821
 20
106.6317860037704
 30
0.0
 10
231.2219911140799
 20
107.2777009035999
 30
0.0
 10
231.6521312560411
 20
108.2003705069352
 30
0.0
 10
232.0209986016687
 20
109.4273207744126
 30
0.0
 10
232.1685423610484
 20
110.9815475141796
 30
0.0
 10
232.0222396495419
 20
112.5363206192288
 30
0.0
 10
231.5822183281587
 20
114.0043075837125
 30
0.0
 10
230.8416183264159
 20
115.4189143505824
 30
0.0
 10
229.9897327256351
 20
116.4762563920097
 30
0.0
 10
229.129389185026
 20
117.2435467595768
 30
0.0
 10
228.454788911647
 20
117.7246647570985
 30
0.0
 10
227.8138724693194
 20
118.0929445678263
 30
0.0
 10
226.897735680107
 20
118.5186246456727
 30
0.0
 10
225.6764258167866
 20
118.8854678984261
 30
0.0
 10
224.1220033586272
 20
119.0322825071373
 30
0.0
 10
222.5675809535706
 20
118.8857751169102
 30
0.0
 10
221.109244018866
 20
118.4482603726631
 30
0.0
 10
219.6941789394824
 20
117.7101118805536
 30
0.0
 10
218.6414166813422
 20
116.8649623761619
 30
0.0
 10
217.8730354144006
 20
116.0057137436917
 30
0.0
 10
217.3934704107689
 20
115.337580032789
 30
0.0
 10
217.0191101337566
 20
114.6904045120294
 30
0.0
 10
216.588559105127
 20
113.7660074026798
 30
0.0
 10
216.2199163592925
 20
112.537175416166
 30
0.0
 10
216.0735416580889
 20
110.9821123825146
 30
0.0
 10
216.2210500631347
 20
109.4279487549598
 30
0.0
 10
216.6614225703739
 20
107.9621667835313
 30
0.0
 10
217.4015186532546
 20
106.5496601190982
 30
0.0
 10
218.2519485403024
 20
105.4942293444303
 30
0.0
 10
219.1110056297916
 20
104.727781827344
 30
0.0
 10
219.7849319765282
 20
104.2467395472208
 30
0.0
 10
220.4269740281818
 20
103.8775184905676
 30
0.0
 10
221.3449863681185
 20
103.4509241026612
 30
0.0
 10
222.5672663816978
 20
103.0841383530444
 30
0.0
 10
224.120876081953
 20
102.9377327166993
 30
0.0
 10
225.6742499769621
 20
103.0841052570463
 30
0.0
  0
CIRCLE
  5
AF
330
1F
100
AcDbEntity
  8
0
  6
Continuous
 62
     7
370
    15
100
AcDbCircle
 10
156.5710446494
 20
110.9849483047
 30
0.0
 40
2.5
  0
SPLINE
  5
B0
330
1F
100
AcDbEntity
  8
0
  6
Continuous
 62
     7
370
    15
100
AcDbSpline
210
0.0
220
0.0
230
1.0
 70
     8
 71
     3
 72
    12
 73
     8
 74
     0
 42
0.00000001
 43
0.00000001
 40
0.0
 40
0.0
 40
0.0
 40
0.0
 40
0.5
 40
0.5
 40
0.75
 40
0.75
 40
1.0
 40
1.0
 40
1.0
 40
1.0
 10
116.5710446494406
 20
158.9536881255236
 30
0.0
 10
116.5710446494406
 20
159.21895755829
 30
0.0
 10
116.4664379059541
 20
159.4814726639424
 30
0.0
 10
116.1897695542088
 20
159.7670102699797
 30
0.0
 10
116.0794042948568
 20
159.8433318868411
 30
0.0
 10
115.8353322462411
 20
159.9476740516812
 30
0.0
 10
115.7035797849094
 20
159.9747431603414
 30
0.0
 10
115.5710446494406
 20
159.9747431603414
 30
0.0
  0
SPLINE
  5
B1
330
1F
100
AcDbEntity
  8
0
  6
Continuous
 62
     7
370
    15
100
AcDbSpline
210
0.0
220
0.0
230
1.0
 70
     8
 71
     3
 72
    16
 73
    12
 74
     0
 42
0.00000001
 43
0.00000001
 40
0.0
 40
0.0
 40
0.0
 40
0.0
 40
0.125
 40
0.125
 40
0.25
 40
0.25
 40
0.5
 40
0.5
 40
0.75
 40
0.75
 40
1.0
 40
1.0
 40
1.0
 40
1.0
 10
115.5710446494396
 20
149.9359110655648
 30
0.0
 10
115.6466823558508
 20
149.9359110655648
 30
0.0
 10
115.7229980202691
 20
149.92456606543
 30
0.0
 10
115.8674087581612
 20
149.8819135147916
 30
0.0
 10
115.9358552072696
 20
149.8509791901088
 30
0.0
 10
116.130786459883
 20
149.7317228183413
 30
0.0
 10
116.238627633664
 20
149.6215708047207
 30
0.0
 10
116.4073403818763
 20
149.3734347190626
 30
0.0
 10
116.4697047945998
 20
149.2330923950588
 30
0.0
 10
116.5510087191083
 20
148.9448207035701
 30
0.0
 10
116.5710446494406
 20
148.7940157305901
 30
0.0
 10
116.5710446494406
 20
148.6436458392448
 30
0.0
  0
LINE
  5
B2
330
1F
100
AcDbEntity
  8
0
  6
Continuous
 62
     7
370
    15
100
AcDbLine
 10
116.5710448312
 20
148.6436471615
 30
0.0
 11
116.5710448312
 21
158.953689811
 31
0.0
  0
LINE
  5
B3
330
1F
100
AcDbEntity
  8
0
  6
Continuous
 62
     7
370
    15
100
AcDbLine
 10
115.5710446673
 20
159.9747434531
 30
0.0
 11
110.8830741632
 21
159.9747434531
 31
0.0
  0
LINE
  5
B4
330
1F
100
AcDbEntity
  8
0
  6
Continuous
 62
     7
370
    15
100
AcDbLine
 10
110.8830741632
 20
149.9359093879
 30
0.0
 11
115.5710446673
 21
149.9359093879
 31
0.0
  0
LINE
  5
B5
330
1F
100
AcDbEntity
  8
0
  6
Continuous
 62
     7
370
    15
100
AcDbLine
 10
110.8830741632
 20
149.9359093879
 30
0.0
 11
110.8830741632
 21
159.9747434531
 31
0.0
  0
SPLINE
  5
B6
330
1F
100
AcDbEntity
  8
0
  6
Continuous
 62
     7
370
    15
100
AcDbSpline
210
0.0
220
0.0
230
1.0
 70
     8
 71
     3
 72
     8
 73
     4
 74
     0
 42
0.00000001
 43
0.00000001
 40
0.0
 40
0.0
 40
0.0
 40
0.0
 40
1.0
 40
1.0
 40
1.0
 40
1.0
 10
104.3590156285192
 20
149.9359110655648
 30
0.0
 10
104.8159419823187
 20
148.9199930958904
 30
0.0
 10
105.2671476241218
 20
147.9011972667993
 30
0.0
 10
105.7110446494406
 20
146.8803958108156
 30
0.0
  0
LINE
  5
B7
330
1F
100
AcDbEntity
  8
0
  6
Continuous
 62
     7
370
    15
100
AcDbLine
 10
105.7110450255
 20
146.8803964827
 30
0.0
 11
105.7110450255
 21
145.6991851602
 31
0.0
  0
SPLINE
  5
B8
330
1F
100
AcDbEntity
  8
0
  6
Continuous
 62
     7
370
    15
100
AcDbSpline
210
0.0
220
0.0
230
1.0
 70
     8
 71
     3
 72
    14
 73
    10
 74
     0
 42
0.00000001
 43
0.00000001
 40
0.0
 40
0.0
 40
0.0
 40
0.0
 40
0.25
 40
0.25
 40
0.5
 40
0.5
 40
0.75
 40
0.75
 40
1.0
 40
1.0
 40
1.0
 40
1.0
 10
105.7110446494406
 20
145.6991834971748
 30
0.0
 10
105.7110446494406
 20
145.5753166203856
 30
0.0
 10
105.7269037770682
 20
145.4510569435481
 30
0.0
 10
105.7902654225881
 20
145.2134485811423
 30
0.0
 10
105.8388551306374
 20
145.0966681963898
 30
0.0
 10
105.9711407354123
 20
144.8878656677808
 30
0.0
 10
106.0564655266729
 20
144.7933549641882
 30
0.0
 10
106.263356774979
 20
144.6553981633859
 30
0.0
 10
106.387324720869
 20
144.6134797177502
 30
0.0
 10
106.5110446494406
 20
144.6134797177502
 30
0.0
  0
LINE
  5
B9
330
1F
100
AcDbEntity
  8
0
  6
Continuous
 62
     7
370
    15
100
AcDbLine
 10
106.5110455292
 20
144.613479105
 30
0.0
 11
108.7310447383
 21
144.613479105
 31
0.0
  0
SPLINE
  5
BA
330
1F
100
AcDbEntity
  8
0
  6
Continuous
 62
     7
370
    15
100
AcDbSpline
210
0.0
220
0.0
230
1.0
 70
     8
 71
     3
 72
    12
 73
     8
 74
     0
 42
0.00000001
 43
0.00000001
 40
0.0
 40
0.0
 40
0.0
 40
0.0
 40
0.250000000000002
 40
0.250000000000002
 40
0.500000000000004
 40
0.500000000000004
 40
1.0
 40
1.0
 40
1.0
 40
1.0
 10
108.7310446494426
 20
144.6134797177503
 30
0.0
 10
108.8547455994225
 20
144.6134797177507
 30
0.0
 10
108.9788422116923
 20
144.6554733294836
 30
0.0
 10
109.1854973747788
 20
144.7932686561282
 30
0.0
 10
109.2705381415054
 20
144.887242254593
 30
0.0
 10
109.4700167099784
 20
145.2020304608137
 30
0.0
 10
109.5310446494406
 20
145.452269453041
 30
0.0
 10
109.5310446494406
 20
145.6991834971749
 30
0.0
  0
LINE
  5
BB
330
1F
100
AcDbEntity
  8
0
  6
Continuous
 62
     7
370
    15
100
AcDbLine
 10
109.5310452419
 20
145.6991851602
 30
0.0
 11
109.5310452419
 21
146.8803964827
 31
0.0
  0
SPLINE
  5
BC
330
1F
100
AcDbEntity
  8
0
  6
Continuous
 62
     7
370
    15
100
AcDbSpline
210
0.0
220
0.0
230
1.0
 70
     8
 71
     3
 72
     8
 73
     4
 74
     0
 42
0.00000001
 43
0.00000001
 40
0.0
 40
0.0
 40
0.0
 40
0.0
 40
1.0
 40
1.0
 40
1.0
 40
1.0
 10
109.5310446494406
 20
146.8803958108156
 30
0.0
 10
109.9751946604661
 20
147.9017790417673
 30
0.0
 10
110.426268970724
 20
148.9202635785356
 30
0.0
 10
110.883073670362
 20
149.9359110655648
 30
0.0
  0
LINE
  5
BD
330
1F
100
AcDbEntity
  8
0
  6
Continuous
 62
     7
370
    15
100
AcDbLine
 10
116.5710448312
 20
148.6436471615
 30
0.0
 11
116.5710448312
 21
142.3349499974
 31
0.0
  0
SPLINE
  5
BE
330
1F
100
AcDbEntity
  8
0
  6
Continuous
 62
     7
370
    15
100
AcDbSpline
210
0.0
220
0.0
230
1.0
 70
     8
 71
     3
 72
    14
 73
    10
 74
     0
 42
0.00000001
 43
0.00000001
 40
0.0
 40
0.0
 40
0.0
 40
0.0
 40
0.25
 40
0.25
 40
0.5
 40
0.5
 40
0.75
 40
0.75
 40
1.0
 40
1.0
 40
1.0
 40
1.0
 10
109.5310446494406
 20
156.6784995455258
 30
0.0
 10
109.5310446494406
 20
156.5721428517734
 30
0.0
 10
109.5106570932993
 20
156.4663023640133
 30
0.0
 10
109.4320227478378
 20
156.2697374504768
 30
0.0
 10
109.3732913881991
 20
156.1785667081897
 30
0.0
 10
109.2266824825965
 20
156.026655619158
 30
0.0
 10
109.1372771625699
 20
155.9645867823385
 30
0.0
 10
108.9433864299695
 20
155.8813187345798
 30
0.0
 10
108.8368814400797
 20
155.8592240648502
 30
0.0
 10
108.7310446494403
 20
155.8592240648502
 30
0.0
  0
SPLINE
  5
BF
330
1F
100
AcDbEntity
  8
0
  6
Continuous
 62
     7
370
    15
100
AcDbSpline
210
0.0
220
0.0
230
1.0
 70
     8
 71
     3
 72
     8
 73
     4
 74
     0
 42
0.00000001
 43
0.00000001
 40
0.0
 40
0.0
 40
0.0
 40
0.0
 40
1.0
 40
1.0
 40
1.0
 40
1.0
 10
110.883073670362
 20
159.9747431603414
 30
0.0
 10
110.4320467016487
 20
159.1774325901535
 30
0.0
 10
109.9813528851251
 20
158.3799342904963
 30
0.0
 10
109.5310446494406
 20
157.5822191653827
 30
0.0
  0
LINE
  5
C0
330
1F
100
AcDbEntity
  8
0
  6
Continuous
 62
     7
370
    15
100
AcDbLine
 10
109.5310452419
 20
146.8803964827
 30
0.0
 11
109.5310452419
 21
157.5822204623
 31
0.0
  0
SPLINE
  5
C1
330
1F
100
AcDbEntity
  8
0
  6
Continuous
 62
     7
370
    15
100
AcDbSpline
210
0.0
220
0.0
230
1.0
 70
     8
 71
     3
 72
     8
 73
     4
 74
     0
 42
0.00000001
 43
0.00000001
 40
0.0
 40
0.0
 40
0.0
 40
0.0
 40
1.0
 40
1.0
 40
1.0
 40
1.0
 10
105.7110446494406
 20
157.5822191653827
 30
0.0
 10
105.260736413756
 20
158.3799342904963
 30
0.0
 10
104.8100425972324
 20
159.1774325901535
 30
0.0
 10
104.3590156285192
 20
159.9747431603414
 30
0.0
  0
LINE
  5
C2
330
1F
100
AcDbEntity
  8
0
  6
Continuous
 62
     7
370
    15
100
AcDbLine
 10
105.7110450255
 20
146.8803964827
 30
0.0
 11
105.7110450255
 21
157.5822204623
 31
0.0
  0
SPLINE
  5
C3
330
1F
100
AcDbEntity
  8
0
  6
Continuous
 62
     7
370
    15
100
AcDbSpline
210
0.0
220
0.0
230
1.0
 70
     8
 71
     3
 72
    10
 73
     6
 74
     0
 42
0.00000001
 43
0.00000001
 40
0.0
 40
0.0
 40
0.0
 40
0.0
 40
0.5
 40
0.5
 40
1.0
 40
1.0
 40
1.0
 40
1.0
 10
106.5110446494406
 20
155.8592240648503
 30
0.0
 10
106.2985083355842
 20
155.8592240648503
 30
0.0
 10
106.0885721639302
 20
155.9506366514804
 30
0.0
 10
105.794865022919
 20
156.2553815173846
 30
0.0
 10
105.7110446494406
 20
156.4675364872933
 30
0.0
 10
105.7110446494406
 20
156.6784995455258
 30
0.0
  0
LINE
  5
C4
330
1F
100
AcDbEntity
  8
0
  6
Continuous
 62
     7
370
    15
100
AcDbLine
 10
108.7310447383
 20
155.8592252705
 30
0.0
 11
106.5110455292
 21
155.8592252705
 31
0.0
  0
ARC
  5
C5
330
1F
100
AcDbEntity
  8
0
  6
Continuous
 62
     7
370
    15
100
AcDbCircle
 10
96.6211058707
 20
143.5504433754
 30
0.0
 40
11.45035081746
100
AcDbArc
 50
77.9103698821
 51
102.1081286463
  0
LINE
  5
C6
330
1F
100
AcDbEntity
  8
0
  6
Continuous
 62
     7
370
    15
100
AcDbLine
 10
247.6210410732
 20
89.3133756045
 30
0.0
 11
247.6210410732
 21
132.6565210048
 31
0.0
  0
LINE
  5
C7
330
1F
100
AcDbEntity
  8
0
  6
Continuous
 62
     7
370
    15
100
AcDbLine
 10
39.3710437256
 20
78.7349500034
 30
0.0
 11
39.3710437256
 21
78.7366636369
 31
0.0
  0
LINE
  5
C8
330
1F
100
AcDbEntity
  8
0
  6
Continuous
 62
     7
370
    15
100
AcDbLine
 10
39.3710437256
 20
143.2349466059
 30
0.0
 11
39.3710437256
 21
143.2332329724
 31
0.0
  0
LWPOLYLINE
  5
C9
330
1F
100
AcDbEntity
  8
0
  6
Continuous
 62
     7
370
    15
100
AcDbPolyline
 90
        7
 70
   128
 43
0.0
 10
247.6210410732
 20
123.5283062134
 10
247.626479997
 20
123.7133404512
 10
247.6401890653
 20
124.3292706359
 10
247.6449872392
 20
124.8515256021
 10
247.6401890653
 20
125.200596479
 10
247.626479997
 20
125.3233401377
 10
247.6210410732
 20
125.3127388928
  0
ARC
  5
CA
330
1F
100
AcDbEntity
  8
0
  6
Continuous
 62
     7
370
    15
100
AcDbCircle
 10
222.0137282796
 20
97.5652124974
 30
0.0
 40
25.70965340647386
100
AcDbArc
 50
357.9614268483
 51
5.1139643368
  0
LWPOLYLINE
  5
CB
330
1F
100
AcDbEntity
  8
0
  6
Continuous
 62
     7
370
    15
100
AcDbPolyline
 90
        3
 70
   128
 43
0.0
 10
192.2225023645
 20
106.9340024416
 10
193.0566917198
 20
105.7673211482
 10
193.9692686337
 20
104.8645571146
  0
LWPOLYLINE
  5
CC
330
1F
100
AcDbEntity
  8
0
  6
Continuous
 62
     7
370
    15
100
AcDbPolyline
 90
        3
 70
   128
 43
0.0
 10
196.8033651846
 20
103.3280317944
 10
197.9870314735
 20
103.0657299135
 10
199.2786194223
 20
102.9865004394
  0
LINE
  5
CD
330
1F
100
AcDbEntity
  8
0
  6
Continuous
 62
     7
370
    15
100
AcDbLine
 10
192.0543651121
 20
107.2350135811
 30
0.0
 11
192.2225023645
 21
106.9340024416
 31
0.0
  0
LINE
  5
CE
330
1F
100
AcDbEntity
  8
0
  6
Continuous
 62
     7
370
    15
100
AcDbLine
 10
199.1635899084
 20
105.2116023649
 30
0.0
 11
194.1424499291
 21
108.0614301182
 31
0.0
  0
LINE
  5
CF
330
1F
100
AcDbEntity
  8
0
  6
Continuous
 62
     7
370
    15
100
AcDbLine
 10
199.1635899084
 20
105.2116023649
 30
0.0
 11
204.142179622
 21
108.1351207841
 31
0.0
  0
LINE
  5
D0
330
1F
100
AcDbEntity
  8
0
  6
Continuous
 62
     7
370
    15
100
AcDbLine
 10
204.142179622
 20
108.1351207841
 30
0.0
 11
204.0996368068
 21
113.9084664911
 31
0.0
  0
LINE
  5
D1
330
1F
100
AcDbEntity
  8
0
  6
Continuous
 62
     7
370
    15
100
AcDbLine
 10
199.0784968274
 20
116.7582942445
 30
0.0
 11
204.0996368068
 21
113.9084664911
 31
0.0
  0
LINE
  5
D2
330
1F
100
AcDbEntity
  8
0
  6
Continuous
 62
     7
370
    15
100
AcDbLine
 10
194.0999071139
 20
113.8347758252
 30
0.0
 11
199.0784968274
 21
116.7582942445
 31
0.0
  0
LINE
  5
D3
330
1F
100
AcDbEntity
  8
0
  6
Continuous
 62
     7
370
    15
100
AcDbLine
 10
194.0999071139
 20
113.8347758252
 30
0.0
 11
194.1424499291
 21
108.0614301182
 31
0.0
  0
ARC
  5
D4
330
1F
100
AcDbEntity
  8
0
  6
Continuous
 62
     7
370
    15
100
AcDbCircle
 10
199.1210446494
 20
110.9849483047
 30
0.0
 40
5.000000000000004
100
AcDbArc
 50
180.422220264
 51
240.422220264
  0
ARC
  5
D5
330
1F
100
AcDbEntity
  8
0
  6
Continuous
 62
     7
370
    15
100
AcDbCircle
 10
199.1210446494
 20
110.9849483047
 30
0.0
 40
5.000000000000004
100
AcDbArc
 50
120.422220264
 51
180.422220264
  0
ARC
  5
D6
330
1F
100
AcDbEntity
  8
0
  6
Continuous
 62
     7
370
    15
100
AcDbCircle
 10
199.1210446494
 20
110.9849483047
 30
0.0
 40
5.000000000000007
100
AcDbArc
 50
60.422220264
 51
120.422220264
  0
ARC
  5
D7
330
1F
100
AcDbEntity
  8
0
  6
Continuous
 62
     7
370
    15
100
AcDbCircle
 10
199.1210446494
 20
110.9849483047
 30
0.0
 40
5.000000000000007
100
AcDbArc
 50
0.422220264
 51
60.422220264
  0
ARC
  5
D8
330
1F
100
AcDbEntity
  8
0
  6
Continuous
 62
     7
370
    15
100
AcDbCircle
 10
199.1210446494
 20
110.9849483047
 30
0.0
 40
5.000000000000031
100
AcDbArc
 50
300.422220264
 51
0.422220264
  0
ARC
  5
D9
330
1F
100
AcDbEntity
  8
0
  6
Continuous
 62
     7
370
    15
100
AcDbCircle
 10
199.1210446494
 20
110.9849483047
 30
0.0
 40
5.000000000000031
100
AcDbArc
 50
240.422220264
 51
300.422220264
  0
ARC
  5
DA
330
1F
100
AcDbEntity
  8
0
  6
Continuous
 62
     7
370
    15
100
AcDbCircle
 10
224.1210446494
 20
110.9849483047
 30
0.0
 40
8.000000000000028
100
AcDbArc
 50
215.521412876
 51
278.3802948521
  0
LINE
  5
DB
330
1F
100
AcDbEntity
  8
0
  6
Continuous
 62
     7
370
    15
100
AcDbLine
 10
224.9393577712
 20
105.269732726
 30
0.0
 11
219.5806766885
 21
107.4186571214
 31
0.0
  0
LINE
  5
DC
330
1F
100
AcDbEntity
  8
0
  6
Continuous
 62
     7
370
    15
100
AcDbLine
 10
224.9393577712
 20
105.269732726
 30
0.0
 11
229.4797266858
 21
108.8360239092
 31
0.0
  0
LINE
  5
DD
330
1F
100
AcDbEntity
  8
0
  6
Continuous
 62
     7
370
    15
100
AcDbLine
 10
218.7623645204
 20
113.1338727001
 30
0.0
 11
223.302733435
 21
116.7001638834
 31
0.0
  0
LINE
  5
DE
330
1F
100
AcDbEntity
  8
0
  6
Continuous
 62
     7
370
    15
100
AcDbLine
 10
218.7623645204
 20
113.1338727001
 30
0.0
 11
219.5806766885
 21
107.4186571214
 31
0.0
  0
LINE
  5
DF
330
1F
100
AcDbEntity
  8
0
  6
Continuous
 62
     7
370
    15
100
AcDbLine
 10
223.302733435
 20
116.7001638834
 30
0.0
 11
228.6614145177
 21
114.5512394879
 31
0.0
  0
LINE
  5
E0
330
1F
100
AcDbEntity
  8
0
  6
Continuous
 62
     7
370
    15
100
AcDbLine
 10
229.4797266858
 20
108.8360239092
 30
0.0
 11
228.6614145177
 21
114.5512394879
 31
0.0
  0
ARC
  5
E1
330
1F
100
AcDbEntity
  8
0
  6
Continuous
 62
     7
370
    15
100
AcDbCircle
 10
224.1210446494
 20
110.9849483047
 30
0.0
 40
5.000000000000006
100
AcDbArc
 50
308.1483526908
 51
8.1483526908
  0
ARC
  5
E2
330
1F
100
AcDbEntity
  8
0
  6
Continuous
 62
     7
370
    15
100
AcDbCircle
 10
224.1210446494
 20
110.9849483047
 30
0.0
 40
5.000000000000006
100
AcDbArc
 50
8.1483526908
 51
68.1483526908
  0
ARC
  5
E3
330
1F
100
AcDbEntity
  8
0
  6
Continuous
 62
     7
370
    15
100
AcDbCircle
 10
224.1210446494
 20
110.9849483047
 30
0.0
 40
5.000000000000002
100
AcDbArc
 50
248.1483526908
 51
308.1483526908
  0
ARC
  5
E4
330
1F
100
AcDbEntity
  8
0
  6
Continuous
 62
     7
370
    15
100
AcDbCircle
 10
224.1210446494
 20
110.9849483047
 30
0.0
 40
5.000000000000002
100
AcDbArc
 50
188.1483526908
 51
248.1483526908
  0
ARC
  5
E5
330
1F
100
AcDbEntity
  8
0
  6
Continuous
 62
     7
370
    15
100
AcDbCircle
 10
224.1210446494
 20
110.9849483047
 30
0.0
 40
4.999999999999978
100
AcDbArc
 50
128.1483526908
 51
188.1483526908
  0
ARC
  5
E6
330
1F
100
AcDbEntity
  8
0
  6
Continuous
 62
     7
370
    15
100
AcDbCircle
 10
224.1210446494
 20
110.9849483047
 30
0.0
 40
4.999999999999999
100
AcDbArc
 50
68.1483526908
 51
128.1483526908
  0
LINE
  5
E7
330
1F
100
AcDbEntity
  8
0
  6
HIDDEN
 62
     7
370
     0
100
AcDbLine
 10
104.3590161043
 20
149.9359093879
 30
0.0
 11
104.3590161043
 21
142.3349499974
 31
0.0
  0
SPLINE
  5
E8
330
1F
100
AcDbEntity
  8
0
  6
HIDDEN
 62
     7
370
     0
100
AcDbSpline
210
0.0
220
0.0
230
1.0
 70
     8
 71
     3
 72
    80
 73
    76
 74
     0
 42
0.00000001
 43
0.00000001
 40
-0.0312500000000003
 40
-0.0312500000000003
 40
0.0
 40
0.0
 40
0.03125
 40
0.03125
 40
0.046875
 40
0.046875
 40
0.0624999999999999
 40
0.0624999999999999
 40
0.0937499999999998
 40
0.0937499999999998
 40
0.1249999999999996
 40
0.1249999999999996
 40
0.1562499999999995
 40
0.1562499999999995
 40
0.1874999999999994
 40
0.1874999999999994
 40
0.2187499999999993
 40
0.2187499999999993
 40
0.2499999999999992
 40
0.2499999999999992
 40
0.2812499999999991
 40
0.2812499999999991
 40
0.3124999999999989
 40
0.3124999999999989
 40
0.3281249999999988
 40
0.3281249999999988
 40
0.3437499999999986
 40
0.3437499999999986
 40
0.3749999999999983
 40
0.3749999999999983
 40
0.4062499999999981
 40
0.4062499999999981
 40
0.4218749999999979
 40
0.4218749999999979
 40
0.4374999999999978
 40
0.4374999999999978
 40
0.4687499999999977
 40
0.4687499999999977
 40
0.4999999999999975
 40
0.4999999999999975
 40
0.5312499999999972
 40
0.5312499999999972
 40
0.562499999999997
 40
0.562499999999997
 40
0.5937499999999968
 40
0.5937499999999968
 40
0.6249999999999966
 40
0.6249999999999966
 40
0.6562499999999964
 40
0.6562499999999964
 40
0.6874999999999962
 40
0.6874999999999962
 40
0.7031249999999962
 40
0.7031249999999962
 40
0.7187499999999963
 40
0.7187499999999963
 40
0.7499999999999968
 40
0.7499999999999968
 40
0.7812499999999972
 40
0.7812499999999972
 40
0.7968749999999976
 40
0.7968749999999976
 40
0.8124999999999978
 40
0.8124999999999978
 40
0.8437499999999981
 40
0.8437499999999981
 40
0.8749999999999984
 40
0.8749999999999984
 40
0.9062499999999989
 40
0.9062499999999989
 40
0.9374999999999992
 40
0.9374999999999992
 40
0.9687499999999997
 40
0.9687499999999997
 40
1.0
 40
1.0
 40
1.03125
 40
1.03125
 10
96.95158996221689
 20
159.8444975611558
 30
0.0
 10
96.29049933666428
 20
159.8444975611558
 30
0.0
 10
95.96551920741265
 20
159.837599415329
 30
0.0
 10
95.48604579616622
 20
159.8170729873485
 30
0.0
 10
95.32756397832541
 20
159.8085167602609
 30
0.0
 10
95.01334444582113
 20
159.7877903850433
 30
0.0
 10
94.85722416214072
 20
159.7755630848369
 30
0.0
 10
94.40317013318416
 20
159.7339937910077
 30
0.0
 10
94.11606675024431
 20
159.6996495059099
 30
0.0
 10
93.57271219421732
 20
159.6163253815876
 30
0.0
 10
93.31560858301172
 20
159.5668871588131
 30
0.0
 10
92.85470232807295
 20
159.4555074290532
 30
0.0
 10
92.64780461885798
 20
159.393212915541
 30
0.0
 10
92.28227930486578
 20
159.2532832726701
 30
0.0
 10
92.12707378273983
 20
159.176667374921
 30
0.0
 10
91.8776433961401
 20
159.0127087550653
 30
0.0
 10
91.78155344035494
 20
158.9241519009695
 30
0.0
 10
91.65303459116136
 20
158.7366712188638
 30
0.0
 10
91.62122372098358
 20
158.6394347574094
 30
0.0
 10
91.62086707121031
 20
158.4378021180823
 30
0.0
 10
91.65336432340739
 20
158.3322533262441
 30
0.0
 10
91.78098979712188
 20
158.1221385435556
 30
0.0
 10
91.87541819817378
 20
158.0170730355867
 30
0.0
 10
92.06327901815932
 20
157.8601953283356
 30
0.0
 10
92.1341070169625
 20
157.8077615946299
 30
0.0
 10
92.28882890892778
 20
157.7053231490002
 30
0.0
 10
92.37280537911118
 20
157.6551754203483
 30
0.0
 10
92.64412904875562
 20
157.5081594639148
 30
0.0
 10
92.85067826735795
 20
157.4146716434803
 30
0.0
 10
93.31728840754697
 20
157.238884785866
 30
0.0
 10
93.56965397717242
 20
157.1595063107823
 30
0.0
 10
93.97555531885115
 20
157.0540238732882
 30
0.0
 10
94.11545593632863
 20
157.0211383084481
 30
0.0
 10
94.40467987157555
 20
156.9602228292194
 30
0.0
 10
94.55451932786482
 20
156.932142257577
 30
0.0
 10
95.00863589747563
 20
156.8573402155342
 30
0.0
 10
95.32028711621247
 20
156.8193021572881
 30
0.0
 10
95.96128358112483
 20
156.767690230764
 30
0.0
 10
96.29281120907702
 20
156.7543762972425
 30
0.0
 10
96.9456022541485
 20
156.7542792109144
 30
0.0
 10
97.27013845918032
 20
156.7670672960755
 30
0.0
 10
97.91540790859673
 20
156.8185574856714
 30
0.0
 10
98.23115091475945
 20
156.8570820649915
 30
0.0
 10
98.83304020974315
 20
156.9559846278495
 30
0.0
 10
99.12378944055462
 20
157.0170887257746
 30
0.0
 10
99.6707012322391
 20
157.1588981588852
 30
0.0
 10
99.92247859607603
 20
157.2382326434644
 30
0.0
 10
100.3838665886972
 20
157.4116113881259
 30
0.0
 10
100.5951358682952
 20
157.5067713328799
 30
0.0
 10
100.9584402206714
 20
157.7033438562558
 30
0.0
 10
101.1122468691142
 20
157.8051000846622
 30
0.0
 10
101.3008663387116
 20
157.9618860474477
 30
0.0
 10
101.3568968249207
 20
158.0151400811977
 30
0.0
 10
101.4524705866569
 20
158.1209446427505
 30
0.0
 10
101.4922335036819
 20
158.173597707106
 30
0.0
 10
101.588005253994
 20
158.3306714265651
 30
0.0
 10
101.6207280931201
 20
158.4341964618923
 30
0.0
 10
101.6213566794492
 20
158.6384111961194
 30
0.0
 10
101.5891705347144
 20
158.7359150337041
 30
0.0
 10
101.4942598328589
 20
158.8752420840558
 30
0.0
 10
101.4547930494599
 20
158.9205588155603
 30
0.0
 10
101.3598630507391
 20
159.0089986365491
 30
0.0
 10
101.3041062229757
 20
159.052252887009
 30
0.0
 10
101.1161661050058
 20
159.1761443615991
 30
0.0
 10
100.9628046352896
 20
159.2518466523731
 30
0.0
 10
100.6005404004092
 20
159.3911010238313
 30
0.0
 10
100.3896919269433
 20
159.45486286536
 30
0.0
 10
99.92902195662442
 20
159.5663597048278
 30
0.0
 10
99.6776475770406
 20
159.6148857771445
 30
0.0
 10
99.13173969014247
 20
159.698939760525
 30
0.0
 10
98.84091711549124
 20
159.7337383141917
 30
0.0
 10
98.23959050071122
 20
159.7889347789555
 30
0.0
 10
97.92507191609883
 20
159.8097526277094
 30
0.0
 10
97.27849045997888
 20
159.8375999606201
 30
0.0
 10
96.95158996221689
 20
159.8444975611558
 30
0.0
 10
96.29049933666428
 20
159.8444975611558
 30
0.0
  0
SPLINE
  5
E9
330
1F
100
AcDbEntity
  8
0
  6
HIDDEN
 62
     7
370
     0
100
AcDbSpline
210
0.0
220
0.0
230
1.0
 70
     8
 71
     3
 72
     9
 73
     5
 74
     0
 42
0.00000001
 43
0.00000001
 40
0.0
 40
0.0
 40
0.0
 40
0.0
 40
0.5038162275761848
 40
1.0
 40
1.0
 40
1.0
 40
1.0
 10
68.03446850057297
 20
74.24914169051728
 30
0.0
 10
67.75078958899492
 20
74.22498876739773
 30
0.0
 10
67.18772929825595
 20
74.1770488206522
 30
0.0
 10
66.83136868452577
 20
74.13573525272533
 30
0.0
 10
66.65454833086186
 20
74.11523613073906
 30
0.0
  0
SPLINE
  5
EA
330
1F
100
AcDbEntity
  8
0
  6
HIDDEN
 62
     7
370
     0
100
AcDbSpline
210
0.0
220
0.0
230
1.0
 70
     8
 71
     3
 72
    12
 73
     8
 74
     0
 42
0.00000001
 43
0.00000001
 40
0.0
 40
0.0
 40
0.0
 40
0.0
 40
0.1661348483723788
 40
0.3322012848936272
 40
0.5008930844532496
 40
0.7521368938593884
 40
1.0
 40
1.0
 40
1.0
 40
1.0
 10
66.1403670000618
 20
147.916250703121
 30
0.0
 10
66.15075974163592
 20
147.9148738100876
 30
0.0
 10
66.17154094520832
 20
147.9121205910047
 30
0.0
 10
66.3448399791013
 20
147.890514836302
 30
0.0
 10
66.66679079461782
 20
147.8526515495676
 30
0.0
 10
67.1879559281458
 20
147.7922654513076
 30
0.0
 10
67.75351497749796
 20
147.7444739235007
 30
0.0
 10
68.0343790936058
 20
147.7207400176771
 30
0.0
  0
SPLINE
  5
EB
330
1F
100
AcDbEntity
  8
0
  6
HIDDEN
 62
     7
370
     0
100
AcDbSpline
210
0.0
220
0.0
230
1.0
 70
     8
 71
     3
 72
    96
 73
    92
 74
     0
 42
0.00000001
 43
0.00000001
 40
-0.031250000000001
 40
-0.031250000000001
 40
0.0
 40
0.0
 40
0.0312499999999979
 40
0.0312499999999979
 40
0.0468749999999971
 40
0.0468749999999971
 40
0.0624999999999964
 40
0.0624999999999964
 40
0.0937499999999955
 40
0.0937499999999955
 40
0.1249999999999947
 40
0.1249999999999947
 40
0.1562499999999939
 40
0.1562499999999939
 40
0.1718749999999936
 40
0.1718749999999936
 40
0.1874999999999934
 40
0.1874999999999934
 40
0.2031249999999932
 40
0.2031249999999932
 40
0.2187499999999929
 40
0.2187499999999929
 40
0.2499999999999926
 40
0.2499999999999926
 40
0.2656249999999924
 40
0.2656249999999924
 40
0.2812499999999922
 40
0.2812499999999922
 40
0.312499999999992
 40
0.312499999999992
 40
0.3281249999999917
 40
0.3281249999999917
 40
0.3437499999999915
 40
0.3437499999999915
 40
0.3593749999999913
 40
0.3593749999999913
 40
0.374999999999991
 40
0.374999999999991
 40
0.4062499999999906
 40
0.4062499999999906
 40
0.4374999999999901
 40
0.4374999999999901
 40
0.4687499999999896
 40
0.4687499999999896
 40
0.4843749999999893
 40
0.4843749999999893
 40
0.4999999999999891
 40
0.4999999999999891
 40
0.5312499999999887
 40
0.5312499999999887
 40
0.5624999999999881
 40
0.5624999999999881
 40
0.578124999999988
 40
0.578124999999988
 40
0.5937499999999878
 40
0.5937499999999878
 40
0.624999999999988
 40
0.624999999999988
 40
0.6406249999999882
 40
0.6406249999999882
 40
0.6562499999999885
 40
0.6562499999999885
 40
0.6874999999999895
 40
0.6874999999999895
 40
0.70312499999999
 40
0.70312499999999
 40
0.7187499999999907
 40
0.7187499999999907
 40
0.7343749999999912
 40
0.7343749999999912
 40
0.7499999999999918
 40
0.7499999999999918
 40
0.7812499999999929
 40
0.7812499999999929
 40
0.812499999999994
 40
0.812499999999994
 40
0.8437499999999951
 40
0.8437499999999951
 40
0.8749999999999961
 40
0.8749999999999961
 40
0.890624999999997
 40
0.890624999999997
 40
0.9062499999999978
 40
0.9062499999999978
 40
0.9374999999999988
 40
0.9374999999999988
 40
0.9531249999999989
 40
0.9531249999999989
 40
0.968749999999999
 40
0.968749999999999
 40
1.0
 40
1.0
 40
1.031249999999998
 40
1.031249999999998
 10
199.7703332995964
 20
101.3743701523321
 30
0.0
 10
198.4717559992848
 20
101.3743701523321
 30
0.0
 10
197.8331331793027
 20
101.4341688777717
 30
0.0
 10
196.8905368674241
 20
101.6103064399156
 30
0.0
 10
196.5789127761801
 20
101.6835373991966
 30
0.0
 10
195.9609217311594
 20
101.8598289333299
 30
0.0
 10
195.6533643322419
 20
101.963489605611
 30
0.0
 10
194.7575523837223
 20
102.3137596143612
 30
0.0
 10
194.1905160756667
 20
102.6003115497731
 30
0.0
 10
193.1160460358784
 20
103.2804710719322
 30
0.0
 10
192.6052669056243
 20
103.6786522423751
 30
0.0
 10
191.6871718795592
 20
104.5546192388652
 30
0.0
 10
191.2744902714419
 20
105.0346018557843
 30
0.0
 10
190.726526757771
 20
105.8205256221971
 30
0.0
 10
190.5552882760383
 20
106.0948152057287
 30
0.0
 10
190.2447138967003
 20
106.6537946930729
 30
0.0
 10
190.1043767180753
 20
106.9396923652728
 30
0.0
 10
189.8530797070018
 20
107.5241965516045
 30
0.0
 10
189.7421194444502
 20
107.8228026850709
 30
0.0
 10
189.549965912226
 20
108.432989867964
 30
0.0
 10
189.4685432361557
 20
108.7456957860149
 30
0.0
 10
189.2724814019938
 20
109.6968263504962
 30
0.0
 10
189.2078680250455
 20
110.3344119870039
 30
0.0
 10
189.2069046144551
 20
111.2958932320398
 30
0.0
 10
189.2227047735873
 20
111.6172437733985
 30
0.0
 10
189.2875986897893
 20
112.2617123051436
 30
0.0
 10
189.3366009650602
 20
112.5822975633775
 30
0.0
 10
189.5298713838075
 20
113.5252801460107
 30
0.0
 10
189.7204578371174
 20
114.1348647448214
 30
0.0
 10
190.0998175825889
 20
115.0207445476008
 30
0.0
 10
190.2423288422023
 20
115.3114296446018
 30
0.0
 10
190.552423257366
 20
115.8702980936326
 30
0.0
 10
190.7206714024067
 20
116.1402091584719
 30
0.0
 10
191.083099921576
 20
116.6615242638468
 30
0.0
 10
191.2772813764381
 20
116.9129271733603
 30
0.0
 10
191.6918930215799
 20
117.3972183162975
 30
0.0
 10
191.9135965561766
 20
117.6312077563198
 30
0.0
 10
192.6065588539792
 20
118.2926849046207
 30
0.0
 10
193.1065955435012
 20
118.6825911582585
 30
0.0
 10
194.1813670439236
 20
119.3646309809767
 30
0.0
 10
194.7609886380816
 20
119.657530341353
 30
0.0
 10
195.9499003903958
 20
120.1223052981017
 30
0.0
 10
196.5637242980506
 20
120.2980375972237
 30
0.0
 10
197.5140498225086
 20
120.476339707388
 30
0.0
 10
197.8364696914479
 20
120.5213384885929
 30
0.0
 10
198.4775342994586
 20
120.5806890405722
 30
0.0
 10
198.7978494637677
 20
120.5954313919494
 30
0.0
 10
199.758155141841
 20
120.5957152158104
 30
0.0
 10
200.3995466458549
 20
120.5373859928233
 30
0.0
 10
201.6720680109445
 20
120.2997970531939
 30
0.0
 10
202.2865775179625
 20
120.1240215659661
 30
0.0
 10
203.176869056915
 20
119.7766967443023
 30
0.0
 10
203.4683502413259
 20
119.6468738014917
 30
0.0
 10
204.0404904772857
 20
119.3581578233417
 30
0.0
 10
204.3215490809259
 20
119.1987866588127
 30
0.0
 10
205.1300342000609
 20
118.6866952553987
 30
0.0
 10
205.6294333151322
 20
118.2974708758281
 30
0.0
 10
206.3193962245714
 20
117.6403944936521
 30
0.0
 10
206.5401383551623
 20
117.4082784468644
 30
0.0
 10
206.9579366091367
 20
116.9216140491639
 30
0.0
 10
207.1529276776473
 20
116.6696390858915
 30
0.0
 10
207.6974035704172
 20
115.8882525014697
 30
0.0
 10
208.0068044178559
 20
115.3336348408703
 30
0.0
 10
208.3880178934675
 20
114.4485268072597
 30
0.0
 10
208.5009613610355
 20
114.1443584015513
 30
0.0
 10
208.6933469139447
 20
113.5326036020796
 30
0.0
 10
208.7736344597009
 20
113.2232232283337
 30
0.0
 10
208.9028402465332
 20
112.5975150767817
 30
0.0
 10
208.9517593078689
 20
112.2811875337533
 30
0.0
 10
209.0176678843887
 20
111.6414366853033
 30
0.0
 10
209.0346009860826
 20
111.3159985568634
 30
0.0
 10
209.0353934768545
 20
110.3462102155454
 30
0.0
 10
208.9708252449298
 20
109.7088865279206
 30
0.0
 10
208.7142729476124
 20
108.4521686693038
 30
0.0
 10
208.5192365664048
 20
107.8290603851489
 30
0.0
 10
208.0164690246362
 20
106.6557582164866
 30
0.0
 10
207.7081754065743
 20
106.0986154976294
 30
0.0
 10
206.9750791665875
 20
105.0435409893973
 30
0.0
 10
206.5595974801547
 20
104.5597510324384
 30
0.0
 10
205.8718661302972
 20
103.9025831167532
 30
0.0
 10
205.631487833942
 20
103.6946030191671
 30
0.0
 10
205.1280329209228
 20
103.3009403000826
 30
0.0
 10
204.864339644437
 20
103.1150836587481
 30
0.0
 10
204.0557167261666
 20
102.602391865751
 30
0.0
 10
203.4883229463456
 20
102.3156414723887
 30
0.0
 10
202.5950543320524
 20
101.9657664554175
 30
0.0
 10
202.2888832009374
 20
101.8622497287354
 30
0.0
 10
201.6682429934733
 20
101.6847673772733
 30
0.0
 10
201.3554910387058
 20
101.6111393469572
 30
0.0
 10
200.4101205847895
 20
101.4341940142811
 30
0.0
 10
199.7703332995964
 20
101.3743701523321
 30
0.0
 10
198.4717559992848
 20
101.3743701523321
 30
0.0
  0
SPLINE
  5
EC
330
1F
100
AcDbEntity
  8
0
  6
HIDDEN
 62
     7
370
     0
100
AcDbSpline
210
0.0
220
0.0
230
1.0
 70
     8
 71
     3
 72
    96
 73
    92
 74
     0
 42
0.00000001
 43
0.00000001
 40
-0.0312499999999991
 40
-0.0312499999999991
 40
0.0
 40
0.0
 40
0.0312499999999981
 40
0.0312499999999981
 40
0.0468749999999978
 40
0.0468749999999978
 40
0.0624999999999976
 40
0.0624999999999976
 40
0.093749999999997
 40
0.093749999999997
 40
0.1249999999999964
 40
0.1249999999999964
 40
0.1562499999999959
 40
0.1562499999999959
 40
0.1718749999999956
 40
0.1718749999999956
 40
0.1874999999999953
 40
0.1874999999999953
 40
0.203124999999995
 40
0.203124999999995
 40
0.2187499999999947
 40
0.2187499999999947
 40
0.2499999999999941
 40
0.2499999999999941
 40
0.2656249999999937
 40
0.2656249999999937
 40
0.2812499999999934
 40
0.2812499999999934
 40
0.3124999999999928
 40
0.3124999999999928
 40
0.3281249999999928
 40
0.3281249999999928
 40
0.3437499999999928
 40
0.3437499999999928
 40
0.3593749999999928
 40
0.3593749999999928
 40
0.3749999999999928
 40
0.3749999999999928
 40
0.4062499999999937
 40
0.4062499999999937
 40
0.4374999999999946
 40
0.4374999999999946
 40
0.4687499999999954
 40
0.4687499999999954
 40
0.4843749999999958
 40
0.4843749999999958
 40
0.4999999999999962
 40
0.4999999999999962
 40
0.5312499999999984
 40
0.5312499999999984
 40
0.5625000000000007
 40
0.5625000000000007
 40
0.5781250000000011
 40
0.5781250000000011
 40
0.5937500000000017
 40
0.5937500000000017
 40
0.6250000000000026
 40
0.6250000000000026
 40
0.6406250000000029
 40
0.6406250000000029
 40
0.6562500000000033
 40
0.6562500000000033
 40
0.6875000000000034
 40
0.6875000000000034
 40
0.7031250000000034
 40
0.7031250000000034
 40
0.7187500000000036
 40
0.7187500000000036
 40
0.7343750000000036
 40
0.7343750000000036
 40
0.7500000000000037
 40
0.7500000000000037
 40
0.7812500000000038
 40
0.7812500000000038
 40
0.8125000000000039
 40
0.8125000000000039
 40
0.843750000000004
 40
0.843750000000004
 40
0.8750000000000041
 40
0.8750000000000041
 40
0.8906250000000041
 40
0.8906250000000041
 40
0.9062500000000042
 40
0.9062500000000042
 40
0.9375000000000032
 40
0.9375000000000032
 40
0.953125000000002
 40
0.953125000000002
 40
0.9687500000000009
 40
0.9687500000000009
 40
1.0
 40
1.0
 40
1.031249999999998
 40
1.031249999999998
 10
224.7703332995964
 20
101.3743701523321
 30
0.0
 10
223.4717559992848
 20
101.3743701523321
 30
0.0
 10
222.8331331793026
 20
101.4341688777717
 30
0.0
 10
221.8905368674241
 20
101.6103064399156
 30
0.0
 10
221.5789127761801
 20
101.6835373991966
 30
0.0
 10
220.9609217311594
 20
101.8598289333299
 30
0.0
 10
220.6533643322418
 20
101.963489605611
 30
0.0
 10
219.7575523837222
 20
102.3137596143612
 30
0.0
 10
219.1905160756666
 20
102.6003115497731
 30
0.0
 10
218.1160460358784
 20
103.2804710719322
 30
0.0
 10
217.6052669056244
 20
103.6786522423751
 30
0.0
 10
216.6871718795592
 20
104.5546192388652
 30
0.0
 10
216.274490271442
 20
105.0346018557843
 30
0.0
 10
215.7265267577711
 20
105.8205256221971
 30
0.0
 10
215.5552882760383
 20
106.0948152057287
 30
0.0
 10
215.2447138967004
 20
106.6537946930729
 30
0.0
 10
215.1043767180754
 20
106.9396923652728
 30
0.0
 10
214.8530797070019
 20
107.5241965516045
 30
0.0
 10
214.7421194444502
 20
107.8228026850709
 30
0.0
 10
214.549965912226
 20
108.432989867964
 30
0.0
 10
214.4685432361557
 20
108.7456957860149
 30
0.0
 10
214.2724814019938
 20
109.6968263504962
 30
0.0
 10
214.2078680250455
 20
110.3344119870039
 30
0.0
 10
214.2069046144551
 20
111.2958932320398
 30
0.0
 10
214.2227047735872
 20
111.6172437733985
 30
0.0
 10
214.2875986897893
 20
112.2617123051436
 30
0.0
 10
214.3366009650603
 20
112.5822975633775
 30
0.0
 10
214.5298713838075
 20
113.5252801460107
 30
0.0
 10
214.7204578371175
 20
114.1348647448214
 30
0.0
 10
215.099817582589
 20
115.0207445476009
 30
0.0
 10
215.2423288422023
 20
115.3114296446018
 30
0.0
 10
215.5524232573661
 20
115.8702980936326
 30
0.0
 10
215.7206714024067
 20
116.1402091584719
 30
0.0
 10
216.083099921576
 20
116.6615242638468
 30
0.0
 10
216.2772813764381
 20
116.9129271733603
 30
0.0
 10
216.6918930215799
 20
117.3972183162975
 30
0.0
 10
216.9135965561767
 20
117.6312077563199
 30
0.0
 10
217.6065588539792
 20
118.2926849046207
 30
0.0
 10
218.1065955435012
 20
118.6825911582585
 30
0.0
 10
219.1813670439236
 20
119.3646309809767
 30
0.0
 10
219.7609886380816
 20
119.657530341353
 30
0.0
 10
220.9499003903958
 20
120.1223052981018
 30
0.0
 10
221.5637242980507
 20
120.2980375972237
 30
0.0
 10
222.5140498225087
 20
120.476339707388
 30
0.0
 10
222.8364696914479
 20
120.5213384885929
 30
0.0
 10
223.4775342994585
 20
120.5806890405722
 30
0.0
 10
223.7978494637678
 20
120.5954313919494
 30
0.0
 10
224.7581551418411
 20
120.5957152158104
 30
0.0
 10
225.3995466458549
 20
120.5373859928233
 30
0.0
 10
226.6720680109446
 20
120.299797053194
 30
0.0
 10
227.2865775179625
 20
120.1240215659661
 30
0.0
 10
228.1768690569151
 20
119.7766967443023
 30
0.0
 10
228.468350241326
 20
119.6468738014917
 30
0.0
 10
229.0404904772856
 20
119.3581578233417
 30
0.0
 10
229.321549080926
 20
119.1987866588127
 30
0.0
 10
230.1300342000611
 20
118.6866952553987
 30
0.0
 10
230.6294333151322
 20
118.2974708758281
 30
0.0
 10
231.3193962245714
 20
117.6403944936521
 30
0.0
 10
231.5401383551624
 20
117.4082784468644
 30
0.0
 10
231.9579366091367
 20
116.9216140491639
 30
0.0
 10
232.1529276776473
 20
116.6696390858915
 30
0.0
 10
232.6974035704172
 20
115.8882525014696
 30
0.0
 10
233.006804417856
 20
115.3336348408703
 30
0.0
 10
233.3880178934675
 20
114.4485268072597
 30
0.0
 10
233.5009613610355
 20
114.1443584015513
 30
0.0
 10
233.6933469139447
 20
113.5326036020796
 30
0.0
 10
233.7736344597009
 20
113.2232232283337
 30
0.0
 10
233.9028402465332
 20
112.5975150767817
 30
0.0
 10
233.951759307869
 20
112.2811875337533
 30
0.0
 10
234.0176678843888
 20
111.6414366853033
 30
0.0
 10
234.0346009860826
 20
111.3159985568633
 30
0.0
 10
234.0353934768545
 20
110.3462102155454
 30
0.0
 10
233.9708252449298
 20
109.7088865279206
 30
0.0
 10
233.7142729476124
 20
108.4521686693037
 30
0.0
 10
233.5192365664047
 20
107.8290603851489
 30
0.0
 10
233.0164690246361
 20
106.6557582164866
 30
0.0
 10
232.7081754065744
 20
106.0986154976294
 30
0.0
 10
231.9750791665874
 20
105.0435409893973
 30
0.0
 10
231.5595974801547
 20
104.5597510324384
 30
0.0
 10
230.8718661302971
 20
103.9025831167532
 30
0.0
 10
230.6314878339421
 20
103.6946030191671
 30
0.0
 10
230.1280329209229
 20
103.3009403000826
 30
0.0
 10
229.864339644437
 20
103.1150836587481
 30
0.0
 10
229.0557167261667
 20
102.602391865751
 30
0.0
 10
228.4883229463454
 20
102.3156414723887
 30
0.0
 10
227.5950543320525
 20
101.9657664554175
 30
0.0
 10
227.2888832009374
 20
101.8622497287354
 30
0.0
 10
226.6682429934733
 20
101.6847673772733
 30
0.0
 10
226.3554910387058
 20
101.6111393469572
 30
0.0
 10
225.4101205847895
 20
101.4341940142811
 30
0.0
 10
224.7703332995964
 20
101.3743701523321
 30
0.0
 10
223.4717559992848
 20
101.3743701523321
 30
0.0
  0
SPLINE
  5
ED
330
1F
100
AcDbEntity
  8
0
  6
HIDDEN
 62
     7
370
     0
100
AcDbSpline
210
0.0
220
0.0
230
1.0
 70
     8
 71
     3
 72
     9
 73
     5
 74
     0
 42
0.00000001
 43
0.00000001
 40
0.0
 40
0.0
 40
0.0
 40
0.0
 40
0.661217563673191
 40
1.0
 40
1.0
 40
1.0
 40
1.0
 10
77.87425006057673
 20
142.3512704942473
 30
0.0
 10
78.16575223183743
 20
142.3950561062794
 30
0.0
 10
78.60660889880396
 20
142.4612757810697
 30
0.0
 10
78.55519674536393
 20
142.4534697114629
 30
0.0
 10
78.5377792107647
 20
142.4508251521834
 30
0.0
  0
SPLINE
  5
EE
330
1F
100
AcDbEntity
  8
0
  6
HIDDEN
 62
     7
370
     0
100
AcDbSpline
210
0.0
220
0.0
230
1.0
 70
     8
 71
     3
 72
     9
 73
     5
 74
     0
 42
0.00000001
 43
0.00000001
 40
0.0
 40
0.0
 40
0.0
 40
0.0
 40
0.3224758109682492
 40
0.9999999999999999
 40
0.9999999999999999
 40
0.9999999999999999
 40
0.9999999999999999
 10
78.5377792107647
 20
79.51907145717225
 30
0.0
 10
78.55642092620359
 20
79.51630337702137
 30
0.0
 10
78.61422903088874
 20
79.5077195389265
 30
0.0
 10
78.17311529008532
 20
79.57383278898095
 30
0.0
 10
77.87425006057673
 20
79.61862611510834
 30
0.0
  0
SPLINE
  5
EF
330
1F
100
AcDbEntity
  8
0
  6
HIDDEN
 62
     7
370
     0
100
AcDbSpline
210
0.0
220
0.0
230
1.0
 70
     8
 71
     3
 72
    15
 73
    11
 74
     0
 42
0.00000001
 43
0.00000001
 40
0.0
 40
0.0
 40
0.0
 40
0.0
 40
0.1285821426710073
 40
0.2571635607496992
 40
0.3853235406184768
 40
0.5113778076015207
 40
0.636926046588634
 40
0.7643185585868897
 40
0.893060358186539
 40
1.0
 40
1.0
 40
1.0
 40
1.0
 10
77.87425006057673
 20
79.61862611510834
 30
0.0
 10
77.48872793343303
 20
79.68043188026833
 30
0.0
 10
76.71768585165857
 20
79.80404306229747
 30
0.0
 10
74.93912818831735
 20
79.99479252456402
 30
0.0
 10
72.94531692688396
 20
80.0824389054862
 30
0.0
 10
70.92127930172465
 20
80.03553500213042
 30
0.0
 10
69.09317081287057
 20
79.87528387361952
 30
0.0
 10
67.66173985804302
 20
79.67410628843818
 30
0.0
 10
66.75785460940888
 20
79.51156056041403
 30
0.0
 10
66.69527197234774
 20
79.49916089680569
 30
0.0
 10
66.66687531645947
 20
79.49353459217629
 30
0.0
  0
SPLINE
  5
F0
330
1F
100
AcDbEntity
  8
0
  6
HIDDEN
 62
     7
370
     0
100
AcDbSpline
210
0.0
220
0.0
230
1.0
 70
     8
 71
     3
 72
    16
 73
    12
 74
     0
 42
0.00000001
 43
0.00000001
 40
0.0
 40
0.0
 40
0.0
 40
0.0
 40
0.0205567972010308
 40
0.1461296555129789
 40
0.2720439735959893
 40
0.3999540038647748
 40
0.5285040859845025
 40
0.6552455845570215
 40
0.7805595113940985
 40
0.907037898122843
 40
1.0
 40
1.0
 40
1.0
 40
1.0
 10
66.66687531645947
 20
142.4763620171793
 30
0.0
 10
66.65220803481093
 20
142.4791077132955
 30
0.0
 10
66.54794447693976
 20
142.4986257162055
 30
0.0
 10
66.99872436770382
 20
142.4122596016627
 30
0.0
 10
68.01196267441665
 20
142.2411224984073
 30
0.0
 10
69.6062918321741
 20
142.0375813652726
 30
0.0
 10
71.53279122846273
 20
141.90519063433
 30
0.0
 10
73.57928307819286
 20
141.9013955472791
 30
0.0
 10
75.49244277018319
 20
142.0241702099786
 30
0.0
 10
76.97715096934095
 20
142.2059875062605
 30
0.0
 10
77.60729895436339
 20
142.308038420181
 30
0.0
 10
77.87425006057673
 20
142.3512704942473
 30
0.0
  0
LINE
  5
F1
330
1F
100
AcDbEntity
  8
0
  6
HIDDEN
 62
     7
370
     0
100
AcDbLine
 10
57.6176683443
 20
84.4849486176
 30
0.0
 11
57.6176683443
 21
137.4849479918
 31
0.0
  0
LINE
  5
F2
330
1F
100
AcDbEntity
  8
0
  6
HIDDEN
 62
     7
370
     0
100
AcDbLine
 10
96.9051218617
 20
84.4849486176
 30
0.0
 11
96.9051218617
 21
137.4849479918
 31
0.0
  0
LINE
  5
F3
330
1F
100
AcDbEntity
  8
0
  6
HIDDEN
 62
     7
370
     0
100
AcDbLine
 10
100.0710449206
 20
86.1099481855
 30
0.0
 11
100.0710449206
 21
135.8599484239
 31
0.0
  0
SPLINE
  5
F4
330
1F
100
AcDbEntity
  8
0
  6
HIDDEN
 62
     7
370
     0
100
AcDbSpline
210
0.0
220
0.0
230
1.0
 70
     8
 71
     3
 72
    20
 73
    16
 74
     0
 42
0.00000001
 43
0.00000001
 40
0.0
 40
0.0
 40
0.0
 40
0.0
 40
0.2499999999999978
 40
0.2499999999999978
 40
0.3749999999999982
 40
0.3749999999999982
 40
0.4999999999999986
 40
0.4999999999999986
 40
0.6249999999999989
 40
0.6249999999999989
 40
0.7499999999999992
 40
0.7499999999999992
 40
0.8749999999999997
 40
0.8749999999999997
 40
1.0
 40
1.0
 40
1.0
 40
1.0
 10
47.82104464944058
 20
136.2134619350921
 30
0.0
 10
47.82104464944059
 20
136.1342589485598
 30
0.0
 10
47.77406215422784
 20
136.0531627301569
 30
0.0
 10
47.63624056345027
 20
135.932966038406
 30
0.0
 10
47.57995827954029
 20
135.8940393344039
 30
0.0
 10
47.44687342807306
 20
135.8188506019795
 30
0.0
 10
47.36903348584001
 20
135.7822083966376
 30
0.0
 10
47.19640112972566
 20
135.7146178638057
 30
0.0
 10
47.10200813263457
 20
135.6836596820301
 30
0.0
 10
46.89657082631943
 20
135.6281352606604
 30
0.0
 10
46.78422458633226
 20
135.6034267468272
 30
0.0
 10
46.55198372243263
 20
135.5636305197189
 30
0.0
 10
46.43127308000991
 20
135.5482106823219
 30
0.0
 10
46.18020222074087
 20
135.5271307074823
 30
0.0
 10
46.0506802243251
 20
135.5216534624613
 30
0.0
 10
45.92104464944058
 20
135.5216534624613
 30
0.0
  0
LINE
  5
F5
330
1F
100
AcDbEntity
  8
0
  6
HIDDEN
 62
     7
370
     0
100
AcDbLine
 10
45.9210428434
 20
135.5216529492
 30
0.0
 11
39.3710437256
 21
135.5216529492
 31
0.0
  0
LINE
  5
F6
330
1F
100
AcDbEntity
  8
0
  6
HIDDEN
 62
     7
370
     0
100
AcDbLine
 10
39.3710437256
 20
86.4482436601
 30
0.0
 11
50.9210455256
 21
86.4482436601
 31
0.0
  0
SPLINE
  5
F7
330
1F
100
AcDbEntity
  8
0
  6
HIDDEN
 62
     7
370
     0
100
AcDbSpline
210
0.0
220
0.0
230
1.0
 70
     8
 71
     3
 72
    18
 73
    14
 74
     0
 42
0.00000001
 43
0.00000001
 40
0.0
 40
0.0
 40
0.0
 40
0.0
 40
0.1249999999999982
 40
0.1249999999999982
 40
0.2499999999999964
 40
0.2499999999999964
 40
0.4999999999999988
 40
0.4999999999999988
 40
0.7500000000000011
 40
0.7500000000000011
 40
0.8750000000000006
 40
0.8750000000000006
 40
1.0
 40
1.0
 40
1.0
 40
1.0
 10
50.92104464944058
 20
86.44824314689431
 30
0.0
 10
51.05051196239779
 20
86.4482431468943
 30
0.0
 10
51.17752271129443
 20
86.44289014830166
 30
0.0
 10
51.42688603249168
 20
86.42215217561288
 30
0.0
 10
51.55050968712012
 20
86.40648027135859
 30
0.0
 10
51.89954202405417
 20
86.3467855429565
 30
0.0
 10
52.11005378886095
 20
86.28902036327551
 30
0.0
 10
52.45397046656047
 20
86.15449852199801
 30
0.0
 10
52.59032086807827
 20
86.07682940849261
 30
0.0
 10
52.72735892464081
 20
85.95753827440528
 30
0.0
 10
52.76257794335372
 20
85.91661926527023
 30
0.0
 10
52.80920152029228
 20
85.83596327198019
 30
0.0
 10
52.82104464944059
 20
85.79599475178735
 30
0.0
 10
52.82104464944058
 20
85.75643467426352
 30
0.0
  0
LINE
  5
F8
330
1F
100
AcDbEntity
  8
0
  6
HIDDEN
 62
     7
370
     0
100
AcDbLine
 10
39.3710437256
 20
86.4482436601
 30
0.0
 11
39.3710437256
 21
135.5216529492
 31
0.0
  0
LWPOLYLINE
  5
F9
330
1F
100
AcDbEntity
  8
0
  6
HIDDEN
 62
     7
370
     0
100
AcDbPolyline
 90
       13
 70
   128
 43
0.0
 10
96.621044262
 20
150.9286806259
 10
97.7741240549
 20
150.9834982727
 10
98.8650408598
 20
151.1449970577
 10
99.8349825877
 20
151.4044709776
 10
100.6316610637
 20
151.7479315672
 10
101.2121255534
 20
152.1568604086
 10
101.5450836184
 20
152.6092149589
 10
101.6125858786
 20
153.080609468
 10
101.4109917941
 20
153.5456300054
 10
100.951171762
 20
153.9792053674
 10
100.2579129326
 20
154.3579593573
 10
99.3685892808
 20
154.6614811096
 10
99.0192855733
 20
154.7468386863
  0
LWPOLYLINE
  5
FA
330
1F
100
AcDbEntity
  8
0
  6
HIDDEN
 62
     7
370
     0
100
AcDbPolyline
 90
       13
 70
   128
 43
0.0
 10
94.2193114224
 20
154.7460638259
 10
93.8734997089
 20
154.6614811096
 10
92.9841765228
 20
154.3579593573
 10
92.2909176933
 20
153.9792053674
 10
91.8310971956
 20
153.5456300054
 10
91.6295040424
 20
153.080609468
 10
91.6970058369
 20
152.6092149589
 10
92.0299639019
 20
152.1568604086
 10
92.6104288573
 20
151.7479315672
 10
93.407106402
 20
151.4044709776
 10
94.3770485955
 20
151.1449970577
 10
95.4679654005
 20
150.9834982727
 10
96.621044262
 20
150.9286806259
  0
LINE
  5
FB
330
1F
100
AcDbEntity
  8
0
  6
HIDDEN
 62
     7
370
     0
100
AcDbLine
 10
39.3710437256
 20
83.6149480466
 30
0.0
 11
39.3710437256
 21
78.7366636369
 31
0.0
  0
LWPOLYLINE
  5
FC
330
1F
100
AcDbEntity
  8
0
  6
HIDDEN
 62
     7
370
     0
100
AcDbPolyline
 90
       18
 70
   128
 43
0.0
 10
191.1210457819
 20
93.8022535566
 10
190.3985629814
 20
93.8977513734
 10
189.7736529845
 20
94.1713497315
 10
189.330715968
 20
94.5860974763
 10
189.1295726436
 20
95.0859792803
 10
189.1973952788
 20
95.6034854326
 10
189.5250122088
 20
96.0687211055
 10
190.068181886
 20
96.4188555528
 10
190.753545894
 20
96.6066008706
 10
191.4885456699
 20
96.6066008706
 10
192.1739096778
 20
96.4188555528
 10
192.7170793551
 20
96.0687211055
 10
193.0446962851
 20
95.6034854326
 10
193.1125114697
 20
95.0859792803
 10
192.9113681453
 20
94.5860974763
 10
192.4684385794
 20
94.1713497315
 10
191.8435285824
 20
93.8977513734
 10
191.1210457819
 20
93.8022535566
  0
SPLINE
  5
FD
330
1F
100
AcDbEntity
  8
0
  6
HIDDEN
 62
     7
370
     0
100
AcDbSpline
210
0.0
220
0.0
230
1.0
 70
     8
 71
     3
 72
    18
 73
    14
 74
     0
 42
0.00000001
 43
0.00000001
 40
0.0
 40
0.0
 40
0.0
 40
0.0
 40
0.2500000000000016
 40
0.2500000000000016
 40
0.3750000000000002
 40
0.3750000000000002
 40
0.4999999999999988
 40
0.4999999999999988
 40
0.6249999999999973
 40
0.6249999999999973
 40
0.7499999999999959
 40
0.7499999999999959
 40
1.0
 40
1.0
 40
1.0
 40
1.0
 10
189.6996015196652
 20
95.04299511039663
 30
0.0
 10
189.7784720451161
 20
95.08088032998369
 30
0.0
 10
189.8537883250675
 20
95.1383125212725
 30
0.0
 10
189.9382332089819
 20
95.26171775200906
 30
0.0
 10
189.9607131227985
 20
95.30834097363613
 30
0.0
 10
189.9888120856796
 20
95.41459032892423
 30
0.0
 10
189.9938754754207
 20
95.47443258206378
 30
0.0
 10
189.983715418243
 20
95.60059632561352
 30
0.0
 10
189.968471614443
 20
95.6687328238855
 30
0.0
 10
189.9230259168462
 20
95.80811487383454
 30
0.0
 10
189.8933867941348
 20
95.87888787975403
 30
0.0
 10
189.7920542920228
 20
96.0958063137395
 30
0.0
 10
189.7096472127535
 20
96.24428322656743
 30
0.0
 10
189.6274264947482
 20
96.39628923475274
 30
0.0
  0
SPLINE
  5
FE
330
1F
100
AcDbEntity
  8
0
  6
HIDDEN
 62
     7
370
     0
100
AcDbSpline
210
0.0
220
0.0
230
1.0
 70
     8
 71
     3
 72
    28
 73
    24
 74
     0
 42
0.00000001
 43
0.00000001
 40
0.0
 40
0.0
 40
0.0
 40
0.0
 40
0.0625000000000002
 40
0.0625000000000002
 40
0.1250000000000004
 40
0.1250000000000004
 40
0.1875000000000006
 40
0.1875000000000006
 40
0.2500000000000008
 40
0.2500000000000008
 40
0.3750000000000001
 40
0.3750000000000001
 40
0.4999999999999993
 40
0.4999999999999993
 40
0.6249999999999986
 40
0.6249999999999986
 40
0.7499999999999978
 40
0.7499999999999978
 40
0.8124999999999999
 40
0.8124999999999999
 40
0.875000000000002
 40
0.875000000000002
 40
1.0
 40
1.0
 40
1.0
 40
1.0
 10
189.6274264947481
 20
96.39628923475246
 30
0.0
 10
189.5969108161475
 20
96.38847978544717
 30
0.0
 10
189.5661354049207
 20
96.38446324727296
 30
0.0
 10
189.5034012418603
 20
96.38819082757128
 30
0.0
 10
189.4709699940646
 20
96.39625339651647
 30
0.0
 10
189.407430654957
 20
96.42953720423768
 30
0.0
 10
189.3757341696561
 20
96.45531158068816
 30
0.0
 10
189.3167827019591
 20
96.52310319014894
 30
0.0
 10
189.2898535980178
 20
96.56429770243099
 30
0.0
 10
189.2174403875505
 20
96.70063475401118
 30
0.0
 10
189.1818786762432
 20
96.8033315487395
 30
0.0
 10
189.1334293116831
 20
97.00478802198985
 30
0.0
 10
189.1210306496827
 20
97.1045612179495
 30
0.0
 10
189.1210586735772
 20
97.28402642254667
 30
0.0
 10
189.1330316051704
 20
97.36503321052534
 30
0.0
 10
189.1812267258714
 20
97.5171798253823
 30
0.0
 10
189.2169635462773
 20
97.58628728457528
 30
0.0
 10
189.2885072320126
 20
97.70315081685737
 30
0.0
 10
189.3158951771822
 20
97.74543130338422
 30
0.0
 10
189.3744456095057
 20
97.83744919464412
 30
0.0
 10
189.4060113600288
 20
97.88801048364398
 30
0.0
 10
189.5023503900569
 20
98.04912618923456
 30
0.0
 10
189.5660082131043
 20
98.16404587600896
 30
0.0
 10
189.6274264947483
 20
98.2773021576073
 30
0.0
  0
SPLINE
  5
FF
330
1F
100
AcDbEntity
  8
0
  6
HIDDEN
 62
     7
370
     0
100
AcDbSpline
210
0.0
220
0.0
230
1.0
 70
     8
 71
     3
 72
    16
 73
    12
 74
     0
 42
0.00000001
 43
0.00000001
 40
0.0
 40
0.0
 40
0.0
 40
0.0
 40
0.2499999999999973
 40
0.2499999999999973
 40
0.3749999999999984
 40
0.3749999999999984
 40
0.4999999999999994
 40
0.4999999999999994
 40
0.7499999999999998
 40
0.7499999999999998
 40
1.0
 40
1.0
 40
1.0
 40
1.0
 10
189.6274264947483
 20
98.27730215760732
 30
0.0
 10
189.7096603841243
 20
98.25586742479409
 30
0.0
 10
189.7910101389627
 20
98.21389335879965
 30
0.0
 10
189.8931899336116
 20
98.11289766453768
 30
0.0
 10
189.922995812744
 20
98.073311110358
 30
0.0
 10
189.9683303219473
 20
97.9809414731289
 30
0.0
 10
189.9837298303039
 20
97.92715086630238
 30
0.0
 10
189.998951268607
 20
97.75254430572689
 30
0.0
 10
189.9661512918522
 20
97.61405754493272
 30
0.0
 10
189.8546576192506
 20
97.33079793671958
 30
0.0
 10
189.7785050380586
 20
97.18335563109204
 30
0.0
 10
189.6996015196652
 20
97.03271842222422
 30
0.0
  0
SPLINE
  5
100
330
1F
100
AcDbEntity
  8
0
  6
HIDDEN
 62
     7
370
     0
100
AcDbSpline
210
0.0
220
0.0
230
1.0
 70
     8
 71
     3
 72
    28
 73
    24
 74
     0
 42
0.00000001
 43
0.00000001
 40
0.0
 40
0.0
 40
0.0
 40
0.0
 40
0.0625000000000044
 40
0.0625000000000044
 40
0.1250000000000088
 40
0.1250000000000088
 40
0.1875000000000119
 40
0.1875000000000119
 40
0.250000000000015
 40
0.250000000000015
 40
0.3750000000000152
 40
0.3750000000000152
 40
0.5000000000000153
 40
0.5000000000000153
 40
0.6250000000000155
 40
0.6250000000000155
 40
0.7500000000000158
 40
0.7500000000000158
 40
0.8125000000000133
 40
0.8125000000000133
 40
0.875000000000011
 40
0.875000000000011
 40
1.0
 40
1.0
 40
1.0
 40
1.0
 10
189.6996015196652
 20
97.0327184222242
 30
0.0
 10
189.6641583058079
 20
97.04072372539963
 30
0.0
 10
189.6285672838376
 20
97.04476493681294
 30
0.0
 10
189.5562589986425
 20
97.04037262606553
 30
0.0
 10
189.5189806196872
 20
97.03162835034777
 30
0.0
 10
189.445954373415
 20
96.99485200561773
 30
0.0
 10
189.4093649558034
 20
96.96589999770264
 30
0.0
 10
189.3421828625017
 20
96.88926865608497
 30
0.0
 10
189.3114154749599
 20
96.84188839391616
 30
0.0
 10
189.2300491464308
 20
96.68718914795923
 30
0.0
 10
189.1903682904262
 20
96.57125147587631
 30
0.0
 10
189.1355049345657
 20
96.34587915370871
 30
0.0
 10
189.1210428018324
 20
96.23517760940895
 30
0.0
 10
189.1210464974133
 20
96.04162167219289
 30
0.0
 10
189.1355457189877
 20
95.95643441336999
 30
0.0
 10
189.1903559460631
 20
95.80888038423592
 30
0.0
 10
189.2299987712965
 20
95.74606795302722
 30
0.0
 10
189.311305791555
 20
95.63378109588042
 30
0.0
 10
189.3420398283663
 20
95.59301131582002
 30
0.0
 10
189.4087463070818
 20
95.50056214679273
 30
0.0
 10
189.4455725861069
 20
95.44742648700618
 30
0.0
 10
189.5548337331471
 20
95.28172441632017
 30
0.0
 10
189.6284570319413
 20
95.16071415967828
 30
0.0
 10
189.6996015196647
 20
95.04299511039596
 30
0.0
  0
SPLINE
  5
101
330
1F
100
AcDbEntity
  8
0
  6
HIDDEN
 62
     7
370
     0
100
AcDbSpline
210
0.0
220
0.0
230
1.0
 70
     8
 71
     3
 72
    60
 73
    56
 74
     0
 42
0.00000001
 43
0.00000001
 40
-0.0625
 40
-0.0625
 40
0.0
 40
0.0
 40
0.0312500000000002
 40
0.0312500000000002
 40
0.0625000000000003
 40
0.0625000000000003
 40
0.0937500000000005
 40
0.0937500000000005
 40
0.1250000000000007
 40
0.1250000000000007
 40
0.1875000000000011
 40
0.1875000000000011
 40
0.2500000000000014
 40
0.2500000000000014
 40
0.2812500000000013
 40
0.2812500000000013
 40
0.3125000000000012
 40
0.3125000000000012
 40
0.3437500000000011
 40
0.3437500000000011
 40
0.3750000000000009
 40
0.3750000000000009
 40
0.4062500000000008
 40
0.4062500000000008
 40
0.4375000000000007
 40
0.4375000000000007
 40
0.4687500000000007
 40
0.4687500000000007
 40
0.5000000000000006
 40
0.5000000000000006
 40
0.5625000000000006
 40
0.5625000000000006
 40
0.5937500000000006
 40
0.5937500000000006
 40
0.6250000000000006
 40
0.6250000000000006
 40
0.6562500000000004
 40
0.6562500000000004
 40
0.6875000000000004
 40
0.6875000000000004
 40
0.7187500000000003
 40
0.7187500000000003
 40
0.7500000000000002
 40
0.7500000000000002
 40
0.7812500000000002
 40
0.7812500000000002
 40
0.8125000000000001
 40
0.8125000000000001
 40
0.8437500000000001
 40
0.8437500000000001
 40
0.875
 40
0.875
 40
0.9375
 40
0.9375
 40
1.0
 40
1.0
 40
1.03125
 40
1.03125
 10
190.8563506530865
 20
100.6309360868539
 30
0.0
 10
191.2533916476176
 20
100.6309360868539
 30
0.0
 10
191.3834858457996
 20
100.6386646953294
 30
0.0
 10
191.6393657327876
 20
100.6690898202267
 30
0.0
 10
191.7664925262729
 20
100.6921672417786
 30
0.0
 10
192.0085909657334
 20
100.7528392368041
 30
0.0
 10
192.123383008554
 20
100.7901544813164
 30
0.0
 10
192.3406309888342
 20
100.8793275783103
 30
0.0
 10
192.4433330340819
 20
100.9316051115409
 30
0.0
 10
192.7195815738794
 20
101.105268638241
 30
0.0
 10
192.8685299659225
 20
101.2483429361562
 30
0.0
 10
193.0681580840037
 20
101.5681431415845
 30
0.0
 10
193.1208956957865
 20
101.7484209546961
 30
0.0
 10
193.1211186409795
 20
102.0255552425054
 30
0.0
 10
193.1080882315499
 20
102.1208699834387
 30
0.0
 10
193.0569811160065
 20
102.3078936898399
 30
0.0
 10
193.0191695697921
 20
102.4001772348369
 30
0.0
 10
192.9188430811321
 20
102.581833931984
 30
0.0
 10
192.8563096389243
 20
102.6706339086966
 30
0.0
 10
192.7116635321115
 20
102.8370462462258
 30
0.0
 10
192.6288343502509
 20
102.9158262242659
 30
0.0
 10
192.4425677850988
 20
103.0622653476615
 30
0.0
 10
192.3417915172649
 20
103.1278897527648
 30
0.0
 10
192.1254273449105
 20
103.2437173420993
 30
0.0
 10
192.0084183430027
 20
103.2943349499379
 30
0.0
 10
191.7664646703645
 20
103.3756654876053
 30
0.0
 10
191.6418090858656
 20
103.4065927738035
 30
0.0
 10
191.3851284769053
 20
103.4485423140592
 30
0.0
 10
191.2524398724295
 20
103.4593216391918
 30
0.0
 10
190.8605790456776
 20
103.4594459875481
 30
0.0
 10
190.5970252408563
 20
103.4162783962226
 30
0.0
 10
190.2358589100269
 20
103.2951668474993
 30
0.0
 10
190.1192834073556
 20
103.2449971970463
 30
0.0
 10
189.9010249794499
 20
103.1284006712517
 30
0.0
 10
189.8004288022138
 20
103.0628044494604
 30
0.0
 10
189.6158960432311
 20
102.9180734721052
 30
0.0
 10
189.5314394777089
 20
102.8380918705431
 30
0.0
 10
189.3863311676281
 20
102.6713877409856
 30
0.0
 10
189.3247748477488
 20
102.5841787742057
 30
0.0
 10
189.2240070347303
 20
102.4025580888876
 30
0.0
 10
189.1854373413022
 20
102.3087152910045
 30
0.0
 10
189.1343021823748
 20
102.1223501333025
 30
0.0
 10
189.1211550724953
 20
102.0286327818008
 30
0.0
 10
189.1209356048097
 20
101.8416785072845
 30
0.0
 10
189.1338024895539
 20
101.7511514940091
 30
0.0
 10
189.1845111986363
 20
101.5756164591872
 30
0.0
 10
189.2230120163912
 20
101.489721655068
 30
0.0
 10
189.323176628367
 20
101.3288526891866
 30
0.0
 10
189.3845051969734
 20
101.2537105942904
 30
0.0
 10
189.5295823159227
 20
101.113249474327
 30
0.0
 10
189.6137719380355
 20
101.0479755931926
 30
0.0
 10
189.8897275826455
 20
100.8742568957185
 30
0.0
 10
190.1124440044528
 20
100.7833297669508
 30
0.0
 10
190.5934214379203
 20
100.6624871190398
 30
0.0
 10
190.8563506530865
 20
100.6309360868539
 30
0.0
 10
191.2533916476176
 20
100.6309360868539
 30
0.0
  0
SPLINE
  5
102
330
1F
100
AcDbEntity
  8
0
  6
HIDDEN
 62
     7
370
     0
100
AcDbSpline
210
0.0
220
0.0
230
1.0
 70
     8
 71
     3
 72
    58
 73
    54
 74
     0
 42
0.00000001
 43
0.00000001
 40
-0.0625000000000003
 40
-0.0625000000000003
 40
0.0
 40
0.0
 40
0.062500000000001
 40
0.062500000000001
 40
0.0937500000000008
 40
0.0937500000000008
 40
0.1250000000000006
 40
0.1250000000000006
 40
0.1562500000000001
 40
0.1562500000000001
 40
0.1874999999999999
 40
0.1874999999999999
 40
0.2187499999999996
 40
0.2187499999999996
 40
0.2499999999999993
 40
0.2499999999999993
 40
0.2812499999999991
 40
0.2812499999999991
 40
0.3124999999999988
 40
0.3124999999999988
 40
0.3437499999999986
 40
0.3437499999999986
 40
0.3749999999999984
 40
0.3749999999999984
 40
0.4062499999999985
 40
0.4062499999999985
 40
0.4374999999999983
 40
0.4374999999999983
 40
0.4999999999999983
 40
0.4999999999999983
 40
0.5624999999999984
 40
0.5624999999999984
 40
0.5937499999999982
 40
0.5937499999999982
 40
0.6249999999999983
 40
0.6249999999999983
 40
0.6562499999999986
 40
0.6562499999999986
 40
0.6874999999999987
 40
0.6874999999999987
 40
0.7499999999999989
 40
0.7499999999999989
 40
0.8124999999999991
 40
0.8124999999999991
 40
0.8437499999999992
 40
0.8437499999999992
 40
0.8749999999999993
 40
0.8749999999999993
 40
0.9062499999999996
 40
0.9062499999999996
 40
0.9374999999999997
 40
0.9374999999999997
 40
1.0
 40
1.0
 40
1.062500000000001
 40
1.062500000000001
 10
192.8495441931505
 20
96.94103075817281
 30
0.0
 10
192.6420372992712
 20
96.52644621805666
 30
0.0
 10
192.5322096791817
 20
96.32919080433888
 30
0.0
 10
192.3872137892807
 20
96.03478192279017
 30
0.0
 10
192.3437333932834
 20
95.93943490400802
 30
0.0
 10
192.2773709722081
 20
95.75218901963026
 30
0.0
 10
192.2555691425543
 20
95.66128446728085
 30
0.0
 10
192.2482060878633
 20
95.49445363418243
 30
0.0
 10
192.2630283523901
 20
95.41962149620024
 30
0.0
 10
192.3211026364111
 20
95.29375292583597
 30
0.0
 10
192.3632398491343
 20
95.24286905411428
 30
0.0
 10
192.4579971974075
 20
95.16275043593697
 30
0.0
 10
192.5115268644155
 20
95.1328469673325
 30
0.0
 10
192.6190678416276
 20
95.09297002462478
 30
0.0
 10
192.6734856440499
 20
95.08262746782141
 30
0.0
 10
192.7793532712725
 20
95.08082614324415
 30
0.0
 10
192.8312197456865
 20
95.08966420650988
 30
0.0
 10
192.924979821637
 20
95.12753987155516
 30
0.0
 10
192.9673246926443
 20
95.15640158152222
 30
0.0
 10
193.0396129397606
 20
95.23685666764362
 30
0.0
 10
193.0687120466402
 20
95.28788686016598
 30
0.0
 10
193.1088717797094
 20
95.41048807526288
 30
0.0
 10
193.1200380917528
 20
95.4835091062835
 30
0.0
 10
193.1219167158997
 20
95.64393753741598
 30
0.0
 10
193.1128589298828
 20
95.73297265338329
 30
0.0
 10
193.0759013000832
 20
95.92228391000604
 30
0.0
 10
193.0485796182886
 20
96.02067636756011
 30
0.0
 10
192.9440353353988
 20
96.32648234727802
 30
0.0
 10
192.8462268741031
 20
96.53673170898291
 30
0.0
 10
192.6352091304537
 20
96.94532835460582
 30
0.0
 10
192.5194032723035
 20
97.14645539586735
 30
0.0
 10
192.3745021321842
 20
97.43696174762067
 30
0.0
 10
192.3305826503976
 20
97.53380274386593
 30
0.0
 10
192.2684557248967
 20
97.71941349055163
 30
0.0
 10
192.2505570591265
 20
97.81000117910848
 30
0.0
 10
192.2521152244737
 20
97.97174067881645
 30
0.0
 10
192.2713335533119
 20
98.04421360149829
 30
0.0
 10
192.333725305459
 20
98.165242334511
 30
0.0
 10
192.376112318641
 20
98.21470662928799
 30
0.0
 10
192.5184915103541
 20
98.3349831376208
 30
0.0
 10
192.6285761311447
 20
98.37646702916602
 30
0.0
 10
192.8367385169611
 20
98.38860492221777
 30
0.0
 10
192.9314305726856
 20
98.35876719472711
 30
0.0
 10
193.0394297515073
 20
98.24460715085962
 30
0.0
 10
193.0682101300981
 20
98.19604361922856
 30
0.0
 10
193.1086600565184
 20
98.07569168146814
 30
0.0
 10
193.1198970440566
 20
98.00362760820238
 30
0.0
 10
193.1220205429196
 20
97.84346226873922
 30
0.0
 10
193.1129009890552
 20
97.75289907334762
 30
0.0
 10
193.0762909574271
 20
97.56268372258003
 30
0.0
 10
193.0488614382329
 20
97.46214427537973
 30
0.0
 10
192.945364658816
 20
97.15298140630372
 30
0.0
 10
192.8495441931505
 20
96.94103075817281
 30
0.0
 10
192.6420372992712
 20
96.52644621805666
 30
0.0
  0
LINE
  5
103
330
1F
100
AcDbEntity
  8
0
  6
HIDDEN
 62
     7
370
     0
100
AcDbLine
 10
52.8210441607
 20
83.6149480466
 30
0.0
 11
52.8210441607
 21
77.1156147394
 31
0.0
  0
LINE
  5
104
330
1F
100
AcDbEntity
  8
0
  6
HIDDEN
 62
     7
370
     0
100
AcDbLine
 10
47.8210452038
 20
138.3549485628
 30
0.0
 11
47.8210452038
 21
144.7295554254
 31
0.0
  0
LINE
  5
105
330
1F
100
AcDbEntity
  8
0
  6
HIDDEN
 62
     7
370
     0
100
AcDbLine
 10
39.3710437256
 20
138.3549485628
 30
0.0
 11
39.3710437256
 21
143.2332329724
 31
0.0
  0
ARC
  5
106
330
1F
100
AcDbEntity
  8
0
  6
HIDDEN
 62
     7
370
     0
100
AcDbCircle
 10
174.5765321284
 20
96.7801119765
 30
0.0
 40
15.12517907597652
100
AcDbArc
 50
0.9569436103
 51
5.6808184334
  0
ARC
  5
107
330
1F
100
AcDbEntity
  8
0
  6
HIDDEN
 62
     7
370
     0
100
AcDbCircle
 10
209.6095895142
 20
96.7834044136
 30
0.0
 40
19.98591106407143
100
AcDbArc
 50
181.1098534201
 51
184.9957480446
  0
LINE
  5
108
330
1F
100
AcDbEntity
  8
0
  6
HIDDEN
 62
     7
370
     0
100
AcDbLine
 10
115.9210450041
 20
97.9849480365
 30
0.0
 11
115.9210450041
 21
123.9849485729
 31
0.0
  0
LINE
  5
109
330
1F
100
AcDbEntity
  8
0
  6
HIDDEN
 62
     7
370
     0
100
AcDbLine
 10
111.9210443484
 20
97.9849480365
 30
0.0
 11
111.9210443484
 21
123.9849485729
 31
0.0
  0
LINE
  5
10A
330
1F
100
AcDbEntity
  8
0
  6
HIDDEN
 62
     7
370
     0
100
AcDbLine
 10
188.6210481661
 20
98.5849479485
 30
0.0
 11
188.6210481661
 21
123.3849486608
 31
0.0
  0
SPLINE
  5
10B
330
1F
100
AcDbEntity
  8
0
  6
HIDDEN
 62
     7
370
     0
100
AcDbSpline
210
0.0
220
0.0
230
1.0
 70
     8
 71
     3
 72
    60
 73
    56
 74
     0
 42
0.00000001
 43
0.00000001
 40
-0.0624999999999998
 40
-0.0624999999999998
 40
0.0
 40
0.0
 40
0.0312500000000001
 40
0.0312500000000001
 40
0.0625000000000002
 40
0.0625000000000002
 40
0.0937500000000003
 40
0.0937500000000003
 40
0.1250000000000004
 40
0.1250000000000004
 40
0.1875000000000006
 40
0.1875000000000006
 40
0.2500000000000008
 40
0.2500000000000008
 40
0.2812500000000008
 40
0.2812500000000008
 40
0.3125000000000008
 40
0.3125000000000008
 40
0.3437500000000008
 40
0.3437500000000008
 40
0.3750000000000007
 40
0.3750000000000007
 40
0.4062500000000007
 40
0.4062500000000007
 40
0.4375000000000007
 40
0.4375000000000007
 40
0.4687500000000007
 40
0.4687500000000007
 40
0.5000000000000007
 40
0.5000000000000007
 40
0.5625000000000007
 40
0.5625000000000007
 40
0.5937500000000006
 40
0.5937500000000006
 40
0.6250000000000006
 40
0.6250000000000006
 40
0.6562500000000006
 40
0.6562500000000006
 40
0.6875000000000006
 40
0.6875000000000006
 40
0.7187500000000006
 40
0.7187500000000006
 40
0.7500000000000004
 40
0.7500000000000004
 40
0.7812500000000004
 40
0.7812500000000004
 40
0.8125000000000004
 40
0.8125000000000004
 40
0.8437500000000004
 40
0.8437500000000004
 40
0.8750000000000004
 40
0.8750000000000004
 40
0.9375000000000002
 40
0.9375000000000002
 40
1.0
 40
1.0
 40
1.03125
 40
1.03125
 10
191.3857386457947
 20
118.5105333977555
 30
0.0
 10
190.9886976512635
 20
118.5105333977555
 30
0.0
 10
190.8586034530815
 20
118.5211993223895
 30
0.0
 10
190.6027235660934
 20
118.5627928303863
 30
0.0
 10
190.4755967726082
 20
118.5942343687906
 30
0.0
 10
190.2334983331478
 20
118.6756258065248
 30
0.0
 10
190.118706290327
 20
118.7252024838451
 30
0.0
 10
189.901458310047
 20
118.8412696826369
 30
0.0
 10
189.7987562647992
 20
118.9082606475518
 30
0.0
 10
189.5225077250017
 20
119.1253586785791
 30
0.0
 10
189.3735593329586
 20
119.2973844808601
 30
0.0
 10
189.1739312148774
 20
119.6580019656307
 30
0.0
 10
189.1211936030946
 20
119.8503216386585
 30
0.0
 10
189.1209706579017
 20
120.127505190853
 30
0.0
 10
189.1340010673313
 20
120.2199144091072
 30
0.0
 10
189.1851081828746
 20
120.3958572217879
 30
0.0
 10
189.222919729089
 20
120.4800231688671
 30
0.0
 10
189.323246217749
 20
120.6411592508804
 30
0.0
 10
189.3857796599568
 20
120.7175728688176
 30
0.0
 10
189.5304257667695
 20
120.8573085507178
 30
0.0
 10
189.6132549486303
 20
120.9216510168034
 30
0.0
 10
189.7995215137823
 20
121.0387976520849
 30
0.0
 10
189.9002977816163
 20
121.0899948346247
 30
0.0
 10
190.1166619539706
 20
121.178999395613
 30
0.0
 10
190.2336709558784
 20
121.2171053976611
 30
0.0
 10
190.4756246285166
 20
121.2777315802256
 30
0.0
 10
190.6002802130155
 20
121.3004319492465
 30
0.0
 10
190.8569608219758
 20
121.3311195828978
 30
0.0
 10
190.9896494264516
 20
121.3389303065142
 30
0.0
 10
191.3815102532035
 20
121.3390206863727
 30
0.0
 10
191.6450640580249
 20
121.3079990448671
 30
0.0
 10
192.0062303888542
 20
121.2177287837437
 30
0.0
 10
192.1228058915256
 20
121.1799746234977
 30
0.0
 10
192.3410643194312
 20
121.0903955522598
 30
0.0
 10
192.4416604966674
 20
121.0392122184968
 30
0.0
 10
192.62619325565
 20
120.9234651229505
 30
0.0
 10
192.7106498211722
 20
120.8581734429816
 30
0.0
 10
192.8557581312531
 20
120.7182188312716
 30
0.0
 10
192.9173144511324
 20
120.6431986639962
 30
0.0
 10
193.0180822641509
 20
120.4821745782426
 30
0.0
 10
193.056651957579
 20
120.3966083308532
 30
0.0
 10
193.1077871165064
 20
120.2213284077591
 30
0.0
 10
193.1209342263858
 20
120.1305419799062
 30
0.0
 10
193.1211536940714
 20
119.9436362013388
 30
0.0
 10
193.1082868093272
 20
119.8502400718703
 30
0.0
 10
193.0575781002448
 20
119.6637083474261
 30
0.0
 10
193.0190772824899
 20
119.5695486512176
 30
0.0
 10
192.9189126705141
 20
119.3881923033823
 30
0.0
 10
192.8575841019077
 20
119.3008930350953
 30
0.0
 10
192.7125069829584
 20
119.1336590209982
 30
0.0
 10
192.6283173608456
 20
119.0537254785603
 30
0.0
 10
192.3523617162355
 20
118.8365905682476
 30
0.0
 10
192.1296452944283
 20
118.7165198418385
 30
0.0
 10
191.6486678609607
 20
118.5544274343489
 30
0.0
 10
191.3857386457947
 20
118.5105333977555
 30
0.0
 10
190.9886976512635
 20
118.5105333977555
 30
0.0
  0
LINE
  5
10C
330
1F
100
AcDbEntity
  8
0
  6
HIDDEN
 62
     7
370
     0
100
AcDbLine
 10
194.6210454243
 20
117.5993264925
 30
0.0
 11
194.6210454243
 21
123.4849484909
 31
0.0
  0
LINE
  5
10D
330
1F
100
AcDbEntity
  8
0
  6
HIDDEN
 62
     7
370
     0
100
AcDbLine
 10
194.6210454243
 20
117.5993264925
 30
0.0
 11
194.6210454243
 21
104.3705701169
 31
0.0
  0
LINE
  5
10E
330
1F
100
AcDbEntity
  8
0
  6
HIDDEN
 62
     7
370
     0
100
AcDbLine
 10
194.6210454243
 20
98.4849481184
 30
0.0
 11
194.6210454243
 21
104.3705701169
 31
0.0
  0
LINE
  5
10F
330
1F
100
AcDbEntity
  8
0
  6
HIDDEN
 62
     7
370
     0
100
AcDbLine
 10
100.8210445779
 20
99.7349478576
 30
0.0
 11
100.8210445779
 21
122.2349487517
 31
0.0
  0
ELLIPSE
  5
110
330
1F
100
AcDbEntity
  8
0
  6
HIDDEN
 62
     7
370
     0
100
AcDbEllipse
 10
31.4363714492
 20
110.9849483047
 30
0.0
 11
31.08108570811662
 21
1.421085471520200E-14
 31
0.0
210
0.0
220
0.0
230
1.0
 40
0.8164965809
 41
1.312649268214811
 42
1.367189972061496
  0
ELLIPSE
  5
111
330
1F
100
AcDbEntity
  8
0
  6
HIDDEN
 62
     7
370
     0
100
AcDbEllipse
 10
31.4363714492
 20
110.9849483047
 30
0.0
 11
31.08108570811662
 21
-1.421085471520200E-14
 31
0.0
210
0.0
220
0.0
230
1.0
 40
0.8164965809
 41
4.915995335118103
 42
4.970536038964787
  0
LINE
  5
112
330
1F
100
AcDbEntity
  8
0
  6
HIDDEN
 62
     7
370
     0
100
AcDbLine
 10
116.5710448312
 20
67.0849465106
 30
0.0
 11
102.5710443991
 21
67.0849465106
 31
0.0
  0
LINE
  5
113
330
1F
100
AcDbEntity
  8
0
  6
HIDDEN
 62
     7
370
     0
100
AcDbLine
 10
92.5710446226
 20
60.9949499641
 30
0.0
 11
92.5710446226
 21
67.0849465106
 31
0.0
  0
LINE
  5
114
330
1F
100
AcDbEntity
  8
0
  6
HIDDEN
 62
     7
370
     0
100
AcDbLine
 10
102.5710443991
 20
67.0849465106
 30
0.0
 11
92.5710446226
 21
67.0849465106
 31
0.0
  0
LINE
  5
115
330
1F
100
AcDbEntity
  8
0
  6
HIDDEN
 62
     7
370
     0
100
AcDbLine
 10
52.8210441607
 20
83.6149480466
 30
0.0
 11
52.8210441607
 21
85.7564349
 31
0.0
  0
LINE
  5
116
330
1F
100
AcDbEntity
  8
0
  6
HIDDEN
 62
     7
370
     0
100
AcDbLine
 10
39.3710437256
 20
83.6149480466
 30
0.0
 11
39.3710437256
 21
86.4482436601
 31
0.0
  0
LINE
  5
117
330
1F
100
AcDbEntity
  8
0
  6
HIDDEN
 62
     7
370
     0
100
AcDbLine
 10
47.8210452038
 20
138.3549485628
 30
0.0
 11
47.8210452038
 21
136.2134617094
 31
0.0
  0
LINE
  5
118
330
1F
100
AcDbEntity
  8
0
  6
HIDDEN
 62
     7
370
     0
100
AcDbLine
 10
39.3710437256
 20
138.3549485628
 30
0.0
 11
39.3710437256
 21
135.5216529492
 31
0.0
  0
LINE
  5
119
330
1F
100
AcDbEntity
  8
0
  6
HIDDEN
 62
     7
370
     0
100
AcDbLine
 10
102.5710443991
 20
154.8849500988
 30
0.0
 11
92.5710446226
 21
154.8849500988
 31
0.0
  0
LINE
  5
11A
330
1F
100
AcDbEntity
  8
0
  6
HIDDEN
 62
     7
370
     0
100
AcDbLine
 10
116.5710448312
 20
154.8849500988
 30
0.0
 11
102.5710443991
 21
154.8849500988
 31
0.0
  0
SPLINE
  5
11B
330
1F
100
AcDbEntity
  8
0
  6
HIDDEN
 62
     7
370
     0
100
AcDbSpline
210
0.0
220
0.0
230
1.0
 70
     8
 71
     3
 72
    30
 73
    26
 74
     0
 42
0.00000001
 43
0.00000001
 40
0.0
 40
0.0
 40
0.0
 40
0.0
 40
0.0531668092222932
 40
0.1125460501614373
 40
0.1779416100526559
 40
0.2129647193490347
 40
0.2495168829946399
 40
0.291281594791519
 40
0.3261230047183577
 40
0.354037410226392
 40
0.3750220942077882
 40
0.4414779742881669
 40
0.50019401892828
 40
0.5547072844293635
 40
0.6144497955833301
 40
0.6794734601005273
 40
0.714029508696254
 40
0.7499254801098526
 40
0.7913889087779838
 40
0.8260548760119653
 40
0.8539197517229926
 40
0.8749805351473914
 40
0.9411652371887487
 40
0.9999141600121284
 40
1.0
 40
1.0
 40
1.0
 40
1.0
 10
78.62062128509932
 20
73.88500946500382
 30
0.0
 10
78.60442000783817
 20
73.88991172582402
 30
0.0
 10
78.57012436756966
 20
73.90028906650411
 30
0.0
 10
78.26877773447202
 20
73.97595292955083
 30
0.0
 10
77.82660450056296
 20
74.07224173352147
 30
0.0
 10
77.33177306510392
 20
74.1719027525673
 30
0.0
 10
76.86129690374916
 20
74.26418334773635
 30
0.0
 10
76.33037541625181
 20
74.35981326035267
 30
0.0
 10
75.79222477866726
 20
74.44546284134125
 30
0.0
 10
75.33417784526543
 20
74.51275705966603
 30
0.0
 10
74.67861303181387
 20
74.60109986008115
 30
0.0
 10
73.7953071881248
 20
74.69776410900053
 30
0.0
 10
72.66664482548224
 20
74.78453563041828
 30
0.0
 10
71.57688329178718
 20
74.82261683639655
 30
0.0
 10
70.48085510714714
 20
74.8244675917401
 30
0.0
 10
69.575463866138
 20
74.79830573980995
 30
0.0
 10
68.87916039870007
 20
74.76169950263125
 30
0.0
 10
68.35248279990077
 20
74.72268096215139
 30
0.0
 10
67.885834079843
 20
74.68047269581572
 30
0.0
 10
67.51462166119863
 20
74.6434682918731
 30
0.0
 10
67.260571703736
 20
74.61476702890458
 30
0.0
 10
66.95952408975586
 20
74.57838661835922
 30
0.0
 10
66.70399029078551
 20
74.5455898213288
 30
0.0
 10
66.60489237949658
 20
74.52930312737084
 30
0.0
 10
66.62109393763116
 20
74.53186141459437
 30
0.0
 10
66.62111757572346
 20
74.53186514713845
 30
0.0
  0
SPLINE
  5
11C
330
1F
100
AcDbEntity
  8
0
  6
HIDDEN
 62
     7
370
     0
100
AcDbSpline
210
0.0
220
0.0
230
1.0
 70
     8
 71
     3
 72
    30
 73
    26
 74
     0
 42
0.00000001
 43
0.00000001
 40
0.0
 40
0.0
 40
0.0
 40
0.0
 40
0.0001123271729061
 40
0.0285431144201587
 40
0.058846671872024
 40
0.0910272010365222
 40
0.1250880900711492
 40
0.154676643496261
 40
0.1963554376465809
 40
0.2501101447428822
 40
0.3205254088833686
 40
0.3856104719625099
 40
0.4454038229087552
 40
0.4999571583174591
 40
0.5283494634940843
 40
0.5586340489829207
 40
0.5908186022576287
 40
0.6249094832439009
 40
0.6541844598448568
 40
0.6958630244341814
 40
0.7499307359804485
 40
0.821590521594074
 40
0.8871422885802382
 40
0.9466378679219078
 40
1.0
 40
1.0
 40
1.0
 40
1.0
 10
66.62113992746525
 20
147.4379606817015
 30
0.0
 10
66.62110814911932
 20
147.4379669116677
 30
0.0
 10
66.61303305081239
 20
147.439549989324
 30
0.0
 10
66.64166467489969
 20
147.434367510306
 30
0.0
 10
66.7150622920355
 20
147.4237094338043
 30
0.0
 10
66.8587171585851
 20
147.4040579243187
 30
0.0
 10
67.05975258062965
 20
147.3792076111787
 30
0.0
 10
67.34238474456956
 20
147.3449996289599
 30
0.0
 10
67.75579211899371
 20
147.3013246840299
 30
0.0
 10
68.4320800397077
 20
147.2382801512543
 30
0.0
 10
69.37051166901608
 20
147.1769804393269
 30
0.0
 10
70.48000440679532
 20
147.1456905473657
 30
0.0
 10
71.57748481122945
 20
147.147352449472
 30
0.0
 10
72.47751633981996
 20
147.1786492753828
 30
0.0
 10
73.18885707210356
 20
147.2254912339804
 30
0.0
 10
73.75427466627121
 20
147.2726505753714
 30
0.0
 10
74.3431972040094
 20
147.3320976619283
 30
0.0
 10
74.90760730242009
 20
147.3984486229539
 30
0.0
 10
75.50180359067285
 20
147.4803690834529
 30
0.0
 10
76.16841093691527
 20
147.5820212066087
 30
0.0
 10
76.96974455703413
 20
147.7241541017182
 30
0.0
 10
77.72225442313982
 20
147.8753991131471
 30
0.0
 10
78.26754022451499
 20
147.9932550332583
 30
0.0
 10
78.57026174247325
 20
148.069478304645
 30
0.0
 10
78.60455283125508
 20
148.0799328031283
 30
0.0
 10
78.62076657142096
 20
148.0848759684809
 30
0.0
  0
LINE
  5
11D
330
1F
100
AcDbEntity
  8
0
  6
HIDDEN
 62
     7
370
     0
100
AcDbLine
 10
159.0710471409
 20
79.0622987125
 30
0.0
 11
154.0710444587
 21
79.0622987125
 31
0.0
  0
LINE
  5
11E
330
1F
100
AcDbEntity
  8
0
  6
HIDDEN
 62
     7
370
     0
100
AcDbLine
 10
156.5710420745
 20
142.9075978968
 30
0.0
 11
159.0710471409
 21
142.9075978968
 31
0.0
  0
LINE
  5
11F
330
1F
100
AcDbEntity
  8
0
  6
HIDDEN
 62
     7
370
     0
100
AcDbLine
 10
154.0710444587
 20
142.9075978968
 30
0.0
 11
156.5710420745
 21
142.9075978968
 31
0.0
  0
LINE
  5
120
330
1F
100
AcDbEntity
  8
0
  6
HIDDEN
 62
     7
370
     0
100
AcDbLine
 10
156.5710420745
 20
129.4849485431
 30
0.0
 11
159.0710471409
 21
129.4849485431
 31
0.0
  0
LINE
  5
121
330
1F
100
AcDbEntity
  8
0
  6
HIDDEN
 62
     7
370
     0
100
AcDbLine
 10
154.0710444587
 20
129.4849485431
 30
0.0
 11
156.5710420745
 21
129.4849485431
 31
0.0
  0
LINE
  5
122
330
1F
100
AcDbEntity
  8
0
  6
HIDDEN
 62
     7
370
     0
100
AcDbLine
 10
159.0710471409
 20
92.4849480663
 30
0.0
 11
154.0710444587
 21
92.4849480663
 31
0.0
  0
LWPOLYLINE
  5
123
330
1F
100
AcDbEntity
  8
0
  6
HIDDEN
 62
     7
370
     0
100
AcDbPolyline
 90
       15
 70
   128
 43
0.0
 10
192.8803364771
 20
126.860380945
 10
192.4050862926
 20
127.2720013086
 10
191.7485560315
 20
127.5305457685
 10
191.003423466
 20
127.5995102052
 10
190.2749056953
 20
127.4691585723
 10
189.6658430832
 20
127.1578938041
 10
189.2622302311
 20
126.7096612875
 10
189.1210417288
 20
126.1877443913
 10
189.2622302311
 20
125.6658265639
 10
189.6658430832
 20
125.2175940473
 10
190.2749056953
 20
124.9063302104
 10
191.003423466
 20
124.7759785775
 10
191.7485560315
 20
124.8449420828
 10
192.4050862926
 20
125.1034865428
 10
192.8803364771
 20
125.5151078377
  0
SPLINE
  5
124
330
1F
100
AcDbEntity
  8
0
  6
HIDDEN
 62
     7
370
     0
100
AcDbSpline
210
0.0
220
0.0
230
1.0
 70
     8
 71
     3
 72
    46
 73
    42
 74
     0
 42
0.00000001
 43
0.00000001
 40
0.0
 40
0.0
 40
0.0
 40
0.0
 40
0.0625000000000025
 40
0.0625000000000025
 40
0.125000000000005
 40
0.125000000000005
 40
0.156250000000006
 40
0.156250000000006
 40
0.1875000000000067
 40
0.1875000000000067
 40
0.2187500000000074
 40
0.2187500000000074
 40
0.250000000000008
 40
0.250000000000008
 40
0.3125000000000075
 40
0.3125000000000075
 40
0.375000000000007
 40
0.375000000000007
 40
0.4062500000000065
 40
0.4062500000000065
 40
0.4375000000000059
 40
0.4375000000000059
 40
0.5000000000000043
 40
0.5000000000000043
 40
0.5312500000000036
 40
0.5312500000000036
 40
0.5625000000000028
 40
0.5625000000000028
 40
0.6250000000000024
 40
0.6250000000000024
 40
0.687500000000002
 40
0.687500000000002
 40
0.7500000000000016
 40
0.7500000000000016
 40
0.8125000000000012
 40
0.8125000000000012
 40
0.8750000000000008
 40
0.8750000000000008
 40
0.9375000000000004
 40
0.9375000000000004
 40
1.0
 40
1.0
 40
1.0
 40
1.0
 10
192.8803401724877
 20
125.5151077710379
 30
0.0
 10
192.8037018978234
 20
125.346241795152
 30
0.0
 10
192.7175730914866
 20
125.1821951074369
 30
0.0
 10
192.5415271405374
 20
124.8559771343739
 30
0.0
 10
192.4519693083018
 20
124.6961136107802
 30
0.0
 10
192.3433837616519
 20
124.4622570812717
 30
0.0
 10
192.3115381343511
 20
124.384560540036
 30
0.0
 10
192.2663296946998
 20
124.2357583834453
 30
0.0
 10
192.2527914378886
 20
124.1626800110201
 30
0.0
 10
192.2500703062043
 20
124.0297011053029
 30
0.0
 10
192.2605812990144
 20
123.9686957401501
 30
0.0
 10
192.3006973536074
 20
123.8607420535505
 30
0.0
 10
192.3293906993575
 20
123.8147670436783
 30
0.0
 10
192.4306495272644
 20
123.69589385976
 30
0.0
 10
192.516379692998
 20
123.6432854121013
 30
0.0
 10
192.6869660382369
 20
123.5845021768295
 30
0.0
 10
192.7742204594173
 20
123.578423842582
 30
0.0
 10
192.8890414452654
 20
123.6077701431584
 30
0.0
 10
192.9250091496107
 20
123.6239185960654
 30
0.0
 10
192.9905611869808
 20
123.6708192648343
 30
0.0
 10
193.02004922845
 20
123.7018027244851
 30
0.0
 10
193.0924121305834
 20
123.8156844838394
 30
0.0
 10
193.1203260083796
 20
123.9233213295372
 30
0.0
 10
193.1213824031911
 20
124.1193838798822
 30
0.0
 10
193.1150756753811
 20
124.1918049117161
 30
0.0
 10
193.0900849931056
 20
124.3431736824157
 30
0.0
 10
193.0716044577393
 20
124.4221041450035
 30
0.0
 10
193.0001288713821
 20
124.6680962523275
 30
0.0
 10
192.9323857961373
 20
124.8390537160245
 30
0.0
 10
192.7778691124397
 20
125.17766099606
 30
0.0
 10
192.6925569177738
 20
125.3424138550732
 30
0.0
 10
192.5203239092485
 20
125.6701182306788
 30
0.0
 10
192.4351497871323
 20
125.828376201147
 30
0.0
 10
192.2992412011864
 20
126.1370894690114
 30
0.0
 10
192.2498542597811
 20
126.2915747329318
 30
0.0
 10
192.2528366877396
 20
126.5568346085993
 30
0.0
 10
192.3049699263583
 20
126.6619897138847
 30
0.0
 10
192.4489221441702
 20
126.8095203729311
 30
0.0
 10
192.5393048048786
 20
126.8551157664743
 30
0.0
 10
192.7150605799059
 20
126.8961638656344
 30
0.0
 10
192.8034744294865
 20
126.8920573344329
 30
0.0
 10
192.8803401724877
 20
126.8603804293391
 30
0.0
  0
SPLINE
  5
125
330
1F
100
AcDbEntity
  8
0
  6
HIDDEN
 62
     7
370
     0
100
AcDbSpline
210
0.0
220
0.0
230
1.0
 70
     8
 71
     3
 72
    16
 73
    12
 74
     0
 42
0.00000001
 43
0.00000001
 40
0.0
 40
0.0
 40
0.0
 40
0.0
 40
0.2500000000000068
 40
0.2500000000000068
 40
0.3750000000000063
 40
0.3750000000000063
 40
0.5000000000000059
 40
0.5000000000000059
 40
0.7500000000000029
 40
0.7500000000000029
 40
1.0
 40
1.0
 40
1.0
 40
1.0
 10
189.6274264947483
 20
123.6925944517481
 30
0.0
 10
189.7096603841243
 20
123.7140291845614
 30
0.0
 10
189.7910101389628
 20
123.7560032505558
 30
0.0
 10
189.8931899336118
 20
123.8569989448178
 30
0.0
 10
189.9229958127442
 20
123.8965854989974
 30
0.0
 10
189.9683303219475
 20
123.9889551362266
 30
0.0
 10
189.9837298303041
 20
124.0427457430531
 30
0.0
 10
189.9989512686073
 20
124.2173523036287
 30
0.0
 10
189.9661512918524
 20
124.3558390644229
 30
0.0
 10
189.8546576192508
 20
124.6390986726361
 30
0.0
 10
189.7785050380586
 20
124.7865409782638
 30
0.0
 10
189.6996015196652
 20
124.9371781871316
 30
0.0
  0
SPLINE
  5
126
330
1F
100
AcDbEntity
  8
0
  6
HIDDEN
 62
     7
370
     0
100
AcDbSpline
210
0.0
220
0.0
230
1.0
 70
     8
 71
     3
 72
    28
 73
    24
 74
     0
 42
0.00000001
 43
0.00000001
 40
0.0
 40
0.0
 40
0.0
 40
0.0
 40
0.0624999999999994
 40
0.0624999999999994
 40
0.1249999999999989
 40
0.1249999999999989
 40
0.1874999999999983
 40
0.1874999999999983
 40
0.2499999999999978
 40
0.2499999999999978
 40
0.374999999999997
 40
0.374999999999997
 40
0.4999999999999962
 40
0.4999999999999962
 40
0.6249999999999954
 40
0.6249999999999954
 40
0.7499999999999947
 40
0.7499999999999947
 40
0.8124999999999963
 40
0.8124999999999963
 40
0.874999999999998
 40
0.874999999999998
 40
1.0
 40
1.0
 40
1.0
 40
1.0
 10
189.6996015196652
 20
124.9371781871316
 30
0.0
 10
189.6641583058079
 20
124.9291728839562
 30
0.0
 10
189.6285672838377
 20
124.9251316725428
 30
0.0
 10
189.5562589986425
 20
124.9295239832903
 30
0.0
 10
189.5189806196873
 20
124.938268259008
 30
0.0
 10
189.445954373415
 20
124.975044603738
 30
0.0
 10
189.4093649558035
 20
125.0039966116531
 30
0.0
 10
189.3421828625018
 20
125.0806279532707
 30
0.0
 10
189.3114154749601
 20
125.1280082154395
 30
0.0
 10
189.2300491464309
 20
125.2827074613963
 30
0.0
 10
189.1903682904262
 20
125.3986451334792
 30
0.0
 10
189.1355049345658
 20
125.6240174556468
 30
0.0
 10
189.1210428018324
 20
125.7347189999465
 30
0.0
 10
189.1210464974133
 20
125.9282749371625
 30
0.0
 10
189.1355457189877
 20
126.0134621959854
 30
0.0
 10
189.1903559460631
 20
126.1610162251194
 30
0.0
 10
189.2299987712963
 20
126.2238286563281
 30
0.0
 10
189.3113057915548
 20
126.3361155134747
 30
0.0
 10
189.3420398283661
 20
126.3768852935351
 30
0.0
 10
189.4087463070815
 20
126.4693344625623
 30
0.0
 10
189.4455725861066
 20
126.5224701223488
 30
0.0
 10
189.5548337331469
 20
126.6881721930348
 30
0.0
 10
189.6284570319409
 20
126.8091824496767
 30
0.0
 10
189.6996015196644
 20
126.926901498959
 30
0.0
  0
SPLINE
  5
127
330
1F
100
AcDbEntity
  8
0
  6
HIDDEN
 62
     7
370
     0
100
AcDbSpline
210
0.0
220
0.0
230
1.0
 70
     8
 71
     3
 72
    18
 73
    14
 74
     0
 42
0.00000001
 43
0.00000001
 40
0.0
 40
0.0
 40
0.0
 40
0.0
 40
0.2499999999999984
 40
0.2499999999999984
 40
0.3749999999999974
 40
0.3749999999999974
 40
0.4999999999999979
 40
0.4999999999999979
 40
0.6249999999999984
 40
0.6249999999999984
 40
0.7499999999999989
 40
0.7499999999999989
 40
1.0
 40
1.0
 40
1.0
 40
1.0
 10
189.6996015196652
 20
126.9269014989587
 30
0.0
 10
189.778472045116
 20
126.8890162793716
 30
0.0
 10
189.8537883250676
 20
126.8315840880828
 30
0.0
 10
189.9382332089818
 20
126.7081788573463
 30
0.0
 10
189.9607131227984
 20
126.6615556357192
 30
0.0
 10
189.9888120856794
 20
126.5553062804311
 30
0.0
 10
189.9938754754205
 20
126.4954640272916
 30
0.0
 10
189.9837154182427
 20
126.3693002837419
 30
0.0
 10
189.9684716144427
 20
126.30116378547
 30
0.0
 10
189.9230259168459
 20
126.161781735521
 30
0.0
 10
189.8933867941346
 20
126.0910087296016
 30
0.0
 10
189.7920542920228
 20
125.8740902956162
 30
0.0
 10
189.7096472127537
 20
125.7256133827886
 30
0.0
 10
189.6274264947484
 20
125.5736073746034
 30
0.0
  0
SPLINE
  5
128
330
1F
100
AcDbEntity
  8
0
  6
HIDDEN
 62
     7
370
     0
100
AcDbSpline
210
0.0
220
0.0
230
1.0
 70
     8
 71
     3
 72
    28
 73
    24
 74
     0
 42
0.00000001
 43
0.00000001
 40
0.0
 40
0.0
 40
0.0
 40
0.0
 40
0.062500000000002
 40
0.062500000000002
 40
0.1250000000000041
 40
0.1250000000000041
 40
0.1875000000000061
 40
0.1875000000000061
 40
0.2500000000000081
 40
0.2500000000000081
 40
0.3750000000000072
 40
0.3750000000000072
 40
0.5000000000000062
 40
0.5000000000000062
 40
0.6250000000000052
 40
0.6250000000000052
 40
0.7500000000000043
 40
0.7500000000000043
 40
0.8125000000000028
 40
0.8125000000000028
 40
0.8750000000000012
 40
0.8750000000000012
 40
1.0
 40
1.0
 40
1.0
 40
1.0
 10
189.6274264947482
 20
125.5736073746033
 30
0.0
 10
189.5969108161476
 20
125.5814168239086
 30
0.0
 10
189.5661354049208
 20
125.5854333620828
 30
0.0
 10
189.5034012418604
 20
125.5817057817845
 30
0.0
 10
189.4709699940647
 20
125.5736432128394
 30
0.0
 10
189.407430654957
 20
125.5403594051182
 30
0.0
 10
189.3757341696562
 20
125.5145850286677
 30
0.0
 10
189.3167827019592
 20
125.4467934192069
 30
0.0
 10
189.289853598018
 20
125.4055989069249
 30
0.0
 10
189.2174403875506
 20
125.2692618553447
 30
0.0
 10
189.1818786762433
 20
125.1665650606163
 30
0.0
 10
189.1334293116831
 20
124.9651085873659
 30
0.0
 10
189.1210306496828
 20
124.8653353914062
 30
0.0
 10
189.1210586735772
 20
124.685870186809
 30
0.0
 10
189.1330316051703
 20
124.6048633988303
 30
0.0
 10
189.1812267258713
 20
124.4527167839733
 30
0.0
 10
189.2169635462772
 20
124.3836093247803
 30
0.0
 10
189.2885072320126
 20
124.2667457924982
 30
0.0
 10
189.3158951771822
 20
124.2244653059713
 30
0.0
 10
189.3744456095058
 20
124.1324474147114
 30
0.0
 10
189.4060113600288
 20
124.0818861257115
 30
0.0
 10
189.5023503900569
 20
123.9207704201209
 30
0.0
 10
189.5660082131042
 20
123.8058507333465
 30
0.0
 10
189.6274264947483
 20
123.6925944517482
 30
0.0
  0
LWPOLYLINE
  5
129
330
1F
100
AcDbEntity
  8
0
  6
HIDDEN
 62
     7
370
     0
100
AcDbPolyline
 90
       28
 70
   128
 43
0.0
 10
96.621044262
 20
156.2976546858
 10
97.7741240549
 20
156.2560059402
 10
98.8650408598
 20
156.1333060537
 10
99.8349825877
 20
155.9361711416
 10
100.6316610637
 20
155.6752294574
 10
101.2121255534
 20
155.3645476971
 10
101.5450836184
 20
155.0208710406
 10
101.6125858786
 20
154.6627290819
 10
101.4109917941
 20
154.3094337259
 10
100.951171762
 20
153.9800249312
 10
100.2579129326
 20
153.6922686074
 10
99.3685892808
 20
153.4616694126
 10
98.3311452928
 20
153.3006660912
 10
97.2015096831
 20
153.217931119
 10
96.0405797723
 20
153.217931119
 10
94.9109441626
 20
153.3006660912
 10
93.8734997089
 20
153.4616694126
 10
92.9841765228
 20
153.6922686074
 10
92.2909176933
 20
153.9800249312
 10
91.8310971956
 20
154.3094337259
 10
91.6295040424
 20
154.6627290819
 10
91.6970058369
 20
155.0208710406
 10
92.0299639019
 20
155.3645476971
 10
92.6104288573
 20
155.6752294574
 10
93.407106402
 20
155.9361711416
 10
94.3770485955
 20
156.1333060537
 10
95.4679654005
 20
156.2560059402
 10
96.621044262
 20
156.2976546858
  0
LINE
  5
12A
330
1F
100
AcDbEntity
  8
0
  6
HIDDEN
 62
     7
370
     0
100
AcDbLine
 10
109.5310452419
 20
145.6991851602
 30
0.0
 11
109.5310452419
 21
142.3349499974
 31
0.0
  0
LINE
  5
12B
330
1F
100
AcDbEntity
  8
0
  6
HIDDEN
 62
     7
370
     0
100
AcDbLine
 10
110.8830741632
 20
149.9359093879
 30
0.0
 11
110.8830741632
 21
142.3349499974
 31
0.0
  0
LINE
  5
12C
330
1F
100
AcDbEntity
  8
0
  6
HIDDEN
 62
     7
370
     0
100
AcDbLine
 10
105.7110450255
 20
145.6991851602
 30
0.0
 11
105.7110450255
 21
142.3349499974
 31
0.0
  0
SPLINE
  5
12D
330
1F
100
AcDbEntity
  8
0
  6
HIDDEN
 62
     7
370
     0
100
AcDbSpline
210
0.0
220
0.0
230
1.0
 70
     8
 71
     3
 72
    16
 73
    12
 74
     0
 42
0.00000001
 43
0.00000001
 40
0.0
 40
0.0
 40
0.0
 40
0.0
 40
0.25
 40
0.25
 40
0.5
 40
0.5
 40
0.75
 40
0.75
 40
0.875
 40
0.875
 40
1.0
 40
1.0
 40
1.0
 40
1.0
 10
192.8803401724876
 20
126.8603804293392
 30
0.0
 10
192.778815143304
 20
126.838644462001
 30
0.0
 10
192.7028267151634
 20
126.7933459158225
 30
0.0
 10
192.6150118335775
 20
126.6401091847711
 30
0.0
 10
192.599962352076
 20
126.53464316058
 30
0.0
 10
192.6001072262015
 20
126.2819614338655
 30
0.0
 10
192.6157506131397
 20
126.1323665024984
 30
0.0
 10
192.6807545911975
 20
125.9001484457509
 30
0.0
 10
192.7103319572274
 20
125.8197790671509
 30
0.0
 10
192.7847784988175
 20
125.6637735078422
 30
0.0
 10
192.8292854061804
 20
125.5882181913161
 30
0.0
 10
192.8803401724877
 20
125.5151077710379
 30
0.0
  0
ARC
  5
12E
330
1F
100
AcDbEntity
  8
0
  6
HIDDEN
 62
     7
370
     0
100
AcDbCircle
 10
209.6095895142
 20
125.1864921957
 30
0.0
 40
19.9859110640714
100
AcDbArc
 50
175.0042519554
 51
178.8901465799
  0
ARC
  5
12F
330
1F
100
AcDbEntity
  8
0
  6
HIDDEN
 62
     7
370
     0
100
AcDbCircle
 10
174.5765321284
 20
125.1897846328
 30
0.0
 40
15.12517907597658
100
AcDbArc
 50
354.3191815666
 51
359.0430563897
  0
SPLINE
  5
130
330
1F
100
AcDbEntity
  8
0
  6
HIDDEN
 62
     7
370
     0
100
AcDbSpline
210
0.0
220
0.0
230
1.0
 70
     8
 71
     3
 72
    10
 73
     6
 74
     0
 42
0.00000001
 43
0.00000001
 40
0.0
 40
0.0
 40
0.0
 40
0.0
 40
0.5
 40
0.5
 40
1.0
 40
1.0
 40
1.0
 40
1.0
 10
189.7237472383214
 20
126.8866762844212
 30
0.0
 10
189.6855230232979
 20
126.7495117498419
 30
0.0
 10
189.6661650786129
 20
126.5959620019638
 30
0.0
 10
189.6660164217735
 20
126.2446984090133
 30
0.0
 10
189.6854874236465
 20
126.0505671739239
 30
0.0
 10
189.7237472383214
 20
125.8465077487321
 30
0.0
  0
SPLINE
  5
131
330
1F
100
AcDbEntity
  8
0
  6
HIDDEN
 62
     7
370
     0
100
AcDbSpline
210
0.0
220
0.0
230
1.0
 70
     8
 71
     3
 72
    14
 73
    10
 74
     0
 42
0.00000001
 43
0.00000001
 40
0.0
 40
0.0
 40
0.0
 40
0.0
 40
0.25
 40
0.25
 40
0.5
 40
0.5
 40
0.75
 40
0.75
 40
1.0
 40
1.0
 40
1.0
 40
1.0
 10
189.7237472383214
 20
125.8465077487321
 30
0.0
 10
189.7655323428225
 20
125.9610456581941
 30
0.0
 10
189.7903721055995
 20
126.0772865875203
 30
0.0
 10
189.8188129916483
 20
126.2941575559002
 30
0.0
 10
189.823629343848
 20
126.3962190842335
 30
0.0
 10
189.823579906539
 20
126.5774826284627
 30
0.0
 10
189.8186283270261
 20
126.6584742548131
 30
0.0
 10
189.7902969155825
 20
126.7921087926263
 30
0.0
 10
189.765755506469
 20
126.8465672610371
 30
0.0
 10
189.7237472383214
 20
126.8866762844212
 30
0.0
  0
ARC
  5
132
330
1F
100
AcDbEntity
  8
0
  6
HIDDEN
 62
     7
370
     0
100
AcDbCircle
 10
170.8986704751
 20
126.3665918533
 30
0.0
 40
18.83226138111954
100
AcDbArc
 50
358.4174810586
 51
1.5825189414
  0
CIRCLE
  5
133
330
1F
100
AcDbEntity
  8
0
  6
HIDDEN
 62
     7
370
     0
100
AcDbCircle
 10
94.6210446494
 20
110.9849483047
 30
0.0
 40
5.000000000000014
  0
LWPOLYLINE
  5
134
330
1F
100
AcDbEntity
  8
0
  6
HIDDEN
 62
     7
370
     0
100
AcDbPolyline
 90
        3
 70
   128
 43
0.0
 10
247.5817914146
 20
122.5755194474
 10
247.6059759992
 20
123.0975052614
 10
247.6210410732
 20
123.5283062134
  0
LWPOLYLINE
  5
135
330
1F
100
AcDbEntity
  8
0
  6
HIDDEN
 62
     7
370
     0
100
AcDbPolyline
 90
       12
 70
   128
 43
0.0
 10
247.6210410732
 20
125.3127388928
 10
247.6059759992
 20
125.2010714535
 10
247.5817914146
 20
124.852402908
 10
247.5575919288
 20
124.330417094
 10
247.537087931
 20
123.7145819042
 10
247.5233937639
 20
123.0986517195
 10
247.5185806888
 20
122.5763967533
 10
247.5233937639
 20
122.2273258764
 10
247.537087931
 20
122.1045812864
 10
247.5575919288
 20
122.2268509019
 10
247.5817914146
 20
122.5755194474
 10
247.5817914146
 20
122.5755194474
  0
LWPOLYLINE
  5
136
330
1F
100
AcDbEntity
  8
0
  6
HIDDEN
 62
     7
370
     0
100
AcDbPolyline
 90
       18
 70
   128
 43
0.0
 10
247.3567987817
 20
122.3059984196
 10
247.3851556915
 20
122.9119764913
 10
247.4096830028
 20
123.6271102253
 10
247.4270726579
 20
124.3548186768
 10
247.4349702733
 20
124.9968203057
 10
247.4323178666
 20
125.466408049
 10
247.4194581645
 20
125.7001625646
 10
247.3981197017
 20
125.66651388
 10
247.3712231057
 20
125.3700068493
 10
247.3423595565
 20
124.8506855492
 10
247.3154629606
 20
124.1786869515
 10
247.2941244977
 20
123.4447693724
 10
247.2812647956
 20
122.748051611
 10
247.2786123889
 20
122.1826298434
 10
247.2865100044
 20
121.824866933
 10
247.3038996595
 20
121.7230808262
 10
247.3284269708
 20
121.8910178442
 10
247.3567987817
 20
122.3059984196
  0
LWPOLYLINE
  5
137
330
1F
100
AcDbEntity
  8
0
  6
HIDDEN
 62
     7
370
     0
100
AcDbPolyline
 90
       18
 70
   128
 43
0.0
 10
240.3373683828
 20
122.5010136414
 10
240.3657401937
 20
123.1069917131
 10
240.390267505
 20
123.8221263785
 10
240.4076571601
 20
124.5498338986
 10
240.4155547756
 20
125.1918355275
 10
240.4129023689
 20
125.6614232708
 10
240.4000277656
 20
125.8951787178
 10
240.3787042039
 20
125.8615300331
 10
240.351807608
 20
125.5650220711
 10
240.3229440587
 20
125.045700771
 10
240.2960325616
 20
124.3737021733
 10
240.274709
 20
123.6397845943
 10
240.2618492978
 20
122.9430668328
 10
240.2591968911
 20
122.3776450653
 10
240.2670796054
 20
122.0198821548
 10
240.2844692605
 20
121.918096048
 10
240.309011473
 20
122.0860339973
 10
240.3373683828
 20
122.5010136414
  0
LWPOLYLINE
  5
138
330
1F
100
AcDbEntity
  8
0
  6
HIDDEN
 62
     7
370
     0
100
AcDbPolyline
 90
       17
 70
   128
 43
0.0
 10
239.587959184
 20
123.0521647532
 10
239.6067346471
 20
123.4574334968
 10
239.6226490873
 20
123.9355661247
 10
239.6332885164
 20
124.4137732584
 10
239.6370287078
 20
124.8192506183
 10
239.6332885164
 20
125.0902682815
 10
239.6226490873
 20
125.1855658639
 10
239.6067346471
 20
125.0906370852
 10
239.587959184
 20
124.8199314151
 10
239.5691688197
 20
124.4146636028
 10
239.5532543796
 20
123.9365300436
 10
239.5426149505
 20
123.4583238412
 10
239.538874759
 20
123.0528464813
 10
239.5426149505
 20
122.7818278868
 10
239.5532543796
 20
122.6865303043
 10
239.5691688197
 20
122.781459083
 10
239.587959184
 20
123.0521647532
  0
LINE
  5
139
330
1F
100
AcDbEntity
  8
0
  6
HIDDEN
 62
     7
370
     0
100
AcDbLine
 10
247.6210410732
 20
124.8287705977
 30
0.0
 11
247.5817914146
 21
124.5304577325
 31
0.0
  0
LINE
  5
13A
330
1F
100
AcDbEntity
  8
0
  6
HIDDEN
 62
     7
370
     0
100
AcDbLine
 10
247.5425268548
 20
123.4156478468
 30
0.0
 11
247.5817914146
 21
124.5304577325
 31
0.0
  0
LINE
  5
13B
330
1F
100
AcDbEntity
  8
0
  6
HIDDEN
 62
     7
370
     0
100
AcDbLine
 10
247.5425268548
 20
122.5991508264
 30
0.0
 11
247.5425268548
 21
123.4156478468
 31
0.0
  0
LINE
  5
13C
330
1F
100
AcDbEntity
  8
0
  6
HIDDEN
 62
     7
370
     0
100
AcDbLine
 10
247.5425268548
 20
122.5991508264
 30
0.0
 11
247.5817914146
 21
122.8974646229
 31
0.0
  0
LINE
  5
13D
330
1F
100
AcDbEntity
  8
0
  6
HIDDEN
 62
     7
370
     0
100
AcDbLine
 10
247.6210410732
 20
124.0122745086
 30
0.0
 11
247.5817914146
 21
122.8974646229
 31
0.0
  0
LINE
  5
13E
330
1F
100
AcDbEntity
  8
0
  6
HIDDEN
 62
     7
370
     0
100
AcDbLine
 10
245.0444514888
 20
122.6685529847
 30
0.0
 11
245.0837160486
 21
122.9668667812
 31
0.0
  0
LINE
  5
13F
330
1F
100
AcDbEntity
  8
0
  6
HIDDEN
 62
     7
370
     0
100
AcDbLine
 10
245.0444514888
 20
122.6685529847
 30
0.0
 11
245.0444514888
 21
123.4850500051
 31
0.0
  0
LINE
  5
140
330
1F
100
AcDbEntity
  8
0
  6
HIDDEN
 62
     7
370
     0
100
AcDbLine
 10
245.1229657071
 20
124.8981727559
 30
0.0
 11
245.0837160486
 21
124.5998598907
 31
0.0
  0
LINE
  5
141
330
1F
100
AcDbEntity
  8
0
  6
HIDDEN
 62
     7
370
     0
100
AcDbLine
 10
245.1229657071
 20
124.0816766668
 30
0.0
 11
245.1229657071
 21
124.8981727559
 31
0.0
  0
LINE
  5
142
330
1F
100
AcDbEntity
  8
0
  6
HIDDEN
 62
     7
370
     0
100
AcDbLine
 10
245.1229657071
 20
124.0816766668
 30
0.0
 11
245.0837160486
 21
122.9668667812
 31
0.0
  0
LINE
  5
143
330
1F
100
AcDbEntity
  8
0
  6
HIDDEN
 62
     7
370
     0
100
AcDbLine
 10
245.0444514888
 20
123.4850500051
 30
0.0
 11
245.0837160486
 21
124.5998598907
 31
0.0
  0
LINE
  5
144
330
1F
100
AcDbEntity
  8
0
  6
HIDDEN
 62
     7
370
     0
100
AcDbLine
 10
245.0444514888
 20
123.4850500051
 30
0.0
 11
247.5425268548
 21
123.4156478468
 31
0.0
  0
LINE
  5
145
330
1F
100
AcDbEntity
  8
0
  6
HIDDEN
 62
     7
370
     0
100
AcDbLine
 10
245.0837160486
 20
124.5998598907
 30
0.0
 11
247.5817914146
 21
124.5304577325
 31
0.0
  0
LINE
  5
146
330
1F
100
AcDbEntity
  8
0
  6
HIDDEN
 62
     7
370
     0
100
AcDbLine
 10
245.0837160486
 20
122.9668667812
 30
0.0
 11
247.5817914146
 21
122.8974646229
 31
0.0
  0
LINE
  5
147
330
1F
100
AcDbEntity
  8
0
  6
HIDDEN
 62
     7
370
     0
100
AcDbLine
 10
245.0444514888
 20
122.6685529847
 30
0.0
 11
247.5425268548
 21
122.5991508264
 31
0.0
  0
LINE
  5
148
330
1F
100
AcDbEntity
  8
0
  6
HIDDEN
 62
     7
370
     0
100
AcDbLine
 10
245.1229657071
 20
124.0816766668
 30
0.0
 11
247.6210410732
 21
124.0122745086
 31
0.0
  0
LINE
  5
149
330
1F
100
AcDbEntity
  8
0
  6
HIDDEN
 62
     7
370
     0
100
AcDbLine
 10
245.1229657071
 20
124.8981727559
 30
0.0
 11
247.6210410732
 21
124.8287705977
 31
0.0
  0
LWPOLYLINE
  5
14A
330
1F
100
AcDbEntity
  8
0
  6
HIDDEN
 62
     7
370
     0
100
AcDbPolyline
 90
       18
 70
   128
 43
0.0
 10
240.4158975023
 20
96.6426374663
 10
240.3875256913
 20
97.2486146066
 10
240.36299838
 20
97.963749272
 10
240.3456087249
 20
98.6914577235
 10
240.3377111095
 20
99.333458421
 10
240.3403784173
 20
99.8030470956
 10
240.3532381194
 20
100.0368016113
 10
240.3745616811
 20
100.0031529266
 10
240.4014731782
 20
99.7066449646
 10
240.4303218263
 20
99.1873236645
 10
240.4572333234
 20
98.5153259982
 10
240.4785568851
 20
97.7814074878
 10
240.4914165872
 20
97.0846906576
 10
240.494083895
 20
96.5192679588
 10
240.4861862796
 20
96.1615050484
 10
240.4687966245
 20
96.0597189415
 10
240.444254412
 20
96.2276568908
 10
240.4158975023
 20
96.6426374663
  0
LWPOLYLINE
  5
14B
330
1F
100
AcDbEntity
  8
0
  6
HIDDEN
 62
     7
370
     0
100
AcDbPolyline
 90
       17
 70
   128
 43
0.0
 10
239.6664734023
 20
97.1521463517
 10
239.6476979392
 20
97.5574150954
 10
239.6317685979
 20
98.0355477233
 10
239.6211291688
 20
98.513754857
 10
239.6174038785
 20
98.9192322169
 10
239.6211291688
 20
99.19024988
 10
239.6317685979
 20
99.2855483938
 10
239.6476979392
 20
99.1906186838
 10
239.6664734023
 20
98.9199130137
 10
239.6852488654
 20
98.5146452014
 10
239.7011782068
 20
98.0365116421
 10
239.7118176359
 20
97.5583054397
 10
239.7155429262
 20
97.1528280798
 10
239.7118176359
 20
96.8818104167
 10
239.7011782068
 20
96.7865119029
 10
239.6852488654
 20
96.8814416129
 10
239.6664734023
 20
97.1521463517
  0
LWPOLYLINE
  5
14C
330
1F
100
AcDbEntity
  8
0
  6
HIDDEN
 62
     7
370
     0
100
AcDbPolyline
 90
       18
 70
   128
 43
0.0
 10
247.435313
 20
96.8376526881
 10
247.4069411891
 20
97.4436298285
 10
247.3824138778
 20
98.1587644938
 10
247.3650242227
 20
98.8864729453
 10
247.3571266073
 20
99.5284736429
 10
247.3597939151
 20
99.9980623175
 10
247.3726536172
 20
100.2318168331
 10
247.3939771789
 20
100.1981681485
 10
247.420888676
 20
99.9016611178
 10
247.4497373241
 20
99.3823388863
 10
247.4766488212
 20
98.71034122
 10
247.4979723829
 20
97.9764236409
 10
247.510832085
 20
97.2797058795
 10
247.5134993928
 20
96.7142841119
 10
247.5056017774
 20
96.3565212015
 10
247.4882121223
 20
96.2547350947
 10
247.4636699098
 20
96.4226721127
 10
247.435313
 20
96.8376526881
  0
LWPOLYLINE
  5
14D
330
1F
100
AcDbEntity
  8
0
  6
HIDDEN
 62
     7
370
     0
100
AcDbPolyline
 90
        8
 70
   128
 43
0.0
 10
247.6603056329
 20
97.1196748588
 10
247.6361210483
 20
97.6416606728
 10
247.6156021493
 20
98.257496794
 10
247.6019079822
 20
98.8734260473
 10
247.5970949071
 20
99.3956810135
 10
247.6019079822
 20
99.7447518904
 10
247.6156021493
 20
99.8674964804
 10
247.6210410732
 20
99.8568952356
  0
LWPOLYLINE
  5
14E
330
1F
100
AcDbEntity
  8
0
  6
HIDDEN
 62
     7
370
     0
100
AcDbPolyline
 90
        4
 70
   128
 43
0.0
 10
247.7071101802
 20
96.6506608103
 10
247.7049942153
 20
96.6487376291
 10
247.6844902175
 20
96.7710072447
 10
247.6603056329
 20
97.1196748588
  0
LINE
  5
14F
330
1F
100
AcDbEntity
  8
0
  6
HIDDEN
 62
     7
370
     0
100
AcDbLine
 10
245.2014948266
 20
97.8904011
 30
0.0
 11
245.1622302669
 21
99.0052109856
 31
0.0
  0
LINE
  5
150
330
1F
100
AcDbEntity
  8
0
  6
HIDDEN
 62
     7
370
     0
100
AcDbLine
 10
247.6995701927
 20
97.9598032583
 30
0.0
 11
247.6603056329
 21
99.0746131439
 31
0.0
  0
LINE
  5
151
330
1F
100
AcDbEntity
  8
0
  6
HIDDEN
 62
     7
370
     0
100
AcDbLine
 10
245.2014948266
 20
97.8904011
 30
0.0
 11
247.6995701927
 21
97.9598032583
 31
0.0
  0
LINE
  5
152
330
1F
100
AcDbEntity
  8
0
  6
HIDDEN
 62
     7
370
     0
100
AcDbLine
 10
245.2014948266
 20
97.0739050109
 30
0.0
 11
245.2014948266
 21
97.8904011
 31
0.0
  0
LINE
  5
153
330
1F
100
AcDbEntity
  8
0
  6
HIDDEN
 62
     7
370
     0
100
AcDbLine
 10
247.6995701927
 20
97.1433071692
 30
0.0
 11
247.6995701927
 21
97.9598032583
 31
0.0
  0
LINE
  5
154
330
1F
100
AcDbEntity
  8
0
  6
HIDDEN
 62
     7
370
     0
100
AcDbLine
 10
245.1622302669
 20
99.0052109856
 30
0.0
 11
247.6603056329
 21
99.0746131439
 31
0.0
  0
LINE
  5
155
330
1F
100
AcDbEntity
  8
0
  6
HIDDEN
 62
     7
370
     0
100
AcDbLine
 10
245.1229657071
 20
99.3035247821
 30
0.0
 11
245.1622302669
 21
99.0052109856
 31
0.0
  0
LINE
  5
156
330
1F
100
AcDbEntity
  8
0
  6
HIDDEN
 62
     7
370
     0
100
AcDbLine
 10
247.6210410732
 20
99.3729269404
 30
0.0
 11
247.6603056329
 21
99.0746131439
 31
0.0
  0
LINE
  5
157
330
1F
100
AcDbEntity
  8
0
  6
HIDDEN
 62
     7
370
     0
100
AcDbLine
 10
245.1622302669
 20
97.3722178761
 30
0.0
 11
247.6603056329
 21
97.4416200344
 31
0.0
  0
LINE
  5
158
330
1F
100
AcDbEntity
  8
0
  6
HIDDEN
 62
     7
370
     0
100
AcDbLine
 10
245.2014948266
 20
97.0739050109
 30
0.0
 11
247.6995701927
 21
97.1433071692
 31
0.0
  0
LINE
  5
159
330
1F
100
AcDbEntity
  8
0
  6
HIDDEN
 62
     7
370
     0
100
AcDbLine
 10
245.2014948266
 20
97.0739050109
 30
0.0
 11
245.1622302669
 21
97.3722178761
 31
0.0
  0
LINE
  5
15A
330
1F
100
AcDbEntity
  8
0
  6
HIDDEN
 62
     7
370
     0
100
AcDbLine
 10
247.6995701927
 20
97.1433071692
 30
0.0
 11
247.6603056329
 21
97.4416200344
 31
0.0
  0
LINE
  5
15B
330
1F
100
AcDbEntity
  8
0
  6
HIDDEN
 62
     7
370
     0
100
AcDbLine
 10
245.1229657071
 20
98.4870277617
 30
0.0
 11
247.6210410732
 21
98.55642992
 31
0.0
  0
LINE
  5
15C
330
1F
100
AcDbEntity
  8
0
  6
HIDDEN
 62
     7
370
     0
100
AcDbLine
 10
245.1229657071
 20
99.3035247821
 30
0.0
 11
247.6210410732
 21
99.3729269404
 31
0.0
  0
LINE
  5
15D
330
1F
100
AcDbEntity
  8
0
  6
HIDDEN
 62
     7
370
     0
100
AcDbLine
 10
245.1229657071
 20
98.4870277617
 30
0.0
 11
245.1229657071
 21
99.3035247821
 31
0.0
  0
LINE
  5
15E
330
1F
100
AcDbEntity
  8
0
  6
HIDDEN
 62
     7
370
     0
100
AcDbLine
 10
245.1229657071
 20
98.4870277617
 30
0.0
 11
245.1622302669
 21
97.3722178761
 31
0.0
  0
LINE
  5
15F
330
1F
100
AcDbEntity
  8
0
  6
HIDDEN
 62
     7
370
     0
100
AcDbLine
 10
247.6210410732
 20
98.55642992
 30
0.0
 11
247.6603056329
 21
97.4416200344
 31
0.0
  0
ARC
  5
160
330
1F
100
AcDbEntity
  8
0
  6
HIDDEN
 62
     7
370
     0
100
AcDbCircle
 10
199.1210446494
 20
110.9849483047
 30
0.0
 40
8.000000000000002
100
AcDbArc
 50
229.9113408326
 51
253.1594190815
  0
ARC
  5
161
330
1F
100
AcDbEntity
  8
0
  6
HIDDEN
 62
     7
370
     0
100
AcDbCircle
 10
199.1210446494
 20
110.9849483047
 30
0.0
 40
7.999999999999996
100
AcDbArc
 50
271.1285970145
 51
207.9526567302
  0
ARC
  5
162
330
1F
100
AcDbEntity
  8
0
  6
HIDDEN
 62
     7
370
     0
100
AcDbCircle
 10
199.1210446494
 20
110.9849483047
 30
0.0
 40
9.00000000000001
100
AcDbArc
 50
210.422220264
 51
236.043137828
  0
LWPOLYLINE
  5
163
330
1F
100
AcDbEntity
  8
0
  6
HIDDEN
 62
     7
370
     0
100
AcDbPolyline
 90
        3
 70
   128
 43
0.0
 10
198.0912799972
 20
102.0440550793
 10
198.9326591628
 20
101.986920302
 10
199.2697904843
 20
101.9861771066
  0
ARC
  5
164
330
1F
100
AcDbEntity
  8
0
  6
HIDDEN
 62
     7
370
     0
100
AcDbCircle
 10
199.1210446494
 20
110.9849483047
 30
0.0
 40
9.000000000000007
100
AcDbArc
 50
114.0928081738
 51
210.422220264
  0
CIRCLE
  5
165
330
1F
100
AcDbEntity
  8
0
  6
HIDDEN
 62
     7
370
     0
100
AcDbCircle
 10
199.1210446494
 20
110.9849483047
 30
0.0
 40
4.499999999999996
  0
CIRCLE
  5
166
330
1F
100
AcDbEntity
  8
0
  6
HIDDEN
 62
     7
370
     0
100
AcDbCircle
 10
199.1210446494
 20
110.9849483047
 30
0.0
 40
6.00000000000001
  0
ARC
  5
167
330
1F
100
AcDbEntity
  8
0
  6
HIDDEN
 62
     7
370
     0
100
AcDbCircle
 10
224.1210446494
 20
110.9849483047
 30
0.0
 40
8.000000000000028
100
AcDbArc
 50
278.3802948521
 51
215.521412876
  0
ARC
  5
168
330
1F
100
AcDbEntity
  8
0
  6
HIDDEN
 62
     7
370
     0
100
AcDbCircle
 10
224.1210446494
 20
110.9849483047
 30
0.0
 40
9.000000000000014
100
AcDbArc
 50
218.1483526908
 51
244.8273704126
  0
LWPOLYLINE
  5
169
330
1F
100
AcDbEntity
  8
0
  6
HIDDEN
 62
     7
370
     0
100
AcDbPolyline
 90
        3
 70
   128
 43
0.0
 10
222.4942262309
 20
102.1331994135
 10
223.6181761163
 20
101.9990079377
 10
224.4729961294
 20
101.9918330286
  0
ARC
  5
16A
330
1F
100
AcDbEntity
  8
0
  6
HIDDEN
 62
     7
370
     0
100
AcDbCircle
 10
224.1210446494
 20
110.9849483047
 30
0.0
 40
9.0
100
AcDbArc
 50
113.294074791
 51
218.1483526908
  0
CIRCLE
  5
16B
330
1F
100
AcDbEntity
  8
0
  6
HIDDEN
 62
     7
370
     0
100
AcDbCircle
 10
224.1210446494
 20
110.9849483047
 30
0.0
 40
4.49999999999999
  0
CIRCLE
  5
16C
330
1F
100
AcDbEntity
  8
0
  6
HIDDEN
 62
     7
370
     0
100
AcDbCircle
 10
224.1210446494
 20
110.9849483047
 30
0.0
 40
5.999999999999987
  0
LINE
  5
16D
330
1F
100
AcDbEntity
  8
0
  6
HIDDEN
 62
     7
370
     0
100
AcDbLine
 10
87.6210446494
 20
71.5802654896
 30
0.0
 11
87.7106462703
 21
72.2178153966
 31
0.0
  0
LINE
  5
16E
330
1F
100
AcDbEntity
  8
0
  6
HIDDEN
 62
     7
370
     0
100
AcDbLine
 10
87.7106462703
 20
149.7520812128
 30
0.0
 11
87.6210446494
 21
150.3896311198
 31
0.0
  0
ARC
  5
16F
330
1F
100
AcDbEntity
  8
0
  6
HIDDEN
 62
     7
370
     0
100
AcDbCircle
 10
86.724107731
 20
72.3564629802
 30
0.0
 40
0.9962338214386932
100
AcDbArc
 50
352.0
 51
0.0
  0
ARC
  5
170
330
1F
100
AcDbEntity
  8
0
  6
HIDDEN
 62
     7
370
     0
100
AcDbCircle
 10
86.724107731
 20
72.3564629802
 30
0.0
 40
0.9962338214386932
100
AcDbArc
 50
0.0
 51
25.7988228126
  0
ARC
  5
171
330
1F
100
AcDbEntity
  8
0
  6
HIDDEN
 62
     7
370
     0
100
AcDbCircle
 10
86.724107731
 20
149.6134336291
 30
0.0
 40
0.9962338214386882
100
AcDbArc
 50
348.75
 51
8.0
  0
LWPOLYLINE
  5
172
330
1F
100
AcDbEntity
  8
0
  6
HIDDEN
 62
     7
370
     0
100
AcDbPolyline
 90
        3
 70
   128
 43
0.0
 10
87.701199196
 20
149.419077513
 10
87.6445077683
 20
149.2321908746
 10
87.6210446494
 20
149.1798617218
  0
LINE
  5
173
330
1F
100
AcDbEntity
  8
0
  6
HIDDEN
 62
     7
370
     0
100
AcDbLine
 10
87.7203415493
 20
72.3564632509
 30
0.0
 11
87.7203415493
 21
149.6134333585
 31
0.0
  0
ARC
  5
174
330
1F
100
AcDbEntity
  8
0
  6
HIDDEN
 62
     7
370
     0
100
AcDbCircle
 10
77.8742503046
 20
91.4849483047
 30
0.0
 40
11.99999999999999
100
AcDbArc
 50
273.177068164
 51
324.3146652873
  0
ARC
  5
175
330
1F
100
AcDbEntity
  8
0
  6
HIDDEN
 62
     7
370
     0
100
AcDbCircle
 10
77.8742503046
 20
130.4849483047
 30
0.0
 40
12.00000000000001
100
AcDbArc
 50
35.6853347127
 51
86.821131779
  0
ARC
  5
176
330
1F
100
AcDbEntity
  8
0
  6
HIDDEN
 62
     7
370
     0
100
AcDbCircle
 10
61.0817705916
 20
80.4849483047
 30
0.0
 40
1.000000000000008
100
AcDbArc
 50
210.0
 51
270.0
  0
ARC
  5
177
330
1F
100
AcDbEntity
  8
0
  6
HIDDEN
 62
     7
370
     0
100
AcDbCircle
 10
61.0817705916
 20
141.4849483047
 30
0.0
 40
1.000000000000008
100
AcDbArc
 50
90.0
 51
150.0
  0
LINE
  5
178
330
1F
100
AcDbEntity
  8
0
  6
HIDDEN
 62
     7
370
     0
100
AcDbLine
 10
61.0817710894
 20
79.484947798
 30
0.0
 11
66.6668753165
 21
79.484947798
 31
0.0
  0
LINE
  5
179
330
1F
100
AcDbEntity
  8
0
  6
HIDDEN
 62
     7
370
     0
100
AcDbLine
 10
66.6668753165
 20
142.4849488113
 30
0.0
 11
61.0817710894
 21
142.4849488113
 31
0.0
  0
LINE
  5
17A
330
1F
100
AcDbEntity
  8
0
  6
HIDDEN
 62
     7
370
     0
100
AcDbLine
 10
60.2157454031
 20
141.984947798
 30
0.0
 11
57.6176683443
 21
137.4849479918
 31
0.0
  0
LINE
  5
17B
330
1F
100
AcDbEntity
  8
0
  6
HIDDEN
 62
     7
370
     0
100
AcDbLine
 10
57.6176683443
 20
84.4849486176
 30
0.0
 11
60.2157454031
 21
79.9849488113
 31
0.0
  0
ARC
  5
17C
330
1F
100
AcDbEntity
  8
0
  6
HIDDEN
 62
     7
370
     0
100
AcDbCircle
 10
98.0710446494
 20
86.1099483047
 30
0.0
 40
2.0
100
AcDbArc
 50
234.3409123039
 51
0.0
  0
ARC
  5
17D
330
1F
100
AcDbEntity
  8
0
  6
HIDDEN
 62
     7
370
     0
100
AcDbCircle
 10
98.0710446494
 20
135.8599483047
 30
0.0
 40
2.0
100
AcDbArc
 50
0.0
 51
125.6590876961
  0
LINE
  5
17E
330
1F
100
AcDbEntity
  8
0
  6
HIDDEN
 62
     7
370
     0
100
AcDbLine
 10
87.6210446494
 20
84.4849486176
 30
0.0
 11
96.9051218617
 21
84.4849486176
 31
0.0
  0
LINE
  5
17F
330
1F
100
AcDbEntity
  8
0
  6
HIDDEN
 62
     7
370
     0
100
AcDbLine
 10
96.9051218617
 20
137.4849479918
 30
0.0
 11
87.6210446494
 21
137.4849479918
 31
0.0
  0
LINE
  5
180
330
1F
100
AcDbEntity
  8
0
  6
HIDDEN
 62
     7
370
     0
100
AcDbLine
 10
52.8210441607
 20
84.4849486176
 30
0.0
 11
57.6176683443
 21
84.4849486176
 31
0.0
  0
LINE
  5
181
330
1F
100
AcDbEntity
  8
0
  6
HIDDEN
 62
     7
370
     0
100
AcDbLine
 10
57.6176683443
 20
137.4849479918
 30
0.0
 11
47.8210452038
 21
137.4849479918
 31
0.0
  0
LINE
  5
182
330
1F
100
AcDbEntity
  8
0
  6
HIDDEN
 62
     7
370
     0
100
AcDbLine
 10
91.6210448394
 20
156.6565007243
 30
0.0
 11
91.6210448394
 21
152.9623613034
 31
0.0
  0
LINE
  5
183
330
1F
100
AcDbEntity
  8
0
  6
HIDDEN
 62
     7
370
     0
100
AcDbLine
 10
101.6210450816
 20
152.9623613034
 30
0.0
 11
101.6210450816
 21
156.6620104287
 31
0.0
  0
LINE
  5
184
330
1F
100
AcDbEntity
  8
0
  6
HIDDEN
 62
     7
370
     0
100
AcDbLine
 10
193.1210423845
 20
97.8990679879
 30
0.0
 11
193.1210423845
 21
101.9366987322
 31
0.0
  0
LINE
  5
185
330
1F
100
AcDbEntity
  8
0
  6
HIDDEN
 62
     7
370
     0
100
AcDbLine
 10
193.1210423845
 20
95.2164668862
 30
0.0
 11
193.1210423845
 21
95.5862475831
 31
0.0
  0
LINE
  5
186
330
1F
100
AcDbEntity
  8
0
  6
HIDDEN
 62
     7
370
     0
100
AcDbLine
 10
189.1210417288
 20
96.1495925013
 30
0.0
 11
189.1210417288
 21
95.2164668862
 31
0.0
  0
LINE
  5
187
330
1F
100
AcDbEntity
  8
0
  6
HIDDEN
 62
     7
370
     0
100
AcDbLine
 10
189.1210417288
 20
101.9342707742
 30
0.0
 11
189.1210417288
 21
97.1806448225
 31
0.0
  0
LINE
  5
188
330
1F
100
AcDbEntity
  8
0
  6
HIDDEN
 62
     7
370
     0
100
AcDbLine
 10
189.2402435678
 20
97.6234812562
 30
0.0
 11
188.6751021283
 21
96.619372097
 31
0.0
  0
LINE
  5
189
330
1F
100
AcDbEntity
  8
0
  6
HIDDEN
 62
     7
370
     0
100
AcDbLine
 10
188.6751021283
 20
96.619372097
 30
0.0
 11
189.2399604457
 21
95.7345858488
 31
0.0
  0
LINE
  5
18A
330
1F
100
AcDbEntity
  8
0
  6
HIDDEN
 62
     7
370
     0
100
AcDbLine
 10
192.7443782824
 20
95.0817901913
 30
0.0
 11
247.6210410732
 21
96.6063894603
 31
0.0
  0
LINE
  5
18B
330
1F
100
AcDbEntity
  8
0
  6
HIDDEN
 62
     7
370
     0
100
AcDbLine
 10
247.6210410732
 20
99.9076625604
 30
0.0
 11
192.7417333263
 21
98.3829897169
 31
0.0
  0
ARC
  5
18C
330
1F
100
AcDbEntity
  8
0
  6
HIDDEN
 62
     7
370
     0
100
AcDbCircle
 10
247.1210446494
 20
97.9849483047
 30
0.0
 40
0.5
100
AcDbArc
 50
0.0
 51
90.0
  0
ARC
  5
18D
330
1F
100
AcDbEntity
  8
0
  6
HIDDEN
 62
     7
370
     0
100
AcDbCircle
 10
247.1210446494
 20
123.9849483047
 30
0.0
 40
0.5
100
AcDbArc
 50
270.0
 51
0.0
  0
LINE
  5
18E
330
1F
100
AcDbEntity
  8
0
  6
HIDDEN
 62
     7
370
     0
100
AcDbLine
 10
111.9210443484
 20
97.9849480365
 30
0.0
 11
115.9210450041
 21
97.9849480365
 31
0.0
  0
LINE
  5
18F
330
1F
100
AcDbEntity
  8
0
  6
HIDDEN
 62
     7
370
     0
100
AcDbLine
 10
115.9210450041
 20
123.9849485729
 30
0.0
 11
111.9210443484
 21
123.9849485729
 31
0.0
  0
ARC
  5
190
330
1F
100
AcDbEntity
  8
0
  6
HIDDEN
 62
     7
370
     0
100
AcDbCircle
 10
189.0210446494
 20
98.5849483047
 30
0.0
 40
0.4000000000000341
100
AcDbArc
 50
180.0
 51
270.0
  0
ARC
  5
191
330
1F
100
AcDbEntity
  8
0
  6
HIDDEN
 62
     7
370
     0
100
AcDbCircle
 10
189.0210446494
 20
123.3849483047
 30
0.0
 40
0.4000000000000341
100
AcDbArc
 50
90.0
 51
180.0
  0
LINE
  5
192
330
1F
100
AcDbEntity
  8
0
  6
HIDDEN
 62
     7
370
     0
100
AcDbLine
 10
189.0210474866
 20
98.184948628
 30
0.0
 11
193.7262679475
 21
98.184948628
 31
0.0
  0
LINE
  5
193
330
1F
100
AcDbEntity
  8
0
  6
HIDDEN
 62
     7
370
     0
100
AcDbLine
 10
193.7262679475
 20
123.7849479813
 30
0.0
 11
189.0210474866
 21
123.7849479813
 31
0.0
  0
LINE
  5
194
330
1F
100
AcDbEntity
  8
0
  6
HIDDEN
 62
     7
370
     0
100
AcDbLine
 10
194.6210454243
 20
98.4849481184
 30
0.0
 11
247.1210475105
 21
98.4849481184
 31
0.0
  0
LINE
  5
195
330
1F
100
AcDbEntity
  8
0
  6
HIDDEN
 62
     7
370
     0
100
AcDbLine
 10
247.1210475105
 20
123.4849484909
 30
0.0
 11
194.6210454243
 21
123.4849484909
 31
0.0
  0
LINE
  5
196
330
1F
100
AcDbEntity
  8
0
  6
HIDDEN
 62
     7
370
     0
100
AcDbLine
 10
100.0710449206
 20
98.9849482004
 30
0.0
 11
100.8210445779
 21
99.7349478576
 31
0.0
  0
LINE
  5
197
330
1F
100
AcDbEntity
  8
0
  6
HIDDEN
 62
     7
370
     0
100
AcDbLine
 10
100.8210445779
 20
122.2349487517
 30
0.0
 11
100.0710449206
 21
122.984948409
 31
0.0
  0
ARC
  5
198
330
1F
100
AcDbEntity
  8
0
  6
HIDDEN
 62
     7
370
     0
100
AcDbCircle
 10
193.7262706313
 20
98.5849483047
 30
0.0
 40
0.4000000000000199
100
AcDbArc
 50
270.0
 51
290.0
  0
ARC
  5
199
330
1F
100
AcDbEntity
  8
0
  6
HIDDEN
 62
     7
370
     0
100
AcDbCircle
 10
193.7262706313
 20
123.3849483047
 30
0.0
 40
0.4000000000000171
100
AcDbArc
 50
70.0
 51
90.0
  0
LINE
  5
19A
330
1F
100
AcDbEntity
  8
0
  6
HIDDEN
 62
     7
370
     0
100
AcDbLine
 10
193.8630755084
 20
98.209070814
 30
0.0
 11
194.6210454243
 21
98.4849481184
 31
0.0
  0
LINE
  5
19B
330
1F
100
AcDbEntity
  8
0
  6
HIDDEN
 62
     7
370
     0
100
AcDbLine
 10
194.6210454243
 20
123.4849484909
 30
0.0
 11
193.8630755084
 21
123.7608257953
 31
0.0
  0
LINE
  5
19C
330
1F
100
AcDbEntity
  8
0
  6
HIDDEN
 62
     7
370
     0
100
AcDbLine
 10
100.8210445779
 20
99.7349478576
 30
0.0
 11
111.9210443484
 21
99.7349478576
 31
0.0
  0
LINE
  5
19D
330
1F
100
AcDbEntity
  8
0
  6
HIDDEN
 62
     7
370
     0
100
AcDbLine
 10
111.9210443484
 20
122.2349487517
 30
0.0
 11
100.8210445779
 21
122.2349487517
 31
0.0
  0
LINE
  5
19E
330
1F
100
AcDbEntity
  8
0
  6
HIDDEN
 62
     7
370
     0
100
AcDbLine
 10
92.5710446226
 20
160.9849490497
 30
0.0
 11
92.5710446226
 21
154.8849500988
 31
0.0
  0
LINE
  5
19F
330
1F
100
AcDbEntity
  8
0
  6
HIDDEN
 62
     7
370
     0
100
AcDbLine
 10
79.0537570628
 20
73.4066672895
 30
0.0
 11
78.6210478308
 21
73.884893981
 31
0.0
  0
LINE
  5
1A0
330
1F
100
AcDbEntity
  8
0
  6
HIDDEN
 62
     7
370
     0
100
AcDbLine
 10
66.6210449326
 20
74.5318539713
 30
0.0
 11
66.1404172915
 21
74.0536310051
 31
0.0
  0
LINE
  5
1A1
330
1F
100
AcDbEntity
  8
0
  6
HIDDEN
 62
     7
370
     0
100
AcDbLine
 10
66.1402999448
 20
147.916261879
 30
0.0
 11
66.6210449326
 21
147.4379793082
 31
0.0
  0
LINE
  5
1A2
330
1F
100
AcDbEntity
  8
0
  6
HIDDEN
 62
     7
370
     0
100
AcDbLine
 10
78.6210450369
 20
148.0849541996
 30
0.0
 11
79.0538660276
 21
148.5632330451
 31
0.0
  0
LINE
  5
1A3
330
1F
100
AcDbEntity
  8
0
  6
HIDDEN
 62
     7
370
     0
100
AcDbLine
 10
78.6210450369
 20
73.7847656284
 30
0.0
 11
78.6210450369
 21
79.5190714572
 31
0.0
  0
LINE
  5
1A4
330
1F
100
AcDbEntity
  8
0
  6
HIDDEN
 62
     7
370
     0
100
AcDbLine
 10
66.6210449326
 20
79.4934265588
 30
0.0
 11
66.6210449326
 21
74.5318949495
 31
0.0
  0
LINE
  5
1A5
330
1F
100
AcDbEntity
  8
0
  6
HIDDEN
 62
     7
370
     0
100
AcDbLine
 10
78.6210450369
 20
142.4508251522
 30
0.0
 11
78.6210450369
 21
148.1849558923
 31
0.0
  0
LINE
  5
1A6
330
1F
100
AcDbEntity
  8
0
  6
HIDDEN
 62
     7
370
     0
100
AcDbLine
 10
66.6210449326
 20
147.4379718576
 30
0.0
 11
66.6210449326
 21
142.4764700506
 31
0.0
  0
LINE
  5
1A7
330
1F
100
AcDbEntity
  8
0
  6
HIDDEN
 62
     7
370
     0
100
AcDbLine
 10
115.9210450041
 20
104.9849482525
 30
0.0
 11
188.6210481661
 21
104.9849482525
 31
0.0
  0
LINE
  5
1A8
330
1F
100
AcDbEntity
  8
0
  6
HIDDEN
 62
     7
370
     0
100
AcDbLine
 10
188.6210481661
 20
116.9849483568
 30
0.0
 11
115.9210450041
 21
116.9849483568
 31
0.0
  0
LINE
  5
1A9
330
1F
100
AcDbEntity
  8
0
  6
HIDDEN
 62
     7
370
     0
100
AcDbLine
 10
160.0710417169
 20
78.4849494968
 30
0.0
 11
159.0710471409
 21
79.0622987125
 31
0.0
  0
LINE
  5
1AA
330
1F
100
AcDbEntity
  8
0
  6
HIDDEN
 62
     7
370
     0
100
AcDbLine
 10
154.0710444587
 20
79.0622987125
 30
0.0
 11
153.0710424321
 21
78.4849494968
 31
0.0
  0
LINE
  5
1AB
330
1F
100
AcDbEntity
  8
0
  6
HIDDEN
 62
     7
370
     0
100
AcDbLine
 10
153.0710424321
 20
143.4849471126
 30
0.0
 11
154.0710444587
 21
142.9075978968
 31
0.0
  0
LINE
  5
1AC
330
1F
100
AcDbEntity
  8
0
  6
HIDDEN
 62
     7
370
     0
100
AcDbLine
 10
159.0710471409
 20
142.9075978968
 30
0.0
 11
160.0710417169
 21
143.4849471126
 31
0.0
  0
LINE
  5
1AD
330
1F
100
AcDbEntity
  8
0
  6
HIDDEN
 62
     7
370
     0
100
AcDbLine
 10
154.0710444587
 20
142.9075978968
 30
0.0
 11
154.0710444587
 21
129.4849485431
 31
0.0
  0
LINE
  5
1AE
330
1F
100
AcDbEntity
  8
0
  6
HIDDEN
 62
     7
370
     0
100
AcDbLine
 10
159.0710471409
 20
129.4849485431
 30
0.0
 11
159.0710471409
 21
142.9075978968
 31
0.0
  0
LINE
  5
1AF
330
1F
100
AcDbEntity
  8
0
  6
HIDDEN
 62
     7
370
     0
100
AcDbLine
 10
154.0710444587
 20
129.4849485431
 30
0.0
 11
156.5710420745
 21
127.9827960108
 31
0.0
  0
LINE
  5
1B0
330
1F
100
AcDbEntity
  8
0
  6
HIDDEN
 62
     7
370
     0
100
AcDbLine
 10
156.5710420745
 20
127.9827960108
 30
0.0
 11
159.0710471409
 21
129.4849485431
 31
0.0
  0
LINE
  5
1B1
330
1F
100
AcDbEntity
  8
0
  6
HIDDEN
 62
     7
370
     0
100
AcDbLine
 10
159.0710471409
 20
92.4849480663
 30
0.0
 11
156.5710420745
 21
93.9871005986
 31
0.0
  0
LINE
  5
1B2
330
1F
100
AcDbEntity
  8
0
  6
HIDDEN
 62
     7
370
     0
100
AcDbLine
 10
156.5710420745
 20
93.9871005986
 30
0.0
 11
154.0710444587
 21
92.4849480663
 31
0.0
  0
LINE
  5
1B3
330
1F
100
AcDbEntity
  8
0
  6
HIDDEN
 62
     7
370
     0
100
AcDbLine
 10
159.0710471409
 20
79.0622987125
 30
0.0
 11
159.0710471409
 21
92.4849480663
 31
0.0
  0
LINE
  5
1B4
330
1F
100
AcDbEntity
  8
0
  6
HIDDEN
 62
     7
370
     0
100
AcDbLine
 10
154.0710444587
 20
92.4849480663
 30
0.0
 11
154.0710444587
 21
79.0622987125
 31
0.0
  0
LINE
  5
1B5
330
1F
100
AcDbEntity
  8
0
  6
HIDDEN
 62
     7
370
     0
100
AcDbLine
 10
193.1210423845
 20
120.0356258351
 30
0.0
 11
193.1210423845
 21
124.0705119718
 31
0.0
  0
LINE
  5
1B6
330
1F
100
AcDbEntity
  8
0
  6
HIDDEN
 62
     7
370
     0
100
AcDbLine
 10
189.1210417288
 20
124.7892517869
 30
0.0
 11
189.1210417288
 21
120.0331978772
 31
0.0
  0
LINE
  5
1B7
330
1F
100
AcDbEntity
  8
0
  6
HIDDEN
 62
     7
370
     0
100
AcDbLine
 10
189.1210417288
 20
126.1877443913
 30
0.0
 11
189.1210417288
 21
125.820304108
 31
0.0
  0
LINE
  5
1B8
330
1F
100
AcDbEntity
  8
0
  6
HIDDEN
 62
     7
370
     0
100
AcDbLine
 10
91.6210448394
 20
158.5318193112
 30
0.0
 11
91.6210448394
 21
156.6565007243
 31
0.0
  0
LINE
  5
1B9
330
1F
100
AcDbEntity
  8
0
  6
HIDDEN
 62
     7
370
     0
100
AcDbLine
 10
101.6210450816
 20
156.6620104287
 30
0.0
 11
101.6210450816
 21
158.5375525329
 31
0.0
  0
LINE
  5
1BA
330
1F
100
AcDbEntity
  8
0
  6
HIDDEN
 62
     7
370
     0
100
AcDbLine
 10
192.7400271433
 20
123.5869543899
 30
0.0
 11
247.6210410732
 21
122.0622340489
 31
0.0
  0
LINE
  5
1BB
330
1F
100
AcDbEntity
  8
0
  6
HIDDEN
 62
     7
370
     0
100
AcDbLine
 10
247.6210410732
 20
125.363507149
 30
0.0
 11
192.7457342881
 21
126.8880691651
 31
0.0
  0
LINE
  5
1BC
330
1F
100
AcDbEntity
  8
0
  6
HIDDEN
 62
     7
370
     0
100
AcDbLine
 10
189.2399604457
 20
126.2353107605
 30
0.0
 11
188.6751021283
 21
125.3505245123
 31
0.0
  0
LINE
  5
1BD
330
1F
100
AcDbEntity
  8
0
  6
HIDDEN
 62
     7
370
     0
100
AcDbLine
 10
188.6751021283
 20
125.3505245123
 30
0.0
 11
189.2402435678
 21
124.3464153532
 31
0.0
  0
LINE
  5
1BE
330
1F
100
AcDbEntity
  8
0
  6
HIDDEN
 62
     7
370
     0
100
AcDbLine
 10
247.3039890664
 20
121.7232233185
 30
0.0
 11
247.5392784017
 21
122.1063852582
 31
0.0
  0
LINE
  5
1BF
330
1F
100
AcDbEntity
  8
0
  6
HIDDEN
 62
     7
370
     0
100
AcDbLine
 10
247.6210410732
 20
125.3353979711
 30
0.0
 11
247.4149431127
 21
125.7170520995
 31
0.0
  0
LINE
  5
1C0
330
1F
100
AcDbEntity
  8
0
  6
HIDDEN
 62
     7
370
     0
100
AcDbLine
 10
247.4123354095
 20
125.7194409419
 30
0.0
 11
240.3929199117
 21
125.9144561637
 31
0.0
  0
LINE
  5
1C1
330
1F
100
AcDbEntity
  8
0
  6
HIDDEN
 62
     7
370
     0
100
AcDbLine
 10
240.281831755
 20
121.9159987096
 30
0.0
 11
247.3012472528
 21
121.7209834877
 31
0.0
  0
LINE
  5
1C2
330
1F
100
AcDbEntity
  8
0
  6
HIDDEN
 62
     7
370
     0
100
AcDbLine
 10
240.3913552898
 20
125.9137278695
 30
0.0
 11
239.621695413
 21
125.1851104472
 31
0.0
  0
LINE
  5
1C3
330
1F
100
AcDbEntity
  8
0
  6
HIDDEN
 62
     7
370
     0
100
AcDbLine
 10
239.5522858041
 20
122.6870388065
 30
0.0
 11
240.2803118366
 21
121.9168126855
 31
0.0
  0
LINE
  5
1C4
330
1F
100
AcDbEntity
  8
0
  6
HIDDEN
 62
     7
370
     0
100
AcDbLine
 10
240.3588260549
 20
100.0552650813
 30
0.0
 11
239.6308149236
 21
99.2850389604
 31
0.0
  0
LINE
  5
1C5
330
1F
100
AcDbEntity
  8
0
  6
HIDDEN
 62
     7
370
     0
100
AcDbLine
 10
239.7002096313
 20
96.7869673196
 30
0.0
 11
240.4698695081
 21
96.0583498973
 31
0.0
  0
LINE
  5
1C6
330
1F
100
AcDbEntity
  8
0
  6
HIDDEN
 62
     7
370
     0
100
AcDbLine
 10
247.3797614711
 20
100.2510942791
 30
0.0
 11
240.3603459733
 21
100.0560790572
 31
0.0
  0
LINE
  5
1C7
330
1F
100
AcDbEntity
  8
0
  6
HIDDEN
 62
     7
370
     0
100
AcDbLine
 10
240.47143413
 20
96.0576216031
 30
0.0
 11
247.4908496278
 21
96.2526377563
 31
0.0
  0
LINE
  5
1C8
330
1F
100
AcDbEntity
  8
0
  6
HIDDEN
 62
     7
370
     0
100
AcDbLine
 10
247.493457331
 20
96.2550256673
 30
0.0
 11
247.6210410732
 21
96.4912817154
 31
0.0
  0
LINE
  5
1C9
330
1F
100
AcDbEntity
  8
0
  6
HIDDEN
 62
     7
370
     0
100
AcDbLine
 10
247.61779262
 20
99.8656925086
 30
0.0
 11
247.3825032848
 21
100.2488544483
 31
0.0
  0
DIMENSION
  5
1CA
330
1F
100
AcDbEntity
  8
VERMASSUNG
100
AcDbDimension
  2
*D1
 10
31.798790239
 20
60.9849483047
 30
0.0
 11
31.798790239
 21
110.0789757918
 31
0.0
 70
   160
  1
HSK A %%c<>
 71
     2
 42
-1.0
  3
SLDDIMSTYLE0
100
AcDbAlignedDimension
 13
88.1210446494
 23
160.9849483047
 33
0.0
 14
88.1210446494
 24
60.9849483047
 34
0.0
 50
90.0
100
AcDbRotatedDimension
  0
DIMENSION
  5
1D7
330
1F
100
AcDbEntity
  8
VERMASSUNG
100
AcDbDimension
  2
*D2
 10
247.6210446494
 20
164.293716143
 30
0.0
 11
182.0960446494
 21
164.293716143
 31
0.0
 70
   160
 71
     2
 42
-1.0
  3
SLDDIMSTYLE0
100
AcDbAlignedDimension
 13
116.5710446494
 23
158.9536881255
 33
0.0
 14
247.6210446494
 24
132.6565211799
 34
0.0
100
AcDbRotatedDimension
  0
DIMENSION
  5
1E1
330
1F
100
AcDbEntity
  8
VERMASSUNG
100
AcDbDimension
  2
*D3
 10
247.6210446494
 20
170.293716143
 30
0.0
 11
167.6210446494
 21
170.293716143
 31
0.0
 70
   160
 71
     2
 42
-1.0
  3
SLDDIMSTYLE0
100
AcDbAlignedDimension
 13
87.6210446494
 23
160.4849483047
 33
0.0
 14
247.6210446494
 24
132.6565211799
 34
0.0
100
AcDbRotatedDimension
  0
DIMENSION
  5
1EB
330
1F
100
AcDbEntity
  8
VERMASSUNG
100
AcDbDimension
  2
*D4
 10
37.7210446494
 20
176.293716143
 30
0.0
 11
142.6710446494
 21
176.293716143
 31
0.0
 70
   160
 71
     2
 42
-1.0
  3
SLDDIMSTYLE0
100
AcDbAlignedDimension
 13
247.6210446494
 23
125.3635070246
 33
0.0
 14
37.7210446494
 24
141.4876180472
 34
0.0
100
AcDbRotatedDimension
  0
DIMENSION
  5
1F5
330
1F
100
AcDbEntity
  8
VERMASSUNG
100
AcDbDimension
  2
*D5
 10
257.8426645517
 20
98.4849483047
 30
0.0
 11
257.8426645517
 21
110.9849483047
 31
0.0
 70
   160
  1
%%c<>
 71
     2
 42
-1.0
  3
SLDDIMSTYLE0
100
AcDbAlignedDimension
 13
247.1210446494
 23
123.4849483047
 33
0.0
 14
247.1210446494
 24
98.4849483047
 34
0.0
 50
90.0
100
AcDbRotatedDimension
  0
DIMENSION
  5
200
330
1F
100
AcDbEntity
  8
VERMASSUNG
100
AcDbDimension
  2
*D6
 10
263.8426645517
 20
78.4849483047
 30
0.0
 11
263.8426645517
 21
110.9849483047
 31
0.0
 70
   160
  1
%%c<>
 71
     2
 42
-1.0
  3
SLDDIMSTYLE0
100
AcDbAlignedDimension
 13
236.7926175247
 23
143.4849483047
 33
0.0
 14
236.7926175247
 24
78.4849483047
 34
0.0
 50
90.0
100
AcDbRotatedDimension
  0
LINE
  5
20B
330
1F
100
AcDbEntity
  8
VERMASSUNG
  6
CENTERX2
 62
     7
370
     0
100
AcDbLine
 10
35.4705752885
 20
110.9849483047
 30
0.0
 11
251.4778190186
 21
110.9849483047
 31
0.0
  0
OLE2FRAME
  5
20C
330
1F
100
AcDbEntity
  8
0
100
AcDbOle2Frame
 70
     2
  3
Bitmap Image
 10
13.8511154363
 20
38.264191557
 30
0.0
 11
51.6290888628
 21
31.9806341108
 31
0.0
 71
     2
 72
     0
 73
     1
 90
    12928
310
80552BED0767C5B32B40DDAF6807D121434000000000000000006FFBDDFB85D0
310
4940DDAF6807D121434000000000000000006FFBDDFB85D04940416F4BD60AFB
310
3F4000000000000000002BED0767C5B32B40416F4BD60AFB3F40000000000000
310
0000000000000100000000010000010000000100000000000100000000320000
310
D0CF11E0A1B11AE1000000000000000000000000000000003E000300FEFF0900
310
0600000000000000000000000100000001000000000000000010000002000000
310
01000000FEFFFFFF0000000000000000FFFFFFFFFFFFFFFFFFFFFFFFFFFFFFFF
310
FFFFFFFFFFFFFFFFFFFFFFFFFFFFFFFFFFFFFFFFFFFFFFFFFFFFFFFFFFFFFFFF
310
FFFFFFFFFFFFFFFFFFFFFFFFFFFFFFFFFFFFFFFFFFFFFFFFFFFFFFFFFFFFFFFF
310
FFFFFFFFFFFFFFFFFFFFFFFFFFFFFFFFFFFFFFFFFFFFFFFFFFFFFFFFFFFFFFFF
310
FFFFFFFFFFFFFFFFFFFFFFFFFFFFFFFFFFFFFFFFFFFFFFFFFFFFFFFFFFFFFFFF
310
FFFFFFFFFFFFFFFFFFFFFFFFFFFFFFFFFFFFFFFFFFFFFFFFFFFFFFFFFFFFFFFF
310
FFFFFFFFFFFFFFFFFFFFFFFFFFFFFFFFFFFFFFFFFFFFFFFFFFFFFFFFFFFFFFFF
310
FFFFFFFFFFFFFFFFFFFFFFFFFFFFFFFFFFFFFFFFFFFFFFFFFFFFFFFFFFFFFFFF
310
FFFFFFFFFFFFFFFFFFFFFFFFFFFFFFFFFFFFFFFFFFFFFFFFFFFFFFFFFFFFFFFF
310
FFFFFFFFFFFFFFFFFFFFFFFFFFFFFFFFFFFFFFFFFFFFFFFFFFFFFFFFFFFFFFFF
310
FFFFFFFFFFFFFFFFFFFFFFFFFFFFFFFFFFFFFFFFFFFFFFFFFFFFFFFFFFFFFFFF
310
FFFFFFFFFFFFFFFFFFFFFFFFFFFFFFFFFFFFFFFFFFFFFFFFFFFFFFFFFFFFFFFF
310
FFFFFFFFFFFFFFFFFFFFFFFFFFFFFFFFFFFFFFFFFFFFFFFFFFFFFFFFFFFFFFFF
310
FFFFFFFFFFFFFFFFFFFFFFFFFFFFFFFFFFFFFFFFFFFFFFFFFFFFFFFFFFFFFFFF
310
FDFFFFFFFEFFFFFFFEFFFFFFFEFFFFFF05000000060000000700000008000000
310
090000000A0000000B0000000C0000000D0000000E0000000F00000010000000
310
11000000120000001300000014000000150000001600000017000000FEFFFFFF
310
FFFFFFFFFFFFFFFFFFFFFFFFFFFFFFFFFFFFFFFFFFFFFFFFFFFFFFFFFFFFFFFF
310
FFFFFFFFFFFFFFFFFFFFFFFFFFFFFFFFFFFFFFFFFFFFFFFFFFFFFFFFFFFFFFFF
310
FFFFFFFFFFFFFFFFFFFFFFFFFFFFFFFFFFFFFFFFFFFFFFFFFFFFFFFFFFFFFFFF
310
FFFFFFFFFFFFFFFFFFFFFFFFFFFFFFFFFFFFFFFFFFFFFFFFFFFFFFFFFFFFFFFF
310
FFFFFFFFFFFFFFFFFFFFFFFFFFFFFFFFFFFFFFFFFFFFFFFFFFFFFFFFFFFFFFFF
310
FFFFFFFFFFFFFFFFFFFFFFFFFFFFFFFFFFFFFFFFFFFFFFFFFFFFFFFFFFFFFFFF
310
FFFFFFFFFFFFFFFFFFFFFFFFFFFFFFFFFFFFFFFFFFFFFFFFFFFFFFFFFFFFFFFF
310
FFFFFFFFFFFFFFFFFFFFFFFFFFFFFFFFFFFFFFFFFFFFFFFFFFFFFFFFFFFFFFFF
310
FFFFFFFFFFFFFFFFFFFFFFFFFFFFFFFFFFFFFFFFFFFFFFFFFFFFFFFFFFFFFFFF
310
FFFFFFFFFFFFFFFFFFFFFFFFFFFFFFFFFFFFFFFFFFFFFFFFFFFFFFFFFFFFFFFF
310
FFFFFFFFFFFFFFFFFFFFFFFFFFFFFFFFFFFFFFFFFFFFFFFFFFFFFFFFFFFFFFFF
310
FFFFFFFFFFFFFFFFFFFFFFFFFFFFFFFFFFFFFFFFFFFFFFFFFFFFFFFFFFFFFFFF
310
FFFFFFFFFFFFFFFFFFFFFFFFFFFFFFFFFFFFFFFFFFFFFFFFFFFFFFFFFFFFFFFF
310
52006F006F007400200045006E00740072007900000000000000000000000000
310
0000000000000000000000000000000000000000000000000000000000000000
310
16000500FFFFFFFFFFFFFFFF020000000A00030000000000C000000000000046
310
00000000000000000000000040BBB22E0A00CC0103000000C000000000000000
310
01004F006C006500000000000000000000000000000000000000000000000000
310
0000000000000000000000000000000000000000000000000000000000000000
310
0A000200FFFFFFFFFFFFFFFFFFFFFFFF00000000000000000000000000000000
310
0000000000000000000000000000000000000000000000001400000000000000
310
010043006F006D0070004F0062006A0000000000000000000000000000000000
310
0000000000000000000000000000000000000000000000000000000000000000
310
120002010100000003000000FFFFFFFF00000000000000000000000000000000
310
0000000000000000000000000000000000000000010000004D00000000000000
310
01004F006C006500310030004E00610074006900760065000000000000000000
310
0000000000000000000000000000000000000000000000000000000000000000
310
1A000200FFFFFFFFFFFFFFFFFFFFFFFF00000000000000000000000000000000
310
0000000000000000000000000000000000000000040000002426000000000000
310
FEFFFFFF02000000FEFFFFFFFFFFFFFFFFFFFFFFFFFFFFFFFFFFFFFFFFFFFFFF
310
FFFFFFFFFFFFFFFFFFFFFFFFFFFFFFFFFFFFFFFFFFFFFFFFFFFFFFFFFFFFFFFF
310
FFFFFFFFFFFFFFFFFFFFFFFFFFFFFFFFFFFFFFFFFFFFFFFFFFFFFFFFFFFFFFFF
310
FFFFFFFFFFFFFFFFFFFFFFFFFFFFFFFFFFFFFFFFFFFFFFFFFFFFFFFFFFFFFFFF
310
FFFFFFFFFFFFFFFFFFFFFFFFFFFFFFFFFFFFFFFFFFFFFFFFFFFFFFFFFFFFFFFF
310
FFFFFFFFFFFFFFFFFFFFFFFFFFFFFFFFFFFFFFFFFFFFFFFFFFFFFFFFFFFFFFFF
310
FFFFFFFFFFFFFFFFFFFFFFFFFFFFFFFFFFFFFFFFFFFFFFFFFFFFFFFFFFFFFFFF
310
FFFFFFFFFFFFFFFFFFFFFFFFFFFFFFFFFFFFFFFFFFFFFFFFFFFFFFFFFFFFFFFF
310
FFFFFFFFFFFFFFFFFFFFFFFFFFFFFFFFFFFFFFFFFFFFFFFFFFFFFFFFFFFFFFFF
310
FFFFFFFFFFFFFFFFFFFFFFFFFFFFFFFFFFFFFFFFFFFFFFFFFFFFFFFFFFFFFFFF
310
FFFFFFFFFFFFFFFFFFFFFFFFFFFFFFFFFFFFFFFFFFFFFFFFFFFFFFFFFFFFFFFF
310
FFFFFFFFFFFFFFFFFFFFFFFFFFFFFFFFFFFFFFFFFFFFFFFFFFFFFFFFFFFFFFFF
310
FFFFFFFFFFFFFFFFFFFFFFFFFFFFFFFFFFFFFFFFFFFFFFFFFFFFFFFFFFFFFFFF
310
FFFFFFFFFFFFFFFFFFFFFFFFFFFFFFFFFFFFFFFFFFFFFFFFFFFFFFFFFFFFFFFF
310
FFFFFFFFFFFFFFFFFFFFFFFFFFFFFFFFFFFFFFFFFFFFFFFFFFFFFFFFFFFFFFFF
310
FFFFFFFFFFFFFFFFFFFFFFFFFFFFFFFFFFFFFFFFFFFFFFFFFFFFFFFFFFFFFFFF
310
0100000200000000000000000000000000000000610072003D0082005C003107
310
9806250000000000604E280000000000680061007200650064005C003B004300
310
0100FEFF030A0000FFFFFFFF0A00030000000000C00000000000004607000000
310
5042727573680007000000504272757368000700000050427275736800F439B2
310
71000000000000000000000000004100540049002E004100430045005C004300
310
6F00720065002D005300740061007400690063003B0043003A005C0050007200
310
6F006700720061006D002000460069006C006500730020002800780038003600
310
29005C0043006F006D006D006F006E002000460069006C00650073005C004100
310
750074006F006400650073006B0020005300680061007200650064005C003B00
310
43003A005C00500072006F006700720061006D002000460069006C0065007300
310
5C004E006F0072006D0061006E005C004E0070006D005C00420069006E000000
310
43003A005C00500072006F006700720061006D002000460069006C0065007300
310
5C0053006F006C006900640057006F0072006B007300200043006F0072007000
310
5C0053006F006C006900640057006F0072006B00730020002800320029005C00
310
730065007400750070005C0069003300380036005C0073007700610063007400
310
770069007A002E006500780065000000220043003A005C00500072006F006700
310
20260000424D0E260000000000003E00000028000000B40200006E0000000100
310
01000000000000000000130B0000130B00000200000002000000000000FFFFFF
310
FFFFFFFFFFFFFFFFFFFFFFFFFFFFFFFFFFFFFFFFFFFFFFFFFFFFFFFFFFFFFFFF
310
FFFFFFFFFFFFFFFFFFFFFFFFFFFFFFFFFFFFFFFFFFFFFFFFFFFFFFFFFFFFFFFF
310
FFFFFFFFFFFFFFFFFFFFFFFFFFFFFFFFFFFFFFFFFFFFFFFFF000FFFFFFFFFFFF
310
FFFFFFFFFFFFFFFFFFFFFFFFFFFFFFFFFFFFFFFFFFFFFFFFFFFFFFFFFFFFFFFF
310
FFFFFFFFFFFFFFFFFFFFFFFFFFFFFFFFFFFFFFFFFFFFFFFFFFFFFFFFFFFFFFFF
310
FFFFFFFFFFFFFFFFFFFFFFFFFFFFFFFFF000FFFFFFFFFFFFFFFFFFFFFFFFFFFF
310
FFFFFFFFFFFFFFFFFFFFFFFFFFFFFFFFFFFFFFFFFFFFFFFFFFFFFFFFFFFFFFFF
310
FFFFFFFFFFFFFFFFFFFFFFFFFFFFFFFFFFFFFFFFFFFFFFFFFFFFFFFFFFFFFFFF
310
FFFFFFFFFFFFFFFFF000FFFFFFFFFFFFFFFFFFFFFFFFFFFFFFFFFFFFFFFFFFFF
310
FFFFFFFFFFFFFFFFFFFFFFFFFFFFFFFFFFFFFFFFFFFFFFFFFFFFFFFFFFFFFFFF
310
FFFFFFFFFFFFFFFFFFFFFFFFFFFFFFFFFFFFFFFFFFFFFFFFFFFFFFFFFFFFFFFF
310
F000FFFFFFFFFFFFFFFFFFFFFFFFFFFFFFFFFFFFFFFFFFFFFFFFFFFFFFFFFFFF
310
FFFFFFFFFFFFFFFFFFFFFFFFFFFFFFFFFFFFFFFFFFFFFFFFFFFFFFFFFFFFFFFF
310
FFFFFFFFFFFFFFFFFFFFFFFFFFFFFFFFFFFFFFFFFFFFFFFFF000FFFFFFFFFFFF
310
FFFFFFFFFFFFFFFFFFFFFFFFFFFFFFFFFFFFFFFFFFFFFFFFFFFFFFFFFFFFFFFF
310
FFFFFFFFFFFFFFFFFFFFFFFFFFFFFFFFFFFFFFFFFFFFFFFFFFFFFFFFFFFFFFFF
310
FFFFFFFFFFFFFFFFFFFFFFFFFFFFFFFFF000FFFFFFFFFFFFFFFFFFFFFFFFFFFF
310
FFFFFFFFFFFFFFFFFFFFFFFFFFFFFFFFFFFFFFFFFFFFFFFFFFFFFFFFFFFFFFFF
310
FFFFFFFFFFFFFFFFFFFFFFFFFFFFFFFFFFFFFFFFFFFFFFFFFFFFFFFFFFFFFFFF
310
FFFFFFFFFFFFFFFFF000FFFFFFFFFFFFFFFFFFFFFFFFFFFFFFFFFFFFFFFFFFFF
310
FFFFFFFFFFFFFFFFFFFFFFFFFFFFFFFFFFFFFFFFFFFFFFFFFFFFFFFFFFFFFFFF
310
FFFFFFFFFFFFFFFFFFFFFFFFFFFFFFFFFFFFFFFFFFFFFFFFFFFFFFFFFFFFFFFF
310
F000FFFFFFFFFFFFFFFFFFFFFFFFFFFFFFFFFFFFFFFFFFFFFFFFFFFFFFFFFFFF
310
FFFFFFFFFFFFFFFFFFFFFFFFFFFFFFFFFFFFFFFFFFFFFFFFFFFFFFFFFFFFFFFF
310
FFFFFFFFFFFFFFFFFFFFFFFFFFFFFFFFFFFFFFFFFFFFFFFFF000FFFFFFFFFFFF
310
FFFFFFFFFFFFFFFFFFFFFFFFFFFFFFFFFFFFFFFFFFFFFFFFFFFFFFFFFFFFFFFF
310
FFFFFFFFFFFFFFFFFFFFFFFFFFFFFFFFFFFFFFFFFFFFFFFFFFFFFFFFFFFFFFFF
310
FFFFFFFFFFFFFFFFFFFFFFFFFFFFFFFFF000FFFFFFFFFFFFFFFFFFFFFFFFFFFF
310
FFFFFFFFFFFFFFFFFFFFFFFFFFFFFFFFFFFFFFFFFFFFFFFFFFFFFFFFFFFFFFFF
310
FFFFFFFFFFFFFFFFFFFFFFFFFFFFFFFFFFFFFFFFFFFFFFFFFFFFFFFFFFFFFFFF
310
FFFFFFFFFFFFFFFFF000FFFFFFFFFFFFFFFFFFFFFFFFFFFFFFFFFFFFFFFFFFFF
310
FFFFFFFFFFFFFFFFFFFFFFFFFFFFFFFFFFFFFFFFFFFFFFFFFFFFFFFFFFFFFFFF
310
FFFFFFFFFFFFFFFFFFFFFFFFFFFFFFFFFFFFFFFFFFFFFFFFFFFFFFFFFFFFFFFF
310
F000FFFFFFFFFFFFFFFFFFFFFFFFFFFFFFFFFFFFFFFFFFFFFFFFFFFFFFFFFFFF
310
FFFFFFFFFFFFFFFFFFFFFFFFFFFFFFFFFFFFFFFFFFFFFFFFFFFFFFFFFFFFFFFF
310
FFFFFFFFFFFFFFFFFFFFFFFFFFFFFFFFFFFFFFFFFFFFFFFFF000FFFFFFFFFFFF
310
FFFFFFFFFFFFFFFFFFFFFFFFFFFFFFFFFFFFFFFFFFFFFFFFFFFFFFFFFFFFFFFF
310
FFFFFFFFFFFFFFFFFFFFFFFFFFFFFFFFFFFFFFFFFFFFFFFFFFFFFFFFFFFFFFFF
310
FFFFFFFFFFFFFFFFFFFFFFFFFFFFFFFFF000FFFFFFFFFFFFFFFFFFFFFFFFFFFF
310
FFFFFFFFFFFFFFFFFFFFFFFFFFFFFFFFFFFFFFFFFFFFFFFFFFFFFFFFFFFFFFFF
310
FFFFFFFFFFFFFFFFFFFFFFFFFFFFFFFFFFFFFFFFFFFFFFFFFFFFFFFFFFFFFFFF
310
FFFFFFFFFFFFFFFFF000FFFFFFFFFFFFFFFFFFFFFFFFFFFFFFFFFFFFFFFFFFFF
310
FFFFFFFFFFFFFFFFFFFFFFFFFFFFFFFFFFFFFFFFFFFFFFFFFFFFFFFFFFFFFFFF
310
FFFFFFFFFFFFFFFFFFFFFFFFFFFFFFFFFFFFFFFFFFFFFFFFFFFFFFFFFFFFFFFF
310
F000FFFFFFFFFFFFFFFFFFFFFFFFFFFFFFFFFFFFFFFFFFFFFFFFFFFFFFFFFFFF
310
FFFFFFFFFFFFFFFFFFFFFFFFFFFFFFFFFFFFFFFFFFFFFFFFFFFFFFFFFFFFFFFF
310
FFFFFFFFFFFFFFFFFFFFFFFFFFFFFFFFFFFFFFFFFFFFFFFFF000FFFFFFFFFFFF
310
FFFFFFFFFFFFFFFFFFFFFFFFFFFFFFFFFFFFFFFFFFFFFFFFFFFFFFFFFFFFFFFF
310
FFFFFFFFFFFFFFFFFFFFFFFFFFFFFFFFFFFFFFFFFFFFFFFFFFFFFFFFFFFFFFFF
310
FFFFFFFFFFFFFFFFFFFFFFFFFFFFFFFFF000FFFFFFFFFFFFFFFFFFFFFFFFFFFF
310
FFFFFFFFFFFFFFFFFFFFFFFFFFFFFFFFFFFFFFFFFFFFFFFFFFFFFFFFFFFFFFFF
310
FFFFFFFFFFFFFFFFFFFFFFFFFFFFFFFFFFFFFFFFFFFFFFFFFFFFFFFFFFFFFFFF
310
FFFFFFFFFFFFFFFFF000FFFFF80003FFFFFFFFFFFFFFFFFFFFFFFFFFFFFFFFFF
310
FFFFF00007FFFFFFFFFF00007FFFFFF800000000000000007FFFFFFFFFFFFFFF
310
FFFFFFFC001FFFFFFFFFFFFFFC001FFFFFFFFFFFFFFFFFFFFFFFFFFE0007FFFF
310
F000FFFF8000007FFFFFFFF8000FFFFFC0007FFFFF80007FFFFF0000007FFFFF
310
FFF8000007FFFFF800000000000000007FFFFFF0001FFFFFFFFFFFC00001FFFF
310
FFFFFFFFC00001FFFFFFFF000000000003FFFFE000007FFFF000FFFE0000000F
310
FFFFFFF0000FFFFF80007FFFFF80007FFFFC0000001FFFFFFFC0000001FFFFF8
310
00000000000000007FFFFFF0001FFFFFFFFFFE0000003FFFFFFFFFFE0000003F
310
FFFFFF000000000003FFFF0000000FFFF000FFF800000003FFFFFFF00007FFFF
310
80007FFFFF80007FFFF000000007FFFFFF000000003FFFF80000000000000000
310
7FFFFFF0001FFFFFFFFFF80000000FFFFFFFFFF80000000FFFFFFF0000000000
310
03FFFC00000003FFF000FFE000000000FFFFFFF00007FFFF80003FFFFF80007F
310
FFC000000001FFFFFC000000001FFFF800000000000000007FFFFFF0001FFFFF
310
FFFFE000000003FFFFFFFFE000000003FFFFFF000000000003FFF000000000FF
310
F000FF80000000007FFFFFF00007FFFF80003FFFFF80007FFF8000000000FFFF
310
F80000000007FFF800000000000000007FFFFFF0001FFFFFFFFFC000000001FF
310
FFFFFFC000000001FFFFFF000000000003FFC0000000007FF000FF0000000000
310
3FFFFFE00007FFFF00003FFFFF80007FFE00000000003FFFF00000000003FFF8
310
00000000000000007FFFFFF0001FFFFFFFFF8000000000FFFFFFFF8000000000
310
FFFFFF000000000003FF80000000003FF000FE00000000001FFFFFE00003FFFF
310
00003FFFFF80007FFC00000000001FFFE00000000001FFF8000001FFFE000000
310
7FFFFFF0001FFFFFFFFE00000000003FFFFFFE00000000003FFFFF0000000000
310
03FF00000000001FF000FC00000000000FFFFFE00003FFFF00001FFFFF80007F
310
F800000000001FFFC00000000000FFF8000001FFFE0000007FFFFFF0001FFFFF
310
FFFC00000000001FFFFFFC00000000001FFFFF000000000003FE00000000000F
310
F000F8000000000007FFFFE00003FFFF00001FFFFF80007FF800000000000FFF
310
800000000000FFF8000001FFFE0000007FFFFFF0001FFFFFFFF800000000000F
310
FFFFF800000000000FFFFF000000000003FC000000000007F000F80000000000
310
03FFFFC00003FFFE00001FFFFF80007FF0000000000007FF0000000000007FF8
310
000001FFFE0000007FFFFFF0001FFFFFFFF0000000000007FFFFF00000000000
310
07FFFF000000000003F8000000000003F000F0000000000003FFFFC00001FFFE
310
00001FFFFF80007FE0000000000007FE0000000000003FF8000001FFFE000000
310
7FFFFFF0001FFFFFFFF0000000000007FFFFF0000000000007FFFF0000000000
310
03F800001F800003F000E00001FFF00001FFFFC00001FFFE00000FFFFF80007F
310
E00001FFE00003FE00001FFF00003FF8000001FFFE0000007FFFFFF0001FFFFF
310
FFE000003E000003FFFFE000003E000003FFFF000000000003F00001FFF80001
310
F000E00007FFFC0001FFFFC00001FFFE00000FFFFF80007FC0000FFFFC0003FC
310
0000FFFFC0001FF8000001FFFE0000007FFFFFF0001FFFFFFFC00003FFE00001
310
FFFFC00003FFE00001FFFF0001FFFFFFFFF00007FFFE0001F000E0000FFFFF00
310
00FFFF800001FFFC00000FFFFF80007FC0001FFFFE0001FC0001FFFFE0001FF8
310
000001FFFE0000007FFFFFF0001FFFFFFF80000FFFF80000FFFF80000FFFF800
310
00FFFF0003FFFFFFFFE0000FFFFF8000F000C0003FFFFF8000FFFF800000FFFC
310
000007FFFF80007F80003FFFFF0001FC0003FFFFF0001FF8000001FFFE000000
310
7FFFFFF0001FFFFFFF80003FFFFE0000FFFF80003FFFFE0000FFFF0003FFFFFF
310
FFE0003FFFFF8000F000C0003FFFFF8000FFFF800000FFFC000007FFFF80007F
310
80007FFFFF8001F80007FFFFF8000FF8000001FFFE0000007FFFFFF0001FFFFF
310
FF00007FFFFF00007FFF00007FFFFF00007FFF0003FFFFFFFFE0003FFFFFC000
310
F000C0007FFFFFC000FFFF000000FFFC000007FFFF80007F8000FFFFFF8000F8
310
000FFFFFF8000FF8000001FFFE0000007FFFFFF0001FFFFFFF0000FFFFFF8000
310
7FFF0000FFFFFF80007FFF0003FFFFFFFFC0007FFFFFC00070008000FFFFFFC0
310
00FFFF000000FFF8000007FFFF80007F8000FFFFFF8000F8000FFFFFF8000FF8
310
000001FFFE0000007FFFFFF0001FFFFFFE0001FFFFFFC0003FFE0001FFFFFFC0
310
003FFF0003FFFFFFFFC0007FFFFFE00070008000FFFFFFC0007FFF0000007FF8
310
000003FFFF80007F0001FFFFFF8000F8000FFFFFF8000FF8000001FFFE000000
310
7FFFFFF0001FFFFFFE0001FFFFFFC0003FFE0001FFFFFFC0003FFF0003FFFFFF
310
FFC000FFFFFFE00070008000FFFFFFC0007FFF0000007FF8000003FFFF80007F
310
0001FFFFFF8000F8001FFFFFF8000FF8000001FFFE0000007FFFFFF0001FFFFF
310
FE0003FFFFFFE0003FFE0003FFFFFFE0003FFF0003FFFFFFFFC000FFFFFFE000
310
70008000FFFFFFC0007FFE0000007FF8000003FFFF80007F0001FFFFFF8000F0
310
001FFFFFF8000FF8000001FFFE0000007FFFFFF0001FFFFFFC0003FFFFFFE000
310
1FFC0003FFFFFFE0001FFF0003FFFFFFFFC000FFFFFFC00070008000FFFFFF80
310
007FFE0000007FF0000003FFFF80007F0001FFFFFF0000F0001FFFFFF8000FF8
310
000001FFFE0000007FFFFFF0001FFFFFFC0007FFFFFFF0001FFC0007FFFFFFF0
310
001FFF0003FFFFFFFFC000FFFFFFC00070008001FFFFFF0000FFFE0000003FF0
310
000001FFFF80007F0001FFFFFF0000F8001FFFFFF0000FF8000001FFFE000000
310
7FFFFFF0001FFFFFFC0007FFFFFFF0001FFC0007FFFFFFF0001FFF0003FFFFFF
310
FFC001FFFFFF80007000FFFFFFFFFE0000FFFE0008003FF0008001FFFF80007F
310
FFFFFFFFFC0000FFFFFFFFFFE0000FF8000001FFFE0000007FFFFFF0001FFFFF
310
F8000FFFFFFFF8000FF8000FFFFFFFF8000FFF0003FFFFFFFFFFFFFFFFFF0000
310
7000FFFFFFFFFC0000FFFC0008003FF0008001FFFF80007FFFFFFFFFF80001FF
310
FFFFFFFF80000FF8000001FFFE0000007FFFFFF0001FFFFFF8000FFFFFFFF800
310
0FF8000FFFFFFFF8000FFF0003FFFFFFFFFFFFFFFFFE0000F000FFFFFFFFE000
310
00FFFC000C003FE000C001FFFF80007FFFFFFFFFC00001FFFFFFFFFE00001FF8
310
000001FFFE0000007FFFFFF0001FFFFFF8000FFFFFFFF8000FF8000FFFFFFFF8
310
000FFF0003FFFFFFFFFFFFFFFFF00000F000FFFFFFFE000001FFFC000C001FE0
310
00C000FFFF80007FFFFFFFFE000001FFFFFFFFE000001FF80FFFFFFFFFFFFFC0
310
7FFFFFF0001FFFFFF8000FFFFFFFF8000FF8000FFFFFFFF8000FFF0003FFFFFF
310
FFFFFFFFFF800000F000FFFFFFC0000001FFFC001C001FE001C000FFFF80007F
310
FFFFFF80000003FFFFFFF80000001FF80FFFFFFFFFFFFFC07FFFFFF0001FFFFF
310
F8001FFFFFFFFC000FF8001FFFFFFFFC000FFF0003FFFFFFFFFFFFFFF0000001
310
F000FFFFF800000001FFF8001C001FE001C000FFFF80007FFFFFF800000003FF
310
FFFF800000003FF80FFFFFFFFFFFFFC07FFFFFF0001FFFFFF8001FFFFFFFFC00
310
0FF8001FFFFFFFFC000FFF0003FFFFFFFFFFFFFE00000001F000FFFFC0000000
310
03FFF8001E001FC001E000FFFF80007FFFFF8000000007FFFFFC000000003FF8
310
0FFFFFFFFFFFFFC07FFFFFF0001FFFFFF8001FFFFFFFFC000FF8001FFFFFFFFC
310
000FFF0003FFFFFFFFFFFFE000000003F000FFFE0000000007FFF8001E000FC0
310
01E0007FFF80007FFFFE0000000007FFFFE0000000007FF80FFFFFFFFFFFFFC0
310
7FFFFFF0001FFFFFF0001FFFFFFFFC0007F0001FFFFFFFFC0007FF0003FFFFFF
310
FFFFFF0000000003F000FFF80000000007FFF8001E000FC003E0007FFF80007F
310
FFF0000000000FFFFF8000000000FFF80FFFFFFFFFFFFFC07FFFFFF0001FFFFF
310
F0001FFFFFFFFC0007F0001FFFFFFFFC0007FF0003FFFFFFFFFFFC0000000007
310
F000FFE0000000000FFFF0003E000FC003E0007FFF80007FFFC0000000001FFF
310
FE0000000001FFF80FFFFFFFFFFFFFC07FFFFFF0001FFFFFF0001FFFFFFFFC00
310
07F0001FFFFFFFFC0007FF0003FFFFFFFFFFF0000000000FF000FFC000000000
310
1FFFF0003F000F8003F0003FFF80007FFF80000000003FFFF80000000003FFF8
310
0FFFFFFFFFFFFFC07FFFFFF0001FFFFFF0001FFFFFFFFC0007F0001FFFFFFFFC
310
0007FF0003FFFFFFFFFFE0000000001FF000FF00000000007FFFF0003F000780
310
03F0003FFF80007FFF00000000007FFFF00000000007FFF80FFFFFFFFFFFFFC0
310
7FFFFFF0001FFFFFF0001FFFFFFFFC0007F0001FFFFFFFFC0007FF0003FFFFFF
310
FFFF80000000007FF000FE0000000000FFFFE0003F00078007F0003FFF80007F
310
FE0000000001FFFFE0000000001FFFF80FFFFFFFFFFFFFC07FFFFFF0001FFFFF
310
F0001FFFFFFFFC0007F0001FFFFFFFFC0007FF0003FFFFFFFFFF0000000000FF
310
F000FC0000000003FFFFE0007F00078007F0003FFF80007FFC0000000007FFFF
310
C0000000007FFFF80FFFFFFFFFFFFFC07FFFFFF0001FFFFFF8001FFFFFFFFC00
310
0FF8001FFFFFFFFC000FFF0003FFFFFFFFFE0000000003FFF000FC000000000F
310
FFFFE0007F80070007F8001FFF80007FF8000000001FFFFF8000000001FFFFF8
310
0FFFFFFFFFFFFFC07FFFFFF0001FFFFFF8001FFFFFFFFC000FF8001FFFFFFFFC
310
000FFF0003FFFFFFFFFC000000000FFFF000F8000000007FFFFFE0007F800700
310
07F8001FFF80007FF000000000FFFFFF800000000FFFFFF80FFFFFFFFFFFFFC0
310
7FFFFFF0001FFFFFF8000FFFFFFFF8000FF8000FFFFFFFF8000FFF0003FFFFFF
310
FFFC000000007FFFF000F800000007FFFFFFC0007F8003000FF8001FFF80007F
310
F000000007FFFFFF000000007FFFFFF80FFFFFFFFFFFFFC07FFFFFF0001FFFFF
310
F8000FFFFFFFF8000FF8000FFFFFFFF8000FFF0003FFFFFFFFF80000000FFFFF
310
F000F0000000FFFFFFFFC000FF8003000FF8001FFF80007FE0000000FFFFFFFF
310
0000000FFFFFFFF8000001FFFE0000007FFFFFF0001FFFFFF8000FFFFFFFF800
310
0FF8000FFFFFFFF8000FFF0003FFFFFFFFF8000000FFFFFFF000F000000FFFFF
310
FFFFC000FFC002000FF8000FFF80007FE000001FFFFFFFFE000001FFFFFFFFF8
310
000001FFFE0000007FFFFFF0001FFFFFF8000FFFFFFFF8000FF8000FFFFFFFF8
310
000FFF0003FFFFFFFFF000001FFFFFFFF000E00000FFFFFFFFFFC000FFC00200
310
0FFC000FFF80007FE00001FFFFFFFFFE00001FFFFFFFFFF8000001FFFE000000
310
7FFFFFF0001FFFFFFC000FFFFFFFF8001FFC000FFFFFFFF8001FFF0003FFFFFF
310
FFF00001FFFFFFFFF000E00007FFFFFFFFFF8000FFC000001FFC000FFF80007F
310
C0000FFFFFFFFFFE0000FFFFFFFFFFF8000001FFFE0000007FFFFFF0001FFFFF
310
FC0007FFFFFFF0001FFC0007FFFFFFF0001FFF0003FFFFFFFFF00007FFFFFFFF
310
F000E0001FFFFFFFFFFF8000FFC000001FFC000FFF80007FC0003FFFFFFFFFFE
310
0001FFFFFFFFFFF8000001FFFE0000007FFFFFF0001FFFFFFC0007FFFFFFF000
310
1FFC0007FFFFFFF0001FFF0003FFFFFFFFF0001FFFFFFFFFF000E0003FFFFF00
310
03FF8001FFE000001FFC0007FF80007FC0007FFFFF0007FC0003FFFFF0003FF8
310
000001FFFE0000007FFFFFF0001FFFFFFC0003FFFFFFE0001FFC0003FFFFFFE0
310
001FFF0003FFFFFFFFF0003FFFFFFFFFF000E0003FFFFF0001FF8001FFE00000
310
1FFE0007FF80007FC0007FFFFE0003FC0007FFFFE0003FF8000001FFFE000000
310
7FFFFFF0001FFFFFFE0003FFFFFFE0003FFE0003FFFFFFE0003FFF0003FFFFFF
310
FFF0003FFFFF8001F000E0003FFFFF0001FF0001FFE000001FFE0007FF80007F
310
C0007FFFFE0003FC0007FFFFE0003FF8000001FFFE0000007FFFFFF0001FFFFF
310
FE0001FFFFFFC0003FFE0001FFFFFFC0003FFF0003FFFFFFFFF0003FFFFF0001
310
F000E0003FFFFF0003FF0001FFE000003FFE0007FF80007FC0007FFFFE0003FC
310
0007FFFFE0003FF8000001FFFE0000007FFFFFF0001FFFFFFF0001FFFFFFC000
310
7FFF0001FFFFFFC0007FFF0003FFFFFFFFF0003FFFFF0001F000E0003FFFFE00
310
03FF0003FFF000003FFE0003FF80007FC0007FFFFC0003FE0007FFFFE0003FF8
310
000001FFFE0000007FFFFFF0001FFFFFFF0000FFFFFF80007FFF0000FFFFFF80
310
007FFF0003FFFFFFFFF0003FFFFF0001F000E0003FFFFE0003FF0003FFF00000
310
3FFF0003FF80007FC0007FFFFC0007FE0007FFFFC0003FF8000001FFFE000000
310
7FFFFFF0001FFFFFFF80007FFFFF0000FFFF80007FFFFF0000FFFF0003FFFFFF
310
FFF0003FFFFF0003F000E0003FFFFC0003FE0003FFF000003FFF0003FF80007F
310
E0003FFFF80007FE0003FFFFC0007FF8000001FFFE0000007FFFFFF0001FFFFF
310
FF80003FFFFE0000FFFF80003FFFFE0000FFFF0003FFFFFFFFF0001FFFFE0003
310
F000F0001FFFF80003FE0003FFF000007FFF0001FF80007FE0003FFFF00007FE
310
0001FFFF80007FF8000001FFFE0000007FFFFFF0001FFFFFFFC0000FFFF80001
310
FFFFC0000FFFF80001FFFF0003FFFFFFFFF0001FFFFC0003F000F0000FFFF000
310
07FE0007FFF800007FFF0001FF80007FE0001FFFE00007FF0000FFFE00007FF8
310
000001FFFE0000007FFFFFF0001FFFFFFFC00003FFE00001FFFFC00003FFE000
310
01FFFF0003FFFFFFFFF8000FFFF80003F000F00003FFC00007FC0007FFF80000
310
7FFF8001FF80007FF00007FF80000FFF00007FF80000FFF8000001FFFE000000
310
7F80000000000001FFE000003E000003FFFFE000003E000003FFFF0003FFFFFF
310
FFF80003FFE00007F000F800000000000FFC0007FFF800007FFF8001FF80007F
310
F000000000000FFF000000000000FFF8000001FFFE0000007F80000000000001
310
FFF0000000000007FFFFF0000000000007FFFF0003FFFFFFFFFC00007E000007
310
F000F800000000000FFC0007FFF80000FFFF8000FF80007FF800000000001FFF
310
800000000001FFF8000001FFFE0000007F80000000000001FFF800000000000F
310
FFFFF800000000000FFFFF0003FFFFFFFFFC00000000000FF000FC0000000000
310
1FFC0007FFFC0000FFFF8000FF80007FF800000000003FFFC00000000001FFF8
310
000001FFFE0000007F80000000000001FFF800000000000FFFFFF80000000000
310
0FFFFF0003FFFFFFFFFE00000000001FF000FE00000000003FF8000FFFFC0000
310
FFFF8000FF80007FFC00000000003FFFC00000000003FFF8000001FFFE000000
310
7F80000000000001FFFC00000000001FFFFFFC00000000001FFFFF0003FFFFFF
310
FFFF00000000001FF000FF00000000003FF8000FFFFC0000FFFFC000FF80007F
310
FE00000000007FFFE00000000007FFF8000001FFFE0000007F80000000000001
310
FFFE00000000003FFFFFFE00000000003FFFFF0003FFFFFFFFFF80000000003F
310
F000FF80000000007FF8000FFFFC0001FFFFC0007F80007FFF0000000000FFFF
310
F0000000000FFFF800000000000000007F80000000000001FFFF8000000000FF
310
FFFFFF8000000000FFFFFF0003FFFFFFFFFFC0000000007FF000FFC000000000
310
FFF8000FFFFE0001FFFFC0007F80007FFF8000000001FFFFF8000000001FFFF8
310
00000000000000007F80000000000001FFFFC000000001FFFFFFFFC000000001
310
FFFFFF0003FFFFFFFFFFE000000000FFF000FFE000000003FFF0001FFFFE0001
310
FFFFC0007F80007FFFC000000007FFFFFE000000003FFFF80000000000000000
310
7F80000000000001FFFFE000000003FFFFFFFFE000000003FFFFFF0003FFFFFF
310
FFFFF000000003FFF000FFF80000000FFFF0001FFFFE0001FFFFE0007F80007F
310
FFF00000000FFFFFFF00000000FFFFF800000000000000007F80000000000001
310
FFFFF80000000FFFFFFFFFF80000000FFFFFFF0003FFFFFFFFFFFC0000000FFF
310
F000FFFE0000003FFFF0001FFFFE0003FFFFE0003F80007FFFFC0000003FFFFF
310
FFC0000003FFFFF800000000000000007F80000000000001FFFFFE0000003FFF
310
FFFFFFFE0000003FFFFFFF0003FFFFFFFFFFFF0000003FFFF000FFFF800000FF
310
FFF0001FFFFF0003FFFFE0003F80007FFFFF000001FFFFFFFFF800001FFFFFF8
310
00000000000000007F80000000000001FFFFFFC00001FFFFFFFFFFFFC00001FF
310
FFFFFF0003FFFFFFFFFFFFC00000FFFFF000FFFFF8000FFFFFFFFFFFFFFFFFFF
310
FFFFFFFFFFFFFFFFFFFFF0001FFFFFFFFFFF0000FFFFFFF80000000000000000
310
7FFFFFFFFFFFFFFFFFFFFFFC001FFFFFFFFFFFFFFC001FFFFFFFFFFFFFFFFFFF
310
FFFFFFFC001FFFFFF000FFFFFFFFFFFFFFFFFFFFFFFFFFFFFFFFFFFFFFFFFFFF
310
FFFFFFFFFFFFFFFFFFFFFFFFFFFFFFFFFFFFFFFFFFFFFFFFFFFFFFFFFFFFFFFF
310
FFFFFFFFFFFFFFFFFFFFFFFFFFFFFFFFFFFFFFFFFFFFFFFFFFFFFFFFFFFFFFFF
310
F000FFFFFFFFFFFFFFFFFFFFFFFFFFFFFFFFFFFFFFFFFFFFFFFFFFFFFFFFFFFF
310
FFFFFFFFFFFFFFFFFFFFFFFFFFFFFFFFFFFFFFFFFFFFFFFFFFFFFFFFFFFFFFFF
310
FFFFFFFFFFFFFFFFFFFFFFFFFFFFFFFFFFFFFFFFFFFFFFFFF000FFFFFFFFFFFF
310
FFFFFFFFFFFFFFFFFFFFFFFFFFFFFFFFFFFFFFFFFFFFFFFFFFFFFFFFFFFFFFFF
310
FFFFFFFFFFFFFFFFFFFFFFFFFFFFFFFFFFFFFFFFFFFFFFFFFFFFFFFFFFFFFFFF
310
FFFFFFFFFFFFFFFFFFFFFFFFFFFFFFFFF000FFFFFFFFFFFFFFFFFFFFFFFFFFFF
310
FFFFFFFFFFFFFFFFFFFFFFFFFFFFFFFFFFFFFFFFFFFFFFFFFFFFFFFFFFFFFFFF
310
FFFFFFFFFFFFFFFFFFFFFFFFFFFFFFFFFFFFFFFFFFFFFFFFFFFFFFFFFFFFFFFF
310
FFFFFFFFFFFFFFFFF000FFFFFFFFFFFFFFFFFFFFFFFFFFFFFFFFFFFFFFFFFFFF
310
FFFFFFFFFFFFFFFFFFFFFFFFFFFFFFFFFFFFFFFFFFFFFFFFFFFFFFFFFFFFFFFF
310
FFFFFFFFFFFFFFFFFFFFFFFFFFFFFFFFFFFFFFFFFFFFFFFFFFFFFFFFFFFFFFFF
310
F000FFFFFFFFFFFFFFFFFFFFFFFFFFFFFFFFFFFFFFFFFFFFFFFFFFFFFFFFFFFF
310
FFFFFFFFFFFFFFFFFFFFFFFFFFFFFFFFFFFFFFFFFFFFFFFFFFFFFFFFFFFFFFFF
310
FFFFFFFFFFFFFFFFFFFFFFFFFFFFFFFFFFFFFFFFFFFFFFFFF000FFFFFFFFFFFF
310
FFFFFFFFFFFFFFFFFFFFFFFFFFFFFFFFFFFFFFFFFFFFFFFFFFFFFFFFFFFFFFFF
310
FFFFFFFFFFFFFFFFFFFFFFFFFFFFFFFFFFFFFFFFFFFFFFFFFFFFFFFFFFFFFFFF
310
FFFFFFFFFFFFFFFFFFFFFFFFFFFFFFFFF000FFFFFFFFFFFFFFFFFFFFFFFFFFFF
310
FFFFFFFFFFFFFFFFFFFFFFFFFFFFFFFFFFFFFFFFFFFFFFFFFFFFFFFFFFFFFFFF
310
FFFFFFFFFFFFFFFFFFFFFFFFFFFFFFFFFFFFFFFFFFFFFFFFFFFFFFFFFFFFFFFF
310
FFFFFFFFFFFFFFFFF000FFFFFFFFFFFFFFFFFFFFFFFFFFFFFFFFFFFFFFFFFFFF
310
FFFFFFFFFFFFFFFFFFFFFFFFFFFFFFFFFFFFFFFFFFFFFFFFFFFFFFFFFFFFFFFF
310
FFFFFFFFFFFFFFFFFFFFFFFFFFFFFFFFFFFFFFFFFFFFFFFFFFFFFFFFFFFFFFFF
310
F000FFFFFFFFFFFFFFFFFFFFFFFFFFFFFFFFFFFFFFFFFFFFFFFFFFFFFFFFFFFF
310
FFFFFFFFFFFFFFFFFFFFFFFFFFFFFFFFFFFFFFFFFFFFFFFFFFFFFFFFFFFFFFFF
310
FFFFFFFFFFFFFFFFFFFFFFFFFFFFFFFFFFFFFFFFFFFFFFFFF000FFFFFFFFFFFF
310
FFFFFFFFFFFFFFFFFFFFFFFFFFFFFFFFFFFFFFFFFFFFFFFFFFFFFFFFFFFFFFFF
310
FFFFFFFFFFFFFFFFFFFFFFFFFFFFFFFFFFFFFFFFFFFFFFFFFFFFFFFFFFFFFFFF
310
FFFFFFFFFFFFFFFFFFFFFFFFFFFFFFFFF000FFFFFFFFFFFFFFFFFFFFFFFFFFFF
310
FFFFFFFFFFFFFFFFFFFFFFFFFFFFFFFFFFFFFFFFFFFFFFFFFFFFFFFFFFFFFFFF
310
FFFFFFFFFFFFFFFFFFFFFFFFFFFFFFFFFFFFFFFFFFFFFFFFFFFFFFFFFFFFFFFF
310
FFFFFFFFFFFFFFFFF000FFFFFFFFFFFFFFFFFFFFFFFFFFFFFFFFFFFFFFFFFFFF
310
FFFFFFFFFFFFFFFFFFFFFFFFFFFFFFFFFFFFFFFFFFFFFFFFFFFFFFFFFFFFFFFF
310
FFFFFFFFFFFFFFFFFFFFFFFFFFFFFFFFFFFFFFFFFFFFFFFFFFFFFFFFFFFFFFFF
310
F000FFFFFFFFFFFFFFFFFFFFFFFFFFFFFFFFFFFFFFFFFFFFFFFFFFFFFFFFFFFF
310
FFFFFFFFFFFFFFFFFFFFFFFFFFFFFFFFFFFFFFFFFFFFFFFFFFFFFFFFFFFFFFFF
310
FFFFFFFFFFFFFFFFFFFFFFFFFFFFFFFFFFFFFFFFFFFFFFFFF000FFFFFFFFFFFF
310
FFFFFFFFFFFFFFFFFFFFFFFFFFFFFFFFFFFFFFFFFFFFFFFFFFFFFFFFFFFFFFFF
310
FFFFFFFFFFFFFFFFFFFFFFFFFFFFFFFFFFFFFFFFFFFFFFFFFFFFFFFFFFFFFFFF
310
FFFFFFFFFFFFFFFFFFFFFFFFFFFFFFFFF000FFFFFFFFFFFFFFFFFFFFFFFFFFFF
310
FFFFFFFFFFFFFFFFFFFFFFFFFFFFFFFFFFFFFFFFFFFFFFFFFFFFFFFFFFFFFFFF
310
FFFFFFFFFFFFFFFFFFFFFFFFFFFFFFFFFFFFFFFFFFFFFFFFFFFFFFFFFFFFFFFF
310
FFFFFFFFFFFFFFFFF000FFFFFFFFFFFFFFFFFFFFFFFFFFFFFFFFFFFFFFFFFFFF
310
FFFFFFFFFFFFFFFFFFFFFFFFFFFFFFFFFFFFFFFFFFFFFFFFFFFFFFFFFFFFFFFF
310
FFFFFFFFFFFFFFFFFFFFFFFFFFFFFFFFFFFFFFFFFFFFFFFFFFFFFFFFFFFFFFFF
310
F000FFFFFFFFFFFFFFFFFFFFFFFFFFFFFFFFFFFFFFFFFFFFFFFFFFFFFFFFFFFF
310
FFFFFFFFFFFFFFFFFFFFFFFFFFFFFFFFFFFFFFFFFFFFFFFFFFFFFFFFFFFFFFFF
310
FFFFFFFFFFFFFFFFFFFFFFFFFFFFFFFFFFFFFFFFFFFFFFFFF000FFFFFFFFFFFF
310
FFFFFFFFFFFFFFFFFFFFFFFFFFFFFFFFFFFFFFFFFFFFFFFFFFFFFFFFFFFFFFFF
310
FFFFFFFFFFFFFFFFFFFFFFFFFFFFFFFFFFFFFFFFFFFFFFFFFFFFFFFFFFFFFFFF
310
FFFFFFFFFFFFFFFFFFFFFFFFFFFFFFFFF000FFFFFFFFFFFFFFFFFFFFFFFFFFFF
310
FFFFFFFFFFFFFFFFFFFFFFFFFFFFFFFFFFFFFFFFFFFFFFFFFFFFFFFFFFFFFFFF
310
FFFFFFFFFFFFFFFFFFFFFFFFFFFFFFFFFFFFFFFFFFFFFFFFFFFFFFFFFFFFFFFF
310
FFFFFFFFFFFFFFFFF000FFFFFFFFFFFFFFFFFFFFFFFFFFFFFFFFFFFFFFFFFFFF
310
FFFFFFFFFFFFFFFFFFFFFFFFFFFFFFFFFFFFFFFFFFFFFFFFFFFFFFFFFFFFFFFF
310
FFFFFFFFFFFFFFFFFFFFFFFFFFFFFFFFFFFFFFFFFFFFFFFFFFFFFFFFFFFFFFFF
310
F000FFFFFFFFFFFFFFFFFFFFFFFFFFFFFFFFFFFFFFFFFFFFFFFFFFFFFFFFFFFF
310
FFFFFFFFFFFFFFFFFFFFFFFFFFFFFFFFFFFFFFFFFFFFFFFFFFFFFFFFFFFFFFFF
310
FFFFFFFFFFFFFFFFFFFFFFFFFFFFFFFFFFFFFFFFFFFFFFFFF000FFFFFFFFFFFF
310
FFFFFFFFFFFFFFFFFFFFFFFFFFFFFFFFFFFFFFFFFFFFFFFFFFFFFFFFFFFFFFFF
310
FFFFFFFFFFFFFFFFFFFFFFFFFFFFFFFFFFFFFFFFFFFFFFFFFFFFFFFFFFFFFFFF
310
FFFFFFFFFFFFFFFFFFFFFFFFFFFFFFFFF0000000000000000000000000000000
310
0000000001000000010000000100000001000000010000000100000001000000
310
0000000001000000010000000100000001000000010000000100000001000000
310
0100000001000000010000000100000001000000010000000100000001000000
310
0100000001000000010000000100000001000000010000000100000001000000
310
0100000001000000010000000100000001000000010000000100000001000000
310
0100000001000000010000000000000001000000010000000100000001000000
310
0100000001000000010000000100000001000000000000000100000000000000
310
0100000001000000000000000100000001000000010000000100000001000000
310
0100000001000000010000000100000001000000010000000100000001000000
310
0100000001000000010000000100000001000000010000000100000001000000
310
0100000001000000010000000100000001000000000000000100000001000000
310
0000000001000000000000000100000001000000010000000100000001000000
310
0100000001000000010000000100000000000000010000000000000001000000
310
0000000001000000000000000100000000000000010000000100000001000000
310
0100000001000000010000000100000001000000010000000100000001000000
  1
OLE
  0
ENDSEC
  0
SECTION
  2
OBJECTS
  0
DICTIONARY
  5
C
330
0
100
AcDbDictionary
281
     1
  3
ACAD_GROUP
350
D
  3
ACAD_LAYOUT
350
1A
  3
ACAD_MLEADERSTYLE
350
20E
  3
ACAD_MLINESTYLE
350
17
  3
ACAD_PLOTSETTINGS
350
19
  3
ACAD_PLOTSTYLENAME
350
E
  3
ACAD_TABLESTYLE
350
20D
  3
ACAD_VISUALSTYLE
350
2A
  3
AcDbVariableDictionary
350
20F
  0
DICTIONARY
  5
D
102
{ACAD_REACTORS
330
C
102
}
330
C
100
AcDbDictionary
281
     1
  0
DICTIONARY
  5
1A
102
{ACAD_REACTORS
330
C
102
}
330
C
100
AcDbDictionary
281
     1
  3
Layout1
350
1E
  3
Layout2
350
26
  3
Model
350
22
  0
DICTIONARY
  5
20E
102
{ACAD_REACTORS
330
C
102
}
330
C
100
AcDbDictionary
281
     1
  0
DICTIONARY
  5
17
102
{ACAD_REACTORS
330
C
102
}
330
C
100
AcDbDictionary
281
     1
  3
Standard
350
18
  0
DICTIONARY
  5
19
102
{ACAD_REACTORS
330
C
102
}
330
C
100
AcDbDictionary
281
     1
  0
ACDBDICTIONARYWDFLT
  5
E
102
{ACAD_REACTORS
330
C
102
}
330
C
100
AcDbDictionary
281
     1
  3
Normal
350
F
100
AcDbDictionaryWithDefault
340
F
  0
DICTIONARY
  5
20D
102
{ACAD_REACTORS
330
C
102
}
330
C
100
AcDbDictionary
281
     1
  0
DICTIONARY
  5
2A
102
{ACAD_REACTORS
330
C
102
}
330
C
100
AcDbDictionary
281
     1
  3
2dWireframe
350
2F
  3
3D Hidden
350
31
  3
3dWireframe
350
30
  3
Basic
350
32
  3
Brighten
350
36
  3
ColorChange
350
3A
  3
Conceptual
350
34
  3
Dim
350
35
  3
Facepattern
350
39
  3
Flat
350
2B
  3
FlatWithEdges
350
2C
  3
Gouraud
350
2D
  3
GouraudWithEdges
350
2E
  3
Linepattern
350
38
  3
Realistic
350
33
  3
Thicken
350
37
  0
DICTIONARY
  5
20F
102
{ACAD_REACTORS
330
C
102
}
330
C
100
AcDbDictionary
281
     1
  3
PSOLHEIGHT
350
211
  3
PSOLWIDTH
350
210
  0
LAYOUT
  5
1E
102
{ACAD_REACTORS
330
1A
102
}
330
1A
100
AcDbPlotSettings
  1

  2
none_device
  4

  6

 40
0.0
 41
0.0
 42
0.0
 43
0.0
 44
0.0
 45
0.0
 46
0.0
 47
0.0
 48
0.0
 49
0.0
140
0.0
141
0.0
142
1.0
143
1.0
 70
   688
 72
     0
 73
     0
 74
     5
  7

 75
    16
147
1.0
148
0.0
149
0.0
100
AcDbLayout
  1
Layout1
 70
     1
 71
     1
 10
0.0
 20
0.0
 11
420.0
 21
297.0
 12
0.0
 22
0.0
 32
0.0
 14
1.0000000000E+20
 24
1.0000000000E+20
 34
1.0000000000E+20
 15
-1.0000000000E+20
 25
-1.0000000000E+20
 35
-1.0000000000E+20
146
0.0
 13
0.0
 23
0.0
 33
0.0
 16
1.0
 26
0.0
 36
0.0
 17
0.0
 27
1.0
 37
0.0
 76
     0
330
1B
  0
LAYOUT
  5
26
102
{ACAD_REACTORS
330
1A
102
}
330
1A
100
AcDbPlotSettings
  1

  2
none_device
  4

  6

 40
0.0
 41
0.0
 42
0.0
 43
0.0
 44
0.0
 45
0.0
 46
0.0
 47
0.0
 48
0.0
 49
0.0
140
0.0
141
0.0
142
1.0
143
1.0
 70
   688
 72
     0
 73
     0
 74
     5
  7

 75
    16
147
1.0
148
0.0
149
0.0
100
AcDbLayout
  1
Layout2
 70
     1
 71
     2
 10
0.0
 20
0.0
 11
0.0
 21
0.0
 12
0.0
 22
0.0
 32
0.0
 14
0.0
 24
0.0
 34
0.0
 15
0.0
 25
0.0
 35
0.0
146
0.0
 13
0.0
 23
0.0
 33
0.0
 16
1.0
 26
0.0
 36
0.0
 17
0.0
 27
1.0
 37
0.0
 76
     0
330
23
  0
LAYOUT
  5
22
102
{ACAD_REACTORS
330
1A
102
}
330
1A
100
AcDbPlotSettings
  1

  2
none_device
  4

  6

 40
0.0
 41
0.0
 42
0.0
 43
0.0
 44
0.0
 45
0.0
 46
0.0
 47
0.0
 48
0.0
 49
0.0
140
0.0
141
0.0
142
1.0
143
1.0
 70
  1712
 72
     0
 73
     0
 74
     0
  7

 75
     0
147
1.0
148
0.0
149
0.0
100
AcDbLayout
  1
Model
 70
     1
 71
     0
 10
0.0
 20
0.0
 11
297.0
 21
210.0
 12
0.0
 22
0.0
 32
0.0
 14
0.0
 24
0.0
 34
0.0
 15
297.0
 25
210.0
 35
0.0
146
0.0
 13
0.0
 23
0.0
 33
0.0
 16
1.0
 26
0.0
 36
0.0
 17
0.0
 27
1.0
 37
0.0
 76
     0
330
1F
331
29
  0
MLINESTYLE
  5
18
102
{ACAD_REACTORS
330
17
102
}
330
17
100
AcDbMlineStyle
  2
Standard
 70
     0
  3

 62
   256
 51
90.0
 52
90.0
 71
     2
 49
0.5
 62
   256
  6
BYLAYER
 49
-0.5
 62
   256
  6
BYLAYER
  0
ACDBPLACEHOLDER
  5
F
102
{ACAD_REACTORS
330
E
102
}
330
E
  0
VISUALSTYLE
  5
2F
102
{ACAD_REACTORS
330
2A
102
}
330
2A
100
AcDbVisualStyle
  2
2dWireframe
 70
     4
 71
     0
 72
     2
 73
     0
 90
        0
 40
-0.6
 41
-30.0
 62
     5
 63
     7
 74
     1
 91
        4
 64
     7
 65
   257
 75
     1
175
     1
 42
1.0
 92
        0
 66
   257
 43
1.0
 76
     1
 77
     6
 78
     2
 67
     7
 79
     5
170
     0
171
     0
290
     0
174
     0
 93
        1
 44
0.0
173
     0
291
     0
 45
0.0
1001
ACAD
1000
AcDbSavedByObjectVersion
1070
     0
  0
VISUALSTYLE
  5
31
102
{ACAD_REACTORS
330
2A
102
}
330
2A
100
AcDbVisualStyle
  2
3D Hidden
 70
     6
 71
     1
 72
     2
 73
     2
 90
        0
 40
-0.6
 41
-30.0
 62
     5
 63
     7
 74
     2
 91
        2
 64
     7
 65
   257
 75
     2
175
     1
 42
40.0
 92
        0
 66
   257
 43
1.0
 76
     1
 77
     6
 78
     2
 67
     7
 79
     3
170
     0
171
     0
290
     0
174
     0
 93
        1
 44
0.0
173
     0
291
     0
 45
0.0
1001
ACAD
1000
AcDbSavedByObjectVersion
1070
     0
  0
VISUALSTYLE
  5
30
102
{ACAD_REACTORS
330
2A
102
}
330
2A
100
AcDbVisualStyle
  2
3dWireframe
 70
     5
 71
     0
 72
     2
 73
     0
 90
        0
 40
-0.6
 41
-30.0
 62
     5
 63
     7
 74
     1
 91
        4
 64
     7
 65
   257
 75
     1
175
     1
 42
1.0
 92
        0
 66
   257
 43
1.0
 76
     1
 77
     6
 78
     2
 67
     7
 79
     5
170
     0
171
     0
290
     0
174
     0
 93
        1
 44
0.0
173
     0
291
     0
 45
0.0
1001
ACAD
1000
AcDbSavedByObjectVersion
1070
     0
  0
VISUALSTYLE
  5
32
102
{ACAD_REACTORS
330
2A
102
}
330
2A
100
AcDbVisualStyle
  2
Basic
 70
     7
 71
     1
 72
     0
 73
     1
 90
        0
 40
-0.6
 41
-30.0
 62
     5
 63
     7
 74
     0
 91
        4
 64
     7
 65
   257
 75
     1
175
     1
 42
1.0
 92
        8
 66
     7
 43
1.0
 76
     1
 77
     6
 78
     2
 67
     7
 79
     5
170
     0
171
     0
290
     0
174
     0
 93
        1
 44
0.0
173
     0
291
     1
 45
0.0
1001
ACAD
1000
AcDbSavedByObjectVersion
1070
     0
  0
VISUALSTYLE
  5
36
102
{ACAD_REACTORS
330
2A
102
}
330
2A
100
AcDbVisualStyle
  2
Brighten
 70
    12
 71
     2
 72
     2
 73
     0
 90
        0
 40
-0.6
 41
-30.0
 62
     5
 63
     7
 74
     1
 91
        4
 64
     7
 65
   257
 75
     1
175
     1
 42
1.0
 92
        8
 66
     7
 43
1.0
 76
     1
 77
     6
 78
     2
 67
     7
 79
     5
170
     0
171
     0
290
     0
174
     0
 93
        1
 44
50.0
173
     0
291
     1
 45
0.0
1001
ACAD
1000
AcDbSavedByObjectVersion
1070
     0
  0
VISUALSTYLE
  5
3A
102
{ACAD_REACTORS
330
2A
102
}
330
2A
100
AcDbVisualStyle
  2
ColorChange
 70
    16
 71
     2
 72
     2
 73
     3
 90
        0
 40
-0.6
 41
-30.0
 62
     5
 63
     8
 74
     1
 91
        4
 64
     7
 65
   257
 75
     1
175
     1
 42
1.0
 92
        8
 66
     8
 43
1.0
 76
     1
 77
     6
 78
     2
 67
     7
 79
     5
170
     0
171
     0
290
     0
174
     0
 93
        1
 44
0.0
173
     0
291
     1
 45
0.0
1001
ACAD
1000
AcDbSavedByObjectVersion
1070
     0
  0
VISUALSTYLE
  5
34
102
{ACAD_REACTORS
330
2A
102
}
330
2A
100
AcDbVisualStyle
  2
Conceptual
 70
     9
 71
     3
 72
     2
 73
     0
 90
        0
 40
-0.6
 41
-30.0
 62
     5
 63
     7
 74
     2
 91
        2
 64
     7
 65
   257
 75
     1
175
     1
 42
40.0
 92
        8
 66
     7
 43
1.0
 76
     1
 77
     6
 78
     2
 67
     7
 79
     3
170
     0
171
     0
290
     0
174
     0
 93
        1
 44
0.0
173
     0
291
     0
 45
0.0
1001
ACAD
1000
AcDbSavedByObjectVersion
1070
     0
  0
VISUALSTYLE
  5
35
102
{ACAD_REACTORS
330
2A
102
}
330
2A
100
AcDbVisualStyle
  2
Dim
 70
    11
 71
     2
 72
     2
 73
     0
 90
        0
 40
-0.6
 41
-30.0
 62
     5
 63
     7
 74
     1
 91
        4
 64
     7
 65
   257
 75
     1
175
     1
 42
1.0
 92
        8
 66
     7
 43
1.0
 76
     1
 77
     6
 78
     2
 67
     7
 79
     5
170
     0
171
     0
290
     0
174
     0
 93
        1
 44
-50.0
173
     0
291
     1
 45
0.0
1001
ACAD
1000
AcDbSavedByObjectVersion
1070
     0
  0
VISUALSTYLE
  5
39
102
{ACAD_REACTORS
330
2A
102
}
330
2A
100
AcDbVisualStyle
  2
Facepattern
 70
    15
 71
     2
 72
     2
 73
     0
 90
        0
 40
-0.6
 41
-30.0
 62
     5
 63
     7
 74
     1
 91
        4
 64
     7
 65
   257
 75
     1
175
     1
 42
1.0
 92
        8
 66
     7
 43
1.0
 76
     1
 77
     6
 78
     2
 67
     7
 79
     5
170
     0
171
     0
290
     0
174
     0
 93
        1
 44
0.0
173
     0
291
     1
 45
0.0
1001
ACAD
1000
AcDbSavedByObjectVersion
1070
     0
  0
VISUALSTYLE
  5
2B
102
{ACAD_REACTORS
330
2A
102
}
330
2A
100
AcDbVisualStyle
  2
Flat
 70
     0
 71
     2
 72
     1
 73
     1
 90
        2
 40
-0.6
 41
30.0
 62
     5
 63
     7
 74
     0
 91
        4
 64
     7
 65
   257
 75
     1
175
     1
 42
1.0
 92
        8
 66
     7
 43
1.0
 76
     1
 77
     6
 78
     2
 67
     7
 79
     5
170
     0
171
     0
290
     0
174
     0
 93
       13
 44
0.0
173
     0
291
     1
 45
0.0
1001
ACAD
1000
AcDbSavedByObjectVersion
1070
     0
  0
VISUALSTYLE
  5
2C
102
{ACAD_REACTORS
330
2A
102
}
330
2A
100
AcDbVisualStyle
  2
FlatWithEdges
 70
     1
 71
     2
 72
     1
 73
     1
 90
        2
 40
-0.6
 41
30.0
 62
     5
 63
     7
 74
     1
 91
        4
 64
     7
 65
   257
 75
     1
175
     1
 42
1.0
 92
        0
 66
   257
 43
1.0
 76
     1
 77
     6
 78
     2
 67
     7
 79
     5
170
     0
171
     0
290
     0
174
     0
 93
       13
 44
0.0
173
     0
291
     1
 45
0.0
1001
ACAD
1000
AcDbSavedByObjectVersion
1070
     0
  0
VISUALSTYLE
  5
2D
102
{ACAD_REACTORS
330
2A
102
}
330
2A
100
AcDbVisualStyle
  2
Gouraud
 70
     2
 71
     2
 72
     2
 73
     1
 90
        2
 40
-0.6
 41
30.0
 62
     5
 63
     7
 74
     0
 91
        4
 64
     7
 65
   257
 75
     1
175
     1
 42
1.0
 92
        0
 66
     7
 43
1.0
 76
     1
 77
     6
 78
     2
 67
     7
 79
     5
170
     0
171
     0
290
     0
174
     0
 93
       13
 44
0.0
173
     0
291
     1
 45
0.0
1001
ACAD
1000
AcDbSavedByObjectVersion
1070
     0
  0
VISUALSTYLE
  5
2E
102
{ACAD_REACTORS
330
2A
102
}
330
2A
100
AcDbVisualStyle
  2
GouraudWithEdges
 70
     3
 71
     2
 72
     2
 73
     1
 90
        2
 40
-0.6
 41
30.0
 62
     5
 63
     7
 74
     1
 91
        4
 64
     7
 65
   257
 75
     1
175
     1
 42
1.0
 92
        0
 66
   257
 43
1.0
 76
     1
 77
     6
 78
     2
 67
     7
 79
     5
170
     0
171
     0
290
     0
174
     0
 93
       13
 44
0.0
173
     0
291
     1
 45
0.0
1001
ACAD
1000
AcDbSavedByObjectVersion
1070
     0
  0
VISUALSTYLE
  5
38
102
{ACAD_REACTORS
330
2A
102
}
330
2A
100
AcDbVisualStyle
  2
Linepattern
 70
    14
 71
     2
 72
     2
 73
     0
 90
        0
 40
-0.6
 41
-30.0
 62
     5
 63
     7
 74
     1
 91
        4
 64
     7
 65
   257
 75
     7
175
     7
 42
1.0
 92
        8
 66
     7
 43
1.0
 76
     1
 77
     6
 78
     2
 67
     7
 79
     5
170
     0
171
     0
290
     0
174
     0
 93
        1
 44
0.0
173
     0
291
     1
 45
0.0
1001
ACAD
1000
AcDbSavedByObjectVersion
1070
     0
  0
VISUALSTYLE
  5
33
102
{ACAD_REACTORS
330
2A
102
}
330
2A
100
AcDbVisualStyle
  2
Realistic
 70
     8
 71
     2
 72
     2
 73
     0
 90
        0
 40
-0.6
 41
-30.0
 62
     5
 63
     7
 74
     1
 91
        0
 64
     7
 65
   257
 75
     1
175
     1
 42
1.0
 92
        8
 66
     8
 43
1.0
 76
     1
 77
     6
 78
     2
 67
     7
 79
     5
170
     0
171
     0
290
     0
174
     0
 93
       13
 44
0.0
173
     0
291
     0
 45
0.0
1001
ACAD
1000
AcDbSavedByObjectVersion
1070
     0
  0
VISUALSTYLE
  5
37
102
{ACAD_REACTORS
330
2A
102
}
330
2A
100
AcDbVisualStyle
  2
Thicken
 70
    13
 71
     2
 72
     2
 73
     0
 90
        0
 40
-0.6
 41
-30.0
 62
     5
 63
     7
 74
     1
 91
        4
 64
     7
 65
   257
 75
     1
175
     1
 42
1.0
 92
       12
 66
     7
 43
1.0
 76
     1
 77
     6
 78
     2
 67
     7
 79
     5
170
     0
171
     0
290
     0
174
     0
 93
        1
 44
0.0
173
     0
291
     1
 45
0.0
1001
ACAD
1000
AcDbSavedByObjectVersion
1070
     0
  0
DICTIONARYVAR
  5
211
102
{ACAD_REACTORS
330
20F
102
}
330
20F
100
DictionaryVariables
280
     0
  1
80.000000
  0
DICTIONARYVAR
  5
210
102
{ACAD_REACTORS
330
20F
102
}
330
20F
100
DictionaryVariables
280
     0
  1
5.000000
  0
ENDSEC
  0
EOF
