  0
SECTION
  2
HEADER
  9
$ACADVER
  1
AC1015
  9
$ACADMAINTVER
 70
     6
  9
$DWGCODEPAGE
  3
ANSI_1252
  9
$INSBASE
 10
0.0
 20
0.0
 30
0.0
  9
$EXTMIN
 10
0.0
 20
0.0
 30
0.0
  9
$EXTMAX
 10
297.0
 20
210.0
 30
0.0
  9
$LIMMIN
 10
0.0
 20
0.0
  9
$LIMMAX
 10
297.0
 20
210.0
  9
$ORTHOMODE
 70
     0
  9
$REGENMODE
 70
     1
  9
$FILLMODE
 70
     1
  9
$QTEXTMODE
 70
     0
  9
$MIRRTEXT
 70
     1
  9
$LTSCALE
 40
1.0
  9
$ATTMODE
 70
     1
  9
$TEXTSIZE
 40
2.0
  9
$TRACEWID
 40
1.0
  9
$TEXTSTYLE
  7
Standard
  9
$CLAYER
  8
0
  9
$CELTYPE
  6
ByLayer
  9
$CECOLOR
 62
   256
  9
$CELTSCALE
 40
1.0
  9
$DISPSILH
 70
     0
  9
$DIMSCALE
 40
1.0
  9
$DIMASZ
 40
3.0
  9
$DIMEXO
 40
0.0
  9
$DIMDLI
 40
3.75
  9
$DIMRND
 40
0.0
  9
$DIMDLE
 40
0.0
  9
$DIMEXE
 40
1.0
  9
$DIMTP
 40
0.0
  9
$DIMTM
 40
0.0
  9
$DIMTXT
 40
2.0
  9
$DIMCEN
 40
2.5
  9
$DIMTSZ
 40
0.0
  9
$DIMTOL
 70
     0
  9
$DIMLIM
 70
     0
  9
$DIMTIH
 70
     1
  9
$DIMTOH
 70
     1
  9
$DIMSE1
 70
     0
  9
$DIMSE2
 70
     0
  9
$DIMTAD
 70
     1
  9
$DIMZIN
 70
     0
  9
$DIMBLK
  1

  9
$DIMASO
 70
     1
  9
$DIMSHO
 70
     1
  9
$DIMPOST
  1

  9
$DIMAPOST
  1

  9
$DIMALT
 70
     0
  9
$DIMALTD
 70
     3
  9
$DIMALTF
 40
0.0393700787
  9
$DIMLFAC
 40
1.0
  9
$DIMTOFL
 70
     1
  9
$DIMTVP
 40
0.0
  9
$DIMTIX
 70
     0
  9
$DIMSOXD
 70
     0
  9
$DIMSAH
 70
     0
  9
$DIMBLK1
  1

  9
$DIMBLK2
  1

  9
$DIMSTYLE
  2
ISO-25
  9
$DIMCLRD
 70
     0
  9
$DIMCLRE
 70
     0
  9
$DIMCLRT
 70
     0
  9
$DIMTFAC
 40
1.0
  9
$DIMGAP
 40
1.524
  9
$DIMJUST
 70
     0
  9
$DIMSD1
 70
     0
  9
$DIMSD2
 70
     0
  9
$DIMTOLJ
 70
     0
  9
$DIMTZIN
 70
     0
  9
$DIMALTZ
 70
     0
  9
$DIMALTTZ
 70
     0
  9
$DIMUPT
 70
     0
  9
$DIMDEC
 70
     2
  9
$DIMTDEC
 70
     3
  9
$DIMALTU
 70
     2
  9
$DIMALTTD
 70
     3
  9
$DIMTXSTY
  7
Standard
  9
$DIMAUNIT
 70
     0
  9
$DIMADEC
 70
     2
  9
$DIMALTRND
 40
0.0
  9
$DIMAZIN
 70
     0
  9
$DIMDSEP
 70
    44
  9
$DIMATFIT
 70
     3
  9
$DIMFRAC
 70
     0
  9
$DIMLDRBLK
  1

  9
$DIMLUNIT
 70
     2
  9
$DIMLWD
 70
    -2
  9
$DIMLWE
 70
    -2
  9
$DIMTMOVE
 70
     0
  9
$LUNITS
 70
     2
  9
$LUPREC
 70
     2
  9
$SKETCHINC
 40
1.0
  9
$FILLETRAD
 40
10.0
  9
$AUNITS
 70
     0
  9
$AUPREC
 70
     2
  9
$MENU
  1
.
  9
$ELEVATION
 40
0.0
  9
$PELEVATION
 40
0.0
  9
$THICKNESS
 40
0.0
  9
$LIMCHECK
 70
     0
  9
$CHAMFERA
 40
10.0
  9
$CHAMFERB
 40
10.0
  9
$CHAMFERC
 40
20.0
  9
$CHAMFERD
 40
0.0
  9
$SKPOLY
 70
     0
  9
$TDCREATE
 40
2455673.494906192
  9
$TDUCREATE
 40
2455673.411572859
  9
$TDUPDATE
 40
2455673.494906204
  9
$TDUUPDATE
 40
2455673.41157287
  9
$TDINDWG
 40
0.0000000116
  9
$TDUSRTIMER
 40
0.0000000116
  9
$USRTIMER
 70
     1
  9
$ANGBASE
 50
0.0
  9
$ANGDIR
 70
     0
  9
$PDMODE
 70
     0
  9
$PDSIZE
 40
-1.0
  9
$PLINEWID
 40
0.0
  9
$SPLFRAME
 70
     0
  9
$SPLINETYPE
 70
     6
  9
$SPLINESEGS
 70
     8
  9
$HANDSEED
  5
1FD
  9
$SURFTAB1
 70
     6
  9
$SURFTAB2
 70
     6
  9
$SURFTYPE
 70
     6
  9
$SURFU
 70
     6
  9
$SURFV
 70
     6
  9
$UCSBASE
  2

  9
$UCSNAME
  2

  9
$UCSORG
 10
0.0
 20
0.0
 30
0.0
  9
$UCSXDIR
 10
1.0
 20
0.0
 30
0.0
  9
$UCSYDIR
 10
0.0
 20
1.0
 30
0.0
  9
$UCSORTHOREF
  2

  9
$UCSORTHOVIEW
 70
     0
  9
$UCSORGTOP
 10
0.0
 20
0.0
 30
0.0
  9
$UCSORGBOTTOM
 10
0.0
 20
0.0
 30
0.0
  9
$UCSORGLEFT
 10
0.0
 20
0.0
 30
0.0
  9
$UCSORGRIGHT
 10
0.0
 20
0.0
 30
0.0
  9
$UCSORGFRONT
 10
0.0
 20
0.0
 30
0.0
  9
$UCSORGBACK
 10
0.0
 20
0.0
 30
0.0
  9
$PUCSBASE
  2

  9
$PUCSNAME
  2

  9
$PUCSORG
 10
0.0
 20
0.0
 30
0.0
  9
$PUCSXDIR
 10
1.0
 20
0.0
 30
0.0
  9
$PUCSYDIR
 10
0.0
 20
1.0
 30
0.0
  9
$PUCSORTHOREF
  2

  9
$PUCSORTHOVIEW
 70
     0
  9
$PUCSORGTOP
 10
0.0
 20
0.0
 30
0.0
  9
$PUCSORGBOTTOM
 10
0.0
 20
0.0
 30
0.0
  9
$PUCSORGLEFT
 10
0.0
 20
0.0
 30
0.0
  9
$PUCSORGRIGHT
 10
0.0
 20
0.0
 30
0.0
  9
$PUCSORGFRONT
 10
0.0
 20
0.0
 30
0.0
  9
$PUCSORGBACK
 10
0.0
 20
0.0
 30
0.0
  9
$USERI1
 70
     0
  9
$USERI2
 70
     0
  9
$USERI3
 70
     0
  9
$USERI4
 70
     0
  9
$USERI5
 70
     0
  9
$USERR1
 40
0.0
  9
$USERR2
 40
0.0
  9
$USERR3
 40
0.0
  9
$USERR4
 40
0.0
  9
$USERR5
 40
0.0
  9
$WORLDVIEW
 70
     1
  9
$SHADEDGE
 70
     3
  9
$SHADEDIF
 70
    70
  9
$TILEMODE
 70
     1
  9
$MAXACTVP
 70
    64
  9
$PINSBASE
 10
0.0
 20
0.0
 30
0.0
  9
$PLIMCHECK
 70
     0
  9
$PEXTMIN
 10
1.0000000000E+20
 20
1.0000000000E+20
 30
1.0000000000E+20
  9
$PEXTMAX
 10
-1.0000000000E+20
 20
-1.0000000000E+20
 30
-1.0000000000E+20
  9
$PLIMMIN
 10
0.0
 20
0.0
  9
$PLIMMAX
 10
420.0
 20
297.0
  9
$UNITMODE
 70
     0
  9
$VISRETAIN
 70
     1
  9
$PLINEGEN
 70
     0
  9
$PSLTSCALE
 70
     1
  9
$TREEDEPTH
 70
  3020
  9
$CMLSTYLE
  2
Standard
  9
$CMLJUST
 70
     0
  9
$CMLSCALE
 40
20.0
  9
$PROXYGRAPHICS
 70
     1
  9
$MEASUREMENT
 70
     1
  9
$CELWEIGHT
370
    -1
  9
$ENDCAPS
280
     0
  9
$JOINSTYLE
280
     0
  9
$LWDISPLAY
290
     1
  9
$INSUNITS
 70
     4
  9
$HYPERLINKBASE
  1

  9
$STYLESHEET
  1

  9
$XEDIT
290
     1
  9
$CEPSNTYPE
380
     0
  9
$PSTYLEMODE
290
     1
  9
$FINGERPRINTGUID
  2
{6EC4F551-3D24-4746-A597-737F66CFD8CD}
  9
$VERSIONGUID
  2
{FAEB1C32-E019-11D5-929B-00C0DF256EC4}
  9
$EXTNAMES
290
     1
  9
$PSVPSCALE
 40
0.0
  9
$OLESTARTUP
290
     0
  0
ENDSEC
  0
SECTION
  2
CLASSES
  0
CLASS
  1
ACDBDICTIONARYWDFLT
  2
AcDbDictionaryWithDefault
  3
ObjectDBX Classes
 90
        0
280
     0
281
     0
  0
CLASS
  1
VISUALSTYLE
  2
AcDbVisualStyle
  3
ObjectDBX Classes
 90
     4095
280
     0
281
     0
  0
CLASS
  1
DICTIONARYVAR
  2
AcDbDictionaryVar
  3
ObjectDBX Classes
 90
        0
280
     0
281
     0
  0
CLASS
  1
ACDBPLACEHOLDER
  2
AcDbPlaceHolder
  3
ObjectDBX Classes
 90
        0
280
     0
281
     0
  0
CLASS
  1
LAYOUT
  2
AcDbLayout
  3
ObjectDBX Classes
 90
        0
280
     0
281
     0
  0
ENDSEC
  0
SECTION
  2
TABLES
  0
TABLE
  2
VPORT
  5
8
330
0
100
AcDbSymbolTable
 70
     1
  0
VPORT
  5
29
330
8
100
AcDbSymbolTableRecord
100
AcDbViewportTableRecord
  2
*Active
 70
     0
 10
0.0
 20
0.0
 11
1.0
 21
1.0
 12
148.5
 22
105.0
 13
0.0
 23
0.0
 14
10.0
 24
10.0
 15
10.0
 25
10.0
 16
0.0
 26
0.0
 36
1.0
 17
0.0
 27
0.0
 37
0.0
 40
210.0
 41
1.4142857143
 42
50.0
 43
0.0
 44
0.0
 50
0.0
 51
0.0
 71
     0
 72
  2000
 73
     1
 74
     3
 75
     0
 76
     0
 77
     0
 78
     0
281
     0
 65
     1
110
0.0
120
0.0
130
0.0
111
1.0
121
0.0
131
0.0
112
0.0
122
1.0
132
0.0
 79
     0
146
0.0
  0
ENDTAB
  0
TABLE
  2
LTYPE
  5
5
330
0
100
AcDbSymbolTable
 70
     6
  0
LTYPE
  5
14
330
5
100
AcDbSymbolTableRecord
100
AcDbLinetypeTableRecord
  2
ByBlock
 70
     0
  3

 72
    65
 73
     0
 40
0.0
  0
LTYPE
  5
15
330
5
100
AcDbSymbolTableRecord
100
AcDbLinetypeTableRecord
  2
ByLayer
 70
     0
  3

 72
    65
 73
     0
 40
0.0
  0
LTYPE
  5
16
330
5
100
AcDbSymbolTableRecord
100
AcDbLinetypeTableRecord
  2
Continuous
 70
     0
  3
Solid line
 72
    65
 73
     0
 40
0.0
  0
LTYPE
  5
3B
330
5
100
AcDbSymbolTableRecord
100
AcDbLinetypeTableRecord
  2
HIDDEN
 70
     0
  3
Hidden __ __ __ __ __ __ __ __ __ __ __ __ __ __
 72
    65
 73
     2
 40
1.905
 49
1.27
 74
     0
 49
-0.635
 74
     0
  0
LTYPE
  5
3C
330
5
100
AcDbSymbolTableRecord
100
AcDbLinetypeTableRecord
  2
PHANTOM
 70
     0
  3
Phantom ______  __  __  ______  __  __  ______
 72
    65
 73
     6
 40
12.7
 49
6.35
 74
     0
 49
-1.27
 74
     0
 49
1.27
 74
     0
 49
-1.27
 74
     0
 49
1.27
 74
     0
 49
-1.27
 74
     0
  0
LTYPE
  5
3D
330
5
100
AcDbSymbolTableRecord
100
AcDbLinetypeTableRecord
  2
CENTER
 70
     0
  3
Center ____ _ ____ _ ____ _ ____ _ ____ _ ____
 72
    65
 73
     4
 40
10.16
 49
6.35
 74
     0
 49
-1.27
 74
     0
 49
1.27
 74
     0
 49
-1.27
 74
     0
  0
LTYPE
  5
3E
330
5
100
AcDbSymbolTableRecord
100
AcDbLinetypeTableRecord
  2
CENTERX2
 70
     0
  3
Center (2x) ________  __  ________  __  _____
 72
    65
 73
     4
 40
20.32
 49
12.7
 74
     0
 49
-2.54
 74
     0
 49
2.54
 74
     0
 49
-2.54
 74
     0
  0
LTYPE
  5
3F
330
5
100
AcDbSymbolTableRecord
100
AcDbLinetypeTableRecord
  2
DOT2
 70
     0
  3
Dot (.5x) ........................................
 72
    65
 73
     2
 40
0.635
 49
0.0
 74
     0
 49
-0.635
 74
     0
  0
ENDTAB
  0
TABLE
  2
LAYER
  5
2
330
0
100
AcDbSymbolTable
 70
     5
  0
LAYER
  5
10
330
2
100
AcDbSymbolTableRecord
100
AcDbLayerTableRecord
  2
0
 70
     0
 62
     7
  6
Continuous
370
    -3
390
F
  0
LAYER
  5
40
330
2
100
AcDbSymbolTableRecord
100
AcDbLayerTableRecord
  2
FORMAT
 70
     0
 62
     7
  6
Continuous
370
    -3
390
F
  0
LAYER
  5
41
330
2
100
AcDbSymbolTableRecord
100
AcDbLayerTableRecord
  2
VERMASSUNG
 70
     0
 62
     7
  6
Continuous
370
    -3
390
F
  0
LAYER
  5
42
330
2
100
AcDbSymbolTableRecord
100
AcDbLayerTableRecord
  2
KOPF_DÜNN
 70
     0
 62
     7
  6
Continuous
370
    -3
390
F
  0
LAYER
  5
43
330
2
100
AcDbSymbolTableRecord
100
AcDbLayerTableRecord
  2
KOPF_DICK
 70
     0
 62
     7
  6
Continuous
370
    15
390
F
  0
ENDTAB
  0
TABLE
  2
STYLE
  5
3
330
0
100
AcDbSymbolTable
 70
     3
  0
STYLE
  5
11
330
3
100
AcDbSymbolTableRecord
100
AcDbTextStyleTableRecord
  2
Standard
 70
     0
 40
0.0
 41
1.0
 50
0.0
 71
     0
 42
2.5
  3
txt
  4

  0
STYLE
  5
44
330
3
100
AcDbSymbolTableRecord
100
AcDbTextStyleTableRecord
  2
SLDTEXTSTYLE0
 70
     0
 40
0.0
 41
0.7
 50
0.0
 71
     0
 42
0.2
  3
TXT
  4

  0
STYLE
  5
48
330
3
100
AcDbSymbolTableRecord
100
AcDbTextStyleTableRecord
  2
SLDTEXTSTYLE1
 70
     0
 40
0.0
 41
0.65
 50
0.0
 71
     0
 42
0.2
  3
TXT
  4

  0
ENDTAB
  0
TABLE
  2
VIEW
  5
6
330
0
100
AcDbSymbolTable
 70
     0
  0
ENDTAB
  0
TABLE
  2
UCS
  5
7
330
0
100
AcDbSymbolTable
 70
     0
  0
ENDTAB
  0
TABLE
  2
APPID
  5
9
330
0
100
AcDbSymbolTable
 70
     1
  0
APPID
  5
12
330
9
100
AcDbSymbolTableRecord
100
AcDbRegAppTableRecord
  2
ACAD
 70
     0
  0
ENDTAB
  0
TABLE
  2
DIMSTYLE
  5
A
330
0
100
AcDbSymbolTable
 70
     2
100
AcDbDimStyleTable
  0
DIMSTYLE
105
27
330
A
100
AcDbSymbolTableRecord
100
AcDbDimStyleTableRecord
  2
ISO-25
 70
     0
 41
2.5
 42
0.625
 43
3.75
 44
1.25
 73
     0
 74
     0
 77
     1
 78
     8
140
2.5
141
2.5
143
0.0393700787
147
0.625
171
     3
172
     1
271
     2
272
     2
274
     3
278
    44
283
     0
284
     8
340
11
  0
DIMSTYLE
105
1B6
102
{ACAD_REACTORS
330
1B5
330
1C2
330
1CC
330
1D6
330
1E0
330
1EB
102
}
330
A
100
AcDbSymbolTableRecord
100
AcDbDimStyleTableRecord
  2
SLDDIMSTYLE0
 70
     0
 41
3.0
 44
0.0
 45
0.000000001
 73
     0
 74
     0
 77
     1
 78
    12
140
2.0
147
0.5
173
     1
271
     2
272
     3
284
    12
340
44
  0
ENDTAB
  0
TABLE
  2
BLOCK_RECORD
  5
1
330
0
100
AcDbSymbolTable
 70
     7
  0
BLOCK_RECORD
  5
1F
330
1
100
AcDbSymbolTableRecord
100
AcDbBlockTableRecord
  2
*Model_Space
340
22
  0
BLOCK_RECORD
  5
1B
330
1
100
AcDbSymbolTableRecord
100
AcDbBlockTableRecord
  2
*Paper_Space
340
1E
  0
BLOCK_RECORD
  5
23
330
1
100
AcDbSymbolTableRecord
100
AcDbBlockTableRecord
  2
*Paper_Space0
340
26
  0
BLOCK_RECORD
  5
1B7
330
1
100
AcDbSymbolTableRecord
100
AcDbBlockTableRecord
  2
*D1
340
0
  0
BLOCK_RECORD
  5
1C3
330
1
100
AcDbSymbolTableRecord
100
AcDbBlockTableRecord
  2
*D2
340
0
  0
BLOCK_RECORD
  5
1CD
330
1
100
AcDbSymbolTableRecord
100
AcDbBlockTableRecord
  2
*D3
340
0
  0
BLOCK_RECORD
  5
1D7
330
1
100
AcDbSymbolTableRecord
100
AcDbBlockTableRecord
  2
*D4
340
0
  0
BLOCK_RECORD
  5
1E1
330
1
100
AcDbSymbolTableRecord
100
AcDbBlockTableRecord
  2
*D5
340
0
  0
BLOCK_RECORD
  5
1EC
330
1
100
AcDbSymbolTableRecord
100
AcDbBlockTableRecord
  2
*D6
340
0
  0
ENDTAB
  0
ENDSEC
  0
SECTION
  2
BLOCKS
  0
BLOCK
  5
20
330
1F
100
AcDbEntity
  8
0
100
AcDbBlockBegin
  2
*Model_Space
 70
     0
 10
0.0
 20
0.0
 30
0.0
  3
*Model_Space
  1

  0
ENDBLK
  5
21
330
1F
100
AcDbEntity
  8
0
100
AcDbBlockEnd
  0
BLOCK
  5
1C
330
1B
100
AcDbEntity
 67
     1
  8
0
100
AcDbBlockBegin
  2
*Paper_Space
 70
     0
 10
0.0
 20
0.0
 30
0.0
  3
*Paper_Space
  1

  0
ENDBLK
  5
1D
330
1B
100
AcDbEntity
 67
     1
  8
0
100
AcDbBlockEnd
  0
BLOCK
  5
24
330
23
100
AcDbEntity
  8
0
100
AcDbBlockBegin
  2
*Paper_Space0
 70
     0
 10
0.0
 20
0.0
 30
0.0
  3
*Paper_Space0
  1

  0
ENDBLK
  5
25
330
23
100
AcDbEntity
  8
0
100
AcDbBlockEnd
  0
BLOCK
  5
1B8
330
1B7
100
AcDbEntity
  8
0
100
AcDbBlockBegin
  2
*D1
 70
     1
 10
0.0
 20
0.0
 30
0.0
  3
*D1
  1

  0
SOLID
  5
1BA
330
1B7
100
AcDbEntity
  8
VERMASSUNG
100
AcDbTrace
 10
37.2517005822
 20
164.9019677205
 30
0.0
 11
36.8017005822
 21
161.9019677205
 31
0.0
 12
37.7017005822
 22
161.9019677205
 32
0.0
 13
37.7017005822
 23
161.9019677205
 33
0.0
  0
SOLID
  5
1BB
330
1B7
100
AcDbEntity
  8
VERMASSUNG
100
AcDbTrace
 10
37.2517005822
 20
64.9019677205
 30
0.0
 11
37.7017005822
 21
67.9019677205
 31
0.0
 12
36.8017005822
 22
67.9019677205
 32
0.0
 13
36.8017005822
 23
67.9019677205
 33
0.0
  0
LINE
  5
1BC
330
1B7
100
AcDbEntity
  8
VERMASSUNG
100
AcDbLine
 10
92.4136082971
 20
164.9019677205
 30
0.0
 11
36.2517005822
 21
164.9019677205
 31
0.0
  0
LINE
  5
1BD
330
1B7
100
AcDbEntity
  8
VERMASSUNG
100
AcDbLine
 10
92.4136082971
 20
64.9019677205
 30
0.0
 11
36.2517005822
 21
64.9019677205
 31
0.0
  0
LINE
  5
1BE
330
1B7
100
AcDbEntity
  8
VERMASSUNG
100
AcDbLine
 10
37.2517005822
 20
164.9019677205
 30
0.0
 11
37.2517005822
 21
64.9019677205
 31
0.0
  0
MTEXT
  5
1BF
330
1B7
100
AcDbEntity
  8
VERMASSUNG
100
AcDbMText
 10
34.4735650932
 20
106.6983165829
 30
0.0
 40
2.0
 41
0.0
 71
     1
 72
     1
  1
HSK A 
  7
SLDTEXTSTYLE0
 11
-7.044195017643634E-15
 21
1.0
 31
0.0
 73
     1
 44
1.0
  0
MTEXT
  5
1C0
330
1B7
100
AcDbEntity
  8
VERMASSUNG
100
AcDbMText
 10
34.6735651027
 20
115.6983171268
 30
0.0
 40
2.0
 41
0.0
 71
     1
 72
     1
  1
%%c
  7
SLDTEXTSTYLE0
 11
-7.044195017643634E-15
 21
1.0
 31
0.0
 73
     1
 44
1.0
  0
MTEXT
  5
1C1
330
1B7
100
AcDbEntity
  8
VERMASSUNG
100
AcDbMText
 10
34.6735652191
 20
119.3066437769
 30
0.0
 40
2.0
 41
0.0
 71
     1
 72
     1
  1
100
  7
SLDTEXTSTYLE0
 11
-7.044195017643634E-15
 21
1.0
 31
0.0
 73
     1
 44
1.0
  0
ENDBLK
  5
1B9
330
1B7
100
AcDbEntity
  8
0
100
AcDbBlockEnd
  0
BLOCK
  5
1C4
330
1C3
100
AcDbEntity
  8
0
100
AcDbBlockBegin
  2
*D2
 70
     1
 10
0.0
 20
0.0
 30
0.0
  3
*D2
  1

  0
SOLID
  5
1C6
330
1C3
100
AcDbEntity
  8
VERMASSUNG
100
AcDbTrace
 10
120.8636082971
 20
168.2388949079
 30
0.0
 11
123.8636082971
 21
167.7888949079
 31
0.0
 12
123.8636082971
 22
168.6888949079
 32
0.0
 13
123.8636082971
 23
168.6888949079
 33
0.0
  0
SOLID
  5
1C7
330
1C3
100
AcDbEntity
  8
VERMASSUNG
100
AcDbTrace
 10
251.9136082971
 20
168.2388949079
 30
0.0
 11
248.9136082971
 21
168.6888949079
 31
0.0
 12
248.9136082971
 22
167.7888949079
 32
0.0
 13
248.9136082971
 23
167.7888949079
 33
0.0
  0
LINE
  5
1C8
330
1C3
100
AcDbEntity
  8
VERMASSUNG
100
AcDbLine
 10
120.8636082971
 20
162.8707075414
 30
0.0
 11
120.8636082971
 21
169.2388949079
 31
0.0
  0
LINE
  5
1C9
330
1C3
100
AcDbEntity
  8
VERMASSUNG
100
AcDbLine
 10
251.9136082971
 20
133.6278271989
 30
0.0
 11
251.9136082971
 21
169.2388949079
 31
0.0
  0
LINE
  5
1CA
330
1C3
100
AcDbEntity
  8
VERMASSUNG
100
AcDbLine
 10
120.8636082971
 20
168.2388949079
 30
0.0
 11
251.9136082971
 21
168.2388949079
 31
0.0
  0
MTEXT
  5
1CB
330
1C3
100
AcDbEntity
  8
VERMASSUNG
100
AcDbMText
 10
182.9887924791
 20
170.817030271
 30
0.0
 40
2.0
 41
0.0
 71
     1
 72
     1
  1
131.05
  7
SLDTEXTSTYLE0
 73
     1
 44
1.0
  0
ENDBLK
  5
1C5
330
1C3
100
AcDbEntity
  8
0
100
AcDbBlockEnd
  0
BLOCK
  5
1CE
330
1CD
100
AcDbEntity
  8
0
100
AcDbBlockBegin
  2
*D3
 70
     1
 10
0.0
 20
0.0
 30
0.0
  3
*D3
  1

  0
SOLID
  5
1D0
330
1CD
100
AcDbEntity
  8
VERMASSUNG
100
AcDbTrace
 10
91.9136082971
 20
174.2388949079
 30
0.0
 11
94.9136082971
 21
173.7888949079
 31
0.0
 12
94.9136082971
 22
174.6888949079
 32
0.0
 13
94.9136082971
 23
174.6888949079
 33
0.0
  0
SOLID
  5
1D1
330
1CD
100
AcDbEntity
  8
VERMASSUNG
100
AcDbTrace
 10
251.9136082971
 20
174.2388949079
 30
0.0
 11
248.9136082971
 21
174.6888949079
 31
0.0
 12
248.9136082971
 22
173.7888949079
 32
0.0
 13
248.9136082971
 23
173.7888949079
 33
0.0
  0
LINE
  5
1D2
330
1CD
100
AcDbEntity
  8
VERMASSUNG
100
AcDbLine
 10
91.9136082971
 20
164.4019677205
 30
0.0
 11
91.9136082971
 21
175.2388949079
 31
0.0
  0
LINE
  5
1D3
330
1CD
100
AcDbEntity
  8
VERMASSUNG
100
AcDbLine
 10
251.9136082971
 20
133.6278271989
 30
0.0
 11
251.9136082971
 21
175.2388949079
 31
0.0
  0
LINE
  5
1D4
330
1CD
100
AcDbEntity
  8
VERMASSUNG
100
AcDbLine
 10
91.9136082971
 20
174.2388949079
 30
0.0
 11
251.9136082971
 21
174.2388949079
 31
0.0
  0
MTEXT
  5
1D5
330
1CD
100
AcDbEntity
  8
VERMASSUNG
100
AcDbMText
 10
170.0141207565
 20
176.817030271
 30
0.0
 40
2.0
 41
0.0
 71
     1
 72
     1
  1
160
  7
SLDTEXTSTYLE0
 73
     1
 44
1.0
  0
ENDBLK
  5
1CF
330
1CD
100
AcDbEntity
  8
0
100
AcDbBlockEnd
  0
BLOCK
  5
1D8
330
1D7
100
AcDbEntity
  8
0
100
AcDbBlockBegin
  2
*D4
 70
     1
 10
0.0
 20
0.0
 30
0.0
  3
*D4
  1

  0
SOLID
  5
1DA
330
1D7
100
AcDbEntity
  8
VERMASSUNG
100
AcDbTrace
 10
251.9136082971
 20
180.2388949079
 30
0.0
 11
248.9136082971
 21
180.6888949079
 31
0.0
 12
248.9136082971
 22
179.7888949079
 32
0.0
 13
248.9136082971
 23
179.7888949079
 33
0.0
  0
SOLID
  5
1DB
330
1D7
100
AcDbEntity
  8
VERMASSUNG
100
AcDbTrace
 10
42.0136082971
 20
180.2388949079
 30
0.0
 11
45.0136082971
 21
179.7888949079
 31
0.0
 12
45.0136082971
 22
180.6888949079
 32
0.0
 13
45.0136082971
 23
180.6888949079
 33
0.0
  0
LINE
  5
1DC
330
1D7
100
AcDbEntity
  8
VERMASSUNG
100
AcDbLine
 10
251.9136082971
 20
133.6278271989
 30
0.0
 11
251.9136082971
 21
181.2388949079
 31
0.0
  0
LINE
  5
1DD
330
1D7
100
AcDbEntity
  8
VERMASSUNG
100
AcDbLine
 10
42.0136082971
 20
145.4046374631
 30
0.0
 11
42.0136082971
 21
181.2388949079
 31
0.0
  0
LINE
  5
1DE
330
1D7
100
AcDbEntity
  8
VERMASSUNG
100
AcDbLine
 10
251.9136082971
 20
180.2388949079
 30
0.0
 11
42.0136082971
 21
180.2388949079
 31
0.0
  0
MTEXT
  5
1DF
330
1D7
100
AcDbEntity
  8
VERMASSUNG
100
AcDbMText
 10
143.8643222733
 20
182.817030271
 30
0.0
 40
2.0
 41
0.0
 71
     1
 72
     1
  1
209.9
  7
SLDTEXTSTYLE0
 73
     1
 44
1.0
  0
ENDBLK
  5
1D9
330
1D7
100
AcDbEntity
  8
0
100
AcDbBlockEnd
  0
BLOCK
  5
1E2
330
1E1
100
AcDbEntity
  8
0
100
AcDbBlockBegin
  2
*D5
 70
     1
 10
0.0
 20
0.0
 30
0.0
  3
*D5
  1

  0
SOLID
  5
1E4
330
1E1
100
AcDbEntity
  8
VERMASSUNG
100
AcDbTrace
 10
262.0019428826
 20
124.9019677205
 30
0.0
 11
261.5519428826
 21
121.9019677205
 31
0.0
 12
262.4519428826
 22
121.9019677205
 32
0.0
 13
262.4519428826
 23
121.9019677205
 33
0.0
  0
SOLID
  5
1E5
330
1E1
100
AcDbEntity
  8
VERMASSUNG
100
AcDbTrace
 10
262.0019428826
 20
104.9019677205
 30
0.0
 11
262.4519428826
 21
107.9019677205
 31
0.0
 12
261.5519428826
 22
107.9019677205
 32
0.0
 13
261.5519428826
 23
107.9019677205
 33
0.0
  0
LINE
  5
1E6
330
1E1
100
AcDbEntity
  8
VERMASSUNG
100
AcDbLine
 10
251.6136082971
 20
124.9019677205
 30
0.0
 11
263.0019428826
 21
124.9019677205
 31
0.0
  0
LINE
  5
1E7
330
1E1
100
AcDbEntity
  8
VERMASSUNG
100
AcDbLine
 10
251.6136082971
 20
104.9019677205
 30
0.0
 11
263.0019428826
 21
104.9019677205
 31
0.0
  0
LINE
  5
1E8
330
1E1
100
AcDbEntity
  8
VERMASSUNG
100
AcDbLine
 10
262.0019428826
 20
124.9019677205
 30
0.0
 11
262.0019428826
 21
104.9019677205
 31
0.0
  0
MTEXT
  5
1E9
330
1E1
100
AcDbEntity
  8
VERMASSUNG
100
AcDbMText
 10
259.423807403
 20
111.6982504941
 30
0.0
 40
2.0
 41
0.0
 71
     1
 72
     1
  1
%%c
  7
SLDTEXTSTYLE0
 11
-7.044195017643634E-15
 21
1.0
 31
0.0
 73
     1
 44
1.0
  0
MTEXT
  5
1EA
330
1E1
100
AcDbEntity
  8
VERMASSUNG
100
AcDbMText
 10
259.4238075194
 20
115.3069287173
 30
0.0
 40
2.0
 41
0.0
 71
     1
 72
     1
  1
20
  7
SLDTEXTSTYLE0
 11
-7.044195017643634E-15
 21
1.0
 31
0.0
 73
     1
 44
1.0
  0
ENDBLK
  5
1E3
330
1E1
100
AcDbEntity
  8
0
100
AcDbBlockEnd
  0
BLOCK
  5
1ED
330
1EC
100
AcDbEntity
  8
0
100
AcDbBlockBegin
  2
*D6
 70
     1
 10
0.0
 20
0.0
 30
0.0
  3
*D6
  1

  0
SOLID
  5
1EF
330
1EC
100
AcDbEntity
  8
VERMASSUNG
100
AcDbTrace
 10
268.0019428826
 20
140.9019677205
 30
0.0
 11
267.5519428826
 21
137.9019677205
 31
0.0
 12
268.4519428826
 22
137.9019677205
 32
0.0
 13
268.4519428826
 23
137.9019677205
 33
0.0
  0
SOLID
  5
1F0
330
1EC
100
AcDbEntity
  8
VERMASSUNG
100
AcDbTrace
 10
268.0019428826
 20
88.9019677205
 30
0.0
 11
268.4519428826
 21
91.9019677205
 31
0.0
 12
267.5519428826
 22
91.9019677205
 32
0.0
 13
267.5519428826
 23
91.9019677205
 33
0.0
  0
LINE
  5
1F1
330
1EC
100
AcDbEntity
  8
VERMASSUNG
100
AcDbLine
 10
239.0465667741
 20
140.9019677205
 30
0.0
 11
269.0019428826
 21
140.9019677205
 31
0.0
  0
LINE
  5
1F2
330
1EC
100
AcDbEntity
  8
VERMASSUNG
100
AcDbLine
 10
239.0465667741
 20
88.9019677205
 30
0.0
 11
269.0019428826
 21
88.9019677205
 31
0.0
  0
LINE
  5
1F3
330
1EC
100
AcDbEntity
  8
VERMASSUNG
100
AcDbLine
 10
268.0019428826
 20
140.9019677205
 30
0.0
 11
268.0019428826
 21
88.9019677205
 31
0.0
  0
MTEXT
  5
1F4
330
1EC
100
AcDbEntity
  8
VERMASSUNG
100
AcDbMText
 10
265.423807403
 20
111.6982504941
 30
0.0
 40
2.0
 41
0.0
 71
     1
 72
     1
  1
%%c
  7
SLDTEXTSTYLE0
 11
-7.044195017643634E-15
 21
1.0
 31
0.0
 73
     1
 44
1.0
  0
MTEXT
  5
1F5
330
1EC
100
AcDbEntity
  8
VERMASSUNG
100
AcDbMText
 10
265.4238075194
 20
115.3069287173
 30
0.0
 40
2.0
 41
0.0
 71
     1
 72
     1
  1
52
  7
SLDTEXTSTYLE0
 11
-7.044195017643634E-15
 21
1.0
 31
0.0
 73
     1
 44
1.0
  0
ENDBLK
  5
1EE
330
1EC
100
AcDbEntity
  8
0
100
AcDbBlockEnd
  0
ENDSEC
  0
SECTION
  2
ENTITIES
  0
MTEXT
  5
45
330
1F
100
AcDbEntity
  8
KOPF_DÜNN
100
AcDbMText
 10
13.8892156294
 20
23.8442973028
 30
0.0
 40
3.0
 41
0.0
 71
     1
 72
     1
  1
HA0.W20.K21.160
  7
SLDTEXTSTYLE0
 73
     1
 44
1.0
  0
MTEXT
  5
46
330
1F
100
AcDbEntity
  8
VERMASSUNG
100
AcDbMText
 10
13.9329988022
 20
28.8834360957
 30
0.0
 40
3.0
 41
0.0
 71
     1
 72
     1
  1
Flächenspannfutter_End mill adapter Weldon ø20
  7
SLDTEXTSTYLE0
 73
     1
 44
1.0
  0
MTEXT
  5
47
330
1F
100
AcDbEntity
  8
VERMASSUNG
100
AcDbMText
 10
98.8601118557
 20
13.8365368179
 30
0.0
 40
2.0
 41
0.0
 71
     1
 72
     1
  1
Datum: 09.10.2006
  7
SLDTEXTSTYLE0
 73
     1
 44
1.0
  0
MTEXT
  5
49
330
1F
100
AcDbEntity
  8
VERMASSUNG
100
AcDbMText
 10
13.933048693
 20
18.0482802738
 30
0.0
 40
2.0
 41
0.0
 71
     1
 72
     1
  1
DIN 69 893 HSK A 100
  7
SLDTEXTSTYLE1
 73
     1
 44
1.0
  0
MTEXT
  5
4A
330
1F
100
AcDbEntity
  8
VERMASSUNG
100
AcDbMText
 10
13.9808475933
 20
13.9090973692
 30
0.0
 40
2.0
 41
0.0
 71
     1
 72
     1
  1
Gewicht: 3986g
  7
SLDTEXTSTYLE0
 73
     1
 44
1.0
  0
LINE
  5
4B
330
1F
100
AcDbEntity
  8
0
  6
Continuous
 62
     7
370
    15
100
AcDbLine
 10
92.4136082971
 20
64.9019677205
 30
0.0
 11
96.8636082971
 21
64.9019677205
 31
0.0
  0
LINE
  5
4C
330
1F
100
AcDbEntity
  8
0
  6
Continuous
 62
     7
370
    15
100
AcDbLine
 10
96.8976811296
 20
164.9019677205
 30
0.0
 11
92.4136082971
 21
164.9019677205
 31
0.0
  0
ARC
  5
4D
330
1F
100
AcDbEntity
  8
0
  6
Continuous
 62
     7
370
    15
100
AcDbCircle
 10
92.4136082971
 20
65.4019677205
 30
0.0
 40
0.5
100
AcDbArc
 50
180.0
 51
270.0
  0
ARC
  5
4E
330
1F
100
AcDbEntity
  8
0
  6
Continuous
 62
     7
370
    15
100
AcDbCircle
 10
92.4136082971
 20
164.4019677205
 30
0.0
 40
0.5
100
AcDbArc
 50
90.0
 51
180.0
  0
ARC
  5
4F
330
1F
100
AcDbEntity
  8
0
  6
Continuous
 62
     7
370
    15
100
AcDbCircle
 10
91.0166713787
 20
76.2734823961
 30
0.0
 40
0.9962338214386793
100
AcDbArc
 50
25.7988228126
 51
90.0
  0
ARC
  5
50
330
1F
100
AcDbEntity
  8
0
  6
Continuous
 62
     7
370
    15
100
AcDbCircle
 10
91.0166713787
 20
153.530453045
 30
0.0
 40
0.9962338214386793
100
AcDbArc
 50
270.0
 51
334.2011771874
  0
LINE
  5
51
330
1F
100
AcDbEntity
  8
0
  6
Continuous
 62
     7
370
    15
100
AcDbLine
 10
89.4136082971
 20
77.0197162175
 30
0.0
 11
90.2194544515
 21
77.2356420438
 31
0.0
  0
LINE
  5
52
330
1F
100
AcDbEntity
  8
0
  6
Continuous
 62
     7
370
    15
100
AcDbLine
 10
90.2194544515
 20
152.5682933973
 30
0.0
 11
89.4136082971
 21
152.7842192235
 31
0.0
  0
LINE
  5
53
330
1F
100
AcDbEntity
  8
0
  6
Continuous
 62
     7
370
    15
100
AcDbLine
 10
70.4329293785
 20
151.833283406
 30
0.0
 11
52.1136082971
 21
150.9154817486
 31
0.0
  0
LINE
  5
54
330
1F
100
AcDbEntity
  8
0
  6
Continuous
 62
     7
370
    15
100
AcDbLine
 10
89.4136082971
 20
152.7842192235
 30
0.0
 11
83.3455691427
 21
152.4802092459
 31
0.0
  0
LINE
  5
55
330
1F
100
AcDbEntity
  8
0
  6
Continuous
 62
     7
370
    15
100
AcDbLine
 10
83.3456924191
 20
77.323720019
 30
0.0
 11
89.4136082971
 21
77.0197162175
 31
0.0
  0
LINE
  5
56
330
1F
100
AcDbEntity
  8
0
  6
Continuous
 62
     7
370
    15
100
AcDbLine
 10
57.1136082971
 20
78.6379526905
 30
0.0
 11
70.433559451
 21
77.9706204683
 31
0.0
  0
ARC
  5
57
330
1F
100
AcDbEntity
  8
0
  6
Continuous
 62
     7
370
    15
100
AcDbCircle
 10
90.4782734966
 20
76.2697162175
 30
0.0
 40
0.9999999999999858
100
AcDbArc
 50
90.0
 51
105.0
  0
ARC
  5
58
330
1F
100
AcDbEntity
  8
0
  6
Continuous
 62
     7
370
    15
100
AcDbCircle
 10
90.4782734966
 20
153.5342192235
 30
0.0
 40
1.0
100
AcDbArc
 50
255.0
 51
270.0
  0
LINE
  5
59
330
1F
100
AcDbEntity
  8
0
  6
Continuous
 62
     7
370
    15
100
AcDbLine
 10
90.4782734966
 20
77.2697162175
 30
0.0
 11
91.0166713787
 21
77.2697162175
 31
0.0
  0
LINE
  5
5A
330
1F
100
AcDbEntity
  8
0
  6
Continuous
 62
     7
370
    15
100
AcDbLine
 10
91.0166713787
 20
152.5342192235
 30
0.0
 11
90.4782734966
 21
152.5342192235
 31
0.0
  0
ARC
  5
5B
330
1F
100
AcDbEntity
  8
0
  6
Continuous
 62
     7
370
    15
100
AcDbCircle
 10
125.8636082971
 20
79.9843480144
 30
0.0
 40
5.000000000000003
100
AcDbArc
 50
106.5116637356
 51
180.0
  0
ARC
  5
5C
330
1F
100
AcDbEntity
  8
0
  6
Continuous
 62
     7
370
    15
100
AcDbCircle
 10
125.8636082971
 20
149.8195874267
 30
0.0
 40
5.000000000000003
100
AcDbArc
 50
180.0
 51
253.4883362644
  0
ARC
  5
5D
330
1F
100
AcDbEntity
  8
0
  6
Continuous
 62
     7
370
    15
100
AcDbCircle
 10
152.8636082971
 20
-11.0980322795
 30
0.0
 40
100.0
100
AcDbArc
 50
90.0
 51
106.5116637356
  0
ARC
  5
5E
330
1F
100
AcDbEntity
  8
0
  6
Continuous
 62
     7
370
    15
100
AcDbCircle
 10
152.8636082971
 20
240.9019677205
 30
0.0
 40
100.0
100
AcDbArc
 50
253.4883362644
 51
270.0
  0
LINE
  5
5F
330
1F
100
AcDbEntity
  8
0
  6
Continuous
 62
     7
370
    15
100
AcDbLine
 10
164.3304502993
 20
88.9019677205
 30
0.0
 11
239.0465667741
 21
88.9019677205
 31
0.0
  0
LINE
  5
60
330
1F
100
AcDbEntity
  8
0
  6
Continuous
 62
     7
370
    15
100
AcDbLine
 10
152.8636082971
 20
88.9019677205
 30
0.0
 11
157.4069199585
 21
88.9019677205
 31
0.0
  0
LINE
  5
61
330
1F
100
AcDbEntity
  8
0
  6
Continuous
 62
     7
370
    15
100
AcDbLine
 10
157.3921630012
 20
140.9019677205
 30
0.0
 11
152.8636082971
 21
140.9019677205
 31
0.0
  0
LINE
  5
62
330
1F
100
AcDbEntity
  8
0
  6
Continuous
 62
     7
370
    15
100
AcDbLine
 10
239.0465667741
 20
140.9019677205
 30
0.0
 11
164.3196467269
 21
140.9019677205
 31
0.0
  0
LINE
  5
63
330
1F
100
AcDbEntity
  8
0
  6
Continuous
 62
     7
370
    15
100
AcDbLine
 10
239.0465667741
 20
88.9019677205
 30
0.0
 11
250.7588448206
 21
94.3634926681
 31
0.0
  0
LINE
  5
64
330
1F
100
AcDbEntity
  8
0
  6
Continuous
 62
     7
370
    15
100
AcDbLine
 10
250.7588448206
 20
135.440442773
 30
0.0
 11
239.0465667741
 21
140.9019677205
 31
0.0
  0
ARC
  5
65
330
1F
100
AcDbEntity
  8
0
  6
Continuous
 62
     7
370
    15
100
AcDbCircle
 10
249.9136082971
 20
96.1761082422
 30
0.0
 40
2.000000000000037
100
AcDbArc
 50
295.0
 51
0.0
  0
ARC
  5
66
330
1F
100
AcDbEntity
  8
0
  6
Continuous
 62
     7
370
    15
100
AcDbCircle
 10
249.9136082971
 20
133.6278271989
 30
0.0
 40
2.000000000000037
100
AcDbArc
 50
0.0
 51
65.0
  0
LINE
  5
67
330
1F
100
AcDbEntity
  8
0
  6
Continuous
 62
     7
370
    15
100
AcDbLine
 10
43.6636082971
 20
82.6519677205
 30
0.0
 11
55.2136082971
 21
82.6519677205
 31
0.0
  0
ARC
  5
68
330
1F
100
AcDbEntity
  8
0
  6
Continuous
 62
     7
370
    15
100
AcDbCircle
 10
55.2136082971
 20
80.7519677205
 30
0.0
 40
1.900000000000007
100
AcDbArc
 50
35.6630613694
 51
90.0
  0
ARC
  5
69
330
1F
100
AcDbEntity
  8
0
  6
Continuous
 62
     7
370
    15
100
AcDbCircle
 10
50.2136082971
 20
149.0519677205
 30
0.0
 40
1.900000000000034
100
AcDbArc
 50
270.0
 51
310.9212832533
  0
LINE
  5
6A
330
1F
100
AcDbEntity
  8
0
  6
Continuous
 62
     7
370
    15
100
AcDbLine
 10
43.6636082971
 20
147.1519677205
 30
0.0
 11
42.0642921782
 21
145.5526516017
 31
0.0
  0
LINE
  5
6B
330
1F
100
AcDbEntity
  8
0
  6
Continuous
 62
     7
370
    15
100
AcDbLine
 10
42.0651295482
 20
84.2504464695
 30
0.0
 11
43.6636082971
 21
82.6519677205
 31
0.0
  0
LINE
  5
6C
330
1F
100
AcDbEntity
  8
0
  6
Continuous
 62
     7
370
    15
100
AcDbLine
 10
50.2136082971
 20
147.1519677205
 30
0.0
 11
43.6636082971
 21
147.1519677205
 31
0.0
  0
LINE
  5
6D
330
1F
100
AcDbEntity
  8
0
  6
Continuous
 62
     7
370
    15
100
AcDbLine
 10
251.9136082971
 20
102.9584301963
 30
0.0
 11
251.9785092327
 21
103.0786107423
 31
0.0
  0
LINE
  5
6E
330
1F
100
AcDbEntity
  8
0
  6
Continuous
 62
     7
370
    15
100
AcDbLine
 10
251.9196195091
 20
126.7269607908
 30
0.0
 11
251.9136082971
 21
126.7380920747
 31
0.0
  0
LINE
  5
6F
330
1F
100
AcDbEntity
  8
0
  6
Continuous
 62
     7
370
    15
100
AcDbLine
 10
96.8636082971
 20
146.2519677205
 30
0.0
 11
108.6515792762
 21
146.2519677205
 31
0.0
  0
LINE
  5
70
330
1F
100
AcDbEntity
  8
0
  6
Continuous
 62
     7
370
    15
100
AcDbLine
 10
108.6515792762
 20
66.1269741275
 30
0.0
 11
108.6515792762
 21
146.2519677205
 31
0.0
  0
LINE
  5
71
330
1F
100
AcDbEntity
  8
0
  6
Continuous
 62
     7
370
    15
100
AcDbLine
 10
108.6515792762
 20
66.1269741275
 30
0.0
 11
106.8636082971
 21
66.1269741275
 31
0.0
  0
SPLINE
  5
72
330
1F
100
AcDbEntity
  8
0
  6
Continuous
 62
     7
370
    15
100
AcDbSpline
210
0.0
220
0.0
230
1.0
 70
     8
 71
     3
 72
    30
 73
    26
 74
     0
 42
0.00000001
 43
0.00000001
 40
0.0
 40
0.0
 40
0.0
 40
0.0
 40
0.1250000000000002
 40
0.1250000000000002
 40
0.1875000000000003
 40
0.1875000000000003
 40
0.2500000000000004
 40
0.2500000000000004
 40
0.3750000000000001
 40
0.3750000000000001
 40
0.4374999999999998
 40
0.4374999999999998
 40
0.4999999999999996
 40
0.4999999999999996
 40
0.6249999999999996
 40
0.6249999999999996
 40
0.6874999999999997
 40
0.6874999999999997
 40
0.7499999999999997
 40
0.7499999999999997
 40
0.8124999999999998
 40
0.8124999999999998
 40
0.8749999999999999
 40
0.8749999999999999
 40
1.0
 40
1.0
 40
1.0
 40
1.0
 10
106.8636082971177
 20
66.1269741275089
 30
0.0
 10
106.2008636032727
 20
66.1269741275089
 30
0.0
 10
105.549607744157
 20
66.11213405092009
 30
0.0
 10
104.5891572058987
 20
66.06976448669047
 30
0.0
 10
104.2717657626657
 20
66.0522863839113
 30
0.0
 10
103.6426022611109
 20
66.010958097359
 30
0.0
 10
103.3304540746691
 20
65.98703282390129
 30
0.0
 10
102.4231467728209
 20
65.90822630743438
 30
0.0
 10
101.8497218151796
 20
65.84592028745791
 30
0.0
 10
101.035844945605
 20
65.74279096721855
 30
0.0
 10
100.7710387490351
 20
65.70660704817205
 30
0.0
 10
100.2641313382208
 20
65.63281226397154
 30
0.0
 10
100.0227371868673
 20
65.5953384051999
 30
0.0
 10
99.33359571473494
 20
65.48262646186015
 30
0.0
 10
98.9205408998707
 20
65.40709036438638
 30
0.0
 10
98.37238608049564
 20
65.29869710736888
 30
0.0
 10
98.20292347315007
 20
65.26362487570562
 30
0.0
 10
97.89490622513469
 20
65.19738941510577
 30
0.0
 10
97.75552620452632
 20
65.16606271835104
 30
0.0
 10
97.50574069189959
 20
65.10765394677013
 30
0.0
 10
97.39533457924567
 20
65.08057071158727
 30
0.0
 10
97.20407672560793
 20
65.03131095697367
 30
0.0
 10
97.12295720732364
 20
65.00904897716603
 30
0.0
 10
96.92881028721526
 20
64.95148206999777
 30
0.0
 10
96.86360829711771
 20
64.92522246521176
 30
0.0
 10
96.86360829711771
 20
64.91196872073773
 30
0.0
  0
LINE
  5
73
330
1F
100
AcDbEntity
  8
0
  6
Continuous
 62
     7
370
    15
100
AcDbLine
 10
96.8636082971
 20
64.9119687207
 30
0.0
 11
96.8636082971
 21
64.9019677205
 31
0.0
  0
SPLINE
  5
74
330
1F
100
AcDbEntity
  8
0
  6
Continuous
 62
     7
370
    15
100
AcDbSpline
210
0.0
220
0.0
230
1.0
 70
     8
 71
     3
 72
    17
 73
    13
 74
     0
 42
0.00000001
 43
0.00000001
 40
0.0
 40
0.0
 40
0.0
 40
0.0
 40
0.104384384054747
 40
0.2118345768143993
 40
0.316208200519045
 40
0.4235375806108392
 40
0.5292276236193852
 40
0.6379275864803491
 40
0.7444714844189683
 40
0.8541836219421859
 40
0.9593080534965217
 40
1.0
 40
1.0
 40
1.0
 40
1.0
 10
106.8636082971177
 20
163.8917625762012
 30
0.0
 10
106.3156698492583
 20
163.89713077995
 30
0.0
 10
105.2036997947936
 20
163.908024853615
 30
0.0
 10
103.5908438815787
 20
163.9932022278739
 30
0.0
 10
102.0573306646017
 20
164.1195769341664
 30
0.0
 10
100.6663098152651
 20
164.2764797547433
 30
0.0
 10
99.43079329803476
 20
164.4481785842638
 30
0.0
 10
98.40743753087949
 20
164.6135148603649
 30
0.0
 10
97.60709553261437
 20
164.7572283399515
 30
0.0
 10
97.0967634307008
 20
164.8553831471306
 30
0.0
 10
96.85685500187627
 20
164.9033115440005
 30
0.0
 10
96.8887737812961
 20
164.8969441447609
 30
0.0
 10
96.89768112957827
 20
164.8951672396377
 30
0.0
  0
LINE
  5
75
330
1F
100
AcDbEntity
  8
0
  6
Continuous
 62
     7
370
    15
100
AcDbLine
 10
108.6515792762
 20
163.8917625762
 30
0.0
 11
106.8636082971
 21
163.8917625762
 31
0.0
  0
LINE
  5
76
330
1F
100
AcDbEntity
  8
0
  6
Continuous
 62
     7
370
    15
100
AcDbLine
 10
108.6515792762
 20
153.8529304814
 30
0.0
 11
108.6515792762
 21
163.8917625762
 31
0.0
  0
LINE
  5
77
330
1F
100
AcDbEntity
  8
0
  6
Continuous
 62
     7
370
    15
100
AcDbLine
 10
106.5715751453
 20
153.8529304814
 30
0.0
 11
108.6515792762
 21
153.8529304814
 31
0.0
  0
SPLINE
  5
78
330
1F
100
AcDbEntity
  8
0
  6
Continuous
 62
     7
370
    15
100
AcDbSpline
210
0.0
220
0.0
230
1.0
 70
     8
 71
     3
 72
    22
 73
    18
 74
     0
 42
0.00000001
 43
0.00000001
 40
0.0
 40
0.0
 40
0.0
 40
0.0
 40
0.2500000000000002
 40
0.2500000000000002
 40
0.3750000000000003
 40
0.3750000000000003
 40
0.5000000000000004
 40
0.5000000000000004
 40
0.6250000000000004
 40
0.6250000000000004
 40
0.7500000000000004
 40
0.7500000000000004
 40
0.8750000000000004
 40
0.8750000000000004
 40
0.9375000000000002
 40
0.9375000000000002
 40
1.0
 40
1.0
 40
1.0
 40
1.0
 10
96.8636082971177
 20
146.2519677205377
 30
0.0
 10
97.06633325303679
 20
147.2712140624023
 30
0.0
 10
97.38107697483217
 20
148.2303222123416
 30
0.0
 10
98.08913244450315
 20
149.5728012898509
 30
0.0
 10
98.36759507472078
 20
150.0070098725909
 30
0.0
 10
99.00636248135798
 20
150.818637588093
 30
0.0
 10
99.36677616114818
 20
151.1979178810298
 30
0.0
 10
100.1843083931375
 20
151.9008764600509
 30
0.0
 10
100.6454763764246
 20
152.2259052777515
 30
0.0
 10
101.6434666229084
 20
152.7909206011423
 30
0.0
 10
102.1832258169007
 20
153.0346241953489
 30
0.0
 10
103.357818780932
 20
153.4388241229938
 30
0.0
 10
103.9695549669239
 20
153.5912613160394
 30
0.0
 10
104.9214641917856
 20
153.746588863648
 30
0.0
 10
105.2446973560462
 20
153.7860936436981
 30
0.0
 10
105.9037605273215
 20
153.8394027643668
 30
0.0
 10
106.2378245378955
 20
153.8529304814246
 30
0.0
 10
106.571575145297
 20
153.8529304814246
 30
0.0
  0
SPLINE
  5
79
330
1F
100
AcDbEntity
  8
0
  6
Continuous
 62
     7
370
    15
100
AcDbSpline
210
0.0
220
0.0
230
1.0
 70
     8
 71
     3
 72
    80
 73
    76
 74
     0
 42
0.00000001
 43
0.00000001
 40
-0.0312499999999993
 40
-0.0312499999999993
 40
0.0
 40
0.0
 40
0.03125
 40
0.03125
 40
0.046875
 40
0.046875
 40
0.0625
 40
0.0625
 40
0.09375
 40
0.09375
 40
0.1250000000000001
 40
0.1250000000000001
 40
0.1562500000000001
 40
0.1562500000000001
 40
0.1875000000000001
 40
0.1875000000000001
 40
0.2187500000000002
 40
0.2187500000000002
 40
0.2500000000000002
 40
0.2500000000000002
 40
0.2812500000000003
 40
0.2812500000000003
 40
0.3125000000000003
 40
0.3125000000000003
 40
0.3281250000000004
 40
0.3281250000000004
 40
0.3437500000000006
 40
0.3437500000000006
 40
0.3750000000000011
 40
0.3750000000000011
 40
0.4062500000000016
 40
0.4062500000000016
 40
0.4218750000000018
 40
0.4218750000000018
 40
0.437500000000002
 40
0.437500000000002
 40
0.4687500000000023
 40
0.4687500000000023
 40
0.5000000000000027
 40
0.5000000000000027
 40
0.531250000000003
 40
0.531250000000003
 40
0.5625000000000033
 40
0.5625000000000033
 40
0.5937500000000037
 40
0.5937500000000037
 40
0.6250000000000039
 40
0.6250000000000039
 40
0.6562500000000042
 40
0.6562500000000042
 40
0.6875000000000046
 40
0.6875000000000046
 40
0.7031250000000047
 40
0.7031250000000047
 40
0.7187500000000048
 40
0.7187500000000048
 40
0.7500000000000048
 40
0.7500000000000048
 40
0.7812500000000048
 40
0.7812500000000048
 40
0.7968750000000044
 40
0.7968750000000044
 40
0.8125000000000041
 40
0.8125000000000041
 40
0.8437500000000034
 40
0.8437500000000034
 40
0.8750000000000027
 40
0.8750000000000027
 40
0.906250000000002
 40
0.906250000000002
 40
0.9375000000000013
 40
0.9375000000000013
 40
0.9687500000000007
 40
0.9687500000000007
 40
1.0
 40
1.0
 40
1.03125
 40
1.03125
 10
101.244153609894
 20
158.316597184169
 30
0.0
 10
100.5830629843414
 20
158.316597184169
 30
0.0
 10
100.2580828550898
 20
158.3328054155511
 30
0.0
 10
99.77860944384334
 20
158.3801700475707
 30
0.0
 10
99.62012762600253
 20
158.3998242594614
 30
0.0
 10
99.30590809349826
 20
158.446935415654
 30
0.0
 10
99.14978780981785
 20
158.4745167351487
 30
0.0
 10
98.69573378086129
 20
158.5670525219425
 30
0.0
 10
98.40863039792144
 20
158.642122955539
 30
0.0
 10
97.86527584189444
 20
158.8173612641496
 30
0.0
 10
97.60817223068885
 20
158.9183625619878
 30
0.0
 10
97.14726597575007
 20
159.1357187604487
 30
0.0
 10
96.9403682665351
 20
159.2528830922209
 30
0.0
 10
96.5748429525429
 20
159.5029530164496
 30
0.0
 10
96.41963743041694
 20
159.6338991052086
 30
0.0
 10
96.17020704381723
 20
159.8996340489209
 30
0.0
 10
96.07411708803207
 20
160.0363876422319
 30
0.0
 10
95.9455982388385
 20
160.3104532170709
 30
0.0
 10
95.9137873686607
 20
160.4453933075397
 30
0.0
 10
95.91343071888743
 20
160.7108649446085
 30
0.0
 10
95.9459279710845
 20
160.8426894217497
 30
0.0
 10
96.07355344479899
 20
161.0921390213701
 30
0.0
 10
96.16798184585087
 20
161.2105717132981
 30
0.0
 10
96.35584266583643
 20
161.3794409103922
 30
0.0
 10
96.42667066463963
 20
161.4345269055124
 30
0.0
 10
96.5813925566049
 20
161.5397797340008
 30
0.0
 10
96.6653690267883
 20
161.5901149627611
 30
0.0
 10
96.93669269643271
 20
161.7346907952992
 30
0.0
 10
97.14324191503506
 20
161.8225523817162
 30
0.0
 10
97.60985205522408
 20
161.9822734747157
 30
0.0
 10
97.86221762484954
 20
162.0515117711829
 30
0.0
 10
98.26811896652826
 20
162.1412991604127
 30
0.0
 10
98.40801958400574
 20
162.1688651224989
 30
0.0
 10
98.69724351925267
 20
162.2193559234252
 30
0.0
 10
98.84708297554195
 20
162.242319362276
 30
0.0
 10
99.30119954515274
 20
162.3029498786948
 30
0.0
 10
99.6128507638896
 20
162.3330239074906
 30
0.0
 10
100.253847228802
 20
162.3736134947493
 30
0.0
 10
100.5853748567541
 20
162.3839257249653
 30
0.0
 10
101.2381659018256
 20
162.3840012921311
 30
0.0
 10
101.5627021068574
 20
162.3740996866633
 30
0.0
 10
102.2079715562739
 20
162.3336131561381
 30
0.0
 10
102.5237145624366
 20
162.3031518562534
 30
0.0
 10
103.1256038574203
 20
162.2230011848168
 30
0.0
 10
103.4163530882317
 20
162.1727189530097
 30
0.0
 10
103.9632648799163
 20
162.0520487702367
 30
0.0
 10
104.2150422437532
 20
161.9828249110667
 30
0.0
 10
104.6764302363743
 20
161.825373183426
 30
0.0
 10
104.8876995159724
 20
161.7360247087523
 30
0.0
 10
105.2510038683486
 20
161.5427768380514
 30
0.0
 10
105.4048105167914
 20
161.4386488461722
 30
0.0
 10
105.5934299863888
 20
161.2700244599887
 30
0.0
 10
105.6494604725979
 20
161.2113960583137
 30
0.0
 10
105.745034234334
 20
161.0919411434875
 30
0.0
 10
105.784797151359
 20
161.0310213546493
 30
0.0
 10
105.8805689016712
 20
160.8446166284754
 30
0.0
 10
105.9132917407973
 20
160.7155038106804
 30
0.0
 10
105.9139203271264
 20
160.4468468877245
 30
0.0
 10
105.8817341823916
 20
160.3114761469677
 30
0.0
 10
105.786823480536
 20
160.1079258387318
 30
0.0
 10
105.7473566971371
 20
160.0399539146684
 30
0.0
 10
105.6524266984162
 20
159.9038616915375
 30
0.0
 10
105.5966698706528
 20
159.835511591328
 30
0.0
 10
105.4087297526829
 20
159.6348085782859
 30
0.0
 10
105.2553682829667
 20
159.5054203044732
 30
0.0
 10
104.8931040480864
 20
159.2567548724234
 30
0.0
 10
104.6822555746205
 20
159.1369452300551
 30
0.0
 10
104.2215856043016
 20
158.9194229424825
 30
0.0
 10
103.9702112247177
 20
158.8203378426466
 30
0.0
 10
103.4243033378196
 20
158.6436653687298
 30
0.0
 10
103.1334807631684
 20
158.5676082805957
 30
0.0
 10
102.5321541483883
 20
158.4447633032427
 30
0.0
 10
102.2176355637759
 20
158.3970571781896
 30
0.0
 10
101.571054107656
 20
158.33280864307
 30
0.0
 10
101.244153609894
 20
158.316597184169
 30
0.0
 10
100.5830629843414
 20
158.316597184169
 30
0.0
  0
LINE
  5
7A
330
1F
100
AcDbEntity
  8
0
  6
Continuous
 62
     7
370
    15
100
AcDbLine
 10
91.9136082971
 20
65.4019677205
 30
0.0
 11
91.9136082971
 21
164.4019677179
 31
0.0
  0
LINE
  5
7B
330
1F
100
AcDbEntity
  8
0
  6
Continuous
 62
     7
370
    15
100
AcDbLine
 10
120.8636082971
 20
67.1526221753
 30
0.0
 11
120.8636082971
 21
146.2519677205
 31
0.0
  0
SPLINE
  5
7C
330
1F
100
AcDbEntity
  8
0
  6
Continuous
 62
     7
370
    15
100
AcDbSpline
210
0.0
220
0.0
230
1.0
 70
     8
 71
     3
 72
    14
 73
    10
 74
     0
 42
0.00000001
 43
0.00000001
 40
0.0
 40
0.0
 40
0.0
 40
0.0
 40
0.25
 40
0.25
 40
0.5
 40
0.5
 40
0.75
 40
0.75
 40
1.0
 40
1.0
 40
1.0
 40
1.0
 10
120.8636082971177
 20
67.15262217528439
 30
0.0
 10
120.8636082971177
 20
67.01919647922985
 30
0.0
 10
120.8382971972068
 20
66.88734867138551
 30
0.0
 10
120.7399624333621
 20
66.6408261226914
 30
0.0
 10
120.666818429106
 20
66.52702093445087
 30
0.0
 10
120.4833803680103
 20
66.33656375750358
 30
0.0
 10
120.3716940336717
 20
66.25892889365367
 30
0.0
 10
120.1291906033655
 20
66.1546374835412
 30
0.0
 10
119.9958161746713
 20
66.12697412750884
 30
0.0
 10
119.8636082971177
 20
66.12697412750886
 30
0.0
  0
SPLINE
  5
7D
330
1F
100
AcDbEntity
  8
0
  6
Continuous
 62
     7
370
    15
100
AcDbSpline
210
0.0
220
0.0
230
1.0
 70
    24
 71
     3
 72
    12
 73
     8
 74
     0
 42
0.00000001
 43
0.00000001
 40
0.0
 40
0.0
 40
0.0
 40
0.0
 40
0.2500000000000032
 40
0.2500000000000032
 40
0.5000000000000064
 40
0.5000000000000064
 40
1.0
 40
1.0
 40
1.0
 40
1.0
 10
119.8636082971177
 20
146.2519677205377
 30
0.0
 10
120.0156985340627
 20
146.2519677205377
 30
0.0
 10
120.1641577951381
 20
146.2519677205377
 30
0.0
 10
120.4215614274038
 20
146.2519677205377
 30
0.0
 10
120.5306661752457
 20
146.2519677205377
 30
0.0
 10
120.7847256516533
 20
146.2519677205377
 30
0.0
 10
120.8636082971177
 20
146.2519677205377
 30
0.0
 10
120.8636082971177
 20
146.2519677205377
 30
0.0
  0
LINE
  5
7E
330
1F
100
AcDbEntity
  8
0
  6
Continuous
 62
     7
370
    15
100
AcDbLine
 10
110.0036082971
 20
68.5305794335
 30
0.0
 11
110.0036082971
 21
146.2519677205
 31
0.0
  0
SPLINE
  5
7F
330
1F
100
AcDbEntity
  8
0
  6
Continuous
 62
     7
370
    15
100
AcDbSpline
210
0.0
220
0.0
230
1.0
 70
     8
 71
     3
 72
     8
 73
     4
 74
     0
 42
0.00000001
 43
0.00000001
 40
0.0
 40
0.0
 40
0.0
 40
0.0
 40
1.0
 40
1.0
 40
1.0
 40
1.0
 10
110.0036082971177
 20
68.53057943351422
 30
0.0
 10
109.5533818328399
 20
67.72912407088947
 30
0.0
 10
109.1026840055965
 20
66.92793405932879
 30
0.0
 10
108.6515792761963
 20
66.12697412750889
 30
0.0
  0
SPLINE
  5
80
330
1F
100
AcDbEntity
  8
0
  6
Continuous
 62
     7
370
    15
100
AcDbSpline
210
0.0
220
0.0
230
1.0
 70
    24
 71
     3
 72
     8
 73
     4
 74
     0
 42
0.00000001
 43
0.00000001
 40
0.0
 40
0.0
 40
0.0
 40
0.0
 40
1.0
 40
1.0
 40
1.0
 40
1.0
 10
108.6515792761963
 20
146.2519677205377
 30
0.0
 10
109.1083808485246
 20
146.2519677205377
 30
0.0
 10
109.5593954147638
 20
146.2519677205377
 30
0.0
 10
110.0036082971177
 20
146.2519677205377
 30
0.0
  0
LINE
  5
81
330
1F
100
AcDbEntity
  8
0
  6
Continuous
 62
     7
370
    15
100
AcDbLine
 10
119.8636082971
 20
66.1269741275
 30
0.0
 11
115.175637318
 21
66.1269741275
 31
0.0
  0
LINE
  5
82
330
1F
100
AcDbEntity
  8
0
  6
Continuous
 62
     7
370
    15
100
AcDbLine
 10
115.175637318
 20
66.1269741275
 30
0.0
 11
115.175637318
 21
146.2519677205
 31
0.0
  0
LINE
  5
83
330
1F
100
AcDbEntity
  8
0
  6
Continuous
 62
     7
370
    15
100
AcDbLine
 10
115.175637318
 20
146.2519677205
 30
0.0
 11
119.8636082971
 21
146.2519677205
 31
0.0
  0
SPLINE
  5
84
330
1F
100
AcDbEntity
  8
0
  6
Continuous
 62
     7
370
    15
100
AcDbSpline
210
0.0
220
0.0
230
1.0
 70
     8
 71
     3
 72
     8
 73
     4
 74
     0
 42
0.00000001
 43
0.00000001
 40
0.0
 40
0.0
 40
0.0
 40
0.0
 40
1.0
 40
1.0
 40
1.0
 40
1.0
 10
115.1756373180391
 20
66.1269741275089
 30
0.0
 10
114.7245325886389
 20
66.92793405932882
 30
0.0
 10
114.2738347613955
 20
67.72912407088947
 30
0.0
 10
113.8236082971177
 20
68.53057943351423
 30
0.0
  0
LINE
  5
85
330
1F
100
AcDbEntity
  8
0
  6
Continuous
 62
     7
370
    15
100
AcDbLine
 10
113.8236082971
 20
68.5305794335
 30
0.0
 11
113.8236082971
 21
146.2519677205
 31
0.0
  0
SPLINE
  5
86
330
1F
100
AcDbEntity
  8
0
  6
Continuous
 62
     7
370
    15
100
AcDbSpline
210
0.0
220
0.0
230
1.0
 70
    24
 71
     3
 72
     8
 73
     4
 74
     0
 42
0.00000001
 43
0.00000001
 40
0.0
 40
0.0
 40
0.0
 40
0.0
 40
1.0
 40
1.0
 40
1.0
 40
1.0
 10
113.8236082971177
 20
146.2519677205377
 30
0.0
 10
114.2678211794717
 20
146.2519677205377
 30
0.0
 10
114.7188357457109
 20
146.2519677205377
 30
0.0
 10
115.1756373180391
 20
146.2519677205377
 30
0.0
  0
SPLINE
  5
87
330
1F
100
AcDbEntity
  8
0
  6
Continuous
 62
     7
370
    15
100
AcDbSpline
210
0.0
220
0.0
230
1.0
 70
     8
 71
     3
 72
    12
 73
     8
 74
     0
 42
0.00000001
 43
0.00000001
 40
0.0
 40
0.0
 40
0.0
 40
0.0
 40
0.250000000000003
 40
0.250000000000003
 40
0.500000000000006
 40
0.500000000000006
 40
1.0
 40
1.0
 40
1.0
 40
1.0
 10
110.8036082971177
 20
70.26229226248806
 30
0.0
 10
110.6978476437688
 20
70.26229226248805
 30
0.0
 10
110.5898600155858
 20
70.23975275648765
 30
0.0
 10
110.3952653503202
 20
70.15518212449231
 30
0.0
 10
110.3063934374813
 20
70.0927004717335
 30
0.0
 10
110.0872011451554
 20
69.86331152026129
 30
0.0
 10
110.0036082971176
 20
69.65072818273887
 30
0.0
 10
110.0036082971177
 20
69.43878893814265
 30
0.0
  0
SPLINE
  5
88
330
1F
100
AcDbEntity
  8
0
  6
Continuous
 62
     7
370
    15
100
AcDbSpline
210
0.0
220
0.0
230
1.0
 70
    24
 71
     3
 72
    14
 73
    10
 74
     0
 42
0.00000001
 43
0.00000001
 40
0.0
 40
0.0
 40
0.0
 40
0.0
 40
0.25
 40
0.25
 40
0.5
 40
0.5
 40
0.75
 40
0.75
 40
1.0
 40
1.0
 40
1.0
 40
1.0
 10
110.0036082971177
 20
146.2519677205377
 30
0.0
 10
110.0036082971177
 20
146.2519677205377
 30
0.0
 10
110.0193226175837
 20
146.2519677205377
 30
0.0
 10
110.083006596052
 20
146.2519677205377
 30
0.0
 10
110.1316097904625
 20
146.2519677205377
 30
0.0
 10
110.2642933128881
 20
146.2519677205377
 30
0.0
 10
110.3493954171987
 20
146.2519677205377
 30
0.0
 10
110.5558376521088
 20
146.2519677205377
 30
0.0
 10
110.6799185937318
 20
146.2519677205377
 30
0.0
 10
110.8036082971177
 20
146.2519677205377
 30
0.0
  0
SPLINE
  5
89
330
1F
100
AcDbEntity
  8
0
  6
Continuous
 62
     7
370
    15
100
AcDbSpline
210
0.0
220
0.0
230
1.0
 70
     8
 71
     3
 72
    14
 73
    10
 74
     0
 42
0.00000001
 43
0.00000001
 40
0.0
 40
0.0
 40
0.0
 40
0.0
 40
0.25
 40
0.25
 40
0.5
 40
0.5
 40
0.75
 40
0.75
 40
1.0
 40
1.0
 40
1.0
 40
1.0
 10
113.8236082971177
 20
69.43878893814282
 30
0.0
 10
113.8236082971177
 20
69.54583301913719
 30
0.0
 10
113.8034906099595
 20
69.65106815937963
 30
0.0
 10
113.7249994206939
 20
69.84891864622733
 30
0.0
 10
113.6668427958927
 20
69.93997040979225
 30
0.0
 10
113.5203275402747
 20
70.09313650371703
 30
0.0
 10
113.4316849916336
 20
70.15543094992644
 30
0.0
 10
113.2359616688333
 20
70.24022473546243
 30
0.0
 10
113.1307304777623
 20
70.26229226248805
 30
0.0
 10
113.0236082971177
 20
70.26229226248806
 30
0.0
  0
SPLINE
  5
8A
330
1F
100
AcDbEntity
  8
0
  6
Continuous
 62
     7
370
    15
100
AcDbSpline
210
0.0
220
0.0
230
1.0
 70
    24
 71
     3
 72
    14
 73
    10
 74
     0
 42
0.00000001
 43
0.00000001
 40
0.0
 40
0.0
 40
0.0
 40
0.0
 40
0.25
 40
0.25
 40
0.5
 40
0.5
 40
0.75
 40
0.75
 40
1.0
 40
1.0
 40
1.0
 40
1.0
 10
113.0236082971177
 20
146.2519677205377
 30
0.0
 10
113.1473780618828
 20
146.2519677205377
 30
0.0
 10
113.2717451658898
 20
146.2519677205377
 30
0.0
 10
113.4781016346158
 20
146.2519677205377
 30
0.0
 10
113.5634297780341
 20
146.2519677205377
 30
0.0
 10
113.6956218367494
 20
146.2519677205377
 30
0.0
 10
113.7442670805
 20
146.2519677205377
 30
0.0
 10
113.8078028722287
 20
146.2519677205377
 30
0.0
 10
113.8236082971177
 20
146.2519677205377
 30
0.0
 10
113.8236082971177
 20
146.2519677205377
 30
0.0
  0
LINE
  5
8B
330
1F
100
AcDbEntity
  8
0
  6
Continuous
 62
     7
370
    15
100
AcDbLine
 10
113.0236082971
 20
70.2622922625
 30
0.0
 11
110.8036082971
 21
70.2622922625
 31
0.0
  0
LINE
  5
8C
330
1F
100
AcDbEntity
  8
0
  6
Continuous
 62
     7
370
    15
100
AcDbLine
 10
110.8036082971
 20
146.2519677205
 30
0.0
 11
113.0236082971
 21
146.2519677205
 31
0.0
  0
LINE
  5
8D
330
1F
100
AcDbEntity
  8
0
  6
Continuous
 62
     7
370
    15
100
AcDbLine
 10
89.4136082971
 20
77.0197162175
 30
0.0
 11
89.4136082971
 21
152.7842192235
 31
0.0
  0
LINE
  5
8E
330
1F
100
AcDbEntity
  8
0
  6
Continuous
 62
     7
370
    15
100
AcDbLine
 10
57.1136082971
 20
78.6379526905
 30
0.0
 11
57.1136082971
 21
81.0326344552
 31
0.0
  0
SPLINE
  5
8F
330
1F
100
AcDbEntity
  8
0
  6
Continuous
 62
     7
370
    15
100
AcDbSpline
210
0.0
220
0.0
230
1.0
 70
     8
 71
     3
 72
    14
 73
    10
 74
     0
 42
0.00000001
 43
0.00000001
 40
0.0
 40
0.0
 40
0.0
 40
0.0
 40
0.25
 40
0.25
 40
0.5
 40
0.5
 40
0.75
 40
0.75
 40
1.0
 40
1.0
 40
1.0
 40
1.0
 10
56.10918582578076
 20
82.73548637679417
 30
0.0
 10
56.19795440372607
 20
82.57695224548623
 30
0.0
 10
56.31967224240498
 20
82.42450956859766
 30
0.0
 10
56.55472185226182
 20
82.12737494476873
 30
0.0
 10
56.67035203847871
 20
81.98269230115137
 30
0.0
 10
56.87075697190652
 20
81.69940309864796
 30
0.0
 10
56.95615726389086
 20
81.56084910561113
 30
0.0
 10
57.07786289760808
 20
81.28946507557758
 30
0.0
 10
57.11360829712073
 20
81.15732920694296
 30
0.0
 10
57.11360829712071
 20
81.0326344551722
 30
0.0
  0
SPLINE
  5
90
330
1F
100
AcDbEntity
  8
0
  6
Continuous
 62
     7
370
    15
100
AcDbSpline
210
0.0
220
0.0
230
1.0
 70
     8
 71
     3
 72
    14
 73
    10
 74
     0
 42
0.00000001
 43
0.00000001
 40
0.0
 40
0.0
 40
0.0
 40
0.0
 40
0.124999999999999
 40
0.124999999999999
 40
0.249999999999998
 40
0.249999999999998
 40
0.5000000000000007
 40
0.5000000000000007
 40
1.0
 40
1.0
 40
1.0
 40
1.0
 10
55.21360829711772
 20
83.36431631589427
 30
0.0
 10
55.2811905969022
 20
83.37147220099567
 30
0.0
 10
55.35367817465011
 20
83.36704773095666
 30
0.0
 10
55.48596928391606
 20
83.33734157318631
 30
0.0
 10
55.54324666330622
 20
83.31405729160808
 30
0.0
 10
55.69289709050651
 20
83.23657205175776
 30
0.0
 10
55.76661038602801
 20
83.17472022485639
 30
0.0
 10
55.95441836935425
 20
82.99004277220807
 30
0.0
 10
56.03845867571569
 20
82.86179984891687
 30
0.0
 10
56.10918582578198
 20
82.73548637679427
 30
0.0
  0
SPLINE
  5
91
330
1F
100
AcDbEntity
  8
0
  6
Continuous
 62
     7
370
    15
100
AcDbSpline
210
0.0
220
0.0
230
1.0
 70
     8
 71
     3
 72
     8
 73
     4
 74
     0
 42
0.00000001
 43
0.00000001
 40
0.0
 40
0.0
 40
0.0
 40
0.0
 40
1.0
 40
1.0
 40
1.0
 40
1.0
 10
51.66896790903692
 20
82.94626773110251
 30
0.0
 10
52.83426621974579
 20
83.10145520298911
 30
0.0
 10
54.01888143378561
 20
83.23781384129944
 30
0.0
 10
55.21360829711769
 20
83.36431631589427
 30
0.0
  0
SPLINE
  5
92
330
1F
100
AcDbEntity
  8
0
  6
Continuous
 62
     7
370
    15
100
AcDbSpline
210
0.0
220
0.0
230
1.0
 70
     8
 71
     3
 72
    14
 73
    10
 74
     0
 42
0.00000001
 43
0.00000001
 40
0.0
 40
0.0
 40
0.0
 40
0.0
 40
0.5000000000000012
 40
0.5000000000000012
 40
0.7500000000000018
 40
0.7500000000000018
 40
0.8750000000000009
 40
0.8750000000000009
 40
1.0
 40
1.0
 40
1.0
 40
1.0
 10
43.91353341308737
 20
82.65613555197257
 30
0.0
 10
45.22183497562138
 20
82.66315027571368
 30
0.0
 10
46.52689435027849
 20
82.67855885215816
 30
0.0
 10
48.47277040176717
 20
82.73245540762483
 30
0.0
 10
49.11946790550633
 20
82.75548697222753
 30
0.0
 10
50.08331026936089
 20
82.80642949709828
 30
0.0
 10
50.40354896129504
 20
82.82616441933148
 30
0.0
 10
51.04024418763758
 20
82.87565154780306
 30
0.0
 10
51.35695959592057
 20
82.9047163267323
 30
0.0
 10
51.66896790903697
 20
82.94626773110245
 30
0.0
  0
SPLINE
  5
93
330
1F
100
AcDbEntity
  8
0
  6
Continuous
 62
     7
370
    15
100
AcDbSpline
210
0.0
220
0.0
230
1.0
 70
     8
 71
     3
 72
    12
 73
     8
 74
     0
 42
0.00000001
 43
0.00000001
 40
0.0
 40
0.0
 40
0.0
 40
0.0
 40
0.2500000000000001
 40
0.2500000000000001
 40
0.5000000000000001
 40
0.5000000000000001
 40
1.0
 40
1.0
 40
1.0
 40
1.0
 10
50.21360829711771
 20
146.9884906120341
 30
0.0
 10
49.69490947528953
 20
147.0210133868824
 30
0.0
 10
49.17319790208453
 20
147.0443101280528
 30
0.0
 10
48.12690588558896
 20
147.082155642475
 30
0.0
 10
47.60223425991869
 20
147.0964241169711
 30
0.0
 10
46.02538823737948
 20
147.1306336044294
 30
0.0
 10
44.97043292283259
 20
147.1421331083733
 30
0.0
 10
43.91353341308736
 20
147.1477998891028
 30
0.0
  0
SPLINE
  5
94
330
1F
100
AcDbEntity
  8
0
  6
Continuous
 62
     7
370
    15
100
AcDbSpline
210
0.0
220
0.0
230
1.0
 70
     8
 71
     3
 72
    20
 73
    16
 74
     0
 42
0.00000001
 43
0.00000001
 40
0.0
 40
0.0
 40
0.0
 40
0.0
 40
0.2500000000000011
 40
0.2500000000000011
 40
0.5000000000000021
 40
0.5000000000000021
 40
0.7500000000000031
 40
0.7500000000000031
 40
0.8750000000000008
 40
0.8750000000000008
 40
0.9375000000000006
 40
0.9375000000000006
 40
0.9687500000000003
 40
0.9687500000000003
 40
1.0
 40
1.0
 40
1.0
 40
1.0
 10
52.11360829711771
 20
148.6465764575223
 30
0.0
 10
52.1136082971177
 20
148.5108941377755
 30
0.0
 10
52.06489650790108
 20
148.3698071516354
 30
0.0
 10
51.89573508467591
 20
148.0777354329049
 30
0.0
 10
51.77395467075757
 20
147.9260866908145
 30
0.0
 10
51.47640757600808
 20
147.6236782506614
 30
0.0
 10
51.30249497030528
 20
147.471089614538
 30
0.0
 10
50.98308013642347
 20
147.2458188506957
 30
0.0
 10
50.86803936097621
 20
147.171095756185
 30
0.0
 10
50.66095503695979
 20
147.071685346928
 30
0.0
 10
50.58484720215339
 20
147.0401202545834
 30
0.0
 10
50.45345266260007
 20
147.0056768703905
 30
0.0
 10
50.4068994435986
 20
146.9966252986228
 30
0.0
 10
50.31056609251788
 20
146.9864496497844
 30
0.0
 10
50.26130666916245
 20
146.9854998911094
 30
0.0
 10
50.21360829711571
 20
146.988490612024
 30
0.0
  0
LINE
  5
95
330
1F
100
AcDbEntity
  8
0
  6
Continuous
 62
     7
370
    15
100
AcDbLine
 10
52.1136082971
 20
148.6465764575
 30
0.0
 11
52.1136082971
 21
150.9154817486
 31
0.0
  0
SPLINE
  5
96
330
1F
100
AcDbEntity
  8
0
  6
Continuous
 62
     7
370
    15
100
AcDbSpline
210
0.0
220
0.0
230
1.0
 70
     8
 71
     3
 72
    22
 73
    18
 74
     0
 42
0.00000001
 43
0.00000001
 40
0.0
 40
0.0
 40
0.0
 40
0.0
 40
0.0002937850458186
 40
0.0628841327416245
 40
0.1261981682954119
 40
0.2510182590426545
 40
0.3131038291609287
 40
0.3757650688901397
 40
0.4382989835656159
 40
0.5000628079113862
 40
0.5617337561138577
 40
0.6246555685552369
 40
0.7491916976530832
 40
0.8115302181310354
 40
0.8745847230190956
 40
0.937822758820794
 40
1.0
 40
1.0
 40
1.0
 40
1.0
 10
70.43356456095714
 20
77.97072246222534
 30
0.0
 10
70.4333697075469
 20
77.97069815490546
 30
0.0
 10
70.39166170406625
 20
77.96549521911864
 30
0.0
 10
70.53692480725022
 20
77.98410942700652
 30
0.0
 10
71.00707098442054
 20
78.0406353776025
 30
0.0
 10
71.9755270670046
 20
78.14685700702795
 30
0.0
 10
73.287986876566
 20
78.23248981445937
 30
0.0
 10
74.42011058519856
 20
78.27114588055825
 30
0.0
 10
75.64229736182054
 20
78.27480718833674
 30
0.0
 10
76.9095957493499
 20
78.2324217735669
 30
0.0
 10
78.176307403583
 20
78.14404479589155
 30
0.0
 10
79.79196539944755
 20
77.9739956672677
 30
0.0
 10
81.23192800947118
 20
77.75181393271424
 30
0.0
 10
82.29779716563506
 20
77.5488178245797
 30
0.0
 10
82.88699754907302
 20
77.42479239163036
 30
0.0
 10
83.27571706436359
 20
77.33987155118545
 30
0.0
 10
83.32250277719301
 20
77.32914483338112
 30
0.0
 10
83.34569777082028
 20
77.323826839146
 30
0.0
  0
SPLINE
  5
97
330
1F
100
AcDbEntity
  8
0
  6
Continuous
 62
     7
370
    15
100
AcDbSpline
210
0.0
220
0.0
230
1.0
 70
     8
 71
     3
 72
    41
 73
    37
 74
     0
 42
0.00000001
 43
0.00000001
 40
0.0
 40
0.0
 40
0.0
 40
0.0
 40
0.0619930061482746
 40
0.1254347783466151
 40
0.1886508898234768
 40
0.2510246408607227
 40
0.3131658188976554
 40
0.3756581641417402
 40
0.4382227146727798
 40
0.4998044922940677
 40
0.56151641971787
 40
0.6240683094121985
 40
0.686725723240935
 40
0.7488365305144522
 40
0.8110685944253986
 40
0.8741742884451361
 40
0.9373212787645211
 40
0.9685511709617411
 40
0.9842086872487193
 40
0.9920641182531791
 40
0.996000486125535
 40
0.9979710794120144
 40
0.9989570090489596
 40
0.9994501359395065
 40
0.9996967403802177
 40
0.9998200529090742
 40
0.9998817117580818
 40
0.999912541829664
 40
0.9999279570273361
 40
0.9999356646666602
 40
0.9999395184964466
 40
0.9999414454138695
 40
0.9999424088732151
 40
0.9999433723329806
 40
0.9999501697010513
 40
1.0
 40
1.0
 40
1.0
 40
1.0
 10
83.34557644034228
 20
152.4800635839779
 30
0.0
 10
83.32200479499868
 20
152.474754104328
 30
0.0
 10
83.27431063895362
 20
152.4640110633885
 30
0.0
 10
82.88226864952807
 20
152.378781926933
 30
0.0
 10
82.29175460025786
 20
152.2542131482923
 30
0.0
 10
81.48771715421279
 20
152.1012662021405
 30
0.0
 10
80.51164175403126
 20
151.9395096481869
 30
0.0
 10
79.38983301875078
 20
151.7872768802547
 30
0.0
 10
78.17630209896352
 20
151.6594969390533
 30
0.0
 10
76.91147139256431
 20
151.5716483873707
 30
0.0
 10
75.64342835512159
 20
151.5292629035
 30
0.0
 10
74.41992099742046
 20
151.5329987114717
 30
0.0
 10
73.28642245700645
 20
151.5715941819198
 30
0.0
 10
72.30031664603226
 20
151.6360335532109
 30
0.0
 10
71.49168883724504
 20
151.7095433604921
 30
0.0
 10
70.89507014213584
 20
151.7768570453039
 30
0.0
 10
70.57967885267777
 20
151.8148215965719
 30
0.0
 10
70.46961228387984
 20
151.8286206559037
 30
0.0
 10
70.44219289606563
 20
151.8321067298244
 30
0.0
 10
70.43527084523613
 20
151.8329859555177
 30
0.0
 10
70.43350260505271
 20
151.8332067301241
 30
0.0
 10
70.43304222587936
 20
151.8332619328348
 30
0.0
 10
70.43291806719454
 20
151.8332756726219
 30
0.0
 10
70.43288251270138
 20
151.8332790684529
 30
0.0
 10
70.43287136863128
 20
151.8332798967731
 30
0.0
 10
70.43286745543517
 20
151.833280093362
 30
0.0
 10
70.43286591323034
 20
151.833280137292
 30
0.0
 10
70.43286524622884
 20
151.8332801455988
 30
0.0
 10
70.4328649380511
 20
151.833280146429
 30
0.0
 10
70.43286479128503
 20
151.8332801458839
 30
0.0
 10
70.43286471833258
 20
151.833280145554
 30
0.0
 10
70.4328646839402
 20
151.8332801451167
 30
0.0
 10
70.43286466169505
 20
151.8332801452052
 30
0.0
 10
70.4328646345856
 20
151.8332801423702
 30
0.0
 10
70.43286211502425
 20
151.8332804292253
 30
0.0
 10
70.4328982049423
 20
151.8332758091247
 30
0.0
 10
70.43292996276494
 20
151.8332717436032
 30
0.0
  0
SPLINE
  5
98
330
1F
100
AcDbEntity
  8
0
  6
Continuous
 62
     7
370
    15
100
AcDbSpline
210
0.0
220
0.0
230
1.0
 70
     8
 71
     3
 72
    20
 73
    16
 74
     0
 42
0.00000001
 43
0.00000001
 40
0.0
 40
0.0
 40
0.0
 40
0.0
 40
0.249999999999986
 40
0.249999999999986
 40
0.3749999999999789
 40
0.3749999999999789
 40
0.4374999999999789
 40
0.4374999999999789
 40
0.4999999999999789
 40
0.4999999999999789
 40
0.6249999999999835
 40
0.6249999999999835
 40
0.7499999999999879
 40
0.7499999999999879
 40
1.0
 40
1.0
 40
1.0
 40
1.0
 10
42.30442252883372
 20
84.22348456783699
 30
0.0
 10
42.33069474604713
 20
84.24280250891945
 30
0.0
 10
42.36137488830197
 20
84.25719122002123
 30
0.0
 10
42.43284575868389
 20
84.25028685818522
 30
0.0
 10
42.46087279572821
 20
84.2431208548368
 30
0.0
 10
42.51595638522573
 20
84.2134218281332
 30
0.0
 10
42.53684771377817
 20
84.19994818557187
 30
0.0
 10
42.58205636122361
 20
84.16474992005587
 30
0.0
 10
42.6064605736192
 20
84.1428416913286
 30
0.0
 10
42.67779289167065
 20
84.07071683133304
 30
0.0
 10
42.71968967649089
 20
84.018376290383
 30
0.0
 10
42.79126563534678
 20
83.92089289848226
 30
0.0
 10
42.82209362516409
 20
83.87413912860383
 30
0.0
 10
42.90519355799965
 20
83.74084591276473
 30
0.0
 10
42.95004846336996
 20
83.6582085148495
 30
0.0
 10
42.99016053882254
 20
83.57910162005874
 30
0.0
  0
SPLINE
  5
99
330
1F
100
AcDbEntity
  8
0
  6
Continuous
 62
     7
370
    15
100
AcDbSpline
210
0.0
220
0.0
230
1.0
 70
     8
 71
     3
 72
     8
 73
     4
 74
     0
 42
0.00000001
 43
0.00000001
 40
0.0
 40
0.0
 40
0.0
 40
0.0
 40
1.0
 40
1.0
 40
1.0
 40
1.0
 10
42.01360829711773
 20
84.39929797796977
 30
0.0
 10
42.01360829711773
 20
84.37401792074242
 30
0.0
 10
42.01679510155196
 20
84.35041835150436
 30
0.0
 10
42.02289809849938
 20
84.32884090981234
 30
0.0
  0
SPLINE
  5
9A
330
1F
100
AcDbEntity
  8
0
  6
Continuous
 62
     7
370
    15
100
AcDbSpline
210
0.0
220
0.0
230
1.0
 70
     8
 71
     3
 72
     9
 73
     5
 74
     0
 42
0.00000001
 43
0.00000001
 40
0.0
 40
0.0
 40
0.0
 40
0.0
 40
0.7766521846938914
 40
0.9999999999999999
 40
0.9999999999999999
 40
0.9999999999999999
 40
0.9999999999999999
 10
42.09893892361146
 20
84.2842558449473
 30
0.0
 10
42.14212604990502
 20
84.2320577235616
 30
0.0
 10
42.19773282877552
 20
84.16484858874628
 30
0.0
 10
42.28494408523748
 20
84.21277933938961
 30
0.0
 10
42.30442252883837
 20
84.22348456783179
 30
0.0
  0
LINE
  5
9B
330
1F
100
AcDbEntity
  8
0
  6
Continuous
 62
     7
370
    15
100
AcDbLine
 10
42.0136082971
 20
84.399297978
 30
0.0
 11
42.0136082971
 21
145.4046374631
 31
0.0
  0
SPLINE
  5
9C
330
1F
100
AcDbEntity
  8
0
  6
Continuous
 62
     7
370
    15
100
AcDbSpline
210
0.0
220
0.0
230
1.0
 70
     8
 71
     3
 72
     9
 73
     5
 74
     0
 42
0.00000001
 43
0.00000001
 40
0.0
 40
0.0
 40
0.0
 40
0.0
 40
0.0592950272321202
 40
1.0
 40
1.0
 40
1.0
 40
1.0
 10
42.30442252883836
 20
145.5804508732436
 30
0.0
 10
42.29953968737617
 20
145.5837437186371
 30
0.0
 10
42.21719144182983
 20
145.6392769656427
 30
0.0
 10
42.15105939134828
 20
145.5819875631302
 30
0.0
 10
42.08884864260099
 20
145.5280951372997
 30
0.0
  0
SPLINE
  5
9D
330
1F
100
AcDbEntity
  8
0
  6
Continuous
 62
     7
370
    15
100
AcDbSpline
210
0.0
220
0.0
230
1.0
 70
     8
 71
     3
 72
     8
 73
     4
 74
     0
 42
0.00000001
 43
0.00000001
 40
0.0
 40
0.0
 40
0.0
 40
0.0
 40
1.0
 40
1.0
 40
1.0
 40
1.0
 10
42.03724196605392
 20
145.5122169641753
 30
0.0
 10
42.02189292741788
 20
145.4817069091793
 30
0.0
 10
42.01360829711773
 20
145.445395353667
 30
0.0
 10
42.01360829711773
 20
145.4046374631056
 30
0.0
  0
SPLINE
  5
9E
330
1F
100
AcDbEntity
  8
0
  6
Continuous
 62
     7
370
    15
100
AcDbSpline
210
0.0
220
0.0
230
1.0
 70
     8
 71
     3
 72
    20
 73
    16
 74
     0
 42
0.00000001
 43
0.00000001
 40
0.0
 40
0.0
 40
0.0
 40
0.0
 40
0.2500000000000037
 40
0.2500000000000037
 40
0.3750000000000055
 40
0.3750000000000055
 40
0.5000000000000073
 40
0.5000000000000073
 40
0.5625000000000057
 40
0.5625000000000057
 40
0.625000000000004
 40
0.625000000000004
 40
0.7500000000000027
 40
0.7500000000000027
 40
1.0
 40
1.0
 40
1.0
 40
1.0
 10
42.99016053882013
 20
146.2248338210159
 30
0.0
 10
42.9501643209963
 20
146.1459554144584
 30
0.0
 10
42.90505069315864
 20
146.0628257677669
 30
0.0
 10
42.82179647879211
 20
145.929337103416
 30
0.0
 10
42.79157715017162
 20
145.883472047534
 30
0.0
 10
42.71948891503019
 20
145.7852804951291
 30
0.0
 10
42.67757159761912
 20
145.7329706756055
 30
0.0
 10
42.60632099306765
 20
145.660964772871
 30
0.0
 10
42.58208518068833
 20
145.6391945605694
 30
0.0
 10
42.53648699050369
 20
145.6037199022404
 30
0.0
 10
42.51568450090397
 20
145.5903497180629
 30
0.0
 10
42.46074350248485
 20
145.5607798059276
 30
0.0
 10
42.43267451439803
 20
145.5536532836257
 30
0.0
 10
42.3621716843352
 20
145.546778912143
 30
0.0
 10
42.33074759654433
 20
145.5610940712301
 30
0.0
 10
42.30442252883574
 20
145.5804508732407
 30
0.0
  0
SPLINE
  5
9F
330
1F
100
AcDbEntity
  8
0
  6
Continuous
 62
     7
370
    15
100
AcDbSpline
210
0.0
220
0.0
230
1.0
 70
     8
 71
     3
 72
    10
 73
     6
 74
     0
 42
0.00000001
 43
0.00000001
 40
0.0
 40
0.0
 40
0.0
 40
0.0
 40
0.4999999999999989
 40
0.4999999999999989
 40
1.0
 40
1.0
 40
1.0
 40
1.0
 10
43.66360829711771
 20
147.1502529223577
 30
0.0
 10
43.53872002636752
 20
147.0192566442862
 30
0.0
 10
43.41726990830708
 20
146.8755438076212
 30
0.0
 10
43.18768593334965
 20
146.564973514932
 30
0.0
 10
43.07741095795367
 20
146.3969044418689
 30
0.0
 10
42.99016053882014
 20
146.2248338210159
 30
0.0
  0
SPLINE
  5
A0
330
1F
100
AcDbEntity
  8
0
  6
Continuous
 62
     7
370
    15
100
AcDbSpline
210
0.0
220
0.0
230
1.0
 70
     8
 71
     3
 72
     8
 73
     4
 74
     0
 42
0.00000001
 43
0.00000001
 40
0.0
 40
0.0
 40
0.0
 40
0.0
 40
1.0
 40
1.0
 40
1.0
 40
1.0
 10
43.91353341308349
 20
147.1477998891023
 30
0.0
 10
43.82651538323512
 20
147.1482664538894
 30
0.0
 10
43.74356135685517
 20
147.1493064734655
 30
0.0
 10
43.66360829711541
 20
147.1502529223578
 30
0.0
  0
SPLINE
  5
A1
330
1F
100
AcDbEntity
  8
0
  6
Continuous
 62
     7
370
    15
100
AcDbSpline
210
0.0
220
0.0
230
1.0
 70
     8
 71
     3
 72
     8
 73
     4
 74
     0
 42
0.00000001
 43
0.00000001
 40
0.0
 40
0.0
 40
0.0
 40
0.0
 40
1.0
 40
1.0
 40
1.0
 40
1.0
 10
43.66360829711541
 20
82.65368251871762
 30
0.0
 10
43.74356135685517
 20
82.6546289676099
 30
0.0
 10
43.82651538323512
 20
82.65566898718602
 30
0.0
 10
43.9135334130835
 20
82.65613555197307
 30
0.0
  0
SPLINE
  5
A2
330
1F
100
AcDbEntity
  8
0
  6
Continuous
 62
     7
370
    15
100
AcDbSpline
210
0.0
220
0.0
230
1.0
 70
     8
 71
     3
 72
    10
 73
     6
 74
     0
 42
0.00000001
 43
0.00000001
 40
0.0
 40
0.0
 40
0.0
 40
0.0
 40
0.4999999999999989
 40
0.4999999999999989
 40
1.0
 40
1.0
 40
1.0
 40
1.0
 10
42.99016053881921
 20
83.5791016200613
 30
0.0
 10
43.0774109579527
 20
83.40703099920793
 30
0.0
 10
43.18768593334885
 20
83.2389619261445
 30
0.0
 10
43.41726990830669
 20
82.92839163345467
 30
0.0
 10
43.53872002636733
 20
82.7846787967894
 30
0.0
 10
43.66360829711771
 20
82.65368251871769
 30
0.0
  0
LINE
  5
A3
330
1F
100
AcDbEntity
  8
0
  6
Continuous
 62
     7
370
    15
100
AcDbLine
 10
119.8636082971
 20
163.8917625762
 30
0.0
 11
115.175637318
 21
163.8917625762
 31
0.0
  0
LINE
  5
A4
330
1F
100
AcDbEntity
  8
0
  6
Continuous
 62
     7
370
    15
100
AcDbLine
 10
115.175637318
 20
153.8529304814
 30
0.0
 11
119.8636082971
 21
153.8529304814
 31
0.0
  0
LINE
  5
A5
330
1F
100
AcDbEntity
  8
0
  6
Continuous
 62
     7
370
    15
100
AcDbLine
 10
115.175637318
 20
153.8529304814
 30
0.0
 11
115.175637318
 21
163.8917625762
 31
0.0
  0
SPLINE
  5
A6
330
1F
100
AcDbEntity
  8
0
  6
Continuous
 62
     7
370
    15
100
AcDbSpline
210
0.0
220
0.0
230
1.0
 70
     8
 71
     3
 72
     8
 73
     4
 74
     0
 42
0.00000001
 43
0.00000001
 40
0.0
 40
0.0
 40
0.0
 40
0.0
 40
1.0
 40
1.0
 40
1.0
 40
1.0
 10
115.1756373180391
 20
163.8917625762012
 30
0.0
 10
114.7246103493259
 20
163.0944520060134
 30
0.0
 10
114.2739165328023
 20
162.2969537063562
 30
0.0
 10
113.8236082971177
 20
161.4992385812426
 30
0.0
  0
SPLINE
  5
A7
330
1F
100
AcDbEntity
  8
0
  6
Continuous
 62
     7
370
    15
100
AcDbSpline
210
0.0
220
0.0
230
1.0
 70
     8
 71
     3
 72
     8
 73
     4
 74
     0
 42
0.00000001
 43
0.00000001
 40
0.0
 40
0.0
 40
0.0
 40
0.0
 40
1.0
 40
1.0
 40
1.0
 40
1.0
 10
113.8236082971177
 20
150.7974152266755
 30
0.0
 10
114.2677583081432
 20
151.8187984576272
 30
0.0
 10
114.7188326184011
 20
152.8372829943955
 30
0.0
 10
115.1756373180391
 20
153.8529304814246
 30
0.0
  0
LINE
  5
A8
330
1F
100
AcDbEntity
  8
0
  6
Continuous
 62
     7
370
    15
100
AcDbLine
 10
113.8236082971
 20
150.7974152267
 30
0.0
 11
113.8236082971
 21
161.4992385812
 31
0.0
  0
SPLINE
  5
A9
330
1F
100
AcDbEntity
  8
0
  6
Continuous
 62
     7
370
    15
100
AcDbSpline
210
0.0
220
0.0
230
1.0
 70
     8
 71
     3
 72
    12
 73
     8
 74
     0
 42
0.00000001
 43
0.00000001
 40
0.0
 40
0.0
 40
0.0
 40
0.0
 40
0.5
 40
0.5
 40
0.75
 40
0.75
 40
1.0
 40
1.0
 40
1.0
 40
1.0
 10
120.8636082971177
 20
162.8707075413835
 30
0.0
 10
120.8636082971177
 20
163.1359769741499
 30
0.0
 10
120.7590015536312
 20
163.3984920798023
 30
0.0
 10
120.482333201886
 20
163.6840296858396
 30
0.0
 10
120.371967942534
 20
163.760351302701
 30
0.0
 10
120.1278958939182
 20
163.8646934675411
 30
0.0
 10
119.9961434325865
 20
163.8917625762012
 30
0.0
 10
119.8636082971177
 20
163.8917625762013
 30
0.0
  0
SPLINE
  5
AA
330
1F
100
AcDbEntity
  8
0
  6
Continuous
 62
     7
370
    15
100
AcDbSpline
210
0.0
220
0.0
230
1.0
 70
     8
 71
     3
 72
    16
 73
    12
 74
     0
 42
0.00000001
 43
0.00000001
 40
0.0
 40
0.0
 40
0.0
 40
0.0
 40
0.125
 40
0.125
 40
0.25
 40
0.25
 40
0.5
 40
0.5
 40
0.75
 40
0.75
 40
1.0
 40
1.0
 40
1.0
 40
1.0
 10
119.8636082971167
 20
153.8529304814246
 30
0.0
 10
119.939246003528
 20
153.8529304814247
 30
0.0
 10
120.0155616679462
 20
153.8415854812899
 30
0.0
 10
120.1599724058383
 20
153.7989329306515
 30
0.0
 10
120.2284188549468
 20
153.7679986059687
 30
0.0
 10
120.4233501075602
 20
153.6487422342012
 30
0.0
 10
120.5311912813412
 20
153.5385902205806
 30
0.0
 10
120.6999040295534
 20
153.2904541349225
 30
0.0
 10
120.762268442277
 20
153.1501118109187
 30
0.0
 10
120.8435723667855
 20
152.8618401194299
 30
0.0
 10
120.8636082971177
 20
152.71103514645
 30
0.0
 10
120.8636082971177
 20
152.5606652551047
 30
0.0
  0
LINE
  5
AB
330
1F
100
AcDbEntity
  8
0
  6
Continuous
 62
     7
370
    15
100
AcDbLine
 10
120.8636082971
 20
152.5606652551
 30
0.0
 11
120.8636082971
 21
162.8707075414
 31
0.0
  0
SPLINE
  5
AC
330
1F
100
AcDbEntity
  8
0
  6
Continuous
 62
     7
370
    15
100
AcDbSpline
210
0.0
220
0.0
230
1.0
 70
     8
 71
     3
 72
    10
 73
     6
 74
     0
 42
0.00000001
 43
0.00000001
 40
0.0
 40
0.0
 40
0.0
 40
0.0
 40
0.5
 40
0.5
 40
1.0
 40
1.0
 40
1.0
 40
1.0
 10
110.8036082971177
 20
159.7762434807101
 30
0.0
 10
110.5910719832614
 20
159.7762434807101
 30
0.0
 10
110.3811358116074
 20
159.8676560673403
 30
0.0
 10
110.0874286705961
 20
160.1724009332445
 30
0.0
 10
110.0036082971177
 20
160.3845559031531
 30
0.0
 10
110.0036082971177
 20
160.5955189613857
 30
0.0
  0
SPLINE
  5
AD
330
1F
100
AcDbEntity
  8
0
  6
Continuous
 62
     7
370
    15
100
AcDbSpline
210
0.0
220
0.0
230
1.0
 70
     8
 71
     3
 72
    14
 73
    10
 74
     0
 42
0.00000001
 43
0.00000001
 40
0.0
 40
0.0
 40
0.0
 40
0.0
 40
0.25
 40
0.25
 40
0.5
 40
0.5
 40
0.75
 40
0.75
 40
1.0
 40
1.0
 40
1.0
 40
1.0
 10
110.0036082971177
 20
149.6162029130347
 30
0.0
 10
110.0036082971177
 20
149.4923360362455
 30
0.0
 10
110.0194674247453
 20
149.368076359408
 30
0.0
 10
110.0828290702652
 20
149.1304679970022
 30
0.0
 10
110.1314187783145
 20
149.0136876122497
 30
0.0
 10
110.2637043830894
 20
148.8048850836407
 30
0.0
 10
110.34902917435
 20
148.7103743800481
 30
0.0
 10
110.5559204226562
 20
148.5724175792458
 30
0.0
 10
110.6798883685462
 20
148.5304991336101
 30
0.0
 10
110.8036082971177
 20
148.5304991336101
 30
0.0
  0
SPLINE
  5
AE
330
1F
100
AcDbEntity
  8
0
  6
Continuous
 62
     7
370
    15
100
AcDbSpline
210
0.0
220
0.0
230
1.0
 70
     8
 71
     3
 72
     8
 73
     4
 74
     0
 42
0.00000001
 43
0.00000001
 40
0.0
 40
0.0
 40
0.0
 40
0.0
 40
1.0
 40
1.0
 40
1.0
 40
1.0
 10
110.0036082971177
 20
161.4992385812426
 30
0.0
 10
109.5533000614332
 20
162.2969537063562
 30
0.0
 10
109.1026062449096
 20
163.0944520060134
 30
0.0
 10
108.6515792761963
 20
163.8917625762012
 30
0.0
  0
LINE
  5
AF
330
1F
100
AcDbEntity
  8
0
  6
Continuous
 62
     7
370
    15
100
AcDbLine
 10
110.0036082971
 20
150.7974152267
 30
0.0
 11
110.0036082971
 21
161.4992385812
 31
0.0
  0
SPLINE
  5
B0
330
1F
100
AcDbEntity
  8
0
  6
Continuous
 62
     7
370
    15
100
AcDbSpline
210
0.0
220
0.0
230
1.0
 70
     8
 71
     3
 72
     8
 73
     4
 74
     0
 42
0.00000001
 43
0.00000001
 40
0.0
 40
0.0
 40
0.0
 40
0.0
 40
1.0
 40
1.0
 40
1.0
 40
1.0
 10
108.6515792761963
 20
153.8529304814246
 30
0.0
 10
109.1085056299959
 20
152.8370125117503
 30
0.0
 10
109.5597112717989
 20
151.8182166826592
 30
0.0
 10
110.0036082971177
 20
150.7974152266755
 30
0.0
  0
SPLINE
  5
B1
330
1F
100
AcDbEntity
  8
0
  6
Continuous
 62
     7
370
    15
100
AcDbSpline
210
0.0
220
0.0
230
1.0
 70
     8
 71
     3
 72
    14
 73
    10
 74
     0
 42
0.00000001
 43
0.00000001
 40
0.0
 40
0.0
 40
0.0
 40
0.0
 40
0.25
 40
0.25
 40
0.5
 40
0.5
 40
0.75
 40
0.75
 40
1.0
 40
1.0
 40
1.0
 40
1.0
 10
113.8236082971177
 20
160.5955189613857
 30
0.0
 10
113.8236082971177
 20
160.4891622676333
 30
0.0
 10
113.8032207409765
 20
160.3833217798732
 30
0.0
 10
113.7245863955149
 20
160.1867568663367
 30
0.0
 10
113.6658550358762
 20
160.0955861240496
 30
0.0
 10
113.5192461302736
 20
159.9436750350179
 30
0.0
 10
113.4298408102471
 20
159.8816061981984
 30
0.0
 10
113.2359500776467
 20
159.7983381504397
 30
0.0
 10
113.1294450877568
 20
159.7762434807101
 30
0.0
 10
113.0236082971174
 20
159.7762434807101
 30
0.0
  0
SPLINE
  5
B2
330
1F
100
AcDbEntity
  8
0
  6
Continuous
 62
     7
370
    15
100
AcDbSpline
210
0.0
220
0.0
230
1.0
 70
     8
 71
     3
 72
    12
 73
     8
 74
     0
 42
0.00000001
 43
0.00000001
 40
0.0
 40
0.0
 40
0.0
 40
0.0
 40
0.250000000000002
 40
0.250000000000002
 40
0.500000000000004
 40
0.500000000000004
 40
1.0
 40
1.0
 40
1.0
 40
1.0
 10
113.0236082971198
 20
148.5304991336102
 30
0.0
 10
113.1473092470996
 20
148.5304991336106
 30
0.0
 10
113.2714058593695
 20
148.5724927453435
 30
0.0
 10
113.4780610224559
 20
148.7102880719881
 30
0.0
 10
113.5631017891825
 20
148.8042616704529
 30
0.0
 10
113.7625803576556
 20
149.1190498766736
 30
0.0
 10
113.8236082971177
 20
149.3692888689008
 30
0.0
 10
113.8236082971177
 20
149.6162029130347
 30
0.0
  0
LINE
  5
B3
330
1F
100
AcDbEntity
  8
0
  6
Continuous
 62
     7
370
    15
100
AcDbLine
 10
110.0036082971
 20
150.7974152267
 30
0.0
 11
110.0036082971
 21
149.616202913
 31
0.0
  0
LINE
  5
B4
330
1F
100
AcDbEntity
  8
0
  6
Continuous
 62
     7
370
    15
100
AcDbLine
 10
110.8036082971
 20
148.5304991336
 30
0.0
 11
113.0236082971
 21
148.5304991336
 31
0.0
  0
LINE
  5
B5
330
1F
100
AcDbEntity
  8
0
  6
Continuous
 62
     7
370
    15
100
AcDbLine
 10
113.8236082971
 20
149.616202913
 30
0.0
 11
113.8236082971
 21
150.7974152267
 31
0.0
  0
LINE
  5
B6
330
1F
100
AcDbEntity
  8
0
  6
Continuous
 62
     7
370
    15
100
AcDbLine
 10
120.8636082971
 20
152.5606652551
 30
0.0
 11
120.8636082971
 21
146.2519677205
 31
0.0
  0
LINE
  5
B7
330
1F
100
AcDbEntity
  8
0
  6
Continuous
 62
     7
370
    15
100
AcDbLine
 10
113.0236082971
 20
159.7762434807
 30
0.0
 11
110.8036082971
 21
159.7762434807
 31
0.0
  0
SPLINE
  5
B8
330
1F
100
AcDbEntity
  8
0
  6
Continuous
 62
     7
370
    15
100
AcDbSpline
210
0.0
220
0.0
230
1.0
 70
     8
 71
     3
 72
    21
 73
    17
 74
     0
 42
0.00000001
 43
0.00000001
 40
0.0
 40
0.0
 40
0.0
 40
0.0
 40
0.021485082567443
 40
0.1256428107386138
 40
0.1959501556176167
 40
0.2582586913818041
 40
0.3125845700602794
 40
0.4099242292093442
 40
0.4989774640051656
 40
0.5880477886901194
 40
0.6357377429491854
 40
0.6855465280786968
 40
0.7700594757904162
 40
0.872442969638788
 40
0.9445648221570107
 40
1.0
 40
1.0
 40
1.0
 40
1.0
 10
230.8962206033647
 20
108.8530956511993
 30
0.0
 10
230.990141969481
 20
108.9003552799374
 30
0.0
 10
231.5393855849163
 20
109.1767252948294
 30
0.0
 10
232.2677923067031
 20
109.8163426959827
 30
0.0
 10
233.0283919458077
 20
110.6815619102176
 30
0.0
 10
233.5240258852588
 20
111.4519057477418
 30
0.0
 10
233.9821631534118
 20
112.39520508134
 30
0.0
 10
234.3258358888219
 20
113.5377140133209
 30
0.0
 10
234.4553817085699
 20
114.8993322291882
 30
0.0
 10
234.3497454499179
 20
116.0166997594306
 30
0.0
 10
234.1322060815758
 20
116.9102411065465
 30
0.0
 10
233.8323820690428
 20
117.7536564914951
 30
0.0
 10
233.292707601681
 20
118.7851752064581
 30
0.0
 10
232.4927042934831
 20
119.7709086414646
 30
0.0
 10
231.6474673937876
 20
120.5121463680416
 30
0.0
 10
231.1141987676983
 20
120.8349913658991
 30
0.0
 10
230.8824448530639
 20
120.9752969987699
 30
0.0
  0
SPLINE
  5
B9
330
1F
100
AcDbEntity
  8
0
  6
Continuous
 62
     7
370
    15
100
AcDbSpline
210
0.0
220
0.0
230
1.0
 70
     8
 71
     3
 72
    21
 73
    17
 74
     0
 42
0.00000001
 43
0.00000001
 40
0.0
 40
0.0
 40
0.0
 40
0.0
 40
0.0210934721215254
 40
0.1251513203845024
 40
0.1953117010639389
 40
0.2575431326252561
 40
0.3118618177996414
 40
0.4090585515138324
 40
0.4979478926691002
 40
0.5867065327180733
 40
0.6342187510641373
 40
0.6838355509281464
 40
0.7679244082345713
 40
0.8699536055167197
 40
0.9417296900517456
 40
1.0
 40
1.0
 40
1.0
 40
1.0
 10
223.9304026470529
 20
120.9508337605276
 30
0.0
 10
223.8379397144855
 20
120.9043239571106
 30
0.0
 10
223.2893406962317
 20
120.6283730242854
 30
0.0
 10
222.5610879603637
 20
119.989287978356
 30
0.0
 10
221.799257512994
 20
119.1230376835896
 30
0.0
 10
221.3028356227319
 20
118.3515408791898
 30
0.0
 10
220.844111574362
 20
117.4065538997153
 30
0.0
 10
220.5004974081129
 20
116.2622439253606
 30
0.0
 10
220.3718315504451
 20
114.8999004560322
 30
0.0
 10
220.47822652292
 20
113.7828122296989
 30
0.0
 10
220.6960717662647
 20
112.8902471331475
 30
0.0
 10
220.995774026429
 20
112.0483694478495
 30
0.0
 10
221.5349155778353
 20
111.0185345736828
 30
0.0
 10
222.3332247224816
 20
110.0340337409793
 30
0.0
 10
223.1889980445556
 20
109.2845176905604
 30
0.0
 10
223.7342773601376
 20
108.9545940946022
 30
0.0
 10
223.9786024323826
 20
108.8067641584312
 30
0.0
  0
SPLINE
  5
BA
330
1F
100
AcDbEntity
  8
0
  6
Continuous
 62
     7
370
    15
100
AcDbSpline
210
0.0
220
0.0
230
1.0
 70
     8
 71
     3
 72
    39
 73
    35
 74
     0
 42
0.00000001
 43
0.00000001
 40
-0.0929946525433279
 40
-0.0618626808030973
 40
-0.0305913286415035
 40
0.0
 40
0.0306130831485511
 40
0.0619040996444873
 40
0.0930588770322327
 40
0.1241966210416689
 40
0.1553767729372533
 40
0.1869012712536709
 40
0.2186194724840601
 40
0.249936332859547
 40
0.281281112785636
 40
0.3130731839310888
 40
0.3446801097612158
 40
0.3759115026471096
 40
0.4070391656923722
 40
0.4381443790161534
 40
0.4693729506313376
 40
0.5000120705146828
 40
0.5306484290232172
 40
0.5619148569968719
 40
0.5930393589991177
 40
0.6241824383491535
 40
0.655392577147317
 40
0.6869707191792207
 40
0.7187114716018294
 40
0.7500541986095062
 40
0.7813706634711415
 40
0.8131351125325021
 40
0.8446872986594617
 40
0.8758891940595736
 40
0.907005347456672
 40
0.9381373191969027
 40
0.9694086713584965
 40
1.0
 40
1.030613083148551
 40
1.061904099644487
 40
1.093058877032233
 10
228.9442536592422
 20
107.0658758194325
 30
0.0
 10
227.4132463809179
 20
106.9101704534505
 30
0.0
 10
225.8819241527137
 20
107.0660991516341
 30
0.0
 10
224.4132411423863
 20
107.5336448151299
 30
0.0
 10
223.0568660195194
 20
108.2670863201596
 30
0.0
 10
221.8813226370131
 20
109.2547608094833
 30
0.0
 10
220.9153275658063
 20
110.4562154622643
 30
0.0
 10
220.1990911862276
 20
111.8378724456212
 30
0.0
 10
219.7438050453692
 20
113.3368196001341
 30
0.0
 10
219.5929013065711
 20
114.8991401958153
 30
0.0
 10
219.7448856866907
 20
116.4625712682332
 30
0.0
 10
220.2010977932555
 20
117.9643663841694
 30
0.0
 10
220.9179693076959
 20
119.3495255995203
 30
0.0
 10
221.8848557044093
 20
120.5528781750362
 30
0.0
 10
223.060073529708
 20
121.5406560303504
 30
0.0
 10
224.4147226747479
 20
122.2731897037456
 30
0.0
 10
225.8826228020326
 20
122.738823663091
 30
0.0
 10
227.4141232517296
 20
122.8935059265237
 30
0.0
 10
228.946213286727
 20
122.7383543675318
 30
0.0
 10
230.4147606268971
 20
122.2718456773935
 30
0.0
 10
231.7703530235236
 20
121.5385458192292
 30
0.0
 10
232.9452150522354
 20
120.5499452274665
 30
0.0
 10
233.9110832234577
 20
119.3465507473629
 30
0.0
 10
234.6269988116458
 20
117.9627513927667
 30
0.0
 10
235.0822206866497
 20
116.4620998123175
 30
0.0
 10
235.2343053079783
 20
114.8996159629825
 30
0.0
 10
235.0835674542656
 20
113.3365137278547
 30
0.0
 10
234.6274277040165
 20
111.8365308486656
 30
0.0
 10
233.9103270042548
 20
110.4535653800696
 30
0.0
 10
232.9434158505462
 20
109.2522165446284
 30
0.0
 10
231.7676437198895
 20
108.2654197417801
 30
0.0
 10
230.4119976523077
 20
107.5328722808573
 30
0.0
 10
228.9442536592422
 20
107.0658758194325
 30
0.0
 10
227.4132463809179
 20
106.9101704534505
 30
0.0
 10
225.8819241527137
 20
107.0660991516341
 30
0.0
  0
LINE
  5
BB
330
1F
100
AcDbEntity
  8
0
  6
Continuous
 62
     7
370
    15
100
AcDbLine
 10
239.0465667741
 20
88.9019677205
 30
0.0
 11
239.0465667741
 21
140.9019677205
 31
0.0
  0
SPLINE
  5
BC
330
1F
100
AcDbEntity
  8
0
  6
Continuous
 62
     7
370
    15
100
AcDbSpline
210
0.0
220
0.0
230
1.0
 70
     8
 71
     3
 72
    66
 73
    62
 74
     0
 42
0.00000001
 43
0.00000001
 40
-0.0312499999999994
 40
-0.0312499999999994
 40
0.0
 40
0.0
 40
0.0312500000000002
 40
0.0312500000000002
 40
0.0625000000000003
 40
0.0625000000000003
 40
0.0937500000000005
 40
0.0937500000000005
 40
0.1250000000000006
 40
0.1250000000000006
 40
0.1562500000000008
 40
0.1562500000000008
 40
0.1875000000000009
 40
0.1875000000000009
 40
0.2187500000000011
 40
0.2187500000000011
 40
0.2500000000000013
 40
0.2500000000000013
 40
0.2812500000000014
 40
0.2812500000000014
 40
0.3125000000000016
 40
0.3125000000000016
 40
0.3437500000000018
 40
0.3437500000000018
 40
0.3750000000000019
 40
0.3750000000000019
 40
0.4062500000000021
 40
0.4062500000000021
 40
0.4375000000000022
 40
0.4375000000000022
 40
0.4687500000000024
 40
0.4687500000000024
 40
0.5000000000000026
 40
0.5000000000000026
 40
0.5312500000000027
 40
0.5312500000000027
 40
0.5625000000000029
 40
0.5625000000000029
 40
0.593750000000003
 40
0.593750000000003
 40
0.6250000000000032
 40
0.6250000000000032
 40
0.6875000000000037
 40
0.6875000000000037
 40
0.7500000000000041
 40
0.7500000000000041
 40
0.7812500000000036
 40
0.7812500000000036
 40
0.812500000000003
 40
0.812500000000003
 40
0.8437500000000026
 40
0.8437500000000026
 40
0.875000000000002
 40
0.875000000000002
 40
0.9062500000000016
 40
0.9062500000000016
 40
0.937500000000001
 40
0.937500000000001
 40
0.9687500000000006
 40
0.9687500000000006
 40
1.0
 40
1.0
 40
1.03125
 40
1.03125
 10
158.3250810707988
 20
117.0858863119986
 30
0.0
 10
158.6627407863733
 20
117.3675388093854
 30
0.0
 10
158.8422713129497
 20
117.4899767642453
 30
0.0
 10
159.2208966713115
 20
117.7013626957334
 30
0.0
 10
159.4215626407607
 20
117.7907841505165
 30
0.0
 10
159.8356885976152
 20
117.9329900074183
 30
0.0
 10
160.0466409058697
 20
117.98524418402
 30
0.0
 10
160.4760154108671
 20
118.0536278475038
 30
0.0
 10
160.6965409673238
 20
118.0696150159551
 30
0.0
 10
161.1330285712421
 20
118.0637933565116
 30
0.0
 10
161.3489605275593
 20
118.0424471381399
 30
0.0
 10
161.7762272130449
 20
117.9630623542598
 30
0.0
 10
161.9895843366091
 20
117.9041122402622
 30
0.0
 10
162.3975251965806
 20
117.7515554597721
 30
0.0
 10
162.5928831142692
 20
117.6582434466861
 30
0.0
 10
162.9659356566151
 20
117.4365685510357
 30
0.0
 10
163.1453039418934
 20
117.3064530631653
 30
0.0
 10
163.4708383360791
 20
117.0185336012054
 30
0.0
 10
163.6183243547838
 20
116.8604889304387
 30
0.0
 10
163.8809242927905
 20
116.5144496080225
 30
0.0
 10
163.9964225457012
 20
116.3244894234579
 30
0.0
 10
164.1802869309763
 20
115.9313070775498
 30
0.0
 10
164.2505291334716
 20
115.7262563258606
 30
0.0
 10
164.3443245282575
 20
115.2979090878677
 30
0.0
 10
164.3664431560442
 20
115.0784063929951
 30
0.0
 10
164.3601850164696
 20
114.6437975038044
 30
0.0
 10
164.3314702666569
 20
114.4236127970162
 30
0.0
 10
164.2257575581
 20
113.9993104792587
 30
0.0
 10
164.1496702292334
 20
113.7953781805362
 30
0.0
 10
163.9526654995344
 20
113.4033400478957
 30
0.0
 10
163.8330751192715
 20
113.2187063639127
 30
0.0
 10
163.5608018659821
 20
112.8791662402344
 30
0.0
 10
163.4055277617702
 20
112.7214157592241
 30
0.0
 10
163.070854526406
 20
112.4411956998297
 30
0.0
 10
162.8916091439733
 20
112.3181106595301
 30
0.0
 10
162.5103309724452
 20
112.1043924584865
 30
0.0
 10
162.3085722755772
 20
112.0144424274467
 30
0.0
 10
161.89738745258
 20
111.8726745830532
 30
0.0
 10
161.6861837668757
 20
111.819788185126
 30
0.0
 10
161.2524383541584
 20
111.7503040538317
 30
0.0
 10
161.0338461410324
 20
111.7345187218659
 30
0.0
 10
160.3822285706026
 20
111.7424948547298
 30
0.0
 10
159.9430303830464
 20
111.8234247066483
 30
0.0
 10
159.1304918194483
 20
112.1264635632734
 30
0.0
 10
158.7453773889406
 20
112.3533180568698
 30
0.0
 10
158.2587411038934
 20
112.7831075609295
 30
0.0
 10
158.1089785994418
 20
112.9431185314336
 30
0.0
 10
157.8439207018436
 20
113.2928270253495
 30
0.0
 10
157.7314473581033
 20
113.4783041361904
 30
0.0
 10
157.5475428464881
 20
113.8710636825709
 30
0.0
 10
157.4756004412239
 20
114.081540012291
 30
0.0
 10
157.3826411084063
 20
114.5082917196413
 30
0.0
 10
157.3607019935919
 20
114.7244842432456
 30
0.0
 10
157.3671242836062
 20
115.1626461673887
 30
0.0
 10
157.3961749926901
 20
115.3824566776009
 30
0.0
 10
157.5016748373752
 20
115.8050751065137
 30
0.0
 10
157.5794216549791
 20
116.0129516413756
 30
0.0
 10
157.7764158884565
 20
116.4036310365687
 30
0.0
 10
157.8948486234504
 20
116.5864445685609
 30
0.0
 10
158.1695681645877
 20
116.9283633519496
 30
0.0
 10
158.3250810707988
 20
117.0858863119986
 30
0.0
 10
158.6627407863733
 20
117.3675388093854
 30
0.0
  0
SPLINE
  5
BD
330
1F
100
AcDbEntity
  8
0
  6
Continuous
 62
     7
370
    15
100
AcDbSpline
210
0.0
220
0.0
230
1.0
 70
     8
 71
     3
 72
    17
 73
    13
 74
     0
 42
0.00000001
 43
0.00000001
 40
0.0
 40
0.0
 40
0.0
 40
0.0
 40
0.051314846457322
 40
0.1424338041685859
 40
0.2371487760021638
 40
0.340487188639132
 40
0.4536721578119653
 40
0.5739484697328802
 40
0.696427061981794
 40
0.8155028459941356
 40
0.9250958342235427
 40
0.9999999999999999
 40
0.9999999999999999
 40
0.9999999999999999
 40
0.9999999999999999
 10
157.4069199584606
 20
88.90666716333777
 30
0.0
 10
157.3999144782978
 20
88.9059176456147
 30
0.0
 10
157.3804694782929
 20
88.90383722117691
 30
0.0
 10
157.7134063387649
 20
88.93954136780947
 30
0.0
 10
158.3355456718991
 20
88.99675452225108
 30
0.0
 10
159.2505427558762
 20
89.05955648615611
 30
0.0
 10
160.3919092595187
 20
89.09982958095635
 30
0.0
 10
161.6501655511964
 20
89.09408867597334
 30
0.0
 10
162.8485355077605
 20
89.0387853473374
 30
0.0
 10
163.7708814444818
 20
88.9642738020647
 30
0.0
 10
164.3014131505516
 20
88.90887592080188
 30
0.0
 10
164.3220655948166
 20
88.90650705112988
 30
0.0
 10
164.3304502992705
 20
88.90554531159752
 30
0.0
  0
LINE
  5
BE
330
1F
100
AcDbEntity
  8
0
  6
Continuous
 62
     7
370
    15
100
AcDbLine
 10
159.179712881
 20
89.0493268749
 30
0.0
 11
158.493910928
 21
89.0061077923
 31
0.0
  0
LINE
  5
BF
330
1F
100
AcDbEntity
  8
0
  6
Continuous
 62
     7
370
    15
100
AcDbLine
 10
158.4939109286
 20
140.7978276528
 30
0.0
 11
158.7061411101
 21
140.7853378084
 31
0.0
  0
SPLINE
  5
C0
330
1F
100
AcDbEntity
  8
0
  6
Continuous
 62
     7
370
    15
100
AcDbSpline
210
0.0
220
0.0
230
1.0
 70
     8
 71
     3
 72
    17
 73
    13
 74
     0
 42
0.00000001
 43
0.00000001
 40
0.0
 40
0.0
 40
0.0
 40
0.0
 40
0.0470500412984448
 40
0.1381716184626052
 40
0.2325756023549889
 40
0.3354450387165513
 40
0.4481980838347424
 40
0.5682390724098212
 40
0.6907278471951147
 40
0.8100983132619172
 40
0.9202357624696933
 40
1.0
 40
1.0
 40
1.0
 40
1.0
 10
164.3196467268956
 20
140.8971974940397
 30
0.0
 10
164.3283840549755
 20
140.898138284366
 30
0.0
 10
164.3540429221842
 20
140.9009010985618
 30
0.0
 10
164.0357725534071
 20
140.8666348285645
 30
0.0
 10
163.4280243881467
 20
140.8102114698047
 30
0.0
 10
162.5250708140853
 20
140.7470282248817
 30
0.0
 10
161.3927237213748
 20
140.7051083951345
 30
0.0
 10
160.1361633080437
 20
140.7083789417937
 30
0.0
 10
158.9305828775466
 20
140.7617662862562
 30
0.0
 10
157.9911350603967
 20
140.8363420926337
 30
0.0
 10
157.4363075884762
 20
140.8938802813717
 30
0.0
 10
157.4052204883714
 20
140.8974105515425
 30
0.0
 10
157.3921630012081
 20
140.8988933678002
 30
0.0
  0
SPLINE
  5
C1
330
1F
100
AcDbEntity
  8
0
  6
Continuous
 62
     7
370
    15
100
AcDbSpline
210
0.0
220
0.0
230
1.0
 70
     8
 71
     3
 72
     9
 73
     5
 74
     0
 42
0.00000001
 43
0.00000001
 40
0.0
 40
0.0
 40
0.0
 40
0.0
 40
0.1605213512892354
 40
1.0
 40
1.0
 40
1.0
 40
1.0
 10
158.0480707458991
 20
140.8346525508518
 30
0.0
 10
158.0660271903465
 20
140.8329260108162
 30
0.0
 10
158.1778904677435
 20
140.8221701828739
 30
0.0
 10
158.3496893957627
 20
140.8089367952207
 30
0.0
 10
158.4939109277063
 20
140.7978276488358
 30
0.0
  0
CIRCLE
  5
C2
330
1F
100
AcDbEntity
  8
0
  6
Continuous
 62
     7
370
    15
100
AcDbCircle
 10
160.8636082971
 20
114.9019677205
 30
0.0
 40
2.500000000000014
  0
ARC
  5
C3
330
1F
100
AcDbEntity
  8
0
  6
Continuous
 62
     7
370
    15
100
AcDbCircle
 10
100.9136749432
 20
147.4675382215
 30
0.0
 40
11.45027678818642
100
AcDbArc
 50
77.9103159805
 51
102.108234864
  0
LINE
  5
C4
330
1F
100
AcDbEntity
  8
0
  6
Continuous
 62
     7
370
    15
100
AcDbLine
 10
251.9136082971
 20
96.1761082422
 30
0.0
 11
251.9136082971
 21
133.6278271989
 31
0.0
  0
LINE
  5
C5
330
1F
100
AcDbEntity
  8
0
  6
Continuous
 62
     7
370
    15
100
AcDbLine
 10
43.6636082971
 20
82.6519677205
 30
0.0
 11
43.6636082971
 21
82.6536825187
 31
0.0
  0
LINE
  5
C6
330
1F
100
AcDbEntity
  8
0
  6
Continuous
 62
     7
370
    15
100
AcDbLine
 10
43.6636082971
 20
147.1519677205
 30
0.0
 11
43.6636082971
 21
147.1502529224
 31
0.0
  0
ARC
  5
C7
330
1F
100
AcDbEntity
  8
0
  6
Continuous
 62
     7
370
    15
100
AcDbCircle
 10
227.4136082971
 20
114.9019677205
 30
0.0
 40
7.000000000000023
100
AcDbArc
 50
218.9119384068
 51
299.5498127807
  0
ARC
  5
C8
330
1F
100
AcDbEntity
  8
0
  6
Continuous
 62
     7
370
    15
100
AcDbCircle
 10
227.4136082971
 20
114.9019677205
 30
0.0
 40
7.000000000000005
100
AcDbArc
 50
60.400526554
 51
218.9119384068
  0
LINE
  5
C9
330
1F
100
AcDbEntity
  8
0
  6
Continuous
 62
     7
370
    15
100
AcDbLine
 10
231.7230824583
 20
113.2401115933
 30
0.0
 11
231.0075550013
 21
117.8031537574
 31
0.0
  0
LINE
  5
CA
330
1F
100
AcDbEntity
  8
0
  6
Continuous
 62
     7
370
    15
100
AcDbLine
 10
226.6980808402
 20
119.4650098847
 30
0.0
 11
231.0075550013
 21
117.8031537574
 31
0.0
  0
LINE
  5
CB
330
1F
100
AcDbEntity
  8
0
  6
Continuous
 62
     7
370
    15
100
AcDbLine
 10
223.104134136
 20
116.5638238478
 30
0.0
 11
226.6980808402
 21
119.4650098847
 31
0.0
  0
LINE
  5
CC
330
1F
100
AcDbEntity
  8
0
  6
Continuous
 62
     7
370
    15
100
AcDbLine
 10
223.104134136
 20
116.5638238478
 30
0.0
 11
223.8196615929
 21
112.0007816836
 31
0.0
  0
LINE
  5
CD
330
1F
100
AcDbEntity
  8
0
  6
Continuous
 62
     7
370
    15
100
AcDbLine
 10
228.1291357541
 20
110.3389255564
 30
0.0
 11
223.8196615929
 21
112.0007816836
 31
0.0
  0
LINE
  5
CE
330
1F
100
AcDbEntity
  8
0
  6
Continuous
 62
     7
370
    15
100
AcDbLine
 10
228.1291357541
 20
110.3389255564
 30
0.0
 11
231.7230824583
 21
113.2401115933
 31
0.0
  0
ARC
  5
CF
330
1F
100
AcDbEntity
  8
0
  6
Continuous
 62
     7
370
    15
100
AcDbCircle
 10
232.4349852442
 20
103.7706829548
 30
0.0
 40
19.55577392587123
100
AcDbArc
 50
357.9718982864
 51
5.0911211554
  0
LWPOLYLINE
  5
D0
330
1F
100
AcDbEntity
  8
0
  6
Continuous
 62
     7
370
    15
100
AcDbPolyline
 90
        7
 70
   128
 43
0.0
 10
251.9136082971
 20
125.3593527321
 10
251.9180178308
 20
125.5089173892
 10
251.9283963347
 20
125.9754557212
 10
251.9320407806
 20
126.3710393891
 10
251.9283963347
 20
126.6354443653
 10
251.9180178308
 20
126.7284173892
 10
251.9136082971
 20
126.7192646778
  0
LINE
  5
D1
330
1F
100
AcDbEntity
  8
0
  6
HIDDEN
 62
     7
370
     0
100
AcDbLine
 10
108.6515792762
 20
153.8529304814
 30
0.0
 11
108.6515792762
 21
146.2519677205
 31
0.0
  0
SPLINE
  5
D2
330
1F
100
AcDbEntity
  8
0
  6
HIDDEN
 62
     7
370
     0
100
AcDbSpline
210
0.0
220
0.0
230
1.0
 70
     8
 71
     3
 72
    80
 73
    76
 74
     0
 42
0.00000001
 43
0.00000001
 40
-0.0312500000000003
 40
-0.0312500000000003
 40
0.0
 40
0.0
 40
0.03125
 40
0.03125
 40
0.046875
 40
0.046875
 40
0.0624999999999999
 40
0.0624999999999999
 40
0.0937499999999998
 40
0.0937499999999998
 40
0.1249999999999996
 40
0.1249999999999996
 40
0.1562499999999995
 40
0.1562499999999995
 40
0.1874999999999994
 40
0.1874999999999994
 40
0.2187499999999993
 40
0.2187499999999993
 40
0.2499999999999992
 40
0.2499999999999992
 40
0.2812499999999991
 40
0.2812499999999991
 40
0.3124999999999989
 40
0.3124999999999989
 40
0.3281249999999988
 40
0.3281249999999988
 40
0.3437499999999986
 40
0.3437499999999986
 40
0.3749999999999983
 40
0.3749999999999983
 40
0.4062499999999981
 40
0.4062499999999981
 40
0.4218749999999979
 40
0.4218749999999979
 40
0.4374999999999978
 40
0.4374999999999978
 40
0.4687499999999977
 40
0.4687499999999977
 40
0.4999999999999975
 40
0.4999999999999975
 40
0.5312499999999972
 40
0.5312499999999972
 40
0.562499999999997
 40
0.562499999999997
 40
0.5937499999999968
 40
0.5937499999999968
 40
0.6249999999999966
 40
0.6249999999999966
 40
0.6562499999999964
 40
0.6562499999999964
 40
0.6874999999999962
 40
0.6874999999999962
 40
0.7031249999999962
 40
0.7031249999999962
 40
0.7187499999999963
 40
0.7187499999999963
 40
0.7499999999999968
 40
0.7499999999999968
 40
0.7812499999999972
 40
0.7812499999999972
 40
0.7968749999999976
 40
0.7968749999999976
 40
0.8124999999999978
 40
0.8124999999999978
 40
0.8437499999999981
 40
0.8437499999999981
 40
0.8749999999999984
 40
0.8749999999999984
 40
0.9062499999999989
 40
0.9062499999999989
 40
0.9374999999999992
 40
0.9374999999999992
 40
0.9687499999999997
 40
0.9687499999999997
 40
1.0
 40
1.0
 40
1.03125
 40
1.03125
 10
101.244153609894
 20
163.7615169770156
 30
0.0
 10
100.5830629843414
 20
163.7615169770156
 30
0.0
 10
100.2580828550898
 20
163.7546188311888
 30
0.0
 10
99.77860944384335
 20
163.7340924032083
 30
0.0
 10
99.62012762600254
 20
163.7255361761208
 30
0.0
 10
99.30590809349826
 20
163.7048098009031
 30
0.0
 10
99.14978780981785
 20
163.6925825006968
 30
0.0
 10
98.6957337808613
 20
163.6510132068675
 30
0.0
 10
98.40863039792144
 20
163.6166689217698
 30
0.0
 10
97.86527584189444
 20
163.5333447974475
 30
0.0
 10
97.60817223068887
 20
163.483906574673
 30
0.0
 10
97.14726597575007
 20
163.3725268449131
 30
0.0
 10
96.94036826653512
 20
163.3102323314009
 30
0.0
 10
96.57484295254291
 20
163.1703026885299
 30
0.0
 10
96.41963743041696
 20
163.0936867907809
 30
0.0
 10
96.17020704381723
 20
162.9297281709252
 30
0.0
 10
96.07411708803207
 20
162.8411713168294
 30
0.0
 10
95.9455982388385
 20
162.6536906347237
 30
0.0
 10
95.9137873686607
 20
162.5564541732693
 30
0.0
 10
95.91343071888744
 20
162.3548215339422
 30
0.0
 10
95.94592797108452
 20
162.249272742104
 30
0.0
 10
96.073553444799
 20
162.0391579594155
 30
0.0
 10
96.1679818458509
 20
161.9340924514466
 30
0.0
 10
96.35584266583645
 20
161.7772147441955
 30
0.0
 10
96.42667066463964
 20
161.7247810104897
 30
0.0
 10
96.58139255660491
 20
161.62234256486
 30
0.0
 10
96.66536902678833
 20
161.5721948362082
 30
0.0
 10
96.93669269643274
 20
161.4251788797747
 30
0.0
 10
97.14324191503508
 20
161.3316910593402
 30
0.0
 10
97.6098520552241
 20
161.1559042017259
 30
0.0
 10
97.86221762484955
 20
161.0765257266422
 30
0.0
 10
98.26811896652829
 20
160.9710432891481
 30
0.0
 10
98.40801958400576
 20
160.938157724308
 30
0.0
 10
98.69724351925268
 20
160.8772422450793
 30
0.0
 10
98.84708297554195
 20
160.8491616734369
 30
0.0
 10
99.30119954515277
 20
160.7743596313941
 30
0.0
 10
99.61285076388961
 20
160.736321573148
 30
0.0
 10
100.253847228802
 20
160.6847096466239
 30
0.0
 10
100.5853748567541
 20
160.6713957131024
 30
0.0
 10
101.2381659018256
 20
160.6712986267743
 30
0.0
 10
101.5627021068574
 20
160.6840867119354
 30
0.0
 10
102.2079715562739
 20
160.7355769015313
 30
0.0
 10
102.5237145624366
 20
160.7741014808514
 30
0.0
 10
103.1256038574203
 20
160.8730040437094
 30
0.0
 10
103.4163530882317
 20
160.9341081416344
 30
0.0
 10
103.9632648799162
 20
161.0759175747451
 30
0.0
 10
104.2150422437532
 20
161.1552520593243
 30
0.0
 10
104.6764302363743
 20
161.3286308039858
 30
0.0
 10
104.8876995159724
 20
161.4237907487398
 30
0.0
 10
105.2510038683486
 20
161.6203632721157
 30
0.0
 10
105.4048105167913
 20
161.7221195005221
 30
0.0
 10
105.5934299863888
 20
161.8789054633076
 30
0.0
 10
105.6494604725979
 20
161.9321594970576
 30
0.0
 10
105.745034234334
 20
162.0379640586104
 30
0.0
 10
105.784797151359
 20
162.0906171229659
 30
0.0
 10
105.8805689016712
 20
162.247690842425
 30
0.0
 10
105.9132917407973
 20
162.3512158777522
 30
0.0
 10
105.9139203271264
 20
162.5554306119793
 30
0.0
 10
105.8817341823916
 20
162.652934449564
 30
0.0
 10
105.786823480536
 20
162.7922614999157
 30
0.0
 10
105.7473566971371
 20
162.8375782314201
 30
0.0
 10
105.6524266984162
 20
162.926018052409
 30
0.0
 10
105.5966698706528
 20
162.9692723028689
 30
0.0
 10
105.4087297526829
 20
163.0931637774589
 30
0.0
 10
105.2553682829667
 20
163.168866068233
 30
0.0
 10
104.8931040480864
 20
163.3081204396912
 30
0.0
 10
104.6822555746205
 20
163.3718822812199
 30
0.0
 10
104.2215856043016
 20
163.4833791206877
 30
0.0
 10
103.9702112247177
 20
163.5319051930044
 30
0.0
 10
103.4243033378196
 20
163.6159591763848
 30
0.0
 10
103.1334807631684
 20
163.6507577300515
 30
0.0
 10
102.5321541483883
 20
163.7059541948154
 30
0.0
 10
102.217635563776
 20
163.7267720435692
 30
0.0
 10
101.571054107656
 20
163.75461937648
 30
0.0
 10
101.244153609894
 20
163.7615169770156
 30
0.0
 10
100.5830629843414
 20
163.7615169770156
 30
0.0
  0
SPLINE
  5
D3
330
1F
100
AcDbEntity
  8
0
  6
HIDDEN
 62
     7
370
     0
100
AcDbSpline
210
0.0
220
0.0
230
1.0
 70
     8
 71
     3
 72
     9
 73
     5
 74
     0
 42
0.00000001
 43
0.00000001
 40
0.0
 40
0.0
 40
0.0
 40
0.0
 40
0.5038163044167481
 40
1.0
 40
1.0
 40
1.0
 40
1.0
 10
72.32703304654505
 20
78.16616135826357
 30
0.0
 10
72.04335386180657
 20
78.14200818416484
 30
0.0
 10
71.48029311476122
 20
78.0940677465748
 30
0.0
 10
71.12393207295202
 20
78.05275539828897
 30
0.0
 10
70.94711153426522
 20
78.03225688464327
 30
0.0
  0
SPLINE
  5
D4
330
1F
100
AcDbEntity
  8
0
  6
HIDDEN
 62
     7
370
     0
100
AcDbSpline
210
0.0
220
0.0
230
1.0
 70
     8
 71
     3
 72
    12
 73
     8
 74
     0
 42
0.00000001
 43
0.00000001
 40
0.0
 40
0.0
 40
0.0
 40
0.0
 40
0.1661348616735903
 40
0.3322013257393936
 40
0.5008932044678248
 40
0.752137078264078
 40
1.0
 40
1.0
 40
1.0
 40
1.0
 10
70.43292996276494
 20
151.8332717436032
 30
0.0
 10
70.443322586873
 20
151.8318936195418
 30
0.0
 10
70.46410355645295
 20
151.8291379387917
 30
0.0
 10
70.63740304589987
 20
151.8075345638296
 30
0.0
 10
70.9593546351436
 20
151.7696696118878
 30
0.0
 10
71.48052047106292
 20
151.7092858451716
 30
0.0
 10
72.04607841090065
 20
151.6614927080222
 30
0.0
 10
72.32694183458868
 20
151.6377580149288
 30
0.0
  0
SPLINE
  5
D5
330
1F
100
AcDbEntity
  8
0
  6
HIDDEN
 62
     7
370
     0
100
AcDbSpline
210
0.0
220
0.0
230
1.0
 70
     8
 71
     3
 72
     9
 73
     5
 74
     0
 42
0.00000001
 43
0.00000001
 40
0.0
 40
0.0
 40
0.0
 40
0.0
 40
0.661217565271851
 40
1.0
 40
1.0
 40
1.0
 40
1.0
 10
82.16681395230876
 20
146.2682899412848
 30
0.0
 10
82.45831605859402
 20
146.3120754366771
 30
0.0
 10
82.89917262622835
 20
146.3782949349058
 30
0.0
 10
82.84776033905499
 20
146.3704897125523
 30
0.0
 10
82.83034275923146
 20
146.3678454403197
 30
0.0
  0
SPLINE
  5
D6
330
1F
100
AcDbEntity
  8
0
  6
HIDDEN
 62
     7
370
     0
100
AcDbSpline
210
0.0
220
0.0
230
1.0
 70
     8
 71
     3
 72
     9
 73
     5
 74
     0
 42
0.00000001
 43
0.00000001
 40
0.0
 40
0.0
 40
0.0
 40
0.0
 40
0.3224758141376582
 40
0.9999999999999999
 40
0.9999999999999999
 40
0.9999999999999999
 40
0.9999999999999999
 10
82.83034258305358
 20
83.43609002412305
 30
0.0
 10
82.84898447507834
 20
83.43332203720067
 30
0.0
 10
82.90679312678948
 20
83.42473848829238
 30
0.0
 10
82.4656792634443
 20
83.49085199797108
 30
0.0
 10
82.16681395230876
 20
83.53564549979062
 30
0.0
  0
SPLINE
  5
D7
330
1F
100
AcDbEntity
  8
0
  6
HIDDEN
 62
     7
370
     0
100
AcDbSpline
210
0.0
220
0.0
230
1.0
 70
     8
 71
     3
 72
    15
 73
    11
 74
     0
 42
0.00000001
 43
0.00000001
 40
0.0
 40
0.0
 40
0.0
 40
0.0
 40
0.1285821516379736
 40
0.2571635483376876
 40
0.385323567199189
 40
0.5113778119466696
 40
0.6369260966772228
 40
0.7643185820319293
 40
0.8930603485208921
 40
1.0
 40
1.0
 40
1.0
 40
1.0
 10
82.16681395230876
 20
83.53564549979062
 30
0.0
 10
81.7812918310686
 20
83.59745129037455
 30
0.0
 10
81.01024985208595
 20
83.72106250866503
 30
0.0
 10
79.23169200532934
 20
83.91181109267077
 30
0.0
 10
77.23788070988968
 20
83.9994585297761
 30
0.0
 10
75.21384280265497
 20
83.95255336707366
 30
0.0
 10
73.38573423569598
 20
83.79230315933216
 30
0.0
 10
71.95430301441691
 20
83.59112380145308
 30
0.0
 10
71.05041953694135
 20
83.42858206680634
 30
0.0
 10
70.9878355991852
 20
83.41618178010602
 30
0.0
 10
70.95943834771953
 20
83.41055519168252
 30
0.0
  0
SPLINE
  5
D8
330
1F
100
AcDbEntity
  8
0
  6
HIDDEN
 62
     7
370
     0
100
AcDbSpline
210
0.0
220
0.0
230
1.0
 70
     8
 71
     3
 72
    16
 73
    12
 74
     0
 42
0.00000001
 43
0.00000001
 40
0.0
 40
0.0
 40
0.0
 40
0.0
 40
0.0205567982654305
 40
0.1461296737692548
 40
0.2720439921275847
 40
0.3999539720187822
 40
0.528504097482051
 40
0.655245546444081
 40
0.7805594897978894
 40
0.9070378665747952
 40
1.0
 40
1.0
 40
1.0
 40
1.0
 10
70.95943834771953
 20
146.3933802493929
 30
0.0
 10
70.94477113543651
 20
146.3961266259976
 30
0.0
 10
70.84050806302882
 20
146.4156494676439
 30
0.0
 10
71.29128807387544
 20
146.3292749098869
 30
0.0
 10
72.3045272044503
 20
146.158142307953
 30
0.0
 10
73.8988555224316
 20
145.9546015230156
 30
0.0
 10
75.82535488456611
 20
145.8222105570409
 30
0.0
 10
77.8718466851177
 20
145.8184143783501
 30
0.0
 10
79.78500610084065
 20
145.9411909509798
 30
0.0
 10
81.26971448623988
 20
146.1230058111013
 30
0.0
 10
81.8998626893743
 20
146.2250575200163
 30
0.0
 10
82.16681395230876
 20
146.2682899412848
 30
0.0
  0
LINE
  5
D9
330
1F
100
AcDbEntity
  8
0
  6
HIDDEN
 62
     7
370
     0
100
AcDbLine
 10
61.9102326241
 20
88.4019677205
 30
0.0
 11
61.9102326241
 21
141.4019677205
 31
0.0
  0
LINE
  5
DA
330
1F
100
AcDbEntity
  8
0
  6
HIDDEN
 62
     7
370
     0
100
AcDbLine
 10
101.1976859155
 20
88.4019677205
 30
0.0
 11
101.1976859155
 21
141.4019677205
 31
0.0
  0
LINE
  5
DB
330
1F
100
AcDbEntity
  8
0
  6
HIDDEN
 62
     7
370
     0
100
AcDbLine
 10
104.3636082971
 20
90.0269677205
 30
0.0
 11
104.3636082971
 21
139.7769677205
 31
0.0
  0
SPLINE
  5
DC
330
1F
100
AcDbEntity
  8
0
  6
HIDDEN
 62
     7
370
     0
100
AcDbSpline
210
0.0
220
0.0
230
1.0
 70
     8
 71
     3
 72
    20
 73
    16
 74
     0
 42
0.00000001
 43
0.00000001
 40
0.0
 40
0.0
 40
0.0
 40
0.0
 40
0.2499999999999978
 40
0.2499999999999978
 40
0.3749999999999982
 40
0.3749999999999982
 40
0.4999999999999986
 40
0.4999999999999986
 40
0.6249999999999989
 40
0.6249999999999989
 40
0.7499999999999992
 40
0.7499999999999992
 40
0.8749999999999997
 40
0.8749999999999997
 40
1.0
 40
1.0
 40
1.0
 40
1.0
 10
52.11360829711771
 20
140.130481350952
 30
0.0
 10
52.11360829711772
 20
140.0512783644197
 30
0.0
 10
52.06662580190498
 20
139.9701821460168
 30
0.0
 10
51.9288042111274
 20
139.8499854542659
 30
0.0
 10
51.87252192721742
 20
139.8110587502638
 30
0.0
 10
51.7394370757502
 20
139.7358700178394
 30
0.0
 10
51.66159713351715
 20
139.6992278124974
 30
0.0
 10
51.48896477740279
 20
139.6316372796656
 30
0.0
 10
51.39457178031171
 20
139.60067909789
 30
0.0
 10
51.18913447399656
 20
139.5451546765203
 30
0.0
 10
51.07678823400939
 20
139.5204461626871
 30
0.0
 10
50.84454737010977
 20
139.4806499355788
 30
0.0
 10
50.72383672768704
 20
139.4652300981818
 30
0.0
 10
50.47276586841801
 20
139.4441501233422
 30
0.0
 10
50.34324387200223
 20
139.4386728783212
 30
0.0
 10
50.21360829711771
 20
139.4386728783212
 30
0.0
  0
LINE
  5
DD
330
1F
100
AcDbEntity
  8
0
  6
HIDDEN
 62
     7
370
     0
100
AcDbLine
 10
50.2136082971
 20
139.4386728783
 30
0.0
 11
43.6636082971
 21
139.4386728783
 31
0.0
  0
LINE
  5
DE
330
1F
100
AcDbEntity
  8
0
  6
HIDDEN
 62
     7
370
     0
100
AcDbLine
 10
43.6636082971
 20
90.3652625628
 30
0.0
 11
55.2136082971
 21
90.3652625628
 31
0.0
  0
SPLINE
  5
DF
330
1F
100
AcDbEntity
  8
0
  6
HIDDEN
 62
     7
370
     0
100
AcDbSpline
210
0.0
220
0.0
230
1.0
 70
     8
 71
     3
 72
    18
 73
    14
 74
     0
 42
0.00000001
 43
0.00000001
 40
0.0
 40
0.0
 40
0.0
 40
0.0
 40
0.1249999999999982
 40
0.1249999999999982
 40
0.2499999999999964
 40
0.2499999999999964
 40
0.4999999999999988
 40
0.4999999999999988
 40
0.7500000000000011
 40
0.7500000000000011
 40
0.8750000000000006
 40
0.8750000000000006
 40
1.0
 40
1.0
 40
1.0
 40
1.0
 10
55.21360829711772
 20
90.36526256275418
 30
0.0
 10
55.34307561007493
 20
90.36526256275418
 30
0.0
 10
55.47008635897156
 20
90.35990956416154
 30
0.0
 10
55.71944968016881
 20
90.33917159147276
 30
0.0
 10
55.84307333479725
 20
90.32349968721846
 30
0.0
 10
56.1921056717313
 20
90.26380495881638
 30
0.0
 10
56.40261743653809
 20
90.20603977913538
 30
0.0
 10
56.7465341142376
 20
90.07151793785789
 30
0.0
 10
56.88288451575541
 20
89.9938488243525
 30
0.0
 10
57.01992257231795
 20
89.87455769026515
 30
0.0
 10
57.05514159103085
 20
89.83363868113011
 30
0.0
 10
57.10176516796942
 20
89.75298268784007
 30
0.0
 10
57.11360829711773
 20
89.7130141676472
 30
0.0
 10
57.11360829711771
 20
89.6734540901234
 30
0.0
  0
LINE
  5
E0
330
1F
100
AcDbEntity
  8
0
  6
HIDDEN
 62
     7
370
     0
100
AcDbLine
 10
43.6636082971
 20
90.3652625628
 30
0.0
 11
43.6636082971
 21
139.4386728783
 31
0.0
  0
SPLINE
  5
E1
330
1F
100
AcDbEntity
  8
0
  6
HIDDEN
 62
     7
370
     0
100
AcDbSpline
210
0.0
220
0.0
230
1.0
 70
     8
 71
     3
 72
    11
 73
     7
 74
     0
 42
0.00000001
 43
0.00000001
 40
0.0
 40
0.0
 40
0.0
 40
0.0
 40
0.3580957942178811
 40
0.5509644344253516
 40
0.7531243029555528
 40
1.0
 40
1.0
 40
1.0
 40
1.0
 10
227.4136082971177
 20
107.9019677205377
 30
0.0
 10
227.8526235608936
 20
107.9246081546128
 30
0.0
 10
228.5280902947007
 20
107.9594426155496
 30
0.0
 10
229.419999832942
 20
108.1858210528735
 30
0.0
 10
230.1618690079004
 20
108.43714266668
 30
0.0
 10
230.6357081332494
 20
108.7055356266576
 30
0.0
 10
230.8962206033647
 20
108.8530956511993
 30
0.0
  0
SPLINE
  5
E2
330
1F
100
AcDbEntity
  8
0
  6
HIDDEN
 62
     7
370
     0
100
AcDbSpline
210
0.0
220
0.0
230
1.0
 70
     8
 71
     3
 72
    15
 73
    11
 74
     0
 42
0.00000001
 43
0.00000001
 40
0.0
 40
0.0
 40
0.0
 40
0.0
 40
0.0139621681626735
 40
0.120384834707267
 40
0.3182846136222613
 40
0.4981582690387225
 40
0.6779241759448945
 40
0.7746545639266896
 40
0.875989062100354
 40
1.0
 40
1.0
 40
1.0
 40
1.0
 10
230.8824448530638
 20
120.9752969987699
 30
0.0
 10
230.8542377052395
 20
120.9936158638911
 30
0.0
 10
230.6110295738927
 20
121.1515650823748
 30
0.0
 10
229.9033204867836
 20
121.4637677796884
 30
0.0
 10
228.7772798326766
 20
121.8179018936394
 30
0.0
 10
227.4142464081064
 20
121.9423965878041
 30
0.0
 10
226.2991781827796
 20
121.8390903817733
 30
0.0
 10
225.4072650350463
 20
121.6192444805046
 30
0.0
 10
224.6653630777735
 20
121.3663736512351
 30
0.0
 10
224.1912913530361
 20
121.0983378435227
 30
0.0
 10
223.9304026470529
 20
120.9508337605276
 30
0.0
  0
SPLINE
  5
E3
330
1F
100
AcDbEntity
  8
0
  6
HIDDEN
 62
     7
370
     0
100
AcDbSpline
210
0.0
220
0.0
230
1.0
 70
     8
 71
     3
 72
    11
 73
     7
 74
     0
 42
0.00000001
 43
0.00000001
 40
0.0
 40
0.0
 40
0.0
 40
0.0
 40
0.0161731216518813
 40
0.2330923764578971
 40
0.6352168854348725
 40
0.9999999999999999
 40
0.9999999999999999
 40
0.9999999999999999
 40
0.9999999999999999
 10
223.9786024323826
 20
108.8067641584312
 30
0.0
 10
223.9947193011433
 20
108.796342068108
 30
0.0
 10
224.2270009423341
 20
108.6461354565832
 30
0.0
 10
224.9240947184971
 20
108.343036229305
 30
0.0
 10
226.0506041338668
 20
107.9732828668738
 30
0.0
 10
226.9742648554037
 20
107.9249550617964
 30
0.0
 10
227.4136082971177
 20
107.9019677205377
 30
0.0
  0
LWPOLYLINE
  5
E4
330
1F
100
AcDbEntity
  8
0
  6
HIDDEN
 62
     7
370
     0
100
AcDbPolyline
 90
       13
 70
   128
 43
0.0
 10
100.9136082971
 20
154.8456982838
 10
102.0666876508
 20
154.9005164781
 10
103.1576041981
 20
155.0620157979
 10
104.1275463456
 20
155.321489773
 10
104.9242242609
 20
155.6649500943
 10
105.5046888315
 20
156.0738807271
 10
105.8376470622
 20
156.5262361149
 10
105.9051490885
 20
156.9976296618
 10
105.7035558587
 20
157.4626484197
 10
105.243735316
 20
157.8962231069
 10
104.550476505
 20
158.2749795998
 10
103.6611531875
 20
158.5784990379
 10
103.3118496741
 20
158.6638588888
  0
LWPOLYLINE
  5
E5
330
1F
100
AcDbEntity
  8
0
  6
HIDDEN
 62
     7
370
     0
100
AcDbPolyline
 90
       13
 70
   128
 43
0.0
 10
98.5118752682
 20
158.663081837
 10
98.1660634068
 20
158.5784990379
 10
97.2767400893
 20
158.2749795998
 10
96.5834812782
 20
157.8962231069
 10
96.1236607355
 20
157.4626484197
 10
95.9220675058
 20
156.9976296618
 10
95.9895695321
 20
156.5262361149
 10
96.3225277627
 20
156.0738807271
 10
96.9029923333
 20
155.6649500943
 10
97.6996702487
 20
155.321489773
 10
98.6696123961
 20
155.0620157979
 10
99.7605289434
 20
154.9005164781
 10
100.9136082971
 20
154.8456982838
  0
LINE
  5
E6
330
1F
100
AcDbEntity
  8
0
  6
HIDDEN
 62
     7
370
     0
100
AcDbLine
 10
43.6636082971
 20
87.5319677205
 30
0.0
 11
43.6636082971
 21
82.6536825187
 31
0.0
  0
LINE
  5
E7
330
1F
100
AcDbEntity
  8
0
  6
HIDDEN
 62
     7
370
     0
100
AcDbLine
 10
57.1136082971
 20
87.5319677205
 30
0.0
 11
57.1136082971
 21
81.0326344552
 31
0.0
  0
LINE
  5
E8
330
1F
100
AcDbEntity
  8
0
  6
HIDDEN
 62
     7
370
     0
100
AcDbLine
 10
52.1136082971
 20
142.2719677205
 30
0.0
 11
52.1136082971
 21
148.6465764575
 31
0.0
  0
LINE
  5
E9
330
1F
100
AcDbEntity
  8
0
  6
HIDDEN
 62
     7
370
     0
100
AcDbLine
 10
43.6636082971
 20
142.2719677205
 30
0.0
 11
43.6636082971
 21
147.1502529224
 31
0.0
  0
LWPOLYLINE
  5
EA
330
1F
100
AcDbEntity
  8
0
  6
HIDDEN
 62
     7
370
     0
100
AcDbPolyline
 90
       17
 70
   128
 43
0.0
 10
202.9136082971
 20
100.4062787062
 10
202.3395831486
 20
100.4870166543
 10
201.8529481253
 20
100.716938878
 10
201.5277889984
 20
101.0610418029
 10
201.4136082971
 20
101.466938878
 10
201.5277889984
 20
101.8728359531
 10
201.8529481253
 20
102.216938878
 10
202.3395831486
 20
102.4468611017
 10
202.9136082971
 20
102.5275990498
 10
203.4876334457
 20
102.4468611017
 10
203.9742684689
 20
102.216938878
 10
204.2994275959
 20
101.8728359531
 10
204.4136082971
 20
101.466938878
 10
204.2994275959
 20
101.0610418029
 10
203.9742684689
 20
100.716938878
 10
203.4876334457
 20
100.4870166543
 10
202.9136082971
 20
100.4062787062
  0
SPLINE
  5
EB
330
1F
100
AcDbEntity
  8
0
  6
HIDDEN
 62
     7
370
     0
100
AcDbSpline
210
0.0
220
0.0
230
1.0
 70
     8
 71
     3
 72
    14
 73
    10
 74
     0
 42
0.00000001
 43
0.00000001
 40
0.0
 40
0.0
 40
0.0
 40
0.0
 40
0.25
 40
0.25
 40
0.5
 40
0.5
 40
0.75
 40
0.75
 40
1.0
 40
1.0
 40
1.0
 40
1.0
 10
201.9314917615608
 20
102.4775259528504
 30
0.0
 10
201.9003029092031
 20
102.4411676236968
 30
0.0
 10
201.8706136860226
 20
102.4052970003409
 30
0.0
 10
201.8236760323315
 20
102.3228832862214
 30
0.0
 10
201.8069451772782
 20
102.2739460997782
 30
0.0
 10
201.816502269637
 20
102.1421881005112
 30
0.0
 10
201.8410505268563
 20
102.064684336035
 30
0.0
 10
201.8995989733953
 20
101.9134191189296
 30
0.0
 10
201.9339356491104
 20
101.8383128386001
 30
0.0
 10
201.9698527982238
 20
101.7644235004352
 30
0.0
  0
SPLINE
  5
EC
330
1F
100
AcDbEntity
  8
0
  6
HIDDEN
 62
     7
370
     0
100
AcDbSpline
210
0.0
220
0.0
230
1.0
 70
     8
 71
     3
 72
    14
 73
    10
 74
     0
 42
0.00000001
 43
0.00000001
 40
0.0
 40
0.0
 40
0.0
 40
0.0
 40
0.25
 40
0.25
 40
0.5
 40
0.5
 40
0.75
 40
0.75
 40
1.0
 40
1.0
 40
1.0
 40
1.0
 10
201.9698527982243
 20
101.7644235004347
 30
0.0
 10
202.0050605796776
 20
101.7974150262644
 30
0.0
 10
202.0355956304345
 20
101.8373549003269
 30
0.0
 10
202.0775837449049
 20
101.9353356014513
 30
0.0
 10
202.087646670436
 20
101.9918411125022
 30
0.0
 10
202.0793963945602
 20
102.1188219604527
 30
0.0
 10
202.0610099840071
 20
102.1880873001193
 30
0.0
 10
202.0061716465393
 20
102.3304823687616
 30
0.0
 10
201.9704342528639
 20
102.4033355682622
 30
0.0
 10
201.9314917615613
 20
102.4775259528524
 30
0.0
  0
SPLINE
  5
ED
330
1F
100
AcDbEntity
  8
0
  6
HIDDEN
 62
     7
370
     0
100
AcDbSpline
210
0.0
220
0.0
230
1.0
 70
     8
 71
     3
 72
    10
 73
     6
 74
     0
 42
0.00000001
 43
0.00000001
 40
0.0
 40
0.0
 40
0.0
 40
0.0
 40
0.5
 40
0.5
 40
1.0
 40
1.0
 40
1.0
 40
1.0
 10
201.4136082971173
 20
103.1596487640801
 30
0.0
 10
201.4136082971173
 20
103.1826457795066
 30
0.0
 10
201.4146642954237
 20
103.2035058617783
 30
0.0
 10
201.4187262397228
 20
103.2411544087099
 30
0.0
 10
201.4217331326649
 20
103.2579454085216
 30
0.0
 10
201.4256472292891
 20
103.2726273524644
 30
0.0
  0
SPLINE
  5
EE
330
1F
100
AcDbEntity
  8
0
  6
HIDDEN
 62
     7
370
     0
100
AcDbSpline
210
0.0
220
0.0
230
1.0
 70
     8
 71
     3
 72
    18
 73
    14
 74
     0
 42
0.00000001
 43
0.00000001
 40
0.0
 40
0.0
 40
0.0
 40
0.0
 40
0.0717322440337842
 40
0.1608051315997244
 40
0.223637424196537
 40
0.274624809358056
 40
0.3256431149586999
 40
0.3969999524034464
 40
0.5112839091017379
 40
0.6318409452773804
 40
0.7748542124876934
 40
0.9085088591211463
 40
1.0
 40
1.0
 40
1.0
 40
1.0
 10
201.4416534341854
 20
103.3019417143282
 30
0.0
 10
201.4465929403894
 20
103.3133018698429
 30
0.0
 10
201.4576660352836
 20
103.3387683992557
 30
0.0
 10
201.4789288567534
 20
103.3364108145738
 30
0.0
 10
201.4934612902767
 20
103.3127687101609
 30
0.0
 10
201.4982037387184
 20
103.270072339295
 30
0.0
 10
201.4937922174492
 20
103.206459521296
 30
0.0
 10
201.4771893558194
 20
103.1051564024012
 30
0.0
 10
201.4499926438016
 20
102.9694602493231
 30
0.0
 10
201.4223702132251
 20
102.8080835765508
 30
0.0
 10
201.4099564776364
 20
102.6601494850555
 30
0.0
 10
201.4181900567809
 20
102.5560471337784
 30
0.0
 10
201.4345506779967
 20
102.5295542715613
 30
0.0
 10
201.4411990453371
 20
102.5187885263249
 30
0.0
  0
LWPOLYLINE
  5
EF
330
1F
100
AcDbEntity
  8
0
  6
HIDDEN
 62
     7
370
     0
100
AcDbPolyline
 90
        9
 70
   128
 43
0.0
 10
201.449234797
 20
102.5017009732
 10
201.4782076511
 20
102.4990550156
 10
201.4918142288
 20
102.5238120095
 10
201.4967668003
 20
102.5633805689
 10
201.4934494239
 20
102.6208970665
 10
201.4809788827
 20
102.7013109859
 10
201.4553215013
 20
102.8323751958
 10
201.4248777873
 20
103.0101239071
 10
201.4136082971
 20
103.1596487641
  0
SPLINE
  5
F0
330
1F
100
AcDbEntity
  8
0
  6
HIDDEN
 62
     7
370
     0
100
AcDbSpline
210
0.0
220
0.0
230
1.0
 70
     8
 71
     3
 72
     8
 73
     4
 74
     0
 42
0.00000001
 43
0.00000001
 40
0.0
 40
0.0
 40
0.0
 40
0.0
 40
1.0
 40
1.0
 40
1.0
 40
1.0
 10
204.1556423363282
 20
108.2549099305464
 30
0.0
 10
204.1144514901068
 20
108.2908186301427
 30
0.0
 10
204.0689087745802
 20
108.3288543367904
 30
0.0
 10
204.0188342789979
 20
108.3712605958105
 30
0.0
  0
SPLINE
  5
F1
330
1F
100
AcDbEntity
  8
0
  6
HIDDEN
 62
     7
370
     0
100
AcDbSpline
210
0.0
220
0.0
230
1.0
 70
     8
 71
     3
 72
    32
 73
    28
 74
     0
 42
0.00000001
 43
0.00000001
 40
0.0
 40
0.0
 40
0.0
 40
0.0
 40
0.0625000000000001
 40
0.0625000000000001
 40
0.1250000000000002
 40
0.1250000000000002
 40
0.2500000000000006
 40
0.2500000000000006
 40
0.3125000000000007
 40
0.3125000000000007
 40
0.3750000000000008
 40
0.3750000000000008
 40
0.5000000000000007
 40
0.5000000000000007
 40
0.6250000000000007
 40
0.6250000000000007
 40
0.6875000000000006
 40
0.6875000000000006
 40
0.7500000000000004
 40
0.7500000000000004
 40
0.8125000000000004
 40
0.8125000000000004
 40
0.8750000000000003
 40
0.8750000000000003
 40
0.9375000000000002
 40
0.9375000000000002
 40
1.0
 40
1.0
 40
1.0
 40
1.0
 10
204.0188342789979
 20
108.3712605958105
 30
0.0
 10
203.916641723294
 20
108.4578037339234
 30
0.0
 10
203.8005675354163
 20
108.5317016333096
 30
0.0
 10
203.5409190589579
 20
108.6526576840512
 30
0.0
 10
203.4006340879918
 20
108.6977127651717
 30
0.0
 10
202.9625269795934
 20
108.7803898483749
 30
0.0
 10
202.6477974428569
 20
108.7616535585797
 30
0.0
 10
202.2304120926454
 20
108.6310463200354
 30
0.0
 10
202.0976699888124
 20
108.5700532241045
 30
0.0
 10
201.8641657235748
 20
108.4239153946463
 30
0.0
 10
201.7599905101468
 20
108.3367181608826
 30
0.0
 10
201.5071495521621
 20
108.0538974928318
 30
0.0
 10
201.413672395831
 20
107.8319749841122
 30
0.0
 10
201.413544266269
 20
107.4060119850945
 30
0.0
 10
201.5051186585386
 20
107.2064625909326
 30
0.0
 10
201.7599786801579
 20
106.9644025351287
 30
0.0
 10
201.862376925978
 20
106.8946499110796
 30
0.0
 10
202.0969467650529
 20
106.7778123501631
 30
0.0
 10
202.2284742140428
 20
106.7313542172714
 30
0.0
 10
202.5070636405138
 20
106.6649305309334
 30
0.0
 10
202.6562565900849
 20
106.6446244129598
 30
0.0
 10
202.9543709545455
 20
106.631605799229
 30
0.0
 10
203.1073363351214
 20
106.6387799475364
 30
0.0
 10
203.3983068159899
 20
106.6797003026984
 30
0.0
 10
203.5406152866918
 20
106.7140452551514
 30
0.0
 10
203.7984539307542
 20
106.806933142929
 30
0.0
 10
203.9166406307906
 20
106.8660926780543
 30
0.0
 10
204.0188342789979
 20
106.9370531289656
 30
0.0
  0
SPLINE
  5
F2
330
1F
100
AcDbEntity
  8
0
  6
HIDDEN
 62
     7
370
     0
100
AcDbSpline
210
0.0
220
0.0
230
1.0
 70
     8
 71
     3
 72
     8
 73
     4
 74
     0
 42
0.00000001
 43
0.00000001
 40
0.0
 40
0.0
 40
0.0
 40
0.0
 40
1.0
 40
1.0
 40
1.0
 40
1.0
 10
204.0188342789979
 20
106.9370531289656
 30
0.0
 10
204.0689087745802
 20
106.9718234776909
 30
0.0
 10
204.1144514901068
 20
107.0153794276237
 30
0.0
 10
204.1556423363282
 20
107.0654970960416
 30
0.0
  0
SPLINE
  5
F3
330
1F
100
AcDbEntity
  8
0
  6
HIDDEN
 62
     7
370
     0
100
AcDbSpline
210
0.0
220
0.0
230
1.0
 70
     8
 71
     3
 72
    12
 73
     8
 74
     0
 42
0.00000001
 43
0.00000001
 40
0.0
 40
0.0
 40
0.0
 40
0.0
 40
0.25
 40
0.25
 40
0.5
 40
0.5
 40
1.0
 40
1.0
 40
1.0
 40
1.0
 10
204.1556423363282
 20
107.0654970960416
 30
0.0
 10
204.2392552348713
 20
107.16723046423
 30
0.0
 10
204.3031455411673
 20
107.2716783000977
 30
0.0
 10
204.3911307474309
 20
107.4875699531372
 30
0.0
 10
204.4134705417445
 20
107.5957509895571
 30
0.0
 10
204.4138819063173
 20
107.9122234963781
 30
0.0
 10
204.3228781523735
 20
108.1091197555201
 30
0.0
 10
204.1556423363282
 20
108.2549099305465
 30
0.0
  0
SPLINE
  5
F4
330
1F
100
AcDbEntity
  8
0
  6
HIDDEN
 62
     7
370
     0
100
AcDbSpline
210
0.0
220
0.0
230
1.0
 70
     8
 71
     3
 72
    14
 73
    10
 74
     0
 42
0.00000001
 43
0.00000001
 40
0.0
 40
0.0
 40
0.0
 40
0.0
 40
0.25
 40
0.25
 40
0.5
 40
0.5
 40
0.75
 40
0.75
 40
1.0
 40
1.0
 40
1.0
 40
1.0
 10
201.9698527982241
 20
103.4132567596275
 30
0.0
 10
201.9338693475904
 20
103.4460902401102
 30
0.0
 10
201.8994479409914
 20
103.4778100002561
 30
0.0
 10
201.8408493795652
 20
103.5490776965611
 30
0.0
 10
201.8163277004362
 20
103.5894920000281
 30
0.0
 10
201.8070361206576
 20
103.7063611763376
 30
0.0
 10
201.8237821508559
 20
103.7814921828555
 30
0.0
 10
201.8707778549811
 20
103.9310442637637
 30
0.0
 10
201.9003650373765
 20
104.0065093404673
 30
0.0
 10
201.9314917615602
 20
104.0809267827038
 30
0.0
  0
SPLINE
  5
F5
330
1F
100
AcDbEntity
  8
0
  6
HIDDEN
 62
     7
370
     0
100
AcDbSpline
210
0.0
220
0.0
230
1.0
 70
     8
 71
     3
 72
    10
 73
     6
 74
     0
 42
0.00000001
 43
0.00000001
 40
0.0
 40
0.0
 40
0.0
 40
0.0
 40
0.5
 40
0.5
 40
1.0
 40
1.0
 40
1.0
 40
1.0
 10
201.9314917615613
 20
104.080926782705
 30
0.0
 10
202.0092425158141
 20
104.0280496610703
 30
0.0
 10
202.0747986650161
 20
103.9431602571934
 30
0.0
 10
202.0920880718275
 20
103.7035015485698
 30
0.0
 10
202.0402988960116
 20
103.5599119843381
 30
0.0
 10
201.9698527982243
 20
103.4132567596269
 30
0.0
  0
SPLINE
  5
F6
330
1F
100
AcDbEntity
  8
0
  6
HIDDEN
 62
     7
370
     0
100
AcDbSpline
210
0.0
220
0.0
230
1.0
 70
     8
 71
     3
 72
    48
 73
    44
 74
     0
 42
0.00000001
 43
0.00000001
 40
-0.0625000000000038
 40
-0.0625000000000038
 40
0.0
 40
0.0
 40
0.031249999999999
 40
0.031249999999999
 40
0.062499999999998
 40
0.062499999999998
 40
0.1249999999999961
 40
0.1249999999999961
 40
0.1874999999999941
 40
0.1874999999999941
 40
0.2499999999999921
 40
0.2499999999999921
 40
0.3124999999999901
 40
0.3124999999999901
 40
0.3437499999999903
 40
0.3437499999999903
 40
0.3749999999999905
 40
0.3749999999999905
 40
0.4062499999999907
 40
0.4062499999999907
 40
0.4374999999999908
 40
0.4374999999999908
 40
0.4999999999999912
 40
0.4999999999999912
 40
0.5624999999999916
 40
0.5624999999999916
 40
0.6249999999999919
 40
0.6249999999999919
 40
0.6874999999999923
 40
0.6874999999999923
 40
0.7499999999999927
 40
0.7499999999999927
 40
0.812499999999993
 40
0.812499999999993
 40
0.8437499999999938
 40
0.8437499999999938
 40
0.8749999999999946
 40
0.8749999999999946
 40
0.9062499999999954
 40
0.9062499999999954
 40
0.9374999999999962
 40
0.9374999999999962
 40
1.0
 40
1.0
 40
1.031249999999999
 40
1.031249999999999
 10
204.0443982744691
 20
101.7149668794277
 30
0.0
 10
204.1664661049863
 20
101.7183582046496
 30
0.0
 10
204.2049284349039
 20
101.7268050205959
 30
0.0
 10
204.2750779106703
 20
101.7590798846501
 30
0.0
 10
204.3070950434455
 20
101.7833526421159
 30
0.0
 10
204.3858306303632
 20
101.8801753036372
 30
0.0
 10
204.415559031184
 20
101.9793249413721
 30
0.0
 10
204.4114472771539
 20
102.2282467431419
 30
0.0
 10
204.3774011844885
 20
102.3788481902364
 30
0.0
 10
204.2660350259638
 20
102.6877633607649
 30
0.0
 10
204.1896361023732
 20
102.8465232403908
 30
0.0
 10
204.0264629221089
 20
103.1542944872291
 30
0.0
 10
203.9378234560933
 20
103.3050320201392
 30
0.0
 10
203.8286093553644
 20
103.5229572336618
 30
0.0
 10
203.7956878076525
 20
103.5961128933542
 30
0.0
 10
203.7512370946526
 20
103.735649537
 30
0.0
 10
203.7400042762286
 20
103.8036501723686
 30
0.0
 10
203.7467920746525
 20
103.9235836838797
 30
0.0
 10
203.7645390379381
 20
103.9770024185346
 30
0.0
 10
203.8166895644109
 20
104.0651494968641
 30
0.0
 10
203.851062728878
 20
104.1012716829485
 30
0.0
 10
203.9630093895761
 20
104.1873710332992
 30
0.0
 10
204.0484933667295
 20
104.2164680506935
 30
0.0
 10
204.20664484463
 20
104.2200066461283
 30
0.0
 10
204.2788897200649
 20
104.1940417926481
 30
0.0
 10
204.3845797764499
 20
104.0723447287008
 30
0.0
 10
204.4150788222081
 20
103.975495969473
 30
0.0
 10
204.4120224462901
 20
103.7263468990058
 30
0.0
 10
204.3780997958957
 20
103.573411576139
 30
0.0
 10
204.2681343682975
 20
103.2605306799728
 30
0.0
 10
204.1929791029046
 20
103.0995747579135
 30
0.0
 10
204.0342191731583
 20
102.7900722957095
 30
0.0
 10
203.9475744525165
 20
102.6371938291787
 30
0.0
 10
203.8391043180707
 20
102.4185702136868
 30
0.0
 10
203.80615475142
 20
102.3464232279016
 30
0.0
 10
203.7573652116597
 20
102.2040752180397
 30
0.0
 10
203.7427736175361
 20
102.1357865661188
 30
0.0
 10
203.7427553807045
 20
102.0107058041295
 30
0.0
 10
203.7574376076637
 20
101.9558442486489
 30
0.0
 10
203.8074499836883
 20
101.8638982252014
 30
0.0
 10
203.8414362897191
 20
101.827579660129
 30
0.0
 10
203.9557338583117
 20
101.74110657119
 30
0.0
 10
204.0443982744691
 20
101.7149668794277
 30
0.0
 10
204.1664661049863
 20
101.7183582046496
 30
0.0
  0
ARC
  5
F7
330
1F
100
AcDbEntity
  8
0
  6
HIDDEN
 62
     7
370
     0
100
AcDbCircle
 10
188.7725440283
 20
102.9899413173
 30
0.0
 40
13.20409613460034
100
AcDbArc
 50
1.8371833019
 51
4.7394539216
  0
LINE
  5
F8
330
1F
100
AcDbEntity
  8
0
  6
HIDDEN
 62
     7
370
     0
100
AcDbLine
 10
116.2136082971
 20
101.9019677205
 30
0.0
 11
116.2136082971
 21
127.9019677205
 31
0.0
  0
LINE
  5
F9
330
1F
100
AcDbEntity
  8
0
  6
HIDDEN
 62
     7
370
     0
100
AcDbLine
 10
120.2136082971
 20
101.9019677205
 30
0.0
 11
120.2136082971
 21
127.9019677205
 31
0.0
  0
LINE
  5
FA
330
1F
100
AcDbEntity
  8
0
  6
HIDDEN
 62
     7
370
     0
100
AcDbLine
 10
105.1136082971
 20
103.6519677205
 30
0.0
 11
105.1136082971
 21
126.1519677205
 31
0.0
  0
ELLIPSE
  5
FB
330
1F
100
AcDbEntity
  8
0
  6
HIDDEN
 62
     7
370
     0
100
AcDbEllipse
 10
35.7289350968
 20
114.9019677205
 30
0.0
 11
31.08108570811661
 21
-1.421085471520200E-14
 31
0.0
210
0.0
220
0.0
230
1.0
 40
0.8164965809
 41
4.915995335118103
 42
4.970536038964787
  0
ELLIPSE
  5
FC
330
1F
100
AcDbEntity
  8
0
  6
HIDDEN
 62
     7
370
     0
100
AcDbEllipse
 10
35.7289350968
 20
114.9019677205
 30
0.0
 11
31.08108570811661
 21
1.421085471520200E-14
 31
0.0
210
0.0
220
0.0
230
1.0
 40
0.8164965809
 41
1.312649268214811
 42
1.367189972061495
  0
ARC
  5
FD
330
1F
100
AcDbEntity
  8
0
  6
HIDDEN
 62
     7
370
     0
100
AcDbCircle
 10
218.1523135009
 20
102.9925349783
 30
0.0
 40
16.22899541549229
100
AcDbArc
 50
181.8185228138
 51
184.3399443331
  0
LINE
  5
FE
330
1F
100
AcDbEntity
  8
0
  6
HIDDEN
 62
     7
370
     0
100
AcDbLine
 10
120.8636082971
 20
71.0019677205
 30
0.0
 11
106.8636082971
 21
71.0019677205
 31
0.0
  0
LINE
  5
FF
330
1F
100
AcDbEntity
  8
0
  6
HIDDEN
 62
     7
370
     0
100
AcDbLine
 10
96.8636082971
 20
64.9119687207
 30
0.0
 11
96.8636082971
 21
71.0019677205
 31
0.0
  0
LINE
  5
100
330
1F
100
AcDbEntity
  8
0
  6
HIDDEN
 62
     7
370
     0
100
AcDbLine
 10
106.8636082971
 20
71.0019677205
 30
0.0
 11
96.8636082971
 21
71.0019677205
 31
0.0
  0
LINE
  5
101
330
1F
100
AcDbEntity
  8
0
  6
HIDDEN
 62
     7
370
     0
100
AcDbLine
 10
200.9136082971
 20
105.0019677205
 30
0.0
 11
200.9136082971
 21
124.8019673799
 31
0.0
  0
SPLINE
  5
102
330
1F
100
AcDbEntity
  8
0
  6
HIDDEN
 62
     7
370
     0
100
AcDbSpline
210
0.0
220
0.0
230
1.0
 70
     8
 71
     3
 72
    32
 73
    28
 74
     0
 42
0.00000001
 43
0.00000001
 40
0.0
 40
0.0
 40
0.0
 40
0.0
 40
0.0624999999999983
 40
0.0624999999999983
 40
0.1249999999999966
 40
0.1249999999999966
 40
0.2499999999999988
 40
0.2499999999999988
 40
0.3124999999999998
 40
0.3124999999999998
 40
0.3750000000000008
 40
0.3750000000000008
 40
0.5000000000000026
 40
0.5000000000000026
 40
0.6250000000000042
 40
0.6250000000000042
 40
0.6875000000000036
 40
0.6875000000000036
 40
0.7500000000000028
 40
0.7500000000000028
 40
0.8125000000000021
 40
0.8125000000000021
 40
0.8750000000000014
 40
0.8750000000000014
 40
0.9375000000000007
 40
0.9375000000000007
 40
1.0
 40
1.0
 40
1.0
 40
1.0
 10
204.0188342789979
 20
121.4326748452648
 30
0.0
 10
203.916641723294
 20
121.346131707152
 30
0.0
 10
203.8005675354163
 20
121.2722338077658
 30
0.0
 10
203.540919058958
 20
121.1512777570242
 30
0.0
 10
203.4006340879918
 20
121.1062226759037
 30
0.0
 10
202.9625269795935
 20
121.0235455927005
 30
0.0
 10
202.6477974428569
 20
121.0422818824957
 30
0.0
 10
202.2304120926454
 20
121.17288912104
 30
0.0
 10
202.0976699888124
 20
121.2338822169708
 30
0.0
 10
201.8641657235748
 20
121.3800200464291
 30
0.0
 10
201.7599905101468
 20
121.4672172801928
 30
0.0
 10
201.5071495521621
 20
121.7500379482436
 30
0.0
 10
201.413672395831
 20
121.9719604569632
 30
0.0
 10
201.413544266269
 20
122.3979234559809
 30
0.0
 10
201.5051186585385
 20
122.5974728501428
 30
0.0
 10
201.759978680158
 20
122.8395329059467
 30
0.0
 10
201.8623769259781
 20
122.9092855299958
 30
0.0
 10
202.0969467650529
 20
123.0261230909123
 30
0.0
 10
202.2284742140428
 20
123.072581223804
 30
0.0
 10
202.5070636405138
 20
123.139004910142
 30
0.0
 10
202.6562565900849
 20
123.1593110281156
 30
0.0
 10
202.9543709545455
 20
123.1723296418464
 30
0.0
 10
203.1073363351214
 20
123.165155493539
 30
0.0
 10
203.3983068159899
 20
123.124235138377
 30
0.0
 10
203.5406152866918
 20
123.0898901859239
 30
0.0
 10
203.7984539307542
 20
122.9970022981464
 30
0.0
 10
203.9166406307905
 20
122.9378427630211
 30
0.0
 10
204.0188342789979
 20
122.8668823121098
 30
0.0
  0
SPLINE
  5
103
330
1F
100
AcDbEntity
  8
0
  6
HIDDEN
 62
     7
370
     0
100
AcDbSpline
210
0.0
220
0.0
230
1.0
 70
     8
 71
     3
 72
     8
 73
     4
 74
     0
 42
0.00000001
 43
0.00000001
 40
0.0
 40
0.0
 40
0.0
 40
0.0
 40
1.0
 40
1.0
 40
1.0
 40
1.0
 10
204.0188342789979
 20
122.8668823121098
 30
0.0
 10
204.0689087745803
 20
122.8321119633845
 30
0.0
 10
204.1144514901068
 20
122.7885560134516
 30
0.0
 10
204.1556423363282
 20
122.7384383450338
 30
0.0
  0
SPLINE
  5
104
330
1F
100
AcDbEntity
  8
0
  6
HIDDEN
 62
     7
370
     0
100
AcDbSpline
210
0.0
220
0.0
230
1.0
 70
     8
 71
     3
 72
    12
 73
     8
 74
     0
 42
0.00000001
 43
0.00000001
 40
0.0
 40
0.0
 40
0.0
 40
0.0
 40
0.25
 40
0.25
 40
0.5
 40
0.5
 40
1.0
 40
1.0
 40
1.0
 40
1.0
 10
204.1556423363282
 20
122.7384383450338
 30
0.0
 10
204.2392552348713
 20
122.6367049768454
 30
0.0
 10
204.3031455411673
 20
122.5322571409777
 30
0.0
 10
204.3911307474309
 20
122.3163654879382
 30
0.0
 10
204.4134705417445
 20
122.2081844515183
 30
0.0
 10
204.4138819063173
 20
121.8917119446973
 30
0.0
 10
204.3228781523735
 20
121.6948156855553
 30
0.0
 10
204.1556423363282
 20
121.5490255105289
 30
0.0
  0
LINE
  5
105
330
1F
100
AcDbEntity
  8
0
  6
HIDDEN
 62
     7
370
     0
100
AcDbLine
 10
204.9136082971
 20
104.9019677205
 30
0.0
 11
204.9136082971
 21
124.9019677205
 31
0.0
  0
LINE
  5
106
330
1F
100
AcDbEntity
  8
0
  6
HIDDEN
 62
     7
370
     0
100
AcDbLine
 10
57.1136082971
 20
87.5319677205
 30
0.0
 11
57.1136082971
 21
89.6734540901
 31
0.0
  0
LINE
  5
107
330
1F
100
AcDbEntity
  8
0
  6
HIDDEN
 62
     7
370
     0
100
AcDbLine
 10
43.6636082971
 20
87.5319677205
 30
0.0
 11
43.6636082971
 21
90.3652625628
 31
0.0
  0
LINE
  5
108
330
1F
100
AcDbEntity
  8
0
  6
HIDDEN
 62
     7
370
     0
100
AcDbLine
 10
52.1136082971
 20
142.2719677205
 30
0.0
 11
52.1136082971
 21
140.130481351
 31
0.0
  0
LINE
  5
109
330
1F
100
AcDbEntity
  8
0
  6
HIDDEN
 62
     7
370
     0
100
AcDbLine
 10
43.6636082971
 20
142.2719677205
 30
0.0
 11
43.6636082971
 21
139.4386728783
 31
0.0
  0
LINE
  5
10A
330
1F
100
AcDbEntity
  8
0
  6
HIDDEN
 62
     7
370
     0
100
AcDbLine
 10
120.8636082971
 20
158.8019677205
 30
0.0
 11
106.8636082971
 21
158.8019677205
 31
0.0
  0
LINE
  5
10B
330
1F
100
AcDbEntity
  8
0
  6
HIDDEN
 62
     7
370
     0
100
AcDbLine
 10
106.8636082971
 20
158.8019677205
 30
0.0
 11
96.8636082971
 21
158.8019677205
 31
0.0
  0
SPLINE
  5
10C
330
1F
100
AcDbEntity
  8
0
  6
HIDDEN
 62
     7
370
     0
100
AcDbSpline
210
0.0
220
0.0
230
1.0
 70
     8
 71
     3
 72
    30
 73
    26
 74
     0
 42
0.00000001
 43
0.00000001
 40
0.0
 40
0.0
 40
0.0
 40
0.0
 40
0.0531667895944306
 40
0.1125460296559538
 40
0.1779415679821296
 40
0.2129647100201478
 40
0.2495168542536672
 40
0.2912815776497699
 40
0.3261229899598991
 40
0.3540373789034075
 40
0.3750220973121863
 40
0.4414779749354779
 40
0.5001939956662949
 40
0.5547072327721178
 40
0.6144498286121054
 40
0.679473417768819
 40
0.7140294887762105
 40
0.7499254981893783
 40
0.7913888898760563
 40
0.8260548959441428
 40
0.8539197326816724
 40
0.8749805480645612
 40
0.9411652353121804
 40
0.9999141591644691
 40
1.0
 40
1.0
 40
1.0
 40
1.0
 10
82.91318512346682
 20
77.80203073859056
 30
0.0
 10
82.89698359523318
 20
77.8069328900401
 30
0.0
 10
82.8626874172814
 20
77.8173100011395
 30
0.0
 10
82.56134082279114
 20
77.89297126358075
 30
0.0
 10
82.11916855657239
 20
77.98925839628967
 30
0.0
 10
81.62433638538937
 20
78.08892310603623
 30
0.0
 10
81.1538605851914
 20
78.18120127888018
 30
0.0
 10
80.62293919953945
 20
78.27683330373563
 30
0.0
 10
80.08478868854127
 20
78.36248354860506
 30
0.0
 10
79.62674135596778
 20
78.42977534127344
 30
0.0
 10
78.97117703436653
 20
78.51812351034567
 30
0.0
 10
78.0878705966732
 20
78.61478159453088
 30
0.0
 10
76.95920886386477
 20
78.7015567713139
 30
0.0
 10
75.86944711414243
 20
78.73963546902196
 30
0.0
 10
74.77341883570517
 20
78.74148590378692
 30
0.0
 10
73.86802758876324
 20
78.71532444820143
 30
0.0
 10
73.1717248783479
 20
78.67871722307257
 30
0.0
 10
72.6450451500729
 20
78.6397003475955
 30
0.0
 10
72.17839903504026
 20
78.59749122012357
 30
0.0
 10
71.80718375931644
 20
78.5604871305542
 30
0.0
 10
71.55313728207437
 20
78.53178637010983
 30
0.0
 10
71.25208212936498
 20
78.49540641952015
 30
0.0
 10
70.99659833456136
 20
78.46262625253127
 30
0.0
 10
70.8973776096152
 20
78.44628836782876
 30
0.0
 10
70.91365816689832
 20
78.44888195399783
 30
0.0
 10
70.91368192048428
 20
78.44888573808035
 30
0.0
  0
SPLINE
  5
10D
330
1F
100
AcDbEntity
  8
0
  6
HIDDEN
 62
     7
370
     0
100
AcDbSpline
210
0.0
220
0.0
230
1.0
 70
     8
 71
     3
 72
    30
 73
    26
 74
     0
 42
0.00000001
 43
0.00000001
 40
0.0
 40
0.0
 40
0.0
 40
0.0
 40
0.0001123288057695
 40
0.0285431152663135
 40
0.0588466796063202
 40
0.091027196450477
 40
0.1250880910051604
 40
0.1546766141497773
 40
0.1963554560485685
 40
0.2501101496291966
 40
0.320525387238388
 40
0.3856104300246703
 40
0.445403860889207
 40
0.4999571692316274
 40
0.5283494388508946
 40
0.558634027028705
 40
0.5908185964995195
 40
0.6249094714581434
 40
0.6541844575853767
 40
0.6958630078636641
 40
0.7499307292180327
 40
0.8215905285694356
 40
0.8871422909715975
 40
0.9466378748868088
 40
1.0
 40
1.0
 40
1.0
 40
1.0
 10
70.9137036292176
 20
151.354979429566
 30
0.0
 10
70.91367176945946
 20
151.3549863766923
 30
0.0
 10
70.90557610118859
 20
151.3567516640844
 30
0.0
 10
70.93423757885799
 20
151.3512967453595
 30
0.0
 10
71.00762442501221
 20
151.3407538980134
 30
0.0
 10
71.15128096856294
 20
151.3210686903599
 30
0.0
 10
71.35231666852044
 20
151.2962294265047
 30
0.0
 10
71.63494721778949
 20
151.2620209613659
 30
0.0
 10
72.04835634336415
 20
151.2183410646059
 30
0.0
 10
72.72464384454636
 20
151.1552979970726
 30
0.0
 10
73.66307474546231
 20
151.0940008266398
 30
0.0
 10
74.7725679589582
 20
151.0627123831394
 30
0.0
 10
75.87004868964695
 20
151.0643675507361
 30
0.0
 10
76.77007992810425
 20
151.0956737528333
 30
0.0
 10
77.48142085395519
 20
151.1425069016358
 30
0.0
 10
78.04683775494594
 20
151.1896737635317
 30
0.0
 10
78.63576117777428
 20
151.2491127700818
 30
0.0
 10
79.20017083025176
 20
151.3154699766897
 30
0.0
 10
79.79436702418796
 20
151.3973893831213
 30
0.0
 10
80.46097518515845
 20
151.4990373658717
 30
0.0
 10
81.26230793085868
 20
151.641176276472
 30
0.0
 10
82.0148179153666
 20
151.7924208472384
 30
0.0
 10
82.56010441033278
 20
151.9102717204977
 30
0.0
 10
82.86282594183163
 20
151.986500952247
 30
0.0
 10
82.89711639244466
 20
151.9969532617415
 30
0.0
 10
82.91332982909469
 20
152.0018953915417
 30
0.0
  0
SPLINE
  5
10E
330
1F
100
AcDbEntity
  8
0
  6
HIDDEN
 62
     7
370
     0
100
AcDbSpline
210
0.0
220
0.0
230
1.0
 70
     8
 71
     3
 72
     8
 73
     4
 74
     0
 42
0.00000001
 43
0.00000001
 40
0.0
 40
0.0
 40
0.0
 40
0.0
 40
1.0
 40
1.0
 40
1.0
 40
1.0
 10
204.1556423363282
 20
121.5490255105289
 30
0.0
 10
204.1144514901068
 20
121.5131168109327
 30
0.0
 10
204.0689087745803
 20
121.475081104285
 30
0.0
 10
204.0188342789979
 20
121.4326748452648
 30
0.0
  0
LINE
  5
10F
330
1F
100
AcDbEntity
  8
0
  6
HIDDEN
 62
     7
370
     0
100
AcDbLine
 10
163.3636082971
 20
89.4793179897
 30
0.0
 11
158.3636082971
 21
89.4793179897
 31
0.0
  0
LINE
  5
110
330
1F
100
AcDbEntity
  8
0
  6
HIDDEN
 62
     7
370
     0
100
AcDbLine
 10
160.8636082971
 20
140.3246174513
 30
0.0
 11
163.3636082971
 21
140.3246174513
 31
0.0
  0
LINE
  5
111
330
1F
100
AcDbEntity
  8
0
  6
HIDDEN
 62
     7
370
     0
100
AcDbLine
 10
158.3636082971
 20
140.3246174513
 30
0.0
 11
160.8636082971
 21
140.3246174513
 31
0.0
  0
LINE
  5
112
330
1F
100
AcDbEntity
  8
0
  6
HIDDEN
 62
     7
370
     0
100
AcDbLine
 10
160.8636082971
 20
128.9019677205
 30
0.0
 11
163.3636082971
 21
128.9019677205
 31
0.0
  0
LINE
  5
113
330
1F
100
AcDbEntity
  8
0
  6
HIDDEN
 62
     7
370
     0
100
AcDbLine
 10
158.3636082971
 20
128.9019677205
 30
0.0
 11
160.8636082971
 21
128.9019677205
 31
0.0
  0
LINE
  5
114
330
1F
100
AcDbEntity
  8
0
  6
HIDDEN
 62
     7
370
     0
100
AcDbLine
 10
163.3636082971
 20
100.9019677205
 30
0.0
 11
158.3636082971
 21
100.9019677205
 31
0.0
  0
LWPOLYLINE
  5
115
330
1F
100
AcDbEntity
  8
0
  6
HIDDEN
 62
     7
370
     0
100
AcDbPolyline
 90
       15
 70
   128
 43
0.0
 10
204.3143310239
 20
128.0093471858
 10
203.9983828769
 20
128.3624415245
 10
203.5140900305
 20
128.6018521494
 10
202.9366092365
 20
128.6904252497
 10
202.3555589577
 20
128.6144152856
 10
201.8611116009
 20
128.3856181407
 10
201.5299997823
 20
128.0395405343
 10
201.4136082971
 20
127.6298897819
 10
201.5299997823
 20
127.2202390295
 10
201.8611116009
 20
126.8741614231
 10
202.3555589577
 20
126.6453642782
 10
202.9366092365
 20
126.5693543141
 10
203.5140900305
 20
126.6579274144
 10
203.9983828769
 20
126.8973380393
 10
204.3143310239
 20
127.250432378
  0
SPLINE
  5
116
330
1F
100
AcDbEntity
  8
0
  6
HIDDEN
 62
     7
370
     0
100
AcDbSpline
210
0.0
220
0.0
230
1.0
 70
     8
 71
     3
 72
    44
 73
    40
 74
     0
 42
0.00000001
 43
0.00000001
 40
0.0
 40
0.0
 40
0.0
 40
0.0
 40
0.0624999999999998
 40
0.0624999999999998
 40
0.1249999999999997
 40
0.1249999999999997
 40
0.1874999999999995
 40
0.1874999999999995
 40
0.2187499999999999
 40
0.2187499999999999
 40
0.2500000000000003
 40
0.2500000000000003
 40
0.3124999999999994
 40
0.3124999999999994
 40
0.3749999999999986
 40
0.3749999999999986
 40
0.4374999999999977
 40
0.4374999999999977
 40
0.4999999999999968
 40
0.4999999999999968
 40
0.5312499999999963
 40
0.5312499999999963
 40
0.562499999999996
 40
0.562499999999996
 40
0.6249999999999957
 40
0.6249999999999957
 40
0.6874999999999954
 40
0.6874999999999954
 40
0.7499999999999951
 40
0.7499999999999951
 40
0.7812499999999951
 40
0.7812499999999951
 40
0.8124999999999952
 40
0.8124999999999952
 40
0.8749999999999968
 40
0.8749999999999968
 40
0.9374999999999983
 40
0.9374999999999983
 40
1.0
 40
1.0
 40
1.0
 40
1.0
 10
204.3143310238905
 20
127.2504323780264
 30
0.0
 10
204.2640867318272
 20
127.1149779574613
 30
0.0
 10
204.2006151884209
 20
126.9808545381579
 30
0.0
 10
204.0600631459266
 20
126.7110092517702
 30
0.0
 10
203.9851693190874
 20
126.5807213190256
 30
0.0
 10
203.8469552890166
 20
126.3227299826908
 30
0.0
 10
203.7838514292406
 20
126.1951751951499
 30
0.0
 10
203.7433173626295
 20
126.0191105429
 30
0.0
 10
203.7393994393959
 20
125.9625711702425
 30
0.0
 10
203.7526141809043
 20
125.8623837989573
 30
0.0
 10
203.7694601228946
 20
125.8177616235311
 30
0.0
 10
203.8384121769141
 20
125.7038837594157
 30
0.0
 10
203.907098775878
 20
125.6524800190834
 30
0.0
 10
204.0460996405511
 20
125.590146430318
 30
0.0
 10
204.118296790875
 20
125.5788233425684
 30
0.0
 10
204.2489020694221
 20
125.6001156630646
 30
0.0
 10
204.3069945260503
 20
125.6331123704192
 30
0.0
 10
204.3897949770088
 20
125.7510360525764
 30
0.0
 10
204.4136166999518
 20
125.8373101779369
 30
0.0
 10
204.4136040921908
 20
125.9969287246429
 30
0.0
 10
204.407770697069
 20
126.0560829916383
 30
0.0
 10
204.3853716241046
 20
126.1800129382293
 30
0.0
 10
204.3690149687201
 20
126.2445961175988
 30
0.0
 10
204.3063336746211
 20
126.4457318047936
 30
0.0
 10
204.2477372593362
 20
126.5846231032381
 30
0.0
 10
204.1171762238603
 20
126.8567315751212
 30
0.0
 10
204.0454262623308
 20
126.9893502426488
 30
0.0
 10
203.9051400258528
 20
127.2515890702143
 30
0.0
 10
203.8372316973594
 20
127.3782858675017
 30
0.0
 10
203.768572811404
 20
127.5631711270399
 30
0.0
 10
203.7521104558592
 20
127.6228155407593
 30
0.0
 10
203.7393332065354
 20
127.7365363825841
 30
0.0
 10
203.7434678717194
 20
127.7878400457381
 30
0.0
 10
203.7849192657164
 20
127.9255380368548
 30
0.0
 10
203.8483403763313
 20
127.989647395164
 30
0.0
 10
203.9857802349141
 20
128.0710455869788
 30
0.0
 10
204.0613214547148
 20
128.0895752656469
 30
0.0
 10
204.2008215215703
 20
128.0834611259959
 30
0.0
 10
204.264078275952
 20
128.0593721237911
 30
0.0
 10
204.3143310238905
 20
128.0093471857647
 30
0.0
  0
SPLINE
  5
117
330
1F
100
AcDbEntity
  8
0
  6
HIDDEN
 62
     7
370
     0
100
AcDbSpline
210
0.0
220
0.0
230
1.0
 70
     8
 71
     3
 72
    14
 73
    10
 74
     0
 42
0.00000001
 43
0.00000001
 40
0.0
 40
0.0
 40
0.0
 40
0.0
 40
0.25
 40
0.25
 40
0.5
 40
0.5
 40
0.75
 40
0.75
 40
1.0
 40
1.0
 40
1.0
 40
1.0
 10
201.9698527982241
 20
126.390678681448
 30
0.0
 10
201.9338693475904
 20
126.3578452009654
 30
0.0
 10
201.8994479409913
 20
126.3261254408194
 30
0.0
 10
201.840849379565
 20
126.2548577445145
 30
0.0
 10
201.816327700436
 20
126.2144434410475
 30
0.0
 10
201.8070361206574
 20
126.0975742647379
 30
0.0
 10
201.8237821508558
 20
126.0224432582199
 30
0.0
 10
201.870777854981
 20
125.8728911773116
 30
0.0
 10
201.9003650373765
 20
125.7974261006079
 30
0.0
 10
201.9314917615602
 20
125.7230086583714
 30
0.0
  0
SPLINE
  5
118
330
1F
100
AcDbEntity
  8
0
  6
HIDDEN
 62
     7
370
     0
100
AcDbSpline
210
0.0
220
0.0
230
1.0
 70
     8
 71
     3
 72
    10
 73
     6
 74
     0
 42
0.00000001
 43
0.00000001
 40
0.0
 40
0.0
 40
0.0
 40
0.0
 40
0.5
 40
0.5
 40
1.0
 40
1.0
 40
1.0
 40
1.0
 10
201.9314917615613
 20
125.7230086583702
 30
0.0
 10
202.0092425158142
 20
125.7758857800048
 30
0.0
 10
202.0747986650163
 20
125.8607751838818
 30
0.0
 10
202.0920880718277
 20
126.1004338925056
 30
0.0
 10
202.0402988960116
 20
126.2440234567377
 30
0.0
 10
201.9698527982242
 20
126.390678681449
 30
0.0
  0
SPLINE
  5
119
330
1F
100
AcDbEntity
  8
0
  6
HIDDEN
 62
     7
370
     0
100
AcDbSpline
210
0.0
220
0.0
230
1.0
 70
     8
 71
     3
 72
    10
 73
     6
 74
     0
 42
0.00000001
 43
0.00000001
 40
0.0
 40
0.0
 40
0.0
 40
0.0
 40
0.4955889490167407
 40
0.9812042834840814
 40
1.0
 40
1.0
 40
1.0
 40
1.0
 10
201.4329682433473
 20
126.9376225015761
 30
0.0
 10
201.4257693983529
 20
126.9929915898186
 30
0.0
 10
201.4115165834774
 20
127.1026154760331
 30
0.0
 10
201.4110214335752
 20
127.1988750963442
 30
0.0
 10
201.4190443471596
 20
127.2237405771548
 30
0.0
 10
201.4193433025633
 20
127.2246671320497
 30
0.0
  0
SPLINE
  5
11A
330
1F
100
AcDbEntity
  8
0
  6
HIDDEN
 62
     7
370
     0
100
AcDbSpline
210
0.0
220
0.0
230
1.0
 70
     8
 71
     3
 72
    18
 73
    14
 74
     0
 42
0.00000001
 43
0.00000001
 40
0.0
 40
0.0
 40
0.0
 40
0.0
 40
0.0006341151590035
 40
0.1413079887287498
 40
0.2117226355891443
 40
0.2688107940172154
 40
0.3262938039469263
 40
0.3878257596809408
 40
0.4821788744687119
 40
0.6217321006852011
 40
0.7634334212303373
 40
0.9098432328118973
 40
0.9999999999999999
 40
0.9999999999999999
 40
0.9999999999999999
 40
0.9999999999999999
 10
201.4402113670253
 20
127.2909580480498
 30
0.0
 10
201.4402464775427
 20
127.2910698960073
 30
0.0
 10
201.4480706030474
 20
127.3159944064738
 30
0.0
 10
201.469791947824
 20
127.3151245368026
 30
0.0
 10
201.4898407779302
 20
127.2931397316755
 30
0.0
 10
201.4980962329489
 20
127.2529927331517
 30
0.0
 10
201.4957460928521
 20
127.1920243355251
 30
0.0
 10
201.4817370766009
 20
127.1020910489454
 30
0.0
 10
201.4549958957299
 20
126.9721111228237
 30
0.0
 10
201.4247770778927
 20
126.8121041009468
 30
0.0
 10
201.4099262563566
 20
126.6547584987019
 30
0.0
 10
201.4169216032092
 20
126.5428479885085
 30
0.0
 10
201.4348487148474
 20
126.5127878837853
 30
0.0
 10
201.441680831365
 20
126.5013318197999
 30
0.0
  0
LWPOLYLINE
  5
11B
330
1F
100
AcDbEntity
  8
0
  6
HIDDEN
 62
     7
370
     0
100
AcDbPolyline
 90
        8
 70
   128
 43
0.0
 10
201.4530370382
 20
126.4767123684
 10
201.4781028753
 20
126.4718038188
 10
201.4917487755
 20
126.4935450616
 10
201.4967326026
 20
126.5308265769
 10
201.494055462
 20
126.5848905631
 10
201.4815856083
 20
126.6700819003
 10
201.4546283981
 20
126.8136802867
 10
201.4329682433
 20
126.9376225016
  0
SPLINE
  5
11C
330
1F
100
AcDbEntity
  8
0
  6
HIDDEN
 62
     7
370
     0
100
AcDbSpline
210
0.0
220
0.0
230
1.0
 70
     8
 71
     3
 72
    14
 73
    10
 74
     0
 42
0.00000001
 43
0.00000001
 40
0.0
 40
0.0
 40
0.0
 40
0.0
 40
0.25
 40
0.25
 40
0.5
 40
0.5
 40
0.75
 40
0.75
 40
1.0
 40
1.0
 40
1.0
 40
1.0
 10
201.9314917615608
 20
127.3264094882252
 30
0.0
 10
201.9003029092031
 20
127.3627678173788
 30
0.0
 10
201.8706136860227
 20
127.3986384407346
 30
0.0
 10
201.8236760323316
 20
127.4810521548541
 30
0.0
 10
201.8069451772784
 20
127.5299893412974
 30
0.0
 10
201.8165022696372
 20
127.6617473405643
 30
0.0
 10
201.8410505268564
 20
127.7392511050404
 30
0.0
 10
201.8995989733953
 20
127.8905163221457
 30
0.0
 10
201.9339356491104
 20
127.9656226024751
 30
0.0
 10
201.9698527982238
 20
128.03951194064
 30
0.0
  0
SPLINE
  5
11D
330
1F
100
AcDbEntity
  8
0
  6
HIDDEN
 62
     7
370
     0
100
AcDbSpline
210
0.0
220
0.0
230
1.0
 70
     8
 71
     3
 72
    14
 73
    10
 74
     0
 42
0.00000001
 43
0.00000001
 40
0.0
 40
0.0
 40
0.0
 40
0.0
 40
0.25
 40
0.25
 40
0.5
 40
0.5
 40
0.75
 40
0.75
 40
1.0
 40
1.0
 40
1.0
 40
1.0
 10
201.9698527982243
 20
128.0395119406405
 30
0.0
 10
202.0050605796775
 20
128.0065204148108
 30
0.0
 10
202.0355956304344
 20
127.9665805407483
 30
0.0
 10
202.0775837449048
 20
127.868599839624
 30
0.0
 10
202.0876466704359
 20
127.8120943285731
 30
0.0
 10
202.0793963945601
 20
127.6851134806226
 30
0.0
 10
202.061009984007
 20
127.6158481409561
 30
0.0
 10
202.0061716465392
 20
127.4734530723139
 30
0.0
 10
201.9704342528639
 20
127.4005998728134
 30
0.0
 10
201.9314917615613
 20
127.3264094882232
 30
0.0
  0
SPLINE
  5
11E
330
1F
100
AcDbEntity
  8
0
  6
HIDDEN
 62
     7
370
     0
100
AcDbSpline
210
0.0
220
0.0
230
1.0
 70
     8
 71
     3
 72
    12
 73
     8
 74
     0
 42
0.00000001
 43
0.00000001
 40
0.0
 40
0.0
 40
0.0
 40
0.0
 40
0.2500000000000008
 40
0.2500000000000008
 40
0.5000000000000017
 40
0.5000000000000017
 40
1.0
 40
1.0
 40
1.0
 40
1.0
 10
204.3143310238905
 20
128.0093471857647
 30
0.0
 10
204.275586479682
 20
127.9816787149647
 30
0.0
 10
204.2476091627991
 20
127.9428426917988
 30
0.0
 10
204.2127447654297
 20
127.8454011075265
 30
0.0
 10
204.204821421626
 20
127.7855489778115
 30
0.0
 10
204.2048429192382
 20
127.5844171621413
 30
0.0
 10
204.2366021909869
 20
127.4149064276088
 30
0.0
 10
204.3143310238905
 20
127.2504323780264
 30
0.0
  0
LWPOLYLINE
  5
11F
330
1F
100
AcDbEntity
  8
0
  6
HIDDEN
 62
     7
370
     0
100
AcDbPolyline
 90
       28
 70
   128
 43
0.0
 10
100.9136082971
 20
160.2146735723
 10
102.0666876508
 20
160.1730256069
 10
103.1576041981
 20
160.0503269634
 10
104.1275463456
 20
159.8531923573
 10
104.9242242609
 20
159.5922493663
 10
105.5046888315
 20
159.2815654946
 10
105.8376470622
 20
158.9378897901
 10
105.9051490885
 20
158.5797498991
 10
105.7035558587
 20
158.2264532357
 10
105.243735316
 20
157.8970461145
 10
104.550476505
 20
157.6092869587
 10
103.6611531875
 20
157.3786889388
 10
102.6237090137
 20
157.2176836539
 10
101.4940728677
 20
157.1349509404
 10
100.3331437265
 20
157.1349509404
 10
99.2035075805
 20
157.2176836539
 10
98.1660634068
 20
157.3786889388
 10
97.2767400893
 20
157.6092869587
 10
96.5834812782
 20
157.8970461145
 10
96.1236607355
 20
158.2264532357
 10
95.9220675058
 20
158.5797498991
 10
95.9895695321
 20
158.9378897901
 10
96.3225277627
 20
159.2815654946
 10
96.9029923333
 20
159.5922493663
 10
97.6996702487
 20
159.8531923573
 10
98.6696123961
 20
160.0503269634
 10
99.7605289434
 20
160.1730256069
 10
100.9136082971
 20
160.2146735723
  0
LINE
  5
120
330
1F
100
AcDbEntity
  8
0
  6
HIDDEN
 62
     7
370
     0
100
AcDbLine
 10
110.0036082971
 20
149.616202913
 30
0.0
 11
110.0036082971
 21
146.2519677205
 31
0.0
  0
LINE
  5
121
330
1F
100
AcDbEntity
  8
0
  6
HIDDEN
 62
     7
370
     0
100
AcDbLine
 10
115.175637318
 20
153.8529304814
 30
0.0
 11
115.175637318
 21
146.2519677205
 31
0.0
  0
LINE
  5
122
330
1F
100
AcDbEntity
  8
0
  6
HIDDEN
 62
     7
370
     0
100
AcDbLine
 10
113.8236082971
 20
149.616202913
 30
0.0
 11
113.8236082971
 21
146.2519677205
 31
0.0
  0
ARC
  5
123
330
1F
100
AcDbEntity
  8
0
  6
HIDDEN
 62
     7
370
     0
100
AcDbCircle
 10
218.1523134979
 20
126.8114004629
 30
0.0
 40
16.22899541249943
100
AcDbArc
 50
175.6600556667
 51
178.1814771864
  0
ARC
  5
124
330
1F
100
AcDbEntity
  8
0
  6
HIDDEN
 62
     7
370
     0
100
AcDbCircle
 10
188.7725440275
 20
126.8139941238
 30
0.0
 40
13.20409613541284
100
AcDbArc
 50
355.2605460785
 51
358.162816698
  0
CIRCLE
  5
125
330
1F
100
AcDbEntity
  8
0
  6
HIDDEN
 62
     7
370
     0
100
AcDbCircle
 10
98.9136082971
 20
114.9019677205
 30
0.0
 40
5.000000000000014
  0
ARC
  5
126
330
1F
100
AcDbEntity
  8
0
  6
HIDDEN
 62
     7
370
     0
100
AcDbCircle
 10
227.4136082971
 20
114.9019677205
 30
0.0
 40
7.000000000000023
100
AcDbArc
 50
299.5498127807
 51
60.400526554
  0
ARC
  5
127
330
1F
100
AcDbEntity
  8
0
  6
HIDDEN
 62
     7
370
     0
100
AcDbCircle
 10
227.4136082971
 20
114.9019677205
 30
0.0
 40
8.000000000000004
100
AcDbArc
 50
218.9119384068
 51
246.2971579661
  0
LWPOLYLINE
  5
128
330
1F
100
AcDbEntity
  8
0
  6
HIDDEN
 62
     7
370
     0
100
AcDbPolyline
 90
        3
 70
   128
 43
0.0
 10
226.749966794
 20
106.9295414929
 10
227.4611521593
 20
106.902108998
 10
228.0695417238
 20
106.9289036082
  0
ARC
  5
129
330
1F
100
AcDbEntity
  8
0
  6
HIDDEN
 62
     7
370
     0
100
AcDbCircle
 10
227.4136082971
 20
114.9019677205
 30
0.0
 40
7.999999999999996
100
AcDbArc
 50
115.0927372906
 51
218.9119384068
  0
CIRCLE
  5
12A
330
1F
100
AcDbEntity
  8
0
  6
HIDDEN
 62
     7
370
     0
100
AcDbCircle
 10
227.4136082971
 20
114.9019677205
 30
0.0
 40
4.000000000000009
  0
CIRCLE
  5
12B
330
1F
100
AcDbEntity
  8
0
  6
HIDDEN
 62
     7
370
     0
100
AcDbCircle
 10
227.4136082971
 20
114.9019677205
 30
0.0
 40
5.499999999999996
  0
LWPOLYLINE
  5
12C
330
1F
100
AcDbEntity
  8
0
  6
HIDDEN
 62
     7
370
     0
100
AcDbPolyline
 90
       17
 70
   128
 43
0.0
 10
246.4472934596
 20
103.0828390262
 10
246.424757338
 20
103.5691611175
 10
246.4056521367
 20
104.1429209752
 10
246.3928864493
 20
104.7167688621
 10
246.388403736
 20
105.2033416393
 10
246.3928864493
 20
105.5285630123
 10
246.4056521367
 20
105.6429209752
 10
246.424757338
 20
105.5290055649
 10
246.4472934596
 20
105.2041593698
 10
246.4698295812
 20
104.7178372785
 10
246.4889347825
 20
104.1440774208
 10
246.50170047
 20
103.570229534
 10
246.5061831833
 20
103.0836567568
 10
246.50170047
 20
102.7584353838
 10
246.4889347825
 20
102.6440774208
 10
246.4698295812
 20
102.7579928312
 10
246.4472934596
 20
103.0828390262
  0
LWPOLYLINE
  5
12D
330
1F
100
AcDbEntity
  8
0
  6
HIDDEN
 62
     7
370
     0
100
AcDbPolyline
 90
       17
 70
   128
 43
0.0
 10
245.9476789415
 20
103.4225119759
 10
245.9326548604
 20
103.7467267034
 10
245.9199180595
 20
104.1292332752
 10
245.9114076013
 20
104.5117985331
 10
245.9084191257
 20
104.8361803845
 10
245.9114076013
 20
105.0529946332
 10
245.9199180595
 20
105.1292332752
 10
245.9326548604
 20
105.0532896683
 10
245.9476789415
 20
104.8367255382
 10
245.9627030225
 20
104.5125108107
 10
245.9754398234
 20
104.1300042389
 10
245.9839502817
 20
103.747438981
 10
245.9869387573
 20
103.4230571296
 10
245.9839502817
 20
103.2062428809
 10
245.9754398234
 20
103.1300042389
 10
245.9627030225
 20
103.2059478458
 10
245.9476789415
 20
103.4225119759
  0
LWPOLYLINE
  5
12E
330
1F
100
AcDbEntity
  8
0
  6
HIDDEN
 62
     7
370
     0
100
AcDbPolyline
 90
       17
 70
   128
 43
0.0
 10
251.7812312635
 20
103.2310280924
 10
251.7586951419
 20
103.7173501837
 10
251.7395899406
 20
104.2911100413
 10
251.7268242532
 20
104.8649579282
 10
251.7223415399
 20
105.3515307054
 10
251.7268242532
 20
105.6767520784
 10
251.7395899406
 20
105.7911100413
 10
251.7586951419
 20
105.677194631
 10
251.7812312635
 20
105.3523484359
 10
251.8037673851
 20
104.8660263446
 10
251.8228725864
 20
104.292266487
 10
251.8356382738
 20
103.7184186001
 10
251.8401209871
 20
103.2318458229
 10
251.8356382738
 20
102.9066244499
 10
251.8228725864
 20
102.792266487
 10
251.8037673851
 20
102.9061818973
 10
251.7812312635
 20
103.2310280924
  0
LWPOLYLINE
  5
12F
330
1F
100
AcDbEntity
  8
0
  6
HIDDEN
 62
     7
370
     0
100
AcDbPolyline
 90
        8
 70
   128
 43
0.0
 10
251.9430531589
 20
103.4338673291
 10
251.9247312921
 20
103.8292471893
 10
251.9091987634
 20
104.2957139536
 10
251.8988202595
 20
104.7622522856
 10
251.8951758136
 20
105.1578359535
 10
251.8988202595
 20
105.4222409297
 10
251.9091987634
 20
105.5152139536
 10
251.9136082971
 20
105.5060612422
  0
LWPOLYLINE
  5
130
330
1F
100
AcDbEntity
  8
0
  6
HIDDEN
 62
     7
370
     0
100
AcDbPolyline
 90
        4
 70
   128
 43
0.0
 10
251.9785092327
 20
103.0786107423
 10
251.9769075545
 20
103.0771541439
 10
251.9613750258
 20
103.1697673725
 10
251.9430531589
 20
103.4338673291
  0
LINE
  5
131
330
1F
100
AcDbEntity
  8
0
  6
HIDDEN
 62
     7
370
     0
100
AcDbLine
 10
251.9724980208
 20
104.072449046
 30
0.0
 11
251.9430531589
 21
104.9085564845
 31
0.0
  0
LINE
  5
132
330
1F
100
AcDbEntity
  8
0
  6
HIDDEN
 62
     7
370
     0
100
AcDbLine
 10
249.9740399483
 20
104.0169272821
 30
0.0
 11
249.9445950865
 21
104.8530347205
 31
0.0
  0
LINE
  5
133
330
1F
100
AcDbEntity
  8
0
  6
HIDDEN
 62
     7
370
     0
100
AcDbLine
 10
249.9740399483
 20
103.4045548464
 30
0.0
 11
249.9740399483
 21
104.0169272821
 31
0.0
  0
LINE
  5
134
330
1F
100
AcDbEntity
  8
0
  6
HIDDEN
 62
     7
370
     0
100
AcDbLine
 10
249.9740399483
 20
104.0169272821
 30
0.0
 11
251.9724980208
 21
104.072449046
 31
0.0
  0
LINE
  5
135
330
1F
100
AcDbEntity
  8
0
  6
HIDDEN
 62
     7
370
     0
100
AcDbLine
 10
251.9724980208
 20
103.4600766103
 30
0.0
 11
251.9724980208
 21
104.072449046
 31
0.0
  0
LINE
  5
136
330
1F
100
AcDbEntity
  8
0
  6
HIDDEN
 62
     7
370
     0
100
AcDbLine
 10
249.9151502246
 20
105.0767697233
 30
0.0
 11
249.9445950865
 21
104.8530347205
 31
0.0
  0
LINE
  5
137
330
1F
100
AcDbEntity
  8
0
  6
HIDDEN
 62
     7
370
     0
100
AcDbLine
 10
249.9445950865
 20
104.8530347205
 30
0.0
 11
251.9430531589
 21
104.9085564845
 31
0.0
  0
LINE
  5
138
330
1F
100
AcDbEntity
  8
0
  6
HIDDEN
 62
     7
370
     0
100
AcDbLine
 10
251.9136082971
 20
105.1322914872
 30
0.0
 11
251.9430531589
 21
104.9085564845
 31
0.0
  0
LINE
  5
139
330
1F
100
AcDbEntity
  8
0
  6
HIDDEN
 62
     7
370
     0
100
AcDbLine
 10
249.9445950865
 20
103.6282898492
 30
0.0
 11
251.9430531589
 21
103.6838116131
 31
0.0
  0
LINE
  5
13A
330
1F
100
AcDbEntity
  8
0
  6
HIDDEN
 62
     7
370
     0
100
AcDbLine
 10
249.9740399483
 20
103.4045548464
 30
0.0
 11
251.9724980208
 21
103.4600766103
 31
0.0
  0
LINE
  5
13B
330
1F
100
AcDbEntity
  8
0
  6
HIDDEN
 62
     7
370
     0
100
AcDbLine
 10
249.9740399483
 20
103.4045548464
 30
0.0
 11
249.9445950865
 21
103.6282898492
 31
0.0
  0
LINE
  5
13C
330
1F
100
AcDbEntity
  8
0
  6
HIDDEN
 62
     7
370
     0
100
AcDbLine
 10
251.9724980208
 20
103.4600766103
 30
0.0
 11
251.9430531589
 21
103.6838116131
 31
0.0
  0
LINE
  5
13D
330
1F
100
AcDbEntity
  8
0
  6
HIDDEN
 62
     7
370
     0
100
AcDbLine
 10
249.9151502246
 20
104.4643972876
 30
0.0
 11
251.9136082971
 21
104.5199190515
 31
0.0
  0
LINE
  5
13E
330
1F
100
AcDbEntity
  8
0
  6
HIDDEN
 62
     7
370
     0
100
AcDbLine
 10
249.9151502246
 20
105.0767697233
 30
0.0
 11
251.9136082971
 21
105.1322914872
 31
0.0
  0
LINE
  5
13F
330
1F
100
AcDbEntity
  8
0
  6
HIDDEN
 62
     7
370
     0
100
AcDbLine
 10
249.9151502246
 20
104.4643972876
 30
0.0
 11
249.9151502246
 21
105.0767697233
 31
0.0
  0
LINE
  5
140
330
1F
100
AcDbEntity
  8
0
  6
HIDDEN
 62
     7
370
     0
100
AcDbLine
 10
249.9151502246
 20
104.4643972876
 30
0.0
 11
249.9445950865
 21
103.6282898492
 31
0.0
  0
LINE
  5
141
330
1F
100
AcDbEntity
  8
0
  6
HIDDEN
 62
     7
370
     0
100
AcDbLine
 10
251.9136082971
 20
104.5199190515
 30
0.0
 11
251.9430531589
 21
103.6838116131
 31
0.0
  0
LWPOLYLINE
  5
142
330
1F
100
AcDbEntity
  8
0
  6
HIDDEN
 62
     7
370
     0
100
AcDbPolyline
 90
        3
 70
   128
 43
0.0
 10
251.8841634353
 20
124.6470707647
 10
251.9024853021
 20
125.0424506249
 10
251.9136082971
 20
125.3593527321
  0
LWPOLYLINE
  5
143
330
1F
100
AcDbEntity
  8
0
  6
HIDDEN
 62
     7
370
     0
100
AcDbPolyline
 90
       12
 70
   128
 43
0.0
 10
251.9136082971
 20
126.7192646778
 10
251.9024853021
 20
126.6358041606
 10
251.8841634353
 20
126.371704204
 10
251.8658415685
 20
125.9763243438
 10
251.8503090398
 20
125.5098575795
 10
251.8399305359
 20
125.0433192475
 10
251.83628609
 20
124.6477355796
 10
251.8399305359
 20
124.3833306034
 10
251.8503090398
 20
124.2903575795
 10
251.8658415685
 20
124.3829708081
 10
251.8841634353
 20
124.6470707647
 10
251.8841634353
 20
124.6470707647
  0
LWPOLYLINE
  5
144
330
1F
100
AcDbEntity
  8
0
  6
HIDDEN
 62
     7
370
     0
100
AcDbPolyline
 90
       17
 70
   128
 43
0.0
 10
251.7223415399
 20
124.4532230972
 10
251.7448776614
 20
124.9395451885
 10
251.7639828628
 20
125.5133050462
 10
251.7767485502
 20
126.087152933
 10
251.7812312635
 20
126.5737257102
 10
251.7767485502
 20
126.8989470832
 10
251.7639828628
 20
127.0133050462
 10
251.7448776614
 20
126.8993896358
 10
251.7223415399
 20
126.5745434408
 10
251.6998054183
 20
126.0882213495
 10
251.6807002169
 20
125.5144614918
 10
251.6679345295
 20
124.9406136049
 10
251.6634518162
 20
124.4540408277
 10
251.6679345295
 20
124.1288194547
 10
251.6807002169
 20
124.0144614918
 10
251.6998054183
 20
124.1283769021
 10
251.7223415399
 20
124.4532230972
  0
LWPOLYLINE
  5
145
330
1F
100
AcDbEntity
  8
0
  6
HIDDEN
 62
     7
370
     0
100
AcDbPolyline
 90
       17
 70
   128
 43
0.0
 10
246.388403736
 20
124.6014121633
 10
246.4109398575
 20
125.0877342546
 10
246.4300450589
 20
125.6614941123
 10
246.4428107463
 20
126.2353419991
 10
246.4472934596
 20
126.7219147763
 10
246.4428107463
 20
127.0471361493
 10
246.4300450589
 20
127.1614941123
 10
246.4109398575
 20
127.0475787019
 10
246.388403736
 20
126.7227325069
 10
246.3658676144
 20
126.2364104156
 10
246.346762413
 20
125.6626505579
 10
246.3339967256
 20
125.0888026711
 10
246.3295140123
 20
124.6022298939
 10
246.3339967256
 20
124.2770085208
 10
246.346762413
 20
124.1626505579
 10
246.3658676144
 20
124.2765659683
 10
246.388403736
 20
124.6014121633
  0
LWPOLYLINE
  5
146
330
1F
100
AcDbEntity
  8
0
  6
HIDDEN
 62
     7
370
     0
100
AcDbPolyline
 90
       17
 70
   128
 43
0.0
 10
245.8887892179
 20
124.9688459949
 10
245.9038132989
 20
125.2930607224
 10
245.9165500998
 20
125.6755672942
 10
245.9250605581
 20
126.0581325521
 10
245.9280490336
 20
126.3825144035
 10
245.9250605581
 20
126.5993286522
 10
245.9165500998
 20
126.6755672942
 10
245.9038132989
 20
126.5996236873
 10
245.8887892179
 20
126.3830595572
 10
245.8737651368
 20
126.0588448297
 10
245.8610283359
 20
125.6763382579
 10
245.8525178776
 20
125.293773
 10
245.8495294021
 20
124.9693911486
 10
245.8525178776
 20
124.7525768999
 10
245.8610283359
 20
124.6763382579
 10
245.8737651368
 20
124.7522818648
 10
245.8887892179
 20
124.9688459949
  0
LINE
  5
147
330
1F
100
AcDbEntity
  8
0
  6
HIDDEN
 62
     7
370
     0
100
AcDbLine
 10
251.9136082971
 20
126.3454949228
 30
0.0
 11
251.8841634353
 21
126.12175992
 31
0.0
  0
LINE
  5
148
330
1F
100
AcDbEntity
  8
0
  6
HIDDEN
 62
     7
370
     0
100
AcDbLine
 10
251.8547185735
 20
125.2856524816
 30
0.0
 11
251.8841634353
 21
126.12175992
 31
0.0
  0
LINE
  5
149
330
1F
100
AcDbEntity
  8
0
  6
HIDDEN
 62
     7
370
     0
100
AcDbLine
 10
251.8547185735
 20
124.6732800459
 30
0.0
 11
251.8547185735
 21
125.2856524816
 31
0.0
  0
LINE
  5
14A
330
1F
100
AcDbEntity
  8
0
  6
HIDDEN
 62
     7
370
     0
100
AcDbLine
 10
251.8547185735
 20
124.6732800459
 30
0.0
 11
251.8841634353
 21
124.8970150487
 31
0.0
  0
LINE
  5
14B
330
1F
100
AcDbEntity
  8
0
  6
HIDDEN
 62
     7
370
     0
100
AcDbLine
 10
251.9136082971
 20
125.7331224871
 30
0.0
 11
251.8841634353
 21
124.8970150487
 31
0.0
  0
LINE
  5
14C
330
1F
100
AcDbEntity
  8
0
  6
HIDDEN
 62
     7
370
     0
100
AcDbLine
 10
249.856260501
 20
124.7288018098
 30
0.0
 11
249.8857053628
 21
124.9525368126
 31
0.0
  0
LINE
  5
14D
330
1F
100
AcDbEntity
  8
0
  6
HIDDEN
 62
     7
370
     0
100
AcDbLine
 10
249.856260501
 20
124.7288018098
 30
0.0
 11
249.856260501
 21
125.3411742455
 31
0.0
  0
LINE
  5
14E
330
1F
100
AcDbEntity
  8
0
  6
HIDDEN
 62
     7
370
     0
100
AcDbLine
 10
249.9151502246
 20
126.4010166867
 30
0.0
 11
249.8857053628
 21
126.177281684
 31
0.0
  0
LINE
  5
14F
330
1F
100
AcDbEntity
  8
0
  6
HIDDEN
 62
     7
370
     0
100
AcDbLine
 10
249.9151502246
 20
125.788644251
 30
0.0
 11
249.9151502246
 21
126.4010166867
 31
0.0
  0
LINE
  5
150
330
1F
100
AcDbEntity
  8
0
  6
HIDDEN
 62
     7
370
     0
100
AcDbLine
 10
249.9151502246
 20
125.788644251
 30
0.0
 11
249.8857053628
 21
124.9525368126
 31
0.0
  0
LINE
  5
151
330
1F
100
AcDbEntity
  8
0
  6
HIDDEN
 62
     7
370
     0
100
AcDbLine
 10
249.856260501
 20
125.3411742455
 30
0.0
 11
249.8857053628
 21
126.177281684
 31
0.0
  0
LINE
  5
152
330
1F
100
AcDbEntity
  8
0
  6
HIDDEN
 62
     7
370
     0
100
AcDbLine
 10
249.856260501
 20
125.3411742455
 30
0.0
 11
251.8547185735
 21
125.2856524816
 31
0.0
  0
LINE
  5
153
330
1F
100
AcDbEntity
  8
0
  6
HIDDEN
 62
     7
370
     0
100
AcDbLine
 10
249.8857053628
 20
126.177281684
 30
0.0
 11
251.8841634353
 21
126.12175992
 31
0.0
  0
LINE
  5
154
330
1F
100
AcDbEntity
  8
0
  6
HIDDEN
 62
     7
370
     0
100
AcDbLine
 10
249.8857053628
 20
124.9525368126
 30
0.0
 11
251.8841634353
 21
124.8970150487
 31
0.0
  0
LINE
  5
155
330
1F
100
AcDbEntity
  8
0
  6
HIDDEN
 62
     7
370
     0
100
AcDbLine
 10
249.856260501
 20
124.7288018098
 30
0.0
 11
251.8547185735
 21
124.6732800459
 31
0.0
  0
LINE
  5
156
330
1F
100
AcDbEntity
  8
0
  6
HIDDEN
 62
     7
370
     0
100
AcDbLine
 10
249.9151502246
 20
125.788644251
 30
0.0
 11
251.9136082971
 21
125.7331224871
 31
0.0
  0
LINE
  5
157
330
1F
100
AcDbEntity
  8
0
  6
HIDDEN
 62
     7
370
     0
100
AcDbLine
 10
249.9151502246
 20
126.4010166867
 30
0.0
 11
251.9136082971
 21
126.3454949228
 31
0.0
  0
LINE
  5
158
330
1F
100
AcDbEntity
  8
0
  6
HIDDEN
 62
     7
370
     0
100
AcDbLine
 10
91.9136082971
 20
75.497284764
 30
0.0
 11
92.003209921
 21
76.1348334459
 31
0.0
  0
LINE
  5
159
330
1F
100
AcDbEntity
  8
0
  6
HIDDEN
 62
     7
370
     0
100
AcDbLine
 10
92.003209921
 20
153.6691019952
 30
0.0
 11
91.9136082971
 21
154.3066506771
 31
0.0
  0
ARC
  5
15A
330
1F
100
AcDbEntity
  8
0
  6
HIDDEN
 62
     7
370
     0
100
AcDbCircle
 10
91.0166713787
 20
76.2734823961
 30
0.0
 40
0.996233821438679
100
AcDbArc
 50
352.0
 51
0.0
  0
ARC
  5
15B
330
1F
100
AcDbEntity
  8
0
  6
HIDDEN
 62
     7
370
     0
100
AcDbCircle
 10
91.0166713787
 20
76.2734823961
 30
0.0
 40
0.9962338214386793
100
AcDbArc
 50
0.0
 51
25.7988228126
  0
ARC
  5
15C
330
1F
100
AcDbEntity
  8
0
  6
HIDDEN
 62
     7
370
     0
100
AcDbCircle
 10
91.0166713787
 20
153.530453045
 30
0.0
 40
0.9962338214386743
100
AcDbArc
 50
348.75
 51
8.0
  0
LWPOLYLINE
  5
15D
330
1F
100
AcDbEntity
  8
0
  6
HIDDEN
 62
     7
370
     0
100
AcDbPolyline
 90
        3
 70
   128
 43
0.0
 10
91.9937628466
 20
153.336097468
 10
91.9370714159
 20
153.1492108668
 10
91.9136082971
 20
153.0968795318
  0
LINE
  5
15E
330
1F
100
AcDbEntity
  8
0
  6
HIDDEN
 62
     7
370
     0
100
AcDbLine
 10
92.0129052001
 20
76.2734823961
 30
0.0
 11
92.0129052001
 21
153.530453045
 31
0.0
  0
ARC
  5
15F
330
1F
100
AcDbEntity
  8
0
  6
HIDDEN
 62
     7
370
     0
100
AcDbCircle
 10
82.1668139523
 20
95.4019677205
 30
0.0
 40
11.99999999999999
100
AcDbArc
 50
273.1770759295
 51
324.3146652873
  0
ARC
  5
160
330
1F
100
AcDbEntity
  8
0
  6
HIDDEN
 62
     7
370
     0
100
AcDbCircle
 10
82.1668139523
 20
134.4019677205
 30
0.0
 40
12.00000000000001
100
AcDbArc
 50
35.6853347127
 51
86.8211274387
  0
LINE
  5
161
330
1F
100
AcDbEntity
  8
0
  6
HIDDEN
 62
     7
370
     0
100
AcDbLine
 10
65.3743342393
 20
83.4019677205
 30
0.0
 11
70.9594383477
 21
83.4019677205
 31
0.0
  0
LINE
  5
162
330
1F
100
AcDbEntity
  8
0
  6
HIDDEN
 62
     7
370
     0
100
AcDbLine
 10
70.9594383477
 20
146.4019677205
 30
0.0
 11
65.3743342393
 21
146.4019677205
 31
0.0
  0
ARC
  5
163
330
1F
100
AcDbEntity
  8
0
  6
HIDDEN
 62
     7
370
     0
100
AcDbCircle
 10
65.3743342393
 20
84.4019677205
 30
0.0
 40
1.000000000000008
100
AcDbArc
 50
210.0
 51
270.0
  0
ARC
  5
164
330
1F
100
AcDbEntity
  8
0
  6
HIDDEN
 62
     7
370
     0
100
AcDbCircle
 10
65.3743342393
 20
145.4019677205
 30
0.0
 40
1.0
100
AcDbArc
 50
90.0
 51
150.0
  0
LINE
  5
165
330
1F
100
AcDbEntity
  8
0
  6
HIDDEN
 62
     7
370
     0
100
AcDbLine
 10
64.5083088355
 20
145.9019677205
 30
0.0
 11
61.9102326241
 21
141.4019677205
 31
0.0
  0
LINE
  5
166
330
1F
100
AcDbEntity
  8
0
  6
HIDDEN
 62
     7
370
     0
100
AcDbLine
 10
61.9102326241
 20
88.4019677205
 30
0.0
 11
64.5083088355
 21
83.9019677205
 31
0.0
  0
ARC
  5
167
330
1F
100
AcDbEntity
  8
0
  6
HIDDEN
 62
     7
370
     0
100
AcDbCircle
 10
102.3636082971
 20
90.0269677205
 30
0.0
 40
2.000000000000014
100
AcDbArc
 50
234.3409123039
 51
0.0
  0
ARC
  5
168
330
1F
100
AcDbEntity
  8
0
  6
HIDDEN
 62
     7
370
     0
100
AcDbCircle
 10
102.3636082971
 20
139.7769677205
 30
0.0
 40
2.000000000000014
100
AcDbArc
 50
0.0
 51
125.6590876961
  0
LINE
  5
169
330
1F
100
AcDbEntity
  8
0
  6
HIDDEN
 62
     7
370
     0
100
AcDbLine
 10
91.9136082971
 20
88.4019677205
 30
0.0
 11
101.1976859155
 21
88.4019677205
 31
0.0
  0
LINE
  5
16A
330
1F
100
AcDbEntity
  8
0
  6
HIDDEN
 62
     7
370
     0
100
AcDbLine
 10
101.1976859155
 20
141.4019677205
 30
0.0
 11
91.9136082971
 21
141.4019677205
 31
0.0
  0
LINE
  5
16B
330
1F
100
AcDbEntity
  8
0
  6
HIDDEN
 62
     7
370
     0
100
AcDbLine
 10
57.1136082971
 20
88.4019677205
 30
0.0
 11
61.9102326241
 21
88.4019677205
 31
0.0
  0
LINE
  5
16C
330
1F
100
AcDbEntity
  8
0
  6
HIDDEN
 62
     7
370
     0
100
AcDbLine
 10
61.9102326241
 20
141.4019677205
 30
0.0
 11
52.1136082971
 21
141.4019677205
 31
0.0
  0
LINE
  5
16D
330
1F
100
AcDbEntity
  8
0
  6
HIDDEN
 62
     7
370
     0
100
AcDbLine
 10
95.9136082971
 20
160.5735210997
 30
0.0
 11
95.9136082971
 21
156.8793814992
 31
0.0
  0
LINE
  5
16E
330
1F
100
AcDbEntity
  8
0
  6
HIDDEN
 62
     7
370
     0
100
AcDbLine
 10
105.9136082971
 20
156.8793814992
 30
0.0
 11
105.9136082971
 21
160.5790293581
 31
0.0
  0
LINE
  5
16F
330
1F
100
AcDbEntity
  8
0
  6
HIDDEN
 62
     7
370
     0
100
AcDbLine
 10
204.4136082971
 20
103.8518522165
 30
0.0
 11
204.4136082971
 21
107.7002299804
 31
0.0
  0
LINE
  5
170
330
1F
100
AcDbEntity
  8
0
  6
HIDDEN
 62
     7
370
     0
100
AcDbLine
 10
204.4136082971
 20
101.466938878
 30
0.0
 11
204.4136082971
 21
102.0996560672
 31
0.0
  0
LINE
  5
171
330
1F
100
AcDbEntity
  8
0
  6
HIDDEN
 62
     7
370
     0
100
AcDbLine
 10
201.4136082971
 20
102.6587172465
 30
0.0
 11
201.4136082971
 21
101.466938878
 31
0.0
  0
LINE
  5
172
330
1F
100
AcDbEntity
  8
0
  6
HIDDEN
 62
     7
370
     0
100
AcDbLine
 10
201.4136082971
 20
107.6197191232
 30
0.0
 11
201.4136082971
 21
103.1596487641
 31
0.0
  0
LINE
  5
173
330
1F
100
AcDbEntity
  8
0
  6
HIDDEN
 62
     7
370
     0
100
AcDbLine
 10
204.1257768281
 20
101.7172277629
 30
0.0
 11
251.9136082971
 21
103.0448836856
 31
0.0
  0
LINE
  5
174
330
1F
100
AcDbEntity
  8
0
  6
HIDDEN
 62
     7
370
     0
100
AcDbLine
 10
251.9136082971
 20
105.5458483198
 30
0.0
 11
204.1213965849
 21
104.2180707039
 31
0.0
  0
LINE
  5
175
330
1F
100
AcDbEntity
  8
0
  6
HIDDEN
 62
     7
370
     0
100
AcDbLine
 10
116.2136082971
 20
101.9019677205
 30
0.0
 11
120.2136082971
 21
101.9019677205
 31
0.0
  0
LINE
  5
176
330
1F
100
AcDbEntity
  8
0
  6
HIDDEN
 62
     7
370
     0
100
AcDbLine
 10
120.2136082971
 20
127.9019677205
 30
0.0
 11
116.2136082971
 21
127.9019677205
 31
0.0
  0
LINE
  5
177
330
1F
100
AcDbEntity
  8
0
  6
HIDDEN
 62
     7
370
     0
100
AcDbLine
 10
201.4369766801
 20
103.3045723797
 30
0.0
 11
201.2016597635
 21
102.8864713793
 31
0.0
  0
LINE
  5
178
330
1F
100
AcDbEntity
  8
0
  6
HIDDEN
 62
     7
370
     0
100
AcDbLine
 10
201.2016597635
 20
102.8864713793
 30
0.0
 11
201.4377900346
 21
102.5165995903
 31
0.0
  0
LINE
  5
179
330
1F
100
AcDbEntity
  8
0
  6
HIDDEN
 62
     7
370
     0
100
AcDbLine
 10
104.3636082971
 20
102.9019677205
 30
0.0
 11
105.1136082971
 21
103.6519677205
 31
0.0
  0
LINE
  5
17A
330
1F
100
AcDbEntity
  8
0
  6
HIDDEN
 62
     7
370
     0
100
AcDbLine
 10
105.1136082971
 20
126.1519677205
 30
0.0
 11
104.3636082971
 21
126.9019677205
 31
0.0
  0
LINE
  5
17B
330
1F
100
AcDbEntity
  8
0
  6
HIDDEN
 62
     7
370
     0
100
AcDbLine
 10
105.1136082971
 20
103.6519677205
 30
0.0
 11
116.2136082971
 21
103.6519677205
 31
0.0
  0
LINE
  5
17C
330
1F
100
AcDbEntity
  8
0
  6
HIDDEN
 62
     7
370
     0
100
AcDbLine
 10
116.2136082971
 20
126.1519677205
 30
0.0
 11
105.1136082971
 21
126.1519677205
 31
0.0
  0
ARC
  5
17D
330
1F
100
AcDbEntity
  8
0
  6
HIDDEN
 62
     7
370
     0
100
AcDbCircle
 10
201.3136082971
 20
105.0019677205
 30
0.0
 40
0.4000000000000057
100
AcDbArc
 50
180.0
 51
270.0
  0
ARC
  5
17E
330
1F
100
AcDbEntity
  8
0
  6
HIDDEN
 62
     7
370
     0
100
AcDbCircle
 10
201.3136082971
 20
124.8019677205
 30
0.0
 40
0.4000000000000057
100
AcDbArc
 50
90.0
 51
180.0
  0
LINE
  5
17F
330
1F
100
AcDbEntity
  8
0
  6
HIDDEN
 62
     7
370
     0
100
AcDbLine
 10
201.3136082971
 20
104.6019677205
 30
0.0
 11
204.018834279
 21
104.6019677205
 31
0.0
  0
LINE
  5
180
330
1F
100
AcDbEntity
  8
0
  6
HIDDEN
 62
     7
370
     0
100
AcDbLine
 10
204.018834279
 20
125.2019677205
 30
0.0
 11
201.3136082971
 21
125.2019677205
 31
0.0
  0
ARC
  5
181
330
1F
100
AcDbEntity
  8
0
  6
HIDDEN
 62
     7
370
     0
100
AcDbCircle
 10
204.018834279
 20
124.8019677205
 30
0.0
 40
0.3999999999999941
100
AcDbArc
 50
70.0
 51
90.0
  0
ARC
  5
182
330
1F
100
AcDbEntity
  8
0
  6
HIDDEN
 62
     7
370
     0
100
AcDbCircle
 10
251.6136082971
 20
104.6019677205
 30
0.0
 40
0.3000000000000114
100
AcDbArc
 50
0.0
 51
90.0
  0
ARC
  5
183
330
1F
100
AcDbEntity
  8
0
  6
HIDDEN
 62
     7
370
     0
100
AcDbCircle
 10
251.6136082971
 20
125.2019677205
 30
0.0
 40
0.3000000000000114
100
AcDbArc
 50
270.0
 51
0.0
  0
LINE
  5
184
330
1F
100
AcDbEntity
  8
0
  6
HIDDEN
 62
     7
370
     0
100
AcDbLine
 10
204.1556423363
 20
104.6260906722
 30
0.0
 11
204.9136082971
 21
104.9019677205
 31
0.0
  0
LINE
  5
185
330
1F
100
AcDbEntity
  8
0
  6
HIDDEN
 62
     7
370
     0
100
AcDbLine
 10
204.9136082971
 20
124.9019677205
 30
0.0
 11
204.1556423363
 21
125.1778447689
 31
0.0
  0
LINE
  5
186
330
1F
100
AcDbEntity
  8
0
  6
HIDDEN
 62
     7
370
     0
100
AcDbLine
 10
96.8636082971
 20
164.9019677205
 30
0.0
 11
96.8636082971
 21
158.8019677205
 31
0.0
  0
LINE
  5
187
330
1F
100
AcDbEntity
  8
0
  6
HIDDEN
 62
     7
370
     0
100
AcDbLine
 10
204.9136082971
 20
104.9019677205
 30
0.0
 11
251.6136082971
 21
104.9019677205
 31
0.0
  0
LINE
  5
188
330
1F
100
AcDbEntity
  8
0
  6
HIDDEN
 62
     7
370
     0
100
AcDbLine
 10
251.6136082971
 20
124.9019677205
 30
0.0
 11
204.9136082971
 21
124.9019677205
 31
0.0
  0
LINE
  5
189
330
1F
100
AcDbEntity
  8
0
  6
HIDDEN
 62
     7
370
     0
100
AcDbLine
 10
83.3463209132
 20
77.3236881499
 30
0.0
 11
82.9136116267
 21
77.8019128673
 31
0.0
  0
LINE
  5
18A
330
1F
100
AcDbEntity
  8
0
  6
HIDDEN
 62
     7
370
     0
100
AcDbLine
 10
70.9136087551
 20
78.448874224
 30
0.0
 11
70.4329814499
 21
77.9706495132
 31
0.0
  0
LINE
  5
18B
330
1F
100
AcDbEntity
  8
0
  6
HIDDEN
 62
     7
370
     0
100
AcDbLine
 10
70.4328631084
 20
151.8332800118
 30
0.0
 11
70.9136085725
 21
151.3550003399
 31
0.0
  0
LINE
  5
18C
330
1F
100
AcDbEntity
  8
0
  6
HIDDEN
 62
     7
370
     0
100
AcDbLine
 10
82.9136082992
 20
152.0019727273
 30
0.0
 11
83.346429969
 21
152.4802524001
 31
0.0
  0
ARC
  5
18D
330
1F
100
AcDbEntity
  8
0
  6
HIDDEN
 62
     7
370
     0
100
AcDbCircle
 10
204.018834279
 20
105.0019677205
 30
0.0
 40
0.4000000000000074
100
AcDbArc
 50
270.0
 51
290.0
  0
LINE
  5
18E
330
1F
100
AcDbEntity
  8
0
  6
HIDDEN
 62
     7
370
     0
100
AcDbLine
 10
82.9136082971
 20
77.7017840248
 30
0.0
 11
82.9136082971
 21
83.4360897935
 31
0.0
  0
LINE
  5
18F
330
1F
100
AcDbEntity
  8
0
  6
HIDDEN
 62
     7
370
     0
100
AcDbLine
 10
70.9136082971
 20
83.4104470885
 30
0.0
 11
70.9136082971
 21
78.4489126385
 31
0.0
  0
LINE
  5
190
330
1F
100
AcDbEntity
  8
0
  6
HIDDEN
 62
     7
370
     0
100
AcDbLine
 10
82.9136082971
 20
146.3678456476
 30
0.0
 11
82.9136082971
 21
152.1019765533
 31
0.0
  0
LINE
  5
191
330
1F
100
AcDbEntity
  8
0
  6
HIDDEN
 62
     7
370
     0
100
AcDbLine
 10
70.9136082971
 20
151.3549898406
 30
0.0
 11
70.9136082971
 21
146.3934883526
 31
0.0
  0
LINE
  5
192
330
1F
100
AcDbEntity
  8
0
  6
HIDDEN
 62
     7
370
     0
100
AcDbLine
 10
120.2136082971
 20
108.9019677205
 30
0.0
 11
200.9136082971
 21
108.9019677205
 31
0.0
  0
LINE
  5
193
330
1F
100
AcDbEntity
  8
0
  6
HIDDEN
 62
     7
370
     0
100
AcDbLine
 10
200.9136082971
 20
120.9019677205
 30
0.0
 11
120.2136082971
 21
120.9019677205
 31
0.0
  0
LINE
  5
194
330
1F
100
AcDbEntity
  8
0
  6
HIDDEN
 62
     7
370
     0
100
AcDbLine
 10
164.3636082971
 20
88.9019677205
 30
0.0
 11
163.3636082971
 21
89.4793179897
 31
0.0
  0
LINE
  5
195
330
1F
100
AcDbEntity
  8
0
  6
HIDDEN
 62
     7
370
     0
100
AcDbLine
 10
158.3636082971
 20
89.4793179897
 30
0.0
 11
157.3636082971
 21
88.9019677205
 31
0.0
  0
LINE
  5
196
330
1F
100
AcDbEntity
  8
0
  6
HIDDEN
 62
     7
370
     0
100
AcDbLine
 10
157.3636082971
 20
140.9019677205
 30
0.0
 11
158.3636082971
 21
140.3246174513
 31
0.0
  0
LINE
  5
197
330
1F
100
AcDbEntity
  8
0
  6
HIDDEN
 62
     7
370
     0
100
AcDbLine
 10
163.3636082971
 20
140.3246174513
 30
0.0
 11
164.3636082971
 21
140.9019677205
 31
0.0
  0
LINE
  5
198
330
1F
100
AcDbEntity
  8
0
  6
HIDDEN
 62
     7
370
     0
100
AcDbLine
 10
158.3636082971
 20
140.3246174513
 30
0.0
 11
158.3636082971
 21
128.9019677205
 31
0.0
  0
LINE
  5
199
330
1F
100
AcDbEntity
  8
0
  6
HIDDEN
 62
     7
370
     0
100
AcDbLine
 10
163.3636082971
 20
128.9019677205
 30
0.0
 11
163.3636082971
 21
140.3246174513
 31
0.0
  0
LINE
  5
19A
330
1F
100
AcDbEntity
  8
0
  6
HIDDEN
 62
     7
370
     0
100
AcDbLine
 10
158.3636082971
 20
128.9019677205
 30
0.0
 11
160.8636082971
 21
127.399816173
 31
0.0
  0
LINE
  5
19B
330
1F
100
AcDbEntity
  8
0
  6
HIDDEN
 62
     7
370
     0
100
AcDbLine
 10
160.8636082971
 20
127.399816173
 30
0.0
 11
163.3636082971
 21
128.9019677205
 31
0.0
  0
LINE
  5
19C
330
1F
100
AcDbEntity
  8
0
  6
HIDDEN
 62
     7
370
     0
100
AcDbLine
 10
163.3636082971
 20
100.9019677205
 30
0.0
 11
160.8636082971
 21
102.4041192681
 31
0.0
  0
LINE
  5
19D
330
1F
100
AcDbEntity
  8
0
  6
HIDDEN
 62
     7
370
     0
100
AcDbLine
 10
160.8636082971
 20
102.4041192681
 30
0.0
 11
158.3636082971
 21
100.9019677205
 31
0.0
  0
LINE
  5
19E
330
1F
100
AcDbEntity
  8
0
  6
HIDDEN
 62
     7
370
     0
100
AcDbLine
 10
163.3636082971
 20
89.4793179897
 30
0.0
 11
163.3636082971
 21
100.9019677205
 31
0.0
  0
LINE
  5
19F
330
1F
100
AcDbEntity
  8
0
  6
HIDDEN
 62
     7
370
     0
100
AcDbLine
 10
158.3636082971
 20
100.9019677205
 30
0.0
 11
158.3636082971
 21
89.4793179897
 31
0.0
  0
LINE
  5
1A0
330
1F
100
AcDbEntity
  8
0
  6
HIDDEN
 62
     7
370
     0
100
AcDbLine
 10
204.4136082971
 20
122.1037054606
 30
0.0
 11
204.4136082971
 21
125.9524145166
 31
0.0
  0
LINE
  5
1A1
330
1F
100
AcDbEntity
  8
0
  6
HIDDEN
 62
     7
370
     0
100
AcDbLine
 10
201.4136082971
 20
126.646634364
 30
0.0
 11
201.4136082971
 21
122.1842163178
 31
0.0
  0
LINE
  5
1A2
330
1F
100
AcDbEntity
  8
0
  6
HIDDEN
 62
     7
370
     0
100
AcDbLine
 10
201.4136082971
 20
127.6298897819
 30
0.0
 11
201.4136082971
 21
127.1412325799
 31
0.0
  0
LINE
  5
1A3
330
1F
100
AcDbEntity
  8
0
  6
HIDDEN
 62
     7
370
     0
100
AcDbLine
 10
204.1249473398
 20
125.585766089
 30
0.0
 11
251.9136082971
 21
124.2580871212
 31
0.0
  0
LINE
  5
1A4
330
1F
100
AcDbEntity
  8
0
  6
HIDDEN
 62
     7
370
     0
100
AcDbLine
 10
251.9136082971
 20
126.7590517554
 30
0.0
 11
204.121570003
 21
128.0868245534
 31
0.0
  0
LINE
  5
1A5
330
1F
100
AcDbEntity
  8
0
  6
HIDDEN
 62
     7
370
     0
100
AcDbLine
 10
95.9136082971
 20
162.448839184
 30
0.0
 11
95.9136082971
 21
160.5735210997
 31
0.0
  0
LINE
  5
1A6
330
1F
100
AcDbEntity
  8
0
  6
HIDDEN
 62
     7
370
     0
100
AcDbLine
 10
105.9136082971
 20
160.5790293581
 30
0.0
 11
105.9136082971
 21
162.4545736168
 31
0.0
  0
LINE
  5
1A7
330
1F
100
AcDbEntity
  8
0
  6
HIDDEN
 62
     7
370
     0
100
AcDbLine
 10
201.4401343389
 20
127.2910079425
 30
0.0
 11
201.2016597635
 21
126.9174640618
 31
0.0
  0
LINE
  5
1A8
330
1F
100
AcDbEntity
  8
0
  6
HIDDEN
 62
     7
370
     0
100
AcDbLine
 10
201.2016597635
 20
126.9174640618
 30
0.0
 11
201.4372626432
 21
126.4988549745
 31
0.0
  0
LINE
  5
1A9
330
1F
100
AcDbEntity
  8
0
  6
HIDDEN
 62
     7
370
     0
100
AcDbLine
 10
246.4044961496
 20
105.6423101903
 30
0.0
 11
245.9191474015
 21
105.1288260852
 31
0.0
  0
LINE
  5
1AA
330
1F
100
AcDbEntity
  8
0
  6
HIDDEN
 62
     7
370
     0
100
AcDbLine
 10
245.9746691489
 20
103.1303686071
 30
0.0
 11
246.4877787706
 21
102.6446239731
 31
0.0
  0
LINE
  5
1AB
330
1F
100
AcDbEntity
  8
0
  6
HIDDEN
 62
     7
370
     0
100
AcDbLine
 10
251.7395738855
 20
105.7911097068
 30
0.0
 11
246.4056360816
 21
105.6429206407
 31
0.0
  0
LINE
  5
1AC
330
1F
100
AcDbEntity
  8
0
  6
HIDDEN
 62
     7
370
     0
100
AcDbLine
 10
246.4889508376
 20
102.6440777553
 30
0.0
 11
251.8228886415
 21
102.7922668214
 31
0.0
  0
LINE
  5
1AD
330
1F
100
AcDbEntity
  8
0
  6
HIDDEN
 62
     7
370
     0
100
AcDbLine
 10
251.8248426704
 20
102.7940581209
 30
0.0
 11
251.9136082971
 21
102.9584301963
 31
0.0
  0
LINE
  5
1AE
330
1F
100
AcDbEntity
  8
0
  6
HIDDEN
 62
     7
370
     0
100
AcDbLine
 10
251.9108527434
 20
105.5138478049
 30
0.0
 11
251.7416243564
 21
105.7894296616
 31
0.0
  0
LINE
  5
1AF
330
1F
100
AcDbEntity
  8
0
  6
HIDDEN
 62
     7
370
     0
100
AcDbLine
 10
251.6827346327
 20
124.0161418715
 30
0.0
 11
251.8519630198
 21
124.2917237282
 31
0.0
  0
LINE
  5
1B0
330
1F
100
AcDbEntity
  8
0
  6
HIDDEN
 62
     7
370
     0
100
AcDbLine
 10
251.9136082971
 20
126.7380920747
 30
0.0
 11
251.7659529468
 21
127.0115134122
 31
0.0
  0
LINE
  5
1B1
330
1F
100
AcDbEntity
  8
0
  6
HIDDEN
 62
     7
370
     0
100
AcDbLine
 10
251.7639989179
 20
127.0133047117
 30
0.0
 11
246.430061114
 21
127.1614937778
 31
0.0
  0
LINE
  5
1B2
330
1F
100
AcDbEntity
  8
0
  6
HIDDEN
 62
     7
370
     0
100
AcDbLine
 10
246.346746358
 20
124.1626508924
 30
0.0
 11
251.6806841619
 21
124.0144618263
 31
0.0
  0
LINE
  5
1B3
330
1F
100
AcDbEntity
  8
0
  6
HIDDEN
 62
     7
370
     0
100
AcDbLine
 10
246.428889047
 20
127.16094756
 30
0.0
 11
245.9157794252
 21
126.675202926
 31
0.0
  0
LINE
  5
1B4
330
1F
100
AcDbEntity
  8
0
  6
HIDDEN
 62
     7
370
     0
100
AcDbLine
 10
245.8602576778
 20
124.6767454479
 30
0.0
 11
246.3456064259
 21
124.1632613428
 31
0.0
  0
DIMENSION
  5
1B5
330
1F
100
AcDbEntity
  8
VERMASSUNG
100
AcDbDimension
  2
*D1
 10
37.2517005822
 20
64.9019677205
 30
0.0
 11
37.2517005822
 21
114.9019677205
 31
0.0
 70
   160
  1
HSK A %%c<>
 71
     2
 42
-1.0
  3
SLDDIMSTYLE0
100
AcDbAlignedDimension
 13
92.4136082971
 23
164.9019677205
 33
0.0
 14
92.4136082971
 24
64.9019677205
 34
0.0
 50
90.0
100
AcDbRotatedDimension
  0
DIMENSION
  5
1C2
330
1F
100
AcDbEntity
  8
VERMASSUNG
100
AcDbDimension
  2
*D2
 10
251.9136082971
 20
168.2388949079
 30
0.0
 11
186.3886082971
 21
168.2388949079
 31
0.0
 70
   160
 71
     2
 42
-1.0
  3
SLDDIMSTYLE0
100
AcDbAlignedDimension
 13
120.8636082971
 23
162.8707075414
 33
0.0
 14
251.9136082971
 24
133.6278271989
 34
0.0
100
AcDbRotatedDimension
  0
DIMENSION
  5
1CC
330
1F
100
AcDbEntity
  8
VERMASSUNG
100
AcDbDimension
  2
*D3
 10
251.9136082971
 20
174.2388949079
 30
0.0
 11
171.9136082971
 21
174.2388949079
 31
0.0
 70
   160
 71
     2
 42
-1.0
  3
SLDDIMSTYLE0
100
AcDbAlignedDimension
 13
91.9136082971
 23
164.4019677205
 33
0.0
 14
251.9136082971
 24
133.6278271989
 34
0.0
100
AcDbRotatedDimension
  0
DIMENSION
  5
1D6
330
1F
100
AcDbEntity
  8
VERMASSUNG
100
AcDbDimension
  2
*D4
 10
42.0136082971
 20
180.2388949079
 30
0.0
 11
146.9636082971
 21
180.2388949079
 31
0.0
 70
   160
 71
     2
 42
-1.0
  3
SLDDIMSTYLE0
100
AcDbAlignedDimension
 13
251.9136082971
 23
133.6278271989
 33
0.0
 14
42.0136082971
 24
145.4046374631
 34
0.0
100
AcDbRotatedDimension
  0
DIMENSION
  5
1E0
330
1F
100
AcDbEntity
  8
VERMASSUNG
100
AcDbDimension
  2
*D5
 10
262.0019428826
 20
104.9019677205
 30
0.0
 11
262.0019428826
 21
114.9019677205
 31
0.0
 70
   160
  1
%%c<>
 71
     2
 42
-1.0
  3
SLDDIMSTYLE0
100
AcDbAlignedDimension
 13
251.6136082971
 23
124.9019677205
 33
0.0
 14
251.6136082971
 24
104.9019677205
 34
0.0
 50
90.0
100
AcDbRotatedDimension
  0
DIMENSION
  5
1EB
330
1F
100
AcDbEntity
  8
VERMASSUNG
100
AcDbDimension
  2
*D6
 10
268.0019428826
 20
88.9019677205
 30
0.0
 11
268.0019428826
 21
114.9019677205
 31
0.0
 70
   160
  1
%%c<>
 71
     2
 42
-1.0
  3
SLDDIMSTYLE0
100
AcDbAlignedDimension
 13
239.0465667741
 23
140.9019677205
 33
0.0
 14
239.0465667741
 24
88.9019677205
 34
0.0
 50
90.0
100
AcDbRotatedDimension
  0
LINE
  5
1F6
330
1F
100
AcDbEntity
  8
VERMASSUNG
  6
CENTERX2
 62
     7
370
     0
100
AcDbLine
 10
39.7631389361
 20
114.9019677205
 30
0.0
 11
254.88442344
 21
114.9019677205
 31
0.0
  0
OLE2FRAME
  5
1F7
330
1F
100
AcDbEntity
  8
0
100
AcDbOle2Frame
 70
     2
  3
Bitmap Image
 10
13.8511154363
 20
38.264191557
 30
0.0
 11
51.6290888628
 21
31.9806341108
 31
0.0
 71
     2
 72
     0
 73
     1
 90
    12928
310
80552BED0767C5B32B40DDAF6807D121434000000000000000006FFBDDFB85D0
310
4940DDAF6807D121434000000000000000006FFBDDFB85D04940416F4BD60AFB
310
3F4000000000000000002BED0767C5B32B40416F4BD60AFB3F40000000000000
310
0000000000000100000000010000010000000100000000000100000000320000
310
D0CF11E0A1B11AE1000000000000000000000000000000003E000300FEFF0900
310
0600000000000000000000000100000001000000000000000010000002000000
310
01000000FEFFFFFF0000000000000000FFFFFFFFFFFFFFFFFFFFFFFFFFFFFFFF
310
FFFFFFFFFFFFFFFFFFFFFFFFFFFFFFFFFFFFFFFFFFFFFFFFFFFFFFFFFFFFFFFF
310
FFFFFFFFFFFFFFFFFFFFFFFFFFFFFFFFFFFFFFFFFFFFFFFFFFFFFFFFFFFFFFFF
310
FFFFFFFFFFFFFFFFFFFFFFFFFFFFFFFFFFFFFFFFFFFFFFFFFFFFFFFFFFFFFFFF
310
FFFFFFFFFFFFFFFFFFFFFFFFFFFFFFFFFFFFFFFFFFFFFFFFFFFFFFFFFFFFFFFF
310
FFFFFFFFFFFFFFFFFFFFFFFFFFFFFFFFFFFFFFFFFFFFFFFFFFFFFFFFFFFFFFFF
310
FFFFFFFFFFFFFFFFFFFFFFFFFFFFFFFFFFFFFFFFFFFFFFFFFFFFFFFFFFFFFFFF
310
FFFFFFFFFFFFFFFFFFFFFFFFFFFFFFFFFFFFFFFFFFFFFFFFFFFFFFFFFFFFFFFF
310
FFFFFFFFFFFFFFFFFFFFFFFFFFFFFFFFFFFFFFFFFFFFFFFFFFFFFFFFFFFFFFFF
310
FFFFFFFFFFFFFFFFFFFFFFFFFFFFFFFFFFFFFFFFFFFFFFFFFFFFFFFFFFFFFFFF
310
FFFFFFFFFFFFFFFFFFFFFFFFFFFFFFFFFFFFFFFFFFFFFFFFFFFFFFFFFFFFFFFF
310
FFFFFFFFFFFFFFFFFFFFFFFFFFFFFFFFFFFFFFFFFFFFFFFFFFFFFFFFFFFFFFFF
310
FFFFFFFFFFFFFFFFFFFFFFFFFFFFFFFFFFFFFFFFFFFFFFFFFFFFFFFFFFFFFFFF
310
FFFFFFFFFFFFFFFFFFFFFFFFFFFFFFFFFFFFFFFFFFFFFFFFFFFFFFFFFFFFFFFF
310
FDFFFFFFFEFFFFFFFEFFFFFFFEFFFFFF05000000060000000700000008000000
310
090000000A0000000B0000000C0000000D0000000E0000000F00000010000000
310
11000000120000001300000014000000150000001600000017000000FEFFFFFF
310
FFFFFFFFFFFFFFFFFFFFFFFFFFFFFFFFFFFFFFFFFFFFFFFFFFFFFFFFFFFFFFFF
310
FFFFFFFFFFFFFFFFFFFFFFFFFFFFFFFFFFFFFFFFFFFFFFFFFFFFFFFFFFFFFFFF
310
FFFFFFFFFFFFFFFFFFFFFFFFFFFFFFFFFFFFFFFFFFFFFFFFFFFFFFFFFFFFFFFF
310
FFFFFFFFFFFFFFFFFFFFFFFFFFFFFFFFFFFFFFFFFFFFFFFFFFFFFFFFFFFFFFFF
310
FFFFFFFFFFFFFFFFFFFFFFFFFFFFFFFFFFFFFFFFFFFFFFFFFFFFFFFFFFFFFFFF
310
FFFFFFFFFFFFFFFFFFFFFFFFFFFFFFFFFFFFFFFFFFFFFFFFFFFFFFFFFFFFFFFF
310
FFFFFFFFFFFFFFFFFFFFFFFFFFFFFFFFFFFFFFFFFFFFFFFFFFFFFFFFFFFFFFFF
310
FFFFFFFFFFFFFFFFFFFFFFFFFFFFFFFFFFFFFFFFFFFFFFFFFFFFFFFFFFFFFFFF
310
FFFFFFFFFFFFFFFFFFFFFFFFFFFFFFFFFFFFFFFFFFFFFFFFFFFFFFFFFFFFFFFF
310
FFFFFFFFFFFFFFFFFFFFFFFFFFFFFFFFFFFFFFFFFFFFFFFFFFFFFFFFFFFFFFFF
310
FFFFFFFFFFFFFFFFFFFFFFFFFFFFFFFFFFFFFFFFFFFFFFFFFFFFFFFFFFFFFFFF
310
FFFFFFFFFFFFFFFFFFFFFFFFFFFFFFFFFFFFFFFFFFFFFFFFFFFFFFFFFFFFFFFF
310
FFFFFFFFFFFFFFFFFFFFFFFFFFFFFFFFFFFFFFFFFFFFFFFFFFFFFFFFFFFFFFFF
310
52006F006F007400200045006E00740072007900000000000000000000000000
310
0000000000000000000000000000000000000000000000000000000000000000
310
16000500FFFFFFFFFFFFFFFF020000000A00030000000000C000000000000046
310
00000000000000000000000040B111DA0900CC0103000000C000000000000000
310
01004F006C006500000000000000000000000000000000000000000000000000
310
0000000000000000000000000000000000000000000000000000000000000000
310
0A000200FFFFFFFFFFFFFFFFFFFFFFFF00000000000000000000000000000000
310
0000000000000000000000000000000000000000000000001400000000000000
310
010043006F006D0070004F0062006A0000000000000000000000000000000000
310
0000000000000000000000000000000000000000000000000000000000000000
310
120002010100000003000000FFFFFFFF00000000000000000000000000000000
310
0000000000000000000000000000000000000000010000004D00000000000000
310
01004F006C006500310030004E00610074006900760065000000000000000000
310
0000000000000000000000000000000000000000000000000000000000000000
310
1A000200FFFFFFFFFFFFFFFFFFFFFFFF00000000000000000000000000000000
310
0000000000000000000000000000000000000000040000002426000000000000
310
FEFFFFFF02000000FEFFFFFFFFFFFFFFFFFFFFFFFFFFFFFFFFFFFFFFFFFFFFFF
310
FFFFFFFFFFFFFFFFFFFFFFFFFFFFFFFFFFFFFFFFFFFFFFFFFFFFFFFFFFFFFFFF
310
FFFFFFFFFFFFFFFFFFFFFFFFFFFFFFFFFFFFFFFFFFFFFFFFFFFFFFFFFFFFFFFF
310
FFFFFFFFFFFFFFFFFFFFFFFFFFFFFFFFFFFFFFFFFFFFFFFFFFFFFFFFFFFFFFFF
310
FFFFFFFFFFFFFFFFFFFFFFFFFFFFFFFFFFFFFFFFFFFFFFFFFFFFFFFFFFFFFFFF
310
FFFFFFFFFFFFFFFFFFFFFFFFFFFFFFFFFFFFFFFFFFFFFFFFFFFFFFFFFFFFFFFF
310
FFFFFFFFFFFFFFFFFFFFFFFFFFFFFFFFFFFFFFFFFFFFFFFFFFFFFFFFFFFFFFFF
310
FFFFFFFFFFFFFFFFFFFFFFFFFFFFFFFFFFFFFFFFFFFFFFFFFFFFFFFFFFFFFFFF
310
FFFFFFFFFFFFFFFFFFFFFFFFFFFFFFFFFFFFFFFFFFFFFFFFFFFFFFFFFFFFFFFF
310
FFFFFFFFFFFFFFFFFFFFFFFFFFFFFFFFFFFFFFFFFFFFFFFFFFFFFFFFFFFFFFFF
310
FFFFFFFFFFFFFFFFFFFFFFFFFFFFFFFFFFFFFFFFFFFFFFFFFFFFFFFFFFFFFFFF
310
FFFFFFFFFFFFFFFFFFFFFFFFFFFFFFFFFFFFFFFFFFFFFFFFFFFFFFFFFFFFFFFF
310
FFFFFFFFFFFFFFFFFFFFFFFFFFFFFFFFFFFFFFFFFFFFFFFFFFFFFFFFFFFFFFFF
310
FFFFFFFFFFFFFFFFFFFFFFFFFFFFFFFFFFFFFFFFFFFFFFFFFFFFFFFFFFFFFFFF
310
FFFFFFFFFFFFFFFFFFFFFFFFFFFFFFFFFFFFFFFFFFFFFFFFFFFFFFFFFFFFFFFF
310
FFFFFFFFFFFFFFFFFFFFFFFFFFFFFFFFFFFFFFFFFFFFFFFFFFFFFFFFFFFFFFFF
310
0100000200000000000000000000000000000000610072003D0082005C003107
310
9806250000000000604E280000000000680061007200650064005C003B004300
310
0100FEFF030A0000FFFFFFFF0A00030000000000C00000000000004607000000
310
5042727573680007000000504272757368000700000050427275736800F439B2
310
71000000000000000000000000004100540049002E004100430045005C004300
310
6F00720065002D005300740061007400690063003B0043003A005C0050007200
310
6F006700720061006D002000460069006C006500730020002800780038003600
310
29005C0043006F006D006D006F006E002000460069006C00650073005C004100
310
750074006F006400650073006B0020005300680061007200650064005C003B00
310
43003A005C00500072006F006700720061006D002000460069006C0065007300
310
5C004E006F0072006D0061006E005C004E0070006D005C00420069006E000000
310
43003A005C00500072006F006700720061006D002000460069006C0065007300
310
5C0053006F006C006900640057006F0072006B007300200043006F0072007000
310
5C0053006F006C006900640057006F0072006B00730020002800320029005C00
310
730065007400750070005C0069003300380036005C0073007700610063007400
310
770069007A002E006500780065000000220043003A005C00500072006F006700
310
20260000424D0E260000000000003E00000028000000B40200006E0000000100
310
01000000000000000000130B0000130B00000200000002000000000000FFFFFF
310
FFFFFFFFFFFFFFFFFFFFFFFFFFFFFFFFFFFFFFFFFFFFFFFFFFFFFFFFFFFFFFFF
310
FFFFFFFFFFFFFFFFFFFFFFFFFFFFFFFFFFFFFFFFFFFFFFFFFFFFFFFFFFFFFFFF
310
FFFFFFFFFFFFFFFFFFFFFFFFFFFFFFFFFFFFFFFFFFFFFFFFF000FFFFFFFFFFFF
310
FFFFFFFFFFFFFFFFFFFFFFFFFFFFFFFFFFFFFFFFFFFFFFFFFFFFFFFFFFFFFFFF
310
FFFFFFFFFFFFFFFFFFFFFFFFFFFFFFFFFFFFFFFFFFFFFFFFFFFFFFFFFFFFFFFF
310
FFFFFFFFFFFFFFFFFFFFFFFFFFFFFFFFF000FFFFFFFFFFFFFFFFFFFFFFFFFFFF
310
FFFFFFFFFFFFFFFFFFFFFFFFFFFFFFFFFFFFFFFFFFFFFFFFFFFFFFFFFFFFFFFF
310
FFFFFFFFFFFFFFFFFFFFFFFFFFFFFFFFFFFFFFFFFFFFFFFFFFFFFFFFFFFFFFFF
310
FFFFFFFFFFFFFFFFF000FFFFFFFFFFFFFFFFFFFFFFFFFFFFFFFFFFFFFFFFFFFF
310
FFFFFFFFFFFFFFFFFFFFFFFFFFFFFFFFFFFFFFFFFFFFFFFFFFFFFFFFFFFFFFFF
310
FFFFFFFFFFFFFFFFFFFFFFFFFFFFFFFFFFFFFFFFFFFFFFFFFFFFFFFFFFFFFFFF
310
F000FFFFFFFFFFFFFFFFFFFFFFFFFFFFFFFFFFFFFFFFFFFFFFFFFFFFFFFFFFFF
310
FFFFFFFFFFFFFFFFFFFFFFFFFFFFFFFFFFFFFFFFFFFFFFFFFFFFFFFFFFFFFFFF
310
FFFFFFFFFFFFFFFFFFFFFFFFFFFFFFFFFFFFFFFFFFFFFFFFF000FFFFFFFFFFFF
310
FFFFFFFFFFFFFFFFFFFFFFFFFFFFFFFFFFFFFFFFFFFFFFFFFFFFFFFFFFFFFFFF
310
FFFFFFFFFFFFFFFFFFFFFFFFFFFFFFFFFFFFFFFFFFFFFFFFFFFFFFFFFFFFFFFF
310
FFFFFFFFFFFFFFFFFFFFFFFFFFFFFFFFF000FFFFFFFFFFFFFFFFFFFFFFFFFFFF
310
FFFFFFFFFFFFFFFFFFFFFFFFFFFFFFFFFFFFFFFFFFFFFFFFFFFFFFFFFFFFFFFF
310
FFFFFFFFFFFFFFFFFFFFFFFFFFFFFFFFFFFFFFFFFFFFFFFFFFFFFFFFFFFFFFFF
310
FFFFFFFFFFFFFFFFF000FFFFFFFFFFFFFFFFFFFFFFFFFFFFFFFFFFFFFFFFFFFF
310
FFFFFFFFFFFFFFFFFFFFFFFFFFFFFFFFFFFFFFFFFFFFFFFFFFFFFFFFFFFFFFFF
310
FFFFFFFFFFFFFFFFFFFFFFFFFFFFFFFFFFFFFFFFFFFFFFFFFFFFFFFFFFFFFFFF
310
F000FFFFFFFFFFFFFFFFFFFFFFFFFFFFFFFFFFFFFFFFFFFFFFFFFFFFFFFFFFFF
310
FFFFFFFFFFFFFFFFFFFFFFFFFFFFFFFFFFFFFFFFFFFFFFFFFFFFFFFFFFFFFFFF
310
FFFFFFFFFFFFFFFFFFFFFFFFFFFFFFFFFFFFFFFFFFFFFFFFF000FFFFFFFFFFFF
310
FFFFFFFFFFFFFFFFFFFFFFFFFFFFFFFFFFFFFFFFFFFFFFFFFFFFFFFFFFFFFFFF
310
FFFFFFFFFFFFFFFFFFFFFFFFFFFFFFFFFFFFFFFFFFFFFFFFFFFFFFFFFFFFFFFF
310
FFFFFFFFFFFFFFFFFFFFFFFFFFFFFFFFF000FFFFFFFFFFFFFFFFFFFFFFFFFFFF
310
FFFFFFFFFFFFFFFFFFFFFFFFFFFFFFFFFFFFFFFFFFFFFFFFFFFFFFFFFFFFFFFF
310
FFFFFFFFFFFFFFFFFFFFFFFFFFFFFFFFFFFFFFFFFFFFFFFFFFFFFFFFFFFFFFFF
310
FFFFFFFFFFFFFFFFF000FFFFFFFFFFFFFFFFFFFFFFFFFFFFFFFFFFFFFFFFFFFF
310
FFFFFFFFFFFFFFFFFFFFFFFFFFFFFFFFFFFFFFFFFFFFFFFFFFFFFFFFFFFFFFFF
310
FFFFFFFFFFFFFFFFFFFFFFFFFFFFFFFFFFFFFFFFFFFFFFFFFFFFFFFFFFFFFFFF
310
F000FFFFFFFFFFFFFFFFFFFFFFFFFFFFFFFFFFFFFFFFFFFFFFFFFFFFFFFFFFFF
310
FFFFFFFFFFFFFFFFFFFFFFFFFFFFFFFFFFFFFFFFFFFFFFFFFFFFFFFFFFFFFFFF
310
FFFFFFFFFFFFFFFFFFFFFFFFFFFFFFFFFFFFFFFFFFFFFFFFF000FFFFFFFFFFFF
310
FFFFFFFFFFFFFFFFFFFFFFFFFFFFFFFFFFFFFFFFFFFFFFFFFFFFFFFFFFFFFFFF
310
FFFFFFFFFFFFFFFFFFFFFFFFFFFFFFFFFFFFFFFFFFFFFFFFFFFFFFFFFFFFFFFF
310
FFFFFFFFFFFFFFFFFFFFFFFFFFFFFFFFF000FFFFFFFFFFFFFFFFFFFFFFFFFFFF
310
FFFFFFFFFFFFFFFFFFFFFFFFFFFFFFFFFFFFFFFFFFFFFFFFFFFFFFFFFFFFFFFF
310
FFFFFFFFFFFFFFFFFFFFFFFFFFFFFFFFFFFFFFFFFFFFFFFFFFFFFFFFFFFFFFFF
310
FFFFFFFFFFFFFFFFF000FFFFFFFFFFFFFFFFFFFFFFFFFFFFFFFFFFFFFFFFFFFF
310
FFFFFFFFFFFFFFFFFFFFFFFFFFFFFFFFFFFFFFFFFFFFFFFFFFFFFFFFFFFFFFFF
310
FFFFFFFFFFFFFFFFFFFFFFFFFFFFFFFFFFFFFFFFFFFFFFFFFFFFFFFFFFFFFFFF
310
F000FFFFFFFFFFFFFFFFFFFFFFFFFFFFFFFFFFFFFFFFFFFFFFFFFFFFFFFFFFFF
310
FFFFFFFFFFFFFFFFFFFFFFFFFFFFFFFFFFFFFFFFFFFFFFFFFFFFFFFFFFFFFFFF
310
FFFFFFFFFFFFFFFFFFFFFFFFFFFFFFFFFFFFFFFFFFFFFFFFF000FFFFFFFFFFFF
310
FFFFFFFFFFFFFFFFFFFFFFFFFFFFFFFFFFFFFFFFFFFFFFFFFFFFFFFFFFFFFFFF
310
FFFFFFFFFFFFFFFFFFFFFFFFFFFFFFFFFFFFFFFFFFFFFFFFFFFFFFFFFFFFFFFF
310
FFFFFFFFFFFFFFFFFFFFFFFFFFFFFFFFF000FFFFFFFFFFFFFFFFFFFFFFFFFFFF
310
FFFFFFFFFFFFFFFFFFFFFFFFFFFFFFFFFFFFFFFFFFFFFFFFFFFFFFFFFFFFFFFF
310
FFFFFFFFFFFFFFFFFFFFFFFFFFFFFFFFFFFFFFFFFFFFFFFFFFFFFFFFFFFFFFFF
310
FFFFFFFFFFFFFFFFF000FFFFF80003FFFFFFFFFFFFFFFFFFFFFFFFFFFFFFFFFF
310
FFFFF00007FFFFFFFFFF00007FFFFFF800000000000000007FFFFFFFFFFFFFFF
310
FFFFFFFC001FFFFFFFFFFFFFFC001FFFFFFFFFFFFFFFFFFFFFFFFFFE0007FFFF
310
F000FFFF8000007FFFFFFFF8000FFFFFC0007FFFFF80007FFFFF0000007FFFFF
310
FFF8000007FFFFF800000000000000007FFFFFF0001FFFFFFFFFFFC00001FFFF
310
FFFFFFFFC00001FFFFFFFF000000000003FFFFE000007FFFF000FFFE0000000F
310
FFFFFFF0000FFFFF80007FFFFF80007FFFFC0000001FFFFFFFC0000001FFFFF8
310
00000000000000007FFFFFF0001FFFFFFFFFFE0000003FFFFFFFFFFE0000003F
310
FFFFFF000000000003FFFF0000000FFFF000FFF800000003FFFFFFF00007FFFF
310
80007FFFFF80007FFFF000000007FFFFFF000000003FFFF80000000000000000
310
7FFFFFF0001FFFFFFFFFF80000000FFFFFFFFFF80000000FFFFFFF0000000000
310
03FFFC00000003FFF000FFE000000000FFFFFFF00007FFFF80003FFFFF80007F
310
FFC000000001FFFFFC000000001FFFF800000000000000007FFFFFF0001FFFFF
310
FFFFE000000003FFFFFFFFE000000003FFFFFF000000000003FFF000000000FF
310
F000FF80000000007FFFFFF00007FFFF80003FFFFF80007FFF8000000000FFFF
310
F80000000007FFF800000000000000007FFFFFF0001FFFFFFFFFC000000001FF
310
FFFFFFC000000001FFFFFF000000000003FFC0000000007FF000FF0000000000
310
3FFFFFE00007FFFF00003FFFFF80007FFE00000000003FFFF00000000003FFF8
310
00000000000000007FFFFFF0001FFFFFFFFF8000000000FFFFFFFF8000000000
310
FFFFFF000000000003FF80000000003FF000FE00000000001FFFFFE00003FFFF
310
00003FFFFF80007FFC00000000001FFFE00000000001FFF8000001FFFE000000
310
7FFFFFF0001FFFFFFFFE00000000003FFFFFFE00000000003FFFFF0000000000
310
03FF00000000001FF000FC00000000000FFFFFE00003FFFF00001FFFFF80007F
310
F800000000001FFFC00000000000FFF8000001FFFE0000007FFFFFF0001FFFFF
310
FFFC00000000001FFFFFFC00000000001FFFFF000000000003FE00000000000F
310
F000F8000000000007FFFFE00003FFFF00001FFFFF80007FF800000000000FFF
310
800000000000FFF8000001FFFE0000007FFFFFF0001FFFFFFFF800000000000F
310
FFFFF800000000000FFFFF000000000003FC000000000007F000F80000000000
310
03FFFFC00003FFFE00001FFFFF80007FF0000000000007FF0000000000007FF8
310
000001FFFE0000007FFFFFF0001FFFFFFFF0000000000007FFFFF00000000000
310
07FFFF000000000003F8000000000003F000F0000000000003FFFFC00001FFFE
310
00001FFFFF80007FE0000000000007FE0000000000003FF8000001FFFE000000
310
7FFFFFF0001FFFFFFFF0000000000007FFFFF0000000000007FFFF0000000000
310
03F800001F800003F000E00001FFF00001FFFFC00001FFFE00000FFFFF80007F
310
E00001FFE00003FE00001FFF00003FF8000001FFFE0000007FFFFFF0001FFFFF
310
FFE000003E000003FFFFE000003E000003FFFF000000000003F00001FFF80001
310
F000E00007FFFC0001FFFFC00001FFFE00000FFFFF80007FC0000FFFFC0003FC
310
0000FFFFC0001FF8000001FFFE0000007FFFFFF0001FFFFFFFC00003FFE00001
310
FFFFC00003FFE00001FFFF0001FFFFFFFFF00007FFFE0001F000E0000FFFFF00
310
00FFFF800001FFFC00000FFFFF80007FC0001FFFFE0001FC0001FFFFE0001FF8
310
000001FFFE0000007FFFFFF0001FFFFFFF80000FFFF80000FFFF80000FFFF800
310
00FFFF0003FFFFFFFFE0000FFFFF8000F000C0003FFFFF8000FFFF800000FFFC
310
000007FFFF80007F80003FFFFF0001FC0003FFFFF0001FF8000001FFFE000000
310
7FFFFFF0001FFFFFFF80003FFFFE0000FFFF80003FFFFE0000FFFF0003FFFFFF
310
FFE0003FFFFF8000F000C0003FFFFF8000FFFF800000FFFC000007FFFF80007F
310
80007FFFFF8001F80007FFFFF8000FF8000001FFFE0000007FFFFFF0001FFFFF
310
FF00007FFFFF00007FFF00007FFFFF00007FFF0003FFFFFFFFE0003FFFFFC000
310
F000C0007FFFFFC000FFFF000000FFFC000007FFFF80007F8000FFFFFF8000F8
310
000FFFFFF8000FF8000001FFFE0000007FFFFFF0001FFFFFFF0000FFFFFF8000
310
7FFF0000FFFFFF80007FFF0003FFFFFFFFC0007FFFFFC00070008000FFFFFFC0
310
00FFFF000000FFF8000007FFFF80007F8000FFFFFF8000F8000FFFFFF8000FF8
310
000001FFFE0000007FFFFFF0001FFFFFFE0001FFFFFFC0003FFE0001FFFFFFC0
310
003FFF0003FFFFFFFFC0007FFFFFE00070008000FFFFFFC0007FFF0000007FF8
310
000003FFFF80007F0001FFFFFF8000F8000FFFFFF8000FF8000001FFFE000000
310
7FFFFFF0001FFFFFFE0001FFFFFFC0003FFE0001FFFFFFC0003FFF0003FFFFFF
310
FFC000FFFFFFE00070008000FFFFFFC0007FFF0000007FF8000003FFFF80007F
310
0001FFFFFF8000F8001FFFFFF8000FF8000001FFFE0000007FFFFFF0001FFFFF
310
FE0003FFFFFFE0003FFE0003FFFFFFE0003FFF0003FFFFFFFFC000FFFFFFE000
310
70008000FFFFFFC0007FFE0000007FF8000003FFFF80007F0001FFFFFF8000F0
310
001FFFFFF8000FF8000001FFFE0000007FFFFFF0001FFFFFFC0003FFFFFFE000
310
1FFC0003FFFFFFE0001FFF0003FFFFFFFFC000FFFFFFC00070008000FFFFFF80
310
007FFE0000007FF0000003FFFF80007F0001FFFFFF0000F0001FFFFFF8000FF8
310
000001FFFE0000007FFFFFF0001FFFFFFC0007FFFFFFF0001FFC0007FFFFFFF0
310
001FFF0003FFFFFFFFC000FFFFFFC00070008001FFFFFF0000FFFE0000003FF0
310
000001FFFF80007F0001FFFFFF0000F8001FFFFFF0000FF8000001FFFE000000
310
7FFFFFF0001FFFFFFC0007FFFFFFF0001FFC0007FFFFFFF0001FFF0003FFFFFF
310
FFC001FFFFFF80007000FFFFFFFFFE0000FFFE0008003FF0008001FFFF80007F
310
FFFFFFFFFC0000FFFFFFFFFFE0000FF8000001FFFE0000007FFFFFF0001FFFFF
310
F8000FFFFFFFF8000FF8000FFFFFFFF8000FFF0003FFFFFFFFFFFFFFFFFF0000
310
7000FFFFFFFFFC0000FFFC0008003FF0008001FFFF80007FFFFFFFFFF80001FF
310
FFFFFFFF80000FF8000001FFFE0000007FFFFFF0001FFFFFF8000FFFFFFFF800
310
0FF8000FFFFFFFF8000FFF0003FFFFFFFFFFFFFFFFFE0000F000FFFFFFFFE000
310
00FFFC000C003FE000C001FFFF80007FFFFFFFFFC00001FFFFFFFFFE00001FF8
310
000001FFFE0000007FFFFFF0001FFFFFF8000FFFFFFFF8000FF8000FFFFFFFF8
310
000FFF0003FFFFFFFFFFFFFFFFF00000F000FFFFFFFE000001FFFC000C001FE0
310
00C000FFFF80007FFFFFFFFE000001FFFFFFFFE000001FF80FFFFFFFFFFFFFC0
310
7FFFFFF0001FFFFFF8000FFFFFFFF8000FF8000FFFFFFFF8000FFF0003FFFFFF
310
FFFFFFFFFF800000F000FFFFFFC0000001FFFC001C001FE001C000FFFF80007F
310
FFFFFF80000003FFFFFFF80000001FF80FFFFFFFFFFFFFC07FFFFFF0001FFFFF
310
F8001FFFFFFFFC000FF8001FFFFFFFFC000FFF0003FFFFFFFFFFFFFFF0000001
310
F000FFFFF800000001FFF8001C001FE001C000FFFF80007FFFFFF800000003FF
310
FFFF800000003FF80FFFFFFFFFFFFFC07FFFFFF0001FFFFFF8001FFFFFFFFC00
310
0FF8001FFFFFFFFC000FFF0003FFFFFFFFFFFFFE00000001F000FFFFC0000000
310
03FFF8001E001FC001E000FFFF80007FFFFF8000000007FFFFFC000000003FF8
310
0FFFFFFFFFFFFFC07FFFFFF0001FFFFFF8001FFFFFFFFC000FF8001FFFFFFFFC
310
000FFF0003FFFFFFFFFFFFE000000003F000FFFE0000000007FFF8001E000FC0
310
01E0007FFF80007FFFFE0000000007FFFFE0000000007FF80FFFFFFFFFFFFFC0
310
7FFFFFF0001FFFFFF0001FFFFFFFFC0007F0001FFFFFFFFC0007FF0003FFFFFF
310
FFFFFF0000000003F000FFF80000000007FFF8001E000FC003E0007FFF80007F
310
FFF0000000000FFFFF8000000000FFF80FFFFFFFFFFFFFC07FFFFFF0001FFFFF
310
F0001FFFFFFFFC0007F0001FFFFFFFFC0007FF0003FFFFFFFFFFFC0000000007
310
F000FFE0000000000FFFF0003E000FC003E0007FFF80007FFFC0000000001FFF
310
FE0000000001FFF80FFFFFFFFFFFFFC07FFFFFF0001FFFFFF0001FFFFFFFFC00
310
07F0001FFFFFFFFC0007FF0003FFFFFFFFFFF0000000000FF000FFC000000000
310
1FFFF0003F000F8003F0003FFF80007FFF80000000003FFFF80000000003FFF8
310
0FFFFFFFFFFFFFC07FFFFFF0001FFFFFF0001FFFFFFFFC0007F0001FFFFFFFFC
310
0007FF0003FFFFFFFFFFE0000000001FF000FF00000000007FFFF0003F000780
310
03F0003FFF80007FFF00000000007FFFF00000000007FFF80FFFFFFFFFFFFFC0
310
7FFFFFF0001FFFFFF0001FFFFFFFFC0007F0001FFFFFFFFC0007FF0003FFFFFF
310
FFFF80000000007FF000FE0000000000FFFFE0003F00078007F0003FFF80007F
310
FE0000000001FFFFE0000000001FFFF80FFFFFFFFFFFFFC07FFFFFF0001FFFFF
310
F0001FFFFFFFFC0007F0001FFFFFFFFC0007FF0003FFFFFFFFFF0000000000FF
310
F000FC0000000003FFFFE0007F00078007F0003FFF80007FFC0000000007FFFF
310
C0000000007FFFF80FFFFFFFFFFFFFC07FFFFFF0001FFFFFF8001FFFFFFFFC00
310
0FF8001FFFFFFFFC000FFF0003FFFFFFFFFE0000000003FFF000FC000000000F
310
FFFFE0007F80070007F8001FFF80007FF8000000001FFFFF8000000001FFFFF8
310
0FFFFFFFFFFFFFC07FFFFFF0001FFFFFF8001FFFFFFFFC000FF8001FFFFFFFFC
310
000FFF0003FFFFFFFFFC000000000FFFF000F8000000007FFFFFE0007F800700
310
07F8001FFF80007FF000000000FFFFFF800000000FFFFFF80FFFFFFFFFFFFFC0
310
7FFFFFF0001FFFFFF8000FFFFFFFF8000FF8000FFFFFFFF8000FFF0003FFFFFF
310
FFFC000000007FFFF000F800000007FFFFFFC0007F8003000FF8001FFF80007F
310
F000000007FFFFFF000000007FFFFFF80FFFFFFFFFFFFFC07FFFFFF0001FFFFF
310
F8000FFFFFFFF8000FF8000FFFFFFFF8000FFF0003FFFFFFFFF80000000FFFFF
310
F000F0000000FFFFFFFFC000FF8003000FF8001FFF80007FE0000000FFFFFFFF
310
0000000FFFFFFFF8000001FFFE0000007FFFFFF0001FFFFFF8000FFFFFFFF800
310
0FF8000FFFFFFFF8000FFF0003FFFFFFFFF8000000FFFFFFF000F000000FFFFF
310
FFFFC000FFC002000FF8000FFF80007FE000001FFFFFFFFE000001FFFFFFFFF8
310
000001FFFE0000007FFFFFF0001FFFFFF8000FFFFFFFF8000FF8000FFFFFFFF8
310
000FFF0003FFFFFFFFF000001FFFFFFFF000E00000FFFFFFFFFFC000FFC00200
310
0FFC000FFF80007FE00001FFFFFFFFFE00001FFFFFFFFFF8000001FFFE000000
310
7FFFFFF0001FFFFFFC000FFFFFFFF8001FFC000FFFFFFFF8001FFF0003FFFFFF
310
FFF00001FFFFFFFFF000E00007FFFFFFFFFF8000FFC000001FFC000FFF80007F
310
C0000FFFFFFFFFFE0000FFFFFFFFFFF8000001FFFE0000007FFFFFF0001FFFFF
310
FC0007FFFFFFF0001FFC0007FFFFFFF0001FFF0003FFFFFFFFF00007FFFFFFFF
310
F000E0001FFFFFFFFFFF8000FFC000001FFC000FFF80007FC0003FFFFFFFFFFE
310
0001FFFFFFFFFFF8000001FFFE0000007FFFFFF0001FFFFFFC0007FFFFFFF000
310
1FFC0007FFFFFFF0001FFF0003FFFFFFFFF0001FFFFFFFFFF000E0003FFFFF00
310
03FF8001FFE000001FFC0007FF80007FC0007FFFFF0007FC0003FFFFF0003FF8
310
000001FFFE0000007FFFFFF0001FFFFFFC0003FFFFFFE0001FFC0003FFFFFFE0
310
001FFF0003FFFFFFFFF0003FFFFFFFFFF000E0003FFFFF0001FF8001FFE00000
310
1FFE0007FF80007FC0007FFFFE0003FC0007FFFFE0003FF8000001FFFE000000
310
7FFFFFF0001FFFFFFE0003FFFFFFE0003FFE0003FFFFFFE0003FFF0003FFFFFF
310
FFF0003FFFFF8001F000E0003FFFFF0001FF0001FFE000001FFE0007FF80007F
310
C0007FFFFE0003FC0007FFFFE0003FF8000001FFFE0000007FFFFFF0001FFFFF
310
FE0001FFFFFFC0003FFE0001FFFFFFC0003FFF0003FFFFFFFFF0003FFFFF0001
310
F000E0003FFFFF0003FF0001FFE000003FFE0007FF80007FC0007FFFFE0003FC
310
0007FFFFE0003FF8000001FFFE0000007FFFFFF0001FFFFFFF0001FFFFFFC000
310
7FFF0001FFFFFFC0007FFF0003FFFFFFFFF0003FFFFF0001F000E0003FFFFE00
310
03FF0003FFF000003FFE0003FF80007FC0007FFFFC0003FE0007FFFFE0003FF8
310
000001FFFE0000007FFFFFF0001FFFFFFF0000FFFFFF80007FFF0000FFFFFF80
310
007FFF0003FFFFFFFFF0003FFFFF0001F000E0003FFFFE0003FF0003FFF00000
310
3FFF0003FF80007FC0007FFFFC0007FE0007FFFFC0003FF8000001FFFE000000
310
7FFFFFF0001FFFFFFF80007FFFFF0000FFFF80007FFFFF0000FFFF0003FFFFFF
310
FFF0003FFFFF0003F000E0003FFFFC0003FE0003FFF000003FFF0003FF80007F
310
E0003FFFF80007FE0003FFFFC0007FF8000001FFFE0000007FFFFFF0001FFFFF
310
FF80003FFFFE0000FFFF80003FFFFE0000FFFF0003FFFFFFFFF0001FFFFE0003
310
F000F0001FFFF80003FE0003FFF000007FFF0001FF80007FE0003FFFF00007FE
310
0001FFFF80007FF8000001FFFE0000007FFFFFF0001FFFFFFFC0000FFFF80001
310
FFFFC0000FFFF80001FFFF0003FFFFFFFFF0001FFFFC0003F000F0000FFFF000
310
07FE0007FFF800007FFF0001FF80007FE0001FFFE00007FF0000FFFE00007FF8
310
000001FFFE0000007FFFFFF0001FFFFFFFC00003FFE00001FFFFC00003FFE000
310
01FFFF0003FFFFFFFFF8000FFFF80003F000F00003FFC00007FC0007FFF80000
310
7FFF8001FF80007FF00007FF80000FFF00007FF80000FFF8000001FFFE000000
310
7F80000000000001FFE000003E000003FFFFE000003E000003FFFF0003FFFFFF
310
FFF80003FFE00007F000F800000000000FFC0007FFF800007FFF8001FF80007F
310
F000000000000FFF000000000000FFF8000001FFFE0000007F80000000000001
310
FFF0000000000007FFFFF0000000000007FFFF0003FFFFFFFFFC00007E000007
310
F000F800000000000FFC0007FFF80000FFFF8000FF80007FF800000000001FFF
310
800000000001FFF8000001FFFE0000007F80000000000001FFF800000000000F
310
FFFFF800000000000FFFFF0003FFFFFFFFFC00000000000FF000FC0000000000
310
1FFC0007FFFC0000FFFF8000FF80007FF800000000003FFFC00000000001FFF8
310
000001FFFE0000007F80000000000001FFF800000000000FFFFFF80000000000
310
0FFFFF0003FFFFFFFFFE00000000001FF000FE00000000003FF8000FFFFC0000
310
FFFF8000FF80007FFC00000000003FFFC00000000003FFF8000001FFFE000000
310
7F80000000000001FFFC00000000001FFFFFFC00000000001FFFFF0003FFFFFF
310
FFFF00000000001FF000FF00000000003FF8000FFFFC0000FFFFC000FF80007F
310
FE00000000007FFFE00000000007FFF8000001FFFE0000007F80000000000001
310
FFFE00000000003FFFFFFE00000000003FFFFF0003FFFFFFFFFF80000000003F
310
F000FF80000000007FF8000FFFFC0001FFFFC0007F80007FFF0000000000FFFF
310
F0000000000FFFF800000000000000007F80000000000001FFFF8000000000FF
310
FFFFFF8000000000FFFFFF0003FFFFFFFFFFC0000000007FF000FFC000000000
310
FFF8000FFFFE0001FFFFC0007F80007FFF8000000001FFFFF8000000001FFFF8
310
00000000000000007F80000000000001FFFFC000000001FFFFFFFFC000000001
310
FFFFFF0003FFFFFFFFFFE000000000FFF000FFE000000003FFF0001FFFFE0001
310
FFFFC0007F80007FFFC000000007FFFFFE000000003FFFF80000000000000000
310
7F80000000000001FFFFE000000003FFFFFFFFE000000003FFFFFF0003FFFFFF
310
FFFFF000000003FFF000FFF80000000FFFF0001FFFFE0001FFFFE0007F80007F
310
FFF00000000FFFFFFF00000000FFFFF800000000000000007F80000000000001
310
FFFFF80000000FFFFFFFFFF80000000FFFFFFF0003FFFFFFFFFFFC0000000FFF
310
F000FFFE0000003FFFF0001FFFFE0003FFFFE0003F80007FFFFC0000003FFFFF
310
FFC0000003FFFFF800000000000000007F80000000000001FFFFFE0000003FFF
310
FFFFFFFE0000003FFFFFFF0003FFFFFFFFFFFF0000003FFFF000FFFF800000FF
310
FFF0001FFFFF0003FFFFE0003F80007FFFFF000001FFFFFFFFF800001FFFFFF8
310
00000000000000007F80000000000001FFFFFFC00001FFFFFFFFFFFFC00001FF
310
FFFFFF0003FFFFFFFFFFFFC00000FFFFF000FFFFF8000FFFFFFFFFFFFFFFFFFF
310
FFFFFFFFFFFFFFFFFFFFF0001FFFFFFFFFFF0000FFFFFFF80000000000000000
310
7FFFFFFFFFFFFFFFFFFFFFFC001FFFFFFFFFFFFFFC001FFFFFFFFFFFFFFFFFFF
310
FFFFFFFC001FFFFFF000FFFFFFFFFFFFFFFFFFFFFFFFFFFFFFFFFFFFFFFFFFFF
310
FFFFFFFFFFFFFFFFFFFFFFFFFFFFFFFFFFFFFFFFFFFFFFFFFFFFFFFFFFFFFFFF
310
FFFFFFFFFFFFFFFFFFFFFFFFFFFFFFFFFFFFFFFFFFFFFFFFFFFFFFFFFFFFFFFF
310
F000FFFFFFFFFFFFFFFFFFFFFFFFFFFFFFFFFFFFFFFFFFFFFFFFFFFFFFFFFFFF
310
FFFFFFFFFFFFFFFFFFFFFFFFFFFFFFFFFFFFFFFFFFFFFFFFFFFFFFFFFFFFFFFF
310
FFFFFFFFFFFFFFFFFFFFFFFFFFFFFFFFFFFFFFFFFFFFFFFFF000FFFFFFFFFFFF
310
FFFFFFFFFFFFFFFFFFFFFFFFFFFFFFFFFFFFFFFFFFFFFFFFFFFFFFFFFFFFFFFF
310
FFFFFFFFFFFFFFFFFFFFFFFFFFFFFFFFFFFFFFFFFFFFFFFFFFFFFFFFFFFFFFFF
310
FFFFFFFFFFFFFFFFFFFFFFFFFFFFFFFFF000FFFFFFFFFFFFFFFFFFFFFFFFFFFF
310
FFFFFFFFFFFFFFFFFFFFFFFFFFFFFFFFFFFFFFFFFFFFFFFFFFFFFFFFFFFFFFFF
310
FFFFFFFFFFFFFFFFFFFFFFFFFFFFFFFFFFFFFFFFFFFFFFFFFFFFFFFFFFFFFFFF
310
FFFFFFFFFFFFFFFFF000FFFFFFFFFFFFFFFFFFFFFFFFFFFFFFFFFFFFFFFFFFFF
310
FFFFFFFFFFFFFFFFFFFFFFFFFFFFFFFFFFFFFFFFFFFFFFFFFFFFFFFFFFFFFFFF
310
FFFFFFFFFFFFFFFFFFFFFFFFFFFFFFFFFFFFFFFFFFFFFFFFFFFFFFFFFFFFFFFF
310
F000FFFFFFFFFFFFFFFFFFFFFFFFFFFFFFFFFFFFFFFFFFFFFFFFFFFFFFFFFFFF
310
FFFFFFFFFFFFFFFFFFFFFFFFFFFFFFFFFFFFFFFFFFFFFFFFFFFFFFFFFFFFFFFF
310
FFFFFFFFFFFFFFFFFFFFFFFFFFFFFFFFFFFFFFFFFFFFFFFFF000FFFFFFFFFFFF
310
FFFFFFFFFFFFFFFFFFFFFFFFFFFFFFFFFFFFFFFFFFFFFFFFFFFFFFFFFFFFFFFF
310
FFFFFFFFFFFFFFFFFFFFFFFFFFFFFFFFFFFFFFFFFFFFFFFFFFFFFFFFFFFFFFFF
310
FFFFFFFFFFFFFFFFFFFFFFFFFFFFFFFFF000FFFFFFFFFFFFFFFFFFFFFFFFFFFF
310
FFFFFFFFFFFFFFFFFFFFFFFFFFFFFFFFFFFFFFFFFFFFFFFFFFFFFFFFFFFFFFFF
310
FFFFFFFFFFFFFFFFFFFFFFFFFFFFFFFFFFFFFFFFFFFFFFFFFFFFFFFFFFFFFFFF
310
FFFFFFFFFFFFFFFFF000FFFFFFFFFFFFFFFFFFFFFFFFFFFFFFFFFFFFFFFFFFFF
310
FFFFFFFFFFFFFFFFFFFFFFFFFFFFFFFFFFFFFFFFFFFFFFFFFFFFFFFFFFFFFFFF
310
FFFFFFFFFFFFFFFFFFFFFFFFFFFFFFFFFFFFFFFFFFFFFFFFFFFFFFFFFFFFFFFF
310
F000FFFFFFFFFFFFFFFFFFFFFFFFFFFFFFFFFFFFFFFFFFFFFFFFFFFFFFFFFFFF
310
FFFFFFFFFFFFFFFFFFFFFFFFFFFFFFFFFFFFFFFFFFFFFFFFFFFFFFFFFFFFFFFF
310
FFFFFFFFFFFFFFFFFFFFFFFFFFFFFFFFFFFFFFFFFFFFFFFFF000FFFFFFFFFFFF
310
FFFFFFFFFFFFFFFFFFFFFFFFFFFFFFFFFFFFFFFFFFFFFFFFFFFFFFFFFFFFFFFF
310
FFFFFFFFFFFFFFFFFFFFFFFFFFFFFFFFFFFFFFFFFFFFFFFFFFFFFFFFFFFFFFFF
310
FFFFFFFFFFFFFFFFFFFFFFFFFFFFFFFFF000FFFFFFFFFFFFFFFFFFFFFFFFFFFF
310
FFFFFFFFFFFFFFFFFFFFFFFFFFFFFFFFFFFFFFFFFFFFFFFFFFFFFFFFFFFFFFFF
310
FFFFFFFFFFFFFFFFFFFFFFFFFFFFFFFFFFFFFFFFFFFFFFFFFFFFFFFFFFFFFFFF
310
FFFFFFFFFFFFFFFFF000FFFFFFFFFFFFFFFFFFFFFFFFFFFFFFFFFFFFFFFFFFFF
310
FFFFFFFFFFFFFFFFFFFFFFFFFFFFFFFFFFFFFFFFFFFFFFFFFFFFFFFFFFFFFFFF
310
FFFFFFFFFFFFFFFFFFFFFFFFFFFFFFFFFFFFFFFFFFFFFFFFFFFFFFFFFFFFFFFF
310
F000FFFFFFFFFFFFFFFFFFFFFFFFFFFFFFFFFFFFFFFFFFFFFFFFFFFFFFFFFFFF
310
FFFFFFFFFFFFFFFFFFFFFFFFFFFFFFFFFFFFFFFFFFFFFFFFFFFFFFFFFFFFFFFF
310
FFFFFFFFFFFFFFFFFFFFFFFFFFFFFFFFFFFFFFFFFFFFFFFFF000FFFFFFFFFFFF
310
FFFFFFFFFFFFFFFFFFFFFFFFFFFFFFFFFFFFFFFFFFFFFFFFFFFFFFFFFFFFFFFF
310
FFFFFFFFFFFFFFFFFFFFFFFFFFFFFFFFFFFFFFFFFFFFFFFFFFFFFFFFFFFFFFFF
310
FFFFFFFFFFFFFFFFFFFFFFFFFFFFFFFFF000FFFFFFFFFFFFFFFFFFFFFFFFFFFF
310
FFFFFFFFFFFFFFFFFFFFFFFFFFFFFFFFFFFFFFFFFFFFFFFFFFFFFFFFFFFFFFFF
310
FFFFFFFFFFFFFFFFFFFFFFFFFFFFFFFFFFFFFFFFFFFFFFFFFFFFFFFFFFFFFFFF
310
FFFFFFFFFFFFFFFFF000FFFFFFFFFFFFFFFFFFFFFFFFFFFFFFFFFFFFFFFFFFFF
310
FFFFFFFFFFFFFFFFFFFFFFFFFFFFFFFFFFFFFFFFFFFFFFFFFFFFFFFFFFFFFFFF
310
FFFFFFFFFFFFFFFFFFFFFFFFFFFFFFFFFFFFFFFFFFFFFFFFFFFFFFFFFFFFFFFF
310
F000FFFFFFFFFFFFFFFFFFFFFFFFFFFFFFFFFFFFFFFFFFFFFFFFFFFFFFFFFFFF
310
FFFFFFFFFFFFFFFFFFFFFFFFFFFFFFFFFFFFFFFFFFFFFFFFFFFFFFFFFFFFFFFF
310
FFFFFFFFFFFFFFFFFFFFFFFFFFFFFFFFFFFFFFFFFFFFFFFFF000FFFFFFFFFFFF
310
FFFFFFFFFFFFFFFFFFFFFFFFFFFFFFFFFFFFFFFFFFFFFFFFFFFFFFFFFFFFFFFF
310
FFFFFFFFFFFFFFFFFFFFFFFFFFFFFFFFFFFFFFFFFFFFFFFFFFFFFFFFFFFFFFFF
310
FFFFFFFFFFFFFFFFFFFFFFFFFFFFFFFFF000FFFFFFFFFFFFFFFFFFFFFFFFFFFF
310
FFFFFFFFFFFFFFFFFFFFFFFFFFFFFFFFFFFFFFFFFFFFFFFFFFFFFFFFFFFFFFFF
310
FFFFFFFFFFFFFFFFFFFFFFFFFFFFFFFFFFFFFFFFFFFFFFFFFFFFFFFFFFFFFFFF
310
FFFFFFFFFFFFFFFFF000FFFFFFFFFFFFFFFFFFFFFFFFFFFFFFFFFFFFFFFFFFFF
310
FFFFFFFFFFFFFFFFFFFFFFFFFFFFFFFFFFFFFFFFFFFFFFFFFFFFFFFFFFFFFFFF
310
FFFFFFFFFFFFFFFFFFFFFFFFFFFFFFFFFFFFFFFFFFFFFFFFFFFFFFFFFFFFFFFF
310
F000FFFFFFFFFFFFFFFFFFFFFFFFFFFFFFFFFFFFFFFFFFFFFFFFFFFFFFFFFFFF
310
FFFFFFFFFFFFFFFFFFFFFFFFFFFFFFFFFFFFFFFFFFFFFFFFFFFFFFFFFFFFFFFF
310
FFFFFFFFFFFFFFFFFFFFFFFFFFFFFFFFFFFFFFFFFFFFFFFFF000FFFFFFFFFFFF
310
FFFFFFFFFFFFFFFFFFFFFFFFFFFFFFFFFFFFFFFFFFFFFFFFFFFFFFFFFFFFFFFF
310
FFFFFFFFFFFFFFFFFFFFFFFFFFFFFFFFFFFFFFFFFFFFFFFFFFFFFFFFFFFFFFFF
310
FFFFFFFFFFFFFFFFFFFFFFFFFFFFFFFFF0000000000000000000000000000000
310
0000000001000000010000000100000001000000010000000100000001000000
310
0100000001000000010000000100000001000000010000000100000001000000
310
0000000001000000000000000100000000000000010000000100000001000000
310
0100000001000000010000000100000001000000000000000100000001000000
310
0100000001000000010000000100000001000000010000000100000001000000
310
0100000001000000010000000100000001000000000000000100000000000000
310
0100000000000000010000000000000001000000000000000100000000000000
310
0100000000000000010000000100000001000000010000000100000001000000
310
0100000001000000000000000100000001000000010000000100000001000000
310
0100000000000000010000000100000001000000010000000100000001000000
310
010000000100000001000000010000000100000001000000E800180301000007
310
D0BDF36900000000C054056A0000000001000000010000000100000001000000
310
0000000001000000000000000100000000000000010000000100000001000000
310
0100000001000000010000000100000001000000010000000100000001000000
310
0100000001000000010000000100000000000000010000000100000001000000
  1
OLE
  0
ENDSEC
  0
SECTION
  2
OBJECTS
  0
DICTIONARY
  5
C
330
0
100
AcDbDictionary
281
     1
  3
ACAD_GROUP
350
D
  3
ACAD_LAYOUT
350
1A
  3
ACAD_MLEADERSTYLE
350
1F9
  3
ACAD_MLINESTYLE
350
17
  3
ACAD_PLOTSETTINGS
350
19
  3
ACAD_PLOTSTYLENAME
350
E
  3
ACAD_TABLESTYLE
350
1F8
  3
ACAD_VISUALSTYLE
350
2A
  3
AcDbVariableDictionary
350
1FA
  0
DICTIONARY
  5
D
102
{ACAD_REACTORS
330
C
102
}
330
C
100
AcDbDictionary
281
     1
  0
DICTIONARY
  5
1A
102
{ACAD_REACTORS
330
C
102
}
330
C
100
AcDbDictionary
281
     1
  3
Layout1
350
1E
  3
Layout2
350
26
  3
Model
350
22
  0
DICTIONARY
  5
1F9
102
{ACAD_REACTORS
330
C
102
}
330
C
100
AcDbDictionary
281
     1
  0
DICTIONARY
  5
17
102
{ACAD_REACTORS
330
C
102
}
330
C
100
AcDbDictionary
281
     1
  3
Standard
350
18
  0
DICTIONARY
  5
19
102
{ACAD_REACTORS
330
C
102
}
330
C
100
AcDbDictionary
281
     1
  0
ACDBDICTIONARYWDFLT
  5
E
102
{ACAD_REACTORS
330
C
102
}
330
C
100
AcDbDictionary
281
     1
  3
Normal
350
F
100
AcDbDictionaryWithDefault
340
F
  0
DICTIONARY
  5
1F8
102
{ACAD_REACTORS
330
C
102
}
330
C
100
AcDbDictionary
281
     1
  0
DICTIONARY
  5
2A
102
{ACAD_REACTORS
330
C
102
}
330
C
100
AcDbDictionary
281
     1
  3
2dWireframe
350
2F
  3
3D Hidden
350
31
  3
3dWireframe
350
30
  3
Basic
350
32
  3
Brighten
350
36
  3
ColorChange
350
3A
  3
Conceptual
350
34
  3
Dim
350
35
  3
Facepattern
350
39
  3
Flat
350
2B
  3
FlatWithEdges
350
2C
  3
Gouraud
350
2D
  3
GouraudWithEdges
350
2E
  3
Linepattern
350
38
  3
Realistic
350
33
  3
Thicken
350
37
  0
DICTIONARY
  5
1FA
102
{ACAD_REACTORS
330
C
102
}
330
C
100
AcDbDictionary
281
     1
  3
PSOLHEIGHT
350
1FC
  3
PSOLWIDTH
350
1FB
  0
LAYOUT
  5
1E
102
{ACAD_REACTORS
330
1A
102
}
330
1A
100
AcDbPlotSettings
  1

  2
none_device
  4

  6

 40
0.0
 41
0.0
 42
0.0
 43
0.0
 44
0.0
 45
0.0
 46
0.0
 47
0.0
 48
0.0
 49
0.0
140
0.0
141
0.0
142
1.0
143
1.0
 70
   688
 72
     0
 73
     0
 74
     5
  7

 75
    16
147
1.0
148
0.0
149
0.0
100
AcDbLayout
  1
Layout1
 70
     1
 71
     1
 10
0.0
 20
0.0
 11
420.0
 21
297.0
 12
0.0
 22
0.0
 32
0.0
 14
1.0000000000E+20
 24
1.0000000000E+20
 34
1.0000000000E+20
 15
-1.0000000000E+20
 25
-1.0000000000E+20
 35
-1.0000000000E+20
146
0.0
 13
0.0
 23
0.0
 33
0.0
 16
1.0
 26
0.0
 36
0.0
 17
0.0
 27
1.0
 37
0.0
 76
     0
330
1B
  0
LAYOUT
  5
26
102
{ACAD_REACTORS
330
1A
102
}
330
1A
100
AcDbPlotSettings
  1

  2
none_device
  4

  6

 40
0.0
 41
0.0
 42
0.0
 43
0.0
 44
0.0
 45
0.0
 46
0.0
 47
0.0
 48
0.0
 49
0.0
140
0.0
141
0.0
142
1.0
143
1.0
 70
   688
 72
     0
 73
     0
 74
     5
  7

 75
    16
147
1.0
148
0.0
149
0.0
100
AcDbLayout
  1
Layout2
 70
     1
 71
     2
 10
0.0
 20
0.0
 11
0.0
 21
0.0
 12
0.0
 22
0.0
 32
0.0
 14
0.0
 24
0.0
 34
0.0
 15
0.0
 25
0.0
 35
0.0
146
0.0
 13
0.0
 23
0.0
 33
0.0
 16
1.0
 26
0.0
 36
0.0
 17
0.0
 27
1.0
 37
0.0
 76
     0
330
23
  0
LAYOUT
  5
22
102
{ACAD_REACTORS
330
1A
102
}
330
1A
100
AcDbPlotSettings
  1

  2
none_device
  4

  6

 40
0.0
 41
0.0
 42
0.0
 43
0.0
 44
0.0
 45
0.0
 46
0.0
 47
0.0
 48
0.0
 49
0.0
140
0.0
141
0.0
142
1.0
143
1.0
 70
  1712
 72
     0
 73
     0
 74
     0
  7

 75
     0
147
1.0
148
0.0
149
0.0
100
AcDbLayout
  1
Model
 70
     1
 71
     0
 10
0.0
 20
0.0
 11
297.0
 21
210.0
 12
0.0
 22
0.0
 32
0.0
 14
0.0
 24
0.0
 34
0.0
 15
297.0
 25
210.0
 35
0.0
146
0.0
 13
0.0
 23
0.0
 33
0.0
 16
1.0
 26
0.0
 36
0.0
 17
0.0
 27
1.0
 37
0.0
 76
     0
330
1F
331
29
  0
MLINESTYLE
  5
18
102
{ACAD_REACTORS
330
17
102
}
330
17
100
AcDbMlineStyle
  2
Standard
 70
     0
  3

 62
   256
 51
90.0
 52
90.0
 71
     2
 49
0.5
 62
   256
  6
BYLAYER
 49
-0.5
 62
   256
  6
BYLAYER
  0
ACDBPLACEHOLDER
  5
F
102
{ACAD_REACTORS
330
E
102
}
330
E
  0
VISUALSTYLE
  5
2F
102
{ACAD_REACTORS
330
2A
102
}
330
2A
100
AcDbVisualStyle
  2
2dWireframe
 70
     4
 71
     0
 72
     2
 73
     0
 90
        0
 40
-0.6
 41
-30.0
 62
     5
 63
     7
 74
     1
 91
        4
 64
     7
 65
   257
 75
     1
175
     1
 42
1.0
 92
        0
 66
   257
 43
1.0
 76
     1
 77
     6
 78
     2
 67
     7
 79
     5
170
     0
171
     0
290
     0
174
     0
 93
        1
 44
0.0
173
     0
291
     0
 45
0.0
1001
ACAD
1000
AcDbSavedByObjectVersion
1070
     0
  0
VISUALSTYLE
  5
31
102
{ACAD_REACTORS
330
2A
102
}
330
2A
100
AcDbVisualStyle
  2
3D Hidden
 70
     6
 71
     1
 72
     2
 73
     2
 90
        0
 40
-0.6
 41
-30.0
 62
     5
 63
     7
 74
     2
 91
        2
 64
     7
 65
   257
 75
     2
175
     1
 42
40.0
 92
        0
 66
   257
 43
1.0
 76
     1
 77
     6
 78
     2
 67
     7
 79
     3
170
     0
171
     0
290
     0
174
     0
 93
        1
 44
0.0
173
     0
291
     0
 45
0.0
1001
ACAD
1000
AcDbSavedByObjectVersion
1070
     0
  0
VISUALSTYLE
  5
30
102
{ACAD_REACTORS
330
2A
102
}
330
2A
100
AcDbVisualStyle
  2
3dWireframe
 70
     5
 71
     0
 72
     2
 73
     0
 90
        0
 40
-0.6
 41
-30.0
 62
     5
 63
     7
 74
     1
 91
        4
 64
     7
 65
   257
 75
     1
175
     1
 42
1.0
 92
        0
 66
   257
 43
1.0
 76
     1
 77
     6
 78
     2
 67
     7
 79
     5
170
     0
171
     0
290
     0
174
     0
 93
        1
 44
0.0
173
     0
291
     0
 45
0.0
1001
ACAD
1000
AcDbSavedByObjectVersion
1070
     0
  0
VISUALSTYLE
  5
32
102
{ACAD_REACTORS
330
2A
102
}
330
2A
100
AcDbVisualStyle
  2
Basic
 70
     7
 71
     1
 72
     0
 73
     1
 90
        0
 40
-0.6
 41
-30.0
 62
     5
 63
     7
 74
     0
 91
        4
 64
     7
 65
   257
 75
     1
175
     1
 42
1.0
 92
        8
 66
     7
 43
1.0
 76
     1
 77
     6
 78
     2
 67
     7
 79
     5
170
     0
171
     0
290
     0
174
     0
 93
        1
 44
0.0
173
     0
291
     1
 45
0.0
1001
ACAD
1000
AcDbSavedByObjectVersion
1070
     0
  0
VISUALSTYLE
  5
36
102
{ACAD_REACTORS
330
2A
102
}
330
2A
100
AcDbVisualStyle
  2
Brighten
 70
    12
 71
     2
 72
     2
 73
     0
 90
        0
 40
-0.6
 41
-30.0
 62
     5
 63
     7
 74
     1
 91
        4
 64
     7
 65
   257
 75
     1
175
     1
 42
1.0
 92
        8
 66
     7
 43
1.0
 76
     1
 77
     6
 78
     2
 67
     7
 79
     5
170
     0
171
     0
290
     0
174
     0
 93
        1
 44
50.0
173
     0
291
     1
 45
0.0
1001
ACAD
1000
AcDbSavedByObjectVersion
1070
     0
  0
VISUALSTYLE
  5
3A
102
{ACAD_REACTORS
330
2A
102
}
330
2A
100
AcDbVisualStyle
  2
ColorChange
 70
    16
 71
     2
 72
     2
 73
     3
 90
        0
 40
-0.6
 41
-30.0
 62
     5
 63
     8
 74
     1
 91
        4
 64
     7
 65
   257
 75
     1
175
     1
 42
1.0
 92
        8
 66
     8
 43
1.0
 76
     1
 77
     6
 78
     2
 67
     7
 79
     5
170
     0
171
     0
290
     0
174
     0
 93
        1
 44
0.0
173
     0
291
     1
 45
0.0
1001
ACAD
1000
AcDbSavedByObjectVersion
1070
     0
  0
VISUALSTYLE
  5
34
102
{ACAD_REACTORS
330
2A
102
}
330
2A
100
AcDbVisualStyle
  2
Conceptual
 70
     9
 71
     3
 72
     2
 73
     0
 90
        0
 40
-0.6
 41
-30.0
 62
     5
 63
     7
 74
     2
 91
        2
 64
     7
 65
   257
 75
     1
175
     1
 42
40.0
 92
        8
 66
     7
 43
1.0
 76
     1
 77
     6
 78
     2
 67
     7
 79
     3
170
     0
171
     0
290
     0
174
     0
 93
        1
 44
0.0
173
     0
291
     0
 45
0.0
1001
ACAD
1000
AcDbSavedByObjectVersion
1070
     0
  0
VISUALSTYLE
  5
35
102
{ACAD_REACTORS
330
2A
102
}
330
2A
100
AcDbVisualStyle
  2
Dim
 70
    11
 71
     2
 72
     2
 73
     0
 90
        0
 40
-0.6
 41
-30.0
 62
     5
 63
     7
 74
     1
 91
        4
 64
     7
 65
   257
 75
     1
175
     1
 42
1.0
 92
        8
 66
     7
 43
1.0
 76
     1
 77
     6
 78
     2
 67
     7
 79
     5
170
     0
171
     0
290
     0
174
     0
 93
        1
 44
-50.0
173
     0
291
     1
 45
0.0
1001
ACAD
1000
AcDbSavedByObjectVersion
1070
     0
  0
VISUALSTYLE
  5
39
102
{ACAD_REACTORS
330
2A
102
}
330
2A
100
AcDbVisualStyle
  2
Facepattern
 70
    15
 71
     2
 72
     2
 73
     0
 90
        0
 40
-0.6
 41
-30.0
 62
     5
 63
     7
 74
     1
 91
        4
 64
     7
 65
   257
 75
     1
175
     1
 42
1.0
 92
        8
 66
     7
 43
1.0
 76
     1
 77
     6
 78
     2
 67
     7
 79
     5
170
     0
171
     0
290
     0
174
     0
 93
        1
 44
0.0
173
     0
291
     1
 45
0.0
1001
ACAD
1000
AcDbSavedByObjectVersion
1070
     0
  0
VISUALSTYLE
  5
2B
102
{ACAD_REACTORS
330
2A
102
}
330
2A
100
AcDbVisualStyle
  2
Flat
 70
     0
 71
     2
 72
     1
 73
     1
 90
        2
 40
-0.6
 41
30.0
 62
     5
 63
     7
 74
     0
 91
        4
 64
     7
 65
   257
 75
     1
175
     1
 42
1.0
 92
        8
 66
     7
 43
1.0
 76
     1
 77
     6
 78
     2
 67
     7
 79
     5
170
     0
171
     0
290
     0
174
     0
 93
       13
 44
0.0
173
     0
291
     1
 45
0.0
1001
ACAD
1000
AcDbSavedByObjectVersion
1070
     0
  0
VISUALSTYLE
  5
2C
102
{ACAD_REACTORS
330
2A
102
}
330
2A
100
AcDbVisualStyle
  2
FlatWithEdges
 70
     1
 71
     2
 72
     1
 73
     1
 90
        2
 40
-0.6
 41
30.0
 62
     5
 63
     7
 74
     1
 91
        4
 64
     7
 65
   257
 75
     1
175
     1
 42
1.0
 92
        0
 66
   257
 43
1.0
 76
     1
 77
     6
 78
     2
 67
     7
 79
     5
170
     0
171
     0
290
     0
174
     0
 93
       13
 44
0.0
173
     0
291
     1
 45
0.0
1001
ACAD
1000
AcDbSavedByObjectVersion
1070
     0
  0
VISUALSTYLE
  5
2D
102
{ACAD_REACTORS
330
2A
102
}
330
2A
100
AcDbVisualStyle
  2
Gouraud
 70
     2
 71
     2
 72
     2
 73
     1
 90
        2
 40
-0.6
 41
30.0
 62
     5
 63
     7
 74
     0
 91
        4
 64
     7
 65
   257
 75
     1
175
     1
 42
1.0
 92
        0
 66
     7
 43
1.0
 76
     1
 77
     6
 78
     2
 67
     7
 79
     5
170
     0
171
     0
290
     0
174
     0
 93
       13
 44
0.0
173
     0
291
     1
 45
0.0
1001
ACAD
1000
AcDbSavedByObjectVersion
1070
     0
  0
VISUALSTYLE
  5
2E
102
{ACAD_REACTORS
330
2A
102
}
330
2A
100
AcDbVisualStyle
  2
GouraudWithEdges
 70
     3
 71
     2
 72
     2
 73
     1
 90
        2
 40
-0.6
 41
30.0
 62
     5
 63
     7
 74
     1
 91
        4
 64
     7
 65
   257
 75
     1
175
     1
 42
1.0
 92
        0
 66
   257
 43
1.0
 76
     1
 77
     6
 78
     2
 67
     7
 79
     5
170
     0
171
     0
290
     0
174
     0
 93
       13
 44
0.0
173
     0
291
     1
 45
0.0
1001
ACAD
1000
AcDbSavedByObjectVersion
1070
     0
  0
VISUALSTYLE
  5
38
102
{ACAD_REACTORS
330
2A
102
}
330
2A
100
AcDbVisualStyle
  2
Linepattern
 70
    14
 71
     2
 72
     2
 73
     0
 90
        0
 40
-0.6
 41
-30.0
 62
     5
 63
     7
 74
     1
 91
        4
 64
     7
 65
   257
 75
     7
175
     7
 42
1.0
 92
        8
 66
     7
 43
1.0
 76
     1
 77
     6
 78
     2
 67
     7
 79
     5
170
     0
171
     0
290
     0
174
     0
 93
        1
 44
0.0
173
     0
291
     1
 45
0.0
1001
ACAD
1000
AcDbSavedByObjectVersion
1070
     0
  0
VISUALSTYLE
  5
33
102
{ACAD_REACTORS
330
2A
102
}
330
2A
100
AcDbVisualStyle
  2
Realistic
 70
     8
 71
     2
 72
     2
 73
     0
 90
        0
 40
-0.6
 41
-30.0
 62
     5
 63
     7
 74
     1
 91
        0
 64
     7
 65
   257
 75
     1
175
     1
 42
1.0
 92
        8
 66
     8
 43
1.0
 76
     1
 77
     6
 78
     2
 67
     7
 79
     5
170
     0
171
     0
290
     0
174
     0
 93
       13
 44
0.0
173
     0
291
     0
 45
0.0
1001
ACAD
1000
AcDbSavedByObjectVersion
1070
     0
  0
VISUALSTYLE
  5
37
102
{ACAD_REACTORS
330
2A
102
}
330
2A
100
AcDbVisualStyle
  2
Thicken
 70
    13
 71
     2
 72
     2
 73
     0
 90
        0
 40
-0.6
 41
-30.0
 62
     5
 63
     7
 74
     1
 91
        4
 64
     7
 65
   257
 75
     1
175
     1
 42
1.0
 92
       12
 66
     7
 43
1.0
 76
     1
 77
     6
 78
     2
 67
     7
 79
     5
170
     0
171
     0
290
     0
174
     0
 93
        1
 44
0.0
173
     0
291
     1
 45
0.0
1001
ACAD
1000
AcDbSavedByObjectVersion
1070
     0
  0
DICTIONARYVAR
  5
1FC
102
{ACAD_REACTORS
330
1FA
102
}
330
1FA
100
DictionaryVariables
280
     0
  1
80.000000
  0
DICTIONARYVAR
  5
1FB
102
{ACAD_REACTORS
330
1FA
102
}
330
1FA
100
DictionaryVariables
280
     0
  1
5.000000
  0
ENDSEC
  0
EOF
