  0
SECTION
  2
HEADER
  9
$ACADVER
  1
AC1015
  9
$ACADMAINTVER
 70
     6
  9
$DWGCODEPAGE
  3
ANSI_1252
  9
$INSBASE
 10
0.0
 20
0.0
 30
0.0
  9
$EXTMIN
 10
0.0
 20
0.0
 30
0.0
  9
$EXTMAX
 10
297.0
 20
210.0
 30
0.0
  9
$LIMMIN
 10
0.0
 20
0.0
  9
$LIMMAX
 10
297.0
 20
210.0
  9
$ORTHOMODE
 70
     0
  9
$REGENMODE
 70
     1
  9
$FILLMODE
 70
     1
  9
$QTEXTMODE
 70
     0
  9
$MIRRTEXT
 70
     1
  9
$LTSCALE
 40
1.0
  9
$ATTMODE
 70
     1
  9
$TEXTSIZE
 40
2.0
  9
$TRACEWID
 40
1.0
  9
$TEXTSTYLE
  7
Standard
  9
$CLAYER
  8
0
  9
$CELTYPE
  6
ByLayer
  9
$CECOLOR
 62
   256
  9
$CELTSCALE
 40
1.0
  9
$DISPSILH
 70
     0
  9
$DIMSCALE
 40
1.0
  9
$DIMASZ
 40
3.0
  9
$DIMEXO
 40
0.0
  9
$DIMDLI
 40
3.75
  9
$DIMRND
 40
0.0
  9
$DIMDLE
 40
0.0
  9
$DIMEXE
 40
1.0
  9
$DIMTP
 40
0.0
  9
$DIMTM
 40
0.0
  9
$DIMTXT
 40
2.0
  9
$DIMCEN
 40
2.5
  9
$DIMTSZ
 40
0.0
  9
$DIMTOL
 70
     0
  9
$DIMLIM
 70
     0
  9
$DIMTIH
 70
     1
  9
$DIMTOH
 70
     1
  9
$DIMSE1
 70
     0
  9
$DIMSE2
 70
     0
  9
$DIMTAD
 70
     1
  9
$DIMZIN
 70
     0
  9
$DIMBLK
  1

  9
$DIMASO
 70
     1
  9
$DIMSHO
 70
     1
  9
$DIMPOST
  1

  9
$DIMAPOST
  1

  9
$DIMALT
 70
     0
  9
$DIMALTD
 70
     3
  9
$DIMALTF
 40
0.0393700787
  9
$DIMLFAC
 40
1.0
  9
$DIMTOFL
 70
     1
  9
$DIMTVP
 40
0.0
  9
$DIMTIX
 70
     0
  9
$DIMSOXD
 70
     0
  9
$DIMSAH
 70
     0
  9
$DIMBLK1
  1

  9
$DIMBLK2
  1

  9
$DIMSTYLE
  2
ISO-25
  9
$DIMCLRD
 70
     0
  9
$DIMCLRE
 70
     0
  9
$DIMCLRT
 70
     0
  9
$DIMTFAC
 40
1.0
  9
$DIMGAP
 40
1.524
  9
$DIMJUST
 70
     0
  9
$DIMSD1
 70
     0
  9
$DIMSD2
 70
     0
  9
$DIMTOLJ
 70
     0
  9
$DIMTZIN
 70
     0
  9
$DIMALTZ
 70
     0
  9
$DIMALTTZ
 70
     0
  9
$DIMUPT
 70
     0
  9
$DIMDEC
 70
     2
  9
$DIMTDEC
 70
     3
  9
$DIMALTU
 70
     2
  9
$DIMALTTD
 70
     3
  9
$DIMTXSTY
  7
Standard
  9
$DIMAUNIT
 70
     0
  9
$DIMADEC
 70
     2
  9
$DIMALTRND
 40
0.0
  9
$DIMAZIN
 70
     0
  9
$DIMDSEP
 70
    44
  9
$DIMATFIT
 70
     3
  9
$DIMFRAC
 70
     0
  9
$DIMLDRBLK
  1

  9
$DIMLUNIT
 70
     2
  9
$DIMLWD
 70
    -2
  9
$DIMLWE
 70
    -2
  9
$DIMTMOVE
 70
     0
  9
$LUNITS
 70
     2
  9
$LUPREC
 70
     2
  9
$SKETCHINC
 40
1.0
  9
$FILLETRAD
 40
10.0
  9
$AUNITS
 70
     0
  9
$AUPREC
 70
     2
  9
$MENU
  1
.
  9
$ELEVATION
 40
0.0
  9
$PELEVATION
 40
0.0
  9
$THICKNESS
 40
0.0
  9
$LIMCHECK
 70
     0
  9
$CHAMFERA
 40
10.0
  9
$CHAMFERB
 40
10.0
  9
$CHAMFERC
 40
20.0
  9
$CHAMFERD
 40
0.0
  9
$SKPOLY
 70
     0
  9
$TDCREATE
 40
2455673.494039583
  9
$TDUCREATE
 40
2455673.41070625
  9
$TDUPDATE
 40
2455673.494039595
  9
$TDUUPDATE
 40
2455673.410706262
  9
$TDINDWG
 40
0.0000000116
  9
$TDUSRTIMER
 40
0.0000000116
  9
$USRTIMER
 70
     1
  9
$ANGBASE
 50
0.0
  9
$ANGDIR
 70
     0
  9
$PDMODE
 70
     0
  9
$PDSIZE
 40
-1.0
  9
$PLINEWID
 40
0.0
  9
$SPLFRAME
 70
     0
  9
$SPLINETYPE
 70
     6
  9
$SPLINESEGS
 70
     8
  9
$HANDSEED
  5
1FB
  9
$SURFTAB1
 70
     6
  9
$SURFTAB2
 70
     6
  9
$SURFTYPE
 70
     6
  9
$SURFU
 70
     6
  9
$SURFV
 70
     6
  9
$UCSBASE
  2

  9
$UCSNAME
  2

  9
$UCSORG
 10
0.0
 20
0.0
 30
0.0
  9
$UCSXDIR
 10
1.0
 20
0.0
 30
0.0
  9
$UCSYDIR
 10
0.0
 20
1.0
 30
0.0
  9
$UCSORTHOREF
  2

  9
$UCSORTHOVIEW
 70
     0
  9
$UCSORGTOP
 10
0.0
 20
0.0
 30
0.0
  9
$UCSORGBOTTOM
 10
0.0
 20
0.0
 30
0.0
  9
$UCSORGLEFT
 10
0.0
 20
0.0
 30
0.0
  9
$UCSORGRIGHT
 10
0.0
 20
0.0
 30
0.0
  9
$UCSORGFRONT
 10
0.0
 20
0.0
 30
0.0
  9
$UCSORGBACK
 10
0.0
 20
0.0
 30
0.0
  9
$PUCSBASE
  2

  9
$PUCSNAME
  2

  9
$PUCSORG
 10
0.0
 20
0.0
 30
0.0
  9
$PUCSXDIR
 10
1.0
 20
0.0
 30
0.0
  9
$PUCSYDIR
 10
0.0
 20
1.0
 30
0.0
  9
$PUCSORTHOREF
  2

  9
$PUCSORTHOVIEW
 70
     0
  9
$PUCSORGTOP
 10
0.0
 20
0.0
 30
0.0
  9
$PUCSORGBOTTOM
 10
0.0
 20
0.0
 30
0.0
  9
$PUCSORGLEFT
 10
0.0
 20
0.0
 30
0.0
  9
$PUCSORGRIGHT
 10
0.0
 20
0.0
 30
0.0
  9
$PUCSORGFRONT
 10
0.0
 20
0.0
 30
0.0
  9
$PUCSORGBACK
 10
0.0
 20
0.0
 30
0.0
  9
$USERI1
 70
     0
  9
$USERI2
 70
     0
  9
$USERI3
 70
     0
  9
$USERI4
 70
     0
  9
$USERI5
 70
     0
  9
$USERR1
 40
0.0
  9
$USERR2
 40
0.0
  9
$USERR3
 40
0.0
  9
$USERR4
 40
0.0
  9
$USERR5
 40
0.0
  9
$WORLDVIEW
 70
     1
  9
$SHADEDGE
 70
     3
  9
$SHADEDIF
 70
    70
  9
$TILEMODE
 70
     1
  9
$MAXACTVP
 70
    64
  9
$PINSBASE
 10
0.0
 20
0.0
 30
0.0
  9
$PLIMCHECK
 70
     0
  9
$PEXTMIN
 10
1.0000000000E+20
 20
1.0000000000E+20
 30
1.0000000000E+20
  9
$PEXTMAX
 10
-1.0000000000E+20
 20
-1.0000000000E+20
 30
-1.0000000000E+20
  9
$PLIMMIN
 10
0.0
 20
0.0
  9
$PLIMMAX
 10
420.0
 20
297.0
  9
$UNITMODE
 70
     0
  9
$VISRETAIN
 70
     1
  9
$PLINEGEN
 70
     0
  9
$PSLTSCALE
 70
     1
  9
$TREEDEPTH
 70
  3020
  9
$CMLSTYLE
  2
Standard
  9
$CMLJUST
 70
     0
  9
$CMLSCALE
 40
20.0
  9
$PROXYGRAPHICS
 70
     1
  9
$MEASUREMENT
 70
     1
  9
$CELWEIGHT
370
    -1
  9
$ENDCAPS
280
     0
  9
$JOINSTYLE
280
     0
  9
$LWDISPLAY
290
     1
  9
$INSUNITS
 70
     4
  9
$HYPERLINKBASE
  1

  9
$STYLESHEET
  1

  9
$XEDIT
290
     1
  9
$CEPSNTYPE
380
     0
  9
$PSTYLEMODE
290
     1
  9
$FINGERPRINTGUID
  2
{3C20DB73-C2C1-442E-AF10-F4A154D7DF2D}
  9
$VERSIONGUID
  2
{FAEB1C32-E019-11D5-929B-00C0DF256EC4}
  9
$EXTNAMES
290
     1
  9
$PSVPSCALE
 40
0.0
  9
$OLESTARTUP
290
     0
  0
ENDSEC
  0
SECTION
  2
CLASSES
  0
CLASS
  1
ACDBDICTIONARYWDFLT
  2
AcDbDictionaryWithDefault
  3
ObjectDBX Classes
 90
        0
280
     0
281
     0
  0
CLASS
  1
VISUALSTYLE
  2
AcDbVisualStyle
  3
ObjectDBX Classes
 90
     4095
280
     0
281
     0
  0
CLASS
  1
DICTIONARYVAR
  2
AcDbDictionaryVar
  3
ObjectDBX Classes
 90
        0
280
     0
281
     0
  0
CLASS
  1
ACDBPLACEHOLDER
  2
AcDbPlaceHolder
  3
ObjectDBX Classes
 90
        0
280
     0
281
     0
  0
CLASS
  1
LAYOUT
  2
AcDbLayout
  3
ObjectDBX Classes
 90
        0
280
     0
281
     0
  0
ENDSEC
  0
SECTION
  2
TABLES
  0
TABLE
  2
VPORT
  5
8
330
0
100
AcDbSymbolTable
 70
     1
  0
VPORT
  5
29
330
8
100
AcDbSymbolTableRecord
100
AcDbViewportTableRecord
  2
*Active
 70
     0
 10
0.0
 20
0.0
 11
1.0
 21
1.0
 12
148.5
 22
105.0
 13
0.0
 23
0.0
 14
10.0
 24
10.0
 15
10.0
 25
10.0
 16
0.0
 26
0.0
 36
1.0
 17
0.0
 27
0.0
 37
0.0
 40
210.0
 41
1.4142857143
 42
50.0
 43
0.0
 44
0.0
 50
0.0
 51
0.0
 71
     0
 72
  2000
 73
     1
 74
     3
 75
     0
 76
     0
 77
     0
 78
     0
281
     0
 65
     1
110
0.0
120
0.0
130
0.0
111
1.0
121
0.0
131
0.0
112
0.0
122
1.0
132
0.0
 79
     0
146
0.0
  0
ENDTAB
  0
TABLE
  2
LTYPE
  5
5
330
0
100
AcDbSymbolTable
 70
     6
  0
LTYPE
  5
14
330
5
100
AcDbSymbolTableRecord
100
AcDbLinetypeTableRecord
  2
ByBlock
 70
     0
  3

 72
    65
 73
     0
 40
0.0
  0
LTYPE
  5
15
330
5
100
AcDbSymbolTableRecord
100
AcDbLinetypeTableRecord
  2
ByLayer
 70
     0
  3

 72
    65
 73
     0
 40
0.0
  0
LTYPE
  5
16
330
5
100
AcDbSymbolTableRecord
100
AcDbLinetypeTableRecord
  2
Continuous
 70
     0
  3
Solid line
 72
    65
 73
     0
 40
0.0
  0
LTYPE
  5
3B
330
5
100
AcDbSymbolTableRecord
100
AcDbLinetypeTableRecord
  2
HIDDEN
 70
     0
  3
Hidden __ __ __ __ __ __ __ __ __ __ __ __ __ __
 72
    65
 73
     2
 40
1.905
 49
1.27
 74
     0
 49
-0.635
 74
     0
  0
LTYPE
  5
3C
330
5
100
AcDbSymbolTableRecord
100
AcDbLinetypeTableRecord
  2
PHANTOM
 70
     0
  3
Phantom ______  __  __  ______  __  __  ______
 72
    65
 73
     6
 40
12.7
 49
6.35
 74
     0
 49
-1.27
 74
     0
 49
1.27
 74
     0
 49
-1.27
 74
     0
 49
1.27
 74
     0
 49
-1.27
 74
     0
  0
LTYPE
  5
3D
330
5
100
AcDbSymbolTableRecord
100
AcDbLinetypeTableRecord
  2
CENTER
 70
     0
  3
Center ____ _ ____ _ ____ _ ____ _ ____ _ ____
 72
    65
 73
     4
 40
10.16
 49
6.35
 74
     0
 49
-1.27
 74
     0
 49
1.27
 74
     0
 49
-1.27
 74
     0
  0
LTYPE
  5
3E
330
5
100
AcDbSymbolTableRecord
100
AcDbLinetypeTableRecord
  2
CENTERX2
 70
     0
  3
Center (2x) ________  __  ________  __  _____
 72
    65
 73
     4
 40
20.32
 49
12.7
 74
     0
 49
-2.54
 74
     0
 49
2.54
 74
     0
 49
-2.54
 74
     0
  0
LTYPE
  5
3F
330
5
100
AcDbSymbolTableRecord
100
AcDbLinetypeTableRecord
  2
DOT2
 70
     0
  3
Dot (.5x) ........................................
 72
    65
 73
     2
 40
0.635
 49
0.0
 74
     0
 49
-0.635
 74
     0
  0
ENDTAB
  0
TABLE
  2
LAYER
  5
2
330
0
100
AcDbSymbolTable
 70
     5
  0
LAYER
  5
10
330
2
100
AcDbSymbolTableRecord
100
AcDbLayerTableRecord
  2
0
 70
     0
 62
     7
  6
Continuous
370
    -3
390
F
  0
LAYER
  5
40
330
2
100
AcDbSymbolTableRecord
100
AcDbLayerTableRecord
  2
FORMAT
 70
     0
 62
     7
  6
Continuous
370
    -3
390
F
  0
LAYER
  5
41
330
2
100
AcDbSymbolTableRecord
100
AcDbLayerTableRecord
  2
VERMASSUNG
 70
     0
 62
     7
  6
Continuous
370
    -3
390
F
  0
LAYER
  5
42
330
2
100
AcDbSymbolTableRecord
100
AcDbLayerTableRecord
  2
KOPF_DÜNN
 70
     0
 62
     7
  6
Continuous
370
    -3
390
F
  0
LAYER
  5
43
330
2
100
AcDbSymbolTableRecord
100
AcDbLayerTableRecord
  2
KOPF_DICK
 70
     0
 62
     7
  6
Continuous
370
    15
390
F
  0
ENDTAB
  0
TABLE
  2
STYLE
  5
3
330
0
100
AcDbSymbolTable
 70
     3
  0
STYLE
  5
11
330
3
100
AcDbSymbolTableRecord
100
AcDbTextStyleTableRecord
  2
Standard
 70
     0
 40
0.0
 41
1.0
 50
0.0
 71
     0
 42
2.5
  3
txt
  4

  0
STYLE
  5
44
330
3
100
AcDbSymbolTableRecord
100
AcDbTextStyleTableRecord
  2
SLDTEXTSTYLE0
 70
     0
 40
0.0
 41
0.7
 50
0.0
 71
     0
 42
0.2
  3
TXT
  4

  0
STYLE
  5
48
330
3
100
AcDbSymbolTableRecord
100
AcDbTextStyleTableRecord
  2
SLDTEXTSTYLE1
 70
     0
 40
0.0
 41
0.65
 50
0.0
 71
     0
 42
0.2
  3
TXT
  4

  0
ENDTAB
  0
TABLE
  2
VIEW
  5
6
330
0
100
AcDbSymbolTable
 70
     0
  0
ENDTAB
  0
TABLE
  2
UCS
  5
7
330
0
100
AcDbSymbolTable
 70
     0
  0
ENDTAB
  0
TABLE
  2
APPID
  5
9
330
0
100
AcDbSymbolTable
 70
     1
  0
APPID
  5
12
330
9
100
AcDbSymbolTableRecord
100
AcDbRegAppTableRecord
  2
ACAD
 70
     0
  0
ENDTAB
  0
TABLE
  2
DIMSTYLE
  5
A
330
0
100
AcDbSymbolTable
 70
     2
100
AcDbDimStyleTable
  0
DIMSTYLE
105
27
330
A
100
AcDbSymbolTableRecord
100
AcDbDimStyleTableRecord
  2
ISO-25
 70
     0
 41
2.5
 42
0.625
 43
3.75
 44
1.25
 73
     0
 74
     0
 77
     1
 78
     8
140
2.5
141
2.5
143
0.0393700787
147
0.625
171
     3
172
     1
271
     2
272
     2
274
     3
278
    44
283
     0
284
     8
340
11
  0
DIMSTYLE
105
1B4
102
{ACAD_REACTORS
330
1B3
330
1C0
330
1CA
330
1D4
330
1DE
330
1E9
102
}
330
A
100
AcDbSymbolTableRecord
100
AcDbDimStyleTableRecord
  2
SLDDIMSTYLE0
 70
     0
 41
3.0
 44
0.0
 45
0.000000001
 73
     0
 74
     0
 77
     1
 78
    12
140
2.0
147
0.5
173
     1
271
     2
272
     3
284
    12
340
44
  0
ENDTAB
  0
TABLE
  2
BLOCK_RECORD
  5
1
330
0
100
AcDbSymbolTable
 70
     7
  0
BLOCK_RECORD
  5
1F
330
1
100
AcDbSymbolTableRecord
100
AcDbBlockTableRecord
  2
*Model_Space
340
22
  0
BLOCK_RECORD
  5
1B
330
1
100
AcDbSymbolTableRecord
100
AcDbBlockTableRecord
  2
*Paper_Space
340
1E
  0
BLOCK_RECORD
  5
23
330
1
100
AcDbSymbolTableRecord
100
AcDbBlockTableRecord
  2
*Paper_Space0
340
26
  0
BLOCK_RECORD
  5
1B5
330
1
100
AcDbSymbolTableRecord
100
AcDbBlockTableRecord
  2
*D1
340
0
  0
BLOCK_RECORD
  5
1C1
330
1
100
AcDbSymbolTableRecord
100
AcDbBlockTableRecord
  2
*D2
340
0
  0
BLOCK_RECORD
  5
1CB
330
1
100
AcDbSymbolTableRecord
100
AcDbBlockTableRecord
  2
*D3
340
0
  0
BLOCK_RECORD
  5
1D5
330
1
100
AcDbSymbolTableRecord
100
AcDbBlockTableRecord
  2
*D4
340
0
  0
BLOCK_RECORD
  5
1DF
330
1
100
AcDbSymbolTableRecord
100
AcDbBlockTableRecord
  2
*D5
340
0
  0
BLOCK_RECORD
  5
1EA
330
1
100
AcDbSymbolTableRecord
100
AcDbBlockTableRecord
  2
*D6
340
0
  0
ENDTAB
  0
ENDSEC
  0
SECTION
  2
BLOCKS
  0
BLOCK
  5
20
330
1F
100
AcDbEntity
  8
0
100
AcDbBlockBegin
  2
*Model_Space
 70
     0
 10
0.0
 20
0.0
 30
0.0
  3
*Model_Space
  1

  0
ENDBLK
  5
21
330
1F
100
AcDbEntity
  8
0
100
AcDbBlockEnd
  0
BLOCK
  5
1C
330
1B
100
AcDbEntity
 67
     1
  8
0
100
AcDbBlockBegin
  2
*Paper_Space
 70
     0
 10
0.0
 20
0.0
 30
0.0
  3
*Paper_Space
  1

  0
ENDBLK
  5
1D
330
1B
100
AcDbEntity
 67
     1
  8
0
100
AcDbBlockEnd
  0
BLOCK
  5
24
330
23
100
AcDbEntity
  8
0
100
AcDbBlockBegin
  2
*Paper_Space0
 70
     0
 10
0.0
 20
0.0
 30
0.0
  3
*Paper_Space0
  1

  0
ENDBLK
  5
25
330
23
100
AcDbEntity
  8
0
100
AcDbBlockEnd
  0
BLOCK
  5
1B6
330
1B5
100
AcDbEntity
  8
0
100
AcDbBlockBegin
  2
*D1
 70
     1
 10
0.0
 20
0.0
 30
0.0
  3
*D1
  1

  0
SOLID
  5
1B8
330
1B5
100
AcDbEntity
  8
VERMASSUNG
100
AcDbTrace
 10
68.5738048111
 20
160.6182278427
 30
0.0
 11
68.1238048111
 21
157.6182278427
 31
0.0
 12
69.0238048111
 22
157.6182278427
 32
0.0
 13
69.0238048111
 23
157.6182278427
 33
0.0
  0
SOLID
  5
1B9
330
1B5
100
AcDbEntity
  8
VERMASSUNG
100
AcDbTrace
 10
68.5738048111
 20
60.6182278427
 30
0.0
 11
69.0238048111
 21
63.6182278427
 31
0.0
 12
68.1238048111
 22
63.6182278427
 32
0.0
 13
68.1238048111
 23
63.6182278427
 33
0.0
  0
LINE
  5
1BA
330
1B5
100
AcDbEntity
  8
VERMASSUNG
100
AcDbLine
 10
124.2678066973
 20
160.6182278427
 30
0.0
 11
67.5738048111
 21
160.6182278427
 31
0.0
  0
LINE
  5
1BB
330
1B5
100
AcDbEntity
  8
VERMASSUNG
100
AcDbLine
 10
124.2678066973
 20
60.6182278427
 30
0.0
 11
67.5738048111
 21
60.6182278427
 31
0.0
  0
LINE
  5
1BC
330
1B5
100
AcDbEntity
  8
VERMASSUNG
100
AcDbLine
 10
68.5738048111
 20
160.6182278427
 30
0.0
 11
68.5738048111
 21
60.6182278427
 31
0.0
  0
MTEXT
  5
1BD
330
1B5
100
AcDbEntity
  8
VERMASSUNG
100
AcDbMText
 10
65.795669322
 20
102.4145767051
 30
0.0
 40
2.0
 41
0.0
 71
     1
 72
     1
  1
HSK A 
  7
SLDTEXTSTYLE0
 11
-7.044195017643634E-15
 21
1.0
 31
0.0
 73
     1
 44
1.0
  0
MTEXT
  5
1BE
330
1B5
100
AcDbEntity
  8
VERMASSUNG
100
AcDbMText
 10
65.9956693315
 20
111.414577249
 30
0.0
 40
2.0
 41
0.0
 71
     1
 72
     1
  1
%%c
  7
SLDTEXTSTYLE0
 11
-7.044195017643634E-15
 21
1.0
 31
0.0
 73
     1
 44
1.0
  0
MTEXT
  5
1BF
330
1B5
100
AcDbEntity
  8
VERMASSUNG
100
AcDbMText
 10
65.9956694479
 20
115.0229038991
 30
0.0
 40
2.0
 41
0.0
 71
     1
 72
     1
  1
100
  7
SLDTEXTSTYLE0
 11
-7.044195017643634E-15
 21
1.0
 31
0.0
 73
     1
 44
1.0
  0
ENDBLK
  5
1B7
330
1B5
100
AcDbEntity
  8
0
100
AcDbBlockEnd
  0
BLOCK
  5
1C2
330
1C1
100
AcDbEntity
  8
0
100
AcDbBlockBegin
  2
*D2
 70
     1
 10
0.0
 20
0.0
 30
0.0
  3
*D2
  1

  0
SOLID
  5
1C4
330
1C1
100
AcDbEntity
  8
VERMASSUNG
100
AcDbTrace
 10
73.8678066973
 20
175.9753703716
 30
0.0
 11
76.8678066973
 21
175.5253703716
 31
0.0
 12
76.8678066973
 22
176.4253703716
 32
0.0
 13
76.8678066973
 23
176.4253703716
 33
0.0
  0
SOLID
  5
1C5
330
1C1
100
AcDbEntity
  8
VERMASSUNG
100
AcDbTrace
 10
223.7678066973
 20
175.9753703716
 30
0.0
 11
220.7678066973
 21
176.4253703716
 31
0.0
 12
220.7678066973
 22
175.5253703716
 32
0.0
 13
220.7678066973
 23
175.5253703716
 33
0.0
  0
LINE
  5
1C6
330
1C1
100
AcDbEntity
  8
VERMASSUNG
100
AcDbLine
 10
73.8678066973
 20
141.1208975853
 30
0.0
 11
73.8678066973
 21
176.9753703716
 31
0.0
  0
LINE
  5
1C7
330
1C1
100
AcDbEntity
  8
VERMASSUNG
100
AcDbLine
 10
223.7678066973
 20
129.3440873211
 30
0.0
 11
223.7678066973
 21
176.9753703716
 31
0.0
  0
LINE
  5
1C8
330
1C1
100
AcDbEntity
  8
VERMASSUNG
100
AcDbLine
 10
73.8678066973
 20
175.9753703716
 30
0.0
 11
223.7678066973
 21
175.9753703716
 31
0.0
  0
MTEXT
  5
1C9
330
1C1
100
AcDbEntity
  8
VERMASSUNG
100
AcDbMText
 10
145.8183104893
 20
178.5535057347
 30
0.0
 40
2.0
 41
0.0
 71
     1
 72
     1
  1
149.9
  7
SLDTEXTSTYLE0
 73
     1
 44
1.0
  0
ENDBLK
  5
1C3
330
1C1
100
AcDbEntity
  8
0
100
AcDbBlockEnd
  0
BLOCK
  5
1CC
330
1CB
100
AcDbEntity
  8
0
100
AcDbBlockBegin
  2
*D3
 70
     1
 10
0.0
 20
0.0
 30
0.0
  3
*D3
  1

  0
SOLID
  5
1CE
330
1CB
100
AcDbEntity
  8
VERMASSUNG
100
AcDbTrace
 10
123.7678066973
 20
169.9753703716
 30
0.0
 11
126.7678066973
 21
169.5253703716
 31
0.0
 12
126.7678066973
 22
170.4253703716
 32
0.0
 13
126.7678066973
 23
170.4253703716
 33
0.0
  0
SOLID
  5
1CF
330
1CB
100
AcDbEntity
  8
VERMASSUNG
100
AcDbTrace
 10
223.7678066973
 20
169.9753703716
 30
0.0
 11
220.7678066973
 21
170.4253703716
 31
0.0
 12
220.7678066973
 22
169.5253703716
 32
0.0
 13
220.7678066973
 23
169.5253703716
 33
0.0
  0
LINE
  5
1D0
330
1CB
100
AcDbEntity
  8
VERMASSUNG
100
AcDbLine
 10
123.7678066973
 20
160.1182278427
 30
0.0
 11
123.7678066973
 21
170.9753703716
 31
0.0
  0
LINE
  5
1D1
330
1CB
100
AcDbEntity
  8
VERMASSUNG
100
AcDbLine
 10
223.7678066973
 20
129.3440873211
 30
0.0
 11
223.7678066973
 21
170.9753703716
 31
0.0
  0
LINE
  5
1D2
330
1CB
100
AcDbEntity
  8
VERMASSUNG
100
AcDbLine
 10
123.7678066973
 20
169.9753703716
 30
0.0
 11
223.7678066973
 21
169.9753703716
 31
0.0
  0
MTEXT
  5
1D3
330
1CB
100
AcDbEntity
  8
VERMASSUNG
100
AcDbMText
 10
171.8683191567
 20
172.5535057347
 30
0.0
 40
2.0
 41
0.0
 71
     1
 72
     1
  1
100
  7
SLDTEXTSTYLE0
 73
     1
 44
1.0
  0
ENDBLK
  5
1CD
330
1CB
100
AcDbEntity
  8
0
100
AcDbBlockEnd
  0
BLOCK
  5
1D6
330
1D5
100
AcDbEntity
  8
0
100
AcDbBlockBegin
  2
*D4
 70
     1
 10
0.0
 20
0.0
 30
0.0
  3
*D4
  1

  0
SOLID
  5
1D8
330
1D5
100
AcDbEntity
  8
VERMASSUNG
100
AcDbTrace
 10
152.7178066973
 20
163.9753703716
 30
0.0
 11
155.7178066973
 21
163.5253703716
 31
0.0
 12
155.7178066973
 22
164.4253703716
 32
0.0
 13
155.7178066973
 23
164.4253703716
 33
0.0
  0
SOLID
  5
1D9
330
1D5
100
AcDbEntity
  8
VERMASSUNG
100
AcDbTrace
 10
223.7678066973
 20
163.9753703716
 30
0.0
 11
220.7678066973
 21
164.4253703716
 31
0.0
 12
220.7678066973
 22
163.5253703716
 32
0.0
 13
220.7678066973
 23
163.5253703716
 33
0.0
  0
LINE
  5
1DA
330
1D5
100
AcDbEntity
  8
VERMASSUNG
100
AcDbLine
 10
152.7178066973
 20
158.5869676636
 30
0.0
 11
152.7178066973
 21
164.9753703716
 31
0.0
  0
LINE
  5
1DB
330
1D5
100
AcDbEntity
  8
VERMASSUNG
100
AcDbLine
 10
223.7678066973
 20
129.3440873211
 30
0.0
 11
223.7678066973
 21
164.9753703716
 31
0.0
  0
LINE
  5
1DC
330
1D5
100
AcDbEntity
  8
VERMASSUNG
100
AcDbLine
 10
152.7178066973
 20
163.9753703716
 30
0.0
 11
223.7678066973
 21
163.9753703716
 31
0.0
  0
MTEXT
  5
1DD
330
1D5
100
AcDbEntity
  8
VERMASSUNG
100
AcDbMText
 10
185.3431003051
 20
166.5535057347
 30
0.0
 40
2.0
 41
0.0
 71
     1
 72
     1
  1
71.05
  7
SLDTEXTSTYLE0
 73
     1
 44
1.0
  0
ENDBLK
  5
1D7
330
1D5
100
AcDbEntity
  8
0
100
AcDbBlockEnd
  0
BLOCK
  5
1E0
330
1DF
100
AcDbEntity
  8
0
100
AcDbBlockBegin
  2
*D5
 70
     1
 10
0.0
 20
0.0
 30
0.0
  3
*D5
  1

  0
SOLID
  5
1E2
330
1DF
100
AcDbEntity
  8
VERMASSUNG
100
AcDbTrace
 10
231.0900136569
 20
120.6182278427
 30
0.0
 11
230.6400136569
 21
117.6182278427
 31
0.0
 12
231.5400136569
 22
117.6182278427
 32
0.0
 13
231.5400136569
 23
117.6182278427
 33
0.0
  0
SOLID
  5
1E3
330
1DF
100
AcDbEntity
  8
VERMASSUNG
100
AcDbTrace
 10
231.0900136569
 20
100.6182278427
 30
0.0
 11
231.5400136569
 21
103.6182278427
 31
0.0
 12
230.6400136569
 22
103.6182278427
 32
0.0
 13
230.6400136569
 23
103.6182278427
 33
0.0
  0
LINE
  5
1E4
330
1DF
100
AcDbEntity
  8
VERMASSUNG
100
AcDbLine
 10
223.4678066973
 20
120.6182278427
 30
0.0
 11
232.0900136569
 21
120.6182278427
 31
0.0
  0
LINE
  5
1E5
330
1DF
100
AcDbEntity
  8
VERMASSUNG
100
AcDbLine
 10
223.4678066973
 20
100.6182278427
 30
0.0
 11
232.0900136569
 21
100.6182278427
 31
0.0
  0
LINE
  5
1E6
330
1DF
100
AcDbEntity
  8
VERMASSUNG
100
AcDbLine
 10
231.0900136569
 20
120.6182278427
 30
0.0
 11
231.0900136569
 21
100.6182278427
 31
0.0
  0
MTEXT
  5
1E7
330
1DF
100
AcDbEntity
  8
VERMASSUNG
100
AcDbMText
 10
228.5118781773
 20
107.4145106163
 30
0.0
 40
2.0
 41
0.0
 71
     1
 72
     1
  1
%%c
  7
SLDTEXTSTYLE0
 11
-7.044195017643634E-15
 21
1.0
 31
0.0
 73
     1
 44
1.0
  0
MTEXT
  5
1E8
330
1DF
100
AcDbEntity
  8
VERMASSUNG
100
AcDbMText
 10
228.5118782938
 20
111.0231888395
 30
0.0
 40
2.0
 41
0.0
 71
     1
 72
     1
  1
20
  7
SLDTEXTSTYLE0
 11
-7.044195017643634E-15
 21
1.0
 31
0.0
 73
     1
 44
1.0
  0
ENDBLK
  5
1E1
330
1DF
100
AcDbEntity
  8
0
100
AcDbBlockEnd
  0
BLOCK
  5
1EB
330
1EA
100
AcDbEntity
  8
0
100
AcDbBlockBegin
  2
*D6
 70
     1
 10
0.0
 20
0.0
 30
0.0
  3
*D6
  1

  0
SOLID
  5
1ED
330
1EA
100
AcDbEntity
  8
VERMASSUNG
100
AcDbTrace
 10
237.0900136569
 20
136.6182278427
 30
0.0
 11
236.6400136569
 21
133.6182278427
 31
0.0
 12
237.5400136569
 22
133.6182278427
 32
0.0
 13
237.5400136569
 23
133.6182278427
 33
0.0
  0
SOLID
  5
1EE
330
1EA
100
AcDbEntity
  8
VERMASSUNG
100
AcDbTrace
 10
237.0900136569
 20
84.6182278427
 30
0.0
 11
237.5400136569
 21
87.6182278427
 31
0.0
 12
236.6400136569
 22
87.6182278427
 32
0.0
 13
236.6400136569
 23
87.6182278427
 33
0.0
  0
LINE
  5
1EF
330
1EA
100
AcDbEntity
  8
VERMASSUNG
100
AcDbLine
 10
210.9007651742
 20
136.6182278427
 30
0.0
 11
238.0900136569
 21
136.6182278427
 31
0.0
  0
LINE
  5
1F0
330
1EA
100
AcDbEntity
  8
VERMASSUNG
100
AcDbLine
 10
210.9007651742
 20
84.6182278427
 30
0.0
 11
238.0900136569
 21
84.6182278427
 31
0.0
  0
LINE
  5
1F1
330
1EA
100
AcDbEntity
  8
VERMASSUNG
100
AcDbLine
 10
237.0900136569
 20
136.6182278427
 30
0.0
 11
237.0900136569
 21
84.6182278427
 31
0.0
  0
MTEXT
  5
1F2
330
1EA
100
AcDbEntity
  8
VERMASSUNG
100
AcDbMText
 10
234.5118781773
 20
107.4145106163
 30
0.0
 40
2.0
 41
0.0
 71
     1
 72
     1
  1
%%c
  7
SLDTEXTSTYLE0
 11
-7.044195017643634E-15
 21
1.0
 31
0.0
 73
     1
 44
1.0
  0
MTEXT
  5
1F3
330
1EA
100
AcDbEntity
  8
VERMASSUNG
100
AcDbMText
 10
234.5118782938
 20
111.0231888395
 30
0.0
 40
2.0
 41
0.0
 71
     1
 72
     1
  1
52
  7
SLDTEXTSTYLE0
 11
-7.044195017643634E-15
 21
1.0
 31
0.0
 73
     1
 44
1.0
  0
ENDBLK
  5
1EC
330
1EA
100
AcDbEntity
  8
0
100
AcDbBlockEnd
  0
ENDSEC
  0
SECTION
  2
ENTITIES
  0
MTEXT
  5
45
330
1F
100
AcDbEntity
  8
KOPF_DÜNN
100
AcDbMText
 10
13.8892156294
 20
23.8442973028
 30
0.0
 40
3.0
 41
0.0
 71
     1
 72
     1
  1
HA0.W20.K21.100
  7
SLDTEXTSTYLE0
 73
     1
 44
1.0
  0
MTEXT
  5
46
330
1F
100
AcDbEntity
  8
VERMASSUNG
100
AcDbMText
 10
13.9329988022
 20
28.8834360957
 30
0.0
 40
3.0
 41
0.0
 71
     1
 72
     1
  1
Flächenspannfutter_End mill adapter Weldon ø20
  7
SLDTEXTSTYLE0
 73
     1
 44
1.0
  0
MTEXT
  5
47
330
1F
100
AcDbEntity
  8
VERMASSUNG
100
AcDbMText
 10
98.8601118557
 20
13.8365368179
 30
0.0
 40
2.0
 41
0.0
 71
     1
 72
     1
  1
Datum: 10.10.2006
  7
SLDTEXTSTYLE0
 73
     1
 44
1.0
  0
MTEXT
  5
49
330
1F
100
AcDbEntity
  8
VERMASSUNG
100
AcDbMText
 10
13.933048693
 20
18.0482802738
 30
0.0
 40
2.0
 41
0.0
 71
     1
 72
     1
  1
DIN 69 893 HSK A 100
  7
SLDTEXTSTYLE1
 73
     1
 44
1.0
  0
MTEXT
  5
4A
330
1F
100
AcDbEntity
  8
VERMASSUNG
100
AcDbMText
 10
13.9808475933
 20
13.9090973692
 30
0.0
 40
2.0
 41
0.0
 71
     1
 72
     1
  1
Gewicht: 2966g
  7
SLDTEXTSTYLE0
 73
     1
 44
1.0
  0
ARC
  5
4B
330
1F
100
AcDbEntity
  8
0
  6
Continuous
 62
     7
370
    15
100
AcDbCircle
 10
124.2678066973
 20
61.1182278427
 30
0.0
 40
0.5
100
AcDbArc
 50
180.0
 51
270.0
  0
ARC
  5
4C
330
1F
100
AcDbEntity
  8
0
  6
Continuous
 62
     7
370
    15
100
AcDbCircle
 10
124.2678066973
 20
160.1182278427
 30
0.0
 40
0.5
100
AcDbArc
 50
90.0
 51
180.0
  0
LINE
  5
4D
330
1F
100
AcDbEntity
  8
0
  6
Continuous
 62
     7
370
    15
100
AcDbLine
 10
124.2678066973
 20
60.6182278427
 30
0.0
 11
128.7178066973
 21
60.6182278427
 31
0.0
  0
LINE
  5
4E
330
1F
100
AcDbEntity
  8
0
  6
Continuous
 62
     7
370
    15
100
AcDbLine
 10
128.7518795297
 20
160.6182278427
 30
0.0
 11
124.2678066973
 21
160.6182278427
 31
0.0
  0
ARC
  5
4F
330
1F
100
AcDbEntity
  8
0
  6
Continuous
 62
     7
370
    15
100
AcDbCircle
 10
122.8708697788
 20
71.9897425183
 30
0.0
 40
0.9962338214386932
100
AcDbArc
 50
25.7988228126
 51
90.0
  0
ARC
  5
50
330
1F
100
AcDbEntity
  8
0
  6
Continuous
 62
     7
370
    15
100
AcDbCircle
 10
122.8708697788
 20
149.2467131672
 30
0.0
 40
0.9962338214386932
100
AcDbArc
 50
270.0
 51
334.2011771874
  0
LINE
  5
51
330
1F
100
AcDbEntity
  8
0
  6
Continuous
 62
     7
370
    15
100
AcDbLine
 10
121.2678066973
 20
72.7359763397
 30
0.0
 11
122.0736528517
 21
72.951902166
 31
0.0
  0
LINE
  5
52
330
1F
100
AcDbEntity
  8
0
  6
Continuous
 62
     7
370
    15
100
AcDbLine
 10
122.0736528517
 20
148.2845535195
 30
0.0
 11
121.2678066973
 21
148.5004793457
 31
0.0
  0
LINE
  5
53
330
1F
100
AcDbEntity
  8
0
  6
Continuous
 62
     7
370
    15
100
AcDbLine
 10
102.2871277786
 20
147.5495435282
 30
0.0
 11
83.9678066973
 21
146.6317418708
 31
0.0
  0
LINE
  5
54
330
1F
100
AcDbEntity
  8
0
  6
Continuous
 62
     7
370
    15
100
AcDbLine
 10
121.2678066973
 20
148.5004793457
 30
0.0
 11
115.1997675428
 21
148.1964693681
 31
0.0
  0
LINE
  5
55
330
1F
100
AcDbEntity
  8
0
  6
Continuous
 62
     7
370
    15
100
AcDbLine
 10
115.1998908193
 20
73.0399801412
 30
0.0
 11
121.2678066973
 21
72.7359763397
 31
0.0
  0
LINE
  5
56
330
1F
100
AcDbEntity
  8
0
  6
Continuous
 62
     7
370
    15
100
AcDbLine
 10
88.9678066973
 20
74.3542128127
 30
0.0
 11
102.2877578512
 21
73.6868805905
 31
0.0
  0
ARC
  5
57
330
1F
100
AcDbEntity
  8
0
  6
Continuous
 62
     7
370
    15
100
AcDbCircle
 10
122.3324718968
 20
71.9859763397
 30
0.0
 40
1.000000000000013
100
AcDbArc
 50
90.0
 51
105.0
  0
ARC
  5
58
330
1F
100
AcDbEntity
  8
0
  6
Continuous
 62
     7
370
    15
100
AcDbCircle
 10
122.3324718968
 20
149.2504793457
 30
0.0
 40
1.000000000000027
100
AcDbArc
 50
255.0
 51
270.0
  0
LINE
  5
59
330
1F
100
AcDbEntity
  8
0
  6
Continuous
 62
     7
370
    15
100
AcDbLine
 10
122.3324718968
 20
72.9859763397
 30
0.0
 11
122.8708697788
 21
72.9859763397
 31
0.0
  0
LINE
  5
5A
330
1F
100
AcDbEntity
  8
0
  6
Continuous
 62
     7
370
    15
100
AcDbLine
 10
122.8708697788
 20
148.2504793457
 30
0.0
 11
122.3324718968
 21
148.2504793457
 31
0.0
  0
ARC
  5
5B
330
1F
100
AcDbEntity
  8
0
  6
Continuous
 62
     7
370
    15
100
AcDbCircle
 10
157.7178066973
 20
79.6182278427
 30
0.0
 40
5.000000000000014
100
AcDbArc
 50
90.0
 51
180.0
  0
ARC
  5
5C
330
1F
100
AcDbEntity
  8
0
  6
Continuous
 62
     7
370
    15
100
AcDbCircle
 10
157.7178066973
 20
141.6182278427
 30
0.0
 40
5.0
100
AcDbArc
 50
180.0
 51
270.0
  0
LINE
  5
5D
330
1F
100
AcDbEntity
  8
0
  6
Continuous
 62
     7
370
    15
100
AcDbLine
 10
169.1846486994
 20
84.6182278427
 30
0.0
 11
210.9007651742
 21
84.6182278427
 31
0.0
  0
LINE
  5
5E
330
1F
100
AcDbEntity
  8
0
  6
Continuous
 62
     7
370
    15
100
AcDbLine
 10
157.7178066973
 20
84.6182278427
 30
0.0
 11
162.2611183586
 21
84.6182278427
 31
0.0
  0
LINE
  5
5F
330
1F
100
AcDbEntity
  8
0
  6
Continuous
 62
     7
370
    15
100
AcDbLine
 10
162.2463614014
 20
136.6182278427
 30
0.0
 11
157.7178066973
 21
136.6182278427
 31
0.0
  0
LINE
  5
60
330
1F
100
AcDbEntity
  8
0
  6
Continuous
 62
     7
370
    15
100
AcDbLine
 10
210.9007651742
 20
136.6182278427
 30
0.0
 11
169.1738451271
 21
136.6182278427
 31
0.0
  0
LINE
  5
61
330
1F
100
AcDbEntity
  8
0
  6
Continuous
 62
     7
370
    15
100
AcDbLine
 10
210.9007651742
 20
84.6182278427
 30
0.0
 11
222.6130432208
 21
90.0797527903
 31
0.0
  0
LINE
  5
62
330
1F
100
AcDbEntity
  8
0
  6
Continuous
 62
     7
370
    15
100
AcDbLine
 10
222.6130432208
 20
131.1567028952
 30
0.0
 11
210.9007651742
 21
136.6182278427
 31
0.0
  0
ARC
  5
63
330
1F
100
AcDbEntity
  8
0
  6
Continuous
 62
     7
370
    15
100
AcDbCircle
 10
221.7678066973
 20
91.8923683644
 30
0.0
 40
2.0
100
AcDbArc
 50
295.0
 51
0.0
  0
ARC
  5
64
330
1F
100
AcDbEntity
  8
0
  6
Continuous
 62
     7
370
    15
100
AcDbCircle
 10
221.7678066973
 20
129.3440873211
 30
0.0
 40
2.000000000000013
100
AcDbArc
 50
0.0
 51
65.0
  0
LINE
  5
65
330
1F
100
AcDbEntity
  8
0
  6
Continuous
 62
     7
370
    15
100
AcDbLine
 10
75.5178066973
 20
78.3682278427
 30
0.0
 11
87.0678066973
 21
78.3682278427
 31
0.0
  0
ARC
  5
66
330
1F
100
AcDbEntity
  8
0
  6
Continuous
 62
     7
370
    15
100
AcDbCircle
 10
87.0678066973
 20
76.4682278427
 30
0.0
 40
1.899999999999999
100
AcDbArc
 50
35.6630613694
 51
90.0
  0
ARC
  5
67
330
1F
100
AcDbEntity
  8
0
  6
Continuous
 62
     7
370
    15
100
AcDbCircle
 10
82.0678066973
 20
144.7682278427
 30
0.0
 40
1.899999999999986
100
AcDbArc
 50
270.0
 51
310.9212832533
  0
LINE
  5
68
330
1F
100
AcDbEntity
  8
0
  6
Continuous
 62
     7
370
    15
100
AcDbLine
 10
75.5178066973
 20
142.8682278427
 30
0.0
 11
73.9184905784
 21
141.2689117239
 31
0.0
  0
LINE
  5
69
330
1F
100
AcDbEntity
  8
0
  6
Continuous
 62
     7
370
    15
100
AcDbLine
 10
73.9193279483
 20
79.9667065917
 30
0.0
 11
75.5178066973
 21
78.3682278427
 31
0.0
  0
LINE
  5
6A
330
1F
100
AcDbEntity
  8
0
  6
Continuous
 62
     7
370
    15
100
AcDbLine
 10
82.0678066973
 20
142.8682278427
 30
0.0
 11
75.5178066973
 21
142.8682278427
 31
0.0
  0
LINE
  5
6B
330
1F
100
AcDbEntity
  8
0
  6
Continuous
 62
     7
370
    15
100
AcDbLine
 10
223.7678066973
 20
98.6746903185
 30
0.0
 11
223.8327076329
 21
98.7948708645
 31
0.0
  0
LINE
  5
6C
330
1F
100
AcDbEntity
  8
0
  6
Continuous
 62
     7
370
    15
100
AcDbLine
 10
223.7738179093
 20
122.443220913
 30
0.0
 11
223.7678066973
 21
122.4543521969
 31
0.0
  0
LINE
  5
6D
330
1F
100
AcDbEntity
  8
0
  6
Continuous
 62
     7
370
    15
100
AcDbLine
 10
152.7178066973
 20
62.8688822975
 30
0.0
 11
152.7178066973
 21
141.9682278427
 31
0.0
  0
SPLINE
  5
6E
330
1F
100
AcDbEntity
  8
0
  6
Continuous
 62
     7
370
    15
100
AcDbSpline
210
0.0
220
0.0
230
1.0
 70
     8
 71
     3
 72
    14
 73
    10
 74
     0
 42
0.00000001
 43
0.00000001
 40
0.0
 40
0.0
 40
0.0
 40
0.0
 40
0.25
 40
0.25
 40
0.5
 40
0.5
 40
0.75
 40
0.75
 40
1.0
 40
1.0
 40
1.0
 40
1.0
 10
152.717806697285
 20
62.86888229748202
 30
0.0
 10
152.717806697285
 20
62.73545660142749
 30
0.0
 10
152.6924955973741
 20
62.60360879358312
 30
0.0
 10
152.5941608335294
 20
62.35708624488903
 30
0.0
 10
152.5210168292733
 20
62.24328105664848
 30
0.0
 10
152.3375787681776
 20
62.05282387970121
 30
0.0
 10
152.225892433839
 20
61.97518901585129
 30
0.0
 10
151.9833890035327
 20
61.87089760573882
 30
0.0
 10
151.8500145748385
 20
61.84323424970647
 30
0.0
 10
151.717806697285
 20
61.84323424970648
 30
0.0
  0
SPLINE
  5
6F
330
1F
100
AcDbEntity
  8
0
  6
Continuous
 62
     7
370
    15
100
AcDbSpline
210
0.0
220
0.0
230
1.0
 70
    24
 71
     3
 72
    12
 73
     8
 74
     0
 42
0.00000001
 43
0.00000001
 40
0.0
 40
0.0
 40
0.0
 40
0.0
 40
0.2500000000000032
 40
0.2500000000000032
 40
0.5000000000000064
 40
0.5000000000000064
 40
1.0
 40
1.0
 40
1.0
 40
1.0
 10
151.717806697285
 20
141.9682278427353
 30
0.0
 10
151.86989693423
 20
141.9682278427353
 30
0.0
 10
152.0183561953054
 20
141.9682278427353
 30
0.0
 10
152.2757598275711
 20
141.9682278427353
 30
0.0
 10
152.384864575413
 20
141.9682278427353
 30
0.0
 10
152.6389240518205
 20
141.9682278427353
 30
0.0
 10
152.717806697285
 20
141.9682278427353
 30
0.0
 10
152.717806697285
 20
141.9682278427353
 30
0.0
  0
LINE
  5
70
330
1F
100
AcDbEntity
  8
0
  6
Continuous
 62
     7
370
    15
100
AcDbLine
 10
123.7678066973
 20
61.1182278427
 30
0.0
 11
123.7678066973
 21
160.1182278381
 31
0.0
  0
LINE
  5
71
330
1F
100
AcDbEntity
  8
0
  6
Continuous
 62
     7
370
    15
100
AcDbLine
 10
147.0298357182
 20
61.8432342497
 30
0.0
 11
147.0298357182
 21
141.9682278427
 31
0.0
  0
SPLINE
  5
72
330
1F
100
AcDbEntity
  8
0
  6
Continuous
 62
     7
370
    15
100
AcDbSpline
210
0.0
220
0.0
230
1.0
 70
     8
 71
     3
 72
     8
 73
     4
 74
     0
 42
0.00000001
 43
0.00000001
 40
0.0
 40
0.0
 40
0.0
 40
0.0
 40
1.0
 40
1.0
 40
1.0
 40
1.0
 10
147.0298357182064
 20
61.84323424970651
 30
0.0
 10
146.5787309888061
 20
62.64419418152642
 30
0.0
 10
146.1280331615627
 20
63.44538419308709
 30
0.0
 10
145.677806697285
 20
64.24683955571186
 30
0.0
  0
LINE
  5
73
330
1F
100
AcDbEntity
  8
0
  6
Continuous
 62
     7
370
    15
100
AcDbLine
 10
145.6778066973
 20
64.2468395557
 30
0.0
 11
145.6778066973
 21
141.9682278427
 31
0.0
  0
SPLINE
  5
74
330
1F
100
AcDbEntity
  8
0
  6
Continuous
 62
     7
370
    15
100
AcDbSpline
210
0.0
220
0.0
230
1.0
 70
    24
 71
     3
 72
     8
 73
     4
 74
     0
 42
0.00000001
 43
0.00000001
 40
0.0
 40
0.0
 40
0.0
 40
0.0
 40
1.0
 40
1.0
 40
1.0
 40
1.0
 10
145.677806697285
 20
141.9682278427353
 30
0.0
 10
146.1220195796389
 20
141.9682278427353
 30
0.0
 10
146.5730341458781
 20
141.9682278427353
 30
0.0
 10
147.0298357182064
 20
141.9682278427353
 30
0.0
  0
LINE
  5
75
330
1F
100
AcDbEntity
  8
0
  6
Continuous
 62
     7
370
    15
100
AcDbLine
 10
151.7178066973
 20
61.8432342497
 30
0.0
 11
147.0298357182
 21
61.8432342497
 31
0.0
  0
LINE
  5
76
330
1F
100
AcDbEntity
  8
0
  6
Continuous
 62
     7
370
    15
100
AcDbLine
 10
147.0298357182
 20
141.9682278427
 30
0.0
 11
151.7178066973
 21
141.9682278427
 31
0.0
  0
LINE
  5
77
330
1F
100
AcDbEntity
  8
0
  6
Continuous
 62
     7
370
    15
100
AcDbLine
 10
141.8578066973
 20
64.2468395557
 30
0.0
 11
141.8578066973
 21
141.9682278427
 31
0.0
  0
SPLINE
  5
78
330
1F
100
AcDbEntity
  8
0
  6
Continuous
 62
     7
370
    15
100
AcDbSpline
210
0.0
220
0.0
230
1.0
 70
     8
 71
     3
 72
     8
 73
     4
 74
     0
 42
0.00000001
 43
0.00000001
 40
0.0
 40
0.0
 40
0.0
 40
0.0
 40
1.0
 40
1.0
 40
1.0
 40
1.0
 10
141.857806697285
 20
64.24683955571186
 30
0.0
 10
141.4075802330072
 20
63.44538419308709
 30
0.0
 10
140.9568824057638
 20
62.64419418152642
 30
0.0
 10
140.5057776763636
 20
61.84323424970651
 30
0.0
  0
LINE
  5
79
330
1F
100
AcDbEntity
  8
0
  6
Continuous
 62
     7
370
    15
100
AcDbLine
 10
140.5057776764
 20
61.8432342497
 30
0.0
 11
140.5057776764
 21
141.9682278427
 31
0.0
  0
SPLINE
  5
7A
330
1F
100
AcDbEntity
  8
0
  6
Continuous
 62
     7
370
    15
100
AcDbSpline
210
0.0
220
0.0
230
1.0
 70
    24
 71
     3
 72
     8
 73
     4
 74
     0
 42
0.00000001
 43
0.00000001
 40
0.0
 40
0.0
 40
0.0
 40
0.0
 40
1.0
 40
1.0
 40
1.0
 40
1.0
 10
140.5057776763636
 20
141.9682278427353
 30
0.0
 10
140.9625792486918
 20
141.9682278427353
 30
0.0
 10
141.413593814931
 20
141.9682278427353
 30
0.0
 10
141.857806697285
 20
141.9682278427353
 30
0.0
  0
LINE
  5
7B
330
1F
100
AcDbEntity
  8
0
  6
Continuous
 62
     7
370
    15
100
AcDbLine
 10
128.7178066973
 20
141.9682278427
 30
0.0
 11
140.5057776764
 21
141.9682278427
 31
0.0
  0
LINE
  5
7C
330
1F
100
AcDbEntity
  8
0
  6
Continuous
 62
     7
370
    15
100
AcDbLine
 10
140.5057776764
 20
61.8432342497
 30
0.0
 11
138.7178066973
 21
61.8432342497
 31
0.0
  0
SPLINE
  5
7D
330
1F
100
AcDbEntity
  8
0
  6
Continuous
 62
     7
370
    15
100
AcDbSpline
210
0.0
220
0.0
230
1.0
 70
     8
 71
     3
 72
    30
 73
    26
 74
     0
 42
0.00000001
 43
0.00000001
 40
0.0
 40
0.0
 40
0.0
 40
0.0
 40
0.1250000000000002
 40
0.1250000000000002
 40
0.1875000000000003
 40
0.1875000000000003
 40
0.2500000000000004
 40
0.2500000000000004
 40
0.3750000000000001
 40
0.3750000000000001
 40
0.4374999999999998
 40
0.4374999999999998
 40
0.4999999999999996
 40
0.4999999999999996
 40
0.6249999999999996
 40
0.6249999999999996
 40
0.6874999999999997
 40
0.6874999999999997
 40
0.7499999999999997
 40
0.7499999999999997
 40
0.8124999999999998
 40
0.8124999999999998
 40
0.8749999999999999
 40
0.8749999999999999
 40
1.0
 40
1.0
 40
1.0
 40
1.0
 10
138.7178066972849
 20
61.84323424970651
 30
0.0
 10
138.0550620034399
 20
61.84323424970652
 30
0.0
 10
137.4038061443242
 20
61.8283941731177
 30
0.0
 10
136.4433556060659
 20
61.78602460888808
 30
0.0
 10
136.125964162833
 20
61.76854650610891
 30
0.0
 10
135.4968006612781
 20
61.7272182195566
 30
0.0
 10
135.1846524748364
 20
61.70329294609891
 30
0.0
 10
134.2773451729881
 20
61.62448642963199
 30
0.0
 10
133.7039202153469
 20
61.56218040965553
 30
0.0
 10
132.8900433457722
 20
61.45905108941617
 30
0.0
 10
132.6252371492023
 20
61.42286717036966
 30
0.0
 10
132.118329738388
 20
61.34907238616915
 30
0.0
 10
131.8769355870345
 20
61.31159852739751
 30
0.0
 10
131.1877941149022
 20
61.19888658405777
 30
0.0
 10
130.7747393000379
 20
61.12335048658399
 30
0.0
 10
130.2265844806629
 20
61.0149572295665
 30
0.0
 10
130.0571218733173
 20
60.97988499790323
 30
0.0
 10
129.7491046253019
 20
60.91364953730339
 30
0.0
 10
129.6097246046936
 20
60.88232284054867
 30
0.0
 10
129.3599390920668
 20
60.82391406896773
 30
0.0
 10
129.2495329794129
 20
60.79683083378488
 30
0.0
 10
129.0582751257752
 20
60.7475710791713
 30
0.0
 10
128.9771556074909
 20
60.72530909936366
 30
0.0
 10
128.7830086873825
 20
60.66774219219538
 30
0.0
 10
128.7178066972849
 20
60.64148258740939
 30
0.0
 10
128.7178066972849
 20
60.62822884293536
 30
0.0
  0
LINE
  5
7E
330
1F
100
AcDbEntity
  8
0
  6
Continuous
 62
     7
370
    15
100
AcDbLine
 10
128.7178066973
 20
60.6282288429
 30
0.0
 11
128.7178066973
 21
60.6182278427
 31
0.0
  0
SPLINE
  5
7F
330
1F
100
AcDbEntity
  8
0
  6
Continuous
 62
     7
370
    15
100
AcDbSpline
210
0.0
220
0.0
230
1.0
 70
     8
 71
     3
 72
    17
 73
    13
 74
     0
 42
0.00000001
 43
0.00000001
 40
0.0
 40
0.0
 40
0.0
 40
0.0
 40
0.104384384054747
 40
0.2118345768143993
 40
0.316208200519045
 40
0.4235375806108392
 40
0.5292276236193852
 40
0.6379275864803491
 40
0.7444714844189683
 40
0.8541836219421859
 40
0.9593080534965217
 40
1.0
 40
1.0
 40
1.0
 40
1.0
 10
138.7178066972849
 20
159.6080226983989
 30
0.0
 10
138.1698682494256
 20
159.6133909021476
 30
0.0
 10
137.0578981949609
 20
159.6242849758126
 30
0.0
 10
135.4450422817459
 20
159.7094623500715
 30
0.0
 10
133.911529064769
 20
159.8358370563641
 30
0.0
 10
132.5205082154324
 20
159.9927398769409
 30
0.0
 10
131.284991698202
 20
160.1644387064615
 30
0.0
 10
130.2616359310467
 20
160.3297749825625
 30
0.0
 10
129.4612939327816
 20
160.4734884621491
 30
0.0
 10
128.950961830868
 20
160.5716432693283
 30
0.0
 10
128.7110534020435
 20
160.6195716661981
 30
0.0
 10
128.7429721814633
 20
160.6132042669585
 30
0.0
 10
128.7518795297455
 20
160.6114273618353
 30
0.0
  0
LINE
  5
80
330
1F
100
AcDbEntity
  8
0
  6
Continuous
 62
     7
370
    15
100
AcDbLine
 10
140.5057776764
 20
159.6080226984
 30
0.0
 11
138.7178066973
 21
159.6080226984
 31
0.0
  0
LINE
  5
81
330
1F
100
AcDbEntity
  8
0
  6
Continuous
 62
     7
370
    15
100
AcDbLine
 10
140.5057776764
 20
149.5691906036
 30
0.0
 11
140.5057776764
 21
159.6080226984
 31
0.0
  0
LINE
  5
82
330
1F
100
AcDbEntity
  8
0
  6
Continuous
 62
     7
370
    15
100
AcDbLine
 10
138.4257735455
 20
149.5691906036
 30
0.0
 11
140.5057776764
 21
149.5691906036
 31
0.0
  0
SPLINE
  5
83
330
1F
100
AcDbEntity
  8
0
  6
Continuous
 62
     7
370
    15
100
AcDbSpline
210
0.0
220
0.0
230
1.0
 70
     8
 71
     3
 72
    22
 73
    18
 74
     0
 42
0.00000001
 43
0.00000001
 40
0.0
 40
0.0
 40
0.0
 40
0.0
 40
0.2500000000000002
 40
0.2500000000000002
 40
0.3750000000000003
 40
0.3750000000000003
 40
0.5000000000000004
 40
0.5000000000000004
 40
0.6250000000000004
 40
0.6250000000000004
 40
0.7500000000000004
 40
0.7500000000000004
 40
0.8750000000000004
 40
0.8750000000000004
 40
0.9375000000000002
 40
0.9375000000000002
 40
1.0
 40
1.0
 40
1.0
 40
1.0
 10
128.7178066972849
 20
141.9682278427353
 30
0.0
 10
128.9205316532041
 20
142.9874741846
 30
0.0
 10
129.2352753749994
 20
143.9465823345392
 30
0.0
 10
129.9433308446704
 20
145.2890614120485
 30
0.0
 10
130.221793474888
 20
145.7232699947886
 30
0.0
 10
130.8605608815252
 20
146.5348977102906
 30
0.0
 10
131.2209745613154
 20
146.9141780032275
 30
0.0
 10
132.0385067933047
 20
147.6171365822485
 30
0.0
 10
132.4996747765918
 20
147.9421653999491
 30
0.0
 10
133.4976650230756
 20
148.50718072334
 30
0.0
 10
134.0374242170679
 20
148.7508843175465
 30
0.0
 10
135.2120171810992
 20
149.1550842451914
 30
0.0
 10
135.8237533670911
 20
149.3075214382369
 30
0.0
 10
136.7756625919528
 20
149.4628489858457
 30
0.0
 10
137.0988957562135
 20
149.5023537658957
 30
0.0
 10
137.7579589274887
 20
149.5556628865644
 30
0.0
 10
138.0920229380627
 20
149.5691906036222
 30
0.0
 10
138.4257735454643
 20
149.5691906036222
 30
0.0
  0
SPLINE
  5
84
330
1F
100
AcDbEntity
  8
0
  6
Continuous
 62
     7
370
    15
100
AcDbSpline
210
0.0
220
0.0
230
1.0
 70
     8
 71
     3
 72
    80
 73
    76
 74
     0
 42
0.00000001
 43
0.00000001
 40
-0.0312499999999993
 40
-0.0312499999999993
 40
0.0
 40
0.0
 40
0.03125
 40
0.03125
 40
0.046875
 40
0.046875
 40
0.0625
 40
0.0625
 40
0.09375
 40
0.09375
 40
0.1250000000000001
 40
0.1250000000000001
 40
0.1562500000000001
 40
0.1562500000000001
 40
0.1875000000000001
 40
0.1875000000000001
 40
0.2187500000000002
 40
0.2187500000000002
 40
0.2500000000000002
 40
0.2500000000000002
 40
0.2812500000000003
 40
0.2812500000000003
 40
0.3125000000000003
 40
0.3125000000000003
 40
0.3281250000000004
 40
0.3281250000000004
 40
0.3437500000000006
 40
0.3437500000000006
 40
0.3750000000000011
 40
0.3750000000000011
 40
0.4062500000000016
 40
0.4062500000000016
 40
0.4218750000000018
 40
0.4218750000000018
 40
0.437500000000002
 40
0.437500000000002
 40
0.4687500000000023
 40
0.4687500000000023
 40
0.5000000000000027
 40
0.5000000000000027
 40
0.531250000000003
 40
0.531250000000003
 40
0.5625000000000033
 40
0.5625000000000033
 40
0.5937500000000037
 40
0.5937500000000037
 40
0.6250000000000039
 40
0.6250000000000039
 40
0.6562500000000042
 40
0.6562500000000042
 40
0.6875000000000046
 40
0.6875000000000046
 40
0.7031250000000047
 40
0.7031250000000047
 40
0.7187500000000048
 40
0.7187500000000048
 40
0.7500000000000048
 40
0.7500000000000048
 40
0.7812500000000048
 40
0.7812500000000048
 40
0.7968750000000044
 40
0.7968750000000044
 40
0.8125000000000041
 40
0.8125000000000041
 40
0.8437500000000034
 40
0.8437500000000034
 40
0.8750000000000027
 40
0.8750000000000027
 40
0.906250000000002
 40
0.906250000000002
 40
0.9375000000000013
 40
0.9375000000000013
 40
0.9687500000000007
 40
0.9687500000000007
 40
1.0
 40
1.0
 40
1.03125
 40
1.03125
 10
133.0983520100613
 20
154.0328573063666
 30
0.0
 10
132.4372613845086
 20
154.0328573063666
 30
0.0
 10
132.112281255257
 20
154.0490655377488
 30
0.0
 10
131.6328078440106
 20
154.0964301697683
 30
0.0
 10
131.4743260261698
 20
154.116084381659
 30
0.0
 10
131.1601064936655
 20
154.1631955378516
 30
0.0
 10
131.0039862099851
 20
154.1907768573463
 30
0.0
 10
130.5499321810285
 20
154.2833126441401
 30
0.0
 10
130.2628287980887
 20
154.3583830777366
 30
0.0
 10
129.7194742420617
 20
154.5336213863472
 30
0.0
 10
129.4623706308561
 20
154.6346226841854
 30
0.0
 10
129.0014643759173
 20
154.8519788826463
 30
0.0
 10
128.7945666667024
 20
154.9691432144186
 30
0.0
 10
128.4290413527102
 20
155.2192131386472
 30
0.0
 10
128.2738358305842
 20
155.3501592274062
 30
0.0
 10
128.0244054439845
 20
155.6158941711186
 30
0.0
 10
127.9283154881993
 20
155.7526477644295
 30
0.0
 10
127.7997966390057
 20
156.0267133392685
 30
0.0
 10
127.7679857688279
 20
156.1616534297373
 30
0.0
 10
127.7676291190547
 20
156.4271250668061
 30
0.0
 10
127.8001263712518
 20
156.5589495439473
 30
0.0
 10
127.9277518449662
 20
156.8083991435677
 30
0.0
 10
128.0221802460181
 20
156.9268318354957
 30
0.0
 10
128.2100410660037
 20
157.0957010325898
 30
0.0
 10
128.2808690648069
 20
157.15078702771
 30
0.0
 10
128.4355909567722
 20
157.2560398561984
 30
0.0
 10
128.5195674269555
 20
157.3063750849587
 30
0.0
 10
128.7908910966
 20
157.4509509174968
 30
0.0
 10
128.9974403152023
 20
157.5388125039138
 30
0.0
 10
129.4640504553913
 20
157.6985335969133
 30
0.0
 10
129.7164160250168
 20
157.7677718933805
 30
0.0
 10
130.1223173666955
 20
157.8575592826103
 30
0.0
 10
130.262217984173
 20
157.8851252446966
 30
0.0
 10
130.5514419194199
 20
157.9356160456229
 30
0.0
 10
130.7012813757092
 20
157.9585794844735
 30
0.0
 10
131.15539794532
 20
158.0192100008924
 30
0.0
 10
131.4670491640568
 20
158.0492840296882
 30
0.0
 10
132.1080456289692
 20
158.0898736169469
 30
0.0
 10
132.4395732569214
 20
158.1001858471629
 30
0.0
 10
133.0923643019929
 20
158.1002614143287
 30
0.0
 10
133.4169005070247
 20
158.090359808861
 30
0.0
 10
134.0621699564411
 20
158.0498732783357
 30
0.0
 10
134.3779129626038
 20
158.019411978451
 30
0.0
 10
134.9798022575875
 20
157.9392613070144
 30
0.0
 10
135.270551488399
 20
157.8889790752073
 30
0.0
 10
135.8174632800835
 20
157.7683088924343
 30
0.0
 10
136.0692406439204
 20
157.6990850332643
 30
0.0
 10
136.5306286365415
 20
157.5416333056236
 30
0.0
 10
136.7418979161396
 20
157.4522848309498
 30
0.0
 10
137.1052022685158
 20
157.259036960249
 30
0.0
 10
137.2590089169586
 20
157.1549089683698
 30
0.0
 10
137.447628386556
 20
156.9862845821863
 30
0.0
 10
137.5036588727651
 20
156.9276561805113
 30
0.0
 10
137.5992326345013
 20
156.8082012656851
 30
0.0
 10
137.6389955515263
 20
156.7472814768469
 30
0.0
 10
137.7347673018384
 20
156.560876750673
 30
0.0
 10
137.7674901409645
 20
156.431763932878
 30
0.0
 10
137.7681187272936
 20
156.1631070099221
 30
0.0
 10
137.7359325825589
 20
156.0277362691653
 30
0.0
 10
137.6410218807032
 20
155.8241859609294
 30
0.0
 10
137.6015550973043
 20
155.756214036866
 30
0.0
 10
137.5066250985834
 20
155.6201218137351
 30
0.0
 10
137.4508682708201
 20
155.5517717135256
 30
0.0
 10
137.2629281528502
 20
155.3510687004836
 30
0.0
 10
137.109566683134
 20
155.2216804266708
 30
0.0
 10
136.7473024482536
 20
154.973014994621
 30
0.0
 10
136.5364539747877
 20
154.8532053522528
 30
0.0
 10
136.0757840044688
 20
154.6356830646801
 30
0.0
 10
135.824409624885
 20
154.5365979648442
 30
0.0
 10
135.2785017379869
 20
154.3599254909274
 30
0.0
 10
134.9876791633356
 20
154.2838684027933
 30
0.0
 10
134.3863525485556
 20
154.1610234254404
 30
0.0
 10
134.0718339639432
 20
154.1133173003873
 30
0.0
 10
133.4252525078233
 20
154.0490687652676
 30
0.0
 10
133.0983520100613
 20
154.0328573063666
 30
0.0
 10
132.4372613845086
 20
154.0328573063666
 30
0.0
  0
SPLINE
  5
85
330
1F
100
AcDbEntity
  8
0
  6
Continuous
 62
     7
370
    15
100
AcDbSpline
210
0.0
220
0.0
230
1.0
 70
     8
 71
     3
 72
    12
 73
     8
 74
     0
 42
0.00000001
 43
0.00000001
 40
0.0
 40
0.0
 40
0.0
 40
0.0
 40
0.25
 40
0.25
 40
0.5
 40
0.5
 40
1.0
 40
1.0
 40
1.0
 40
1.0
 10
142.6578066972849
 20
65.97855238468567
 30
0.0
 10
142.552046043936
 20
65.97855238468567
 30
0.0
 10
142.4440584157531
 20
65.95601287868527
 30
0.0
 10
142.2494637504875
 20
65.87144224668995
 30
0.0
 10
142.1605918376486
 20
65.80896059393118
 30
0.0
 10
141.9413995453228
 20
65.579571642459
 30
0.0
 10
141.8578066972849
 20
65.36698830493661
 30
0.0
 10
141.8578066972849
 20
65.15504906034042
 30
0.0
  0
SPLINE
  5
86
330
1F
100
AcDbEntity
  8
0
  6
Continuous
 62
     7
370
    15
100
AcDbSpline
210
0.0
220
0.0
230
1.0
 70
    24
 71
     3
 72
    14
 73
    10
 74
     0
 42
0.00000001
 43
0.00000001
 40
0.0
 40
0.0
 40
0.0
 40
0.0
 40
0.25
 40
0.25
 40
0.5
 40
0.5
 40
0.75
 40
0.75
 40
1.0
 40
1.0
 40
1.0
 40
1.0
 10
141.857806697285
 20
141.9682278427353
 30
0.0
 10
141.8578066972849
 20
141.9682278427353
 30
0.0
 10
141.8735210177509
 20
141.9682278427353
 30
0.0
 10
141.9372049962193
 20
141.9682278427353
 30
0.0
 10
141.9858081906297
 20
141.9682278427353
 30
0.0
 10
142.1184917130553
 20
141.9682278427353
 30
0.0
 10
142.203593817366
 20
141.9682278427353
 30
0.0
 10
142.410036052276
 20
141.9682278427353
 30
0.0
 10
142.534116993899
 20
141.9682278427353
 30
0.0
 10
142.6578066972849
 20
141.9682278427353
 30
0.0
  0
SPLINE
  5
87
330
1F
100
AcDbEntity
  8
0
  6
Continuous
 62
     7
370
    15
100
AcDbSpline
210
0.0
220
0.0
230
1.0
 70
     8
 71
     3
 72
    14
 73
    10
 74
     0
 42
0.00000001
 43
0.00000001
 40
0.0
 40
0.0
 40
0.0
 40
0.0
 40
0.25
 40
0.25
 40
0.5
 40
0.5
 40
0.75
 40
0.75
 40
1.0
 40
1.0
 40
1.0
 40
1.0
 10
145.677806697285
 20
65.15504906034042
 30
0.0
 10
145.677806697285
 20
65.26209314133482
 30
0.0
 10
145.6576890101268
 20
65.36732828157726
 30
0.0
 10
145.5791978208611
 20
65.56517876842494
 30
0.0
 10
145.52104119606
 20
65.65623053198986
 30
0.0
 10
145.3745259404419
 20
65.80939662591464
 30
0.0
 10
145.2858833918008
 20
65.87169107212405
 30
0.0
 10
145.0901600690005
 20
65.95648485766003
 30
0.0
 10
144.9849288779295
 20
65.97855238468567
 30
0.0
 10
144.8778066972849
 20
65.97855238468567
 30
0.0
  0
SPLINE
  5
88
330
1F
100
AcDbEntity
  8
0
  6
Continuous
 62
     7
370
    15
100
AcDbSpline
210
0.0
220
0.0
230
1.0
 70
    24
 71
     3
 72
    14
 73
    10
 74
     0
 42
0.00000001
 43
0.00000001
 40
0.0
 40
0.0
 40
0.0
 40
0.0
 40
0.25
 40
0.25
 40
0.5
 40
0.5
 40
0.75
 40
0.75
 40
1.0
 40
1.0
 40
1.0
 40
1.0
 10
144.8778066972849
 20
141.9682278427353
 30
0.0
 10
145.0015764620501
 20
141.9682278427353
 30
0.0
 10
145.125943566057
 20
141.9682278427353
 30
0.0
 10
145.332300034783
 20
141.9682278427353
 30
0.0
 10
145.4176281782014
 20
141.9682278427353
 30
0.0
 10
145.5498202369166
 20
141.9682278427353
 30
0.0
 10
145.5984654806672
 20
141.9682278427353
 30
0.0
 10
145.6620012723959
 20
141.9682278427353
 30
0.0
 10
145.677806697285
 20
141.9682278427353
 30
0.0
 10
145.677806697285
 20
141.9682278427353
 30
0.0
  0
LINE
  5
89
330
1F
100
AcDbEntity
  8
0
  6
Continuous
 62
     7
370
    15
100
AcDbLine
 10
144.8778066973
 20
65.9785523847
 30
0.0
 11
142.6578066973
 21
65.9785523847
 31
0.0
  0
LINE
  5
8A
330
1F
100
AcDbEntity
  8
0
  6
Continuous
 62
     7
370
    15
100
AcDbLine
 10
142.6578066973
 20
141.9682278427
 30
0.0
 11
144.8778066973
 21
141.9682278427
 31
0.0
  0
LINE
  5
8B
330
1F
100
AcDbEntity
  8
0
  6
Continuous
 62
     7
370
    15
100
AcDbLine
 10
121.2678066973
 20
72.7359763397
 30
0.0
 11
121.2678066973
 21
148.5004793457
 31
0.0
  0
LINE
  5
8C
330
1F
100
AcDbEntity
  8
0
  6
Continuous
 62
     7
370
    15
100
AcDbLine
 10
88.9678066973
 20
74.3542128127
 30
0.0
 11
88.9678066973
 21
76.7488945774
 31
0.0
  0
SPLINE
  5
8D
330
1F
100
AcDbEntity
  8
0
  6
Continuous
 62
     7
370
    15
100
AcDbSpline
210
0.0
220
0.0
230
1.0
 70
     8
 71
     3
 72
    14
 73
    10
 74
     0
 42
0.00000001
 43
0.00000001
 40
0.0
 40
0.0
 40
0.0
 40
0.0
 40
0.25
 40
0.25
 40
0.5
 40
0.5
 40
0.75
 40
0.75
 40
1.0
 40
1.0
 40
1.0
 40
1.0
 10
87.963384225948
 20
78.45174649899178
 30
0.0
 10
88.05215280389332
 20
78.29321236768382
 30
0.0
 10
88.17387064257224
 20
78.14076969079528
 30
0.0
 10
88.40892025242907
 20
77.84363506696636
 30
0.0
 10
88.52455043864596
 20
77.698952423349
 30
0.0
 10
88.72495537207378
 20
77.41566322084559
 30
0.0
 10
88.8103556640581
 20
77.27710922780872
 30
0.0
 10
88.93206129777533
 20
77.0057251977752
 30
0.0
 10
88.96780669728797
 20
76.87358932914059
 30
0.0
 10
88.96780669728795
 20
76.74889457736981
 30
0.0
  0
SPLINE
  5
8E
330
1F
100
AcDbEntity
  8
0
  6
Continuous
 62
     7
370
    15
100
AcDbSpline
210
0.0
220
0.0
230
1.0
 70
     8
 71
     3
 72
    14
 73
    10
 74
     0
 42
0.00000001
 43
0.00000001
 40
0.0
 40
0.0
 40
0.0
 40
0.0
 40
0.124999999999999
 40
0.124999999999999
 40
0.249999999999998
 40
0.249999999999998
 40
0.5000000000000007
 40
0.5000000000000007
 40
1.0
 40
1.0
 40
1.0
 40
1.0
 10
87.06780669728495
 20
79.0805764380919
 30
0.0
 10
87.13538899706946
 20
79.0877323231933
 30
0.0
 10
87.20787657481735
 20
79.08330785315427
 30
0.0
 10
87.34016768408328
 20
79.05360169538392
 30
0.0
 10
87.39744506347347
 20
79.0303174138057
 30
0.0
 10
87.54709549067374
 20
78.95283217395537
 30
0.0
 10
87.62080878619524
 20
78.89098034705401
 30
0.0
 10
87.80861676952148
 20
78.7063028944057
 30
0.0
 10
87.89265707588294
 20
78.57805997111447
 30
0.0
 10
87.96338422594921
 20
78.4517464989919
 30
0.0
  0
SPLINE
  5
8F
330
1F
100
AcDbEntity
  8
0
  6
Continuous
 62
     7
370
    15
100
AcDbSpline
210
0.0
220
0.0
230
1.0
 70
     8
 71
     3
 72
     8
 73
     4
 74
     0
 42
0.00000001
 43
0.00000001
 40
0.0
 40
0.0
 40
0.0
 40
0.0
 40
1.0
 40
1.0
 40
1.0
 40
1.0
 10
83.52316630920417
 20
78.6625278533001
 30
0.0
 10
84.68846461991305
 20
78.81771532518673
 30
0.0
 10
85.87307983395286
 20
78.95407396349705
 30
0.0
 10
87.06780669728495
 20
79.08057643809191
 30
0.0
  0
SPLINE
  5
90
330
1F
100
AcDbEntity
  8
0
  6
Continuous
 62
     7
370
    15
100
AcDbSpline
210
0.0
220
0.0
230
1.0
 70
     8
 71
     3
 72
    14
 73
    10
 74
     0
 42
0.00000001
 43
0.00000001
 40
0.0
 40
0.0
 40
0.0
 40
0.0
 40
0.4999999999999972
 40
0.4999999999999972
 40
0.7499999999999971
 40
0.7499999999999971
 40
0.8749999999999986
 40
0.8749999999999986
 40
1.0
 40
1.0
 40
1.0
 40
1.0
 10
75.76773181325626
 20
78.37239567417019
 30
0.0
 10
77.07603337579
 20
78.37941039791133
 30
0.0
 10
78.38109275044681
 20
78.3948189743558
 30
0.0
 10
80.32696880193514
 20
78.44871552982246
 30
0.0
 10
80.97366630567414
 20
78.47174709442517
 30
0.0
 10
81.93750866952848
 20
78.52268961929593
 30
0.0
 10
82.25774736146256
 20
78.54242454152913
 30
0.0
 10
82.89444258780497
 20
78.59191167000068
 30
0.0
 10
83.21115799608789
 20
78.62097644892992
 30
0.0
 10
83.5231663092042
 20
78.66252785330008
 30
0.0
  0
SPLINE
  5
91
330
1F
100
AcDbEntity
  8
0
  6
Continuous
 62
     7
370
    15
100
AcDbSpline
210
0.0
220
0.0
230
1.0
 70
     8
 71
     3
 72
    12
 73
     8
 74
     0
 42
0.00000001
 43
0.00000001
 40
0.0
 40
0.0
 40
0.0
 40
0.0
 40
0.2500000000000009
 40
0.2500000000000009
 40
0.5000000000000018
 40
0.5000000000000018
 40
1.0
 40
1.0
 40
1.0
 40
1.0
 10
82.06780669728496
 20
142.7047507342317
 30
0.0
 10
81.54910787545677
 20
142.73727350908
 30
0.0
 10
81.02739630225179
 20
142.7605702502505
 30
0.0
 10
79.98110428575619
 20
142.7984157646726
 30
0.0
 10
79.45643266008594
 20
142.8126842391687
 30
0.0
 10
77.87958663754671
 20
142.846893726627
 30
0.0
 10
76.82463132299979
 20
142.8583932305709
 30
0.0
 10
75.76773181325457
 20
142.8640600113004
 30
0.0
  0
SPLINE
  5
92
330
1F
100
AcDbEntity
  8
0
  6
Continuous
 62
     7
370
    15
100
AcDbSpline
210
0.0
220
0.0
230
1.0
 70
     8
 71
     3
 72
    20
 73
    16
 74
     0
 42
0.00000001
 43
0.00000001
 40
0.0
 40
0.0
 40
0.0
 40
0.0
 40
0.2500000000000011
 40
0.2500000000000011
 40
0.5000000000000021
 40
0.5000000000000021
 40
0.7500000000000031
 40
0.7500000000000031
 40
0.8750000000000008
 40
0.8750000000000008
 40
0.9375000000000006
 40
0.9375000000000006
 40
0.9687500000000003
 40
0.9687500000000003
 40
1.0
 40
1.0
 40
1.0
 40
1.0
 10
83.96780669728496
 20
144.3628365797199
 30
0.0
 10
83.96780669728496
 20
144.2271542599731
 30
0.0
 10
83.91909490806833
 20
144.086067273833
 30
0.0
 10
83.74993348484314
 20
143.7939955551025
 30
0.0
 10
83.62815307092484
 20
143.6423468130121
 30
0.0
 10
83.3306059761753
 20
143.339938372859
 30
0.0
 10
83.15669337047254
 20
143.1873497367357
 30
0.0
 10
82.83727853659072
 20
142.9620789728934
 30
0.0
 10
82.72223776114346
 20
142.8873558783826
 30
0.0
 10
82.51515343712704
 20
142.7879454691256
 30
0.0
 10
82.43904560232066
 20
142.7563803767811
 30
0.0
 10
82.3076510627673
 20
142.7219369925881
 30
0.0
 10
82.26109784376584
 20
142.7128854208204
 30
0.0
 10
82.16476449268514
 20
142.702709771982
 30
0.0
 10
82.11550506932969
 20
142.701760013307
 30
0.0
 10
82.06780669728298
 20
142.7047507342216
 30
0.0
  0
LINE
  5
93
330
1F
100
AcDbEntity
  8
0
  6
Continuous
 62
     7
370
    15
100
AcDbLine
 10
83.9678066973
 20
144.3628365797
 30
0.0
 11
83.9678066973
 21
146.6317418708
 31
0.0
  0
SPLINE
  5
94
330
1F
100
AcDbEntity
  8
0
  6
Continuous
 62
     7
370
    15
100
AcDbSpline
210
0.0
220
0.0
230
1.0
 70
     8
 71
     3
 72
    24
 73
    20
 74
     0
 42
0.00000001
 43
0.00000001
 40
0.0
 40
0.0
 40
0.0
 40
0.0
 40
0.0002934293894791
 40
0.062808005175641
 40
0.1260453927228619
 40
0.18907467666103
 40
0.2513200540860133
 40
0.3133304633786588
 40
0.3759158453762907
 40
0.4383740564599686
 40
0.5000631094857209
 40
0.5616593988040849
 40
0.6245050380644152
 40
0.6872231506510951
 40
0.7494953263230465
 40
0.8117583797535242
 40
0.8747365508229858
 40
0.9378980306234599
 40
1.0
 40
1.0
 40
1.0
 40
1.0
 10
102.2877629611244
 20
73.68698258442294
 30
0.0
 10
102.2875681082396
 20
73.68695827702895
 30
0.0
 10
102.2458602172285
 20
73.68175532537474
 30
0.0
 10
102.3909786087589
 20
73.70038994870526
 30
0.0
 10
102.7460575502981
 20
73.74290972725399
 30
0.0
 10
103.3506331878413
 20
73.81104601085582
 30
0.0
 10
104.1570684966575
 20
73.8843015478717
 30
0.0
 10
105.1425459205765
 20
73.94882088868957
 30
0.0
 10
106.274215517256
 20
73.98738511675066
 30
0.0
 10
107.4965079874183
 20
73.99107962275204
 30
0.0
 10
108.7638366688701
 20
73.94865364270306
 30
0.0
 10
110.0303221992966
 20
73.8604065019221
 30
0.0
 10
111.2464595631166
 20
73.73201323165543
 30
0.0
 10
112.3718700589574
 20
73.57937224306289
 30
0.0
 10
113.3492871205113
 20
73.41759762795856
 30
0.0
 10
114.1525525990538
 20
73.26506873485766
 30
0.0
 10
114.7410461220551
 20
73.14105499159027
 30
0.0
 10
115.1299522337071
 20
73.056131065314
 30
0.0
 10
115.1767133644451
 20
73.0454047540352
 30
0.0
 10
115.1998961709875
 20
73.04008696134359
 30
0.0
  0
SPLINE
  5
95
330
1F
100
AcDbEntity
  8
0
  6
Continuous
 62
     7
370
    15
100
AcDbSpline
210
0.0
220
0.0
230
1.0
 70
     8
 71
     3
 72
    41
 73
    37
 74
     0
 42
0.00000001
 43
0.00000001
 40
0.0
 40
0.0
 40
0.0
 40
0.0
 40
0.0619930061482746
 40
0.1254347783466151
 40
0.1886508898234768
 40
0.2510246408607227
 40
0.3131658188976554
 40
0.3756581641417402
 40
0.4382227146727798
 40
0.4998044922940677
 40
0.56151641971787
 40
0.6240683094121985
 40
0.686725723240935
 40
0.7488365305144522
 40
0.8110685944253986
 40
0.8741742884451361
 40
0.9373212787645211
 40
0.9685511709617411
 40
0.9842086872487193
 40
0.9920641182531791
 40
0.996000486125535
 40
0.9979710794120144
 40
0.9989570090489596
 40
0.9994501359395065
 40
0.9996967403802177
 40
0.9998200529090742
 40
0.9998817117580818
 40
0.999912541829664
 40
0.9999279570273361
 40
0.9999356646666602
 40
0.9999395184964466
 40
0.9999414454138695
 40
0.9999424088732151
 40
0.9999433723329806
 40
0.9999501697010513
 40
1.0
 40
1.0
 40
1.0
 40
1.0
 10
115.1997748405095
 20
148.1963237061755
 30
0.0
 10
115.1762031951659
 20
148.1910142265257
 30
0.0
 10
115.1285090391209
 20
148.1802711855861
 30
0.0
 10
114.7364670496953
 20
148.0950420491307
 30
0.0
 10
114.1459530004251
 20
147.9704732704899
 30
0.0
 10
113.34191555438
 20
147.8175263243381
 30
0.0
 10
112.3658401541985
 20
147.6557697703845
 30
0.0
 10
111.244031418918
 20
147.5035370024523
 30
0.0
 10
110.0305004991308
 20
147.3757570612509
 30
0.0
 10
108.7656697927316
 20
147.2879085095683
 30
0.0
 10
107.4976267552888
 20
147.2455230256977
 30
0.0
 10
106.2741193975877
 20
147.2492588336694
 30
0.0
 10
105.1406208571737
 20
147.2878543041175
 30
0.0
 10
104.1545150461995
 20
147.3522936754086
 30
0.0
 10
103.3458872374123
 20
147.4258034826897
 30
0.0
 10
102.7492685423031
 20
147.4931171675015
 30
0.0
 10
102.433877252845
 20
147.5310817187695
 30
0.0
 10
102.3238106840471
 20
147.5448807781013
 30
0.0
 10
102.2963912962329
 20
147.548366852022
 30
0.0
 10
102.2894692454034
 20
147.5492460777154
 30
0.0
 10
102.28770100522
 20
147.5494668523217
 30
0.0
 10
102.2872406260466
 20
147.5495220550324
 30
0.0
 10
102.2871164673618
 20
147.5495357948195
 30
0.0
 10
102.2870809128686
 20
147.5495391906505
 30
0.0
 10
102.2870697687985
 20
147.5495400189708
 30
0.0
 10
102.2870658556024
 20
147.5495402155596
 30
0.0
 10
102.2870643133976
 20
147.5495402594896
 30
0.0
 10
102.2870636463961
 20
147.5495402677964
 30
0.0
 10
102.2870633382183
 20
147.5495402686267
 30
0.0
 10
102.2870631914523
 20
147.5495402680815
 30
0.0
 10
102.2870631184998
 20
147.5495402677516
 30
0.0
 10
102.2870630841075
 20
147.5495402673143
 30
0.0
 10
102.2870630618623
 20
147.5495402674028
 30
0.0
 10
102.2870630347528
 20
147.5495402645678
 30
0.0
 10
102.2870605151915
 20
147.549540551423
 30
0.0
 10
102.2870966051095
 20
147.5495359313223
 30
0.0
 10
102.2871283629322
 20
147.5495318658008
 30
0.0
  0
SPLINE
  5
96
330
1F
100
AcDbEntity
  8
0
  6
Continuous
 62
     7
370
    15
100
AcDbSpline
210
0.0
220
0.0
230
1.0
 70
     8
 71
     3
 72
    20
 73
    16
 74
     0
 42
0.00000001
 43
0.00000001
 40
0.0
 40
0.0
 40
0.0
 40
0.0
 40
0.249999999999986
 40
0.249999999999986
 40
0.3749999999999789
 40
0.3749999999999789
 40
0.4374999999999789
 40
0.4374999999999789
 40
0.4999999999999789
 40
0.4999999999999789
 40
0.6249999999999835
 40
0.6249999999999835
 40
0.7499999999999879
 40
0.7499999999999879
 40
1.0
 40
1.0
 40
1.0
 40
1.0
 10
74.15862092900097
 20
79.93974469003462
 30
0.0
 10
74.18489314621438
 20
79.95906263111708
 30
0.0
 10
74.21557328846922
 20
79.97345134221885
 30
0.0
 10
74.28704415885113
 20
79.96654698038283
 30
0.0
 10
74.31507119589547
 20
79.95938097703443
 30
0.0
 10
74.37015478539298
 20
79.92968195033083
 30
0.0
 10
74.39104611394541
 20
79.9162083077695
 30
0.0
 10
74.43625476139087
 20
79.88101004225348
 30
0.0
 10
74.46065897378644
 20
79.85910181352622
 30
0.0
 10
74.53199129183788
 20
79.78697695353068
 30
0.0
 10
74.57388807665815
 20
79.73463641258061
 30
0.0
 10
74.64546403551402
 20
79.63715302067988
 30
0.0
 10
74.67629202533132
 20
79.59039925080145
 30
0.0
 10
74.7593919581669
 20
79.45710603496234
 30
0.0
 10
74.8042468635372
 20
79.37446863704713
 30
0.0
 10
74.84435893898977
 20
79.29536174225635
 30
0.0
  0
SPLINE
  5
97
330
1F
100
AcDbEntity
  8
0
  6
Continuous
 62
     7
370
    15
100
AcDbSpline
210
0.0
220
0.0
230
1.0
 70
     8
 71
     3
 72
    14
 73
    10
 74
     0
 42
0.00000001
 43
0.00000001
 40
0.0
 40
0.0
 40
0.0
 40
0.0
 40
0.25
 40
0.25
 40
0.5
 40
0.5
 40
0.75
 40
0.75
 40
1.0
 40
1.0
 40
1.0
 40
1.0
 10
73.86780669728496
 20
80.11555810016739
 30
0.0
 10
73.86780669728498
 20
80.07431116914304
 30
0.0
 10
73.8764164136662
 20
80.03740419686056
 30
0.0
 10
73.90750259323656
 20
79.97650413696115
 30
0.0
 10
73.92989214672062
 20
79.95232321742147
 30
0.0
 10
73.98463607789674
 20
79.9183556265382
 30
0.0
 10
74.01708631748193
 20
79.90843554257002
 30
0.0
 10
74.08708783220999
 20
79.90708433366517
 30
0.0
 10
74.12529833233253
 20
79.91524261036133
 30
0.0
 10
74.15862092900562
 20
79.93974469002941
 30
0.0
  0
LINE
  5
98
330
1F
100
AcDbEntity
  8
0
  6
Continuous
 62
     7
370
    15
100
AcDbLine
 10
73.8678066973
 20
80.1155581002
 30
0.0
 11
73.8678066973
 21
141.1208975853
 31
0.0
  0
SPLINE
  5
99
330
1F
100
AcDbEntity
  8
0
  6
Continuous
 62
     7
370
    15
100
AcDbSpline
210
0.0
220
0.0
230
1.0
 70
     8
 71
     3
 72
     9
 73
     5
 74
     0
 42
0.00000001
 43
0.00000001
 40
0.0
 40
0.0
 40
0.0
 40
0.0
 40
0.0592950272321202
 40
1.0
 40
1.0
 40
1.0
 40
1.0
 10
74.15862092900561
 20
141.2967109954412
 30
0.0
 10
74.15373808754342
 20
141.3000038408347
 30
0.0
 10
74.07138984199707
 20
141.3555370878404
 30
0.0
 10
74.00525779151553
 20
141.2982476853278
 30
0.0
 10
73.94304704276823
 20
141.2443552594974
 30
0.0
  0
SPLINE
  5
9A
330
1F
100
AcDbEntity
  8
0
  6
Continuous
 62
     7
370
    15
100
AcDbSpline
210
0.0
220
0.0
230
1.0
 70
     8
 71
     3
 72
     8
 73
     4
 74
     0
 42
0.00000001
 43
0.00000001
 40
0.0
 40
0.0
 40
0.0
 40
0.0
 40
1.0
 40
1.0
 40
1.0
 40
1.0
 10
73.89144036622116
 20
141.2284770863729
 30
0.0
 10
73.87609132758513
 20
141.197967031377
 30
0.0
 10
73.86780669728496
 20
141.1616554758646
 30
0.0
 10
73.86780669728496
 20
141.1208975853032
 30
0.0
  0
SPLINE
  5
9B
330
1F
100
AcDbEntity
  8
0
  6
Continuous
 62
     7
370
    15
100
AcDbSpline
210
0.0
220
0.0
230
1.0
 70
     8
 71
     3
 72
    20
 73
    16
 74
     0
 42
0.00000001
 43
0.00000001
 40
0.0
 40
0.0
 40
0.0
 40
0.0
 40
0.2500000000000037
 40
0.2500000000000037
 40
0.3750000000000055
 40
0.3750000000000055
 40
0.5000000000000073
 40
0.5000000000000073
 40
0.5625000000000057
 40
0.5625000000000057
 40
0.625000000000004
 40
0.625000000000004
 40
0.7500000000000027
 40
0.7500000000000027
 40
1.0
 40
1.0
 40
1.0
 40
1.0
 10
74.84435893898738
 20
141.9410939432135
 30
0.0
 10
74.80436272116356
 20
141.862215536656
 30
0.0
 10
74.7592490933259
 20
141.7790858899645
 30
0.0
 10
74.67599487895937
 20
141.6455972256136
 30
0.0
 10
74.64577555033887
 20
141.5997321697316
 30
0.0
 10
74.57368731519745
 20
141.5015406173267
 30
0.0
 10
74.53176999778636
 20
141.4492307978031
 30
0.0
 10
74.46051939323489
 20
141.3772248950686
 30
0.0
 10
74.43628358085557
 20
141.3554546827671
 30
0.0
 10
74.39068539067092
 20
141.3199800244381
 30
0.0
 10
74.36988290107122
 20
141.3066098402605
 30
0.0
 10
74.3149419026521
 20
141.2770399281253
 30
0.0
 10
74.2868729145653
 20
141.2699134058233
 30
0.0
 10
74.21637008450244
 20
141.2630390343406
 30
0.0
 10
74.18494599671158
 20
141.2773541934278
 30
0.0
 10
74.15862092900298
 20
141.2967109954383
 30
0.0
  0
SPLINE
  5
9C
330
1F
100
AcDbEntity
  8
0
  6
Continuous
 62
     7
370
    15
100
AcDbSpline
210
0.0
220
0.0
230
1.0
 70
     8
 71
     3
 72
    10
 73
     6
 74
     0
 42
0.00000001
 43
0.00000001
 40
0.0
 40
0.0
 40
0.0
 40
0.0
 40
0.4999999999999989
 40
0.4999999999999989
 40
1.0
 40
1.0
 40
1.0
 40
1.0
 10
75.51780669728497
 20
142.8665130445553
 30
0.0
 10
75.39291842653476
 20
142.7355167664838
 30
0.0
 10
75.27146830847433
 20
142.5918039298188
 30
0.0
 10
75.04188433351689
 20
142.2812336371296
 30
0.0
 10
74.93160935812091
 20
142.1131645640665
 30
0.0
 10
74.84435893898738
 20
141.9410939432135
 30
0.0
  0
SPLINE
  5
9D
330
1F
100
AcDbEntity
  8
0
  6
Continuous
 62
     7
370
    15
100
AcDbSpline
210
0.0
220
0.0
230
1.0
 70
     8
 71
     3
 72
     8
 73
     4
 74
     0
 42
0.00000001
 43
0.00000001
 40
0.0
 40
0.0
 40
0.0
 40
0.0
 40
1.0
 40
1.0
 40
1.0
 40
1.0
 10
75.76773181325069
 20
142.8640600112999
 30
0.0
 10
75.68071378340234
 20
142.864526576087
 30
0.0
 10
75.5977597570224
 20
142.8655665956631
 30
0.0
 10
75.51780669728265
 20
142.8665130445554
 30
0.0
  0
SPLINE
  5
9E
330
1F
100
AcDbEntity
  8
0
  6
Continuous
 62
     7
370
    15
100
AcDbSpline
210
0.0
220
0.0
230
1.0
 70
     8
 71
     3
 72
     8
 73
     4
 74
     0
 42
0.00000001
 43
0.00000001
 40
0.0
 40
0.0
 40
0.0
 40
0.0
 40
1.0
 40
1.0
 40
1.0
 40
1.0
 10
75.51780669728265
 20
78.36994264091524
 30
0.0
 10
75.59775975702293
 20
78.3708890898075
 30
0.0
 10
75.6807137834034
 20
78.37192910938363
 30
0.0
 10
75.76773181325238
 20
78.3723956741707
 30
0.0
  0
SPLINE
  5
9F
330
1F
100
AcDbEntity
  8
0
  6
Continuous
 62
     7
370
    15
100
AcDbSpline
210
0.0
220
0.0
230
1.0
 70
     8
 71
     3
 72
    10
 73
     6
 74
     0
 42
0.00000001
 43
0.00000001
 40
0.0
 40
0.0
 40
0.0
 40
0.0
 40
0.4999999999999989
 40
0.4999999999999989
 40
1.0
 40
1.0
 40
1.0
 40
1.0
 10
74.84435893898646
 20
79.29536174225892
 30
0.0
 10
74.93160935811993
 20
79.12329112140554
 30
0.0
 10
75.0418843335161
 20
78.9552220483421
 30
0.0
 10
75.27146830847393
 20
78.6446517556523
 30
0.0
 10
75.39291842653456
 20
78.50093891898702
 30
0.0
 10
75.51780669728497
 20
78.36994264091531
 30
0.0
  0
SPLINE
  5
A0
330
1F
100
AcDbEntity
  8
0
  6
Continuous
 62
     7
370
    15
100
AcDbSpline
210
0.0
220
0.0
230
1.0
 70
     8
 71
     3
 72
     8
 73
     4
 74
     0
 42
0.00000001
 43
0.00000001
 40
0.0
 40
0.0
 40
0.0
 40
0.0
 40
1.0
 40
1.0
 40
1.0
 40
1.0
 10
140.5057776763636
 20
149.5691906036222
 30
0.0
 10
140.9627040301631
 20
148.553272633948
 30
0.0
 10
141.4139096719661
 20
147.5344768048568
 30
0.0
 10
141.857806697285
 20
146.5136753488732
 30
0.0
  0
LINE
  5
A1
330
1F
100
AcDbEntity
  8
0
  6
Continuous
 62
     7
370
    15
100
AcDbLine
 10
141.8578066973
 20
146.5136753489
 30
0.0
 11
141.8578066973
 21
145.3324630352
 31
0.0
  0
SPLINE
  5
A2
330
1F
100
AcDbEntity
  8
0
  6
Continuous
 62
     7
370
    15
100
AcDbSpline
210
0.0
220
0.0
230
1.0
 70
     8
 71
     3
 72
    14
 73
    10
 74
     0
 42
0.00000001
 43
0.00000001
 40
0.0
 40
0.0
 40
0.0
 40
0.0
 40
0.25
 40
0.25
 40
0.5
 40
0.5
 40
0.75
 40
0.75
 40
1.0
 40
1.0
 40
1.0
 40
1.0
 10
141.8578066972849
 20
145.3324630352324
 30
0.0
 10
141.857806697285
 20
145.2085961584432
 30
0.0
 10
141.8736658249125
 20
145.0843364816056
 30
0.0
 10
141.9370274704324
 20
144.8467281191998
 30
0.0
 10
141.9856171784818
 20
144.7299477344473
 30
0.0
 10
142.1179027832567
 20
144.5211452058383
 30
0.0
 10
142.2032275745172
 20
144.4266345022457
 30
0.0
 10
142.4101188228234
 20
144.2886777014434
 30
0.0
 10
142.5340867687134
 20
144.2467592558077
 30
0.0
 10
142.6578066972849
 20
144.2467592558077
 30
0.0
  0
LINE
  5
A3
330
1F
100
AcDbEntity
  8
0
  6
Continuous
 62
     7
370
    15
100
AcDbLine
 10
142.6578066973
 20
144.2467592558
 30
0.0
 11
144.8778066973
 21
144.2467592558
 31
0.0
  0
SPLINE
  5
A4
330
1F
100
AcDbEntity
  8
0
  6
Continuous
 62
     7
370
    15
100
AcDbSpline
210
0.0
220
0.0
230
1.0
 70
     8
 71
     3
 72
    12
 73
     8
 74
     0
 42
0.00000001
 43
0.00000001
 40
0.0
 40
0.0
 40
0.0
 40
0.0
 40
0.250000000000002
 40
0.250000000000002
 40
0.500000000000004
 40
0.500000000000004
 40
1.0
 40
1.0
 40
1.0
 40
1.0
 10
144.8778066972849
 20
144.2467592558078
 30
0.0
 10
145.0015076472649
 20
144.2467592558078
 30
0.0
 10
145.1256042595351
 20
144.2887528675403
 30
0.0
 10
145.3322594226221
 20
144.4265481941847
 30
0.0
 10
145.417300189349
 20
144.5205217926496
 30
0.0
 10
145.6167787578226
 20
144.8353099988705
 30
0.0
 10
145.677806697285
 20
145.0855489910981
 30
0.0
 10
145.677806697285
 20
145.3324630352324
 30
0.0
  0
LINE
  5
A5
330
1F
100
AcDbEntity
  8
0
  6
Continuous
 62
     7
370
    15
100
AcDbLine
 10
145.6778066973
 20
145.3324630352
 30
0.0
 11
145.6778066973
 21
146.5136753489
 31
0.0
  0
SPLINE
  5
A6
330
1F
100
AcDbEntity
  8
0
  6
Continuous
 62
     7
370
    15
100
AcDbSpline
210
0.0
220
0.0
230
1.0
 70
     8
 71
     3
 72
     8
 73
     4
 74
     0
 42
0.00000001
 43
0.00000001
 40
0.0
 40
0.0
 40
0.0
 40
0.0
 40
1.0
 40
1.0
 40
1.0
 40
1.0
 10
145.677806697285
 20
146.5136753488731
 30
0.0
 10
146.1219567083104
 20
147.5350585798248
 30
0.0
 10
146.5730310185684
 20
148.5535431165931
 30
0.0
 10
147.0298357182063
 20
149.5691906036222
 30
0.0
  0
LINE
  5
A7
330
1F
100
AcDbEntity
  8
0
  6
Continuous
 62
     7
370
    15
100
AcDbLine
 10
147.0298357182
 20
149.5691906036
 30
0.0
 11
151.7178066973
 21
149.5691906036
 31
0.0
  0
SPLINE
  5
A8
330
1F
100
AcDbEntity
  8
0
  6
Continuous
 62
     7
370
    15
100
AcDbSpline
210
0.0
220
0.0
230
1.0
 70
     8
 71
     3
 72
    16
 73
    12
 74
     0
 42
0.00000001
 43
0.00000001
 40
0.0
 40
0.0
 40
0.0
 40
0.0
 40
0.1249999999999978
 40
0.1249999999999978
 40
0.2499999999999955
 40
0.2499999999999955
 40
0.499999999999997
 40
0.499999999999997
 40
0.7499999999999984
 40
0.7499999999999984
 40
1.0
 40
1.0
 40
1.0
 40
1.0
 10
151.717806697285
 20
149.5691906036222
 30
0.0
 10
151.7934444036961
 20
149.5691906036222
 30
0.0
 10
151.8697600681144
 20
149.5578456034873
 30
0.0
 10
152.0141708060063
 20
149.5151930528488
 30
0.0
 10
152.0826172551147
 20
149.4842587281659
 30
0.0
 10
152.2775485077279
 20
149.3650023563983
 30
0.0
 10
152.3853896815088
 20
149.2548503427778
 30
0.0
 10
152.5541024297208
 20
149.0067142571197
 30
0.0
 10
152.6164668424443
 20
148.866371933116
 30
0.0
 10
152.6977707669527
 20
148.5781002416274
 30
0.0
 10
152.717806697285
 20
148.4272952686476
 30
0.0
 10
152.717806697285
 20
148.2769253773023
 30
0.0
  0
LINE
  5
A9
330
1F
100
AcDbEntity
  8
0
  6
Continuous
 62
     7
370
    15
100
AcDbLine
 10
152.7178066973
 20
148.2769253773
 30
0.0
 11
152.7178066973
 21
141.9682278427
 31
0.0
  0
SPLINE
  5
AA
330
1F
100
AcDbEntity
  8
0
  6
Continuous
 62
     7
370
    15
100
AcDbSpline
210
0.0
220
0.0
230
1.0
 70
     8
 71
     3
 72
    14
 73
    10
 74
     0
 42
0.00000001
 43
0.00000001
 40
0.0
 40
0.0
 40
0.0
 40
0.0
 40
0.25
 40
0.25
 40
0.5
 40
0.5
 40
0.75
 40
0.75
 40
1.0
 40
1.0
 40
1.0
 40
1.0
 10
145.677806697285
 20
156.3117790835833
 30
0.0
 10
145.677806697285
 20
156.2054223898309
 30
0.0
 10
145.6574191411437
 20
156.0995819020708
 30
0.0
 10
145.5787847956822
 20
155.9030169885344
 30
0.0
 10
145.5200534360436
 20
155.8118462462473
 30
0.0
 10
145.373444530441
 20
155.6599351572157
 30
0.0
 10
145.2840392104144
 20
155.5978663203961
 30
0.0
 10
145.0901484778141
 20
155.5145982726374
 30
0.0
 10
144.9836434879243
 20
155.4925036029077
 30
0.0
 10
144.877806697285
 20
155.4925036029077
 30
0.0
  0
SPLINE
  5
AB
330
1F
100
AcDbEntity
  8
0
  6
Continuous
 62
     7
370
    15
100
AcDbSpline
210
0.0
220
0.0
230
1.0
 70
     8
 71
     3
 72
    10
 73
     6
 74
     0
 42
0.00000001
 43
0.00000001
 40
0.0
 40
0.0
 40
0.0
 40
0.0
 40
0.5
 40
0.5
 40
1.0
 40
1.0
 40
1.0
 40
1.0
 10
142.6578066972849
 20
155.4925036029078
 30
0.0
 10
142.4452703834286
 20
155.4925036029078
 30
0.0
 10
142.2353342117746
 20
155.5839161895379
 30
0.0
 10
141.9416270707634
 20
155.8886610554421
 30
0.0
 10
141.8578066972849
 20
156.1008160253508
 30
0.0
 10
141.857806697285
 20
156.3117790835833
 30
0.0
  0
SPLINE
  5
AC
330
1F
100
AcDbEntity
  8
0
  6
Continuous
 62
     7
370
    15
100
AcDbSpline
210
0.0
220
0.0
230
1.0
 70
     8
 71
     3
 72
     8
 73
     4
 74
     0
 42
0.00000001
 43
0.00000001
 40
0.0
 40
0.0
 40
0.0
 40
0.0
 40
1.0
 40
1.0
 40
1.0
 40
1.0
 10
147.0298357182064
 20
159.6080226983989
 30
0.0
 10
146.5788087494931
 20
158.810712128211
 30
0.0
 10
146.1281149329695
 20
158.0132138285538
 30
0.0
 10
145.677806697285
 20
157.2154987034402
 30
0.0
  0
LINE
  5
AD
330
1F
100
AcDbEntity
  8
0
  6
Continuous
 62
     7
370
    15
100
AcDbLine
 10
147.0298357182
 20
149.5691906036
 30
0.0
 11
147.0298357182
 21
159.6080226984
 31
0.0
  0
LINE
  5
AE
330
1F
100
AcDbEntity
  8
0
  6
Continuous
 62
     7
370
    15
100
AcDbLine
 10
145.6778066973
 20
146.5136753489
 30
0.0
 11
145.6778066973
 21
157.2154987034
 31
0.0
  0
SPLINE
  5
AF
330
1F
100
AcDbEntity
  8
0
  6
Continuous
 62
     7
370
    15
100
AcDbSpline
210
0.0
220
0.0
230
1.0
 70
     8
 71
     3
 72
    12
 73
     8
 74
     0
 42
0.00000001
 43
0.00000001
 40
0.0
 40
0.0
 40
0.0
 40
0.0
 40
0.4999999999999953
 40
0.4999999999999953
 40
0.7499999999999977
 40
0.7499999999999977
 40
1.0
 40
1.0
 40
1.0
 40
1.0
 10
152.717806697285
 20
158.5869676635812
 30
0.0
 10
152.717806697285
 20
158.8522370963476
 30
0.0
 10
152.6131999537985
 20
159.1147522019999
 30
0.0
 10
152.3365316020532
 20
159.4002898080372
 30
0.0
 10
152.2261663427012
 20
159.4766114248986
 30
0.0
 10
151.9820942940855
 20
159.5809535897388
 30
0.0
 10
151.8503418327537
 20
159.6080226983989
 30
0.0
 10
151.717806697285
 20
159.6080226983989
 30
0.0
  0
LINE
  5
B0
330
1F
100
AcDbEntity
  8
0
  6
Continuous
 62
     7
370
    15
100
AcDbLine
 10
152.7178066973
 20
148.2769253773
 30
0.0
 11
152.7178066973
 21
158.5869676636
 31
0.0
  0
SPLINE
  5
B1
330
1F
100
AcDbEntity
  8
0
  6
Continuous
 62
     7
370
    15
100
AcDbSpline
210
0.0
220
0.0
230
1.0
 70
     8
 71
     3
 72
     8
 73
     4
 74
     0
 42
0.00000001
 43
0.00000001
 40
0.0
 40
0.0
 40
0.0
 40
0.0
 40
1.0
 40
1.0
 40
1.0
 40
1.0
 10
141.857806697285
 20
157.2154987034402
 30
0.0
 10
141.4074984616004
 20
158.0132138285538
 30
0.0
 10
140.9568046450768
 20
158.810712128211
 30
0.0
 10
140.5057776763636
 20
159.6080226983989
 30
0.0
  0
LINE
  5
B2
330
1F
100
AcDbEntity
  8
0
  6
Continuous
 62
     7
370
    15
100
AcDbLine
 10
141.8578066973
 20
146.5136753489
 30
0.0
 11
141.8578066973
 21
157.2154987034
 31
0.0
  0
LINE
  5
B3
330
1F
100
AcDbEntity
  8
0
  6
Continuous
 62
     7
370
    15
100
AcDbLine
 10
151.7178066973
 20
159.6080226984
 30
0.0
 11
147.0298357182
 21
159.6080226984
 31
0.0
  0
LINE
  5
B4
330
1F
100
AcDbEntity
  8
0
  6
Continuous
 62
     7
370
    15
100
AcDbLine
 10
144.8778066973
 20
155.4925036029
 30
0.0
 11
142.6578066973
 21
155.4925036029
 31
0.0
  0
SPLINE
  5
B5
330
1F
100
AcDbEntity
  8
0
  6
Continuous
 62
     7
370
    15
100
AcDbSpline
210
0.0
220
0.0
230
1.0
 70
     8
 71
     3
 72
    22
 73
    18
 74
     0
 42
0.00000001
 43
0.00000001
 40
0.0
 40
0.0
 40
0.0
 40
0.0
 40
0.0214845389755807
 40
0.1256396318069919
 40
0.1959451978069214
 40
0.2582521570807907
 40
0.3125766612490385
 40
0.4099138575702184
 40
0.4989648392013564
 40
0.5880329102873153
 40
0.6195996190866422
 40
0.652103288452778
 40
0.685554484177964
 40
0.7700652935986152
 40
0.8724461970050341
 40
0.9445662247427756
 40
0.9999999999999999
 40
0.9999999999999999
 40
0.9999999999999999
 40
0.9999999999999999
 10
202.7504190035075
 20
104.569355773393
 30
0.0
 10
202.8443403697538
 20
104.6166154014487
 30
0.0
 10
203.3935839857054
 20
104.8929854122274
 30
0.0
 10
204.1219906943137
 20
105.5326029196116
 30
0.0
 10
204.8825903739298
 20
106.3978218060769
 30
0.0
 10
205.3782241980907
 20
107.1681665752364
 30
0.0
 10
205.8363619271142
 20
108.1114621852111
 30
0.0
 10
206.1800317060183
 20
109.2539950056977
 30
0.0
 10
206.3095886909409
 20
110.6155230078102
 30
0.0
 10
206.2114626447695
 20
111.6533715480112
 30
0.0
 10
206.0455552620542
 20
112.3892735997089
 30
0.0
 10
205.9087055402836
 20
112.8492368258067
 30
0.0
 10
205.649318136754
 20
113.541018846128
 30
0.0
 10
205.1468925266832
 20
114.5015147619865
 30
0.0
 10
204.3469053536199
 20
115.4871530836673
 30
0.0
 10
203.5016653794709
 20
116.2284089335502
 30
0.0
 10
202.9683970423075
 20
116.5512522282639
 30
0.0
 10
202.7366432532395
 20
116.6915571209622
 30
0.0
  0
SPLINE
  5
B6
330
1F
100
AcDbEntity
  8
0
  6
Continuous
 62
     7
370
    15
100
AcDbSpline
210
0.0
220
0.0
230
1.0
 70
     8
 71
     3
 72
    22
 73
    18
 74
     0
 42
0.00000001
 43
0.00000001
 40
0.0
 40
0.0
 40
0.0
 40
0.0
 40
0.0211504138719715
 40
0.1254891658683885
 40
0.1958389442117744
 40
0.2582383692700143
 40
0.312703687513508
 40
0.4101628034187977
 40
0.4992921009867982
 40
0.588290344624681
 40
0.6198258133444154
 40
0.6522944186565893
 40
0.685706796745155
 40
0.7700226515811321
 40
0.8723272762666961
 40
0.944297120052648
 40
1.0
 40
1.0
 40
1.0
 40
1.0
 10
195.7846010472544
 20
116.6670938827371
 30
0.0
 10
195.6921381145648
 20
116.6205840799825
 30
0.0
 10
195.1435390957844
 20
116.3446331511871
 30
0.0
 10
194.4152863734269
 20
115.705547999439
 30
0.0
 10
193.6534558843692
 20
114.8392980310445
 30
0.0
 10
193.1570341127526
 20
114.067800298191
 30
0.0
 10
192.6983095898298
 20
113.1228170323131
 30
0.0
 10
192.3546984637638
 20
111.9784832669334
 30
0.0
 10
192.2260211369308
 20
110.6162295500174
 30
0.0
 10
192.3248592313424
 20
109.5785718848574
 30
0.0
 10
192.4910514740443
 20
108.8434288930358
 30
0.0
 10
192.627989985325
 20
108.3840406739647
 30
0.0
 10
192.8872114268516
 20
107.6936257931136
 30
0.0
 10
193.3890814717026
 20
106.7346526631708
 30
0.0
 10
194.1876023331889
 20
105.7505586533261
 30
0.0
 10
195.0327622436681
 20
105.0089838308298
 30
0.0
 10
195.5664079492967
 20
104.6856278499676
 30
0.0
 10
195.7992345218474
 20
104.5445494829089
 30
0.0
  0
SPLINE
  5
B7
330
1F
100
AcDbEntity
  8
0
  6
Continuous
 62
     7
370
    15
100
AcDbSpline
210
0.0
220
0.0
230
1.0
 70
     8
 71
     3
 72
    39
 73
    35
 74
     0
 42
0.00000001
 43
0.00000001
 40
-0.0929946525444664
 40
-0.0618626808031089
 40
-0.0305913286417314
 40
0.0
 40
0.0306130831485662
 40
0.0619040996444885
 40
0.0930588770304531
 40
0.124196621041602
 40
0.1553767729372103
 40
0.1869012712537364
 40
0.2186194724870923
 40
0.2499363328595923
 40
0.2812811127838946
 40
0.3130731839309778
 40
0.3446801097577467
 40
0.3759115026470925
 40
0.4070391656931898
 40
0.4381443790162041
 40
0.4693729506325451
 40
0.5000120705146801
 40
0.5306484290215041
 40
0.5619148569967958
 40
0.5930393589973242
 40
0.6241824383491464
 40
0.6553925771485155
 40
0.6869707191792587
 40
0.7187114716030191
 40
0.750054198609501
 40
0.7813706634686546
 40
0.813135112532404
 40
0.8446872986560285
 40
0.8758891940595355
 40
0.9070053474555335
 40
0.938137319196891
 40
0.9694086713582685
 40
0.9999999999999999
 40
1.030613083148566
 40
1.061904099644488
 40
1.093058877030453
 10
200.7984520594146
 20
102.7821359416264
 30
0.0
 10
199.2674447810881
 20
102.6264305756486
 30
0.0
 10
197.7361225528817
 20
102.7823592738328
 30
0.0
 10
196.2674395425779
 20
103.2499049373129
 30
0.0
 10
194.9110644197254
 20
103.9833464423621
 30
0.0
 10
193.7355210372049
 20
104.9710209316623
 30
0.0
 10
192.7695259659268
 20
106.1724755844317
 30
0.0
 10
192.0532895863825
 20
107.5541325678671
 30
0.0
 10
191.598003445537
 20
109.0530797223811
 30
0.0
 10
191.4470997067271
 20
110.615400318035
 30
0.0
 10
191.5990840869185
 20
112.1788313903902
 30
0.0
 10
192.0552961933864
 20
113.6806265062889
 30
0.0
 10
192.7721677078003
 20
115.065785721692
 30
0.0
 10
193.7390541045541
 20
116.2691382971968
 30
0.0
 10
194.9142719298684
 20
117.2569161525782
 30
0.0
 10
196.268921074947
 20
117.9894498259552
 30
0.0
 10
197.736821202223
 20
118.4550837852721
 30
0.0
 10
199.2683216518889
 20
118.6097660487286
 30
0.0
 10
200.800411686861
 20
118.4546144897068
 30
0.0
 10
202.2689590270116
 20
117.9881057996136
 30
0.0
 10
203.6245514236838
 20
117.2548059414658
 30
0.0
 10
204.7994134523909
 20
116.2662053496659
 30
0.0
 10
205.765281623652
 20
115.0628108695553
 30
0.0
 10
206.4811972118283
 20
113.6790115149274
 30
0.0
 10
206.9364190868001
 20
112.1783599344928
 30
0.0
 10
207.0885037081549
 20
110.6158760852005
 30
0.0
 10
206.9377658544009
 20
109.0527738501002
 30
0.0
 10
206.4816261042226
 20
107.5527909709516
 30
0.0
 10
205.7645254044727
 20
106.1698255023013
 30
0.0
 10
204.7976142507606
 20
104.9684766668818
 30
0.0
 10
203.6218421200801
 20
103.9816798639784
 30
0.0
 10
202.2661960524936
 20
103.2491324030659
 30
0.0
 10
200.7984520594146
 20
102.7821359416264
 30
0.0
 10
199.2674447810881
 20
102.6264305756486
 30
0.0
 10
197.7361225528817
 20
102.7823592738328
 30
0.0
  0
LINE
  5
B8
330
1F
100
AcDbEntity
  8
0
  6
Continuous
 62
     7
370
    15
100
AcDbLine
 10
210.9007651742
 20
84.6182278427
 30
0.0
 11
210.9007651742
 21
136.6182278427
 31
0.0
  0
LINE
  5
B9
330
1F
100
AcDbEntity
  8
0
  6
Continuous
 62
     7
370
    15
100
AcDbLine
 10
163.3481093288
 20
136.514087775
 30
0.0
 11
163.5603395103
 21
136.5015979306
 31
0.0
  0
SPLINE
  5
BA
330
1F
100
AcDbEntity
  8
0
  6
Continuous
 62
     7
370
    15
100
AcDbSpline
210
0.0
220
0.0
230
1.0
 70
     8
 71
     3
 72
    17
 73
    13
 74
     0
 42
0.00000001
 43
0.00000001
 40
0.0
 40
0.0
 40
0.0
 40
0.0
 40
0.0470500412984217
 40
0.1381716184625872
 40
0.232575602354976
 40
0.3354450387165428
 40
0.44819808383474
 40
0.568239072409826
 40
0.6907278471951271
 40
0.8100983132619343
 40
0.9202357624697161
 40
1.0
 40
1.0
 40
1.0
 40
1.0
 10
169.1738451270628
 20
136.6134576162373
 30
0.0
 10
169.1825824551427
 20
136.6143984065636
 30
0.0
 10
169.2082413223514
 20
136.6171612207594
 30
0.0
 10
168.8899709535743
 20
136.5828949507621
 30
0.0
 10
168.2822227883139
 20
136.5264715920023
 30
0.0
 10
167.3792692142525
 20
136.4632883470794
 30
0.0
 10
166.246922121542
 20
136.4213685173321
 30
0.0
 10
164.9903617082109
 20
136.4246390639913
 30
0.0
 10
163.7847812777139
 20
136.4780264084538
 30
0.0
 10
162.845333460564
 20
136.5526022148314
 30
0.0
 10
162.2905059886435
 20
136.6101404035693
 30
0.0
 10
162.2594188885387
 20
136.6136706737401
 30
0.0
 10
162.2463614013753
 20
136.6151534899978
 30
0.0
  0
SPLINE
  5
BB
330
1F
100
AcDbEntity
  8
0
  6
Continuous
 62
     7
370
    15
100
AcDbSpline
210
0.0
220
0.0
230
1.0
 70
     8
 71
     3
 72
     9
 73
     5
 74
     0
 42
0.00000001
 43
0.00000001
 40
0.0
 40
0.0
 40
0.0
 40
0.0
 40
0.1605213512938337
 40
1.0
 40
1.0
 40
1.0
 40
1.0
 10
162.9022691460644
 20
136.5509126730495
 30
0.0
 10
162.9202255905125
 20
136.549186133014
 30
0.0
 10
163.03208886791
 20
136.5384303050716
 30
0.0
 10
163.2038877959301
 20
136.5251969174183
 30
0.0
 10
163.3481093278735
 20
136.5140877710334
 30
0.0
  0
SPLINE
  5
BC
330
1F
100
AcDbEntity
  8
0
  6
Continuous
 62
     7
370
    15
100
AcDbSpline
210
0.0
220
0.0
230
1.0
 70
     8
 71
     3
 72
    66
 73
    62
 74
     0
 42
0.00000001
 43
0.00000001
 40
-0.0312500000000001
 40
-0.0312500000000001
 40
0.0
 40
0.0
 40
0.0312499999999999
 40
0.0312499999999999
 40
0.0624999999999998
 40
0.0624999999999998
 40
0.0937499999999996
 40
0.0937499999999996
 40
0.1249999999999995
 40
0.1249999999999995
 40
0.1562499999999994
 40
0.1562499999999994
 40
0.1874999999999993
 40
0.1874999999999993
 40
0.2187499999999991
 40
0.2187499999999991
 40
0.249999999999999
 40
0.249999999999999
 40
0.2812499999999989
 40
0.2812499999999989
 40
0.3124999999999988
 40
0.3124999999999988
 40
0.3437499999999986
 40
0.3437499999999986
 40
0.3749999999999985
 40
0.3749999999999985
 40
0.4062499999999984
 40
0.4062499999999984
 40
0.4374999999999982
 40
0.4374999999999982
 40
0.4687499999999981
 40
0.4687499999999981
 40
0.499999999999998
 40
0.499999999999998
 40
0.5312499999999979
 40
0.5312499999999979
 40
0.5624999999999978
 40
0.5624999999999978
 40
0.5937499999999977
 40
0.5937499999999977
 40
0.6249999999999976
 40
0.6249999999999976
 40
0.6874999999999983
 40
0.6874999999999983
 40
0.7499999999999992
 40
0.7499999999999992
 40
0.7812499999999993
 40
0.7812499999999993
 40
0.8124999999999994
 40
0.8124999999999994
 40
0.8437499999999996
 40
0.8437499999999996
 40
0.8749999999999996
 40
0.8749999999999996
 40
0.9062499999999997
 40
0.9062499999999997
 40
0.9374999999999998
 40
0.9374999999999998
 40
0.9687499999999999
 40
0.9687499999999999
 40
1.0
 40
1.0
 40
1.03125
 40
1.03125
 10
163.1792794709661
 20
112.8021464341961
 30
0.0
 10
163.5169391865406
 20
113.0837989315829
 30
0.0
 10
163.696469713117
 20
113.2062368864428
 30
0.0
 10
164.0750950714787
 20
113.4176228179308
 30
0.0
 10
164.275761040928
 20
113.507044272714
 30
0.0
 10
164.6898869977824
 20
113.6492501296158
 30
0.0
 10
164.9008393060369
 20
113.7015043062175
 30
0.0
 10
165.3302138110344
 20
113.7698879697013
 30
0.0
 10
165.550739367491
 20
113.7858751381526
 30
0.0
 10
165.9872269714093
 20
113.7800534787091
 30
0.0
 10
166.2031589277265
 20
113.7587072603374
 30
0.0
 10
166.6304256132121
 20
113.6793224764573
 30
0.0
 10
166.8437827367763
 20
113.6203723624597
 30
0.0
 10
167.2517235967478
 20
113.4678155819696
 30
0.0
 10
167.4470815144364
 20
113.3745035688836
 30
0.0
 10
167.8201340567823
 20
113.1528286732332
 30
0.0
 10
167.9995023420605
 20
113.0227131853628
 30
0.0
 10
168.3250367362463
 20
112.7347937234029
 30
0.0
 10
168.4725227549511
 20
112.5767490526362
 30
0.0
 10
168.7351226929576
 20
112.23070973022
 30
0.0
 10
168.8506209458684
 20
112.0407495456554
 30
0.0
 10
169.0344853311435
 20
111.6475671997473
 30
0.0
 10
169.1047275336388
 20
111.4425164480581
 30
0.0
 10
169.1985229284248
 20
111.0141692100652
 30
0.0
 10
169.2206415562114
 20
110.7946665151926
 30
0.0
 10
169.2143834166368
 20
110.360057626002
 30
0.0
 10
169.1856686668242
 20
110.1398729192137
 30
0.0
 10
169.0799559582672
 20
109.7155706014562
 30
0.0
 10
169.0038686294006
 20
109.5116383027338
 30
0.0
 10
168.8068638997017
 20
109.1196001700933
 30
0.0
 10
168.6872735194387
 20
108.9349664861103
 30
0.0
 10
168.4150002661493
 20
108.595426362432
 30
0.0
 10
168.2597261619374
 20
108.4376758814216
 30
0.0
 10
167.9250529265732
 20
108.1574558220272
 30
0.0
 10
167.7458075441405
 20
108.0343707817276
 30
0.0
 10
167.3645293726124
 20
107.8206525806841
 30
0.0
 10
167.1627706757444
 20
107.7307025496443
 30
0.0
 10
166.7515858527472
 20
107.5889347052507
 30
0.0
 10
166.540382167043
 20
107.5360483073235
 30
0.0
 10
166.1066367543256
 20
107.4665641760292
 30
0.0
 10
165.8880445411996
 20
107.4507788440634
 30
0.0
 10
165.2364269707699
 20
107.4587549769274
 30
0.0
 10
164.7972287832137
 20
107.5396848288459
 30
0.0
 10
163.9846902196155
 20
107.8427236854709
 30
0.0
 10
163.5995757891078
 20
108.0695781790674
 30
0.0
 10
163.1129395040607
 20
108.499367683127
 30
0.0
 10
162.9631769996091
 20
108.6593786536311
 30
0.0
 10
162.6981191020108
 20
109.0090871475471
 30
0.0
 10
162.5856457582706
 20
109.194564258388
 30
0.0
 10
162.4017412466553
 20
109.5873238047685
 30
0.0
 10
162.3297988413912
 20
109.7978001344885
 30
0.0
 10
162.2368395085735
 20
110.2245518418388
 30
0.0
 10
162.2149003937592
 20
110.4407443654431
 30
0.0
 10
162.2213226837734
 20
110.8789062895862
 30
0.0
 10
162.2503733928574
 20
111.0987167997985
 30
0.0
 10
162.3558732375424
 20
111.5213352287112
 30
0.0
 10
162.4336200551464
 20
111.7292117635731
 30
0.0
 10
162.6306142886237
 20
112.1198911587662
 30
0.0
 10
162.7490470236176
 20
112.3027046907584
 30
0.0
 10
163.023766564755
 20
112.6446234741471
 30
0.0
 10
163.1792794709661
 20
112.8021464341961
 30
0.0
 10
163.5169391865406
 20
113.0837989315829
 30
0.0
  0
LINE
  5
BD
330
1F
100
AcDbEntity
  8
0
  6
Continuous
 62
     7
370
    15
100
AcDbLine
 10
163.3481093288
 20
84.7223679105
 30
0.0
 11
163.2677676375
 21
84.7154680852
 31
0.0
  0
SPLINE
  5
BE
330
1F
100
AcDbEntity
  8
0
  6
Continuous
 62
     7
370
    15
100
AcDbSpline
210
0.0
220
0.0
230
1.0
 70
     8
 71
     3
 72
    17
 73
    13
 74
     0
 42
0.00000001
 43
0.00000001
 40
0.0
 40
0.0
 40
0.0
 40
0.0
 40
0.0513148464573145
 40
0.1424338041685802
 40
0.2371487760021596
 40
0.3404871886391304
 40
0.453672157811964
 40
0.5739484697328842
 40
0.6964270619817972
 40
0.8155028459941426
 40
0.925095834223551
 40
1.0
 40
1.0
 40
1.0
 40
1.0
 10
162.2611183586279
 20
84.62292728553538
 30
0.0
 10
162.2541128784651
 20
84.6221777678123
 30
0.0
 10
162.2346678784602
 20
84.62009734337452
 30
0.0
 10
162.5676047389321
 20
84.6558014900071
 30
0.0
 10
163.1897440720664
 20
84.71301464444869
 30
0.0
 10
164.1047411560435
 20
84.77581660835374
 30
0.0
 10
165.2461076596859
 20
84.81608970315395
 30
0.0
 10
166.5043639513637
 20
84.81034879817093
 30
0.0
 10
167.7027339079277
 20
84.755045469535
 30
0.0
 10
168.625079844649
 20
84.6805339242623
 30
0.0
 10
169.1556115507188
 20
84.62513604299949
 30
0.0
 10
169.1762639949838
 20
84.6227671733275
 30
0.0
 10
169.1846486994377
 20
84.62180543379515
 30
0.0
  0
LINE
  5
BF
330
1F
100
AcDbEntity
  8
0
  6
Continuous
 62
     7
370
    15
100
AcDbLine
 10
164.0339112812
 20
84.7655869971
 30
0.0
 11
163.3481093282
 21
84.7223679145
 31
0.0
  0
CIRCLE
  5
C0
330
1F
100
AcDbEntity
  8
0
  6
Continuous
 62
     7
370
    15
100
AcDbCircle
 10
165.7178066973
 20
110.6182278427
 30
0.0
 40
2.5
  0
ARC
  5
C1
330
1F
100
AcDbEntity
  8
0
  6
Continuous
 62
     7
370
    15
100
AcDbCircle
 10
132.7678607524
 20
143.2615747757
 30
0.0
 40
11.37423968197724
100
AcDbArc
 50
77.8281974113
 51
102.1903534332
  0
LINE
  5
C2
330
1F
100
AcDbEntity
  8
0
  6
Continuous
 62
     7
370
    15
100
AcDbLine
 10
223.7678066973
 20
91.8923683644
 30
0.0
 11
223.7678066973
 21
129.3440873134
 31
0.0
  0
LINE
  5
C3
330
1F
100
AcDbEntity
  8
0
  6
Continuous
 62
     7
370
    15
100
AcDbLine
 10
75.5178066973
 20
78.3682278427
 30
0.0
 11
75.5178066973
 21
78.3699426409
 31
0.0
  0
LINE
  5
C4
330
1F
100
AcDbEntity
  8
0
  6
Continuous
 62
     7
370
    15
100
AcDbLine
 10
75.5178066973
 20
142.8682278427
 30
0.0
 11
75.5178066973
 21
142.8665130446
 31
0.0
  0
ARC
  5
C5
330
1F
100
AcDbEntity
  8
0
  6
Continuous
 62
     7
370
    15
100
AcDbCircle
 10
199.2678066973
 20
110.6182278427
 30
0.0
 40
7.000000000000003
100
AcDbArc
 50
335.5123575918
 51
119.6094583666
  0
ARC
  5
C6
330
1F
100
AcDbEntity
  8
0
  6
Continuous
 62
     7
370
    15
100
AcDbCircle
 10
199.2678066973
 20
110.6182278427
 30
0.0
 40
6.999999999999998
100
AcDbArc
 50
240.4538608566
 51
335.5123575918
  0
LINE
  5
C7
330
1F
100
AcDbEntity
  8
0
  6
Continuous
 62
     7
370
    15
100
AcDbLine
 10
198.8241225394
 20
115.2156703602
 30
0.0
 11
195.0644626058
 21
112.5327073495
 31
0.0
  0
LINE
  5
C8
330
1F
100
AcDbEntity
  8
0
  6
Continuous
 62
     7
370
    15
100
AcDbLine
 10
195.5081467637
 20
107.935264832
 30
0.0
 11
195.0644626058
 21
112.5327073495
 31
0.0
  0
LINE
  5
C9
330
1F
100
AcDbEntity
  8
0
  6
Continuous
 62
     7
370
    15
100
AcDbLine
 10
199.7114908552
 20
106.0207853253
 30
0.0
 11
195.5081467637
 21
107.935264832
 31
0.0
  0
LINE
  5
CA
330
1F
100
AcDbEntity
  8
0
  6
Continuous
 62
     7
370
    15
100
AcDbLine
 10
203.0274666309
 20
113.3011908535
 30
0.0
 11
203.4711507888
 21
108.703748336
 31
0.0
  0
LINE
  5
CB
330
1F
100
AcDbEntity
  8
0
  6
Continuous
 62
     7
370
    15
100
AcDbLine
 10
203.0274666309
 20
113.3011908535
 30
0.0
 11
198.8241225394
 21
115.2156703602
 31
0.0
  0
LINE
  5
CC
330
1F
100
AcDbEntity
  8
0
  6
Continuous
 62
     7
370
    15
100
AcDbLine
 10
199.7114908552
 20
106.0207853253
 30
0.0
 11
203.4711507888
 21
108.703748336
 31
0.0
  0
ARC
  5
CD
330
1F
100
AcDbEntity
  8
0
  6
Continuous
 62
     7
370
    15
100
AcDbCircle
 10
204.2891836443
 20
99.486943077
 30
0.0
 40
19.55577392587236
100
AcDbArc
 50
357.9718982864
 51
5.0911211554
  0
ARC
  5
CE
330
1F
100
AcDbEntity
  8
0
  6
Continuous
 62
     7
370
    15
100
AcDbCircle
 10
214.3318606663
 20
121.7555688272
 30
0.0
 40
9.46041318466675
100
AcDbArc
 50
355.878380013
 51
4.121619987
  0
LINE
  5
CF
330
1F
100
AcDbEntity
  8
0
  6
HIDDEN
 62
     7
370
     0
100
AcDbLine
 10
140.5057776764
 20
149.5691906036
 30
0.0
 11
140.5057776764
 21
141.9682278427
 31
0.0
  0
SPLINE
  5
D0
330
1F
100
AcDbEntity
  8
0
  6
HIDDEN
 62
     7
370
     0
100
AcDbSpline
210
0.0
220
0.0
230
1.0
 70
     8
 71
     3
 72
    80
 73
    76
 74
     0
 42
0.00000001
 43
0.00000001
 40
-0.0312500000000003
 40
-0.0312500000000003
 40
0.0
 40
0.0
 40
0.03125
 40
0.03125
 40
0.046875
 40
0.046875
 40
0.0624999999999999
 40
0.0624999999999999
 40
0.0937499999999998
 40
0.0937499999999998
 40
0.1249999999999996
 40
0.1249999999999996
 40
0.1562499999999995
 40
0.1562499999999995
 40
0.1874999999999994
 40
0.1874999999999994
 40
0.2187499999999993
 40
0.2187499999999993
 40
0.2499999999999992
 40
0.2499999999999992
 40
0.2812499999999991
 40
0.2812499999999991
 40
0.3124999999999989
 40
0.3124999999999989
 40
0.3281249999999988
 40
0.3281249999999988
 40
0.3437499999999986
 40
0.3437499999999986
 40
0.3749999999999983
 40
0.3749999999999983
 40
0.4062499999999981
 40
0.4062499999999981
 40
0.4218749999999979
 40
0.4218749999999979
 40
0.4374999999999978
 40
0.4374999999999978
 40
0.4687499999999977
 40
0.4687499999999977
 40
0.4999999999999975
 40
0.4999999999999975
 40
0.5312499999999972
 40
0.5312499999999972
 40
0.562499999999997
 40
0.562499999999997
 40
0.5937499999999968
 40
0.5937499999999968
 40
0.6249999999999966
 40
0.6249999999999966
 40
0.6562499999999964
 40
0.6562499999999964
 40
0.6874999999999962
 40
0.6874999999999962
 40
0.7031249999999962
 40
0.7031249999999962
 40
0.7187499999999963
 40
0.7187499999999963
 40
0.7499999999999968
 40
0.7499999999999968
 40
0.7812499999999972
 40
0.7812499999999972
 40
0.7968749999999976
 40
0.7968749999999976
 40
0.8124999999999978
 40
0.8124999999999978
 40
0.8437499999999981
 40
0.8437499999999981
 40
0.8749999999999984
 40
0.8749999999999984
 40
0.9062499999999989
 40
0.9062499999999989
 40
0.9374999999999992
 40
0.9374999999999992
 40
0.9687499999999997
 40
0.9687499999999997
 40
1.0
 40
1.0
 40
1.03125
 40
1.03125
 10
133.0983520100613
 20
159.4777770992133
 30
0.0
 10
132.4372613845086
 20
159.4777770992133
 30
0.0
 10
132.112281255257
 20
159.4708789533865
 30
0.0
 10
131.6328078440106
 20
159.4503525254059
 30
0.0
 10
131.4743260261698
 20
159.4417962983184
 30
0.0
 10
131.1601064936655
 20
159.4210699231008
 30
0.0
 10
131.0039862099851
 20
159.4088426228944
 30
0.0
 10
130.5499321810285
 20
159.3672733290652
 30
0.0
 10
130.2628287980887
 20
159.3329290439674
 30
0.0
 10
129.7194742420617
 20
159.2496049196451
 30
0.0
 10
129.4623706308561
 20
159.2001666968706
 30
0.0
 10
129.0014643759173
 20
159.0887869671107
 30
0.0
 10
128.7945666667024
 20
159.0264924535985
 30
0.0
 10
128.4290413527102
 20
158.8865628107276
 30
0.0
 10
128.2738358305842
 20
158.8099469129785
 30
0.0
 10
128.0244054439845
 20
158.6459882931228
 30
0.0
 10
127.9283154881993
 20
158.557431439027
 30
0.0
 10
127.7997966390058
 20
158.3699507569213
 30
0.0
 10
127.767985768828
 20
158.2727142954668
 30
0.0
 10
127.7676291190547
 20
158.0710816561398
 30
0.0
 10
127.8001263712518
 20
157.9655328643016
 30
0.0
 10
127.9277518449662
 20
157.7554180816131
 30
0.0
 10
128.0221802460181
 20
157.6503525736442
 30
0.0
 10
128.2100410660037
 20
157.4934748663931
 30
0.0
 10
128.2808690648069
 20
157.4410411326874
 30
0.0
 10
128.4355909567722
 20
157.3386026870576
 30
0.0
 10
128.5195674269556
 20
157.2884549584058
 30
0.0
 10
128.7908910966
 20
157.1414390019723
 30
0.0
 10
128.9974403152023
 20
157.0479511815378
 30
0.0
 10
129.4640504553914
 20
156.8721643239235
 30
0.0
 10
129.7164160250168
 20
156.7927858488398
 30
0.0
 10
130.1223173666955
 20
156.6873034113457
 30
0.0
 10
130.262217984173
 20
156.6544178465056
 30
0.0
 10
130.5514419194199
 20
156.5935023672769
 30
0.0
 10
130.7012813757092
 20
156.5654217956345
 30
0.0
 10
131.15539794532
 20
156.4906197535917
 30
0.0
 10
131.4670491640568
 20
156.4525816953456
 30
0.0
 10
132.1080456289692
 20
156.4009697688215
 30
0.0
 10
132.4395732569214
 20
156.3876558353
 30
0.0
 10
133.0923643019929
 20
156.3875587489719
 30
0.0
 10
133.4169005070247
 20
156.400346834133
 30
0.0
 10
134.0621699564411
 20
156.4518370237289
 30
0.0
 10
134.3779129626038
 20
156.490361603049
 30
0.0
 10
134.9798022575875
 20
156.5892641659071
 30
0.0
 10
135.270551488399
 20
156.6503682638321
 30
0.0
 10
135.8174632800835
 20
156.7921776969427
 30
0.0
 10
136.0692406439204
 20
156.8715121815219
 30
0.0
 10
136.5306286365415
 20
157.0448909261834
 30
0.0
 10
136.7418979161396
 20
157.1400508709374
 30
0.0
 10
137.1052022685158
 20
157.3366233943133
 30
0.0
 10
137.2590089169586
 20
157.4383796227197
 30
0.0
 10
137.447628386556
 20
157.5951655855052
 30
0.0
 10
137.5036588727651
 20
157.6484196192552
 30
0.0
 10
137.5992326345013
 20
157.754224180808
 30
0.0
 10
137.6389955515263
 20
157.8068772451635
 30
0.0
 10
137.7347673018384
 20
157.9639509646227
 30
0.0
 10
137.7674901409645
 20
158.0674759999498
 30
0.0
 10
137.7681187272936
 20
158.2716907341769
 30
0.0
 10
137.7359325825588
 20
158.3691945717616
 30
0.0
 10
137.6410218807032
 20
158.5085216221133
 30
0.0
 10
137.6015550973043
 20
158.5538383536178
 30
0.0
 10
137.5066250985834
 20
158.6422781746066
 30
0.0
 10
137.45086827082
 20
158.6855324250666
 30
0.0
 10
137.2629281528502
 20
158.8094238996565
 30
0.0
 10
137.109566683134
 20
158.8851261904306
 30
0.0
 10
136.7473024482536
 20
159.0243805618888
 30
0.0
 10
136.5364539747877
 20
159.0881424034175
 30
0.0
 10
136.0757840044688
 20
159.1996392428854
 30
0.0
 10
135.824409624885
 20
159.248165315202
 30
0.0
 10
135.2785017379868
 20
159.3322192985825
 30
0.0
 10
134.9876791633356
 20
159.3670178522491
 30
0.0
 10
134.3863525485556
 20
159.422214317013
 30
0.0
 10
134.0718339639432
 20
159.4430321657669
 30
0.0
 10
133.4252525078233
 20
159.4708794986776
 30
0.0
 10
133.0983520100613
 20
159.4777770992133
 30
0.0
 10
132.4372613845086
 20
159.4777770992133
 30
0.0
  0
LINE
  5
D1
330
1F
100
AcDbEntity
  8
0
  6
HIDDEN
 62
     7
370
     0
100
AcDbLine
 10
104.1812314467
 20
73.8824214805
 30
0.0
 11
103.9112757459
 21
73.8584953812
 31
0.0
  0
SPLINE
  5
D2
330
1F
100
AcDbEntity
  8
0
  6
HIDDEN
 62
     7
370
     0
100
AcDbSpline
210
0.0
220
0.0
230
1.0
 70
     8
 71
     3
 72
    12
 73
     8
 74
     0
 42
0.00000001
 43
0.00000001
 40
0.0
 40
0.0
 40
0.0
 40
0.0
 40
0.1661348616735903
 40
0.3322013257393936
 40
0.5008932044678248
 40
0.752137078264078
 40
1.0
 40
1.0
 40
1.0
 40
1.0
 10
102.2871283629322
 20
147.5495318658008
 30
0.0
 10
102.2975209870402
 20
147.5481537417394
 30
0.0
 10
102.3183019566202
 20
147.5453980609893
 30
0.0
 10
102.4916014460671
 20
147.5237946860273
 30
0.0
 10
102.8135530353108
 20
147.4859297340854
 30
0.0
 10
103.3347188712302
 20
147.4255459673692
 30
0.0
 10
103.9002768110679
 20
147.3777528302198
 30
0.0
 10
104.1811402347559
 20
147.3540181371264
 30
0.0
  0
SPLINE
  5
D3
330
1F
100
AcDbEntity
  8
0
  6
HIDDEN
 62
     7
370
     0
100
AcDbSpline
210
0.0
220
0.0
230
1.0
 70
     8
 71
     3
 72
     9
 73
     5
 74
     0
 42
0.00000001
 43
0.00000001
 40
0.0
 40
0.0
 40
0.0
 40
0.0
 40
0.6612244203351327
 40
1.0
 40
1.0
 40
1.0
 40
1.0
 10
114.021012352476
 20
141.9845500634824
 30
0.0
 10
114.3125152025284
 20
142.0283356707184
 30
0.0
 10
114.7533683245359
 20
142.0945546515809
 30
0.0
 10
114.7019576951984
 20
142.0867496792921
 30
0.0
 10
114.6845410294437
 20
142.0841055452807
 30
0.0
  0
SPLINE
  5
D4
330
1F
100
AcDbEntity
  8
0
  6
HIDDEN
 62
     7
370
     0
100
AcDbSpline
210
0.0
220
0.0
230
1.0
 70
     8
 71
     3
 72
     9
 73
     5
 74
     0
 42
0.00000001
 43
0.00000001
 40
0.0
 40
0.0
 40
0.0
 40
0.0
 40
0.3224719727794762
 40
1.0
 40
1.0
 40
1.0
 40
1.0
 10
114.684541054293
 20
79.15235013689397
 30
0.0
 10
114.703182412553
 20
79.14958222948044
 30
0.0
 10
114.7609900976652
 20
79.14099882488352
 30
0.0
 10
114.3198780964456
 20
79.20711205536617
 30
0.0
 10
114.021012352476
 20
79.25190562198824
 30
0.0
  0
SPLINE
  5
D5
330
1F
100
AcDbEntity
  8
0
  6
HIDDEN
 62
     7
370
     0
100
AcDbSpline
210
0.0
220
0.0
230
1.0
 70
     8
 71
     3
 72
    15
 73
    11
 74
     0
 42
0.00000001
 43
0.00000001
 40
0.0
 40
0.0
 40
0.0
 40
0.0
 40
0.1285821516379736
 40
0.2571635483376876
 40
0.385323567199189
 40
0.5113778119466696
 40
0.6369260966772228
 40
0.7643185820319293
 40
0.8930603485208921
 40
1.0
 40
1.0
 40
1.0
 40
1.0
 10
114.021012352476
 20
79.25190562198824
 30
0.0
 10
113.6354902312358
 20
79.31371141257218
 30
0.0
 10
112.8644482522532
 20
79.43732263086264
 30
0.0
 10
111.0858904054966
 20
79.6280712148684
 30
0.0
 10
109.0920791100569
 20
79.71571865197373
 30
0.0
 10
107.0680412028222
 20
79.6688134892713
 30
0.0
 10
105.2399326358632
 20
79.50856328152977
 30
0.0
 10
103.8085014145842
 20
79.30738392365069
 30
0.0
 10
102.9046179371086
 20
79.14484218900397
 30
0.0
 10
102.8420339993525
 20
79.13244190230364
 30
0.0
 10
102.8136367478868
 20
79.12681531388013
 30
0.0
  0
SPLINE
  5
D6
330
1F
100
AcDbEntity
  8
0
  6
HIDDEN
 62
     7
370
     0
100
AcDbSpline
210
0.0
220
0.0
230
1.0
 70
     8
 71
     3
 72
    16
 73
    12
 74
     0
 42
0.00000001
 43
0.00000001
 40
0.0
 40
0.0
 40
0.0
 40
0.0
 40
0.0205567982654305
 40
0.1461296737692548
 40
0.2720439921275847
 40
0.3999539720187822
 40
0.528504097482051
 40
0.655245546444081
 40
0.7805594897978894
 40
0.9070378665747952
 40
1.0
 40
1.0
 40
1.0
 40
1.0
 10
102.8136367478868
 20
142.1096403715905
 30
0.0
 10
102.7989695356038
 20
142.1123867481952
 30
0.0
 10
102.6947064631961
 20
142.1319095898415
 30
0.0
 10
103.1454864740427
 20
142.0455350320846
 30
0.0
 10
104.1587256046176
 20
141.8744024301506
 30
0.0
 10
105.7530539225988
 20
141.6708616452133
 30
0.0
 10
107.6795532847334
 20
141.5384706792385
 30
0.0
 10
109.726045085285
 20
141.5346745005477
 30
0.0
 10
111.6392045010079
 20
141.6574510731774
 30
0.0
 10
113.1239128864071
 20
141.8392659332989
 30
0.0
 10
113.7540610895415
 20
141.9413176422139
 30
0.0
 10
114.021012352476
 20
141.9845500634824
 30
0.0
  0
LINE
  5
D7
330
1F
100
AcDbEntity
  8
0
  6
HIDDEN
 62
     7
370
     0
100
AcDbLine
 10
93.7644310243
 20
84.1182278427
 30
0.0
 11
93.7644310243
 21
137.1182278427
 31
0.0
  0
LINE
  5
D8
330
1F
100
AcDbEntity
  8
0
  6
HIDDEN
 62
     7
370
     0
100
AcDbLine
 10
133.0518843156
 20
84.1182278427
 30
0.0
 11
133.0518843156
 21
137.1182278427
 31
0.0
  0
LINE
  5
D9
330
1F
100
AcDbEntity
  8
0
  6
HIDDEN
 62
     7
370
     0
100
AcDbLine
 10
136.2178066973
 20
85.7432278427
 30
0.0
 11
136.2178066973
 21
135.4932278143
 31
0.0
  0
SPLINE
  5
DA
330
1F
100
AcDbEntity
  8
0
  6
HIDDEN
 62
     7
370
     0
100
AcDbSpline
210
0.0
220
0.0
230
1.0
 70
     8
 71
     3
 72
    20
 73
    16
 74
     0
 42
0.00000001
 43
0.00000001
 40
0.0
 40
0.0
 40
0.0
 40
0.0
 40
0.2499999999999978
 40
0.2499999999999978
 40
0.3749999999999982
 40
0.3749999999999982
 40
0.4999999999999986
 40
0.4999999999999986
 40
0.6249999999999989
 40
0.6249999999999989
 40
0.7499999999999992
 40
0.7499999999999992
 40
0.8749999999999997
 40
0.8749999999999997
 40
1.0
 40
1.0
 40
1.0
 40
1.0
 10
83.96780669728496
 20
135.8467414731496
 30
0.0
 10
83.96780669728496
 20
135.7675384866174
 30
0.0
 10
83.92082420207223
 20
135.6864422682144
 30
0.0
 10
83.78300261129465
 20
135.5662455764635
 30
0.0
 10
83.72672032738467
 20
135.5273188724614
 30
0.0
 10
83.59363547591744
 20
135.452130140037
 30
0.0
 10
83.51579553368438
 20
135.4154879346951
 30
0.0
 10
83.34316317757003
 20
135.3478974018632
 30
0.0
 10
83.24877018047897
 20
135.3169392200876
 30
0.0
 10
83.04333287416382
 20
135.2614147987179
 30
0.0
 10
82.93098663417663
 20
135.2367062848847
 30
0.0
 10
82.698745770277
 20
135.1969100577764
 30
0.0
 10
82.57803512785428
 20
135.1814902203794
 30
0.0
 10
82.32696426858526
 20
135.1604102455398
 30
0.0
 10
82.19744227216947
 20
135.1549330005188
 30
0.0
 10
82.06780669728498
 20
135.1549330005188
 30
0.0
  0
LINE
  5
DB
330
1F
100
AcDbEntity
  8
0
  6
HIDDEN
 62
     7
370
     0
100
AcDbLine
 10
82.0678066973
 20
135.1549330005
 30
0.0
 11
75.5178066973
 21
135.1549330005
 31
0.0
  0
LINE
  5
DC
330
1F
100
AcDbEntity
  8
0
  6
HIDDEN
 62
     7
370
     0
100
AcDbLine
 10
75.5178066973
 20
86.081522685
 30
0.0
 11
87.0678066973
 21
86.081522685
 31
0.0
  0
SPLINE
  5
DD
330
1F
100
AcDbEntity
  8
0
  6
HIDDEN
 62
     7
370
     0
100
AcDbSpline
210
0.0
220
0.0
230
1.0
 70
     8
 71
     3
 72
    18
 73
    14
 74
     0
 42
0.00000001
 43
0.00000001
 40
0.0
 40
0.0
 40
0.0
 40
0.0
 40
0.1249999999999982
 40
0.1249999999999982
 40
0.2499999999999964
 40
0.2499999999999964
 40
0.4999999999999988
 40
0.4999999999999988
 40
0.7500000000000011
 40
0.7500000000000011
 40
0.8750000000000006
 40
0.8750000000000006
 40
1.0
 40
1.0
 40
1.0
 40
1.0
 10
87.06780669728495
 20
86.0815226849518
 30
0.0
 10
87.19727401024218
 20
86.08152268495179
 30
0.0
 10
87.3242847591388
 20
86.07616968635915
 30
0.0
 10
87.57364808033606
 20
86.05543171367037
 30
0.0
 10
87.6972717349645
 20
86.03975980941608
 30
0.0
 10
88.04630407189853
 20
85.98006508101399
 30
0.0
 10
88.25681583670533
 20
85.92229990133302
 30
0.0
 10
88.60073251440484
 20
85.78777806005552
 30
0.0
 10
88.73708291592267
 20
85.71010894655011
 30
0.0
 10
88.87412097248519
 20
85.59081781246277
 30
0.0
 10
88.9093399911981
 20
85.54989880332772
 30
0.0
 10
88.95596356813665
 20
85.46924281003768
 30
0.0
 10
88.96780669728497
 20
85.42927428984484
 30
0.0
 10
88.96780669728496
 20
85.38971421232101
 30
0.0
  0
LINE
  5
DE
330
1F
100
AcDbEntity
  8
0
  6
HIDDEN
 62
     7
370
     0
100
AcDbLine
 10
75.5178066973
 20
86.081522685
 30
0.0
 11
75.5178066973
 21
135.1549330005
 31
0.0
  0
SPLINE
  5
DF
330
1F
100
AcDbEntity
  8
0
  6
HIDDEN
 62
     7
370
     0
100
AcDbSpline
210
0.0
220
0.0
230
1.0
 70
     8
 71
     3
 72
    12
 73
     8
 74
     0
 42
0.00000001
 43
0.00000001
 40
0.0
 40
0.0
 40
0.0
 40
0.0
 40
0.3580587489949725
 40
0.4856318002691161
 40
0.6173138142379255
 40
0.7531498424086022
 40
1.0
 40
1.0
 40
1.0
 40
1.0
 10
199.267806697285
 20
103.6182278427353
 30
0.0
 10
199.7066571391218
 20
103.640709668726
 30
0.0
 10
200.3018659720754
 20
103.67120156331
 30
0.0
 10
201.0369355049946
 20
103.8402523442805
 30
0.0
 10
201.4977923176734
 20
103.9778675404234
 30
0.0
 10
202.0867200332134
 20
104.1920773414448
 30
0.0
 10
202.4901731938095
 20
104.4214195321171
 30
0.0
 10
202.7504190035075
 20
104.569355773393
 30
0.0
  0
SPLINE
  5
E0
330
1F
100
AcDbEntity
  8
0
  6
HIDDEN
 62
     7
370
     0
100
AcDbSpline
210
0.0
220
0.0
230
1.0
 70
     8
 71
     3
 72
    16
 73
    12
 74
     0
 42
0.00000001
 43
0.00000001
 40
0.0
 40
0.0
 40
0.0
 40
0.0
 40
0.0139614444683453
 40
0.1203785948472064
 40
0.3182681161005243
 40
0.4981324481916993
 40
0.677889037361958
 40
0.7418809187484577
 40
0.8079088279851767
 40
0.8759954899171442
 40
0.9999999999999999
 40
0.9999999999999999
 40
0.9999999999999999
 40
0.9999999999999999
 10
202.7366432532395
 20
116.6915571209621
 30
0.0
 10
202.7084361175197
 20
116.7098759570228
 30
0.0
 10
202.4652280905628
 20
116.867824924926
 30
0.0
 10
201.7575121401797
 20
117.1800440967207
 30
0.0
 10
200.6315231591654
 20
117.5340541753753
 30
0.0
 10
199.2682972777846
 20
117.6590108398816
 30
0.0
 10
198.2337609958885
 20
117.5617977555304
 30
0.0
 10
197.4985395197745
 20
117.3967075058944
 30
0.0
 10
197.0379637047858
 20
117.2584865573922
 30
0.0
 10
196.4489470667232
 20
117.0444406556773
 30
0.0
 10
196.0452243563835
 20
116.8151272294734
 30
0.0
 10
195.7846010472544
 20
116.6670938827371
 30
0.0
  0
SPLINE
  5
E1
330
1F
100
AcDbEntity
  8
0
  6
HIDDEN
 62
     7
370
     0
100
AcDbSpline
210
0.0
220
0.0
230
1.0
 70
     8
 71
     3
 72
    11
 73
     7
 74
     0
 42
0.00000001
 43
0.00000001
 40
0.0
 40
0.0
 40
0.0
 40
0.0
 40
0.0270714716335912
 40
0.2415878016821855
 40
0.6392577732576084
 40
1.0
 40
1.0
 40
1.0
 40
1.0
 10
195.7992345218474
 20
104.5445494829089
 30
0.0
 10
195.8264752004854
 20
104.5268446364687
 30
0.0
 10
196.0695730179058
 20
104.3688452861377
 30
0.0
 10
196.7777515537055
 20
104.0583985668281
 30
0.0
 10
197.9049523990197
 20
103.689791429214
 30
0.0
 10
198.8285115622502
 20
103.641295264855
 30
0.0
 10
199.267806697285
 20
103.6182278427353
 30
0.0
  0
LWPOLYLINE
  5
E2
330
1F
100
AcDbEntity
  8
0
  6
HIDDEN
 62
     7
370
     0
100
AcDbPolyline
 90
       14
 70
   128
 43
0.0
 10
132.7678066973
 20
150.561958406
 10
133.8073651514
 20
150.6063992636
 10
134.8014899127
 20
150.7377795577
 10
135.7067329587
 20
150.950357339
 10
136.4835308247
 20
151.2348419384
 10
137.0979337162
 20
151.5788000137
 10
137.5230892788
 20
151.9671989467
 10
137.7404161741
 20
152.3830638401
 10
137.7404161741
 20
152.8082194027
 10
137.5230892788
 20
153.2240842961
 10
137.0979337162
 20
153.6124832291
 10
136.4835308247
 20
153.9564413045
 10
135.7067329587
 20
154.2409259038
 10
135.1660480743
 20
154.380119011
  0
LWPOLYLINE
  5
E3
330
1F
100
AcDbEntity
  8
0
  6
HIDDEN
 62
     7
370
     0
100
AcDbPolyline
 90
       14
 70
   128
 43
0.0
 10
130.3660736684
 20
154.3793419592
 10
129.8288804358
 20
154.2409259038
 10
129.0520825699
 20
153.9564413045
 10
128.4376796784
 20
153.6124832291
 10
128.0125241158
 20
153.2240842961
 10
127.7951972204
 20
152.8082194027
 10
127.7951972204
 20
152.3830638401
 10
128.0125241158
 20
151.9671989467
 10
128.4376796784
 20
151.5788000137
 10
129.0520825699
 20
151.2348419384
 10
129.8288804358
 20
150.950357339
 10
130.7341234819
 20
150.7377795577
 10
131.7282482432
 20
150.6063992636
 10
132.7678066973
 20
150.561958406
  0
LINE
  5
E4
330
1F
100
AcDbEntity
  8
0
  6
HIDDEN
 62
     7
370
     0
100
AcDbLine
 10
75.5178066973
 20
83.2482278427
 30
0.0
 11
75.5178066973
 21
78.3699426409
 31
0.0
  0
LINE
  5
E5
330
1F
100
AcDbEntity
  8
0
  6
HIDDEN
 62
     7
370
     0
100
AcDbLine
 10
88.9678066973
 20
83.2482278427
 30
0.0
 11
88.9678066973
 21
76.7488945774
 31
0.0
  0
LINE
  5
E6
330
1F
100
AcDbEntity
  8
0
  6
HIDDEN
 62
     7
370
     0
100
AcDbLine
 10
83.9678066973
 20
137.9882278427
 30
0.0
 11
83.9678066973
 21
144.3628365797
 31
0.0
  0
LINE
  5
E7
330
1F
100
AcDbEntity
  8
0
  6
HIDDEN
 62
     7
370
     0
100
AcDbLine
 10
75.5178066973
 20
137.9882278427
 30
0.0
 11
75.5178066973
 21
142.8665130446
 31
0.0
  0
LWPOLYLINE
  5
E8
330
1F
100
AcDbEntity
  8
0
  6
HIDDEN
 62
     7
370
     0
100
AcDbPolyline
 90
       17
 70
   128
 43
0.0
 10
174.7678066973
 20
96.1225388284
 10
174.1937815487
 20
96.2032767765
 10
173.7071465255
 20
96.4331990002
 10
173.3819873985
 20
96.7773019251
 10
173.2678066973
 20
97.1831990002
 10
173.3819873985
 20
97.5890960753
 10
173.7071465255
 20
97.9331990002
 10
174.1937815487
 20
98.1631212238
 10
174.7678066973
 20
98.243859172
 10
175.3418318458
 20
98.1631212238
 10
175.8284668691
 20
97.9331990002
 10
176.1536259961
 20
97.5890960753
 10
176.2678066973
 20
97.1831990002
 10
176.1536259961
 20
96.7773019251
 10
175.8284668691
 20
96.4331990002
 10
175.3418318458
 20
96.2032767765
 10
174.7678066973
 20
96.1225388284
  0
SPLINE
  5
E9
330
1F
100
AcDbEntity
  8
0
  6
HIDDEN
 62
     7
370
     0
100
AcDbSpline
210
0.0
220
0.0
230
1.0
 70
     8
 71
     3
 72
    14
 73
    10
 74
     0
 42
0.00000001
 43
0.00000001
 40
0.0
 40
0.0
 40
0.0
 40
0.0
 40
0.25
 40
0.25
 40
0.5
 40
0.5
 40
0.75
 40
0.75
 40
1.0
 40
1.0
 40
1.0
 40
1.0
 10
173.785690161728
 20
98.19378607504805
 30
0.0
 10
173.7545013093704
 20
98.1574277458944
 30
0.0
 10
173.7248120861899
 20
98.12155712253856
 30
0.0
 10
173.6778744324988
 20
98.03914340841908
 30
0.0
 10
173.6611435774455
 20
97.99020622197581
 30
0.0
 10
173.6707006698043
 20
97.85844822270882
 30
0.0
 10
173.6952489270235
 20
97.78094445823267
 30
0.0
 10
173.7537973735625
 20
97.62967924112719
 30
0.0
 10
173.7881340492777
 20
97.55457296079776
 30
0.0
 10
173.8240511983911
 20
97.48068362263284
 30
0.0
  0
SPLINE
  5
EA
330
1F
100
AcDbEntity
  8
0
  6
HIDDEN
 62
     7
370
     0
100
AcDbSpline
210
0.0
220
0.0
230
1.0
 70
     8
 71
     3
 72
    14
 73
    10
 74
     0
 42
0.00000001
 43
0.00000001
 40
0.0
 40
0.0
 40
0.0
 40
0.0
 40
0.25
 40
0.25
 40
0.5
 40
0.5
 40
0.75
 40
0.75
 40
1.0
 40
1.0
 40
1.0
 40
1.0
 10
173.8240511983916
 20
97.48068362263238
 30
0.0
 10
173.8592589798448
 20
97.51367514846213
 30
0.0
 10
173.8897940306017
 20
97.55361502252453
 30
0.0
 10
173.9317821450722
 20
97.6515957236489
 30
0.0
 10
173.9418450706033
 20
97.70810123469982
 30
0.0
 10
173.9335947947275
 20
97.83508208265037
 30
0.0
 10
173.9152083841743
 20
97.90434742231695
 30
0.0
 10
173.8603700467066
 20
98.04674249095925
 30
0.0
 10
173.8246326530312
 20
98.11959569045962
 30
0.0
 10
173.7856901617286
 20
98.1937860750498
 30
0.0
  0
SPLINE
  5
EB
330
1F
100
AcDbEntity
  8
0
  6
HIDDEN
 62
     7
370
     0
100
AcDbSpline
210
0.0
220
0.0
230
1.0
 70
     8
 71
     3
 72
    10
 73
     6
 74
     0
 42
0.00000001
 43
0.00000001
 40
0.0
 40
0.0
 40
0.0
 40
0.0
 40
0.5
 40
0.5
 40
1.0
 40
1.0
 40
1.0
 40
1.0
 10
173.2678066972846
 20
98.87590888627771
 30
0.0
 10
173.2678066972846
 20
98.89890590170425
 30
0.0
 10
173.268862695591
 20
98.91976598397598
 30
0.0
 10
173.27292463989
 20
98.95741453090751
 30
0.0
 10
173.2759315328322
 20
98.97420553071922
 30
0.0
 10
173.2798456294563
 20
98.98888747466208
 30
0.0
  0
SPLINE
  5
EC
330
1F
100
AcDbEntity
  8
0
  6
HIDDEN
 62
     7
370
     0
100
AcDbSpline
210
0.0
220
0.0
230
1.0
 70
     8
 71
     3
 72
    18
 73
    14
 74
     0
 42
0.00000001
 43
0.00000001
 40
0.0
 40
0.0
 40
0.0
 40
0.0
 40
0.0717322440337957
 40
0.1608051315997324
 40
0.2236374241965388
 40
0.2746248093580495
 40
0.3256431149586909
 40
0.3969999524034274
 40
0.5112839091017055
 40
0.6318409452773399
 40
0.7748542124876587
 40
0.9085088591211093
 40
1.0
 40
1.0
 40
1.0
 40
1.0
 10
173.2958518343526
 20
99.01820183652583
 30
0.0
 10
173.3007913405566
 20
99.02956199204053
 30
0.0
 10
173.3118644354509
 20
99.05502852145331
 30
0.0
 10
173.3331272569206
 20
99.0526709367715
 30
0.0
 10
173.3476596904439
 20
99.0290288323586
 30
0.0
 10
173.3524021388857
 20
98.98633246149272
 30
0.0
 10
173.3479906176165
 20
98.9227196434937
 30
0.0
 10
173.3313877559867
 20
98.82141652459893
 30
0.0
 10
173.3041910439688
 20
98.68572037152074
 30
0.0
 10
173.2765686133924
 20
98.52434369874845
 30
0.0
 10
173.2641548778036
 20
98.37640960725314
 30
0.0
 10
173.2723884569482
 20
98.27230725597599
 30
0.0
 10
173.288749078164
 20
98.24581439375888
 30
0.0
 10
173.2953974455044
 20
98.23504864852255
 30
0.0
  0
LWPOLYLINE
  5
ED
330
1F
100
AcDbEntity
  8
0
  6
HIDDEN
 62
     7
370
     0
100
AcDbPolyline
 90
        9
 70
   128
 43
0.0
 10
173.3034331972
 20
98.2179610954
 10
173.3324060513
 20
98.2153151378
 10
173.3460126289
 20
98.2400721317
 10
173.3509652005
 20
98.2796406911
 10
173.3476478241
 20
98.3371571887
 10
173.3351772828
 20
98.4175711081
 10
173.3095199015
 20
98.548635318
 10
173.2790761874
 20
98.7263840293
 10
173.2678066973
 20
98.8759088863
  0
SPLINE
  5
EE
330
1F
100
AcDbEntity
  8
0
  6
HIDDEN
 62
     7
370
     0
100
AcDbSpline
210
0.0
220
0.0
230
1.0
 70
     8
 71
     3
 72
     8
 73
     4
 74
     0
 42
0.00000001
 43
0.00000001
 40
0.0
 40
0.0
 40
0.0
 40
0.0
 40
1.0
 40
1.0
 40
1.0
 40
1.0
 10
176.0098407364955
 20
103.971170052744
 30
0.0
 10
175.968649890274
 20
104.0070787523403
 30
0.0
 10
175.9231071747475
 20
104.045114458988
 30
0.0
 10
175.8730326791652
 20
104.0875207180081
 30
0.0
  0
SPLINE
  5
EF
330
1F
100
AcDbEntity
  8
0
  6
HIDDEN
 62
     7
370
     0
100
AcDbSpline
210
0.0
220
0.0
230
1.0
 70
     8
 71
     3
 72
    32
 73
    28
 74
     0
 42
0.00000001
 43
0.00000001
 40
0.0
 40
0.0
 40
0.0
 40
0.0
 40
0.0624999999999989
 40
0.0624999999999989
 40
0.1249999999999979
 40
0.1249999999999979
 40
0.2499999999999987
 40
0.2499999999999987
 40
0.3124999999999978
 40
0.3124999999999978
 40
0.3749999999999969
 40
0.3749999999999969
 40
0.4999999999999969
 40
0.4999999999999969
 40
0.624999999999997
 40
0.624999999999997
 40
0.6874999999999974
 40
0.6874999999999974
 40
0.749999999999998
 40
0.749999999999998
 40
0.8124999999999984
 40
0.8124999999999984
 40
0.874999999999999
 40
0.874999999999999
 40
0.9374999999999994
 40
0.9374999999999994
 40
1.0
 40
1.0
 40
1.0
 40
1.0
 10
175.8730326791652
 20
104.0875207180081
 30
0.0
 10
175.7708401234613
 20
104.174063856121
 30
0.0
 10
175.6547659355836
 20
104.2479617555072
 30
0.0
 10
175.3951174591253
 20
104.3689178062488
 30
0.0
 10
175.2548324881591
 20
104.4139728873693
 30
0.0
 10
174.8167253797607
 20
104.4966499705725
 30
0.0
 10
174.5019958430242
 20
104.4779136807773
 30
0.0
 10
174.0846104928127
 20
104.347306442233
 30
0.0
 10
173.9518683889796
 20
104.2863133463022
 30
0.0
 10
173.7183641237421
 20
104.1401755168439
 30
0.0
 10
173.6141889103141
 20
104.0529782830802
 30
0.0
 10
173.3613479523294
 20
103.7701576150294
 30
0.0
 10
173.2678707959982
 20
103.5482351063098
 30
0.0
 10
173.2677426664362
 20
103.1222721072921
 30
0.0
 10
173.3593170587059
 20
102.9227227131302
 30
0.0
 10
173.6141770803252
 20
102.6806626573263
 30
0.0
 10
173.7165753261453
 20
102.6109100332772
 30
0.0
 10
173.9511451652202
 20
102.4940724723607
 30
0.0
 10
174.0826726142101
 20
102.4476143394691
 30
0.0
 10
174.3612620406811
 20
102.381190653131
 30
0.0
 10
174.5104549902522
 20
102.3608845351574
 30
0.0
 10
174.8085693547129
 20
102.3478659214266
 30
0.0
 10
174.9615347352887
 20
102.355040069734
 30
0.0
 10
175.2525052161572
 20
102.395960424896
 30
0.0
 10
175.3948136868591
 20
102.4303053773491
 30
0.0
 10
175.6526523309214
 20
102.5231932651267
 30
0.0
 10
175.7708390309578
 20
102.5823528002519
 30
0.0
 10
175.8730326791652
 20
102.6533132511633
 30
0.0
  0
SPLINE
  5
F0
330
1F
100
AcDbEntity
  8
0
  6
HIDDEN
 62
     7
370
     0
100
AcDbSpline
210
0.0
220
0.0
230
1.0
 70
     8
 71
     3
 72
     8
 73
     4
 74
     0
 42
0.00000001
 43
0.00000001
 40
0.0
 40
0.0
 40
0.0
 40
0.0
 40
1.0
 40
1.0
 40
1.0
 40
1.0
 10
175.8730326791652
 20
102.6533132511633
 30
0.0
 10
175.9231071747475
 20
102.6880835998885
 30
0.0
 10
175.968649890274
 20
102.7316395498214
 30
0.0
 10
176.0098407364955
 20
102.7817572182392
 30
0.0
  0
SPLINE
  5
F1
330
1F
100
AcDbEntity
  8
0
  6
HIDDEN
 62
     7
370
     0
100
AcDbSpline
210
0.0
220
0.0
230
1.0
 70
     8
 71
     3
 72
    12
 73
     8
 74
     0
 42
0.00000001
 43
0.00000001
 40
0.0
 40
0.0
 40
0.0
 40
0.0
 40
0.2500000000000003
 40
0.2500000000000003
 40
0.5000000000000006
 40
0.5000000000000006
 40
1.0
 40
1.0
 40
1.0
 40
1.0
 10
176.0098407364955
 20
102.7817572182392
 30
0.0
 10
176.0934536350386
 20
102.8834905864276
 30
0.0
 10
176.1573439413346
 20
102.9879384222953
 30
0.0
 10
176.2453291475982
 20
103.2038300753348
 30
0.0
 10
176.2676689419118
 20
103.3120111117547
 30
0.0
 10
176.2680803064846
 20
103.6284836185757
 30
0.0
 10
176.1770765525408
 20
103.8253798777177
 30
0.0
 10
176.0098407364955
 20
103.971170052744
 30
0.0
  0
SPLINE
  5
F2
330
1F
100
AcDbEntity
  8
0
  6
HIDDEN
 62
     7
370
     0
100
AcDbSpline
210
0.0
220
0.0
230
1.0
 70
     8
 71
     3
 72
    14
 73
    10
 74
     0
 42
0.00000001
 43
0.00000001
 40
0.0
 40
0.0
 40
0.0
 40
0.0
 40
0.25
 40
0.25
 40
0.5
 40
0.5
 40
0.75
 40
0.75
 40
1.0
 40
1.0
 40
1.0
 40
1.0
 10
173.8240511983913
 20
99.12951688182514
 30
0.0
 10
173.7880677477577
 20
99.16235036230778
 30
0.0
 10
173.7536463411586
 20
99.19407012245377
 30
0.0
 10
173.6950477797325
 20
99.26533781875872
 30
0.0
 10
173.6705261006034
 20
99.30575212222568
 30
0.0
 10
173.6612345208249
 20
99.42262129853522
 30
0.0
 10
173.6779805510232
 20
99.49775230505311
 30
0.0
 10
173.7249762551483
 20
99.64730438596129
 30
0.0
 10
173.7545634375438
 20
99.72276946266493
 30
0.0
 10
173.7856901617275
 20
99.79718690490141
 30
0.0
  0
SPLINE
  5
F3
330
1F
100
AcDbEntity
  8
0
  6
HIDDEN
 62
     7
370
     0
100
AcDbSpline
210
0.0
220
0.0
230
1.0
 70
     8
 71
     3
 72
    10
 73
     6
 74
     0
 42
0.00000001
 43
0.00000001
 40
0.0
 40
0.0
 40
0.0
 40
0.0
 40
0.5
 40
0.5
 40
1.0
 40
1.0
 40
1.0
 40
1.0
 10
173.7856901617286
 20
99.79718690490256
 30
0.0
 10
173.8634409159813
 20
99.74430978326785
 30
0.0
 10
173.9289970651834
 20
99.659420379391
 30
0.0
 10
173.9462864719948
 20
99.41976167076744
 30
0.0
 10
173.8944972961789
 20
99.27617210653587
 30
0.0
 10
173.8240511983917
 20
99.12951688182471
 30
0.0
  0
SPLINE
  5
F4
330
1F
100
AcDbEntity
  8
0
  6
HIDDEN
 62
     7
370
     0
100
AcDbSpline
210
0.0
220
0.0
230
1.0
 70
     8
 71
     3
 72
    48
 73
    44
 74
     0
 42
0.00000001
 43
0.00000001
 40
-0.0625000000000003
 40
-0.0625000000000003
 40
0.0
 40
0.0
 40
0.0312500000000001
 40
0.0312500000000001
 40
0.0625000000000001
 40
0.0625000000000001
 40
0.1249999999999997
 40
0.1249999999999997
 40
0.1874999999999993
 40
0.1874999999999993
 40
0.2499999999999989
 40
0.2499999999999989
 40
0.3124999999999985
 40
0.3124999999999985
 40
0.3437499999999981
 40
0.3437499999999981
 40
0.3749999999999976
 40
0.3749999999999976
 40
0.4062499999999971
 40
0.4062499999999971
 40
0.4374999999999966
 40
0.4374999999999966
 40
0.4999999999999972
 40
0.4999999999999972
 40
0.5624999999999979
 40
0.5624999999999979
 40
0.6249999999999986
 40
0.6249999999999986
 40
0.6874999999999993
 40
0.6874999999999993
 40
0.75
 40
0.75
 40
0.8125000000000007
 40
0.8125000000000007
 40
0.8437500000000004
 40
0.8437500000000004
 40
0.8750000000000001
 40
0.8750000000000001
 40
0.9062499999999999
 40
0.9062499999999999
 40
0.9374999999999997
 40
0.9374999999999997
 40
1.0
 40
1.0
 40
1.03125
 40
1.03125
 10
175.8985966746365
 20
97.43122700162533
 30
0.0
 10
176.0206645051535
 20
97.43461832684721
 30
0.0
 10
176.0591268350711
 20
97.44306514279353
 30
0.0
 10
176.1292763108376
 20
97.47534000684774
 30
0.0
 10
176.1612934436127
 20
97.49961276431355
 30
0.0
 10
176.2400290305305
 20
97.59643542583483
 30
0.0
 10
176.2697574313513
 20
97.6955850635698
 30
0.0
 10
176.2656456773212
 20
97.94450686533952
 30
0.0
 10
176.2315995846557
 20
98.09510831243405
 30
0.0
 10
176.120233426131
 20
98.40402348296257
 30
0.0
 10
176.0438345025404
 20
98.56278336258842
 30
0.0
 10
175.8806613222762
 20
98.8705546094267
 30
0.0
 10
175.7920218562605
 20
99.02129214233688
 30
0.0
 10
175.6828077555317
 20
99.23921735585938
 30
0.0
 10
175.6498862078197
 20
99.31237301555183
 30
0.0
 10
175.6054354948199
 20
99.45190965919763
 30
0.0
 10
175.5942026763958
 20
99.51991029456619
 30
0.0
 10
175.6009904748198
 20
99.63984380607734
 30
0.0
 10
175.6187374381053
 20
99.6932625407322
 30
0.0
 10
175.6708879645781
 20
99.78140961906173
 30
0.0
 10
175.7052611290453
 20
99.81753180514607
 30
0.0
 10
175.8172077897433
 20
99.90363115549681
 30
0.0
 10
175.9026917668968
 20
99.93272817289115
 30
0.0
 10
176.0608432447972
 20
99.93626676832586
 30
0.0
 10
176.1330881202321
 20
99.91030191484568
 30
0.0
 10
176.2387781766171
 20
99.78860485089837
 30
0.0
 10
176.2692772223753
 20
99.69175609167063
 30
0.0
 10
176.2662208464573
 20
99.44260702120339
 30
0.0
 10
176.2322981960629
 20
99.28967169833666
 30
0.0
 10
176.1223327684648
 20
98.9767908021704
 30
0.0
 10
176.0471775030719
 20
98.81583488011114
 30
0.0
 10
175.8884175733255
 20
98.50633241790713
 30
0.0
 10
175.8017728526837
 20
98.35345395137632
 30
0.0
 10
175.693302718238
 20
98.13483033588442
 30
0.0
 10
175.6603531515873
 20
98.0626833500992
 30
0.0
 10
175.611563611827
 20
97.92033534023739
 30
0.0
 10
175.5969720177033
 20
97.85204668831643
 30
0.0
 10
175.5969537808718
 20
97.72696592632711
 30
0.0
 10
175.611636007831
 20
97.67210437084654
 30
0.0
 10
175.6616483838555
 20
97.58015834739908
 30
0.0
 10
175.6956346898863
 20
97.5438397823267
 30
0.0
 10
175.8099322584789
 20
97.45736669338766
 30
0.0
 10
175.8985966746365
 20
97.43122700162533
 30
0.0
 10
176.0206645051535
 20
97.43461832684721
 30
0.0
  0
ARC
  5
F5
330
1F
100
AcDbEntity
  8
0
  6
HIDDEN
 62
     7
370
     0
100
AcDbCircle
 10
160.6267424284
 20
98.7062014395
 30
0.0
 40
13.20409613467315
100
AcDbArc
 50
1.8371833019
 51
4.7394539215
  0
LINE
  5
F6
330
1F
100
AcDbEntity
  8
0
  6
HIDDEN
 62
     7
370
     0
100
AcDbLine
 10
148.0678066973
 20
97.6182278427
 30
0.0
 11
148.0678066973
 21
123.6182278427
 31
0.0
  0
LINE
  5
F7
330
1F
100
AcDbEntity
  8
0
  6
HIDDEN
 62
     7
370
     0
100
AcDbLine
 10
152.0678066973
 20
97.6182278427
 30
0.0
 11
152.0678066973
 21
123.6182278427
 31
0.0
  0
LINE
  5
F8
330
1F
100
AcDbEntity
  8
0
  6
HIDDEN
 62
     7
370
     0
100
AcDbLine
 10
136.9678066973
 20
99.3682278427
 30
0.0
 11
136.9678066973
 21
121.8682278427
 31
0.0
  0
ELLIPSE
  5
F9
330
1F
100
AcDbEntity
  8
0
  6
HIDDEN
 62
     7
370
     0
100
AcDbEllipse
 10
67.583133497
 20
110.6182278427
 30
0.0
 11
31.08108570811662
 21
-1.421085471520200E-14
 31
0.0
210
0.0
220
0.0
230
1.0
 40
0.8164965809
 41
4.915995335118102
 42
4.970536038964788
  0
ELLIPSE
  5
FA
330
1F
100
AcDbEntity
  8
0
  6
HIDDEN
 62
     7
370
     0
100
AcDbEllipse
 10
67.583133497
 20
110.6182278427
 30
0.0
 11
31.08108570811662
 21
1.421085471520200E-14
 31
0.0
210
0.0
220
0.0
230
1.0
 40
0.8164965809
 41
1.312649268214811
 42
1.367189972061496
  0
ARC
  5
FB
330
1F
100
AcDbEntity
  8
0
  6
HIDDEN
 62
     7
370
     0
100
AcDbCircle
 10
190.0065119011
 20
98.7087951005
 30
0.0
 40
16.22899541549462
100
AcDbArc
 50
181.8185228138
 51
184.3399443331
  0
LINE
  5
FC
330
1F
100
AcDbEntity
  8
0
  6
HIDDEN
 62
     7
370
     0
100
AcDbLine
 10
152.7178066973
 20
66.7182278427
 30
0.0
 11
138.7178066973
 21
66.7182278427
 31
0.0
  0
LINE
  5
FD
330
1F
100
AcDbEntity
  8
0
  6
HIDDEN
 62
     7
370
     0
100
AcDbLine
 10
128.7178066973
 20
60.6282288429
 30
0.0
 11
128.7178066973
 21
66.7182278427
 31
0.0
  0
LINE
  5
FE
330
1F
100
AcDbEntity
  8
0
  6
HIDDEN
 62
     7
370
     0
100
AcDbLine
 10
138.7178066973
 20
66.7182278427
 30
0.0
 11
128.7178066973
 21
66.7182278427
 31
0.0
  0
SPLINE
  5
FF
330
1F
100
AcDbEntity
  8
0
  6
HIDDEN
 62
     7
370
     0
100
AcDbSpline
210
0.0
220
0.0
230
1.0
 70
     8
 71
     3
 72
     8
 73
     4
 74
     0
 42
0.00000001
 43
0.00000001
 40
0.0
 40
0.0
 40
0.0
 40
0.0
 40
1.0
 40
1.0
 40
1.0
 40
1.0
 10
175.8730326791652
 20
118.5831424343074
 30
0.0
 10
175.9231071747475
 20
118.5483720855821
 30
0.0
 10
175.9686498902741
 20
118.5048161356492
 30
0.0
 10
176.0098407364955
 20
118.4546984672314
 30
0.0
  0
SPLINE
  5
100
330
1F
100
AcDbEntity
  8
0
  6
HIDDEN
 62
     7
370
     0
100
AcDbSpline
210
0.0
220
0.0
230
1.0
 70
     8
 71
     3
 72
    32
 73
    28
 74
     0
 42
0.00000001
 43
0.00000001
 40
0.0
 40
0.0
 40
0.0
 40
0.0
 40
0.0624999999999999
 40
0.0624999999999999
 40
0.1249999999999997
 40
0.1249999999999997
 40
0.2500000000000023
 40
0.2500000000000023
 40
0.3125000000000037
 40
0.3125000000000037
 40
0.3750000000000051
 40
0.3750000000000051
 40
0.5000000000000053
 40
0.5000000000000053
 40
0.6250000000000056
 40
0.6250000000000056
 40
0.6875000000000047
 40
0.6875000000000047
 40
0.7500000000000038
 40
0.7500000000000038
 40
0.8125000000000029
 40
0.8125000000000029
 40
0.8750000000000019
 40
0.8750000000000019
 40
0.937500000000001
 40
0.937500000000001
 40
1.0
 40
1.0
 40
1.0
 40
1.0
 10
175.8730326791652
 20
117.1489349674625
 30
0.0
 10
175.7708401234613
 20
117.0623918293496
 30
0.0
 10
175.6547659355836
 20
116.9884939299634
 30
0.0
 10
175.3951174591253
 20
116.8675378792218
 30
0.0
 10
175.2548324881591
 20
116.8224827981013
 30
0.0
 10
174.8167253797607
 20
116.7398057148981
 30
0.0
 10
174.5019958430242
 20
116.7585420046933
 30
0.0
 10
174.0846104928127
 20
116.8891492432376
 30
0.0
 10
173.9518683889797
 20
116.9501423391685
 30
0.0
 10
173.7183641237421
 20
117.0962801686267
 30
0.0
 10
173.6141889103141
 20
117.1834774023904
 30
0.0
 10
173.3613479523294
 20
117.4662980704412
 30
0.0
 10
173.2678707959982
 20
117.6882205791608
 30
0.0
 10
173.2677426664362
 20
118.1141835781785
 30
0.0
 10
173.3593170587059
 20
118.3137329723404
 30
0.0
 10
173.6141770803252
 20
118.5557930281443
 30
0.0
 10
173.7165753261453
 20
118.6255456521934
 30
0.0
 10
173.9511451652202
 20
118.7423832131099
 30
0.0
 10
174.0826726142101
 20
118.7888413460016
 30
0.0
 10
174.3612620406811
 20
118.8552650323396
 30
0.0
 10
174.5104549902522
 20
118.8755711503132
 30
0.0
 10
174.8085693547129
 20
118.888589764044
 30
0.0
 10
174.9615347352887
 20
118.8814156157366
 30
0.0
 10
175.2525052161571
 20
118.8404952605746
 30
0.0
 10
175.3948136868591
 20
118.8061503081215
 30
0.0
 10
175.6526523309214
 20
118.713262420344
 30
0.0
 10
175.7708390309578
 20
118.6541028852187
 30
0.0
 10
175.8730326791652
 20
118.5831424343074
 30
0.0
  0
LINE
  5
101
330
1F
100
AcDbEntity
  8
0
  6
HIDDEN
 62
     7
370
     0
100
AcDbLine
 10
172.7678066973
 20
100.7182278427
 30
0.0
 11
172.7678066973
 21
120.5182277033
 31
0.0
  0
SPLINE
  5
102
330
1F
100
AcDbEntity
  8
0
  6
HIDDEN
 62
     7
370
     0
100
AcDbSpline
210
0.0
220
0.0
230
1.0
 70
     8
 71
     3
 72
    12
 73
     8
 74
     0
 42
0.00000001
 43
0.00000001
 40
0.0
 40
0.0
 40
0.0
 40
0.0
 40
0.2500000000000005
 40
0.2500000000000005
 40
0.500000000000001
 40
0.500000000000001
 40
1.0
 40
1.0
 40
1.0
 40
1.0
 10
176.0098407364955
 20
118.4546984672314
 30
0.0
 10
176.0934536350385
 20
118.352965099043
 30
0.0
 10
176.1573439413346
 20
118.2485172631753
 30
0.0
 10
176.2453291475982
 20
118.0326256101358
 30
0.0
 10
176.2676689419118
 20
117.9244445737159
 30
0.0
 10
176.2680803064846
 20
117.6079720668949
 30
0.0
 10
176.1770765525408
 20
117.411075807753
 30
0.0
 10
176.0098407364955
 20
117.2652856327266
 30
0.0
  0
LINE
  5
103
330
1F
100
AcDbEntity
  8
0
  6
HIDDEN
 62
     7
370
     0
100
AcDbLine
 10
176.7678066973
 20
100.6182278427
 30
0.0
 11
176.7678066973
 21
120.6182278427
 31
0.0
  0
LINE
  5
104
330
1F
100
AcDbEntity
  8
0
  6
HIDDEN
 62
     7
370
     0
100
AcDbLine
 10
88.9678066973
 20
83.2482278427
 30
0.0
 11
88.9678066973
 21
85.3897142123
 31
0.0
  0
LINE
  5
105
330
1F
100
AcDbEntity
  8
0
  6
HIDDEN
 62
     7
370
     0
100
AcDbLine
 10
75.5178066973
 20
83.2482278427
 30
0.0
 11
75.5178066973
 21
86.081522685
 31
0.0
  0
LINE
  5
106
330
1F
100
AcDbEntity
  8
0
  6
HIDDEN
 62
     7
370
     0
100
AcDbLine
 10
83.9678066973
 20
137.9882278427
 30
0.0
 11
83.9678066973
 21
135.8467414731
 31
0.0
  0
LINE
  5
107
330
1F
100
AcDbEntity
  8
0
  6
HIDDEN
 62
     7
370
     0
100
AcDbLine
 10
75.5178066973
 20
137.9882278427
 30
0.0
 11
75.5178066973
 21
135.1549330005
 31
0.0
  0
LINE
  5
108
330
1F
100
AcDbEntity
  8
0
  6
HIDDEN
 62
     7
370
     0
100
AcDbLine
 10
138.7178066973
 20
154.5182278427
 30
0.0
 11
128.7178066973
 21
154.5182278427
 31
0.0
  0
LINE
  5
109
330
1F
100
AcDbEntity
  8
0
  6
HIDDEN
 62
     7
370
     0
100
AcDbLine
 10
152.7178066973
 20
154.5182278427
 30
0.0
 11
138.7178066973
 21
154.5182278427
 31
0.0
  0
SPLINE
  5
10A
330
1F
100
AcDbEntity
  8
0
  6
HIDDEN
 62
     7
370
     0
100
AcDbSpline
210
0.0
220
0.0
230
1.0
 70
     8
 71
     3
 72
    30
 73
    26
 74
     0
 42
0.00000001
 43
0.00000001
 40
0.0
 40
0.0
 40
0.0
 40
0.0
 40
0.0531240661071964
 40
0.1125059855088366
 40
0.177904474645584
 40
0.2129291970155396
 40
0.249482990573407
 40
0.2912495984984925
 40
0.3260925829404584
 40
0.3540082314511498
 40
0.3749938967430113
 40
0.4414527730220408
 40
0.5001714431668567
 40
0.5546871400465488
 40
0.6144324316221768
 40
0.6794589548061833
 40
0.7140165850700969
 40
0.7499142142011653
 40
0.7913794768199842
 40
0.8260470471051382
 40
0.8539131411739312
 40
0.8749749068735888
 40
0.9411625805401567
 40
0.9999141552911154
 40
1.0
 40
1.0
 40
1.0
 40
1.0
 10
114.7673126730867
 20
73.51831043941417
 30
0.0
 10
114.7511200355934
 20
73.52320959564898
 30
0.0
 10
114.7168273171954
 20
73.53358501381157
 30
0.0
 10
114.4155335270358
 20
73.60923275153411
 30
0.0
 10
113.9733677500214
 20
73.70551832827596
 30
0.0
 10
113.4785346228397
 20
73.80518326724973
 30
0.0
 10
113.0080590371376
 20
73.89746138866235
 30
0.0
 10
112.4771375876172
 20
73.99309342883203
 30
0.0
 10
111.9389870910582
 20
74.07874367023929
 30
0.0
 10
111.4809397557385
 20
74.14603546356614
 30
0.0
 10
110.8253754348701
 20
74.23438363246267
 30
0.0
 10
109.9420689967292
 20
74.3310417167552
 30
0.0
 10
108.8134072640579
 20
74.41781689350532
 30
0.0
 10
107.7236455143022
 20
74.45589559122138
 30
0.0
 10
106.6276172358747
 20
74.45774602598395
 30
0.0
 10
105.7222259889302
 20
74.43158457039914
 30
0.0
 10
105.0259232785152
 20
74.39497734527015
 30
0.0
 10
104.4992435502401
 20
74.35596046979313
 30
0.0
 10
104.0325974352075
 20
74.31375134232118
 30
0.0
 10
103.6613821594837
 20
74.27674725275182
 30
0.0
 10
103.4073356822416
 20
74.24804649230745
 30
0.0
 10
103.1062805295323
 20
74.2116665417177
 30
0.0
 10
102.850796734728
 20
74.17888637472976
 30
0.0
 10
102.7515760097835
 20
74.16254849002476
 30
0.0
 10
102.7678565670656
 20
74.16514207619545
 30
0.0
 10
102.7678803206515
 20
74.16514586027796
 30
0.0
  0
SPLINE
  5
10B
330
1F
100
AcDbEntity
  8
0
  6
HIDDEN
 62
     7
370
     0
100
AcDbSpline
210
0.0
220
0.0
230
1.0
 70
     8
 71
     3
 72
    30
 73
    26
 74
     0
 42
0.00000001
 43
0.00000001
 40
0.0
 40
0.0
 40
0.0
 40
0.0
 40
0.0001200787205626
 40
0.0285506448201812
 40
0.0588539742837629
 40
0.0910342417036386
 40
0.1250948722596368
 40
0.1546831660699597
 40
0.1963616849249903
 40
0.2501159618645227
 40
0.3205306537003164
 40
0.3856151920263974
 40
0.4454081594448814
 40
0.4999610449563144
 40
0.5283530945131919
 40
0.5586374479616575
 40
0.59082176797678
 40
0.6249123787043468
 40
0.6541871379274442
 40
0.6958653651642315
 40
0.7499326674512932
 40
0.8215919113829674
 40
0.8871431657074843
 40
0.9466382884851907
 40
1.0
 40
1.0
 40
1.0
 40
1.0
 10
102.7679086009812
 20
147.0712381183932
 30
0.0
 10
102.7678745345187
 20
147.0712455465526
 30
0.0
 10
102.7597746858103
 20
147.0730117107661
 30
0.0
 10
102.7884340257721
 20
147.0675572592393
 30
0.0
 10
102.8618233987806
 20
147.0570139051878
 30
0.0
 10
103.0054792002706
 20
147.0373288463384
 30
0.0
 10
103.2065151076903
 20
147.0124895408812
 30
0.0
 10
103.4891456036513
 20
146.9782810864321
 30
0.0
 10
103.9025547492654
 20
146.9346011856537
 30
0.0
 10
104.5788422424225
 20
146.8715581197296
 30
0.0
 10
105.5172731462571
 20
146.8102609487116
 30
0.0
 10
106.6267663589769
 20
146.7789725053668
 30
0.0
 10
107.7242470898496
 20
146.7806276729266
 30
0.0
 10
108.6242783282671
 20
146.8119338750318
 30
0.0
 10
109.3356192541233
 20
146.8587670238333
 30
0.0
 10
109.9010361551129
 20
146.9059338857294
 30
0.0
 10
110.4899595779416
 20
146.9653728922794
 30
0.0
 10
111.054369230419
 20
147.0317300988874
 30
0.0
 10
111.6485654243552
 20
147.1136495053189
 30
0.0
 10
112.3151735853257
 20
147.2152974880693
 30
0.0
 10
113.1165063310259
 20
147.3574363986696
 30
0.0
 10
113.8690163155339
 20
147.508680969436
 30
0.0
 10
114.4143028105
 20
147.6265318426954
 30
0.0
 10
114.7170243419989
 20
147.7027610744446
 30
0.0
 10
114.7513147926119
 20
147.7132133839392
 30
0.0
 10
114.7675282292619
 20
147.7181555137393
 30
0.0
  0
SPLINE
  5
10C
330
1F
100
AcDbEntity
  8
0
  6
HIDDEN
 62
     7
370
     0
100
AcDbSpline
210
0.0
220
0.0
230
1.0
 70
     8
 71
     3
 72
     8
 73
     4
 74
     0
 42
0.00000001
 43
0.00000001
 40
0.0
 40
0.0
 40
0.0
 40
0.0
 40
1.0
 40
1.0
 40
1.0
 40
1.0
 10
176.0098407364955
 20
117.2652856327266
 30
0.0
 10
175.9686498902741
 20
117.2293769331303
 30
0.0
 10
175.9231071747475
 20
117.1913412264826
 30
0.0
 10
175.8730326791652
 20
117.1489349674625
 30
0.0
  0
LINE
  5
10D
330
1F
100
AcDbEntity
  8
0
  6
HIDDEN
 62
     7
370
     0
100
AcDbLine
 10
168.2178066973
 20
85.1955781119
 30
0.0
 11
163.2178066973
 21
85.1955781119
 31
0.0
  0
LINE
  5
10E
330
1F
100
AcDbEntity
  8
0
  6
HIDDEN
 62
     7
370
     0
100
AcDbLine
 10
165.7178066973
 20
136.0408775735
 30
0.0
 11
168.2178066973
 21
136.0408775735
 31
0.0
  0
LINE
  5
10F
330
1F
100
AcDbEntity
  8
0
  6
HIDDEN
 62
     7
370
     0
100
AcDbLine
 10
163.2178066973
 20
136.0408775735
 30
0.0
 11
165.7178066973
 21
136.0408775735
 31
0.0
  0
LINE
  5
110
330
1F
100
AcDbEntity
  8
0
  6
HIDDEN
 62
     7
370
     0
100
AcDbLine
 10
165.7178066973
 20
124.6182278427
 30
0.0
 11
168.2178066973
 21
124.6182278427
 31
0.0
  0
LINE
  5
111
330
1F
100
AcDbEntity
  8
0
  6
HIDDEN
 62
     7
370
     0
100
AcDbLine
 10
163.2178066973
 20
124.6182278427
 30
0.0
 11
165.7178066973
 21
124.6182278427
 31
0.0
  0
LINE
  5
112
330
1F
100
AcDbEntity
  8
0
  6
HIDDEN
 62
     7
370
     0
100
AcDbLine
 10
168.2178066973
 20
96.6182278427
 30
0.0
 11
163.2178066973
 21
96.6182278427
 31
0.0
  0
LWPOLYLINE
  5
113
330
1F
100
AcDbEntity
  8
0
  6
HIDDEN
 62
     7
370
     0
100
AcDbPolyline
 90
       15
 70
   128
 43
0.0
 10
176.1685294241
 20
123.725607308
 10
175.852581277
 20
124.0787016467
 10
175.3682884307
 20
124.3181122716
 10
174.7908076366
 20
124.4066853719
 10
174.2097573579
 20
124.3306754078
 10
173.7153100011
 20
124.1018782629
 10
173.3841981825
 20
123.7558006565
 10
173.2678066973
 20
123.3461499041
 10
173.3841981825
 20
122.9364991517
 10
173.7153100011
 20
122.5904215453
 10
174.2097573579
 20
122.3616244004
 10
174.7908076366
 20
122.2856144363
 10
175.3682884307
 20
122.3741875365
 10
175.852581277
 20
122.6135981615
 10
176.1685294241
 20
122.9666925002
  0
SPLINE
  5
114
330
1F
100
AcDbEntity
  8
0
  6
HIDDEN
 62
     7
370
     0
100
AcDbSpline
210
0.0
220
0.0
230
1.0
 70
     8
 71
     3
 72
    44
 73
    40
 74
     0
 42
0.00000001
 43
0.00000001
 40
0.0
 40
0.0
 40
0.0
 40
0.0
 40
0.062499999999999
 40
0.062499999999999
 40
0.124999999999998
 40
0.124999999999998
 40
0.1874999999999971
 40
0.1874999999999971
 40
0.2187499999999966
 40
0.2187499999999966
 40
0.2499999999999961
 40
0.2499999999999961
 40
0.3124999999999957
 40
0.3124999999999957
 40
0.3749999999999953
 40
0.3749999999999953
 40
0.437499999999995
 40
0.437499999999995
 40
0.4999999999999947
 40
0.4999999999999947
 40
0.5312499999999948
 40
0.5312499999999948
 40
0.5624999999999948
 40
0.5624999999999948
 40
0.6249999999999947
 40
0.6249999999999947
 40
0.6874999999999946
 40
0.6874999999999946
 40
0.7499999999999944
 40
0.7499999999999944
 40
0.781249999999995
 40
0.781249999999995
 40
0.8124999999999956
 40
0.8124999999999956
 40
0.8749999999999971
 40
0.8749999999999971
 40
0.9374999999999986
 40
0.9374999999999986
 40
1.0
 40
1.0
 40
1.0
 40
1.0
 10
176.1685294240577
 20
122.9666925002241
 30
0.0
 10
176.1182851319945
 20
122.831238079659
 30
0.0
 10
176.0548135885882
 20
122.6971146603555
 30
0.0
 10
175.9142615460939
 20
122.4272693739678
 30
0.0
 10
175.8393677192547
 20
122.2969814412232
 30
0.0
 10
175.7011536891839
 20
122.0389901048884
 30
0.0
 10
175.6380498294079
 20
121.9114353173475
 30
0.0
 10
175.5975157627967
 20
121.7353706650976
 30
0.0
 10
175.5935978395632
 20
121.6788312924402
 30
0.0
 10
175.6068125810716
 20
121.578643921155
 30
0.0
 10
175.6236585230619
 20
121.5340217457288
 30
0.0
 10
175.6926105770813
 20
121.4201438816134
 30
0.0
 10
175.7612971760453
 20
121.3687401412811
 30
0.0
 10
175.9002980407184
 20
121.3064065525156
 30
0.0
 10
175.9724951910423
 20
121.2950834647661
 30
0.0
 10
176.1031004695894
 20
121.3163757852623
 30
0.0
 10
176.1611929262175
 20
121.3493724926168
 30
0.0
 10
176.2439933771761
 20
121.4672961747741
 30
0.0
 10
176.267815100119
 20
121.5535703001346
 30
0.0
 10
176.2678024923581
 20
121.7131888468405
 30
0.0
 10
176.2619690972362
 20
121.7723431138359
 30
0.0
 10
176.2395700242718
 20
121.896273060427
 30
0.0
 10
176.2232133688873
 20
121.9608562397964
 30
0.0
 10
176.1605320747883
 20
122.1619919269912
 30
0.0
 10
176.1019356595035
 20
122.3008832254357
 30
0.0
 10
175.9713746240276
 20
122.5729916973188
 30
0.0
 10
175.899624662498
 20
122.7056103648464
 30
0.0
 10
175.7593384260201
 20
122.9678491924119
 30
0.0
 10
175.6914300975266
 20
123.0945459896994
 30
0.0
 10
175.6227712115713
 20
123.2794312492375
 30
0.0
 10
175.6063088560264
 20
123.339075662957
 30
0.0
 10
175.5935316067027
 20
123.4527965047818
 30
0.0
 10
175.5976662718866
 20
123.5041001679358
 30
0.0
 10
175.6391176658838
 20
123.6417981590524
 30
0.0
 10
175.7025387764986
 20
123.7059075173616
 30
0.0
 10
175.8399786350814
 20
123.7873057091764
 30
0.0
 10
175.9155198548821
 20
123.8058353878445
 30
0.0
 10
176.0550199217375
 20
123.7997212481934
 30
0.0
 10
176.1182766761193
 20
123.7756322459886
 30
0.0
 10
176.1685294240578
 20
123.7256073079622
 30
0.0
  0
SPLINE
  5
115
330
1F
100
AcDbEntity
  8
0
  6
HIDDEN
 62
     7
370
     0
100
AcDbSpline
210
0.0
220
0.0
230
1.0
 70
     8
 71
     3
 72
    14
 73
    10
 74
     0
 42
0.00000001
 43
0.00000001
 40
0.0
 40
0.0
 40
0.0
 40
0.0
 40
0.25
 40
0.25
 40
0.5
 40
0.5
 40
0.75
 40
0.75
 40
1.0
 40
1.0
 40
1.0
 40
1.0
 10
173.8240511983913
 20
122.1069388036457
 30
0.0
 10
173.7880677477577
 20
122.074105323163
 30
0.0
 10
173.7536463411586
 20
122.042385563017
 30
0.0
 10
173.6950477797323
 20
121.9711178667121
 30
0.0
 10
173.6705261006032
 20
121.9307035632451
 30
0.0
 10
173.6612345208247
 20
121.8138343869355
 30
0.0
 10
173.677980551023
 20
121.7387033804175
 30
0.0
 10
173.7249762551482
 20
121.5891512995092
 30
0.0
 10
173.7545634375437
 20
121.5136862228056
 30
0.0
 10
173.7856901617275
 20
121.439268780569
 30
0.0
  0
SPLINE
  5
116
330
1F
100
AcDbEntity
  8
0
  6
HIDDEN
 62
     7
370
     0
100
AcDbSpline
210
0.0
220
0.0
230
1.0
 70
     8
 71
     3
 72
    10
 73
     6
 74
     0
 42
0.00000001
 43
0.00000001
 40
0.0
 40
0.0
 40
0.0
 40
0.0
 40
0.5
 40
0.5
 40
1.0
 40
1.0
 40
1.0
 40
1.0
 10
173.7856901617286
 20
121.4392687805679
 30
0.0
 10
173.8634409159814
 20
121.4921459022026
 30
0.0
 10
173.9289970651836
 20
121.5770353060795
 30
0.0
 10
173.946286471995
 20
121.8166940147032
 30
0.0
 10
173.8944972961789
 20
121.9602835789349
 30
0.0
 10
173.8240511983917
 20
122.1069388036462
 30
0.0
  0
SPLINE
  5
117
330
1F
100
AcDbEntity
  8
0
  6
HIDDEN
 62
     7
370
     0
100
AcDbSpline
210
0.0
220
0.0
230
1.0
 70
     8
 71
     3
 72
    10
 73
     6
 74
     0
 42
0.00000001
 43
0.00000001
 40
0.0
 40
0.0
 40
0.0
 40
0.0
 40
0.4955889490168435
 40
0.9812042834842588
 40
0.9999999999999999
 40
0.9999999999999999
 40
0.9999999999999999
 40
0.9999999999999999
 10
173.2871666435146
 20
122.6538826237737
 30
0.0
 10
173.2799677985202
 20
122.7092517120162
 30
0.0
 10
173.2657149836447
 20
122.8188755982308
 30
0.0
 10
173.2652198337424
 20
122.9151352185419
 30
0.0
 10
173.2732427473269
 20
122.9400006993524
 30
0.0
 10
173.2735417027305
 20
122.9409272542474
 30
0.0
  0
SPLINE
  5
118
330
1F
100
AcDbEntity
  8
0
  6
HIDDEN
 62
     7
370
     0
100
AcDbSpline
210
0.0
220
0.0
230
1.0
 70
     8
 71
     3
 72
    18
 73
    14
 74
     0
 42
0.00000001
 43
0.00000001
 40
0.0
 40
0.0
 40
0.0
 40
0.0
 40
0.0006341151590245
 40
0.1413079887287747
 40
0.2117226355891566
 40
0.2688107940172199
 40
0.326293803946923
 40
0.3878257596809293
 40
0.4821788744686883
 40
0.6217321006851811
 40
0.7634334212303243
 40
0.909843232811887
 40
1.0
 40
1.0
 40
1.0
 40
1.0
 10
173.2944097671926
 20
123.0072181702474
 30
0.0
 10
173.29444487771
 20
123.0073300182049
 30
0.0
 10
173.3022690032183
 20
123.0322545286718
 30
0.0
 10
173.3239903479904
 20
123.0313846590002
 30
0.0
 10
173.3440391780976
 20
123.0093998538731
 30
0.0
 10
173.3522946331161
 20
122.9692528553494
 30
0.0
 10
173.3499444930194
 20
122.9082844577228
 30
0.0
 10
173.3359354767682
 20
122.818351171143
 30
0.0
 10
173.3091942958972
 20
122.6883712450214
 30
0.0
 10
173.2789754780599
 20
122.5283642231445
 30
0.0
 10
173.2641246565238
 20
122.3710186208995
 30
0.0
 10
173.2711200033764
 20
122.2591081107061
 30
0.0
 10
173.2890471150146
 20
122.2290480059829
 30
0.0
 10
173.2958792315322
 20
122.2175919419975
 30
0.0
  0
LWPOLYLINE
  5
119
330
1F
100
AcDbEntity
  8
0
  6
HIDDEN
 62
     7
370
     0
100
AcDbPolyline
 90
        8
 70
   128
 43
0.0
 10
173.3072354384
 20
122.1929724906
 10
173.3323012755
 20
122.188063941
 10
173.3459471757
 20
122.2098051838
 10
173.3509310028
 20
122.2470866991
 10
173.3482538622
 20
122.3011506853
 10
173.3357840085
 20
122.3863420224
 10
173.3088267983
 20
122.5299404089
 10
173.2871666435
 20
122.6538826238
  0
SPLINE
  5
11A
330
1F
100
AcDbEntity
  8
0
  6
HIDDEN
 62
     7
370
     0
100
AcDbSpline
210
0.0
220
0.0
230
1.0
 70
     8
 71
     3
 72
    14
 73
    10
 74
     0
 42
0.00000001
 43
0.00000001
 40
0.0
 40
0.0
 40
0.0
 40
0.0
 40
0.25
 40
0.25
 40
0.5
 40
0.5
 40
0.75
 40
0.75
 40
1.0
 40
1.0
 40
1.0
 40
1.0
 10
173.785690161728
 20
123.0426696104228
 30
0.0
 10
173.7545013093704
 20
123.0790279395764
 30
0.0
 10
173.72481208619
 20
123.1148985629322
 30
0.0
 10
173.6778744324989
 20
123.1973122770517
 30
0.0
 10
173.6611435774457
 20
123.246249463495
 30
0.0
 10
173.6707006698045
 20
123.3780074627619
 30
0.0
 10
173.6952489270236
 20
123.455511227238
 30
0.0
 10
173.7537973735626
 20
123.6067764443433
 30
0.0
 10
173.7881340492777
 20
123.6818827246727
 30
0.0
 10
173.8240511983911
 20
123.7557720628376
 30
0.0
  0
SPLINE
  5
11B
330
1F
100
AcDbEntity
  8
0
  6
HIDDEN
 62
     7
370
     0
100
AcDbSpline
210
0.0
220
0.0
230
1.0
 70
     8
 71
     3
 72
    14
 73
    10
 74
     0
 42
0.00000001
 43
0.00000001
 40
0.0
 40
0.0
 40
0.0
 40
0.0
 40
0.25
 40
0.25
 40
0.5
 40
0.5
 40
0.75
 40
0.75
 40
1.0
 40
1.0
 40
1.0
 40
1.0
 10
173.8240511983916
 20
123.755772062838
 30
0.0
 10
173.8592589798448
 20
123.7227805370083
 30
0.0
 10
173.8897940306016
 20
123.6828406629459
 30
0.0
 10
173.931782145072
 20
123.5848599618216
 30
0.0
 10
173.9418450706031
 20
123.5283544507707
 30
0.0
 10
173.9335947947273
 20
123.4013736028202
 30
0.0
 10
173.9152083841742
 20
123.3321082631537
 30
0.0
 10
173.8603700467065
 20
123.1897131945115
 30
0.0
 10
173.8246326530312
 20
123.1168599950111
 30
0.0
 10
173.7856901617286
 20
123.0426696104209
 30
0.0
  0
SPLINE
  5
11C
330
1F
100
AcDbEntity
  8
0
  6
HIDDEN
 62
     7
370
     0
100
AcDbSpline
210
0.0
220
0.0
230
1.0
 70
     8
 71
     3
 72
    12
 73
     8
 74
     0
 42
0.00000001
 43
0.00000001
 40
0.0
 40
0.0
 40
0.0
 40
0.0
 40
0.25
 40
0.25
 40
0.5
 40
0.5
 40
1.0
 40
1.0
 40
1.0
 40
1.0
 10
176.1685294240577
 20
123.7256073079622
 30
0.0
 10
176.1297848798493
 20
123.6979388371622
 30
0.0
 10
176.1018075629664
 20
123.6591028139964
 30
0.0
 10
176.0669431655971
 20
123.561661229724
 30
0.0
 10
176.0590198217933
 20
123.5018091000091
 30
0.0
 10
176.0590413194055
 20
123.3006772843389
 30
0.0
 10
176.0908005911542
 20
123.1311665498064
 30
0.0
 10
176.1685294240577
 20
122.9666925002241
 30
0.0
  0
LWPOLYLINE
  5
11D
330
1F
100
AcDbEntity
  8
0
  6
HIDDEN
 62
     7
370
     0
100
AcDbPolyline
 90
       31
 70
   128
 43
0.0
 10
132.7678066973
 20
155.9309336945
 10
133.8073651514
 20
155.8971698808
 10
134.8014899127
 20
155.7973540804
 10
135.7067329587
 20
155.6358487226
 10
136.4835308247
 20
155.4197123667
 10
137.0979337162
 20
155.1583912086
 10
137.5230892788
 20
154.8633062367
 10
137.7404161741
 20
154.5473540804
 10
137.7404161741
 20
154.2243433649
 10
137.5230892788
 20
153.9083912086
 10
137.0979337162
 20
153.6133062367
 10
136.4835308247
 20
153.3519850785
 10
135.7067329587
 20
153.1358487226
 10
134.8014899127
 20
152.9743433649
 10
133.8073651514
 20
152.8745275645
 10
132.7678066973
 20
152.8407637508
 10
131.7282482432
 20
152.8745275645
 10
130.7341234819
 20
152.9743433649
 10
129.8288804358
 20
153.1358487226
 10
129.0520825699
 20
153.3519850785
 10
128.4376796784
 20
153.6133062367
 10
128.0125241158
 20
153.9083912086
 10
127.7951972204
 20
154.2243433649
 10
127.7951972204
 20
154.5473540804
 10
128.0125241158
 20
154.8633062367
 10
128.4376796784
 20
155.1583912086
 10
129.0520825699
 20
155.4197123667
 10
129.8288804358
 20
155.6358487226
 10
130.7341234819
 20
155.7973540804
 10
131.7282482432
 20
155.8971698808
 10
132.7678066973
 20
155.9309336945
  0
LINE
  5
11E
330
1F
100
AcDbEntity
  8
0
  6
HIDDEN
 62
     7
370
     0
100
AcDbLine
 10
147.0298357182
 20
149.5691906036
 30
0.0
 11
147.0298357182
 21
141.9682278427
 31
0.0
  0
LINE
  5
11F
330
1F
100
AcDbEntity
  8
0
  6
HIDDEN
 62
     7
370
     0
100
AcDbLine
 10
145.6778066973
 20
145.3324630352
 30
0.0
 11
145.6778066973
 21
141.9682278427
 31
0.0
  0
LINE
  5
120
330
1F
100
AcDbEntity
  8
0
  6
HIDDEN
 62
     7
370
     0
100
AcDbLine
 10
141.8578066973
 20
145.3324630352
 30
0.0
 11
141.8578066973
 21
141.9682278427
 31
0.0
  0
ARC
  5
121
330
1F
100
AcDbEntity
  8
0
  6
HIDDEN
 62
     7
370
     0
100
AcDbCircle
 10
190.0065118981
 20
122.5276605851
 30
0.0
 40
16.22899541252066
100
AcDbArc
 50
175.6600556667
 51
178.1814771864
  0
ARC
  5
122
330
1F
100
AcDbEntity
  8
0
  6
HIDDEN
 62
     7
370
     0
100
AcDbCircle
 10
160.6267424275
 20
122.530254246
 30
0.0
 40
13.20409613555743
100
AcDbArc
 50
355.2605460786
 51
358.162816698
  0
CIRCLE
  5
123
330
1F
100
AcDbEntity
  8
0
  6
HIDDEN
 62
     7
370
     0
100
AcDbCircle
 10
130.7678066973
 20
110.6182278427
 30
0.0
 40
5.0
  0
ARC
  5
124
330
1F
100
AcDbEntity
  8
0
  6
HIDDEN
 62
     7
370
     0
100
AcDbCircle
 10
199.2678066973
 20
110.6182278427
 30
0.0
 40
7.000000000000003
100
AcDbArc
 50
119.6094583666
 51
240.4538608566
  0
ARC
  5
125
330
1F
100
AcDbEntity
  8
0
  6
HIDDEN
 62
     7
370
     0
100
AcDbCircle
 10
199.2678066973
 20
110.6182278427
 30
0.0
 40
7.999999999999992
100
AcDbArc
 50
335.5123575918
 51
76.1703576596
  0
LWPOLYLINE
  5
126
330
1F
100
AcDbEntity
  8
0
  6
HIDDEN
 62
     7
370
     0
100
AcDbPolyline
 90
        3
 70
   128
 43
0.0
 10
198.2844074016
 20
102.6789000484
 10
199.3930426355
 20
102.6192081553
 10
200.295094309
 20
102.6844594971
  0
ARC
  5
127
330
1F
100
AcDbEntity
  8
0
  6
HIDDEN
 62
     7
370
     0
100
AcDbCircle
 10
199.2678066973
 20
110.6182278427
 30
0.0
 40
7.999999999999991
100
AcDbArc
 50
282.5972373165
 51
335.5123575918
  0
CIRCLE
  5
128
330
1F
100
AcDbEntity
  8
0
  6
HIDDEN
 62
     7
370
     0
100
AcDbCircle
 10
199.2678066973
 20
110.6182278427
 30
0.0
 40
4.000000000000008
  0
CIRCLE
  5
129
330
1F
100
AcDbEntity
  8
0
  6
HIDDEN
 62
     7
370
     0
100
AcDbCircle
 10
199.2678066973
 20
110.6182278427
 30
0.0
 40
5.500000000000003
  0
LWPOLYLINE
  5
12A
330
1F
100
AcDbEntity
  8
0
  6
HIDDEN
 62
     7
370
     0
100
AcDbPolyline
 90
       17
 70
   128
 43
0.0
 10
218.3014918598
 20
98.7990991484
 10
218.2789557382
 20
99.2854212397
 10
218.2598505369
 20
99.8591810974
 10
218.2470848494
 20
100.4330289842
 10
218.2426021361
 20
100.9196017614
 10
218.2470848494
 20
101.2448231345
 10
218.2598505369
 20
101.3591810974
 10
218.2789557382
 20
101.2452656871
 10
218.3014918598
 20
100.920419492
 10
218.3240279814
 20
100.4340974007
 10
218.3431331827
 20
99.860337543
 10
218.3558988701
 20
99.2864896562
 10
218.3603815834
 20
98.799916879
 10
218.3558988701
 20
98.474695506
 10
218.3431331827
 20
98.360337543
 10
218.3240279814
 20
98.4742529534
 10
218.3014918598
 20
98.7990991484
  0
LWPOLYLINE
  5
12B
330
1F
100
AcDbEntity
  8
0
  6
HIDDEN
 62
     7
370
     0
100
AcDbPolyline
 90
       17
 70
   128
 43
0.0
 10
217.8018773417
 20
99.1387720981
 10
217.7868532606
 20
99.4629868256
 10
217.7741164597
 20
99.8454933974
 10
217.7656060014
 20
100.2280586553
 10
217.7626175259
 20
100.5524405067
 10
217.7656060014
 20
100.7692547554
 10
217.7741164597
 20
100.8454933974
 10
217.7868532606
 20
100.7695497905
 10
217.8018773417
 20
100.5529856604
 10
217.8169014227
 20
100.2287709329
 10
217.8296382236
 20
99.8462643611
 10
217.8381486819
 20
99.4636991032
 10
217.8411371574
 20
99.1393172518
 10
217.8381486819
 20
98.9225030031
 10
217.8296382236
 20
98.8462643611
 10
217.8169014227
 20
98.922207968
 10
217.8018773417
 20
99.1387720981
  0
LWPOLYLINE
  5
12C
330
1F
100
AcDbEntity
  8
0
  6
HIDDEN
 62
     7
370
     0
100
AcDbPolyline
 90
       17
 70
   128
 43
0.0
 10
223.6354296637
 20
98.9472882146
 10
223.6128935421
 20
99.4336103058
 10
223.5937883407
 20
100.0073701635
 10
223.5810226533
 20
100.5812180504
 10
223.57653994
 20
101.0677908276
 10
223.5810226533
 20
101.3930122006
 10
223.5937883407
 20
101.5073701635
 10
223.6128935421
 20
101.3934547532
 10
223.6354296637
 20
101.0686085581
 10
223.6579657852
 20
100.5822864668
 10
223.6770709866
 20
100.0085266092
 10
223.689836674
 20
99.4346787223
 10
223.6943193873
 20
98.9481059451
 10
223.689836674
 20
98.6228845721
 10
223.6770709866
 20
98.5085266092
 10
223.6579657852
 20
98.6224420195
 10
223.6354296637
 20
98.9472882146
  0
LWPOLYLINE
  5
12D
330
1F
100
AcDbEntity
  8
0
  6
HIDDEN
 62
     7
370
     0
100
AcDbPolyline
 90
        8
 70
   128
 43
0.0
 10
223.7972515591
 20
99.1501274513
 10
223.7789296923
 20
99.5455073115
 10
223.7633971636
 20
100.0119740758
 10
223.7530186597
 20
100.4785124078
 10
223.7493742138
 20
100.8740960757
 10
223.7530186597
 20
101.1385010519
 10
223.7633971636
 20
101.2314740758
 10
223.7678066973
 20
101.2223213644
  0
LWPOLYLINE
  5
12E
330
1F
100
AcDbEntity
  8
0
  6
HIDDEN
 62
     7
370
     0
100
AcDbPolyline
 90
        4
 70
   128
 43
0.0
 10
223.8327076329
 20
98.7948708645
 10
223.8311059546
 20
98.7934142661
 10
223.8155734259
 20
98.8860274947
 10
223.7972515591
 20
99.1501274513
  0
LINE
  5
12F
330
1F
100
AcDbEntity
  8
0
  6
HIDDEN
 62
     7
370
     0
100
AcDbLine
 10
223.8266964209
 20
99.7887091682
 30
0.0
 11
223.7972515591
 21
100.6248166066
 31
0.0
  0
LINE
  5
130
330
1F
100
AcDbEntity
  8
0
  6
HIDDEN
 62
     7
370
     0
100
AcDbLine
 10
221.8282383484
 20
99.7331874043
 30
0.0
 11
221.7987934866
 21
100.5692948427
 31
0.0
  0
LINE
  5
131
330
1F
100
AcDbEntity
  8
0
  6
HIDDEN
 62
     7
370
     0
100
AcDbLine
 10
221.8282383484
 20
99.1208149686
 30
0.0
 11
221.8282383484
 21
99.7331874043
 31
0.0
  0
LINE
  5
132
330
1F
100
AcDbEntity
  8
0
  6
HIDDEN
 62
     7
370
     0
100
AcDbLine
 10
221.8282383484
 20
99.7331874043
 30
0.0
 11
223.8266964209
 21
99.7887091682
 31
0.0
  0
LINE
  5
133
330
1F
100
AcDbEntity
  8
0
  6
HIDDEN
 62
     7
370
     0
100
AcDbLine
 10
223.8266964209
 20
99.1763367325
 30
0.0
 11
223.8266964209
 21
99.7887091682
 31
0.0
  0
LINE
  5
134
330
1F
100
AcDbEntity
  8
0
  6
HIDDEN
 62
     7
370
     0
100
AcDbLine
 10
221.7693486248
 20
100.7930298455
 30
0.0
 11
221.7987934866
 21
100.5692948427
 31
0.0
  0
LINE
  5
135
330
1F
100
AcDbEntity
  8
0
  6
HIDDEN
 62
     7
370
     0
100
AcDbLine
 10
221.7987934866
 20
100.5692948427
 30
0.0
 11
223.7972515591
 21
100.6248166066
 31
0.0
  0
LINE
  5
136
330
1F
100
AcDbEntity
  8
0
  6
HIDDEN
 62
     7
370
     0
100
AcDbLine
 10
223.7678066973
 20
100.8485516094
 30
0.0
 11
223.7972515591
 21
100.6248166066
 31
0.0
  0
LINE
  5
137
330
1F
100
AcDbEntity
  8
0
  6
HIDDEN
 62
     7
370
     0
100
AcDbLine
 10
221.7987934866
 20
99.3445499714
 30
0.0
 11
223.7972515591
 21
99.4000717353
 31
0.0
  0
LINE
  5
138
330
1F
100
AcDbEntity
  8
0
  6
HIDDEN
 62
     7
370
     0
100
AcDbLine
 10
221.8282383484
 20
99.1208149686
 30
0.0
 11
223.8266964209
 21
99.1763367325
 31
0.0
  0
LINE
  5
139
330
1F
100
AcDbEntity
  8
0
  6
HIDDEN
 62
     7
370
     0
100
AcDbLine
 10
221.8282383484
 20
99.1208149686
 30
0.0
 11
221.7987934866
 21
99.3445499714
 31
0.0
  0
LINE
  5
13A
330
1F
100
AcDbEntity
  8
0
  6
HIDDEN
 62
     7
370
     0
100
AcDbLine
 10
223.8266964209
 20
99.1763367325
 30
0.0
 11
223.7972515591
 21
99.4000717353
 31
0.0
  0
LINE
  5
13B
330
1F
100
AcDbEntity
  8
0
  6
HIDDEN
 62
     7
370
     0
100
AcDbLine
 10
221.7693486248
 20
100.1806574098
 30
0.0
 11
223.7678066973
 21
100.2361791737
 31
0.0
  0
LINE
  5
13C
330
1F
100
AcDbEntity
  8
0
  6
HIDDEN
 62
     7
370
     0
100
AcDbLine
 10
221.7693486248
 20
100.7930298455
 30
0.0
 11
223.7678066973
 21
100.8485516094
 31
0.0
  0
LINE
  5
13D
330
1F
100
AcDbEntity
  8
0
  6
HIDDEN
 62
     7
370
     0
100
AcDbLine
 10
221.7693486248
 20
100.1806574098
 30
0.0
 11
221.7693486248
 21
100.7930298455
 31
0.0
  0
LINE
  5
13E
330
1F
100
AcDbEntity
  8
0
  6
HIDDEN
 62
     7
370
     0
100
AcDbLine
 10
221.7693486248
 20
100.1806574098
 30
0.0
 11
221.7987934866
 21
99.3445499714
 31
0.0
  0
LINE
  5
13F
330
1F
100
AcDbEntity
  8
0
  6
HIDDEN
 62
     7
370
     0
100
AcDbLine
 10
223.7678066973
 20
100.2361791737
 30
0.0
 11
223.7972515591
 21
99.4000717353
 31
0.0
  0
LWPOLYLINE
  5
140
330
1F
100
AcDbEntity
  8
0
  6
HIDDEN
 62
     7
370
     0
100
AcDbPolyline
 90
        6
 70
   128
 43
0.0
 10
223.6968988382
 20
120.048276808
 10
223.7092159543
 20
120.0169853118
 10
223.7259702667
 20
120.1697016934
 10
223.744611083
 20
120.4831762681
 10
223.7623005081
 20
120.9096853736
 10
223.7678066973
 20
121.0756128543
  0
ARC
  5
141
330
1F
100
AcDbEntity
  8
0
  6
HIDDEN
 62
     7
370
     0
100
AcDbCircle
 10
244.5831146503
 20
120.6225755846
 30
0.0
 40
20.89410993640872
100
AcDbArc
 50
175.0222754999
 51
181.5750391284
  0
LWPOLYLINE
  5
142
330
1F
100
AcDbEntity
  8
0
  6
HIDDEN
 62
     7
370
     0
100
AcDbPolyline
 90
       17
 70
   128
 43
0.0
 10
223.5255399433
 20
119.7819628272
 10
223.5406901477
 20
119.7434739019
 10
223.561298158
 20
119.9313169297
 10
223.5842265914
 20
120.3168945124
 10
223.6059848019
 20
120.8415059582
 10
223.623260299
 20
121.4252839302
 10
223.633423045
 20
121.9793535241
 10
223.6349258539
 20
122.4193626669
 10
223.6275399367
 20
122.6783239552
 10
223.6123897323
 20
122.7168128804
 10
223.5917817221
 20
122.5289698526
 10
223.5688532886
 20
122.1433922699
 10
223.5470950782
 20
121.6187808241
 10
223.5298195811
 20
121.0350028521
 10
223.5196568351
 20
120.4809332582
 10
223.5181540261
 20
120.0409241155
 10
223.5255399433
 20
119.7819628272
  0
LWPOLYLINE
  5
143
330
1F
100
AcDbEntity
  8
0
  6
HIDDEN
 62
     7
370
     0
100
AcDbPolyline
 90
       17
 70
   128
 43
0.0
 10
218.1916021394
 20
119.9301518933
 10
218.2067523438
 20
119.891662968
 10
218.2273603541
 20
120.0795059958
 10
218.2502887875
 20
120.4650835785
 10
218.272046998
 20
120.9896950244
 10
218.2893224951
 20
121.5734729963
 10
218.2994852411
 20
122.1275425902
 10
218.30098805
 20
122.567551733
 10
218.2936021328
 20
122.8265130213
 10
218.2784519285
 20
122.8650019465
 10
218.2578439182
 20
122.6771589187
 10
218.2349154848
 20
122.2915813361
 10
218.2131572743
 20
121.7669698902
 10
218.1958817772
 20
121.1831919182
 10
218.1857190312
 20
120.6291223243
 10
218.1842162223
 20
120.1891131816
 10
218.1916021394
 20
119.9301518933
  0
LWPOLYLINE
  5
144
330
1F
100
AcDbEntity
  8
0
  6
HIDDEN
 62
     7
370
     0
100
AcDbPolyline
 90
       17
 70
   128
 43
0.0
 10
217.7089876202
 20
120.4267591889
 10
217.7190877565
 20
120.4010999054
 10
217.73282643
 20
120.5263285906
 10
217.7481120523
 20
120.7833803124
 10
217.7626175259
 20
121.1331212763
 10
217.774134524
 20
121.522306591
 10
217.780909688
 20
121.8916863202
 10
217.7819115606
 20
122.1850257487
 10
217.7769876158
 20
122.3576666076
 10
217.7668874796
 20
122.3833258911
 10
217.753148806
 20
122.2580972059
 10
217.7378631838
 20
122.0010454841
 10
217.7233577101
 20
121.6513045202
 10
217.711840712
 20
121.2621192055
 10
217.705065548
 20
120.8927394763
 10
217.7040636754
 20
120.5994000478
 10
217.7089876202
 20
120.4267591889
  0
LINE
  5
145
330
1F
100
AcDbEntity
  8
0
  6
HIDDEN
 62
     7
370
     0
100
AcDbLine
 10
223.7383618355
 20
121.8380200422
 30
0.0
 11
223.7678066973
 21
122.061755045
 31
0.0
  0
LINE
  5
146
330
1F
100
AcDbEntity
  8
0
  6
HIDDEN
 62
     7
370
     0
100
AcDbLine
 10
223.7089169736
 20
121.0019126038
 30
0.0
 11
223.7383618355
 21
121.8380200422
 31
0.0
  0
LINE
  5
147
330
1F
100
AcDbEntity
  8
0
  6
HIDDEN
 62
     7
370
     0
100
AcDbLine
 10
223.7089169736
 20
121.0019126038
 30
0.0
 11
223.7089169736
 21
120.3895401681
 31
0.0
  0
LINE
  5
148
330
1F
100
AcDbEntity
  8
0
  6
HIDDEN
 62
     7
370
     0
100
AcDbLine
 10
223.7383618355
 20
120.6132751709
 30
0.0
 11
223.7089169736
 21
120.3895401681
 31
0.0
  0
LINE
  5
149
330
1F
100
AcDbEntity
  8
0
  6
HIDDEN
 62
     7
370
     0
100
AcDbLine
 10
223.7383618355
 20
120.6132751709
 30
0.0
 11
223.7678066973
 21
121.4493826093
 31
0.0
  0
LINE
  5
14A
330
1F
100
AcDbEntity
  8
0
  6
HIDDEN
 62
     7
370
     0
100
AcDbLine
 10
221.7104589012
 20
121.0574343677
 30
0.0
 11
221.739903763
 21
121.8935418061
 31
0.0
  0
LINE
  5
14B
330
1F
100
AcDbEntity
  8
0
  6
HIDDEN
 62
     7
370
     0
100
AcDbLine
 10
221.739903763
 20
121.8935418061
 30
0.0
 11
221.7693486248
 21
122.1172768089
 31
0.0
  0
LINE
  5
14C
330
1F
100
AcDbEntity
  8
0
  6
HIDDEN
 62
     7
370
     0
100
AcDbLine
 10
221.7693486248
 20
121.5049043732
 30
0.0
 11
221.7693486248
 21
122.1172768089
 31
0.0
  0
LINE
  5
14D
330
1F
100
AcDbEntity
  8
0
  6
HIDDEN
 62
     7
370
     0
100
AcDbLine
 10
221.739903763
 20
120.6687969348
 30
0.0
 11
221.7693486248
 21
121.5049043732
 31
0.0
  0
LINE
  5
14E
330
1F
100
AcDbEntity
  8
0
  6
HIDDEN
 62
     7
370
     0
100
AcDbLine
 10
221.739903763
 20
120.6687969348
 30
0.0
 11
221.7104589012
 21
120.445061932
 31
0.0
  0
LINE
  5
14F
330
1F
100
AcDbEntity
  8
0
  6
HIDDEN
 62
     7
370
     0
100
AcDbLine
 10
221.7104589012
 20
121.0574343677
 30
0.0
 11
221.7104589012
 21
120.445061932
 31
0.0
  0
LINE
  5
150
330
1F
100
AcDbEntity
  8
0
  6
HIDDEN
 62
     7
370
     0
100
AcDbLine
 10
221.7104589012
 20
121.0574343677
 30
0.0
 11
223.7089169736
 21
121.0019126038
 31
0.0
  0
LINE
  5
151
330
1F
100
AcDbEntity
  8
0
  6
HIDDEN
 62
     7
370
     0
100
AcDbLine
 10
221.739903763
 20
121.8935418061
 30
0.0
 11
223.7383618355
 21
121.8380200422
 31
0.0
  0
LINE
  5
152
330
1F
100
AcDbEntity
  8
0
  6
HIDDEN
 62
     7
370
     0
100
AcDbLine
 10
221.739903763
 20
120.6687969348
 30
0.0
 11
223.7383618355
 21
120.6132751709
 31
0.0
  0
LINE
  5
153
330
1F
100
AcDbEntity
  8
0
  6
HIDDEN
 62
     7
370
     0
100
AcDbLine
 10
221.7104589012
 20
120.445061932
 30
0.0
 11
223.7089169736
 21
120.3895401681
 31
0.0
  0
LINE
  5
154
330
1F
100
AcDbEntity
  8
0
  6
HIDDEN
 62
     7
370
     0
100
AcDbLine
 10
221.7693486248
 20
121.5049043732
 30
0.0
 11
223.7678066973
 21
121.4493826093
 31
0.0
  0
LINE
  5
155
330
1F
100
AcDbEntity
  8
0
  6
HIDDEN
 62
     7
370
     0
100
AcDbLine
 10
221.7693486248
 20
122.1172768089
 30
0.0
 11
223.7678066973
 21
122.061755045
 31
0.0
  0
LINE
  5
156
330
1F
100
AcDbEntity
  8
0
  6
HIDDEN
 62
     7
370
     0
100
AcDbLine
 10
123.7678066973
 20
71.2135448861
 30
0.0
 11
123.8574083212
 21
71.8510935681
 31
0.0
  0
LINE
  5
157
330
1F
100
AcDbEntity
  8
0
  6
HIDDEN
 62
     7
370
     0
100
AcDbLine
 10
123.8574083212
 20
149.3853621174
 30
0.0
 11
123.7678066973
 21
150.0229107993
 31
0.0
  0
ARC
  5
158
330
1F
100
AcDbEntity
  8
0
  6
HIDDEN
 62
     7
370
     0
100
AcDbCircle
 10
122.8708697788
 20
71.9897425183
 30
0.0
 40
0.9962338214386932
100
AcDbArc
 50
352.0
 51
0.0
  0
ARC
  5
159
330
1F
100
AcDbEntity
  8
0
  6
HIDDEN
 62
     7
370
     0
100
AcDbCircle
 10
122.8708697788
 20
71.9897425183
 30
0.0
 40
0.9962338214386932
100
AcDbArc
 50
0.0
 51
25.7988228126
  0
ARC
  5
15A
330
1F
100
AcDbEntity
  8
0
  6
HIDDEN
 62
     7
370
     0
100
AcDbCircle
 10
122.8708697788
 20
149.2467131672
 30
0.0
 40
0.9962338214386939
100
AcDbArc
 50
348.75
 51
8.0
  0
LWPOLYLINE
  5
15B
330
1F
100
AcDbEntity
  8
0
  6
HIDDEN
 62
     7
370
     0
100
AcDbPolyline
 90
        3
 70
   128
 43
0.0
 10
123.8479612467
 20
149.0523575902
 10
123.7912698161
 20
148.865470989
 10
123.7678066973
 20
148.813139654
  0
LINE
  5
15C
330
1F
100
AcDbEntity
  8
0
  6
HIDDEN
 62
     7
370
     0
100
AcDbLine
 10
123.8671036003
 20
71.9897425183
 30
0.0
 11
123.8671036003
 21
149.2467131672
 31
0.0
  0
ARC
  5
15D
330
1F
100
AcDbEntity
  8
0
  6
HIDDEN
 62
     7
370
     0
100
AcDbCircle
 10
114.0210123525
 20
91.1182278427
 30
0.0
 40
12.0
100
AcDbArc
 50
273.1716134983
 51
324.3146652873
  0
ARC
  5
15E
330
1F
100
AcDbEntity
  8
0
  6
HIDDEN
 62
     7
370
     0
100
AcDbCircle
 10
114.0210123525
 20
130.1182278427
 30
0.0
 40
12.00000000000002
100
AcDbArc
 50
35.6853347127
 51
86.8289687427
  0
LINE
  5
15F
330
1F
100
AcDbEntity
  8
0
  6
HIDDEN
 62
     7
370
     0
100
AcDbLine
 10
97.2285326394
 20
79.1182278427
 30
0.0
 11
102.8136367479
 21
79.1182278427
 31
0.0
  0
LINE
  5
160
330
1F
100
AcDbEntity
  8
0
  6
HIDDEN
 62
     7
370
     0
100
AcDbLine
 10
102.8136367479
 20
142.1182278427
 30
0.0
 11
97.2285326394
 21
142.1182278427
 31
0.0
  0
ARC
  5
161
330
1F
100
AcDbEntity
  8
0
  6
HIDDEN
 62
     7
370
     0
100
AcDbCircle
 10
97.2285326394
 20
80.1182278427
 30
0.0
 40
1.000000000000008
100
AcDbArc
 50
210.0
 51
270.0
  0
ARC
  5
162
330
1F
100
AcDbEntity
  8
0
  6
HIDDEN
 62
     7
370
     0
100
AcDbCircle
 10
97.2285326394
 20
141.1182278427
 30
0.0
 40
1.000000000000008
100
AcDbArc
 50
90.0
 51
150.0
  0
LINE
  5
163
330
1F
100
AcDbEntity
  8
0
  6
HIDDEN
 62
     7
370
     0
100
AcDbLine
 10
96.3625072357
 20
141.6182278427
 30
0.0
 11
93.7644310243
 21
137.1182278427
 31
0.0
  0
LINE
  5
164
330
1F
100
AcDbEntity
  8
0
  6
HIDDEN
 62
     7
370
     0
100
AcDbLine
 10
93.7644310243
 20
84.1182278427
 30
0.0
 11
96.3625072357
 21
79.6182278427
 31
0.0
  0
ARC
  5
165
330
1F
100
AcDbEntity
  8
0
  6
HIDDEN
 62
     7
370
     0
100
AcDbCircle
 10
134.2178066973
 20
85.7432278427
 30
0.0
 40
2.0
100
AcDbArc
 50
234.3409123039
 51
0.0
  0
ARC
  5
166
330
1F
100
AcDbEntity
  8
0
  6
HIDDEN
 62
     7
370
     0
100
AcDbCircle
 10
134.2178066973
 20
135.4932278427
 30
0.0
 40
2.0
100
AcDbArc
 50
0.0
 51
125.6590876961
  0
LINE
  5
167
330
1F
100
AcDbEntity
  8
0
  6
HIDDEN
 62
     7
370
     0
100
AcDbLine
 10
88.9678066973
 20
84.1182278427
 30
0.0
 11
93.7644310243
 21
84.1182278427
 31
0.0
  0
LINE
  5
168
330
1F
100
AcDbEntity
  8
0
  6
HIDDEN
 62
     7
370
     0
100
AcDbLine
 10
93.7644310243
 20
137.1182278427
 30
0.0
 11
83.9678066973
 21
137.1182278427
 31
0.0
  0
LINE
  5
169
330
1F
100
AcDbEntity
  8
0
  6
HIDDEN
 62
     7
370
     0
100
AcDbLine
 10
123.7678066973
 20
84.1182278427
 30
0.0
 11
133.0518843156
 21
84.1182278427
 31
0.0
  0
LINE
  5
16A
330
1F
100
AcDbEntity
  8
0
  6
HIDDEN
 62
     7
370
     0
100
AcDbLine
 10
133.0518843156
 20
137.1182278427
 30
0.0
 11
123.7678066973
 21
137.1182278427
 31
0.0
  0
LINE
  5
16B
330
1F
100
AcDbEntity
  8
0
  6
HIDDEN
 62
     7
370
     0
100
AcDbLine
 10
127.7678066973
 20
156.2897812219
 30
0.0
 11
127.7678066973
 21
152.5956416214
 31
0.0
  0
LINE
  5
16C
330
1F
100
AcDbEntity
  8
0
  6
HIDDEN
 62
     7
370
     0
100
AcDbLine
 10
137.7678066973
 20
152.5956416214
 30
0.0
 11
137.7678066973
 21
156.2952894802
 31
0.0
  0
LINE
  5
16D
330
1F
100
AcDbEntity
  8
0
  6
HIDDEN
 62
     7
370
     0
100
AcDbLine
 10
176.2678066973
 20
99.5681123387
 30
0.0
 11
176.2678066973
 21
103.4164901026
 31
0.0
  0
LINE
  5
16E
330
1F
100
AcDbEntity
  8
0
  6
HIDDEN
 62
     7
370
     0
100
AcDbLine
 10
176.2678066973
 20
97.1831990002
 30
0.0
 11
176.2678066973
 21
97.8159161894
 31
0.0
  0
LINE
  5
16F
330
1F
100
AcDbEntity
  8
0
  6
HIDDEN
 62
     7
370
     0
100
AcDbLine
 10
173.2678066973
 20
98.3749773687
 30
0.0
 11
173.2678066973
 21
97.1831990002
 31
0.0
  0
LINE
  5
170
330
1F
100
AcDbEntity
  8
0
  6
HIDDEN
 62
     7
370
     0
100
AcDbLine
 10
173.2678066973
 20
103.3359792454
 30
0.0
 11
173.2678066973
 21
98.8759088863
 31
0.0
  0
LINE
  5
171
330
1F
100
AcDbEntity
  8
0
  6
HIDDEN
 62
     7
370
     0
100
AcDbLine
 10
175.9799752283
 20
97.4334878851
 30
0.0
 11
223.7678066973
 21
98.7611438078
 31
0.0
  0
LINE
  5
172
330
1F
100
AcDbEntity
  8
0
  6
HIDDEN
 62
     7
370
     0
100
AcDbLine
 10
223.7678066973
 20
101.262108442
 30
0.0
 11
175.9755949851
 21
99.9343308261
 31
0.0
  0
LINE
  5
173
330
1F
100
AcDbEntity
  8
0
  6
HIDDEN
 62
     7
370
     0
100
AcDbLine
 10
148.0678066973
 20
97.6182278427
 30
0.0
 11
152.0678066973
 21
97.6182278427
 31
0.0
  0
LINE
  5
174
330
1F
100
AcDbEntity
  8
0
  6
HIDDEN
 62
     7
370
     0
100
AcDbLine
 10
152.0678066973
 20
123.6182278427
 30
0.0
 11
148.0678066973
 21
123.6182278427
 31
0.0
  0
LINE
  5
175
330
1F
100
AcDbEntity
  8
0
  6
HIDDEN
 62
     7
370
     0
100
AcDbLine
 10
173.2911750803
 20
99.0208325019
 30
0.0
 11
173.0558581637
 21
98.6027315015
 31
0.0
  0
LINE
  5
176
330
1F
100
AcDbEntity
  8
0
  6
HIDDEN
 62
     7
370
     0
100
AcDbLine
 10
173.0558581637
 20
98.6027315015
 30
0.0
 11
173.2919884348
 21
98.2328597125
 31
0.0
  0
LINE
  5
177
330
1F
100
AcDbEntity
  8
0
  6
HIDDEN
 62
     7
370
     0
100
AcDbLine
 10
136.2178066973
 20
98.6182278427
 30
0.0
 11
136.9678066973
 21
99.3682278427
 31
0.0
  0
LINE
  5
178
330
1F
100
AcDbEntity
  8
0
  6
HIDDEN
 62
     7
370
     0
100
AcDbLine
 10
136.9678066973
 20
121.8682278427
 30
0.0
 11
136.2178066973
 21
122.6182278427
 31
0.0
  0
LINE
  5
179
330
1F
100
AcDbEntity
  8
0
  6
HIDDEN
 62
     7
370
     0
100
AcDbLine
 10
136.9678066973
 20
99.3682278427
 30
0.0
 11
148.0678066973
 21
99.3682278427
 31
0.0
  0
LINE
  5
17A
330
1F
100
AcDbEntity
  8
0
  6
HIDDEN
 62
     7
370
     0
100
AcDbLine
 10
148.0678066973
 20
121.8682278427
 30
0.0
 11
136.9678066973
 21
121.8682278427
 31
0.0
  0
ARC
  5
17B
330
1F
100
AcDbEntity
  8
0
  6
HIDDEN
 62
     7
370
     0
100
AcDbCircle
 10
175.8730326792
 20
120.5182278427
 30
0.0
 40
0.4000000000000057
100
AcDbArc
 50
70.0
 51
90.0
  0
ARC
  5
17C
330
1F
100
AcDbEntity
  8
0
  6
HIDDEN
 62
     7
370
     0
100
AcDbCircle
 10
223.4678066973
 20
100.3182278427
 30
0.0
 40
0.2999999999999972
100
AcDbArc
 50
0.0
 51
90.0
  0
ARC
  5
17D
330
1F
100
AcDbEntity
  8
0
  6
HIDDEN
 62
     7
370
     0
100
AcDbCircle
 10
223.4678066973
 20
120.9182278427
 30
0.0
 40
0.2999999999999972
100
AcDbArc
 50
270.0
 51
0.0
  0
LINE
  5
17E
330
1F
100
AcDbEntity
  8
0
  6
HIDDEN
 62
     7
370
     0
100
AcDbLine
 10
173.1678066973
 20
100.3182278427
 30
0.0
 11
175.8730326792
 21
100.3182278427
 31
0.0
  0
LINE
  5
17F
330
1F
100
AcDbEntity
  8
0
  6
HIDDEN
 62
     7
370
     0
100
AcDbLine
 10
175.8730326792
 20
120.9182278427
 30
0.0
 11
173.1678066973
 21
120.9182278427
 31
0.0
  0
ARC
  5
180
330
1F
100
AcDbEntity
  8
0
  6
HIDDEN
 62
     7
370
     0
100
AcDbCircle
 10
173.1678066973
 20
100.7182278427
 30
0.0
 40
0.4000000000000057
100
AcDbArc
 50
180.0
 51
270.0
  0
ARC
  5
181
330
1F
100
AcDbEntity
  8
0
  6
HIDDEN
 62
     7
370
     0
100
AcDbCircle
 10
173.1678066973
 20
120.5182278427
 30
0.0
 40
0.4000000000000057
100
AcDbArc
 50
90.0
 51
180.0
  0
LINE
  5
182
330
1F
100
AcDbEntity
  8
0
  6
HIDDEN
 62
     7
370
     0
100
AcDbLine
 10
176.0098407365
 20
100.3423507944
 30
0.0
 11
176.7678066973
 21
100.6182278427
 31
0.0
  0
LINE
  5
183
330
1F
100
AcDbEntity
  8
0
  6
HIDDEN
 62
     7
370
     0
100
AcDbLine
 10
176.7678066973
 20
120.6182278427
 30
0.0
 11
176.0098407365
 21
120.894104891
 31
0.0
  0
LINE
  5
184
330
1F
100
AcDbEntity
  8
0
  6
HIDDEN
 62
     7
370
     0
100
AcDbLine
 10
128.7178066973
 20
160.6182278427
 30
0.0
 11
128.7178066973
 21
154.5182278427
 31
0.0
  0
LINE
  5
185
330
1F
100
AcDbEntity
  8
0
  6
HIDDEN
 62
     7
370
     0
100
AcDbLine
 10
176.7678066973
 20
100.6182278427
 30
0.0
 11
223.4678066973
 21
100.6182278427
 31
0.0
  0
LINE
  5
186
330
1F
100
AcDbEntity
  8
0
  6
HIDDEN
 62
     7
370
     0
100
AcDbLine
 10
223.4678066973
 20
120.6182278427
 30
0.0
 11
176.7678066973
 21
120.6182278427
 31
0.0
  0
LINE
  5
187
330
1F
100
AcDbEntity
  8
0
  6
HIDDEN
 62
     7
370
     0
100
AcDbLine
 10
115.2005193133
 20
73.0399482721
 30
0.0
 11
114.7678100268
 21
73.5181729895
 31
0.0
  0
LINE
  5
188
330
1F
100
AcDbEntity
  8
0
  6
HIDDEN
 62
     7
370
     0
100
AcDbLine
 10
102.7678071553
 20
74.1651343462
 30
0.0
 11
102.2871798501
 21
73.6869096354
 31
0.0
  0
LINE
  5
189
330
1F
100
AcDbEntity
  8
0
  6
HIDDEN
 62
     7
370
     0
100
AcDbLine
 10
102.2870615086
 20
147.549540134
 30
0.0
 11
102.7678069727
 21
147.0712604621
 31
0.0
  0
LINE
  5
18A
330
1F
100
AcDbEntity
  8
0
  6
HIDDEN
 62
     7
370
     0
100
AcDbLine
 10
114.7678066994
 20
147.7182328494
 30
0.0
 11
115.2006283691
 21
148.1965125223
 31
0.0
  0
ARC
  5
18B
330
1F
100
AcDbEntity
  8
0
  6
HIDDEN
 62
     7
370
     0
100
AcDbCircle
 10
175.8730326792
 20
100.7182278427
 30
0.0
 40
0.3999999999999977
100
AcDbArc
 50
270.0
 51
290.0
  0
LINE
  5
18C
330
1F
100
AcDbEntity
  8
0
  6
HIDDEN
 62
     7
370
     0
100
AcDbLine
 10
114.7678066973
 20
73.418044147
 30
0.0
 11
114.7678066973
 21
79.1523499157
 31
0.0
  0
LINE
  5
18D
330
1F
100
AcDbEntity
  8
0
  6
HIDDEN
 62
     7
370
     0
100
AcDbLine
 10
102.7678066973
 20
79.1267072107
 30
0.0
 11
102.7678066973
 21
74.1651727607
 31
0.0
  0
LINE
  5
18E
330
1F
100
AcDbEntity
  8
0
  6
HIDDEN
 62
     7
370
     0
100
AcDbLine
 10
114.7678066973
 20
142.0841057698
 30
0.0
 11
114.7678066973
 21
147.8182366755
 31
0.0
  0
LINE
  5
18F
330
1F
100
AcDbEntity
  8
0
  6
HIDDEN
 62
     7
370
     0
100
AcDbLine
 10
102.7678066973
 20
147.0712499628
 30
0.0
 11
102.7678066973
 21
142.1097484748
 31
0.0
  0
LINE
  5
190
330
1F
100
AcDbEntity
  8
0
  6
HIDDEN
 62
     7
370
     0
100
AcDbLine
 10
152.0678066973
 20
104.6182278427
 30
0.0
 11
172.7678066973
 21
104.6182278427
 31
0.0
  0
LINE
  5
191
330
1F
100
AcDbEntity
  8
0
  6
HIDDEN
 62
     7
370
     0
100
AcDbLine
 10
172.7678066973
 20
116.6182278427
 30
0.0
 11
152.0678066973
 21
116.6182278427
 31
0.0
  0
LINE
  5
192
330
1F
100
AcDbEntity
  8
0
  6
HIDDEN
 62
     7
370
     0
100
AcDbLine
 10
169.2178066973
 20
84.6182278427
 30
0.0
 11
168.2178066973
 21
85.1955781119
 31
0.0
  0
LINE
  5
193
330
1F
100
AcDbEntity
  8
0
  6
HIDDEN
 62
     7
370
     0
100
AcDbLine
 10
163.2178066973
 20
85.1955781119
 30
0.0
 11
162.2178066973
 21
84.6182278427
 31
0.0
  0
LINE
  5
194
330
1F
100
AcDbEntity
  8
0
  6
HIDDEN
 62
     7
370
     0
100
AcDbLine
 10
162.2178066973
 20
136.6182278427
 30
0.0
 11
163.2178066973
 21
136.0408775735
 31
0.0
  0
LINE
  5
195
330
1F
100
AcDbEntity
  8
0
  6
HIDDEN
 62
     7
370
     0
100
AcDbLine
 10
168.2178066973
 20
136.0408775735
 30
0.0
 11
169.2178066973
 21
136.6182278427
 31
0.0
  0
LINE
  5
196
330
1F
100
AcDbEntity
  8
0
  6
HIDDEN
 62
     7
370
     0
100
AcDbLine
 10
163.2178066973
 20
136.0408775735
 30
0.0
 11
163.2178066973
 21
124.6182278427
 31
0.0
  0
LINE
  5
197
330
1F
100
AcDbEntity
  8
0
  6
HIDDEN
 62
     7
370
     0
100
AcDbLine
 10
168.2178066973
 20
124.6182278427
 30
0.0
 11
168.2178066973
 21
136.0408775735
 31
0.0
  0
LINE
  5
198
330
1F
100
AcDbEntity
  8
0
  6
HIDDEN
 62
     7
370
     0
100
AcDbLine
 10
163.2178066973
 20
124.6182278427
 30
0.0
 11
165.7178066973
 21
123.1160762952
 31
0.0
  0
LINE
  5
199
330
1F
100
AcDbEntity
  8
0
  6
HIDDEN
 62
     7
370
     0
100
AcDbLine
 10
165.7178066973
 20
123.1160762952
 30
0.0
 11
168.2178066973
 21
124.6182278427
 31
0.0
  0
LINE
  5
19A
330
1F
100
AcDbEntity
  8
0
  6
HIDDEN
 62
     7
370
     0
100
AcDbLine
 10
168.2178066973
 20
85.1955781119
 30
0.0
 11
168.2178066973
 21
96.6182278427
 31
0.0
  0
LINE
  5
19B
330
1F
100
AcDbEntity
  8
0
  6
HIDDEN
 62
     7
370
     0
100
AcDbLine
 10
163.2178066973
 20
96.6182278427
 30
0.0
 11
163.2178066973
 21
85.1955781119
 31
0.0
  0
LINE
  5
19C
330
1F
100
AcDbEntity
  8
0
  6
HIDDEN
 62
     7
370
     0
100
AcDbLine
 10
168.2178066973
 20
96.6182278427
 30
0.0
 11
165.7178066973
 21
98.1203793903
 31
0.0
  0
LINE
  5
19D
330
1F
100
AcDbEntity
  8
0
  6
HIDDEN
 62
     7
370
     0
100
AcDbLine
 10
165.7178066973
 20
98.1203793903
 30
0.0
 11
163.2178066973
 21
96.6182278427
 31
0.0
  0
LINE
  5
19E
330
1F
100
AcDbEntity
  8
0
  6
HIDDEN
 62
     7
370
     0
100
AcDbLine
 10
176.2678066973
 20
117.8199655828
 30
0.0
 11
176.2678066973
 21
121.6686746388
 31
0.0
  0
LINE
  5
19F
330
1F
100
AcDbEntity
  8
0
  6
HIDDEN
 62
     7
370
     0
100
AcDbLine
 10
173.2678066973
 20
122.3628944862
 30
0.0
 11
173.2678066973
 21
117.90047644
 31
0.0
  0
LINE
  5
1A0
330
1F
100
AcDbEntity
  8
0
  6
HIDDEN
 62
     7
370
     0
100
AcDbLine
 10
173.2678066973
 20
123.3461499041
 30
0.0
 11
173.2678066973
 21
122.8574927021
 31
0.0
  0
LINE
  5
1A1
330
1F
100
AcDbEntity
  8
0
  6
HIDDEN
 62
     7
370
     0
100
AcDbLine
 10
175.9791457399
 20
121.3020262112
 30
0.0
 11
223.7678066973
 21
119.9743472434
 31
0.0
  0
LINE
  5
1A2
330
1F
100
AcDbEntity
  8
0
  6
HIDDEN
 62
     7
370
     0
100
AcDbLine
 10
223.7678066973
 20
122.4753118776
 30
0.0
 11
175.9757684031
 21
123.8030846756
 31
0.0
  0
LINE
  5
1A3
330
1F
100
AcDbEntity
  8
0
  6
HIDDEN
 62
     7
370
     0
100
AcDbLine
 10
127.7678066973
 20
158.1650993062
 30
0.0
 11
127.7678066973
 21
156.2897812219
 31
0.0
  0
LINE
  5
1A4
330
1F
100
AcDbEntity
  8
0
  6
HIDDEN
 62
     7
370
     0
100
AcDbLine
 10
137.7678066973
 20
156.2952894802
 30
0.0
 11
137.7678066973
 21
158.170833739
 31
0.0
  0
LINE
  5
1A5
330
1F
100
AcDbEntity
  8
0
  6
HIDDEN
 62
     7
370
     0
100
AcDbLine
 10
173.2943327391
 20
123.0072680647
 30
0.0
 11
173.0558581637
 21
122.633724184
 31
0.0
  0
LINE
  5
1A6
330
1F
100
AcDbEntity
  8
0
  6
HIDDEN
 62
     7
370
     0
100
AcDbLine
 10
173.0558581637
 20
122.633724184
 30
0.0
 11
173.2914610433
 21
122.2151150967
 31
0.0
  0
LINE
  5
1A7
330
1F
100
AcDbEntity
  8
0
  6
HIDDEN
 62
     7
370
     0
100
AcDbLine
 10
218.2586945497
 20
101.3585703125
 30
0.0
 11
217.7733458016
 21
100.8450862074
 31
0.0
  0
LINE
  5
1A8
330
1F
100
AcDbEntity
  8
0
  6
HIDDEN
 62
     7
370
     0
100
AcDbLine
 10
217.828867549
 20
98.8466287293
 30
0.0
 11
218.3419771708
 21
98.3608840953
 31
0.0
  0
LINE
  5
1A9
330
1F
100
AcDbEntity
  8
0
  6
HIDDEN
 62
     7
370
     0
100
AcDbLine
 10
223.5937722857
 20
101.507369829
 30
0.0
 11
218.2598344818
 21
101.3591807629
 31
0.0
  0
LINE
  5
1AA
330
1F
100
AcDbEntity
  8
0
  6
HIDDEN
 62
     7
370
     0
100
AcDbLine
 10
218.3431492378
 20
98.3603378775
 30
0.0
 11
223.6770870417
 21
98.5085269436
 31
0.0
  0
LINE
  5
1AB
330
1F
100
AcDbEntity
  8
0
  6
HIDDEN
 62
     7
370
     0
100
AcDbLine
 10
223.6790410706
 20
98.5103182431
 30
0.0
 11
223.7678066973
 21
98.6746903185
 31
0.0
  0
LINE
  5
1AC
330
1F
100
AcDbEntity
  8
0
  6
HIDDEN
 62
     7
370
     0
100
AcDbLine
 10
223.7650511436
 20
101.2301079271
 30
0.0
 11
223.5958227565
 21
101.5056897838
 31
0.0
  0
LINE
  5
1AD
330
1F
100
AcDbEntity
  8
0
  6
HIDDEN
 62
     7
370
     0
100
AcDbLine
 10
223.5369330329
 20
119.7324019937
 30
0.0
 11
223.70616142
 21
120.0079838504
 31
0.0
  0
LINE
  5
1AE
330
1F
100
AcDbEntity
  8
0
  6
HIDDEN
 62
     7
370
     0
100
AcDbLine
 10
223.7678066973
 20
122.4543521969
 30
0.0
 11
223.6201513469
 21
122.7277735344
 31
0.0
  0
LINE
  5
1AF
330
1F
100
AcDbEntity
  8
0
  6
HIDDEN
 62
     7
370
     0
100
AcDbLine
 10
223.618197318
 20
122.7295648339
 30
0.0
 11
218.2842595141
 21
122.8777539
 31
0.0
  0
LINE
  5
1B0
330
1F
100
AcDbEntity
  8
0
  6
HIDDEN
 62
     7
370
     0
100
AcDbLine
 10
218.2009447581
 20
119.8789110146
 30
0.0
 11
223.534882562
 21
119.7307219485
 31
0.0
  0
LINE
  5
1B1
330
1F
100
AcDbEntity
  8
0
  6
HIDDEN
 62
     7
370
     0
100
AcDbLine
 10
218.2830874472
 20
122.8772076822
 30
0.0
 11
217.7699778254
 21
122.3914630482
 31
0.0
  0
LINE
  5
1B2
330
1F
100
AcDbEntity
  8
0
  6
HIDDEN
 62
     7
370
     0
100
AcDbLine
 10
217.714456078
 20
120.3930055701
 30
0.0
 11
218.1998048261
 21
119.879521465
 31
0.0
  0
DIMENSION
  5
1B3
330
1F
100
AcDbEntity
  8
VERMASSUNG
100
AcDbDimension
  2
*D1
 10
68.5738048111
 20
60.6182278427
 30
0.0
 11
68.5738048111
 21
110.6182278427
 31
0.0
 70
   160
  1
HSK A %%c<>
 71
     2
 42
-1.0
  3
SLDDIMSTYLE0
100
AcDbAlignedDimension
 13
124.2678066973
 23
160.6182278427
 33
0.0
 14
124.2678066973
 24
60.6182278427
 34
0.0
 50
90.0
100
AcDbRotatedDimension
  0
DIMENSION
  5
1C0
330
1F
100
AcDbEntity
  8
VERMASSUNG
100
AcDbDimension
  2
*D2
 10
223.7678066973
 20
175.9753703716
 30
0.0
 11
148.8178066973
 21
175.9753703716
 31
0.0
 70
   160
 71
     2
 42
-1.0
  3
SLDDIMSTYLE0
100
AcDbAlignedDimension
 13
73.8678066973
 23
141.1208975853
 33
0.0
 14
223.7678066973
 24
129.3440873211
 34
0.0
100
AcDbRotatedDimension
  0
DIMENSION
  5
1CA
330
1F
100
AcDbEntity
  8
VERMASSUNG
100
AcDbDimension
  2
*D3
 10
223.7678066973
 20
169.9753703716
 30
0.0
 11
173.7678066973
 21
169.9753703716
 31
0.0
 70
   160
 71
     2
 42
-1.0
  3
SLDDIMSTYLE0
100
AcDbAlignedDimension
 13
123.7678066973
 23
160.1182278427
 33
0.0
 14
223.7678066973
 24
129.3440873211
 34
0.0
100
AcDbRotatedDimension
  0
DIMENSION
  5
1D4
330
1F
100
AcDbEntity
  8
VERMASSUNG
100
AcDbDimension
  2
*D4
 10
223.7678066973
 20
163.9753703716
 30
0.0
 11
188.2428066973
 21
163.9753703716
 31
0.0
 70
   160
 71
     2
 42
-1.0
  3
SLDDIMSTYLE0
100
AcDbAlignedDimension
 13
152.7178066973
 23
158.5869676636
 33
0.0
 14
223.7678066973
 24
129.3440873211
 34
0.0
100
AcDbRotatedDimension
  0
DIMENSION
  5
1DE
330
1F
100
AcDbEntity
  8
VERMASSUNG
100
AcDbDimension
  2
*D5
 10
231.0900136569
 20
100.6182278427
 30
0.0
 11
231.0900136569
 21
110.6182278427
 31
0.0
 70
   160
  1
%%c<>
 71
     2
 42
-1.0
  3
SLDDIMSTYLE0
100
AcDbAlignedDimension
 13
223.4678066973
 23
120.6182278427
 33
0.0
 14
223.4678066973
 24
100.6182278427
 34
0.0
 50
90.0
100
AcDbRotatedDimension
  0
DIMENSION
  5
1E9
330
1F
100
AcDbEntity
  8
VERMASSUNG
100
AcDbDimension
  2
*D6
 10
237.0900136569
 20
84.6182278427
 30
0.0
 11
237.0900136569
 21
110.6182278427
 31
0.0
 70
   160
  1
%%c<>
 71
     2
 42
-1.0
  3
SLDDIMSTYLE0
100
AcDbAlignedDimension
 13
210.9007651742
 23
136.6182278427
 33
0.0
 14
210.9007651742
 24
84.6182278427
 34
0.0
 50
90.0
100
AcDbRotatedDimension
  0
LINE
  5
1F4
330
1F
100
AcDbEntity
  8
VERMASSUNG
  6
CENTERX2
 62
     7
370
     0
100
AcDbLine
 10
71.6173373363
 20
110.6182278427
 30
0.0
 11
225.7141184994
 21
110.6182278427
 31
0.0
  0
OLE2FRAME
  5
1F5
330
1F
100
AcDbEntity
  8
0
100
AcDbOle2Frame
 70
     2
  3
Bitmap Image
 10
13.8511154363
 20
38.264191557
 30
0.0
 11
51.6290888628
 21
31.9806341108
 31
0.0
 71
     2
 72
     0
 73
     1
 90
    12928
310
80552BED0767C5B32B40DDAF6807D121434000000000000000006FFBDDFB85D0
310
4940DDAF6807D121434000000000000000006FFBDDFB85D04940416F4BD60AFB
310
3F4000000000000000002BED0767C5B32B40416F4BD60AFB3F40000000000000
310
0000000000000100000000010000010000000100000000000100000000320000
310
D0CF11E0A1B11AE1000000000000000000000000000000003E000300FEFF0900
310
0600000000000000000000000100000001000000000000000010000002000000
310
01000000FEFFFFFF0000000000000000FFFFFFFFFFFFFFFFFFFFFFFFFFFFFFFF
310
FFFFFFFFFFFFFFFFFFFFFFFFFFFFFFFFFFFFFFFFFFFFFFFFFFFFFFFFFFFFFFFF
310
FFFFFFFFFFFFFFFFFFFFFFFFFFFFFFFFFFFFFFFFFFFFFFFFFFFFFFFFFFFFFFFF
310
FFFFFFFFFFFFFFFFFFFFFFFFFFFFFFFFFFFFFFFFFFFFFFFFFFFFFFFFFFFFFFFF
310
FFFFFFFFFFFFFFFFFFFFFFFFFFFFFFFFFFFFFFFFFFFFFFFFFFFFFFFFFFFFFFFF
310
FFFFFFFFFFFFFFFFFFFFFFFFFFFFFFFFFFFFFFFFFFFFFFFFFFFFFFFFFFFFFFFF
310
FFFFFFFFFFFFFFFFFFFFFFFFFFFFFFFFFFFFFFFFFFFFFFFFFFFFFFFFFFFFFFFF
310
FFFFFFFFFFFFFFFFFFFFFFFFFFFFFFFFFFFFFFFFFFFFFFFFFFFFFFFFFFFFFFFF
310
FFFFFFFFFFFFFFFFFFFFFFFFFFFFFFFFFFFFFFFFFFFFFFFFFFFFFFFFFFFFFFFF
310
FFFFFFFFFFFFFFFFFFFFFFFFFFFFFFFFFFFFFFFFFFFFFFFFFFFFFFFFFFFFFFFF
310
FFFFFFFFFFFFFFFFFFFFFFFFFFFFFFFFFFFFFFFFFFFFFFFFFFFFFFFFFFFFFFFF
310
FFFFFFFFFFFFFFFFFFFFFFFFFFFFFFFFFFFFFFFFFFFFFFFFFFFFFFFFFFFFFFFF
310
FFFFFFFFFFFFFFFFFFFFFFFFFFFFFFFFFFFFFFFFFFFFFFFFFFFFFFFFFFFFFFFF
310
FFFFFFFFFFFFFFFFFFFFFFFFFFFFFFFFFFFFFFFFFFFFFFFFFFFFFFFFFFFFFFFF
310
FDFFFFFFFEFFFFFFFEFFFFFFFEFFFFFF05000000060000000700000008000000
310
090000000A0000000B0000000C0000000D0000000E0000000F00000010000000
310
11000000120000001300000014000000150000001600000017000000FEFFFFFF
310
FFFFFFFFFFFFFFFFFFFFFFFFFFFFFFFFFFFFFFFFFFFFFFFFFFFFFFFFFFFFFFFF
310
FFFFFFFFFFFFFFFFFFFFFFFFFFFFFFFFFFFFFFFFFFFFFFFFFFFFFFFFFFFFFFFF
310
FFFFFFFFFFFFFFFFFFFFFFFFFFFFFFFFFFFFFFFFFFFFFFFFFFFFFFFFFFFFFFFF
310
FFFFFFFFFFFFFFFFFFFFFFFFFFFFFFFFFFFFFFFFFFFFFFFFFFFFFFFFFFFFFFFF
310
FFFFFFFFFFFFFFFFFFFFFFFFFFFFFFFFFFFFFFFFFFFFFFFFFFFFFFFFFFFFFFFF
310
FFFFFFFFFFFFFFFFFFFFFFFFFFFFFFFFFFFFFFFFFFFFFFFFFFFFFFFFFFFFFFFF
310
FFFFFFFFFFFFFFFFFFFFFFFFFFFFFFFFFFFFFFFFFFFFFFFFFFFFFFFFFFFFFFFF
310
FFFFFFFFFFFFFFFFFFFFFFFFFFFFFFFFFFFFFFFFFFFFFFFFFFFFFFFFFFFFFFFF
310
FFFFFFFFFFFFFFFFFFFFFFFFFFFFFFFFFFFFFFFFFFFFFFFFFFFFFFFFFFFFFFFF
310
FFFFFFFFFFFFFFFFFFFFFFFFFFFFFFFFFFFFFFFFFFFFFFFFFFFFFFFFFFFFFFFF
310
FFFFFFFFFFFFFFFFFFFFFFFFFFFFFFFFFFFFFFFFFFFFFFFFFFFFFFFFFFFFFFFF
310
FFFFFFFFFFFFFFFFFFFFFFFFFFFFFFFFFFFFFFFFFFFFFFFFFFFFFFFFFFFFFFFF
310
FFFFFFFFFFFFFFFFFFFFFFFFFFFFFFFFFFFFFFFFFFFFFFFFFFFFFFFFFFFFFFFF
310
52006F006F007400200045006E00740072007900000000000000000000000000
310
0000000000000000000000000000000000000000000000000000000000000000
310
16000500FFFFFFFFFFFFFFFF020000000A00030000000000C000000000000046
310
00000000000000000000000080D877AD0900CC0103000000C000000000000000
310
01004F006C006500000000000000000000000000000000000000000000000000
310
0000000000000000000000000000000000000000000000000000000000000000
310
0A000200FFFFFFFFFFFFFFFFFFFFFFFF00000000000000000000000000000000
310
0000000000000000000000000000000000000000000000001400000000000000
310
010043006F006D0070004F0062006A0000000000000000000000000000000000
310
0000000000000000000000000000000000000000000000000000000000000000
310
120002010100000003000000FFFFFFFF00000000000000000000000000000000
310
0000000000000000000000000000000000000000010000004D00000000000000
310
01004F006C006500310030004E00610074006900760065000000000000000000
310
0000000000000000000000000000000000000000000000000000000000000000
310
1A000200FFFFFFFFFFFFFFFFFFFFFFFF00000000000000000000000000000000
310
0000000000000000000000000000000000000000040000002426000000000000
310
FEFFFFFF02000000FEFFFFFFFFFFFFFFFFFFFFFFFFFFFFFFFFFFFFFFFFFFFFFF
310
FFFFFFFFFFFFFFFFFFFFFFFFFFFFFFFFFFFFFFFFFFFFFFFFFFFFFFFFFFFFFFFF
310
FFFFFFFFFFFFFFFFFFFFFFFFFFFFFFFFFFFFFFFFFFFFFFFFFFFFFFFFFFFFFFFF
310
FFFFFFFFFFFFFFFFFFFFFFFFFFFFFFFFFFFFFFFFFFFFFFFFFFFFFFFFFFFFFFFF
310
FFFFFFFFFFFFFFFFFFFFFFFFFFFFFFFFFFFFFFFFFFFFFFFFFFFFFFFFFFFFFFFF
310
FFFFFFFFFFFFFFFFFFFFFFFFFFFFFFFFFFFFFFFFFFFFFFFFFFFFFFFFFFFFFFFF
310
FFFFFFFFFFFFFFFFFFFFFFFFFFFFFFFFFFFFFFFFFFFFFFFFFFFFFFFFFFFFFFFF
310
FFFFFFFFFFFFFFFFFFFFFFFFFFFFFFFFFFFFFFFFFFFFFFFFFFFFFFFFFFFFFFFF
310
FFFFFFFFFFFFFFFFFFFFFFFFFFFFFFFFFFFFFFFFFFFFFFFFFFFFFFFFFFFFFFFF
310
FFFFFFFFFFFFFFFFFFFFFFFFFFFFFFFFFFFFFFFFFFFFFFFFFFFFFFFFFFFFFFFF
310
FFFFFFFFFFFFFFFFFFFFFFFFFFFFFFFFFFFFFFFFFFFFFFFFFFFFFFFFFFFFFFFF
310
FFFFFFFFFFFFFFFFFFFFFFFFFFFFFFFFFFFFFFFFFFFFFFFFFFFFFFFFFFFFFFFF
310
FFFFFFFFFFFFFFFFFFFFFFFFFFFFFFFFFFFFFFFFFFFFFFFFFFFFFFFFFFFFFFFF
310
FFFFFFFFFFFFFFFFFFFFFFFFFFFFFFFFFFFFFFFFFFFFFFFFFFFFFFFFFFFFFFFF
310
FFFFFFFFFFFFFFFFFFFFFFFFFFFFFFFFFFFFFFFFFFFFFFFFFFFFFFFFFFFFFFFF
310
FFFFFFFFFFFFFFFFFFFFFFFFFFFFFFFFFFFFFFFFFFFFFFFFFFFFFFFFFFFFFFFF
310
0100000200000000000000000000000000000000610072003D0082005C003107
310
9806250000000000604E280000000000680061007200650064005C003B004300
310
0100FEFF030A0000FFFFFFFF0A00030000000000C00000000000004607000000
310
5042727573680007000000504272757368000700000050427275736800F439B2
310
71000000000000000000000000004100540049002E004100430045005C004300
310
6F00720065002D005300740061007400690063003B0043003A005C0050007200
310
6F006700720061006D002000460069006C006500730020002800780038003600
310
29005C0043006F006D006D006F006E002000460069006C00650073005C004100
310
750074006F006400650073006B0020005300680061007200650064005C003B00
310
43003A005C00500072006F006700720061006D002000460069006C0065007300
310
5C004E006F0072006D0061006E005C004E0070006D005C00420069006E000000
310
43003A005C00500072006F006700720061006D002000460069006C0065007300
310
5C0053006F006C006900640057006F0072006B007300200043006F0072007000
310
5C0053006F006C006900640057006F0072006B00730020002800320029005C00
310
730065007400750070005C0069003300380036005C0073007700610063007400
310
770069007A002E006500780065000000220043003A005C00500072006F006700
310
20260000424D0E260000000000003E00000028000000B40200006E0000000100
310
01000000000000000000130B0000130B00000200000002000000000000FFFFFF
310
FFFFFFFFFFFFFFFFFFFFFFFFFFFFFFFFFFFFFFFFFFFFFFFFFFFFFFFFFFFFFFFF
310
FFFFFFFFFFFFFFFFFFFFFFFFFFFFFFFFFFFFFFFFFFFFFFFFFFFFFFFFFFFFFFFF
310
FFFFFFFFFFFFFFFFFFFFFFFFFFFFFFFFFFFFFFFFFFFFFFFFF000FFFFFFFFFFFF
310
FFFFFFFFFFFFFFFFFFFFFFFFFFFFFFFFFFFFFFFFFFFFFFFFFFFFFFFFFFFFFFFF
310
FFFFFFFFFFFFFFFFFFFFFFFFFFFFFFFFFFFFFFFFFFFFFFFFFFFFFFFFFFFFFFFF
310
FFFFFFFFFFFFFFFFFFFFFFFFFFFFFFFFF000FFFFFFFFFFFFFFFFFFFFFFFFFFFF
310
FFFFFFFFFFFFFFFFFFFFFFFFFFFFFFFFFFFFFFFFFFFFFFFFFFFFFFFFFFFFFFFF
310
FFFFFFFFFFFFFFFFFFFFFFFFFFFFFFFFFFFFFFFFFFFFFFFFFFFFFFFFFFFFFFFF
310
FFFFFFFFFFFFFFFFF000FFFFFFFFFFFFFFFFFFFFFFFFFFFFFFFFFFFFFFFFFFFF
310
FFFFFFFFFFFFFFFFFFFFFFFFFFFFFFFFFFFFFFFFFFFFFFFFFFFFFFFFFFFFFFFF
310
FFFFFFFFFFFFFFFFFFFFFFFFFFFFFFFFFFFFFFFFFFFFFFFFFFFFFFFFFFFFFFFF
310
F000FFFFFFFFFFFFFFFFFFFFFFFFFFFFFFFFFFFFFFFFFFFFFFFFFFFFFFFFFFFF
310
FFFFFFFFFFFFFFFFFFFFFFFFFFFFFFFFFFFFFFFFFFFFFFFFFFFFFFFFFFFFFFFF
310
FFFFFFFFFFFFFFFFFFFFFFFFFFFFFFFFFFFFFFFFFFFFFFFFF000FFFFFFFFFFFF
310
FFFFFFFFFFFFFFFFFFFFFFFFFFFFFFFFFFFFFFFFFFFFFFFFFFFFFFFFFFFFFFFF
310
FFFFFFFFFFFFFFFFFFFFFFFFFFFFFFFFFFFFFFFFFFFFFFFFFFFFFFFFFFFFFFFF
310
FFFFFFFFFFFFFFFFFFFFFFFFFFFFFFFFF000FFFFFFFFFFFFFFFFFFFFFFFFFFFF
310
FFFFFFFFFFFFFFFFFFFFFFFFFFFFFFFFFFFFFFFFFFFFFFFFFFFFFFFFFFFFFFFF
310
FFFFFFFFFFFFFFFFFFFFFFFFFFFFFFFFFFFFFFFFFFFFFFFFFFFFFFFFFFFFFFFF
310
FFFFFFFFFFFFFFFFF000FFFFFFFFFFFFFFFFFFFFFFFFFFFFFFFFFFFFFFFFFFFF
310
FFFFFFFFFFFFFFFFFFFFFFFFFFFFFFFFFFFFFFFFFFFFFFFFFFFFFFFFFFFFFFFF
310
FFFFFFFFFFFFFFFFFFFFFFFFFFFFFFFFFFFFFFFFFFFFFFFFFFFFFFFFFFFFFFFF
310
F000FFFFFFFFFFFFFFFFFFFFFFFFFFFFFFFFFFFFFFFFFFFFFFFFFFFFFFFFFFFF
310
FFFFFFFFFFFFFFFFFFFFFFFFFFFFFFFFFFFFFFFFFFFFFFFFFFFFFFFFFFFFFFFF
310
FFFFFFFFFFFFFFFFFFFFFFFFFFFFFFFFFFFFFFFFFFFFFFFFF000FFFFFFFFFFFF
310
FFFFFFFFFFFFFFFFFFFFFFFFFFFFFFFFFFFFFFFFFFFFFFFFFFFFFFFFFFFFFFFF
310
FFFFFFFFFFFFFFFFFFFFFFFFFFFFFFFFFFFFFFFFFFFFFFFFFFFFFFFFFFFFFFFF
310
FFFFFFFFFFFFFFFFFFFFFFFFFFFFFFFFF000FFFFFFFFFFFFFFFFFFFFFFFFFFFF
310
FFFFFFFFFFFFFFFFFFFFFFFFFFFFFFFFFFFFFFFFFFFFFFFFFFFFFFFFFFFFFFFF
310
FFFFFFFFFFFFFFFFFFFFFFFFFFFFFFFFFFFFFFFFFFFFFFFFFFFFFFFFFFFFFFFF
310
FFFFFFFFFFFFFFFFF000FFFFFFFFFFFFFFFFFFFFFFFFFFFFFFFFFFFFFFFFFFFF
310
FFFFFFFFFFFFFFFFFFFFFFFFFFFFFFFFFFFFFFFFFFFFFFFFFFFFFFFFFFFFFFFF
310
FFFFFFFFFFFFFFFFFFFFFFFFFFFFFFFFFFFFFFFFFFFFFFFFFFFFFFFFFFFFFFFF
310
F000FFFFFFFFFFFFFFFFFFFFFFFFFFFFFFFFFFFFFFFFFFFFFFFFFFFFFFFFFFFF
310
FFFFFFFFFFFFFFFFFFFFFFFFFFFFFFFFFFFFFFFFFFFFFFFFFFFFFFFFFFFFFFFF
310
FFFFFFFFFFFFFFFFFFFFFFFFFFFFFFFFFFFFFFFFFFFFFFFFF000FFFFFFFFFFFF
310
FFFFFFFFFFFFFFFFFFFFFFFFFFFFFFFFFFFFFFFFFFFFFFFFFFFFFFFFFFFFFFFF
310
FFFFFFFFFFFFFFFFFFFFFFFFFFFFFFFFFFFFFFFFFFFFFFFFFFFFFFFFFFFFFFFF
310
FFFFFFFFFFFFFFFFFFFFFFFFFFFFFFFFF000FFFFFFFFFFFFFFFFFFFFFFFFFFFF
310
FFFFFFFFFFFFFFFFFFFFFFFFFFFFFFFFFFFFFFFFFFFFFFFFFFFFFFFFFFFFFFFF
310
FFFFFFFFFFFFFFFFFFFFFFFFFFFFFFFFFFFFFFFFFFFFFFFFFFFFFFFFFFFFFFFF
310
FFFFFFFFFFFFFFFFF000FFFFFFFFFFFFFFFFFFFFFFFFFFFFFFFFFFFFFFFFFFFF
310
FFFFFFFFFFFFFFFFFFFFFFFFFFFFFFFFFFFFFFFFFFFFFFFFFFFFFFFFFFFFFFFF
310
FFFFFFFFFFFFFFFFFFFFFFFFFFFFFFFFFFFFFFFFFFFFFFFFFFFFFFFFFFFFFFFF
310
F000FFFFFFFFFFFFFFFFFFFFFFFFFFFFFFFFFFFFFFFFFFFFFFFFFFFFFFFFFFFF
310
FFFFFFFFFFFFFFFFFFFFFFFFFFFFFFFFFFFFFFFFFFFFFFFFFFFFFFFFFFFFFFFF
310
FFFFFFFFFFFFFFFFFFFFFFFFFFFFFFFFFFFFFFFFFFFFFFFFF000FFFFFFFFFFFF
310
FFFFFFFFFFFFFFFFFFFFFFFFFFFFFFFFFFFFFFFFFFFFFFFFFFFFFFFFFFFFFFFF
310
FFFFFFFFFFFFFFFFFFFFFFFFFFFFFFFFFFFFFFFFFFFFFFFFFFFFFFFFFFFFFFFF
310
FFFFFFFFFFFFFFFFFFFFFFFFFFFFFFFFF000FFFFFFFFFFFFFFFFFFFFFFFFFFFF
310
FFFFFFFFFFFFFFFFFFFFFFFFFFFFFFFFFFFFFFFFFFFFFFFFFFFFFFFFFFFFFFFF
310
FFFFFFFFFFFFFFFFFFFFFFFFFFFFFFFFFFFFFFFFFFFFFFFFFFFFFFFFFFFFFFFF
310
FFFFFFFFFFFFFFFFF000FFFFF80003FFFFFFFFFFFFFFFFFFFFFFFFFFFFFFFFFF
310
FFFFF00007FFFFFFFFFF00007FFFFFF800000000000000007FFFFFFFFFFFFFFF
310
FFFFFFFC001FFFFFFFFFFFFFFC001FFFFFFFFFFFFFFFFFFFFFFFFFFE0007FFFF
310
F000FFFF8000007FFFFFFFF8000FFFFFC0007FFFFF80007FFFFF0000007FFFFF
310
FFF8000007FFFFF800000000000000007FFFFFF0001FFFFFFFFFFFC00001FFFF
310
FFFFFFFFC00001FFFFFFFF000000000003FFFFE000007FFFF000FFFE0000000F
310
FFFFFFF0000FFFFF80007FFFFF80007FFFFC0000001FFFFFFFC0000001FFFFF8
310
00000000000000007FFFFFF0001FFFFFFFFFFE0000003FFFFFFFFFFE0000003F
310
FFFFFF000000000003FFFF0000000FFFF000FFF800000003FFFFFFF00007FFFF
310
80007FFFFF80007FFFF000000007FFFFFF000000003FFFF80000000000000000
310
7FFFFFF0001FFFFFFFFFF80000000FFFFFFFFFF80000000FFFFFFF0000000000
310
03FFFC00000003FFF000FFE000000000FFFFFFF00007FFFF80003FFFFF80007F
310
FFC000000001FFFFFC000000001FFFF800000000000000007FFFFFF0001FFFFF
310
FFFFE000000003FFFFFFFFE000000003FFFFFF000000000003FFF000000000FF
310
F000FF80000000007FFFFFF00007FFFF80003FFFFF80007FFF8000000000FFFF
310
F80000000007FFF800000000000000007FFFFFF0001FFFFFFFFFC000000001FF
310
FFFFFFC000000001FFFFFF000000000003FFC0000000007FF000FF0000000000
310
3FFFFFE00007FFFF00003FFFFF80007FFE00000000003FFFF00000000003FFF8
310
00000000000000007FFFFFF0001FFFFFFFFF8000000000FFFFFFFF8000000000
310
FFFFFF000000000003FF80000000003FF000FE00000000001FFFFFE00003FFFF
310
00003FFFFF80007FFC00000000001FFFE00000000001FFF8000001FFFE000000
310
7FFFFFF0001FFFFFFFFE00000000003FFFFFFE00000000003FFFFF0000000000
310
03FF00000000001FF000FC00000000000FFFFFE00003FFFF00001FFFFF80007F
310
F800000000001FFFC00000000000FFF8000001FFFE0000007FFFFFF0001FFFFF
310
FFFC00000000001FFFFFFC00000000001FFFFF000000000003FE00000000000F
310
F000F8000000000007FFFFE00003FFFF00001FFFFF80007FF800000000000FFF
310
800000000000FFF8000001FFFE0000007FFFFFF0001FFFFFFFF800000000000F
310
FFFFF800000000000FFFFF000000000003FC000000000007F000F80000000000
310
03FFFFC00003FFFE00001FFFFF80007FF0000000000007FF0000000000007FF8
310
000001FFFE0000007FFFFFF0001FFFFFFFF0000000000007FFFFF00000000000
310
07FFFF000000000003F8000000000003F000F0000000000003FFFFC00001FFFE
310
00001FFFFF80007FE0000000000007FE0000000000003FF8000001FFFE000000
310
7FFFFFF0001FFFFFFFF0000000000007FFFFF0000000000007FFFF0000000000
310
03F800001F800003F000E00001FFF00001FFFFC00001FFFE00000FFFFF80007F
310
E00001FFE00003FE00001FFF00003FF8000001FFFE0000007FFFFFF0001FFFFF
310
FFE000003E000003FFFFE000003E000003FFFF000000000003F00001FFF80001
310
F000E00007FFFC0001FFFFC00001FFFE00000FFFFF80007FC0000FFFFC0003FC
310
0000FFFFC0001FF8000001FFFE0000007FFFFFF0001FFFFFFFC00003FFE00001
310
FFFFC00003FFE00001FFFF0001FFFFFFFFF00007FFFE0001F000E0000FFFFF00
310
00FFFF800001FFFC00000FFFFF80007FC0001FFFFE0001FC0001FFFFE0001FF8
310
000001FFFE0000007FFFFFF0001FFFFFFF80000FFFF80000FFFF80000FFFF800
310
00FFFF0003FFFFFFFFE0000FFFFF8000F000C0003FFFFF8000FFFF800000FFFC
310
000007FFFF80007F80003FFFFF0001FC0003FFFFF0001FF8000001FFFE000000
310
7FFFFFF0001FFFFFFF80003FFFFE0000FFFF80003FFFFE0000FFFF0003FFFFFF
310
FFE0003FFFFF8000F000C0003FFFFF8000FFFF800000FFFC000007FFFF80007F
310
80007FFFFF8001F80007FFFFF8000FF8000001FFFE0000007FFFFFF0001FFFFF
310
FF00007FFFFF00007FFF00007FFFFF00007FFF0003FFFFFFFFE0003FFFFFC000
310
F000C0007FFFFFC000FFFF000000FFFC000007FFFF80007F8000FFFFFF8000F8
310
000FFFFFF8000FF8000001FFFE0000007FFFFFF0001FFFFFFF0000FFFFFF8000
310
7FFF0000FFFFFF80007FFF0003FFFFFFFFC0007FFFFFC00070008000FFFFFFC0
310
00FFFF000000FFF8000007FFFF80007F8000FFFFFF8000F8000FFFFFF8000FF8
310
000001FFFE0000007FFFFFF0001FFFFFFE0001FFFFFFC0003FFE0001FFFFFFC0
310
003FFF0003FFFFFFFFC0007FFFFFE00070008000FFFFFFC0007FFF0000007FF8
310
000003FFFF80007F0001FFFFFF8000F8000FFFFFF8000FF8000001FFFE000000
310
7FFFFFF0001FFFFFFE0001FFFFFFC0003FFE0001FFFFFFC0003FFF0003FFFFFF
310
FFC000FFFFFFE00070008000FFFFFFC0007FFF0000007FF8000003FFFF80007F
310
0001FFFFFF8000F8001FFFFFF8000FF8000001FFFE0000007FFFFFF0001FFFFF
310
FE0003FFFFFFE0003FFE0003FFFFFFE0003FFF0003FFFFFFFFC000FFFFFFE000
310
70008000FFFFFFC0007FFE0000007FF8000003FFFF80007F0001FFFFFF8000F0
310
001FFFFFF8000FF8000001FFFE0000007FFFFFF0001FFFFFFC0003FFFFFFE000
310
1FFC0003FFFFFFE0001FFF0003FFFFFFFFC000FFFFFFC00070008000FFFFFF80
310
007FFE0000007FF0000003FFFF80007F0001FFFFFF0000F0001FFFFFF8000FF8
310
000001FFFE0000007FFFFFF0001FFFFFFC0007FFFFFFF0001FFC0007FFFFFFF0
310
001FFF0003FFFFFFFFC000FFFFFFC00070008001FFFFFF0000FFFE0000003FF0
310
000001FFFF80007F0001FFFFFF0000F8001FFFFFF0000FF8000001FFFE000000
310
7FFFFFF0001FFFFFFC0007FFFFFFF0001FFC0007FFFFFFF0001FFF0003FFFFFF
310
FFC001FFFFFF80007000FFFFFFFFFE0000FFFE0008003FF0008001FFFF80007F
310
FFFFFFFFFC0000FFFFFFFFFFE0000FF8000001FFFE0000007FFFFFF0001FFFFF
310
F8000FFFFFFFF8000FF8000FFFFFFFF8000FFF0003FFFFFFFFFFFFFFFFFF0000
310
7000FFFFFFFFFC0000FFFC0008003FF0008001FFFF80007FFFFFFFFFF80001FF
310
FFFFFFFF80000FF8000001FFFE0000007FFFFFF0001FFFFFF8000FFFFFFFF800
310
0FF8000FFFFFFFF8000FFF0003FFFFFFFFFFFFFFFFFE0000F000FFFFFFFFE000
310
00FFFC000C003FE000C001FFFF80007FFFFFFFFFC00001FFFFFFFFFE00001FF8
310
000001FFFE0000007FFFFFF0001FFFFFF8000FFFFFFFF8000FF8000FFFFFFFF8
310
000FFF0003FFFFFFFFFFFFFFFFF00000F000FFFFFFFE000001FFFC000C001FE0
310
00C000FFFF80007FFFFFFFFE000001FFFFFFFFE000001FF80FFFFFFFFFFFFFC0
310
7FFFFFF0001FFFFFF8000FFFFFFFF8000FF8000FFFFFFFF8000FFF0003FFFFFF
310
FFFFFFFFFF800000F000FFFFFFC0000001FFFC001C001FE001C000FFFF80007F
310
FFFFFF80000003FFFFFFF80000001FF80FFFFFFFFFFFFFC07FFFFFF0001FFFFF
310
F8001FFFFFFFFC000FF8001FFFFFFFFC000FFF0003FFFFFFFFFFFFFFF0000001
310
F000FFFFF800000001FFF8001C001FE001C000FFFF80007FFFFFF800000003FF
310
FFFF800000003FF80FFFFFFFFFFFFFC07FFFFFF0001FFFFFF8001FFFFFFFFC00
310
0FF8001FFFFFFFFC000FFF0003FFFFFFFFFFFFFE00000001F000FFFFC0000000
310
03FFF8001E001FC001E000FFFF80007FFFFF8000000007FFFFFC000000003FF8
310
0FFFFFFFFFFFFFC07FFFFFF0001FFFFFF8001FFFFFFFFC000FF8001FFFFFFFFC
310
000FFF0003FFFFFFFFFFFFE000000003F000FFFE0000000007FFF8001E000FC0
310
01E0007FFF80007FFFFE0000000007FFFFE0000000007FF80FFFFFFFFFFFFFC0
310
7FFFFFF0001FFFFFF0001FFFFFFFFC0007F0001FFFFFFFFC0007FF0003FFFFFF
310
FFFFFF0000000003F000FFF80000000007FFF8001E000FC003E0007FFF80007F
310
FFF0000000000FFFFF8000000000FFF80FFFFFFFFFFFFFC07FFFFFF0001FFFFF
310
F0001FFFFFFFFC0007F0001FFFFFFFFC0007FF0003FFFFFFFFFFFC0000000007
310
F000FFE0000000000FFFF0003E000FC003E0007FFF80007FFFC0000000001FFF
310
FE0000000001FFF80FFFFFFFFFFFFFC07FFFFFF0001FFFFFF0001FFFFFFFFC00
310
07F0001FFFFFFFFC0007FF0003FFFFFFFFFFF0000000000FF000FFC000000000
310
1FFFF0003F000F8003F0003FFF80007FFF80000000003FFFF80000000003FFF8
310
0FFFFFFFFFFFFFC07FFFFFF0001FFFFFF0001FFFFFFFFC0007F0001FFFFFFFFC
310
0007FF0003FFFFFFFFFFE0000000001FF000FF00000000007FFFF0003F000780
310
03F0003FFF80007FFF00000000007FFFF00000000007FFF80FFFFFFFFFFFFFC0
310
7FFFFFF0001FFFFFF0001FFFFFFFFC0007F0001FFFFFFFFC0007FF0003FFFFFF
310
FFFF80000000007FF000FE0000000000FFFFE0003F00078007F0003FFF80007F
310
FE0000000001FFFFE0000000001FFFF80FFFFFFFFFFFFFC07FFFFFF0001FFFFF
310
F0001FFFFFFFFC0007F0001FFFFFFFFC0007FF0003FFFFFFFFFF0000000000FF
310
F000FC0000000003FFFFE0007F00078007F0003FFF80007FFC0000000007FFFF
310
C0000000007FFFF80FFFFFFFFFFFFFC07FFFFFF0001FFFFFF8001FFFFFFFFC00
310
0FF8001FFFFFFFFC000FFF0003FFFFFFFFFE0000000003FFF000FC000000000F
310
FFFFE0007F80070007F8001FFF80007FF8000000001FFFFF8000000001FFFFF8
310
0FFFFFFFFFFFFFC07FFFFFF0001FFFFFF8001FFFFFFFFC000FF8001FFFFFFFFC
310
000FFF0003FFFFFFFFFC000000000FFFF000F8000000007FFFFFE0007F800700
310
07F8001FFF80007FF000000000FFFFFF800000000FFFFFF80FFFFFFFFFFFFFC0
310
7FFFFFF0001FFFFFF8000FFFFFFFF8000FF8000FFFFFFFF8000FFF0003FFFFFF
310
FFFC000000007FFFF000F800000007FFFFFFC0007F8003000FF8001FFF80007F
310
F000000007FFFFFF000000007FFFFFF80FFFFFFFFFFFFFC07FFFFFF0001FFFFF
310
F8000FFFFFFFF8000FF8000FFFFFFFF8000FFF0003FFFFFFFFF80000000FFFFF
310
F000F0000000FFFFFFFFC000FF8003000FF8001FFF80007FE0000000FFFFFFFF
310
0000000FFFFFFFF8000001FFFE0000007FFFFFF0001FFFFFF8000FFFFFFFF800
310
0FF8000FFFFFFFF8000FFF0003FFFFFFFFF8000000FFFFFFF000F000000FFFFF
310
FFFFC000FFC002000FF8000FFF80007FE000001FFFFFFFFE000001FFFFFFFFF8
310
000001FFFE0000007FFFFFF0001FFFFFF8000FFFFFFFF8000FF8000FFFFFFFF8
310
000FFF0003FFFFFFFFF000001FFFFFFFF000E00000FFFFFFFFFFC000FFC00200
310
0FFC000FFF80007FE00001FFFFFFFFFE00001FFFFFFFFFF8000001FFFE000000
310
7FFFFFF0001FFFFFFC000FFFFFFFF8001FFC000FFFFFFFF8001FFF0003FFFFFF
310
FFF00001FFFFFFFFF000E00007FFFFFFFFFF8000FFC000001FFC000FFF80007F
310
C0000FFFFFFFFFFE0000FFFFFFFFFFF8000001FFFE0000007FFFFFF0001FFFFF
310
FC0007FFFFFFF0001FFC0007FFFFFFF0001FFF0003FFFFFFFFF00007FFFFFFFF
310
F000E0001FFFFFFFFFFF8000FFC000001FFC000FFF80007FC0003FFFFFFFFFFE
310
0001FFFFFFFFFFF8000001FFFE0000007FFFFFF0001FFFFFFC0007FFFFFFF000
310
1FFC0007FFFFFFF0001FFF0003FFFFFFFFF0001FFFFFFFFFF000E0003FFFFF00
310
03FF8001FFE000001FFC0007FF80007FC0007FFFFF0007FC0003FFFFF0003FF8
310
000001FFFE0000007FFFFFF0001FFFFFFC0003FFFFFFE0001FFC0003FFFFFFE0
310
001FFF0003FFFFFFFFF0003FFFFFFFFFF000E0003FFFFF0001FF8001FFE00000
310
1FFE0007FF80007FC0007FFFFE0003FC0007FFFFE0003FF8000001FFFE000000
310
7FFFFFF0001FFFFFFE0003FFFFFFE0003FFE0003FFFFFFE0003FFF0003FFFFFF
310
FFF0003FFFFF8001F000E0003FFFFF0001FF0001FFE000001FFE0007FF80007F
310
C0007FFFFE0003FC0007FFFFE0003FF8000001FFFE0000007FFFFFF0001FFFFF
310
FE0001FFFFFFC0003FFE0001FFFFFFC0003FFF0003FFFFFFFFF0003FFFFF0001
310
F000E0003FFFFF0003FF0001FFE000003FFE0007FF80007FC0007FFFFE0003FC
310
0007FFFFE0003FF8000001FFFE0000007FFFFFF0001FFFFFFF0001FFFFFFC000
310
7FFF0001FFFFFFC0007FFF0003FFFFFFFFF0003FFFFF0001F000E0003FFFFE00
310
03FF0003FFF000003FFE0003FF80007FC0007FFFFC0003FE0007FFFFE0003FF8
310
000001FFFE0000007FFFFFF0001FFFFFFF0000FFFFFF80007FFF0000FFFFFF80
310
007FFF0003FFFFFFFFF0003FFFFF0001F000E0003FFFFE0003FF0003FFF00000
310
3FFF0003FF80007FC0007FFFFC0007FE0007FFFFC0003FF8000001FFFE000000
310
7FFFFFF0001FFFFFFF80007FFFFF0000FFFF80007FFFFF0000FFFF0003FFFFFF
310
FFF0003FFFFF0003F000E0003FFFFC0003FE0003FFF000003FFF0003FF80007F
310
E0003FFFF80007FE0003FFFFC0007FF8000001FFFE0000007FFFFFF0001FFFFF
310
FF80003FFFFE0000FFFF80003FFFFE0000FFFF0003FFFFFFFFF0001FFFFE0003
310
F000F0001FFFF80003FE0003FFF000007FFF0001FF80007FE0003FFFF00007FE
310
0001FFFF80007FF8000001FFFE0000007FFFFFF0001FFFFFFFC0000FFFF80001
310
FFFFC0000FFFF80001FFFF0003FFFFFFFFF0001FFFFC0003F000F0000FFFF000
310
07FE0007FFF800007FFF0001FF80007FE0001FFFE00007FF0000FFFE00007FF8
310
000001FFFE0000007FFFFFF0001FFFFFFFC00003FFE00001FFFFC00003FFE000
310
01FFFF0003FFFFFFFFF8000FFFF80003F000F00003FFC00007FC0007FFF80000
310
7FFF8001FF80007FF00007FF80000FFF00007FF80000FFF8000001FFFE000000
310
7F80000000000001FFE000003E000003FFFFE000003E000003FFFF0003FFFFFF
310
FFF80003FFE00007F000F800000000000FFC0007FFF800007FFF8001FF80007F
310
F000000000000FFF000000000000FFF8000001FFFE0000007F80000000000001
310
FFF0000000000007FFFFF0000000000007FFFF0003FFFFFFFFFC00007E000007
310
F000F800000000000FFC0007FFF80000FFFF8000FF80007FF800000000001FFF
310
800000000001FFF8000001FFFE0000007F80000000000001FFF800000000000F
310
FFFFF800000000000FFFFF0003FFFFFFFFFC00000000000FF000FC0000000000
310
1FFC0007FFFC0000FFFF8000FF80007FF800000000003FFFC00000000001FFF8
310
000001FFFE0000007F80000000000001FFF800000000000FFFFFF80000000000
310
0FFFFF0003FFFFFFFFFE00000000001FF000FE00000000003FF8000FFFFC0000
310
FFFF8000FF80007FFC00000000003FFFC00000000003FFF8000001FFFE000000
310
7F80000000000001FFFC00000000001FFFFFFC00000000001FFFFF0003FFFFFF
310
FFFF00000000001FF000FF00000000003FF8000FFFFC0000FFFFC000FF80007F
310
FE00000000007FFFE00000000007FFF8000001FFFE0000007F80000000000001
310
FFFE00000000003FFFFFFE00000000003FFFFF0003FFFFFFFFFF80000000003F
310
F000FF80000000007FF8000FFFFC0001FFFFC0007F80007FFF0000000000FFFF
310
F0000000000FFFF800000000000000007F80000000000001FFFF8000000000FF
310
FFFFFF8000000000FFFFFF0003FFFFFFFFFFC0000000007FF000FFC000000000
310
FFF8000FFFFE0001FFFFC0007F80007FFF8000000001FFFFF8000000001FFFF8
310
00000000000000007F80000000000001FFFFC000000001FFFFFFFFC000000001
310
FFFFFF0003FFFFFFFFFFE000000000FFF000FFE000000003FFF0001FFFFE0001
310
FFFFC0007F80007FFFC000000007FFFFFE000000003FFFF80000000000000000
310
7F80000000000001FFFFE000000003FFFFFFFFE000000003FFFFFF0003FFFFFF
310
FFFFF000000003FFF000FFF80000000FFFF0001FFFFE0001FFFFE0007F80007F
310
FFF00000000FFFFFFF00000000FFFFF800000000000000007F80000000000001
310
FFFFF80000000FFFFFFFFFF80000000FFFFFFF0003FFFFFFFFFFFC0000000FFF
310
F000FFFE0000003FFFF0001FFFFE0003FFFFE0003F80007FFFFC0000003FFFFF
310
FFC0000003FFFFF800000000000000007F80000000000001FFFFFE0000003FFF
310
FFFFFFFE0000003FFFFFFF0003FFFFFFFFFFFF0000003FFFF000FFFF800000FF
310
FFF0001FFFFF0003FFFFE0003F80007FFFFF000001FFFFFFFFF800001FFFFFF8
310
00000000000000007F80000000000001FFFFFFC00001FFFFFFFFFFFFC00001FF
310
FFFFFF0003FFFFFFFFFFFFC00000FFFFF000FFFFF8000FFFFFFFFFFFFFFFFFFF
310
FFFFFFFFFFFFFFFFFFFFF0001FFFFFFFFFFF0000FFFFFFF80000000000000000
310
7FFFFFFFFFFFFFFFFFFFFFFC001FFFFFFFFFFFFFFC001FFFFFFFFFFFFFFFFFFF
310
FFFFFFFC001FFFFFF000FFFFFFFFFFFFFFFFFFFFFFFFFFFFFFFFFFFFFFFFFFFF
310
FFFFFFFFFFFFFFFFFFFFFFFFFFFFFFFFFFFFFFFFFFFFFFFFFFFFFFFFFFFFFFFF
310
FFFFFFFFFFFFFFFFFFFFFFFFFFFFFFFFFFFFFFFFFFFFFFFFFFFFFFFFFFFFFFFF
310
F000FFFFFFFFFFFFFFFFFFFFFFFFFFFFFFFFFFFFFFFFFFFFFFFFFFFFFFFFFFFF
310
FFFFFFFFFFFFFFFFFFFFFFFFFFFFFFFFFFFFFFFFFFFFFFFFFFFFFFFFFFFFFFFF
310
FFFFFFFFFFFFFFFFFFFFFFFFFFFFFFFFFFFFFFFFFFFFFFFFF000FFFFFFFFFFFF
310
FFFFFFFFFFFFFFFFFFFFFFFFFFFFFFFFFFFFFFFFFFFFFFFFFFFFFFFFFFFFFFFF
310
FFFFFFFFFFFFFFFFFFFFFFFFFFFFFFFFFFFFFFFFFFFFFFFFFFFFFFFFFFFFFFFF
310
FFFFFFFFFFFFFFFFFFFFFFFFFFFFFFFFF000FFFFFFFFFFFFFFFFFFFFFFFFFFFF
310
FFFFFFFFFFFFFFFFFFFFFFFFFFFFFFFFFFFFFFFFFFFFFFFFFFFFFFFFFFFFFFFF
310
FFFFFFFFFFFFFFFFFFFFFFFFFFFFFFFFFFFFFFFFFFFFFFFFFFFFFFFFFFFFFFFF
310
FFFFFFFFFFFFFFFFF000FFFFFFFFFFFFFFFFFFFFFFFFFFFFFFFFFFFFFFFFFFFF
310
FFFFFFFFFFFFFFFFFFFFFFFFFFFFFFFFFFFFFFFFFFFFFFFFFFFFFFFFFFFFFFFF
310
FFFFFFFFFFFFFFFFFFFFFFFFFFFFFFFFFFFFFFFFFFFFFFFFFFFFFFFFFFFFFFFF
310
F000FFFFFFFFFFFFFFFFFFFFFFFFFFFFFFFFFFFFFFFFFFFFFFFFFFFFFFFFFFFF
310
FFFFFFFFFFFFFFFFFFFFFFFFFFFFFFFFFFFFFFFFFFFFFFFFFFFFFFFFFFFFFFFF
310
FFFFFFFFFFFFFFFFFFFFFFFFFFFFFFFFFFFFFFFFFFFFFFFFF000FFFFFFFFFFFF
310
FFFFFFFFFFFFFFFFFFFFFFFFFFFFFFFFFFFFFFFFFFFFFFFFFFFFFFFFFFFFFFFF
310
FFFFFFFFFFFFFFFFFFFFFFFFFFFFFFFFFFFFFFFFFFFFFFFFFFFFFFFFFFFFFFFF
310
FFFFFFFFFFFFFFFFFFFFFFFFFFFFFFFFF000FFFFFFFFFFFFFFFFFFFFFFFFFFFF
310
FFFFFFFFFFFFFFFFFFFFFFFFFFFFFFFFFFFFFFFFFFFFFFFFFFFFFFFFFFFFFFFF
310
FFFFFFFFFFFFFFFFFFFFFFFFFFFFFFFFFFFFFFFFFFFFFFFFFFFFFFFFFFFFFFFF
310
FFFFFFFFFFFFFFFFF000FFFFFFFFFFFFFFFFFFFFFFFFFFFFFFFFFFFFFFFFFFFF
310
FFFFFFFFFFFFFFFFFFFFFFFFFFFFFFFFFFFFFFFFFFFFFFFFFFFFFFFFFFFFFFFF
310
FFFFFFFFFFFFFFFFFFFFFFFFFFFFFFFFFFFFFFFFFFFFFFFFFFFFFFFFFFFFFFFF
310
F000FFFFFFFFFFFFFFFFFFFFFFFFFFFFFFFFFFFFFFFFFFFFFFFFFFFFFFFFFFFF
310
FFFFFFFFFFFFFFFFFFFFFFFFFFFFFFFFFFFFFFFFFFFFFFFFFFFFFFFFFFFFFFFF
310
FFFFFFFFFFFFFFFFFFFFFFFFFFFFFFFFFFFFFFFFFFFFFFFFF000FFFFFFFFFFFF
310
FFFFFFFFFFFFFFFFFFFFFFFFFFFFFFFFFFFFFFFFFFFFFFFFFFFFFFFFFFFFFFFF
310
FFFFFFFFFFFFFFFFFFFFFFFFFFFFFFFFFFFFFFFFFFFFFFFFFFFFFFFFFFFFFFFF
310
FFFFFFFFFFFFFFFFFFFFFFFFFFFFFFFFF000FFFFFFFFFFFFFFFFFFFFFFFFFFFF
310
FFFFFFFFFFFFFFFFFFFFFFFFFFFFFFFFFFFFFFFFFFFFFFFFFFFFFFFFFFFFFFFF
310
FFFFFFFFFFFFFFFFFFFFFFFFFFFFFFFFFFFFFFFFFFFFFFFFFFFFFFFFFFFFFFFF
310
FFFFFFFFFFFFFFFFF000FFFFFFFFFFFFFFFFFFFFFFFFFFFFFFFFFFFFFFFFFFFF
310
FFFFFFFFFFFFFFFFFFFFFFFFFFFFFFFFFFFFFFFFFFFFFFFFFFFFFFFFFFFFFFFF
310
FFFFFFFFFFFFFFFFFFFFFFFFFFFFFFFFFFFFFFFFFFFFFFFFFFFFFFFFFFFFFFFF
310
F000FFFFFFFFFFFFFFFFFFFFFFFFFFFFFFFFFFFFFFFFFFFFFFFFFFFFFFFFFFFF
310
FFFFFFFFFFFFFFFFFFFFFFFFFFFFFFFFFFFFFFFFFFFFFFFFFFFFFFFFFFFFFFFF
310
FFFFFFFFFFFFFFFFFFFFFFFFFFFFFFFFFFFFFFFFFFFFFFFFF000FFFFFFFFFFFF
310
FFFFFFFFFFFFFFFFFFFFFFFFFFFFFFFFFFFFFFFFFFFFFFFFFFFFFFFFFFFFFFFF
310
FFFFFFFFFFFFFFFFFFFFFFFFFFFFFFFFFFFFFFFFFFFFFFFFFFFFFFFFFFFFFFFF
310
FFFFFFFFFFFFFFFFFFFFFFFFFFFFFFFFF000FFFFFFFFFFFFFFFFFFFFFFFFFFFF
310
FFFFFFFFFFFFFFFFFFFFFFFFFFFFFFFFFFFFFFFFFFFFFFFFFFFFFFFFFFFFFFFF
310
FFFFFFFFFFFFFFFFFFFFFFFFFFFFFFFFFFFFFFFFFFFFFFFFFFFFFFFFFFFFFFFF
310
FFFFFFFFFFFFFFFFF000FFFFFFFFFFFFFFFFFFFFFFFFFFFFFFFFFFFFFFFFFFFF
310
FFFFFFFFFFFFFFFFFFFFFFFFFFFFFFFFFFFFFFFFFFFFFFFFFFFFFFFFFFFFFFFF
310
FFFFFFFFFFFFFFFFFFFFFFFFFFFFFFFFFFFFFFFFFFFFFFFFFFFFFFFFFFFFFFFF
310
F000FFFFFFFFFFFFFFFFFFFFFFFFFFFFFFFFFFFFFFFFFFFFFFFFFFFFFFFFFFFF
310
FFFFFFFFFFFFFFFFFFFFFFFFFFFFFFFFFFFFFFFFFFFFFFFFFFFFFFFFFFFFFFFF
310
FFFFFFFFFFFFFFFFFFFFFFFFFFFFFFFFFFFFFFFFFFFFFFFFF000FFFFFFFFFFFF
310
FFFFFFFFFFFFFFFFFFFFFFFFFFFFFFFFFFFFFFFFFFFFFFFFFFFFFFFFFFFFFFFF
310
FFFFFFFFFFFFFFFFFFFFFFFFFFFFFFFFFFFFFFFFFFFFFFFFFFFFFFFFFFFFFFFF
310
FFFFFFFFFFFFFFFFFFFFFFFFFFFFFFFFF000FFFFFFFFFFFFFFFFFFFFFFFFFFFF
310
FFFFFFFFFFFFFFFFFFFFFFFFFFFFFFFFFFFFFFFFFFFFFFFFFFFFFFFFFFFFFFFF
310
FFFFFFFFFFFFFFFFFFFFFFFFFFFFFFFFFFFFFFFFFFFFFFFFFFFFFFFFFFFFFFFF
310
FFFFFFFFFFFFFFFFF000FFFFFFFFFFFFFFFFFFFFFFFFFFFFFFFFFFFFFFFFFFFF
310
FFFFFFFFFFFFFFFFFFFFFFFFFFFFFFFFFFFFFFFFFFFFFFFFFFFFFFFFFFFFFFFF
310
FFFFFFFFFFFFFFFFFFFFFFFFFFFFFFFFFFFFFFFFFFFFFFFFFFFFFFFFFFFFFFFF
310
F000FFFFFFFFFFFFFFFFFFFFFFFFFFFFFFFFFFFFFFFFFFFFFFFFFFFFFFFFFFFF
310
FFFFFFFFFFFFFFFFFFFFFFFFFFFFFFFFFFFFFFFFFFFFFFFFFFFFFFFFFFFFFFFF
310
FFFFFFFFFFFFFFFFFFFFFFFFFFFFFFFFFFFFFFFFFFFFFFFFF000FFFFFFFFFFFF
310
FFFFFFFFFFFFFFFFFFFFFFFFFFFFFFFFFFFFFFFFFFFFFFFFFFFFFFFFFFFFFFFF
310
FFFFFFFFFFFFFFFFFFFFFFFFFFFFFFFFFFFFFFFFFFFFFFFFFFFFFFFFFFFFFFFF
310
FFFFFFFFFFFFFFFFFFFFFFFFFFFFFFFFF0000000000000000000000000000000
310
0000000000000000010000000100000001000000010000000100000001000000
310
0100000001000000010000000100000001000000010000000100000001000000
310
0100000001000000010000000100000001000000000000000100000000000000
310
0100000001000000010000000100000001000000010000000100000001000000
310
0100000001000000000000000100000000000000010000000100000001000000
310
0100000001000000010000000100000001000000010000000100000001000000
310
0100000001000000010000000100000001000000010000000100000001000000
310
0100000001000000000000000100000001000000010000000100000001000000
310
0100000000000000010000000100000001000000010000000100000001000000
310
0100000001000000010000000100000001000000010000000100000001000000
310
0100000001000000010000000100000001000000010000000100000001000000
310
0100000001000000010000000100000001000000010000000100000001000000
310
0000000001000000000000000100000000000000010000000100000001000000
310
0100000001000000010000000100000001000000010000000100000001000000
310
0100000001000000010000000100000000000000010000000100000001000000
  1
OLE
  0
ENDSEC
  0
SECTION
  2
OBJECTS
  0
DICTIONARY
  5
C
330
0
100
AcDbDictionary
281
     1
  3
ACAD_GROUP
350
D
  3
ACAD_LAYOUT
350
1A
  3
ACAD_MLEADERSTYLE
350
1F7
  3
ACAD_MLINESTYLE
350
17
  3
ACAD_PLOTSETTINGS
350
19
  3
ACAD_PLOTSTYLENAME
350
E
  3
ACAD_TABLESTYLE
350
1F6
  3
ACAD_VISUALSTYLE
350
2A
  3
AcDbVariableDictionary
350
1F8
  0
DICTIONARY
  5
D
102
{ACAD_REACTORS
330
C
102
}
330
C
100
AcDbDictionary
281
     1
  0
DICTIONARY
  5
1A
102
{ACAD_REACTORS
330
C
102
}
330
C
100
AcDbDictionary
281
     1
  3
Layout1
350
1E
  3
Layout2
350
26
  3
Model
350
22
  0
DICTIONARY
  5
1F7
102
{ACAD_REACTORS
330
C
102
}
330
C
100
AcDbDictionary
281
     1
  0
DICTIONARY
  5
17
102
{ACAD_REACTORS
330
C
102
}
330
C
100
AcDbDictionary
281
     1
  3
Standard
350
18
  0
DICTIONARY
  5
19
102
{ACAD_REACTORS
330
C
102
}
330
C
100
AcDbDictionary
281
     1
  0
ACDBDICTIONARYWDFLT
  5
E
102
{ACAD_REACTORS
330
C
102
}
330
C
100
AcDbDictionary
281
     1
  3
Normal
350
F
100
AcDbDictionaryWithDefault
340
F
  0
DICTIONARY
  5
1F6
102
{ACAD_REACTORS
330
C
102
}
330
C
100
AcDbDictionary
281
     1
  0
DICTIONARY
  5
2A
102
{ACAD_REACTORS
330
C
102
}
330
C
100
AcDbDictionary
281
     1
  3
2dWireframe
350
2F
  3
3D Hidden
350
31
  3
3dWireframe
350
30
  3
Basic
350
32
  3
Brighten
350
36
  3
ColorChange
350
3A
  3
Conceptual
350
34
  3
Dim
350
35
  3
Facepattern
350
39
  3
Flat
350
2B
  3
FlatWithEdges
350
2C
  3
Gouraud
350
2D
  3
GouraudWithEdges
350
2E
  3
Linepattern
350
38
  3
Realistic
350
33
  3
Thicken
350
37
  0
DICTIONARY
  5
1F8
102
{ACAD_REACTORS
330
C
102
}
330
C
100
AcDbDictionary
281
     1
  3
PSOLHEIGHT
350
1FA
  3
PSOLWIDTH
350
1F9
  0
LAYOUT
  5
1E
102
{ACAD_REACTORS
330
1A
102
}
330
1A
100
AcDbPlotSettings
  1

  2
none_device
  4

  6

 40
0.0
 41
0.0
 42
0.0
 43
0.0
 44
0.0
 45
0.0
 46
0.0
 47
0.0
 48
0.0
 49
0.0
140
0.0
141
0.0
142
1.0
143
1.0
 70
   688
 72
     0
 73
     0
 74
     5
  7

 75
    16
147
1.0
148
0.0
149
0.0
100
AcDbLayout
  1
Layout1
 70
     1
 71
     1
 10
0.0
 20
0.0
 11
420.0
 21
297.0
 12
0.0
 22
0.0
 32
0.0
 14
1.0000000000E+20
 24
1.0000000000E+20
 34
1.0000000000E+20
 15
-1.0000000000E+20
 25
-1.0000000000E+20
 35
-1.0000000000E+20
146
0.0
 13
0.0
 23
0.0
 33
0.0
 16
1.0
 26
0.0
 36
0.0
 17
0.0
 27
1.0
 37
0.0
 76
     0
330
1B
  0
LAYOUT
  5
26
102
{ACAD_REACTORS
330
1A
102
}
330
1A
100
AcDbPlotSettings
  1

  2
none_device
  4

  6

 40
0.0
 41
0.0
 42
0.0
 43
0.0
 44
0.0
 45
0.0
 46
0.0
 47
0.0
 48
0.0
 49
0.0
140
0.0
141
0.0
142
1.0
143
1.0
 70
   688
 72
     0
 73
     0
 74
     5
  7

 75
    16
147
1.0
148
0.0
149
0.0
100
AcDbLayout
  1
Layout2
 70
     1
 71
     2
 10
0.0
 20
0.0
 11
0.0
 21
0.0
 12
0.0
 22
0.0
 32
0.0
 14
0.0
 24
0.0
 34
0.0
 15
0.0
 25
0.0
 35
0.0
146
0.0
 13
0.0
 23
0.0
 33
0.0
 16
1.0
 26
0.0
 36
0.0
 17
0.0
 27
1.0
 37
0.0
 76
     0
330
23
  0
LAYOUT
  5
22
102
{ACAD_REACTORS
330
1A
102
}
330
1A
100
AcDbPlotSettings
  1

  2
none_device
  4

  6

 40
0.0
 41
0.0
 42
0.0
 43
0.0
 44
0.0
 45
0.0
 46
0.0
 47
0.0
 48
0.0
 49
0.0
140
0.0
141
0.0
142
1.0
143
1.0
 70
  1712
 72
     0
 73
     0
 74
     0
  7

 75
     0
147
1.0
148
0.0
149
0.0
100
AcDbLayout
  1
Model
 70
     1
 71
     0
 10
0.0
 20
0.0
 11
297.0
 21
210.0
 12
0.0
 22
0.0
 32
0.0
 14
0.0
 24
0.0
 34
0.0
 15
297.0
 25
210.0
 35
0.0
146
0.0
 13
0.0
 23
0.0
 33
0.0
 16
1.0
 26
0.0
 36
0.0
 17
0.0
 27
1.0
 37
0.0
 76
     0
330
1F
331
29
  0
MLINESTYLE
  5
18
102
{ACAD_REACTORS
330
17
102
}
330
17
100
AcDbMlineStyle
  2
Standard
 70
     0
  3

 62
   256
 51
90.0
 52
90.0
 71
     2
 49
0.5
 62
   256
  6
BYLAYER
 49
-0.5
 62
   256
  6
BYLAYER
  0
ACDBPLACEHOLDER
  5
F
102
{ACAD_REACTORS
330
E
102
}
330
E
  0
VISUALSTYLE
  5
2F
102
{ACAD_REACTORS
330
2A
102
}
330
2A
100
AcDbVisualStyle
  2
2dWireframe
 70
     4
 71
     0
 72
     2
 73
     0
 90
        0
 40
-0.6
 41
-30.0
 62
     5
 63
     7
 74
     1
 91
        4
 64
     7
 65
   257
 75
     1
175
     1
 42
1.0
 92
        0
 66
   257
 43
1.0
 76
     1
 77
     6
 78
     2
 67
     7
 79
     5
170
     0
171
     0
290
     0
174
     0
 93
        1
 44
0.0
173
     0
291
     0
 45
0.0
1001
ACAD
1000
AcDbSavedByObjectVersion
1070
     0
  0
VISUALSTYLE
  5
31
102
{ACAD_REACTORS
330
2A
102
}
330
2A
100
AcDbVisualStyle
  2
3D Hidden
 70
     6
 71
     1
 72
     2
 73
     2
 90
        0
 40
-0.6
 41
-30.0
 62
     5
 63
     7
 74
     2
 91
        2
 64
     7
 65
   257
 75
     2
175
     1
 42
40.0
 92
        0
 66
   257
 43
1.0
 76
     1
 77
     6
 78
     2
 67
     7
 79
     3
170
     0
171
     0
290
     0
174
     0
 93
        1
 44
0.0
173
     0
291
     0
 45
0.0
1001
ACAD
1000
AcDbSavedByObjectVersion
1070
     0
  0
VISUALSTYLE
  5
30
102
{ACAD_REACTORS
330
2A
102
}
330
2A
100
AcDbVisualStyle
  2
3dWireframe
 70
     5
 71
     0
 72
     2
 73
     0
 90
        0
 40
-0.6
 41
-30.0
 62
     5
 63
     7
 74
     1
 91
        4
 64
     7
 65
   257
 75
     1
175
     1
 42
1.0
 92
        0
 66
   257
 43
1.0
 76
     1
 77
     6
 78
     2
 67
     7
 79
     5
170
     0
171
     0
290
     0
174
     0
 93
        1
 44
0.0
173
     0
291
     0
 45
0.0
1001
ACAD
1000
AcDbSavedByObjectVersion
1070
     0
  0
VISUALSTYLE
  5
32
102
{ACAD_REACTORS
330
2A
102
}
330
2A
100
AcDbVisualStyle
  2
Basic
 70
     7
 71
     1
 72
     0
 73
     1
 90
        0
 40
-0.6
 41
-30.0
 62
     5
 63
     7
 74
     0
 91
        4
 64
     7
 65
   257
 75
     1
175
     1
 42
1.0
 92
        8
 66
     7
 43
1.0
 76
     1
 77
     6
 78
     2
 67
     7
 79
     5
170
     0
171
     0
290
     0
174
     0
 93
        1
 44
0.0
173
     0
291
     1
 45
0.0
1001
ACAD
1000
AcDbSavedByObjectVersion
1070
     0
  0
VISUALSTYLE
  5
36
102
{ACAD_REACTORS
330
2A
102
}
330
2A
100
AcDbVisualStyle
  2
Brighten
 70
    12
 71
     2
 72
     2
 73
     0
 90
        0
 40
-0.6
 41
-30.0
 62
     5
 63
     7
 74
     1
 91
        4
 64
     7
 65
   257
 75
     1
175
     1
 42
1.0
 92
        8
 66
     7
 43
1.0
 76
     1
 77
     6
 78
     2
 67
     7
 79
     5
170
     0
171
     0
290
     0
174
     0
 93
        1
 44
50.0
173
     0
291
     1
 45
0.0
1001
ACAD
1000
AcDbSavedByObjectVersion
1070
     0
  0
VISUALSTYLE
  5
3A
102
{ACAD_REACTORS
330
2A
102
}
330
2A
100
AcDbVisualStyle
  2
ColorChange
 70
    16
 71
     2
 72
     2
 73
     3
 90
        0
 40
-0.6
 41
-30.0
 62
     5
 63
     8
 74
     1
 91
        4
 64
     7
 65
   257
 75
     1
175
     1
 42
1.0
 92
        8
 66
     8
 43
1.0
 76
     1
 77
     6
 78
     2
 67
     7
 79
     5
170
     0
171
     0
290
     0
174
     0
 93
        1
 44
0.0
173
     0
291
     1
 45
0.0
1001
ACAD
1000
AcDbSavedByObjectVersion
1070
     0
  0
VISUALSTYLE
  5
34
102
{ACAD_REACTORS
330
2A
102
}
330
2A
100
AcDbVisualStyle
  2
Conceptual
 70
     9
 71
     3
 72
     2
 73
     0
 90
        0
 40
-0.6
 41
-30.0
 62
     5
 63
     7
 74
     2
 91
        2
 64
     7
 65
   257
 75
     1
175
     1
 42
40.0
 92
        8
 66
     7
 43
1.0
 76
     1
 77
     6
 78
     2
 67
     7
 79
     3
170
     0
171
     0
290
     0
174
     0
 93
        1
 44
0.0
173
     0
291
     0
 45
0.0
1001
ACAD
1000
AcDbSavedByObjectVersion
1070
     0
  0
VISUALSTYLE
  5
35
102
{ACAD_REACTORS
330
2A
102
}
330
2A
100
AcDbVisualStyle
  2
Dim
 70
    11
 71
     2
 72
     2
 73
     0
 90
        0
 40
-0.6
 41
-30.0
 62
     5
 63
     7
 74
     1
 91
        4
 64
     7
 65
   257
 75
     1
175
     1
 42
1.0
 92
        8
 66
     7
 43
1.0
 76
     1
 77
     6
 78
     2
 67
     7
 79
     5
170
     0
171
     0
290
     0
174
     0
 93
        1
 44
-50.0
173
     0
291
     1
 45
0.0
1001
ACAD
1000
AcDbSavedByObjectVersion
1070
     0
  0
VISUALSTYLE
  5
39
102
{ACAD_REACTORS
330
2A
102
}
330
2A
100
AcDbVisualStyle
  2
Facepattern
 70
    15
 71
     2
 72
     2
 73
     0
 90
        0
 40
-0.6
 41
-30.0
 62
     5
 63
     7
 74
     1
 91
        4
 64
     7
 65
   257
 75
     1
175
     1
 42
1.0
 92
        8
 66
     7
 43
1.0
 76
     1
 77
     6
 78
     2
 67
     7
 79
     5
170
     0
171
     0
290
     0
174
     0
 93
        1
 44
0.0
173
     0
291
     1
 45
0.0
1001
ACAD
1000
AcDbSavedByObjectVersion
1070
     0
  0
VISUALSTYLE
  5
2B
102
{ACAD_REACTORS
330
2A
102
}
330
2A
100
AcDbVisualStyle
  2
Flat
 70
     0
 71
     2
 72
     1
 73
     1
 90
        2
 40
-0.6
 41
30.0
 62
     5
 63
     7
 74
     0
 91
        4
 64
     7
 65
   257
 75
     1
175
     1
 42
1.0
 92
        8
 66
     7
 43
1.0
 76
     1
 77
     6
 78
     2
 67
     7
 79
     5
170
     0
171
     0
290
     0
174
     0
 93
       13
 44
0.0
173
     0
291
     1
 45
0.0
1001
ACAD
1000
AcDbSavedByObjectVersion
1070
     0
  0
VISUALSTYLE
  5
2C
102
{ACAD_REACTORS
330
2A
102
}
330
2A
100
AcDbVisualStyle
  2
FlatWithEdges
 70
     1
 71
     2
 72
     1
 73
     1
 90
        2
 40
-0.6
 41
30.0
 62
     5
 63
     7
 74
     1
 91
        4
 64
     7
 65
   257
 75
     1
175
     1
 42
1.0
 92
        0
 66
   257
 43
1.0
 76
     1
 77
     6
 78
     2
 67
     7
 79
     5
170
     0
171
     0
290
     0
174
     0
 93
       13
 44
0.0
173
     0
291
     1
 45
0.0
1001
ACAD
1000
AcDbSavedByObjectVersion
1070
     0
  0
VISUALSTYLE
  5
2D
102
{ACAD_REACTORS
330
2A
102
}
330
2A
100
AcDbVisualStyle
  2
Gouraud
 70
     2
 71
     2
 72
     2
 73
     1
 90
        2
 40
-0.6
 41
30.0
 62
     5
 63
     7
 74
     0
 91
        4
 64
     7
 65
   257
 75
     1
175
     1
 42
1.0
 92
        0
 66
     7
 43
1.0
 76
     1
 77
     6
 78
     2
 67
     7
 79
     5
170
     0
171
     0
290
     0
174
     0
 93
       13
 44
0.0
173
     0
291
     1
 45
0.0
1001
ACAD
1000
AcDbSavedByObjectVersion
1070
     0
  0
VISUALSTYLE
  5
2E
102
{ACAD_REACTORS
330
2A
102
}
330
2A
100
AcDbVisualStyle
  2
GouraudWithEdges
 70
     3
 71
     2
 72
     2
 73
     1
 90
        2
 40
-0.6
 41
30.0
 62
     5
 63
     7
 74
     1
 91
        4
 64
     7
 65
   257
 75
     1
175
     1
 42
1.0
 92
        0
 66
   257
 43
1.0
 76
     1
 77
     6
 78
     2
 67
     7
 79
     5
170
     0
171
     0
290
     0
174
     0
 93
       13
 44
0.0
173
     0
291
     1
 45
0.0
1001
ACAD
1000
AcDbSavedByObjectVersion
1070
     0
  0
VISUALSTYLE
  5
38
102
{ACAD_REACTORS
330
2A
102
}
330
2A
100
AcDbVisualStyle
  2
Linepattern
 70
    14
 71
     2
 72
     2
 73
     0
 90
        0
 40
-0.6
 41
-30.0
 62
     5
 63
     7
 74
     1
 91
        4
 64
     7
 65
   257
 75
     7
175
     7
 42
1.0
 92
        8
 66
     7
 43
1.0
 76
     1
 77
     6
 78
     2
 67
     7
 79
     5
170
     0
171
     0
290
     0
174
     0
 93
        1
 44
0.0
173
     0
291
     1
 45
0.0
1001
ACAD
1000
AcDbSavedByObjectVersion
1070
     0
  0
VISUALSTYLE
  5
33
102
{ACAD_REACTORS
330
2A
102
}
330
2A
100
AcDbVisualStyle
  2
Realistic
 70
     8
 71
     2
 72
     2
 73
     0
 90
        0
 40
-0.6
 41
-30.0
 62
     5
 63
     7
 74
     1
 91
        0
 64
     7
 65
   257
 75
     1
175
     1
 42
1.0
 92
        8
 66
     8
 43
1.0
 76
     1
 77
     6
 78
     2
 67
     7
 79
     5
170
     0
171
     0
290
     0
174
     0
 93
       13
 44
0.0
173
     0
291
     0
 45
0.0
1001
ACAD
1000
AcDbSavedByObjectVersion
1070
     0
  0
VISUALSTYLE
  5
37
102
{ACAD_REACTORS
330
2A
102
}
330
2A
100
AcDbVisualStyle
  2
Thicken
 70
    13
 71
     2
 72
     2
 73
     0
 90
        0
 40
-0.6
 41
-30.0
 62
     5
 63
     7
 74
     1
 91
        4
 64
     7
 65
   257
 75
     1
175
     1
 42
1.0
 92
       12
 66
     7
 43
1.0
 76
     1
 77
     6
 78
     2
 67
     7
 79
     5
170
     0
171
     0
290
     0
174
     0
 93
        1
 44
0.0
173
     0
291
     1
 45
0.0
1001
ACAD
1000
AcDbSavedByObjectVersion
1070
     0
  0
DICTIONARYVAR
  5
1FA
102
{ACAD_REACTORS
330
1F8
102
}
330
1F8
100
DictionaryVariables
280
     0
  1
80.000000
  0
DICTIONARYVAR
  5
1F9
102
{ACAD_REACTORS
330
1F8
102
}
330
1F8
100
DictionaryVariables
280
     0
  1
5.000000
  0
ENDSEC
  0
EOF
