  0
SECTION
  2
HEADER
  9
$ACADVER
  1
AC1015
  9
$ACADMAINTVER
 70
     6
  9
$DWGCODEPAGE
  3
ANSI_1252
  9
$INSBASE
 10
0.0
 20
0.0
 30
0.0
  9
$EXTMIN
 10
0.0
 20
0.0
 30
0.0
  9
$EXTMAX
 10
297.0
 20
210.0
 30
0.0
  9
$LIMMIN
 10
0.0
 20
0.0
  9
$LIMMAX
 10
297.0
 20
210.0
  9
$ORTHOMODE
 70
     0
  9
$REGENMODE
 70
     1
  9
$FILLMODE
 70
     1
  9
$QTEXTMODE
 70
     0
  9
$MIRRTEXT
 70
     1
  9
$LTSCALE
 40
1.0
  9
$ATTMODE
 70
     1
  9
$TEXTSIZE
 40
2.0
  9
$TRACEWID
 40
1.0
  9
$TEXTSTYLE
  7
Standard
  9
$CLAYER
  8
0
  9
$CELTYPE
  6
ByLayer
  9
$CECOLOR
 62
   256
  9
$CELTSCALE
 40
1.0
  9
$DISPSILH
 70
     0
  9
$DIMSCALE
 40
1.0
  9
$DIMASZ
 40
3.0
  9
$DIMEXO
 40
0.0
  9
$DIMDLI
 40
3.75
  9
$DIMRND
 40
0.0
  9
$DIMDLE
 40
0.0
  9
$DIMEXE
 40
1.0
  9
$DIMTP
 40
0.0
  9
$DIMTM
 40
0.0
  9
$DIMTXT
 40
2.0
  9
$DIMCEN
 40
2.5
  9
$DIMTSZ
 40
0.0
  9
$DIMTOL
 70
     0
  9
$DIMLIM
 70
     0
  9
$DIMTIH
 70
     1
  9
$DIMTOH
 70
     1
  9
$DIMSE1
 70
     0
  9
$DIMSE2
 70
     0
  9
$DIMTAD
 70
     1
  9
$DIMZIN
 70
     0
  9
$DIMBLK
  1

  9
$DIMASO
 70
     1
  9
$DIMSHO
 70
     1
  9
$DIMPOST
  1

  9
$DIMAPOST
  1

  9
$DIMALT
 70
     0
  9
$DIMALTD
 70
     3
  9
$DIMALTF
 40
0.0393700787
  9
$DIMLFAC
 40
1.0
  9
$DIMTOFL
 70
     1
  9
$DIMTVP
 40
0.0
  9
$DIMTIX
 70
     0
  9
$DIMSOXD
 70
     0
  9
$DIMSAH
 70
     0
  9
$DIMBLK1
  1

  9
$DIMBLK2
  1

  9
$DIMSTYLE
  2
ISO-25
  9
$DIMCLRD
 70
     0
  9
$DIMCLRE
 70
     0
  9
$DIMCLRT
 70
     0
  9
$DIMTFAC
 40
1.0
  9
$DIMGAP
 40
1.524
  9
$DIMJUST
 70
     0
  9
$DIMSD1
 70
     0
  9
$DIMSD2
 70
     0
  9
$DIMTOLJ
 70
     0
  9
$DIMTZIN
 70
     0
  9
$DIMALTZ
 70
     0
  9
$DIMALTTZ
 70
     0
  9
$DIMUPT
 70
     0
  9
$DIMDEC
 70
     2
  9
$DIMTDEC
 70
     3
  9
$DIMALTU
 70
     2
  9
$DIMALTTD
 70
     3
  9
$DIMTXSTY
  7
Standard
  9
$DIMAUNIT
 70
     0
  9
$DIMADEC
 70
     2
  9
$DIMALTRND
 40
0.0
  9
$DIMAZIN
 70
     0
  9
$DIMDSEP
 70
    44
  9
$DIMATFIT
 70
     3
  9
$DIMFRAC
 70
     0
  9
$DIMLDRBLK
  1

  9
$DIMLUNIT
 70
     2
  9
$DIMLWD
 70
    -2
  9
$DIMLWE
 70
    -2
  9
$DIMTMOVE
 70
     0
  9
$LUNITS
 70
     2
  9
$LUPREC
 70
     2
  9
$SKETCHINC
 40
1.0
  9
$FILLETRAD
 40
10.0
  9
$AUNITS
 70
     0
  9
$AUPREC
 70
     2
  9
$MENU
  1
.
  9
$ELEVATION
 40
0.0
  9
$PELEVATION
 40
0.0
  9
$THICKNESS
 40
0.0
  9
$LIMCHECK
 70
     0
  9
$CHAMFERA
 40
10.0
  9
$CHAMFERB
 40
10.0
  9
$CHAMFERC
 40
20.0
  9
$CHAMFERD
 40
0.0
  9
$SKPOLY
 70
     0
  9
$TDCREATE
 40
2455673.483308426
  9
$TDUCREATE
 40
2455673.399975093
  9
$TDUPDATE
 40
2455673.483308437
  9
$TDUUPDATE
 40
2455673.399975104
  9
$TDINDWG
 40
0.0000000116
  9
$TDUSRTIMER
 40
0.0000000116
  9
$USRTIMER
 70
     1
  9
$ANGBASE
 50
0.0
  9
$ANGDIR
 70
     0
  9
$PDMODE
 70
     0
  9
$PDSIZE
 40
-1.0
  9
$PLINEWID
 40
0.0
  9
$SPLFRAME
 70
     0
  9
$SPLINETYPE
 70
     6
  9
$SPLINESEGS
 70
     8
  9
$HANDSEED
  5
1FD
  9
$SURFTAB1
 70
     6
  9
$SURFTAB2
 70
     6
  9
$SURFTYPE
 70
     6
  9
$SURFU
 70
     6
  9
$SURFV
 70
     6
  9
$UCSBASE
  2

  9
$UCSNAME
  2

  9
$UCSORG
 10
0.0
 20
0.0
 30
0.0
  9
$UCSXDIR
 10
1.0
 20
0.0
 30
0.0
  9
$UCSYDIR
 10
0.0
 20
1.0
 30
0.0
  9
$UCSORTHOREF
  2

  9
$UCSORTHOVIEW
 70
     0
  9
$UCSORGTOP
 10
0.0
 20
0.0
 30
0.0
  9
$UCSORGBOTTOM
 10
0.0
 20
0.0
 30
0.0
  9
$UCSORGLEFT
 10
0.0
 20
0.0
 30
0.0
  9
$UCSORGRIGHT
 10
0.0
 20
0.0
 30
0.0
  9
$UCSORGFRONT
 10
0.0
 20
0.0
 30
0.0
  9
$UCSORGBACK
 10
0.0
 20
0.0
 30
0.0
  9
$PUCSBASE
  2

  9
$PUCSNAME
  2

  9
$PUCSORG
 10
0.0
 20
0.0
 30
0.0
  9
$PUCSXDIR
 10
1.0
 20
0.0
 30
0.0
  9
$PUCSYDIR
 10
0.0
 20
1.0
 30
0.0
  9
$PUCSORTHOREF
  2

  9
$PUCSORTHOVIEW
 70
     0
  9
$PUCSORGTOP
 10
0.0
 20
0.0
 30
0.0
  9
$PUCSORGBOTTOM
 10
0.0
 20
0.0
 30
0.0
  9
$PUCSORGLEFT
 10
0.0
 20
0.0
 30
0.0
  9
$PUCSORGRIGHT
 10
0.0
 20
0.0
 30
0.0
  9
$PUCSORGFRONT
 10
0.0
 20
0.0
 30
0.0
  9
$PUCSORGBACK
 10
0.0
 20
0.0
 30
0.0
  9
$USERI1
 70
     0
  9
$USERI2
 70
     0
  9
$USERI3
 70
     0
  9
$USERI4
 70
     0
  9
$USERI5
 70
     0
  9
$USERR1
 40
0.0
  9
$USERR2
 40
0.0
  9
$USERR3
 40
0.0
  9
$USERR4
 40
0.0
  9
$USERR5
 40
0.0
  9
$WORLDVIEW
 70
     1
  9
$SHADEDGE
 70
     3
  9
$SHADEDIF
 70
    70
  9
$TILEMODE
 70
     1
  9
$MAXACTVP
 70
    64
  9
$PINSBASE
 10
0.0
 20
0.0
 30
0.0
  9
$PLIMCHECK
 70
     0
  9
$PEXTMIN
 10
1.0000000000E+20
 20
1.0000000000E+20
 30
1.0000000000E+20
  9
$PEXTMAX
 10
-1.0000000000E+20
 20
-1.0000000000E+20
 30
-1.0000000000E+20
  9
$PLIMMIN
 10
0.0
 20
0.0
  9
$PLIMMAX
 10
420.0
 20
297.0
  9
$UNITMODE
 70
     0
  9
$VISRETAIN
 70
     1
  9
$PLINEGEN
 70
     0
  9
$PSLTSCALE
 70
     1
  9
$TREEDEPTH
 70
  3020
  9
$CMLSTYLE
  2
Standard
  9
$CMLJUST
 70
     0
  9
$CMLSCALE
 40
20.0
  9
$PROXYGRAPHICS
 70
     1
  9
$MEASUREMENT
 70
     1
  9
$CELWEIGHT
370
    -1
  9
$ENDCAPS
280
     0
  9
$JOINSTYLE
280
     0
  9
$LWDISPLAY
290
     1
  9
$INSUNITS
 70
     4
  9
$HYPERLINKBASE
  1

  9
$STYLESHEET
  1

  9
$XEDIT
290
     1
  9
$CEPSNTYPE
380
     0
  9
$PSTYLEMODE
290
     1
  9
$FINGERPRINTGUID
  2
{BDFA4FE5-B43E-4545-8260-73D0B78F00F6}
  9
$VERSIONGUID
  2
{FAEB1C32-E019-11D5-929B-00C0DF256EC4}
  9
$EXTNAMES
290
     1
  9
$PSVPSCALE
 40
0.0
  9
$OLESTARTUP
290
     0
  0
ENDSEC
  0
SECTION
  2
CLASSES
  0
CLASS
  1
ACDBDICTIONARYWDFLT
  2
AcDbDictionaryWithDefault
  3
ObjectDBX Classes
 90
        0
280
     0
281
     0
  0
CLASS
  1
VISUALSTYLE
  2
AcDbVisualStyle
  3
ObjectDBX Classes
 90
     4095
280
     0
281
     0
  0
CLASS
  1
DICTIONARYVAR
  2
AcDbDictionaryVar
  3
ObjectDBX Classes
 90
        0
280
     0
281
     0
  0
CLASS
  1
ACDBPLACEHOLDER
  2
AcDbPlaceHolder
  3
ObjectDBX Classes
 90
        0
280
     0
281
     0
  0
CLASS
  1
LAYOUT
  2
AcDbLayout
  3
ObjectDBX Classes
 90
        0
280
     0
281
     0
  0
ENDSEC
  0
SECTION
  2
TABLES
  0
TABLE
  2
VPORT
  5
8
330
0
100
AcDbSymbolTable
 70
     1
  0
VPORT
  5
29
330
8
100
AcDbSymbolTableRecord
100
AcDbViewportTableRecord
  2
*Active
 70
     0
 10
0.0
 20
0.0
 11
1.0
 21
1.0
 12
148.5
 22
105.0
 13
0.0
 23
0.0
 14
10.0
 24
10.0
 15
10.0
 25
10.0
 16
0.0
 26
0.0
 36
1.0
 17
0.0
 27
0.0
 37
0.0
 40
210.0
 41
1.4142857143
 42
50.0
 43
0.0
 44
0.0
 50
0.0
 51
0.0
 71
     0
 72
  2000
 73
     1
 74
     3
 75
     0
 76
     0
 77
     0
 78
     0
281
     0
 65
     1
110
0.0
120
0.0
130
0.0
111
1.0
121
0.0
131
0.0
112
0.0
122
1.0
132
0.0
 79
     0
146
0.0
  0
ENDTAB
  0
TABLE
  2
LTYPE
  5
5
330
0
100
AcDbSymbolTable
 70
     6
  0
LTYPE
  5
14
330
5
100
AcDbSymbolTableRecord
100
AcDbLinetypeTableRecord
  2
ByBlock
 70
     0
  3

 72
    65
 73
     0
 40
0.0
  0
LTYPE
  5
15
330
5
100
AcDbSymbolTableRecord
100
AcDbLinetypeTableRecord
  2
ByLayer
 70
     0
  3

 72
    65
 73
     0
 40
0.0
  0
LTYPE
  5
16
330
5
100
AcDbSymbolTableRecord
100
AcDbLinetypeTableRecord
  2
Continuous
 70
     0
  3
Solid line
 72
    65
 73
     0
 40
0.0
  0
LTYPE
  5
3B
330
5
100
AcDbSymbolTableRecord
100
AcDbLinetypeTableRecord
  2
HIDDEN
 70
     0
  3
Hidden __ __ __ __ __ __ __ __ __ __ __ __ __ __
 72
    65
 73
     2
 40
1.905
 49
1.27
 74
     0
 49
-0.635
 74
     0
  0
LTYPE
  5
3C
330
5
100
AcDbSymbolTableRecord
100
AcDbLinetypeTableRecord
  2
PHANTOM
 70
     0
  3
Phantom ______  __  __  ______  __  __  ______
 72
    65
 73
     6
 40
12.7
 49
6.35
 74
     0
 49
-1.27
 74
     0
 49
1.27
 74
     0
 49
-1.27
 74
     0
 49
1.27
 74
     0
 49
-1.27
 74
     0
  0
LTYPE
  5
3D
330
5
100
AcDbSymbolTableRecord
100
AcDbLinetypeTableRecord
  2
CENTER
 70
     0
  3
Center ____ _ ____ _ ____ _ ____ _ ____ _ ____
 72
    65
 73
     4
 40
10.16
 49
6.35
 74
     0
 49
-1.27
 74
     0
 49
1.27
 74
     0
 49
-1.27
 74
     0
  0
LTYPE
  5
3E
330
5
100
AcDbSymbolTableRecord
100
AcDbLinetypeTableRecord
  2
CENTERX2
 70
     0
  3
Center (2x) ________  __  ________  __  _____
 72
    65
 73
     4
 40
20.32
 49
12.7
 74
     0
 49
-2.54
 74
     0
 49
2.54
 74
     0
 49
-2.54
 74
     0
  0
LTYPE
  5
3F
330
5
100
AcDbSymbolTableRecord
100
AcDbLinetypeTableRecord
  2
DOT2
 70
     0
  3
Dot (.5x) ........................................
 72
    65
 73
     2
 40
0.635
 49
0.0
 74
     0
 49
-0.635
 74
     0
  0
ENDTAB
  0
TABLE
  2
LAYER
  5
2
330
0
100
AcDbSymbolTable
 70
     5
  0
LAYER
  5
10
330
2
100
AcDbSymbolTableRecord
100
AcDbLayerTableRecord
  2
0
 70
     0
 62
     7
  6
Continuous
370
    -3
390
F
  0
LAYER
  5
40
330
2
100
AcDbSymbolTableRecord
100
AcDbLayerTableRecord
  2
FORMAT
 70
     0
 62
     7
  6
Continuous
370
    -3
390
F
  0
LAYER
  5
41
330
2
100
AcDbSymbolTableRecord
100
AcDbLayerTableRecord
  2
VERMASSUNG
 70
     0
 62
     7
  6
Continuous
370
    -3
390
F
  0
LAYER
  5
42
330
2
100
AcDbSymbolTableRecord
100
AcDbLayerTableRecord
  2
KOPF_DÜNN
 70
     0
 62
     7
  6
Continuous
370
    -3
390
F
  0
LAYER
  5
43
330
2
100
AcDbSymbolTableRecord
100
AcDbLayerTableRecord
  2
KOPF_DICK
 70
     0
 62
     7
  6
Continuous
370
    15
390
F
  0
ENDTAB
  0
TABLE
  2
STYLE
  5
3
330
0
100
AcDbSymbolTable
 70
     3
  0
STYLE
  5
11
330
3
100
AcDbSymbolTableRecord
100
AcDbTextStyleTableRecord
  2
Standard
 70
     0
 40
0.0
 41
1.0
 50
0.0
 71
     0
 42
2.5
  3
txt
  4

  0
STYLE
  5
44
330
3
100
AcDbSymbolTableRecord
100
AcDbTextStyleTableRecord
  2
SLDTEXTSTYLE0
 70
     0
 40
0.0
 41
0.7
 50
0.0
 71
     0
 42
0.2
  3
TXT
  4

  0
STYLE
  5
48
330
3
100
AcDbSymbolTableRecord
100
AcDbTextStyleTableRecord
  2
SLDTEXTSTYLE1
 70
     0
 40
0.0
 41
0.65
 50
0.0
 71
     0
 42
0.2
  3
TXT
  4

  0
ENDTAB
  0
TABLE
  2
VIEW
  5
6
330
0
100
AcDbSymbolTable
 70
     0
  0
ENDTAB
  0
TABLE
  2
UCS
  5
7
330
0
100
AcDbSymbolTable
 70
     0
  0
ENDTAB
  0
TABLE
  2
APPID
  5
9
330
0
100
AcDbSymbolTable
 70
     1
  0
APPID
  5
12
330
9
100
AcDbSymbolTableRecord
100
AcDbRegAppTableRecord
  2
ACAD
 70
     0
  0
ENDTAB
  0
TABLE
  2
DIMSTYLE
  5
A
330
0
100
AcDbSymbolTable
 70
     2
100
AcDbDimStyleTable
  0
DIMSTYLE
105
27
330
A
100
AcDbSymbolTableRecord
100
AcDbDimStyleTableRecord
  2
ISO-25
 70
     0
 41
2.5
 42
0.625
 43
3.75
 44
1.25
 73
     0
 74
     0
 77
     1
 78
     8
140
2.5
141
2.5
143
0.0393700787
147
0.625
171
     3
172
     1
271
     2
272
     2
274
     3
278
    44
283
     0
284
     8
340
11
  0
DIMSTYLE
105
1B6
102
{ACAD_REACTORS
330
1B5
330
1C2
330
1CC
330
1D6
330
1E0
330
1EB
102
}
330
A
100
AcDbSymbolTableRecord
100
AcDbDimStyleTableRecord
  2
SLDDIMSTYLE0
 70
     0
 41
3.0
 44
0.0
 45
0.000000001
 73
     0
 74
     0
 77
     1
 78
    12
140
2.0
147
0.5
173
     1
271
     2
272
     3
284
    12
340
44
  0
ENDTAB
  0
TABLE
  2
BLOCK_RECORD
  5
1
330
0
100
AcDbSymbolTable
 70
     7
  0
BLOCK_RECORD
  5
1F
330
1
100
AcDbSymbolTableRecord
100
AcDbBlockTableRecord
  2
*Model_Space
340
22
  0
BLOCK_RECORD
  5
1B
330
1
100
AcDbSymbolTableRecord
100
AcDbBlockTableRecord
  2
*Paper_Space
340
1E
  0
BLOCK_RECORD
  5
23
330
1
100
AcDbSymbolTableRecord
100
AcDbBlockTableRecord
  2
*Paper_Space0
340
26
  0
BLOCK_RECORD
  5
1B7
330
1
100
AcDbSymbolTableRecord
100
AcDbBlockTableRecord
  2
*D1
340
0
  0
BLOCK_RECORD
  5
1C3
330
1
100
AcDbSymbolTableRecord
100
AcDbBlockTableRecord
  2
*D2
340
0
  0
BLOCK_RECORD
  5
1CD
330
1
100
AcDbSymbolTableRecord
100
AcDbBlockTableRecord
  2
*D3
340
0
  0
BLOCK_RECORD
  5
1D7
330
1
100
AcDbSymbolTableRecord
100
AcDbBlockTableRecord
  2
*D4
340
0
  0
BLOCK_RECORD
  5
1E1
330
1
100
AcDbSymbolTableRecord
100
AcDbBlockTableRecord
  2
*D5
340
0
  0
BLOCK_RECORD
  5
1EC
330
1
100
AcDbSymbolTableRecord
100
AcDbBlockTableRecord
  2
*D6
340
0
  0
ENDTAB
  0
ENDSEC
  0
SECTION
  2
BLOCKS
  0
BLOCK
  5
20
330
1F
100
AcDbEntity
  8
0
100
AcDbBlockBegin
  2
*Model_Space
 70
     0
 10
0.0
 20
0.0
 30
0.0
  3
*Model_Space
  1

  0
ENDBLK
  5
21
330
1F
100
AcDbEntity
  8
0
100
AcDbBlockEnd
  0
BLOCK
  5
1C
330
1B
100
AcDbEntity
 67
     1
  8
0
100
AcDbBlockBegin
  2
*Paper_Space
 70
     0
 10
0.0
 20
0.0
 30
0.0
  3
*Paper_Space
  1

  0
ENDBLK
  5
1D
330
1B
100
AcDbEntity
 67
     1
  8
0
100
AcDbBlockEnd
  0
BLOCK
  5
24
330
23
100
AcDbEntity
  8
0
100
AcDbBlockBegin
  2
*Paper_Space0
 70
     0
 10
0.0
 20
0.0
 30
0.0
  3
*Paper_Space0
  1

  0
ENDBLK
  5
25
330
23
100
AcDbEntity
  8
0
100
AcDbBlockEnd
  0
BLOCK
  5
1B8
330
1B7
100
AcDbEntity
  8
0
100
AcDbBlockBegin
  2
*D1
 70
     1
 10
0.0
 20
0.0
 30
0.0
  3
*D1
  1

  0
SOLID
  5
1BA
330
1B7
100
AcDbEntity
  8
VERMASSUNG
100
AcDbTrace
 10
37.6102360373
 20
164.2703032041
 30
0.0
 11
37.1602360373
 21
161.2703032041
 31
0.0
 12
38.0602360373
 22
161.2703032041
 32
0.0
 13
38.0602360373
 23
161.2703032041
 33
0.0
  0
SOLID
  5
1BB
330
1B7
100
AcDbEntity
  8
VERMASSUNG
100
AcDbTrace
 10
37.6102360373
 20
64.2703032041
 30
0.0
 11
38.0602360373
 21
67.2703032041
 31
0.0
 12
37.1602360373
 22
67.2703032041
 32
0.0
 13
37.1602360373
 23
67.2703032041
 33
0.0
  0
LINE
  5
1BC
330
1B7
100
AcDbEntity
  8
VERMASSUNG
100
AcDbLine
 10
93.0042130914
 20
164.2703032041
 30
0.0
 11
36.6102360373
 21
164.2703032041
 31
0.0
  0
LINE
  5
1BD
330
1B7
100
AcDbEntity
  8
VERMASSUNG
100
AcDbLine
 10
93.0042130914
 20
64.2703032041
 30
0.0
 11
36.6102360373
 21
64.2703032041
 31
0.0
  0
LINE
  5
1BE
330
1B7
100
AcDbEntity
  8
VERMASSUNG
100
AcDbLine
 10
37.6102360373
 20
164.2703032041
 30
0.0
 11
37.6102360373
 21
64.2703032041
 31
0.0
  0
MTEXT
  5
1BF
330
1B7
100
AcDbEntity
  8
VERMASSUNG
100
AcDbMText
 10
34.8321005483
 20
105.3927488928
 30
0.0
 40
2.0
 41
0.0
 71
     1
 72
     1
  1
HSK A 
  7
SLDTEXTSTYLE0
 11
-7.044195017643634E-15
 21
1.0
 31
0.0
 73
     1
 44
1.0
  0
MTEXT
  5
1C0
330
1B7
100
AcDbEntity
  8
VERMASSUNG
100
AcDbMText
 10
35.0321005578
 20
114.3927494367
 30
0.0
 40
2.0
 41
0.0
 71
     1
 72
     1
  1
%%c
  7
SLDTEXTSTYLE0
 11
-7.044195017643634E-15
 21
1.0
 31
0.0
 73
     1
 44
1.0
  0
MTEXT
  5
1C1
330
1B7
100
AcDbEntity
  8
VERMASSUNG
100
AcDbMText
 10
35.0321006742
 20
118.0010760867
 30
0.0
 40
2.0
 41
0.0
 71
     1
 72
     1
  1
100
  7
SLDTEXTSTYLE0
 11
-7.044195017643634E-15
 21
1.0
 31
0.0
 73
     1
 44
1.0
  0
ENDBLK
  5
1B9
330
1B7
100
AcDbEntity
  8
0
100
AcDbBlockEnd
  0
BLOCK
  5
1C4
330
1C3
100
AcDbEntity
  8
0
100
AcDbBlockBegin
  2
*D2
 70
     1
 10
0.0
 20
0.0
 30
0.0
  3
*D2
  1

  0
SOLID
  5
1C6
330
1C3
100
AcDbEntity
  8
VERMASSUNG
100
AcDbTrace
 10
121.4542130914
 20
167.3106175515
 30
0.0
 11
124.4542130914
 21
166.8606175515
 31
0.0
 12
124.4542130914
 22
167.7606175515
 32
0.0
 13
124.4542130914
 23
167.7606175515
 33
0.0
  0
SOLID
  5
1C7
330
1C3
100
AcDbEntity
  8
VERMASSUNG
100
AcDbTrace
 10
252.5042130914
 20
167.3106175515
 30
0.0
 11
249.5042130914
 21
167.7606175515
 31
0.0
 12
249.5042130914
 22
166.8606175515
 32
0.0
 13
249.5042130914
 23
166.8606175515
 33
0.0
  0
LINE
  5
1C8
330
1C3
100
AcDbEntity
  8
VERMASSUNG
100
AcDbLine
 10
121.4542130914
 20
162.239043025
 30
0.0
 11
121.4542130914
 21
168.3106175515
 31
0.0
  0
LINE
  5
1C9
330
1C3
100
AcDbEntity
  8
VERMASSUNG
100
AcDbLine
 10
252.5042130914
 20
128.9961626825
 30
0.0
 11
252.5042130914
 21
168.3106175515
 31
0.0
  0
LINE
  5
1CA
330
1C3
100
AcDbEntity
  8
VERMASSUNG
100
AcDbLine
 10
121.4542130914
 20
167.3106175515
 30
0.0
 11
252.5042130914
 21
167.3106175515
 31
0.0
  0
MTEXT
  5
1CB
330
1C3
100
AcDbEntity
  8
VERMASSUNG
100
AcDbMText
 10
183.5793972734
 20
169.8887529146
 30
0.0
 40
2.0
 41
0.0
 71
     1
 72
     1
  1
131.05
  7
SLDTEXTSTYLE0
 73
     1
 44
1.0
  0
ENDBLK
  5
1C5
330
1C3
100
AcDbEntity
  8
0
100
AcDbBlockEnd
  0
BLOCK
  5
1CE
330
1CD
100
AcDbEntity
  8
0
100
AcDbBlockBegin
  2
*D3
 70
     1
 10
0.0
 20
0.0
 30
0.0
  3
*D3
  1

  0
SOLID
  5
1D0
330
1CD
100
AcDbEntity
  8
VERMASSUNG
100
AcDbTrace
 10
92.5042130914
 20
173.3106175515
 30
0.0
 11
95.5042130914
 21
172.8606175515
 31
0.0
 12
95.5042130914
 22
173.7606175515
 32
0.0
 13
95.5042130914
 23
173.7606175515
 33
0.0
  0
SOLID
  5
1D1
330
1CD
100
AcDbEntity
  8
VERMASSUNG
100
AcDbTrace
 10
252.5042130914
 20
173.3106175515
 30
0.0
 11
249.5042130914
 21
173.7606175515
 31
0.0
 12
249.5042130914
 22
172.8606175515
 32
0.0
 13
249.5042130914
 23
172.8606175515
 33
0.0
  0
LINE
  5
1D2
330
1CD
100
AcDbEntity
  8
VERMASSUNG
100
AcDbLine
 10
92.5042130914
 20
163.7703032041
 30
0.0
 11
92.5042130914
 21
174.3106175515
 31
0.0
  0
LINE
  5
1D3
330
1CD
100
AcDbEntity
  8
VERMASSUNG
100
AcDbLine
 10
252.5042130914
 20
128.9961626825
 30
0.0
 11
252.5042130914
 21
174.3106175515
 31
0.0
  0
LINE
  5
1D4
330
1CD
100
AcDbEntity
  8
VERMASSUNG
100
AcDbLine
 10
92.5042130914
 20
173.3106175515
 30
0.0
 11
252.5042130914
 21
173.3106175515
 31
0.0
  0
MTEXT
  5
1D5
330
1CD
100
AcDbEntity
  8
VERMASSUNG
100
AcDbMText
 10
170.6047255507
 20
175.8887529146
 30
0.0
 40
2.0
 41
0.0
 71
     1
 72
     1
  1
160
  7
SLDTEXTSTYLE0
 73
     1
 44
1.0
  0
ENDBLK
  5
1CF
330
1CD
100
AcDbEntity
  8
0
100
AcDbBlockEnd
  0
BLOCK
  5
1D8
330
1D7
100
AcDbEntity
  8
0
100
AcDbBlockBegin
  2
*D4
 70
     1
 10
0.0
 20
0.0
 30
0.0
  3
*D4
  1

  0
SOLID
  5
1DA
330
1D7
100
AcDbEntity
  8
VERMASSUNG
100
AcDbTrace
 10
252.5042130914
 20
179.3106175515
 30
0.0
 11
249.5042130914
 21
179.7606175515
 31
0.0
 12
249.5042130914
 22
178.8606175515
 32
0.0
 13
249.5042130914
 23
178.8606175515
 33
0.0
  0
SOLID
  5
1DB
330
1D7
100
AcDbEntity
  8
VERMASSUNG
100
AcDbTrace
 10
42.6042130914
 20
179.3106175515
 30
0.0
 11
45.6042130914
 21
178.8606175515
 31
0.0
 12
45.6042130914
 22
179.7606175515
 32
0.0
 13
45.6042130914
 23
179.7606175515
 33
0.0
  0
LINE
  5
1DC
330
1D7
100
AcDbEntity
  8
VERMASSUNG
100
AcDbLine
 10
252.5042130914
 20
128.9961626825
 30
0.0
 11
252.5042130914
 21
180.3106175515
 31
0.0
  0
LINE
  5
1DD
330
1D7
100
AcDbEntity
  8
VERMASSUNG
100
AcDbLine
 10
42.6042130914
 20
144.7729729467
 30
0.0
 11
42.6042130914
 21
180.3106175515
 31
0.0
  0
LINE
  5
1DE
330
1D7
100
AcDbEntity
  8
VERMASSUNG
100
AcDbLine
 10
252.5042130914
 20
179.3106175515
 30
0.0
 11
42.6042130914
 21
179.3106175515
 31
0.0
  0
MTEXT
  5
1DF
330
1D7
100
AcDbEntity
  8
VERMASSUNG
100
AcDbMText
 10
144.4549270675
 20
181.8887529146
 30
0.0
 40
2.0
 41
0.0
 71
     1
 72
     1
  1
209.9
  7
SLDTEXTSTYLE0
 73
     1
 44
1.0
  0
ENDBLK
  5
1D9
330
1D7
100
AcDbEntity
  8
0
100
AcDbBlockEnd
  0
BLOCK
  5
1E2
330
1E1
100
AcDbEntity
  8
0
100
AcDbBlockBegin
  2
*D5
 70
     1
 10
0.0
 20
0.0
 30
0.0
  3
*D5
  1

  0
SOLID
  5
1E4
330
1E1
100
AcDbEntity
  8
VERMASSUNG
100
AcDbTrace
 10
260.0445609368
 20
121.2703032041
 30
0.0
 11
259.5945609368
 21
118.2703032041
 31
0.0
 12
260.4945609368
 22
118.2703032041
 32
0.0
 13
260.4945609368
 23
118.2703032041
 33
0.0
  0
SOLID
  5
1E5
330
1E1
100
AcDbEntity
  8
VERMASSUNG
100
AcDbTrace
 10
260.0445609368
 20
107.2703032041
 30
0.0
 11
260.4945609368
 21
110.2703032041
 31
0.0
 12
259.5945609368
 22
110.2703032041
 32
0.0
 13
259.5945609368
 23
110.2703032041
 33
0.0
  0
LINE
  5
1E6
330
1E1
100
AcDbEntity
  8
VERMASSUNG
100
AcDbLine
 10
252.2042130914
 20
121.2703032041
 30
0.0
 11
261.0445609368
 21
121.2703032041
 31
0.0
  0
LINE
  5
1E7
330
1E1
100
AcDbEntity
  8
VERMASSUNG
100
AcDbLine
 10
252.2042130914
 20
107.2703032041
 30
0.0
 11
261.0445609368
 21
107.2703032041
 31
0.0
  0
LINE
  5
1E8
330
1E1
100
AcDbEntity
  8
VERMASSUNG
100
AcDbLine
 10
260.0445609368
 20
121.2703032041
 30
0.0
 11
260.0445609368
 21
107.2703032041
 31
0.0
  0
MTEXT
  5
1E9
330
1E1
100
AcDbEntity
  8
VERMASSUNG
100
AcDbMText
 10
257.4664254572
 20
111.1663757935
 30
0.0
 40
2.0
 41
0.0
 71
     1
 72
     1
  1
%%c
  7
SLDTEXTSTYLE0
 11
-7.044195017643634E-15
 21
1.0
 31
0.0
 73
     1
 44
1.0
  0
MTEXT
  5
1EA
330
1E1
100
AcDbEntity
  8
VERMASSUNG
100
AcDbMText
 10
257.4664255736
 20
114.7750540167
 30
0.0
 40
2.0
 41
0.0
 71
     1
 72
     1
  1
14
  7
SLDTEXTSTYLE0
 11
-7.044195017643634E-15
 21
1.0
 31
0.0
 73
     1
 44
1.0
  0
ENDBLK
  5
1E3
330
1E1
100
AcDbEntity
  8
0
100
AcDbBlockEnd
  0
BLOCK
  5
1ED
330
1EC
100
AcDbEntity
  8
0
100
AcDbBlockBegin
  2
*D6
 70
     1
 10
0.0
 20
0.0
 30
0.0
  3
*D6
  1

  0
SOLID
  5
1EF
330
1EC
100
AcDbEntity
  8
VERMASSUNG
100
AcDbTrace
 10
266.0445609368
 20
136.7703032041
 30
0.0
 11
265.5945609368
 21
133.7703032041
 31
0.0
 12
266.4945609368
 22
133.7703032041
 32
0.0
 13
266.4945609368
 23
133.7703032041
 33
0.0
  0
SOLID
  5
1F0
330
1EC
100
AcDbEntity
  8
VERMASSUNG
100
AcDbTrace
 10
266.0445609368
 20
91.7703032041
 30
0.0
 11
266.4945609368
 21
94.7703032041
 31
0.0
 12
265.5945609368
 22
94.7703032041
 32
0.0
 13
265.5945609368
 23
94.7703032041
 33
0.0
  0
LINE
  5
1F1
330
1EC
100
AcDbEntity
  8
VERMASSUNG
100
AcDbLine
 10
238.5649181081
 20
136.7703032041
 30
0.0
 11
267.0445609368
 21
136.7703032041
 31
0.0
  0
LINE
  5
1F2
330
1EC
100
AcDbEntity
  8
VERMASSUNG
100
AcDbLine
 10
238.5649181081
 20
91.7703032041
 30
0.0
 11
267.0445609368
 21
91.7703032041
 31
0.0
  0
LINE
  5
1F3
330
1EC
100
AcDbEntity
  8
VERMASSUNG
100
AcDbLine
 10
266.0445609368
 20
136.7703032041
 30
0.0
 11
266.0445609368
 21
91.7703032041
 31
0.0
  0
MTEXT
  5
1F4
330
1EC
100
AcDbEntity
  8
VERMASSUNG
100
AcDbMText
 10
263.4664254572
 20
110.9667961619
 30
0.0
 40
2.0
 41
0.0
 71
     1
 72
     1
  1
%%c
  7
SLDTEXTSTYLE0
 11
-7.044195017643634E-15
 21
1.0
 31
0.0
 73
     1
 44
1.0
  0
MTEXT
  5
1F5
330
1EC
100
AcDbEntity
  8
VERMASSUNG
100
AcDbMText
 10
263.4664255736
 20
114.575474385
 30
0.0
 40
2.0
 41
0.0
 71
     1
 72
     1
  1
45
  7
SLDTEXTSTYLE0
 11
-7.044195017643634E-15
 21
1.0
 31
0.0
 73
     1
 44
1.0
  0
ENDBLK
  5
1EE
330
1EC
100
AcDbEntity
  8
0
100
AcDbBlockEnd
  0
ENDSEC
  0
SECTION
  2
ENTITIES
  0
MTEXT
  5
45
330
1F
100
AcDbEntity
  8
KOPF_DÜNN
100
AcDbMText
 10
13.8892156294
 20
23.8442973028
 30
0.0
 40
3.0
 41
0.0
 71
     1
 72
     1
  1
HA0.W14.K21.160
  7
SLDTEXTSTYLE0
 73
     1
 44
1.0
  0
MTEXT
  5
46
330
1F
100
AcDbEntity
  8
VERMASSUNG
100
AcDbMText
 10
13.9329988022
 20
28.8834360957
 30
0.0
 40
3.0
 41
0.0
 71
     1
 72
     1
  1
Flächenspannfutter_End mill adapter Weldon ø14
  7
SLDTEXTSTYLE0
 73
     1
 44
1.0
  0
MTEXT
  5
47
330
1F
100
AcDbEntity
  8
VERMASSUNG
100
AcDbMText
 10
98.8601118557
 20
13.8365368179
 30
0.0
 40
2.0
 41
0.0
 71
     1
 72
     1
  1
Datum: 09.10.2006
  7
SLDTEXTSTYLE0
 73
     1
 44
1.0
  0
MTEXT
  5
49
330
1F
100
AcDbEntity
  8
VERMASSUNG
100
AcDbMText
 10
13.933048693
 20
18.0482802738
 30
0.0
 40
2.0
 41
0.0
 71
     1
 72
     1
  1
DIN 69 893 HSK A 100
  7
SLDTEXTSTYLE1
 73
     1
 44
1.0
  0
MTEXT
  5
4A
330
1F
100
AcDbEntity
  8
VERMASSUNG
100
AcDbMText
 10
13.9808475933
 20
13.9090973692
 30
0.0
 40
2.0
 41
0.0
 71
     1
 72
     1
  1
Gewicht: 3514g
  7
SLDTEXTSTYLE0
 73
     1
 44
1.0
  0
LINE
  5
4B
330
1F
100
AcDbEntity
  8
0
  6
Continuous
 62
     7
370
    15
100
AcDbLine
 10
252.5102243034
 20
123.6204225402
 30
0.0
 11
252.5042130914
 21
123.6315538241
 31
0.0
  0
LINE
  5
4C
330
1F
100
AcDbEntity
  8
0
  6
Continuous
 62
     7
370
    15
100
AcDbLine
 10
252.5042130914
 20
104.8016394141
 30
0.0
 11
252.569114027
 21
104.9218199601
 31
0.0
  0
ARC
  5
4D
330
1F
100
AcDbEntity
  8
0
  6
Continuous
 62
     7
370
    15
100
AcDbCircle
 10
93.0042130914
 20
64.7703032041
 30
0.0
 40
0.5
100
AcDbArc
 50
180.0
 51
270.0
  0
ARC
  5
4E
330
1F
100
AcDbEntity
  8
0
  6
Continuous
 62
     7
370
    15
100
AcDbCircle
 10
93.0042130914
 20
163.7703032041
 30
0.0
 40
0.5
100
AcDbArc
 50
90.0
 51
180.0
  0
LINE
  5
4F
330
1F
100
AcDbEntity
  8
0
  6
Continuous
 62
     7
370
    15
100
AcDbLine
 10
93.0042130914
 20
64.2703032041
 30
0.0
 11
97.4542130914
 21
64.2703032041
 31
0.0
  0
LINE
  5
50
330
1F
100
AcDbEntity
  8
0
  6
Continuous
 62
     7
370
    15
100
AcDbLine
 10
97.4882859238
 20
164.2703032041
 30
0.0
 11
93.0042130914
 21
164.2703032041
 31
0.0
  0
ARC
  5
51
330
1F
100
AcDbEntity
  8
0
  6
Continuous
 62
     7
370
    15
100
AcDbCircle
 10
91.6072761729
 20
75.6418178797
 30
0.0
 40
0.9962338214386793
100
AcDbArc
 50
25.7988228126
 51
90.0
  0
ARC
  5
52
330
1F
100
AcDbEntity
  8
0
  6
Continuous
 62
     7
370
    15
100
AcDbCircle
 10
91.6072761729
 20
152.8987885286
 30
0.0
 40
0.9962338214386932
100
AcDbArc
 50
270.0
 51
334.2011771874
  0
LINE
  5
53
330
1F
100
AcDbEntity
  8
0
  6
Continuous
 62
     7
370
    15
100
AcDbLine
 10
90.0042130914
 20
76.3880517011
 30
0.0
 11
90.8100592458
 21
76.6039775274
 31
0.0
  0
LINE
  5
54
330
1F
100
AcDbEntity
  8
0
  6
Continuous
 62
     7
370
    15
100
AcDbLine
 10
90.8100592458
 20
151.9366288808
 30
0.0
 11
90.0042130914
 21
152.1525547071
 31
0.0
  0
LINE
  5
55
330
1F
100
AcDbEntity
  8
0
  6
Continuous
 62
     7
370
    15
100
AcDbLine
 10
71.0235341727
 20
151.2016188896
 30
0.0
 11
52.7042130914
 21
150.2838172322
 31
0.0
  0
LINE
  5
56
330
1F
100
AcDbEntity
  8
0
  6
Continuous
 62
     7
370
    15
100
AcDbLine
 10
90.0042130914
 20
152.1525547071
 30
0.0
 11
83.9361739369
 21
151.8485447294
 31
0.0
  0
LINE
  5
57
330
1F
100
AcDbEntity
  8
0
  6
Continuous
 62
     7
370
    15
100
AcDbLine
 10
83.9362972134
 20
76.6920555026
 30
0.0
 11
90.0042130914
 21
76.3880517011
 31
0.0
  0
LINE
  5
58
330
1F
100
AcDbEntity
  8
0
  6
Continuous
 62
     7
370
    15
100
AcDbLine
 10
57.7042130914
 20
78.0062881741
 30
0.0
 11
71.0241642453
 21
77.3389559519
 31
0.0
  0
ARC
  5
59
330
1F
100
AcDbEntity
  8
0
  6
Continuous
 62
     7
370
    15
100
AcDbCircle
 10
91.0688782909
 20
75.6380517011
 30
0.0
 40
0.9999999999999858
100
AcDbArc
 50
90.0
 51
105.0
  0
ARC
  5
5A
330
1F
100
AcDbEntity
  8
0
  6
Continuous
 62
     7
370
    15
100
AcDbCircle
 10
91.0688782909
 20
152.9025547071
 30
0.0
 40
1.0
100
AcDbArc
 50
255.0
 51
270.0
  0
LINE
  5
5B
330
1F
100
AcDbEntity
  8
0
  6
Continuous
 62
     7
370
    15
100
AcDbLine
 10
91.0688782909
 20
76.6380517011
 30
0.0
 11
91.6072761729
 21
76.6380517011
 31
0.0
  0
LINE
  5
5C
330
1F
100
AcDbEntity
  8
0
  6
Continuous
 62
     7
370
    15
100
AcDbLine
 10
91.6072761729
 20
151.9025547071
 30
0.0
 11
91.0688782909
 21
151.9025547071
 31
0.0
  0
ARC
  5
5D
330
1F
100
AcDbEntity
  8
0
  6
Continuous
 62
     7
370
    15
100
AcDbCircle
 10
126.4542130914
 20
82.852683498
 30
0.0
 40
5.000000000000014
100
AcDbArc
 50
106.5116637356
 51
180.0
  0
ARC
  5
5E
330
1F
100
AcDbEntity
  8
0
  6
Continuous
 62
     7
370
    15
100
AcDbCircle
 10
126.4542130914
 20
145.6879229102
 30
0.0
 40
5.000000000000014
100
AcDbArc
 50
180.0
 51
253.4883362644
  0
ARC
  5
5F
330
1F
100
AcDbEntity
  8
0
  6
Continuous
 62
     7
370
    15
100
AcDbCircle
 10
153.4542130914
 20
-8.2296967959
 30
0.0
 40
100.0
100
AcDbArc
 50
90.0
 51
106.5116637356
  0
ARC
  5
60
330
1F
100
AcDbEntity
  8
0
  6
Continuous
 62
     7
370
    15
100
AcDbCircle
 10
153.4542130914
 20
236.7703032041
 30
0.0
 40
100.0
100
AcDbArc
 50
253.4883362644
 51
270.0
  0
LINE
  5
61
330
1F
100
AcDbEntity
  8
0
  6
Continuous
 62
     7
370
    15
100
AcDbLine
 10
164.9217532213
 20
91.7703032041
 30
0.0
 11
238.5649181081
 21
91.7703032041
 31
0.0
  0
LINE
  5
62
330
1F
100
AcDbEntity
  8
0
  6
Continuous
 62
     7
370
    15
100
AcDbLine
 10
153.4542130914
 20
91.7703032041
 30
0.0
 11
157.9969668284
 21
91.7703032041
 31
0.0
  0
LINE
  5
63
330
1F
100
AcDbEntity
  8
0
  6
Continuous
 62
     7
370
    15
100
AcDbLine
 10
157.9886176366
 20
136.7703032041
 30
0.0
 11
153.4542130914
 21
136.7703032041
 31
0.0
  0
LINE
  5
64
330
1F
100
AcDbEntity
  8
0
  6
Continuous
 62
     7
370
    15
100
AcDbLine
 10
238.5649181081
 20
136.7703032041
 30
0.0
 11
164.9119516621
 21
136.7703032041
 31
0.0
  0
LINE
  5
65
330
1F
100
AcDbEntity
  8
0
  6
Continuous
 62
     7
370
    15
100
AcDbLine
 10
238.5649181081
 20
91.7703032041
 30
0.0
 11
251.3494496149
 21
97.7318281517
 31
0.0
  0
LINE
  5
66
330
1F
100
AcDbEntity
  8
0
  6
Continuous
 62
     7
370
    15
100
AcDbLine
 10
251.3494496149
 20
130.8087782566
 30
0.0
 11
238.5649181081
 21
136.7703032041
 31
0.0
  0
LINE
  5
67
330
1F
100
AcDbEntity
  8
0
  6
Continuous
 62
     7
370
    15
100
AcDbLine
 10
44.2542130914
 20
82.0203032041
 30
0.0
 11
55.8042130914
 21
82.0203032041
 31
0.0
  0
ARC
  5
68
330
1F
100
AcDbEntity
  8
0
  6
Continuous
 62
     7
370
    15
100
AcDbCircle
 10
55.8042130914
 20
80.1203032041
 30
0.0
 40
1.900000000000007
100
AcDbArc
 50
35.6630613694
 51
90.0
  0
ARC
  5
69
330
1F
100
AcDbEntity
  8
0
  6
Continuous
 62
     7
370
    15
100
AcDbCircle
 10
250.5042130914
 20
99.5444437257
 30
0.0
 40
2.000000000000013
100
AcDbArc
 50
295.0
 51
0.0
  0
ARC
  5
6A
330
1F
100
AcDbEntity
  8
0
  6
Continuous
 62
     7
370
    15
100
AcDbCircle
 10
250.5042130914
 20
128.9961626825
 30
0.0
 40
2.000000000000013
100
AcDbArc
 50
0.0
 51
65.0
  0
ARC
  5
6B
330
1F
100
AcDbEntity
  8
0
  6
Continuous
 62
     7
370
    15
100
AcDbCircle
 10
50.8042130914
 20
148.4203032041
 30
0.0
 40
1.900000000000006
100
AcDbArc
 50
270.0
 51
310.9212832533
  0
LINE
  5
6C
330
1F
100
AcDbEntity
  8
0
  6
Continuous
 62
     7
370
    15
100
AcDbLine
 10
44.2542130914
 20
146.5203032041
 30
0.0
 11
42.6548969725
 21
144.9209870852
 31
0.0
  0
LINE
  5
6D
330
1F
100
AcDbEntity
  8
0
  6
Continuous
 62
     7
370
    15
100
AcDbLine
 10
42.6557343424
 20
83.6187819531
 30
0.0
 11
44.2542130914
 21
82.0203032041
 31
0.0
  0
LINE
  5
6E
330
1F
100
AcDbEntity
  8
0
  6
Continuous
 62
     7
370
    15
100
AcDbLine
 10
50.8042130914
 20
146.5203032041
 30
0.0
 11
44.2542130914
 21
146.5203032041
 31
0.0
  0
CIRCLE
  5
6F
330
1F
100
AcDbEntity
  8
0
  6
Continuous
 62
     7
370
    15
100
AcDbCircle
 10
230.5042130914
 20
114.2703032041
 30
0.0
 40
5.100000000000023
  0
LINE
  5
70
330
1F
100
AcDbEntity
  8
0
  6
Continuous
 62
     7
370
    15
100
AcDbLine
 10
229.78321287
 20
117.6585414898
 30
0.0
 11
233.0780134102
 21
116.5888268548
 31
0.0
  0
LINE
  5
71
330
1F
100
AcDbEntity
  8
0
  6
Continuous
 62
     7
370
    15
100
AcDbLine
 10
227.2094125512
 20
115.3400178392
 30
0.0
 11
227.9304127725
 21
111.9517795534
 31
0.0
  0
LINE
  5
72
330
1F
100
AcDbEntity
  8
0
  6
Continuous
 62
     7
370
    15
100
AcDbLine
 10
233.7990136316
 20
113.2005885691
 30
0.0
 11
233.0780134102
 21
116.5888268548
 31
0.0
  0
LINE
  5
73
330
1F
100
AcDbEntity
  8
0
  6
Continuous
 62
     7
370
    15
100
AcDbLine
 10
231.2252133127
 20
110.8820649184
 30
0.0
 11
233.7990136316
 21
113.2005885691
 31
0.0
  0
LINE
  5
74
330
1F
100
AcDbEntity
  8
0
  6
Continuous
 62
     7
370
    15
100
AcDbLine
 10
227.2094125512
 20
115.3400178392
 30
0.0
 11
229.78321287
 21
117.6585414898
 31
0.0
  0
LINE
  5
75
330
1F
100
AcDbEntity
  8
0
  6
Continuous
 62
     7
370
    15
100
AcDbLine
 10
231.2252133127
 20
110.8820649184
 30
0.0
 11
227.9304127725
 21
111.9517795534
 31
0.0
  0
LWPOLYLINE
  5
76
330
1F
100
AcDbEntity
  8
0
  6
Continuous
 62
     7
370
    15
100
AcDbPolyline
 90
        7
 70
   128
 43
0.0
 10
252.5042130914
 20
122.2528144815
 10
252.5086226251
 20
122.4023791386
 10
252.519001129
 20
122.8689174706
 10
252.5226455749
 20
123.2645011385
 10
252.519001129
 20
123.5289061148
 10
252.5086226251
 20
123.6218791386
 10
252.5042130914
 20
123.6127264272
  0
ARC
  5
77
330
1F
100
AcDbEntity
  8
0
  6
Continuous
 62
     7
370
    15
100
AcDbCircle
 10
233.0255900385
 20
105.6138921725
 30
0.0
 40
19.55577392579671
100
AcDbArc
 50
357.9718982864
 51
5.0911211554
  0
LINE
  5
78
330
1F
100
AcDbEntity
  8
0
  6
Continuous
 62
     7
370
    15
100
AcDbLine
 10
120.4542130914
 20
65.4953096111
 30
0.0
 11
115.7662421123
 21
65.4953096111
 31
0.0
  0
LINE
  5
79
330
1F
100
AcDbEntity
  8
0
  6
Continuous
 62
     7
370
    15
100
AcDbLine
 10
115.7662421123
 20
65.4953096111
 30
0.0
 11
115.7662421123
 21
145.6203032041
 31
0.0
  0
LINE
  5
7A
330
1F
100
AcDbEntity
  8
0
  6
Continuous
 62
     7
370
    15
100
AcDbLine
 10
115.7662421123
 20
145.6203032041
 30
0.0
 11
120.4542130914
 21
145.6203032041
 31
0.0
  0
LINE
  5
7B
330
1F
100
AcDbEntity
  8
0
  6
Continuous
 62
     7
370
    15
100
AcDbLine
 10
121.4542130914
 20
66.5209576589
 30
0.0
 11
121.4542130914
 21
145.6203032041
 31
0.0
  0
SPLINE
  5
7C
330
1F
100
AcDbEntity
  8
0
  6
Continuous
 62
     7
370
    15
100
AcDbSpline
210
0.0
220
0.0
230
1.0
 70
     8
 71
     3
 72
    14
 73
    10
 74
     0
 42
0.00000001
 43
0.00000001
 40
0.0
 40
0.0
 40
0.0
 40
0.0
 40
0.25
 40
0.25
 40
0.5
 40
0.5
 40
0.75
 40
0.75
 40
1.0
 40
1.0
 40
1.0
 40
1.0
 10
121.4542130913769
 20
66.52095765886473
 30
0.0
 10
121.4542130913769
 20
66.38753196281019
 30
0.0
 10
121.428901991466
 20
66.25568415496585
 30
0.0
 10
121.3305672276213
 20
66.00916160627173
 30
0.0
 10
121.2574232233652
 20
65.89535641803121
 30
0.0
 10
121.0739851622696
 20
65.70489924108392
 30
0.0
 10
120.962298827931
 20
65.62726437723401
 30
0.0
 10
120.7197953976247
 20
65.52297296712153
 30
0.0
 10
120.5864209689305
 20
65.49530961108918
 30
0.0
 10
120.4542130913769
 20
65.4953096110892
 30
0.0
  0
SPLINE
  5
7D
330
1F
100
AcDbEntity
  8
0
  6
Continuous
 62
     7
370
    15
100
AcDbSpline
210
0.0
220
0.0
230
1.0
 70
    24
 71
     3
 72
    12
 73
     8
 74
     0
 42
0.00000001
 43
0.00000001
 40
0.0
 40
0.0
 40
0.0
 40
0.0
 40
0.2500000000000032
 40
0.2500000000000032
 40
0.5000000000000064
 40
0.5000000000000064
 40
1.0
 40
1.0
 40
1.0
 40
1.0
 10
120.4542130913769
 20
145.620303204118
 30
0.0
 10
120.6063033283219
 20
145.6203032041181
 30
0.0
 10
120.7547625893973
 20
145.620303204118
 30
0.0
 10
121.0121662216631
 20
145.620303204118
 30
0.0
 10
121.1212709695049
 20
145.620303204118
 30
0.0
 10
121.3753304459125
 20
145.6203032041181
 30
0.0
 10
121.4542130913769
 20
145.620303204118
 30
0.0
 10
121.4542130913769
 20
145.620303204118
 30
0.0
  0
LINE
  5
7E
330
1F
100
AcDbEntity
  8
0
  6
Continuous
 62
     7
370
    15
100
AcDbLine
 10
110.5942130914
 20
67.8989149171
 30
0.0
 11
110.5942130914
 21
145.6203032041
 31
0.0
  0
SPLINE
  5
7F
330
1F
100
AcDbEntity
  8
0
  6
Continuous
 62
     7
370
    15
100
AcDbSpline
210
0.0
220
0.0
230
1.0
 70
     8
 71
     3
 72
     8
 73
     4
 74
     0
 42
0.00000001
 43
0.00000001
 40
0.0
 40
0.0
 40
0.0
 40
0.0
 40
1.0
 40
1.0
 40
1.0
 40
1.0
 10
110.5942130913769
 20
67.89891491709457
 30
0.0
 10
110.1439866270991
 20
67.09745955446981
 30
0.0
 10
109.6932887998557
 20
66.29626954290916
 30
0.0
 10
109.2421840704555
 20
65.49530961108924
 30
0.0
  0
LINE
  5
80
330
1F
100
AcDbEntity
  8
0
  6
Continuous
 62
     7
370
    15
100
AcDbLine
 10
109.2421840705
 20
65.4953096111
 30
0.0
 11
109.2421840705
 21
145.6203032041
 31
0.0
  0
SPLINE
  5
81
330
1F
100
AcDbEntity
  8
0
  6
Continuous
 62
     7
370
    15
100
AcDbSpline
210
0.0
220
0.0
230
1.0
 70
    24
 71
     3
 72
     8
 73
     4
 74
     0
 42
0.00000001
 43
0.00000001
 40
0.0
 40
0.0
 40
0.0
 40
0.0
 40
1.0
 40
1.0
 40
1.0
 40
1.0
 10
109.2421840704555
 20
145.620303204118
 30
0.0
 10
109.6989856427838
 20
145.620303204118
 30
0.0
 10
110.150000209023
 20
145.620303204118
 30
0.0
 10
110.5942130913769
 20
145.620303204118
 30
0.0
  0
LINE
  5
82
330
1F
100
AcDbEntity
  8
0
  6
Continuous
 62
     7
370
    15
100
AcDbLine
 10
92.5042130914
 20
64.7703032041
 30
0.0
 11
92.5042130914
 21
163.7703032015
 31
0.0
  0
LINE
  5
83
330
1F
100
AcDbEntity
  8
0
  6
Continuous
 62
     7
370
    15
100
AcDbLine
 10
97.4542130914
 20
145.6203032041
 30
0.0
 11
109.2421840705
 21
145.6203032041
 31
0.0
  0
LINE
  5
84
330
1F
100
AcDbEntity
  8
0
  6
Continuous
 62
     7
370
    15
100
AcDbLine
 10
109.2421840705
 20
65.4953096111
 30
0.0
 11
107.4542130914
 21
65.4953096111
 31
0.0
  0
SPLINE
  5
85
330
1F
100
AcDbEntity
  8
0
  6
Continuous
 62
     7
370
    15
100
AcDbSpline
210
0.0
220
0.0
230
1.0
 70
     8
 71
     3
 72
    30
 73
    26
 74
     0
 42
0.00000001
 43
0.00000001
 40
0.0
 40
0.0
 40
0.0
 40
0.0
 40
0.1250000000000002
 40
0.1250000000000002
 40
0.1875000000000003
 40
0.1875000000000003
 40
0.2500000000000004
 40
0.2500000000000004
 40
0.3750000000000001
 40
0.3750000000000001
 40
0.4374999999999998
 40
0.4374999999999998
 40
0.4999999999999996
 40
0.4999999999999996
 40
0.6249999999999996
 40
0.6249999999999996
 40
0.6874999999999997
 40
0.6874999999999997
 40
0.7499999999999997
 40
0.7499999999999997
 40
0.8124999999999998
 40
0.8124999999999998
 40
0.8749999999999999
 40
0.8749999999999999
 40
1.0
 40
1.0
 40
1.0
 40
1.0
 10
107.4542130913769
 20
65.49530961108924
 30
0.0
 10
106.7914683975319
 20
65.49530961108924
 30
0.0
 10
106.1402125384162
 20
65.48046953450043
 30
0.0
 10
105.1797620001579
 20
65.43809997027081
 30
0.0
 10
104.8623705569249
 20
65.42062186749163
 30
0.0
 10
104.2332070553701
 20
65.37929358093933
 30
0.0
 10
103.9210588689284
 20
65.35536830748163
 30
0.0
 10
103.0137515670801
 20
65.27656179101471
 30
0.0
 10
102.4403266094388
 20
65.21425577103825
 30
0.0
 10
101.6264497398642
 20
65.11112645079889
 30
0.0
 10
101.3616435432943
 20
65.07494253175238
 30
0.0
 10
100.85473613248
 20
65.00114774755188
 30
0.0
 10
100.6133419811265
 20
64.96367388878024
 30
0.0
 10
99.92420050899415
 20
64.85096194544049
 30
0.0
 10
99.51114569412992
 20
64.77542584796672
 30
0.0
 10
98.96299087475485
 20
64.66703259094922
 30
0.0
 10
98.79352826740929
 20
64.63196035928596
 30
0.0
 10
98.4855110193939
 20
64.56572489868611
 30
0.0
 10
98.34613099878553
 20
64.53439820193138
 30
0.0
 10
98.0963454861588
 20
64.47598943035047
 30
0.0
 10
97.98593937350488
 20
64.44890619516761
 30
0.0
 10
97.79468151986714
 20
64.39964644055401
 30
0.0
 10
97.71356200158284
 20
64.37738446074637
 30
0.0
 10
97.51941508147446
 20
64.3198175535781
 30
0.0
 10
97.45421309137691
 20
64.2935579487921
 30
0.0
 10
97.45421309137691
 20
64.28030420431807
 30
0.0
  0
LINE
  5
86
330
1F
100
AcDbEntity
  8
0
  6
Continuous
 62
     7
370
    15
100
AcDbLine
 10
97.4542130914
 20
64.2803042043
 30
0.0
 11
97.4542130914
 21
64.2703032041
 31
0.0
  0
SPLINE
  5
87
330
1F
100
AcDbEntity
  8
0
  6
Continuous
 62
     7
370
    15
100
AcDbSpline
210
0.0
220
0.0
230
1.0
 70
     8
 71
     3
 72
    17
 73
    13
 74
     0
 42
0.00000001
 43
0.00000001
 40
0.0
 40
0.0
 40
0.0
 40
0.0
 40
0.104384384054747
 40
0.2118345768143993
 40
0.316208200519045
 40
0.4235375806108392
 40
0.5292276236193852
 40
0.6379275864803491
 40
0.7444714844189683
 40
0.8541836219421859
 40
0.9593080534965217
 40
1.0
 40
1.0
 40
1.0
 40
1.0
 10
107.4542130913769
 20
163.2600980597816
 30
0.0
 10
106.9062746435175
 20
163.2654662635303
 30
0.0
 10
105.7943045890528
 20
163.2763603371953
 30
0.0
 10
104.1814486758379
 20
163.3615377114542
 30
0.0
 10
102.6479354588609
 20
163.4879124177468
 30
0.0
 10
101.2569146095243
 20
163.6448152383236
 30
0.0
 10
100.021398092294
 20
163.8165140678442
 30
0.0
 10
98.9980423251387
 20
163.9818503439452
 30
0.0
 10
98.19770032687357
 20
164.1255638235318
 30
0.0
 10
97.68736822496003
 20
164.223718630711
 30
0.0
 10
97.44745979613548
 20
164.2716470275809
 30
0.0
 10
97.4793785755553
 20
164.2652796283413
 30
0.0
 10
97.48828592383748
 20
164.263502723218
 30
0.0
  0
LINE
  5
88
330
1F
100
AcDbEntity
  8
0
  6
Continuous
 62
     7
370
    15
100
AcDbLine
 10
109.2421840705
 20
163.2600980598
 30
0.0
 11
107.4542130914
 21
163.2600980598
 31
0.0
  0
LINE
  5
89
330
1F
100
AcDbEntity
  8
0
  6
Continuous
 62
     7
370
    15
100
AcDbLine
 10
109.2421840705
 20
153.221265965
 30
0.0
 11
109.2421840705
 21
163.2600980598
 31
0.0
  0
LINE
  5
8A
330
1F
100
AcDbEntity
  8
0
  6
Continuous
 62
     7
370
    15
100
AcDbLine
 10
107.1621799396
 20
153.221265965
 30
0.0
 11
109.2421840705
 21
153.221265965
 31
0.0
  0
SPLINE
  5
8B
330
1F
100
AcDbEntity
  8
0
  6
Continuous
 62
     7
370
    15
100
AcDbSpline
210
0.0
220
0.0
230
1.0
 70
     8
 71
     3
 72
    22
 73
    18
 74
     0
 42
0.00000001
 43
0.00000001
 40
0.0
 40
0.0
 40
0.0
 40
0.0
 40
0.2500000000000002
 40
0.2500000000000002
 40
0.3750000000000003
 40
0.3750000000000003
 40
0.5000000000000004
 40
0.5000000000000004
 40
0.6250000000000004
 40
0.6250000000000004
 40
0.7500000000000004
 40
0.7500000000000004
 40
0.8750000000000004
 40
0.8750000000000004
 40
0.9375000000000002
 40
0.9375000000000002
 40
1.0
 40
1.0
 40
1.0
 40
1.0
 10
97.4542130913769
 20
145.620303204118
 30
0.0
 10
97.656938047296
 20
146.6395495459826
 30
0.0
 10
97.97168176909138
 20
147.598657695922
 30
0.0
 10
98.67973723876236
 20
148.9411367734312
 30
0.0
 10
98.95819986897999
 20
149.3753453561712
 30
0.0
 10
99.59696727561719
 20
150.1869730716733
 30
0.0
 10
99.95738095540739
 20
150.5662533646102
 30
0.0
 10
100.7749131873967
 20
151.2692119436312
 30
0.0
 10
101.2360811706838
 20
151.5942407613318
 30
0.0
 10
102.2340714171676
 20
152.1592560847227
 30
0.0
 10
102.7738306111599
 20
152.4029596789292
 30
0.0
 10
103.9484235751912
 20
152.8071596065741
 30
0.0
 10
104.5601597611831
 20
152.9595967996197
 30
0.0
 10
105.5120689860448
 20
153.1149243472284
 30
0.0
 10
105.8353021503054
 20
153.1544291272784
 30
0.0
 10
106.4943653215807
 20
153.2077382479471
 30
0.0
 10
106.8284293321547
 20
153.221265965005
 30
0.0
 10
107.1621799395562
 20
153.221265965005
 30
0.0
  0
SPLINE
  5
8C
330
1F
100
AcDbEntity
  8
0
  6
Continuous
 62
     7
370
    15
100
AcDbSpline
210
0.0
220
0.0
230
1.0
 70
     8
 71
     3
 72
    80
 73
    76
 74
     0
 42
0.00000001
 43
0.00000001
 40
-0.0312499999999993
 40
-0.0312499999999993
 40
0.0
 40
0.0
 40
0.03125
 40
0.03125
 40
0.046875
 40
0.046875
 40
0.0625
 40
0.0625
 40
0.09375
 40
0.09375
 40
0.1250000000000001
 40
0.1250000000000001
 40
0.1562500000000001
 40
0.1562500000000001
 40
0.1875000000000001
 40
0.1875000000000001
 40
0.2187500000000002
 40
0.2187500000000002
 40
0.2500000000000002
 40
0.2500000000000002
 40
0.2812500000000003
 40
0.2812500000000003
 40
0.3125000000000003
 40
0.3125000000000003
 40
0.3281250000000004
 40
0.3281250000000004
 40
0.3437500000000006
 40
0.3437500000000006
 40
0.3750000000000011
 40
0.3750000000000011
 40
0.4062500000000016
 40
0.4062500000000016
 40
0.4218750000000018
 40
0.4218750000000018
 40
0.437500000000002
 40
0.437500000000002
 40
0.4687500000000023
 40
0.4687500000000023
 40
0.5000000000000027
 40
0.5000000000000027
 40
0.531250000000003
 40
0.531250000000003
 40
0.5625000000000033
 40
0.5625000000000033
 40
0.5937500000000037
 40
0.5937500000000037
 40
0.6250000000000039
 40
0.6250000000000039
 40
0.6562500000000042
 40
0.6562500000000042
 40
0.6875000000000046
 40
0.6875000000000046
 40
0.7031250000000047
 40
0.7031250000000047
 40
0.7187500000000048
 40
0.7187500000000048
 40
0.7500000000000048
 40
0.7500000000000048
 40
0.7812500000000048
 40
0.7812500000000048
 40
0.7968750000000044
 40
0.7968750000000044
 40
0.8125000000000041
 40
0.8125000000000041
 40
0.8437500000000034
 40
0.8437500000000034
 40
0.8750000000000027
 40
0.8750000000000027
 40
0.906250000000002
 40
0.906250000000002
 40
0.9375000000000013
 40
0.9375000000000013
 40
0.9687500000000007
 40
0.9687500000000007
 40
1.0
 40
1.0
 40
1.03125
 40
1.03125
 10
101.8347584041532
 20
157.6849326677493
 30
0.0
 10
101.1736677786006
 20
157.6849326677493
 30
0.0
 10
100.848687649349
 20
157.7011408991315
 30
0.0
 10
100.3692142381025
 20
157.748505531151
 30
0.0
 10
100.2107324202617
 20
157.7681597430417
 30
0.0
 10
99.89651288775747
 20
157.8152708992343
 30
0.0
 10
99.74039260407706
 20
157.842852218729
 30
0.0
 10
99.2863385751205
 20
157.9353880055228
 30
0.0
 10
98.99923519218065
 20
158.0104584391193
 30
0.0
 10
98.45588063615365
 20
158.1856967477299
 30
0.0
 10
98.19877702494806
 20
158.2866980455682
 30
0.0
 10
97.73787077000928
 20
158.504054244029
 30
0.0
 10
97.53097306079431
 20
158.6212185758013
 30
0.0
 10
97.1654477468021
 20
158.8712885000299
 30
0.0
 10
97.01024222467615
 20
159.0022345887889
 30
0.0
 10
96.76081183807645
 20
159.2679695325013
 30
0.0
 10
96.66472188229127
 20
159.4047231258122
 30
0.0
 10
96.5362030330977
 20
159.6787887006512
 30
0.0
 10
96.50439216291993
 20
159.81372879112
 30
0.0
 10
96.50403551314663
 20
160.0792004281888
 30
0.0
 10
96.53653276534371
 20
160.21102490533
 30
0.0
 10
96.66415823905821
 20
160.4604745049504
 30
0.0
 10
96.75858664011008
 20
160.5789071968784
 30
0.0
 10
96.94644746009564
 20
160.7477763939725
 30
0.0
 10
97.01727545889884
 20
160.8028623890927
 30
0.0
 10
97.17199735086412
 20
160.9081152175811
 30
0.0
 10
97.2559738210475
 20
160.9584504463415
 30
0.0
 10
97.52729749069194
 20
161.1030262788796
 30
0.0
 10
97.73384670929427
 20
161.1908878652966
 30
0.0
 10
98.20045684948329
 20
161.350608958296
 30
0.0
 10
98.45282241910874
 20
161.4198472547633
 30
0.0
 10
98.85872376078747
 20
161.509634643993
 30
0.0
 10
98.99862437826495
 20
161.5372006060793
 30
0.0
 10
99.28784831351189
 20
161.5876914070056
 30
0.0
 10
99.43768776980116
 20
161.6106548458563
 30
0.0
 10
99.89180433941195
 20
161.6712853622751
 30
0.0
 10
100.2034555581488
 20
161.701359391071
 30
0.0
 10
100.8444520230612
 20
161.7419489783296
 30
0.0
 10
101.1759796510133
 20
161.7522612085457
 30
0.0
 10
101.8287706960848
 20
161.7523367757114
 30
0.0
 10
102.1533069011167
 20
161.7424351702437
 30
0.0
 10
102.7985763505331
 20
161.7019486397184
 30
0.0
 10
103.1143193566958
 20
161.6714873398338
 30
0.0
 10
103.7162086516795
 20
161.5913366683971
 30
0.0
 10
104.006957882491
 20
161.54105443659
 30
0.0
 10
104.5538696741755
 20
161.420384253817
 30
0.0
 10
104.8056470380124
 20
161.351160394647
 30
0.0
 10
105.2670350306335
 20
161.1937086670063
 30
0.0
 10
105.4783043102316
 20
161.1043601923326
 30
0.0
 10
105.8416086626078
 20
160.9111123216317
 30
0.0
 10
105.9954153110506
 20
160.8069843297525
 30
0.0
 10
106.184034780648
 20
160.638359943569
 30
0.0
 10
106.2400652668571
 20
160.5797315418941
 30
0.0
 10
106.3356390285932
 20
160.4602766270679
 30
0.0
 10
106.3754019456183
 20
160.3993568382296
 30
0.0
 10
106.4711736959304
 20
160.2129521120558
 30
0.0
 10
106.5038965350565
 20
160.0838392942607
 30
0.0
 10
106.5045251213856
 20
159.8151823713049
 30
0.0
 10
106.4723389766508
 20
159.6798116305481
 30
0.0
 10
106.3774282747952
 20
159.4762613223121
 30
0.0
 10
106.3379614913963
 20
159.4082893982487
 30
0.0
 10
106.2430314926754
 20
159.2721971751178
 30
0.0
 10
106.187274664912
 20
159.2038470749083
 30
0.0
 10
105.9993345469421
 20
159.0031440618662
 30
0.0
 10
105.845973077226
 20
158.8737557880536
 30
0.0
 10
105.4837088423456
 20
158.6250903560037
 30
0.0
 10
105.2728603688797
 20
158.5052807136355
 30
0.0
 10
104.8121903985608
 20
158.2877584260628
 30
0.0
 10
104.5608160189769
 20
158.1886733262269
 30
0.0
 10
104.0149081320788
 20
158.0120008523101
 30
0.0
 10
103.7240855574276
 20
157.935943764176
 30
0.0
 10
103.1227589426476
 20
157.8130987868231
 30
0.0
 10
102.8082403580351
 20
157.7653926617699
 30
0.0
 10
102.1616589019152
 20
157.7011441266503
 30
0.0
 10
101.8347584041532
 20
157.6849326677493
 30
0.0
 10
101.1736677786006
 20
157.6849326677493
 30
0.0
  0
SPLINE
  5
8D
330
1F
100
AcDbEntity
  8
0
  6
Continuous
 62
     7
370
    15
100
AcDbSpline
210
0.0
220
0.0
230
1.0
 70
     8
 71
     3
 72
     8
 73
     4
 74
     0
 42
0.00000001
 43
0.00000001
 40
0.0
 40
0.0
 40
0.0
 40
0.0
 40
1.0
 40
1.0
 40
1.0
 40
1.0
 10
115.7662421122983
 20
65.49530961108924
 30
0.0
 10
115.3151373828981
 20
66.29626954290916
 30
0.0
 10
114.8644395556547
 20
67.09745955446981
 30
0.0
 10
114.4142130913769
 20
67.89891491709457
 30
0.0
  0
LINE
  5
8E
330
1F
100
AcDbEntity
  8
0
  6
Continuous
 62
     7
370
    15
100
AcDbLine
 10
114.4142130914
 20
67.8989149171
 30
0.0
 11
114.4142130914
 21
145.6203032041
 31
0.0
  0
SPLINE
  5
8F
330
1F
100
AcDbEntity
  8
0
  6
Continuous
 62
     7
370
    15
100
AcDbSpline
210
0.0
220
0.0
230
1.0
 70
    24
 71
     3
 72
     8
 73
     4
 74
     0
 42
0.00000001
 43
0.00000001
 40
0.0
 40
0.0
 40
0.0
 40
0.0
 40
1.0
 40
1.0
 40
1.0
 40
1.0
 10
114.4142130913769
 20
145.620303204118
 30
0.0
 10
114.8584259737309
 20
145.620303204118
 30
0.0
 10
115.3094405399701
 20
145.620303204118
 30
0.0
 10
115.7662421122983
 20
145.620303204118
 30
0.0
  0
SPLINE
  5
90
330
1F
100
AcDbEntity
  8
0
  6
Continuous
 62
     7
370
    15
100
AcDbSpline
210
0.0
220
0.0
230
1.0
 70
     8
 71
     3
 72
    12
 73
     8
 74
     0
 42
0.00000001
 43
0.00000001
 40
0.0
 40
0.0
 40
0.0
 40
0.0
 40
0.250000000000003
 40
0.250000000000003
 40
0.500000000000006
 40
0.500000000000006
 40
1.0
 40
1.0
 40
1.0
 40
1.0
 10
111.3942130913769
 20
69.6306277460684
 30
0.0
 10
111.288452438028
 20
69.63062774606838
 30
0.0
 10
111.180464809845
 20
69.60808824006799
 30
0.0
 10
110.9858701445794
 20
69.52351760807265
 30
0.0
 10
110.8969982317406
 20
69.46103595531383
 30
0.0
 10
110.6778059394147
 20
69.23164700384163
 30
0.0
 10
110.5942130913768
 20
69.01906366631921
 30
0.0
 10
110.5942130913769
 20
68.80712442172299
 30
0.0
  0
SPLINE
  5
91
330
1F
100
AcDbEntity
  8
0
  6
Continuous
 62
     7
370
    15
100
AcDbSpline
210
0.0
220
0.0
230
1.0
 70
    24
 71
     3
 72
    14
 73
    10
 74
     0
 42
0.00000001
 43
0.00000001
 40
0.0
 40
0.0
 40
0.0
 40
0.0
 40
0.25
 40
0.25
 40
0.5
 40
0.5
 40
0.75
 40
0.75
 40
1.0
 40
1.0
 40
1.0
 40
1.0
 10
110.5942130913769
 20
145.620303204118
 30
0.0
 10
110.5942130913769
 20
145.620303204118
 30
0.0
 10
110.6099274118429
 20
145.620303204118
 30
0.0
 10
110.6736113903112
 20
145.620303204118
 30
0.0
 10
110.7222145847217
 20
145.620303204118
 30
0.0
 10
110.8548981071473
 20
145.6203032041181
 30
0.0
 10
110.9400002114579
 20
145.620303204118
 30
0.0
 10
111.146442446368
 20
145.620303204118
 30
0.0
 10
111.270523387991
 20
145.620303204118
 30
0.0
 10
111.3942130913769
 20
145.620303204118
 30
0.0
  0
SPLINE
  5
92
330
1F
100
AcDbEntity
  8
0
  6
Continuous
 62
     7
370
    15
100
AcDbSpline
210
0.0
220
0.0
230
1.0
 70
     8
 71
     3
 72
    14
 73
    10
 74
     0
 42
0.00000001
 43
0.00000001
 40
0.0
 40
0.0
 40
0.0
 40
0.0
 40
0.25
 40
0.25
 40
0.5
 40
0.5
 40
0.75
 40
0.75
 40
1.0
 40
1.0
 40
1.0
 40
1.0
 10
114.4142130913769
 20
68.80712442172316
 30
0.0
 10
114.4142130913769
 20
68.91416850271753
 30
0.0
 10
114.3940954042187
 20
69.01940364295997
 30
0.0
 10
114.3156042149531
 20
69.21725412980767
 30
0.0
 10
114.2574475901519
 20
69.30830589337259
 30
0.0
 10
114.1109323345339
 20
69.46147198729737
 30
0.0
 10
114.0222897858928
 20
69.52376643350678
 30
0.0
 10
113.8265664630925
 20
69.60856021904277
 30
0.0
 10
113.7213352720215
 20
69.63062774606838
 30
0.0
 10
113.6142130913769
 20
69.6306277460684
 30
0.0
  0
SPLINE
  5
93
330
1F
100
AcDbEntity
  8
0
  6
Continuous
 62
     7
370
    15
100
AcDbSpline
210
0.0
220
0.0
230
1.0
 70
    24
 71
     3
 72
    14
 73
    10
 74
     0
 42
0.00000001
 43
0.00000001
 40
0.0
 40
0.0
 40
0.0
 40
0.0
 40
0.25
 40
0.25
 40
0.5
 40
0.5
 40
0.75
 40
0.75
 40
1.0
 40
1.0
 40
1.0
 40
1.0
 10
113.6142130913769
 20
145.620303204118
 30
0.0
 10
113.7379828561421
 20
145.620303204118
 30
0.0
 10
113.862349960149
 20
145.620303204118
 30
0.0
 10
114.068706428875
 20
145.620303204118
 30
0.0
 10
114.1540345722934
 20
145.620303204118
 30
0.0
 10
114.2862266310086
 20
145.6203032041181
 30
0.0
 10
114.3348718747592
 20
145.620303204118
 30
0.0
 10
114.3984076664879
 20
145.620303204118
 30
0.0
 10
114.4142130913769
 20
145.620303204118
 30
0.0
 10
114.4142130913769
 20
145.620303204118
 30
0.0
  0
LINE
  5
94
330
1F
100
AcDbEntity
  8
0
  6
Continuous
 62
     7
370
    15
100
AcDbLine
 10
113.6142130914
 20
69.6306277461
 30
0.0
 11
111.3942130914
 21
69.6306277461
 31
0.0
  0
LINE
  5
95
330
1F
100
AcDbEntity
  8
0
  6
Continuous
 62
     7
370
    15
100
AcDbLine
 10
111.3942130914
 20
145.6203032041
 30
0.0
 11
113.6142130914
 21
145.6203032041
 31
0.0
  0
LINE
  5
96
330
1F
100
AcDbEntity
  8
0
  6
Continuous
 62
     7
370
    15
100
AcDbLine
 10
90.0042130914
 20
76.3880517011
 30
0.0
 11
90.0042130914
 21
152.1525547071
 31
0.0
  0
LINE
  5
97
330
1F
100
AcDbEntity
  8
0
  6
Continuous
 62
     7
370
    15
100
AcDbLine
 10
57.7042130914
 20
78.0062881741
 30
0.0
 11
57.7042130914
 21
80.4009699388
 31
0.0
  0
SPLINE
  5
98
330
1F
100
AcDbEntity
  8
0
  6
Continuous
 62
     7
370
    15
100
AcDbSpline
210
0.0
220
0.0
230
1.0
 70
     8
 71
     3
 72
    14
 73
    10
 74
     0
 42
0.00000001
 43
0.00000001
 40
0.0
 40
0.0
 40
0.0
 40
0.0
 40
0.25
 40
0.25
 40
0.5
 40
0.5
 40
0.75
 40
0.75
 40
1.0
 40
1.0
 40
1.0
 40
1.0
 10
56.69979062003996
 20
82.10382186037451
 30
0.0
 10
56.78855919798529
 20
81.94528772906656
 30
0.0
 10
56.9102770366642
 20
81.792845052178
 30
0.0
 10
57.14532664652103
 20
81.49571042834907
 30
0.0
 10
57.26095683273793
 20
81.35102778473171
 30
0.0
 10
57.46136176616573
 20
81.0677385822283
 30
0.0
 10
57.54676205815007
 20
80.92918458919146
 30
0.0
 10
57.66846769186728
 20
80.65780055915792
 30
0.0
 10
57.70421309137993
 20
80.5256646905233
 30
0.0
 10
57.70421309137992
 20
80.40096993875254
 30
0.0
  0
SPLINE
  5
99
330
1F
100
AcDbEntity
  8
0
  6
Continuous
 62
     7
370
    15
100
AcDbSpline
210
0.0
220
0.0
230
1.0
 70
     8
 71
     3
 72
    14
 73
    10
 74
     0
 42
0.00000001
 43
0.00000001
 40
0.0
 40
0.0
 40
0.0
 40
0.0
 40
0.124999999999999
 40
0.124999999999999
 40
0.249999999999998
 40
0.249999999999998
 40
0.5000000000000007
 40
0.5000000000000007
 40
1.0
 40
1.0
 40
1.0
 40
1.0
 10
55.80421309137692
 20
82.73265179947461
 30
0.0
 10
55.87179539116141
 20
82.73980768457601
 30
0.0
 10
55.94428296890931
 20
82.735383214537
 30
0.0
 10
56.07657407817526
 20
82.70567705676665
 30
0.0
 10
56.13385145756543
 20
82.68239277518842
 30
0.0
 10
56.28350188476572
 20
82.6049075353381
 30
0.0
 10
56.35721518028722
 20
82.54305570843673
 30
0.0
 10
56.54502316361346
 20
82.35837825578841
 30
0.0
 10
56.6290634699749
 20
82.23013533249721
 30
0.0
 10
56.69979062004118
 20
82.10382186037461
 30
0.0
  0
SPLINE
  5
9A
330
1F
100
AcDbEntity
  8
0
  6
Continuous
 62
     7
370
    15
100
AcDbSpline
210
0.0
220
0.0
230
1.0
 70
     8
 71
     3
 72
     8
 73
     4
 74
     0
 42
0.00000001
 43
0.00000001
 40
0.0
 40
0.0
 40
0.0
 40
0.0
 40
1.0
 40
1.0
 40
1.0
 40
1.0
 10
52.25957270329614
 20
82.31460321468285
 30
0.0
 10
53.42487101400501
 20
82.46979068656945
 30
0.0
 10
54.60948622804482
 20
82.60614932487978
 30
0.0
 10
55.80421309137689
 20
82.73265179947461
 30
0.0
  0
SPLINE
  5
9B
330
1F
100
AcDbEntity
  8
0
  6
Continuous
 62
     7
370
    15
100
AcDbSpline
210
0.0
220
0.0
230
1.0
 70
     8
 71
     3
 72
    14
 73
    10
 74
     0
 42
0.00000001
 43
0.00000001
 40
0.0
 40
0.0
 40
0.0
 40
0.0
 40
0.5000000000000012
 40
0.5000000000000012
 40
0.7500000000000018
 40
0.7500000000000018
 40
0.8750000000000009
 40
0.8750000000000009
 40
1.0
 40
1.0
 40
1.0
 40
1.0
 10
44.50413820734659
 20
82.0244710355529
 30
0.0
 10
45.81243976988058
 20
82.03148575929401
 30
0.0
 10
47.1174991445377
 20
82.0468943357385
 30
0.0
 10
49.06337519602639
 20
82.10079089120516
 30
0.0
 10
49.71007269976555
 20
82.12382245580787
 30
0.0
 10
50.67391506362009
 20
82.17476498067862
 30
0.0
 10
50.99415375555424
 20
82.19449990291182
 30
0.0
 10
51.63084898189679
 20
82.2439870313834
 30
0.0
 10
51.94756439017978
 20
82.27305181031264
 30
0.0
 10
52.25957270329617
 20
82.31460321468279
 30
0.0
  0
SPLINE
  5
9C
330
1F
100
AcDbEntity
  8
0
  6
Continuous
 62
     7
370
    15
100
AcDbSpline
210
0.0
220
0.0
230
1.0
 70
     8
 71
     3
 72
    12
 73
     8
 74
     0
 42
0.00000001
 43
0.00000001
 40
0.0
 40
0.0
 40
0.0
 40
0.0
 40
0.2500000000000001
 40
0.2500000000000001
 40
0.5000000000000001
 40
0.5000000000000001
 40
1.0
 40
1.0
 40
1.0
 40
1.0
 10
50.80421309137692
 20
146.3568260956145
 30
0.0
 10
50.28551426954873
 20
146.3893488704627
 30
0.0
 10
49.76380269634375
 20
146.4126456116332
 30
0.0
 10
48.71751067984817
 20
146.4504911260553
 30
0.0
 10
48.1928390541779
 20
146.4647596005514
 30
0.0
 10
46.61599303163869
 20
146.4989690880097
 30
0.0
 10
45.5610377170918
 20
146.5104685919536
 30
0.0
 10
44.50413820734657
 20
146.5161353726832
 30
0.0
  0
SPLINE
  5
9D
330
1F
100
AcDbEntity
  8
0
  6
Continuous
 62
     7
370
    15
100
AcDbSpline
210
0.0
220
0.0
230
1.0
 70
     8
 71
     3
 72
    20
 73
    16
 74
     0
 42
0.00000001
 43
0.00000001
 40
0.0
 40
0.0
 40
0.0
 40
0.0
 40
0.2500000000000011
 40
0.2500000000000011
 40
0.5000000000000021
 40
0.5000000000000021
 40
0.7500000000000031
 40
0.7500000000000031
 40
0.8750000000000008
 40
0.8750000000000008
 40
0.9375000000000006
 40
0.9375000000000006
 40
0.9687500000000003
 40
0.9687500000000003
 40
1.0
 40
1.0
 40
1.0
 40
1.0
 10
52.70421309137692
 20
148.0149119411026
 30
0.0
 10
52.70421309137691
 20
147.8792296213558
 30
0.0
 10
52.65550130216029
 20
147.7381426352158
 30
0.0
 10
52.48633987893511
 20
147.4460709164852
 30
0.0
 10
52.36455946501678
 20
147.2944221743948
 30
0.0
 10
52.06701237026729
 20
146.9920137342417
 30
0.0
 10
51.8930997645645
 20
146.8394250981184
 30
0.0
 10
51.57368493068268
 20
146.6141543342761
 30
0.0
 10
51.45864415523542
 20
146.5394312397654
 30
0.0
 10
51.251559831219
 20
146.4400208305084
 30
0.0
 10
51.1754519964126
 20
146.4084557381638
 30
0.0
 10
51.04405745685928
 20
146.3740123539708
 30
0.0
 10
50.99750423785782
 20
146.3649607822032
 30
0.0
 10
50.90117088677709
 20
146.3547851333647
 30
0.0
 10
50.85191146342166
 20
146.3538353746897
 30
0.0
 10
50.80421309137492
 20
146.3568260956043
 30
0.0
  0
LINE
  5
9E
330
1F
100
AcDbEntity
  8
0
  6
Continuous
 62
     7
370
    15
100
AcDbLine
 10
52.7042130914
 20
148.0149119411
 30
0.0
 11
52.7042130914
 21
150.2838172322
 31
0.0
  0
SPLINE
  5
9F
330
1F
100
AcDbEntity
  8
0
  6
Continuous
 62
     7
370
    15
100
AcDbSpline
210
0.0
220
0.0
230
1.0
 70
     8
 71
     3
 72
    22
 73
    18
 74
     0
 42
0.00000001
 43
0.00000001
 40
0.0
 40
0.0
 40
0.0
 40
0.0
 40
0.0002937850458186
 40
0.0628841327416245
 40
0.1261981682954119
 40
0.2510182590426545
 40
0.3131038291609287
 40
0.3757650688901397
 40
0.4382989835656159
 40
0.5000628079113862
 40
0.5617337561138577
 40
0.6246555685552369
 40
0.7491916976530832
 40
0.8115302181310354
 40
0.8745847230190956
 40
0.937822758820794
 40
1.0
 40
1.0
 40
1.0
 40
1.0
 10
71.02416935521634
 20
77.33905794580568
 30
0.0
 10
71.02397450180611
 20
77.3390336384858
 30
0.0
 10
70.98226649832547
 20
77.33383070269898
 30
0.0
 10
71.12752960150942
 20
77.35244491058685
 30
0.0
 10
71.59767577867974
 20
77.40897086118284
 30
0.0
 10
72.56613186126381
 20
77.51519249060829
 30
0.0
 10
73.8785916708252
 20
77.60082529803972
 30
0.0
 10
75.01071537945776
 20
77.63948136413859
 30
0.0
 10
76.23290215607975
 20
77.64314267191708
 30
0.0
 10
77.50020054360911
 20
77.60075725714724
 30
0.0
 10
78.7669121978422
 20
77.51238027947188
 30
0.0
 10
80.38257019370675
 20
77.34233115084804
 30
0.0
 10
81.82253280373038
 20
77.12014941629458
 30
0.0
 10
82.88840195989428
 20
76.91715330816004
 30
0.0
 10
83.47760234333222
 20
76.7931278752107
 30
0.0
 10
83.86632185862281
 20
76.70820703476579
 30
0.0
 10
83.91310757145222
 20
76.69748031696146
 30
0.0
 10
83.93630256507949
 20
76.69216232272633
 30
0.0
  0
SPLINE
  5
A0
330
1F
100
AcDbEntity
  8
0
  6
Continuous
 62
     7
370
    15
100
AcDbSpline
210
0.0
220
0.0
230
1.0
 70
     8
 71
     3
 72
    41
 73
    37
 74
     0
 42
0.00000001
 43
0.00000001
 40
0.0
 40
0.0
 40
0.0
 40
0.0
 40
0.0619930061482746
 40
0.1254347783466151
 40
0.1886508898234768
 40
0.2510246408607227
 40
0.3131658188976554
 40
0.3756581641417402
 40
0.4382227146727798
 40
0.4998044922940677
 40
0.56151641971787
 40
0.6240683094121985
 40
0.686725723240935
 40
0.7488365305144522
 40
0.8110685944253986
 40
0.8741742884451361
 40
0.9373212787645211
 40
0.9685511709617411
 40
0.9842086872487193
 40
0.9920641182531791
 40
0.996000486125535
 40
0.9979710794120144
 40
0.9989570090489596
 40
0.9994501359395065
 40
0.9996967403802177
 40
0.9998200529090742
 40
0.9998817117580818
 40
0.999912541829664
 40
0.9999279570273361
 40
0.9999356646666602
 40
0.9999395184964466
 40
0.9999414454138695
 40
0.9999424088732151
 40
0.9999433723329806
 40
0.9999501697010513
 40
1.0
 40
1.0
 40
1.0
 40
1.0
 10
83.93618123460149
 20
151.8483990675582
 30
0.0
 10
83.9126095892579
 20
151.8430895879084
 30
0.0
 10
83.86491543321283
 20
151.8323465469688
 30
0.0
 10
83.4728734437873
 20
151.7471174105134
 30
0.0
 10
82.88235939451708
 20
151.6225486318726
 30
0.0
 10
82.078321948472
 20
151.4696016857208
 30
0.0
 10
81.10224654829047
 20
151.3078451317672
 30
0.0
 10
79.98043781300998
 20
151.155612363835
 30
0.0
 10
78.76690689322272
 20
151.0278324226337
 30
0.0
 10
77.50207618682352
 20
150.939983870951
 30
0.0
 10
76.23403314938079
 20
150.8975983870804
 30
0.0
 10
75.01052579167967
 20
150.901334195052
 30
0.0
 10
73.87702725126566
 20
150.9399296655002
 30
0.0
 10
72.89092144029146
 20
151.0043690367913
 30
0.0
 10
72.08229363150424
 20
151.0778788440725
 30
0.0
 10
71.48567493639504
 20
151.1451925288843
 30
0.0
 10
71.17028364693698
 20
151.1831570801522
 30
0.0
 10
71.06021707813905
 20
151.1969561394841
 30
0.0
 10
71.03279769032484
 20
151.2004422134047
 30
0.0
 10
71.02587563949535
 20
151.2013214390981
 30
0.0
 10
71.02410739931192
 20
151.2015422137044
 30
0.0
 10
71.02364702013857
 20
151.2015974164152
 30
0.0
 10
71.02352286145374
 20
151.2016111562022
 30
0.0
 10
71.02348730696059
 20
151.2016145520332
 30
0.0
 10
71.02347616289049
 20
151.2016153803535
 30
0.0
 10
71.02347224969438
 20
151.2016155769423
 30
0.0
 10
71.02347070748957
 20
151.2016156208724
 30
0.0
 10
71.02347004048805
 20
151.2016156291791
 30
0.0
 10
71.0234697323103
 20
151.2016156300094
 30
0.0
 10
71.02346958554423
 20
151.2016156294642
 30
0.0
 10
71.02346951259179
 20
151.2016156291343
 30
0.0
 10
71.0234694781994
 20
151.2016156286971
 30
0.0
 10
71.02346945595426
 20
151.2016156287856
 30
0.0
 10
71.02346942884482
 20
151.2016156259506
 30
0.0
 10
71.02346690928346
 20
151.2016159128057
 30
0.0
 10
71.02350299920151
 20
151.2016112927051
 30
0.0
 10
71.02353475702415
 20
151.2016072271836
 30
0.0
  0
SPLINE
  5
A1
330
1F
100
AcDbEntity
  8
0
  6
Continuous
 62
     7
370
    15
100
AcDbSpline
210
0.0
220
0.0
230
1.0
 70
     8
 71
     3
 72
    20
 73
    16
 74
     0
 42
0.00000001
 43
0.00000001
 40
0.0
 40
0.0
 40
0.0
 40
0.0
 40
0.249999999999986
 40
0.249999999999986
 40
0.3749999999999789
 40
0.3749999999999789
 40
0.4374999999999789
 40
0.4374999999999789
 40
0.4999999999999789
 40
0.4999999999999789
 40
0.6249999999999835
 40
0.6249999999999835
 40
0.7499999999999879
 40
0.7499999999999879
 40
1.0
 40
1.0
 40
1.0
 40
1.0
 10
42.89502732309293
 20
83.59182005141733
 30
0.0
 10
42.92129954030634
 20
83.61113799249979
 30
0.0
 10
42.95197968256117
 20
83.62552670360157
 30
0.0
 10
43.0234505529431
 20
83.61862234176556
 30
0.0
 10
43.05147758998743
 20
83.61145633841714
 30
0.0
 10
43.10656117948494
 20
83.58175731171355
 30
0.0
 10
43.12745250803737
 20
83.56828366915221
 30
0.0
 10
43.17266115548282
 20
83.5330854036362
 30
0.0
 10
43.1970653678784
 20
83.51117717490894
 30
0.0
 10
43.26839768592986
 20
83.43905231491338
 30
0.0
 10
43.31029447075011
 20
83.38671177396334
 30
0.0
 10
43.38187042960599
 20
83.2892283820626
 30
0.0
 10
43.4126984194233
 20
83.24247461218418
 30
0.0
 10
43.49579835225887
 20
83.10918139634506
 30
0.0
 10
43.54065325762917
 20
83.02654399842984
 30
0.0
 10
43.58076533308175
 20
82.94743710363907
 30
0.0
  0
SPLINE
  5
A2
330
1F
100
AcDbEntity
  8
0
  6
Continuous
 62
     7
370
    15
100
AcDbSpline
210
0.0
220
0.0
230
1.0
 70
     8
 71
     3
 72
     8
 73
     4
 74
     0
 42
0.00000001
 43
0.00000001
 40
0.0
 40
0.0
 40
0.0
 40
0.0
 40
1.0
 40
1.0
 40
1.0
 40
1.0
 10
42.60421309137693
 20
83.7676334615501
 30
0.0
 10
42.60421309137693
 20
83.74235340432276
 30
0.0
 10
42.60739989581116
 20
83.7187538350847
 30
0.0
 10
42.61350289275859
 20
83.69717639339268
 30
0.0
  0
SPLINE
  5
A3
330
1F
100
AcDbEntity
  8
0
  6
Continuous
 62
     7
370
    15
100
AcDbSpline
210
0.0
220
0.0
230
1.0
 70
     8
 71
     3
 72
     9
 73
     5
 74
     0
 42
0.00000001
 43
0.00000001
 40
0.0
 40
0.0
 40
0.0
 40
0.0
 40
0.7766521846938914
 40
0.9999999999999999
 40
0.9999999999999999
 40
0.9999999999999999
 40
0.9999999999999999
 10
42.68954371787066
 20
83.65259132852763
 30
0.0
 10
42.73273084416424
 20
83.60039320714193
 30
0.0
 10
42.78833762303473
 20
83.53318407232663
 30
0.0
 10
42.87554887949668
 20
83.58111482296995
 30
0.0
 10
42.89502732309758
 20
83.59182005141213
 30
0.0
  0
LINE
  5
A4
330
1F
100
AcDbEntity
  8
0
  6
Continuous
 62
     7
370
    15
100
AcDbLine
 10
42.6042130914
 20
83.7676334616
 30
0.0
 11
42.6042130914
 21
144.7729729467
 31
0.0
  0
SPLINE
  5
A5
330
1F
100
AcDbEntity
  8
0
  6
Continuous
 62
     7
370
    15
100
AcDbSpline
210
0.0
220
0.0
230
1.0
 70
     8
 71
     3
 72
     9
 73
     5
 74
     0
 42
0.00000001
 43
0.00000001
 40
0.0
 40
0.0
 40
0.0
 40
0.0
 40
0.0592950272321202
 40
1.0
 40
1.0
 40
1.0
 40
1.0
 10
42.89502732309757
 20
144.9487863568239
 30
0.0
 10
42.89014448163537
 20
144.9520792022174
 30
0.0
 10
42.80779623608903
 20
145.007612449223
 30
0.0
 10
42.74166418560748
 20
144.9503230467105
 30
0.0
 10
42.67945343686019
 20
144.8964306208801
 30
0.0
  0
SPLINE
  5
A6
330
1F
100
AcDbEntity
  8
0
  6
Continuous
 62
     7
370
    15
100
AcDbSpline
210
0.0
220
0.0
230
1.0
 70
     8
 71
     3
 72
     8
 73
     4
 74
     0
 42
0.00000001
 43
0.00000001
 40
0.0
 40
0.0
 40
0.0
 40
0.0
 40
1.0
 40
1.0
 40
1.0
 40
1.0
 10
42.62784676031313
 20
144.8805524477556
 30
0.0
 10
42.61249772167709
 20
144.8500423927597
 30
0.0
 10
42.60421309137693
 20
144.8137308372474
 30
0.0
 10
42.60421309137693
 20
144.7729729466859
 30
0.0
  0
SPLINE
  5
A7
330
1F
100
AcDbEntity
  8
0
  6
Continuous
 62
     7
370
    15
100
AcDbSpline
210
0.0
220
0.0
230
1.0
 70
     8
 71
     3
 72
    20
 73
    16
 74
     0
 42
0.00000001
 43
0.00000001
 40
0.0
 40
0.0
 40
0.0
 40
0.0
 40
0.2500000000000037
 40
0.2500000000000037
 40
0.3750000000000055
 40
0.3750000000000055
 40
0.5000000000000073
 40
0.5000000000000073
 40
0.5625000000000057
 40
0.5625000000000057
 40
0.625000000000004
 40
0.625000000000004
 40
0.7500000000000027
 40
0.7500000000000027
 40
1.0
 40
1.0
 40
1.0
 40
1.0
 10
43.58076533307933
 20
145.5931693045962
 30
0.0
 10
43.54076911525551
 20
145.5142908980388
 30
0.0
 10
43.49565548741785
 20
145.4311612513472
 30
0.0
 10
43.41240127305132
 20
145.2976725869963
 30
0.0
 10
43.38218194443083
 20
145.2518075311143
 30
0.0
 10
43.3100937092894
 20
145.1536159787094
 30
0.0
 10
43.26817639187833
 20
145.1013061591858
 30
0.0
 10
43.19692578732685
 20
145.0293002564513
 30
0.0
 10
43.17268997494754
 20
145.0075300441498
 30
0.0
 10
43.1270917847629
 20
144.9720553858208
 30
0.0
 10
43.10628929516318
 20
144.9586852016432
 30
0.0
 10
43.05134829674407
 20
144.929115289508
 30
0.0
 10
43.02327930865724
 20
144.921988767206
 30
0.0
 10
42.95277647859442
 20
144.9151143957233
 30
0.0
 10
42.92135239080354
 20
144.9294295548105
 30
0.0
 10
42.89502732309494
 20
144.948786356821
 30
0.0
  0
SPLINE
  5
A8
330
1F
100
AcDbEntity
  8
0
  6
Continuous
 62
     7
370
    15
100
AcDbSpline
210
0.0
220
0.0
230
1.0
 70
     8
 71
     3
 72
    10
 73
     6
 74
     0
 42
0.00000001
 43
0.00000001
 40
0.0
 40
0.0
 40
0.0
 40
0.0
 40
0.4999999999999989
 40
0.4999999999999989
 40
1.0
 40
1.0
 40
1.0
 40
1.0
 10
44.25421309137692
 20
146.518588405938
 30
0.0
 10
44.12932482062673
 20
146.3875921278666
 30
0.0
 10
44.00787470256628
 20
146.2438792912016
 30
0.0
 10
43.77829072760886
 20
145.9333089985123
 30
0.0
 10
43.66801575221288
 20
145.7652399254493
 30
0.0
 10
43.58076533307935
 20
145.5931693045962
 30
0.0
  0
SPLINE
  5
A9
330
1F
100
AcDbEntity
  8
0
  6
Continuous
 62
     7
370
    15
100
AcDbSpline
210
0.0
220
0.0
230
1.0
 70
     8
 71
     3
 72
     8
 73
     4
 74
     0
 42
0.00000001
 43
0.00000001
 40
0.0
 40
0.0
 40
0.0
 40
0.0
 40
1.0
 40
1.0
 40
1.0
 40
1.0
 10
44.5041382073427
 20
146.5161353726826
 30
0.0
 10
44.41712017749433
 20
146.5166019374697
 30
0.0
 10
44.33416615111438
 20
146.5176419570458
 30
0.0
 10
44.25421309137462
 20
146.5185884059381
 30
0.0
  0
SPLINE
  5
AA
330
1F
100
AcDbEntity
  8
0
  6
Continuous
 62
     7
370
    15
100
AcDbSpline
210
0.0
220
0.0
230
1.0
 70
     8
 71
     3
 72
     8
 73
     4
 74
     0
 42
0.00000001
 43
0.00000001
 40
0.0
 40
0.0
 40
0.0
 40
0.0
 40
1.0
 40
1.0
 40
1.0
 40
1.0
 10
44.25421309137462
 20
82.02201800229795
 30
0.0
 10
44.33416615111438
 20
82.02296445119023
 30
0.0
 10
44.41712017749433
 20
82.02400447076636
 30
0.0
 10
44.50413820734271
 20
82.0244710355534
 30
0.0
  0
SPLINE
  5
AB
330
1F
100
AcDbEntity
  8
0
  6
Continuous
 62
     7
370
    15
100
AcDbSpline
210
0.0
220
0.0
230
1.0
 70
     8
 71
     3
 72
    10
 73
     6
 74
     0
 42
0.00000001
 43
0.00000001
 40
0.0
 40
0.0
 40
0.0
 40
0.0
 40
0.4999999999999989
 40
0.4999999999999989
 40
1.0
 40
1.0
 40
1.0
 40
1.0
 10
43.58076533307842
 20
82.94743710364163
 30
0.0
 10
43.66801575221191
 20
82.77536648278827
 30
0.0
 10
43.77829072760805
 20
82.60729740972484
 30
0.0
 10
44.0078747025659
 20
82.296727117035
 30
0.0
 10
44.12932482062654
 20
82.15301428036973
 30
0.0
 10
44.25421309137692
 20
82.02201800229803
 30
0.0
  0
SPLINE
  5
AC
330
1F
100
AcDbEntity
  8
0
  6
Continuous
 62
     7
370
    15
100
AcDbSpline
210
0.0
220
0.0
230
1.0
 70
     8
 71
     3
 72
    12
 73
     8
 74
     0
 42
0.00000001
 43
0.00000001
 40
0.0
 40
0.0
 40
0.0
 40
0.0
 40
0.5
 40
0.5
 40
0.75
 40
0.75
 40
1.0
 40
1.0
 40
1.0
 40
1.0
 10
121.4542130913769
 20
162.2390430249639
 30
0.0
 10
121.4542130913769
 20
162.5043124577303
 30
0.0
 10
121.3496063478905
 20
162.7668275633827
 30
0.0
 10
121.0729379961452
 20
163.0523651694199
 30
0.0
 10
120.9625727367932
 20
163.1286867862813
 30
0.0
 10
120.7185006881774
 20
163.2330289511215
 30
0.0
 10
120.5867482268457
 20
163.2600980597816
 30
0.0
 10
120.4542130913769
 20
163.2600980597816
 30
0.0
  0
SPLINE
  5
AD
330
1F
100
AcDbEntity
  8
0
  6
Continuous
 62
     7
370
    15
100
AcDbSpline
210
0.0
220
0.0
230
1.0
 70
     8
 71
     3
 72
    16
 73
    12
 74
     0
 42
0.00000001
 43
0.00000001
 40
0.0
 40
0.0
 40
0.0
 40
0.0
 40
0.125
 40
0.125
 40
0.25
 40
0.25
 40
0.5
 40
0.5
 40
0.75
 40
0.75
 40
1.0
 40
1.0
 40
1.0
 40
1.0
 10
120.4542130913759
 20
153.221265965005
 30
0.0
 10
120.5298507977872
 20
153.2212659650051
 30
0.0
 10
120.6061664622054
 20
153.2099209648702
 30
0.0
 10
120.7505772000975
 20
153.1672684142318
 30
0.0
 10
120.819023649206
 20
153.136334089549
 30
0.0
 10
121.0139549018194
 20
153.0170777177815
 30
0.0
 10
121.1217960756004
 20
152.9069257041609
 30
0.0
 10
121.2905088238126
 20
152.6587896185028
 30
0.0
 10
121.3528732365362
 20
152.5184472944991
 30
0.0
 10
121.4341771610447
 20
152.2301756030103
 30
0.0
 10
121.4542130913769
 20
152.0793706300304
 30
0.0
 10
121.4542130913769
 20
151.929000738685
 30
0.0
  0
LINE
  5
AE
330
1F
100
AcDbEntity
  8
0
  6
Continuous
 62
     7
370
    15
100
AcDbLine
 10
121.4542130914
 20
151.9290007387
 30
0.0
 11
121.4542130914
 21
162.239043025
 31
0.0
  0
SPLINE
  5
AF
330
1F
100
AcDbEntity
  8
0
  6
Continuous
 62
     7
370
    15
100
AcDbSpline
210
0.0
220
0.0
230
1.0
 70
     8
 71
     3
 72
     8
 73
     4
 74
     0
 42
0.00000001
 43
0.00000001
 40
0.0
 40
0.0
 40
0.0
 40
0.0
 40
1.0
 40
1.0
 40
1.0
 40
1.0
 10
115.7662421122983
 20
163.2600980597816
 30
0.0
 10
115.3152151435851
 20
162.4627874895937
 30
0.0
 10
114.8645213270615
 20
161.6652891899365
 30
0.0
 10
114.4142130913769
 20
160.8675740648229
 30
0.0
  0
LINE
  5
B0
330
1F
100
AcDbEntity
  8
0
  6
Continuous
 62
     7
370
    15
100
AcDbLine
 10
115.7662421123
 20
153.221265965
 30
0.0
 11
115.7662421123
 21
163.2600980598
 31
0.0
  0
SPLINE
  5
B1
330
1F
100
AcDbEntity
  8
0
  6
Continuous
 62
     7
370
    15
100
AcDbSpline
210
0.0
220
0.0
230
1.0
 70
     8
 71
     3
 72
     8
 73
     4
 74
     0
 42
0.00000001
 43
0.00000001
 40
0.0
 40
0.0
 40
0.0
 40
0.0
 40
1.0
 40
1.0
 40
1.0
 40
1.0
 10
114.4142130913769
 20
150.1657507102559
 30
0.0
 10
114.8583631024024
 20
151.1871339412075
 30
0.0
 10
115.3094374126603
 20
152.2056184779759
 30
0.0
 10
115.7662421122983
 20
153.221265965005
 30
0.0
  0
LINE
  5
B2
330
1F
100
AcDbEntity
  8
0
  6
Continuous
 62
     7
370
    15
100
AcDbLine
 10
114.4142130914
 20
150.1657507103
 30
0.0
 11
114.4142130914
 21
160.8675740648
 31
0.0
  0
SPLINE
  5
B3
330
1F
100
AcDbEntity
  8
0
  6
Continuous
 62
     7
370
    15
100
AcDbSpline
210
0.0
220
0.0
230
1.0
 70
     8
 71
     3
 72
     8
 73
     4
 74
     0
 42
0.00000001
 43
0.00000001
 40
0.0
 40
0.0
 40
0.0
 40
0.0
 40
1.0
 40
1.0
 40
1.0
 40
1.0
 10
109.2421840704555
 20
153.221265965005
 30
0.0
 10
109.6991104242551
 20
152.2053479953306
 30
0.0
 10
110.1503160660581
 20
151.1865521662395
 30
0.0
 10
110.5942130913769
 20
150.1657507102559
 30
0.0
  0
LINE
  5
B4
330
1F
100
AcDbEntity
  8
0
  6
Continuous
 62
     7
370
    15
100
AcDbLine
 10
110.5942130914
 20
150.1657507103
 30
0.0
 11
110.5942130914
 21
148.9845383966
 31
0.0
  0
SPLINE
  5
B5
330
1F
100
AcDbEntity
  8
0
  6
Continuous
 62
     7
370
    15
100
AcDbSpline
210
0.0
220
0.0
230
1.0
 70
     8
 71
     3
 72
    14
 73
    10
 74
     0
 42
0.00000001
 43
0.00000001
 40
0.0
 40
0.0
 40
0.0
 40
0.0
 40
0.25
 40
0.25
 40
0.5
 40
0.5
 40
0.75
 40
0.75
 40
1.0
 40
1.0
 40
1.0
 40
1.0
 10
110.5942130913769
 20
148.9845383966151
 30
0.0
 10
110.5942130913769
 20
148.8606715198258
 30
0.0
 10
110.6100722190045
 20
148.7364118429884
 30
0.0
 10
110.6734338645244
 20
148.4988034805825
 30
0.0
 10
110.7220235725738
 20
148.38202309583
 30
0.0
 10
110.8543091773486
 20
148.173220567221
 30
0.0
 10
110.9396339686092
 20
148.0787098636284
 30
0.0
 10
111.1465252169154
 20
147.9407530628261
 30
0.0
 10
111.2704931628054
 20
147.8988346171904
 30
0.0
 10
111.3942130913769
 20
147.8988346171904
 30
0.0
  0
LINE
  5
B6
330
1F
100
AcDbEntity
  8
0
  6
Continuous
 62
     7
370
    15
100
AcDbLine
 10
111.3942130914
 20
147.8988346172
 30
0.0
 11
113.6142130914
 21
147.8988346172
 31
0.0
  0
SPLINE
  5
B7
330
1F
100
AcDbEntity
  8
0
  6
Continuous
 62
     7
370
    15
100
AcDbSpline
210
0.0
220
0.0
230
1.0
 70
     8
 71
     3
 72
    12
 73
     8
 74
     0
 42
0.00000001
 43
0.00000001
 40
0.0
 40
0.0
 40
0.0
 40
0.0
 40
0.250000000000002
 40
0.250000000000002
 40
0.500000000000004
 40
0.500000000000004
 40
1.0
 40
1.0
 40
1.0
 40
1.0
 10
113.614213091379
 20
147.8988346171905
 30
0.0
 10
113.7379140413588
 20
147.898834617191
 30
0.0
 10
113.8620106536287
 20
147.9408282289238
 30
0.0
 10
114.0686658167151
 20
148.0786235555684
 30
0.0
 10
114.1537065834417
 20
148.1725971540332
 30
0.0
 10
114.3531851519148
 20
148.487385360254
 30
0.0
 10
114.4142130913769
 20
148.7376243524812
 30
0.0
 10
114.4142130913769
 20
148.9845383966151
 30
0.0
  0
LINE
  5
B8
330
1F
100
AcDbEntity
  8
0
  6
Continuous
 62
     7
370
    15
100
AcDbLine
 10
114.4142130914
 20
148.9845383966
 30
0.0
 11
114.4142130914
 21
150.1657507103
 31
0.0
  0
LINE
  5
B9
330
1F
100
AcDbEntity
  8
0
  6
Continuous
 62
     7
370
    15
100
AcDbLine
 10
115.7662421123
 20
153.221265965
 30
0.0
 11
120.4542130914
 21
153.221265965
 31
0.0
  0
LINE
  5
BA
330
1F
100
AcDbEntity
  8
0
  6
Continuous
 62
     7
370
    15
100
AcDbLine
 10
121.4542130914
 20
151.9290007387
 30
0.0
 11
121.4542130914
 21
145.6203032041
 31
0.0
  0
SPLINE
  5
BB
330
1F
100
AcDbEntity
  8
0
  6
Continuous
 62
     7
370
    15
100
AcDbSpline
210
0.0
220
0.0
230
1.0
 70
     8
 71
     3
 72
     8
 73
     4
 74
     0
 42
0.00000001
 43
0.00000001
 40
0.0
 40
0.0
 40
0.0
 40
0.0
 40
1.0
 40
1.0
 40
1.0
 40
1.0
 10
110.5942130913769
 20
160.8675740648229
 30
0.0
 10
110.1439048556924
 20
161.6652891899365
 30
0.0
 10
109.6932110391688
 20
162.4627874895937
 30
0.0
 10
109.2421840704555
 20
163.2600980597816
 30
0.0
  0
LINE
  5
BC
330
1F
100
AcDbEntity
  8
0
  6
Continuous
 62
     7
370
    15
100
AcDbLine
 10
110.5942130914
 20
150.1657507103
 30
0.0
 11
110.5942130914
 21
160.8675740648
 31
0.0
  0
LINE
  5
BD
330
1F
100
AcDbEntity
  8
0
  6
Continuous
 62
     7
370
    15
100
AcDbLine
 10
120.4542130914
 20
163.2600980598
 30
0.0
 11
115.7662421123
 21
163.2600980598
 31
0.0
  0
SPLINE
  5
BE
330
1F
100
AcDbEntity
  8
0
  6
Continuous
 62
     7
370
    15
100
AcDbSpline
210
0.0
220
0.0
230
1.0
 70
     8
 71
     3
 72
    14
 73
    10
 74
     0
 42
0.00000001
 43
0.00000001
 40
0.0
 40
0.0
 40
0.0
 40
0.0
 40
0.25
 40
0.25
 40
0.5
 40
0.5
 40
0.75
 40
0.75
 40
1.0
 40
1.0
 40
1.0
 40
1.0
 10
114.4142130913769
 20
159.963854444966
 30
0.0
 10
114.4142130913769
 20
159.8574977512136
 30
0.0
 10
114.3938255352357
 20
159.7516572634535
 30
0.0
 10
114.3151911897741
 20
159.555092349917
 30
0.0
 10
114.2564598301355
 20
159.4639216076299
 30
0.0
 10
114.1098509245328
 20
159.3120105185983
 30
0.0
 10
114.0204456045063
 20
159.2499416817787
 30
0.0
 10
113.8265548719059
 20
159.16667363402
 30
0.0
 10
113.720049882016
 20
159.1445789642904
 30
0.0
 10
113.6142130913767
 20
159.1445789642904
 30
0.0
  0
SPLINE
  5
BF
330
1F
100
AcDbEntity
  8
0
  6
Continuous
 62
     7
370
    15
100
AcDbSpline
210
0.0
220
0.0
230
1.0
 70
     8
 71
     3
 72
    10
 73
     6
 74
     0
 42
0.00000001
 43
0.00000001
 40
0.0
 40
0.0
 40
0.0
 40
0.0
 40
0.5
 40
0.5
 40
1.0
 40
1.0
 40
1.0
 40
1.0
 10
111.3942130913769
 20
159.1445789642905
 30
0.0
 10
111.1816767775206
 20
159.1445789642905
 30
0.0
 10
110.9717406058666
 20
159.2359915509207
 30
0.0
 10
110.6780334648553
 20
159.5407364168249
 30
0.0
 10
110.5942130913769
 20
159.7528913867335
 30
0.0
 10
110.5942130913769
 20
159.963854444966
 30
0.0
  0
LINE
  5
C0
330
1F
100
AcDbEntity
  8
0
  6
Continuous
 62
     7
370
    15
100
AcDbLine
 10
113.6142130914
 20
159.1445789643
 30
0.0
 11
111.3942130914
 21
159.1445789643
 31
0.0
  0
ARC
  5
C1
330
1F
100
AcDbEntity
  8
0
  6
Continuous
 62
     7
370
    15
100
AcDbCircle
 10
101.5042797375
 20
146.8358737051
 30
0.0
 40
11.45027678818741
100
AcDbArc
 50
77.9103159805
 51
102.108234864
  0
SPLINE
  5
C2
330
1F
100
AcDbEntity
  8
0
  6
Continuous
 62
     7
370
    15
100
AcDbSpline
210
0.0
220
0.0
230
1.0
 70
     8
 71
     3
 72
    39
 73
    35
 74
     0
 42
0.00000001
 43
0.00000001
 40
-0.092809842115776
 40
-0.061703430605916
 40
-0.0305299624231262
 40
0.0
 40
0.03055386458138
 40
0.0617342229577266
 40
0.0928524521286976
 40
0.123944273203094
 40
0.1551263163328239
 40
0.1867203328768977
 40
0.2185055218166027
 40
0.2499267493270291
 40
0.2813715591295641
 40
0.3132224564731803
 40
0.3448874983135134
 40
0.3761203570732669
 40
0.4072073710856716
 40
0.4382796783015858
 40
0.4694125787356574
 40
0.5000112827606773
 40
0.5306014508053988
 40
0.5617732316877544
 40
0.592857735199274
 40
0.6239624052470868
 40
0.6551724327539064
 40
0.686818730605202
 40
0.7186212033203072
 40
0.750067166959676
 40
0.7814821074169105
 40
0.8133060958935616
 40
0.8449172376400705
 40
0.8761199144779256
 40
0.907190157884224
 40
0.938296569394084
 40
0.9694700375768738
 40
1.0
 40
1.03055386458138
 40
1.061734222957727
 40
1.092852452128698
 10
231.667163902427
 20
108.2766216038713
 30
0.0
 10
230.50390652264
 20
108.1578087974918
 30
0.0
 10
229.3405936486948
 20
108.2768413909868
 30
0.0
 10
228.2239549618836
 20
108.6340561970871
 30
0.0
 10
227.192288749176
 20
109.1951190910933
 30
0.0
 10
226.2974230686496
 20
109.9513335583552
 30
0.0
 10
225.5623886814496
 20
110.871339547233
 30
0.0
 10
225.0181405829675
 20
111.9286355293989
 30
0.0
 10
224.6724267689286
 20
113.0745373648605
 30
0.0
 10
224.5579992320757
 20
114.2677648152561
 30
0.0
 10
224.673077696755
 20
115.4617400482943
 30
0.0
 10
225.0190953608451
 20
116.609615388503
 30
0.0
 10
225.5635171776653
 20
117.669472902021
 30
0.0
 10
226.2990423817784
 20
118.5909825913187
 30
0.0
 10
227.1935420159874
 20
119.3475743761724
 30
0.0
 10
228.223978846058
 20
119.9083997477999
 30
0.0
 10
229.3404094206312
 20
120.2645238975951
 30
0.0
 10
230.5044921441445
 20
120.3826132429796
 30
0.0
 10
231.6690330536898
 20
120.2641714225918
 30
0.0
 10
232.7858281338449
 20
119.907451322074
 30
0.0
 10
233.8169586804266
 20
119.3461098464986
 30
0.0
 10
234.711233851813
 20
118.5890722961668
 30
0.0
 10
235.4461870721346
 20
117.6675204460186
 30
0.0
 10
235.9899586860306
 20
116.6085810115112
 30
0.0
 10
236.3353387905325
 20
115.4613997691153
 30
0.0
 10
236.4504113370218
 20
114.2681259162369
 30
0.0
 10
236.3360779735013
 20
113.0744486986519
 30
0.0
 10
235.9899430662678
 20
111.928006434033
 30
0.0
 10
235.4452317887816
 20
110.8698748432251
 30
0.0
 10
234.709694226565
 20
109.9499760743643
 30
0.0
 10
233.814631777382
 20
109.1942556341896
 30
0.0
 10
232.7832793972559
 20
108.6337114149571
 30
0.0
 10
231.667163902427
 20
108.2766216038713
 30
0.0
 10
230.50390652264
 20
108.1578087974918
 30
0.0
 10
229.3405936486948
 20
108.2768413909868
 30
0.0
  0
LINE
  5
C3
330
1F
100
AcDbEntity
  8
0
  6
Continuous
 62
     7
370
    15
100
AcDbLine
 10
238.5649181081
 20
91.7703032041
 30
0.0
 11
238.5649181081
 21
136.7703032041
 31
0.0
  0
SPLINE
  5
C4
330
1F
100
AcDbEntity
  8
0
  6
Continuous
 62
     7
370
    15
100
AcDbSpline
210
0.0
220
0.0
230
1.0
 70
     8
 71
     3
 72
    70
 73
    66
 74
     0
 42
0.00000001
 43
0.00000001
 40
-0.03125
 40
-0.03125
 40
0.0
 40
0.0
 40
0.03125
 40
0.03125
 40
0.0625
 40
0.0625
 40
0.09375
 40
0.09375
 40
0.125
 40
0.125
 40
0.15625
 40
0.15625
 40
0.1875
 40
0.1875
 40
0.21875
 40
0.21875
 40
0.25
 40
0.25
 40
0.28125
 40
0.28125
 40
0.3125
 40
0.3125
 40
0.34375
 40
0.34375
 40
0.375
 40
0.375
 40
0.40625
 40
0.40625
 40
0.4375
 40
0.4375
 40
0.46875
 40
0.46875
 40
0.5
 40
0.5
 40
0.53125
 40
0.53125
 40
0.5625
 40
0.5625
 40
0.59375
 40
0.59375
 40
0.625
 40
0.625
 40
0.65625
 40
0.65625
 40
0.6875
 40
0.6875
 40
0.71875
 40
0.71875
 40
0.75
 40
0.75
 40
0.78125
 40
0.78125
 40
0.8125
 40
0.8125
 40
0.84375
 40
0.84375
 40
0.875
 40
0.875
 40
0.90625
 40
0.90625
 40
0.9375
 40
0.9375
 40
0.96875
 40
0.96875
 40
1.0
 40
1.0
 40
1.03125
 40
1.03125
 10
158.9264808418617
 20
116.4338801312558
 30
0.0
 10
159.2647843068967
 20
116.7101012023711
 30
0.0
 10
159.4443050686337
 20
116.8299727987322
 30
0.0
 10
159.8222180902956
 20
117.0366866049612
 30
0.0
 10
160.0220237587523
 20
117.1239429977999
 30
0.0
 10
160.434523503205
 20
117.262780012015
 30
0.0
 10
160.6444231854809
 20
117.3137067350253
 30
0.0
 10
161.0712138013129
 20
117.380235395892
 30
0.0
 10
161.290118109001
 20
117.3957240716187
 30
0.0
 10
161.7242269167198
 20
117.389799441787
 30
0.0
 10
161.9388600512692
 20
117.3688060912197
 30
0.0
 10
162.3633323627626
 20
117.2910778629455
 30
0.0
 10
162.5752157254957
 20
117.2335011040868
 30
0.0
 10
162.981911814236
 20
117.083922195157
 30
0.0
 10
163.176626545334
 20
116.9924689462806
 30
0.0
 10
163.5484467207333
 20
116.7754268575907
 30
0.0
 10
163.7274402544124
 20
116.6480777267638
 30
0.0
 10
164.0541644056276
 20
116.3645793486346
 30
0.0
 10
164.202156550847
 20
116.2090141039665
 30
0.0
 10
164.4657476758625
 20
115.868625648365
 30
0.0
 10
164.5823715143018
 20
115.6810376246082
 30
0.0
 10
164.7685900170968
 20
115.2911376539684
 30
0.0
 10
164.8395973433997
 20
115.0880247557643
 30
0.0
 10
164.934450251456
 20
114.6643372240214
 30
0.0
 10
164.9571530918058
 20
114.4447870034811
 30
0.0
 10
164.950647986359
 20
114.0127910059379
 30
0.0
 10
164.9215129594855
 20
113.7946902867552
 30
0.0
 10
164.8138914783131
 20
113.3727648238515
 30
0.0
 10
164.7366044221867
 20
113.1706825478055
 30
0.0
 10
164.5375057722165
 20
112.7833146588038
 30
0.0
 10
164.4165355420452
 20
112.6006754327577
 30
0.0
 10
164.1424053443289
 20
112.2661260995312
 30
0.0
 10
163.9865539925633
 20
112.1111392064965
 30
0.0
 10
163.6510976202162
 20
111.8359656611532
 30
0.0
 10
163.4718133944463
 20
111.7153473959801
 30
0.0
 10
163.0912794036129
 20
111.5062042335091
 30
0.0
 10
162.890079664475
 20
111.4182344605858
 30
0.0
 10
162.48052879285
 20
111.2797314758098
 30
0.0
 10
162.2704223217819
 20
111.2281546497731
 30
0.0
 10
161.8394803687735
 20
111.1604753001362
 30
0.0
 10
161.6217570978411
 20
111.1450935170067
 30
0.0
 10
161.1899335755304
 20
111.1504758881234
 30
0.0
 10
160.9745706203346
 20
111.1710284800561
 30
0.0
 10
160.5449885834134
 20
111.2494048839092
 30
0.0
 10
160.3351614283735
 20
111.3065870122529
 30
0.0
 10
159.930624690087
 20
111.4549761837045
 30
0.0
 10
159.7350129491018
 20
111.5463186322093
 30
0.0
 10
159.3581601577526
 20
111.7661848683292
 30
0.0
 10
159.1814908630454
 20
111.8922510847197
 30
0.0
 10
158.8566300976156
 20
112.1738129482977
 30
0.0
 10
158.7075963387704
 20
112.3297323226442
 30
0.0
 10
158.4397588477991
 20
112.6758986757664
 30
0.0
 10
158.3260988081271
 20
112.8596117132426
 30
0.0
 10
158.1404804011885
 20
113.2479850218184
 30
0.0
 10
158.0678297557801
 20
113.4556636029414
 30
0.0
 10
157.9732670744159
 20
113.8808413212954
 30
0.0
 10
157.9511772331993
 20
114.0957566919017
 30
0.0
 10
157.9579109485451
 20
114.5302930990777
 30
0.0
 10
157.9876482370535
 20
114.7496139336471
 30
0.0
 10
158.0951083309143
 20
115.1692642214764
 30
0.0
 10
158.1739486949292
 20
115.3749069579694
 30
0.0
 10
158.3736908243575
 20
115.7618159587785
 30
0.0
 10
158.4934153210937
 20
115.9422554490834
 30
0.0
 10
158.7700143467797
 20
116.2788808958828
 30
0.0
 10
158.9264808418617
 20
116.4338801312558
 30
0.0
 10
159.2647843068967
 20
116.7101012023711
 30
0.0
  0
LINE
  5
C5
330
1F
100
AcDbEntity
  8
0
  6
Continuous
 62
     7
370
    15
100
AcDbLine
 10
159.0956325744
 20
91.8883409346
 30
0.0
 11
158.9909294841
 21
91.8782528384
 31
0.0
  0
SPLINE
  5
C6
330
1F
100
AcDbEntity
  8
0
  6
Continuous
 62
     7
370
    15
100
AcDbSpline
210
0.0
220
0.0
230
1.0
 70
     8
 71
     3
 72
    17
 73
    13
 74
     0
 42
0.00000001
 43
0.00000001
 40
0.0
 40
0.0
 40
0.0
 40
0.0
 40
0.04982531609675
 40
0.1387859158909081
 40
0.2317191745991099
 40
0.3342859166087052
 40
0.4479703915026845
 40
0.5697006600926449
 40
0.6940491888771352
 40
0.8149686309519557
 40
0.9253602706180053
 40
1.0
 40
1.0
 40
1.0
 40
1.0
 10
157.9969668284047
 20
91.77551162808405
 30
0.0
 10
157.9897751833997
 20
91.77464645233066
 30
0.0
 10
157.9697432173837
 20
91.77223654871646
 30
0.0
 10
158.2923674439745
 20
91.81111170988963
 30
0.0
 10
158.8965843231217
 20
91.87400296606606
 30
0.0
 10
159.7944663376535
 20
91.9447307674024
 30
0.0
 10
160.928411817079
 20
91.99216906649552
 30
0.0
 10
162.1928394440622
 20
91.98818384858035
 30
0.0
 10
163.4077856951382
 20
91.92668101378048
 30
0.0
 10
164.3485409840764
 20
91.84175620780528
 30
0.0
 10
164.8906277590841
 20
91.77823062308077
 30
0.0
 10
164.9128065341752
 20
91.77538321022415
 30
0.0
 10
164.9217532213199
 20
91.77423459349959
 30
0.0
  0
LINE
  5
C7
330
1F
100
AcDbEntity
  8
0
  6
Continuous
 62
     7
370
    15
100
AcDbLine
 10
159.5435326998
 20
91.91979913
 30
0.0
 11
159.0956325737
 21
91.8883409394
 31
0.0
  0
LINE
  5
C8
330
1F
100
AcDbEntity
  8
0
  6
Continuous
 62
     7
370
    15
100
AcDbLine
 10
159.0956325744
 20
136.6522654736
 30
0.0
 11
159.2806397209
 21
136.6400950895
 31
0.0
  0
SPLINE
  5
C9
330
1F
100
AcDbEntity
  8
0
  6
Continuous
 62
     7
370
    15
100
AcDbSpline
210
0.0
220
0.0
230
1.0
 70
     8
 71
     3
 72
    17
 73
    13
 74
     0
 42
0.00000001
 43
0.00000001
 40
0.0
 40
0.0
 40
0.0
 40
0.0
 40
0.0518565134141512
 40
0.1408207661175171
 40
0.2339265456465366
 40
0.3367506410109652
 40
0.450670526233089
 40
0.5725258599780533
 40
0.6968694018970021
 40
0.8176295799555691
 40
0.9277143619962179
 40
1.0
 40
1.0
 40
1.0
 40
1.0
 10
164.9119516620502
 20
136.7651553608746
 30
0.0
 10
164.9182026874034
 20
136.7659037594649
 30
0.0
 10
164.9351778776213
 20
136.7679360993951
 30
0.0
 10
164.6054277368463
 20
136.7282789314367
 30
0.0
 10
163.9943299709016
 20
136.6649583343021
 30
0.0
 10
163.090457718396
 20
136.5944120607532
 30
0.0
 10
161.9519097148268
 20
136.5478678331472
 30
0.0
 10
160.6865065484873
 20
136.5532337548534
 30
0.0
 10
159.4750778064121
 20
136.6158134878781
 30
0.0
 10
158.5428837527131
 20
136.7006845982732
 30
0.0
 10
158.0127310456601
 20
136.7630128724436
 30
0.0
 10
157.9954623712935
 20
136.7652469317981
 30
0.0
 10
157.988617636584
 20
136.7661324394684
 30
0.0
  0
SPLINE
  5
CA
330
1F
100
AcDbEntity
  8
0
  6
Continuous
 62
     7
370
    15
100
AcDbSpline
210
0.0
220
0.0
230
1.0
 70
     8
 71
     3
 72
     9
 73
     5
 74
     0
 42
0.00000001
 43
0.00000001
 40
0.0
 40
0.0
 40
0.0
 40
0.0
 40
0.2556174945983721
 40
0.9999999999999999
 40
0.9999999999999999
 40
0.9999999999999999
 40
0.9999999999999999
 10
158.6154380705455
 20
136.697241643821
 30
0.0
 10
158.6469971694173
 20
136.6938193425654
 30
0.0
 10
158.7704593718829
 20
136.6804309738976
 30
0.0
 10
158.9568710106389
 20
136.6642845696998
 30
0.0
 10
159.0956325733322
 20
136.6522654688898
 30
0.0
  0
CIRCLE
  5
CB
330
1F
100
AcDbEntity
  8
0
  6
Continuous
 62
     7
370
    15
100
AcDbCircle
 10
161.4542130914
 20
114.2703032041
 30
0.0
 40
2.5
  0
LINE
  5
CC
330
1F
100
AcDbEntity
  8
0
  6
Continuous
 62
     7
370
    15
100
AcDbLine
 10
44.2542130914
 20
82.0203032041
 30
0.0
 11
44.2542130914
 21
82.0220180023
 31
0.0
  0
LINE
  5
CD
330
1F
100
AcDbEntity
  8
0
  6
Continuous
 62
     7
370
    15
100
AcDbLine
 10
252.5042130914
 20
99.5444437257
 30
0.0
 11
252.5042130914
 21
128.9961626671
 31
0.0
  0
LINE
  5
CE
330
1F
100
AcDbEntity
  8
0
  6
Continuous
 62
     7
370
    15
100
AcDbLine
 10
44.2542130914
 20
146.5203032041
 30
0.0
 11
44.2542130914
 21
146.5185884059
 31
0.0
  0
CIRCLE
  5
CF
330
1F
100
AcDbEntity
  8
0
  6
HIDDEN
 62
     7
370
     0
100
AcDbCircle
 10
230.5042130914
 20
114.2703032041
 30
0.0
 40
6.000000000000021
  0
CIRCLE
  5
D0
330
1F
100
AcDbEntity
  8
0
  6
HIDDEN
 62
     7
370
     0
100
AcDbCircle
 10
230.5042130914
 20
114.2703032041
 30
0.0
 40
2.75000000000001
  0
CIRCLE
  5
D1
330
1F
100
AcDbEntity
  8
0
  6
HIDDEN
 62
     7
370
     0
100
AcDbCircle
 10
230.5042130914
 20
114.2703032041
 30
0.0
 40
3.999999999999996
  0
LWPOLYLINE
  5
D2
330
1F
100
AcDbEntity
  8
0
  6
HIDDEN
 62
     7
370
     0
100
AcDbPolyline
 90
        3
 70
   128
 43
0.0
 10
252.4747682296
 20
121.5405325141
 10
252.4930900964
 20
121.9359123743
 10
252.5042130914
 20
122.2528144815
  0
LWPOLYLINE
  5
D3
330
1F
100
AcDbEntity
  8
0
  6
HIDDEN
 62
     7
370
     0
100
AcDbPolyline
 90
       12
 70
   128
 43
0.0
 10
252.5042130914
 20
123.6127264272
 10
252.4930900964
 20
123.52926591
 10
252.4747682296
 20
123.2651659534
 10
252.4564463627
 20
122.8697860932
 10
252.440913834
 20
122.4033193289
 10
252.4305353301
 20
121.9367809969
 10
252.4268908842
 20
121.5411973291
 10
252.4305353301
 20
121.2767923528
 10
252.440913834
 20
121.1838193289
 10
252.4564463627
 20
121.2764325575
 10
252.4747682296
 20
121.5405325141
 10
252.4747682296
 20
121.5405325141
  0
LWPOLYLINE
  5
D4
330
1F
100
AcDbEntity
  8
0
  6
HIDDEN
 62
     7
370
     0
100
AcDbPolyline
 90
       17
 70
   128
 43
0.0
 10
252.3129463341
 20
121.3466848466
 10
252.3354824557
 20
121.8330069379
 10
252.3545876571
 20
122.4067667956
 10
252.3673533445
 20
122.9806146824
 10
252.3718360578
 20
123.4671874596
 10
252.3673533445
 20
123.7924088326
 10
252.3545876571
 20
123.9067667956
 10
252.3354824557
 20
123.7928513852
 10
252.3129463341
 20
123.4680051902
 10
252.2904102126
 20
122.9816830989
 10
252.2713050112
 20
122.4079232412
 10
252.2585393238
 20
121.8340753544
 10
252.2540566105
 20
121.3475025772
 10
252.2585393238
 20
121.0222812042
 10
252.2713050112
 20
120.9079232412
 10
252.2904102126
 20
121.0218386516
 10
252.3129463341
 20
121.3466848466
  0
LWPOLYLINE
  5
D5
330
1F
100
AcDbEntity
  8
0
  6
HIDDEN
 62
     7
370
     0
100
AcDbPolyline
 90
       17
 70
   128
 43
0.0
 10
246.9790085302
 20
121.4948739127
 10
247.0015446518
 20
121.981196004
 10
247.0206498532
 20
122.5549558617
 10
247.0334155406
 20
123.1288037485
 10
247.0378982539
 20
123.6153765257
 10
247.0334155406
 20
123.9405978988
 10
247.0206498532
 20
124.0549558617
 10
247.0015446518
 20
123.9410404513
 10
246.9790085302
 20
123.6161942563
 10
246.9564724087
 20
123.129872165
 10
246.9373672073
 20
122.5561123073
 10
246.9246015199
 20
121.9822644205
 10
246.9201188066
 20
121.4956916433
 10
246.9246015199
 20
121.1704702703
 10
246.9373672073
 20
121.0561123073
 10
246.9564724087
 20
121.1700277177
 10
246.9790085302
 20
121.4948739127
  0
LWPOLYLINE
  5
D6
330
1F
100
AcDbEntity
  8
0
  6
HIDDEN
 62
     7
370
     0
100
AcDbPolyline
 90
       17
 70
   128
 43
0.0
 10
246.4793940121
 20
121.8623077443
 10
246.4944180932
 20
122.1865224718
 10
246.5071548941
 20
122.5690290436
 10
246.5156653523
 20
122.9515943015
 10
246.5186538279
 20
123.275976153
 10
246.5156653523
 20
123.4927904017
 10
246.5071548941
 20
123.5690290436
 10
246.4944180932
 20
123.4930854367
 10
246.4793940121
 20
123.2765213067
 10
246.4643699311
 20
122.9523065791
 10
246.4516331302
 20
122.5698000074
 10
246.4431226719
 20
122.1872347495
 10
246.4401341964
 20
121.862852898
 10
246.4431226719
 20
121.6460386493
 10
246.4516331302
 20
121.5698000074
 10
246.4643699311
 20
121.6457436143
 10
246.4793940121
 20
121.8623077443
  0
LINE
  5
D7
330
1F
100
AcDbEntity
  8
0
  6
HIDDEN
 62
     7
370
     0
100
AcDbLine
 10
252.5042130914
 20
123.2389566722
 30
0.0
 11
252.4747682296
 21
123.0152216695
 31
0.0
  0
LINE
  5
D8
330
1F
100
AcDbEntity
  8
0
  6
HIDDEN
 62
     7
370
     0
100
AcDbLine
 10
252.4453233677
 20
122.179114231
 30
0.0
 11
252.4747682296
 21
123.0152216695
 31
0.0
  0
LINE
  5
D9
330
1F
100
AcDbEntity
  8
0
  6
HIDDEN
 62
     7
370
     0
100
AcDbLine
 10
252.4453233677
 20
121.5667417953
 30
0.0
 11
252.4453233677
 21
122.179114231
 31
0.0
  0
LINE
  5
DA
330
1F
100
AcDbEntity
  8
0
  6
HIDDEN
 62
     7
370
     0
100
AcDbLine
 10
252.4453233677
 20
121.5667417953
 30
0.0
 11
252.4747682296
 21
121.7904767981
 31
0.0
  0
LINE
  5
DB
330
1F
100
AcDbEntity
  8
0
  6
HIDDEN
 62
     7
370
     0
100
AcDbLine
 10
252.5042130914
 20
122.6265842365
 30
0.0
 11
252.4747682296
 21
121.7904767981
 31
0.0
  0
LINE
  5
DC
330
1F
100
AcDbEntity
  8
0
  6
HIDDEN
 62
     7
370
     0
100
AcDbLine
 10
250.4468652953
 20
121.6222635592
 30
0.0
 11
250.4763101571
 21
121.845998562
 31
0.0
  0
LINE
  5
DD
330
1F
100
AcDbEntity
  8
0
  6
HIDDEN
 62
     7
370
     0
100
AcDbLine
 10
250.4468652953
 20
121.6222635592
 30
0.0
 11
250.4468652953
 21
122.2346359949
 31
0.0
  0
LINE
  5
DE
330
1F
100
AcDbEntity
  8
0
  6
HIDDEN
 62
     7
370
     0
100
AcDbLine
 10
250.5057550189
 20
123.2944784361
 30
0.0
 11
250.4763101571
 21
123.0707434334
 31
0.0
  0
LINE
  5
DF
330
1F
100
AcDbEntity
  8
0
  6
HIDDEN
 62
     7
370
     0
100
AcDbLine
 10
250.5057550189
 20
122.6821060004
 30
0.0
 11
250.5057550189
 21
123.2944784361
 31
0.0
  0
LINE
  5
E0
330
1F
100
AcDbEntity
  8
0
  6
HIDDEN
 62
     7
370
     0
100
AcDbLine
 10
250.5057550189
 20
122.6821060004
 30
0.0
 11
250.4763101571
 21
121.845998562
 31
0.0
  0
LINE
  5
E1
330
1F
100
AcDbEntity
  8
0
  6
HIDDEN
 62
     7
370
     0
100
AcDbLine
 10
250.4468652953
 20
122.2346359949
 30
0.0
 11
250.4763101571
 21
123.0707434334
 31
0.0
  0
LINE
  5
E2
330
1F
100
AcDbEntity
  8
0
  6
HIDDEN
 62
     7
370
     0
100
AcDbLine
 10
250.4468652953
 20
122.2346359949
 30
0.0
 11
252.4453233677
 21
122.179114231
 31
0.0
  0
LINE
  5
E3
330
1F
100
AcDbEntity
  8
0
  6
HIDDEN
 62
     7
370
     0
100
AcDbLine
 10
250.4763101571
 20
123.0707434334
 30
0.0
 11
252.4747682296
 21
123.0152216695
 31
0.0
  0
LINE
  5
E4
330
1F
100
AcDbEntity
  8
0
  6
HIDDEN
 62
     7
370
     0
100
AcDbLine
 10
250.4763101571
 20
121.845998562
 30
0.0
 11
252.4747682296
 21
121.7904767981
 31
0.0
  0
LINE
  5
E5
330
1F
100
AcDbEntity
  8
0
  6
HIDDEN
 62
     7
370
     0
100
AcDbLine
 10
250.4468652953
 20
121.6222635592
 30
0.0
 11
252.4453233677
 21
121.5667417953
 31
0.0
  0
LINE
  5
E6
330
1F
100
AcDbEntity
  8
0
  6
HIDDEN
 62
     7
370
     0
100
AcDbLine
 10
250.5057550189
 20
122.6821060004
 30
0.0
 11
252.5042130914
 21
122.6265842365
 31
0.0
  0
LINE
  5
E7
330
1F
100
AcDbEntity
  8
0
  6
HIDDEN
 62
     7
370
     0
100
AcDbLine
 10
250.5057550189
 20
123.2944784361
 30
0.0
 11
252.5042130914
 21
123.2389566722
 31
0.0
  0
LWPOLYLINE
  5
E8
330
1F
100
AcDbEntity
  8
0
  6
HIDDEN
 62
     7
370
     0
100
AcDbPolyline
 90
       17
 70
   128
 43
0.0
 10
247.0378982539
 20
104.926048244
 10
247.0153621323
 20
105.4123703353
 10
246.9962569309
 20
105.9861301929
 10
246.9834912435
 20
106.5599780798
 10
246.9790085302
 20
107.046550857
 10
246.9834912435
 20
107.37177223
 10
246.9962569309
 20
107.4861301929
 10
247.0153621323
 20
107.3722147826
 10
247.0378982539
 20
107.0473685875
 10
247.0604343754
 20
106.5610464962
 10
247.0795395768
 20
105.9872866386
 10
247.0923052642
 20
105.4134387517
 10
247.0967879775
 20
104.9268659745
 10
247.0923052642
 20
104.6016446015
 10
247.0795395768
 20
104.4872866386
 10
247.0604343754
 20
104.6012020489
 10
247.0378982539
 20
104.926048244
  0
LWPOLYLINE
  5
E9
330
1F
100
AcDbEntity
  8
0
  6
HIDDEN
 62
     7
370
     0
100
AcDbPolyline
 90
       17
 70
   128
 43
0.0
 10
246.5382837358
 20
105.2657211936
 10
246.5232596547
 20
105.5899359211
 10
246.5105228538
 20
105.9724424929
 10
246.5020123955
 20
106.3550077508
 10
246.49902392
 20
106.6793896023
 10
246.5020123955
 20
106.8962038509
 10
246.5105228538
 20
106.9724424929
 10
246.5232596547
 20
106.896498886
 10
246.5382837358
 20
106.679934756
 10
246.5533078168
 20
106.3557200284
 10
246.5660446177
 20
105.9732134567
 10
246.574555076
 20
105.5906481988
 10
246.5775435515
 20
105.2662663473
 10
246.574555076
 20
105.0494520986
 10
246.5660446177
 20
104.9732134567
 10
246.5533078168
 20
105.0491570636
 10
246.5382837358
 20
105.2657211936
  0
LWPOLYLINE
  5
EA
330
1F
100
AcDbEntity
  8
0
  6
HIDDEN
 62
     7
370
     0
100
AcDbPolyline
 90
       17
 70
   128
 43
0.0
 10
252.3718360578
 20
105.0742373101
 10
252.3492999362
 20
105.5605594014
 10
252.3301947348
 20
106.134319259
 10
252.3174290474
 20
106.7081671459
 10
252.3129463341
 20
107.1947399231
 10
252.3174290474
 20
107.5199612961
 10
252.3301947348
 20
107.634319259
 10
252.3492999362
 20
107.5204038487
 10
252.3718360578
 20
107.1955576536
 10
252.3943721793
 20
106.7092355623
 10
252.4134773807
 20
106.1354757047
 10
252.4262430681
 20
105.5616278178
 10
252.4307257814
 20
105.0750550406
 10
252.4262430681
 20
104.7498336676
 10
252.4134773807
 20
104.6354757047
 10
252.3943721793
 20
104.749391115
 10
252.3718360578
 20
105.0742373101
  0
LWPOLYLINE
  5
EB
330
1F
100
AcDbEntity
  8
0
  6
HIDDEN
 62
     7
370
     0
100
AcDbPolyline
 90
        8
 70
   128
 43
0.0
 10
252.5336579532
 20
105.2770765468
 10
252.5153360864
 20
105.6724564071
 10
252.4998035577
 20
106.1389231713
 10
252.4894250538
 20
106.6054615033
 10
252.4857806079
 20
107.0010451712
 10
252.4894250538
 20
107.2654501475
 10
252.4998035577
 20
107.3584231713
 10
252.5042130914
 20
107.3492704599
  0
LWPOLYLINE
  5
EC
330
1F
100
AcDbEntity
  8
0
  6
HIDDEN
 62
     7
370
     0
100
AcDbPolyline
 90
        4
 70
   128
 43
0.0
 10
252.569114027
 20
104.9218199601
 10
252.5675123487
 20
104.9203633616
 10
252.55197982
 20
105.0129765903
 10
252.5336579532
 20
105.2770765468
  0
LINE
  5
ED
330
1F
100
AcDbEntity
  8
0
  6
HIDDEN
 62
     7
370
     0
100
AcDbLine
 10
252.563102815
 20
105.9156582637
 30
0.0
 11
252.5336579532
 21
106.7517657022
 31
0.0
  0
LINE
  5
EE
330
1F
100
AcDbEntity
  8
0
  6
HIDDEN
 62
     7
370
     0
100
AcDbLine
 10
250.5646447425
 20
105.8601364998
 30
0.0
 11
250.5351998807
 21
106.6962439383
 31
0.0
  0
LINE
  5
EF
330
1F
100
AcDbEntity
  8
0
  6
HIDDEN
 62
     7
370
     0
100
AcDbLine
 10
250.5646447425
 20
105.2477640641
 30
0.0
 11
250.5646447425
 21
105.8601364998
 31
0.0
  0
LINE
  5
F0
330
1F
100
AcDbEntity
  8
0
  6
HIDDEN
 62
     7
370
     0
100
AcDbLine
 10
250.5646447425
 20
105.8601364998
 30
0.0
 11
252.563102815
 21
105.9156582637
 31
0.0
  0
LINE
  5
F1
330
1F
100
AcDbEntity
  8
0
  6
HIDDEN
 62
     7
370
     0
100
AcDbLine
 10
252.563102815
 20
105.303285828
 30
0.0
 11
252.563102815
 21
105.9156582637
 31
0.0
  0
LINE
  5
F2
330
1F
100
AcDbEntity
  8
0
  6
HIDDEN
 62
     7
370
     0
100
AcDbLine
 10
250.5057550189
 20
106.919978941
 30
0.0
 11
250.5351998807
 21
106.6962439383
 31
0.0
  0
LINE
  5
F3
330
1F
100
AcDbEntity
  8
0
  6
HIDDEN
 62
     7
370
     0
100
AcDbLine
 10
250.5351998807
 20
106.6962439383
 30
0.0
 11
252.5336579532
 21
106.7517657022
 31
0.0
  0
LINE
  5
F4
330
1F
100
AcDbEntity
  8
0
  6
HIDDEN
 62
     7
370
     0
100
AcDbLine
 10
252.5042130914
 20
106.975500705
 30
0.0
 11
252.5336579532
 21
106.7517657022
 31
0.0
  0
LINE
  5
F5
330
1F
100
AcDbEntity
  8
0
  6
HIDDEN
 62
     7
370
     0
100
AcDbLine
 10
250.5351998807
 20
105.4714990669
 30
0.0
 11
252.5336579532
 21
105.5270208308
 31
0.0
  0
LINE
  5
F6
330
1F
100
AcDbEntity
  8
0
  6
HIDDEN
 62
     7
370
     0
100
AcDbLine
 10
250.5646447425
 20
105.2477640641
 30
0.0
 11
252.563102815
 21
105.303285828
 31
0.0
  0
LINE
  5
F7
330
1F
100
AcDbEntity
  8
0
  6
HIDDEN
 62
     7
370
     0
100
AcDbLine
 10
250.5646447425
 20
105.2477640641
 30
0.0
 11
250.5351998807
 21
105.4714990669
 31
0.0
  0
LINE
  5
F8
330
1F
100
AcDbEntity
  8
0
  6
HIDDEN
 62
     7
370
     0
100
AcDbLine
 10
252.563102815
 20
105.303285828
 30
0.0
 11
252.5336579532
 21
105.5270208308
 31
0.0
  0
LINE
  5
F9
330
1F
100
AcDbEntity
  8
0
  6
HIDDEN
 62
     7
370
     0
100
AcDbLine
 10
250.5057550189
 20
106.3076065054
 30
0.0
 11
252.5042130914
 21
106.3631282693
 31
0.0
  0
LINE
  5
FA
330
1F
100
AcDbEntity
  8
0
  6
HIDDEN
 62
     7
370
     0
100
AcDbLine
 10
250.5057550189
 20
106.919978941
 30
0.0
 11
252.5042130914
 21
106.975500705
 31
0.0
  0
LINE
  5
FB
330
1F
100
AcDbEntity
  8
0
  6
HIDDEN
 62
     7
370
     0
100
AcDbLine
 10
250.5057550189
 20
106.3076065054
 30
0.0
 11
250.5057550189
 21
106.919978941
 31
0.0
  0
LINE
  5
FC
330
1F
100
AcDbEntity
  8
0
  6
HIDDEN
 62
     7
370
     0
100
AcDbLine
 10
250.5057550189
 20
106.3076065054
 30
0.0
 11
250.5351998807
 21
105.4714990669
 31
0.0
  0
LINE
  5
FD
330
1F
100
AcDbEntity
  8
0
  6
HIDDEN
 62
     7
370
     0
100
AcDbLine
 10
252.5042130914
 20
106.3631282693
 30
0.0
 11
252.5336579532
 21
105.5270208308
 31
0.0
  0
LINE
  5
FE
330
1F
100
AcDbEntity
  8
0
  6
HIDDEN
 62
     7
370
     0
100
AcDbLine
 10
109.2421840705
 20
153.221265965
 30
0.0
 11
109.2421840705
 21
145.6203032041
 31
0.0
  0
SPLINE
  5
FF
330
1F
100
AcDbEntity
  8
0
  6
HIDDEN
 62
     7
370
     0
100
AcDbSpline
210
0.0
220
0.0
230
1.0
 70
     8
 71
     3
 72
    80
 73
    76
 74
     0
 42
0.00000001
 43
0.00000001
 40
-0.0312500000000003
 40
-0.0312500000000003
 40
0.0
 40
0.0
 40
0.03125
 40
0.03125
 40
0.046875
 40
0.046875
 40
0.0624999999999999
 40
0.0624999999999999
 40
0.0937499999999998
 40
0.0937499999999998
 40
0.1249999999999996
 40
0.1249999999999996
 40
0.1562499999999995
 40
0.1562499999999995
 40
0.1874999999999994
 40
0.1874999999999994
 40
0.2187499999999993
 40
0.2187499999999993
 40
0.2499999999999992
 40
0.2499999999999992
 40
0.2812499999999991
 40
0.2812499999999991
 40
0.3124999999999989
 40
0.3124999999999989
 40
0.3281249999999988
 40
0.3281249999999988
 40
0.3437499999999986
 40
0.3437499999999986
 40
0.3749999999999983
 40
0.3749999999999983
 40
0.4062499999999981
 40
0.4062499999999981
 40
0.4218749999999979
 40
0.4218749999999979
 40
0.4374999999999978
 40
0.4374999999999978
 40
0.4687499999999977
 40
0.4687499999999977
 40
0.4999999999999975
 40
0.4999999999999975
 40
0.5312499999999972
 40
0.5312499999999972
 40
0.562499999999997
 40
0.562499999999997
 40
0.5937499999999968
 40
0.5937499999999968
 40
0.6249999999999966
 40
0.6249999999999966
 40
0.6562499999999964
 40
0.6562499999999964
 40
0.6874999999999962
 40
0.6874999999999962
 40
0.7031249999999962
 40
0.7031249999999962
 40
0.7187499999999963
 40
0.7187499999999963
 40
0.7499999999999968
 40
0.7499999999999968
 40
0.7812499999999972
 40
0.7812499999999972
 40
0.7968749999999976
 40
0.7968749999999976
 40
0.8124999999999978
 40
0.8124999999999978
 40
0.8437499999999981
 40
0.8437499999999981
 40
0.8749999999999984
 40
0.8749999999999984
 40
0.9062499999999989
 40
0.9062499999999989
 40
0.9374999999999992
 40
0.9374999999999992
 40
0.9687499999999997
 40
0.9687499999999997
 40
1.0
 40
1.0
 40
1.03125
 40
1.03125
 10
101.8347584041532
 20
163.129852460596
 30
0.0
 10
101.1736677786006
 20
163.129852460596
 30
0.0
 10
100.848687649349
 20
163.1229543147692
 30
0.0
 10
100.3692142381026
 20
163.1024278867887
 30
0.0
 10
100.2107324202617
 20
163.0938716597012
 30
0.0
 10
99.89651288775747
 20
163.0731452844835
 30
0.0
 10
99.74039260407706
 20
163.0609179842771
 30
0.0
 10
99.28633857512051
 20
163.0193486904479
 30
0.0
 10
98.99923519218065
 20
162.9850044053501
 30
0.0
 10
98.45588063615365
 20
162.9016802810278
 30
0.0
 10
98.19877702494807
 20
162.8522420582533
 30
0.0
 10
97.73787077000928
 20
162.7408623284934
 30
0.0
 10
97.53097306079432
 20
162.6785678149813
 30
0.0
 10
97.16544774680212
 20
162.5386381721103
 30
0.0
 10
97.01024222467616
 20
162.4620222743612
 30
0.0
 10
96.76081183807645
 20
162.2980636545055
 30
0.0
 10
96.66472188229127
 20
162.2095068004098
 30
0.0
 10
96.5362030330977
 20
162.022026118304
 30
0.0
 10
96.50439216291993
 20
161.9247896568496
 30
0.0
 10
96.50403551314665
 20
161.7231570175225
 30
0.0
 10
96.53653276534372
 20
161.6176082256843
 30
0.0
 10
96.66415823905822
 20
161.4074934429958
 30
0.0
 10
96.75858664011011
 20
161.3024279350269
 30
0.0
 10
96.94644746009565
 20
161.1455502277758
 30
0.0
 10
97.01727545889885
 20
161.0931164940701
 30
0.0
 10
97.17199735086413
 20
160.9906780484404
 30
0.0
 10
97.25597382104753
 20
160.9405303197885
 30
0.0
 10
97.52729749069196
 20
160.793514363355
 30
0.0
 10
97.73384670929428
 20
160.7000265429205
 30
0.0
 10
98.2004568494833
 20
160.5242396853062
 30
0.0
 10
98.45282241910876
 20
160.4448612102226
 30
0.0
 10
98.8587237607875
 20
160.3393787727285
 30
0.0
 10
98.99862437826496
 20
160.3064932078883
 30
0.0
 10
99.2878483135119
 20
160.2455777286597
 30
0.0
 10
99.43768776980116
 20
160.2174971570172
 30
0.0
 10
99.89180433941198
 20
160.1426951149744
 30
0.0
 10
100.2034555581488
 20
160.1046570567283
 30
0.0
 10
100.8444520230612
 20
160.0530451302042
 30
0.0
 10
101.1759796510133
 20
160.0397311966827
 30
0.0
 10
101.8287706960848
 20
160.0396341103547
 30
0.0
 10
102.1533069011167
 20
160.0524221955157
 30
0.0
 10
102.7985763505331
 20
160.1039123851116
 30
0.0
 10
103.1143193566958
 20
160.1424369644317
 30
0.0
 10
103.7162086516795
 20
160.2413395272897
 30
0.0
 10
104.006957882491
 20
160.3024436252147
 30
0.0
 10
104.5538696741754
 20
160.4442530583254
 30
0.0
 10
104.8056470380124
 20
160.5235875429046
 30
0.0
 10
105.2670350306335
 20
160.6969662875661
 30
0.0
 10
105.4783043102316
 20
160.7921262323201
 30
0.0
 10
105.8416086626078
 20
160.988698755696
 30
0.0
 10
105.9954153110506
 20
161.0904549841024
 30
0.0
 10
106.184034780648
 20
161.2472409468879
 30
0.0
 10
106.2400652668571
 20
161.3004949806379
 30
0.0
 10
106.3356390285932
 20
161.4062995421907
 30
0.0
 10
106.3754019456183
 20
161.4589526065462
 30
0.0
 10
106.4711736959304
 20
161.6160263260054
 30
0.0
 10
106.5038965350565
 20
161.7195513613325
 30
0.0
 10
106.5045251213856
 20
161.9237660955596
 30
0.0
 10
106.4723389766508
 20
162.0212699331444
 30
0.0
 10
106.3774282747952
 20
162.160596983496
 30
0.0
 10
106.3379614913963
 20
162.2059137150005
 30
0.0
 10
106.2430314926754
 20
162.2943535359893
 30
0.0
 10
106.187274664912
 20
162.3376077864493
 30
0.0
 10
105.9993345469421
 20
162.4614992610393
 30
0.0
 10
105.845973077226
 20
162.5372015518133
 30
0.0
 10
105.4837088423456
 20
162.6764559232715
 30
0.0
 10
105.2728603688797
 20
162.7402177648002
 30
0.0
 10
104.8121903985608
 20
162.8517146042681
 30
0.0
 10
104.560816018977
 20
162.9002406765847
 30
0.0
 10
104.0149081320788
 20
162.9842946599652
 30
0.0
 10
103.7240855574276
 20
163.0190932136319
 30
0.0
 10
103.1227589426476
 20
163.0742896783957
 30
0.0
 10
102.8082403580352
 20
163.0951075271496
 30
0.0
 10
102.1616589019152
 20
163.1229548600603
 30
0.0
 10
101.8347584041532
 20
163.129852460596
 30
0.0
 10
101.1736677786006
 20
163.129852460596
 30
0.0
  0
SPLINE
  5
100
330
1F
100
AcDbEntity
  8
0
  6
HIDDEN
 62
     7
370
     0
100
AcDbSpline
210
0.0
220
0.0
230
1.0
 70
     8
 71
     3
 72
     9
 73
     5
 74
     0
 42
0.00000001
 43
0.00000001
 40
0.0
 40
0.0
 40
0.0
 40
0.0
 40
0.5038163044167481
 40
1.0
 40
1.0
 40
1.0
 40
1.0
 10
72.91763784080426
 20
77.5344968418439
 30
0.0
 10
72.63395865606577
 20
77.51034366774518
 30
0.0
 10
72.07089790902043
 20
77.46240323015513
 30
0.0
 10
71.71453686721122
 20
77.4210908818693
 30
0.0
 10
71.53771632852443
 20
77.40059236822361
 30
0.0
  0
SPLINE
  5
101
330
1F
100
AcDbEntity
  8
0
  6
HIDDEN
 62
     7
370
     0
100
AcDbSpline
210
0.0
220
0.0
230
1.0
 70
     8
 71
     3
 72
    12
 73
     8
 74
     0
 42
0.00000001
 43
0.00000001
 40
0.0
 40
0.0
 40
0.0
 40
0.0
 40
0.1661348616735903
 40
0.3322013257393936
 40
0.5008932044678248
 40
0.752137078264078
 40
1.0
 40
1.0
 40
1.0
 40
1.0
 10
71.02353475702415
 20
151.2016072271836
 30
0.0
 10
71.0339273811322
 20
151.2002291031222
 30
0.0
 10
71.05470835071216
 20
151.197473422372
 30
0.0
 10
71.22800784015908
 20
151.17587004741
 30
0.0
 10
71.5499594294028
 20
151.1380050954681
 30
0.0
 10
72.07112526532212
 20
151.077621328752
 30
0.0
 10
72.63668320515985
 20
151.0298281916025
 30
0.0
 10
72.91754662884789
 20
151.0060934985091
 30
0.0
  0
SPLINE
  5
102
330
1F
100
AcDbEntity
  8
0
  6
HIDDEN
 62
     7
370
     0
100
AcDbSpline
210
0.0
220
0.0
230
1.0
 70
     8
 71
     3
 72
     9
 73
     5
 74
     0
 42
0.00000001
 43
0.00000001
 40
0.0
 40
0.0
 40
0.0
 40
0.0
 40
0.661217565271851
 40
1.0
 40
1.0
 40
1.0
 40
1.0
 10
82.75741874656796
 20
145.6366254248651
 30
0.0
 10
83.04892085285323
 20
145.6804109202574
 30
0.0
 10
83.48977742048756
 20
145.7466304184861
 30
0.0
 10
83.43836513331419
 20
145.7388251961326
 30
0.0
 10
83.42094755349066
 20
145.7361809239001
 30
0.0
  0
SPLINE
  5
103
330
1F
100
AcDbEntity
  8
0
  6
HIDDEN
 62
     7
370
     0
100
AcDbSpline
210
0.0
220
0.0
230
1.0
 70
     8
 71
     3
 72
     9
 73
     5
 74
     0
 42
0.00000001
 43
0.00000001
 40
0.0
 40
0.0
 40
0.0
 40
0.0
 40
0.3224758141376582
 40
0.9999999999999999
 40
0.9999999999999999
 40
0.9999999999999999
 40
0.9999999999999999
 10
83.42094737731279
 20
82.80442550770339
 30
0.0
 10
83.43958926933755
 20
82.801657520781
 30
0.0
 10
83.49739792104869
 20
82.79307397187272
 30
0.0
 10
83.05628405770351
 20
82.85918748155142
 30
0.0
 10
82.75741874656796
 20
82.90398098337096
 30
0.0
  0
SPLINE
  5
104
330
1F
100
AcDbEntity
  8
0
  6
HIDDEN
 62
     7
370
     0
100
AcDbSpline
210
0.0
220
0.0
230
1.0
 70
     8
 71
     3
 72
    15
 73
    11
 74
     0
 42
0.00000001
 43
0.00000001
 40
0.0
 40
0.0
 40
0.0
 40
0.0
 40
0.1285821516379736
 40
0.2571635483376876
 40
0.385323567199189
 40
0.5113778119466696
 40
0.6369260966772228
 40
0.7643185820319293
 40
0.8930603485208921
 40
1.0
 40
1.0
 40
1.0
 40
1.0
 10
82.75741874656796
 20
82.90398098337096
 30
0.0
 10
82.3718966253278
 20
82.96578677395489
 30
0.0
 10
81.60085464634516
 20
83.08939799224537
 30
0.0
 10
79.82229679958854
 20
83.28014657625111
 30
0.0
 10
77.82848550414889
 20
83.36779401335644
 30
0.0
 10
75.80444759691417
 20
83.320888850654
 30
0.0
 10
73.97633902995518
 20
83.1606386429125
 30
0.0
 10
72.54490780867611
 20
82.95945928503342
 30
0.0
 10
71.64102433120055
 20
82.79691755038668
 30
0.0
 10
71.57844039344441
 20
82.78451726368635
 30
0.0
 10
71.55004314197873
 20
82.77889067526286
 30
0.0
  0
SPLINE
  5
105
330
1F
100
AcDbEntity
  8
0
  6
HIDDEN
 62
     7
370
     0
100
AcDbSpline
210
0.0
220
0.0
230
1.0
 70
     8
 71
     3
 72
    16
 73
    12
 74
     0
 42
0.00000001
 43
0.00000001
 40
0.0
 40
0.0
 40
0.0
 40
0.0
 40
0.0205567982654305
 40
0.1461296737692548
 40
0.2720439921275847
 40
0.3999539720187822
 40
0.528504097482051
 40
0.655245546444081
 40
0.7805594897978894
 40
0.9070378665747952
 40
1.0
 40
1.0
 40
1.0
 40
1.0
 10
71.55004314197873
 20
145.7617157329732
 30
0.0
 10
71.53537592969572
 20
145.7644621095779
 30
0.0
 10
71.43111285728803
 20
145.7839849512243
 30
0.0
 10
71.88189286813466
 20
145.6976103934673
 30
0.0
 10
72.8951319987095
 20
145.5264777915333
 30
0.0
 10
74.48946031669081
 20
145.322937006596
 30
0.0
 10
76.41595967882532
 20
145.1905460406212
 30
0.0
 10
78.46245147937691
 20
145.1867498619304
 30
0.0
 10
80.37561089509985
 20
145.3095264345602
 30
0.0
 10
81.86031928049908
 20
145.4913412946816
 30
0.0
 10
82.49046748363351
 20
145.5933930035966
 30
0.0
 10
82.75741874656796
 20
145.6366254248651
 30
0.0
  0
LINE
  5
106
330
1F
100
AcDbEntity
  8
0
  6
HIDDEN
 62
     7
370
     0
100
AcDbLine
 10
62.5008374184
 20
87.7703032041
 30
0.0
 11
62.5008374184
 21
140.7703032041
 31
0.0
  0
LINE
  5
107
330
1F
100
AcDbEntity
  8
0
  6
HIDDEN
 62
     7
370
     0
100
AcDbLine
 10
101.7882907097
 20
87.7703032041
 30
0.0
 11
101.7882907097
 21
140.7703032041
 31
0.0
  0
LINE
  5
108
330
1F
100
AcDbEntity
  8
0
  6
HIDDEN
 62
     7
370
     0
100
AcDbLine
 10
104.9542130914
 20
89.3953032041
 30
0.0
 11
104.9542130914
 21
139.1453032041
 31
0.0
  0
SPLINE
  5
109
330
1F
100
AcDbEntity
  8
0
  6
HIDDEN
 62
     7
370
     0
100
AcDbSpline
210
0.0
220
0.0
230
1.0
 70
     8
 71
     3
 72
    20
 73
    16
 74
     0
 42
0.00000001
 43
0.00000001
 40
0.0
 40
0.0
 40
0.0
 40
0.0
 40
0.2499999999999978
 40
0.2499999999999978
 40
0.3749999999999982
 40
0.3749999999999982
 40
0.4999999999999986
 40
0.4999999999999986
 40
0.6249999999999989
 40
0.6249999999999989
 40
0.7499999999999992
 40
0.7499999999999992
 40
0.8749999999999997
 40
0.8749999999999997
 40
1.0
 40
1.0
 40
1.0
 40
1.0
 10
52.70421309137692
 20
139.4988168345323
 30
0.0
 10
52.70421309137694
 20
139.4196138480001
 30
0.0
 10
52.65723059616419
 20
139.3385176295971
 30
0.0
 10
52.51940900538661
 20
139.2183209378462
 30
0.0
 10
52.46312672147663
 20
139.1793942338441
 30
0.0
 10
52.3300418700094
 20
139.1042055014198
 30
0.0
 10
52.25220192777635
 20
139.0675632960778
 30
0.0
 10
52.079569571662
 20
138.9999727632459
 30
0.0
 10
51.98517657457091
 20
138.9690145814703
 30
0.0
 10
51.77973926825577
 20
138.9134901601006
 30
0.0
 10
51.6673930282686
 20
138.8887816462674
 30
0.0
 10
51.43515216436897
 20
138.8489854191592
 30
0.0
 10
51.31444152194625
 20
138.8335655817621
 30
0.0
 10
51.06337066267722
 20
138.8124856069225
 30
0.0
 10
50.93384866626144
 20
138.8070083619016
 30
0.0
 10
50.80421309137692
 20
138.8070083619016
 30
0.0
  0
LINE
  5
10A
330
1F
100
AcDbEntity
  8
0
  6
HIDDEN
 62
     7
370
     0
100
AcDbLine
 10
50.8042130914
 20
138.8070083619
 30
0.0
 11
44.2542130914
 21
138.8070083619
 31
0.0
  0
LINE
  5
10B
330
1F
100
AcDbEntity
  8
0
  6
HIDDEN
 62
     7
370
     0
100
AcDbLine
 10
44.2542130914
 20
89.7335980463
 30
0.0
 11
55.8042130914
 21
89.7335980463
 31
0.0
  0
SPLINE
  5
10C
330
1F
100
AcDbEntity
  8
0
  6
HIDDEN
 62
     7
370
     0
100
AcDbSpline
210
0.0
220
0.0
230
1.0
 70
     8
 71
     3
 72
    18
 73
    14
 74
     0
 42
0.00000001
 43
0.00000001
 40
0.0
 40
0.0
 40
0.0
 40
0.0
 40
0.1249999999999982
 40
0.1249999999999982
 40
0.2499999999999964
 40
0.2499999999999964
 40
0.4999999999999988
 40
0.4999999999999988
 40
0.7500000000000011
 40
0.7500000000000011
 40
0.8750000000000006
 40
0.8750000000000006
 40
1.0
 40
1.0
 40
1.0
 40
1.0
 10
55.80421309137692
 20
89.73359804633452
 30
0.0
 10
55.93368040433413
 20
89.73359804633452
 30
0.0
 10
56.06069115323077
 20
89.72824504774188
 30
0.0
 10
56.31005447442802
 20
89.7075070750531
 30
0.0
 10
56.43367812905646
 20
89.6918351707988
 30
0.0
 10
56.78271046599051
 20
89.63214044239672
 30
0.0
 10
56.99322223079729
 20
89.57437526271572
 30
0.0
 10
57.33713890849682
 20
89.43985342143823
 30
0.0
 10
57.47348931001461
 20
89.36218430793284
 30
0.0
 10
57.61052736657715
 20
89.24289317384549
 30
0.0
 10
57.64574638529006
 20
89.20197416471045
 30
0.0
 10
57.69236996222863
 20
89.12131817142041
 30
0.0
 10
57.70421309137694
 20
89.08134965122755
 30
0.0
 10
57.70421309137692
 20
89.04178957370374
 30
0.0
  0
LINE
  5
10D
330
1F
100
AcDbEntity
  8
0
  6
HIDDEN
 62
     7
370
     0
100
AcDbLine
 10
44.2542130914
 20
89.7335980463
 30
0.0
 11
44.2542130914
 21
138.8070083619
 31
0.0
  0
LWPOLYLINE
  5
10E
330
1F
100
AcDbEntity
  8
0
  6
HIDDEN
 62
     7
370
     0
100
AcDbPolyline
 90
       13
 70
   128
 43
0.0
 10
101.5042130914
 20
154.2140337674
 10
102.6572924451
 20
154.2688519617
 10
103.7482089924
 20
154.4303512815
 10
104.7181511398
 20
154.6898252566
 10
105.5148290552
 20
155.0332855779
 10
106.0952936258
 20
155.4422162107
 10
106.4282518564
 20
155.8945715985
 10
106.4957538827
 20
156.3659651454
 10
106.294160653
 20
156.8309839033
 10
105.8343401103
 20
157.2645585905
 10
105.1410812992
 20
157.6433150834
 10
104.2517579817
 20
157.9468345215
 10
103.9024544684
 20
158.0321943724
  0
LWPOLYLINE
  5
10F
330
1F
100
AcDbEntity
  8
0
  6
HIDDEN
 62
     7
370
     0
100
AcDbPolyline
 90
       13
 70
   128
 43
0.0
 10
99.1024800625
 20
158.0314173206
 10
98.756668201
 20
157.9468345215
 10
97.8673448835
 20
157.6433150834
 10
97.1740860725
 20
157.2645585905
 10
96.7142655298
 20
156.8309839033
 10
96.5126723
 20
156.3659651454
 10
96.5801743263
 20
155.8945715985
 10
96.913132557
 20
155.4422162107
 10
97.4935971276
 20
155.0332855779
 10
98.2902750429
 20
154.6898252566
 10
99.2602171904
 20
154.4303512815
 10
100.3511337377
 20
154.2688519617
 10
101.5042130914
 20
154.2140337674
  0
SPLINE
  5
110
330
1F
100
AcDbEntity
  8
0
  6
HIDDEN
 62
     7
370
     0
100
AcDbSpline
210
0.0
220
0.0
230
1.0
 70
     8
 71
     3
 72
    47
 73
    43
 74
     0
 42
0.00000001
 43
0.00000001
 40
-0.0754949989693261
 40
-0.0624612121562966
 40
-0.029732821406136
 40
0.0
 40
0.0297242095435642
 40
0.0624299019453956
 40
0.0902097647794615
 40
0.1249852930172258
 40
0.1466391321274396
 40
0.1670192907608677
 40
0.1861310717635042
 40
0.2039809867679823
 40
0.2205771118265095
 40
0.2359295815785102
 40
0.2500512891535329
 40
0.2849026059690849
 40
0.3264789802155206
 40
0.3748710591760731
 40
0.3932245645762257
 40
0.4097806282236651
 40
0.4245404603324301
 40
0.4375060314395908
 40
0.4702107541780914
 40
0.4999892667314774
 40
0.5297467782414703
 40
0.5624402498405376
 40
0.5901193917515125
 40
0.6249672064517662
 40
0.6466372316117983
 40
0.667035747681261
 40
0.6861680533989888
 40
0.7040406516320851
 40
0.7206616024892354
 40
0.73604101349325
 40
0.7501917330340009
 40
0.7849807220979202
 40
0.8265111602616508
 40
0.8748738597239486
 40
0.8931741800647254
 40
0.9097174713227647
 40
0.9245050010306739
 40
0.9375387878437034
 40
0.970267178593864
 40
1.0
 40
1.029724209543564
 40
1.062429901945396
 40
1.090209764779462
 10
229.5088487328281
 20
109.2088492330935
 30
0.0
 10
230.5040954052862
 20
109.1150547455273
 30
0.0
 10
231.4992501955961
 20
109.2088325920182
 30
0.0
 10
232.4344393242932
 20
109.4892973378875
 30
0.0
 10
233.341360461596
 20
109.9627519722742
 30
0.0
 10
234.046651772563
 20
110.5293973497888
 30
0.0
 10
234.5862588012283
 20
111.147205558062
 30
0.0
 10
234.9489191675716
 20
111.6925877071951
 30
0.0
 10
235.2237475402964
 20
112.243058601168
 30
0.0
 10
235.4196108242486
 20
112.7845420286239
 30
0.0
 10
235.5464439778796
 20
113.3056738014169
 30
0.0
 10
235.61481331785
 20
113.7979332167731
 30
0.0
 10
235.6461472225364
 20
114.4915145689167
 30
0.0
 10
235.5382259607772
 20
115.4704549381049
 30
0.0
 10
235.0726097853661
 20
116.7416184708936
 30
0.0
 10
234.3758584231446
 20
117.6884181332314
 30
0.0
 10
233.7129456594057
 20
118.2794714278545
 30
0.0
 10
233.2808178528577
 20
118.5877510535635
 30
0.0
 10
232.8700975423047
 20
118.8237845229792
 30
0.0
 10
232.2831205764391
 20
119.0965322850725
 30
0.0
 10
231.5006397915095
 20
119.3315714798818
 30
0.0
 10
230.5047980334177
 20
119.4256325235685
 30
0.0
 10
229.5089081327681
 20
119.3317447760217
 30
0.0
 10
228.574569934927
 20
119.0514197232105
 30
0.0
 10
227.6679841770745
 20
118.5784296121248
 30
0.0
 10
226.9625649127963
 20
118.0120807898683
 30
0.0
 10
226.4221546017891
 20
117.3934250063839
 30
0.0
 10
226.0591866334676
 20
116.8475187449849
 30
0.0
 10
225.7841545457457
 20
116.2963963604135
 30
0.0
 10
225.5882094599925
 20
115.754154922533
 30
0.0
 10
225.4614276618903
 20
115.232179734647
 30
0.0
 10
225.3932475739165
 20
114.7390119212983
 30
0.0
 10
225.3624743767359
 20
114.045471829362
 30
0.0
 10
225.4709815686289
 20
113.0674922808475
 30
0.0
 10
225.9365170844603
 20
111.7979432165233
 30
0.0
 10
226.6325136367804
 20
110.8523865599872
 30
0.0
 10
227.294555972404
 20
110.2619248105514
 30
0.0
 10
227.7262403646803
 20
109.9537263269644
 30
0.0
 10
228.1376671026087
 20
109.7171155791609
 30
0.0
 10
228.7258196091784
 20
109.4438135469558
 30
0.0
 10
229.5088487328281
 20
109.2088492330935
 30
0.0
 10
230.5040954052862
 20
109.1150547455273
 30
0.0
 10
231.4992501955961
 20
109.2088325920182
 30
0.0
  0
SPLINE
  5
111
330
1F
100
AcDbEntity
  8
0
  6
HIDDEN
 62
     7
370
     0
100
AcDbSpline
210
0.0
220
0.0
230
1.0
 70
     8
 71
     3
 72
    11
 73
     7
 74
     0
 42
0.00000001
 43
0.00000001
 40
0.0
 40
0.0
 40
0.0
 40
0.0
 40
0.2572129773743849
 40
0.5145083732311079
 40
0.769202574098414
 40
1.0
 40
1.0
 40
1.0
 40
1.0
 10
230.5042130913769
 20
108.6647095556088
 30
0.0
 10
229.8361243344389
 20
108.7275556084188
 30
0.0
 10
228.4997327455891
 20
108.853267851733
 30
0.0
 10
226.7396468503119
 20
109.8477478837947
 30
0.0
 10
225.3999904991024
 20
111.2725747044414
 30
0.0
 10
225.0170087880113
 20
112.4770976462464
 30
0.0
 10
224.8349434583258
 20
113.0497147194969
 30
0.0
  0
LWPOLYLINE
  5
112
330
1F
100
AcDbEntity
  8
0
  6
HIDDEN
 62
     7
370
     0
100
AcDbPolyline
 90
       16
 70
   128
 43
0.0
 10
224.7623928732
 20
115.1148511464
 10
225.2450844308
 20
116.6999292612
 10
226.2950404484
 20
118.1629259838
 10
227.8127688047
 20
119.2506183929
 10
229.6734033596
 20
119.8195318717
 10
231.6636727777
 20
119.7655498762
 10
233.5328161647
 20
119.0696341049
 10
235.04458097
 20
117.8009251315
 10
236.0065752933
 20
116.1286212473
 10
236.3312460031
 20
114.2975132982
 10
236.044972674
 20
112.5221780701
 10
235.2072838175
 20
110.9434790321
 10
233.8722957952
 20
109.6837217128
 10
232.1318394387
 20
108.8844608247
 10
230.5042130901
 20
108.6647095587
 10
230.5042130901
 20
108.6647095587
  0
LINE
  5
113
330
1F
100
AcDbEntity
  8
0
  6
HIDDEN
 62
     7
370
     0
100
AcDbLine
 10
44.2542130914
 20
86.9003032041
 30
0.0
 11
44.2542130914
 21
82.0220180023
 31
0.0
  0
LINE
  5
114
330
1F
100
AcDbEntity
  8
0
  6
HIDDEN
 62
     7
370
     0
100
AcDbLine
 10
57.7042130914
 20
86.9003032041
 30
0.0
 11
57.7042130914
 21
80.4009699388
 31
0.0
  0
LINE
  5
115
330
1F
100
AcDbEntity
  8
0
  6
HIDDEN
 62
     7
370
     0
100
AcDbLine
 10
52.7042130914
 20
141.6403032041
 30
0.0
 11
52.7042130914
 21
148.0149119411
 31
0.0
  0
LINE
  5
116
330
1F
100
AcDbEntity
  8
0
  6
HIDDEN
 62
     7
370
     0
100
AcDbLine
 10
44.2542130914
 20
141.6403032041
 30
0.0
 11
44.2542130914
 21
146.5185884059
 31
0.0
  0
LINE
  5
117
330
1F
100
AcDbEntity
  8
0
  6
HIDDEN
 62
     7
370
     0
100
AcDbLine
 10
116.8042130914
 20
101.2703032041
 30
0.0
 11
116.8042130914
 21
127.2703032041
 31
0.0
  0
LINE
  5
118
330
1F
100
AcDbEntity
  8
0
  6
HIDDEN
 62
     7
370
     0
100
AcDbLine
 10
120.8042130914
 20
101.2703032041
 30
0.0
 11
120.8042130914
 21
127.2703032041
 31
0.0
  0
LWPOLYLINE
  5
119
330
1F
100
AcDbEntity
  8
0
  6
HIDDEN
 62
     7
370
     0
100
AcDbPolyline
 90
       17
 70
   128
 43
0.0
 10
208.5042130914
 20
102.1080665677
 10
207.9301879428
 20
102.1888045158
 10
207.4435529196
 20
102.4187267395
 10
207.1183937926
 20
102.7628296644
 10
207.0042130914
 20
103.1687267395
 10
207.1183937926
 20
103.5746238146
 10
207.4435529196
 20
103.9187267395
 10
207.9301879428
 20
104.1486489631
 10
208.5042130914
 20
104.2293869113
 10
209.0782382399
 20
104.1486489631
 10
209.5648732632
 20
103.9187267395
 10
209.8900323901
 20
103.5746238146
 10
210.0042130914
 20
103.1687267395
 10
209.8900323901
 20
102.7628296644
 10
209.5648732632
 20
102.4187267395
 10
209.0782382399
 20
102.1888045158
 10
208.5042130914
 20
102.1080665677
  0
SPLINE
  5
11A
330
1F
100
AcDbEntity
  8
0
  6
HIDDEN
 62
     7
370
     0
100
AcDbSpline
210
0.0
220
0.0
230
1.0
 70
     8
 71
     3
 72
    14
 73
    10
 74
     0
 42
0.00000001
 43
0.00000001
 40
0.0
 40
0.0
 40
0.0
 40
0.0
 40
0.25
 40
0.25
 40
0.5
 40
0.5
 40
0.75
 40
0.75
 40
1.0
 40
1.0
 40
1.0
 40
1.0
 10
207.556893871366
 20
103.7432444080775
 30
0.0
 10
207.5930136162727
 20
103.7762935198503
 30
0.0
 10
207.6244653343646
 20
103.8165064099201
 30
0.0
 10
207.6678703029366
 20
103.9156843658601
 30
0.0
 10
207.6783442287967
 20
103.9729623644381
 30
0.0
 10
207.6698828752815
 20
104.102334089423
 30
0.0
 10
207.6509171657448
 20
104.1727638793415
 30
0.0
 10
207.5944067121918
 20
104.3179701195451
 30
0.0
 10
207.5577863431235
 20
104.3919932101008
 30
0.0
 10
207.5179387378814
 20
104.4675488934715
 30
0.0
  0
SPLINE
  5
11B
330
1F
100
AcDbEntity
  8
0
  6
HIDDEN
 62
     7
370
     0
100
AcDbSpline
210
0.0
220
0.0
230
1.0
 70
     8
 71
     3
 72
    14
 73
    10
 74
     0
 42
0.00000001
 43
0.00000001
 40
0.0
 40
0.0
 40
0.0
 40
0.0
 40
0.25
 40
0.25
 40
0.5
 40
0.5
 40
0.75
 40
0.75
 40
1.0
 40
1.0
 40
1.0
 40
1.0
 10
207.5179387378813
 20
104.4675488934711
 30
0.0
 10
207.4855858445158
 20
104.4311578566729
 30
0.0
 10
207.4546116602777
 20
104.3955872254957
 30
0.0
 10
207.4047654195841
 20
104.3143164777206
 30
0.0
 10
207.3860655769085
 20
104.2662758849972
 30
0.0
 10
207.3961067331985
 20
104.1310390286493
 30
0.0
 10
207.422697337746
 20
104.0508420096028
 30
0.0
 10
207.484114436019
 20
103.8957292024166
 30
0.0
 10
207.5197546889884
 20
103.8188361132056
 30
0.0
 10
207.5568938713659
 20
103.743244408077
 30
0.0
  0
SPLINE
  5
11C
330
1F
100
AcDbEntity
  8
0
  6
HIDDEN
 62
     7
370
     0
100
AcDbSpline
210
0.0
220
0.0
230
1.0
 70
     8
 71
     3
 72
    48
 73
    44
 74
     0
 42
0.00000001
 43
0.00000001
 40
-0.0625000000000041
 40
-0.0625000000000041
 40
0.0
 40
0.0
 40
0.0312499999999993
 40
0.0312499999999993
 40
0.0624999999999986
 40
0.0624999999999986
 40
0.1249999999999966
 40
0.1249999999999966
 40
0.1874999999999946
 40
0.1874999999999946
 40
0.2499999999999926
 40
0.2499999999999926
 40
0.3124999999999906
 40
0.3124999999999906
 40
0.3437499999999905
 40
0.3437499999999905
 40
0.3749999999999903
 40
0.3749999999999903
 40
0.4062499999999902
 40
0.4062499999999902
 40
0.4374999999999901
 40
0.4374999999999901
 40
0.4999999999999905
 40
0.4999999999999905
 40
0.5624999999999908
 40
0.5624999999999908
 40
0.6249999999999911
 40
0.6249999999999911
 40
0.6874999999999915
 40
0.6874999999999915
 40
0.7499999999999918
 40
0.7499999999999918
 40
0.8124999999999921
 40
0.8124999999999921
 40
0.843749999999993
 40
0.843749999999993
 40
0.874999999999994
 40
0.874999999999994
 40
0.9062499999999949
 40
0.9062499999999949
 40
0.9374999999999959
 40
0.9374999999999959
 40
1.0
 40
1.0
 40
1.031249999999999
 40
1.031249999999999
 10
209.6350030687283
 20
103.6970876026543
 30
0.0
 10
209.7570708992454
 20
103.7004789278762
 30
0.0
 10
209.7955332291631
 20
103.7089257438225
 30
0.0
 10
209.8656827049296
 20
103.7412006078767
 30
0.0
 10
209.8976998377047
 20
103.7654733653425
 30
0.0
 10
209.9764354246224
 20
103.8622960268638
 30
0.0
 10
210.0061638254433
 20
103.9614456645988
 30
0.0
 10
210.0020520714132
 20
104.2103674663685
 30
0.0
 10
209.9680059787478
 20
104.360968913463
 30
0.0
 10
209.856639820223
 20
104.6698840839915
 30
0.0
 10
209.7802408966324
 20
104.8286439636174
 30
0.0
 10
209.6170677163681
 20
105.1364152104557
 30
0.0
 10
209.5284282503525
 20
105.2871527433658
 30
0.0
 10
209.4192141496235
 20
105.5050779568883
 30
0.0
 10
209.3862926019117
 20
105.5782336165808
 30
0.0
 10
209.3418418889117
 20
105.7177702602266
 30
0.0
 10
209.3306090704877
 20
105.7857708955952
 30
0.0
 10
209.3373968689116
 20
105.9057044071063
 30
0.0
 10
209.3551438321972
 20
105.9591231417612
 30
0.0
 10
209.40729435867
 20
106.0472702200907
 30
0.0
 10
209.4416675231372
 20
106.0833924061751
 30
0.0
 10
209.5536141838352
 20
106.1694917565258
 30
0.0
 10
209.6390981609886
 20
106.1985887739202
 30
0.0
 10
209.7972496388892
 20
106.2021273693549
 30
0.0
 10
209.869494514324
 20
106.1761625158747
 30
0.0
 10
209.975184570709
 20
106.0544654519274
 30
0.0
 10
210.0056836164673
 20
105.9576166926996
 30
0.0
 10
210.0026272405493
 20
105.7084676222324
 30
0.0
 10
209.9687045901549
 20
105.5555322993657
 30
0.0
 10
209.8587391625567
 20
105.2426514031994
 30
0.0
 10
209.7835838971639
 20
105.0816954811401
 30
0.0
 10
209.6248239674176
 20
104.7721930189361
 30
0.0
 10
209.5381792467759
 20
104.6193145524053
 30
0.0
 10
209.42970911233
 20
104.4006909369134
 30
0.0
 10
209.3967595456792
 20
104.3285439511282
 30
0.0
 10
209.347970005919
 20
104.1861959412664
 30
0.0
 10
209.3333784117953
 20
104.1179072893454
 30
0.0
 10
209.3333601749638
 20
103.9928265273561
 30
0.0
 10
209.3480424019229
 20
103.9379649718755
 30
0.0
 10
209.3980547779476
 20
103.8460189484281
 30
0.0
 10
209.4320410839783
 20
103.8097003833557
 30
0.0
 10
209.5463386525708
 20
103.7232272944166
 30
0.0
 10
209.6350030687283
 20
103.6970876026543
 30
0.0
 10
209.7570708992454
 20
103.7004789278762
 30
0.0
  0
SPLINE
  5
11D
330
1F
100
AcDbEntity
  8
0
  6
HIDDEN
 62
     7
370
     0
100
AcDbSpline
210
0.0
220
0.0
230
1.0
 70
     8
 71
     3
 72
     8
 73
     4
 74
     0
 42
0.00000001
 43
0.00000001
 40
0.0
 40
0.0
 40
0.0
 40
0.0
 40
1.0
 40
1.0
 40
1.0
 40
1.0
 10
209.7462471305874
 20
109.754675220534
 30
0.0
 10
209.7049388822447
 20
109.7921277754223
 30
0.0
 10
209.6593508129737
 20
109.831722632414
 30
0.0
 10
209.6094390732572
 20
109.8755812132506
 30
0.0
  0
SPLINE
  5
11E
330
1F
100
AcDbEntity
  8
0
  6
HIDDEN
 62
     7
370
     0
100
AcDbSpline
210
0.0
220
0.0
230
1.0
 70
     8
 71
     3
 72
    34
 73
    30
 74
     0
 42
0.00000001
 43
0.00000001
 40
0.0
 40
0.0
 40
0.0
 40
0.0
 40
0.0625000000000015
 40
0.0625000000000015
 40
0.1250000000000031
 40
0.1250000000000031
 40
0.2500000000000004
 40
0.2500000000000004
 40
0.3124999999999992
 40
0.3124999999999992
 40
0.3749999999999978
 40
0.3749999999999978
 40
0.4999999999999985
 40
0.4999999999999985
 40
0.5624999999999987
 40
0.5624999999999987
 40
0.6249999999999989
 40
0.6249999999999989
 40
0.6874999999999991
 40
0.6874999999999991
 40
0.7499999999999992
 40
0.7499999999999992
 40
0.8124999999999994
 40
0.8124999999999994
 40
0.8749999999999997
 40
0.8749999999999997
 40
0.9374999999999999
 40
0.9374999999999999
 40
1.0
 40
1.0
 40
1.0
 40
1.0
 10
209.6094390732572
 20
109.8755812132506
 30
0.0
 10
209.5073894776581
 20
109.9652545138277
 30
0.0
 10
209.3915041433983
 20
110.0423456839231
 30
0.0
 10
209.1321174899499
 20
110.1690188636939
 30
0.0
 10
208.9918792254043
 20
110.2165042706847
 30
0.0
 10
208.5535439046502
 20
110.3037860863652
 30
0.0
 10
208.2381956459086
 20
110.2838815777574
 30
0.0
 10
207.8206945388974
 20
110.1464797645634
 30
0.0
 10
207.6881149987759
 20
110.082522289678
 30
0.0
 10
207.4548709986216
 20
109.9302221743357
 30
0.0
 10
207.3508071316468
 20
109.8397398552451
 30
0.0
 10
207.0981877547822
 20
109.5484069397297
 30
0.0
 10
207.0043145121517
 20
109.321904004994
 30
0.0
 10
207.0041625081777
 20
109.0022185198114
 30
0.0
 10
207.0265548746049
 20
108.9003620082943
 30
0.0
 10
207.1158711007623
 20
108.7086235833449
 30
0.0
 10
207.1807753982411
 20
108.6224608324175
 30
0.0
 10
207.3508762590041
 20
108.4670206832758
 30
0.0
 10
207.4527658348498
 20
108.400965004845
 30
0.0
 10
207.6873622111283
 20
108.2904346281883
 30
0.0
 10
207.8183557520985
 20
108.2470860524615
 30
0.0
 10
208.0971286663573
 20
108.1850063269849
 30
0.0
 10
208.246224676592
 20
108.1661788449291
 30
0.0
 10
208.5447927299046
 20
108.1540507240516
 30
0.0
 10
208.6979255907372
 20
108.1606837334745
 30
0.0
 10
208.9891653383502
 20
108.1987406590214
 30
0.0
 10
209.1315190384467
 20
108.2307364946737
 30
0.0
 10
209.3890839233435
 20
108.3178619875251
 30
0.0
 10
209.5073849669516
 20
108.3737615633994
 30
0.0
 10
209.6094390732572
 20
108.4413737464057
 30
0.0
  0
SPLINE
  5
11F
330
1F
100
AcDbEntity
  8
0
  6
HIDDEN
 62
     7
370
     0
100
AcDbSpline
210
0.0
220
0.0
230
1.0
 70
     8
 71
     3
 72
     8
 73
     4
 74
     0
 42
0.00000001
 43
0.00000001
 40
0.0
 40
0.0
 40
0.0
 40
0.0
 40
1.0
 40
1.0
 40
1.0
 40
1.0
 10
209.6094390732572
 20
108.4413737464057
 30
0.0
 10
209.6593508129737
 20
108.4744409281394
 30
0.0
 10
209.7049388822447
 20
108.516443380609
 30
0.0
 10
209.7462471305874
 20
108.5652623860292
 30
0.0
  0
SPLINE
  5
120
330
1F
100
AcDbEntity
  8
0
  6
HIDDEN
 62
     7
370
     0
100
AcDbSpline
210
0.0
220
0.0
230
1.0
 70
     8
 71
     3
 72
    12
 73
     8
 74
     0
 42
0.00000001
 43
0.00000001
 40
0.0
 40
0.0
 40
0.0
 40
0.0
 40
0.2500000000000003
 40
0.2500000000000003
 40
0.5000000000000006
 40
0.5000000000000006
 40
1.0
 40
1.0
 40
1.0
 40
1.0
 10
209.7462471305874
 20
108.5652623860292
 30
0.0
 10
209.8300449444213
 20
108.6642965037146
 30
0.0
 10
209.8939185010054
 20
108.7662858701499
 30
0.0
 10
209.9817846398694
 20
108.9784341890158
 30
0.0
 10
210.0040764436967
 20
109.0855880837955
 30
0.0
 10
210.004484509558
 20
109.4015356780591
 30
0.0
 10
209.913845231757
 20
109.6027206512877
 30
0.0
 10
209.7462471305874
 20
109.754675220534
 30
0.0
  0
SPLINE
  5
121
330
1F
100
AcDbEntity
  8
0
  6
HIDDEN
 62
     7
370
     0
100
AcDbSpline
210
0.0
220
0.0
230
1.0
 70
     8
 71
     3
 72
    10
 73
     6
 74
     0
 42
0.00000001
 43
0.00000001
 40
0.0
 40
0.0
 40
0.0
 40
0.0
 40
0.5
 40
0.5
 40
1.0
 40
1.0
 40
1.0
 40
1.0
 10
207.5179387378813
 20
106.0658372902488
 30
0.0
 10
207.5975088010502
 20
106.0131656603621
 30
0.0
 10
207.6652041842086
 20
105.9276140979628
 30
0.0
 10
207.682878407378
 20
105.6834791922532
 30
0.0
 10
207.6291566879706
 20
105.5373471005477
 30
0.0
 10
207.556893871366
 20
105.3879852967273
 30
0.0
  0
SPLINE
  5
122
330
1F
100
AcDbEntity
  8
0
  6
HIDDEN
 62
     7
370
     0
100
AcDbSpline
210
0.0
220
0.0
230
1.0
 70
     8
 71
     3
 72
    14
 73
    10
 74
     0
 42
0.00000001
 43
0.00000001
 40
0.0
 40
0.0
 40
0.0
 40
0.0
 40
0.25
 40
0.25
 40
0.5
 40
0.5
 40
0.75
 40
0.75
 40
1.0
 40
1.0
 40
1.0
 40
1.0
 10
207.556893871366
 20
105.3879852967275
 30
0.0
 10
207.519681784396
 20
105.4208593967575
 30
0.0
 10
207.4839432283406
 20
105.452313491773
 30
0.0
 10
207.4224474991578
 20
105.5223487870975
 30
0.0
 10
207.3959406332218
 20
105.5614501958562
 30
0.0
 10
207.3861572927865
 20
105.6806287367175
 30
0.0
 10
207.4049404885958
 20
105.7589138201268
 30
0.0
 10
207.4548590971811
 20
105.9125574394085
 30
0.0
 10
207.4856678315965
 20
105.9897109091335
 30
0.0
 10
207.5179387378813
 20
106.0658372902488
 30
0.0
  0
SPLINE
  5
123
330
1F
100
AcDbEntity
  8
0
  6
HIDDEN
 62
     7
370
     0
100
AcDbSpline
210
0.0
220
0.0
230
1.0
 70
     8
 71
     3
 72
    10
 73
     6
 74
     0
 42
0.00000001
 43
0.00000001
 40
0.0
 40
0.0
 40
0.0
 40
0.0
 40
0.5
 40
0.5
 40
1.0
 40
1.0
 40
1.0
 40
1.0
 10
207.0042130913765
 20
105.1466308114961
 30
0.0
 10
207.0042130913764
 20
105.1702716754258
 30
0.0
 10
207.0053289682029
 20
105.1917228384532
 30
0.0
 10
207.0096221515396
 20
105.2304608861112
 30
0.0
 10
207.0128004247696
 20
105.2477501856109
 30
0.0
 10
207.0169394346449
 20
105.2628947254324
 30
0.0
  0
SPLINE
  5
124
330
1F
100
AcDbEntity
  8
0
  6
HIDDEN
 62
     7
370
     0
100
AcDbSpline
210
0.0
220
0.0
230
1.0
 70
     8
 71
     3
 72
    18
 73
    14
 74
     0
 42
0.00000001
 43
0.00000001
 40
0.0
 40
0.0
 40
0.0
 40
0.0
 40
0.073750133117339
 40
0.16241216445082
 40
0.2240281320612235
 40
0.272919491400576
 40
0.3218740121895374
 40
0.3894563753152729
 40
0.5009270566266791
 40
0.6197456719437981
 40
0.7649252634867707
 40
0.8997851949351029
 40
1.0
 40
1.0
 40
1.0
 40
1.0
 10
207.0335175377232
 20
105.2926997826294
 30
0.0
 10
207.0388806133493
 20
105.3048058598172
 30
0.0
 10
207.0506911509544
 20
105.3314658008364
 30
0.0
 10
207.0733921482993
 20
105.3303141676371
 30
0.0
 10
207.0889589697332
 20
105.308067369983
 30
0.0
 10
207.0943842293125
 20
105.2670082374542
 30
0.0
 10
207.0904076249016
 20
105.2054547167536
 30
0.0
 10
207.0738040067027
 20
105.1057842974292
 30
0.0
 10
207.0456632919135
 20
104.9704697640504
 30
0.0
 10
207.0156562615483
 20
104.8052050870682
 30
0.0
 10
207.0004559035963
 20
104.6495497576146
 30
0.0
 10
207.0078374133975
 20
104.5361712473392
 30
0.0
 10
207.0254034377191
 20
104.5052829505582
 30
0.0
 10
207.0328920165825
 20
104.4921149483875
 30
0.0
  0
LWPOLYLINE
  5
125
330
1F
100
AcDbEntity
  8
0
  6
HIDDEN
 62
     7
370
     0
100
AcDbPolyline
 90
       10
 70
   128
 43
0.0
 10
207.0391862655
 20
104.477515209
 10
207.0767198908
 20
104.4744652449
 10
207.0887701623
 20
104.4997437079
 10
207.0928980128
 20
104.5486631302
 10
207.0875302261
 20
104.6074981072
 10
207.0718196752
 20
104.6967598472
 10
207.041283974
 20
104.846090823
 10
207.0113841547
 20
105.0309759851
 10
207.0042130914
 20
105.1466308115
 10
207.0042130914
 20
105.1466308115
  0
LINE
  5
126
330
1F
100
AcDbEntity
  8
0
  6
HIDDEN
 62
     7
370
     0
100
AcDbLine
 10
105.7042130914
 20
103.0203032041
 30
0.0
 11
105.7042130914
 21
125.5203032041
 31
0.0
  0
ELLIPSE
  5
127
330
1F
100
AcDbEntity
  8
0
  6
HIDDEN
 62
     7
370
     0
100
AcDbEllipse
 10
36.3195398911
 20
114.2703032041
 30
0.0
 11
31.08108570811661
 21
1.421085471520200E-14
 31
0.0
210
0.0
220
0.0
230
1.0
 40
0.8164965809
 41
1.312649268214811
 42
1.367189972061496
  0
ELLIPSE
  5
128
330
1F
100
AcDbEntity
  8
0
  6
HIDDEN
 62
     7
370
     0
100
AcDbEllipse
 10
36.3195398911
 20
114.2703032041
 30
0.0
 11
31.08108570811661
 21
-1.421085471520200E-14
 31
0.0
210
0.0
220
0.0
230
1.0
 40
0.8164965809
 41
4.915995335118103
 42
4.970536038964787
  0
LINE
  5
129
330
1F
100
AcDbEntity
  8
0
  6
HIDDEN
 62
     7
370
     0
100
AcDbLine
 10
121.4542130914
 20
70.3703032041
 30
0.0
 11
107.4542130914
 21
70.3703032041
 31
0.0
  0
LINE
  5
12A
330
1F
100
AcDbEntity
  8
0
  6
HIDDEN
 62
     7
370
     0
100
AcDbLine
 10
97.4542130914
 20
64.2803042043
 30
0.0
 11
97.4542130914
 21
70.3703032041
 31
0.0
  0
LINE
  5
12B
330
1F
100
AcDbEntity
  8
0
  6
HIDDEN
 62
     7
370
     0
100
AcDbLine
 10
107.4542130914
 20
70.3703032041
 30
0.0
 11
97.4542130914
 21
70.3703032041
 31
0.0
  0
ARC
  5
12C
330
1F
100
AcDbEntity
  8
0
  6
HIDDEN
 62
     7
370
     0
100
AcDbCircle
 10
194.4087989721
 20
104.972429422
 30
0.0
 40
13.15466024510593
100
AcDbArc
 50
1.810275534
 51
4.7678934514
  0
LINE
  5
12D
330
1F
100
AcDbEntity
  8
0
  6
HIDDEN
 62
     7
370
     0
100
AcDbLine
 10
57.7042130914
 20
86.9003032041
 30
0.0
 11
57.7042130914
 21
89.0417895737
 31
0.0
  0
LINE
  5
12E
330
1F
100
AcDbEntity
  8
0
  6
HIDDEN
 62
     7
370
     0
100
AcDbLine
 10
44.2542130914
 20
86.9003032041
 30
0.0
 11
44.2542130914
 21
89.7335980463
 31
0.0
  0
LINE
  5
12F
330
1F
100
AcDbEntity
  8
0
  6
HIDDEN
 62
     7
370
     0
100
AcDbLine
 10
44.2542130914
 20
141.6403032041
 30
0.0
 11
44.2542130914
 21
138.8070083619
 31
0.0
  0
LINE
  5
130
330
1F
100
AcDbEntity
  8
0
  6
HIDDEN
 62
     7
370
     0
100
AcDbLine
 10
52.7042130914
 20
141.6403032041
 30
0.0
 11
52.7042130914
 21
139.4988168345
 31
0.0
  0
LINE
  5
131
330
1F
100
AcDbEntity
  8
0
  6
HIDDEN
 62
     7
370
     0
100
AcDbLine
 10
121.4542130914
 20
158.1703032041
 30
0.0
 11
107.4542130914
 21
158.1703032041
 31
0.0
  0
LINE
  5
132
330
1F
100
AcDbEntity
  8
0
  6
HIDDEN
 62
     7
370
     0
100
AcDbLine
 10
107.4542130914
 20
158.1703032041
 30
0.0
 11
97.4542130914
 21
158.1703032041
 31
0.0
  0
ARC
  5
133
330
1F
100
AcDbEntity
  8
0
  6
HIDDEN
 62
     7
370
     0
100
AcDbCircle
 10
223.7065634472
 20
104.9750188856
 30
0.0
 40
16.19657666833655
100
AcDbArc
 50
181.7954811518
 51
184.3616432553
  0
SPLINE
  5
134
330
1F
100
AcDbEntity
  8
0
  6
HIDDEN
 62
     7
370
     0
100
AcDbSpline
210
0.0
220
0.0
230
1.0
 70
     8
 71
     3
 72
    34
 73
    30
 74
     0
 42
0.00000001
 43
0.00000001
 40
0.0
 40
0.0
 40
0.0
 40
0.0
 40
0.0625000000000015
 40
0.0625000000000015
 40
0.1250000000000029
 40
0.1250000000000029
 40
0.2500000000000003
 40
0.2500000000000003
 40
0.3124999999999989
 40
0.3124999999999989
 40
0.3749999999999976
 40
0.3749999999999976
 40
0.4999999999999982
 40
0.4999999999999982
 40
0.5624999999999984
 40
0.5624999999999984
 40
0.6249999999999987
 40
0.6249999999999987
 40
0.6874999999999989
 40
0.6874999999999989
 40
0.7499999999999991
 40
0.7499999999999991
 40
0.8124999999999994
 40
0.8124999999999994
 40
0.8749999999999997
 40
0.8749999999999997
 40
0.9374999999999999
 40
0.9374999999999999
 40
1.0
 40
1.0
 40
1.0
 40
1.0
 10
209.6094390732572
 20
118.6650251949854
 30
0.0
 10
209.5073894776581
 20
118.5753518944083
 30
0.0
 10
209.3915041433984
 20
118.498260724313
 30
0.0
 10
209.1321174899499
 20
118.3715875445421
 30
0.0
 10
208.9918792254044
 20
118.3241021375514
 30
0.0
 10
208.5535439046502
 20
118.2368203218709
 30
0.0
 10
208.2381956459086
 20
118.2567248304787
 30
0.0
 10
207.8206945388974
 20
118.3941266436727
 30
0.0
 10
207.688114998776
 20
118.4580841185581
 30
0.0
 10
207.4548709986216
 20
118.6103842339004
 30
0.0
 10
207.3508071316468
 20
118.700866552991
 30
0.0
 10
207.0981877547822
 20
118.9921994685063
 30
0.0
 10
207.0043145121518
 20
119.218702403242
 30
0.0
 10
207.0041625081776
 20
119.5383878884247
 30
0.0
 10
207.0265548746049
 20
119.6402443999418
 30
0.0
 10
207.1158711007623
 20
119.8319828248911
 30
0.0
 10
207.1807753982411
 20
119.9181455758185
 30
0.0
 10
207.3508762590041
 20
120.0735857249603
 30
0.0
 10
207.4527658348498
 20
120.1396414033911
 30
0.0
 10
207.6873622111283
 20
120.2501717800478
 30
0.0
 10
207.8183557520985
 20
120.2935203557745
 30
0.0
 10
208.0971286663573
 20
120.3556000812512
 30
0.0
 10
208.2462246765921
 20
120.3744275633069
 30
0.0
 10
208.5447927299046
 20
120.3865556841844
 30
0.0
 10
208.6979255907372
 20
120.3799226747616
 30
0.0
 10
208.9891653383502
 20
120.3418657492146
 30
0.0
 10
209.1315190384467
 20
120.3098699135624
 30
0.0
 10
209.3890839233435
 20
120.222744420711
 30
0.0
 10
209.5073849669516
 20
120.1668448448367
 30
0.0
 10
209.6094390732572
 20
120.0992326618304
 30
0.0
  0
LINE
  5
135
330
1F
100
AcDbEntity
  8
0
  6
HIDDEN
 62
     7
370
     0
100
AcDbLine
 10
206.5042130914
 20
107.3703032041
 30
0.0
 11
206.5042130914
 21
121.1703025084
 31
0.0
  0
SPLINE
  5
136
330
1F
100
AcDbEntity
  8
0
  6
HIDDEN
 62
     7
370
     0
100
AcDbSpline
210
0.0
220
0.0
230
1.0
 70
     8
 71
     3
 72
     8
 73
     4
 74
     0
 42
0.00000001
 43
0.00000001
 40
0.0
 40
0.0
 40
0.0
 40
0.0
 40
1.0
 40
1.0
 40
1.0
 40
1.0
 10
209.6094390732572
 20
120.0992326618303
 30
0.0
 10
209.6593508129737
 20
120.0661654800966
 30
0.0
 10
209.7049388822447
 20
120.024163027627
 30
0.0
 10
209.7462471305874
 20
119.9753440222069
 30
0.0
  0
SPLINE
  5
137
330
1F
100
AcDbEntity
  8
0
  6
HIDDEN
 62
     7
370
     0
100
AcDbSpline
210
0.0
220
0.0
230
1.0
 70
     8
 71
     3
 72
    12
 73
     8
 74
     0
 42
0.00000001
 43
0.00000001
 40
0.0
 40
0.0
 40
0.0
 40
0.0
 40
0.2500000000000003
 40
0.2500000000000003
 40
0.5000000000000006
 40
0.5000000000000006
 40
1.0
 40
1.0
 40
1.0
 40
1.0
 10
209.7462471305874
 20
119.9753440222069
 30
0.0
 10
209.8300449444213
 20
119.8763099045215
 30
0.0
 10
209.8939185010054
 20
119.7743205380861
 30
0.0
 10
209.9817846398694
 20
119.5621722192203
 30
0.0
 10
210.0040764436967
 20
119.4550183244406
 30
0.0
 10
210.004484509558
 20
119.1390707301769
 30
0.0
 10
209.913845231757
 20
118.9378857569483
 30
0.0
 10
209.7462471305874
 20
118.7859311877021
 30
0.0
  0
LINE
  5
138
330
1F
100
AcDbEntity
  8
0
  6
HIDDEN
 62
     7
370
     0
100
AcDbLine
 10
210.5042130914
 20
107.2703032041
 30
0.0
 11
210.5042130914
 21
121.2703032041
 31
0.0
  0
SPLINE
  5
139
330
1F
100
AcDbEntity
  8
0
  6
HIDDEN
 62
     7
370
     0
100
AcDbSpline
210
0.0
220
0.0
230
1.0
 70
     8
 71
     3
 72
    30
 73
    26
 74
     0
 42
0.00000001
 43
0.00000001
 40
0.0
 40
0.0
 40
0.0
 40
0.0
 40
0.0531667895944306
 40
0.1125460296559538
 40
0.1779415679821296
 40
0.2129647100201478
 40
0.2495168542536672
 40
0.2912815776497699
 40
0.3261229899598991
 40
0.3540373789034075
 40
0.3750220973121863
 40
0.4414779749354779
 40
0.5001939956662949
 40
0.5547072327721178
 40
0.6144498286121054
 40
0.679473417768819
 40
0.7140294887762105
 40
0.7499254981893783
 40
0.7913888898760563
 40
0.8260548959441428
 40
0.8539197326816724
 40
0.8749805480645612
 40
0.9411652353121804
 40
0.9999141591644691
 40
1.0
 40
1.0
 40
1.0
 40
1.0
 10
83.50378991772602
 20
77.1703662221709
 30
0.0
 10
83.48758838949239
 20
77.17526837362044
 30
0.0
 10
83.45329221154061
 20
77.18564548471984
 30
0.0
 10
83.15194561705034
 20
77.26130674716109
 30
0.0
 10
82.7097733508316
 20
77.35759387987001
 30
0.0
 10
82.21494117964858
 20
77.45725858961657
 30
0.0
 10
81.7444653794506
 20
77.54953676246052
 30
0.0
 10
81.21354399379865
 20
77.64516878731597
 30
0.0
 10
80.67539348280047
 20
77.7308190321854
 30
0.0
 10
80.21734615022699
 20
77.79811082485378
 30
0.0
 10
79.56178182862574
 20
77.88645899392601
 30
0.0
 10
78.6784753909324
 20
77.98311707811122
 30
0.0
 10
77.54981365812398
 20
78.06989225489424
 30
0.0
 10
76.46005190840165
 20
78.1079709526023
 30
0.0
 10
75.36402362996438
 20
78.10982138736726
 30
0.0
 10
74.45863238302245
 20
78.08365993178177
 30
0.0
 10
73.76232967260711
 20
78.0470527066529
 30
0.0
 10
73.23564994433211
 20
78.00803583117583
 30
0.0
 10
72.76900382929946
 20
77.96582670370391
 30
0.0
 10
72.39778855357565
 20
77.92882261413453
 30
0.0
 10
72.1437420763336
 20
77.90012185369017
 30
0.0
 10
71.8426869236242
 20
77.86374190310049
 30
0.0
 10
71.58720312882056
 20
77.8309617361116
 30
0.0
 10
71.48798240387441
 20
77.8146238514091
 30
0.0
 10
71.50426296115752
 20
77.81721743757817
 30
0.0
 10
71.50428671474349
 20
77.81722122166069
 30
0.0
  0
SPLINE
  5
13A
330
1F
100
AcDbEntity
  8
0
  6
HIDDEN
 62
     7
370
     0
100
AcDbSpline
210
0.0
220
0.0
230
1.0
 70
     8
 71
     3
 72
    30
 73
    26
 74
     0
 42
0.00000001
 43
0.00000001
 40
0.0
 40
0.0
 40
0.0
 40
0.0
 40
0.0001123288057695
 40
0.0285431152663135
 40
0.0588466796063202
 40
0.091027196450477
 40
0.1250880910051604
 40
0.1546766141497773
 40
0.1963554560485685
 40
0.2501101496291966
 40
0.320525387238388
 40
0.3856104300246703
 40
0.445403860889207
 40
0.4999571692316274
 40
0.5283494388508946
 40
0.558634027028705
 40
0.5908185964995195
 40
0.6249094714581434
 40
0.6541844575853767
 40
0.6958630078636641
 40
0.7499307292180327
 40
0.8215905285694356
 40
0.8871422909715975
 40
0.9466378748868088
 40
1.0
 40
1.0
 40
1.0
 40
1.0
 10
71.5043084234768
 20
150.7233149131464
 30
0.0
 10
71.50427656371866
 20
150.7233218602726
 30
0.0
 10
71.4961808954478
 20
150.7250871476648
 30
0.0
 10
71.5248423731172
 20
150.7196322289399
 30
0.0
 10
71.59822921927142
 20
150.7090893815937
 30
0.0
 10
71.74188576282216
 20
150.6894041739403
 30
0.0
 10
71.94292146277965
 20
150.664564910085
 30
0.0
 10
72.2255520120487
 20
150.6303564449462
 30
0.0
 10
72.63896113762335
 20
150.5866765481862
 30
0.0
 10
73.31524863880557
 20
150.5236334806529
 30
0.0
 10
74.25367953972152
 20
150.4623363102202
 30
0.0
 10
75.36317275321741
 20
150.4310478667197
 30
0.0
 10
76.46065348390616
 20
150.4327030343164
 30
0.0
 10
77.36068472236346
 20
150.4640092364137
 30
0.0
 10
78.07202564821439
 20
150.5108423852162
 30
0.0
 10
78.63744254920516
 20
150.5580092471121
 30
0.0
 10
79.22636597203349
 20
150.6174482536621
 30
0.0
 10
79.79077562451099
 20
150.6838054602701
 30
0.0
 10
80.38497181844717
 20
150.7657248667016
 30
0.0
 10
81.05157997941765
 20
150.867372849452
 30
0.0
 10
81.85291272511789
 20
151.0095117600523
 30
0.0
 10
82.60542270962581
 20
151.1607563308187
 30
0.0
 10
83.15070920459199
 20
151.2786072040781
 30
0.0
 10
83.45343073609084
 20
151.3548364358274
 30
0.0
 10
83.48772118670387
 20
151.3652887453219
 30
0.0
 10
83.5039346233539
 20
151.370230875122
 30
0.0
  0
LINE
  5
13B
330
1F
100
AcDbEntity
  8
0
  6
HIDDEN
 62
     7
370
     0
100
AcDbLine
 10
150.6042130914
 20
108.2703032041
 30
0.0
 11
150.6042130914
 21
120.2703032041
 31
0.0
  0
LINE
  5
13C
330
1F
100
AcDbEntity
  8
0
  6
HIDDEN
 62
     7
370
     0
100
AcDbLine
 10
151.129966133
 20
109.1453032041
 30
0.0
 11
151.129966133
 21
119.3953032041
 31
0.0
  0
SPLINE
  5
13D
330
1F
100
AcDbEntity
  8
0
  6
HIDDEN
 62
     7
370
     0
100
AcDbSpline
210
0.0
220
0.0
230
1.0
 70
     8
 71
     3
 72
     8
 73
     4
 74
     0
 42
0.00000001
 43
0.00000001
 40
0.0
 40
0.0
 40
0.0
 40
0.0
 40
1.0
 40
1.0
 40
1.0
 40
1.0
 10
209.7462471305874
 20
118.7859311877021
 30
0.0
 10
209.7049388822447
 20
118.7484786328138
 30
0.0
 10
209.6593508129737
 20
118.7088837758221
 30
0.0
 10
209.6094390732572
 20
118.6650251949854
 30
0.0
  0
LINE
  5
13E
330
1F
100
AcDbEntity
  8
0
  6
HIDDEN
 62
     7
370
     0
100
AcDbLine
 10
161.4542130914
 20
136.1929529349
 30
0.0
 11
163.9542130914
 21
136.1929529349
 31
0.0
  0
LINE
  5
13F
330
1F
100
AcDbEntity
  8
0
  6
HIDDEN
 62
     7
370
     0
100
AcDbLine
 10
158.9542130914
 20
136.1929529349
 30
0.0
 11
161.4542130914
 21
136.1929529349
 31
0.0
  0
LINE
  5
140
330
1F
100
AcDbEntity
  8
0
  6
HIDDEN
 62
     7
370
     0
100
AcDbLine
 10
163.9542130914
 20
92.3476534733
 30
0.0
 11
158.9542130914
 21
92.3476534733
 31
0.0
  0
LINE
  5
141
330
1F
100
AcDbEntity
  8
0
  6
HIDDEN
 62
     7
370
     0
100
AcDbLine
 10
161.4542130914
 20
124.7703032041
 30
0.0
 11
163.9542130914
 21
124.7703032041
 31
0.0
  0
LINE
  5
142
330
1F
100
AcDbEntity
  8
0
  6
HIDDEN
 62
     7
370
     0
100
AcDbLine
 10
158.9542130914
 20
124.7703032041
 30
0.0
 11
161.4542130914
 21
124.7703032041
 31
0.0
  0
LINE
  5
143
330
1F
100
AcDbEntity
  8
0
  6
HIDDEN
 62
     7
370
     0
100
AcDbLine
 10
163.9542130914
 20
103.7703032041
 30
0.0
 11
158.9542130914
 21
103.7703032041
 31
0.0
  0
SPLINE
  5
144
330
1F
100
AcDbEntity
  8
0
  6
HIDDEN
 62
     7
370
     0
100
AcDbSpline
210
0.0
220
0.0
230
1.0
 70
     8
 71
     3
 72
    18
 73
    14
 74
     0
 42
0.00000001
 43
0.00000001
 40
0.0
 40
0.0
 40
0.0
 40
0.0
 40
0.1410987865308748
 40
0.2214381704371544
 40
0.2795762600237642
 40
0.3264241696474839
 40
0.3732806456944613
 40
0.4409999575654064
 40
0.5521728817386111
 40
0.6700632989092183
 40
0.8133924974407883
 40
0.9537085019385022
 40
1.0
 40
1.0
 40
1.0
 40
1.0
 10
207.0236465361967
 20
124.0375672753201
 30
0.0
 10
207.0351621645011
 20
124.0550053515165
 30
0.0
 10
207.0532346066946
 20
124.0823723883549
 30
0.0
 10
207.0798007916239
 20
124.0679928218211
 30
0.0
 10
207.0920017939036
 20
124.0356383795304
 30
0.0
 10
207.0940434811664
 20
123.9879347333596
 30
0.0
 10
207.086811679788
 20
123.9210154266471
 30
0.0
 10
207.0668133619057
 20
123.816451458941
 30
0.0
 10
207.0369714372427
 20
123.6784504981451
 30
0.0
 10
207.0090407337307
 20
123.5149399849898
 30
0.0
 10
207.0004866195186
 20
123.367543243011
 30
0.0
 10
207.0123005696146
 20
123.2707873845757
 30
0.0
 10
207.0290074411159
 20
123.2518891303298
 30
0.0
 10
207.0331518945763
 20
123.2472010631953
 30
0.0
  0
LWPOLYLINE
  5
145
330
1F
100
AcDbEntity
  8
0
  6
HIDDEN
 62
     7
370
     0
100
AcDbPolyline
 90
       11
 70
   128
 43
0.0
 10
207.0575153296
 20
123.2136575583
 10
207.0782450363
 20
123.2189273578
 10
207.0900030746
 20
123.24547586
 10
207.0929489829
 20
123.2858504228
 10
207.0885789718
 20
123.3402162493
 10
207.0730230733
 20
123.4344499751
 10
207.0414476806
 20
123.5956658208
 10
207.0149168254
 20
123.7580211316
 10
207.0043065339
 20
123.9165327039
 10
207.0169276543
 20
124.0184150551
 10
207.0236465362
 20
124.0375672753
  0
SPLINE
  5
146
330
1F
100
AcDbEntity
  8
0
  6
HIDDEN
 62
     7
370
     0
100
AcDbSpline
210
0.0
220
0.0
230
1.0
 70
     8
 71
     3
 72
    14
 73
    10
 74
     0
 42
0.00000001
 43
0.00000001
 40
0.0
 40
0.0
 40
0.0
 40
0.0
 40
0.25
 40
0.25
 40
0.5
 40
0.5
 40
0.75
 40
0.75
 40
1.0
 40
1.0
 40
1.0
 40
1.0
 10
207.556893871366
 20
124.7973620001585
 30
0.0
 10
207.5930136162726
 20
124.7643128883857
 30
0.0
 10
207.6244653343645
 20
124.7240999983159
 30
0.0
 10
207.6678703029364
 20
124.624922042376
 30
0.0
 10
207.6783442287965
 20
124.567644043798
 30
0.0
 10
207.6698828752814
 20
124.4382723188132
 30
0.0
 10
207.6509171657447
 20
124.3678425288947
 30
0.0
 10
207.5944067121919
 20
124.2226362886912
 30
0.0
 10
207.5577863431234
 20
124.1486131981352
 30
0.0
 10
207.5179387378813
 20
124.0730575147646
 30
0.0
  0
SPLINE
  5
147
330
1F
100
AcDbEntity
  8
0
  6
HIDDEN
 62
     7
370
     0
100
AcDbSpline
210
0.0
220
0.0
230
1.0
 70
     8
 71
     3
 72
    14
 73
    10
 74
     0
 42
0.00000001
 43
0.00000001
 40
0.0
 40
0.0
 40
0.0
 40
0.0
 40
0.25
 40
0.25
 40
0.5
 40
0.5
 40
0.75
 40
0.75
 40
1.0
 40
1.0
 40
1.0
 40
1.0
 10
207.5179387378812
 20
124.0730575147652
 30
0.0
 10
207.4855858445158
 20
124.1094485515633
 30
0.0
 10
207.4546116602778
 20
124.1450191827405
 30
0.0
 10
207.4047654195842
 20
124.2262899305157
 30
0.0
 10
207.3860655769086
 20
124.2743305232391
 30
0.0
 10
207.3961067331987
 20
124.409567379587
 30
0.0
 10
207.4226973377461
 20
124.4897643986334
 30
0.0
 10
207.4841144360191
 20
124.6448772058195
 30
0.0
 10
207.5197546889885
 20
124.7217702950304
 30
0.0
 10
207.556893871366
 20
124.7973620001591
 30
0.0
  0
LWPOLYLINE
  5
148
330
1F
100
AcDbEntity
  8
0
  6
HIDDEN
 62
     7
370
     0
100
AcDbPolyline
 90
       17
 70
   128
 43
0.0
 10
208.5042130914
 20
123.4626913595
 10
209.0782382399
 20
123.5434293077
 10
209.5648732632
 20
123.7733515313
 10
209.8900323901
 20
124.1174544562
 10
210.0042130914
 20
124.5233515313
 10
209.8900323901
 20
124.9292486064
 10
209.5648732632
 20
125.2733515313
 10
209.0782382399
 20
125.503273755
 10
208.5042130914
 20
125.5840117031
 10
207.9301879428
 20
125.503273755
 10
207.4435529196
 20
125.2733515313
 10
207.1183937926
 20
124.9292486064
 10
207.0042130914
 20
124.5233515313
 10
207.1183937926
 20
124.1174544562
 10
207.4435529196
 20
123.7733515313
 10
207.9301879428
 20
123.5434293077
 10
208.5042130914
 20
123.4626913595
  0
SPLINE
  5
149
330
1F
100
AcDbEntity
  8
0
  6
HIDDEN
 62
     7
370
     0
100
AcDbSpline
210
0.0
220
0.0
230
1.0
 70
     8
 71
     3
 72
    48
 73
    44
 74
     0
 42
0.00000001
 43
0.00000001
 40
-0.0624999999999982
 40
-0.0624999999999982
 40
0.0
 40
0.0
 40
0.0625000000000008
 40
0.0625000000000008
 40
0.1250000000000016
 40
0.1250000000000016
 40
0.1875000000000024
 40
0.1875000000000024
 40
0.2500000000000032
 40
0.2500000000000032
 40
0.312500000000004
 40
0.312500000000004
 40
0.3437500000000051
 40
0.3437500000000051
 40
0.3750000000000061
 40
0.3750000000000061
 40
0.406250000000007
 40
0.406250000000007
 40
0.4375000000000081
 40
0.4375000000000081
 40
0.5000000000000079
 40
0.5000000000000079
 40
0.5625000000000077
 40
0.5625000000000077
 40
0.6250000000000074
 40
0.6250000000000074
 40
0.6562500000000069
 40
0.6562500000000069
 40
0.6875000000000063
 40
0.6875000000000063
 40
0.7500000000000052
 40
0.7500000000000052
 40
0.8125000000000041
 40
0.8125000000000041
 40
0.8437500000000036
 40
0.8437500000000036
 40
0.8750000000000029
 40
0.8750000000000029
 40
0.9062500000000023
 40
0.9062500000000023
 40
0.9375000000000018
 40
0.9375000000000018
 40
1.0
 40
1.0
 40
1.062500000000001
 40
1.062500000000001
 10
209.7979593004017
 20
123.7477521169015
 30
0.0
 10
209.6348039444113
 20
123.4357279894493
 30
0.0
 10
209.54710003516
 20
123.2863967361495
 30
0.0
 10
209.3951082057091
 20
122.9909126995649
 30
0.0
 10
209.3342205880174
 20
122.8459493726027
 30
0.0
 10
209.3325367515723
 20
122.5947072857428
 30
0.0
 10
209.390983452076
 20
122.502411694158
 30
0.0
 10
209.5360065214352
 20
122.3796158023374
 30
0.0
 10
209.6215256296958
 20
122.3468558747154
 30
0.0
 10
209.7808179719735
 20
122.3352639873447
 30
0.0
 10
209.8555320137586
 20
122.3570111585708
 30
0.0
 10
209.9391864208092
 20
122.4415677205638
 30
0.0
 10
209.9617497786403
 20
122.4779599487804
 30
0.0
 10
209.9935867519715
 20
122.56788940366
 30
0.0
 10
210.0027377505885
 20
122.62213788195
 30
0.0
 10
210.005349524778
 20
122.7427012348533
 30
0.0
 10
209.9988945373849
 20
122.8107970225578
 30
0.0
 10
209.9717071869084
 20
122.9546861579574
 30
0.0
 10
209.9511874024384
 20
123.0303853933004
 30
0.0
 10
209.8727718329179
 20
123.2647347011452
 30
0.0
 10
209.7995858385411
 20
123.425441685893
 30
0.0
 10
209.6426065828184
 20
123.7355878837668
 30
0.0
 10
209.5562312817688
 20
123.8885488702413
 30
0.0
 10
209.4071298275136
 20
124.1825093651541
 30
0.0
 10
209.3423774782457
 20
124.3297545000174
 30
0.0
 10
209.3302049409805
 20
124.5215440157523
 30
0.0
 10
209.3405861688457
 20
124.5786664743189
 30
0.0
 10
209.3842271001982
 20
124.6756617700322
 30
0.0
 10
209.4160259744764
 20
124.7144661110998
 30
0.0
 10
209.5260795335384
 20
124.8082666179884
 30
0.0
 10
209.6137460404679
 20
124.8385889280297
 30
0.0
 10
209.7784827080866
 20
124.8438356692694
 30
0.0
 10
209.8537958997408
 20
124.817980197736
 30
0.0
 10
209.938509845675
 20
124.728655325647
 30
0.0
 10
209.9612069135989
 20
124.6911319108915
 30
0.0
 10
209.9934601816101
 20
124.5990047030459
 30
0.0
 10
210.0026189232579
 20
124.5445644617838
 30
0.0
 10
210.005418222091
 20
124.4239667474556
 30
0.0
 10
209.9990242803885
 20
124.3560239422862
 30
0.0
 10
209.9719312163061
 20
124.2135669280495
 30
0.0
 10
209.9513094445157
 20
124.138438485091
 30
0.0
 10
209.8722146281754
 20
123.9065694812326
 30
0.0
 10
209.7979593004017
 20
123.7477521169015
 30
0.0
 10
209.6348039444113
 20
123.4357279894493
 30
0.0
  0
SPLINE
  5
14A
330
1F
100
AcDbEntity
  8
0
  6
HIDDEN
 62
     7
370
     0
100
AcDbSpline
210
0.0
220
0.0
230
1.0
 70
     8
 71
     3
 72
    10
 73
     6
 74
     0
 42
0.00000001
 43
0.00000001
 40
0.0
 40
0.0
 40
0.0
 40
0.0
 40
0.5
 40
0.5
 40
1.0
 40
1.0
 40
1.0
 40
1.0
 10
207.5179387378813
 20
122.4747691179871
 30
0.0
 10
207.5975088010503
 20
122.5274407478737
 30
0.0
 10
207.6652041842088
 20
122.612992310273
 30
0.0
 10
207.6828784073782
 20
122.8571272159829
 30
0.0
 10
207.6291566879707
 20
123.0032593076886
 30
0.0
 10
207.556893871366
 20
123.152621111509
 30
0.0
  0
SPLINE
  5
14B
330
1F
100
AcDbEntity
  8
0
  6
HIDDEN
 62
     7
370
     0
100
AcDbSpline
210
0.0
220
0.0
230
1.0
 70
     8
 71
     3
 72
    14
 73
    10
 74
     0
 42
0.00000001
 43
0.00000001
 40
0.0
 40
0.0
 40
0.0
 40
0.0
 40
0.25
 40
0.25
 40
0.5
 40
0.5
 40
0.75
 40
0.75
 40
1.0
 40
1.0
 40
1.0
 40
1.0
 10
207.556893871366
 20
123.1526211115087
 30
0.0
 10
207.519681784396
 20
123.1197470114787
 30
0.0
 10
207.4839432283406
 20
123.0882929164632
 30
0.0
 10
207.4224474991577
 20
123.0182576211388
 30
0.0
 10
207.3959406332216
 20
122.97915621238
 30
0.0
 10
207.3861572927864
 20
122.8599776715186
 30
0.0
 10
207.4049404885957
 20
122.7816925881093
 30
0.0
 10
207.4548590971811
 20
122.6280489688274
 30
0.0
 10
207.4856678315964
 20
122.5508954991024
 30
0.0
 10
207.5179387378813
 20
122.4747691179871
 30
0.0
  0
ARC
  5
14C
330
1F
100
AcDbEntity
  8
0
  6
HIDDEN
 62
     7
370
     0
100
AcDbCircle
 10
223.7065634473
 20
123.5655875226
 30
0.0
 40
16.19657666842777
100
AcDbArc
 50
175.6383567447
 51
178.2045188482
  0
LWPOLYLINE
  5
14D
330
1F
100
AcDbEntity
  8
0
  6
HIDDEN
 62
     7
370
     0
100
AcDbPolyline
 90
       28
 70
   128
 43
0.0
 10
101.5042130914
 20
159.5830090559
 10
102.6572924451
 20
159.5413610905
 10
103.7482089924
 20
159.418662447
 10
104.7181511398
 20
159.2215278409
 10
105.5148290552
 20
158.9605848499
 10
106.0952936258
 20
158.6499009782
 10
106.4282518564
 20
158.3062252737
 10
106.4957538827
 20
157.9480853827
 10
106.294160653
 20
157.5947887193
 10
105.8343401103
 20
157.2653815981
 10
105.1410812992
 20
156.9776224423
 10
104.2517579817
 20
156.7470244224
 10
103.214313808
 20
156.5860191375
 10
102.084677662
 20
156.503286424
 10
100.9237485208
 20
156.503286424
 10
99.7941123747
 20
156.5860191375
 10
98.756668201
 20
156.7470244224
 10
97.8673448835
 20
156.9776224423
 10
97.1740860725
 20
157.2653815981
 10
96.7142655298
 20
157.5947887193
 10
96.5126723
 20
157.9480853827
 10
96.5801743263
 20
158.3062252737
 10
96.913132557
 20
158.6499009782
 10
97.4935971276
 20
158.9605848499
 10
98.2902750429
 20
159.2215278409
 10
99.2602171904
 20
159.418662447
 10
100.3511337377
 20
159.5413610905
 10
101.5042130914
 20
159.5830090559
  0
ARC
  5
14E
330
1F
100
AcDbEntity
  8
0
  6
HIDDEN
 62
     7
370
     0
100
AcDbCircle
 10
194.4087989721
 20
123.5681769862
 30
0.0
 40
13.15466024514154
100
AcDbArc
 50
355.2321065486
 51
358.189724466
  0
LINE
  5
14F
330
1F
100
AcDbEntity
  8
0
  6
HIDDEN
 62
     7
370
     0
100
AcDbLine
 10
115.7662421123
 20
153.221265965
 30
0.0
 11
115.7662421123
 21
145.6203032041
 31
0.0
  0
LINE
  5
150
330
1F
100
AcDbEntity
  8
0
  6
HIDDEN
 62
     7
370
     0
100
AcDbLine
 10
110.5942130914
 20
148.9845383966
 30
0.0
 11
110.5942130914
 21
145.6203032041
 31
0.0
  0
LINE
  5
151
330
1F
100
AcDbEntity
  8
0
  6
HIDDEN
 62
     7
370
     0
100
AcDbLine
 10
114.4142130914
 20
148.9845383966
 30
0.0
 11
114.4142130914
 21
145.6203032041
 31
0.0
  0
CIRCLE
  5
152
330
1F
100
AcDbEntity
  8
0
  6
HIDDEN
 62
     7
370
     0
100
AcDbCircle
 10
99.5042130914
 20
114.2703032041
 30
0.0
 40
5.000000000000014
  0
LINE
  5
153
330
1F
100
AcDbEntity
  8
0
  6
HIDDEN
 62
     7
370
     0
100
AcDbLine
 10
252.273339427
 20
120.909603621
 30
0.0
 11
252.442567814
 21
121.1851854777
 31
0.0
  0
LINE
  5
154
330
1F
100
AcDbEntity
  8
0
  6
HIDDEN
 62
     7
370
     0
100
AcDbLine
 10
252.5042130914
 20
123.6315538241
 30
0.0
 11
252.356557741
 21
123.9049751616
 31
0.0
  0
LINE
  5
155
330
1F
100
AcDbEntity
  8
0
  6
HIDDEN
 62
     7
370
     0
100
AcDbLine
 10
252.3546037121
 20
123.9067664611
 30
0.0
 11
247.0206659082
 21
124.0549555272
 31
0.0
  0
LINE
  5
156
330
1F
100
AcDbEntity
  8
0
  6
HIDDEN
 62
     7
370
     0
100
AcDbLine
 10
246.9373511522
 20
121.0561126418
 30
0.0
 11
252.2712889561
 21
120.9079235757
 31
0.0
  0
LINE
  5
157
330
1F
100
AcDbEntity
  8
0
  6
HIDDEN
 62
     7
370
     0
100
AcDbLine
 10
247.0194938413
 20
124.0544093094
 30
0.0
 11
246.5063842195
 21
123.5686646754
 31
0.0
  0
LINE
  5
158
330
1F
100
AcDbEntity
  8
0
  6
HIDDEN
 62
     7
370
     0
100
AcDbLine
 10
246.4508624721
 20
121.5702071973
 30
0.0
 11
246.9362112202
 21
121.0567230923
 31
0.0
  0
LINE
  5
159
330
1F
100
AcDbEntity
  8
0
  6
HIDDEN
 62
     7
370
     0
100
AcDbLine
 10
246.9951009438
 20
107.485519408
 30
0.0
 11
246.5097521957
 21
106.9720353029
 31
0.0
  0
LINE
  5
15A
330
1F
100
AcDbEntity
  8
0
  6
HIDDEN
 62
     7
370
     0
100
AcDbLine
 10
246.5652739431
 20
104.9735778248
 30
0.0
 11
247.0783835649
 21
104.4878331909
 31
0.0
  0
LINE
  5
15B
330
1F
100
AcDbEntity
  8
0
  6
HIDDEN
 62
     7
370
     0
100
AcDbLine
 10
252.3301786798
 20
107.6343189246
 30
0.0
 11
246.9962408759
 21
107.4861298585
 31
0.0
  0
LINE
  5
15C
330
1F
100
AcDbEntity
  8
0
  6
HIDDEN
 62
     7
370
     0
100
AcDbLine
 10
247.0795556319
 20
104.487286973
 30
0.0
 11
252.4134934358
 21
104.6354760392
 31
0.0
  0
LINE
  5
15D
330
1F
100
AcDbEntity
  8
0
  6
HIDDEN
 62
     7
370
     0
100
AcDbLine
 10
252.4154474647
 20
104.6372673387
 30
0.0
 11
252.5042130914
 21
104.8016394141
 31
0.0
  0
LINE
  5
15E
330
1F
100
AcDbEntity
  8
0
  6
HIDDEN
 62
     7
370
     0
100
AcDbLine
 10
252.5014575377
 20
107.3570570226
 30
0.0
 11
252.3322291506
 21
107.6326388793
 31
0.0
  0
LINE
  5
15F
330
1F
100
AcDbEntity
  8
0
  6
HIDDEN
 62
     7
370
     0
100
AcDbLine
 10
92.5042130914
 20
74.8656202475
 30
0.0
 11
92.5938147153
 21
75.5031689295
 31
0.0
  0
LINE
  5
160
330
1F
100
AcDbEntity
  8
0
  6
HIDDEN
 62
     7
370
     0
100
AcDbLine
 10
92.5938147153
 20
153.0374374788
 30
0.0
 11
92.5042130914
 21
153.6749861607
 31
0.0
  0
ARC
  5
161
330
1F
100
AcDbEntity
  8
0
  6
HIDDEN
 62
     7
370
     0
100
AcDbCircle
 10
91.6072761729
 20
75.6418178797
 30
0.0
 40
0.9962338214386862
100
AcDbArc
 50
352.0
 51
0.0
  0
ARC
  5
162
330
1F
100
AcDbEntity
  8
0
  6
HIDDEN
 62
     7
370
     0
100
AcDbCircle
 10
91.6072761729
 20
75.6418178797
 30
0.0
 40
0.9962338214386793
100
AcDbArc
 50
0.0
 51
25.7988228126
  0
ARC
  5
163
330
1F
100
AcDbEntity
  8
0
  6
HIDDEN
 62
     7
370
     0
100
AcDbCircle
 10
91.6072761729
 20
152.8987885286
 30
0.0
 40
0.9962338214386822
100
AcDbArc
 50
348.75
 51
8.0
  0
LWPOLYLINE
  5
164
330
1F
100
AcDbEntity
  8
0
  6
HIDDEN
 62
     7
370
     0
100
AcDbPolyline
 90
        3
 70
   128
 43
0.0
 10
92.5843676408
 20
152.7044329515
 10
92.5276762102
 20
152.5175463503
 10
92.5042130914
 20
152.4652150154
  0
LINE
  5
165
330
1F
100
AcDbEntity
  8
0
  6
HIDDEN
 62
     7
370
     0
100
AcDbLine
 10
92.6035099944
 20
75.6418178797
 30
0.0
 11
92.6035099944
 21
152.8987885286
 31
0.0
  0
ARC
  5
166
330
1F
100
AcDbEntity
  8
0
  6
HIDDEN
 62
     7
370
     0
100
AcDbCircle
 10
82.7574187466
 20
94.7703032041
 30
0.0
 40
11.99999999999999
100
AcDbArc
 50
273.1770759295
 51
324.3146652873
  0
ARC
  5
167
330
1F
100
AcDbEntity
  8
0
  6
HIDDEN
 62
     7
370
     0
100
AcDbCircle
 10
82.7574187466
 20
133.7703032041
 30
0.0
 40
12.00000000000001
100
AcDbArc
 50
35.6853347127
 51
86.8211274387
  0
LINE
  5
168
330
1F
100
AcDbEntity
  8
0
  6
HIDDEN
 62
     7
370
     0
100
AcDbLine
 10
65.9649390335
 20
82.7703032041
 30
0.0
 11
71.550043142
 21
82.7703032041
 31
0.0
  0
LINE
  5
169
330
1F
100
AcDbEntity
  8
0
  6
HIDDEN
 62
     7
370
     0
100
AcDbLine
 10
71.550043142
 20
145.7703032041
 30
0.0
 11
65.9649390335
 21
145.7703032041
 31
0.0
  0
ARC
  5
16A
330
1F
100
AcDbEntity
  8
0
  6
HIDDEN
 62
     7
370
     0
100
AcDbCircle
 10
65.9649390335
 20
83.7703032041
 30
0.0
 40
1.000000000000008
100
AcDbArc
 50
210.0
 51
270.0
  0
ARC
  5
16B
330
1F
100
AcDbEntity
  8
0
  6
HIDDEN
 62
     7
370
     0
100
AcDbCircle
 10
65.9649390335
 20
144.7703032041
 30
0.0
 40
1.0
100
AcDbArc
 50
90.0
 51
150.0
  0
LINE
  5
16C
330
1F
100
AcDbEntity
  8
0
  6
HIDDEN
 62
     7
370
     0
100
AcDbLine
 10
65.0989136298
 20
145.2703032041
 30
0.0
 11
62.5008374184
 21
140.7703032041
 31
0.0
  0
LINE
  5
16D
330
1F
100
AcDbEntity
  8
0
  6
HIDDEN
 62
     7
370
     0
100
AcDbLine
 10
62.5008374184
 20
87.7703032041
 30
0.0
 11
65.0989136298
 21
83.2703032041
 31
0.0
  0
ARC
  5
16E
330
1F
100
AcDbEntity
  8
0
  6
HIDDEN
 62
     7
370
     0
100
AcDbCircle
 10
102.9542130914
 20
89.3953032041
 30
0.0
 40
2.000000000000015
100
AcDbArc
 50
234.3409123039
 51
0.0
  0
ARC
  5
16F
330
1F
100
AcDbEntity
  8
0
  6
HIDDEN
 62
     7
370
     0
100
AcDbCircle
 10
102.9542130914
 20
139.1453032041
 30
0.0
 40
2.000000000000026
100
AcDbArc
 50
0.0
 51
125.6590876961
  0
LINE
  5
170
330
1F
100
AcDbEntity
  8
0
  6
HIDDEN
 62
     7
370
     0
100
AcDbLine
 10
57.7042130914
 20
87.7703032041
 30
0.0
 11
62.5008374184
 21
87.7703032041
 31
0.0
  0
LINE
  5
171
330
1F
100
AcDbEntity
  8
0
  6
HIDDEN
 62
     7
370
     0
100
AcDbLine
 10
62.5008374184
 20
140.7703032041
 30
0.0
 11
52.7042130914
 21
140.7703032041
 31
0.0
  0
LINE
  5
172
330
1F
100
AcDbEntity
  8
0
  6
HIDDEN
 62
     7
370
     0
100
AcDbLine
 10
92.5042130914
 20
87.7703032041
 30
0.0
 11
101.7882907097
 21
87.7703032041
 31
0.0
  0
LINE
  5
173
330
1F
100
AcDbEntity
  8
0
  6
HIDDEN
 62
     7
370
     0
100
AcDbLine
 10
101.7882907097
 20
140.7703032041
 30
0.0
 11
92.5042130914
 21
140.7703032041
 31
0.0
  0
LINE
  5
174
330
1F
100
AcDbEntity
  8
0
  6
HIDDEN
 62
     7
370
     0
100
AcDbLine
 10
96.5042130914
 20
159.9418565833
 30
0.0
 11
96.5042130914
 21
156.2477169828
 31
0.0
  0
LINE
  5
175
330
1F
100
AcDbEntity
  8
0
  6
HIDDEN
 62
     7
370
     0
100
AcDbLine
 10
106.5042130914
 20
156.2477169828
 30
0.0
 11
106.5042130914
 21
159.9473648416
 31
0.0
  0
LINE
  5
176
330
1F
100
AcDbEntity
  8
0
  6
HIDDEN
 62
     7
370
     0
100
AcDbLine
 10
116.8042130914
 20
101.2703032041
 30
0.0
 11
120.8042130914
 21
101.2703032041
 31
0.0
  0
LINE
  5
177
330
1F
100
AcDbEntity
  8
0
  6
HIDDEN
 62
     7
370
     0
100
AcDbLine
 10
120.8042130914
 20
127.2703032041
 30
0.0
 11
116.8042130914
 21
127.2703032041
 31
0.0
  0
LINE
  5
178
330
1F
100
AcDbEntity
  8
0
  6
HIDDEN
 62
     7
370
     0
100
AcDbLine
 10
210.0042130914
 20
105.8339729398
 30
0.0
 11
210.0042130914
 21
109.1903484764
 31
0.0
  0
LINE
  5
179
330
1F
100
AcDbEntity
  8
0
  6
HIDDEN
 62
     7
370
     0
100
AcDbLine
 10
210.0042130914
 20
103.1687267395
 30
0.0
 11
210.0042130914
 21
104.0817767905
 31
0.0
  0
LINE
  5
17A
330
1F
100
AcDbEntity
  8
0
  6
HIDDEN
 62
     7
370
     0
100
AcDbLine
 10
207.0042130914
 20
104.6380807811
 30
0.0
 11
207.0042130914
 21
103.1687267395
 31
0.0
  0
LINE
  5
17B
330
1F
100
AcDbEntity
  8
0
  6
HIDDEN
 62
     7
370
     0
100
AcDbLine
 10
207.0042130914
 20
109.109908137
 30
0.0
 11
207.0042130914
 21
105.1466308115
 31
0.0
  0
LINE
  5
17C
330
1F
100
AcDbEntity
  8
0
  6
HIDDEN
 62
     7
370
     0
100
AcDbLine
 10
104.9542130914
 20
102.2703032041
 30
0.0
 11
105.7042130914
 21
103.0203032041
 31
0.0
  0
LINE
  5
17D
330
1F
100
AcDbEntity
  8
0
  6
HIDDEN
 62
     7
370
     0
100
AcDbLine
 10
105.7042130914
 20
125.5203032041
 30
0.0
 11
104.9542130914
 21
126.2703032041
 31
0.0
  0
LINE
  5
17E
330
1F
100
AcDbEntity
  8
0
  6
HIDDEN
 62
     7
370
     0
100
AcDbLine
 10
105.7042130914
 20
103.0203032041
 30
0.0
 11
116.8042130914
 21
103.0203032041
 31
0.0
  0
LINE
  5
17F
330
1F
100
AcDbEntity
  8
0
  6
HIDDEN
 62
     7
370
     0
100
AcDbLine
 10
116.8042130914
 20
125.5203032041
 30
0.0
 11
105.7042130914
 21
125.5203032041
 31
0.0
  0
LINE
  5
180
330
1F
100
AcDbEntity
  8
0
  6
HIDDEN
 62
     7
370
     0
100
AcDbLine
 10
209.7163816224
 20
103.6993484861
 30
0.0
 11
252.5042130914
 21
104.8880929034
 31
0.0
  0
LINE
  5
181
330
1F
100
AcDbEntity
  8
0
  6
HIDDEN
 62
     7
370
     0
100
AcDbLine
 10
252.5042130914
 20
107.3890575376
 30
0.0
 11
209.7120013792
 21
106.2001914271
 31
0.0
  0
LINE
  5
182
330
1F
100
AcDbEntity
  8
0
  6
HIDDEN
 62
     7
370
     0
100
AcDbLine
 10
97.4542130914
 20
164.2703032041
 30
0.0
 11
97.4542130914
 21
158.1703032041
 31
0.0
  0
LINE
  5
183
330
1F
100
AcDbEntity
  8
0
  6
HIDDEN
 62
     7
370
     0
100
AcDbLine
 10
207.0286949337
 20
105.2954134306
 30
0.0
 11
206.788409739
 21
104.8684850068
 31
0.0
  0
LINE
  5
184
330
1F
100
AcDbEntity
  8
0
  6
HIDDEN
 62
     7
370
     0
100
AcDbLine
 10
206.788409739
 20
104.8684850068
 30
0.0
 11
207.0299124138
 21
104.4901979454
 31
0.0
  0
LINE
  5
185
330
1F
100
AcDbEntity
  8
0
  6
HIDDEN
 62
     7
370
     0
100
AcDbLine
 10
206.9042130914
 20
106.9703032041
 30
0.0
 11
209.6094390733
 21
106.9703032041
 31
0.0
  0
LINE
  5
186
330
1F
100
AcDbEntity
  8
0
  6
HIDDEN
 62
     7
370
     0
100
AcDbLine
 10
209.6094390733
 20
121.5703032041
 30
0.0
 11
206.9042130914
 21
121.5703032041
 31
0.0
  0
ARC
  5
187
330
1F
100
AcDbEntity
  8
0
  6
HIDDEN
 62
     7
370
     0
100
AcDbCircle
 10
206.9042130914
 20
107.3703032041
 30
0.0
 40
0.4000000000000199
100
AcDbArc
 50
180.0
 51
270.0
  0
ARC
  5
188
330
1F
100
AcDbEntity
  8
0
  6
HIDDEN
 62
     7
370
     0
100
AcDbCircle
 10
206.9042130914
 20
121.1703032041
 30
0.0
 40
0.4000000000000199
100
AcDbArc
 50
90.0
 51
180.0
  0
ARC
  5
189
330
1F
100
AcDbEntity
  8
0
  6
HIDDEN
 62
     7
370
     0
100
AcDbCircle
 10
209.6094390733
 20
121.1703032041
 30
0.0
 40
0.4000000000000057
100
AcDbArc
 50
70.0
 51
90.0
  0
ARC
  5
18A
330
1F
100
AcDbEntity
  8
0
  6
HIDDEN
 62
     7
370
     0
100
AcDbCircle
 10
252.2042130914
 20
106.9703032041
 30
0.0
 40
0.3000000000000114
100
AcDbArc
 50
0.0
 51
90.0
  0
ARC
  5
18B
330
1F
100
AcDbEntity
  8
0
  6
HIDDEN
 62
     7
370
     0
100
AcDbCircle
 10
252.2042130914
 20
121.5703032041
 30
0.0
 40
0.3000000000000114
100
AcDbArc
 50
270.0
 51
0.0
  0
LINE
  5
18C
330
1F
100
AcDbEntity
  8
0
  6
HIDDEN
 62
     7
370
     0
100
AcDbLine
 10
209.7462471306
 20
106.9944261558
 30
0.0
 11
210.5042130914
 21
107.2703032041
 31
0.0
  0
LINE
  5
18D
330
1F
100
AcDbEntity
  8
0
  6
HIDDEN
 62
     7
370
     0
100
AcDbLine
 10
210.5042130914
 20
121.2703032041
 30
0.0
 11
209.7462471306
 21
121.5461802524
 31
0.0
  0
LINE
  5
18E
330
1F
100
AcDbEntity
  8
0
  6
HIDDEN
 62
     7
370
     0
100
AcDbLine
 10
210.5042130914
 20
107.2703032041
 30
0.0
 11
252.2042130914
 21
107.2703032041
 31
0.0
  0
LINE
  5
18F
330
1F
100
AcDbEntity
  8
0
  6
HIDDEN
 62
     7
370
     0
100
AcDbLine
 10
252.2042130914
 20
121.2703032041
 30
0.0
 11
210.5042130914
 21
121.2703032041
 31
0.0
  0
LINE
  5
190
330
1F
100
AcDbEntity
  8
0
  6
HIDDEN
 62
     7
370
     0
100
AcDbLine
 10
83.9369257074
 20
76.6920236335
 30
0.0
 11
83.5042164209
 21
77.1702483509
 31
0.0
  0
LINE
  5
191
330
1F
100
AcDbEntity
  8
0
  6
HIDDEN
 62
     7
370
     0
100
AcDbLine
 10
71.5042135494
 20
77.8172097076
 30
0.0
 11
71.0235862442
 21
77.3389849968
 31
0.0
  0
LINE
  5
192
330
1F
100
AcDbEntity
  8
0
  6
HIDDEN
 62
     7
370
     0
100
AcDbLine
 10
71.0234679027
 20
151.2016154954
 30
0.0
 11
71.5042133667
 21
150.7233358235
 31
0.0
  0
LINE
  5
193
330
1F
100
AcDbEntity
  8
0
  6
HIDDEN
 62
     7
370
     0
100
AcDbLine
 10
83.5042130935
 20
151.3703082108
 30
0.0
 11
83.9370347632
 21
151.8485878837
 31
0.0
  0
LINE
  5
194
330
1F
100
AcDbEntity
  8
0
  6
HIDDEN
 62
     7
370
     0
100
AcDbLine
 10
83.5042130914
 20
145.7361811312
 30
0.0
 11
83.5042130914
 21
151.4703120369
 31
0.0
  0
LINE
  5
195
330
1F
100
AcDbEntity
  8
0
  6
HIDDEN
 62
     7
370
     0
100
AcDbLine
 10
71.5042130914
 20
150.7233253242
 30
0.0
 11
71.5042130914
 21
145.7618238362
 31
0.0
  0
LINE
  5
196
330
1F
100
AcDbEntity
  8
0
  6
HIDDEN
 62
     7
370
     0
100
AcDbLine
 10
83.5042130914
 20
77.0701195083
 30
0.0
 11
83.5042130914
 21
82.804425277
 31
0.0
  0
LINE
  5
197
330
1F
100
AcDbEntity
  8
0
  6
HIDDEN
 62
     7
370
     0
100
AcDbLine
 10
71.5042130914
 20
82.7787825721
 30
0.0
 11
71.5042130914
 21
77.8172481221
 31
0.0
  0
LINE
  5
198
330
1F
100
AcDbEntity
  8
0
  6
HIDDEN
 62
     7
370
     0
100
AcDbLine
 10
120.8042130914
 20
108.2703032041
 30
0.0
 11
150.6042130914
 21
108.2703032041
 31
0.0
  0
LINE
  5
199
330
1F
100
AcDbEntity
  8
0
  6
HIDDEN
 62
     7
370
     0
100
AcDbLine
 10
150.6042130914
 20
120.2703032041
 30
0.0
 11
120.8042130914
 21
120.2703032041
 31
0.0
  0
LINE
  5
19A
330
1F
100
AcDbEntity
  8
0
  6
HIDDEN
 62
     7
370
     0
100
AcDbLine
 10
150.6042130914
 20
108.2703032041
 30
0.0
 11
151.129966133
 21
109.1453032041
 31
0.0
  0
LINE
  5
19B
330
1F
100
AcDbEntity
  8
0
  6
HIDDEN
 62
     7
370
     0
100
AcDbLine
 10
151.129966133
 20
119.3953032041
 30
0.0
 11
150.6042130914
 21
120.2703032041
 31
0.0
  0
LINE
  5
19C
330
1F
100
AcDbEntity
  8
0
  6
HIDDEN
 62
     7
370
     0
100
AcDbLine
 10
151.129966133
 20
109.1453032041
 30
0.0
 11
206.5042130914
 21
109.1453032041
 31
0.0
  0
LINE
  5
19D
330
1F
100
AcDbEntity
  8
0
  6
HIDDEN
 62
     7
370
     0
100
AcDbLine
 10
206.5042130914
 20
119.3953032041
 30
0.0
 11
151.129966133
 21
119.3953032041
 31
0.0
  0
ARC
  5
19E
330
1F
100
AcDbEntity
  8
0
  6
HIDDEN
 62
     7
370
     0
100
AcDbCircle
 10
209.6094390733
 20
107.3703032041
 30
0.0
 40
0.4000000000000057
100
AcDbArc
 50
270.0
 51
290.0
  0
LINE
  5
19F
330
1F
100
AcDbEntity
  8
0
  6
HIDDEN
 62
     7
370
     0
100
AcDbLine
 10
157.9542130914
 20
136.7703032041
 30
0.0
 11
158.9542130914
 21
136.1929529349
 31
0.0
  0
LINE
  5
1A0
330
1F
100
AcDbEntity
  8
0
  6
HIDDEN
 62
     7
370
     0
100
AcDbLine
 10
163.9542130914
 20
136.1929529349
 30
0.0
 11
164.9542130914
 21
136.7703032041
 31
0.0
  0
LINE
  5
1A1
330
1F
100
AcDbEntity
  8
0
  6
HIDDEN
 62
     7
370
     0
100
AcDbLine
 10
164.9542130914
 20
91.7703032041
 30
0.0
 11
163.9542130914
 21
92.3476534733
 31
0.0
  0
LINE
  5
1A2
330
1F
100
AcDbEntity
  8
0
  6
HIDDEN
 62
     7
370
     0
100
AcDbLine
 10
158.9542130914
 20
92.3476534733
 30
0.0
 11
157.9542130914
 21
91.7703032041
 31
0.0
  0
LINE
  5
1A3
330
1F
100
AcDbEntity
  8
0
  6
HIDDEN
 62
     7
370
     0
100
AcDbLine
 10
158.9542130914
 20
136.1929529349
 30
0.0
 11
158.9542130914
 21
124.7703032041
 31
0.0
  0
LINE
  5
1A4
330
1F
100
AcDbEntity
  8
0
  6
HIDDEN
 62
     7
370
     0
100
AcDbLine
 10
163.9542130914
 20
124.7703032041
 30
0.0
 11
163.9542130914
 21
136.1929529349
 31
0.0
  0
LINE
  5
1A5
330
1F
100
AcDbEntity
  8
0
  6
HIDDEN
 62
     7
370
     0
100
AcDbLine
 10
158.9542130914
 20
124.7703032041
 30
0.0
 11
161.4542130914
 21
123.2681516565
 31
0.0
  0
LINE
  5
1A6
330
1F
100
AcDbEntity
  8
0
  6
HIDDEN
 62
     7
370
     0
100
AcDbLine
 10
161.4542130914
 20
123.2681516565
 30
0.0
 11
163.9542130914
 21
124.7703032041
 31
0.0
  0
LINE
  5
1A7
330
1F
100
AcDbEntity
  8
0
  6
HIDDEN
 62
     7
370
     0
100
AcDbLine
 10
163.9542130914
 20
103.7703032041
 30
0.0
 11
161.4542130914
 21
105.2724547517
 31
0.0
  0
LINE
  5
1A8
330
1F
100
AcDbEntity
  8
0
  6
HIDDEN
 62
     7
370
     0
100
AcDbLine
 10
161.4542130914
 20
105.2724547517
 30
0.0
 11
158.9542130914
 21
103.7703032041
 31
0.0
  0
LINE
  5
1A9
330
1F
100
AcDbEntity
  8
0
  6
HIDDEN
 62
     7
370
     0
100
AcDbLine
 10
163.9542130914
 20
92.3476534733
 30
0.0
 11
163.9542130914
 21
103.7703032041
 31
0.0
  0
LINE
  5
1AA
330
1F
100
AcDbEntity
  8
0
  6
HIDDEN
 62
     7
370
     0
100
AcDbLine
 10
158.9542130914
 20
103.7703032041
 30
0.0
 11
158.9542130914
 21
92.3476534733
 31
0.0
  0
LINE
  5
1AB
330
1F
100
AcDbEntity
  8
0
  6
HIDDEN
 62
     7
370
     0
100
AcDbLine
 10
210.0042130914
 20
124.4588886387
 30
0.0
 11
210.0042130914
 21
124.5233515313
 31
0.0
  0
LINE
  5
1AC
330
1F
100
AcDbEntity
  8
0
  6
HIDDEN
 62
     7
370
     0
100
AcDbLine
 10
210.0042130914
 20
119.3502579319
 30
0.0
 11
210.0042130914
 21
122.7069688289
 31
0.0
  0
LINE
  5
1AD
330
1F
100
AcDbEntity
  8
0
  6
HIDDEN
 62
     7
370
     0
100
AcDbLine
 10
207.0042130914
 20
123.3970407126
 30
0.0
 11
207.0042130914
 21
119.4306982712
 31
0.0
  0
LINE
  5
1AE
330
1F
100
AcDbEntity
  8
0
  6
HIDDEN
 62
     7
370
     0
100
AcDbLine
 10
207.0042130914
 20
124.5233515313
 30
0.0
 11
207.0042130914
 21
123.9029715157
 31
0.0
  0
LINE
  5
1AF
330
1F
100
AcDbEntity
  8
0
  6
HIDDEN
 62
     7
370
     0
100
AcDbLine
 10
209.7152043892
 20
122.3403259941
 30
0.0
 11
252.5042130914
 21
121.1515488707
 31
0.0
  0
LINE
  5
1B0
330
1F
100
AcDbEntity
  8
0
  6
HIDDEN
 62
     7
370
     0
100
AcDbLine
 10
252.5042130914
 20
123.6525135049
 30
0.0
 11
209.712802676
 21
124.8413573535
 31
0.0
  0
LINE
  5
1B1
330
1F
100
AcDbEntity
  8
0
  6
HIDDEN
 62
     7
370
     0
100
AcDbLine
 10
207.0178898825
 20
124.0315765057
 30
0.0
 11
206.788409739
 21
123.6721214015
 31
0.0
  0
LINE
  5
1B2
330
1F
100
AcDbEntity
  8
0
  6
HIDDEN
 62
     7
370
     0
100
AcDbLine
 10
206.788409739
 20
123.6721214015
 30
0.0
 11
207.0289135235
 21
123.2448045966
 31
0.0
  0
LINE
  5
1B3
330
1F
100
AcDbEntity
  8
0
  6
HIDDEN
 62
     7
370
     0
100
AcDbLine
 10
96.5042130914
 20
161.8171746676
 30
0.0
 11
96.5042130914
 21
159.9418565833
 31
0.0
  0
LINE
  5
1B4
330
1F
100
AcDbEntity
  8
0
  6
HIDDEN
 62
     7
370
     0
100
AcDbLine
 10
106.5042130914
 20
159.9473648416
 30
0.0
 11
106.5042130914
 21
161.8229091004
 31
0.0
  0
DIMENSION
  5
1B5
330
1F
100
AcDbEntity
  8
VERMASSUNG
100
AcDbDimension
  2
*D1
 10
37.6102360373
 20
64.2703032041
 30
0.0
 11
37.6102360373
 21
113.5964000304
 31
0.0
 70
   160
  1
HSK A %%c<>
 71
     2
 42
-1.0
  3
SLDDIMSTYLE0
100
AcDbAlignedDimension
 13
93.0042130914
 23
164.2703032041
 33
0.0
 14
93.0042130914
 24
64.2703032041
 34
0.0
 50
90.0
100
AcDbRotatedDimension
  0
DIMENSION
  5
1C2
330
1F
100
AcDbEntity
  8
VERMASSUNG
100
AcDbDimension
  2
*D2
 10
252.5042130914
 20
167.3106175515
 30
0.0
 11
186.9792130914
 21
167.3106175515
 31
0.0
 70
   160
 71
     2
 42
-1.0
  3
SLDDIMSTYLE0
100
AcDbAlignedDimension
 13
121.4542130914
 23
162.239043025
 33
0.0
 14
252.5042130914
 24
128.9961626825
 34
0.0
100
AcDbRotatedDimension
  0
DIMENSION
  5
1CC
330
1F
100
AcDbEntity
  8
VERMASSUNG
100
AcDbDimension
  2
*D3
 10
252.5042130914
 20
173.3106175515
 30
0.0
 11
172.5042130914
 21
173.3106175515
 31
0.0
 70
   160
 71
     2
 42
-1.0
  3
SLDDIMSTYLE0
100
AcDbAlignedDimension
 13
92.5042130914
 23
163.7703032041
 33
0.0
 14
252.5042130914
 24
128.9961626825
 34
0.0
100
AcDbRotatedDimension
  0
DIMENSION
  5
1D6
330
1F
100
AcDbEntity
  8
VERMASSUNG
100
AcDbDimension
  2
*D4
 10
42.6042130914
 20
179.3106175515
 30
0.0
 11
147.5542130914
 21
179.3106175515
 31
0.0
 70
   160
 71
     2
 42
-1.0
  3
SLDDIMSTYLE0
100
AcDbAlignedDimension
 13
252.5042130914
 23
128.9961626825
 33
0.0
 14
42.6042130914
 24
144.7729729467
 34
0.0
100
AcDbRotatedDimension
  0
DIMENSION
  5
1E0
330
1F
100
AcDbEntity
  8
VERMASSUNG
100
AcDbDimension
  2
*D5
 10
260.0445609368
 20
107.2703032041
 30
0.0
 11
260.0445609368
 21
114.2703032041
 31
0.0
 70
   160
  1
%%c<>
 71
     2
 42
-1.0
  3
SLDDIMSTYLE0
100
AcDbAlignedDimension
 13
252.2042130914
 23
121.2703032041
 33
0.0
 14
252.2042130914
 24
107.2703032041
 34
0.0
 50
90.0
100
AcDbRotatedDimension
  0
DIMENSION
  5
1EB
330
1F
100
AcDbEntity
  8
VERMASSUNG
100
AcDbDimension
  2
*D6
 10
266.0445609368
 20
91.7703032041
 30
0.0
 11
266.0445609368
 21
114.2703032041
 31
0.0
 70
   160
  1
%%c<>
 71
     2
 42
-1.0
  3
SLDDIMSTYLE0
100
AcDbAlignedDimension
 13
238.5649181081
 23
136.7703032041
 33
0.0
 14
238.5649181081
 24
91.7703032041
 34
0.0
 50
90.0
100
AcDbRotatedDimension
  0
LINE
  5
1F6
330
1F
100
AcDbEntity
  8
VERMASSUNG
  6
CENTERX2
 62
     7
370
     0
100
AcDbLine
 10
40.3537437304
 20
114.2703032041
 30
0.0
 11
254.5182581484
 21
114.2703032041
 31
0.0
  0
OLE2FRAME
  5
1F7
330
1F
100
AcDbEntity
  8
0
100
AcDbOle2Frame
 70
     2
  3
Bitmap Image
 10
13.8511154363
 20
38.264191557
 30
0.0
 11
51.6290888628
 21
31.9806341108
 31
0.0
 71
     2
 72
     0
 73
     1
 90
    12928
310
80552BED0767C5B32B40DDAF6807D121434000000000000000006FFBDDFB85D0
310
4940DDAF6807D121434000000000000000006FFBDDFB85D04940416F4BD60AFB
310
3F4000000000000000002BED0767C5B32B40416F4BD60AFB3F40000000000000
310
0000000000000100000000010000010000000100000000000100000000320000
310
D0CF11E0A1B11AE1000000000000000000000000000000003E000300FEFF0900
310
0600000000000000000000000100000001000000000000000010000002000000
310
01000000FEFFFFFF0000000000000000FFFFFFFFFFFFFFFFFFFFFFFFFFFFFFFF
310
FFFFFFFFFFFFFFFFFFFFFFFFFFFFFFFFFFFFFFFFFFFFFFFFFFFFFFFFFFFFFFFF
310
FFFFFFFFFFFFFFFFFFFFFFFFFFFFFFFFFFFFFFFFFFFFFFFFFFFFFFFFFFFFFFFF
310
FFFFFFFFFFFFFFFFFFFFFFFFFFFFFFFFFFFFFFFFFFFFFFFFFFFFFFFFFFFFFFFF
310
FFFFFFFFFFFFFFFFFFFFFFFFFFFFFFFFFFFFFFFFFFFFFFFFFFFFFFFFFFFFFFFF
310
FFFFFFFFFFFFFFFFFFFFFFFFFFFFFFFFFFFFFFFFFFFFFFFFFFFFFFFFFFFFFFFF
310
FFFFFFFFFFFFFFFFFFFFFFFFFFFFFFFFFFFFFFFFFFFFFFFFFFFFFFFFFFFFFFFF
310
FFFFFFFFFFFFFFFFFFFFFFFFFFFFFFFFFFFFFFFFFFFFFFFFFFFFFFFFFFFFFFFF
310
FFFFFFFFFFFFFFFFFFFFFFFFFFFFFFFFFFFFFFFFFFFFFFFFFFFFFFFFFFFFFFFF
310
FFFFFFFFFFFFFFFFFFFFFFFFFFFFFFFFFFFFFFFFFFFFFFFFFFFFFFFFFFFFFFFF
310
FFFFFFFFFFFFFFFFFFFFFFFFFFFFFFFFFFFFFFFFFFFFFFFFFFFFFFFFFFFFFFFF
310
FFFFFFFFFFFFFFFFFFFFFFFFFFFFFFFFFFFFFFFFFFFFFFFFFFFFFFFFFFFFFFFF
310
FFFFFFFFFFFFFFFFFFFFFFFFFFFFFFFFFFFFFFFFFFFFFFFFFFFFFFFFFFFFFFFF
310
FFFFFFFFFFFFFFFFFFFFFFFFFFFFFFFFFFFFFFFFFFFFFFFFFFFFFFFFFFFFFFFF
310
FDFFFFFFFEFFFFFFFEFFFFFFFEFFFFFF05000000060000000700000008000000
310
090000000A0000000B0000000C0000000D0000000E0000000F00000010000000
310
11000000120000001300000014000000150000001600000017000000FEFFFFFF
310
FFFFFFFFFFFFFFFFFFFFFFFFFFFFFFFFFFFFFFFFFFFFFFFFFFFFFFFFFFFFFFFF
310
FFFFFFFFFFFFFFFFFFFFFFFFFFFFFFFFFFFFFFFFFFFFFFFFFFFFFFFFFFFFFFFF
310
FFFFFFFFFFFFFFFFFFFFFFFFFFFFFFFFFFFFFFFFFFFFFFFFFFFFFFFFFFFFFFFF
310
FFFFFFFFFFFFFFFFFFFFFFFFFFFFFFFFFFFFFFFFFFFFFFFFFFFFFFFFFFFFFFFF
310
FFFFFFFFFFFFFFFFFFFFFFFFFFFFFFFFFFFFFFFFFFFFFFFFFFFFFFFFFFFFFFFF
310
FFFFFFFFFFFFFFFFFFFFFFFFFFFFFFFFFFFFFFFFFFFFFFFFFFFFFFFFFFFFFFFF
310
FFFFFFFFFFFFFFFFFFFFFFFFFFFFFFFFFFFFFFFFFFFFFFFFFFFFFFFFFFFFFFFF
310
FFFFFFFFFFFFFFFFFFFFFFFFFFFFFFFFFFFFFFFFFFFFFFFFFFFFFFFFFFFFFFFF
310
FFFFFFFFFFFFFFFFFFFFFFFFFFFFFFFFFFFFFFFFFFFFFFFFFFFFFFFFFFFFFFFF
310
FFFFFFFFFFFFFFFFFFFFFFFFFFFFFFFFFFFFFFFFFFFFFFFFFFFFFFFFFFFFFFFF
310
FFFFFFFFFFFFFFFFFFFFFFFFFFFFFFFFFFFFFFFFFFFFFFFFFFFFFFFFFFFFFFFF
310
FFFFFFFFFFFFFFFFFFFFFFFFFFFFFFFFFFFFFFFFFFFFFFFFFFFFFFFFFFFFFFFF
310
FFFFFFFFFFFFFFFFFFFFFFFFFFFFFFFFFFFFFFFFFFFFFFFFFFFFFFFFFFFFFFFF
310
52006F006F007400200045006E00740072007900000000000000000000000000
310
0000000000000000000000000000000000000000000000000000000000000000
310
16000500FFFFFFFFFFFFFFFF020000000A00030000000000C000000000000046
310
0000000000000000000000005074CD840700CC0103000000C000000000000000
310
01004F006C006500000000000000000000000000000000000000000000000000
310
0000000000000000000000000000000000000000000000000000000000000000
310
0A000200FFFFFFFFFFFFFFFFFFFFFFFF00000000000000000000000000000000
310
0000000000000000000000000000000000000000000000001400000000000000
310
010043006F006D0070004F0062006A0000000000000000000000000000000000
310
0000000000000000000000000000000000000000000000000000000000000000
310
120002010100000003000000FFFFFFFF00000000000000000000000000000000
310
0000000000000000000000000000000000000000010000004D00000000000000
310
01004F006C006500310030004E00610074006900760065000000000000000000
310
0000000000000000000000000000000000000000000000000000000000000000
310
1A000200FFFFFFFFFFFFFFFFFFFFFFFF00000000000000000000000000000000
310
0000000000000000000000000000000000000000040000002426000000000000
310
FEFFFFFF02000000FEFFFFFFFFFFFFFFFFFFFFFFFFFFFFFFFFFFFFFFFFFFFFFF
310
FFFFFFFFFFFFFFFFFFFFFFFFFFFFFFFFFFFFFFFFFFFFFFFFFFFFFFFFFFFFFFFF
310
FFFFFFFFFFFFFFFFFFFFFFFFFFFFFFFFFFFFFFFFFFFFFFFFFFFFFFFFFFFFFFFF
310
FFFFFFFFFFFFFFFFFFFFFFFFFFFFFFFFFFFFFFFFFFFFFFFFFFFFFFFFFFFFFFFF
310
FFFFFFFFFFFFFFFFFFFFFFFFFFFFFFFFFFFFFFFFFFFFFFFFFFFFFFFFFFFFFFFF
310
FFFFFFFFFFFFFFFFFFFFFFFFFFFFFFFFFFFFFFFFFFFFFFFFFFFFFFFFFFFFFFFF
310
FFFFFFFFFFFFFFFFFFFFFFFFFFFFFFFFFFFFFFFFFFFFFFFFFFFFFFFFFFFFFFFF
310
FFFFFFFFFFFFFFFFFFFFFFFFFFFFFFFFFFFFFFFFFFFFFFFFFFFFFFFFFFFFFFFF
310
FFFFFFFFFFFFFFFFFFFFFFFFFFFFFFFFFFFFFFFFFFFFFFFFFFFFFFFFFFFFFFFF
310
FFFFFFFFFFFFFFFFFFFFFFFFFFFFFFFFFFFFFFFFFFFFFFFFFFFFFFFFFFFFFFFF
310
FFFFFFFFFFFFFFFFFFFFFFFFFFFFFFFFFFFFFFFFFFFFFFFFFFFFFFFFFFFFFFFF
310
FFFFFFFFFFFFFFFFFFFFFFFFFFFFFFFFFFFFFFFFFFFFFFFFFFFFFFFFFFFFFFFF
310
FFFFFFFFFFFFFFFFFFFFFFFFFFFFFFFFFFFFFFFFFFFFFFFFFFFFFFFFFFFFFFFF
310
FFFFFFFFFFFFFFFFFFFFFFFFFFFFFFFFFFFFFFFFFFFFFFFFFFFFFFFFFFFFFFFF
310
FFFFFFFFFFFFFFFFFFFFFFFFFFFFFFFFFFFFFFFFFFFFFFFFFFFFFFFFFFFFFFFF
310
FFFFFFFFFFFFFFFFFFFFFFFFFFFFFFFFFFFFFFFFFFFFFFFFFFFFFFFFFFFFFFFF
310
0100000200000000000000000000000000000000610072003D0082005C003107
310
980625000000000020EA260000000000680061007200650064005C003B004300
310
0100FEFF030A0000FFFFFFFF0A00030000000000C00000000000004607000000
310
5042727573680007000000504272757368000700000050427275736800F439B2
310
71000000000000000000000000004100540049002E004100430045005C004300
310
6F00720065002D005300740061007400690063003B0043003A005C0050007200
310
6F006700720061006D002000460069006C006500730020002800780038003600
310
29005C0043006F006D006D006F006E002000460069006C00650073005C004100
310
750074006F006400650073006B0020005300680061007200650064005C003B00
310
43003A005C00500072006F006700720061006D002000460069006C0065007300
310
5C004E006F0072006D0061006E005C004E0070006D005C00420069006E000000
310
43003A005C00500072006F006700720061006D002000460069006C0065007300
310
5C0053006F006C006900640057006F0072006B007300200043006F0072007000
310
5C0053006F006C006900640057006F0072006B00730020002800320029005C00
310
730065007400750070005C0069003300380036005C0073007700610063007400
310
770069007A002E006500780065000000220043003A005C00500072006F006700
310
20260000424D0E260000000000003E00000028000000B40200006E0000000100
310
01000000000000000000130B0000130B00000200000002000000000000FFFFFF
310
FFFFFFFFFFFFFFFFFFFFFFFFFFFFFFFFFFFFFFFFFFFFFFFFFFFFFFFFFFFFFFFF
310
FFFFFFFFFFFFFFFFFFFFFFFFFFFFFFFFFFFFFFFFFFFFFFFFFFFFFFFFFFFFFFFF
310
FFFFFFFFFFFFFFFFFFFFFFFFFFFFFFFFFFFFFFFFFFFFFFFFF000FFFFFFFFFFFF
310
FFFFFFFFFFFFFFFFFFFFFFFFFFFFFFFFFFFFFFFFFFFFFFFFFFFFFFFFFFFFFFFF
310
FFFFFFFFFFFFFFFFFFFFFFFFFFFFFFFFFFFFFFFFFFFFFFFFFFFFFFFFFFFFFFFF
310
FFFFFFFFFFFFFFFFFFFFFFFFFFFFFFFFF000FFFFFFFFFFFFFFFFFFFFFFFFFFFF
310
FFFFFFFFFFFFFFFFFFFFFFFFFFFFFFFFFFFFFFFFFFFFFFFFFFFFFFFFFFFFFFFF
310
FFFFFFFFFFFFFFFFFFFFFFFFFFFFFFFFFFFFFFFFFFFFFFFFFFFFFFFFFFFFFFFF
310
FFFFFFFFFFFFFFFFF000FFFFFFFFFFFFFFFFFFFFFFFFFFFFFFFFFFFFFFFFFFFF
310
FFFFFFFFFFFFFFFFFFFFFFFFFFFFFFFFFFFFFFFFFFFFFFFFFFFFFFFFFFFFFFFF
310
FFFFFFFFFFFFFFFFFFFFFFFFFFFFFFFFFFFFFFFFFFFFFFFFFFFFFFFFFFFFFFFF
310
F000FFFFFFFFFFFFFFFFFFFFFFFFFFFFFFFFFFFFFFFFFFFFFFFFFFFFFFFFFFFF
310
FFFFFFFFFFFFFFFFFFFFFFFFFFFFFFFFFFFFFFFFFFFFFFFFFFFFFFFFFFFFFFFF
310
FFFFFFFFFFFFFFFFFFFFFFFFFFFFFFFFFFFFFFFFFFFFFFFFF000FFFFFFFFFFFF
310
FFFFFFFFFFFFFFFFFFFFFFFFFFFFFFFFFFFFFFFFFFFFFFFFFFFFFFFFFFFFFFFF
310
FFFFFFFFFFFFFFFFFFFFFFFFFFFFFFFFFFFFFFFFFFFFFFFFFFFFFFFFFFFFFFFF
310
FFFFFFFFFFFFFFFFFFFFFFFFFFFFFFFFF000FFFFFFFFFFFFFFFFFFFFFFFFFFFF
310
FFFFFFFFFFFFFFFFFFFFFFFFFFFFFFFFFFFFFFFFFFFFFFFFFFFFFFFFFFFFFFFF
310
FFFFFFFFFFFFFFFFFFFFFFFFFFFFFFFFFFFFFFFFFFFFFFFFFFFFFFFFFFFFFFFF
310
FFFFFFFFFFFFFFFFF000FFFFFFFFFFFFFFFFFFFFFFFFFFFFFFFFFFFFFFFFFFFF
310
FFFFFFFFFFFFFFFFFFFFFFFFFFFFFFFFFFFFFFFFFFFFFFFFFFFFFFFFFFFFFFFF
310
FFFFFFFFFFFFFFFFFFFFFFFFFFFFFFFFFFFFFFFFFFFFFFFFFFFFFFFFFFFFFFFF
310
F000FFFFFFFFFFFFFFFFFFFFFFFFFFFFFFFFFFFFFFFFFFFFFFFFFFFFFFFFFFFF
310
FFFFFFFFFFFFFFFFFFFFFFFFFFFFFFFFFFFFFFFFFFFFFFFFFFFFFFFFFFFFFFFF
310
FFFFFFFFFFFFFFFFFFFFFFFFFFFFFFFFFFFFFFFFFFFFFFFFF000FFFFFFFFFFFF
310
FFFFFFFFFFFFFFFFFFFFFFFFFFFFFFFFFFFFFFFFFFFFFFFFFFFFFFFFFFFFFFFF
310
FFFFFFFFFFFFFFFFFFFFFFFFFFFFFFFFFFFFFFFFFFFFFFFFFFFFFFFFFFFFFFFF
310
FFFFFFFFFFFFFFFFFFFFFFFFFFFFFFFFF000FFFFFFFFFFFFFFFFFFFFFFFFFFFF
310
FFFFFFFFFFFFFFFFFFFFFFFFFFFFFFFFFFFFFFFFFFFFFFFFFFFFFFFFFFFFFFFF
310
FFFFFFFFFFFFFFFFFFFFFFFFFFFFFFFFFFFFFFFFFFFFFFFFFFFFFFFFFFFFFFFF
310
FFFFFFFFFFFFFFFFF000FFFFFFFFFFFFFFFFFFFFFFFFFFFFFFFFFFFFFFFFFFFF
310
FFFFFFFFFFFFFFFFFFFFFFFFFFFFFFFFFFFFFFFFFFFFFFFFFFFFFFFFFFFFFFFF
310
FFFFFFFFFFFFFFFFFFFFFFFFFFFFFFFFFFFFFFFFFFFFFFFFFFFFFFFFFFFFFFFF
310
F000FFFFFFFFFFFFFFFFFFFFFFFFFFFFFFFFFFFFFFFFFFFFFFFFFFFFFFFFFFFF
310
FFFFFFFFFFFFFFFFFFFFFFFFFFFFFFFFFFFFFFFFFFFFFFFFFFFFFFFFFFFFFFFF
310
FFFFFFFFFFFFFFFFFFFFFFFFFFFFFFFFFFFFFFFFFFFFFFFFF000FFFFFFFFFFFF
310
FFFFFFFFFFFFFFFFFFFFFFFFFFFFFFFFFFFFFFFFFFFFFFFFFFFFFFFFFFFFFFFF
310
FFFFFFFFFFFFFFFFFFFFFFFFFFFFFFFFFFFFFFFFFFFFFFFFFFFFFFFFFFFFFFFF
310
FFFFFFFFFFFFFFFFFFFFFFFFFFFFFFFFF000FFFFFFFFFFFFFFFFFFFFFFFFFFFF
310
FFFFFFFFFFFFFFFFFFFFFFFFFFFFFFFFFFFFFFFFFFFFFFFFFFFFFFFFFFFFFFFF
310
FFFFFFFFFFFFFFFFFFFFFFFFFFFFFFFFFFFFFFFFFFFFFFFFFFFFFFFFFFFFFFFF
310
FFFFFFFFFFFFFFFFF000FFFFFFFFFFFFFFFFFFFFFFFFFFFFFFFFFFFFFFFFFFFF
310
FFFFFFFFFFFFFFFFFFFFFFFFFFFFFFFFFFFFFFFFFFFFFFFFFFFFFFFFFFFFFFFF
310
FFFFFFFFFFFFFFFFFFFFFFFFFFFFFFFFFFFFFFFFFFFFFFFFFFFFFFFFFFFFFFFF
310
F000FFFFFFFFFFFFFFFFFFFFFFFFFFFFFFFFFFFFFFFFFFFFFFFFFFFFFFFFFFFF
310
FFFFFFFFFFFFFFFFFFFFFFFFFFFFFFFFFFFFFFFFFFFFFFFFFFFFFFFFFFFFFFFF
310
FFFFFFFFFFFFFFFFFFFFFFFFFFFFFFFFFFFFFFFFFFFFFFFFF000FFFFFFFFFFFF
310
FFFFFFFFFFFFFFFFFFFFFFFFFFFFFFFFFFFFFFFFFFFFFFFFFFFFFFFFFFFFFFFF
310
FFFFFFFFFFFFFFFFFFFFFFFFFFFFFFFFFFFFFFFFFFFFFFFFFFFFFFFFFFFFFFFF
310
FFFFFFFFFFFFFFFFFFFFFFFFFFFFFFFFF000FFFFFFFFFFFFFFFFFFFFFFFFFFFF
310
FFFFFFFFFFFFFFFFFFFFFFFFFFFFFFFFFFFFFFFFFFFFFFFFFFFFFFFFFFFFFFFF
310
FFFFFFFFFFFFFFFFFFFFFFFFFFFFFFFFFFFFFFFFFFFFFFFFFFFFFFFFFFFFFFFF
310
FFFFFFFFFFFFFFFFF000FFFFF80003FFFFFFFFFFFFFFFFFFFFFFFFFFFFFFFFFF
310
FFFFF00007FFFFFFFFFF00007FFFFFF800000000000000007FFFFFFFFFFFFFFF
310
FFFFFFFC001FFFFFFFFFFFFFFC001FFFFFFFFFFFFFFFFFFFFFFFFFFE0007FFFF
310
F000FFFF8000007FFFFFFFF8000FFFFFC0007FFFFF80007FFFFF0000007FFFFF
310
FFF8000007FFFFF800000000000000007FFFFFF0001FFFFFFFFFFFC00001FFFF
310
FFFFFFFFC00001FFFFFFFF000000000003FFFFE000007FFFF000FFFE0000000F
310
FFFFFFF0000FFFFF80007FFFFF80007FFFFC0000001FFFFFFFC0000001FFFFF8
310
00000000000000007FFFFFF0001FFFFFFFFFFE0000003FFFFFFFFFFE0000003F
310
FFFFFF000000000003FFFF0000000FFFF000FFF800000003FFFFFFF00007FFFF
310
80007FFFFF80007FFFF000000007FFFFFF000000003FFFF80000000000000000
310
7FFFFFF0001FFFFFFFFFF80000000FFFFFFFFFF80000000FFFFFFF0000000000
310
03FFFC00000003FFF000FFE000000000FFFFFFF00007FFFF80003FFFFF80007F
310
FFC000000001FFFFFC000000001FFFF800000000000000007FFFFFF0001FFFFF
310
FFFFE000000003FFFFFFFFE000000003FFFFFF000000000003FFF000000000FF
310
F000FF80000000007FFFFFF00007FFFF80003FFFFF80007FFF8000000000FFFF
310
F80000000007FFF800000000000000007FFFFFF0001FFFFFFFFFC000000001FF
310
FFFFFFC000000001FFFFFF000000000003FFC0000000007FF000FF0000000000
310
3FFFFFE00007FFFF00003FFFFF80007FFE00000000003FFFF00000000003FFF8
310
00000000000000007FFFFFF0001FFFFFFFFF8000000000FFFFFFFF8000000000
310
FFFFFF000000000003FF80000000003FF000FE00000000001FFFFFE00003FFFF
310
00003FFFFF80007FFC00000000001FFFE00000000001FFF8000001FFFE000000
310
7FFFFFF0001FFFFFFFFE00000000003FFFFFFE00000000003FFFFF0000000000
310
03FF00000000001FF000FC00000000000FFFFFE00003FFFF00001FFFFF80007F
310
F800000000001FFFC00000000000FFF8000001FFFE0000007FFFFFF0001FFFFF
310
FFFC00000000001FFFFFFC00000000001FFFFF000000000003FE00000000000F
310
F000F8000000000007FFFFE00003FFFF00001FFFFF80007FF800000000000FFF
310
800000000000FFF8000001FFFE0000007FFFFFF0001FFFFFFFF800000000000F
310
FFFFF800000000000FFFFF000000000003FC000000000007F000F80000000000
310
03FFFFC00003FFFE00001FFFFF80007FF0000000000007FF0000000000007FF8
310
000001FFFE0000007FFFFFF0001FFFFFFFF0000000000007FFFFF00000000000
310
07FFFF000000000003F8000000000003F000F0000000000003FFFFC00001FFFE
310
00001FFFFF80007FE0000000000007FE0000000000003FF8000001FFFE000000
310
7FFFFFF0001FFFFFFFF0000000000007FFFFF0000000000007FFFF0000000000
310
03F800001F800003F000E00001FFF00001FFFFC00001FFFE00000FFFFF80007F
310
E00001FFE00003FE00001FFF00003FF8000001FFFE0000007FFFFFF0001FFFFF
310
FFE000003E000003FFFFE000003E000003FFFF000000000003F00001FFF80001
310
F000E00007FFFC0001FFFFC00001FFFE00000FFFFF80007FC0000FFFFC0003FC
310
0000FFFFC0001FF8000001FFFE0000007FFFFFF0001FFFFFFFC00003FFE00001
310
FFFFC00003FFE00001FFFF0001FFFFFFFFF00007FFFE0001F000E0000FFFFF00
310
00FFFF800001FFFC00000FFFFF80007FC0001FFFFE0001FC0001FFFFE0001FF8
310
000001FFFE0000007FFFFFF0001FFFFFFF80000FFFF80000FFFF80000FFFF800
310
00FFFF0003FFFFFFFFE0000FFFFF8000F000C0003FFFFF8000FFFF800000FFFC
310
000007FFFF80007F80003FFFFF0001FC0003FFFFF0001FF8000001FFFE000000
310
7FFFFFF0001FFFFFFF80003FFFFE0000FFFF80003FFFFE0000FFFF0003FFFFFF
310
FFE0003FFFFF8000F000C0003FFFFF8000FFFF800000FFFC000007FFFF80007F
310
80007FFFFF8001F80007FFFFF8000FF8000001FFFE0000007FFFFFF0001FFFFF
310
FF00007FFFFF00007FFF00007FFFFF00007FFF0003FFFFFFFFE0003FFFFFC000
310
F000C0007FFFFFC000FFFF000000FFFC000007FFFF80007F8000FFFFFF8000F8
310
000FFFFFF8000FF8000001FFFE0000007FFFFFF0001FFFFFFF0000FFFFFF8000
310
7FFF0000FFFFFF80007FFF0003FFFFFFFFC0007FFFFFC00070008000FFFFFFC0
310
00FFFF000000FFF8000007FFFF80007F8000FFFFFF8000F8000FFFFFF8000FF8
310
000001FFFE0000007FFFFFF0001FFFFFFE0001FFFFFFC0003FFE0001FFFFFFC0
310
003FFF0003FFFFFFFFC0007FFFFFE00070008000FFFFFFC0007FFF0000007FF8
310
000003FFFF80007F0001FFFFFF8000F8000FFFFFF8000FF8000001FFFE000000
310
7FFFFFF0001FFFFFFE0001FFFFFFC0003FFE0001FFFFFFC0003FFF0003FFFFFF
310
FFC000FFFFFFE00070008000FFFFFFC0007FFF0000007FF8000003FFFF80007F
310
0001FFFFFF8000F8001FFFFFF8000FF8000001FFFE0000007FFFFFF0001FFFFF
310
FE0003FFFFFFE0003FFE0003FFFFFFE0003FFF0003FFFFFFFFC000FFFFFFE000
310
70008000FFFFFFC0007FFE0000007FF8000003FFFF80007F0001FFFFFF8000F0
310
001FFFFFF8000FF8000001FFFE0000007FFFFFF0001FFFFFFC0003FFFFFFE000
310
1FFC0003FFFFFFE0001FFF0003FFFFFFFFC000FFFFFFC00070008000FFFFFF80
310
007FFE0000007FF0000003FFFF80007F0001FFFFFF0000F0001FFFFFF8000FF8
310
000001FFFE0000007FFFFFF0001FFFFFFC0007FFFFFFF0001FFC0007FFFFFFF0
310
001FFF0003FFFFFFFFC000FFFFFFC00070008001FFFFFF0000FFFE0000003FF0
310
000001FFFF80007F0001FFFFFF0000F8001FFFFFF0000FF8000001FFFE000000
310
7FFFFFF0001FFFFFFC0007FFFFFFF0001FFC0007FFFFFFF0001FFF0003FFFFFF
310
FFC001FFFFFF80007000FFFFFFFFFE0000FFFE0008003FF0008001FFFF80007F
310
FFFFFFFFFC0000FFFFFFFFFFE0000FF8000001FFFE0000007FFFFFF0001FFFFF
310
F8000FFFFFFFF8000FF8000FFFFFFFF8000FFF0003FFFFFFFFFFFFFFFFFF0000
310
7000FFFFFFFFFC0000FFFC0008003FF0008001FFFF80007FFFFFFFFFF80001FF
310
FFFFFFFF80000FF8000001FFFE0000007FFFFFF0001FFFFFF8000FFFFFFFF800
310
0FF8000FFFFFFFF8000FFF0003FFFFFFFFFFFFFFFFFE0000F000FFFFFFFFE000
310
00FFFC000C003FE000C001FFFF80007FFFFFFFFFC00001FFFFFFFFFE00001FF8
310
000001FFFE0000007FFFFFF0001FFFFFF8000FFFFFFFF8000FF8000FFFFFFFF8
310
000FFF0003FFFFFFFFFFFFFFFFF00000F000FFFFFFFE000001FFFC000C001FE0
310
00C000FFFF80007FFFFFFFFE000001FFFFFFFFE000001FF80FFFFFFFFFFFFFC0
310
7FFFFFF0001FFFFFF8000FFFFFFFF8000FF8000FFFFFFFF8000FFF0003FFFFFF
310
FFFFFFFFFF800000F000FFFFFFC0000001FFFC001C001FE001C000FFFF80007F
310
FFFFFF80000003FFFFFFF80000001FF80FFFFFFFFFFFFFC07FFFFFF0001FFFFF
310
F8001FFFFFFFFC000FF8001FFFFFFFFC000FFF0003FFFFFFFFFFFFFFF0000001
310
F000FFFFF800000001FFF8001C001FE001C000FFFF80007FFFFFF800000003FF
310
FFFF800000003FF80FFFFFFFFFFFFFC07FFFFFF0001FFFFFF8001FFFFFFFFC00
310
0FF8001FFFFFFFFC000FFF0003FFFFFFFFFFFFFE00000001F000FFFFC0000000
310
03FFF8001E001FC001E000FFFF80007FFFFF8000000007FFFFFC000000003FF8
310
0FFFFFFFFFFFFFC07FFFFFF0001FFFFFF8001FFFFFFFFC000FF8001FFFFFFFFC
310
000FFF0003FFFFFFFFFFFFE000000003F000FFFE0000000007FFF8001E000FC0
310
01E0007FFF80007FFFFE0000000007FFFFE0000000007FF80FFFFFFFFFFFFFC0
310
7FFFFFF0001FFFFFF0001FFFFFFFFC0007F0001FFFFFFFFC0007FF0003FFFFFF
310
FFFFFF0000000003F000FFF80000000007FFF8001E000FC003E0007FFF80007F
310
FFF0000000000FFFFF8000000000FFF80FFFFFFFFFFFFFC07FFFFFF0001FFFFF
310
F0001FFFFFFFFC0007F0001FFFFFFFFC0007FF0003FFFFFFFFFFFC0000000007
310
F000FFE0000000000FFFF0003E000FC003E0007FFF80007FFFC0000000001FFF
310
FE0000000001FFF80FFFFFFFFFFFFFC07FFFFFF0001FFFFFF0001FFFFFFFFC00
310
07F0001FFFFFFFFC0007FF0003FFFFFFFFFFF0000000000FF000FFC000000000
310
1FFFF0003F000F8003F0003FFF80007FFF80000000003FFFF80000000003FFF8
310
0FFFFFFFFFFFFFC07FFFFFF0001FFFFFF0001FFFFFFFFC0007F0001FFFFFFFFC
310
0007FF0003FFFFFFFFFFE0000000001FF000FF00000000007FFFF0003F000780
310
03F0003FFF80007FFF00000000007FFFF00000000007FFF80FFFFFFFFFFFFFC0
310
7FFFFFF0001FFFFFF0001FFFFFFFFC0007F0001FFFFFFFFC0007FF0003FFFFFF
310
FFFF80000000007FF000FE0000000000FFFFE0003F00078007F0003FFF80007F
310
FE0000000001FFFFE0000000001FFFF80FFFFFFFFFFFFFC07FFFFFF0001FFFFF
310
F0001FFFFFFFFC0007F0001FFFFFFFFC0007FF0003FFFFFFFFFF0000000000FF
310
F000FC0000000003FFFFE0007F00078007F0003FFF80007FFC0000000007FFFF
310
C0000000007FFFF80FFFFFFFFFFFFFC07FFFFFF0001FFFFFF8001FFFFFFFFC00
310
0FF8001FFFFFFFFC000FFF0003FFFFFFFFFE0000000003FFF000FC000000000F
310
FFFFE0007F80070007F8001FFF80007FF8000000001FFFFF8000000001FFFFF8
310
0FFFFFFFFFFFFFC07FFFFFF0001FFFFFF8001FFFFFFFFC000FF8001FFFFFFFFC
310
000FFF0003FFFFFFFFFC000000000FFFF000F8000000007FFFFFE0007F800700
310
07F8001FFF80007FF000000000FFFFFF800000000FFFFFF80FFFFFFFFFFFFFC0
310
7FFFFFF0001FFFFFF8000FFFFFFFF8000FF8000FFFFFFFF8000FFF0003FFFFFF
310
FFFC000000007FFFF000F800000007FFFFFFC0007F8003000FF8001FFF80007F
310
F000000007FFFFFF000000007FFFFFF80FFFFFFFFFFFFFC07FFFFFF0001FFFFF
310
F8000FFFFFFFF8000FF8000FFFFFFFF8000FFF0003FFFFFFFFF80000000FFFFF
310
F000F0000000FFFFFFFFC000FF8003000FF8001FFF80007FE0000000FFFFFFFF
310
0000000FFFFFFFF8000001FFFE0000007FFFFFF0001FFFFFF8000FFFFFFFF800
310
0FF8000FFFFFFFF8000FFF0003FFFFFFFFF8000000FFFFFFF000F000000FFFFF
310
FFFFC000FFC002000FF8000FFF80007FE000001FFFFFFFFE000001FFFFFFFFF8
310
000001FFFE0000007FFFFFF0001FFFFFF8000FFFFFFFF8000FF8000FFFFFFFF8
310
000FFF0003FFFFFFFFF000001FFFFFFFF000E00000FFFFFFFFFFC000FFC00200
310
0FFC000FFF80007FE00001FFFFFFFFFE00001FFFFFFFFFF8000001FFFE000000
310
7FFFFFF0001FFFFFFC000FFFFFFFF8001FFC000FFFFFFFF8001FFF0003FFFFFF
310
FFF00001FFFFFFFFF000E00007FFFFFFFFFF8000FFC000001FFC000FFF80007F
310
C0000FFFFFFFFFFE0000FFFFFFFFFFF8000001FFFE0000007FFFFFF0001FFFFF
310
FC0007FFFFFFF0001FFC0007FFFFFFF0001FFF0003FFFFFFFFF00007FFFFFFFF
310
F000E0001FFFFFFFFFFF8000FFC000001FFC000FFF80007FC0003FFFFFFFFFFE
310
0001FFFFFFFFFFF8000001FFFE0000007FFFFFF0001FFFFFFC0007FFFFFFF000
310
1FFC0007FFFFFFF0001FFF0003FFFFFFFFF0001FFFFFFFFFF000E0003FFFFF00
310
03FF8001FFE000001FFC0007FF80007FC0007FFFFF0007FC0003FFFFF0003FF8
310
000001FFFE0000007FFFFFF0001FFFFFFC0003FFFFFFE0001FFC0003FFFFFFE0
310
001FFF0003FFFFFFFFF0003FFFFFFFFFF000E0003FFFFF0001FF8001FFE00000
310
1FFE0007FF80007FC0007FFFFE0003FC0007FFFFE0003FF8000001FFFE000000
310
7FFFFFF0001FFFFFFE0003FFFFFFE0003FFE0003FFFFFFE0003FFF0003FFFFFF
310
FFF0003FFFFF8001F000E0003FFFFF0001FF0001FFE000001FFE0007FF80007F
310
C0007FFFFE0003FC0007FFFFE0003FF8000001FFFE0000007FFFFFF0001FFFFF
310
FE0001FFFFFFC0003FFE0001FFFFFFC0003FFF0003FFFFFFFFF0003FFFFF0001
310
F000E0003FFFFF0003FF0001FFE000003FFE0007FF80007FC0007FFFFE0003FC
310
0007FFFFE0003FF8000001FFFE0000007FFFFFF0001FFFFFFF0001FFFFFFC000
310
7FFF0001FFFFFFC0007FFF0003FFFFFFFFF0003FFFFF0001F000E0003FFFFE00
310
03FF0003FFF000003FFE0003FF80007FC0007FFFFC0003FE0007FFFFE0003FF8
310
000001FFFE0000007FFFFFF0001FFFFFFF0000FFFFFF80007FFF0000FFFFFF80
310
007FFF0003FFFFFFFFF0003FFFFF0001F000E0003FFFFE0003FF0003FFF00000
310
3FFF0003FF80007FC0007FFFFC0007FE0007FFFFC0003FF8000001FFFE000000
310
7FFFFFF0001FFFFFFF80007FFFFF0000FFFF80007FFFFF0000FFFF0003FFFFFF
310
FFF0003FFFFF0003F000E0003FFFFC0003FE0003FFF000003FFF0003FF80007F
310
E0003FFFF80007FE0003FFFFC0007FF8000001FFFE0000007FFFFFF0001FFFFF
310
FF80003FFFFE0000FFFF80003FFFFE0000FFFF0003FFFFFFFFF0001FFFFE0003
310
F000F0001FFFF80003FE0003FFF000007FFF0001FF80007FE0003FFFF00007FE
310
0001FFFF80007FF8000001FFFE0000007FFFFFF0001FFFFFFFC0000FFFF80001
310
FFFFC0000FFFF80001FFFF0003FFFFFFFFF0001FFFFC0003F000F0000FFFF000
310
07FE0007FFF800007FFF0001FF80007FE0001FFFE00007FF0000FFFE00007FF8
310
000001FFFE0000007FFFFFF0001FFFFFFFC00003FFE00001FFFFC00003FFE000
310
01FFFF0003FFFFFFFFF8000FFFF80003F000F00003FFC00007FC0007FFF80000
310
7FFF8001FF80007FF00007FF80000FFF00007FF80000FFF8000001FFFE000000
310
7F80000000000001FFE000003E000003FFFFE000003E000003FFFF0003FFFFFF
310
FFF80003FFE00007F000F800000000000FFC0007FFF800007FFF8001FF80007F
310
F000000000000FFF000000000000FFF8000001FFFE0000007F80000000000001
310
FFF0000000000007FFFFF0000000000007FFFF0003FFFFFFFFFC00007E000007
310
F000F800000000000FFC0007FFF80000FFFF8000FF80007FF800000000001FFF
310
800000000001FFF8000001FFFE0000007F80000000000001FFF800000000000F
310
FFFFF800000000000FFFFF0003FFFFFFFFFC00000000000FF000FC0000000000
310
1FFC0007FFFC0000FFFF8000FF80007FF800000000003FFFC00000000001FFF8
310
000001FFFE0000007F80000000000001FFF800000000000FFFFFF80000000000
310
0FFFFF0003FFFFFFFFFE00000000001FF000FE00000000003FF8000FFFFC0000
310
FFFF8000FF80007FFC00000000003FFFC00000000003FFF8000001FFFE000000
310
7F80000000000001FFFC00000000001FFFFFFC00000000001FFFFF0003FFFFFF
310
FFFF00000000001FF000FF00000000003FF8000FFFFC0000FFFFC000FF80007F
310
FE00000000007FFFE00000000007FFF8000001FFFE0000007F80000000000001
310
FFFE00000000003FFFFFFE00000000003FFFFF0003FFFFFFFFFF80000000003F
310
F000FF80000000007FF8000FFFFC0001FFFFC0007F80007FFF0000000000FFFF
310
F0000000000FFFF800000000000000007F80000000000001FFFF8000000000FF
310
FFFFFF8000000000FFFFFF0003FFFFFFFFFFC0000000007FF000FFC000000000
310
FFF8000FFFFE0001FFFFC0007F80007FFF8000000001FFFFF8000000001FFFF8
310
00000000000000007F80000000000001FFFFC000000001FFFFFFFFC000000001
310
FFFFFF0003FFFFFFFFFFE000000000FFF000FFE000000003FFF0001FFFFE0001
310
FFFFC0007F80007FFFC000000007FFFFFE000000003FFFF80000000000000000
310
7F80000000000001FFFFE000000003FFFFFFFFE000000003FFFFFF0003FFFFFF
310
FFFFF000000003FFF000FFF80000000FFFF0001FFFFE0001FFFFE0007F80007F
310
FFF00000000FFFFFFF00000000FFFFF800000000000000007F80000000000001
310
FFFFF80000000FFFFFFFFFF80000000FFFFFFF0003FFFFFFFFFFFC0000000FFF
310
F000FFFE0000003FFFF0001FFFFE0003FFFFE0003F80007FFFFC0000003FFFFF
310
FFC0000003FFFFF800000000000000007F80000000000001FFFFFE0000003FFF
310
FFFFFFFE0000003FFFFFFF0003FFFFFFFFFFFF0000003FFFF000FFFF800000FF
310
FFF0001FFFFF0003FFFFE0003F80007FFFFF000001FFFFFFFFF800001FFFFFF8
310
00000000000000007F80000000000001FFFFFFC00001FFFFFFFFFFFFC00001FF
310
FFFFFF0003FFFFFFFFFFFFC00000FFFFF000FFFFF8000FFFFFFFFFFFFFFFFFFF
310
FFFFFFFFFFFFFFFFFFFFF0001FFFFFFFFFFF0000FFFFFFF80000000000000000
310
7FFFFFFFFFFFFFFFFFFFFFFC001FFFFFFFFFFFFFFC001FFFFFFFFFFFFFFFFFFF
310
FFFFFFFC001FFFFFF000FFFFFFFFFFFFFFFFFFFFFFFFFFFFFFFFFFFFFFFFFFFF
310
FFFFFFFFFFFFFFFFFFFFFFFFFFFFFFFFFFFFFFFFFFFFFFFFFFFFFFFFFFFFFFFF
310
FFFFFFFFFFFFFFFFFFFFFFFFFFFFFFFFFFFFFFFFFFFFFFFFFFFFFFFFFFFFFFFF
310
F000FFFFFFFFFFFFFFFFFFFFFFFFFFFFFFFFFFFFFFFFFFFFFFFFFFFFFFFFFFFF
310
FFFFFFFFFFFFFFFFFFFFFFFFFFFFFFFFFFFFFFFFFFFFFFFFFFFFFFFFFFFFFFFF
310
FFFFFFFFFFFFFFFFFFFFFFFFFFFFFFFFFFFFFFFFFFFFFFFFF000FFFFFFFFFFFF
310
FFFFFFFFFFFFFFFFFFFFFFFFFFFFFFFFFFFFFFFFFFFFFFFFFFFFFFFFFFFFFFFF
310
FFFFFFFFFFFFFFFFFFFFFFFFFFFFFFFFFFFFFFFFFFFFFFFFFFFFFFFFFFFFFFFF
310
FFFFFFFFFFFFFFFFFFFFFFFFFFFFFFFFF000FFFFFFFFFFFFFFFFFFFFFFFFFFFF
310
FFFFFFFFFFFFFFFFFFFFFFFFFFFFFFFFFFFFFFFFFFFFFFFFFFFFFFFFFFFFFFFF
310
FFFFFFFFFFFFFFFFFFFFFFFFFFFFFFFFFFFFFFFFFFFFFFFFFFFFFFFFFFFFFFFF
310
FFFFFFFFFFFFFFFFF000FFFFFFFFFFFFFFFFFFFFFFFFFFFFFFFFFFFFFFFFFFFF
310
FFFFFFFFFFFFFFFFFFFFFFFFFFFFFFFFFFFFFFFFFFFFFFFFFFFFFFFFFFFFFFFF
310
FFFFFFFFFFFFFFFFFFFFFFFFFFFFFFFFFFFFFFFFFFFFFFFFFFFFFFFFFFFFFFFF
310
F000FFFFFFFFFFFFFFFFFFFFFFFFFFFFFFFFFFFFFFFFFFFFFFFFFFFFFFFFFFFF
310
FFFFFFFFFFFFFFFFFFFFFFFFFFFFFFFFFFFFFFFFFFFFFFFFFFFFFFFFFFFFFFFF
310
FFFFFFFFFFFFFFFFFFFFFFFFFFFFFFFFFFFFFFFFFFFFFFFFF000FFFFFFFFFFFF
310
FFFFFFFFFFFFFFFFFFFFFFFFFFFFFFFFFFFFFFFFFFFFFFFFFFFFFFFFFFFFFFFF
310
FFFFFFFFFFFFFFFFFFFFFFFFFFFFFFFFFFFFFFFFFFFFFFFFFFFFFFFFFFFFFFFF
310
FFFFFFFFFFFFFFFFFFFFFFFFFFFFFFFFF000FFFFFFFFFFFFFFFFFFFFFFFFFFFF
310
FFFFFFFFFFFFFFFFFFFFFFFFFFFFFFFFFFFFFFFFFFFFFFFFFFFFFFFFFFFFFFFF
310
FFFFFFFFFFFFFFFFFFFFFFFFFFFFFFFFFFFFFFFFFFFFFFFFFFFFFFFFFFFFFFFF
310
FFFFFFFFFFFFFFFFF000FFFFFFFFFFFFFFFFFFFFFFFFFFFFFFFFFFFFFFFFFFFF
310
FFFFFFFFFFFFFFFFFFFFFFFFFFFFFFFFFFFFFFFFFFFFFFFFFFFFFFFFFFFFFFFF
310
FFFFFFFFFFFFFFFFFFFFFFFFFFFFFFFFFFFFFFFFFFFFFFFFFFFFFFFFFFFFFFFF
310
F000FFFFFFFFFFFFFFFFFFFFFFFFFFFFFFFFFFFFFFFFFFFFFFFFFFFFFFFFFFFF
310
FFFFFFFFFFFFFFFFFFFFFFFFFFFFFFFFFFFFFFFFFFFFFFFFFFFFFFFFFFFFFFFF
310
FFFFFFFFFFFFFFFFFFFFFFFFFFFFFFFFFFFFFFFFFFFFFFFFF000FFFFFFFFFFFF
310
FFFFFFFFFFFFFFFFFFFFFFFFFFFFFFFFFFFFFFFFFFFFFFFFFFFFFFFFFFFFFFFF
310
FFFFFFFFFFFFFFFFFFFFFFFFFFFFFFFFFFFFFFFFFFFFFFFFFFFFFFFFFFFFFFFF
310
FFFFFFFFFFFFFFFFFFFFFFFFFFFFFFFFF000FFFFFFFFFFFFFFFFFFFFFFFFFFFF
310
FFFFFFFFFFFFFFFFFFFFFFFFFFFFFFFFFFFFFFFFFFFFFFFFFFFFFFFFFFFFFFFF
310
FFFFFFFFFFFFFFFFFFFFFFFFFFFFFFFFFFFFFFFFFFFFFFFFFFFFFFFFFFFFFFFF
310
FFFFFFFFFFFFFFFFF000FFFFFFFFFFFFFFFFFFFFFFFFFFFFFFFFFFFFFFFFFFFF
310
FFFFFFFFFFFFFFFFFFFFFFFFFFFFFFFFFFFFFFFFFFFFFFFFFFFFFFFFFFFFFFFF
310
FFFFFFFFFFFFFFFFFFFFFFFFFFFFFFFFFFFFFFFFFFFFFFFFFFFFFFFFFFFFFFFF
310
F000FFFFFFFFFFFFFFFFFFFFFFFFFFFFFFFFFFFFFFFFFFFFFFFFFFFFFFFFFFFF
310
FFFFFFFFFFFFFFFFFFFFFFFFFFFFFFFFFFFFFFFFFFFFFFFFFFFFFFFFFFFFFFFF
310
FFFFFFFFFFFFFFFFFFFFFFFFFFFFFFFFFFFFFFFFFFFFFFFFF000FFFFFFFFFFFF
310
FFFFFFFFFFFFFFFFFFFFFFFFFFFFFFFFFFFFFFFFFFFFFFFFFFFFFFFFFFFFFFFF
310
FFFFFFFFFFFFFFFFFFFFFFFFFFFFFFFFFFFFFFFFFFFFFFFFFFFFFFFFFFFFFFFF
310
FFFFFFFFFFFFFFFFFFFFFFFFFFFFFFFFF000FFFFFFFFFFFFFFFFFFFFFFFFFFFF
310
FFFFFFFFFFFFFFFFFFFFFFFFFFFFFFFFFFFFFFFFFFFFFFFFFFFFFFFFFFFFFFFF
310
FFFFFFFFFFFFFFFFFFFFFFFFFFFFFFFFFFFFFFFFFFFFFFFFFFFFFFFFFFFFFFFF
310
FFFFFFFFFFFFFFFFF000FFFFFFFFFFFFFFFFFFFFFFFFFFFFFFFFFFFFFFFFFFFF
310
FFFFFFFFFFFFFFFFFFFFFFFFFFFFFFFFFFFFFFFFFFFFFFFFFFFFFFFFFFFFFFFF
310
FFFFFFFFFFFFFFFFFFFFFFFFFFFFFFFFFFFFFFFFFFFFFFFFFFFFFFFFFFFFFFFF
310
F000FFFFFFFFFFFFFFFFFFFFFFFFFFFFFFFFFFFFFFFFFFFFFFFFFFFFFFFFFFFF
310
FFFFFFFFFFFFFFFFFFFFFFFFFFFFFFFFFFFFFFFFFFFFFFFFFFFFFFFFFFFFFFFF
310
FFFFFFFFFFFFFFFFFFFFFFFFFFFFFFFFFFFFFFFFFFFFFFFFF000FFFFFFFFFFFF
310
FFFFFFFFFFFFFFFFFFFFFFFFFFFFFFFFFFFFFFFFFFFFFFFFFFFFFFFFFFFFFFFF
310
FFFFFFFFFFFFFFFFFFFFFFFFFFFFFFFFFFFFFFFFFFFFFFFFFFFFFFFFFFFFFFFF
310
FFFFFFFFFFFFFFFFFFFFFFFFFFFFFFFFF000FFFFFFFFFFFFFFFFFFFFFFFFFFFF
310
FFFFFFFFFFFFFFFFFFFFFFFFFFFFFFFFFFFFFFFFFFFFFFFFFFFFFFFFFFFFFFFF
310
FFFFFFFFFFFFFFFFFFFFFFFFFFFFFFFFFFFFFFFFFFFFFFFFFFFFFFFFFFFFFFFF
310
FFFFFFFFFFFFFFFFF000FFFFFFFFFFFFFFFFFFFFFFFFFFFFFFFFFFFFFFFFFFFF
310
FFFFFFFFFFFFFFFFFFFFFFFFFFFFFFFFFFFFFFFFFFFFFFFFFFFFFFFFFFFFFFFF
310
FFFFFFFFFFFFFFFFFFFFFFFFFFFFFFFFFFFFFFFFFFFFFFFFFFFFFFFFFFFFFFFF
310
F000FFFFFFFFFFFFFFFFFFFFFFFFFFFFFFFFFFFFFFFFFFFFFFFFFFFFFFFFFFFF
310
FFFFFFFFFFFFFFFFFFFFFFFFFFFFFFFFFFFFFFFFFFFFFFFFFFFFFFFFFFFFFFFF
310
FFFFFFFFFFFFFFFFFFFFFFFFFFFFFFFFFFFFFFFFFFFFFFFFF000FFFFFFFFFFFF
310
FFFFFFFFFFFFFFFFFFFFFFFFFFFFFFFFFFFFFFFFFFFFFFFFFFFFFFFFFFFFFFFF
310
FFFFFFFFFFFFFFFFFFFFFFFFFFFFFFFFFFFFFFFFFFFFFFFFFFFFFFFFFFFFFFFF
310
FFFFFFFFFFFFFFFFFFFFFFFFFFFFFFFFF0000000000000000000000000000000
310
0000000001000000010000000100000001000000010000000100000001000000
310
0100000001000000010000000100000001000000010000000100000001000000
310
0100000000000000010000000000000001000000010000000100000001000000
310
0100000001000000010000000100000001000000010000000000000001000000
310
0000000001000000010000000100000001000000010000000100000001000000
310
0100000001000000010000000100000001000000010000000100000001000000
310
0100000001000000010000000100000001000000010000000100000000000000
310
0100000000000000010000000100000001000000010000000100000001000000
310
0100000001000000010000000100000001000000010000000100000001000000
310
0100000001000000010000000100000001000000010000000100000001000000
310
0100000001000000010000000100000001000000010000000000000001000000
310
0000000000000000E0040000C002000000000000000000000000000000000000
310
0000000000000000000000000000000050639D63FF070000E4001C03FF000007
310
D0BDF36900000000C054056A0000000000000000000000000000000000000000
310
0000000000000000000000000000000000000000000000000000000000000000
  1
OLE
  0
ENDSEC
  0
SECTION
  2
OBJECTS
  0
DICTIONARY
  5
C
330
0
100
AcDbDictionary
281
     1
  3
ACAD_GROUP
350
D
  3
ACAD_LAYOUT
350
1A
  3
ACAD_MLEADERSTYLE
350
1F9
  3
ACAD_MLINESTYLE
350
17
  3
ACAD_PLOTSETTINGS
350
19
  3
ACAD_PLOTSTYLENAME
350
E
  3
ACAD_TABLESTYLE
350
1F8
  3
ACAD_VISUALSTYLE
350
2A
  3
AcDbVariableDictionary
350
1FA
  0
DICTIONARY
  5
D
102
{ACAD_REACTORS
330
C
102
}
330
C
100
AcDbDictionary
281
     1
  0
DICTIONARY
  5
1A
102
{ACAD_REACTORS
330
C
102
}
330
C
100
AcDbDictionary
281
     1
  3
Layout1
350
1E
  3
Layout2
350
26
  3
Model
350
22
  0
DICTIONARY
  5
1F9
102
{ACAD_REACTORS
330
C
102
}
330
C
100
AcDbDictionary
281
     1
  0
DICTIONARY
  5
17
102
{ACAD_REACTORS
330
C
102
}
330
C
100
AcDbDictionary
281
     1
  3
Standard
350
18
  0
DICTIONARY
  5
19
102
{ACAD_REACTORS
330
C
102
}
330
C
100
AcDbDictionary
281
     1
  0
ACDBDICTIONARYWDFLT
  5
E
102
{ACAD_REACTORS
330
C
102
}
330
C
100
AcDbDictionary
281
     1
  3
Normal
350
F
100
AcDbDictionaryWithDefault
340
F
  0
DICTIONARY
  5
1F8
102
{ACAD_REACTORS
330
C
102
}
330
C
100
AcDbDictionary
281
     1
  0
DICTIONARY
  5
2A
102
{ACAD_REACTORS
330
C
102
}
330
C
100
AcDbDictionary
281
     1
  3
2dWireframe
350
2F
  3
3D Hidden
350
31
  3
3dWireframe
350
30
  3
Basic
350
32
  3
Brighten
350
36
  3
ColorChange
350
3A
  3
Conceptual
350
34
  3
Dim
350
35
  3
Facepattern
350
39
  3
Flat
350
2B
  3
FlatWithEdges
350
2C
  3
Gouraud
350
2D
  3
GouraudWithEdges
350
2E
  3
Linepattern
350
38
  3
Realistic
350
33
  3
Thicken
350
37
  0
DICTIONARY
  5
1FA
102
{ACAD_REACTORS
330
C
102
}
330
C
100
AcDbDictionary
281
     1
  3
PSOLHEIGHT
350
1FC
  3
PSOLWIDTH
350
1FB
  0
LAYOUT
  5
1E
102
{ACAD_REACTORS
330
1A
102
}
330
1A
100
AcDbPlotSettings
  1

  2
none_device
  4

  6

 40
0.0
 41
0.0
 42
0.0
 43
0.0
 44
0.0
 45
0.0
 46
0.0
 47
0.0
 48
0.0
 49
0.0
140
0.0
141
0.0
142
1.0
143
1.0
 70
   688
 72
     0
 73
     0
 74
     5
  7

 75
    16
147
1.0
148
0.0
149
0.0
100
AcDbLayout
  1
Layout1
 70
     1
 71
     1
 10
0.0
 20
0.0
 11
420.0
 21
297.0
 12
0.0
 22
0.0
 32
0.0
 14
1.0000000000E+20
 24
1.0000000000E+20
 34
1.0000000000E+20
 15
-1.0000000000E+20
 25
-1.0000000000E+20
 35
-1.0000000000E+20
146
0.0
 13
0.0
 23
0.0
 33
0.0
 16
1.0
 26
0.0
 36
0.0
 17
0.0
 27
1.0
 37
0.0
 76
     0
330
1B
  0
LAYOUT
  5
26
102
{ACAD_REACTORS
330
1A
102
}
330
1A
100
AcDbPlotSettings
  1

  2
none_device
  4

  6

 40
0.0
 41
0.0
 42
0.0
 43
0.0
 44
0.0
 45
0.0
 46
0.0
 47
0.0
 48
0.0
 49
0.0
140
0.0
141
0.0
142
1.0
143
1.0
 70
   688
 72
     0
 73
     0
 74
     5
  7

 75
    16
147
1.0
148
0.0
149
0.0
100
AcDbLayout
  1
Layout2
 70
     1
 71
     2
 10
0.0
 20
0.0
 11
0.0
 21
0.0
 12
0.0
 22
0.0
 32
0.0
 14
0.0
 24
0.0
 34
0.0
 15
0.0
 25
0.0
 35
0.0
146
0.0
 13
0.0
 23
0.0
 33
0.0
 16
1.0
 26
0.0
 36
0.0
 17
0.0
 27
1.0
 37
0.0
 76
     0
330
23
  0
LAYOUT
  5
22
102
{ACAD_REACTORS
330
1A
102
}
330
1A
100
AcDbPlotSettings
  1

  2
none_device
  4

  6

 40
0.0
 41
0.0
 42
0.0
 43
0.0
 44
0.0
 45
0.0
 46
0.0
 47
0.0
 48
0.0
 49
0.0
140
0.0
141
0.0
142
1.0
143
1.0
 70
  1712
 72
     0
 73
     0
 74
     0
  7

 75
     0
147
1.0
148
0.0
149
0.0
100
AcDbLayout
  1
Model
 70
     1
 71
     0
 10
0.0
 20
0.0
 11
297.0
 21
210.0
 12
0.0
 22
0.0
 32
0.0
 14
0.0
 24
0.0
 34
0.0
 15
297.0
 25
210.0
 35
0.0
146
0.0
 13
0.0
 23
0.0
 33
0.0
 16
1.0
 26
0.0
 36
0.0
 17
0.0
 27
1.0
 37
0.0
 76
     0
330
1F
331
29
  0
MLINESTYLE
  5
18
102
{ACAD_REACTORS
330
17
102
}
330
17
100
AcDbMlineStyle
  2
Standard
 70
     0
  3

 62
   256
 51
90.0
 52
90.0
 71
     2
 49
0.5
 62
   256
  6
BYLAYER
 49
-0.5
 62
   256
  6
BYLAYER
  0
ACDBPLACEHOLDER
  5
F
102
{ACAD_REACTORS
330
E
102
}
330
E
  0
VISUALSTYLE
  5
2F
102
{ACAD_REACTORS
330
2A
102
}
330
2A
100
AcDbVisualStyle
  2
2dWireframe
 70
     4
 71
     0
 72
     2
 73
     0
 90
        0
 40
-0.6
 41
-30.0
 62
     5
 63
     7
 74
     1
 91
        4
 64
     7
 65
   257
 75
     1
175
     1
 42
1.0
 92
        0
 66
   257
 43
1.0
 76
     1
 77
     6
 78
     2
 67
     7
 79
     5
170
     0
171
     0
290
     0
174
     0
 93
        1
 44
0.0
173
     0
291
     0
 45
0.0
1001
ACAD
1000
AcDbSavedByObjectVersion
1070
     0
  0
VISUALSTYLE
  5
31
102
{ACAD_REACTORS
330
2A
102
}
330
2A
100
AcDbVisualStyle
  2
3D Hidden
 70
     6
 71
     1
 72
     2
 73
     2
 90
        0
 40
-0.6
 41
-30.0
 62
     5
 63
     7
 74
     2
 91
        2
 64
     7
 65
   257
 75
     2
175
     1
 42
40.0
 92
        0
 66
   257
 43
1.0
 76
     1
 77
     6
 78
     2
 67
     7
 79
     3
170
     0
171
     0
290
     0
174
     0
 93
        1
 44
0.0
173
     0
291
     0
 45
0.0
1001
ACAD
1000
AcDbSavedByObjectVersion
1070
     0
  0
VISUALSTYLE
  5
30
102
{ACAD_REACTORS
330
2A
102
}
330
2A
100
AcDbVisualStyle
  2
3dWireframe
 70
     5
 71
     0
 72
     2
 73
     0
 90
        0
 40
-0.6
 41
-30.0
 62
     5
 63
     7
 74
     1
 91
        4
 64
     7
 65
   257
 75
     1
175
     1
 42
1.0
 92
        0
 66
   257
 43
1.0
 76
     1
 77
     6
 78
     2
 67
     7
 79
     5
170
     0
171
     0
290
     0
174
     0
 93
        1
 44
0.0
173
     0
291
     0
 45
0.0
1001
ACAD
1000
AcDbSavedByObjectVersion
1070
     0
  0
VISUALSTYLE
  5
32
102
{ACAD_REACTORS
330
2A
102
}
330
2A
100
AcDbVisualStyle
  2
Basic
 70
     7
 71
     1
 72
     0
 73
     1
 90
        0
 40
-0.6
 41
-30.0
 62
     5
 63
     7
 74
     0
 91
        4
 64
     7
 65
   257
 75
     1
175
     1
 42
1.0
 92
        8
 66
     7
 43
1.0
 76
     1
 77
     6
 78
     2
 67
     7
 79
     5
170
     0
171
     0
290
     0
174
     0
 93
        1
 44
0.0
173
     0
291
     1
 45
0.0
1001
ACAD
1000
AcDbSavedByObjectVersion
1070
     0
  0
VISUALSTYLE
  5
36
102
{ACAD_REACTORS
330
2A
102
}
330
2A
100
AcDbVisualStyle
  2
Brighten
 70
    12
 71
     2
 72
     2
 73
     0
 90
        0
 40
-0.6
 41
-30.0
 62
     5
 63
     7
 74
     1
 91
        4
 64
     7
 65
   257
 75
     1
175
     1
 42
1.0
 92
        8
 66
     7
 43
1.0
 76
     1
 77
     6
 78
     2
 67
     7
 79
     5
170
     0
171
     0
290
     0
174
     0
 93
        1
 44
50.0
173
     0
291
     1
 45
0.0
1001
ACAD
1000
AcDbSavedByObjectVersion
1070
     0
  0
VISUALSTYLE
  5
3A
102
{ACAD_REACTORS
330
2A
102
}
330
2A
100
AcDbVisualStyle
  2
ColorChange
 70
    16
 71
     2
 72
     2
 73
     3
 90
        0
 40
-0.6
 41
-30.0
 62
     5
 63
     8
 74
     1
 91
        4
 64
     7
 65
   257
 75
     1
175
     1
 42
1.0
 92
        8
 66
     8
 43
1.0
 76
     1
 77
     6
 78
     2
 67
     7
 79
     5
170
     0
171
     0
290
     0
174
     0
 93
        1
 44
0.0
173
     0
291
     1
 45
0.0
1001
ACAD
1000
AcDbSavedByObjectVersion
1070
     0
  0
VISUALSTYLE
  5
34
102
{ACAD_REACTORS
330
2A
102
}
330
2A
100
AcDbVisualStyle
  2
Conceptual
 70
     9
 71
     3
 72
     2
 73
     0
 90
        0
 40
-0.6
 41
-30.0
 62
     5
 63
     7
 74
     2
 91
        2
 64
     7
 65
   257
 75
     1
175
     1
 42
40.0
 92
        8
 66
     7
 43
1.0
 76
     1
 77
     6
 78
     2
 67
     7
 79
     3
170
     0
171
     0
290
     0
174
     0
 93
        1
 44
0.0
173
     0
291
     0
 45
0.0
1001
ACAD
1000
AcDbSavedByObjectVersion
1070
     0
  0
VISUALSTYLE
  5
35
102
{ACAD_REACTORS
330
2A
102
}
330
2A
100
AcDbVisualStyle
  2
Dim
 70
    11
 71
     2
 72
     2
 73
     0
 90
        0
 40
-0.6
 41
-30.0
 62
     5
 63
     7
 74
     1
 91
        4
 64
     7
 65
   257
 75
     1
175
     1
 42
1.0
 92
        8
 66
     7
 43
1.0
 76
     1
 77
     6
 78
     2
 67
     7
 79
     5
170
     0
171
     0
290
     0
174
     0
 93
        1
 44
-50.0
173
     0
291
     1
 45
0.0
1001
ACAD
1000
AcDbSavedByObjectVersion
1070
     0
  0
VISUALSTYLE
  5
39
102
{ACAD_REACTORS
330
2A
102
}
330
2A
100
AcDbVisualStyle
  2
Facepattern
 70
    15
 71
     2
 72
     2
 73
     0
 90
        0
 40
-0.6
 41
-30.0
 62
     5
 63
     7
 74
     1
 91
        4
 64
     7
 65
   257
 75
     1
175
     1
 42
1.0
 92
        8
 66
     7
 43
1.0
 76
     1
 77
     6
 78
     2
 67
     7
 79
     5
170
     0
171
     0
290
     0
174
     0
 93
        1
 44
0.0
173
     0
291
     1
 45
0.0
1001
ACAD
1000
AcDbSavedByObjectVersion
1070
     0
  0
VISUALSTYLE
  5
2B
102
{ACAD_REACTORS
330
2A
102
}
330
2A
100
AcDbVisualStyle
  2
Flat
 70
     0
 71
     2
 72
     1
 73
     1
 90
        2
 40
-0.6
 41
30.0
 62
     5
 63
     7
 74
     0
 91
        4
 64
     7
 65
   257
 75
     1
175
     1
 42
1.0
 92
        8
 66
     7
 43
1.0
 76
     1
 77
     6
 78
     2
 67
     7
 79
     5
170
     0
171
     0
290
     0
174
     0
 93
       13
 44
0.0
173
     0
291
     1
 45
0.0
1001
ACAD
1000
AcDbSavedByObjectVersion
1070
     0
  0
VISUALSTYLE
  5
2C
102
{ACAD_REACTORS
330
2A
102
}
330
2A
100
AcDbVisualStyle
  2
FlatWithEdges
 70
     1
 71
     2
 72
     1
 73
     1
 90
        2
 40
-0.6
 41
30.0
 62
     5
 63
     7
 74
     1
 91
        4
 64
     7
 65
   257
 75
     1
175
     1
 42
1.0
 92
        0
 66
   257
 43
1.0
 76
     1
 77
     6
 78
     2
 67
     7
 79
     5
170
     0
171
     0
290
     0
174
     0
 93
       13
 44
0.0
173
     0
291
     1
 45
0.0
1001
ACAD
1000
AcDbSavedByObjectVersion
1070
     0
  0
VISUALSTYLE
  5
2D
102
{ACAD_REACTORS
330
2A
102
}
330
2A
100
AcDbVisualStyle
  2
Gouraud
 70
     2
 71
     2
 72
     2
 73
     1
 90
        2
 40
-0.6
 41
30.0
 62
     5
 63
     7
 74
     0
 91
        4
 64
     7
 65
   257
 75
     1
175
     1
 42
1.0
 92
        0
 66
     7
 43
1.0
 76
     1
 77
     6
 78
     2
 67
     7
 79
     5
170
     0
171
     0
290
     0
174
     0
 93
       13
 44
0.0
173
     0
291
     1
 45
0.0
1001
ACAD
1000
AcDbSavedByObjectVersion
1070
     0
  0
VISUALSTYLE
  5
2E
102
{ACAD_REACTORS
330
2A
102
}
330
2A
100
AcDbVisualStyle
  2
GouraudWithEdges
 70
     3
 71
     2
 72
     2
 73
     1
 90
        2
 40
-0.6
 41
30.0
 62
     5
 63
     7
 74
     1
 91
        4
 64
     7
 65
   257
 75
     1
175
     1
 42
1.0
 92
        0
 66
   257
 43
1.0
 76
     1
 77
     6
 78
     2
 67
     7
 79
     5
170
     0
171
     0
290
     0
174
     0
 93
       13
 44
0.0
173
     0
291
     1
 45
0.0
1001
ACAD
1000
AcDbSavedByObjectVersion
1070
     0
  0
VISUALSTYLE
  5
38
102
{ACAD_REACTORS
330
2A
102
}
330
2A
100
AcDbVisualStyle
  2
Linepattern
 70
    14
 71
     2
 72
     2
 73
     0
 90
        0
 40
-0.6
 41
-30.0
 62
     5
 63
     7
 74
     1
 91
        4
 64
     7
 65
   257
 75
     7
175
     7
 42
1.0
 92
        8
 66
     7
 43
1.0
 76
     1
 77
     6
 78
     2
 67
     7
 79
     5
170
     0
171
     0
290
     0
174
     0
 93
        1
 44
0.0
173
     0
291
     1
 45
0.0
1001
ACAD
1000
AcDbSavedByObjectVersion
1070
     0
  0
VISUALSTYLE
  5
33
102
{ACAD_REACTORS
330
2A
102
}
330
2A
100
AcDbVisualStyle
  2
Realistic
 70
     8
 71
     2
 72
     2
 73
     0
 90
        0
 40
-0.6
 41
-30.0
 62
     5
 63
     7
 74
     1
 91
        0
 64
     7
 65
   257
 75
     1
175
     1
 42
1.0
 92
        8
 66
     8
 43
1.0
 76
     1
 77
     6
 78
     2
 67
     7
 79
     5
170
     0
171
     0
290
     0
174
     0
 93
       13
 44
0.0
173
     0
291
     0
 45
0.0
1001
ACAD
1000
AcDbSavedByObjectVersion
1070
     0
  0
VISUALSTYLE
  5
37
102
{ACAD_REACTORS
330
2A
102
}
330
2A
100
AcDbVisualStyle
  2
Thicken
 70
    13
 71
     2
 72
     2
 73
     0
 90
        0
 40
-0.6
 41
-30.0
 62
     5
 63
     7
 74
     1
 91
        4
 64
     7
 65
   257
 75
     1
175
     1
 42
1.0
 92
       12
 66
     7
 43
1.0
 76
     1
 77
     6
 78
     2
 67
     7
 79
     5
170
     0
171
     0
290
     0
174
     0
 93
        1
 44
0.0
173
     0
291
     1
 45
0.0
1001
ACAD
1000
AcDbSavedByObjectVersion
1070
     0
  0
DICTIONARYVAR
  5
1FC
102
{ACAD_REACTORS
330
1FA
102
}
330
1FA
100
DictionaryVariables
280
     0
  1
80.000000
  0
DICTIONARYVAR
  5
1FB
102
{ACAD_REACTORS
330
1FA
102
}
330
1FA
100
DictionaryVariables
280
     0
  1
5.000000
  0
ENDSEC
  0
EOF
