  0
SECTION
  2
HEADER
  9
$ACADVER
  1
AC1015
  9
$ACADMAINTVER
 70
     6
  9
$DWGCODEPAGE
  3
ANSI_1252
  9
$INSBASE
 10
0.0
 20
0.0
 30
0.0
  9
$EXTMIN
 10
0.0
 20
0.0
 30
0.0
  9
$EXTMAX
 10
297.0
 20
210.0
 30
0.0
  9
$LIMMIN
 10
0.0
 20
0.0
  9
$LIMMAX
 10
297.0
 20
210.0
  9
$ORTHOMODE
 70
     0
  9
$REGENMODE
 70
     1
  9
$FILLMODE
 70
     1
  9
$QTEXTMODE
 70
     0
  9
$MIRRTEXT
 70
     1
  9
$LTSCALE
 40
1.0
  9
$ATTMODE
 70
     1
  9
$TEXTSIZE
 40
2.0
  9
$TRACEWID
 40
1.0
  9
$TEXTSTYLE
  7
Standard
  9
$CLAYER
  8
0
  9
$CELTYPE
  6
ByLayer
  9
$CECOLOR
 62
   256
  9
$CELTSCALE
 40
1.0
  9
$DISPSILH
 70
     0
  9
$DIMSCALE
 40
1.0
  9
$DIMASZ
 40
3.0
  9
$DIMEXO
 40
0.0
  9
$DIMDLI
 40
3.75
  9
$DIMRND
 40
0.0
  9
$DIMDLE
 40
0.0
  9
$DIMEXE
 40
1.0
  9
$DIMTP
 40
0.0
  9
$DIMTM
 40
0.0
  9
$DIMTXT
 40
2.0
  9
$DIMCEN
 40
2.5
  9
$DIMTSZ
 40
0.0
  9
$DIMTOL
 70
     0
  9
$DIMLIM
 70
     0
  9
$DIMTIH
 70
     1
  9
$DIMTOH
 70
     1
  9
$DIMSE1
 70
     0
  9
$DIMSE2
 70
     0
  9
$DIMTAD
 70
     1
  9
$DIMZIN
 70
     0
  9
$DIMBLK
  1

  9
$DIMASO
 70
     1
  9
$DIMSHO
 70
     1
  9
$DIMPOST
  1

  9
$DIMAPOST
  1

  9
$DIMALT
 70
     0
  9
$DIMALTD
 70
     3
  9
$DIMALTF
 40
0.0393700787
  9
$DIMLFAC
 40
1.0
  9
$DIMTOFL
 70
     1
  9
$DIMTVP
 40
0.0
  9
$DIMTIX
 70
     0
  9
$DIMSOXD
 70
     0
  9
$DIMSAH
 70
     0
  9
$DIMBLK1
  1

  9
$DIMBLK2
  1

  9
$DIMSTYLE
  2
ISO-25
  9
$DIMCLRD
 70
     0
  9
$DIMCLRE
 70
     0
  9
$DIMCLRT
 70
     0
  9
$DIMTFAC
 40
1.0
  9
$DIMGAP
 40
1.524
  9
$DIMJUST
 70
     0
  9
$DIMSD1
 70
     0
  9
$DIMSD2
 70
     0
  9
$DIMTOLJ
 70
     0
  9
$DIMTZIN
 70
     0
  9
$DIMALTZ
 70
     0
  9
$DIMALTTZ
 70
     0
  9
$DIMUPT
 70
     0
  9
$DIMDEC
 70
     2
  9
$DIMTDEC
 70
     3
  9
$DIMALTU
 70
     2
  9
$DIMALTTD
 70
     3
  9
$DIMTXSTY
  7
Standard
  9
$DIMAUNIT
 70
     0
  9
$DIMADEC
 70
     2
  9
$DIMALTRND
 40
0.0
  9
$DIMAZIN
 70
     0
  9
$DIMDSEP
 70
    44
  9
$DIMATFIT
 70
     3
  9
$DIMFRAC
 70
     0
  9
$DIMLDRBLK
  1

  9
$DIMLUNIT
 70
     2
  9
$DIMLWD
 70
    -2
  9
$DIMLWE
 70
    -2
  9
$DIMTMOVE
 70
     0
  9
$LUNITS
 70
     2
  9
$LUPREC
 70
     2
  9
$SKETCHINC
 40
1.0
  9
$FILLETRAD
 40
10.0
  9
$AUNITS
 70
     0
  9
$AUPREC
 70
     2
  9
$MENU
  1
.
  9
$ELEVATION
 40
0.0
  9
$PELEVATION
 40
0.0
  9
$THICKNESS
 40
0.0
  9
$LIMCHECK
 70
     0
  9
$CHAMFERA
 40
10.0
  9
$CHAMFERB
 40
10.0
  9
$CHAMFERC
 40
20.0
  9
$CHAMFERD
 40
0.0
  9
$SKPOLY
 70
     0
  9
$TDCREATE
 40
2455673.471354583
  9
$TDUCREATE
 40
2455673.38802125
  9
$TDUPDATE
 40
2455673.471354595
  9
$TDUUPDATE
 40
2455673.388021261
  9
$TDINDWG
 40
0.0000000116
  9
$TDUSRTIMER
 40
0.0000000116
  9
$USRTIMER
 70
     1
  9
$ANGBASE
 50
0.0
  9
$ANGDIR
 70
     0
  9
$PDMODE
 70
     0
  9
$PDSIZE
 40
-1.0
  9
$PLINEWID
 40
0.0
  9
$SPLFRAME
 70
     0
  9
$SPLINETYPE
 70
     6
  9
$SPLINESEGS
 70
     8
  9
$HANDSEED
  5
1F5
  9
$SURFTAB1
 70
     6
  9
$SURFTAB2
 70
     6
  9
$SURFTYPE
 70
     6
  9
$SURFU
 70
     6
  9
$SURFV
 70
     6
  9
$UCSBASE
  2

  9
$UCSNAME
  2

  9
$UCSORG
 10
0.0
 20
0.0
 30
0.0
  9
$UCSXDIR
 10
1.0
 20
0.0
 30
0.0
  9
$UCSYDIR
 10
0.0
 20
1.0
 30
0.0
  9
$UCSORTHOREF
  2

  9
$UCSORTHOVIEW
 70
     0
  9
$UCSORGTOP
 10
0.0
 20
0.0
 30
0.0
  9
$UCSORGBOTTOM
 10
0.0
 20
0.0
 30
0.0
  9
$UCSORGLEFT
 10
0.0
 20
0.0
 30
0.0
  9
$UCSORGRIGHT
 10
0.0
 20
0.0
 30
0.0
  9
$UCSORGFRONT
 10
0.0
 20
0.0
 30
0.0
  9
$UCSORGBACK
 10
0.0
 20
0.0
 30
0.0
  9
$PUCSBASE
  2

  9
$PUCSNAME
  2

  9
$PUCSORG
 10
0.0
 20
0.0
 30
0.0
  9
$PUCSXDIR
 10
1.0
 20
0.0
 30
0.0
  9
$PUCSYDIR
 10
0.0
 20
1.0
 30
0.0
  9
$PUCSORTHOREF
  2

  9
$PUCSORTHOVIEW
 70
     0
  9
$PUCSORGTOP
 10
0.0
 20
0.0
 30
0.0
  9
$PUCSORGBOTTOM
 10
0.0
 20
0.0
 30
0.0
  9
$PUCSORGLEFT
 10
0.0
 20
0.0
 30
0.0
  9
$PUCSORGRIGHT
 10
0.0
 20
0.0
 30
0.0
  9
$PUCSORGFRONT
 10
0.0
 20
0.0
 30
0.0
  9
$PUCSORGBACK
 10
0.0
 20
0.0
 30
0.0
  9
$USERI1
 70
     0
  9
$USERI2
 70
     0
  9
$USERI3
 70
     0
  9
$USERI4
 70
     0
  9
$USERI5
 70
     0
  9
$USERR1
 40
0.0
  9
$USERR2
 40
0.0
  9
$USERR3
 40
0.0
  9
$USERR4
 40
0.0
  9
$USERR5
 40
0.0
  9
$WORLDVIEW
 70
     1
  9
$SHADEDGE
 70
     3
  9
$SHADEDIF
 70
    70
  9
$TILEMODE
 70
     1
  9
$MAXACTVP
 70
    64
  9
$PINSBASE
 10
0.0
 20
0.0
 30
0.0
  9
$PLIMCHECK
 70
     0
  9
$PEXTMIN
 10
1.0000000000E+20
 20
1.0000000000E+20
 30
1.0000000000E+20
  9
$PEXTMAX
 10
-1.0000000000E+20
 20
-1.0000000000E+20
 30
-1.0000000000E+20
  9
$PLIMMIN
 10
0.0
 20
0.0
  9
$PLIMMAX
 10
420.0
 20
297.0
  9
$UNITMODE
 70
     0
  9
$VISRETAIN
 70
     1
  9
$PLINEGEN
 70
     0
  9
$PSLTSCALE
 70
     1
  9
$TREEDEPTH
 70
  3020
  9
$CMLSTYLE
  2
Standard
  9
$CMLJUST
 70
     0
  9
$CMLSCALE
 40
20.0
  9
$PROXYGRAPHICS
 70
     1
  9
$MEASUREMENT
 70
     1
  9
$CELWEIGHT
370
    -1
  9
$ENDCAPS
280
     0
  9
$JOINSTYLE
280
     0
  9
$LWDISPLAY
290
     1
  9
$INSUNITS
 70
     4
  9
$HYPERLINKBASE
  1

  9
$STYLESHEET
  1

  9
$XEDIT
290
     1
  9
$CEPSNTYPE
380
     0
  9
$PSTYLEMODE
290
     1
  9
$FINGERPRINTGUID
  2
{89D9BD25-662C-4671-BEC2-FAE4683853FE}
  9
$VERSIONGUID
  2
{FAEB1C32-E019-11D5-929B-00C0DF256EC4}
  9
$EXTNAMES
290
     1
  9
$PSVPSCALE
 40
0.0
  9
$OLESTARTUP
290
     0
  0
ENDSEC
  0
SECTION
  2
CLASSES
  0
CLASS
  1
ACDBDICTIONARYWDFLT
  2
AcDbDictionaryWithDefault
  3
ObjectDBX Classes
 90
        0
280
     0
281
     0
  0
CLASS
  1
VISUALSTYLE
  2
AcDbVisualStyle
  3
ObjectDBX Classes
 90
     4095
280
     0
281
     0
  0
CLASS
  1
DICTIONARYVAR
  2
AcDbDictionaryVar
  3
ObjectDBX Classes
 90
        0
280
     0
281
     0
  0
CLASS
  1
ACDBPLACEHOLDER
  2
AcDbPlaceHolder
  3
ObjectDBX Classes
 90
        0
280
     0
281
     0
  0
CLASS
  1
LAYOUT
  2
AcDbLayout
  3
ObjectDBX Classes
 90
        0
280
     0
281
     0
  0
ENDSEC
  0
SECTION
  2
TABLES
  0
TABLE
  2
VPORT
  5
8
330
0
100
AcDbSymbolTable
 70
     1
  0
VPORT
  5
29
330
8
100
AcDbSymbolTableRecord
100
AcDbViewportTableRecord
  2
*Active
 70
     0
 10
0.0
 20
0.0
 11
1.0
 21
1.0
 12
148.5
 22
105.0
 13
0.0
 23
0.0
 14
10.0
 24
10.0
 15
10.0
 25
10.0
 16
0.0
 26
0.0
 36
1.0
 17
0.0
 27
0.0
 37
0.0
 40
210.0
 41
1.4142857143
 42
50.0
 43
0.0
 44
0.0
 50
0.0
 51
0.0
 71
     0
 72
  2000
 73
     1
 74
     3
 75
     0
 76
     0
 77
     0
 78
     0
281
     0
 65
     1
110
0.0
120
0.0
130
0.0
111
1.0
121
0.0
131
0.0
112
0.0
122
1.0
132
0.0
 79
     0
146
0.0
  0
ENDTAB
  0
TABLE
  2
LTYPE
  5
5
330
0
100
AcDbSymbolTable
 70
     6
  0
LTYPE
  5
14
330
5
100
AcDbSymbolTableRecord
100
AcDbLinetypeTableRecord
  2
ByBlock
 70
     0
  3

 72
    65
 73
     0
 40
0.0
  0
LTYPE
  5
15
330
5
100
AcDbSymbolTableRecord
100
AcDbLinetypeTableRecord
  2
ByLayer
 70
     0
  3

 72
    65
 73
     0
 40
0.0
  0
LTYPE
  5
16
330
5
100
AcDbSymbolTableRecord
100
AcDbLinetypeTableRecord
  2
Continuous
 70
     0
  3
Solid line
 72
    65
 73
     0
 40
0.0
  0
LTYPE
  5
3B
330
5
100
AcDbSymbolTableRecord
100
AcDbLinetypeTableRecord
  2
HIDDEN
 70
     0
  3
Hidden __ __ __ __ __ __ __ __ __ __ __ __ __ __
 72
    65
 73
     2
 40
1.905
 49
1.27
 74
     0
 49
-0.635
 74
     0
  0
LTYPE
  5
3C
330
5
100
AcDbSymbolTableRecord
100
AcDbLinetypeTableRecord
  2
PHANTOM
 70
     0
  3
Phantom ______  __  __  ______  __  __  ______
 72
    65
 73
     6
 40
12.7
 49
6.35
 74
     0
 49
-1.27
 74
     0
 49
1.27
 74
     0
 49
-1.27
 74
     0
 49
1.27
 74
     0
 49
-1.27
 74
     0
  0
LTYPE
  5
3D
330
5
100
AcDbSymbolTableRecord
100
AcDbLinetypeTableRecord
  2
CENTER
 70
     0
  3
Center ____ _ ____ _ ____ _ ____ _ ____ _ ____
 72
    65
 73
     4
 40
10.16
 49
6.35
 74
     0
 49
-1.27
 74
     0
 49
1.27
 74
     0
 49
-1.27
 74
     0
  0
LTYPE
  5
3E
330
5
100
AcDbSymbolTableRecord
100
AcDbLinetypeTableRecord
  2
CENTERX2
 70
     0
  3
Center (2x) ________  __  ________  __  _____
 72
    65
 73
     4
 40
20.32
 49
12.7
 74
     0
 49
-2.54
 74
     0
 49
2.54
 74
     0
 49
-2.54
 74
     0
  0
LTYPE
  5
3F
330
5
100
AcDbSymbolTableRecord
100
AcDbLinetypeTableRecord
  2
DOT2
 70
     0
  3
Dot (.5x) ........................................
 72
    65
 73
     2
 40
0.635
 49
0.0
 74
     0
 49
-0.635
 74
     0
  0
ENDTAB
  0
TABLE
  2
LAYER
  5
2
330
0
100
AcDbSymbolTable
 70
     5
  0
LAYER
  5
10
330
2
100
AcDbSymbolTableRecord
100
AcDbLayerTableRecord
  2
0
 70
     0
 62
     7
  6
Continuous
370
    -3
390
F
  0
LAYER
  5
40
330
2
100
AcDbSymbolTableRecord
100
AcDbLayerTableRecord
  2
FORMAT
 70
     0
 62
     7
  6
Continuous
370
    -3
390
F
  0
LAYER
  5
41
330
2
100
AcDbSymbolTableRecord
100
AcDbLayerTableRecord
  2
VERMASSUNG
 70
     0
 62
     7
  6
Continuous
370
    -3
390
F
  0
LAYER
  5
42
330
2
100
AcDbSymbolTableRecord
100
AcDbLayerTableRecord
  2
KOPF_DÜNN
 70
     0
 62
     7
  6
Continuous
370
    -3
390
F
  0
LAYER
  5
43
330
2
100
AcDbSymbolTableRecord
100
AcDbLayerTableRecord
  2
KOPF_DICK
 70
     0
 62
     7
  6
Continuous
370
    15
390
F
  0
ENDTAB
  0
TABLE
  2
STYLE
  5
3
330
0
100
AcDbSymbolTable
 70
     3
  0
STYLE
  5
11
330
3
100
AcDbSymbolTableRecord
100
AcDbTextStyleTableRecord
  2
Standard
 70
     0
 40
0.0
 41
1.0
 50
0.0
 71
     0
 42
2.5
  3
txt
  4

  0
STYLE
  5
44
330
3
100
AcDbSymbolTableRecord
100
AcDbTextStyleTableRecord
  2
SLDTEXTSTYLE0
 70
     0
 40
0.0
 41
0.7
 50
0.0
 71
     0
 42
0.2
  3
TXT
  4

  0
STYLE
  5
48
330
3
100
AcDbSymbolTableRecord
100
AcDbTextStyleTableRecord
  2
SLDTEXTSTYLE1
 70
     0
 40
0.0
 41
0.65
 50
0.0
 71
     0
 42
0.2
  3
TXT
  4

  0
ENDTAB
  0
TABLE
  2
VIEW
  5
6
330
0
100
AcDbSymbolTable
 70
     0
  0
ENDTAB
  0
TABLE
  2
UCS
  5
7
330
0
100
AcDbSymbolTable
 70
     0
  0
ENDTAB
  0
TABLE
  2
APPID
  5
9
330
0
100
AcDbSymbolTable
 70
     1
  0
APPID
  5
12
330
9
100
AcDbSymbolTableRecord
100
AcDbRegAppTableRecord
  2
ACAD
 70
     0
  0
ENDTAB
  0
TABLE
  2
DIMSTYLE
  5
A
330
0
100
AcDbSymbolTable
 70
     3
100
AcDbDimStyleTable
  0
DIMSTYLE
105
27
330
A
100
AcDbSymbolTableRecord
100
AcDbDimStyleTableRecord
  2
ISO-25
 70
     0
 41
2.5
 42
0.625
 43
3.75
 44
1.25
 73
     0
 74
     0
 77
     1
 78
     8
140
2.5
141
2.5
143
0.0393700787
147
0.625
171
     3
172
     1
271
     2
272
     2
274
     3
278
    44
283
     0
284
     8
340
11
  0
DIMSTYLE
105
1AB
102
{ACAD_REACTORS
330
1AA
330
1C5
330
1CF
330
1D9
330
1E3
102
}
330
A
100
AcDbSymbolTableRecord
100
AcDbDimStyleTableRecord
  2
SLDDIMSTYLE0
 70
     0
 41
3.0
 44
0.0
 45
0.000000001
 73
     0
 74
     0
 77
     1
 78
    12
140
2.0
147
0.5
173
     1
271
     2
272
     3
284
    12
340
44
  0
DIMSTYLE
105
1B8
102
{ACAD_REACTORS
330
1B7
102
}
330
A
100
AcDbSymbolTableRecord
100
AcDbDimStyleTableRecord
  2
SLDDIMSTYLE1
 70
     0
 41
3.0
 44
0.0
 45
0.000000001
 73
     0
 74
     0
 77
     1
 78
    12
140
2.0
147
0.5
173
     1
271
     2
272
     3
284
    12
340
44
  0
ENDTAB
  0
TABLE
  2
BLOCK_RECORD
  5
1
330
0
100
AcDbSymbolTable
 70
     7
  0
BLOCK_RECORD
  5
1F
330
1
100
AcDbSymbolTableRecord
100
AcDbBlockTableRecord
  2
*Model_Space
340
22
  0
BLOCK_RECORD
  5
1B
330
1
100
AcDbSymbolTableRecord
100
AcDbBlockTableRecord
  2
*Paper_Space
340
1E
  0
BLOCK_RECORD
  5
23
330
1
100
AcDbSymbolTableRecord
100
AcDbBlockTableRecord
  2
*Paper_Space0
340
26
  0
BLOCK_RECORD
  5
1AC
330
1
100
AcDbSymbolTableRecord
100
AcDbBlockTableRecord
  2
*D1
340
0
  0
BLOCK_RECORD
  5
1B9
330
1
100
AcDbSymbolTableRecord
100
AcDbBlockTableRecord
  2
*D2
340
0
  0
BLOCK_RECORD
  5
1C6
330
1
100
AcDbSymbolTableRecord
100
AcDbBlockTableRecord
  2
*D3
340
0
  0
BLOCK_RECORD
  5
1D0
330
1
100
AcDbSymbolTableRecord
100
AcDbBlockTableRecord
  2
*D4
340
0
  0
BLOCK_RECORD
  5
1DA
330
1
100
AcDbSymbolTableRecord
100
AcDbBlockTableRecord
  2
*D5
340
0
  0
BLOCK_RECORD
  5
1E4
330
1
100
AcDbSymbolTableRecord
100
AcDbBlockTableRecord
  2
*D6
340
0
  0
ENDTAB
  0
ENDSEC
  0
SECTION
  2
BLOCKS
  0
BLOCK
  5
20
330
1F
100
AcDbEntity
  8
0
100
AcDbBlockBegin
  2
*Model_Space
 70
     0
 10
0.0
 20
0.0
 30
0.0
  3
*Model_Space
  1

  0
ENDBLK
  5
21
330
1F
100
AcDbEntity
  8
0
100
AcDbBlockEnd
  0
BLOCK
  5
1C
330
1B
100
AcDbEntity
 67
     1
  8
0
100
AcDbBlockBegin
  2
*Paper_Space
 70
     0
 10
0.0
 20
0.0
 30
0.0
  3
*Paper_Space
  1

  0
ENDBLK
  5
1D
330
1B
100
AcDbEntity
 67
     1
  8
0
100
AcDbBlockEnd
  0
BLOCK
  5
24
330
23
100
AcDbEntity
  8
0
100
AcDbBlockBegin
  2
*Paper_Space0
 70
     0
 10
0.0
 20
0.0
 30
0.0
  3
*Paper_Space0
  1

  0
ENDBLK
  5
25
330
23
100
AcDbEntity
  8
0
100
AcDbBlockEnd
  0
BLOCK
  5
1AD
330
1AC
100
AcDbEntity
  8
0
100
AcDbBlockBegin
  2
*D1
 70
     1
 10
0.0
 20
0.0
 30
0.0
  3
*D1
  1

  0
SOLID
  5
1AF
330
1AC
100
AcDbEntity
  8
VERMASSUNG
100
AcDbTrace
 10
79.5888374584
 20
160.3168066001
 30
0.0
 11
79.1388374584
 21
157.3168066001
 31
0.0
 12
80.0388374584
 22
157.3168066001
 32
0.0
 13
80.0388374584
 23
157.3168066001
 33
0.0
  0
SOLID
  5
1B0
330
1AC
100
AcDbEntity
  8
VERMASSUNG
100
AcDbTrace
 10
79.5888374584
 20
60.3168066001
 30
0.0
 11
80.0388374584
 21
63.3168066001
 31
0.0
 12
79.1388374584
 22
63.3168066001
 32
0.0
 13
79.1388374584
 23
63.3168066001
 33
0.0
  0
LINE
  5
1B1
330
1AC
100
AcDbEntity
  8
VERMASSUNG
100
AcDbLine
 10
135.2828393446
 20
160.3168066001
 30
0.0
 11
78.5888374584
 21
160.3168066001
 31
0.0
  0
LINE
  5
1B2
330
1AC
100
AcDbEntity
  8
VERMASSUNG
100
AcDbLine
 10
135.2828393446
 20
60.3168066001
 30
0.0
 11
78.5888374584
 21
60.3168066001
 31
0.0
  0
LINE
  5
1B3
330
1AC
100
AcDbEntity
  8
VERMASSUNG
100
AcDbLine
 10
79.5888374584
 20
160.3168066001
 30
0.0
 11
79.5888374584
 21
60.3168066001
 31
0.0
  0
MTEXT
  5
1B4
330
1AC
100
AcDbEntity
  8
VERMASSUNG
100
AcDbMText
 10
76.8107019693
 20
102.1131554625
 30
0.0
 40
2.0
 41
0.0
 71
     1
 72
     1
  1
HSK A 
  7
SLDTEXTSTYLE0
 11
-7.044195017643634E-15
 21
1.0
 31
0.0
 73
     1
 44
1.0
  0
MTEXT
  5
1B5
330
1AC
100
AcDbEntity
  8
VERMASSUNG
100
AcDbMText
 10
77.0107019788
 20
111.1131560064
 30
0.0
 40
2.0
 41
0.0
 71
     1
 72
     1
  1
%%c
  7
SLDTEXTSTYLE0
 11
-7.044195017643634E-15
 21
1.0
 31
0.0
 73
     1
 44
1.0
  0
MTEXT
  5
1B6
330
1AC
100
AcDbEntity
  8
VERMASSUNG
100
AcDbMText
 10
77.0107020952
 20
114.7214826564
 30
0.0
 40
2.0
 41
0.0
 71
     1
 72
     1
  1
100
  7
SLDTEXTSTYLE0
 11
-7.044195017643634E-15
 21
1.0
 31
0.0
 73
     1
 44
1.0
  0
ENDBLK
  5
1AE
330
1AC
100
AcDbEntity
  8
0
100
AcDbBlockEnd
  0
BLOCK
  5
1BA
330
1B9
100
AcDbEntity
  8
0
100
AcDbBlockBegin
  2
*D2
 70
     1
 10
0.0
 20
0.0
 30
0.0
  3
*D2
  1

  0
SOLID
  5
1BC
330
1B9
100
AcDbEntity
  8
VERMASSUNG
100
AcDbTrace
 10
224.8470819556
 20
114.3168066001
 30
0.0
 11
225.2970819556
 21
117.3168066001
 31
0.0
 12
224.3970819556
 22
117.3168066001
 32
0.0
 13
224.3970819556
 23
117.3168066001
 33
0.0
  0
SOLID
  5
1BD
330
1B9
100
AcDbEntity
  8
VERMASSUNG
100
AcDbTrace
 10
224.8470819556
 20
106.3168066001
 30
0.0
 11
224.3970819556
 21
103.3168066001
 31
0.0
 12
225.2970819556
 22
103.3168066001
 32
0.0
 13
225.2970819556
 23
103.3168066001
 33
0.0
  0
LINE
  5
1BE
330
1B9
100
AcDbEntity
  8
VERMASSUNG
100
AcDbLine
 10
214.4828393446
 20
114.3168066001
 30
0.0
 11
225.8470819556
 21
114.3168066001
 31
0.0
  0
LINE
  5
1BF
330
1B9
100
AcDbEntity
  8
VERMASSUNG
100
AcDbLine
 10
214.4828393446
 20
106.3168066001
 30
0.0
 11
225.8470819556
 21
106.3168066001
 31
0.0
  0
LINE
  5
1C0
330
1B9
100
AcDbEntity
  8
VERMASSUNG
100
AcDbLine
 10
224.8470819556
 20
114.3168066001
 30
0.0
 11
224.8470819556
 21
120.3168066001
 31
0.0
  0
LINE
  5
1C1
330
1B9
100
AcDbEntity
  8
VERMASSUNG
100
AcDbLine
 10
224.8470819556
 20
114.3168066001
 30
0.0
 11
224.8470819556
 21
106.3168066001
 31
0.0
  0
LINE
  5
1C2
330
1B9
100
AcDbEntity
  8
VERMASSUNG
100
AcDbLine
 10
224.8470819556
 20
106.3168066001
 30
0.0
 11
224.8470819556
 21
100.3168066001
 31
0.0
  0
MTEXT
  5
1C3
330
1B9
100
AcDbEntity
  8
VERMASSUNG
100
AcDbMText
 10
222.2689464761
 20
107.8127784311
 30
0.0
 40
2.0
 41
0.0
 71
     1
 72
     1
  1
%%c
  7
SLDTEXTSTYLE0
 11
-7.044195017643634E-15
 21
1.0
 31
0.0
 73
     1
 44
1.0
  0
MTEXT
  5
1C4
330
1B9
100
AcDbEntity
  8
VERMASSUNG
100
AcDbMText
 10
222.2689465925
 20
111.4214566542
 30
0.0
 40
2.0
 41
0.0
 71
     1
 72
     1
  1
8
  7
SLDTEXTSTYLE0
 11
-7.044195017643634E-15
 21
1.0
 31
0.0
 73
     1
 44
1.0
  0
ENDBLK
  5
1BB
330
1B9
100
AcDbEntity
  8
0
100
AcDbBlockEnd
  0
BLOCK
  5
1C7
330
1C6
100
AcDbEntity
  8
0
100
AcDbBlockBegin
  2
*D3
 70
     1
 10
0.0
 20
0.0
 30
0.0
  3
*D3
  1

  0
SOLID
  5
1C9
330
1C6
100
AcDbEntity
  8
VERMASSUNG
100
AcDbTrace
 10
134.7828393446
 20
170.743695908
 30
0.0
 11
137.7828393446
 21
170.293695908
 31
0.0
 12
137.7828393446
 22
171.193695908
 32
0.0
 13
137.7828393446
 23
171.193695908
 33
0.0
  0
SOLID
  5
1CA
330
1C6
100
AcDbEntity
  8
VERMASSUNG
100
AcDbTrace
 10
214.7828393446
 20
170.743695908
 30
0.0
 11
211.7828393446
 21
171.193695908
 31
0.0
 12
211.7828393446
 22
170.293695908
 32
0.0
 13
211.7828393446
 23
170.293695908
 33
0.0
  0
LINE
  5
1CB
330
1C6
100
AcDbEntity
  8
VERMASSUNG
100
AcDbLine
 10
134.7828393446
 20
159.8168066001
 30
0.0
 11
134.7828393446
 21
171.743695908
 31
0.0
  0
LINE
  5
1CC
330
1C6
100
AcDbEntity
  8
VERMASSUNG
100
AcDbLine
 10
214.7828393446
 20
119.0426660785
 30
0.0
 11
214.7828393446
 21
171.743695908
 31
0.0
  0
LINE
  5
1CD
330
1C6
100
AcDbEntity
  8
VERMASSUNG
100
AcDbLine
 10
134.7828393446
 20
170.743695908
 30
0.0
 11
214.7828393446
 21
170.743695908
 31
0.0
  0
MTEXT
  5
1CE
330
1C6
100
AcDbEntity
  8
VERMASSUNG
100
AcDbMText
 10
173.3834612298
 20
173.3218312712
 30
0.0
 40
2.0
 41
0.0
 71
     1
 72
     1
  1
80
  7
SLDTEXTSTYLE0
 73
     1
 44
1.0
  0
ENDBLK
  5
1C8
330
1C6
100
AcDbEntity
  8
0
100
AcDbBlockEnd
  0
BLOCK
  5
1D1
330
1D0
100
AcDbEntity
  8
0
100
AcDbBlockBegin
  2
*D4
 70
     1
 10
0.0
 20
0.0
 30
0.0
  3
*D4
  1

  0
SOLID
  5
1D3
330
1D0
100
AcDbEntity
  8
VERMASSUNG
100
AcDbTrace
 10
163.7328393446
 20
164.743695908
 30
0.0
 11
166.7328393446
 21
164.293695908
 31
0.0
 12
166.7328393446
 22
165.193695908
 32
0.0
 13
166.7328393446
 23
165.193695908
 33
0.0
  0
SOLID
  5
1D4
330
1D0
100
AcDbEntity
  8
VERMASSUNG
100
AcDbTrace
 10
214.7828393446
 20
164.743695908
 30
0.0
 11
211.7828393446
 21
165.193695908
 31
0.0
 12
211.7828393446
 22
164.293695908
 32
0.0
 13
211.7828393446
 23
164.293695908
 33
0.0
  0
LINE
  5
1D5
330
1D0
100
AcDbEntity
  8
VERMASSUNG
100
AcDbLine
 10
163.7328393446
 20
158.2855464209
 30
0.0
 11
163.7328393446
 21
165.743695908
 31
0.0
  0
LINE
  5
1D6
330
1D0
100
AcDbEntity
  8
VERMASSUNG
100
AcDbLine
 10
214.7828393446
 20
119.0426660785
 30
0.0
 11
214.7828393446
 21
165.743695908
 31
0.0
  0
LINE
  5
1D7
330
1D0
100
AcDbEntity
  8
VERMASSUNG
100
AcDbLine
 10
163.7328393446
 20
164.743695908
 30
0.0
 11
214.7828393446
 21
164.743695908
 31
0.0
  0
MTEXT
  5
1D8
330
1D0
100
AcDbEntity
  8
VERMASSUNG
100
AcDbMText
 10
186.3581329524
 20
167.3218312712
 30
0.0
 40
2.0
 41
0.0
 71
     1
 72
     1
  1
51.05
  7
SLDTEXTSTYLE0
 73
     1
 44
1.0
  0
ENDBLK
  5
1D2
330
1D0
100
AcDbEntity
  8
0
100
AcDbBlockEnd
  0
BLOCK
  5
1DB
330
1DA
100
AcDbEntity
  8
0
100
AcDbBlockBegin
  2
*D5
 70
     1
 10
0.0
 20
0.0
 30
0.0
  3
*D5
  1

  0
SOLID
  5
1DD
330
1DA
100
AcDbEntity
  8
VERMASSUNG
100
AcDbTrace
 10
84.8828393446
 20
176.743695908
 30
0.0
 11
87.8828393446
 21
176.293695908
 31
0.0
 12
87.8828393446
 22
177.193695908
 32
0.0
 13
87.8828393446
 23
177.193695908
 33
0.0
  0
SOLID
  5
1DE
330
1DA
100
AcDbEntity
  8
VERMASSUNG
100
AcDbTrace
 10
214.7828393446
 20
176.743695908
 30
0.0
 11
211.7828393446
 21
177.193695908
 31
0.0
 12
211.7828393446
 22
176.293695908
 32
0.0
 13
211.7828393446
 23
176.293695908
 33
0.0
  0
LINE
  5
1DF
330
1DA
100
AcDbEntity
  8
VERMASSUNG
100
AcDbLine
 10
84.8828393446
 20
140.8194763426
 30
0.0
 11
84.8828393446
 21
177.743695908
 31
0.0
  0
LINE
  5
1E0
330
1DA
100
AcDbEntity
  8
VERMASSUNG
100
AcDbLine
 10
214.7828393446
 20
119.0426660785
 30
0.0
 11
214.7828393446
 21
177.743695908
 31
0.0
  0
LINE
  5
1E1
330
1DA
100
AcDbEntity
  8
VERMASSUNG
100
AcDbLine
 10
84.8828393446
 20
176.743695908
 30
0.0
 11
214.7828393446
 21
176.743695908
 31
0.0
  0
MTEXT
  5
1E2
330
1DA
100
AcDbEntity
  8
VERMASSUNG
100
AcDbMText
 10
146.9331329524
 20
179.3218312712
 30
0.0
 40
2.0
 41
0.0
 71
     1
 72
     1
  1
129.9
  7
SLDTEXTSTYLE0
 73
     1
 44
1.0
  0
ENDBLK
  5
1DC
330
1DA
100
AcDbEntity
  8
0
100
AcDbBlockEnd
  0
BLOCK
  5
1E5
330
1E4
100
AcDbEntity
  8
0
100
AcDbBlockBegin
  2
*D6
 70
     1
 10
0.0
 20
0.0
 30
0.0
  3
*D6
  1

  0
SOLID
  5
1E7
330
1E4
100
AcDbEntity
  8
VERMASSUNG
100
AcDbTrace
 10
230.8470819556
 20
126.3168066001
 30
0.0
 11
230.3970819556
 21
123.3168066001
 31
0.0
 12
231.2970819556
 22
123.3168066001
 32
0.0
 13
231.2970819556
 23
123.3168066001
 33
0.0
  0
SOLID
  5
1E8
330
1E4
100
AcDbEntity
  8
VERMASSUNG
100
AcDbTrace
 10
230.8470819556
 20
94.3168066001
 30
0.0
 11
231.2970819556
 21
97.3168066001
 31
0.0
 12
230.3970819556
 22
97.3168066001
 32
0.0
 13
230.3970819556
 23
97.3168066001
 33
0.0
  0
LINE
  5
1E9
330
1E4
100
AcDbEntity
  8
VERMASSUNG
100
AcDbLine
 10
201.9157978215
 20
126.3168066001
 30
0.0
 11
231.8470819556
 21
126.3168066001
 31
0.0
  0
LINE
  5
1EA
330
1E4
100
AcDbEntity
  8
VERMASSUNG
100
AcDbLine
 10
201.9157978215
 20
94.3168066001
 30
0.0
 11
231.8470819556
 21
94.3168066001
 31
0.0
  0
LINE
  5
1EB
330
1E4
100
AcDbEntity
  8
VERMASSUNG
100
AcDbLine
 10
230.8470819556
 20
126.3168066001
 30
0.0
 11
230.8470819556
 21
94.3168066001
 31
0.0
  0
MTEXT
  5
1EC
330
1E4
100
AcDbEntity
  8
VERMASSUNG
100
AcDbMText
 10
228.2689464761
 20
107.1130893736
 30
0.0
 40
2.0
 41
0.0
 71
     1
 72
     1
  1
%%c
  7
SLDTEXTSTYLE0
 11
-7.044195017643634E-15
 21
1.0
 31
0.0
 73
     1
 44
1.0
  0
MTEXT
  5
1ED
330
1E4
100
AcDbEntity
  8
VERMASSUNG
100
AcDbMText
 10
228.2689465925
 20
110.7217675968
 30
0.0
 40
2.0
 41
0.0
 71
     1
 72
     1
  1
32
  7
SLDTEXTSTYLE0
 11
-7.044195017643634E-15
 21
1.0
 31
0.0
 73
     1
 44
1.0
  0
ENDBLK
  5
1E6
330
1E4
100
AcDbEntity
  8
0
100
AcDbBlockEnd
  0
ENDSEC
  0
SECTION
  2
ENTITIES
  0
MTEXT
  5
45
330
1F
100
AcDbEntity
  8
KOPF_DÜNN
100
AcDbMText
 10
13.8892156294
 20
23.8442973028
 30
0.0
 40
3.0
 41
0.0
 71
     1
 72
     1
  1
HA0.W08.K21.080
  7
SLDTEXTSTYLE0
 73
     1
 44
1.0
  0
MTEXT
  5
46
330
1F
100
AcDbEntity
  8
VERMASSUNG
100
AcDbMText
 10
13.9329988022
 20
28.8834360957
 30
0.0
 40
3.0
 41
0.0
 71
     1
 72
     1
  1
Flächenspannfutter_End mill adapter Weldon ø8
  7
SLDTEXTSTYLE0
 73
     1
 44
1.0
  0
MTEXT
  5
47
330
1F
100
AcDbEntity
  8
VERMASSUNG
100
AcDbMText
 10
98.8601118557
 20
13.8365368179
 30
0.0
 40
2.0
 41
0.0
 71
     1
 72
     1
  1
Datum: 09.10.2006
  7
SLDTEXTSTYLE0
 73
     1
 44
1.0
  0
MTEXT
  5
49
330
1F
100
AcDbEntity
  8
VERMASSUNG
100
AcDbMText
 10
13.933048693
 20
18.0482802738
 30
0.0
 40
2.0
 41
0.0
 71
     1
 72
     1
  1
DIN 69 893 HSK A 100
  7
SLDTEXTSTYLE1
 73
     1
 44
1.0
  0
MTEXT
  5
4A
330
1F
100
AcDbEntity
  8
VERMASSUNG
100
AcDbMText
 10
13.9808475933
 20
13.9090973692
 30
0.0
 40
2.0
 41
0.0
 71
     1
 72
     1
  1
Gewicht: 2258g
  7
SLDTEXTSTYLE0
 73
     1
 44
1.0
  0
LINE
  5
4B
330
1F
100
AcDbEntity
  8
0
  6
Continuous
 62
     7
370
    15
100
AcDbLine
 10
214.7828393446
 20
104.0967458461
 30
0.0
 11
214.8112142022
 21
104.1492890928
 31
0.0
  0
LINE
  5
4C
330
1F
100
AcDbEntity
  8
0
  6
Continuous
 62
     7
370
    15
100
AcDbLine
 10
214.7888505566
 20
116.4849454208
 30
0.0
 11
214.7828393446
 21
116.4960767047
 31
0.0
  0
LINE
  5
4D
330
1F
100
AcDbEntity
  8
0
  6
Continuous
 62
     7
370
    15
100
AcDbLine
 10
135.2828393446
 20
60.3168066001
 30
0.0
 11
139.7328393446
 21
60.3168066001
 31
0.0
  0
LINE
  5
4E
330
1F
100
AcDbEntity
  8
0
  6
Continuous
 62
     7
370
    15
100
AcDbLine
 10
139.7669121771
 20
160.3168066001
 30
0.0
 11
135.2828393446
 21
160.3168066001
 31
0.0
  0
ARC
  5
4F
330
1F
100
AcDbEntity
  8
0
  6
Continuous
 62
     7
370
    15
100
AcDbCircle
 10
135.2828393446
 20
60.8168066001
 30
0.0
 40
0.5
100
AcDbArc
 50
180.0
 51
270.0
  0
ARC
  5
50
330
1F
100
AcDbEntity
  8
0
  6
Continuous
 62
     7
370
    15
100
AcDbCircle
 10
135.2828393446
 20
159.8168066001
 30
0.0
 40
0.5
100
AcDbArc
 50
90.0
 51
180.0
  0
ARC
  5
51
330
1F
100
AcDbEntity
  8
0
  6
Continuous
 62
     7
370
    15
100
AcDbCircle
 10
133.8859024261
 20
71.6883212756
 30
0.0
 40
0.9962338214386932
100
AcDbArc
 50
25.7988228126
 51
90.0
  0
ARC
  5
52
330
1F
100
AcDbEntity
  8
0
  6
Continuous
 62
     7
370
    15
100
AcDbCircle
 10
133.8859024261
 20
148.9452919245
 30
0.0
 40
0.9962338214386665
100
AcDbArc
 50
270.0
 51
334.2011771874
  0
LINE
  5
53
330
1F
100
AcDbEntity
  8
0
  6
Continuous
 62
     7
370
    15
100
AcDbLine
 10
113.3021439233
 20
147.2481214587
 30
0.0
 11
94.9828393446
 21
146.3303206281
 31
0.0
  0
LINE
  5
54
330
1F
100
AcDbEntity
  8
0
  6
Continuous
 62
     7
370
    15
100
AcDbLine
 10
132.2828393446
 20
148.1990581031
 30
0.0
 11
126.2148001901
 21
147.8950481254
 31
0.0
  0
LINE
  5
55
330
1F
100
AcDbEntity
  8
0
  6
Continuous
 62
     7
370
    15
100
AcDbLine
 10
126.2149234666
 20
72.7385588986
 30
0.0
 11
132.2828393446
 21
72.4345550971
 31
0.0
  0
LINE
  5
56
330
1F
100
AcDbEntity
  8
0
  6
Continuous
 62
     7
370
    15
100
AcDbLine
 10
99.9828393446
 20
74.05279157
 30
0.0
 11
113.3027904985
 21
73.3854593479
 31
0.0
  0
LINE
  5
57
330
1F
100
AcDbEntity
  8
0
  6
Continuous
 62
     7
370
    15
100
AcDbLine
 10
132.2828393446
 20
72.4345550971
 30
0.0
 11
133.088685499
 21
72.6504809234
 31
0.0
  0
LINE
  5
58
330
1F
100
AcDbEntity
  8
0
  6
Continuous
 62
     7
370
    15
100
AcDbLine
 10
133.088685499
 20
147.9831322768
 30
0.0
 11
132.2828393446
 21
148.1990581031
 31
0.0
  0
ARC
  5
59
330
1F
100
AcDbEntity
  8
0
  6
Continuous
 62
     7
370
    15
100
AcDbCircle
 10
133.3475045441
 20
71.6845550971
 30
0.0
 40
1.000000000000003
100
AcDbArc
 50
90.0
 51
105.0
  0
ARC
  5
5A
330
1F
100
AcDbEntity
  8
0
  6
Continuous
 62
     7
370
    15
100
AcDbCircle
 10
133.3475045441
 20
148.9490581031
 30
0.0
 40
1.000000000000003
100
AcDbArc
 50
255.0
 51
270.0
  0
LINE
  5
5B
330
1F
100
AcDbEntity
  8
0
  6
Continuous
 62
     7
370
    15
100
AcDbLine
 10
133.3475045441
 20
72.6845550971
 30
0.0
 11
133.8859024261
 21
72.6845550971
 31
0.0
  0
LINE
  5
5C
330
1F
100
AcDbEntity
  8
0
  6
Continuous
 62
     7
370
    15
100
AcDbLine
 10
133.8859024261
 20
147.9490581031
 30
0.0
 11
133.3475045441
 21
147.9490581031
 31
0.0
  0
ARC
  5
5D
330
1F
100
AcDbEntity
  8
0
  6
Continuous
 62
     7
370
    15
100
AcDbCircle
 10
168.7328393446
 20
89.3168066001
 30
0.0
 40
5.000000000000014
100
AcDbArc
 50
90.0
 51
180.0
  0
ARC
  5
5E
330
1F
100
AcDbEntity
  8
0
  6
Continuous
 62
     7
370
    15
100
AcDbCircle
 10
168.7328393446
 20
131.3168066001
 30
0.0
 40
5.0
100
AcDbArc
 50
180.0
 51
270.0
  0
LINE
  5
5F
330
1F
100
AcDbEntity
  8
0
  6
Continuous
 62
     7
370
    15
100
AcDbLine
 10
86.5328393446
 20
78.0668066001
 30
0.0
 11
98.0828393446
 21
78.0668066001
 31
0.0
  0
ARC
  5
60
330
1F
100
AcDbEntity
  8
0
  6
Continuous
 62
     7
370
    15
100
AcDbCircle
 10
98.0828393446
 20
76.1668066001
 30
0.0
 40
1.900000000000006
100
AcDbArc
 50
35.6630613694
 51
90.0
  0
ARC
  5
61
330
1F
100
AcDbEntity
  8
0
  6
Continuous
 62
     7
370
    15
100
AcDbCircle
 10
93.0828393446
 20
144.4668066001
 30
0.0
 40
1.900000000000039
100
AcDbArc
 50
270.0
 51
310.9212832533
  0
LINE
  5
62
330
1F
100
AcDbEntity
  8
0
  6
Continuous
 62
     7
370
    15
100
AcDbLine
 10
86.5328393446
 20
142.5668066001
 30
0.0
 11
84.9396229826
 21
140.9735902381
 31
0.0
  0
LINE
  5
63
330
1F
100
AcDbEntity
  8
0
  6
Continuous
 62
     7
370
    15
100
AcDbLine
 10
84.9403622451
 20
79.6592836996
 30
0.0
 11
86.5328393446
 21
78.0668066001
 31
0.0
  0
LINE
  5
64
330
1F
100
AcDbEntity
  8
0
  6
Continuous
 62
     7
370
    15
100
AcDbLine
 10
93.0828393446
 20
142.5668066001
 30
0.0
 11
86.5328393446
 21
142.5668066001
 31
0.0
  0
LINE
  5
65
330
1F
100
AcDbEntity
  8
0
  6
Continuous
 62
     7
370
    15
100
AcDbLine
 10
180.2311253729
 20
94.3168066001
 30
0.0
 11
201.9157978215
 21
94.3168066001
 31
0.0
  0
LINE
  5
66
330
1F
100
AcDbEntity
  8
0
  6
Continuous
 62
     7
370
    15
100
AcDbLine
 10
168.7328393446
 20
94.3168066001
 30
0.0
 11
173.2385081939
 21
94.3168066001
 31
0.0
  0
LINE
  5
67
330
1F
100
AcDbEntity
  8
0
  6
Continuous
 62
     7
370
    15
100
AcDbLine
 10
173.2337717407
 20
126.3168066001
 30
0.0
 11
168.7328393446
 21
126.3168066001
 31
0.0
  0
LINE
  5
68
330
1F
100
AcDbEntity
  8
0
  6
Continuous
 62
     7
370
    15
100
AcDbLine
 10
201.9157978215
 20
126.3168066001
 30
0.0
 11
180.223268382
 21
126.3168066001
 31
0.0
  0
LINE
  5
69
330
1F
100
AcDbEntity
  8
0
  6
Continuous
 62
     7
370
    15
100
AcDbLine
 10
201.9157978215
 20
94.3168066001
 30
0.0
 11
213.6280758681
 21
99.7783315476
 31
0.0
  0
LINE
  5
6A
330
1F
100
AcDbEntity
  8
0
  6
Continuous
 62
     7
370
    15
100
AcDbLine
 10
213.6280758681
 20
120.8552816525
 30
0.0
 11
201.9157978215
 21
126.3168066001
 31
0.0
  0
ARC
  5
6B
330
1F
100
AcDbEntity
  8
0
  6
Continuous
 62
     7
370
    15
100
AcDbCircle
 10
212.7828393446
 20
101.5909471217
 30
0.0
 40
2.000000000000001
100
AcDbArc
 50
295.0
 51
0.0
  0
ARC
  5
6C
330
1F
100
AcDbEntity
  8
0
  6
Continuous
 62
     7
370
    15
100
AcDbCircle
 10
212.7828393446
 20
119.0426660785
 30
0.0
 40
2.000000000000014
100
AcDbArc
 50
0.0
 51
65.0
  0
LINE
  5
6D
330
1F
100
AcDbEntity
  8
0
  6
Continuous
 62
     7
370
    15
100
AcDbLine
 10
197.5736676329
 20
108.0257910523
 30
0.0
 11
195.4441758239
 21
108.9194341404
 31
0.0
  0
LINE
  5
6E
330
1F
100
AcDbEntity
  8
0
  6
Continuous
 62
     7
370
    15
100
AcDbLine
 10
199.1215028653
 20
111.7141790597
 30
0.0
 11
196.9920110563
 21
112.6078221478
 31
0.0
  0
CIRCLE
  5
6F
330
1F
100
AcDbEntity
  8
0
  6
Continuous
 62
     7
370
    15
100
AcDbCircle
 10
197.2828393446
 20
110.3168066001
 30
0.0
 40
3.400000000000015
  0
LINE
  5
70
330
1F
100
AcDbEntity
  8
0
  6
Continuous
 62
     7
370
    15
100
AcDbLine
 10
195.4441758239
 20
108.9194341404
 30
0.0
 11
195.1533475356
 21
111.2104496881
 31
0.0
  0
LINE
  5
71
330
1F
100
AcDbEntity
  8
0
  6
Continuous
 62
     7
370
    15
100
AcDbLine
 10
197.5736676329
 20
108.0257910523
 30
0.0
 11
199.4123311536
 21
109.423163512
 31
0.0
  0
LINE
  5
72
330
1F
100
AcDbEntity
  8
0
  6
Continuous
 62
     7
370
    15
100
AcDbLine
 10
199.1215028653
 20
111.7141790597
 30
0.0
 11
199.4123311536
 21
109.423163512
 31
0.0
  0
LINE
  5
73
330
1F
100
AcDbEntity
  8
0
  6
Continuous
 62
     7
370
    15
100
AcDbLine
 10
196.9920110563
 20
112.6078221478
 30
0.0
 11
195.1533475356
 21
111.2104496881
 31
0.0
  0
ARC
  5
74
330
1F
100
AcDbEntity
  8
0
  6
Continuous
 62
     7
370
    15
100
AcDbCircle
 10
196.6217346339
 20
104.8553415159
 30
0.0
 40
18.20317766188994
100
AcDbArc
 50
357.7770928197
 51
3.8962713805
  0
ARC
  5
75
330
1F
100
AcDbEntity
  8
0
  6
Continuous
 62
     7
370
    15
100
AcDbCircle
 10
207.1357162072
 20
115.797293335
 30
0.0
 40
7.67729329932575
100
AcDbArc
 50
354.9188184689
 51
5.0811815311
  0
LINE
  5
76
330
1F
100
AcDbEntity
  8
0
  6
Continuous
 62
     7
370
    15
100
AcDbLine
 10
139.7328393446
 20
141.6668066001
 30
0.0
 11
151.5208103237
 21
141.6668066001
 31
0.0
  0
LINE
  5
77
330
1F
100
AcDbEntity
  8
0
  6
Continuous
 62
     7
370
    15
100
AcDbLine
 10
151.5208103237
 20
61.541813007
 30
0.0
 11
151.5208103237
 21
141.6668066001
 31
0.0
  0
LINE
  5
78
330
1F
100
AcDbEntity
  8
0
  6
Continuous
 62
     7
370
    15
100
AcDbLine
 10
151.5208103237
 20
61.541813007
 30
0.0
 11
149.7328393446
 21
61.541813007
 31
0.0
  0
SPLINE
  5
79
330
1F
100
AcDbEntity
  8
0
  6
Continuous
 62
     7
370
    15
100
AcDbSpline
210
0.0
220
0.0
230
1.0
 70
     8
 71
     3
 72
    30
 73
    26
 74
     0
 42
0.00000001
 43
0.00000001
 40
0.0
 40
0.0
 40
0.0
 40
0.0
 40
0.1250000000000002
 40
0.1250000000000002
 40
0.1875000000000003
 40
0.1875000000000003
 40
0.2500000000000004
 40
0.2500000000000004
 40
0.3750000000000001
 40
0.3750000000000001
 40
0.4374999999999998
 40
0.4374999999999998
 40
0.4999999999999996
 40
0.4999999999999996
 40
0.6249999999999996
 40
0.6249999999999996
 40
0.6874999999999997
 40
0.6874999999999997
 40
0.7499999999999997
 40
0.7499999999999997
 40
0.8124999999999998
 40
0.8124999999999998
 40
0.8749999999999999
 40
0.8749999999999999
 40
1.0
 40
1.0
 40
1.0
 40
1.0
 10
149.7328393445982
 20
61.54181300703963
 30
0.0
 10
149.0700946507531
 20
61.54181300703964
 30
0.0
 10
148.4188387916374
 20
61.52697293045082
 30
0.0
 10
147.4583882533792
 20
61.4846033662212
 30
0.0
 10
147.1409968101462
 20
61.46712526344203
 30
0.0
 10
146.5118333085913
 20
61.42579697688972
 30
0.0
 10
146.1996851221496
 20
61.40187170343202
 30
0.0
 10
145.2923778203014
 20
61.32306518696511
 30
0.0
 10
144.7189528626601
 20
61.26075916698865
 30
0.0
 10
143.9050759930854
 20
61.15762984674929
 30
0.0
 10
143.6402697965156
 20
61.12144592770278
 30
0.0
 10
143.1333623857012
 20
61.04765114350227
 30
0.0
 10
142.8919682343478
 20
61.01017728473062
 30
0.0
 10
142.2028267622154
 20
60.89746534139089
 30
0.0
 10
141.7897719473511
 20
60.82192924391711
 30
0.0
 10
141.2416171279761
 20
60.71353598689961
 30
0.0
 10
141.0721545206305
 20
60.67846375523636
 30
0.0
 10
140.7641372726151
 20
60.61222829463651
 30
0.0
 10
140.6247572520068
 20
60.58090159788178
 30
0.0
 10
140.37497173938
 20
60.52249282630085
 30
0.0
 10
140.2645656267261
 20
60.495409591118
 30
0.0
 10
140.0733077730884
 20
60.44614983650442
 30
0.0
 10
139.9921882548041
 20
60.42388785669677
 30
0.0
 10
139.7980413346957
 20
60.3663209495285
 30
0.0
 10
139.7328393445981
 20
60.34006134474251
 30
0.0
 10
139.7328393445981
 20
60.32680760026847
 30
0.0
  0
LINE
  5
7A
330
1F
100
AcDbEntity
  8
0
  6
Continuous
 62
     7
370
    15
100
AcDbLine
 10
139.7328393446
 20
60.3268076003
 30
0.0
 11
139.7328393446
 21
60.3168066001
 31
0.0
  0
SPLINE
  5
7B
330
1F
100
AcDbEntity
  8
0
  6
Continuous
 62
     7
370
    15
100
AcDbSpline
210
0.0
220
0.0
230
1.0
 70
     8
 71
     3
 72
    17
 73
    13
 74
     0
 42
0.00000001
 43
0.00000001
 40
0.0
 40
0.0
 40
0.0
 40
0.0
 40
0.104384384054747
 40
0.2118345768143993
 40
0.316208200519045
 40
0.4235375806108392
 40
0.5292276236193852
 40
0.6379275864803491
 40
0.7444714844189683
 40
0.8541836219421859
 40
0.9593080534965217
 40
1.0
 40
1.0
 40
1.0
 40
1.0
 10
149.7328393445982
 20
159.306601455732
 30
0.0
 10
149.1849008967388
 20
159.3119696594808
 30
0.0
 10
148.0729308422741
 20
159.3228637331457
 30
0.0
 10
146.4600749290591
 20
159.4080411074046
 30
0.0
 10
144.9265617120822
 20
159.5344158136972
 30
0.0
 10
143.5355408627456
 20
159.691318634274
 30
0.0
 10
142.3000243455152
 20
159.8630174637946
 30
0.0
 10
141.2766685783599
 20
160.0283537398957
 30
0.0
 10
140.4763265800948
 20
160.1720672194822
 30
0.0
 10
139.9659944781812
 20
160.2702220266613
 30
0.0
 10
139.7260860493567
 20
160.3181504235313
 30
0.0
 10
139.7580048287765
 20
160.3117830242916
 30
0.0
 10
139.7669121770587
 20
160.3100061191684
 30
0.0
  0
LINE
  5
7C
330
1F
100
AcDbEntity
  8
0
  6
Continuous
 62
     7
370
    15
100
AcDbLine
 10
151.5208103237
 20
159.3066014557
 30
0.0
 11
149.7328393446
 21
159.3066014557
 31
0.0
  0
LINE
  5
7D
330
1F
100
AcDbEntity
  8
0
  6
Continuous
 62
     7
370
    15
100
AcDbLine
 10
151.5208103237
 20
149.267769361
 30
0.0
 11
151.5208103237
 21
159.3066014557
 31
0.0
  0
LINE
  5
7E
330
1F
100
AcDbEntity
  8
0
  6
Continuous
 62
     7
370
    15
100
AcDbLine
 10
149.4408061928
 20
149.267769361
 30
0.0
 11
151.5208103237
 21
149.267769361
 31
0.0
  0
SPLINE
  5
7F
330
1F
100
AcDbEntity
  8
0
  6
Continuous
 62
     7
370
    15
100
AcDbSpline
210
0.0
220
0.0
230
1.0
 70
     8
 71
     3
 72
    22
 73
    18
 74
     0
 42
0.00000001
 43
0.00000001
 40
0.0
 40
0.0
 40
0.0
 40
0.0
 40
0.2500000000000002
 40
0.2500000000000002
 40
0.3750000000000003
 40
0.3750000000000003
 40
0.5000000000000004
 40
0.5000000000000004
 40
0.6250000000000004
 40
0.6250000000000004
 40
0.7500000000000004
 40
0.7500000000000004
 40
0.8750000000000004
 40
0.8750000000000004
 40
0.9375000000000002
 40
0.9375000000000002
 40
1.0
 40
1.0
 40
1.0
 40
1.0
 10
139.7328393445981
 20
141.6668066000684
 30
0.0
 10
139.9355643005173
 20
142.686052941933
 30
0.0
 10
140.2503080223126
 20
143.6451610918724
 30
0.0
 10
140.9583634919836
 20
144.9876401693816
 30
0.0
 10
141.2368261222012
 20
145.4218487521217
 30
0.0
 10
141.8755935288384
 20
146.2334764676237
 30
0.0
 10
142.2360072086286
 20
146.6127567605606
 30
0.0
 10
143.0535394406179
 20
147.3157153395816
 30
0.0
 10
143.514707423905
 20
147.6407441572822
 30
0.0
 10
144.5126976703889
 20
148.2057594806731
 30
0.0
 10
145.0524568643811
 20
148.4494630748796
 30
0.0
 10
146.2270498284124
 20
148.8536630025246
 30
0.0
 10
146.8387860144043
 20
149.0061001955701
 30
0.0
 10
147.790695239266
 20
149.1614277431788
 30
0.0
 10
148.1139284035267
 20
149.2009325232288
 30
0.0
 10
148.7729915748019
 20
149.2542416438975
 30
0.0
 10
149.1070555853759
 20
149.2677693609554
 30
0.0
 10
149.4408061927775
 20
149.2677693609554
 30
0.0
  0
SPLINE
  5
80
330
1F
100
AcDbEntity
  8
0
  6
Continuous
 62
     7
370
    15
100
AcDbSpline
210
0.0
220
0.0
230
1.0
 70
     8
 71
     3
 72
    80
 73
    76
 74
     0
 42
0.00000001
 43
0.00000001
 40
-0.0312499999999993
 40
-0.0312499999999993
 40
0.0
 40
0.0
 40
0.03125
 40
0.03125
 40
0.046875
 40
0.046875
 40
0.0625
 40
0.0625
 40
0.09375
 40
0.09375
 40
0.1250000000000001
 40
0.1250000000000001
 40
0.1562500000000001
 40
0.1562500000000001
 40
0.1875000000000001
 40
0.1875000000000001
 40
0.2187500000000002
 40
0.2187500000000002
 40
0.2500000000000002
 40
0.2500000000000002
 40
0.2812500000000003
 40
0.2812500000000003
 40
0.3125000000000003
 40
0.3125000000000003
 40
0.3281250000000004
 40
0.3281250000000004
 40
0.3437500000000006
 40
0.3437500000000006
 40
0.3750000000000011
 40
0.3750000000000011
 40
0.4062500000000016
 40
0.4062500000000016
 40
0.4218750000000018
 40
0.4218750000000018
 40
0.437500000000002
 40
0.437500000000002
 40
0.4687500000000023
 40
0.4687500000000023
 40
0.5000000000000027
 40
0.5000000000000027
 40
0.531250000000003
 40
0.531250000000003
 40
0.5625000000000033
 40
0.5625000000000033
 40
0.5937500000000037
 40
0.5937500000000037
 40
0.6250000000000039
 40
0.6250000000000039
 40
0.6562500000000042
 40
0.6562500000000042
 40
0.6875000000000046
 40
0.6875000000000046
 40
0.7031250000000047
 40
0.7031250000000047
 40
0.7187500000000048
 40
0.7187500000000048
 40
0.7500000000000048
 40
0.7500000000000048
 40
0.7812500000000048
 40
0.7812500000000048
 40
0.7968750000000044
 40
0.7968750000000044
 40
0.8125000000000041
 40
0.8125000000000041
 40
0.8437500000000034
 40
0.8437500000000034
 40
0.8750000000000027
 40
0.8750000000000027
 40
0.906250000000002
 40
0.906250000000002
 40
0.9375000000000013
 40
0.9375000000000013
 40
0.9687500000000007
 40
0.9687500000000007
 40
1.0
 40
1.0
 40
1.03125
 40
1.03125
 10
144.1133846573745
 20
153.7314360636997
 30
0.0
 10
143.4522940318219
 20
153.7314360636997
 30
0.0
 10
143.1273139025702
 20
153.7476442950819
 30
0.0
 10
142.6478404913238
 20
153.7950089271015
 30
0.0
 10
142.489358673483
 20
153.8146631389921
 30
0.0
 10
142.1751391409787
 20
153.8617742951847
 30
0.0
 10
142.0190188572983
 20
153.8893556146794
 30
0.0
 10
141.5649648283417
 20
153.9818914014732
 30
0.0
 10
141.2778614454019
 20
154.0569618350697
 30
0.0
 10
140.7345068893749
 20
154.2322001436803
 30
0.0
 10
140.4774032781693
 20
154.3332014415186
 30
0.0
 10
140.0164970232305
 20
154.5505576399794
 30
0.0
 10
139.8095993140156
 20
154.6677219717517
 30
0.0
 10
139.4440740000234
 20
154.9177918959803
 30
0.0
 10
139.2888684778974
 20
155.0487379847393
 30
0.0
 10
139.0394380912977
 20
155.3144729284517
 30
0.0
 10
138.9433481355125
 20
155.4512265217626
 30
0.0
 10
138.8148292863189
 20
155.7252920966016
 30
0.0
 10
138.7830184161411
 20
155.8602321870704
 30
0.0
 10
138.7826617663679
 20
156.1257038241392
 30
0.0
 10
138.8151590185649
 20
156.2575283012804
 30
0.0
 10
138.9427844922795
 20
156.5069779009008
 30
0.0
 10
139.0372128933313
 20
156.6254105928289
 30
0.0
 10
139.2250737133169
 20
156.7942797899229
 30
0.0
 10
139.2959017121201
 20
156.8493657850431
 30
0.0
 10
139.4506236040854
 20
156.9546186135316
 30
0.0
 10
139.5346000742688
 20
157.0049538422919
 30
0.0
 10
139.8059237439132
 20
157.1495296748299
 30
0.0
 10
140.0124729625155
 20
157.237391261247
 30
0.0
 10
140.4790831027045
 20
157.3971123542465
 30
0.0
 10
140.73144867233
 20
157.4663506507137
 30
0.0
 10
141.1373500140087
 20
157.5561380399434
 30
0.0
 10
141.2772506314862
 20
157.5837040020297
 30
0.0
 10
141.5664745667331
 20
157.634194802956
 30
0.0
 10
141.7163140230224
 20
157.6571582418067
 30
0.0
 10
142.1704305926332
 20
157.7177887582255
 30
0.0
 10
142.4820818113701
 20
157.7478627870213
 30
0.0
 10
143.1230782762824
 20
157.78845237428
 30
0.0
 10
143.4546059042346
 20
157.7987646044961
 30
0.0
 10
144.1073969493061
 20
157.7988401716618
 30
0.0
 10
144.4319331543379
 20
157.7889385661941
 30
0.0
 10
145.0772026037543
 20
157.7484520356688
 30
0.0
 10
145.392945609917
 20
157.7179907357841
 30
0.0
 10
145.9948349049007
 20
157.6378400643476
 30
0.0
 10
146.2855841357122
 20
157.5875578325404
 30
0.0
 10
146.8324959273967
 20
157.4668876497674
 30
0.0
 10
147.0842732912336
 20
157.3976637905974
 30
0.0
 10
147.5456612838547
 20
157.2402120629567
 30
0.0
 10
147.7569305634528
 20
157.150863588283
 30
0.0
 10
148.120234915829
 20
156.9576157175821
 30
0.0
 10
148.2740415642718
 20
156.8534877257029
 30
0.0
 10
148.4626610338692
 20
156.6848633395194
 30
0.0
 10
148.5186915200784
 20
156.6262349378445
 30
0.0
 10
148.6142652818145
 20
156.5067800230183
 30
0.0
 10
148.6540281988395
 20
156.4458602341801
 30
0.0
 10
148.7497999491516
 20
156.2594555080062
 30
0.0
 10
148.7825227882778
 20
156.1303426902111
 30
0.0
 10
148.7831513746069
 20
155.8616857672553
 30
0.0
 10
148.7509652298721
 20
155.7263150264985
 30
0.0
 10
148.6560545280165
 20
155.5227647182625
 30
0.0
 10
148.6165877446175
 20
155.4547927941991
 30
0.0
 10
148.5216577458966
 20
155.3187005710682
 30
0.0
 10
148.4659009181333
 20
155.2503504708587
 30
0.0
 10
148.2779608001634
 20
155.0496474578167
 30
0.0
 10
148.1245993304472
 20
154.920259184004
 30
0.0
 10
147.7623350955669
 20
154.6715937519541
 30
0.0
 10
147.5514866221009
 20
154.5517841095859
 30
0.0
 10
147.090816651782
 20
154.3342618220132
 30
0.0
 10
146.8394422721982
 20
154.2351767221773
 30
0.0
 10
146.2935343853001
 20
154.0585042482605
 30
0.0
 10
146.0027118106488
 20
153.9824471601264
 30
0.0
 10
145.4013851958688
 20
153.8596021827734
 30
0.0
 10
145.0868666112564
 20
153.8118960577203
 30
0.0
 10
144.4402851551365
 20
153.7476475226007
 30
0.0
 10
144.1133846573745
 20
153.7314360636997
 30
0.0
 10
143.4522940318219
 20
153.7314360636997
 30
0.0
  0
LINE
  5
81
330
1F
100
AcDbEntity
  8
0
  6
Continuous
 62
     7
370
    15
100
AcDbLine
 10
134.7828393446
 20
60.8168066001
 30
0.0
 11
134.7828393446
 21
159.8168065941
 31
0.0
  0
LINE
  5
82
330
1F
100
AcDbEntity
  8
0
  6
Continuous
 62
     7
370
    15
100
AcDbLine
 10
163.7328393446
 20
62.5674610548
 30
0.0
 11
163.7328393446
 21
141.6668066001
 31
0.0
  0
SPLINE
  5
83
330
1F
100
AcDbEntity
  8
0
  6
Continuous
 62
     7
370
    15
100
AcDbSpline
210
0.0
220
0.0
230
1.0
 70
     8
 71
     3
 72
    14
 73
    10
 74
     0
 42
0.00000001
 43
0.00000001
 40
0.0
 40
0.0
 40
0.0
 40
0.0
 40
0.25
 40
0.25
 40
0.5
 40
0.5
 40
0.75
 40
0.75
 40
1.0
 40
1.0
 40
1.0
 40
1.0
 10
163.7328393445982
 20
62.56746105481514
 30
0.0
 10
163.7328393445982
 20
62.4340353587606
 30
0.0
 10
163.7075282446873
 20
62.30218755091624
 30
0.0
 10
163.6091934808426
 20
62.05566500222214
 30
0.0
 10
163.5360494765865
 20
61.9418598139816
 30
0.0
 10
163.3526114154908
 20
61.75140263703432
 30
0.0
 10
163.2409250811522
 20
61.67376777318441
 30
0.0
 10
162.9984216508459
 20
61.56947636307194
 30
0.0
 10
162.8650472221517
 20
61.54181300703959
 30
0.0
 10
162.7328393445982
 20
61.54181300703959
 30
0.0
  0
SPLINE
  5
84
330
1F
100
AcDbEntity
  8
0
  6
Continuous
 62
     7
370
    15
100
AcDbSpline
210
0.0
220
0.0
230
1.0
 70
    24
 71
     3
 72
    12
 73
     8
 74
     0
 42
0.00000001
 43
0.00000001
 40
0.0
 40
0.0
 40
0.0
 40
0.0
 40
0.2500000000000032
 40
0.2500000000000032
 40
0.5000000000000064
 40
0.5000000000000064
 40
1.0
 40
1.0
 40
1.0
 40
1.0
 10
162.7328393445982
 20
141.6668066000684
 30
0.0
 10
162.8849295815432
 20
141.6668066000684
 30
0.0
 10
163.0333888426186
 20
141.6668066000684
 30
0.0
 10
163.2907924748843
 20
141.6668066000684
 30
0.0
 10
163.3998972227262
 20
141.6668066000684
 30
0.0
 10
163.6539566991337
 20
141.6668066000684
 30
0.0
 10
163.7328393445982
 20
141.6668066000684
 30
0.0
 10
163.7328393445982
 20
141.6668066000684
 30
0.0
  0
LINE
  5
85
330
1F
100
AcDbEntity
  8
0
  6
Continuous
 62
     7
370
    15
100
AcDbLine
 10
162.7328393446
 20
61.541813007
 30
0.0
 11
158.0448683655
 21
61.541813007
 31
0.0
  0
LINE
  5
86
330
1F
100
AcDbEntity
  8
0
  6
Continuous
 62
     7
370
    15
100
AcDbLine
 10
158.0448683655
 20
61.541813007
 30
0.0
 11
158.0448683655
 21
141.6668066001
 31
0.0
  0
LINE
  5
87
330
1F
100
AcDbEntity
  8
0
  6
Continuous
 62
     7
370
    15
100
AcDbLine
 10
158.0448683655
 20
141.6668066001
 30
0.0
 11
162.7328393446
 21
141.6668066001
 31
0.0
  0
SPLINE
  5
88
330
1F
100
AcDbEntity
  8
0
  6
Continuous
 62
     7
370
    15
100
AcDbSpline
210
0.0
220
0.0
230
1.0
 70
     8
 71
     3
 72
     8
 73
     4
 74
     0
 42
0.00000001
 43
0.00000001
 40
0.0
 40
0.0
 40
0.0
 40
0.0
 40
1.0
 40
1.0
 40
1.0
 40
1.0
 10
158.0448683655196
 20
61.54181300703963
 30
0.0
 10
157.5937636361193
 20
62.34277293885955
 30
0.0
 10
157.143065808876
 20
63.14396295042021
 30
0.0
 10
156.6928393445982
 20
63.94541831304497
 30
0.0
  0
LINE
  5
89
330
1F
100
AcDbEntity
  8
0
  6
Continuous
 62
     7
370
    15
100
AcDbLine
 10
156.6928393446
 20
63.945418313
 30
0.0
 11
156.6928393446
 21
141.6668066001
 31
0.0
  0
SPLINE
  5
8A
330
1F
100
AcDbEntity
  8
0
  6
Continuous
 62
     7
370
    15
100
AcDbSpline
210
0.0
220
0.0
230
1.0
 70
    24
 71
     3
 72
     8
 73
     4
 74
     0
 42
0.00000001
 43
0.00000001
 40
0.0
 40
0.0
 40
0.0
 40
0.0
 40
1.0
 40
1.0
 40
1.0
 40
1.0
 10
156.6928393445982
 20
141.6668066000684
 30
0.0
 10
157.1370522269521
 20
141.6668066000684
 30
0.0
 10
157.5880667931913
 20
141.6668066000684
 30
0.0
 10
158.0448683655196
 20
141.6668066000684
 30
0.0
  0
LINE
  5
8B
330
1F
100
AcDbEntity
  8
0
  6
Continuous
 62
     7
370
    15
100
AcDbLine
 10
152.8728393446
 20
63.945418313
 30
0.0
 11
152.8728393446
 21
141.6668066001
 31
0.0
  0
SPLINE
  5
8C
330
1F
100
AcDbEntity
  8
0
  6
Continuous
 62
     7
370
    15
100
AcDbSpline
210
0.0
220
0.0
230
1.0
 70
     8
 71
     3
 72
     8
 73
     4
 74
     0
 42
0.00000001
 43
0.00000001
 40
0.0
 40
0.0
 40
0.0
 40
0.0
 40
1.0
 40
1.0
 40
1.0
 40
1.0
 10
152.8728393445982
 20
63.94541831304497
 30
0.0
 10
152.4226128803204
 20
63.14396295042021
 30
0.0
 10
151.971915053077
 20
62.34277293885955
 30
0.0
 10
151.5208103236768
 20
61.54181300703963
 30
0.0
  0
SPLINE
  5
8D
330
1F
100
AcDbEntity
  8
0
  6
Continuous
 62
     7
370
    15
100
AcDbSpline
210
0.0
220
0.0
230
1.0
 70
    24
 71
     3
 72
     8
 73
     4
 74
     0
 42
0.00000001
 43
0.00000001
 40
0.0
 40
0.0
 40
0.0
 40
0.0
 40
1.0
 40
1.0
 40
1.0
 40
1.0
 10
151.5208103236768
 20
141.6668066000684
 30
0.0
 10
151.977611896005
 20
141.6668066000684
 30
0.0
 10
152.4286264622442
 20
141.6668066000684
 30
0.0
 10
152.8728393445982
 20
141.6668066000684
 30
0.0
  0
SPLINE
  5
8E
330
1F
100
AcDbEntity
  8
0
  6
Continuous
 62
     7
370
    15
100
AcDbSpline
210
0.0
220
0.0
230
1.0
 70
     8
 71
     3
 72
    14
 73
    10
 74
     0
 42
0.00000001
 43
0.00000001
 40
0.0
 40
0.0
 40
0.0
 40
0.0
 40
0.25
 40
0.25
 40
0.5
 40
0.5
 40
0.75
 40
0.75
 40
1.0
 40
1.0
 40
1.0
 40
1.0
 10
156.6928393445982
 20
64.85362781767354
 30
0.0
 10
156.6928393445982
 20
64.96067189866793
 30
0.0
 10
156.67272165744
 20
65.06590703891038
 30
0.0
 10
156.5942304681744
 20
65.26375752575805
 30
0.0
 10
156.5360738433732
 20
65.35480928932299
 30
0.0
 10
156.3895585877551
 20
65.50797538324777
 30
0.0
 10
156.300916039114
 20
65.57026982945717
 30
0.0
 10
156.1051927163137
 20
65.65506361499315
 30
0.0
 10
155.9999615252428
 20
65.67713114201878
 30
0.0
 10
155.8928393445982
 20
65.67713114201878
 30
0.0
  0
SPLINE
  5
8F
330
1F
100
AcDbEntity
  8
0
  6
Continuous
 62
     7
370
    15
100
AcDbSpline
210
0.0
220
0.0
230
1.0
 70
    24
 71
     3
 72
    14
 73
    10
 74
     0
 42
0.00000001
 43
0.00000001
 40
0.0
 40
0.0
 40
0.0
 40
0.0
 40
0.25
 40
0.25
 40
0.5
 40
0.5
 40
0.75
 40
0.75
 40
1.0
 40
1.0
 40
1.0
 40
1.0
 10
155.8928393445982
 20
141.6668066000684
 30
0.0
 10
156.0166091093633
 20
141.6668066000684
 30
0.0
 10
156.1409762133702
 20
141.6668066000684
 30
0.0
 10
156.3473326820962
 20
141.6668066000684
 30
0.0
 10
156.4326608255146
 20
141.6668066000684
 30
0.0
 10
156.5648528842298
 20
141.6668066000684
 30
0.0
 10
156.6134981279804
 20
141.6668066000684
 30
0.0
 10
156.6770339197092
 20
141.6668066000684
 30
0.0
 10
156.6928393445982
 20
141.6668066000684
 30
0.0
 10
156.6928393445982
 20
141.6668066000684
 30
0.0
  0
SPLINE
  5
90
330
1F
100
AcDbEntity
  8
0
  6
Continuous
 62
     7
370
    15
100
AcDbSpline
210
0.0
220
0.0
230
1.0
 70
     8
 71
     3
 72
    12
 73
     8
 74
     0
 42
0.00000001
 43
0.00000001
 40
0.0
 40
0.0
 40
0.0
 40
0.0
 40
0.25
 40
0.25
 40
0.5
 40
0.5
 40
1.0
 40
1.0
 40
1.0
 40
1.0
 10
153.6728393445982
 20
65.67713114201878
 30
0.0
 10
153.5670786912492
 20
65.67713114201878
 30
0.0
 10
153.4590910630663
 20
65.6545916360184
 30
0.0
 10
153.2644963978007
 20
65.57002100402306
 30
0.0
 10
153.1756244849619
 20
65.5075393512643
 30
0.0
 10
152.956432192636
 20
65.27815039979212
 30
0.0
 10
152.8728393445981
 20
65.06556706226974
 30
0.0
 10
152.8728393445981
 20
64.85362781767354
 30
0.0
  0
SPLINE
  5
91
330
1F
100
AcDbEntity
  8
0
  6
Continuous
 62
     7
370
    15
100
AcDbSpline
210
0.0
220
0.0
230
1.0
 70
    24
 71
     3
 72
    14
 73
    10
 74
     0
 42
0.00000001
 43
0.00000001
 40
0.0
 40
0.0
 40
0.0
 40
0.0
 40
0.25
 40
0.25
 40
0.5
 40
0.5
 40
0.75
 40
0.75
 40
1.0
 40
1.0
 40
1.0
 40
1.0
 10
152.8728393445982
 20
141.6668066000684
 30
0.0
 10
152.8728393445981
 20
141.6668066000684
 30
0.0
 10
152.8885536650641
 20
141.6668066000684
 30
0.0
 10
152.9522376435325
 20
141.6668066000684
 30
0.0
 10
153.0008408379429
 20
141.6668066000684
 30
0.0
 10
153.1335243603685
 20
141.6668066000684
 30
0.0
 10
153.2186264646792
 20
141.6668066000684
 30
0.0
 10
153.4250686995892
 20
141.6668066000684
 30
0.0
 10
153.5491496412122
 20
141.6668066000684
 30
0.0
 10
153.6728393445982
 20
141.6668066000684
 30
0.0
  0
LINE
  5
92
330
1F
100
AcDbEntity
  8
0
  6
Continuous
 62
     7
370
    15
100
AcDbLine
 10
155.8928393446
 20
65.677131142
 30
0.0
 11
153.6728393446
 21
65.677131142
 31
0.0
  0
LINE
  5
93
330
1F
100
AcDbEntity
  8
0
  6
Continuous
 62
     7
370
    15
100
AcDbLine
 10
153.6728393446
 20
141.6668066001
 30
0.0
 11
155.8928393446
 21
141.6668066001
 31
0.0
  0
LINE
  5
94
330
1F
100
AcDbEntity
  8
0
  6
Continuous
 62
     7
370
    15
100
AcDbLine
 10
99.9828393446
 20
74.05279157
 30
0.0
 11
99.9828393446
 21
76.4474733347
 31
0.0
  0
SPLINE
  5
95
330
1F
100
AcDbEntity
  8
0
  6
Continuous
 62
     7
370
    15
100
AcDbSpline
210
0.0
220
0.0
230
1.0
 70
     8
 71
     3
 72
    14
 73
    10
 74
     0
 42
0.00000001
 43
0.00000001
 40
0.0
 40
0.0
 40
0.0
 40
0.0
 40
0.25
 40
0.25
 40
0.5
 40
0.5
 40
0.75
 40
0.75
 40
1.0
 40
1.0
 40
1.0
 40
1.0
 10
98.97841687326121
 20
78.1503252563249
 30
0.0
 10
99.06718545120653
 20
77.99179112501695
 30
0.0
 10
99.18890328988545
 20
77.8393484481284
 30
0.0
 10
99.42395289974228
 20
77.54221382429948
 30
0.0
 10
99.53958308595917
 20
77.39753118068211
 30
0.0
 10
99.739988019387
 20
77.11424197817871
 30
0.0
 10
99.8253883113713
 20
76.97568798514185
 30
0.0
 10
99.94709394508855
 20
76.70430395510833
 30
0.0
 10
99.98283934460119
 20
76.5721680864737
 30
0.0
 10
99.98283934460117
 20
76.44747333470293
 30
0.0
  0
SPLINE
  5
96
330
1F
100
AcDbEntity
  8
0
  6
Continuous
 62
     7
370
    15
100
AcDbSpline
210
0.0
220
0.0
230
1.0
 70
     8
 71
     3
 72
    14
 73
    10
 74
     0
 42
0.00000001
 43
0.00000001
 40
0.0
 40
0.0
 40
0.0
 40
0.0
 40
0.124999999999999
 40
0.124999999999999
 40
0.249999999999998
 40
0.249999999999998
 40
0.5000000000000007
 40
0.5000000000000007
 40
1.0
 40
1.0
 40
1.0
 40
1.0
 10
98.08283934459816
 20
78.77915519542502
 30
0.0
 10
98.15042164438266
 20
78.78631108052642
 30
0.0
 10
98.22290922213057
 20
78.78188661048738
 30
0.0
 10
98.3552003313965
 20
78.75218045271704
 30
0.0
 10
98.41247771078667
 20
78.72889617113881
 30
0.0
 10
98.56212813798696
 20
78.6514109312885
 30
0.0
 10
98.63584143350846
 20
78.58955910438712
 30
0.0
 10
98.8236494168347
 20
78.4048816517388
 30
0.0
 10
98.90768972319614
 20
78.2766387284476
 30
0.0
 10
98.97841687326242
 20
78.150325256325
 30
0.0
  0
SPLINE
  5
97
330
1F
100
AcDbEntity
  8
0
  6
Continuous
 62
     7
370
    15
100
AcDbSpline
210
0.0
220
0.0
230
1.0
 70
     8
 71
     3
 72
     8
 73
     4
 74
     0
 42
0.00000001
 43
0.00000001
 40
0.0
 40
0.0
 40
0.0
 40
0.0
 40
1.0
 40
1.0
 40
1.0
 40
1.0
 10
94.53819895651738
 20
78.36110661063323
 30
0.0
 10
95.70349726722625
 20
78.51629408251983
 30
0.0
 10
96.88811248126606
 20
78.65265272083016
 30
0.0
 10
98.08283934459816
 20
78.77915519542503
 30
0.0
  0
SPLINE
  5
98
330
1F
100
AcDbEntity
  8
0
  6
Continuous
 62
     7
370
    15
100
AcDbSpline
210
0.0
220
0.0
230
1.0
 70
     8
 71
     3
 72
    14
 73
    10
 74
     0
 42
0.00000001
 43
0.00000001
 40
0.0
 40
0.0
 40
0.0
 40
0.0
 40
0.4999999999999972
 40
0.4999999999999972
 40
0.7499999999999971
 40
0.7499999999999971
 40
0.8749999999999986
 40
0.8749999999999986
 40
1.0
 40
1.0
 40
1.0
 40
1.0
 10
86.78276446056947
 20
78.0709744315033
 30
0.0
 10
88.09106602310321
 20
78.07798915524444
 30
0.0
 10
89.39612539776003
 20
78.09339773168891
 30
0.0
 10
91.34200144924836
 20
78.14729428715559
 30
0.0
 10
91.98869895298735
 20
78.17032585175829
 30
0.0
 10
92.95254131684169
 20
78.22126837662904
 30
0.0
 10
93.27278000877577
 20
78.24100329886224
 30
0.0
 10
93.90947523511818
 20
78.2904904273338
 30
0.0
 10
94.2261906434011
 20
78.31955520626303
 30
0.0
 10
94.5381989565174
 20
78.3611066106332
 30
0.0
  0
SPLINE
  5
99
330
1F
100
AcDbEntity
  8
0
  6
Continuous
 62
     7
370
    15
100
AcDbSpline
210
0.0
220
0.0
230
1.0
 70
     8
 71
     3
 72
    12
 73
     8
 74
     0
 42
0.00000001
 43
0.00000001
 40
0.0
 40
0.0
 40
0.0
 40
0.0
 40
0.2500000000000009
 40
0.2500000000000009
 40
0.5000000000000018
 40
0.5000000000000018
 40
1.0
 40
1.0
 40
1.0
 40
1.0
 10
93.08283934459817
 20
142.4033294915649
 30
0.0
 10
92.56414052276999
 20
142.4358522664131
 30
0.0
 10
92.042428949565
 20
142.4591490075836
 30
0.0
 10
90.99613693306941
 20
142.4969945220057
 30
0.0
 10
90.47146530739914
 20
142.5112629965018
 30
0.0
 10
88.89461928485993
 20
142.5454724839601
 30
0.0
 10
87.83966397031301
 20
142.556971987904
 30
0.0
 10
86.78276446056778
 20
142.5626387686336
 30
0.0
  0
SPLINE
  5
9A
330
1F
100
AcDbEntity
  8
0
  6
Continuous
 62
     7
370
    15
100
AcDbSpline
210
0.0
220
0.0
230
1.0
 70
     8
 71
     3
 72
    20
 73
    16
 74
     0
 42
0.00000001
 43
0.00000001
 40
0.0
 40
0.0
 40
0.0
 40
0.0
 40
0.2500000000000011
 40
0.2500000000000011
 40
0.5000000000000021
 40
0.5000000000000021
 40
0.7500000000000031
 40
0.7500000000000031
 40
0.8750000000000008
 40
0.8750000000000008
 40
0.9375000000000006
 40
0.9375000000000006
 40
0.9687500000000003
 40
0.9687500000000003
 40
1.0
 40
1.0
 40
1.0
 40
1.0
 10
94.98283934459818
 20
144.061415337053
 30
0.0
 10
94.98283934459818
 20
143.9257330173062
 30
0.0
 10
94.93412755538154
 20
143.7846460311661
 30
0.0
 10
94.76496613215635
 20
143.4925743124356
 30
0.0
 10
94.64318571823804
 20
143.3409255703452
 30
0.0
 10
94.34563862348853
 20
143.0385171301921
 30
0.0
 10
94.17172601778576
 20
142.8859284940688
 30
0.0
 10
93.85231118390392
 20
142.6606577302265
 30
0.0
 10
93.73727040845667
 20
142.5859346357157
 30
0.0
 10
93.53018608444025
 20
142.4865242264588
 30
0.0
 10
93.45407824963387
 20
142.4549591341141
 30
0.0
 10
93.32268371008051
 20
142.4205157499212
 30
0.0
 10
93.27613049107904
 20
142.4114641781536
 30
0.0
 10
93.17979713999834
 20
142.4012885293151
 30
0.0
 10
93.13053771664289
 20
142.4003387706401
 30
0.0
 10
93.08283934459618
 20
142.4033294915547
 30
0.0
  0
LINE
  5
9B
330
1F
100
AcDbEntity
  8
0
  6
Continuous
 62
     7
370
    15
100
AcDbLine
 10
94.9828393446
 20
144.0614153371
 30
0.0
 11
94.9828393446
 21
146.3303206281
 31
0.0
  0
LINE
  5
9C
330
1F
100
AcDbEntity
  8
0
  6
Continuous
 62
     7
370
    15
100
AcDbLine
 10
132.2828393446
 20
72.4345550971
 30
0.0
 11
132.2828393446
 21
148.1990581031
 31
0.0
  0
SPLINE
  5
9D
330
1F
100
AcDbEntity
  8
0
  6
Continuous
 62
     7
370
    15
100
AcDbSpline
210
0.0
220
0.0
230
1.0
 70
     8
 71
     3
 72
    24
 73
    20
 74
     0
 42
0.00000001
 43
0.00000001
 40
0.0
 40
0.0
 40
0.0
 40
0.0
 40
0.0002934293894791
 40
0.062808005175641
 40
0.1260453927228619
 40
0.18907467666103
 40
0.2513200540860133
 40
0.3133304633786588
 40
0.3759158453762907
 40
0.4383740564599686
 40
0.5000631094857209
 40
0.5616593988040849
 40
0.6245050380644152
 40
0.6872231506510951
 40
0.7494953263230465
 40
0.8117583797535242
 40
0.8747365508229858
 40
0.9378980306234599
 40
1.0
 40
1.0
 40
1.0
 40
1.0
 10
113.3027956084376
 20
73.38556134175606
 30
0.0
 10
113.3026007555528
 20
73.38553703436207
 30
0.0
 10
113.2608928645417
 20
73.38033408270786
 30
0.0
 10
113.4060112560721
 20
73.39896870603837
 30
0.0
 10
113.7610901976114
 20
73.44148848458711
 30
0.0
 10
114.3656658351545
 20
73.50962476818894
 30
0.0
 10
115.1721011439707
 20
73.58288030520482
 30
0.0
 10
116.1575785678897
 20
73.64739964602268
 30
0.0
 10
117.2892481645692
 20
73.68596387408377
 30
0.0
 10
118.5115406347315
 20
73.68965838008516
 30
0.0
 10
119.7788693161833
 20
73.64723240003617
 30
0.0
 10
121.0453548466099
 20
73.55898525925522
 30
0.0
 10
122.2614922104298
 20
73.43059198898855
 30
0.0
 10
123.3869027062706
 20
73.27795100039602
 30
0.0
 10
124.3643197678245
 20
73.11617638529168
 30
0.0
 10
125.167585246367
 20
72.96364749219079
 30
0.0
 10
125.7560787693683
 20
72.83963374892338
 30
0.0
 10
126.1449848810203
 20
72.75470982264711
 30
0.0
 10
126.1917460117583
 20
72.74398351136833
 30
0.0
 10
126.2149288183007
 20
72.73866571867671
 30
0.0
  0
SPLINE
  5
9E
330
1F
100
AcDbEntity
  8
0
  6
Continuous
 62
     7
370
    15
100
AcDbSpline
210
0.0
220
0.0
230
1.0
 70
     8
 71
     3
 72
    41
 73
    37
 74
     0
 42
0.00000001
 43
0.00000001
 40
0.0
 40
0.0
 40
0.0
 40
0.0
 40
0.0619930088506718
 40
0.125434783814564
 40
0.1886508980471406
 40
0.2510246518033811
 40
0.3131658325491701
 40
0.3756581805174193
 40
0.4382227337757709
 40
0.4998045140815297
 40
0.5615164441954765
 40
0.624068336616565
 40
0.6867257531766615
 40
0.7488365631577111
 40
0.8110686297814758
 40
0.8741743265521147
 40
0.9373213196242014
 40
0.9685512131827939
 40
0.9842087301523141
 40
0.9920641614992075
 40
0.9960005295431575
 40
0.9979711229155388
 40
0.9989570525954627
 40
0.999450179507506
 40
0.9996967839589672
 40
0.9998200964931991
 40
0.9998817553448945
 40
0.9999125854178207
 40
0.9999280006161647
 40
0.9999357082558249
 40
0.9999395620857793
 40
0.9999414890032862
 40
0.9999424524626737
 40
0.9999434159224813
 40
0.9999502132908483
 40
1.0
 40
1.0
 40
1.0
 40
1.0
 10
126.2148074878227
 20
147.8949024635086
 30
0.0
 10
126.1912358424792
 20
147.8895929838588
 30
0.0
 10
126.1435416864341
 20
147.8788499429192
 30
0.0
 10
125.7514996970085
 20
147.7936208064638
 30
0.0
 10
125.1609856477383
 20
147.6690520278231
 30
0.0
 10
124.3569482016932
 20
147.5161050816712
 30
0.0
 10
123.3808728015117
 20
147.3543485277176
 30
0.0
 10
122.2590640662312
 20
147.2021157597854
 30
0.0
 10
121.045533146444
 20
147.0743358185841
 30
0.0
 10
119.7807024400448
 20
146.9864872669014
 30
0.0
 10
118.512659402602
 20
146.9441017830308
 30
0.0
 10
117.2891520449009
 20
146.9478375910024
 30
0.0
 10
116.1556535044869
 20
146.9864330614506
 30
0.0
 10
115.1695476935127
 20
147.0508724327417
 30
0.0
 10
114.3609198847256
 20
147.1243822400229
 30
0.0
 10
113.7643011896159
 20
147.1916959248347
 30
0.0
 10
113.4489099001593
 20
147.2296604761025
 30
0.0
 10
113.3388433313588
 20
147.2434595354347
 30
0.0
 10
113.3114239435482
 20
147.2469456093548
 30
0.0
 10
113.3045018927136
 20
147.2478248350489
 30
0.0
 10
113.3027336525374
 20
147.2480456096543
 30
0.0
 10
113.3022732733539
 20
147.2481008123663
 30
0.0
 10
113.3021491146833
 20
147.2481145521515
 30
0.0
 10
113.3021135601701
 20
147.2481179479851
 30
0.0
 10
113.3021024161284
 20
147.2481187763019
 30
0.0
 10
113.3020985028922
 20
147.2481189728956
 30
0.0
 10
113.3020969607439
 20
147.2481190168187
 30
0.0
 10
113.3020962936625
 20
147.2481190251353
 30
0.0
 10
113.3020959855976
 20
147.2481190259516
 30
0.0
 10
113.3020958386723
 20
147.2481190254262
 30
0.0
 10
113.3020957659446
 20
147.2481190250683
 30
0.0
 10
113.302095731235
 20
147.2481190246706
 30
0.0
 10
113.3020957095015
 20
147.2481190246954
 30
0.0
 10
113.3020956776464
 20
147.2481190224507
 30
0.0
 10
113.3020937283057
 20
147.2481192383967
 30
0.0
 10
113.3021206631685
 20
147.2481157572661
 30
0.0
 10
113.3021443623829
 20
147.248112694319
 30
0.0
  0
SPLINE
  5
9F
330
1F
100
AcDbEntity
  8
0
  6
Continuous
 62
     7
370
    15
100
AcDbSpline
210
0.0
220
0.0
230
1.0
 70
     8
 71
     3
 72
    20
 73
    16
 74
     0
 42
0.00000001
 43
0.00000001
 40
0.0
 40
0.0
 40
0.0
 40
0.0
 40
0.249999999999986
 40
0.249999999999986
 40
0.3749999999999789
 40
0.3749999999999789
 40
0.4374999999999789
 40
0.4374999999999789
 40
0.4999999999999789
 40
0.4999999999999789
 40
0.6249999999999835
 40
0.6249999999999835
 40
0.7499999999999879
 40
0.7499999999999879
 40
1.0
 40
1.0
 40
1.0
 40
1.0
 10
85.17365357631418
 20
79.63832344736774
 30
0.0
 10
85.19992579352758
 20
79.65764138845019
 30
0.0
 10
85.23060593578242
 20
79.67203009955198
 30
0.0
 10
85.30207680616435
 20
79.66512573771595
 30
0.0
 10
85.33010384320869
 20
79.65795973436754
 30
0.0
 10
85.38518743270619
 20
79.62826070766394
 30
0.0
 10
85.40607876125863
 20
79.6147870651026
 30
0.0
 10
85.45128740870409
 20
79.5795887995866
 30
0.0
 10
85.47569162109966
 20
79.55768057085933
 30
0.0
 10
85.54702393915109
 20
79.48555571086379
 30
0.0
 10
85.58892072397137
 20
79.43321516991374
 30
0.0
 10
85.66049668282724
 20
79.335731778013
 30
0.0
 10
85.69132467264454
 20
79.28897800813458
 30
0.0
 10
85.7744246054801
 20
79.15568479229546
 30
0.0
 10
85.81927951085042
 20
79.07304739438024
 30
0.0
 10
85.85939158630299
 20
78.99394049958947
 30
0.0
  0
SPLINE
  5
A0
330
1F
100
AcDbEntity
  8
0
  6
Continuous
 62
     7
370
    15
100
AcDbSpline
210
0.0
220
0.0
230
1.0
 70
     8
 71
     3
 72
    14
 73
    10
 74
     0
 42
0.00000001
 43
0.00000001
 40
0.0
 40
0.0
 40
0.0
 40
0.0
 40
0.25
 40
0.25
 40
0.5
 40
0.5
 40
0.75
 40
0.75
 40
1.0
 40
1.0
 40
1.0
 40
1.0
 10
84.88283934459817
 20
79.81413685750051
 30
0.0
 10
84.88283934459818
 20
79.77288992647615
 30
0.0
 10
84.89144906097943
 20
79.73598295419367
 30
0.0
 10
84.92253524054976
 20
79.67508289429428
 30
0.0
 10
84.94492479403382
 20
79.65090197475458
 30
0.0
 10
84.99966872520994
 20
79.61693438387132
 30
0.0
 10
85.03211896479513
 20
79.60701429990313
 30
0.0
 10
85.10212047952321
 20
79.60566309099829
 30
0.0
 10
85.14033097964574
 20
79.61382136769444
 30
0.0
 10
85.17365357631883
 20
79.63832344736254
 30
0.0
  0
LINE
  5
A1
330
1F
100
AcDbEntity
  8
0
  6
Continuous
 62
     7
370
    15
100
AcDbLine
 10
84.8828393446
 20
79.8141368575
 30
0.0
 11
84.8828393446
 21
140.8194763426
 31
0.0
  0
SPLINE
  5
A2
330
1F
100
AcDbEntity
  8
0
  6
Continuous
 62
     7
370
    15
100
AcDbSpline
210
0.0
220
0.0
230
1.0
 70
     8
 71
     3
 72
    10
 73
     6
 74
     0
 42
0.00000001
 43
0.00000001
 40
0.0
 40
0.0
 40
0.0
 40
0.0
 40
0.0592402688376383
 40
0.6438088530391344
 40
1.0
 40
1.0
 40
1.0
 40
1.0
 10
85.17365357631881
 20
140.9952897527743
 30
0.0
 10
85.16882131869761
 20
140.998538659406
 30
0.0
 10
85.11630551656287
 20
141.0338469875616
 30
0.0
 10
85.0173553188841
 20
141.0401012841202
 30
0.0
 10
84.96792679399276
 20
140.9849010464313
 30
0.0
 10
84.94921212924845
 20
140.964001091508
 30
0.0
  0
SPLINE
  5
A3
330
1F
100
AcDbEntity
  8
0
  6
Continuous
 62
     7
370
    15
100
AcDbSpline
210
0.0
220
0.0
230
1.0
 70
     8
 71
     3
 72
     8
 73
     4
 74
     0
 42
0.00000001
 43
0.00000001
 40
0.0
 40
0.0
 40
0.0
 40
0.0
 40
1.0
 40
1.0
 40
1.0
 40
1.0
 10
84.90647301353438
 20
140.927055843706
 30
0.0
 10
84.89112397489833
 20
140.8965457887101
 30
0.0
 10
84.88283934459817
 20
140.8602342331977
 30
0.0
 10
84.88283934459817
 20
140.8194763426363
 30
0.0
  0
SPLINE
  5
A4
330
1F
100
AcDbEntity
  8
0
  6
Continuous
 62
     7
370
    15
100
AcDbSpline
210
0.0
220
0.0
230
1.0
 70
     8
 71
     3
 72
    20
 73
    16
 74
     0
 42
0.00000001
 43
0.00000001
 40
0.0
 40
0.0
 40
0.0
 40
0.0
 40
0.2500000000000037
 40
0.2500000000000037
 40
0.3750000000000055
 40
0.3750000000000055
 40
0.5000000000000073
 40
0.5000000000000073
 40
0.5625000000000057
 40
0.5625000000000057
 40
0.625000000000004
 40
0.625000000000004
 40
0.7500000000000027
 40
0.7500000000000027
 40
1.0
 40
1.0
 40
1.0
 40
1.0
 10
85.8593915863006
 20
141.6396727005466
 30
0.0
 10
85.81939536847678
 20
141.5607942939891
 30
0.0
 10
85.77428174063911
 20
141.4776646472976
 30
0.0
 10
85.69102752627258
 20
141.3441759829467
 30
0.0
 10
85.66080819765207
 20
141.2983109270647
 30
0.0
 10
85.58871996251067
 20
141.2001193746598
 30
0.0
 10
85.54680264509956
 20
141.1478095551362
 30
0.0
 10
85.47555204054811
 20
141.0758036524017
 30
0.0
 10
85.45131622816879
 20
141.0540334401002
 30
0.0
 10
85.40571803798413
 20
141.0185587817712
 30
0.0
 10
85.38491554838443
 20
141.0051885975936
 30
0.0
 10
85.3299745499653
 20
140.9756186854584
 30
0.0
 10
85.3019055618785
 20
140.9684921631564
 30
0.0
 10
85.23140273181566
 20
140.9616177916737
 30
0.0
 10
85.19997864402478
 20
140.9759329507609
 30
0.0
 10
85.1736535763162
 20
140.9952897527714
 30
0.0
  0
SPLINE
  5
A5
330
1F
100
AcDbEntity
  8
0
  6
Continuous
 62
     7
370
    15
100
AcDbSpline
210
0.0
220
0.0
230
1.0
 70
     8
 71
     3
 72
    10
 73
     6
 74
     0
 42
0.00000001
 43
0.00000001
 40
0.0
 40
0.0
 40
0.0
 40
0.0
 40
0.4999999999999989
 40
0.4999999999999989
 40
1.0
 40
1.0
 40
1.0
 40
1.0
 10
86.53283934459819
 20
142.5650918018884
 30
0.0
 10
86.40795107384798
 20
142.4340955238169
 30
0.0
 10
86.28650095578753
 20
142.2903826871519
 30
0.0
 10
86.0569169808301
 20
141.9798123944627
 30
0.0
 10
85.94664200543411
 20
141.8117433213997
 30
0.0
 10
85.8593915863006
 20
141.6396727005466
 30
0.0
  0
SPLINE
  5
A6
330
1F
100
AcDbEntity
  8
0
  6
Continuous
 62
     7
370
    15
100
AcDbSpline
210
0.0
220
0.0
230
1.0
 70
     8
 71
     3
 72
     8
 73
     4
 74
     0
 42
0.00000001
 43
0.00000001
 40
0.0
 40
0.0
 40
0.0
 40
0.0
 40
1.0
 40
1.0
 40
1.0
 40
1.0
 10
86.78276446056391
 20
142.562638768633
 30
0.0
 10
86.69574643071554
 20
142.5631053334201
 30
0.0
 10
86.61279240433561
 20
142.5641453529962
 30
0.0
 10
86.53283934459587
 20
142.5650918018885
 30
0.0
  0
SPLINE
  5
A7
330
1F
100
AcDbEntity
  8
0
  6
Continuous
 62
     7
370
    15
100
AcDbSpline
210
0.0
220
0.0
230
1.0
 70
     8
 71
     3
 72
     8
 73
     4
 74
     0
 42
0.00000001
 43
0.00000001
 40
0.0
 40
0.0
 40
0.0
 40
0.0
 40
1.0
 40
1.0
 40
1.0
 40
1.0
 10
86.53283934459587
 20
78.06852139824835
 30
0.0
 10
86.61279240433615
 20
78.06946784714063
 30
0.0
 10
86.69574643071662
 20
78.07050786671675
 30
0.0
 10
86.7827644605656
 20
78.07097443150381
 30
0.0
  0
SPLINE
  5
A8
330
1F
100
AcDbEntity
  8
0
  6
Continuous
 62
     7
370
    15
100
AcDbSpline
210
0.0
220
0.0
230
1.0
 70
     8
 71
     3
 72
    10
 73
     6
 74
     0
 42
0.00000001
 43
0.00000001
 40
0.0
 40
0.0
 40
0.0
 40
0.0
 40
0.4999999999999989
 40
0.4999999999999989
 40
1.0
 40
1.0
 40
1.0
 40
1.0
 10
85.85939158629967
 20
78.99394049959203
 30
0.0
 10
85.94664200543315
 20
78.82186987873865
 30
0.0
 10
86.0569169808293
 20
78.65380080567522
 30
0.0
 10
86.28650095578713
 20
78.34323051298541
 30
0.0
 10
86.40795107384777
 20
78.19951767632014
 30
0.0
 10
86.53283934459819
 20
78.06852139824844
 30
0.0
  0
SPLINE
  5
A9
330
1F
100
AcDbEntity
  8
0
  6
Continuous
 62
     7
370
    15
100
AcDbSpline
210
0.0
220
0.0
230
1.0
 70
     8
 71
     3
 72
     8
 73
     4
 74
     0
 42
0.00000001
 43
0.00000001
 40
0.0
 40
0.0
 40
0.0
 40
0.0
 40
1.0
 40
1.0
 40
1.0
 40
1.0
 10
151.5208103236768
 20
149.2677693609554
 30
0.0
 10
151.9777366774763
 20
148.2518513912811
 30
0.0
 10
152.4289423192793
 20
147.2330555621899
 30
0.0
 10
152.8728393445982
 20
146.2122541062062
 30
0.0
  0
LINE
  5
AA
330
1F
100
AcDbEntity
  8
0
  6
Continuous
 62
     7
370
    15
100
AcDbLine
 10
152.8728393446
 20
146.2122541062
 30
0.0
 11
152.8728393446
 21
145.0310417926
 31
0.0
  0
SPLINE
  5
AB
330
1F
100
AcDbEntity
  8
0
  6
Continuous
 62
     7
370
    15
100
AcDbSpline
210
0.0
220
0.0
230
1.0
 70
     8
 71
     3
 72
    14
 73
    10
 74
     0
 42
0.00000001
 43
0.00000001
 40
0.0
 40
0.0
 40
0.0
 40
0.0
 40
0.25
 40
0.25
 40
0.5
 40
0.5
 40
0.75
 40
0.75
 40
1.0
 40
1.0
 40
1.0
 40
1.0
 10
152.8728393445982
 20
145.0310417925655
 30
0.0
 10
152.8728393445982
 20
144.9071749157763
 30
0.0
 10
152.8886984722257
 20
144.7829152389388
 30
0.0
 10
152.9520601177456
 20
144.5453068765329
 30
0.0
 10
153.000649825795
 20
144.4285264917804
 30
0.0
 10
153.1329354305699
 20
144.2197239631714
 30
0.0
 10
153.2182602218304
 20
144.1252132595788
 30
0.0
 10
153.4251514701366
 20
143.9872564587765
 30
0.0
 10
153.5491194160266
 20
143.9453380131409
 30
0.0
 10
153.6728393445982
 20
143.9453380131409
 30
0.0
  0
LINE
  5
AC
330
1F
100
AcDbEntity
  8
0
  6
Continuous
 62
     7
370
    15
100
AcDbLine
 10
153.6728393446
 20
143.9453380131
 30
0.0
 11
155.8928393446
 21
143.9453380131
 31
0.0
  0
SPLINE
  5
AD
330
1F
100
AcDbEntity
  8
0
  6
Continuous
 62
     7
370
    15
100
AcDbSpline
210
0.0
220
0.0
230
1.0
 70
     8
 71
     3
 72
    12
 73
     8
 74
     0
 42
0.00000001
 43
0.00000001
 40
0.0
 40
0.0
 40
0.0
 40
0.0
 40
0.250000000000002
 40
0.250000000000002
 40
0.500000000000004
 40
0.500000000000004
 40
1.0
 40
1.0
 40
1.0
 40
1.0
 10
155.8928393445982
 20
143.9453380131409
 30
0.0
 10
156.0165402945781
 20
143.9453380131409
 30
0.0
 10
156.1406369068484
 20
143.9873316248735
 30
0.0
 10
156.3472920699353
 20
144.1251269515179
 30
0.0
 10
156.4323328366623
 20
144.2191005499827
 30
0.0
 10
156.6318114051358
 20
144.5338887562036
 30
0.0
 10
156.6928393445982
 20
144.7841277484312
 30
0.0
 10
156.6928393445982
 20
145.0310417925655
 30
0.0
  0
LINE
  5
AE
330
1F
100
AcDbEntity
  8
0
  6
Continuous
 62
     7
370
    15
100
AcDbLine
 10
156.6928393446
 20
145.0310417926
 30
0.0
 11
156.6928393446
 21
146.2122541062
 31
0.0
  0
SPLINE
  5
AF
330
1F
100
AcDbEntity
  8
0
  6
Continuous
 62
     7
370
    15
100
AcDbSpline
210
0.0
220
0.0
230
1.0
 70
     8
 71
     3
 72
     8
 73
     4
 74
     0
 42
0.00000001
 43
0.00000001
 40
0.0
 40
0.0
 40
0.0
 40
0.0
 40
1.0
 40
1.0
 40
1.0
 40
1.0
 10
156.6928393445982
 20
146.2122541062062
 30
0.0
 10
157.1369893556237
 20
147.2336373371579
 30
0.0
 10
157.5880636658816
 20
148.2521218739262
 30
0.0
 10
158.0448683655196
 20
149.2677693609554
 30
0.0
  0
LINE
  5
B0
330
1F
100
AcDbEntity
  8
0
  6
Continuous
 62
     7
370
    15
100
AcDbLine
 10
158.0448683655
 20
149.267769361
 30
0.0
 11
162.7328393446
 21
149.267769361
 31
0.0
  0
SPLINE
  5
B1
330
1F
100
AcDbEntity
  8
0
  6
Continuous
 62
     7
370
    15
100
AcDbSpline
210
0.0
220
0.0
230
1.0
 70
     8
 71
     3
 72
    16
 73
    12
 74
     0
 42
0.00000001
 43
0.00000001
 40
0.0
 40
0.0
 40
0.0
 40
0.0
 40
0.1249999999999978
 40
0.1249999999999978
 40
0.2499999999999955
 40
0.2499999999999955
 40
0.499999999999997
 40
0.499999999999997
 40
0.7499999999999984
 40
0.7499999999999984
 40
1.0
 40
1.0
 40
1.0
 40
1.0
 10
162.7328393445982
 20
149.2677693609554
 30
0.0
 10
162.8084770510094
 20
149.2677693609554
 30
0.0
 10
162.8847927154276
 20
149.2564243608204
 30
0.0
 10
163.0292034533195
 20
149.2137718101819
 30
0.0
 10
163.0976499024279
 20
149.1828374854991
 30
0.0
 10
163.2925811550411
 20
149.0635811137315
 30
0.0
 10
163.400422328822
 20
148.9534291001109
 30
0.0
 10
163.569135077034
 20
148.7052930144528
 30
0.0
 10
163.6314994897575
 20
148.5649506904491
 30
0.0
 10
163.7128034142659
 20
148.2766789989605
 30
0.0
 10
163.7328393445982
 20
148.1258740259807
 30
0.0
 10
163.7328393445982
 20
147.9755041346354
 30
0.0
  0
LINE
  5
B2
330
1F
100
AcDbEntity
  8
0
  6
Continuous
 62
     7
370
    15
100
AcDbLine
 10
163.7328393446
 20
147.9755041346
 30
0.0
 11
163.7328393446
 21
141.6668066001
 31
0.0
  0
SPLINE
  5
B3
330
1F
100
AcDbEntity
  8
0
  6
Continuous
 62
     7
370
    15
100
AcDbSpline
210
0.0
220
0.0
230
1.0
 70
     8
 71
     3
 72
     8
 73
     4
 74
     0
 42
0.00000001
 43
0.00000001
 40
0.0
 40
0.0
 40
0.0
 40
0.0
 40
1.0
 40
1.0
 40
1.0
 40
1.0
 10
152.8728393445982
 20
156.9140774607733
 30
0.0
 10
152.4225311089136
 20
157.7117925858869
 30
0.0
 10
151.97183729239
 20
158.5092908855441
 30
0.0
 10
151.5208103236768
 20
159.306601455732
 30
0.0
  0
LINE
  5
B4
330
1F
100
AcDbEntity
  8
0
  6
Continuous
 62
     7
370
    15
100
AcDbLine
 10
152.8728393446
 20
146.2122541062
 30
0.0
 11
152.8728393446
 21
156.9140774608
 31
0.0
  0
SPLINE
  5
B5
330
1F
100
AcDbEntity
  8
0
  6
Continuous
 62
     7
370
    15
100
AcDbSpline
210
0.0
220
0.0
230
1.0
 70
     8
 71
     3
 72
    12
 73
     8
 74
     0
 42
0.00000001
 43
0.00000001
 40
0.0
 40
0.0
 40
0.0
 40
0.0
 40
0.4999999999999953
 40
0.4999999999999953
 40
0.7499999999999977
 40
0.7499999999999977
 40
1.0
 40
1.0
 40
1.0
 40
1.0
 10
163.7328393445982
 20
158.2855464209142
 30
0.0
 10
163.7328393445982
 20
158.5508158536807
 30
0.0
 10
163.6282326011117
 20
158.8133309593331
 30
0.0
 10
163.3515642493664
 20
159.0988685653703
 30
0.0
 10
163.2411989900144
 20
159.1751901822317
 30
0.0
 10
162.9971269413987
 20
159.2795323470719
 30
0.0
 10
162.8653744800669
 20
159.306601455732
 30
0.0
 10
162.7328393445982
 20
159.306601455732
 30
0.0
  0
LINE
  5
B6
330
1F
100
AcDbEntity
  8
0
  6
Continuous
 62
     7
370
    15
100
AcDbLine
 10
163.7328393446
 20
147.9755041346
 30
0.0
 11
163.7328393446
 21
158.2855464209
 31
0.0
  0
SPLINE
  5
B7
330
1F
100
AcDbEntity
  8
0
  6
Continuous
 62
     7
370
    15
100
AcDbSpline
210
0.0
220
0.0
230
1.0
 70
     8
 71
     3
 72
     8
 73
     4
 74
     0
 42
0.00000001
 43
0.00000001
 40
0.0
 40
0.0
 40
0.0
 40
0.0
 40
1.0
 40
1.0
 40
1.0
 40
1.0
 10
158.0448683655196
 20
159.306601455732
 30
0.0
 10
157.5938413968063
 20
158.5092908855441
 30
0.0
 10
157.1431475802827
 20
157.7117925858869
 30
0.0
 10
156.6928393445982
 20
156.9140774607733
 30
0.0
  0
LINE
  5
B8
330
1F
100
AcDbEntity
  8
0
  6
Continuous
 62
     7
370
    15
100
AcDbLine
 10
158.0448683655
 20
149.267769361
 30
0.0
 11
158.0448683655
 21
159.3066014557
 31
0.0
  0
LINE
  5
B9
330
1F
100
AcDbEntity
  8
0
  6
Continuous
 62
     7
370
    15
100
AcDbLine
 10
156.6928393446
 20
146.2122541062
 30
0.0
 11
156.6928393446
 21
156.9140774608
 31
0.0
  0
SPLINE
  5
BA
330
1F
100
AcDbEntity
  8
0
  6
Continuous
 62
     7
370
    15
100
AcDbSpline
210
0.0
220
0.0
230
1.0
 70
     8
 71
     3
 72
    10
 73
     6
 74
     0
 42
0.00000001
 43
0.00000001
 40
0.0
 40
0.0
 40
0.0
 40
0.0
 40
0.5
 40
0.5
 40
1.0
 40
1.0
 40
1.0
 40
1.0
 10
153.6728393445982
 20
155.1910823602409
 30
0.0
 10
153.4603030307418
 20
155.1910823602409
 30
0.0
 10
153.2503668590878
 20
155.2824949468711
 30
0.0
 10
152.9566597180766
 20
155.5872398127753
 30
0.0
 10
152.8728393445982
 20
155.7993947826839
 30
0.0
 10
152.8728393445982
 20
156.0103578409164
 30
0.0
  0
SPLINE
  5
BB
330
1F
100
AcDbEntity
  8
0
  6
Continuous
 62
     7
370
    15
100
AcDbSpline
210
0.0
220
0.0
230
1.0
 70
     8
 71
     3
 72
    14
 73
    10
 74
     0
 42
0.00000001
 43
0.00000001
 40
0.0
 40
0.0
 40
0.0
 40
0.0
 40
0.25
 40
0.25
 40
0.5
 40
0.5
 40
0.75
 40
0.75
 40
1.0
 40
1.0
 40
1.0
 40
1.0
 10
156.6928393445982
 20
156.0103578409164
 30
0.0
 10
156.6928393445982
 20
155.9040011471641
 30
0.0
 10
156.6724517884569
 20
155.798160659404
 30
0.0
 10
156.5938174429954
 20
155.6015957458675
 30
0.0
 10
156.5350860833568
 20
155.5104250035804
 30
0.0
 10
156.3884771777542
 20
155.3585139145488
 30
0.0
 10
156.2990718577277
 20
155.2964450777292
 30
0.0
 10
156.1051811251273
 20
155.2131770299705
 30
0.0
 10
155.9986761352375
 20
155.1910823602408
 30
0.0
 10
155.8928393445982
 20
155.1910823602408
 30
0.0
  0
LINE
  5
BC
330
1F
100
AcDbEntity
  8
0
  6
Continuous
 62
     7
370
    15
100
AcDbLine
 10
162.7328393446
 20
159.3066014557
 30
0.0
 11
158.0448683655
 21
159.3066014557
 31
0.0
  0
LINE
  5
BD
330
1F
100
AcDbEntity
  8
0
  6
Continuous
 62
     7
370
    15
100
AcDbLine
 10
155.8928393446
 20
155.1910823602
 30
0.0
 11
153.6728393446
 21
155.1910823602
 31
0.0
  0
ARC
  5
BE
330
1F
100
AcDbEntity
  8
0
  6
Continuous
 62
     7
370
    15
100
AcDbCircle
 10
143.7822262713
 20
142.828160933
 30
0.0
 40
11.50331579837914
100
AcDbArc
 50
77.8950798748
 51
101.9531968935
  0
LINE
  5
BF
330
1F
100
AcDbEntity
  8
0
  6
Continuous
 62
     7
370
    15
100
AcDbLine
 10
86.5328393446
 20
78.0668066001
 30
0.0
 11
86.5328393446
 21
78.0685213982
 31
0.0
  0
LINE
  5
C0
330
1F
100
AcDbEntity
  8
0
  6
Continuous
 62
     7
370
    15
100
AcDbLine
 10
86.5328393446
 20
142.5668066001
 30
0.0
 11
86.5328393446
 21
142.5650918019
 31
0.0
  0
SPLINE
  5
C1
330
1F
100
AcDbEntity
  8
0
  6
Continuous
 62
     7
370
    15
100
AcDbSpline
210
0.0
220
0.0
230
1.0
 70
     8
 71
     3
 72
    39
 73
    35
 74
     0
 42
0.00000001
 43
0.00000001
 40
-0.0931102473292315
 40
-0.0619213968680419
 40
-0.0306708306483251
 40
0.0
 40
0.0306856150674288
 40
0.0619482236497473
 40
0.0931389682124172
 40
0.1242353660049139
 40
0.1553791717802334
 40
0.1869236166023545
 40
0.2186032199231898
 40
0.2499252161707241
 40
0.2812618749393749
 40
0.3130058611570796
 40
0.3446066213876529
 40
0.3758050985221023
 40
0.4068941952420372
 40
0.4380461897407494
 40
0.4692609185491762
 40
0.5000121821429327
 40
0.5307427550048456
 40
0.5620031531144879
 40
0.5931559557625304
 40
0.6242689070960531
 40
0.6554398400968297
 40
0.6870342707185796
 40
0.7187291690322444
 40
0.7500762020617541
 40
0.7813835916570304
 40
0.8131037368899903
 40
0.8446515541926864
 40
0.8758210372251176
 40
0.9068897526707685
 40
0.9380786031319581
 40
0.9693291693516749
 40
1.0
 40
1.030685615067429
 40
1.061948223649747
 40
1.093138968212417
 10
198.030619574616
 20
106.4878372944248
 30
0.0
 10
197.2827153771932
 20
106.412142925268
 30
0.0
 10
196.5347415127026
 20
106.4879941096173
 30
0.0
 10
195.8163017769682
 20
106.7158715799549
 30
0.0
 10
195.1521834685061
 20
107.0741246840658
 30
0.0
 10
194.5756763844537
 20
107.5573811657571
 30
0.0
 10
194.1021575292842
 20
108.1455411647082
 30
0.0
 10
193.7518410214729
 20
108.8213067416041
 30
0.0
 10
193.5294012359616
 20
109.5533049203334
 30
0.0
 10
193.4558328274098
 20
110.3150920432431
 30
0.0
 10
193.5297571328179
 20
111.0773456875971
 30
0.0
 10
193.7522270032071
 20
111.8104487029555
 30
0.0
 10
194.1025597626906
 20
112.4877998012097
 30
0.0
 10
194.5762919407722
 20
113.0768764614281
 30
0.0
 10
195.1525437829296
 20
113.5605014906181
 30
0.0
 10
195.8158335258729
 20
113.9187573992108
 30
0.0
 10
196.5343279909775
 20
114.1460687333613
 30
0.0
 10
197.2829570298989
 20
114.2213589306756
 30
0.0
 10
198.031941141347
 20
114.1459106902245
 30
0.0
 10
198.7505520399836
 20
113.9182666358011
 30
0.0
 10
199.4143026222876
 20
113.5596928875386
 30
0.0
 10
199.9903767142698
 20
113.0758601541299
 30
0.0
 10
200.4638457526874
 20
112.4866988581283
 30
0.0
 10
200.8137985685807
 20
111.809889768445
 30
0.0
 10
201.03594061579
 20
111.0770802630427
 30
0.0
 10
201.1098370887352
 20
110.3152647659362
 30
0.0
 10
201.0362968136525
 20
109.5531772785158
 30
0.0
 10
200.8136502305231
 20
108.8209830932115
 30
0.0
 10
200.4630575069773
 20
108.1447376504056
 30
0.0
 10
199.989338495279
 20
107.5567023269548
 30
0.0
 10
199.4127074322755
 20
107.0736565122086
 30
0.0
 10
198.7488192783898
 20
106.715699143441
 30
0.0
 10
198.030619574616
 20
106.4878372944248
 30
0.0
 10
197.2827153771932
 20
106.412142925268
 30
0.0
 10
196.5347415127026
 20
106.4879941096173
 30
0.0
  0
LINE
  5
C2
330
1F
100
AcDbEntity
  8
0
  6
Continuous
 62
     7
370
    15
100
AcDbLine
 10
201.9157978215
 20
94.3168066001
 30
0.0
 11
201.9157978215
 21
126.3168066001
 31
0.0
  0
LINE
  5
C3
330
1F
100
AcDbEntity
  8
0
  6
Continuous
 62
     7
370
    15
100
AcDbLine
 10
174.4013662382
 20
126.1601493754
 30
0.0
 11
174.5923446592
 21
126.1404174157
 31
0.0
  0
SPLINE
  5
C4
330
1F
100
AcDbEntity
  8
0
  6
Continuous
 62
     7
370
    15
100
AcDbSpline
210
0.0
220
0.0
230
1.0
 70
     8
 71
     3
 72
    37
 73
    33
 74
     0
 42
0.00000001
 43
0.00000001
 40
0.0
 40
0.0
 40
0.0
 40
0.0
 40
0.0251317373170033
 40
0.0473728807275357
 40
0.0677699174412443
 40
0.1091979698190503
 40
0.1302579031238018
 40
0.1519296485844875
 40
0.1958620350880876
 40
0.2181430073780075
 40
0.2428499203122014
 40
0.2929229362111077
 40
0.3183150073273751
 40
0.3466093306246798
 40
0.4040139222779765
 40
0.4331689483197397
 40
0.4640584902499751
 40
0.5268292558838291
 40
0.5587794483355771
 40
0.5905243101487526
 40
0.6224940480519989
 40
0.6551907413969592
 40
0.6881481156267674
 40
0.7190467111909236
 40
0.7820971640480436
 40
0.8143938879246996
 40
0.8374106400369639
 40
0.8841630796393306
 40
0.9079764644651092
 40
0.9309989822618239
 40
0.9779924738159284
 40
0.9999999999999999
 40
0.9999999999999999
 40
0.9999999999999999
 40
0.9999999999999999
 10
180.2232683820399
 20
126.3152902875239
 30
0.0
 10
180.2248593241412
 20
126.3155411259575
 30
0.0
 10
180.2278582218881
 20
126.3160139519721
 30
0.0
 10
180.1901695430569
 20
126.3100616656993
 30
0.0
 10
180.1257827572528
 20
126.3000135994306
 30
0.0
 10
180.0276685766139
 20
126.2849890326108
 30
0.0
 10
179.8986489240038
 20
126.266010112152
 30
0.0
 10
179.745968336209
 20
126.244226011671
 30
0.0
 10
179.5625272232866
 20
126.2194101553701
 30
0.0
 10
179.3483713124318
 20
126.1926137973139
 30
0.0
 10
179.1028555181767
 20
126.1637275398195
 30
0.0
 10
178.8244022389481
 20
126.1344827125872
 30
0.0
 10
178.5165472175562
 20
126.1068578826305
 30
0.0
 10
178.1738577709913
 20
126.0799129204104
 30
0.0
 10
177.8010079810532
 20
126.0574990010958
 30
0.0
 10
177.4089807000306
 20
126.0420095757657
 30
0.0
 10
176.9933165614102
 20
126.0315493519939
 30
0.0
 10
176.5624628918185
 20
126.0305755686026
 30
0.0
 10
176.1332506684975
 20
126.0395806683172
 30
0.0
 10
175.8126166637844
 20
126.0512231509389
 30
0.0
 10
175.4959906114776
 20
126.0674800828349
 30
0.0
 10
175.184463420919
 20
126.0880681810743
 30
0.0
 10
174.8880116172249
 20
126.1119052691661
 30
0.0
 10
174.5170099503998
 20
126.1465917012819
 30
0.0
 10
174.1791185487241
 20
126.1845182151011
 30
0.0
 10
173.904893531258
 20
126.2193360339042
 30
0.0
 10
173.6926168270231
 20
126.2479072921596
 30
0.0
 10
173.5285246769725
 20
126.2715254046918
 30
0.0
 10
173.4015952153889
 20
126.2905684435642
 30
0.0
 10
173.3013736786281
 20
126.3059578091686
 30
0.0
 10
173.2405977524805
 20
126.3155760828764
 30
0.0
 10
173.2354223949127
 20
126.3163970219252
 30
0.0
 10
173.2337717407496
 20
126.3166588562894
 30
0.0
  0
SPLINE
  5
C5
330
1F
100
AcDbEntity
  8
0
  6
Continuous
 62
     7
370
    15
100
AcDbSpline
210
0.0
220
0.0
230
1.0
 70
     8
 71
     3
 72
     9
 73
     5
 74
     0
 42
0.00000001
 43
0.00000001
 40
0.0
 40
0.0
 40
0.0
 40
0.0
 40
0.3464450194772207
 40
1.0
 40
1.0
 40
1.0
 40
1.0
 10
174.1507643365861
 20
126.1891927149374
 30
0.0
 10
174.1775793968697
 20
126.1858437307368
 30
0.0
 10
174.2549800196986
 20
126.1761770188134
 30
0.0
 10
174.3435082030324
 20
126.166484179064
 30
0.0
 10
174.4013662381669
 20
126.1601493753703
 30
0.0
  0
SPLINE
  5
C6
330
1F
100
AcDbEntity
  8
0
  6
Continuous
 62
     7
370
    15
100
AcDbSpline
210
0.0
220
0.0
230
1.0
 70
     8
 71
     3
 72
    58
 73
    54
 74
     0
 42
0.00000001
 43
0.00000001
 40
-0.0312499999999998
 40
-0.0312499999999998
 40
0.0
 40
0.0
 40
0.062499999999999
 40
0.062499999999999
 40
0.093749999999999
 40
0.093749999999999
 40
0.124999999999999
 40
0.124999999999999
 40
0.1874999999999999
 40
0.1874999999999999
 40
0.2500000000000009
 40
0.2500000000000009
 40
0.2812500000000014
 40
0.2812500000000014
 40
0.3125000000000019
 40
0.3125000000000019
 40
0.3437500000000024
 40
0.3437500000000024
 40
0.3750000000000029
 40
0.3750000000000029
 40
0.4062500000000034
 40
0.4062500000000034
 40
0.4375000000000039
 40
0.4375000000000039
 40
0.4687500000000044
 40
0.4687500000000044
 40
0.500000000000005
 40
0.500000000000005
 40
0.5625000000000052
 40
0.5625000000000052
 40
0.5937500000000049
 40
0.5937500000000049
 40
0.6250000000000044
 40
0.6250000000000044
 40
0.6562500000000041
 40
0.6562500000000041
 40
0.6875000000000037
 40
0.6875000000000037
 40
0.7500000000000029
 40
0.7500000000000029
 40
0.8125000000000022
 40
0.8125000000000022
 40
0.8437500000000018
 40
0.8437500000000018
 40
0.8750000000000014
 40
0.8750000000000014
 40
0.906250000000001
 40
0.906250000000001
 40
0.9375000000000007
 40
0.9375000000000007
 40
0.9687500000000002
 40
0.9687500000000002
 40
1.0
 40
1.0
 40
1.062499999999999
 40
1.062499999999999
 10
174.2317287592853
 20
112.4194173231936
 30
0.0
 10
174.740641199858
 20
112.8120632950706
 30
0.0
 10
175.1186915605877
 20
113.005464591467
 30
0.0
 10
175.7302323452373
 20
113.2011756971094
 30
0.0
 10
175.9371328307332
 20
113.2488980783303
 30
0.0
 10
176.3567491287437
 20
113.3111516344848
 30
0.0
 10
176.5708759110087
 20
113.3256335660687
 30
0.0
 10
177.2125870124341
 20
113.3173053764018
 30
0.0
 10
177.6320954939274
 20
113.2447022185752
 30
0.0
 10
178.4396737894202
 20
112.9625287949654
 30
0.0
 10
178.810565869604
 20
112.7599549496888
 30
0.0
 10
179.3073832230254
 20
112.3531060840695
 30
0.0
 10
179.4573334579436
 20
112.204368984349
 30
0.0
 10
179.7247420304136
 20
111.8794359144028
 30
0.0
 10
179.8429011883173
 20
111.7020482777504
 30
0.0
 10
180.0380254015995
 20
111.3199165244414
 30
0.0
 10
180.1124001889615
 20
111.1207960242026
 30
0.0
 10
180.2118707641641
 20
110.7053639171152
 30
0.0
 10
180.2358655244629
 20
110.4894032063214
 30
0.0
 10
180.2291862329879
 20
110.0644287382649
 30
0.0
 10
180.1984461512565
 20
109.8494190081837
 30
0.0
 10
180.0862974947483
 20
109.4370328737791
 30
0.0
 10
180.0059476828442
 20
109.2398985476431
 30
0.0
 10
179.7994963533239
 20
108.8626242672581
 30
0.0
 10
179.6767139112519
 20
108.6885874723058
 30
0.0
 10
179.3974629962658
 20
108.367264598265
 30
0.0
 10
179.2398434877965
 20
108.2195230937133
 30
0.0
 10
178.7363803243144
 20
107.8287936189647
 30
0.0
 10
178.3498541423401
 20
107.6298277373879
 30
0.0
 10
177.7433721644852
 20
107.4346019441894
 30
0.0
 10
177.5343039914568
 20
107.3857695810842
 30
0.0
 10
177.1103702859699
 20
107.3224784872945
 30
0.0
 10
176.8982171111696
 20
107.3082029386479
 30
0.0
 10
176.4735505016236
 20
107.3131852810519
 30
0.0
 10
176.2597763860502
 20
107.3326733170189
 30
0.0
 10
175.8375193265794
 20
107.4061937561068
 30
0.0
 10
175.6320493803769
 20
107.4594759390319
 30
0.0
 10
175.032410703127
 20
107.6685534841661
 30
0.0
 10
174.6501521872775
 20
107.8777120501528
 30
0.0
 10
173.9975684417248
 20
108.4121366520324
 30
0.0
 10
173.716208028609
 20
108.7471119407252
 30
0.0
 10
173.4266850421184
 20
109.316343751169
 30
0.0
 10
173.35082197587
 20
109.5206344381165
 30
0.0
 10
173.2529813036829
 20
109.9342267135925
 30
0.0
 10
173.2293784796904
 20
110.1464514168886
 30
0.0
 10
173.2371154247092
 20
110.5781372187555
 30
0.0
 10
173.2681238753033
 20
110.78900106582
 30
0.0
 10
173.3811157483247
 20
111.2013931303692
 30
0.0
 10
173.4637701815592
 20
111.4022263458604
 30
0.0
 10
173.6692317471774
 20
111.7753913113616
 30
0.0
 10
173.7942395427693
 20
111.9520553127359
 30
0.0
 10
174.0753522130508
 20
112.2735567526267
 30
0.0
 10
174.2317287592853
 20
112.4194173231936
 30
0.0
 10
174.740641199858
 20
112.8120632950706
 30
0.0
  0
SPLINE
  5
C7
330
1F
100
AcDbEntity
  8
0
  6
Continuous
 62
     7
370
    15
100
AcDbSpline
210
0.0
220
0.0
230
1.0
 70
     8
 71
     3
 72
     9
 73
     5
 74
     0
 42
0.00000001
 43
0.00000001
 40
0.0
 40
0.0
 40
0.0
 40
0.0
 40
0.8911173645986096
 40
1.0
 40
1.0
 40
1.0
 40
1.0
 10
174.401366238471
 20
94.47346382479958
 30
0.0
 10
174.3294169748245
 20
94.46565277697042
 30
0.0
 10
174.2486764725015
 20
94.45688732346284
 30
0.0
 10
174.1808252695142
 20
94.44829045873942
 30
0.0
 10
174.1734374517178
 20
94.44735440945213
 30
0.0
  0
SPLINE
  5
C8
330
1F
100
AcDbEntity
  8
0
  6
Continuous
 62
     7
370
    15
100
AcDbSpline
210
0.0
220
0.0
230
1.0
 70
     8
 71
     3
 72
    39
 73
    35
 74
     0
 42
0.00000001
 43
0.00000001
 40
0.0
 40
0.0
 40
0.0
 40
0.0
 40
0.0073548748022691
 40
0.0302069816342672
 40
0.050645180896631
 40
0.0921837666616768
 40
0.1133172922718233
 40
0.1345512863631237
 40
0.1776065331299071
 40
0.199448587323996
 40
0.2234438886943224
 40
0.2720714035444556
 40
0.2967273404786672
 40
0.3243192663365317
 40
0.3802821684946787
 40
0.4086932008979553
 40
0.439190414252793
 40
0.5011443059730819
 40
0.5326651512392976
 40
0.5643637983364892
 40
0.5962835925282703
 40
0.6289127703121071
 40
0.6617936472317492
 40
0.6930298603733763
 40
0.7245065330845776
 40
0.7567931442254768
 40
0.7893859654179766
 40
0.8132580700255932
 40
0.8617439508450463
 40
0.8864391636806184
 40
0.910317707110482
 40
0.9590880392130791
 40
0.9840843179895392
 40
1.0
 40
1.0
 40
1.0
 40
1.0
 10
173.2385081939299
 20
94.31770311506362
 30
0.0
 10
173.2365915314411
 20
94.31740009659521
 30
0.0
 10
173.2287196654805
 20
94.31615557869978
 30
0.0
 10
173.2492940733374
 20
94.31941666532515
 30
0.0
 10
173.2932523215032
 20
94.32633832848829
 30
0.0
 10
173.3746122285115
 20
94.33898450105269
 30
0.0
 10
173.4869158640002
 20
94.35584822779734
 30
0.0
 10
173.621913938187
 20
94.37559735262408
 30
0.0
 10
173.7873107109432
 20
94.39872515852372
 30
0.0
 10
173.9833510973827
 20
94.42432751592466
 30
0.0
 10
174.2091394244486
 20
94.45228063439839
 30
0.0
 10
174.4675569894268
 20
94.48130681763263
 30
0.0
 10
174.7561202297398
 20
94.50962851066028
 30
0.0
 10
175.079740432986
 20
94.53804317949424
 30
0.0
 10
175.4349069541838
 20
94.56306993293981
 30
0.0
 10
175.8123165580698
 20
94.5822571866932
 30
0.0
 10
176.2169945340644
 20
94.59724225691119
 30
0.0
 10
176.6409739238648
 20
94.6034930545173
 30
0.0
 10
177.0680797405936
 20
94.59993609833865
 30
0.0
 10
177.3905436065717
 20
94.59228562998037
 30
0.0
 10
177.7121551358966
 20
94.57973159047748
 30
0.0
 10
178.0306604283352
 20
94.56247650026923
 30
0.0
 10
178.3373134855658
 20
94.54131749572376
 30
0.0
 10
178.6284631421279
 20
94.51720730982632
 30
0.0
 10
178.9038446349682
 20
94.49088560048368
 30
0.0
 10
179.1660074918768
 20
94.46265180099681
 30
0.0
 10
179.3885991655978
 20
94.43616611424439
 30
0.0
 10
179.628934508356
 20
94.40548429162111
 30
0.0
 10
179.8216771877369
 20
94.37880001173625
 30
0.0
 10
179.9771669377711
 20
94.35610439827022
 30
0.0
 10
180.1067105822838
 20
94.33661523536935
 30
0.0
 10
180.1923631719499
 20
94.32321528447187
 30
0.0
 10
180.2298557940978
 20
94.31728044297078
 30
0.0
 10
180.2307698027592
 20
94.31713496185147
 30
0.0
 10
180.2311253728891
 20
94.31707836639164
 30
0.0
  0
LINE
  5
C9
330
1F
100
AcDbEntity
  8
0
  6
Continuous
 62
     7
370
    15
100
AcDbLine
 10
174.5195989778
 20
94.4858635039
 30
0.0
 11
174.4013662385
 21
94.4734638248
 31
0.0
  0
CIRCLE
  5
CA
330
1F
100
AcDbEntity
  8
0
  6
Continuous
 62
     7
370
    15
100
AcDbCircle
 10
176.7328393446
 20
110.3168066001
 30
0.0
 40
2.499999999999986
  0
LINE
  5
CB
330
1F
100
AcDbEntity
  8
0
  6
Continuous
 62
     7
370
    15
100
AcDbLine
 10
214.7828393446
 20
101.5909471217
 30
0.0
 11
214.7828393446
 21
119.0426660785
 31
0.0
  0
CIRCLE
  5
CC
330
1F
100
AcDbEntity
  8
0
  6
HIDDEN
 62
     7
370
     0
100
AcDbCircle
 10
197.2828393446
 20
110.3168066001
 30
0.0
 40
4.000000000000015
  0
CIRCLE
  5
CD
330
1F
100
AcDbEntity
  8
0
  6
HIDDEN
 62
     7
370
     0
100
AcDbCircle
 10
197.2828393446
 20
110.3168066001
 30
0.0
 40
1.850000000000014
  0
CIRCLE
  5
CE
330
1F
100
AcDbEntity
  8
0
  6
HIDDEN
 62
     7
370
     0
100
AcDbCircle
 10
197.2828393446
 20
110.3168066001
 30
0.0
 40
2.750000000000006
  0
LWPOLYLINE
  5
CF
330
1F
100
AcDbEntity
  8
0
  6
HIDDEN
 62
     7
370
     0
100
AcDbPolyline
 90
       18
 70
   128
 43
0.0
 10
209.2228370342
 20
105.9878361996
 10
209.2215809551
 20
106.3995764641
 10
209.2282144795
 20
106.6512220365
 10
209.2418417132
 20
106.7087867878
 10
209.2606222229
 20
106.5644962795
 10
209.2820195965
 20
106.2378377442
 10
209.3031440003
 20
105.7729282272
 10
209.3211424664
 20
105.2325563348
 10
209.3335842023
 20
104.6897022856
 10
209.3387888826
 20
104.2176815268
 10
209.3360535864
 20
103.8802430775
 10
209.3257477305
 20
103.7229598702
 10
209.309263178
 20
103.7670738734
 10
209.2888262589
 20
104.0066272466
 10
209.2671970926
 20
104.4092669794
 10
209.2472968176
 20
104.9206143447
 10
209.2318130765
 20
105.4716090474
 10
209.2228370342
 20
105.9878361996
  0
LWPOLYLINE
  5
D0
330
1F
100
AcDbEntity
  8
0
  6
HIDDEN
 62
     7
370
     0
100
AcDbPolyline
 90
       17
 70
   128
 43
0.0
 10
208.7422763144
 20
105.7160695416
 10
208.7415639303
 20
106.0044912391
 10
208.7467615363
 20
106.1704816701
 10
208.7570778441
 20
106.1887702962
 10
208.7709422893
 20
106.0565728399
 10
208.7862441358
 20
105.7940151654
 10
208.8006538161
 20
105.4410692988
 10
208.8119775872
 20
105.0514680486
 10
208.8184915075
 20
104.6845246735
 10
208.8192038916
 20
104.396102976
 10
208.8140062855
 20
104.230112545
 10
208.8036899778
 20
104.2118239189
 10
208.7898255326
 20
104.3440213753
 10
208.7745236861
 20
104.6065790497
 10
208.7601140057
 20
104.9595249164
 10
208.7487902346
 20
105.3491261666
 10
208.7422763144
 20
105.7160695416
  0
LWPOLYLINE
  5
D1
330
1F
100
AcDbEntity
  8
0
  6
HIDDEN
 62
     7
370
     0
100
AcDbPolyline
 90
       18
 70
   128
 43
0.0
 10
214.5567748381
 20
106.1360252658
 10
214.555518759
 20
106.5477655302
 10
214.5621522834
 20
106.7994111026
 10
214.5757795171
 20
106.856975854
 10
214.5945600268
 20
106.7126853456
 10
214.6159574004
 20
106.3860268103
 10
214.6370818042
 20
105.9211172933
 10
214.6550802703
 20
105.3807454009
 10
214.6675220062
 20
104.8378913517
 10
214.6727266865
 20
104.3658705929
 10
214.6699913903
 20
104.0284321436
 10
214.6596855344
 20
103.8711489363
 10
214.6432009819
 20
103.9152629395
 10
214.6227640628
 20
104.1548163127
 10
214.6011348965
 20
104.5574560455
 10
214.5812346215
 20
105.0688034108
 10
214.5657508804
 20
105.6197981135
 10
214.5567748381
 20
106.1360252658
  0
LWPOLYLINE
  5
D2
330
1F
100
AcDbEntity
  8
0
  6
HIDDEN
 62
     7
370
     0
100
AcDbPolyline
 90
        6
 70
   128
 43
0.0
 10
214.7292859144
 20
105.9958468826
 10
214.7284171619
 20
106.3475771427
 10
214.7347556425
 20
106.5500024733
 10
214.7473363798
 20
106.5723054528
 10
214.7642440708
 20
106.4110906548
 10
214.7828393446
 20
106.0922540737
  0
ARC
  5
D3
330
1F
100
AcDbEntity
  8
0
  6
HIDDEN
 62
     7
370
     0
100
AcDbCircle
 10
229.512231532
 20
105.7266419125
 30
0.0
 40
14.78539659421536
100
AcDbArc
 50
178.9567299822
 51
186.1241492453
  0
LINE
  5
D4
330
1F
100
AcDbEntity
  8
0
  6
HIDDEN
 62
     7
370
     0
100
AcDbLine
 10
212.786719913
 20
105.7302114193
 30
0.0
 11
212.8103022026
 21
104.8646686049
 31
0.0
  0
LINE
  5
D5
330
1F
100
AcDbEntity
  8
0
  6
HIDDEN
 62
     7
370
     0
100
AcDbLine
 10
214.7851779855
 20
105.7857331833
 30
0.0
 11
214.808760275
 21
104.9201903688
 31
0.0
  0
LINE
  5
D6
330
1F
100
AcDbEntity
  8
0
  6
HIDDEN
 62
     7
370
     0
100
AcDbLine
 10
212.786719913
 20
105.7302114193
 30
0.0
 11
214.7851779855
 21
105.7857331833
 31
0.0
  0
LINE
  5
D7
330
1F
100
AcDbEntity
  8
0
  6
HIDDEN
 62
     7
370
     0
100
AcDbLine
 10
212.7537177663
 20
106.1768834498
 30
0.0
 11
212.786719913
 21
105.7302114193
 31
0.0
  0
LINE
  5
D8
330
1F
100
AcDbEntity
  8
0
  6
HIDDEN
 62
     7
370
     0
100
AcDbLine
 10
214.7521758388
 20
106.2324052137
 30
0.0
 11
214.7851779855
 21
105.7857331833
 31
0.0
  0
LINE
  5
D9
330
1F
100
AcDbEntity
  8
0
  6
HIDDEN
 62
     7
370
     0
100
AcDbLine
 10
212.8103022026
 20
104.8646686049
 30
0.0
 11
214.808760275
 21
104.9201903688
 31
0.0
  0
LINE
  5
DA
330
1F
100
AcDbEntity
  8
0
  6
HIDDEN
 62
     7
370
     0
100
AcDbLine
 10
212.8008823455
 20
104.4457978209
 30
0.0
 11
212.8103022026
 21
104.8646686049
 31
0.0
  0
LINE
  5
DB
330
1F
100
AcDbEntity
  8
0
  6
HIDDEN
 62
     7
370
     0
100
AcDbLine
 10
214.7993404179
 20
104.5013195848
 30
0.0
 11
214.808760275
 21
104.9201903688
 31
0.0
  0
LINE
  5
DC
330
1F
100
AcDbEntity
  8
0
  6
HIDDEN
 62
     7
370
     0
100
AcDbLine
 10
212.7442979092
 20
105.7580126659
 30
0.0
 11
214.7427559817
 21
105.8135344298
 31
0.0
  0
LINE
  5
DD
330
1F
100
AcDbEntity
  8
0
  6
HIDDEN
 62
     7
370
     0
100
AcDbLine
 10
212.7537177663
 20
106.1768834498
 30
0.0
 11
214.7521758388
 21
106.2324052137
 31
0.0
  0
LINE
  5
DE
330
1F
100
AcDbEntity
  8
0
  6
HIDDEN
 62
     7
370
     0
100
AcDbLine
 10
212.7537177663
 20
106.1768834498
 30
0.0
 11
212.7442979092
 21
105.7580126659
 31
0.0
  0
LINE
  5
DF
330
1F
100
AcDbEntity
  8
0
  6
HIDDEN
 62
     7
370
     0
100
AcDbLine
 10
214.7521758388
 20
106.2324052137
 30
0.0
 11
214.7427559817
 21
105.8135344298
 31
0.0
  0
LINE
  5
E0
330
1F
100
AcDbEntity
  8
0
  6
HIDDEN
 62
     7
370
     0
100
AcDbLine
 10
212.7678801988
 20
104.8924698514
 30
0.0
 11
214.7663382713
 21
104.9479916153
 31
0.0
  0
LINE
  5
E1
330
1F
100
AcDbEntity
  8
0
  6
HIDDEN
 62
     7
370
     0
100
AcDbLine
 10
212.8008823455
 20
104.4457978209
 30
0.0
 11
214.7993404179
 21
104.5013195848
 31
0.0
  0
LINE
  5
E2
330
1F
100
AcDbEntity
  8
0
  6
HIDDEN
 62
     7
370
     0
100
AcDbLine
 10
212.7678801988
 20
104.8924698514
 30
0.0
 11
212.8008823455
 21
104.4457978209
 31
0.0
  0
LINE
  5
E3
330
1F
100
AcDbEntity
  8
0
  6
HIDDEN
 62
     7
370
     0
100
AcDbLine
 10
214.7663382713
 20
104.9479916153
 30
0.0
 11
214.7993404179
 21
104.5013195848
 31
0.0
  0
LINE
  5
E4
330
1F
100
AcDbEntity
  8
0
  6
HIDDEN
 62
     7
370
     0
100
AcDbLine
 10
212.7678801988
 20
104.8924698514
 30
0.0
 11
212.7442979092
 21
105.7580126659
 31
0.0
  0
LINE
  5
E5
330
1F
100
AcDbEntity
  8
0
  6
HIDDEN
 62
     7
370
     0
100
AcDbLine
 10
214.7663382713
 20
104.9479916153
 30
0.0
 11
214.7427559817
 21
105.8135344298
 31
0.0
  0
LWPOLYLINE
  5
E6
330
1F
100
AcDbEntity
  8
0
  6
HIDDEN
 62
     7
370
     0
100
AcDbPolyline
 90
       14
 70
   128
 43
0.0
 10
214.7828393446
 20
116.4772493079
 10
214.7773331554
 20
116.4449862521
 10
214.7596437304
 20
116.2347797371
 10
214.741002914
 20
115.8772941812
 10
214.7242486016
 20
115.4269535195
 10
214.7119314855
 20
114.9523180355
 10
214.7059267348
 20
114.5256466791
 10
214.7071485184
 20
114.2118962964
 10
214.7154108309
 20
114.0588325391
 10
214.7294558101
 20
114.0897579767
 10
214.7471452352
 20
114.2999644917
 10
214.7657860516
 20
114.6574500476
 10
214.7825403639
 20
115.1077907093
 10
214.7828393446
 20
115.1173373622
  0
LWPOLYLINE
  5
E7
330
1F
100
AcDbEntity
  8
0
  6
HIDDEN
 62
     7
370
     0
100
AcDbPolyline
 90
       18
 70
   128
 43
0.0
 10
214.642572584
 20
115.6593882912
 10
214.6497653789
 20
116.1564711863
 10
214.6490989148
 20
116.5340835056
 10
214.6406632014
 20
116.7412266131
 10
214.6255975286
 20
116.7499246842
 10
214.6059365989
 20
116.5590029964
 10
214.5843357299
 20
116.1942465813
 10
214.5637122385
 20
115.7049178142
 10
214.5468514417
 20
115.1571032563
 10
214.5360304834
 20
114.6247882994
 10
214.5327107939
 20
114.1798650281
 10
214.5373407159
 20
113.8824227954
 10
214.5492949526
 20
113.7726328232
 10
214.5669590181
 20
113.8653228555
 10
214.5879472826
 20
114.1479745899
 10
214.6094251645
 20
114.5824143434
 10
214.628491957
 20
115.1099686199
 10
214.642572584
 20
115.6593882912
  0
LWPOLYLINE
  5
E8
330
1F
100
AcDbEntity
  8
0
  6
HIDDEN
 62
     7
370
     0
100
AcDbPolyline
 90
       18
 70
   128
 43
0.0
 10
209.3086347801
 20
115.8075773574
 10
209.315827575
 20
116.3046602524
 10
209.3151611109
 20
116.6822725717
 10
209.3067253975
 20
116.8894156792
 10
209.2916597247
 20
116.8981137504
 10
209.271998795
 20
116.7071920625
 10
209.250397926
 20
116.3424356474
 10
209.2297744346
 20
115.8531068803
 10
209.2129136378
 20
115.3052923224
 10
209.2020926795
 20
114.7729773656
 10
209.1987729901
 20
114.3280540942
 10
209.203402912
 20
114.0306118615
 10
209.2153571487
 20
113.9208218893
 10
209.2330212143
 20
114.0135119216
 10
209.2540094787
 20
114.296163656
 10
209.2754873607
 20
114.7306034095
 10
209.2945541531
 20
115.258157686
 10
209.3086347801
 20
115.8075773574
  0
LWPOLYLINE
  5
E9
330
1F
100
AcDbEntity
  8
0
  6
HIDDEN
 62
     7
370
     0
100
AcDbPolyline
 90
       17
 70
   128
 43
0.0
 10
208.7920202631
 20
115.6922843343
 10
208.7969442079
 20
116.0421583453
 10
208.7959423353
 20
116.2994362319
 10
208.7891671713
 20
116.424949768
 10
208.7776501732
 20
116.3995906555
 10
208.7631446996
 20
116.2272195896
 10
208.7478590773
 20
115.9340785023
 10
208.7341204038
 20
115.5647954669
 10
208.7240202675
 20
115.175590478
 10
208.7190963227
 20
114.8257164669
 10
208.7200981954
 20
114.5684385804
 10
208.7268733594
 20
114.4429250442
 10
208.7383903575
 20
114.4682841567
 10
208.7528958311
 20
114.6406552227
 10
208.7681814534
 20
114.9337963099
 10
208.7819201269
 20
115.3030793453
 10
208.7920202631
 20
115.6922843343
  0
LINE
  5
EA
330
1F
100
AcDbEntity
  8
0
  6
HIDDEN
 62
     7
370
     0
100
AcDbLine
 10
214.7533944828
 20
115.8797445501
 30
0.0
 11
214.723949621
 21
115.0436371116
 31
0.0
  0
LINE
  5
EB
330
1F
100
AcDbEntity
  8
0
  6
HIDDEN
 62
     7
370
     0
100
AcDbLine
 10
214.723949621
 20
114.4312646759
 30
0.0
 11
214.723949621
 21
115.0436371116
 31
0.0
  0
LINE
  5
EC
330
1F
100
AcDbEntity
  8
0
  6
HIDDEN
 62
     7
370
     0
100
AcDbLine
 10
214.7533944828
 20
114.6549996787
 30
0.0
 11
214.723949621
 21
114.4312646759
 31
0.0
  0
LINE
  5
ED
330
1F
100
AcDbEntity
  8
0
  6
HIDDEN
 62
     7
370
     0
100
AcDbLine
 10
214.7533944828
 20
114.6549996787
 30
0.0
 11
214.7828393446
 21
115.4911071172
 31
0.0
  0
LINE
  5
EE
330
1F
100
AcDbEntity
  8
0
  6
HIDDEN
 62
     7
370
     0
100
AcDbLine
 10
214.7828393446
 20
116.1034795529
 30
0.0
 11
214.7533944828
 21
115.8797445501
 31
0.0
  0
LINE
  5
EF
330
1F
100
AcDbEntity
  8
0
  6
HIDDEN
 62
     7
370
     0
100
AcDbLine
 10
212.7549364103
 20
114.7105214426
 30
0.0
 11
212.7843812721
 21
115.5466288811
 31
0.0
  0
LINE
  5
F0
330
1F
100
AcDbEntity
  8
0
  6
HIDDEN
 62
     7
370
     0
100
AcDbLine
 10
212.7549364103
 20
114.7105214426
 30
0.0
 11
212.7254915485
 21
114.4867864398
 31
0.0
  0
LINE
  5
F1
330
1F
100
AcDbEntity
  8
0
  6
HIDDEN
 62
     7
370
     0
100
AcDbLine
 10
212.7254915485
 20
114.4867864398
 30
0.0
 11
212.7254915485
 21
115.0991588755
 31
0.0
  0
LINE
  5
F2
330
1F
100
AcDbEntity
  8
0
  6
HIDDEN
 62
     7
370
     0
100
AcDbLine
 10
212.7843812721
 20
116.1590013168
 30
0.0
 11
212.7549364103
 21
115.935266314
 31
0.0
  0
LINE
  5
F3
330
1F
100
AcDbEntity
  8
0
  6
HIDDEN
 62
     7
370
     0
100
AcDbLine
 10
212.7843812721
 20
116.1590013168
 30
0.0
 11
212.7843812721
 21
115.5466288811
 31
0.0
  0
LINE
  5
F4
330
1F
100
AcDbEntity
  8
0
  6
HIDDEN
 62
     7
370
     0
100
AcDbLine
 10
212.7549364103
 20
115.935266314
 30
0.0
 11
212.7254915485
 21
115.0991588755
 31
0.0
  0
LINE
  5
F5
330
1F
100
AcDbEntity
  8
0
  6
HIDDEN
 62
     7
370
     0
100
AcDbLine
 10
212.7254915485
 20
115.0991588755
 30
0.0
 11
214.723949621
 21
115.0436371116
 31
0.0
  0
LINE
  5
F6
330
1F
100
AcDbEntity
  8
0
  6
HIDDEN
 62
     7
370
     0
100
AcDbLine
 10
212.7549364103
 20
115.935266314
 30
0.0
 11
214.7533944828
 21
115.8797445501
 31
0.0
  0
LINE
  5
F7
330
1F
100
AcDbEntity
  8
0
  6
HIDDEN
 62
     7
370
     0
100
AcDbLine
 10
212.7549364103
 20
114.7105214426
 30
0.0
 11
214.7533944828
 21
114.6549996787
 31
0.0
  0
LINE
  5
F8
330
1F
100
AcDbEntity
  8
0
  6
HIDDEN
 62
     7
370
     0
100
AcDbLine
 10
212.7254915485
 20
114.4867864398
 30
0.0
 11
214.723949621
 21
114.4312646759
 31
0.0
  0
LINE
  5
F9
330
1F
100
AcDbEntity
  8
0
  6
HIDDEN
 62
     7
370
     0
100
AcDbLine
 10
212.7843812721
 20
115.5466288811
 30
0.0
 11
214.7828393446
 21
115.4911071172
 31
0.0
  0
LINE
  5
FA
330
1F
100
AcDbEntity
  8
0
  6
HIDDEN
 62
     7
370
     0
100
AcDbLine
 10
212.7843812721
 20
116.1590013168
 30
0.0
 11
214.7828393446
 21
116.1034795529
 31
0.0
  0
LINE
  5
FB
330
1F
100
AcDbEntity
  8
0
  6
HIDDEN
 62
     7
370
     0
100
AcDbLine
 10
151.5208103237
 20
149.267769361
 30
0.0
 11
151.5208103237
 21
141.6668066001
 31
0.0
  0
SPLINE
  5
FC
330
1F
100
AcDbEntity
  8
0
  6
HIDDEN
 62
     7
370
     0
100
AcDbSpline
210
0.0
220
0.0
230
1.0
 70
     8
 71
     3
 72
    80
 73
    76
 74
     0
 42
0.00000001
 43
0.00000001
 40
-0.0312500000000003
 40
-0.0312500000000003
 40
0.0
 40
0.0
 40
0.03125
 40
0.03125
 40
0.046875
 40
0.046875
 40
0.0624999999999999
 40
0.0624999999999999
 40
0.0937499999999998
 40
0.0937499999999998
 40
0.1249999999999996
 40
0.1249999999999996
 40
0.1562499999999995
 40
0.1562499999999995
 40
0.1874999999999994
 40
0.1874999999999994
 40
0.2187499999999993
 40
0.2187499999999993
 40
0.2499999999999992
 40
0.2499999999999992
 40
0.2812499999999991
 40
0.2812499999999991
 40
0.3124999999999989
 40
0.3124999999999989
 40
0.3281249999999988
 40
0.3281249999999988
 40
0.3437499999999986
 40
0.3437499999999986
 40
0.3749999999999983
 40
0.3749999999999983
 40
0.4062499999999981
 40
0.4062499999999981
 40
0.4218749999999979
 40
0.4218749999999979
 40
0.4374999999999978
 40
0.4374999999999978
 40
0.4687499999999977
 40
0.4687499999999977
 40
0.4999999999999975
 40
0.4999999999999975
 40
0.5312499999999972
 40
0.5312499999999972
 40
0.562499999999997
 40
0.562499999999997
 40
0.5937499999999968
 40
0.5937499999999968
 40
0.6249999999999966
 40
0.6249999999999966
 40
0.6562499999999964
 40
0.6562499999999964
 40
0.6874999999999962
 40
0.6874999999999962
 40
0.7031249999999962
 40
0.7031249999999962
 40
0.7187499999999963
 40
0.7187499999999963
 40
0.7499999999999968
 40
0.7499999999999968
 40
0.7812499999999972
 40
0.7812499999999972
 40
0.7968749999999976
 40
0.7968749999999976
 40
0.8124999999999978
 40
0.8124999999999978
 40
0.8437499999999981
 40
0.8437499999999981
 40
0.8749999999999984
 40
0.8749999999999984
 40
0.9062499999999989
 40
0.9062499999999989
 40
0.9374999999999992
 40
0.9374999999999992
 40
0.9687499999999997
 40
0.9687499999999997
 40
1.0
 40
1.0
 40
1.03125
 40
1.03125
 10
144.1133846573745
 20
159.1763558565464
 30
0.0
 10
143.4522940318219
 20
159.1763558565464
 30
0.0
 10
143.1273139025703
 20
159.1694577107196
 30
0.0
 10
142.6478404913238
 20
159.1489312827391
 30
0.0
 10
142.489358673483
 20
159.1403750556515
 30
0.0
 10
142.1751391409787
 20
159.1196486804339
 30
0.0
 10
142.0190188572983
 20
159.1074213802275
 30
0.0
 10
141.5649648283417
 20
159.0658520863983
 30
0.0
 10
141.2778614454019
 20
159.0315078013005
 30
0.0
 10
140.7345068893749
 20
158.9481836769782
 30
0.0
 10
140.4774032781693
 20
158.8987454542037
 30
0.0
 10
140.0164970232306
 20
158.7873657244438
 30
0.0
 10
139.8095993140156
 20
158.7250712109316
 30
0.0
 10
139.4440740000234
 20
158.5851415680607
 30
0.0
 10
139.2888684778974
 20
158.5085256703117
 30
0.0
 10
139.0394380912977
 20
158.3445670504559
 30
0.0
 10
138.9433481355125
 20
158.2560101963602
 30
0.0
 10
138.814829286319
 20
158.0685295142544
 30
0.0
 10
138.7830184161412
 20
157.9712930528
 30
0.0
 10
138.7826617663679
 20
157.7696604134729
 30
0.0
 10
138.815159018565
 20
157.6641116216347
 30
0.0
 10
138.9427844922795
 20
157.4539968389462
 30
0.0
 10
139.0372128933313
 20
157.3489313309773
 30
0.0
 10
139.2250737133169
 20
157.1920536237262
 30
0.0
 10
139.2959017121201
 20
157.1396198900205
 30
0.0
 10
139.4506236040854
 20
157.0371814443908
 30
0.0
 10
139.5346000742688
 20
156.9870337157389
 30
0.0
 10
139.8059237439132
 20
156.8400177593054
 30
0.0
 10
140.0124729625155
 20
156.7465299388709
 30
0.0
 10
140.4790831027046
 20
156.5707430812566
 30
0.0
 10
140.73144867233
 20
156.491364606173
 30
0.0
 10
141.1373500140087
 20
156.3858821686788
 30
0.0
 10
141.2772506314862
 20
156.3529966038387
 30
0.0
 10
141.5664745667331
 20
156.29208112461
 30
0.0
 10
141.7163140230224
 20
156.2640005529676
 30
0.0
 10
142.1704305926332
 20
156.1891985109248
 30
0.0
 10
142.4820818113701
 20
156.1511604526787
 30
0.0
 10
143.1230782762824
 20
156.0995485261546
 30
0.0
 10
143.4546059042346
 20
156.0862345926331
 30
0.0
 10
144.1073969493061
 20
156.0861375063051
 30
0.0
 10
144.4319331543379
 20
156.0989255914661
 30
0.0
 10
145.0772026037543
 20
156.150415781062
 30
0.0
 10
145.392945609917
 20
156.1889403603821
 30
0.0
 10
145.9948349049007
 20
156.2878429232402
 30
0.0
 10
146.2855841357122
 20
156.3489470211652
 30
0.0
 10
146.8324959273967
 20
156.4907564542758
 30
0.0
 10
147.0842732912336
 20
156.570090938855
 30
0.0
 10
147.5456612838547
 20
156.7434696835165
 30
0.0
 10
147.7569305634528
 20
156.8386296282706
 30
0.0
 10
148.120234915829
 20
157.0352021516464
 30
0.0
 10
148.2740415642718
 20
157.1369583800528
 30
0.0
 10
148.4626610338692
 20
157.2937443428383
 30
0.0
 10
148.5186915200783
 20
157.3469983765883
 30
0.0
 10
148.6142652818145
 20
157.4528029381411
 30
0.0
 10
148.6540281988395
 20
157.5054560024966
 30
0.0
 10
148.7497999491516
 20
157.6625297219558
 30
0.0
 10
148.7825227882778
 20
157.7660547572829
 30
0.0
 10
148.7831513746068
 20
157.97026949151
 30
0.0
 10
148.750965229872
 20
158.0677733290947
 30
0.0
 10
148.6560545280165
 20
158.2071003794464
 30
0.0
 10
148.6165877446175
 20
158.2524171109509
 30
0.0
 10
148.5216577458966
 20
158.3408569319397
 30
0.0
 10
148.4659009181333
 20
158.3841111823997
 30
0.0
 10
148.2779608001634
 20
158.5080026569897
 30
0.0
 10
148.1245993304472
 20
158.5837049477637
 30
0.0
 10
147.7623350955668
 20
158.7229593192219
 30
0.0
 10
147.5514866221009
 20
158.7867211607507
 30
0.0
 10
147.090816651782
 20
158.8982180002185
 30
0.0
 10
146.8394422721982
 20
158.9467440725351
 30
0.0
 10
146.2935343853001
 20
159.0307980559156
 30
0.0
 10
146.0027118106488
 20
159.0655966095823
 30
0.0
 10
145.4013851958688
 20
159.1207930743461
 30
0.0
 10
145.0868666112564
 20
159.1416109231
 30
0.0
 10
144.4402851551365
 20
159.1694582560107
 30
0.0
 10
144.1133846573745
 20
159.1763558565464
 30
0.0
 10
143.4522940318219
 20
159.1763558565464
 30
0.0
  0
LINE
  5
FD
330
1F
100
AcDbEntity
  8
0
  6
HIDDEN
 62
     7
370
     0
100
AcDbLine
 10
115.196264094
 20
73.5810002378
 30
0.0
 11
114.9263083932
 21
73.5570741385
 31
0.0
  0
SPLINE
  5
FE
330
1F
100
AcDbEntity
  8
0
  6
HIDDEN
 62
     7
370
     0
100
AcDbSpline
210
0.0
220
0.0
230
1.0
 70
     8
 71
     3
 72
    13
 73
     9
 74
     0
 42
0.00000001
 43
0.00000001
 40
0.0
 40
0.0
 40
0.0
 40
0.0
 40
0.1247122447407212
 40
0.2490589432165421
 40
0.3740779474703908
 40
0.5009711379560823
 40
0.7521757810472769
 40
1.0
 40
1.0
 40
1.0
 40
1.0
 10
113.3021443623829
 20
147.248112694319
 30
0.0
 10
113.3079309559459
 20
147.2473364476374
 30
0.0
 10
113.3194871818854
 20
147.2457862295447
 30
0.0
 10
113.4164975514757
 20
147.2335699509273
 30
0.0
 10
113.5717921173252
 20
147.2146431316178
 30
0.0
 10
113.8619791485218
 20
147.1806699742877
 30
0.0
 10
114.3495070767461
 20
147.1241435740532
 30
0.0
 10
114.9152283465814
 20
147.0763378422311
 30
0.0
 10
115.1961728820691
 20
147.0525968944596
 30
0.0
  0
SPLINE
  5
FF
330
1F
100
AcDbEntity
  8
0
  6
HIDDEN
 62
     7
370
     0
100
AcDbSpline
210
0.0
220
0.0
230
1.0
 70
     8
 71
     3
 72
    13
 73
     9
 74
     0
 42
0.00000001
 43
0.00000001
 40
0.0
 40
0.0
 40
0.0
 40
0.0
 40
0.1623786477020553
 40
0.3258936195009106
 40
0.4929777615018374
 40
0.6612905491339288
 40
0.8236995883672524
 40
1.0
 40
1.0
 40
1.0
 40
1.0
 10
125.0360449997892
 20
141.6831288208155
 30
0.0
 10
125.1116345081901
 20
141.695504593
 30
0.0
 10
125.2633424995896
 20
141.7203427428948
 30
0.0
 10
125.4462414079175
 20
141.7476010919215
 30
0.0
 10
125.5953036243155
 20
141.7687209352734
 30
0.0
 10
125.6992542882018
 20
141.7827073790593
 30
0.0
 10
125.7745869955832
 20
141.7925004515809
 30
0.0
 10
125.7663567869307
 20
141.7914290612191
 30
0.0
 10
125.7620729112681
 20
141.7908713957588
 30
0.0
  0
SPLINE
  5
100
330
1F
100
AcDbEntity
  8
0
  6
HIDDEN
 62
     7
370
     0
100
AcDbSpline
210
0.0
220
0.0
230
1.0
 70
     8
 71
     3
 72
    13
 73
     9
 74
     0
 42
0.00000001
 43
0.00000001
 40
0.0
 40
0.0
 40
0.0
 40
0.0
 40
0.1540224786051032
 40
0.3222979896126752
 40
0.4885663134775108
 40
0.6560438347899996
 40
0.8273549522211459
 40
1.0
 40
1.0
 40
1.0
 40
1.0
 10
125.7620724170532
 20
78.84274186831082
 30
0.0
 10
125.7672580951131
 20
78.84207003795547
 30
0.0
 10
125.7781093268854
 20
78.84066420696998
 30
0.0
 10
125.708767876773
 20
78.84965110137144
 30
0.0
 10
125.6086504099703
 20
78.86306521784279
 30
0.0
 10
125.4621226426386
 20
78.88370576611942
 30
0.0
 10
125.2759087445548
 20
78.9112712270583
 30
0.0
 10
125.1162060343247
 20
78.93737957744362
 30
0.0
 10
125.0360449997892
 20
78.95048437932137
 30
0.0
  0
SPLINE
  5
101
330
1F
100
AcDbEntity
  8
0
  6
HIDDEN
 62
     7
370
     0
100
AcDbSpline
210
0.0
220
0.0
230
1.0
 70
     8
 71
     3
 72
    33
 73
    29
 74
     0
 42
0.00000001
 43
0.00000001
 40
0.0
 40
0.0
 40
0.0
 40
0.0
 40
0.0315773698875104
 40
0.0633753287769057
 40
0.0958656851178231
 40
0.1285943208117605
 40
0.1601713694082662
 40
0.2244011681247345
 40
0.2571344568799636
 40
0.2885965627565487
 40
0.3526214070085076
 40
0.3852675959519929
 40
0.4162212184009612
 40
0.4791910353915302
 40
0.5112817741273479
 40
0.5421256322990662
 40
0.6048360558905652
 40
0.6367710793564881
 40
0.6680663384719832
 40
0.7316979547407203
 40
0.7641081282919966
 40
0.7957194290717577
 40
0.8275524266255816
 40
0.8600900250720824
 40
0.8928737620729298
 40
0.9241775068323748
 40
0.9878778414776339
 40
1.0
 40
1.0
 40
1.0
 40
1.0
 10
125.0360449997892
 20
78.95048437932137
 30
0.0
 10
124.952173852784
 20
78.9643581177031
 30
0.0
 10
124.78384566284
 20
78.99220251178785
 30
0.0
 10
124.4844910664985
 20
79.03863515201826
 30
0.0
 10
124.1504915992397
 20
79.08724775403908
 30
0.0
 10
123.7847216373524
 20
79.13639568722631
 30
0.0
 10
123.2613417226635
 20
79.20046147281894
 30
0.0
 10
122.6849145140689
 20
79.26024298722407
 30
0.0
 10
122.0697773672174
 20
79.31024259468813
 30
0.0
 10
121.4334616411345
 20
79.35238258737154
 30
0.0
 10
120.7696811036958
 20
79.38101731210958
 30
0.0
 10
120.0976153521127
 20
79.39327676319317
 30
0.0
 10
119.4281667686809
 20
79.39460605430146
 30
0.0
 10
118.762982201567
 20
79.379745531392
 30
0.0
 10
118.1166909626765
 20
79.34988756700282
 30
0.0
 10
117.4875010118181
 20
79.31114433894155
 30
0.0
 10
116.8877853196388
 20
79.26056610518167
 30
0.0
 10
116.329485753517
 20
79.20216609071515
 30
0.0
 10
115.7992908831294
 20
79.13984285934562
 30
0.0
 10
115.3201241808179
 20
79.07443428481007
 30
0.0
 10
114.905206195623
 20
79.0116453812041
 30
0.0
 10
114.627933811697
 20
78.9671407823827
 30
0.0
 10
114.3863785261358
 20
78.92643183294774
 30
0.0
 10
114.1808865217874
 20
78.89037470229826
 30
0.0
 10
114.0167220980431
 20
78.8606176773459
 30
0.0
 10
113.8572881514778
 20
78.83103236392148
 30
0.0
 10
113.7790499235292
 20
78.81608308491664
 30
0.0
 10
113.7867747138741
 20
78.81755550751784
 30
0.0
 10
113.7880097185435
 20
78.81779091180802
 30
0.0
  0
SPLINE
  5
102
330
1F
100
AcDbEntity
  8
0
  6
HIDDEN
 62
     7
370
     0
100
AcDbSpline
210
0.0
220
0.0
230
1.0
 70
     8
 71
     3
 72
    32
 73
    28
 74
     0
 42
0.00000001
 43
0.00000001
 40
0.0
 40
0.0
 40
0.0
 40
0.0
 40
0.020356822172105
 40
0.0512207857583794
 40
0.1139954454389432
 40
0.1459779869097674
 40
0.1769364677636727
 40
0.2398766914470389
 40
0.2719275468465721
 40
0.3033698011481659
 40
0.3673099924152954
 40
0.3998847012176188
 40
0.4314690120325909
 40
0.4957360700021212
 40
0.5285028301030422
 40
0.5596434488300034
 40
0.6230067766607702
 40
0.6553079823205556
 40
0.6861132872619372
 40
0.748756262689177
 40
0.7806634244345373
 40
0.8117607067089887
 40
0.8749825776111492
 40
0.9071778073885584
 40
0.9301738434827028
 40
0.9765719131095674
 40
1.0
 40
1.0
 40
1.0
 40
1.0
 10
113.7880097185435
 20
141.8158222883288
 30
0.0
 10
113.7876526666372
 20
141.8158897672557
 30
0.0
 10
113.7867542710508
 20
141.8160595542504
 30
0.0
 10
113.8493480176034
 20
141.804165313063
 30
0.0
 10
113.9911591990669
 20
141.7775184361434
 30
0.0
 10
114.2152037909424
 20
141.7371363647308
 30
0.0
 10
114.4897459067766
 20
141.6892671229804
 30
0.0
 10
114.8384371957842
 20
141.6317972377006
 30
0.0
 10
115.2547131581616
 20
141.5693026906461
 30
0.0
 10
115.7163072050244
 20
141.5047770090067
 30
0.0
 10
116.2398451541195
 20
141.4401966320235
 30
0.0
 10
116.8120426285743
 20
141.3814412671387
 30
0.0
 10
117.4142489990263
 20
141.3280684107565
 30
0.0
 10
118.0554755058077
 20
141.2852058489242
 30
0.0
 10
118.7165608238039
 20
141.2571418029032
 30
0.0
 10
119.3832717782504
 20
141.2395531453635
 30
0.0
 10
120.0571609988574
 20
141.2381064971228
 30
0.0
 10
120.7215104828052
 20
141.2530320362606
 30
0.0
 10
121.3730447569648
 20
141.2780387614843
 30
0.0
 10
122.0037039696208
 20
141.3171428041662
 30
0.0
 10
122.6012429454433
 20
141.3672439619498
 30
0.0
 10
123.175240913398
 20
141.423415128433
 30
0.0
 10
123.7061906267913
 20
141.4863291571218
 30
0.0
 10
124.1495715080554
 20
141.5464326591754
 30
0.0
 10
124.5010921556291
 20
141.5973223761606
 30
0.0
 10
124.7907596656059
 20
141.6424448526985
 30
0.0
 10
124.9744224300036
 20
141.6729078645859
 30
0.0
 10
125.0360449997892
 20
141.6831288208155
 30
0.0
  0
LINE
  5
103
330
1F
100
AcDbEntity
  8
0
  6
HIDDEN
 62
     7
370
     0
100
AcDbLine
 10
104.7794636716
 20
83.8168066001
 30
0.0
 11
104.7794636716
 21
136.8168066001
 31
0.0
  0
LINE
  5
104
330
1F
100
AcDbEntity
  8
0
  6
HIDDEN
 62
     7
370
     0
100
AcDbLine
 10
144.066916963
 20
83.8168066001
 30
0.0
 11
144.066916963
 21
136.8168066001
 31
0.0
  0
LINE
  5
105
330
1F
100
AcDbEntity
  8
0
  6
HIDDEN
 62
     7
370
     0
100
AcDbLine
 10
147.2328393446
 20
85.4418066001
 30
0.0
 11
147.2328393446
 21
135.1918065811
 31
0.0
  0
SPLINE
  5
106
330
1F
100
AcDbEntity
  8
0
  6
HIDDEN
 62
     7
370
     0
100
AcDbSpline
210
0.0
220
0.0
230
1.0
 70
     8
 71
     3
 72
    20
 73
    16
 74
     0
 42
0.00000001
 43
0.00000001
 40
0.0
 40
0.0
 40
0.0
 40
0.0
 40
0.2499999999999978
 40
0.2499999999999978
 40
0.3749999999999982
 40
0.3749999999999982
 40
0.4999999999999986
 40
0.4999999999999986
 40
0.6249999999999989
 40
0.6249999999999989
 40
0.7499999999999992
 40
0.7499999999999992
 40
0.8749999999999997
 40
0.8749999999999997
 40
1.0
 40
1.0
 40
1.0
 40
1.0
 10
94.98283934459818
 20
135.5453202304827
 30
0.0
 10
94.98283934459818
 20
135.4661172439505
 30
0.0
 10
94.93585684938543
 20
135.3850210255475
 30
0.0
 10
94.79803525860785
 20
135.2648243337966
 30
0.0
 10
94.74175297469787
 20
135.2258976297945
 30
0.0
 10
94.60866812323066
 20
135.1507088973702
 30
0.0
 10
94.53082818099759
 20
135.1140666920282
 30
0.0
 10
94.35819582488325
 20
135.0464761591963
 30
0.0
 10
94.26380282779218
 20
135.0155179774207
 30
0.0
 10
94.05836552147703
 20
134.959993556051
 30
0.0
 10
93.94601928148985
 20
134.9352850422178
 30
0.0
 10
93.7137784175902
 20
134.8954888151096
 30
0.0
 10
93.59306777516748
 20
134.8800689777125
 30
0.0
 10
93.34199691589846
 20
134.8589890028729
 30
0.0
 10
93.21247491948267
 20
134.8535117578519
 30
0.0
 10
93.08283934459818
 20
134.8535117578519
 30
0.0
  0
LINE
  5
107
330
1F
100
AcDbEntity
  8
0
  6
HIDDEN
 62
     7
370
     0
100
AcDbLine
 10
93.0828393446
 20
134.8535117579
 30
0.0
 11
86.5328393446
 21
134.8535117579
 31
0.0
  0
LINE
  5
108
330
1F
100
AcDbEntity
  8
0
  6
HIDDEN
 62
     7
370
     0
100
AcDbLine
 10
86.5328393446
 20
85.7801014423
 30
0.0
 11
98.0828393446
 21
85.7801014423
 31
0.0
  0
SPLINE
  5
109
330
1F
100
AcDbEntity
  8
0
  6
HIDDEN
 62
     7
370
     0
100
AcDbSpline
210
0.0
220
0.0
230
1.0
 70
     8
 71
     3
 72
    18
 73
    14
 74
     0
 42
0.00000001
 43
0.00000001
 40
0.0
 40
0.0
 40
0.0
 40
0.0
 40
0.1249999999999982
 40
0.1249999999999982
 40
0.2499999999999964
 40
0.2499999999999964
 40
0.4999999999999988
 40
0.4999999999999988
 40
0.7500000000000011
 40
0.7500000000000011
 40
0.8750000000000006
 40
0.8750000000000006
 40
1.0
 40
1.0
 40
1.0
 40
1.0
 10
98.08283934459816
 20
85.78010144228493
 30
0.0
 10
98.2123066575554
 20
85.78010144228492
 30
0.0
 10
98.33931740645203
 20
85.77474844369227
 30
0.0
 10
98.58868072764928
 20
85.7540104710035
 30
0.0
 10
98.71230438227771
 20
85.7383385667492
 30
0.0
 10
99.06133671921175
 20
85.67864383834711
 30
0.0
 10
99.27184848401855
 20
85.62087865866613
 30
0.0
 10
99.61576516171804
 20
85.48635681738863
 30
0.0
 10
99.75211556323588
 20
85.40868770388323
 30
0.0
 10
99.8891536197984
 20
85.2893965697959
 30
0.0
 10
99.92437263851131
 20
85.24847756066085
 30
0.0
 10
99.97099621544986
 20
85.16782156737081
 30
0.0
 10
99.98283934459819
 20
85.12785304717796
 30
0.0
 10
99.98283934459818
 20
85.08829296965413
 30
0.0
  0
LINE
  5
10A
330
1F
100
AcDbEntity
  8
0
  6
HIDDEN
 62
     7
370
     0
100
AcDbLine
 10
86.5328393446
 20
85.7801014423
 30
0.0
 11
86.5328393446
 21
134.8535117579
 31
0.0
  0
LWPOLYLINE
  5
10B
330
1F
100
AcDbEntity
  8
0
  6
HIDDEN
 62
     7
370
     0
100
AcDbPolyline
 90
       15
 70
   128
 43
0.0
 10
143.7828393446
 20
150.2605371634
 10
144.789331945
 20
150.3021667783
 10
145.7546186202
 20
150.4253513016
 10
146.6391804201
 20
150.6250475446
 10
147.4068032807
 20
150.8930799195
 10
148.0260606321
 20
151.2184751494
 10
148.4716000053
 20
151.5879115154
 10
148.7251809662
 20
151.9862642493
 10
148.7764218805
 20
152.3972247433
 10
148.6232249389
 20
152.8039682265
 10
148.2718620425
 20
153.1898425729
 10
147.7367180293
 20
153.5390500415
 10
147.0397017582
 20
153.8372940374
 10
146.2093491573
 20
154.0723644164
 10
146.1945006598
 20
154.0757031815
  0
LWPOLYLINE
  5
10C
330
1F
100
AcDbEntity
  8
0
  6
HIDDEN
 62
     7
370
     0
100
AcDbPolyline
 90
       15
 70
   128
 43
0.0
 10
141.3997445844
 20
154.0820516099
 10
141.3563295319
 20
154.0723644164
 10
140.525976931
 20
153.8372940374
 10
139.8289606599
 20
153.5390500415
 10
139.2938166467
 20
153.1898425729
 10
138.9424537503
 20
152.8039682265
 10
138.7892568087
 20
152.3972247433
 10
138.840497723
 20
151.9862642493
 10
139.0940786839
 20
151.5879115154
 10
139.5396180571
 20
151.2184751494
 10
140.1588754085
 20
150.8930799195
 10
140.9264982691
 20
150.6250475446
 10
141.811060069
 20
150.4253513016
 10
142.7763467442
 20
150.3021667783
 10
143.7828393446
 20
150.2605371634
  0
LINE
  5
10D
330
1F
100
AcDbEntity
  8
0
  6
HIDDEN
 62
     7
370
     0
100
AcDbLine
 10
86.5328393446
 20
82.9468066001
 30
0.0
 11
86.5328393446
 21
78.0685213982
 31
0.0
  0
LINE
  5
10E
330
1F
100
AcDbEntity
  8
0
  6
HIDDEN
 62
     7
370
     0
100
AcDbLine
 10
99.9828393446
 20
82.9468066001
 30
0.0
 11
99.9828393446
 21
76.4474733347
 31
0.0
  0
LINE
  5
10F
330
1F
100
AcDbEntity
  8
0
  6
HIDDEN
 62
     7
370
     0
100
AcDbLine
 10
94.9828393446
 20
137.6868066001
 30
0.0
 11
94.9828393446
 21
144.0614153371
 31
0.0
  0
LINE
  5
110
330
1F
100
AcDbEntity
  8
0
  6
HIDDEN
 62
     7
370
     0
100
AcDbLine
 10
86.5328393446
 20
137.6868066001
 30
0.0
 11
86.5328393446
 21
142.5650918019
 31
0.0
  0
SPLINE
  5
111
330
1F
100
AcDbEntity
  8
0
  6
HIDDEN
 62
     7
370
     0
100
AcDbSpline
210
0.0
220
0.0
230
1.0
 70
     8
 71
     3
 72
    44
 73
    40
 74
     0
 42
0.00000001
 43
0.00000001
 40
-0.0542986170245499
 40
-0.0343720013567711
 40
-0.0162772998243896
 40
0.0
 40
0.0197533517033186
 40
0.0421172912122439
 40
0.0671142568501769
 40
0.0947596943530868
 40
0.1250644115378958
 40
0.1550045412100331
 40
0.1824618030916993
 40
0.2074477368081415
 40
0.2299783173722219
 40
0.2500760254514838
 40
0.2849173337316147
 40
0.3265109732473898
 40
0.3749208740782657
 40
0.4004148468408071
 40
0.4240456092330157
 40
0.4458191306703483
 40
0.4657433144460285
 40
0.4838287567071414
 40
0.5000899210327547
 40
0.5343674268986922
 40
0.5759569854541775
 40
0.6249181002958444
 40
0.6500699256062425
 40
0.6734973768541489
 40
0.6952068738890368
 40
0.7152066970112575
 40
0.7335076558363747
 40
0.750124087198349
 40
0.7849044257233004
 40
0.8264538241655812
 40
0.874836290057933
 40
0.9003125129972971
 40
0.9239322054291692
 40
0.9457013829754501
 40
0.9656279986432289
 40
0.9837227001756104
 40
1.0
 40
1.019753351703319
 40
1.042117291212244
 40
1.067114256850177
 10
196.9209879041012
 20
106.9294223309411
 30
0.0
 10
197.3076549575225
 20
106.9095538411659
 30
0.0
 10
197.7249562097891
 20
106.9355801630733
 30
0.0
 10
198.1958950646794
 20
107.0286149387631
 30
0.0
 10
198.7002520450802
 20
107.2092822099474
 30
0.0
 10
199.2168297896823
 20
107.4977102353295
 30
0.0
 10
199.6991515721683
 20
107.8963066572013
 30
0.0
 10
200.0974983004452
 20
108.376991590762
 30
0.0
 10
200.3855633546371
 20
108.8891982593936
 30
0.0
 10
200.5680392074498
 20
109.3927073989745
 30
0.0
 10
200.663276864112
 20
109.8669726043407
 30
0.0
 10
200.6987386098423
 20
110.4203736640122
 30
0.0
 10
200.6227775870565
 20
111.111415924287
 30
0.0
 10
200.3144116739687
 20
111.9548623041353
 30
0.0
 10
199.8216846958572
 20
112.625118963896
 30
0.0
 10
199.2946478890572
 20
113.0742947373866
 30
0.0
 10
198.8649616660583
 20
113.3392848662627
 30
0.0
 10
198.4378996975353
 20
113.5249385474946
 30
0.0
 10
198.0276457974033
 20
113.642551092035
 30
0.0
 10
197.6446246133025
 20
113.704178500092
 30
0.0
 10
197.1545014747512
 20
113.7294238402958
 30
0.0
 10
196.4950155087833
 20
113.6578532856573
 30
0.0
 10
195.6508794552073
 20
113.3523098553667
 30
0.0
 10
194.9784429633296
 20
112.8595420351021
 30
0.0
 10
194.5288464820792
 20
112.3328938836077
 30
0.0
 10
194.2650407541474
 20
111.9075512349622
 30
0.0
 10
194.0784825199431
 20
111.482318905692
 30
0.0
 10
193.9590455264949
 20
111.0708407367287
 30
0.0
 10
193.8957563513225
 20
110.6833547797061
 30
0.0
 10
193.8698273598818
 20
110.1855468131417
 30
0.0
 10
193.9434727040725
 20
109.5201677217667
 30
0.0
 10
194.2518634155318
 20
108.6778140085303
 30
0.0
 10
194.7443225838662
 20
108.0081904798004
 30
0.0
 10
195.271066311569
 20
107.5593124941848
 30
0.0
 10
195.7005371591523
 20
107.2944319560216
 30
0.0
 10
196.127494377004
 20
107.1087767184826
 30
0.0
 10
196.5377975374093
 20
106.9911133547337
 30
0.0
 10
196.9209879041012
 20
106.9294223309411
 30
0.0
 10
197.3076549575225
 20
106.9095538411659
 30
0.0
 10
197.7249562097891
 20
106.9355801630733
 30
0.0
  0
SPLINE
  5
112
330
1F
100
AcDbEntity
  8
0
  6
HIDDEN
 62
     7
370
     0
100
AcDbSpline
210
0.0
220
0.0
230
1.0
 70
     8
 71
     3
 72
    81
 73
    77
 74
     0
 42
0.00000001
 43
0.00000001
 40
-0.031250000000001
 40
-0.031250000000001
 40
0.0
 40
0.0
 40
0.031249999999999
 40
0.031249999999999
 40
0.0624999999999979
 40
0.0624999999999979
 40
0.0937499999999969
 40
0.0937499999999969
 40
0.1093749999999964
 40
0.1093749999999964
 40
0.1249999999999959
 40
0.1249999999999959
 40
0.1562499999999954
 40
0.1562499999999954
 40
0.1874999999999949
 40
0.1874999999999949
 40
0.2187499999999944
 40
0.2187499999999944
 40
0.2343749999999943
 40
0.2343749999999943
 40
0.2499999999999941
 40
0.2656249999999939
 40
0.2656249999999939
 40
0.2812499999999937
 40
0.2812499999999937
 40
0.3124999999999933
 40
0.3124999999999933
 40
0.3281249999999932
 40
0.3281249999999932
 40
0.3437499999999931
 40
0.3437499999999931
 40
0.359374999999993
 40
0.359374999999993
 40
0.3749999999999928
 40
0.3749999999999928
 40
0.4062499999999922
 40
0.4062499999999922
 40
0.4374999999999915
 40
0.4374999999999915
 40
0.4687499999999908
 40
0.4687499999999908
 40
0.4999999999999901
 40
0.4999999999999901
 40
0.5312499999999895
 40
0.5312499999999895
 40
0.5624999999999887
 40
0.5624999999999887
 40
0.5937499999999887
 40
0.5937499999999887
 40
0.6249999999999886
 40
0.6249999999999886
 40
0.6406249999999891
 40
0.6406249999999891
 40
0.6562499999999896
 40
0.6562499999999896
 40
0.6874999999999905
 40
0.6874999999999905
 40
0.7187499999999915
 40
0.7187499999999915
 40
0.7499999999999923
 40
0.7499999999999923
 40
0.7812499999999933
 40
0.7812499999999933
 40
0.8124999999999943
 40
0.8124999999999943
 40
0.8437499999999952
 40
0.8437499999999952
 40
0.8749999999999962
 40
0.8749999999999962
 40
0.9062499999999971
 40
0.9062499999999971
 40
0.9374999999999981
 40
0.9374999999999981
 40
0.968749999999999
 40
0.968749999999999
 40
1.0
 40
1.0
 40
1.031249999999999
 40
1.031249999999999
 10
195.1279315562395
 20
105.3523910737873
 30
0.0
 10
194.4377471329569
 20
105.3523910737873
 30
0.0
 10
194.0978136628916
 20
105.3815597410825
 30
0.0
 10
193.4278945313052
 20
105.4964502440776
 30
0.0
 10
193.0957388222888
 20
105.5829643257187
 30
0.0
 10
192.4518600816133
 20
105.8138978830868
 30
0.0
 10
192.1451572758905
 20
105.9560717239872
 30
0.0
 10
191.7078298477678
 20
106.2100744454103
 30
0.0
 10
191.5658665626456
 20
106.3015783754069
 30
0.0
 10
191.2898656966332
 20
106.4989821433268
 30
0.0
 10
191.1553837691087
 20
106.6053770632845
 30
0.0
 10
190.7730793931116
 20
106.9399646799697
 30
0.0
 10
190.5433571528135
 20
107.1851266839433
 30
0.0
 10
190.1352363680368
 20
107.7217188633068
 30
0.0
 10
189.9554620433954
 20
108.0171747664331
 30
0.0
 10
189.6674347504873
 20
108.631168118112
 30
0.0
 10
189.556895913963
 20
108.9512650143453
 30
0.0
 10
189.4434702989992
 20
109.4521969984455
 30
0.0
 10
189.4144893352691
 20
109.623446550432
 30
0.0
 10
189.3760694571885
 20
109.9640389375479
 30
0.0
 10
189.3565756393033
 20
110.3047002017141
 30
0.0
 10
189.3743058315117
 20
110.6454971046491
 30
0.0
 10
189.4109769253864
 20
110.986362946421
 30
0.0
 10
189.4390647030669
 20
111.1577238460614
 30
0.0
 10
189.5500522370114
 20
111.6597667100204
 30
0.0
 10
189.6593206474133
 20
111.9816509334192
 30
0.0
 10
189.8747658747367
 20
112.44601538453
 30
0.0
 10
189.9556529971776
 20
112.5982077063749
 30
0.0
 10
190.1311169416864
 20
112.889834046145
 30
0.0
 10
190.2259939905794
 20
113.0300731611908
 30
0.0
 10
190.4295624210571
 20
113.2998961207227
 30
0.0
 10
190.5382555398463
 20
113.4294784097955
 30
0.0
 10
190.7694187709341
 20
113.6781463014791
 30
0.0
 10
190.8924279758186
 20
113.7976156078339
 30
0.0
 10
191.2748529105043
 20
114.1337197800864
 30
0.0
 10
191.5492357210548
 20
114.3304621340761
 30
0.0
 10
192.1353583019492
 20
114.6727777794046
 30
0.0
 10
192.4482022277215
 20
114.8179923866195
 30
0.0
 10
193.0872069762173
 20
115.0479920825937
 30
0.0
 10
193.4161740408815
 20
115.1346636103508
 30
0.0
 10
194.0931997616565
 20
115.2517398094315
 30
0.0
 10
194.4363518746723
 20
115.2808890000031
 30
0.0
 10
195.1175662845569
 20
115.2815495507892
 30
0.0
 10
195.4578435192166
 20
115.2534686125372
 30
0.0
 10
196.1376606128524
 20
115.1374831730408
 30
0.0
 10
196.4668706914319
 20
115.0513333539267
 30
0.0
 10
197.1044971542002
 20
114.8234668465078
 30
0.0
 10
197.4146799910998
 20
114.6807395152459
 30
0.0
 10
198.0048465828106
 20
114.3383546546014
 30
0.0
 10
198.2790648658066
 20
114.1424718377104
 30
0.0
 10
198.659164996697
 20
113.8107264550521
 30
0.0
 10
198.7806256159963
 20
113.6937820006276
 30
0.0
 10
199.0126157729202
 20
113.4464435997191
 30
0.0
 10
199.1236033255593
 20
113.3153206098048
 30
0.0
 10
199.4318801566406
 20
112.9100076036691
 30
0.0
 10
199.6071011914723
 20
112.6219695032595
 30
0.0
 10
199.8957846669177
 20
112.0087764986576
 30
0.0
 10
200.0094496280486
 20
111.6797287769497
 30
0.0
 10
200.1597873058458
 20
111.0151263546732
 30
0.0
 10
200.1986973256663
 20
110.6766069038246
 30
0.0
 10
200.2008812902041
 20
109.9865325681622
 30
0.0
 10
200.1636287244392
 20
109.6443002573714
 30
0.0
 10
200.0168524078383
 20
108.9784224269165
 30
0.0
 10
199.9052281017036
 20
108.6491839974364
 30
0.0
 10
199.6185254005884
 20
108.0319209355973
 30
0.0
 10
199.4437511449915
 20
107.7414787673377
 30
0.0
 10
199.0320730026619
 20
107.1958090766299
 30
0.0
 10
198.8002346945806
 20
106.947676204371
 30
0.0
 10
198.2926067481441
 20
106.5013834495075
 30
0.0
 10
198.0130084127399
 20
106.3008357119592
 30
0.0
 10
197.4263274775156
 20
105.9588168248132
 30
0.0
 10
197.1189918340596
 20
105.8161661056651
 30
0.0
 10
196.47695210167
 20
105.5850742997344
 30
0.0
 10
196.1420629280622
 20
105.4973521373122
 30
0.0
 10
195.4692788321265
 20
105.3816355354558
 30
0.0
 10
195.1279315562395
 20
105.3523910737873
 30
0.0
 10
194.4377471329569
 20
105.3523910737873
 30
0.0
  0
LINE
  5
113
330
1F
100
AcDbEntity
  8
0
  6
HIDDEN
 62
     7
370
     0
100
AcDbLine
 10
159.0828393446
 20
97.3168066001
 30
0.0
 11
159.0828393446
 21
123.3168066001
 31
0.0
  0
LINE
  5
114
330
1F
100
AcDbEntity
  8
0
  6
HIDDEN
 62
     7
370
     0
100
AcDbLine
 10
163.0828393446
 20
97.3168066001
 30
0.0
 11
163.0828393446
 21
123.3168066001
 31
0.0
  0
LINE
  5
115
330
1F
100
AcDbEntity
  8
0
  6
HIDDEN
 62
     7
370
     0
100
AcDbLine
 10
147.9828393446
 20
99.0668066001
 30
0.0
 11
147.9828393446
 21
121.5668066001
 31
0.0
  0
ELLIPSE
  5
116
330
1F
100
AcDbEntity
  8
0
  6
HIDDEN
 62
     7
370
     0
100
AcDbEllipse
 10
78.5981661443
 20
110.3168066001
 30
0.0
 11
31.08108570811662
 21
-1.421085471520200E-14
 31
0.0
210
0.0
220
0.0
230
1.0
 40
0.8164965809
 41
4.915995335118103
 42
4.970536038964788
  0
ELLIPSE
  5
117
330
1F
100
AcDbEntity
  8
0
  6
HIDDEN
 62
     7
370
     0
100
AcDbEllipse
 10
78.5981661443
 20
110.3168066001
 30
0.0
 11
31.08108570811662
 21
1.421085471520200E-14
 31
0.0
210
0.0
220
0.0
230
1.0
 40
0.8164965809
 41
1.31264926821481
 42
1.367189972061496
  0
LINE
  5
118
330
1F
100
AcDbEntity
  8
0
  6
HIDDEN
 62
     7
370
     0
100
AcDbLine
 10
163.7328393446
 20
66.4168066001
 30
0.0
 11
149.7328393446
 21
66.4168066001
 31
0.0
  0
LINE
  5
119
330
1F
100
AcDbEntity
  8
0
  6
HIDDEN
 62
     7
370
     0
100
AcDbLine
 10
139.7328393446
 20
60.3268076003
 30
0.0
 11
139.7328393446
 21
66.4168066001
 31
0.0
  0
LINE
  5
11A
330
1F
100
AcDbEntity
  8
0
  6
HIDDEN
 62
     7
370
     0
100
AcDbLine
 10
149.7328393446
 20
66.4168066001
 30
0.0
 11
139.7328393446
 21
66.4168066001
 31
0.0
  0
LINE
  5
11B
330
1F
100
AcDbEntity
  8
0
  6
HIDDEN
 62
     7
370
     0
100
AcDbLine
 10
99.9828393446
 20
82.9468066001
 30
0.0
 11
99.9828393446
 21
85.0882929697
 31
0.0
  0
LINE
  5
11C
330
1F
100
AcDbEntity
  8
0
  6
HIDDEN
 62
     7
370
     0
100
AcDbLine
 10
86.5328393446
 20
82.9468066001
 30
0.0
 11
86.5328393446
 21
85.7801014423
 31
0.0
  0
LINE
  5
11D
330
1F
100
AcDbEntity
  8
0
  6
HIDDEN
 62
     7
370
     0
100
AcDbLine
 10
94.9828393446
 20
137.6868066001
 30
0.0
 11
94.9828393446
 21
135.5453202305
 31
0.0
  0
LINE
  5
11E
330
1F
100
AcDbEntity
  8
0
  6
HIDDEN
 62
     7
370
     0
100
AcDbLine
 10
86.5328393446
 20
137.6868066001
 30
0.0
 11
86.5328393446
 21
134.8535117579
 31
0.0
  0
LINE
  5
11F
330
1F
100
AcDbEntity
  8
0
  6
HIDDEN
 62
     7
370
     0
100
AcDbLine
 10
149.7328393446
 20
154.2168066001
 30
0.0
 11
139.7328393446
 21
154.2168066001
 31
0.0
  0
LINE
  5
120
330
1F
100
AcDbEntity
  8
0
  6
HIDDEN
 62
     7
370
     0
100
AcDbLine
 10
163.7328393446
 20
154.2168066001
 30
0.0
 11
149.7328393446
 21
154.2168066001
 31
0.0
  0
SPLINE
  5
121
330
1F
100
AcDbEntity
  8
0
  6
HIDDEN
 62
     7
370
     0
100
AcDbSpline
210
0.0
220
0.0
230
1.0
 70
     8
 71
     3
 72
    14
 73
    10
 74
     0
 42
0.00000001
 43
0.00000001
 40
0.0
 40
0.0
 40
0.0
 40
0.0
 40
0.25
 40
0.25
 40
0.5
 40
0.5
 40
0.75
 40
0.75
 40
1.0
 40
1.0
 40
1.0
 40
1.0
 10
178.8290972067402
 20
103.2160145165902
 30
0.0
 10
178.8668441843277
 20
103.249130188514
 30
0.0
 10
178.8999433765262
 20
103.2897998462763
 30
0.0
 10
178.9459138304336
 20
103.3910705289731
 30
0.0
 10
178.9571418013555
 20
103.4497161086499
 30
0.0
 10
178.9482878999384
 20
103.5833878574787
 30
0.0
 10
178.9282684501636
 20
103.655875823644
 30
0.0
 10
178.868710756297
 20
103.8061583962563
 30
0.0
 10
178.8305445529953
 20
103.8821965924166
 30
0.0
 10
178.7890891386473
 20
103.9601925727634
 30
0.0
  0
SPLINE
  5
122
330
1F
100
AcDbEntity
  8
0
  6
HIDDEN
 62
     7
370
     0
100
AcDbSpline
210
0.0
220
0.0
230
1.0
 70
     8
 71
     3
 72
    14
 73
    10
 74
     0
 42
0.00000001
 43
0.00000001
 40
0.0
 40
0.0
 40
0.0
 40
0.0
 40
0.25
 40
0.25
 40
0.5
 40
0.5
 40
0.75
 40
0.75
 40
1.0
 40
1.0
 40
1.0
 40
1.0
 10
178.7890891386474
 20
103.9601925727631
 30
0.0
 10
178.7545247122448
 20
103.923733178993
 30
0.0
 10
178.7211345084965
 20
103.888760647766
 30
0.0
 10
178.6655377628315
 20
103.8101742595747
 30
0.0
 10
178.6424054351013
 20
103.7651645621693
 30
0.0
 10
178.6538417246351
 20
103.6219121811294
 30
0.0
 10
178.6848853051868
 20
103.5367438533705
 30
0.0
 10
178.7517414141277
 20
103.3747479636147
 30
0.0
 10
178.7897435424881
 20
103.2946572130923
 30
0.0
 10
178.8290972067399
 20
103.2160145165884
 30
0.0
  0
SPLINE
  5
123
330
1F
100
AcDbEntity
  8
0
  6
HIDDEN
 62
     7
370
     0
100
AcDbSpline
210
0.0
220
0.0
230
1.0
 70
     8
 71
     3
 72
    48
 73
    44
 74
     0
 42
0.00000001
 43
0.00000001
 40
-0.0624999999999992
 40
-0.0624999999999992
 40
0.0
 40
0.0
 40
0.0312500000000005
 40
0.0312500000000005
 40
0.062500000000001
 40
0.062500000000001
 40
0.125000000000002
 40
0.125000000000002
 40
0.1875000000000031
 40
0.1875000000000031
 40
0.2500000000000041
 40
0.2500000000000041
 40
0.3125000000000051
 40
0.3125000000000051
 40
0.3437500000000054
 40
0.3437500000000054
 40
0.3750000000000057
 40
0.3750000000000057
 40
0.4062500000000061
 40
0.4062500000000061
 40
0.4375000000000064
 40
0.4375000000000064
 40
0.5000000000000057
 40
0.5000000000000057
 40
0.5625000000000049
 40
0.5625000000000049
 40
0.6250000000000041
 40
0.6250000000000041
 40
0.6875000000000033
 40
0.6875000000000033
 40
0.7500000000000026
 40
0.7500000000000026
 40
0.8125000000000019
 40
0.8125000000000019
 40
0.8437500000000016
 40
0.8437500000000016
 40
0.8750000000000013
 40
0.8750000000000013
 40
0.906250000000001
 40
0.906250000000001
 40
0.9375000000000008
 40
0.9375000000000008
 40
1.0
 40
1.0
 40
1.03125
 40
1.03125
 10
180.9136293219497
 20
103.1756122238322
 30
0.0
 10
181.0356971524667
 20
103.1790035490541
 30
0.0
 10
181.0741594823844
 20
103.1874503650004
 30
0.0
 10
181.1443089581508
 20
103.2197252290546
 30
0.0
 10
181.176326090926
 20
103.2439979865204
 30
0.0
 10
181.2550616778437
 20
103.3408206480417
 30
0.0
 10
181.2847900786645
 20
103.4399702857767
 30
0.0
 10
181.2806783246344
 20
103.6888920875464
 30
0.0
 10
181.2466322319689
 20
103.839493534641
 30
0.0
 10
181.1352660734442
 20
104.1484087051695
 30
0.0
 10
181.0588671498536
 20
104.3071685847953
 30
0.0
 10
180.8956939695893
 20
104.6149398316336
 30
0.0
 10
180.8070545035737
 20
104.7656773645438
 30
0.0
 10
180.6978404028448
 20
104.9836025780663
 30
0.0
 10
180.6649188551329
 20
105.0567582377587
 30
0.0
 10
180.620468142133
 20
105.1962948814045
 30
0.0
 10
180.609235323709
 20
105.2642955167731
 30
0.0
 10
180.6160231221329
 20
105.3842290282842
 30
0.0
 10
180.6337700854185
 20
105.4376477629391
 30
0.0
 10
180.6859206118912
 20
105.5257948412686
 30
0.0
 10
180.7202937763584
 20
105.561917027353
 30
0.0
 10
180.8322404370564
 20
105.6480163777037
 30
0.0
 10
180.9177244142099
 20
105.677113395098
 30
0.0
 10
181.0758758921103
 20
105.6806519905328
 30
0.0
 10
181.1481207675452
 20
105.6546871370526
 30
0.0
 10
181.2538108239302
 20
105.5329900731053
 30
0.0
 10
181.2843098696885
 20
105.4361413138775
 30
0.0
 10
181.2812534937705
 20
105.1869922434103
 30
0.0
 10
181.2473308433761
 20
105.0340569205436
 30
0.0
 10
181.137365415778
 20
104.7211760243773
 30
0.0
 10
181.0622101503852
 20
104.5602201023181
 30
0.0
 10
180.9034502206388
 20
104.250717640114
 30
0.0
 10
180.816805499997
 20
104.0978391735832
 30
0.0
 10
180.7083353655514
 20
103.8792155580913
 30
0.0
 10
180.6753857989006
 20
103.8070685723061
 30
0.0
 10
180.6265962591403
 20
103.6647205624443
 30
0.0
 10
180.6120046650166
 20
103.5964319105233
 30
0.0
 10
180.6119864281851
 20
103.471351148534
 30
0.0
 10
180.6266686551443
 20
103.4164895930534
 30
0.0
 10
180.6766810311689
 20
103.324543569606
 30
0.0
 10
180.7106673371996
 20
103.2882250045336
 30
0.0
 10
180.8249649057921
 20
103.2017519155946
 30
0.0
 10
180.9136293219497
 20
103.1756122238322
 30
0.0
 10
181.0356971524667
 20
103.1790035490541
 30
0.0
  0
SPLINE
  5
124
330
1F
100
AcDbEntity
  8
0
  6
HIDDEN
 62
     7
370
     0
100
AcDbSpline
210
0.0
220
0.0
230
1.0
 70
     8
 71
     3
 72
     8
 73
     4
 74
     0
 42
0.00000001
 43
0.00000001
 40
0.0
 40
0.0
 40
0.0
 40
0.0
 40
1.0
 40
1.0
 40
1.0
 40
1.0
 10
181.0248733838087
 20
107.9470760482778
 30
0.0
 10
180.9832590205142
 20
107.9883257312474
 30
0.0
 10
180.9375648185591
 20
108.0317212677798
 30
0.0
 10
180.8880653264784
 20
108.0791240069502
 30
0.0
  0
SPLINE
  5
125
330
1F
100
AcDbEntity
  8
0
  6
HIDDEN
 62
     7
370
     0
100
AcDbSpline
210
0.0
220
0.0
230
1.0
 70
     8
 71
     3
 72
    32
 73
    28
 74
     0
 42
0.00000001
 43
0.00000001
 40
0.0
 40
0.0
 40
0.0
 40
0.0
 40
0.0624999999999993
 40
0.0624999999999993
 40
0.1249999999999987
 40
0.1249999999999987
 40
0.187499999999998
 40
0.187499999999998
 40
0.2499999999999973
 40
0.2499999999999973
 40
0.3749999999999987
 40
0.3749999999999987
 40
0.4374999999999992
 40
0.4374999999999992
 40
0.4999999999999998
 40
0.4999999999999998
 40
0.6250000000000012
 40
0.6250000000000012
 40
0.7500000000000027
 40
0.7500000000000027
 40
0.812500000000002
 40
0.812500000000002
 40
0.8750000000000013
 40
0.8750000000000013
 40
0.9375000000000007
 40
0.9375000000000007
 40
1.0
 40
1.0
 40
1.0
 40
1.0
 10
180.8880653264784
 20
108.0791240069502
 30
0.0
 10
180.7865640453911
 20
108.176325787223
 30
0.0
 10
180.6714240662122
 20
108.2612339128696
 30
0.0
 10
180.413136908056
 20
108.4022831934569
 30
0.0
 10
180.273115301547
 20
108.4561163010544
 30
0.0
 10
179.9803616200035
 20
108.522476490143
 30
0.0
 10
179.8271554931421
 20
108.5345788549769
 30
0.0
 10
179.5268109843135
 20
108.5139771820682
 30
0.0
 10
179.3767965752057
 20
108.4810026713824
 30
0.0
 10
178.9588682391679
 20
108.326037873731
 30
0.0
 10
178.7144434976036
 20
108.1444731820952
 30
0.0
 10
178.4624592543844
 20
107.8328299014515
 30
0.0
 10
178.3955344875194
 20
107.7202905776658
 30
0.0
 10
178.3063112035022
 20
107.4969655012994
 30
0.0
 10
178.2829657307205
 20
107.384030996434
 30
0.0
 10
178.2825881328574
 20
107.0633306708366
 30
0.0
 10
178.3759679199204
 20
106.876181131226
 30
0.0
 10
178.7147123673564
 20
106.5968238922119
 30
0.0
 10
178.9544193750381
 20
106.5048350517399
 30
0.0
 10
179.3743051861331
 20
106.4282313963417
 30
0.0
 10
179.5224891480764
 20
106.4132941158354
 30
0.0
 10
179.8232754112456
 20
106.4034621394337
 30
0.0
 10
179.9766991175588
 20
106.4086945532886
 30
0.0
 10
180.2694550257893
 20
106.439490596584
 30
0.0
 10
180.4113638846093
 20
106.4653827242865
 30
0.0
 10
180.6684836993619
 20
106.5381106601417
 30
0.0
 10
180.7865240008701
 20
106.5856575374
 30
0.0
 10
180.8880653264784
 20
106.6449165401053
 30
0.0
  0
SPLINE
  5
126
330
1F
100
AcDbEntity
  8
0
  6
HIDDEN
 62
     7
370
     0
100
AcDbSpline
210
0.0
220
0.0
230
1.0
 70
     8
 71
     3
 72
     8
 73
     4
 74
     0
 42
0.00000001
 43
0.00000001
 40
0.0
 40
0.0
 40
0.0
 40
0.0
 40
1.0
 40
1.0
 40
1.0
 40
1.0
 10
180.8880653264784
 20
106.6449165401053
 30
0.0
 10
180.9375648185591
 20
106.67380419267
 30
0.0
 10
180.9832590205142
 20
106.7120020206659
 30
0.0
 10
181.0248733838087
 20
106.7576632137729
 30
0.0
  0
SPLINE
  5
127
330
1F
100
AcDbEntity
  8
0
  6
HIDDEN
 62
     7
370
     0
100
AcDbSpline
210
0.0
220
0.0
230
1.0
 70
     8
 71
     3
 72
    12
 73
     8
 74
     0
 42
0.00000001
 43
0.00000001
 40
0.0
 40
0.0
 40
0.0
 40
0.0
 40
0.2499999999999999
 40
0.2499999999999999
 40
0.4999999999999998
 40
0.4999999999999998
 40
1.0
 40
1.0
 40
1.0
 40
1.0
 10
181.0248733838087
 20
106.7576632137729
 30
0.0
 10
181.108965931412
 20
106.849933424128
 30
0.0
 10
181.1727921271982
 20
106.9458193002917
 30
0.0
 10
181.2604755513973
 20
107.1489685199695
 30
0.0
 10
181.2827037487091
 20
107.2536669154629
 30
0.0
 10
181.2831086796394
 20
107.5688653008631
 30
0.0
 10
181.1930493199585
 20
107.7803738930575
 30
0.0
 10
181.0248733838087
 20
107.9470760482778
 30
0.0
  0
SPLINE
  5
128
330
1F
100
AcDbEntity
  8
0
  6
HIDDEN
 62
     7
370
     0
100
AcDbSpline
210
0.0
220
0.0
230
1.0
 70
     8
 71
     3
 72
    12
 73
     8
 74
     0
 42
0.00000001
 43
0.00000001
 40
0.0
 40
0.0
 40
0.0
 40
0.0
 40
0.4999999999999991
 40
0.4999999999999991
 40
0.7499999999999996
 40
0.7499999999999996
 40
1.0
 40
1.0
 40
1.0
 40
1.0
 10
178.7890891386474
 20
105.549192590493
 30
0.0
 10
178.8718957838806
 20
105.4969701123826
 30
0.0
 10
178.9434792279953
 20
105.4103101799755
 30
0.0
 10
178.9572457977073
 20
105.2211710097103
 30
0.0
 10
178.945905358191
 20
105.1519155261647
 30
0.0
 10
178.8999426954051
 20
105.0051920364526
 30
0.0
 10
178.8668469730028
 20
104.9304119712961
 30
0.0
 10
178.8290972067402
 20
104.8533146933901
 30
0.0
  0
SPLINE
  5
129
330
1F
100
AcDbEntity
  8
0
  6
HIDDEN
 62
     7
370
     0
100
AcDbSpline
210
0.0
220
0.0
230
1.0
 70
     8
 71
     3
 72
    18
 73
    14
 74
     0
 42
0.00000001
 43
0.00000001
 40
0.0
 40
0.0
 40
0.0
 40
0.0
 40
0.2499999999999927
 40
0.2499999999999927
 40
0.3749999999999933
 40
0.3749999999999933
 40
0.499999999999994
 40
0.499999999999994
 40
0.6249999999999947
 40
0.6249999999999947
 40
0.7499999999999952
 40
0.7499999999999952
 40
1.0
 40
1.0
 40
1.0
 40
1.0
 10
178.8290972067402
 20
104.8533146933903
 30
0.0
 10
178.7896488306118
 20
104.8861885874685
 30
0.0
 10
178.7514921501082
 20
104.9170770865635
 30
0.0
 10
178.7012618688741
 20
104.9673114539098
 30
0.0
 10
178.6857325570369
 20
104.9847076371453
 30
0.0
 10
178.6604731530459
 20
105.0259505728491
 30
0.0
 10
178.6509014837361
 20
105.0504161273388
 30
0.0
 10
178.6453173758194
 20
105.1117423655667
 30
0.0
 10
178.6496487225927
 20
105.1491805660884
 30
0.0
 10
178.667051856685
 20
105.227064012853
 30
0.0
 10
178.6796609018031
 20
105.2678175711423
 30
0.0
 10
178.7213618486767
 20
105.3889369403352
 30
0.0
 10
178.7546010458766
 20
105.4696764605199
 30
0.0
 10
178.7890891386474
 20
105.549192590493
 30
0.0
  0
SPLINE
  5
12A
330
1F
100
AcDbEntity
  8
0
  6
HIDDEN
 62
     7
370
     0
100
AcDbSpline
210
0.0
220
0.0
230
1.0
 70
     8
 71
     3
 72
    10
 73
     6
 74
     0
 42
0.00000001
 43
0.00000001
 40
0.0
 40
0.0
 40
0.0
 40
0.0
 40
0.5
 40
0.5
 40
1.0
 40
1.0
 40
1.0
 40
1.0
 10
178.2828393445977
 20
104.6339058162149
 30
0.0
 10
178.2828393445977
 20
104.6587293469909
 30
0.0
 10
178.2840694935058
 20
104.6812679051293
 30
0.0
 10
178.2888042821839
 20
104.7220162023908
 30
0.0
 10
178.2923099096276
 20
104.7402280202753
 30
0.0
 10
178.2968791498389
 20
104.7562367310849
 30
0.0
  0
SPLINE
  5
12B
330
1F
100
AcDbEntity
  8
0
  6
HIDDEN
 62
     7
370
     0
100
AcDbSpline
210
0.0
220
0.0
230
1.0
 70
     8
 71
     3
 72
    18
 73
    14
 74
     0
 42
0.00000001
 43
0.00000001
 40
0.0
 40
0.0
 40
0.0
 40
0.0
 40
0.0772759599426429
 40
0.165576767074399
 40
0.2251187958671459
 40
0.2700431158235974
 40
0.3151044203741097
 40
0.3748376078086475
 40
0.4788024122396826
 40
0.6283518597251745
 40
0.7774437918840024
 40
0.9120098986051357
 40
1.0
 40
1.0
 40
1.0
 40
1.0
 10
178.3145170238646
 20
104.7869904275975
 30
0.0
 10
178.3207125369908
 20
104.8005272249
 30
0.0
 10
178.3339874679599
 20
104.8295320944034
 30
0.0
 10
178.3596207358017
 20
104.8309915232391
 30
0.0
 10
178.3773684374318
 20
104.8118634892365
 30
0.0
 10
178.3843169039382
 20
104.774499928583
 30
0.0
 10
178.3814223473653
 20
104.7177612034625
 30
0.0
 10
178.3653345483153
 20
104.6231650344658
 30
0.0
 10
178.3323390726241
 20
104.4747611390055
 30
0.0
 10
178.2950476275236
 20
104.2872965504776
 30
0.0
 10
178.2784711166231
 20
104.1121613294335
 30
0.0
 10
178.2877750631417
 20
103.9986051732372
 30
0.0
 10
178.3065501579637
 20
103.9692086744419
 30
0.0
 10
178.3139731029854
 20
103.9575864378324
 30
0.0
  0
LWPOLYLINE
  5
12C
330
1F
100
AcDbEntity
  8
0
  6
HIDDEN
 62
     7
370
     0
100
AcDbPolyline
 90
       10
 70
   128
 43
0.0
 10
178.3240847337
 20
103.9371173961
 10
178.3608967948
 20
103.9308941528
 10
178.375954696
 20
103.9516753039
 10
178.3827054126
 20
103.9872817323
 10
178.3802545749
 20
104.0420983627
 10
178.3681960885
 20
104.1153263756
 10
178.3402439337
 20
104.2438177971
 10
178.3008177519
 20
104.4412821426
 10
178.2828393446
 20
104.6339058162
 10
178.2828393446
 20
104.6339058162
  0
LWPOLYLINE
  5
12D
330
1F
100
AcDbEntity
  8
0
  6
HIDDEN
 62
     7
370
     0
100
AcDbPolyline
 90
       18
 70
   128
 43
0.0
 10
179.7828393446
 20
101.4779718352
 10
179.2409768453
 20
101.549595852
 10
178.7722958791
 20
101.7547946819
 10
178.4400944076
 20
102.065855086
 10
178.2892380802
 20
102.440766633
 10
178.3401008798
 20
102.8288954411
 10
178.5858135037
 20
103.177822564
 10
178.9931911003
 20
103.4404234602
 10
179.5072150679
 20
103.5812324238
 10
180.0584636213
 20
103.5812324238
 10
180.5724875889
 20
103.4404234602
 10
180.9798651855
 20
103.177822564
 10
181.2255778094
 20
102.8288954411
 10
181.276440609
 20
102.440766633
 10
181.1255842816
 20
102.065855086
 10
180.7933828101
 20
101.7547946819
 10
180.3247018439
 20
101.549595852
 10
179.7828393446
 20
101.4779718352
  0
ARC
  5
12E
330
1F
100
AcDbEntity
  8
0
  6
HIDDEN
 62
     7
370
     0
100
AcDbCircle
 10
165.7704281328
 20
104.4516224194
 30
0.0
 40
13.06484575744531
100
AcDbArc
 50
1.7618960119
 51
4.8190653226
  0
SPLINE
  5
12F
330
1F
100
AcDbEntity
  8
0
  6
HIDDEN
 62
     7
370
     0
100
AcDbSpline
210
0.0
220
0.0
230
1.0
 70
     8
 71
     3
 72
    30
 73
    26
 74
     0
 42
0.00000001
 43
0.00000001
 40
0.0
 40
0.0
 40
0.0
 40
0.0
 40
0.0531112706481016
 40
0.1124939924979755
 40
0.1778933653869259
 40
0.2129185610579618
 40
0.2494728485797727
 40
0.2912400209113492
 40
0.3260834761985084
 40
0.353999501942928
 40
0.3749854508212787
 40
0.4414452251818862
 40
0.5001646888122211
 40
0.5546811223812139
 40
0.6144272213154482
 40
0.6794546232251545
 40
0.7140127204781725
 40
0.7499108347062096
 40
0.7913766576593371
 40
0.8260446964192527
 40
0.8539111670521277
 40
0.8749732173666455
 40
0.9411617854499374
 40
0.9999141541310665
 40
1.0
 40
1.0
 40
1.0
 40
1.0
 10
125.7823241022788
 20
73.21689506009868
 30
0.0
 10
125.7661341281509
 20
73.22179331914528
 30
0.0
 10
125.7318424456913
 20
73.2321682303405
 30
0.0
 10
125.4305644675953
 20
73.3078119181089
 30
0.0
 10
124.9884006350374
 20
73.40409702861322
 30
0.0
 10
124.4935672213957
 20
73.50376203627376
 30
0.0
 10
124.0230916999661
 20
73.59604014227524
 30
0.0
 10
123.4921702313079
 20
73.69167218703373
 30
0.0
 10
122.9540197390755
 20
73.77732242740359
 30
0.0
 10
122.4959724029328
 20
73.84461422092775
 30
0.0
 10
121.8404080822841
 20
73.93296238977162
 30
0.0
 10
120.957101644009
 20
74.02962047409628
 30
0.0
 10
119.8284399113789
 20
74.11639565083658
 30
0.0
 10
118.7386781616132
 20
74.15447434855501
 30
0.0
 10
117.6426498831886
 20
74.15632478331693
 30
0.0
 10
116.7372586362433
 20
74.13016332773226
 30
0.0
 10
116.0409559258284
 20
74.09355610260329
 30
0.0
 10
115.5142761975533
 20
74.05453922712624
 30
0.0
 10
115.0476300825207
 20
74.01233009965432
 30
0.0
 10
114.6764148067969
 20
73.97532601008491
 30
0.0
 10
114.4223683295548
 20
73.9466252496406
 30
0.0
 10
114.1213131768454
 20
73.91024529905064
 30
0.0
 10
113.8658293820424
 20
73.87746513206523
 30
0.0
 10
113.7666086570947
 20
73.8611272473536
 30
0.0
 10
113.7828892143788
 20
73.86372083352857
 30
0.0
 10
113.7829129679647
 20
73.8637246176111
 30
0.0
  0
SPLINE
  5
130
330
1F
100
AcDbEntity
  8
0
  6
HIDDEN
 62
     7
370
     0
100
AcDbSpline
210
0.0
220
0.0
230
1.0
 70
     8
 71
     3
 72
    30
 73
    26
 74
     0
 42
0.00000001
 43
0.00000001
 40
0.0
 40
0.0
 40
0.0
 40
0.0
 40
0.0001272292964773
 40
0.0285575920767604
 40
0.0588607048280617
 40
0.091040742112858
 40
0.1251011290864826
 40
0.1546892112980559
 40
0.1963674320918826
 40
0.2501213246112164
 40
0.320535512880943
 40
0.3856195857592015
 40
0.4454121255721865
 40
0.4999646209522237
 40
0.5283564674652143
 40
0.5586406043371053
 40
0.5908246941881663
 40
0.6249150611189584
 40
0.6541896109855283
 40
0.6958675401631972
 40
0.7499344557914799
 40
0.8215931872567541
 40
0.8871439727957595
 40
0.9466386700979834
 40
1.0
 40
1.0
 40
1.0
 40
1.0
 10
113.7829473117674
 20
146.7698155531858
 30
0.0
 10
113.7829112082758
 20
146.7698234253747
 30
0.0
 10
113.7748075025081
 20
146.7715903985847
 30
0.0
 10
113.8034648719397
 20
146.7661363777525
 30
0.0
 10
113.8768565750263
 20
146.7555925564552
 30
0.0
 10
114.0205116922428
 20
146.7359076348218
 30
0.0
 10
114.2215477909688
 20
146.7110682910022
 30
0.0
 10
114.5041782377731
 20
146.6768598464105
 30
0.0
 10
114.9175874018661
 20
146.6331799419265
 30
0.0
 10
115.593874887623
 20
146.5701368774864
 30
0.0
 10
116.532305794149
 20
146.5088397059287
 30
0.0
 10
117.6417990061531
 20
146.4775512627274
 30
0.0
 10
118.7392797371954
 20
146.4792064302531
 30
0.0
 10
119.6393109755763
 20
146.5105126323658
 30
0.0
 10
120.3506519014374
 20
146.5573457811662
 30
0.0
 10
120.9160688024259
 20
146.6045126430626
 30
0.0
 10
121.5049922252549
 20
146.6639516496125
 30
0.0
 10
122.0694018777322
 20
146.7303088562205
 30
0.0
 10
122.6635980716684
 20
146.812228262652
 30
0.0
 10
123.3302062326389
 20
146.9138762454024
 30
0.0
 10
124.1315389783392
 20
147.0560151560027
 30
0.0
 10
124.8840489628471
 20
147.2072597267691
 30
0.0
 10
125.4293354578132
 20
147.3251106000285
 30
0.0
 10
125.7320569893121
 20
147.4013398317778
 30
0.0
 10
125.7663474399251
 20
147.4117921412723
 30
0.0
 10
125.7825608765751
 20
147.4167342710724
 30
0.0
  0
ARC
  5
131
330
1F
100
AcDbEntity
  8
0
  6
HIDDEN
 62
     7
370
     0
100
AcDbCircle
 10
194.9191722633
 20
104.4542042526
 30
0.0
 40
16.13764633237416
100
AcDbArc
 50
181.7542339436
 51
184.4004458049
  0
LINE
  5
132
330
1F
100
AcDbEntity
  8
0
  6
HIDDEN
 62
     7
370
     0
100
AcDbLine
 10
177.7828393446
 20
106.4168066001
 30
0.0
 11
177.7828393446
 21
114.2168066001
 31
0.0
  0
SPLINE
  5
133
330
1F
100
AcDbEntity
  8
0
  6
HIDDEN
 62
     7
370
     0
100
AcDbSpline
210
0.0
220
0.0
230
1.0
 70
     8
 71
     3
 72
    32
 73
    28
 74
     0
 42
0.00000001
 43
0.00000001
 40
0.0
 40
0.0
 40
0.0
 40
0.0
 40
0.0624999999999993
 40
0.0624999999999993
 40
0.1249999999999985
 40
0.1249999999999985
 40
0.1874999999999978
 40
0.1874999999999978
 40
0.2499999999999971
 40
0.2499999999999971
 40
0.3749999999999983
 40
0.3749999999999983
 40
0.4374999999999989
 40
0.4374999999999989
 40
0.4999999999999997
 40
0.4999999999999997
 40
0.6250000000000011
 40
0.6250000000000011
 40
0.7500000000000024
 40
0.7500000000000024
 40
0.8125000000000019
 40
0.8125000000000019
 40
0.8750000000000012
 40
0.8750000000000012
 40
0.9375000000000007
 40
0.9375000000000007
 40
1.0
 40
1.0
 40
1.0
 40
1.0
 10
180.8880653264784
 20
112.5544891931866
 30
0.0
 10
180.7865640453911
 20
112.4572874129138
 30
0.0
 10
180.6714240662122
 20
112.3723792872673
 30
0.0
 10
180.413136908056
 20
112.2313300066799
 30
0.0
 10
180.2731153015469
 20
112.1774968990825
 30
0.0
 10
179.9803616200035
 20
112.1111367099938
 30
0.0
 10
179.8271554931421
 20
112.09903434516
 30
0.0
 10
179.5268109843135
 20
112.1196360180686
 30
0.0
 10
179.3767965752057
 20
112.1526105287545
 30
0.0
 10
178.958868239168
 20
112.3075753264059
 30
0.0
 10
178.7144434976036
 20
112.4891400180417
 30
0.0
 10
178.4624592543844
 20
112.8007832986853
 30
0.0
 10
178.3955344875194
 20
112.913322622471
 30
0.0
 10
178.3063112035023
 20
113.1366476988375
 30
0.0
 10
178.2829657307205
 20
113.2495822037028
 30
0.0
 10
178.2825881328574
 20
113.5702825293002
 30
0.0
 10
178.3759679199204
 20
113.7574320689109
 30
0.0
 10
178.7147123673564
 20
114.0367893079249
 30
0.0
 10
178.9544193750382
 20
114.1287781483969
 30
0.0
 10
179.3743051861331
 20
114.2053818037952
 30
0.0
 10
179.5224891480764
 20
114.2203190843014
 30
0.0
 10
179.8232754112456
 20
114.2301510607032
 30
0.0
 10
179.9766991175588
 20
114.2249186468482
 30
0.0
 10
180.2694550257894
 20
114.1941226035528
 30
0.0
 10
180.4113638846093
 20
114.1682304758504
 30
0.0
 10
180.6684836993619
 20
114.0955025399951
 30
0.0
 10
180.7865240008701
 20
114.0479556627369
 30
0.0
 10
180.8880653264784
 20
113.9886966600315
 30
0.0
  0
SPLINE
  5
134
330
1F
100
AcDbEntity
  8
0
  6
HIDDEN
 62
     7
370
     0
100
AcDbSpline
210
0.0
220
0.0
230
1.0
 70
     8
 71
     3
 72
     8
 73
     4
 74
     0
 42
0.00000001
 43
0.00000001
 40
0.0
 40
0.0
 40
0.0
 40
0.0
 40
1.0
 40
1.0
 40
1.0
 40
1.0
 10
180.8880653264784
 20
113.9886966600315
 30
0.0
 10
180.9375648185591
 20
113.9598090074669
 30
0.0
 10
180.9832590205142
 20
113.9216111794709
 30
0.0
 10
181.0248733838087
 20
113.875949986364
 30
0.0
  0
SPLINE
  5
135
330
1F
100
AcDbEntity
  8
0
  6
HIDDEN
 62
     7
370
     0
100
AcDbSpline
210
0.0
220
0.0
230
1.0
 70
     8
 71
     3
 72
    12
 73
     8
 74
     0
 42
0.00000001
 43
0.00000001
 40
0.0
 40
0.0
 40
0.0
 40
0.0
 40
0.25
 40
0.25
 40
0.5
 40
0.5
 40
1.0
 40
1.0
 40
1.0
 40
1.0
 10
181.0248733838087
 20
113.875949986364
 30
0.0
 10
181.108965931412
 20
113.7836797760089
 30
0.0
 10
181.1727921271982
 20
113.6877938998452
 30
0.0
 10
181.2604755513974
 20
113.4846446801673
 30
0.0
 10
181.2827037487091
 20
113.3799462846739
 30
0.0
 10
181.2831086796394
 20
113.0647478992737
 30
0.0
 10
181.1930493199585
 20
112.8532393070794
 30
0.0
 10
181.0248733838087
 20
112.6865371518591
 30
0.0
  0
LINE
  5
136
330
1F
100
AcDbEntity
  8
0
  6
HIDDEN
 62
     7
370
     0
100
AcDbLine
 10
181.7828393446
 20
106.3168066001
 30
0.0
 11
181.7828393446
 21
114.3168066001
 31
0.0
  0
LINE
  5
137
330
1F
100
AcDbEntity
  8
0
  6
HIDDEN
 62
     7
370
     0
100
AcDbLine
 10
179.2328393446
 20
94.8941568693
 30
0.0
 11
174.2328393446
 21
94.8941568693
 31
0.0
  0
LINE
  5
138
330
1F
100
AcDbEntity
  8
0
  6
HIDDEN
 62
     7
370
     0
100
AcDbLine
 10
176.7328393446
 20
125.7394563309
 30
0.0
 11
179.2328393446
 21
125.7394563309
 31
0.0
  0
LINE
  5
139
330
1F
100
AcDbEntity
  8
0
  6
HIDDEN
 62
     7
370
     0
100
AcDbLine
 10
174.2328393446
 20
125.7394563309
 30
0.0
 11
176.7328393446
 21
125.7394563309
 31
0.0
  0
LINE
  5
13A
330
1F
100
AcDbEntity
  8
0
  6
HIDDEN
 62
     7
370
     0
100
AcDbLine
 10
176.7328393446
 20
117.3168066001
 30
0.0
 11
179.2328393446
 21
117.3168066001
 31
0.0
  0
LINE
  5
13B
330
1F
100
AcDbEntity
  8
0
  6
HIDDEN
 62
     7
370
     0
100
AcDbLine
 10
174.2328393446
 20
117.3168066001
 30
0.0
 11
176.7328393446
 21
117.3168066001
 31
0.0
  0
LINE
  5
13C
330
1F
100
AcDbEntity
  8
0
  6
HIDDEN
 62
     7
370
     0
100
AcDbLine
 10
179.2328393446
 20
103.3168066001
 30
0.0
 11
174.2328393446
 21
103.3168066001
 31
0.0
  0
SPLINE
  5
13D
330
1F
100
AcDbEntity
  8
0
  6
HIDDEN
 62
     7
370
     0
100
AcDbSpline
210
0.0
220
0.0
230
1.0
 70
     8
 71
     3
 72
     8
 73
     4
 74
     0
 42
0.00000001
 43
0.00000001
 40
0.0
 40
0.0
 40
0.0
 40
0.0
 40
1.0
 40
1.0
 40
1.0
 40
1.0
 10
181.0248733838087
 20
112.6865371518591
 30
0.0
 10
180.9832590205142
 20
112.6452874688895
 30
0.0
 10
180.9375648185591
 20
112.601891932357
 30
0.0
 10
180.8880653264784
 20
112.5544891931866
 30
0.0
  0
SPLINE
  5
13E
330
1F
100
AcDbEntity
  8
0
  6
HIDDEN
 62
     7
370
     0
100
AcDbSpline
210
0.0
220
0.0
230
1.0
 70
     8
 71
     3
 72
    34
 73
    30
 74
     0
 42
0.00000001
 43
0.00000001
 40
-0.0624999999999988
 40
-0.0624999999999988
 40
0.0
 40
0.0
 40
0.1250000000000029
 40
0.1250000000000029
 40
0.2500000000000058
 40
0.2500000000000058
 40
0.3125000000000073
 40
0.3125000000000073
 40
0.3437500000000078
 40
0.3437500000000078
 40
0.3750000000000083
 40
0.3750000000000083
 40
0.4375000000000085
 40
0.4375000000000085
 40
0.5000000000000087
 40
0.5000000000000087
 40
0.6250000000000067
 40
0.6250000000000067
 40
0.7500000000000047
 40
0.7500000000000047
 40
0.8125000000000034
 40
0.8125000000000034
 40
0.8437500000000029
 40
0.8437500000000029
 40
0.8750000000000024
 40
0.8750000000000024
 40
0.9375000000000012
 40
0.9375000000000012
 40
1.0
 40
1.0
 40
1.125000000000003
 40
1.125000000000003
 10
178.3113377553731
 20
116.2652293616149
 30
0.0
 10
178.2844754099637
 20
116.4318525368308
 30
0.0
 10
178.2782446750474
 20
116.5294227744949
 30
0.0
 10
178.2953868126795
 20
116.6647580179315
 30
0.0
 10
178.318480864638
 20
116.703082949091
 30
0.0
 10
178.3558679836488
 20
116.7086036661729
 30
0.0
 10
178.3695194547718
 20
116.7022538485799
 30
0.0
 10
178.3813829010689
 20
116.6655477539228
 30
0.0
 10
178.3835931140122
 20
116.6480921367302
 30
0.0
 10
178.3822184316661
 20
116.6031501931901
 30
0.0
 10
178.3786550693266
 20
116.575829259232
 30
0.0
 10
178.3637644666328
 20
116.491056416186
 30
0.0
 10
178.3493484568442
 20
116.4309996816157
 30
0.0
 10
178.3234847313934
 20
116.3141569197853
 30
0.0
 10
178.3117676150127
 20
116.2577892865747
 30
0.0
 10
178.2845200213387
 20
116.095384672925
 30
0.0
 10
178.2782469993026
 20
115.9981343219106
 30
0.0
 10
178.2954083832406
 20
115.859287985058
 30
0.0
 10
178.3188550289271
 20
115.8142739977789
 30
0.0
 10
178.3582783104643
 20
115.8028672713269
 30
0.0
 10
178.3725706839724
 20
115.8081589546236
 30
0.0
 10
178.382846645246
 20
115.8496586182005
 30
0.0
 10
178.3838918717168
 20
115.8696803169365
 30
0.0
 10
178.3805153334541
 20
115.9179331869782
 30
0.0
 10
178.3763307506083
 20
115.9458253042635
 30
0.0
 10
178.3609270138572
 20
116.031272138876
 30
0.0
 10
178.347431388272
 20
116.0906069218052
 30
0.0
 10
178.3226397944286
 20
116.2082460468083
 30
0.0
 10
178.3113377553731
 20
116.2652293616149
 30
0.0
 10
178.2844754099637
 20
116.4318525368308
 30
0.0
  0
SPLINE
  5
13F
330
1F
100
AcDbEntity
  8
0
  6
HIDDEN
 62
     7
370
     0
100
AcDbSpline
210
0.0
220
0.0
230
1.0
 70
     8
 71
     3
 72
    14
 73
    10
 74
     0
 42
0.00000001
 43
0.00000001
 40
0.0
 40
0.0
 40
0.0
 40
0.0
 40
0.25
 40
0.25
 40
0.5
 40
0.5
 40
0.75
 40
0.75
 40
1.0
 40
1.0
 40
1.0
 40
1.0
 10
178.8290972067402
 20
117.4175986835464
 30
0.0
 10
178.8668441843277
 20
117.3844830116226
 30
0.0
 10
178.8999433765262
 20
117.3438133538604
 30
0.0
 10
178.9459138304336
 20
117.2425426711636
 30
0.0
 10
178.9571418013554
 20
117.1838970914868
 30
0.0
 10
178.9482878999382
 20
117.0502253426581
 30
0.0
 10
178.9282684501635
 20
116.9777373764927
 30
0.0
 10
178.8687107562969
 20
116.8274548038805
 30
0.0
 10
178.8305445529953
 20
116.7514166077204
 30
0.0
 10
178.7890891386474
 20
116.6734206273736
 30
0.0
  0
SPLINE
  5
140
330
1F
100
AcDbEntity
  8
0
  6
HIDDEN
 62
     7
370
     0
100
AcDbSpline
210
0.0
220
0.0
230
1.0
 70
     8
 71
     3
 72
    14
 73
    10
 74
     0
 42
0.00000001
 43
0.00000001
 40
0.0
 40
0.0
 40
0.0
 40
0.0
 40
0.25
 40
0.25
 40
0.5
 40
0.5
 40
0.75
 40
0.75
 40
1.0
 40
1.0
 40
1.0
 40
1.0
 10
178.7890891386474
 20
116.6734206273738
 30
0.0
 10
178.7545247122449
 20
116.7098800211439
 30
0.0
 10
178.7211345084966
 20
116.744852552371
 30
0.0
 10
178.6655377628317
 20
116.8234389405623
 30
0.0
 10
178.6424054351014
 20
116.8684486379676
 30
0.0
 10
178.6538417246352
 20
117.0117010190075
 30
0.0
 10
178.6848853051868
 20
117.0968693467663
 30
0.0
 10
178.7517414141277
 20
117.258865236522
 30
0.0
 10
178.7897435424881
 20
117.3389559870444
 30
0.0
 10
178.8290972067398
 20
117.4175986835482
 30
0.0
  0
LWPOLYLINE
  5
141
330
1F
100
AcDbEntity
  8
0
  6
HIDDEN
 62
     7
370
     0
100
AcDbPolyline
 90
       18
 70
   128
 43
0.0
 10
179.7828393446
 20
116.3272142402
 10
180.3247018439
 20
116.3988382569
 10
180.7933828101
 20
116.6040370868
 10
181.1255842816
 20
116.9150974909
 10
181.276440609
 20
117.2900090379
 10
181.2255778094
 20
117.678137846
 10
180.9798651855
 20
118.0270649689
 10
180.5724875889
 20
118.2896658652
 10
180.0584636213
 20
118.4304748287
 10
179.5072150679
 20
118.4304748287
 10
178.9931911003
 20
118.2896658652
 10
178.5858135037
 20
118.0270649689
 10
178.3401008798
 20
117.678137846
 10
178.2892380802
 20
117.2900090379
 10
178.4400944076
 20
116.9150974909
 10
178.7722958791
 20
116.6040370868
 10
179.2409768453
 20
116.3988382569
 10
179.7828393446
 20
116.3272142402
  0
SPLINE
  5
142
330
1F
100
AcDbEntity
  8
0
  6
HIDDEN
 62
     7
370
     0
100
AcDbSpline
210
0.0
220
0.0
230
1.0
 70
     8
 71
     3
 72
    48
 73
    44
 74
     0
 42
0.00000001
 43
0.00000001
 40
-0.0624999999999996
 40
-0.0624999999999996
 40
0.0
 40
0.0
 40
0.0624999999999997
 40
0.0624999999999997
 40
0.1249999999999995
 40
0.1249999999999995
 40
0.1874999999999992
 40
0.1874999999999992
 40
0.2499999999999989
 40
0.2499999999999989
 40
0.3124999999999987
 40
0.3124999999999987
 40
0.3437499999999987
 40
0.3437499999999987
 40
0.3749999999999987
 40
0.3749999999999987
 40
0.4062499999999988
 40
0.4062499999999988
 40
0.4374999999999988
 40
0.4374999999999988
 40
0.4999999999999992
 40
0.4999999999999992
 40
0.5624999999999997
 40
0.5624999999999997
 40
0.625
 40
0.625
 40
0.6562500000000001
 40
0.6562500000000001
 40
0.6875000000000002
 40
0.6875000000000002
 40
0.7500000000000003
 40
0.7500000000000003
 40
0.8125000000000006
 40
0.8125000000000006
 40
0.8437500000000006
 40
0.8437500000000006
 40
0.8750000000000006
 40
0.8750000000000006
 40
0.9062500000000006
 40
0.9062500000000006
 40
0.9375000000000004
 40
0.9375000000000004
 40
1.0
 40
1.0
 40
1.0625
 40
1.0625
 10
181.076585553623
 20
116.3622342876244
 30
0.0
 10
180.9134301976326
 20
116.0502101601722
 30
0.0
 10
180.8257262883813
 20
115.9008789068724
 30
0.0
 10
180.6737344589305
 20
115.6053948702878
 30
0.0
 10
180.6128468412387
 20
115.4604315433257
 30
0.0
 10
180.6111630047936
 20
115.2091894564657
 30
0.0
 10
180.6696097052973
 20
115.1168938648809
 30
0.0
 10
180.8146327746564
 20
114.9940979730604
 30
0.0
 10
180.900151882917
 20
114.9613380454384
 30
0.0
 10
181.0594442251947
 20
114.9497461580677
 30
0.0
 10
181.1341582669798
 20
114.9714933292937
 30
0.0
 10
181.2178126740304
 20
115.0560498912867
 30
0.0
 10
181.2403760318615
 20
115.0924421195033
 30
0.0
 10
181.2722130051928
 20
115.182371574383
 30
0.0
 10
181.2813640038098
 20
115.2366200526729
 30
0.0
 10
181.2839757779993
 20
115.3571834055762
 30
0.0
 10
181.2775207906061
 20
115.4252791932807
 30
0.0
 10
181.2503334401297
 20
115.5691683286802
 30
0.0
 10
181.2298136556596
 20
115.6448675640233
 30
0.0
 10
181.1513980861392
 20
115.8792168718681
 30
0.0
 10
181.0782120917623
 20
116.0399238566158
 30
0.0
 10
180.9212328360396
 20
116.3500700544897
 30
0.0
 10
180.83485753499
 20
116.5030310409642
 30
0.0
 10
180.6857560807349
 20
116.796991535877
 30
0.0
 10
180.6210037314669
 20
116.9442366707402
 30
0.0
 10
180.6088311942018
 20
117.1360261864752
 30
0.0
 10
180.6192124220669
 20
117.1931486450417
 30
0.0
 10
180.6628533534195
 20
117.2901439407551
 30
0.0
 10
180.6946522276976
 20
117.3289482818227
 30
0.0
 10
180.8047057867597
 20
117.4227487887113
 30
0.0
 10
180.8923722936892
 20
117.4530710987526
 30
0.0
 10
181.0571089613078
 20
117.4583178399923
 30
0.0
 10
181.1324221529621
 20
117.4324623684589
 30
0.0
 10
181.2171360988962
 20
117.3431374963699
 30
0.0
 10
181.2398331668201
 20
117.3056140816144
 30
0.0
 10
181.2720864348313
 20
117.2134868737688
 30
0.0
 10
181.2812451764791
 20
117.1590466325066
 30
0.0
 10
181.2840444753122
 20
117.0384489181785
 30
0.0
 10
181.2776505336097
 20
116.9705061130092
 30
0.0
 10
181.2505574695273
 20
116.8280490987725
 30
0.0
 10
181.229935697737
 20
116.7529206558139
 30
0.0
 10
181.1508408813966
 20
116.5210516519555
 30
0.0
 10
181.076585553623
 20
116.3622342876244
 30
0.0
 10
180.9134301976326
 20
116.0502101601722
 30
0.0
  0
SPLINE
  5
143
330
1F
100
AcDbEntity
  8
0
  6
HIDDEN
 62
     7
370
     0
100
AcDbSpline
210
0.0
220
0.0
230
1.0
 70
     8
 71
     3
 72
    12
 73
     8
 74
     0
 42
0.00000001
 43
0.00000001
 40
0.0
 40
0.0
 40
0.0
 40
0.0
 40
0.4999999999999992
 40
0.4999999999999992
 40
0.7499999999999996
 40
0.7499999999999996
 40
1.0
 40
1.0
 40
1.0
 40
1.0
 10
178.7890891386474
 20
115.0844206096437
 30
0.0
 10
178.8718957838807
 20
115.136643087754
 30
0.0
 10
178.9434792279953
 20
115.2233030201611
 30
0.0
 10
178.9572457977074
 20
115.4124421904264
 30
0.0
 10
178.9459053581911
 20
115.481697673972
 30
0.0
 10
178.8999426954053
 20
115.6284211636842
 30
0.0
 10
178.8668469730028
 20
115.703201228841
 30
0.0
 10
178.8290972067401
 20
115.780298506747
 30
0.0
  0
SPLINE
  5
144
330
1F
100
AcDbEntity
  8
0
  6
HIDDEN
 62
     7
370
     0
100
AcDbSpline
210
0.0
220
0.0
230
1.0
 70
     8
 71
     3
 72
    18
 73
    14
 74
     0
 42
0.00000001
 43
0.00000001
 40
0.0
 40
0.0
 40
0.0
 40
0.0
 40
0.2500000000000017
 40
0.2500000000000017
 40
0.3750000000000016
 40
0.3750000000000016
 40
0.5000000000000014
 40
0.5000000000000014
 40
0.6250000000000013
 40
0.6250000000000013
 40
0.7500000000000011
 40
0.7500000000000011
 40
1.0
 40
1.0
 40
1.0
 40
1.0
 10
178.8290972067402
 20
115.7802985067466
 30
0.0
 10
178.7896488306118
 20
115.7474246126684
 30
0.0
 10
178.7514921501081
 20
115.7165361135735
 30
0.0
 10
178.701261868874
 20
115.6663017462271
 30
0.0
 10
178.6857325570367
 20
115.6489055629916
 30
0.0
 10
178.6604731530458
 20
115.6076626272878
 30
0.0
 10
178.650901483736
 20
115.5831970727981
 30
0.0
 10
178.6453173758193
 20
115.5218708345701
 30
0.0
 10
178.6496487225926
 20
115.4844326340484
 30
0.0
 10
178.667051856685
 20
115.4065491872837
 30
0.0
 10
178.6796609018031
 20
115.3657956289944
 30
0.0
 10
178.7213618486768
 20
115.2446762598014
 30
0.0
 10
178.7546010458767
 20
115.1639367396167
 30
0.0
 10
178.7890891386475
 20
115.0844206096436
 30
0.0
  0
ARC
  5
145
330
1F
100
AcDbEntity
  8
0
  6
HIDDEN
 62
     7
370
     0
100
AcDbCircle
 10
194.9191722635
 20
116.1794089476
 30
0.0
 40
16.137646332515
100
AcDbArc
 50
175.5995541952
 51
178.2457660564
  0
ARC
  5
146
330
1F
100
AcDbEntity
  8
0
  6
HIDDEN
 62
     7
370
     0
100
AcDbCircle
 10
165.7704281329
 20
116.1819907807
 30
0.0
 40
13.06484575733693
100
AcDbArc
 50
355.1809346774
 51
358.2381039881
  0
LWPOLYLINE
  5
147
330
1F
100
AcDbEntity
  8
0
  6
HIDDEN
 62
     7
370
     0
100
AcDbPolyline
 90
       32
 70
   128
 43
0.0
 10
143.7828393446
 20
155.6295124518
 10
144.789331945
 20
155.5978844717
 10
145.7546186202
 20
155.5042953845
 10
146.6391804201
 20
155.3525767384
 10
147.4068032807
 20
155.1489399128
 10
148.0260606321
 20
154.901721823
 10
148.4716000053
 20
154.6210436068
 10
148.7251809662
 20
154.3183962633
 10
148.7764218805
 20
154.0061702104
 10
148.6232249389
 20
153.6971480192
 10
148.2718620425
 20
153.4039810947
 10
147.7367180293
 20
153.1386717251
 10
147.0397017582
 20
152.9120817073
 10
146.2093491573
 20
152.7334876632
 10
145.2796549595
 20
152.6102012538
 10
144.2886809545
 20
152.5472698394
 10
143.2769977347
 20
152.5472698394
 10
142.2860237297
 20
152.6102012538
 10
141.3563295319
 20
152.7334876632
 10
140.525976931
 20
152.9120817073
 10
139.8289606599
 20
153.1386717251
 10
139.2938166467
 20
153.4039810947
 10
138.9424537503
 20
153.6971480192
 10
138.7892568087
 20
154.0061702104
 10
138.840497723
 20
154.3183962633
 10
139.0940786839
 20
154.6210436068
 10
139.5396180571
 20
154.901721823
 10
140.1588754085
 20
155.1489399128
 10
140.9264982691
 20
155.3525767384
 10
141.811060069
 20
155.5042953845
 10
142.7763467442
 20
155.5978844717
 10
143.7828393446
 20
155.6295124518
  0
LINE
  5
148
330
1F
100
AcDbEntity
  8
0
  6
HIDDEN
 62
     7
370
     0
100
AcDbLine
 10
158.0448683655
 20
149.267769361
 30
0.0
 11
158.0448683655
 21
141.6668066001
 31
0.0
  0
LINE
  5
149
330
1F
100
AcDbEntity
  8
0
  6
HIDDEN
 62
     7
370
     0
100
AcDbLine
 10
156.6928393446
 20
145.0310417926
 30
0.0
 11
156.6928393446
 21
141.6668066001
 31
0.0
  0
LINE
  5
14A
330
1F
100
AcDbEntity
  8
0
  6
HIDDEN
 62
     7
370
     0
100
AcDbLine
 10
152.8728393446
 20
145.0310417926
 30
0.0
 11
152.8728393446
 21
141.6668066001
 31
0.0
  0
CIRCLE
  5
14B
330
1F
100
AcDbEntity
  8
0
  6
HIDDEN
 62
     7
370
     0
100
AcDbCircle
 10
141.7828393446
 20
110.3168066001
 30
0.0
 40
5.000000000000014
  0
LINE
  5
14C
330
1F
100
AcDbEntity
  8
0
  6
HIDDEN
 62
     7
370
     0
100
AcDbLine
 10
209.237201119
 20
106.7129885408
 30
0.0
 11
208.7518523709
 21
106.1995044357
 31
0.0
  0
LINE
  5
14D
330
1F
100
AcDbEntity
  8
0
  6
HIDDEN
 62
     7
370
     0
100
AcDbLine
 10
208.8073741183
 20
104.2010469576
 30
0.0
 11
209.3204837401
 21
103.7153023236
 31
0.0
  0
LINE
  5
14E
330
1F
100
AcDbEntity
  8
0
  6
HIDDEN
 62
     7
370
     0
100
AcDbLine
 10
214.5722788549
 20
106.8617880574
 30
0.0
 11
209.238341051
 21
106.7135989913
 31
0.0
  0
LINE
  5
14F
330
1F
100
AcDbEntity
  8
0
  6
HIDDEN
 62
     7
370
     0
100
AcDbLine
 10
209.321655807
 20
103.7147561058
 30
0.0
 11
214.6555936109
 21
103.8629451719
 31
0.0
  0
LINE
  5
150
330
1F
100
AcDbEntity
  8
0
  6
HIDDEN
 62
     7
370
     0
100
AcDbLine
 10
214.6575476398
 20
103.8647364714
 30
0.0
 11
214.7828393446
 21
104.0967458461
 31
0.0
  0
LINE
  5
151
330
1F
100
AcDbEntity
  8
0
  6
HIDDEN
 62
     7
370
     0
100
AcDbLine
 10
214.7435577129
 20
106.5845261554
 30
0.0
 11
214.5743293258
 21
106.8601080121
 31
0.0
  0
LINE
  5
152
330
1F
100
AcDbEntity
  8
0
  6
HIDDEN
 62
     7
370
     0
100
AcDbLine
 10
214.5519656802
 20
113.7741265016
 30
0.0
 11
214.7211940673
 21
114.0497083583
 31
0.0
  0
LINE
  5
153
330
1F
100
AcDbEntity
  8
0
  6
HIDDEN
 62
     7
370
     0
100
AcDbLine
 10
214.7828393446
 20
116.4960767047
 30
0.0
 11
214.6351839942
 21
116.7694980422
 31
0.0
  0
LINE
  5
154
330
1F
100
AcDbEntity
  8
0
  6
HIDDEN
 62
     7
370
     0
100
AcDbLine
 10
214.6332299653
 20
116.7712893417
 30
0.0
 11
209.2992921614
 21
116.9194784078
 31
0.0
  0
LINE
  5
155
330
1F
100
AcDbEntity
  8
0
  6
HIDDEN
 62
     7
370
     0
100
AcDbLine
 10
209.2159774055
 20
113.9206355224
 30
0.0
 11
214.5499152094
 21
113.7724464563
 31
0.0
  0
LINE
  5
156
330
1F
100
AcDbEntity
  8
0
  6
HIDDEN
 62
     7
370
     0
100
AcDbLine
 10
209.2981200945
 20
116.91893219
 30
0.0
 11
208.7850104727
 21
116.433187556
 31
0.0
  0
LINE
  5
157
330
1F
100
AcDbEntity
  8
0
  6
HIDDEN
 62
     7
370
     0
100
AcDbLine
 10
208.7294887253
 20
114.4347300779
 30
0.0
 11
209.2148374734
 21
113.9212459729
 31
0.0
  0
LINE
  5
158
330
1F
100
AcDbEntity
  8
0
  6
HIDDEN
 62
     7
370
     0
100
AcDbLine
 10
134.7828393446
 20
70.9121236435
 30
0.0
 11
134.8724409685
 21
71.5496723254
 31
0.0
  0
LINE
  5
159
330
1F
100
AcDbEntity
  8
0
  6
HIDDEN
 62
     7
370
     0
100
AcDbLine
 10
134.8724409685
 20
149.0839408747
 30
0.0
 11
134.7828393446
 21
149.7214895567
 31
0.0
  0
ARC
  5
15A
330
1F
100
AcDbEntity
  8
0
  6
HIDDEN
 62
     7
370
     0
100
AcDbCircle
 10
133.8859024261
 20
71.6883212756
 30
0.0
 40
0.9962338214386701
100
AcDbArc
 50
352.0
 51
0.0
  0
ARC
  5
15B
330
1F
100
AcDbEntity
  8
0
  6
HIDDEN
 62
     7
370
     0
100
AcDbCircle
 10
133.8859024261
 20
71.6883212756
 30
0.0
 40
0.9962338214386727
100
AcDbArc
 50
0.0
 51
25.7988228126
  0
ARC
  5
15C
330
1F
100
AcDbEntity
  8
0
  6
HIDDEN
 62
     7
370
     0
100
AcDbCircle
 10
133.8859024261
 20
148.9452919245
 30
0.0
 40
0.9962338214386743
100
AcDbArc
 50
348.75
 51
8.0
  0
LWPOLYLINE
  5
15D
330
1F
100
AcDbEntity
  8
0
  6
HIDDEN
 62
     7
370
     0
100
AcDbPolyline
 90
        3
 70
   128
 43
0.0
 10
134.8629938941
 20
148.7509363475
 10
134.8063024634
 20
148.5640497463
 10
134.7828393446
 20
148.5117184114
  0
LINE
  5
15E
330
1F
100
AcDbEntity
  8
0
  6
HIDDEN
 62
     7
370
     0
100
AcDbLine
 10
134.8821362476
 20
71.6883212756
 30
0.0
 11
134.8821362476
 21
148.9452919245
 31
0.0
  0
ARC
  5
15F
330
1F
100
AcDbEntity
  8
0
  6
HIDDEN
 62
     7
370
     0
100
AcDbCircle
 10
125.0360449998
 20
90.8168066001
 30
0.0
 40
12.00000000000001
100
AcDbArc
 50
273.4677799163
 51
324.3146652873
  0
ARC
  5
160
330
1F
100
AcDbEntity
  8
0
  6
HIDDEN
 62
     7
370
     0
100
AcDbCircle
 10
125.0360449998
 20
129.8168066001
 30
0.0
 40
11.99999999999999
100
AcDbArc
 50
35.6853347127
 51
86.5306288078
  0
ARC
  5
161
330
1F
100
AcDbEntity
  8
0
  6
HIDDEN
 62
     7
370
     0
100
AcDbCircle
 10
108.2435652868
 20
79.8168066001
 30
0.0
 40
1.000000000000008
100
AcDbArc
 50
210.0
 51
270.0
  0
ARC
  5
162
330
1F
100
AcDbEntity
  8
0
  6
HIDDEN
 62
     7
370
     0
100
AcDbCircle
 10
108.2435652868
 20
140.8168066001
 30
0.0
 40
1.000000000000008
100
AcDbArc
 50
90.0
 51
150.0
  0
LINE
  5
163
330
1F
100
AcDbEntity
  8
0
  6
HIDDEN
 62
     7
370
     0
100
AcDbLine
 10
108.2435652868
 20
78.8168066001
 30
0.0
 11
113.7880097185
 21
78.8168066001
 31
0.0
  0
LINE
  5
164
330
1F
100
AcDbEntity
  8
0
  6
HIDDEN
 62
     7
370
     0
100
AcDbLine
 10
113.7880097185
 20
141.8168066001
 30
0.0
 11
108.2435652868
 21
141.8168066001
 31
0.0
  0
LINE
  5
165
330
1F
100
AcDbEntity
  8
0
  6
HIDDEN
 62
     7
370
     0
100
AcDbLine
 10
107.377539883
 20
141.3168066001
 30
0.0
 11
104.7794636716
 21
136.8168066001
 31
0.0
  0
LINE
  5
166
330
1F
100
AcDbEntity
  8
0
  6
HIDDEN
 62
     7
370
     0
100
AcDbLine
 10
104.7794636716
 20
83.8168066001
 30
0.0
 11
107.377539883
 21
79.3168066001
 31
0.0
  0
ARC
  5
167
330
1F
100
AcDbEntity
  8
0
  6
HIDDEN
 62
     7
370
     0
100
AcDbCircle
 10
145.2328393446
 20
85.4418066001
 30
0.0
 40
2.0
100
AcDbArc
 50
234.3409123039
 51
0.0
  0
ARC
  5
168
330
1F
100
AcDbEntity
  8
0
  6
HIDDEN
 62
     7
370
     0
100
AcDbCircle
 10
145.2328393446
 20
135.1918066001
 30
0.0
 40
2.0
100
AcDbArc
 50
0.0
 51
125.6590876961
  0
LINE
  5
169
330
1F
100
AcDbEntity
  8
0
  6
HIDDEN
 62
     7
370
     0
100
AcDbLine
 10
99.9828393446
 20
83.8168066001
 30
0.0
 11
104.7794636716
 21
83.8168066001
 31
0.0
  0
LINE
  5
16A
330
1F
100
AcDbEntity
  8
0
  6
HIDDEN
 62
     7
370
     0
100
AcDbLine
 10
104.7794636716
 20
136.8168066001
 30
0.0
 11
94.9828393446
 21
136.8168066001
 31
0.0
  0
LINE
  5
16B
330
1F
100
AcDbEntity
  8
0
  6
HIDDEN
 62
     7
370
     0
100
AcDbLine
 10
134.7828393446
 20
83.8168066001
 30
0.0
 11
144.066916963
 21
83.8168066001
 31
0.0
  0
LINE
  5
16C
330
1F
100
AcDbEntity
  8
0
  6
HIDDEN
 62
     7
370
     0
100
AcDbLine
 10
144.066916963
 20
136.8168066001
 30
0.0
 11
134.7828393446
 21
136.8168066001
 31
0.0
  0
LINE
  5
16D
330
1F
100
AcDbEntity
  8
0
  6
HIDDEN
 62
     7
370
     0
100
AcDbLine
 10
138.7828393446
 20
155.9883599792
 30
0.0
 11
138.7828393446
 21
152.2942203787
 31
0.0
  0
LINE
  5
16E
330
1F
100
AcDbEntity
  8
0
  6
HIDDEN
 62
     7
370
     0
100
AcDbLine
 10
148.7828393446
 20
152.2942203787
 30
0.0
 11
148.7828393446
 21
155.9938682376
 31
0.0
  0
LINE
  5
16F
330
1F
100
AcDbEntity
  8
0
  6
HIDDEN
 62
     7
370
     0
100
AcDbLine
 10
159.0828393446
 20
97.3168066001
 30
0.0
 11
163.0828393446
 21
97.3168066001
 31
0.0
  0
LINE
  5
170
330
1F
100
AcDbEntity
  8
0
  6
HIDDEN
 62
     7
370
     0
100
AcDbLine
 10
163.0828393446
 20
123.3168066001
 30
0.0
 11
159.0828393446
 21
123.3168066001
 31
0.0
  0
LINE
  5
171
330
1F
100
AcDbEntity
  8
0
  6
HIDDEN
 62
     7
370
     0
100
AcDbLine
 10
147.2328393446
 20
98.3168066001
 30
0.0
 11
147.9828393446
 21
99.0668066001
 31
0.0
  0
LINE
  5
172
330
1F
100
AcDbEntity
  8
0
  6
HIDDEN
 62
     7
370
     0
100
AcDbLine
 10
147.9828393446
 20
121.5668066001
 30
0.0
 11
147.2328393446
 21
122.3168066001
 31
0.0
  0
LINE
  5
173
330
1F
100
AcDbEntity
  8
0
  6
HIDDEN
 62
     7
370
     0
100
AcDbLine
 10
147.9828393446
 20
99.0668066001
 30
0.0
 11
159.0828393446
 21
99.0668066001
 31
0.0
  0
LINE
  5
174
330
1F
100
AcDbEntity
  8
0
  6
HIDDEN
 62
     7
370
     0
100
AcDbLine
 10
159.0828393446
 20
121.5668066001
 30
0.0
 11
147.9828393446
 21
121.5668066001
 31
0.0
  0
LINE
  5
175
330
1F
100
AcDbEntity
  8
0
  6
HIDDEN
 62
     7
370
     0
100
AcDbLine
 10
139.7328393446
 20
160.3168066001
 30
0.0
 11
139.7328393446
 21
154.2168066001
 31
0.0
  0
LINE
  5
176
330
1F
100
AcDbEntity
  8
0
  6
HIDDEN
 62
     7
370
     0
100
AcDbLine
 10
181.2828393446
 20
105.3124975609
 30
0.0
 11
181.2828393446
 21
107.359584727
 31
0.0
  0
LINE
  5
177
330
1F
100
AcDbEntity
  8
0
  6
HIDDEN
 62
     7
370
     0
100
AcDbLine
 10
181.2828393446
 20
102.538632007
 30
0.0
 11
181.2828393446
 21
103.5536968507
 31
0.0
  0
LINE
  5
178
330
1F
100
AcDbEntity
  8
0
  6
HIDDEN
 62
     7
370
     0
100
AcDbLine
 10
178.2828393446
 20
104.107718252
 30
0.0
 11
178.2828393446
 21
102.538632007
 31
0.0
  0
LINE
  5
179
330
1F
100
AcDbEntity
  8
0
  6
HIDDEN
 62
     7
370
     0
100
AcDbLine
 10
178.2828393446
 20
107.2795293427
 30
0.0
 11
178.2828393446
 21
104.6339058162
 31
0.0
  0
LINE
  5
17A
330
1F
100
AcDbEntity
  8
0
  6
HIDDEN
 62
     7
370
     0
100
AcDbLine
 10
180.9950078756
 20
103.1778731073
 30
0.0
 11
214.7828393446
 21
104.1165768147
 31
0.0
  0
LINE
  5
17B
330
1F
100
AcDbEntity
  8
0
  6
HIDDEN
 62
     7
370
     0
100
AcDbLine
 10
214.7828393446
 20
106.6175414489
 30
0.0
 11
180.993595563
 21
105.6787985042
 31
0.0
  0
LINE
  5
17C
330
1F
100
AcDbEntity
  8
0
  6
HIDDEN
 62
     7
370
     0
100
AcDbLine
 10
126.2155519606
 20
72.7385270295
 30
0.0
 11
125.7828426741
 21
73.2167517468
 31
0.0
  0
LINE
  5
17D
330
1F
100
AcDbEntity
  8
0
  6
HIDDEN
 62
     7
370
     0
100
AcDbLine
 10
113.7828398026
 20
73.8637131035
 30
0.0
 11
113.3022124974
 21
73.3854883927
 31
0.0
  0
LINE
  5
17E
330
1F
100
AcDbEntity
  8
0
  6
HIDDEN
 62
     7
370
     0
100
AcDbLine
 10
113.3020941559
 20
147.2481188913
 30
0.0
 11
113.78283962
 21
146.7698392194
 31
0.0
  0
LINE
  5
17F
330
1F
100
AcDbEntity
  8
0
  6
HIDDEN
 62
     7
370
     0
100
AcDbLine
 10
125.7828393467
 20
147.4168116068
 30
0.0
 11
126.2156610164
 21
147.8950912797
 31
0.0
  0
LINE
  5
180
330
1F
100
AcDbEntity
  8
0
  6
HIDDEN
 62
     7
370
     0
100
AcDbLine
 10
178.3094445977
 20
104.7898464025
 30
0.0
 11
178.0600973183
 21
104.3468168556
 31
0.0
  0
LINE
  5
181
330
1F
100
AcDbEntity
  8
0
  6
HIDDEN
 62
     7
370
     0
100
AcDbLine
 10
178.0600973183
 20
104.3468168556
 30
0.0
 11
178.3101517967
 21
103.9551343457
 31
0.0
  0
LINE
  5
182
330
1F
100
AcDbEntity
  8
0
  6
HIDDEN
 62
     7
370
     0
100
AcDbLine
 10
125.7828393446
 20
73.216870816
 30
0.0
 11
125.7828393446
 21
78.8427417061
 31
0.0
  0
LINE
  5
183
330
1F
100
AcDbEntity
  8
0
  6
HIDDEN
 62
     7
370
     0
100
AcDbLine
 10
113.7828393446
 20
78.8177907994
 30
0.0
 11
113.7828393446
 21
73.863751518
 31
0.0
  0
LINE
  5
184
330
1F
100
AcDbEntity
  8
0
  6
HIDDEN
 62
     7
370
     0
100
AcDbLine
 10
125.7828393446
 20
141.790871494
 30
0.0
 11
125.7828393446
 21
147.4166596049
 31
0.0
  0
LINE
  5
185
330
1F
100
AcDbEntity
  8
0
  6
HIDDEN
 62
     7
370
     0
100
AcDbLine
 10
113.7828393446
 20
146.7698287202
 30
0.0
 11
113.7828393446
 21
141.8158224007
 31
0.0
  0
ARC
  5
186
330
1F
100
AcDbEntity
  8
0
  6
HIDDEN
 62
     7
370
     0
100
AcDbCircle
 10
178.1828393446
 20
106.4168066001
 30
0.0
 40
0.4000000000000057
100
AcDbArc
 50
180.0
 51
270.0
  0
ARC
  5
187
330
1F
100
AcDbEntity
  8
0
  6
HIDDEN
 62
     7
370
     0
100
AcDbCircle
 10
178.1828393446
 20
114.2168066001
 30
0.0
 40
0.4000000000000199
100
AcDbArc
 50
90.0
 51
180.0
  0
LINE
  5
188
330
1F
100
AcDbEntity
  8
0
  6
HIDDEN
 62
     7
370
     0
100
AcDbLine
 10
178.1828393446
 20
106.0168066001
 30
0.0
 11
180.8880653265
 21
106.0168066001
 31
0.0
  0
LINE
  5
189
330
1F
100
AcDbEntity
  8
0
  6
HIDDEN
 62
     7
370
     0
100
AcDbLine
 10
180.8880653265
 20
114.6168066001
 30
0.0
 11
178.1828393446
 21
114.6168066001
 31
0.0
  0
ARC
  5
18A
330
1F
100
AcDbEntity
  8
0
  6
HIDDEN
 62
     7
370
     0
100
AcDbCircle
 10
214.4828393446
 20
106.0168066001
 30
0.0
 40
0.2999999999999972
100
AcDbArc
 50
0.0
 51
90.0
  0
ARC
  5
18B
330
1F
100
AcDbEntity
  8
0
  6
HIDDEN
 62
     7
370
     0
100
AcDbCircle
 10
214.4828393446
 20
114.6168066001
 30
0.0
 40
0.2999999999999972
100
AcDbArc
 50
270.0
 51
0.0
  0
ARC
  5
18C
330
1F
100
AcDbEntity
  8
0
  6
HIDDEN
 62
     7
370
     0
100
AcDbCircle
 10
180.8880653265
 20
114.2168066001
 30
0.0
 40
0.4000000000000057
100
AcDbArc
 50
70.0
 51
90.0
  0
LINE
  5
18D
330
1F
100
AcDbEntity
  8
0
  6
HIDDEN
 62
     7
370
     0
100
AcDbLine
 10
181.0248733838
 20
106.0409295518
 30
0.0
 11
181.7828393446
 21
106.3168066001
 31
0.0
  0
LINE
  5
18E
330
1F
100
AcDbEntity
  8
0
  6
HIDDEN
 62
     7
370
     0
100
AcDbLine
 10
181.7828393446
 20
114.3168066001
 30
0.0
 11
181.0248733838
 21
114.5926836484
 31
0.0
  0
LINE
  5
18F
330
1F
100
AcDbEntity
  8
0
  6
HIDDEN
 62
     7
370
     0
100
AcDbLine
 10
181.7828393446
 20
106.3168066001
 30
0.0
 11
214.4828393446
 21
106.3168066001
 31
0.0
  0
LINE
  5
190
330
1F
100
AcDbEntity
  8
0
  6
HIDDEN
 62
     7
370
     0
100
AcDbLine
 10
214.4828393446
 20
114.3168066001
 30
0.0
 11
181.7828393446
 21
114.3168066001
 31
0.0
  0
LINE
  5
191
330
1F
100
AcDbEntity
  8
0
  6
HIDDEN
 62
     7
370
     0
100
AcDbLine
 10
180.2328393446
 20
94.3168066001
 30
0.0
 11
179.2328393446
 21
94.8941568693
 31
0.0
  0
LINE
  5
192
330
1F
100
AcDbEntity
  8
0
  6
HIDDEN
 62
     7
370
     0
100
AcDbLine
 10
174.2328393446
 20
94.8941568693
 30
0.0
 11
173.2328393446
 21
94.3168066001
 31
0.0
  0
LINE
  5
193
330
1F
100
AcDbEntity
  8
0
  6
HIDDEN
 62
     7
370
     0
100
AcDbLine
 10
173.2328393446
 20
126.3168066001
 30
0.0
 11
174.2328393446
 21
125.7394563309
 31
0.0
  0
LINE
  5
194
330
1F
100
AcDbEntity
  8
0
  6
HIDDEN
 62
     7
370
     0
100
AcDbLine
 10
179.2328393446
 20
125.7394563309
 30
0.0
 11
180.2328393446
 21
126.3168066001
 31
0.0
  0
LINE
  5
195
330
1F
100
AcDbEntity
  8
0
  6
HIDDEN
 62
     7
370
     0
100
AcDbLine
 10
163.0828393446
 20
107.8168066001
 30
0.0
 11
177.7828393446
 21
107.8168066001
 31
0.0
  0
LINE
  5
196
330
1F
100
AcDbEntity
  8
0
  6
HIDDEN
 62
     7
370
     0
100
AcDbLine
 10
177.7828393446
 20
112.8168066001
 30
0.0
 11
163.0828393446
 21
112.8168066001
 31
0.0
  0
LINE
  5
197
330
1F
100
AcDbEntity
  8
0
  6
HIDDEN
 62
     7
370
     0
100
AcDbLine
 10
174.2328393446
 20
125.7394563309
 30
0.0
 11
174.2328393446
 21
117.3168066001
 31
0.0
  0
LINE
  5
198
330
1F
100
AcDbEntity
  8
0
  6
HIDDEN
 62
     7
370
     0
100
AcDbLine
 10
179.2328393446
 20
117.3168066001
 30
0.0
 11
179.2328393446
 21
125.7394563309
 31
0.0
  0
LINE
  5
199
330
1F
100
AcDbEntity
  8
0
  6
HIDDEN
 62
     7
370
     0
100
AcDbLine
 10
174.2328393446
 20
117.3168066001
 30
0.0
 11
176.7328393446
 21
115.8146550525
 31
0.0
  0
LINE
  5
19A
330
1F
100
AcDbEntity
  8
0
  6
HIDDEN
 62
     7
370
     0
100
AcDbLine
 10
176.7328393446
 20
115.8146550525
 30
0.0
 11
179.2328393446
 21
117.3168066001
 31
0.0
  0
LINE
  5
19B
330
1F
100
AcDbEntity
  8
0
  6
HIDDEN
 62
     7
370
     0
100
AcDbLine
 10
179.2328393446
 20
94.8941568693
 30
0.0
 11
179.2328393446
 21
103.3168066001
 31
0.0
  0
LINE
  5
19C
330
1F
100
AcDbEntity
  8
0
  6
HIDDEN
 62
     7
370
     0
100
AcDbLine
 10
174.2328393446
 20
103.3168066001
 30
0.0
 11
174.2328393446
 21
94.8941568693
 31
0.0
  0
LINE
  5
19D
330
1F
100
AcDbEntity
  8
0
  6
HIDDEN
 62
     7
370
     0
100
AcDbLine
 10
179.2328393446
 20
103.3168066001
 30
0.0
 11
176.7328393446
 21
104.8189581476
 31
0.0
  0
LINE
  5
19E
330
1F
100
AcDbEntity
  8
0
  6
HIDDEN
 62
     7
370
     0
100
AcDbLine
 10
176.7328393446
 20
104.8189581476
 30
0.0
 11
174.2328393446
 21
103.3168066001
 31
0.0
  0
ARC
  5
19F
330
1F
100
AcDbEntity
  8
0
  6
HIDDEN
 62
     7
370
     0
100
AcDbCircle
 10
180.8880653265
 20
106.4168066001
 30
0.0
 40
0.3999999999999977
100
AcDbArc
 50
270.0
 51
290.0
  0
LINE
  5
1A0
330
1F
100
AcDbEntity
  8
0
  6
HIDDEN
 62
     7
370
     0
100
AcDbLine
 10
181.2828393446
 20
117.0801034562
 30
0.0
 11
181.2828393446
 21
117.3878744119
 31
0.0
  0
LINE
  5
1A1
330
1F
100
AcDbEntity
  8
0
  6
HIDDEN
 62
     7
370
     0
100
AcDbLine
 10
181.2828393446
 20
113.2739397039
 30
0.0
 11
181.2828393446
 21
115.3133514798
 31
0.0
  0
LINE
  5
1A2
330
1F
100
AcDbEntity
  8
0
  6
HIDDEN
 62
     7
370
     0
100
AcDbLine
 10
178.2828393446
 20
116.000371066
 30
0.0
 11
178.2828393446
 21
113.3561960036
 31
0.0
  0
LINE
  5
1A3
330
1F
100
AcDbEntity
  8
0
  6
HIDDEN
 62
     7
370
     0
100
AcDbLine
 10
178.2828393446
 20
117.3878744119
 30
0.0
 11
178.2828393446
 21
116.5256295226
 31
0.0
  0
LINE
  5
1A4
330
1F
100
AcDbEntity
  8
0
  6
HIDDEN
 62
     7
370
     0
100
AcDbLine
 10
180.9945498655
 20
114.9547881832
 30
0.0
 11
214.7828393446
 21
114.0160717513
 31
0.0
  0
LINE
  5
1A5
330
1F
100
AcDbEntity
  8
0
  6
HIDDEN
 62
     7
370
     0
100
AcDbLine
 10
214.7828393446
 20
116.5170363855
 30
0.0
 11
180.9947018463
 21
117.455748595
 31
0.0
  0
LINE
  5
1A6
330
1F
100
AcDbEntity
  8
0
  6
HIDDEN
 62
     7
370
     0
100
AcDbLine
 10
178.3120838016
 20
116.6815051251
 30
0.0
 11
178.0600973183
 21
116.2867963445
 31
0.0
  0
LINE
  5
1A7
330
1F
100
AcDbEntity
  8
0
  6
HIDDEN
 62
     7
370
     0
100
AcDbLine
 10
178.0600973183
 20
116.2867963445
 30
0.0
 11
178.3122230268
 21
115.8388302041
 31
0.0
  0
LINE
  5
1A8
330
1F
100
AcDbEntity
  8
0
  6
HIDDEN
 62
     7
370
     0
100
AcDbLine
 10
138.7828393446
 20
157.8636780635
 30
0.0
 11
138.7828393446
 21
155.9883599792
 31
0.0
  0
LINE
  5
1A9
330
1F
100
AcDbEntity
  8
0
  6
HIDDEN
 62
     7
370
     0
100
AcDbLine
 10
148.7828393446
 20
155.9938682376
 30
0.0
 11
148.7828393446
 21
157.8694124963
 31
0.0
  0
DIMENSION
  5
1AA
330
1F
100
AcDbEntity
  8
VERMASSUNG
100
AcDbDimension
  2
*D1
 10
79.5888374584
 20
60.3168066001
 30
0.0
 11
79.5888374584
 21
110.3168066001
 31
0.0
 70
   160
  1
HSK A %%c<>
 71
     2
 42
-1.0
  3
SLDDIMSTYLE0
100
AcDbAlignedDimension
 13
135.2828393446
 23
160.3168066001
 33
0.0
 14
135.2828393446
 24
60.3168066001
 34
0.0
 50
90.0
100
AcDbRotatedDimension
  0
DIMENSION
  5
1B7
330
1F
100
AcDbEntity
  8
VERMASSUNG
100
AcDbDimension
  2
*D2
 10
224.8470819556
 20
106.3168066001
 30
0.0
 11
224.8470819556
 21
110.3168066001
 31
0.0
 70
   160
  1
%%c<>
 71
     2
 42
-1.0
  3
SLDDIMSTYLE1
100
AcDbAlignedDimension
 13
214.4828393446
 23
114.3168066001
 33
0.0
 14
214.4828393446
 24
106.3168066001
 34
0.0
 50
90.0
100
AcDbRotatedDimension
  0
DIMENSION
  5
1C5
330
1F
100
AcDbEntity
  8
VERMASSUNG
100
AcDbDimension
  2
*D3
 10
214.7828393446
 20
170.743695908
 30
0.0
 11
174.7828393446
 21
170.743695908
 31
0.0
 70
   160
 71
     2
 42
-1.0
  3
SLDDIMSTYLE0
100
AcDbAlignedDimension
 13
134.7828393446
 23
159.8168066001
 33
0.0
 14
214.7828393446
 24
119.0426660785
 34
0.0
100
AcDbRotatedDimension
  0
DIMENSION
  5
1CF
330
1F
100
AcDbEntity
  8
VERMASSUNG
100
AcDbDimension
  2
*D4
 10
214.7828393446
 20
164.743695908
 30
0.0
 11
189.2578393446
 21
164.743695908
 31
0.0
 70
   160
 71
     2
 42
-1.0
  3
SLDDIMSTYLE0
100
AcDbAlignedDimension
 13
163.7328393446
 23
158.2855464209
 33
0.0
 14
214.7828393446
 24
119.0426660785
 34
0.0
100
AcDbRotatedDimension
  0
DIMENSION
  5
1D9
330
1F
100
AcDbEntity
  8
VERMASSUNG
100
AcDbDimension
  2
*D5
 10
214.7828393446
 20
176.743695908
 30
0.0
 11
149.8328393446
 21
176.743695908
 31
0.0
 70
   160
 71
     2
 42
-1.0
  3
SLDDIMSTYLE0
100
AcDbAlignedDimension
 13
84.8828393446
 23
140.8194763426
 33
0.0
 14
214.7828393446
 24
119.0426660785
 34
0.0
100
AcDbRotatedDimension
  0
DIMENSION
  5
1E3
330
1F
100
AcDbEntity
  8
VERMASSUNG
100
AcDbDimension
  2
*D6
 10
230.8470819556
 20
94.3168066001
 30
0.0
 11
230.8470819556
 21
110.3168066001
 31
0.0
 70
   160
  1
%%c<>
 71
     2
 42
-1.0
  3
SLDDIMSTYLE0
100
AcDbAlignedDimension
 13
201.9157978215
 23
126.3168066001
 33
0.0
 14
201.9157978215
 24
94.3168066001
 34
0.0
 50
90.0
100
AcDbRotatedDimension
  0
LINE
  5
1EE
330
1F
100
AcDbEntity
  8
VERMASSUNG
  6
CENTERX2
 62
     7
370
     0
100
AcDbLine
 10
82.6323699836
 20
110.3168066001
 30
0.0
 11
216.2275677724
 21
110.3168066001
 31
0.0
  0
OLE2FRAME
  5
1EF
330
1F
100
AcDbEntity
  8
0
100
AcDbOle2Frame
 70
     2
  3
Bitmap Image
 10
13.8511154363
 20
38.264191557
 30
0.0
 11
51.6290888628
 21
31.9806341108
 31
0.0
 71
     2
 72
     0
 73
     1
 90
    12928
310
80552BED0767C5B32B40DDAF6807D121434000000000000000006FFBDDFB85D0
310
4940DDAF6807D121434000000000000000006FFBDDFB85D04940416F4BD60AFB
310
3F4000000000000000002BED0767C5B32B40416F4BD60AFB3F40000000000000
310
0000000000000100000000010000010000000100000000000100000000320000
310
D0CF11E0A1B11AE1000000000000000000000000000000003E000300FEFF0900
310
0600000000000000000000000100000001000000000000000010000002000000
310
01000000FEFFFFFF0000000000000000FFFFFFFFFFFFFFFFFFFFFFFFFFFFFFFF
310
FFFFFFFFFFFFFFFFFFFFFFFFFFFFFFFFFFFFFFFFFFFFFFFFFFFFFFFFFFFFFFFF
310
FFFFFFFFFFFFFFFFFFFFFFFFFFFFFFFFFFFFFFFFFFFFFFFFFFFFFFFFFFFFFFFF
310
FFFFFFFFFFFFFFFFFFFFFFFFFFFFFFFFFFFFFFFFFFFFFFFFFFFFFFFFFFFFFFFF
310
FFFFFFFFFFFFFFFFFFFFFFFFFFFFFFFFFFFFFFFFFFFFFFFFFFFFFFFFFFFFFFFF
310
FFFFFFFFFFFFFFFFFFFFFFFFFFFFFFFFFFFFFFFFFFFFFFFFFFFFFFFFFFFFFFFF
310
FFFFFFFFFFFFFFFFFFFFFFFFFFFFFFFFFFFFFFFFFFFFFFFFFFFFFFFFFFFFFFFF
310
FFFFFFFFFFFFFFFFFFFFFFFFFFFFFFFFFFFFFFFFFFFFFFFFFFFFFFFFFFFFFFFF
310
FFFFFFFFFFFFFFFFFFFFFFFFFFFFFFFFFFFFFFFFFFFFFFFFFFFFFFFFFFFFFFFF
310
FFFFFFFFFFFFFFFFFFFFFFFFFFFFFFFFFFFFFFFFFFFFFFFFFFFFFFFFFFFFFFFF
310
FFFFFFFFFFFFFFFFFFFFFFFFFFFFFFFFFFFFFFFFFFFFFFFFFFFFFFFFFFFFFFFF
310
FFFFFFFFFFFFFFFFFFFFFFFFFFFFFFFFFFFFFFFFFFFFFFFFFFFFFFFFFFFFFFFF
310
FFFFFFFFFFFFFFFFFFFFFFFFFFFFFFFFFFFFFFFFFFFFFFFFFFFFFFFFFFFFFFFF
310
FFFFFFFFFFFFFFFFFFFFFFFFFFFFFFFFFFFFFFFFFFFFFFFFFFFFFFFFFFFFFFFF
310
FDFFFFFFFEFFFFFFFEFFFFFFFEFFFFFF05000000060000000700000008000000
310
090000000A0000000B0000000C0000000D0000000E0000000F00000010000000
310
11000000120000001300000014000000150000001600000017000000FEFFFFFF
310
FFFFFFFFFFFFFFFFFFFFFFFFFFFFFFFFFFFFFFFFFFFFFFFFFFFFFFFFFFFFFFFF
310
FFFFFFFFFFFFFFFFFFFFFFFFFFFFFFFFFFFFFFFFFFFFFFFFFFFFFFFFFFFFFFFF
310
FFFFFFFFFFFFFFFFFFFFFFFFFFFFFFFFFFFFFFFFFFFFFFFFFFFFFFFFFFFFFFFF
310
FFFFFFFFFFFFFFFFFFFFFFFFFFFFFFFFFFFFFFFFFFFFFFFFFFFFFFFFFFFFFFFF
310
FFFFFFFFFFFFFFFFFFFFFFFFFFFFFFFFFFFFFFFFFFFFFFFFFFFFFFFFFFFFFFFF
310
FFFFFFFFFFFFFFFFFFFFFFFFFFFFFFFFFFFFFFFFFFFFFFFFFFFFFFFFFFFFFFFF
310
FFFFFFFFFFFFFFFFFFFFFFFFFFFFFFFFFFFFFFFFFFFFFFFFFFFFFFFFFFFFFFFF
310
FFFFFFFFFFFFFFFFFFFFFFFFFFFFFFFFFFFFFFFFFFFFFFFFFFFFFFFFFFFFFFFF
310
FFFFFFFFFFFFFFFFFFFFFFFFFFFFFFFFFFFFFFFFFFFFFFFFFFFFFFFFFFFFFFFF
310
FFFFFFFFFFFFFFFFFFFFFFFFFFFFFFFFFFFFFFFFFFFFFFFFFFFFFFFFFFFFFFFF
310
FFFFFFFFFFFFFFFFFFFFFFFFFFFFFFFFFFFFFFFFFFFFFFFFFFFFFFFFFFFFFFFF
310
FFFFFFFFFFFFFFFFFFFFFFFFFFFFFFFFFFFFFFFFFFFFFFFFFFFFFFFFFFFFFFFF
310
FFFFFFFFFFFFFFFFFFFFFFFFFFFFFFFFFFFFFFFFFFFFFFFFFFFFFFFFFFFFFFFF
310
52006F006F007400200045006E00740072007900000000000000000000000000
310
0000000000000000000000000000000000000000000000000000000000000000
310
16000500FFFFFFFFFFFFFFFF020000000A00030000000000C000000000000046
310
0000000000000000000000009068301D0500CC0103000000C000000000000000
310
01004F006C006500000000000000000000000000000000000000000000000000
310
0000000000000000000000000000000000000000000000000000000000000000
310
0A000200FFFFFFFFFFFFFFFFFFFFFFFF00000000000000000000000000000000
310
0000000000000000000000000000000000000000000000001400000000000000
310
010043006F006D0070004F0062006A0000000000000000000000000000000000
310
0000000000000000000000000000000000000000000000000000000000000000
310
120002010100000003000000FFFFFFFF00000000000000000000000000000000
310
0000000000000000000000000000000000000000010000004D00000000000000
310
01004F006C006500310030004E00610074006900760065000000000000000000
310
0000000000000000000000000000000000000000000000000000000000000000
310
1A000200FFFFFFFFFFFFFFFFFFFFFFFF00000000000000000000000000000000
310
0000000000000000000000000000000000000000040000002426000000000000
310
FEFFFFFF02000000FEFFFFFFFFFFFFFFFFFFFFFFFFFFFFFFFFFFFFFFFFFFFFFF
310
FFFFFFFFFFFFFFFFFFFFFFFFFFFFFFFFFFFFFFFFFFFFFFFFFFFFFFFFFFFFFFFF
310
FFFFFFFFFFFFFFFFFFFFFFFFFFFFFFFFFFFFFFFFFFFFFFFFFFFFFFFFFFFFFFFF
310
FFFFFFFFFFFFFFFFFFFFFFFFFFFFFFFFFFFFFFFFFFFFFFFFFFFFFFFFFFFFFFFF
310
FFFFFFFFFFFFFFFFFFFFFFFFFFFFFFFFFFFFFFFFFFFFFFFFFFFFFFFFFFFFFFFF
310
FFFFFFFFFFFFFFFFFFFFFFFFFFFFFFFFFFFFFFFFFFFFFFFFFFFFFFFFFFFFFFFF
310
FFFFFFFFFFFFFFFFFFFFFFFFFFFFFFFFFFFFFFFFFFFFFFFFFFFFFFFFFFFFFFFF
310
FFFFFFFFFFFFFFFFFFFFFFFFFFFFFFFFFFFFFFFFFFFFFFFFFFFFFFFFFFFFFFFF
310
FFFFFFFFFFFFFFFFFFFFFFFFFFFFFFFFFFFFFFFFFFFFFFFFFFFFFFFFFFFFFFFF
310
FFFFFFFFFFFFFFFFFFFFFFFFFFFFFFFFFFFFFFFFFFFFFFFFFFFFFFFFFFFFFFFF
310
FFFFFFFFFFFFFFFFFFFFFFFFFFFFFFFFFFFFFFFFFFFFFFFFFFFFFFFFFFFFFFFF
310
FFFFFFFFFFFFFFFFFFFFFFFFFFFFFFFFFFFFFFFFFFFFFFFFFFFFFFFFFFFFFFFF
310
FFFFFFFFFFFFFFFFFFFFFFFFFFFFFFFFFFFFFFFFFFFFFFFFFFFFFFFFFFFFFFFF
310
FFFFFFFFFFFFFFFFFFFFFFFFFFFFFFFFFFFFFFFFFFFFFFFFFFFFFFFFFFFFFFFF
310
FFFFFFFFFFFFFFFFFFFFFFFFFFFFFFFFFFFFFFFFFFFFFFFFFFFFFFFFFFFFFFFF
310
FFFFFFFFFFFFFFFFFFFFFFFFFFFFFFFFFFFFFFFFFFFFFFFFFFFFFFFFFFFFFFFF
310
010000020000000000000000000000000000000061007200510082005C003107
310
D807250000000000D807250000000000680061007200650064005C003B004300
310
0100FEFF030A0000FFFFFFFF0A00030000000000C00000000000004607000000
310
5042727573680007000000504272757368000700000050427275736800F439B2
310
71000000000000000000000000004100540049002E004100430045005C004300
310
6F00720065002D005300740061007400690063003B0043003A005C0050007200
310
6F006700720061006D002000460069006C006500730020002800780038003600
310
29005C0043006F006D006D006F006E002000460069006C00650073005C004100
310
750074006F006400650073006B0020005300680061007200650064005C003B00
310
43003A005C00500072006F006700720061006D002000460069006C0065007300
310
5C004E006F0072006D0061006E005C004E0070006D005C00420069006E000000
310
43003A005C00500072006F006700720061006D002000460069006C0065007300
310
5C0053006F006C006900640057006F0072006B007300200043006F0072007000
310
5C0053006F006C006900640057006F0072006B00730020002800320029005C00
310
730065007400750070005C0069003300380036005C0073007700610063007400
310
770069007A002E006500780065000000220043003A005C00500072006F006700
310
20260000424D0E260000000000003E00000028000000B40200006E0000000100
310
01000000000000000000130B0000130B00000200000002000000000000FFFFFF
310
FFFFFFFFFFFFFFFFFFFFFFFFFFFFFFFFFFFFFFFFFFFFFFFFFFFFFFFFFFFFFFFF
310
FFFFFFFFFFFFFFFFFFFFFFFFFFFFFFFFFFFFFFFFFFFFFFFFFFFFFFFFFFFFFFFF
310
FFFFFFFFFFFFFFFFFFFFFFFFFFFFFFFFFFFFFFFFFFFFFFFFF000FFFFFFFFFFFF
310
FFFFFFFFFFFFFFFFFFFFFFFFFFFFFFFFFFFFFFFFFFFFFFFFFFFFFFFFFFFFFFFF
310
FFFFFFFFFFFFFFFFFFFFFFFFFFFFFFFFFFFFFFFFFFFFFFFFFFFFFFFFFFFFFFFF
310
FFFFFFFFFFFFFFFFFFFFFFFFFFFFFFFFF000FFFFFFFFFFFFFFFFFFFFFFFFFFFF
310
FFFFFFFFFFFFFFFFFFFFFFFFFFFFFFFFFFFFFFFFFFFFFFFFFFFFFFFFFFFFFFFF
310
FFFFFFFFFFFFFFFFFFFFFFFFFFFFFFFFFFFFFFFFFFFFFFFFFFFFFFFFFFFFFFFF
310
FFFFFFFFFFFFFFFFF000FFFFFFFFFFFFFFFFFFFFFFFFFFFFFFFFFFFFFFFFFFFF
310
FFFFFFFFFFFFFFFFFFFFFFFFFFFFFFFFFFFFFFFFFFFFFFFFFFFFFFFFFFFFFFFF
310
FFFFFFFFFFFFFFFFFFFFFFFFFFFFFFFFFFFFFFFFFFFFFFFFFFFFFFFFFFFFFFFF
310
F000FFFFFFFFFFFFFFFFFFFFFFFFFFFFFFFFFFFFFFFFFFFFFFFFFFFFFFFFFFFF
310
FFFFFFFFFFFFFFFFFFFFFFFFFFFFFFFFFFFFFFFFFFFFFFFFFFFFFFFFFFFFFFFF
310
FFFFFFFFFFFFFFFFFFFFFFFFFFFFFFFFFFFFFFFFFFFFFFFFF000FFFFFFFFFFFF
310
FFFFFFFFFFFFFFFFFFFFFFFFFFFFFFFFFFFFFFFFFFFFFFFFFFFFFFFFFFFFFFFF
310
FFFFFFFFFFFFFFFFFFFFFFFFFFFFFFFFFFFFFFFFFFFFFFFFFFFFFFFFFFFFFFFF
310
FFFFFFFFFFFFFFFFFFFFFFFFFFFFFFFFF000FFFFFFFFFFFFFFFFFFFFFFFFFFFF
310
FFFFFFFFFFFFFFFFFFFFFFFFFFFFFFFFFFFFFFFFFFFFFFFFFFFFFFFFFFFFFFFF
310
FFFFFFFFFFFFFFFFFFFFFFFFFFFFFFFFFFFFFFFFFFFFFFFFFFFFFFFFFFFFFFFF
310
FFFFFFFFFFFFFFFFF000FFFFFFFFFFFFFFFFFFFFFFFFFFFFFFFFFFFFFFFFFFFF
310
FFFFFFFFFFFFFFFFFFFFFFFFFFFFFFFFFFFFFFFFFFFFFFFFFFFFFFFFFFFFFFFF
310
FFFFFFFFFFFFFFFFFFFFFFFFFFFFFFFFFFFFFFFFFFFFFFFFFFFFFFFFFFFFFFFF
310
F000FFFFFFFFFFFFFFFFFFFFFFFFFFFFFFFFFFFFFFFFFFFFFFFFFFFFFFFFFFFF
310
FFFFFFFFFFFFFFFFFFFFFFFFFFFFFFFFFFFFFFFFFFFFFFFFFFFFFFFFFFFFFFFF
310
FFFFFFFFFFFFFFFFFFFFFFFFFFFFFFFFFFFFFFFFFFFFFFFFF000FFFFFFFFFFFF
310
FFFFFFFFFFFFFFFFFFFFFFFFFFFFFFFFFFFFFFFFFFFFFFFFFFFFFFFFFFFFFFFF
310
FFFFFFFFFFFFFFFFFFFFFFFFFFFFFFFFFFFFFFFFFFFFFFFFFFFFFFFFFFFFFFFF
310
FFFFFFFFFFFFFFFFFFFFFFFFFFFFFFFFF000FFFFFFFFFFFFFFFFFFFFFFFFFFFF
310
FFFFFFFFFFFFFFFFFFFFFFFFFFFFFFFFFFFFFFFFFFFFFFFFFFFFFFFFFFFFFFFF
310
FFFFFFFFFFFFFFFFFFFFFFFFFFFFFFFFFFFFFFFFFFFFFFFFFFFFFFFFFFFFFFFF
310
FFFFFFFFFFFFFFFFF000FFFFFFFFFFFFFFFFFFFFFFFFFFFFFFFFFFFFFFFFFFFF
310
FFFFFFFFFFFFFFFFFFFFFFFFFFFFFFFFFFFFFFFFFFFFFFFFFFFFFFFFFFFFFFFF
310
FFFFFFFFFFFFFFFFFFFFFFFFFFFFFFFFFFFFFFFFFFFFFFFFFFFFFFFFFFFFFFFF
310
F000FFFFFFFFFFFFFFFFFFFFFFFFFFFFFFFFFFFFFFFFFFFFFFFFFFFFFFFFFFFF
310
FFFFFFFFFFFFFFFFFFFFFFFFFFFFFFFFFFFFFFFFFFFFFFFFFFFFFFFFFFFFFFFF
310
FFFFFFFFFFFFFFFFFFFFFFFFFFFFFFFFFFFFFFFFFFFFFFFFF000FFFFFFFFFFFF
310
FFFFFFFFFFFFFFFFFFFFFFFFFFFFFFFFFFFFFFFFFFFFFFFFFFFFFFFFFFFFFFFF
310
FFFFFFFFFFFFFFFFFFFFFFFFFFFFFFFFFFFFFFFFFFFFFFFFFFFFFFFFFFFFFFFF
310
FFFFFFFFFFFFFFFFFFFFFFFFFFFFFFFFF000FFFFFFFFFFFFFFFFFFFFFFFFFFFF
310
FFFFFFFFFFFFFFFFFFFFFFFFFFFFFFFFFFFFFFFFFFFFFFFFFFFFFFFFFFFFFFFF
310
FFFFFFFFFFFFFFFFFFFFFFFFFFFFFFFFFFFFFFFFFFFFFFFFFFFFFFFFFFFFFFFF
310
FFFFFFFFFFFFFFFFF000FFFFFFFFFFFFFFFFFFFFFFFFFFFFFFFFFFFFFFFFFFFF
310
FFFFFFFFFFFFFFFFFFFFFFFFFFFFFFFFFFFFFFFFFFFFFFFFFFFFFFFFFFFFFFFF
310
FFFFFFFFFFFFFFFFFFFFFFFFFFFFFFFFFFFFFFFFFFFFFFFFFFFFFFFFFFFFFFFF
310
F000FFFFFFFFFFFFFFFFFFFFFFFFFFFFFFFFFFFFFFFFFFFFFFFFFFFFFFFFFFFF
310
FFFFFFFFFFFFFFFFFFFFFFFFFFFFFFFFFFFFFFFFFFFFFFFFFFFFFFFFFFFFFFFF
310
FFFFFFFFFFFFFFFFFFFFFFFFFFFFFFFFFFFFFFFFFFFFFFFFF000FFFFFFFFFFFF
310
FFFFFFFFFFFFFFFFFFFFFFFFFFFFFFFFFFFFFFFFFFFFFFFFFFFFFFFFFFFFFFFF
310
FFFFFFFFFFFFFFFFFFFFFFFFFFFFFFFFFFFFFFFFFFFFFFFFFFFFFFFFFFFFFFFF
310
FFFFFFFFFFFFFFFFFFFFFFFFFFFFFFFFF000FFFFFFFFFFFFFFFFFFFFFFFFFFFF
310
FFFFFFFFFFFFFFFFFFFFFFFFFFFFFFFFFFFFFFFFFFFFFFFFFFFFFFFFFFFFFFFF
310
FFFFFFFFFFFFFFFFFFFFFFFFFFFFFFFFFFFFFFFFFFFFFFFFFFFFFFFFFFFFFFFF
310
FFFFFFFFFFFFFFFFF000FFFFF80003FFFFFFFFFFFFFFFFFFFFFFFFFFFFFFFFFF
310
FFFFF00007FFFFFFFFFF00007FFFFFF800000000000000007FFFFFFFFFFFFFFF
310
FFFFFFFC001FFFFFFFFFFFFFFC001FFFFFFFFFFFFFFFFFFFFFFFFFFE0007FFFF
310
F000FFFF8000007FFFFFFFF8000FFFFFC0007FFFFF80007FFFFF0000007FFFFF
310
FFF8000007FFFFF800000000000000007FFFFFF0001FFFFFFFFFFFC00001FFFF
310
FFFFFFFFC00001FFFFFFFF000000000003FFFFE000007FFFF000FFFE0000000F
310
FFFFFFF0000FFFFF80007FFFFF80007FFFFC0000001FFFFFFFC0000001FFFFF8
310
00000000000000007FFFFFF0001FFFFFFFFFFE0000003FFFFFFFFFFE0000003F
310
FFFFFF000000000003FFFF0000000FFFF000FFF800000003FFFFFFF00007FFFF
310
80007FFFFF80007FFFF000000007FFFFFF000000003FFFF80000000000000000
310
7FFFFFF0001FFFFFFFFFF80000000FFFFFFFFFF80000000FFFFFFF0000000000
310
03FFFC00000003FFF000FFE000000000FFFFFFF00007FFFF80003FFFFF80007F
310
FFC000000001FFFFFC000000001FFFF800000000000000007FFFFFF0001FFFFF
310
FFFFE000000003FFFFFFFFE000000003FFFFFF000000000003FFF000000000FF
310
F000FF80000000007FFFFFF00007FFFF80003FFFFF80007FFF8000000000FFFF
310
F80000000007FFF800000000000000007FFFFFF0001FFFFFFFFFC000000001FF
310
FFFFFFC000000001FFFFFF000000000003FFC0000000007FF000FF0000000000
310
3FFFFFE00007FFFF00003FFFFF80007FFE00000000003FFFF00000000003FFF8
310
00000000000000007FFFFFF0001FFFFFFFFF8000000000FFFFFFFF8000000000
310
FFFFFF000000000003FF80000000003FF000FE00000000001FFFFFE00003FFFF
310
00003FFFFF80007FFC00000000001FFFE00000000001FFF8000001FFFE000000
310
7FFFFFF0001FFFFFFFFE00000000003FFFFFFE00000000003FFFFF0000000000
310
03FF00000000001FF000FC00000000000FFFFFE00003FFFF00001FFFFF80007F
310
F800000000001FFFC00000000000FFF8000001FFFE0000007FFFFFF0001FFFFF
310
FFFC00000000001FFFFFFC00000000001FFFFF000000000003FE00000000000F
310
F000F8000000000007FFFFE00003FFFF00001FFFFF80007FF800000000000FFF
310
800000000000FFF8000001FFFE0000007FFFFFF0001FFFFFFFF800000000000F
310
FFFFF800000000000FFFFF000000000003FC000000000007F000F80000000000
310
03FFFFC00003FFFE00001FFFFF80007FF0000000000007FF0000000000007FF8
310
000001FFFE0000007FFFFFF0001FFFFFFFF0000000000007FFFFF00000000000
310
07FFFF000000000003F8000000000003F000F0000000000003FFFFC00001FFFE
310
00001FFFFF80007FE0000000000007FE0000000000003FF8000001FFFE000000
310
7FFFFFF0001FFFFFFFF0000000000007FFFFF0000000000007FFFF0000000000
310
03F800001F800003F000E00001FFF00001FFFFC00001FFFE00000FFFFF80007F
310
E00001FFE00003FE00001FFF00003FF8000001FFFE0000007FFFFFF0001FFFFF
310
FFE000003E000003FFFFE000003E000003FFFF000000000003F00001FFF80001
310
F000E00007FFFC0001FFFFC00001FFFE00000FFFFF80007FC0000FFFFC0003FC
310
0000FFFFC0001FF8000001FFFE0000007FFFFFF0001FFFFFFFC00003FFE00001
310
FFFFC00003FFE00001FFFF0001FFFFFFFFF00007FFFE0001F000E0000FFFFF00
310
00FFFF800001FFFC00000FFFFF80007FC0001FFFFE0001FC0001FFFFE0001FF8
310
000001FFFE0000007FFFFFF0001FFFFFFF80000FFFF80000FFFF80000FFFF800
310
00FFFF0003FFFFFFFFE0000FFFFF8000F000C0003FFFFF8000FFFF800000FFFC
310
000007FFFF80007F80003FFFFF0001FC0003FFFFF0001FF8000001FFFE000000
310
7FFFFFF0001FFFFFFF80003FFFFE0000FFFF80003FFFFE0000FFFF0003FFFFFF
310
FFE0003FFFFF8000F000C0003FFFFF8000FFFF800000FFFC000007FFFF80007F
310
80007FFFFF8001F80007FFFFF8000FF8000001FFFE0000007FFFFFF0001FFFFF
310
FF00007FFFFF00007FFF00007FFFFF00007FFF0003FFFFFFFFE0003FFFFFC000
310
F000C0007FFFFFC000FFFF000000FFFC000007FFFF80007F8000FFFFFF8000F8
310
000FFFFFF8000FF8000001FFFE0000007FFFFFF0001FFFFFFF0000FFFFFF8000
310
7FFF0000FFFFFF80007FFF0003FFFFFFFFC0007FFFFFC00070008000FFFFFFC0
310
00FFFF000000FFF8000007FFFF80007F8000FFFFFF8000F8000FFFFFF8000FF8
310
000001FFFE0000007FFFFFF0001FFFFFFE0001FFFFFFC0003FFE0001FFFFFFC0
310
003FFF0003FFFFFFFFC0007FFFFFE00070008000FFFFFFC0007FFF0000007FF8
310
000003FFFF80007F0001FFFFFF8000F8000FFFFFF8000FF8000001FFFE000000
310
7FFFFFF0001FFFFFFE0001FFFFFFC0003FFE0001FFFFFFC0003FFF0003FFFFFF
310
FFC000FFFFFFE00070008000FFFFFFC0007FFF0000007FF8000003FFFF80007F
310
0001FFFFFF8000F8001FFFFFF8000FF8000001FFFE0000007FFFFFF0001FFFFF
310
FE0003FFFFFFE0003FFE0003FFFFFFE0003FFF0003FFFFFFFFC000FFFFFFE000
310
70008000FFFFFFC0007FFE0000007FF8000003FFFF80007F0001FFFFFF8000F0
310
001FFFFFF8000FF8000001FFFE0000007FFFFFF0001FFFFFFC0003FFFFFFE000
310
1FFC0003FFFFFFE0001FFF0003FFFFFFFFC000FFFFFFC00070008000FFFFFF80
310
007FFE0000007FF0000003FFFF80007F0001FFFFFF0000F0001FFFFFF8000FF8
310
000001FFFE0000007FFFFFF0001FFFFFFC0007FFFFFFF0001FFC0007FFFFFFF0
310
001FFF0003FFFFFFFFC000FFFFFFC00070008001FFFFFF0000FFFE0000003FF0
310
000001FFFF80007F0001FFFFFF0000F8001FFFFFF0000FF8000001FFFE000000
310
7FFFFFF0001FFFFFFC0007FFFFFFF0001FFC0007FFFFFFF0001FFF0003FFFFFF
310
FFC001FFFFFF80007000FFFFFFFFFE0000FFFE0008003FF0008001FFFF80007F
310
FFFFFFFFFC0000FFFFFFFFFFE0000FF8000001FFFE0000007FFFFFF0001FFFFF
310
F8000FFFFFFFF8000FF8000FFFFFFFF8000FFF0003FFFFFFFFFFFFFFFFFF0000
310
7000FFFFFFFFFC0000FFFC0008003FF0008001FFFF80007FFFFFFFFFF80001FF
310
FFFFFFFF80000FF8000001FFFE0000007FFFFFF0001FFFFFF8000FFFFFFFF800
310
0FF8000FFFFFFFF8000FFF0003FFFFFFFFFFFFFFFFFE0000F000FFFFFFFFE000
310
00FFFC000C003FE000C001FFFF80007FFFFFFFFFC00001FFFFFFFFFE00001FF8
310
000001FFFE0000007FFFFFF0001FFFFFF8000FFFFFFFF8000FF8000FFFFFFFF8
310
000FFF0003FFFFFFFFFFFFFFFFF00000F000FFFFFFFE000001FFFC000C001FE0
310
00C000FFFF80007FFFFFFFFE000001FFFFFFFFE000001FF80FFFFFFFFFFFFFC0
310
7FFFFFF0001FFFFFF8000FFFFFFFF8000FF8000FFFFFFFF8000FFF0003FFFFFF
310
FFFFFFFFFF800000F000FFFFFFC0000001FFFC001C001FE001C000FFFF80007F
310
FFFFFF80000003FFFFFFF80000001FF80FFFFFFFFFFFFFC07FFFFFF0001FFFFF
310
F8001FFFFFFFFC000FF8001FFFFFFFFC000FFF0003FFFFFFFFFFFFFFF0000001
310
F000FFFFF800000001FFF8001C001FE001C000FFFF80007FFFFFF800000003FF
310
FFFF800000003FF80FFFFFFFFFFFFFC07FFFFFF0001FFFFFF8001FFFFFFFFC00
310
0FF8001FFFFFFFFC000FFF0003FFFFFFFFFFFFFE00000001F000FFFFC0000000
310
03FFF8001E001FC001E000FFFF80007FFFFF8000000007FFFFFC000000003FF8
310
0FFFFFFFFFFFFFC07FFFFFF0001FFFFFF8001FFFFFFFFC000FF8001FFFFFFFFC
310
000FFF0003FFFFFFFFFFFFE000000003F000FFFE0000000007FFF8001E000FC0
310
01E0007FFF80007FFFFE0000000007FFFFE0000000007FF80FFFFFFFFFFFFFC0
310
7FFFFFF0001FFFFFF0001FFFFFFFFC0007F0001FFFFFFFFC0007FF0003FFFFFF
310
FFFFFF0000000003F000FFF80000000007FFF8001E000FC003E0007FFF80007F
310
FFF0000000000FFFFF8000000000FFF80FFFFFFFFFFFFFC07FFFFFF0001FFFFF
310
F0001FFFFFFFFC0007F0001FFFFFFFFC0007FF0003FFFFFFFFFFFC0000000007
310
F000FFE0000000000FFFF0003E000FC003E0007FFF80007FFFC0000000001FFF
310
FE0000000001FFF80FFFFFFFFFFFFFC07FFFFFF0001FFFFFF0001FFFFFFFFC00
310
07F0001FFFFFFFFC0007FF0003FFFFFFFFFFF0000000000FF000FFC000000000
310
1FFFF0003F000F8003F0003FFF80007FFF80000000003FFFF80000000003FFF8
310
0FFFFFFFFFFFFFC07FFFFFF0001FFFFFF0001FFFFFFFFC0007F0001FFFFFFFFC
310
0007FF0003FFFFFFFFFFE0000000001FF000FF00000000007FFFF0003F000780
310
03F0003FFF80007FFF00000000007FFFF00000000007FFF80FFFFFFFFFFFFFC0
310
7FFFFFF0001FFFFFF0001FFFFFFFFC0007F0001FFFFFFFFC0007FF0003FFFFFF
310
FFFF80000000007FF000FE0000000000FFFFE0003F00078007F0003FFF80007F
310
FE0000000001FFFFE0000000001FFFF80FFFFFFFFFFFFFC07FFFFFF0001FFFFF
310
F0001FFFFFFFFC0007F0001FFFFFFFFC0007FF0003FFFFFFFFFF0000000000FF
310
F000FC0000000003FFFFE0007F00078007F0003FFF80007FFC0000000007FFFF
310
C0000000007FFFF80FFFFFFFFFFFFFC07FFFFFF0001FFFFFF8001FFFFFFFFC00
310
0FF8001FFFFFFFFC000FFF0003FFFFFFFFFE0000000003FFF000FC000000000F
310
FFFFE0007F80070007F8001FFF80007FF8000000001FFFFF8000000001FFFFF8
310
0FFFFFFFFFFFFFC07FFFFFF0001FFFFFF8001FFFFFFFFC000FF8001FFFFFFFFC
310
000FFF0003FFFFFFFFFC000000000FFFF000F8000000007FFFFFE0007F800700
310
07F8001FFF80007FF000000000FFFFFF800000000FFFFFF80FFFFFFFFFFFFFC0
310
7FFFFFF0001FFFFFF8000FFFFFFFF8000FF8000FFFFFFFF8000FFF0003FFFFFF
310
FFFC000000007FFFF000F800000007FFFFFFC0007F8003000FF8001FFF80007F
310
F000000007FFFFFF000000007FFFFFF80FFFFFFFFFFFFFC07FFFFFF0001FFFFF
310
F8000FFFFFFFF8000FF8000FFFFFFFF8000FFF0003FFFFFFFFF80000000FFFFF
310
F000F0000000FFFFFFFFC000FF8003000FF8001FFF80007FE0000000FFFFFFFF
310
0000000FFFFFFFF8000001FFFE0000007FFFFFF0001FFFFFF8000FFFFFFFF800
310
0FF8000FFFFFFFF8000FFF0003FFFFFFFFF8000000FFFFFFF000F000000FFFFF
310
FFFFC000FFC002000FF8000FFF80007FE000001FFFFFFFFE000001FFFFFFFFF8
310
000001FFFE0000007FFFFFF0001FFFFFF8000FFFFFFFF8000FF8000FFFFFFFF8
310
000FFF0003FFFFFFFFF000001FFFFFFFF000E00000FFFFFFFFFFC000FFC00200
310
0FFC000FFF80007FE00001FFFFFFFFFE00001FFFFFFFFFF8000001FFFE000000
310
7FFFFFF0001FFFFFFC000FFFFFFFF8001FFC000FFFFFFFF8001FFF0003FFFFFF
310
FFF00001FFFFFFFFF000E00007FFFFFFFFFF8000FFC000001FFC000FFF80007F
310
C0000FFFFFFFFFFE0000FFFFFFFFFFF8000001FFFE0000007FFFFFF0001FFFFF
310
FC0007FFFFFFF0001FFC0007FFFFFFF0001FFF0003FFFFFFFFF00007FFFFFFFF
310
F000E0001FFFFFFFFFFF8000FFC000001FFC000FFF80007FC0003FFFFFFFFFFE
310
0001FFFFFFFFFFF8000001FFFE0000007FFFFFF0001FFFFFFC0007FFFFFFF000
310
1FFC0007FFFFFFF0001FFF0003FFFFFFFFF0001FFFFFFFFFF000E0003FFFFF00
310
03FF8001FFE000001FFC0007FF80007FC0007FFFFF0007FC0003FFFFF0003FF8
310
000001FFFE0000007FFFFFF0001FFFFFFC0003FFFFFFE0001FFC0003FFFFFFE0
310
001FFF0003FFFFFFFFF0003FFFFFFFFFF000E0003FFFFF0001FF8001FFE00000
310
1FFE0007FF80007FC0007FFFFE0003FC0007FFFFE0003FF8000001FFFE000000
310
7FFFFFF0001FFFFFFE0003FFFFFFE0003FFE0003FFFFFFE0003FFF0003FFFFFF
310
FFF0003FFFFF8001F000E0003FFFFF0001FF0001FFE000001FFE0007FF80007F
310
C0007FFFFE0003FC0007FFFFE0003FF8000001FFFE0000007FFFFFF0001FFFFF
310
FE0001FFFFFFC0003FFE0001FFFFFFC0003FFF0003FFFFFFFFF0003FFFFF0001
310
F000E0003FFFFF0003FF0001FFE000003FFE0007FF80007FC0007FFFFE0003FC
310
0007FFFFE0003FF8000001FFFE0000007FFFFFF0001FFFFFFF0001FFFFFFC000
310
7FFF0001FFFFFFC0007FFF0003FFFFFFFFF0003FFFFF0001F000E0003FFFFE00
310
03FF0003FFF000003FFE0003FF80007FC0007FFFFC0003FE0007FFFFE0003FF8
310
000001FFFE0000007FFFFFF0001FFFFFFF0000FFFFFF80007FFF0000FFFFFF80
310
007FFF0003FFFFFFFFF0003FFFFF0001F000E0003FFFFE0003FF0003FFF00000
310
3FFF0003FF80007FC0007FFFFC0007FE0007FFFFC0003FF8000001FFFE000000
310
7FFFFFF0001FFFFFFF80007FFFFF0000FFFF80007FFFFF0000FFFF0003FFFFFF
310
FFF0003FFFFF0003F000E0003FFFFC0003FE0003FFF000003FFF0003FF80007F
310
E0003FFFF80007FE0003FFFFC0007FF8000001FFFE0000007FFFFFF0001FFFFF
310
FF80003FFFFE0000FFFF80003FFFFE0000FFFF0003FFFFFFFFF0001FFFFE0003
310
F000F0001FFFF80003FE0003FFF000007FFF0001FF80007FE0003FFFF00007FE
310
0001FFFF80007FF8000001FFFE0000007FFFFFF0001FFFFFFFC0000FFFF80001
310
FFFFC0000FFFF80001FFFF0003FFFFFFFFF0001FFFFC0003F000F0000FFFF000
310
07FE0007FFF800007FFF0001FF80007FE0001FFFE00007FF0000FFFE00007FF8
310
000001FFFE0000007FFFFFF0001FFFFFFFC00003FFE00001FFFFC00003FFE000
310
01FFFF0003FFFFFFFFF8000FFFF80003F000F00003FFC00007FC0007FFF80000
310
7FFF8001FF80007FF00007FF80000FFF00007FF80000FFF8000001FFFE000000
310
7F80000000000001FFE000003E000003FFFFE000003E000003FFFF0003FFFFFF
310
FFF80003FFE00007F000F800000000000FFC0007FFF800007FFF8001FF80007F
310
F000000000000FFF000000000000FFF8000001FFFE0000007F80000000000001
310
FFF0000000000007FFFFF0000000000007FFFF0003FFFFFFFFFC00007E000007
310
F000F800000000000FFC0007FFF80000FFFF8000FF80007FF800000000001FFF
310
800000000001FFF8000001FFFE0000007F80000000000001FFF800000000000F
310
FFFFF800000000000FFFFF0003FFFFFFFFFC00000000000FF000FC0000000000
310
1FFC0007FFFC0000FFFF8000FF80007FF800000000003FFFC00000000001FFF8
310
000001FFFE0000007F80000000000001FFF800000000000FFFFFF80000000000
310
0FFFFF0003FFFFFFFFFE00000000001FF000FE00000000003FF8000FFFFC0000
310
FFFF8000FF80007FFC00000000003FFFC00000000003FFF8000001FFFE000000
310
7F80000000000001FFFC00000000001FFFFFFC00000000001FFFFF0003FFFFFF
310
FFFF00000000001FF000FF00000000003FF8000FFFFC0000FFFFC000FF80007F
310
FE00000000007FFFE00000000007FFF8000001FFFE0000007F80000000000001
310
FFFE00000000003FFFFFFE00000000003FFFFF0003FFFFFFFFFF80000000003F
310
F000FF80000000007FF8000FFFFC0001FFFFC0007F80007FFF0000000000FFFF
310
F0000000000FFFF800000000000000007F80000000000001FFFF8000000000FF
310
FFFFFF8000000000FFFFFF0003FFFFFFFFFFC0000000007FF000FFC000000000
310
FFF8000FFFFE0001FFFFC0007F80007FFF8000000001FFFFF8000000001FFFF8
310
00000000000000007F80000000000001FFFFC000000001FFFFFFFFC000000001
310
FFFFFF0003FFFFFFFFFFE000000000FFF000FFE000000003FFF0001FFFFE0001
310
FFFFC0007F80007FFFC000000007FFFFFE000000003FFFF80000000000000000
310
7F80000000000001FFFFE000000003FFFFFFFFE000000003FFFFFF0003FFFFFF
310
FFFFF000000003FFF000FFF80000000FFFF0001FFFFE0001FFFFE0007F80007F
310
FFF00000000FFFFFFF00000000FFFFF800000000000000007F80000000000001
310
FFFFF80000000FFFFFFFFFF80000000FFFFFFF0003FFFFFFFFFFFC0000000FFF
310
F000FFFE0000003FFFF0001FFFFE0003FFFFE0003F80007FFFFC0000003FFFFF
310
FFC0000003FFFFF800000000000000007F80000000000001FFFFFE0000003FFF
310
FFFFFFFE0000003FFFFFFF0003FFFFFFFFFFFF0000003FFFF000FFFF800000FF
310
FFF0001FFFFF0003FFFFE0003F80007FFFFF000001FFFFFFFFF800001FFFFFF8
310
00000000000000007F80000000000001FFFFFFC00001FFFFFFFFFFFFC00001FF
310
FFFFFF0003FFFFFFFFFFFFC00000FFFFF000FFFFF8000FFFFFFFFFFFFFFFFFFF
310
FFFFFFFFFFFFFFFFFFFFF0001FFFFFFFFFFF0000FFFFFFF80000000000000000
310
7FFFFFFFFFFFFFFFFFFFFFFC001FFFFFFFFFFFFFFC001FFFFFFFFFFFFFFFFFFF
310
FFFFFFFC001FFFFFF000FFFFFFFFFFFFFFFFFFFFFFFFFFFFFFFFFFFFFFFFFFFF
310
FFFFFFFFFFFFFFFFFFFFFFFFFFFFFFFFFFFFFFFFFFFFFFFFFFFFFFFFFFFFFFFF
310
FFFFFFFFFFFFFFFFFFFFFFFFFFFFFFFFFFFFFFFFFFFFFFFFFFFFFFFFFFFFFFFF
310
F000FFFFFFFFFFFFFFFFFFFFFFFFFFFFFFFFFFFFFFFFFFFFFFFFFFFFFFFFFFFF
310
FFFFFFFFFFFFFFFFFFFFFFFFFFFFFFFFFFFFFFFFFFFFFFFFFFFFFFFFFFFFFFFF
310
FFFFFFFFFFFFFFFFFFFFFFFFFFFFFFFFFFFFFFFFFFFFFFFFF000FFFFFFFFFFFF
310
FFFFFFFFFFFFFFFFFFFFFFFFFFFFFFFFFFFFFFFFFFFFFFFFFFFFFFFFFFFFFFFF
310
FFFFFFFFFFFFFFFFFFFFFFFFFFFFFFFFFFFFFFFFFFFFFFFFFFFFFFFFFFFFFFFF
310
FFFFFFFFFFFFFFFFFFFFFFFFFFFFFFFFF000FFFFFFFFFFFFFFFFFFFFFFFFFFFF
310
FFFFFFFFFFFFFFFFFFFFFFFFFFFFFFFFFFFFFFFFFFFFFFFFFFFFFFFFFFFFFFFF
310
FFFFFFFFFFFFFFFFFFFFFFFFFFFFFFFFFFFFFFFFFFFFFFFFFFFFFFFFFFFFFFFF
310
FFFFFFFFFFFFFFFFF000FFFFFFFFFFFFFFFFFFFFFFFFFFFFFFFFFFFFFFFFFFFF
310
FFFFFFFFFFFFFFFFFFFFFFFFFFFFFFFFFFFFFFFFFFFFFFFFFFFFFFFFFFFFFFFF
310
FFFFFFFFFFFFFFFFFFFFFFFFFFFFFFFFFFFFFFFFFFFFFFFFFFFFFFFFFFFFFFFF
310
F000FFFFFFFFFFFFFFFFFFFFFFFFFFFFFFFFFFFFFFFFFFFFFFFFFFFFFFFFFFFF
310
FFFFFFFFFFFFFFFFFFFFFFFFFFFFFFFFFFFFFFFFFFFFFFFFFFFFFFFFFFFFFFFF
310
FFFFFFFFFFFFFFFFFFFFFFFFFFFFFFFFFFFFFFFFFFFFFFFFF000FFFFFFFFFFFF
310
FFFFFFFFFFFFFFFFFFFFFFFFFFFFFFFFFFFFFFFFFFFFFFFFFFFFFFFFFFFFFFFF
310
FFFFFFFFFFFFFFFFFFFFFFFFFFFFFFFFFFFFFFFFFFFFFFFFFFFFFFFFFFFFFFFF
310
FFFFFFFFFFFFFFFFFFFFFFFFFFFFFFFFF000FFFFFFFFFFFFFFFFFFFFFFFFFFFF
310
FFFFFFFFFFFFFFFFFFFFFFFFFFFFFFFFFFFFFFFFFFFFFFFFFFFFFFFFFFFFFFFF
310
FFFFFFFFFFFFFFFFFFFFFFFFFFFFFFFFFFFFFFFFFFFFFFFFFFFFFFFFFFFFFFFF
310
FFFFFFFFFFFFFFFFF000FFFFFFFFFFFFFFFFFFFFFFFFFFFFFFFFFFFFFFFFFFFF
310
FFFFFFFFFFFFFFFFFFFFFFFFFFFFFFFFFFFFFFFFFFFFFFFFFFFFFFFFFFFFFFFF
310
FFFFFFFFFFFFFFFFFFFFFFFFFFFFFFFFFFFFFFFFFFFFFFFFFFFFFFFFFFFFFFFF
310
F000FFFFFFFFFFFFFFFFFFFFFFFFFFFFFFFFFFFFFFFFFFFFFFFFFFFFFFFFFFFF
310
FFFFFFFFFFFFFFFFFFFFFFFFFFFFFFFFFFFFFFFFFFFFFFFFFFFFFFFFFFFFFFFF
310
FFFFFFFFFFFFFFFFFFFFFFFFFFFFFFFFFFFFFFFFFFFFFFFFF000FFFFFFFFFFFF
310
FFFFFFFFFFFFFFFFFFFFFFFFFFFFFFFFFFFFFFFFFFFFFFFFFFFFFFFFFFFFFFFF
310
FFFFFFFFFFFFFFFFFFFFFFFFFFFFFFFFFFFFFFFFFFFFFFFFFFFFFFFFFFFFFFFF
310
FFFFFFFFFFFFFFFFFFFFFFFFFFFFFFFFF000FFFFFFFFFFFFFFFFFFFFFFFFFFFF
310
FFFFFFFFFFFFFFFFFFFFFFFFFFFFFFFFFFFFFFFFFFFFFFFFFFFFFFFFFFFFFFFF
310
FFFFFFFFFFFFFFFFFFFFFFFFFFFFFFFFFFFFFFFFFFFFFFFFFFFFFFFFFFFFFFFF
310
FFFFFFFFFFFFFFFFF000FFFFFFFFFFFFFFFFFFFFFFFFFFFFFFFFFFFFFFFFFFFF
310
FFFFFFFFFFFFFFFFFFFFFFFFFFFFFFFFFFFFFFFFFFFFFFFFFFFFFFFFFFFFFFFF
310
FFFFFFFFFFFFFFFFFFFFFFFFFFFFFFFFFFFFFFFFFFFFFFFFFFFFFFFFFFFFFFFF
310
F000FFFFFFFFFFFFFFFFFFFFFFFFFFFFFFFFFFFFFFFFFFFFFFFFFFFFFFFFFFFF
310
FFFFFFFFFFFFFFFFFFFFFFFFFFFFFFFFFFFFFFFFFFFFFFFFFFFFFFFFFFFFFFFF
310
FFFFFFFFFFFFFFFFFFFFFFFFFFFFFFFFFFFFFFFFFFFFFFFFF000FFFFFFFFFFFF
310
FFFFFFFFFFFFFFFFFFFFFFFFFFFFFFFFFFFFFFFFFFFFFFFFFFFFFFFFFFFFFFFF
310
FFFFFFFFFFFFFFFFFFFFFFFFFFFFFFFFFFFFFFFFFFFFFFFFFFFFFFFFFFFFFFFF
310
FFFFFFFFFFFFFFFFFFFFFFFFFFFFFFFFF000FFFFFFFFFFFFFFFFFFFFFFFFFFFF
310
FFFFFFFFFFFFFFFFFFFFFFFFFFFFFFFFFFFFFFFFFFFFFFFFFFFFFFFFFFFFFFFF
310
FFFFFFFFFFFFFFFFFFFFFFFFFFFFFFFFFFFFFFFFFFFFFFFFFFFFFFFFFFFFFFFF
310
FFFFFFFFFFFFFFFFF000FFFFFFFFFFFFFFFFFFFFFFFFFFFFFFFFFFFFFFFFFFFF
310
FFFFFFFFFFFFFFFFFFFFFFFFFFFFFFFFFFFFFFFFFFFFFFFFFFFFFFFFFFFFFFFF
310
FFFFFFFFFFFFFFFFFFFFFFFFFFFFFFFFFFFFFFFFFFFFFFFFFFFFFFFFFFFFFFFF
310
F000FFFFFFFFFFFFFFFFFFFFFFFFFFFFFFFFFFFFFFFFFFFFFFFFFFFFFFFFFFFF
310
FFFFFFFFFFFFFFFFFFFFFFFFFFFFFFFFFFFFFFFFFFFFFFFFFFFFFFFFFFFFFFFF
310
FFFFFFFFFFFFFFFFFFFFFFFFFFFFFFFFFFFFFFFFFFFFFFFFF000FFFFFFFFFFFF
310
FFFFFFFFFFFFFFFFFFFFFFFFFFFFFFFFFFFFFFFFFFFFFFFFFFFFFFFFFFFFFFFF
310
FFFFFFFFFFFFFFFFFFFFFFFFFFFFFFFFFFFFFFFFFFFFFFFFFFFFFFFFFFFFFFFF
310
FFFFFFFFFFFFFFFFFFFFFFFFFFFFFFFFF000FFFFFFFFFFFFFFFFFFFFFFFFFFFF
310
FFFFFFFFFFFFFFFFFFFFFFFFFFFFFFFFFFFFFFFFFFFFFFFFFFFFFFFFFFFFFFFF
310
FFFFFFFFFFFFFFFFFFFFFFFFFFFFFFFFFFFFFFFFFFFFFFFFFFFFFFFFFFFFFFFF
310
FFFFFFFFFFFFFFFFF000FFFFFFFFFFFFFFFFFFFFFFFFFFFFFFFFFFFFFFFFFFFF
310
FFFFFFFFFFFFFFFFFFFFFFFFFFFFFFFFFFFFFFFFFFFFFFFFFFFFFFFFFFFFFFFF
310
FFFFFFFFFFFFFFFFFFFFFFFFFFFFFFFFFFFFFFFFFFFFFFFFFFFFFFFFFFFFFFFF
310
F000FFFFFFFFFFFFFFFFFFFFFFFFFFFFFFFFFFFFFFFFFFFFFFFFFFFFFFFFFFFF
310
FFFFFFFFFFFFFFFFFFFFFFFFFFFFFFFFFFFFFFFFFFFFFFFFFFFFFFFFFFFFFFFF
310
FFFFFFFFFFFFFFFFFFFFFFFFFFFFFFFFFFFFFFFFFFFFFFFFF000FFFFFFFFFFFF
310
FFFFFFFFFFFFFFFFFFFFFFFFFFFFFFFFFFFFFFFFFFFFFFFFFFFFFFFFFFFFFFFF
310
FFFFFFFFFFFFFFFFFFFFFFFFFFFFFFFFFFFFFFFFFFFFFFFFFFFFFFFFFFFFFFFF
310
FFFFFFFFFFFFFFFFFFFFFFFFFFFFFFFFF0000000000000000000000000000000
310
0000000001000000010000000100000001000000010000000100000001000000
310
0000000001000000000000000100000001000000010000000100000001000000
310
0100000001000000010000000100000001000000010000000100000001000000
310
0100000001000000010000000100000001000000010000000100000001000000
310
0100000001000000010000000100000001000000010000000100000001000000
310
0100000000000000010000000100000000000000010000000100000001000000
310
0100000001000000010000000100000001000000010000000100000001000000
310
0100000001000000010000000100000001000000010000000100000001000000
310
0000000001000000010000000000000001000000010000000100000001000000
310
0100000001000000010000000100000001000000010000000100000001000000
310
0100000001000000010000000100000001000000010000000100000001000000
310
0100000001000000010000000100000001000000010000000100000001000000
310
0100000001000000010000000100000000000000010000000000000001000000
310
0100000001000000010000000100000001000000010000000100000001000000
310
0100000001000000010000000100000001000000010000000100000001000000
  1
OLE
  0
ENDSEC
  0
SECTION
  2
OBJECTS
  0
DICTIONARY
  5
C
330
0
100
AcDbDictionary
281
     1
  3
ACAD_GROUP
350
D
  3
ACAD_LAYOUT
350
1A
  3
ACAD_MLEADERSTYLE
350
1F1
  3
ACAD_MLINESTYLE
350
17
  3
ACAD_PLOTSETTINGS
350
19
  3
ACAD_PLOTSTYLENAME
350
E
  3
ACAD_TABLESTYLE
350
1F0
  3
ACAD_VISUALSTYLE
350
2A
  3
AcDbVariableDictionary
350
1F2
  0
DICTIONARY
  5
D
102
{ACAD_REACTORS
330
C
102
}
330
C
100
AcDbDictionary
281
     1
  0
DICTIONARY
  5
1A
102
{ACAD_REACTORS
330
C
102
}
330
C
100
AcDbDictionary
281
     1
  3
Layout1
350
1E
  3
Layout2
350
26
  3
Model
350
22
  0
DICTIONARY
  5
1F1
102
{ACAD_REACTORS
330
C
102
}
330
C
100
AcDbDictionary
281
     1
  0
DICTIONARY
  5
17
102
{ACAD_REACTORS
330
C
102
}
330
C
100
AcDbDictionary
281
     1
  3
Standard
350
18
  0
DICTIONARY
  5
19
102
{ACAD_REACTORS
330
C
102
}
330
C
100
AcDbDictionary
281
     1
  0
ACDBDICTIONARYWDFLT
  5
E
102
{ACAD_REACTORS
330
C
102
}
330
C
100
AcDbDictionary
281
     1
  3
Normal
350
F
100
AcDbDictionaryWithDefault
340
F
  0
DICTIONARY
  5
1F0
102
{ACAD_REACTORS
330
C
102
}
330
C
100
AcDbDictionary
281
     1
  0
DICTIONARY
  5
2A
102
{ACAD_REACTORS
330
C
102
}
330
C
100
AcDbDictionary
281
     1
  3
2dWireframe
350
2F
  3
3D Hidden
350
31
  3
3dWireframe
350
30
  3
Basic
350
32
  3
Brighten
350
36
  3
ColorChange
350
3A
  3
Conceptual
350
34
  3
Dim
350
35
  3
Facepattern
350
39
  3
Flat
350
2B
  3
FlatWithEdges
350
2C
  3
Gouraud
350
2D
  3
GouraudWithEdges
350
2E
  3
Linepattern
350
38
  3
Realistic
350
33
  3
Thicken
350
37
  0
DICTIONARY
  5
1F2
102
{ACAD_REACTORS
330
C
102
}
330
C
100
AcDbDictionary
281
     1
  3
PSOLHEIGHT
350
1F4
  3
PSOLWIDTH
350
1F3
  0
LAYOUT
  5
1E
102
{ACAD_REACTORS
330
1A
102
}
330
1A
100
AcDbPlotSettings
  1

  2
none_device
  4

  6

 40
0.0
 41
0.0
 42
0.0
 43
0.0
 44
0.0
 45
0.0
 46
0.0
 47
0.0
 48
0.0
 49
0.0
140
0.0
141
0.0
142
1.0
143
1.0
 70
   688
 72
     0
 73
     0
 74
     5
  7

 75
    16
147
1.0
148
0.0
149
0.0
100
AcDbLayout
  1
Layout1
 70
     1
 71
     1
 10
0.0
 20
0.0
 11
420.0
 21
297.0
 12
0.0
 22
0.0
 32
0.0
 14
1.0000000000E+20
 24
1.0000000000E+20
 34
1.0000000000E+20
 15
-1.0000000000E+20
 25
-1.0000000000E+20
 35
-1.0000000000E+20
146
0.0
 13
0.0
 23
0.0
 33
0.0
 16
1.0
 26
0.0
 36
0.0
 17
0.0
 27
1.0
 37
0.0
 76
     0
330
1B
  0
LAYOUT
  5
26
102
{ACAD_REACTORS
330
1A
102
}
330
1A
100
AcDbPlotSettings
  1

  2
none_device
  4

  6

 40
0.0
 41
0.0
 42
0.0
 43
0.0
 44
0.0
 45
0.0
 46
0.0
 47
0.0
 48
0.0
 49
0.0
140
0.0
141
0.0
142
1.0
143
1.0
 70
   688
 72
     0
 73
     0
 74
     5
  7

 75
    16
147
1.0
148
0.0
149
0.0
100
AcDbLayout
  1
Layout2
 70
     1
 71
     2
 10
0.0
 20
0.0
 11
0.0
 21
0.0
 12
0.0
 22
0.0
 32
0.0
 14
0.0
 24
0.0
 34
0.0
 15
0.0
 25
0.0
 35
0.0
146
0.0
 13
0.0
 23
0.0
 33
0.0
 16
1.0
 26
0.0
 36
0.0
 17
0.0
 27
1.0
 37
0.0
 76
     0
330
23
  0
LAYOUT
  5
22
102
{ACAD_REACTORS
330
1A
102
}
330
1A
100
AcDbPlotSettings
  1

  2
none_device
  4

  6

 40
0.0
 41
0.0
 42
0.0
 43
0.0
 44
0.0
 45
0.0
 46
0.0
 47
0.0
 48
0.0
 49
0.0
140
0.0
141
0.0
142
1.0
143
1.0
 70
  1712
 72
     0
 73
     0
 74
     0
  7

 75
     0
147
1.0
148
0.0
149
0.0
100
AcDbLayout
  1
Model
 70
     1
 71
     0
 10
0.0
 20
0.0
 11
297.0
 21
210.0
 12
0.0
 22
0.0
 32
0.0
 14
0.0
 24
0.0
 34
0.0
 15
297.0
 25
210.0
 35
0.0
146
0.0
 13
0.0
 23
0.0
 33
0.0
 16
1.0
 26
0.0
 36
0.0
 17
0.0
 27
1.0
 37
0.0
 76
     0
330
1F
331
29
  0
MLINESTYLE
  5
18
102
{ACAD_REACTORS
330
17
102
}
330
17
100
AcDbMlineStyle
  2
Standard
 70
     0
  3

 62
   256
 51
90.0
 52
90.0
 71
     2
 49
0.5
 62
   256
  6
BYLAYER
 49
-0.5
 62
   256
  6
BYLAYER
  0
ACDBPLACEHOLDER
  5
F
102
{ACAD_REACTORS
330
E
102
}
330
E
  0
VISUALSTYLE
  5
2F
102
{ACAD_REACTORS
330
2A
102
}
330
2A
100
AcDbVisualStyle
  2
2dWireframe
 70
     4
 71
     0
 72
     2
 73
     0
 90
        0
 40
-0.6
 41
-30.0
 62
     5
 63
     7
 74
     1
 91
        4
 64
     7
 65
   257
 75
     1
175
     1
 42
1.0
 92
        0
 66
   257
 43
1.0
 76
     1
 77
     6
 78
     2
 67
     7
 79
     5
170
     0
171
     0
290
     0
174
     0
 93
        1
 44
0.0
173
     0
291
     0
 45
0.0
1001
ACAD
1000
AcDbSavedByObjectVersion
1070
     0
  0
VISUALSTYLE
  5
31
102
{ACAD_REACTORS
330
2A
102
}
330
2A
100
AcDbVisualStyle
  2
3D Hidden
 70
     6
 71
     1
 72
     2
 73
     2
 90
        0
 40
-0.6
 41
-30.0
 62
     5
 63
     7
 74
     2
 91
        2
 64
     7
 65
   257
 75
     2
175
     1
 42
40.0
 92
        0
 66
   257
 43
1.0
 76
     1
 77
     6
 78
     2
 67
     7
 79
     3
170
     0
171
     0
290
     0
174
     0
 93
        1
 44
0.0
173
     0
291
     0
 45
0.0
1001
ACAD
1000
AcDbSavedByObjectVersion
1070
     0
  0
VISUALSTYLE
  5
30
102
{ACAD_REACTORS
330
2A
102
}
330
2A
100
AcDbVisualStyle
  2
3dWireframe
 70
     5
 71
     0
 72
     2
 73
     0
 90
        0
 40
-0.6
 41
-30.0
 62
     5
 63
     7
 74
     1
 91
        4
 64
     7
 65
   257
 75
     1
175
     1
 42
1.0
 92
        0
 66
   257
 43
1.0
 76
     1
 77
     6
 78
     2
 67
     7
 79
     5
170
     0
171
     0
290
     0
174
     0
 93
        1
 44
0.0
173
     0
291
     0
 45
0.0
1001
ACAD
1000
AcDbSavedByObjectVersion
1070
     0
  0
VISUALSTYLE
  5
32
102
{ACAD_REACTORS
330
2A
102
}
330
2A
100
AcDbVisualStyle
  2
Basic
 70
     7
 71
     1
 72
     0
 73
     1
 90
        0
 40
-0.6
 41
-30.0
 62
     5
 63
     7
 74
     0
 91
        4
 64
     7
 65
   257
 75
     1
175
     1
 42
1.0
 92
        8
 66
     7
 43
1.0
 76
     1
 77
     6
 78
     2
 67
     7
 79
     5
170
     0
171
     0
290
     0
174
     0
 93
        1
 44
0.0
173
     0
291
     1
 45
0.0
1001
ACAD
1000
AcDbSavedByObjectVersion
1070
     0
  0
VISUALSTYLE
  5
36
102
{ACAD_REACTORS
330
2A
102
}
330
2A
100
AcDbVisualStyle
  2
Brighten
 70
    12
 71
     2
 72
     2
 73
     0
 90
        0
 40
-0.6
 41
-30.0
 62
     5
 63
     7
 74
     1
 91
        4
 64
     7
 65
   257
 75
     1
175
     1
 42
1.0
 92
        8
 66
     7
 43
1.0
 76
     1
 77
     6
 78
     2
 67
     7
 79
     5
170
     0
171
     0
290
     0
174
     0
 93
        1
 44
50.0
173
     0
291
     1
 45
0.0
1001
ACAD
1000
AcDbSavedByObjectVersion
1070
     0
  0
VISUALSTYLE
  5
3A
102
{ACAD_REACTORS
330
2A
102
}
330
2A
100
AcDbVisualStyle
  2
ColorChange
 70
    16
 71
     2
 72
     2
 73
     3
 90
        0
 40
-0.6
 41
-30.0
 62
     5
 63
     8
 74
     1
 91
        4
 64
     7
 65
   257
 75
     1
175
     1
 42
1.0
 92
        8
 66
     8
 43
1.0
 76
     1
 77
     6
 78
     2
 67
     7
 79
     5
170
     0
171
     0
290
     0
174
     0
 93
        1
 44
0.0
173
     0
291
     1
 45
0.0
1001
ACAD
1000
AcDbSavedByObjectVersion
1070
     0
  0
VISUALSTYLE
  5
34
102
{ACAD_REACTORS
330
2A
102
}
330
2A
100
AcDbVisualStyle
  2
Conceptual
 70
     9
 71
     3
 72
     2
 73
     0
 90
        0
 40
-0.6
 41
-30.0
 62
     5
 63
     7
 74
     2
 91
        2
 64
     7
 65
   257
 75
     1
175
     1
 42
40.0
 92
        8
 66
     7
 43
1.0
 76
     1
 77
     6
 78
     2
 67
     7
 79
     3
170
     0
171
     0
290
     0
174
     0
 93
        1
 44
0.0
173
     0
291
     0
 45
0.0
1001
ACAD
1000
AcDbSavedByObjectVersion
1070
     0
  0
VISUALSTYLE
  5
35
102
{ACAD_REACTORS
330
2A
102
}
330
2A
100
AcDbVisualStyle
  2
Dim
 70
    11
 71
     2
 72
     2
 73
     0
 90
        0
 40
-0.6
 41
-30.0
 62
     5
 63
     7
 74
     1
 91
        4
 64
     7
 65
   257
 75
     1
175
     1
 42
1.0
 92
        8
 66
     7
 43
1.0
 76
     1
 77
     6
 78
     2
 67
     7
 79
     5
170
     0
171
     0
290
     0
174
     0
 93
        1
 44
-50.0
173
     0
291
     1
 45
0.0
1001
ACAD
1000
AcDbSavedByObjectVersion
1070
     0
  0
VISUALSTYLE
  5
39
102
{ACAD_REACTORS
330
2A
102
}
330
2A
100
AcDbVisualStyle
  2
Facepattern
 70
    15
 71
     2
 72
     2
 73
     0
 90
        0
 40
-0.6
 41
-30.0
 62
     5
 63
     7
 74
     1
 91
        4
 64
     7
 65
   257
 75
     1
175
     1
 42
1.0
 92
        8
 66
     7
 43
1.0
 76
     1
 77
     6
 78
     2
 67
     7
 79
     5
170
     0
171
     0
290
     0
174
     0
 93
        1
 44
0.0
173
     0
291
     1
 45
0.0
1001
ACAD
1000
AcDbSavedByObjectVersion
1070
     0
  0
VISUALSTYLE
  5
2B
102
{ACAD_REACTORS
330
2A
102
}
330
2A
100
AcDbVisualStyle
  2
Flat
 70
     0
 71
     2
 72
     1
 73
     1
 90
        2
 40
-0.6
 41
30.0
 62
     5
 63
     7
 74
     0
 91
        4
 64
     7
 65
   257
 75
     1
175
     1
 42
1.0
 92
        8
 66
     7
 43
1.0
 76
     1
 77
     6
 78
     2
 67
     7
 79
     5
170
     0
171
     0
290
     0
174
     0
 93
       13
 44
0.0
173
     0
291
     1
 45
0.0
1001
ACAD
1000
AcDbSavedByObjectVersion
1070
     0
  0
VISUALSTYLE
  5
2C
102
{ACAD_REACTORS
330
2A
102
}
330
2A
100
AcDbVisualStyle
  2
FlatWithEdges
 70
     1
 71
     2
 72
     1
 73
     1
 90
        2
 40
-0.6
 41
30.0
 62
     5
 63
     7
 74
     1
 91
        4
 64
     7
 65
   257
 75
     1
175
     1
 42
1.0
 92
        0
 66
   257
 43
1.0
 76
     1
 77
     6
 78
     2
 67
     7
 79
     5
170
     0
171
     0
290
     0
174
     0
 93
       13
 44
0.0
173
     0
291
     1
 45
0.0
1001
ACAD
1000
AcDbSavedByObjectVersion
1070
     0
  0
VISUALSTYLE
  5
2D
102
{ACAD_REACTORS
330
2A
102
}
330
2A
100
AcDbVisualStyle
  2
Gouraud
 70
     2
 71
     2
 72
     2
 73
     1
 90
        2
 40
-0.6
 41
30.0
 62
     5
 63
     7
 74
     0
 91
        4
 64
     7
 65
   257
 75
     1
175
     1
 42
1.0
 92
        0
 66
     7
 43
1.0
 76
     1
 77
     6
 78
     2
 67
     7
 79
     5
170
     0
171
     0
290
     0
174
     0
 93
       13
 44
0.0
173
     0
291
     1
 45
0.0
1001
ACAD
1000
AcDbSavedByObjectVersion
1070
     0
  0
VISUALSTYLE
  5
2E
102
{ACAD_REACTORS
330
2A
102
}
330
2A
100
AcDbVisualStyle
  2
GouraudWithEdges
 70
     3
 71
     2
 72
     2
 73
     1
 90
        2
 40
-0.6
 41
30.0
 62
     5
 63
     7
 74
     1
 91
        4
 64
     7
 65
   257
 75
     1
175
     1
 42
1.0
 92
        0
 66
   257
 43
1.0
 76
     1
 77
     6
 78
     2
 67
     7
 79
     5
170
     0
171
     0
290
     0
174
     0
 93
       13
 44
0.0
173
     0
291
     1
 45
0.0
1001
ACAD
1000
AcDbSavedByObjectVersion
1070
     0
  0
VISUALSTYLE
  5
38
102
{ACAD_REACTORS
330
2A
102
}
330
2A
100
AcDbVisualStyle
  2
Linepattern
 70
    14
 71
     2
 72
     2
 73
     0
 90
        0
 40
-0.6
 41
-30.0
 62
     5
 63
     7
 74
     1
 91
        4
 64
     7
 65
   257
 75
     7
175
     7
 42
1.0
 92
        8
 66
     7
 43
1.0
 76
     1
 77
     6
 78
     2
 67
     7
 79
     5
170
     0
171
     0
290
     0
174
     0
 93
        1
 44
0.0
173
     0
291
     1
 45
0.0
1001
ACAD
1000
AcDbSavedByObjectVersion
1070
     0
  0
VISUALSTYLE
  5
33
102
{ACAD_REACTORS
330
2A
102
}
330
2A
100
AcDbVisualStyle
  2
Realistic
 70
     8
 71
     2
 72
     2
 73
     0
 90
        0
 40
-0.6
 41
-30.0
 62
     5
 63
     7
 74
     1
 91
        0
 64
     7
 65
   257
 75
     1
175
     1
 42
1.0
 92
        8
 66
     8
 43
1.0
 76
     1
 77
     6
 78
     2
 67
     7
 79
     5
170
     0
171
     0
290
     0
174
     0
 93
       13
 44
0.0
173
     0
291
     0
 45
0.0
1001
ACAD
1000
AcDbSavedByObjectVersion
1070
     0
  0
VISUALSTYLE
  5
37
102
{ACAD_REACTORS
330
2A
102
}
330
2A
100
AcDbVisualStyle
  2
Thicken
 70
    13
 71
     2
 72
     2
 73
     0
 90
        0
 40
-0.6
 41
-30.0
 62
     5
 63
     7
 74
     1
 91
        4
 64
     7
 65
   257
 75
     1
175
     1
 42
1.0
 92
       12
 66
     7
 43
1.0
 76
     1
 77
     6
 78
     2
 67
     7
 79
     5
170
     0
171
     0
290
     0
174
     0
 93
        1
 44
0.0
173
     0
291
     1
 45
0.0
1001
ACAD
1000
AcDbSavedByObjectVersion
1070
     0
  0
DICTIONARYVAR
  5
1F4
102
{ACAD_REACTORS
330
1F2
102
}
330
1F2
100
DictionaryVariables
280
     0
  1
80.000000
  0
DICTIONARYVAR
  5
1F3
102
{ACAD_REACTORS
330
1F2
102
}
330
1F2
100
DictionaryVariables
280
     0
  1
5.000000
  0
ENDSEC
  0
EOF
