  0
SECTION
  2
HEADER
  9
$ACADVER
  1
AC1015
  9
$ACADMAINTVER
 70
     6
  9
$DWGCODEPAGE
  3
ANSI_1252
  9
$INSBASE
 10
0.0
 20
0.0
 30
0.0
  9
$EXTMIN
 10
0.0
 20
0.0
 30
0.0
  9
$EXTMAX
 10
297.0
 20
210.0
 30
0.0
  9
$LIMMIN
 10
0.0
 20
0.0
  9
$LIMMAX
 10
297.0
 20
210.0
  9
$ORTHOMODE
 70
     0
  9
$REGENMODE
 70
     1
  9
$FILLMODE
 70
     1
  9
$QTEXTMODE
 70
     0
  9
$MIRRTEXT
 70
     1
  9
$LTSCALE
 40
1.0
  9
$ATTMODE
 70
     1
  9
$TEXTSIZE
 40
2.0
  9
$TRACEWID
 40
1.0
  9
$TEXTSTYLE
  7
Standard
  9
$CLAYER
  8
0
  9
$CELTYPE
  6
ByLayer
  9
$CECOLOR
 62
   256
  9
$CELTSCALE
 40
1.0
  9
$DISPSILH
 70
     0
  9
$DIMSCALE
 40
1.0
  9
$DIMASZ
 40
3.0
  9
$DIMEXO
 40
0.0
  9
$DIMDLI
 40
3.75
  9
$DIMRND
 40
0.0
  9
$DIMDLE
 40
0.0
  9
$DIMEXE
 40
1.0
  9
$DIMTP
 40
0.0
  9
$DIMTM
 40
0.0
  9
$DIMTXT
 40
2.0
  9
$DIMCEN
 40
2.5
  9
$DIMTSZ
 40
0.0
  9
$DIMTOL
 70
     0
  9
$DIMLIM
 70
     0
  9
$DIMTIH
 70
     1
  9
$DIMTOH
 70
     1
  9
$DIMSE1
 70
     0
  9
$DIMSE2
 70
     0
  9
$DIMTAD
 70
     1
  9
$DIMZIN
 70
     0
  9
$DIMBLK
  1

  9
$DIMASO
 70
     1
  9
$DIMSHO
 70
     1
  9
$DIMPOST
  1

  9
$DIMAPOST
  1

  9
$DIMALT
 70
     0
  9
$DIMALTD
 70
     3
  9
$DIMALTF
 40
0.0393700787
  9
$DIMLFAC
 40
1.0
  9
$DIMTOFL
 70
     1
  9
$DIMTVP
 40
0.0
  9
$DIMTIX
 70
     0
  9
$DIMSOXD
 70
     0
  9
$DIMSAH
 70
     0
  9
$DIMBLK1
  1

  9
$DIMBLK2
  1

  9
$DIMSTYLE
  2
ISO-25
  9
$DIMCLRD
 70
     0
  9
$DIMCLRE
 70
     0
  9
$DIMCLRT
 70
     0
  9
$DIMTFAC
 40
1.0
  9
$DIMGAP
 40
1.524
  9
$DIMJUST
 70
     0
  9
$DIMSD1
 70
     0
  9
$DIMSD2
 70
     0
  9
$DIMTOLJ
 70
     0
  9
$DIMTZIN
 70
     0
  9
$DIMALTZ
 70
     0
  9
$DIMALTTZ
 70
     0
  9
$DIMUPT
 70
     0
  9
$DIMDEC
 70
     2
  9
$DIMTDEC
 70
     3
  9
$DIMALTU
 70
     2
  9
$DIMALTTD
 70
     3
  9
$DIMTXSTY
  7
Standard
  9
$DIMAUNIT
 70
     0
  9
$DIMADEC
 70
     2
  9
$DIMALTRND
 40
0.0
  9
$DIMAZIN
 70
     0
  9
$DIMDSEP
 70
    44
  9
$DIMATFIT
 70
     3
  9
$DIMFRAC
 70
     0
  9
$DIMLDRBLK
  1

  9
$DIMLUNIT
 70
     2
  9
$DIMLWD
 70
    -2
  9
$DIMLWE
 70
    -2
  9
$DIMTMOVE
 70
     0
  9
$LUNITS
 70
     2
  9
$LUPREC
 70
     2
  9
$SKETCHINC
 40
1.0
  9
$FILLETRAD
 40
10.0
  9
$AUNITS
 70
     0
  9
$AUPREC
 70
     2
  9
$MENU
  1
.
  9
$ELEVATION
 40
0.0
  9
$PELEVATION
 40
0.0
  9
$THICKNESS
 40
0.0
  9
$LIMCHECK
 70
     0
  9
$CHAMFERA
 40
10.0
  9
$CHAMFERB
 40
10.0
  9
$CHAMFERC
 40
20.0
  9
$CHAMFERD
 40
0.0
  9
$SKPOLY
 70
     0
  9
$TDCREATE
 40
2455684.420984896
  9
$TDUCREATE
 40
2455684.337651562
  9
$TDUPDATE
 40
2455684.420984908
  9
$TDUUPDATE
 40
2455684.337651574
  9
$TDINDWG
 40
0.0000000116
  9
$TDUSRTIMER
 40
0.0000000116
  9
$USRTIMER
 70
     1
  9
$ANGBASE
 50
0.0
  9
$ANGDIR
 70
     0
  9
$PDMODE
 70
     0
  9
$PDSIZE
 40
-1.0
  9
$PLINEWID
 40
0.0
  9
$SPLFRAME
 70
     0
  9
$SPLINETYPE
 70
     6
  9
$SPLINESEGS
 70
     8
  9
$HANDSEED
  5
213
  9
$SURFTAB1
 70
     6
  9
$SURFTAB2
 70
     6
  9
$SURFTYPE
 70
     6
  9
$SURFU
 70
     6
  9
$SURFV
 70
     6
  9
$UCSBASE
  2

  9
$UCSNAME
  2

  9
$UCSORG
 10
0.0
 20
0.0
 30
0.0
  9
$UCSXDIR
 10
1.0
 20
0.0
 30
0.0
  9
$UCSYDIR
 10
0.0
 20
1.0
 30
0.0
  9
$UCSORTHOREF
  2

  9
$UCSORTHOVIEW
 70
     0
  9
$UCSORGTOP
 10
0.0
 20
0.0
 30
0.0
  9
$UCSORGBOTTOM
 10
0.0
 20
0.0
 30
0.0
  9
$UCSORGLEFT
 10
0.0
 20
0.0
 30
0.0
  9
$UCSORGRIGHT
 10
0.0
 20
0.0
 30
0.0
  9
$UCSORGFRONT
 10
0.0
 20
0.0
 30
0.0
  9
$UCSORGBACK
 10
0.0
 20
0.0
 30
0.0
  9
$PUCSBASE
  2

  9
$PUCSNAME
  2

  9
$PUCSORG
 10
0.0
 20
0.0
 30
0.0
  9
$PUCSXDIR
 10
1.0
 20
0.0
 30
0.0
  9
$PUCSYDIR
 10
0.0
 20
1.0
 30
0.0
  9
$PUCSORTHOREF
  2

  9
$PUCSORTHOVIEW
 70
     0
  9
$PUCSORGTOP
 10
0.0
 20
0.0
 30
0.0
  9
$PUCSORGBOTTOM
 10
0.0
 20
0.0
 30
0.0
  9
$PUCSORGLEFT
 10
0.0
 20
0.0
 30
0.0
  9
$PUCSORGRIGHT
 10
0.0
 20
0.0
 30
0.0
  9
$PUCSORGFRONT
 10
0.0
 20
0.0
 30
0.0
  9
$PUCSORGBACK
 10
0.0
 20
0.0
 30
0.0
  9
$USERI1
 70
     0
  9
$USERI2
 70
     0
  9
$USERI3
 70
     0
  9
$USERI4
 70
     0
  9
$USERI5
 70
     0
  9
$USERR1
 40
0.0
  9
$USERR2
 40
0.0
  9
$USERR3
 40
0.0
  9
$USERR4
 40
0.0
  9
$USERR5
 40
0.0
  9
$WORLDVIEW
 70
     1
  9
$SHADEDGE
 70
     3
  9
$SHADEDIF
 70
    70
  9
$TILEMODE
 70
     1
  9
$MAXACTVP
 70
    64
  9
$PINSBASE
 10
0.0
 20
0.0
 30
0.0
  9
$PLIMCHECK
 70
     0
  9
$PEXTMIN
 10
1.0000000000E+20
 20
1.0000000000E+20
 30
1.0000000000E+20
  9
$PEXTMAX
 10
-1.0000000000E+20
 20
-1.0000000000E+20
 30
-1.0000000000E+20
  9
$PLIMMIN
 10
0.0
 20
0.0
  9
$PLIMMAX
 10
420.0
 20
297.0
  9
$UNITMODE
 70
     0
  9
$VISRETAIN
 70
     1
  9
$PLINEGEN
 70
     0
  9
$PSLTSCALE
 70
     1
  9
$TREEDEPTH
 70
  3020
  9
$CMLSTYLE
  2
Standard
  9
$CMLJUST
 70
     0
  9
$CMLSCALE
 40
20.0
  9
$PROXYGRAPHICS
 70
     1
  9
$MEASUREMENT
 70
     1
  9
$CELWEIGHT
370
    -1
  9
$ENDCAPS
280
     0
  9
$JOINSTYLE
280
     0
  9
$LWDISPLAY
290
     1
  9
$INSUNITS
 70
     4
  9
$HYPERLINKBASE
  1

  9
$STYLESHEET
  1

  9
$XEDIT
290
     1
  9
$CEPSNTYPE
380
     0
  9
$PSTYLEMODE
290
     1
  9
$FINGERPRINTGUID
  2
{74F7CCFD-D04B-4F13-8ECC-AD558D598FF2}
  9
$VERSIONGUID
  2
{FAEB1C32-E019-11D5-929B-00C0DF256EC4}
  9
$EXTNAMES
290
     1
  9
$PSVPSCALE
 40
0.0
  9
$OLESTARTUP
290
     0
  0
ENDSEC
  0
SECTION
  2
CLASSES
  0
CLASS
  1
ACDBDICTIONARYWDFLT
  2
AcDbDictionaryWithDefault
  3
ObjectDBX Classes
 90
        0
280
     0
281
     0
  0
CLASS
  1
VISUALSTYLE
  2
AcDbVisualStyle
  3
ObjectDBX Classes
 90
     4095
280
     0
281
     0
  0
CLASS
  1
DICTIONARYVAR
  2
AcDbDictionaryVar
  3
ObjectDBX Classes
 90
        0
280
     0
281
     0
  0
CLASS
  1
ACDBPLACEHOLDER
  2
AcDbPlaceHolder
  3
ObjectDBX Classes
 90
        0
280
     0
281
     0
  0
CLASS
  1
LAYOUT
  2
AcDbLayout
  3
ObjectDBX Classes
 90
        0
280
     0
281
     0
  0
ENDSEC
  0
SECTION
  2
TABLES
  0
TABLE
  2
VPORT
  5
8
330
0
100
AcDbSymbolTable
 70
     1
  0
VPORT
  5
29
330
8
100
AcDbSymbolTableRecord
100
AcDbViewportTableRecord
  2
*Active
 70
     0
 10
0.0
 20
0.0
 11
1.0
 21
1.0
 12
148.5
 22
105.0
 13
0.0
 23
0.0
 14
10.0
 24
10.0
 15
10.0
 25
10.0
 16
0.0
 26
0.0
 36
1.0
 17
0.0
 27
0.0
 37
0.0
 40
210.0
 41
1.4142857143
 42
50.0
 43
0.0
 44
0.0
 50
0.0
 51
0.0
 71
     0
 72
  2000
 73
     1
 74
     3
 75
     0
 76
     0
 77
     0
 78
     0
281
     0
 65
     1
110
0.0
120
0.0
130
0.0
111
1.0
121
0.0
131
0.0
112
0.0
122
1.0
132
0.0
 79
     0
146
0.0
  0
ENDTAB
  0
TABLE
  2
LTYPE
  5
5
330
0
100
AcDbSymbolTable
 70
     6
  0
LTYPE
  5
14
330
5
100
AcDbSymbolTableRecord
100
AcDbLinetypeTableRecord
  2
ByBlock
 70
     0
  3

 72
    65
 73
     0
 40
0.0
  0
LTYPE
  5
15
330
5
100
AcDbSymbolTableRecord
100
AcDbLinetypeTableRecord
  2
ByLayer
 70
     0
  3

 72
    65
 73
     0
 40
0.0
  0
LTYPE
  5
16
330
5
100
AcDbSymbolTableRecord
100
AcDbLinetypeTableRecord
  2
Continuous
 70
     0
  3
Solid line
 72
    65
 73
     0
 40
0.0
  0
LTYPE
  5
3B
330
5
100
AcDbSymbolTableRecord
100
AcDbLinetypeTableRecord
  2
HIDDEN
 70
     0
  3
Hidden __ __ __ __ __ __ __ __ __ __ __ __ __ __
 72
    65
 73
     2
 40
1.905
 49
1.27
 74
     0
 49
-0.635
 74
     0
  0
LTYPE
  5
3C
330
5
100
AcDbSymbolTableRecord
100
AcDbLinetypeTableRecord
  2
PHANTOM
 70
     0
  3
Phantom ______  __  __  ______  __  __  ______
 72
    65
 73
     6
 40
12.7
 49
6.35
 74
     0
 49
-1.27
 74
     0
 49
1.27
 74
     0
 49
-1.27
 74
     0
 49
1.27
 74
     0
 49
-1.27
 74
     0
  0
LTYPE
  5
3D
330
5
100
AcDbSymbolTableRecord
100
AcDbLinetypeTableRecord
  2
CENTER
 70
     0
  3
Center ____ _ ____ _ ____ _ ____ _ ____ _ ____
 72
    65
 73
     4
 40
10.16
 49
6.35
 74
     0
 49
-1.27
 74
     0
 49
1.27
 74
     0
 49
-1.27
 74
     0
  0
LTYPE
  5
3E
330
5
100
AcDbSymbolTableRecord
100
AcDbLinetypeTableRecord
  2
CENTERX2
 70
     0
  3
Center (2x) ________  __  ________  __  _____
 72
    65
 73
     4
 40
20.32
 49
12.7
 74
     0
 49
-2.54
 74
     0
 49
2.54
 74
     0
 49
-2.54
 74
     0
  0
LTYPE
  5
3F
330
5
100
AcDbSymbolTableRecord
100
AcDbLinetypeTableRecord
  2
DOT2
 70
     0
  3
Dot (.5x) ........................................
 72
    65
 73
     2
 40
0.635
 49
0.0
 74
     0
 49
-0.635
 74
     0
  0
ENDTAB
  0
TABLE
  2
LAYER
  5
2
330
0
100
AcDbSymbolTable
 70
     5
  0
LAYER
  5
10
330
2
100
AcDbSymbolTableRecord
100
AcDbLayerTableRecord
  2
0
 70
     0
 62
     7
  6
Continuous
370
    -3
390
F
  0
LAYER
  5
40
330
2
100
AcDbSymbolTableRecord
100
AcDbLayerTableRecord
  2
FORMAT
 70
     0
 62
     7
  6
Continuous
370
    -3
390
F
  0
LAYER
  5
41
330
2
100
AcDbSymbolTableRecord
100
AcDbLayerTableRecord
  2
VERMASSUNG
 70
     0
 62
     7
  6
Continuous
370
    -3
390
F
  0
LAYER
  5
42
330
2
100
AcDbSymbolTableRecord
100
AcDbLayerTableRecord
  2
KOPF_DÜNN
 70
     0
 62
     7
  6
Continuous
370
    -3
390
F
  0
LAYER
  5
43
330
2
100
AcDbSymbolTableRecord
100
AcDbLayerTableRecord
  2
KOPF_DICK
 70
     0
 62
     7
  6
Continuous
370
    15
390
F
  0
ENDTAB
  0
TABLE
  2
STYLE
  5
3
330
0
100
AcDbSymbolTable
 70
     3
  0
STYLE
  5
11
330
3
100
AcDbSymbolTableRecord
100
AcDbTextStyleTableRecord
  2
Standard
 70
     0
 40
0.0
 41
1.0
 50
0.0
 71
     0
 42
2.5
  3
txt
  4

  0
STYLE
  5
44
330
3
100
AcDbSymbolTableRecord
100
AcDbTextStyleTableRecord
  2
SLDTEXTSTYLE0
 70
     0
 40
0.0
 41
0.7
 50
0.0
 71
     0
 42
0.2
  3
TXT
  4

  0
STYLE
  5
48
330
3
100
AcDbSymbolTableRecord
100
AcDbTextStyleTableRecord
  2
SLDTEXTSTYLE1
 70
     0
 40
0.0
 41
0.65
 50
0.0
 71
     0
 42
0.2
  3
TXT
  4

  0
ENDTAB
  0
TABLE
  2
VIEW
  5
6
330
0
100
AcDbSymbolTable
 70
     0
  0
ENDTAB
  0
TABLE
  2
UCS
  5
7
330
0
100
AcDbSymbolTable
 70
     0
  0
ENDTAB
  0
TABLE
  2
APPID
  5
9
330
0
100
AcDbSymbolTable
 70
     1
  0
APPID
  5
12
330
9
100
AcDbSymbolTableRecord
100
AcDbRegAppTableRecord
  2
ACAD
 70
     0
  0
ENDTAB
  0
TABLE
  2
DIMSTYLE
  5
A
330
0
100
AcDbSymbolTable
 70
     5
100
AcDbDimStyleTable
  0
DIMSTYLE
105
27
330
A
100
AcDbSymbolTableRecord
100
AcDbDimStyleTableRecord
  2
ISO-25
 70
     0
 41
2.5
 42
0.625
 43
3.75
 44
1.25
 73
     0
 74
     0
 77
     1
 78
     8
140
2.5
141
2.5
143
0.0393700787
147
0.625
171
     3
172
     1
271
     2
272
     2
274
     3
278
    44
283
     0
284
     8
340
11
  0
DIMSTYLE
105
1B4
102
{ACAD_REACTORS
330
1B3
330
1E3
330
1ED
330
1F7
330
201
102
}
330
A
100
AcDbSymbolTableRecord
100
AcDbDimStyleTableRecord
  2
SLDDIMSTYLE0
 70
     0
 41
3.0
 44
0.0
 45
0.000000001
 73
     0
 74
     0
 77
     1
 78
    12
140
2.0
147
0.5
173
     1
271
     2
272
     3
284
    12
340
44
  0
DIMSTYLE
105
1C1
102
{ACAD_REACTORS
330
1C0
102
}
330
A
100
AcDbSymbolTableRecord
100
AcDbDimStyleTableRecord
  2
SLDDIMSTYLE1
 70
     0
 41
3.0
 44
0.0
 45
0.000000001
 73
     0
 74
     0
 77
     1
 78
    12
140
2.0
147
0.5
173
     1
271
     2
272
     2
284
    12
340
44
  0
DIMSTYLE
105
1CC
102
{ACAD_REACTORS
330
1CB
102
}
330
A
100
AcDbSymbolTableRecord
100
AcDbDimStyleTableRecord
  2
SLDDIMSTYLE2
 70
     0
 41
3.0
 44
0.0
 45
0.000000001
 73
     0
 74
     0
 77
     1
 78
    12
140
2.0
147
0.5
173
     1
271
     2
272
     2
284
    12
340
44
  0
DIMSTYLE
105
1D8
102
{ACAD_REACTORS
330
1D7
102
}
330
A
100
AcDbSymbolTableRecord
100
AcDbDimStyleTableRecord
  2
SLDDIMSTYLE3
 70
     0
 41
3.0
 44
0.0
 45
0.000000001
 73
     0
 74
     0
 77
     1
 78
    12
140
2.0
147
0.5
173
     1
271
     2
272
     3
284
    12
340
44
  0
ENDTAB
  0
TABLE
  2
BLOCK_RECORD
  5
1
330
0
100
AcDbSymbolTable
 70
     9
  0
BLOCK_RECORD
  5
1F
330
1
100
AcDbSymbolTableRecord
100
AcDbBlockTableRecord
  2
*Model_Space
340
22
  0
BLOCK_RECORD
  5
1B
330
1
100
AcDbSymbolTableRecord
100
AcDbBlockTableRecord
  2
*Paper_Space
340
1E
  0
BLOCK_RECORD
  5
23
330
1
100
AcDbSymbolTableRecord
100
AcDbBlockTableRecord
  2
*Paper_Space0
340
26
  0
BLOCK_RECORD
  5
1B5
330
1
100
AcDbSymbolTableRecord
100
AcDbBlockTableRecord
  2
*D1
340
0
  0
BLOCK_RECORD
  5
1C2
330
1
100
AcDbSymbolTableRecord
100
AcDbBlockTableRecord
  2
*D2
340
0
  0
BLOCK_RECORD
  5
1CD
330
1
100
AcDbSymbolTableRecord
100
AcDbBlockTableRecord
  2
*D3
340
0
  0
BLOCK_RECORD
  5
1D9
330
1
100
AcDbSymbolTableRecord
100
AcDbBlockTableRecord
  2
*D4
340
0
  0
BLOCK_RECORD
  5
1E4
330
1
100
AcDbSymbolTableRecord
100
AcDbBlockTableRecord
  2
*D5
340
0
  0
BLOCK_RECORD
  5
1EE
330
1
100
AcDbSymbolTableRecord
100
AcDbBlockTableRecord
  2
*D6
340
0
  0
BLOCK_RECORD
  5
1F8
330
1
100
AcDbSymbolTableRecord
100
AcDbBlockTableRecord
  2
*D7
340
0
  0
BLOCK_RECORD
  5
202
330
1
100
AcDbSymbolTableRecord
100
AcDbBlockTableRecord
  2
*D8
340
0
  0
ENDTAB
  0
ENDSEC
  0
SECTION
  2
BLOCKS
  0
BLOCK
  5
20
330
1F
100
AcDbEntity
  8
0
100
AcDbBlockBegin
  2
*Model_Space
 70
     0
 10
0.0
 20
0.0
 30
0.0
  3
*Model_Space
  1

  0
ENDBLK
  5
21
330
1F
100
AcDbEntity
  8
0
100
AcDbBlockEnd
  0
BLOCK
  5
1C
330
1B
100
AcDbEntity
 67
     1
  8
0
100
AcDbBlockBegin
  2
*Paper_Space
 70
     0
 10
0.0
 20
0.0
 30
0.0
  3
*Paper_Space
  1

  0
ENDBLK
  5
1D
330
1B
100
AcDbEntity
 67
     1
  8
0
100
AcDbBlockEnd
  0
BLOCK
  5
24
330
23
100
AcDbEntity
  8
0
100
AcDbBlockBegin
  2
*Paper_Space0
 70
     0
 10
0.0
 20
0.0
 30
0.0
  3
*Paper_Space0
  1

  0
ENDBLK
  5
25
330
23
100
AcDbEntity
  8
0
100
AcDbBlockEnd
  0
BLOCK
  5
1B6
330
1B5
100
AcDbEntity
  8
0
100
AcDbBlockBegin
  2
*D1
 70
     1
 10
0.0
 20
0.0
 30
0.0
  3
*D1
  1

  0
SOLID
  5
1B8
330
1B5
100
AcDbEntity
  8
VERMASSUNG
100
AcDbTrace
 10
37.8029252438
 20
163.7026002167
 30
0.0
 11
37.3529252438
 21
160.7026002167
 31
0.0
 12
38.2529252438
 22
160.7026002167
 32
0.0
 13
38.2529252438
 23
160.7026002167
 33
0.0
  0
SOLID
  5
1B9
330
1B5
100
AcDbEntity
  8
VERMASSUNG
100
AcDbTrace
 10
37.8029252438
 20
63.7026002167
 30
0.0
 11
38.2529252438
 21
66.7026002167
 31
0.0
 12
37.3529252438
 22
66.7026002167
 32
0.0
 13
37.3529252438
 23
66.7026002167
 33
0.0
  0
LINE
  5
1BA
330
1B5
100
AcDbEntity
  8
VERMASSUNG
100
AcDbLine
 10
91.6956515657
 20
163.7026002167
 30
0.0
 11
36.8029252438
 21
163.7026002167
 31
0.0
  0
LINE
  5
1BB
330
1B5
100
AcDbEntity
  8
VERMASSUNG
100
AcDbLine
 10
91.6956515657
 20
63.7026002167
 30
0.0
 11
36.8029252438
 21
63.7026002167
 31
0.0
  0
LINE
  5
1BC
330
1B5
100
AcDbEntity
  8
VERMASSUNG
100
AcDbLine
 10
37.8029252438
 20
163.7026002167
 30
0.0
 11
37.8029252438
 21
63.7026002167
 31
0.0
  0
MTEXT
  5
1BD
330
1B5
100
AcDbEntity
  8
VERMASSUNG
100
AcDbMText
 10
35.0247897547
 20
105.4989490791
 30
0.0
 40
2.0
 41
0.0
 71
     1
 72
     1
  1
HSK A 
  7
SLDTEXTSTYLE0
 11
-7.044195017643634E-15
 21
1.0
 31
0.0
 73
     1
 44
1.0
  0
MTEXT
  5
1BE
330
1B5
100
AcDbEntity
  8
VERMASSUNG
100
AcDbMText
 10
35.2247897642
 20
114.498949623
 30
0.0
 40
2.0
 41
0.0
 71
     1
 72
     1
  1
%%c
  7
SLDTEXTSTYLE0
 11
-7.044195017643634E-15
 21
1.0
 31
0.0
 73
     1
 44
1.0
  0
MTEXT
  5
1BF
330
1B5
100
AcDbEntity
  8
VERMASSUNG
100
AcDbMText
 10
35.2247898806
 20
118.107276273
 30
0.0
 40
2.0
 41
0.0
 71
     1
 72
     1
  1
100
  7
SLDTEXTSTYLE0
 11
-7.044195017643634E-15
 21
1.0
 31
0.0
 73
     1
 44
1.0
  0
ENDBLK
  5
1B7
330
1B5
100
AcDbEntity
  8
0
100
AcDbBlockEnd
  0
BLOCK
  5
1C3
330
1C2
100
AcDbEntity
  8
0
100
AcDbBlockBegin
  2
*D2
 70
     1
 10
0.0
 20
0.0
 30
0.0
  3
*D2
  1

  0
SOLID
  5
1C5
330
1C2
100
AcDbEntity
  8
VERMASSUNG
100
AcDbTrace
 10
189.6956515657
 20
161.7026002167
 30
0.0
 11
192.6956515657
 21
161.2526002167
 31
0.0
 12
192.6956515657
 22
162.1526002167
 32
0.0
 13
192.6956515657
 23
162.1526002167
 33
0.0
  0
SOLID
  5
1C6
330
1C2
100
AcDbEntity
  8
VERMASSUNG
100
AcDbTrace
 10
251.1956515657
 20
161.7026002167
 30
0.0
 11
248.1956515657
 21
162.1526002167
 31
0.0
 12
248.1956515657
 22
161.2526002167
 32
0.0
 13
248.1956515657
 23
161.2526002167
 33
0.0
  0
LINE
  5
1C7
330
1C2
100
AcDbEntity
  8
VERMASSUNG
100
AcDbLine
 10
189.6956515657
 20
129.6026002167
 30
0.0
 11
189.6956515657
 21
162.7026002167
 31
0.0
  0
LINE
  5
1C8
330
1C2
100
AcDbEntity
  8
VERMASSUNG
100
AcDbLine
 10
251.1956515657
 20
133.3916239875
 30
0.0
 11
251.1956515657
 21
162.7026002167
 31
0.0
  0
LINE
  5
1C9
330
1C2
100
AcDbEntity
  8
VERMASSUNG
100
AcDbLine
 10
189.6956515657
 20
161.7026002167
 30
0.0
 11
251.1956515657
 21
161.7026002167
 31
0.0
  0
MTEXT
  5
1CA
330
1C2
100
AcDbEntity
  8
VERMASSUNG
100
AcDbMText
 10
218.2467945776
 20
164.2807355798
 30
0.0
 40
2.0
 41
0.0
 71
     1
 72
     1
  1
61.5
  7
SLDTEXTSTYLE0
 73
     1
 44
1.0
  0
ENDBLK
  5
1C4
330
1C2
100
AcDbEntity
  8
0
100
AcDbBlockEnd
  0
BLOCK
  5
1CE
330
1CD
100
AcDbEntity
  8
0
100
AcDbBlockBegin
  2
*D3
 70
     1
 10
0.0
 20
0.0
 30
0.0
  3
*D3
  1

  0
SOLID
  5
1D0
330
1CD
100
AcDbEntity
  8
VERMASSUNG
100
AcDbTrace
 10
261.313431013
 20
97.7026002167
 30
0.0
 11
261.763431013
 21
100.7026002167
 31
0.0
 12
260.863431013
 22
100.7026002167
 32
0.0
 13
260.863431013
 23
100.7026002167
 33
0.0
  0
SOLID
  5
1D1
330
1CD
100
AcDbEntity
  8
VERMASSUNG
100
AcDbTrace
 10
261.313431013
 20
129.7026002167
 30
0.0
 11
260.863431013
 21
126.7026002167
 31
0.0
 12
261.763431013
 22
126.7026002167
 32
0.0
 13
261.763431013
 23
126.7026002167
 33
0.0
  0
LINE
  5
1D2
330
1CD
100
AcDbEntity
  8
VERMASSUNG
100
AcDbLine
 10
247.6956515657
 20
97.7026002167
 30
0.0
 11
262.313431013
 21
97.7026002167
 31
0.0
  0
LINE
  5
1D3
330
1CD
100
AcDbEntity
  8
VERMASSUNG
100
AcDbLine
 10
247.6956515657
 20
129.7026002167
 30
0.0
 11
262.313431013
 21
129.7026002167
 31
0.0
  0
LINE
  5
1D4
330
1CD
100
AcDbEntity
  8
VERMASSUNG
100
AcDbLine
 10
261.313431013
 20
97.7026002167
 30
0.0
 11
261.313431013
 21
129.7026002167
 31
0.0
  0
MTEXT
  5
1D5
330
1CD
100
AcDbEntity
  8
VERMASSUNG
100
AcDbMText
 10
258.7352955335
 20
110.4988829902
 30
0.0
 40
2.0
 41
0.0
 71
     1
 72
     1
  1
%%c
  7
SLDTEXTSTYLE0
 11
6.123233995736766E-17
 21
1.0
 31
0.0
 73
     1
 44
1.0
  0
MTEXT
  5
1D6
330
1CD
100
AcDbEntity
  8
VERMASSUNG
100
AcDbMText
 10
258.7352956499
 20
114.1075612134
 30
0.0
 40
2.0
 41
0.0
 71
     1
 72
     1
  1
32
  7
SLDTEXTSTYLE0
 11
6.123233995736766E-17
 21
1.0
 31
0.0
 73
     1
 44
1.0
  0
ENDBLK
  5
1CF
330
1CD
100
AcDbEntity
  8
0
100
AcDbBlockEnd
  0
BLOCK
  5
1DA
330
1D9
100
AcDbEntity
  8
0
100
AcDbBlockBegin
  2
*D4
 70
     1
 10
0.0
 20
0.0
 30
0.0
  3
*D4
  1

  0
SOLID
  5
1DC
330
1D9
100
AcDbEntity
  8
VERMASSUNG
100
AcDbTrace
 10
267.313431013
 20
91.7026002167
 30
0.0
 11
267.763431013
 21
94.7026002167
 31
0.0
 12
266.863431013
 22
94.7026002167
 32
0.0
 13
266.863431013
 23
94.7026002167
 33
0.0
  0
SOLID
  5
1DD
330
1D9
100
AcDbEntity
  8
VERMASSUNG
100
AcDbTrace
 10
267.313431013
 20
135.7026002167
 30
0.0
 11
266.863431013
 21
132.7026002167
 31
0.0
 12
267.763431013
 22
132.7026002167
 32
0.0
 13
267.763431013
 23
132.7026002167
 33
0.0
  0
LINE
  5
1DE
330
1D9
100
AcDbEntity
  8
VERMASSUNG
100
AcDbLine
 10
251.1956515657
 20
91.7026002167
 30
0.0
 11
268.313431013
 21
91.7026002167
 31
0.0
  0
LINE
  5
1DF
330
1D9
100
AcDbEntity
  8
VERMASSUNG
100
AcDbLine
 10
251.1956515657
 20
135.7026002167
 30
0.0
 11
268.313431013
 21
135.7026002167
 31
0.0
  0
LINE
  5
1E0
330
1D9
100
AcDbEntity
  8
VERMASSUNG
100
AcDbLine
 10
267.313431013
 20
91.7026002167
 30
0.0
 11
267.313431013
 21
135.7026002167
 31
0.0
  0
MTEXT
  5
1E1
330
1D9
100
AcDbEntity
  8
VERMASSUNG
100
AcDbMText
 10
264.7352955335
 20
110.2993033586
 30
0.0
 40
2.0
 41
0.0
 71
     1
 72
     1
  1
%%c
  7
SLDTEXTSTYLE0
 11
6.123233995736766E-17
 21
1.0
 31
0.0
 73
     1
 44
1.0
  0
MTEXT
  5
1E2
330
1D9
100
AcDbEntity
  8
VERMASSUNG
100
AcDbMText
 10
264.7352956499
 20
113.9079815818
 30
0.0
 40
2.0
 41
0.0
 71
     1
 72
     1
  1
44
  7
SLDTEXTSTYLE0
 11
6.123233995736766E-17
 21
1.0
 31
0.0
 73
     1
 44
1.0
  0
ENDBLK
  5
1DB
330
1D9
100
AcDbEntity
  8
0
100
AcDbBlockEnd
  0
BLOCK
  5
1E5
330
1E4
100
AcDbEntity
  8
0
100
AcDbBlockBegin
  2
*D5
 70
     1
 10
0.0
 20
0.0
 30
0.0
  3
*D5
  1

  0
SOLID
  5
1E7
330
1E4
100
AcDbEntity
  8
VERMASSUNG
100
AcDbTrace
 10
91.1956515657
 20
173.7026002167
 30
0.0
 11
94.1956515657
 21
173.2526002167
 31
0.0
 12
94.1956515657
 22
174.1526002167
 32
0.0
 13
94.1956515657
 23
174.1526002167
 33
0.0
  0
SOLID
  5
1E8
330
1E4
100
AcDbEntity
  8
VERMASSUNG
100
AcDbTrace
 10
251.1956515657
 20
173.7026002167
 30
0.0
 11
248.1956515657
 21
174.1526002167
 31
0.0
 12
248.1956515657
 22
173.2526002167
 32
0.0
 13
248.1956515657
 23
173.2526002167
 33
0.0
  0
LINE
  5
1E9
330
1E4
100
AcDbEntity
  8
VERMASSUNG
100
AcDbLine
 10
91.1956515657
 20
113.7026002167
 30
0.0
 11
91.1956515657
 21
174.7026002167
 31
0.0
  0
LINE
  5
1EA
330
1E4
100
AcDbEntity
  8
VERMASSUNG
100
AcDbLine
 10
251.1956515657
 20
133.3916239875
 30
0.0
 11
251.1956515657
 21
174.7026002167
 31
0.0
  0
LINE
  5
1EB
330
1E4
100
AcDbEntity
  8
VERMASSUNG
100
AcDbLine
 10
91.1956515657
 20
173.7026002167
 30
0.0
 11
251.1956515657
 21
173.7026002167
 31
0.0
  0
MTEXT
  5
1EC
330
1E4
100
AcDbEntity
  8
VERMASSUNG
100
AcDbMText
 10
169.2961640251
 20
176.2807355798
 30
0.0
 40
2.0
 41
0.0
 71
     1
 72
     1
  1
160
  7
SLDTEXTSTYLE0
 73
     1
 44
1.0
  0
ENDBLK
  5
1E6
330
1E4
100
AcDbEntity
  8
0
100
AcDbBlockEnd
  0
BLOCK
  5
1EF
330
1EE
100
AcDbEntity
  8
0
100
AcDbBlockBegin
  2
*D6
 70
     1
 10
0.0
 20
0.0
 30
0.0
  3
*D6
  1

  0
SOLID
  5
1F1
330
1EE
100
AcDbEntity
  8
VERMASSUNG
100
AcDbTrace
 10
120.1456515657
 20
167.7026002167
 30
0.0
 11
123.1456515657
 21
167.2526002167
 31
0.0
 12
123.1456515657
 22
168.1526002167
 32
0.0
 13
123.1456515657
 23
168.1526002167
 33
0.0
  0
SOLID
  5
1F2
330
1EE
100
AcDbEntity
  8
VERMASSUNG
100
AcDbTrace
 10
251.1956515657
 20
167.7026002167
 30
0.0
 11
248.1956515657
 21
168.1526002167
 31
0.0
 12
248.1956515657
 22
167.2526002167
 32
0.0
 13
248.1956515657
 23
167.2526002167
 33
0.0
  0
LINE
  5
1F3
330
1EE
100
AcDbEntity
  8
VERMASSUNG
100
AcDbLine
 10
120.1456515657
 20
161.6713400375
 30
0.0
 11
120.1456515657
 21
168.7026002167
 31
0.0
  0
LINE
  5
1F4
330
1EE
100
AcDbEntity
  8
VERMASSUNG
100
AcDbLine
 10
251.1956515657
 20
133.3324566791
 30
0.0
 11
251.1956515657
 21
168.7026002167
 31
0.0
  0
LINE
  5
1F5
330
1EE
100
AcDbEntity
  8
VERMASSUNG
100
AcDbLine
 10
120.1456515657
 20
167.7026002167
 30
0.0
 11
251.1956515657
 21
167.7026002167
 31
0.0
  0
MTEXT
  5
1F6
330
1EE
100
AcDbEntity
  8
VERMASSUNG
100
AcDbMText
 10
182.2708357477
 20
170.2807355798
 30
0.0
 40
2.0
 41
0.0
 71
     1
 72
     1
  1
131.05
  7
SLDTEXTSTYLE0
 73
     1
 44
1.0
  0
ENDBLK
  5
1F0
330
1EE
100
AcDbEntity
  8
0
100
AcDbBlockEnd
  0
BLOCK
  5
1F9
330
1F8
100
AcDbEntity
  8
0
100
AcDbBlockBegin
  2
*D7
 70
     1
 10
0.0
 20
0.0
 30
0.0
  3
*D7
  1

  0
SOLID
  5
1FB
330
1F8
100
AcDbEntity
  8
VERMASSUNG
100
AcDbTrace
 10
41.2956515657
 20
179.7026002167
 30
0.0
 11
44.2956515657
 21
179.2526002167
 31
0.0
 12
44.2956515657
 22
180.1526002167
 32
0.0
 13
44.2956515657
 23
180.1526002167
 33
0.0
  0
SOLID
  5
1FC
330
1F8
100
AcDbEntity
  8
VERMASSUNG
100
AcDbTrace
 10
251.1956515657
 20
179.7026002167
 30
0.0
 11
248.1956515657
 21
180.1526002167
 31
0.0
 12
248.1956515657
 22
179.2526002167
 32
0.0
 13
248.1956515657
 23
179.2526002167
 33
0.0
  0
LINE
  5
1FD
330
1F8
100
AcDbEntity
  8
VERMASSUNG
100
AcDbLine
 10
41.2956515657
 20
144.2052699593
 30
0.0
 11
41.2956515657
 21
180.7026002167
 31
0.0
  0
LINE
  5
1FE
330
1F8
100
AcDbEntity
  8
VERMASSUNG
100
AcDbLine
 10
251.1956515657
 20
133.3324566791
 30
0.0
 11
251.1956515657
 21
180.7026002167
 31
0.0
  0
LINE
  5
1FF
330
1F8
100
AcDbEntity
  8
VERMASSUNG
100
AcDbLine
 10
41.2956515657
 20
179.7026002167
 30
0.0
 11
251.1956515657
 21
179.7026002167
 31
0.0
  0
MTEXT
  5
200
330
1F8
100
AcDbEntity
  8
VERMASSUNG
100
AcDbMText
 10
143.1463655419
 20
182.2807355798
 30
0.0
 40
2.0
 41
0.0
 71
     1
 72
     1
  1
209.9
  7
SLDTEXTSTYLE0
 73
     1
 44
1.0
  0
ENDBLK
  5
1FA
330
1F8
100
AcDbEntity
  8
0
100
AcDbBlockEnd
  0
BLOCK
  5
203
330
202
100
AcDbEntity
  8
0
100
AcDbBlockBegin
  2
*D8
 70
     1
 10
0.0
 20
0.0
 30
0.0
  3
*D8
  1

  0
SOLID
  5
205
330
202
100
AcDbEntity
  8
VERMASSUNG
100
AcDbTrace
 10
273.313431013
 20
141.7026002167
 30
0.0
 11
272.863431013
 21
138.7026002167
 31
0.0
 12
273.763431013
 22
138.7026002167
 32
0.0
 13
273.763431013
 23
138.7026002167
 33
0.0
  0
SOLID
  5
206
330
202
100
AcDbEntity
  8
VERMASSUNG
100
AcDbTrace
 10
273.313431013
 20
85.7026002167
 30
0.0
 11
273.763431013
 21
88.7026002167
 31
0.0
 12
272.863431013
 22
88.7026002167
 32
0.0
 13
272.863431013
 23
88.7026002167
 33
0.0
  0
LINE
  5
207
330
202
100
AcDbEntity
  8
VERMASSUNG
100
AcDbLine
 10
169.1456515657
 20
141.7026002167
 30
0.0
 11
274.313431013
 21
141.7026002167
 31
0.0
  0
LINE
  5
208
330
202
100
AcDbEntity
  8
VERMASSUNG
100
AcDbLine
 10
169.1456515657
 20
85.7026002167
 30
0.0
 11
274.313431013
 21
85.7026002167
 31
0.0
  0
LINE
  5
209
330
202
100
AcDbEntity
  8
VERMASSUNG
100
AcDbLine
 10
273.313431013
 20
141.7026002167
 30
0.0
 11
273.313431013
 21
85.7026002167
 31
0.0
  0
MTEXT
  5
20A
330
202
100
AcDbEntity
  8
VERMASSUNG
100
AcDbMText
 10
270.7352955335
 20
110.4988829902
 30
0.0
 40
2.0
 41
0.0
 71
     1
 72
     1
  1
%%c
  7
SLDTEXTSTYLE0
 11
-7.044195017643634E-15
 21
1.0
 31
0.0
 73
     1
 44
1.0
  0
MTEXT
  5
20B
330
202
100
AcDbEntity
  8
VERMASSUNG
100
AcDbMText
 10
270.7352956499
 20
114.1075612134
 30
0.0
 40
2.0
 41
0.0
 71
     1
 72
     1
  1
56
  7
SLDTEXTSTYLE0
 11
-7.044195017643634E-15
 21
1.0
 31
0.0
 73
     1
 44
1.0
  0
ENDBLK
  5
204
330
202
100
AcDbEntity
  8
0
100
AcDbBlockEnd
  0
ENDSEC
  0
SECTION
  2
ENTITIES
  0
MTEXT
  5
45
330
1F
100
AcDbEntity
  8
KOPF_DÜNN
100
AcDbMText
 10
13.8892156294
 20
23.8442973028
 30
0.0
 40
3.0
 41
0.0
 71
     1
 72
     1
  1
HA0.S32.K21.160
  7
SLDTEXTSTYLE0
 73
     1
 44
1.0
  0
MTEXT
  5
46
330
1F
100
AcDbEntity
  8
VERMASSUNG
100
AcDbMText
 10
13.9329988022
 20
28.8834360957
 30
0.0
 40
3.0
 41
0.0
 71
     1
 72
     1
  1
Schrumpffutter_Heat shrink chuck
  7
SLDTEXTSTYLE0
 73
     1
 44
1.0
  0
MTEXT
  5
47
330
1F
100
AcDbEntity
  8
VERMASSUNG
100
AcDbMText
 10
98.8601118557
 20
13.8365368179
 30
0.0
 40
2.0
 41
0.0
 71
     1
 72
     1
  1
Datum: 02.05.2011
  7
SLDTEXTSTYLE0
 73
     1
 44
1.0
  0
MTEXT
  5
49
330
1F
100
AcDbEntity
  8
VERMASSUNG
100
AcDbMText
 10
13.933048693
 20
18.0482802738
 30
0.0
 40
2.0
 41
0.0
 71
     1
 72
     1
  1
DIN 69 893 HSK A 100
  7
SLDTEXTSTYLE1
 73
     1
 44
1.0
  0
MTEXT
  5
4A
330
1F
100
AcDbEntity
  8
VERMASSUNG
100
AcDbMText
 10
13.9808475933
 20
13.9090973692
 30
0.0
 40
2.0
 41
0.0
 71
     1
 72
     1
  1
Gewicht: 3839g
  7
SLDTEXTSTYLE0
 73
     1
 44
1.0
  0
LINE
  5
4B
330
1F
100
AcDbEntity
  8
0
  6
Continuous
 62
     7
370
    15
100
AcDbLine
 10
91.6956515657
 20
63.7026002167
 30
0.0
 11
96.1456515657
 21
63.7026002167
 31
0.0
  0
LINE
  5
4C
330
1F
100
AcDbEntity
  8
0
  6
Continuous
 62
     7
370
    15
100
AcDbLine
 10
96.1610295372
 20
163.7026002167
 30
0.0
 11
91.6956515657
 21
163.7026002167
 31
0.0
  0
ARC
  5
4D
330
1F
100
AcDbEntity
  8
0
  6
Continuous
 62
     7
370
    15
100
AcDbCircle
 10
91.6956515657
 20
64.2026002167
 30
0.0
 40
0.5000000000000071
100
AcDbArc
 50
180.0
 51
270.0
  0
ARC
  5
4E
330
1F
100
AcDbEntity
  8
0
  6
Continuous
 62
     7
370
    15
100
AcDbCircle
 10
91.6956515657
 20
163.2026002167
 30
0.0
 40
0.5
100
AcDbArc
 50
90.0
 51
180.0
  0
ARC
  5
4F
330
1F
100
AcDbEntity
  8
0
  6
Continuous
 62
     7
370
    15
100
AcDbCircle
 10
90.2987146473
 20
75.0741148922
 30
0.0
 40
0.9962338214386932
100
AcDbArc
 50
25.7988228126
 51
90.0
  0
ARC
  5
50
330
1F
100
AcDbEntity
  8
0
  6
Continuous
 62
     7
370
    15
100
AcDbCircle
 10
90.2987146473
 20
152.3310855411
 30
0.0
 40
0.9962338214387216
100
AcDbArc
 50
270.0
 51
334.2011771874
  0
LINE
  5
51
330
1F
100
AcDbEntity
  8
0
  6
Continuous
 62
     7
370
    15
100
AcDbLine
 10
69.7149726471
 20
150.6339159021
 30
0.0
 11
51.3956515657
 21
149.7161142447
 31
0.0
  0
LINE
  5
52
330
1F
100
AcDbEntity
  8
0
  6
Continuous
 62
     7
370
    15
100
AcDbLine
 10
88.6956515657
 20
151.5848517197
 30
0.0
 11
82.6276124113
 21
151.280841742
 31
0.0
  0
LINE
  5
53
330
1F
100
AcDbEntity
  8
0
  6
Continuous
 62
     7
370
    15
100
AcDbLine
 10
82.6277356877
 20
76.1243525152
 30
0.0
 11
88.6956515657
 21
75.8203487137
 31
0.0
  0
LINE
  5
54
330
1F
100
AcDbEntity
  8
0
  6
Continuous
 62
     7
370
    15
100
AcDbLine
 10
56.3956515657
 20
77.4385851866
 30
0.0
 11
69.7156027197
 21
76.7712529645
 31
0.0
  0
LINE
  5
55
330
1F
100
AcDbEntity
  8
0
  6
Continuous
 62
     7
370
    15
100
AcDbLine
 10
88.6956515657
 20
75.8203487137
 30
0.0
 11
89.5014977201
 21
76.03627454
 31
0.0
  0
LINE
  5
56
330
1F
100
AcDbEntity
  8
0
  6
Continuous
 62
     7
370
    15
100
AcDbLine
 10
89.5014977201
 20
151.3689258934
 30
0.0
 11
88.6956515657
 21
151.5848517197
 31
0.0
  0
ARC
  5
57
330
1F
100
AcDbEntity
  8
0
  6
Continuous
 62
     7
370
    15
100
AcDbCircle
 10
89.7603167652
 20
75.0703487137
 30
0.0
 40
1.0
100
AcDbArc
 50
90.0
 51
105.0
  0
ARC
  5
58
330
1F
100
AcDbEntity
  8
0
  6
Continuous
 62
     7
370
    15
100
AcDbCircle
 10
89.7603167652
 20
152.3348517197
 30
0.0
 40
1.0
100
AcDbArc
 50
255.0
 51
270.0
  0
LINE
  5
59
330
1F
100
AcDbEntity
  8
0
  6
Continuous
 62
     7
370
    15
100
AcDbLine
 10
89.7603167652
 20
76.0703487137
 30
0.0
 11
90.2987146473
 21
76.0703487137
 31
0.0
  0
LINE
  5
5A
330
1F
100
AcDbEntity
  8
0
  6
Continuous
 62
     7
370
    15
100
AcDbLine
 10
90.2987146473
 20
151.3348517197
 30
0.0
 11
89.7603167652
 21
151.3348517197
 31
0.0
  0
ARC
  5
5B
330
1F
100
AcDbEntity
  8
0
  6
Continuous
 62
     7
370
    15
100
AcDbCircle
 10
125.1456515657
 20
76.7849805106
 30
0.0
 40
5.000000000000014
100
AcDbArc
 50
106.5116637356
 51
180.0
  0
ARC
  5
5C
330
1F
100
AcDbEntity
  8
0
  6
Continuous
 62
     7
370
    15
100
AcDbCircle
 10
125.1456515657
 20
150.6202199228
 30
0.0
 40
5.000000000000014
100
AcDbArc
 50
180.0
 51
253.4883362644
  0
ARC
  5
5D
330
1F
100
AcDbEntity
  8
0
  6
Continuous
 62
     7
370
    15
100
AcDbCircle
 10
152.1456515657
 20
-14.2973997833
 30
0.0
 40
100.0
100
AcDbArc
 50
90.0
 51
106.5116637356
  0
ARC
  5
5E
330
1F
100
AcDbEntity
  8
0
  6
Continuous
 62
     7
370
    15
100
AcDbCircle
 10
152.1456515657
 20
241.7026002167
 30
0.0
 40
100.0
100
AcDbArc
 50
253.4883362644
 51
270.0
  0
LINE
  5
5F
330
1F
100
AcDbEntity
  8
0
  6
Continuous
 62
     7
370
    15
100
AcDbLine
 10
163.6448443588
 20
85.7026002167
 30
0.0
 11
169.1456515657
 21
85.7026002167
 31
0.0
  0
LINE
  5
60
330
1F
100
AcDbEntity
  8
0
  6
Continuous
 62
     7
370
    15
100
AcDbLine
 10
152.1456515657
 20
85.7026002167
 30
0.0
 11
156.6563861753
 21
85.7026002167
 31
0.0
  0
LINE
  5
61
330
1F
100
AcDbEntity
  8
0
  6
Continuous
 62
     7
370
    15
100
AcDbLine
 10
156.6485555274
 20
141.7026002167
 30
0.0
 11
152.1456515657
 21
141.7026002167
 31
0.0
  0
LINE
  5
62
330
1F
100
AcDbEntity
  8
0
  6
Continuous
 62
     7
370
    15
100
AcDbLine
 10
169.1456515657
 20
141.7026002167
 30
0.0
 11
163.6348125493
 21
141.7026002167
 31
0.0
  0
ARC
  5
63
330
1F
100
AcDbEntity
  8
0
  6
Continuous
 62
     7
370
    15
100
AcDbCircle
 10
193.5945779225
 20
-112.7973997833
 30
0.0
 40
200.0
100
AcDbArc
 50
90.0
 51
97.0216644232
  0
ARC
  5
64
330
1F
100
AcDbEntity
  8
0
  6
Continuous
 62
     7
370
    15
100
AcDbCircle
 10
193.5945779225
 20
340.2026002167
 30
0.0
 40
200.0
100
AcDbArc
 50
262.9783355768
 51
270.0
  0
LINE
  5
65
330
1F
100
AcDbEntity
  8
0
  6
Continuous
 62
     7
370
    15
100
AcDbLine
 10
194.0177302529
 20
87.2026002167
 30
0.0
 11
248.8917993051
 21
91.5212831115
 31
0.0
  0
LINE
  5
66
330
1F
100
AcDbEntity
  8
0
  6
Continuous
 62
     7
370
    15
100
AcDbLine
 10
248.8917993051
 20
135.8839173219
 30
0.0
 11
194.0177302529
 21
140.2026002167
 31
0.0
  0
LINE
  5
67
330
1F
100
AcDbEntity
  8
0
  6
Continuous
 62
     7
370
    15
100
AcDbLine
 10
193.5945779225
 20
87.2026002167
 30
0.0
 11
194.0177302529
 21
87.2026002167
 31
0.0
  0
LINE
  5
68
330
1F
100
AcDbEntity
  8
0
  6
Continuous
 62
     7
370
    15
100
AcDbLine
 10
194.0177302529
 20
140.2026002167
 30
0.0
 11
193.5945779225
 21
140.2026002167
 31
0.0
  0
ARC
  5
69
330
1F
100
AcDbEntity
  8
0
  6
Continuous
 62
     7
370
    15
100
AcDbCircle
 10
248.6956515657
 20
94.0135764458
 30
0.0
 40
2.500000000000028
100
AcDbArc
 50
274.5
 51
327.9266412051
  0
ARC
  5
6A
330
1F
100
AcDbEntity
  8
0
  6
Continuous
 62
     7
370
    15
100
AcDbCircle
 10
248.6956515657
 20
133.3916239875
 30
0.0
 40
2.500000000000028
100
AcDbArc
 50
32.073358795
 51
85.5
  0
LINE
  5
6B
330
1F
100
AcDbEntity
  8
0
  6
Continuous
 62
     7
370
    15
100
AcDbLine
 10
42.9456515657
 20
81.4526002167
 30
0.0
 11
54.4956515657
 21
81.4526002167
 31
0.0
  0
ARC
  5
6C
330
1F
100
AcDbEntity
  8
0
  6
Continuous
 62
     7
370
    15
100
AcDbCircle
 10
54.4956515657
 20
79.5526002167
 30
0.0
 40
1.900000000000006
100
AcDbArc
 50
35.6630613694
 51
90.0
  0
ARC
  5
6D
330
1F
100
AcDbEntity
  8
0
  6
Continuous
 62
     7
370
    15
100
AcDbCircle
 10
49.4956515657
 20
147.8526002167
 30
0.0
 40
1.899999999999991
100
AcDbArc
 50
270.0
 51
310.9212832533
  0
LINE
  5
6E
330
1F
100
AcDbEntity
  8
0
  6
Continuous
 62
     7
370
    15
100
AcDbLine
 10
42.9456515657
 20
145.9526002167
 30
0.0
 11
41.3524352038
 21
144.3593838547
 31
0.0
  0
LINE
  5
6F
330
1F
100
AcDbEntity
  8
0
  6
Continuous
 62
     7
370
    15
100
AcDbLine
 10
41.3531744662
 20
83.0450773162
 30
0.0
 11
42.9456515657
 21
81.4526002167
 31
0.0
  0
LINE
  5
70
330
1F
100
AcDbEntity
  8
0
  6
Continuous
 62
     7
370
    15
100
AcDbLine
 10
49.4956515657
 20
145.9526002167
 30
0.0
 11
42.9456515657
 21
145.9526002167
 31
0.0
  0
LINE
  5
71
330
1F
100
AcDbEntity
  8
0
  6
Continuous
 62
     7
370
    15
100
AcDbLine
 10
251.0884380033
 20
92.6968446671
 30
0.0
 11
251.2981196849
 21
93.0953839907
 31
0.0
  0
LINE
  5
72
330
1F
100
AcDbEntity
  8
0
  6
Continuous
 62
     7
370
    15
100
AcDbLine
 10
250.8140738602
 20
92.6860648706
 30
0.0
 11
251.0884380033
 21
92.6968446671
 31
0.0
  0
LINE
  5
73
330
1F
100
AcDbEntity
  8
0
  6
Continuous
 62
     7
370
    15
100
AcDbLine
 10
251.0099183718
 20
134.711440811
 30
0.0
 11
250.8140738602
 21
134.7191355628
 31
0.0
  0
LINE
  5
74
330
1F
100
AcDbEntity
  8
0
  6
Continuous
 62
     7
370
    15
100
AcDbLine
 10
251.2196000533
 20
134.3129014874
 30
0.0
 11
251.0099183718
 21
134.711440811
 31
0.0
  0
SPLINE
  5
75
330
1F
100
AcDbEntity
  8
0
  6
Continuous
 62
     7
370
    15
100
AcDbSpline
210
0.0
220
0.0
230
1.0
 70
     8
 71
     3
 72
    80
 73
    76
 74
     0
 42
0.00000001
 43
0.00000001
 40
-0.0312499999999993
 40
-0.0312499999999993
 40
0.0
 40
0.0
 40
0.0312500000000006
 40
0.0312500000000006
 40
0.0468750000000008
 40
0.0468750000000008
 40
0.062500000000001
 40
0.062500000000001
 40
0.0937500000000012
 40
0.0937500000000012
 40
0.1250000000000014
 40
0.1250000000000014
 40
0.1562500000000016
 40
0.1562500000000016
 40
0.1875000000000017
 40
0.1875000000000017
 40
0.2187500000000019
 40
0.2187500000000019
 40
0.2500000000000021
 40
0.2500000000000021
 40
0.2812500000000023
 40
0.2812500000000023
 40
0.3125000000000025
 40
0.3125000000000025
 40
0.3281250000000026
 40
0.3281250000000026
 40
0.3437500000000028
 40
0.3437500000000028
 40
0.3750000000000032
 40
0.3750000000000032
 40
0.4062500000000037
 40
0.4062500000000037
 40
0.4218750000000038
 40
0.4218750000000038
 40
0.4375000000000038
 40
0.4375000000000038
 40
0.4687500000000037
 40
0.4687500000000037
 40
0.5000000000000036
 40
0.5000000000000036
 40
0.5312500000000036
 40
0.5312500000000036
 40
0.5625000000000034
 40
0.5625000000000034
 40
0.5937500000000034
 40
0.5937500000000034
 40
0.6250000000000034
 40
0.6250000000000034
 40
0.6562500000000033
 40
0.6562500000000033
 40
0.6875000000000033
 40
0.6875000000000033
 40
0.7031250000000033
 40
0.7031250000000033
 40
0.7187500000000033
 40
0.7187500000000033
 40
0.7500000000000036
 40
0.7500000000000036
 40
0.7812500000000039
 40
0.7812500000000039
 40
0.7968750000000038
 40
0.7968750000000038
 40
0.8125000000000037
 40
0.8125000000000037
 40
0.8437500000000031
 40
0.8437500000000031
 40
0.8750000000000024
 40
0.8750000000000024
 40
0.9062500000000019
 40
0.9062500000000019
 40
0.9375000000000013
 40
0.9375000000000013
 40
0.9687500000000007
 40
0.9687500000000007
 40
1.0
 40
1.0
 40
1.031250000000001
 40
1.031250000000001
 10
99.86510625295487
 20
157.1172296803161
 30
0.0
 10
100.5261968785075
 20
157.1172296803161
 30
0.0
 10
100.8511770077591
 20
157.1334379116982
 30
0.0
 10
101.3306504190055
 20
157.1808025437178
 30
0.0
 10
101.4891322368463
 20
157.2004567556085
 30
0.0
 10
101.8033517693506
 20
157.2475679118011
 30
0.0
 10
101.959472053031
 20
157.2751492312958
 30
0.0
 10
102.4135260819876
 20
157.3676850180896
 30
0.0
 10
102.7006294649274
 20
157.4427554516861
 30
0.0
 10
103.2439840209544
 20
157.6179937602967
 30
0.0
 10
103.50108763216
 20
157.718995058135
 30
0.0
 10
103.9619938870988
 20
157.9363512565958
 30
0.0
 10
104.1688915963138
 20
158.053515588368
 30
0.0
 10
104.534416910306
 20
158.3035855125967
 30
0.0
 10
104.6896224324319
 20
158.4345316013557
 30
0.0
 10
104.9390528190316
 20
158.700266545068
 30
0.0
 10
105.0351427748168
 20
158.837020138379
 30
0.0
 10
105.1636616240104
 20
159.111085713218
 30
0.0
 10
105.1954724941882
 20
159.2460258036868
 30
0.0
 10
105.1958291439614
 20
159.5114974407556
 30
0.0
 10
105.1633318917644
 20
159.6433219178968
 30
0.0
 10
105.0357064180499
 20
159.8927715175172
 30
0.0
 10
104.941278016998
 20
160.0112042094452
 30
0.0
 10
104.7534171970124
 20
160.1800734065393
 30
0.0
 10
104.6825891982092
 20
160.2351594016595
 30
0.0
 10
104.527867306244
 20
160.3404122301479
 30
0.0
 10
104.4438908360606
 20
160.3907474589082
 30
0.0
 10
104.1725671664161
 20
160.5353232914463
 30
0.0
 10
103.9660179478138
 20
160.6231848778633
 30
0.0
 10
103.4994078076248
 20
160.7829059708628
 30
0.0
 10
103.2470422379993
 20
160.85214426733
 30
0.0
 10
102.8411408963206
 20
160.9419316565598
 30
0.0
 10
102.7012402788431
 20
160.9694976186461
 30
0.0
 10
102.4120163435962
 20
161.0199884195724
 30
0.0
 10
102.2621768873069
 20
161.042951858423
 30
0.0
 10
101.8080603176961
 20
161.1035823748419
 30
0.0
 10
101.4964090989593
 20
161.1336564036377
 30
0.0
 10
100.8554126340469
 20
161.1742459908964
 30
0.0
 10
100.5238850060947
 20
161.1845582211124
 30
0.0
 10
99.87109396102325
 20
161.1846337882782
 30
0.0
 10
99.54655775599143
 20
161.1747321828105
 30
0.0
 10
98.90128830657503
 20
161.1342456522852
 30
0.0
 10
98.5855453004123
 20
161.1037843524005
 30
0.0
 10
97.98365600542859
 20
161.0236336809639
 30
0.0
 10
97.69290677461711
 20
160.9733514491568
 30
0.0
 10
97.14599498293262
 20
160.8526812663838
 30
0.0
 10
96.89421761909573
 20
160.7834574072138
 30
0.0
 10
96.43282962647457
 20
160.6260056795731
 30
0.0
 10
96.22156034687649
 20
160.5366572048993
 30
0.0
 10
95.8582559945003
 20
160.3434093341986
 30
0.0
 10
95.7044493460575
 20
160.2392813423192
 30
0.0
 10
95.51582987646009
 20
160.0706569561358
 30
0.0
 10
95.45979939025098
 20
160.0120285544608
 30
0.0
 10
95.36422562851482
 20
159.8925736396346
 30
0.0
 10
95.32446271148983
 20
159.8316538507964
 30
0.0
 10
95.2286909611777
 20
159.6452491246225
 30
0.0
 10
95.19596812205158
 20
159.5161363068275
 30
0.0
 10
95.19533953572248
 20
159.2474793838716
 30
0.0
 10
95.22752568045725
 20
159.1121086431149
 30
0.0
 10
95.32243638231284
 20
158.9085583348789
 30
0.0
 10
95.36190316571181
 20
158.8405864108154
 30
0.0
 10
95.45683316443268
 20
158.7044941876845
 30
0.0
 10
95.51258999219606
 20
158.6361440874751
 30
0.0
 10
95.70053011016594
 20
158.435441074433
 30
0.0
 10
95.85389157988213
 20
158.3060528006203
 30
0.0
 10
96.21615581476247
 20
158.0573873685705
 30
0.0
 10
96.4270042882284
 20
157.9375777262022
 30
0.0
 10
96.8876742585473
 20
157.7200554386296
 30
0.0
 10
97.13904863813114
 20
157.6209703387937
 30
0.0
 10
97.68495652502926
 20
157.4442978648769
 30
0.0
 10
97.9757790996805
 20
157.3682407767428
 30
0.0
 10
98.57710571446052
 20
157.2453957993899
 30
0.0
 10
98.89162429907292
 20
157.1976896743367
 30
0.0
 10
99.53820575519285
 20
157.1334411392171
 30
0.0
 10
99.86510625295487
 20
157.1172296803161
 30
0.0
 10
100.5261968785075
 20
157.1172296803161
 30
0.0
  0
LINE
  5
76
330
1F
100
AcDbEntity
  8
0
  6
Continuous
 62
     7
370
    15
100
AcDbLine
 10
96.1456515657
 20
145.0526002167
 30
0.0
 11
107.9336225448
 21
145.0526002167
 31
0.0
  0
LINE
  5
77
330
1F
100
AcDbEntity
  8
0
  6
Continuous
 62
     7
370
    15
100
AcDbLine
 10
107.9336225448
 20
64.9276066237
 30
0.0
 11
107.9336225448
 21
145.0526002167
 31
0.0
  0
LINE
  5
78
330
1F
100
AcDbEntity
  8
0
  6
Continuous
 62
     7
370
    15
100
AcDbLine
 10
107.9336225448
 20
64.9276066237
 30
0.0
 11
106.1456515657
 21
64.9276066237
 31
0.0
  0
SPLINE
  5
79
330
1F
100
AcDbEntity
  8
0
  6
Continuous
 62
     7
370
    15
100
AcDbSpline
210
0.0
220
0.0
230
1.0
 70
     8
 71
     3
 72
    30
 73
    26
 74
     0
 42
0.00000001
 43
0.00000001
 40
0.0
 40
0.0
 40
0.0
 40
0.0
 40
0.1249999999999998
 40
0.1249999999999998
 40
0.1874999999999996
 40
0.1874999999999996
 40
0.2499999999999995
 40
0.2499999999999995
 40
0.3749999999999994
 40
0.3749999999999994
 40
0.4374999999999993
 40
0.4374999999999993
 40
0.4999999999999992
 40
0.4999999999999992
 40
0.6249999999999996
 40
0.6249999999999996
 40
0.6874999999999997
 40
0.6874999999999997
 40
0.7499999999999998
 40
0.7499999999999998
 40
0.8124999999999999
 40
0.8124999999999999
 40
0.8749999999999999
 40
0.8749999999999999
 40
1.0
 40
1.0
 40
1.0
 40
1.0
 10
106.1456515657312
 20
64.92760662365599
 30
0.0
 10
105.4829068718861
 20
64.92760662365599
 30
0.0
 10
104.8316510127704
 20
64.91276654706716
 30
0.0
 10
103.8712004745122
 20
64.87039698283759
 30
0.0
 10
103.5538090312792
 20
64.85291888005837
 30
0.0
 10
102.9246455297243
 20
64.81159059350611
 30
0.0
 10
102.6124973432826
 20
64.78766532004838
 30
0.0
 10
101.7051900414343
 20
64.70885880358148
 30
0.0
 10
101.1317650837931
 20
64.64655278360502
 30
0.0
 10
100.3178882142184
 20
64.54342346336563
 30
0.0
 10
100.0530820176485
 20
64.50723954431913
 30
0.0
 10
99.54617460683421
 20
64.43344476011863
 30
0.0
 10
99.30478045548074
 20
64.395970901347
 30
0.0
 10
98.61563898334838
 20
64.28325895800724
 30
0.0
 10
98.20258416848415
 20
64.20772286053348
 30
0.0
 10
97.6544293491091
 20
64.09932960351598
 30
0.0
 10
97.48496674176351
 20
64.06425737185273
 30
0.0
 10
97.17694949374814
 20
63.99802191125287
 30
0.0
 10
97.03756947313977
 20
63.96669521449816
 30
0.0
 10
96.78778396051302
 20
63.90828644291722
 30
0.0
 10
96.6773778478591
 20
63.88120320773438
 30
0.0
 10
96.48611999422138
 20
63.83194345312076
 30
0.0
 10
96.40500047593709
 20
63.80968147331315
 30
0.0
 10
96.2108535558287
 20
63.75211456614485
 30
0.0
 10
96.14565156573116
 20
63.72585496135885
 30
0.0
 10
96.14565156573116
 20
63.71260121688483
 30
0.0
  0
LINE
  5
7A
330
1F
100
AcDbEntity
  8
0
  6
Continuous
 62
     7
370
    15
100
AcDbLine
 10
96.1456515657
 20
63.7126012169
 30
0.0
 11
96.1456515657
 21
63.7026002167
 31
0.0
  0
SPLINE
  5
7B
330
1F
100
AcDbEntity
  8
0
  6
Continuous
 62
     7
370
    15
100
AcDbSpline
210
0.0
220
0.0
230
1.0
 70
     8
 71
     3
 72
    23
 73
    19
 74
     0
 42
0.00000001
 43
0.00000001
 40
0.0
 40
0.0
 40
0.0
 40
0.0
 40
0.0520256687590417
 40
0.1044186119084699
 40
0.1579654762732602
 40
0.2119084390155454
 40
0.2639329008030785
 40
0.3697142245600879
 40
0.4235868577364619
 40
0.4762679679182532
 40
0.5833878371337097
 40
0.6379530306539525
 40
0.6910551819358518
 40
0.7445319929992283
 40
0.7992014233075213
 40
0.8542881036302086
 40
0.9066815619543735
 40
1.0
 40
1.0
 40
1.0
 40
1.0
 10
106.1456515657312
 20
162.6923950723484
 30
0.0
 10
105.8726391685362
 20
162.6937166408552
 30
0.0
 10
105.324687047422
 20
162.6963691074609
 30
0.0
 10
104.5015406899667
 20
162.7178439958885
 30
0.0
 10
103.6802955893745
 20
162.7520617145566
 30
0.0
 10
102.8788667792663
 20
162.7991136247239
 30
0.0
 10
101.8464835251234
 20
162.8761025755498
 30
0.0
 10
100.8692355104994
 20
162.9719798262103
 30
0.0
 10
99.9681884992434
 20
163.0789092739985
 30
0.0
 10
99.119214720142
 20
163.1907560818389
 30
0.0
 10
98.36164627453378
 20
163.3049846805683
 30
0.0
 10
97.71665798408426
 20
163.4115644269321
 30
0.0
 10
97.29208411088649
 20
163.4854943833333
 30
0.0
 10
96.9295274612374
 20
163.55138494139
 30
0.0
 10
96.62832590411371
 20
163.6080812926042
 30
0.0
 10
96.40107233207895
 20
163.6520175388389
 30
0.0
 10
96.19496503485645
 20
163.6926759856669
 30
0.0
 10
96.17427809682341
 20
163.6968594250564
 30
0.0
 10
96.1610295372117
 20
163.6995386299752
 30
0.0
  0
LINE
  5
7C
330
1F
100
AcDbEntity
  8
0
  6
Continuous
 62
     7
370
    15
100
AcDbLine
 10
107.9336225448
 20
162.6923950723
 30
0.0
 11
106.1456515657
 21
162.6923950723
 31
0.0
  0
LINE
  5
7D
330
1F
100
AcDbEntity
  8
0
  6
Continuous
 62
     7
370
    15
100
AcDbLine
 10
107.9336225448
 20
152.6535629776
 30
0.0
 11
107.9336225448
 21
162.6923950723
 31
0.0
  0
LINE
  5
7E
330
1F
100
AcDbEntity
  8
0
  6
Continuous
 62
     7
370
    15
100
AcDbLine
 10
105.8536184139
 20
152.6535629776
 30
0.0
 11
107.9336225448
 21
152.6535629776
 31
0.0
  0
SPLINE
  5
7F
330
1F
100
AcDbEntity
  8
0
  6
Continuous
 62
     7
370
    15
100
AcDbSpline
210
0.0
220
0.0
230
1.0
 70
     8
 71
     3
 72
    22
 73
    18
 74
     0
 42
0.00000001
 43
0.00000001
 40
0.0
 40
0.0
 40
0.0
 40
0.0
 40
0.2500000000000009
 40
0.2500000000000009
 40
0.3750000000000009
 40
0.3750000000000009
 40
0.500000000000001
 40
0.500000000000001
 40
0.6250000000000009
 40
0.6250000000000009
 40
0.7500000000000007
 40
0.7500000000000007
 40
0.8750000000000004
 40
0.8750000000000004
 40
0.9375000000000002
 40
0.9375000000000002
 40
1.0
 40
1.0
 40
1.0
 40
1.0
 10
96.14565156573114
 20
145.0526002166848
 30
0.0
 10
96.34837652165024
 20
146.0718465585494
 30
0.0
 10
96.66312024344562
 20
147.0309547084887
 30
0.0
 10
97.3711757131166
 20
148.373433785998
 30
0.0
 10
97.64963834333423
 20
148.807642368738
 30
0.0
 10
98.28840574997143
 20
149.6192700842401
 30
0.0
 10
98.64881942976163
 20
149.998550377177
 30
0.0
 10
99.4663516617509
 20
150.7015089561979
 30
0.0
 10
99.92751964503803
 20
151.0265377738986
 30
0.0
 10
100.9255098915218
 20
151.5915530972894
 30
0.0
 10
101.4652690855141
 20
151.835256691496
 30
0.0
 10
102.6398620495454
 20
152.2394566191409
 30
0.0
 10
103.2515982355373
 20
152.3918938121864
 30
0.0
 10
104.203507460399
 20
152.5472213597951
 30
0.0
 10
104.5267406246597
 20
152.5867261398452
 30
0.0
 10
105.1858037959349
 20
152.6400352605139
 30
0.0
 10
105.5198678065089
 20
152.6535629775718
 30
0.0
 10
105.8536184139105
 20
152.6535629775717
 30
0.0
  0
LINE
  5
80
330
1F
100
AcDbEntity
  8
0
  6
Continuous
 62
     7
370
    15
100
AcDbLine
 10
109.2856515657
 20
67.3312119297
 30
0.0
 11
109.2856515657
 21
145.0526002167
 31
0.0
  0
SPLINE
  5
81
330
1F
100
AcDbEntity
  8
0
  6
Continuous
 62
     7
370
    15
100
AcDbSpline
210
0.0
220
0.0
230
1.0
 70
     8
 71
     3
 72
     8
 73
     4
 74
     0
 42
0.00000001
 43
0.00000001
 40
0.0
 40
0.0
 40
0.0
 40
0.0
 40
1.0
 40
1.0
 40
1.0
 40
1.0
 10
109.2856515657312
 20
67.33121192966132
 30
0.0
 10
108.8354251014534
 20
66.52975656703657
 30
0.0
 10
108.38472727421
 20
65.7285665554759
 30
0.0
 10
107.9336225448098
 20
64.92760662365599
 30
0.0
  0
SPLINE
  5
82
330
1F
100
AcDbEntity
  8
0
  6
Continuous
 62
     7
370
    15
100
AcDbSpline
210
0.0
220
0.0
230
1.0
 70
    24
 71
     3
 72
     8
 73
     4
 74
     0
 42
0.00000001
 43
0.00000001
 40
0.0
 40
0.0
 40
0.0
 40
0.0
 40
1.0
 40
1.0
 40
1.0
 40
1.0
 10
107.9336225448098
 20
145.0526002166848
 30
0.0
 10
108.390424117138
 20
145.0526002166848
 30
0.0
 10
108.8414386833772
 20
145.0526002166848
 30
0.0
 10
109.2856515657312
 20
145.0526002166848
 30
0.0
  0
LINE
  5
83
330
1F
100
AcDbEntity
  8
0
  6
Continuous
 62
     7
370
    15
100
AcDbLine
 10
120.1456515657
 20
65.9532546714
 30
0.0
 11
120.1456515657
 21
145.0526002167
 31
0.0
  0
SPLINE
  5
84
330
1F
100
AcDbEntity
  8
0
  6
Continuous
 62
     7
370
    15
100
AcDbSpline
210
0.0
220
0.0
230
1.0
 70
     8
 71
     3
 72
    14
 73
    10
 74
     0
 42
0.00000001
 43
0.00000001
 40
0.0
 40
0.0
 40
0.0
 40
0.0
 40
0.25
 40
0.25
 40
0.5
 40
0.5
 40
0.75
 40
0.75
 40
1.0
 40
1.0
 40
1.0
 40
1.0
 10
120.1456515657312
 20
65.95325467143151
 30
0.0
 10
120.1456515657312
 20
65.81982897537696
 30
0.0
 10
120.1203404658203
 20
65.6879811675326
 30
0.0
 10
120.0220057019755
 20
65.44145861883851
 30
0.0
 10
119.9488616977195
 20
65.32765343059796
 30
0.0
 10
119.7654236366238
 20
65.13719625365069
 30
0.0
 10
119.6537373022852
 20
65.05956138980078
 30
0.0
 10
119.4112338719789
 20
64.95526997968831
 30
0.0
 10
119.2778594432847
 20
64.92760662365596
 30
0.0
 10
119.1456515657312
 20
64.92760662365596
 30
0.0
  0
SPLINE
  5
85
330
1F
100
AcDbEntity
  8
0
  6
Continuous
 62
     7
370
    15
100
AcDbSpline
210
0.0
220
0.0
230
1.0
 70
    24
 71
     3
 72
    12
 73
     8
 74
     0
 42
0.00000001
 43
0.00000001
 40
0.0
 40
0.0
 40
0.0
 40
0.0
 40
0.2500000000000032
 40
0.2500000000000032
 40
0.5000000000000064
 40
0.5000000000000064
 40
1.0
 40
1.0
 40
1.0
 40
1.0
 10
119.1456515657312
 20
145.0526002166848
 30
0.0
 10
119.2977418026761
 20
145.0526002166848
 30
0.0
 10
119.4462010637516
 20
145.0526002166848
 30
0.0
 10
119.7036046960173
 20
145.0526002166848
 30
0.0
 10
119.8127094438592
 20
145.0526002166848
 30
0.0
 10
120.0667689202667
 20
145.0526002166848
 30
0.0
 10
120.1456515657312
 20
145.0526002166848
 30
0.0
 10
120.1456515657312
 20
145.0526002166848
 30
0.0
  0
LINE
  5
86
330
1F
100
AcDbEntity
  8
0
  6
Continuous
 62
     7
370
    15
100
AcDbLine
 10
114.4576805867
 20
64.9276066237
 30
0.0
 11
114.4576805867
 21
145.0526002167
 31
0.0
  0
SPLINE
  5
87
330
1F
100
AcDbEntity
  8
0
  6
Continuous
 62
     7
370
    15
100
AcDbSpline
210
0.0
220
0.0
230
1.0
 70
     8
 71
     3
 72
     8
 73
     4
 74
     0
 42
0.00000001
 43
0.00000001
 40
0.0
 40
0.0
 40
0.0
 40
0.0
 40
1.0
 40
1.0
 40
1.0
 40
1.0
 10
114.4576805866525
 20
64.92760662365599
 30
0.0
 10
114.0065758572523
 20
65.72856655547591
 30
0.0
 10
113.5558780300089
 20
66.52975656703659
 30
0.0
 10
113.1056515657312
 20
67.33121192966134
 30
0.0
  0
LINE
  5
88
330
1F
100
AcDbEntity
  8
0
  6
Continuous
 62
     7
370
    15
100
AcDbLine
 10
113.1056515657
 20
67.3312119297
 30
0.0
 11
113.1056515657
 21
145.0526002167
 31
0.0
  0
SPLINE
  5
89
330
1F
100
AcDbEntity
  8
0
  6
Continuous
 62
     7
370
    15
100
AcDbSpline
210
0.0
220
0.0
230
1.0
 70
    24
 71
     3
 72
     8
 73
     4
 74
     0
 42
0.00000001
 43
0.00000001
 40
0.0
 40
0.0
 40
0.0
 40
0.0
 40
1.0
 40
1.0
 40
1.0
 40
1.0
 10
113.1056515657312
 20
145.0526002166848
 30
0.0
 10
113.5498644480851
 20
145.0526002166848
 30
0.0
 10
114.0008790143243
 20
145.0526002166848
 30
0.0
 10
114.4576805866525
 20
145.0526002166848
 30
0.0
  0
LINE
  5
8A
330
1F
100
AcDbEntity
  8
0
  6
Continuous
 62
     7
370
    15
100
AcDbLine
 10
91.1956515657
 20
64.2026002167
 30
0.0
 11
91.1956515657
 21
163.2026002139
 31
0.0
  0
LINE
  5
8B
330
1F
100
AcDbEntity
  8
0
  6
Continuous
 62
     7
370
    15
100
AcDbLine
 10
119.1456515657
 20
64.9276066237
 30
0.0
 11
114.4576805867
 21
64.9276066237
 31
0.0
  0
LINE
  5
8C
330
1F
100
AcDbEntity
  8
0
  6
Continuous
 62
     7
370
    15
100
AcDbLine
 10
114.4576805867
 20
145.0526002167
 30
0.0
 11
119.1456515657
 21
145.0526002167
 31
0.0
  0
SPLINE
  5
8D
330
1F
100
AcDbEntity
  8
0
  6
Continuous
 62
     7
370
    15
100
AcDbSpline
210
0.0
220
0.0
230
1.0
 70
     8
 71
     3
 72
    14
 73
    10
 74
     0
 42
0.00000001
 43
0.00000001
 40
0.0
 40
0.0
 40
0.0
 40
0.0
 40
0.25
 40
0.25
 40
0.5
 40
0.5
 40
0.75
 40
0.75
 40
1.0
 40
1.0
 40
1.0
 40
1.0
 10
113.1056515657312
 20
68.23942143428991
 30
0.0
 10
113.1056515657312
 20
68.3464655152843
 30
0.0
 10
113.085533878573
 20
68.45170065552675
 30
0.0
 10
113.0070426893074
 20
68.64955114237442
 30
0.0
 10
112.9488860645062
 20
68.74060290593935
 30
0.0
 10
112.8023708088881
 20
68.89376899986414
 30
0.0
 10
112.713728260247
 20
68.95606344607354
 30
0.0
 10
112.5180049374467
 20
69.04085723160952
 30
0.0
 10
112.4127737463757
 20
69.06292475863515
 30
0.0
 10
112.3056515657312
 20
69.06292475863515
 30
0.0
  0
SPLINE
  5
8E
330
1F
100
AcDbEntity
  8
0
  6
Continuous
 62
     7
370
    15
100
AcDbSpline
210
0.0
220
0.0
230
1.0
 70
    24
 71
     3
 72
    14
 73
    10
 74
     0
 42
0.00000001
 43
0.00000001
 40
0.0
 40
0.0
 40
0.0
 40
0.0
 40
0.25
 40
0.25
 40
0.5
 40
0.5
 40
0.75
 40
0.75
 40
1.0
 40
1.0
 40
1.0
 40
1.0
 10
112.3056515657312
 20
145.0526002166848
 30
0.0
 10
112.4294213304963
 20
145.0526002166848
 30
0.0
 10
112.5537884345032
 20
145.0526002166848
 30
0.0
 10
112.7601449032292
 20
145.0526002166848
 30
0.0
 10
112.8454730466476
 20
145.0526002166848
 30
0.0
 10
112.9776651053628
 20
145.0526002166848
 30
0.0
 10
113.0263103491134
 20
145.0526002166848
 30
0.0
 10
113.0898461408422
 20
145.0526002166848
 30
0.0
 10
113.1056515657312
 20
145.0526002166848
 30
0.0
 10
113.1056515657312
 20
145.0526002166848
 30
0.0
  0
SPLINE
  5
8F
330
1F
100
AcDbEntity
  8
0
  6
Continuous
 62
     7
370
    15
100
AcDbSpline
210
0.0
220
0.0
230
1.0
 70
     8
 71
     3
 72
    12
 73
     8
 74
     0
 42
0.00000001
 43
0.00000001
 40
0.0
 40
0.0
 40
0.0
 40
0.0
 40
0.250000000000003
 40
0.250000000000003
 40
0.500000000000006
 40
0.500000000000006
 40
1.0
 40
1.0
 40
1.0
 40
1.0
 10
110.0856515657312
 20
69.06292475863515
 30
0.0
 10
109.9798909123822
 20
69.06292475863515
 30
0.0
 10
109.8719032841992
 20
69.04038525263475
 30
0.0
 10
109.6773086189337
 20
68.95581462063943
 30
0.0
 10
109.5884367060948
 20
68.89333296788061
 30
0.0
 10
109.3692444137689
 20
68.66394401640838
 30
0.0
 10
109.2856515657311
 20
68.45136067888596
 30
0.0
 10
109.2856515657311
 20
68.23942143428977
 30
0.0
  0
SPLINE
  5
90
330
1F
100
AcDbEntity
  8
0
  6
Continuous
 62
     7
370
    15
100
AcDbSpline
210
0.0
220
0.0
230
1.0
 70
    24
 71
     3
 72
    14
 73
    10
 74
     0
 42
0.00000001
 43
0.00000001
 40
0.0
 40
0.0
 40
0.0
 40
0.0
 40
0.25
 40
0.25
 40
0.5
 40
0.5
 40
0.75
 40
0.75
 40
1.0
 40
1.0
 40
1.0
 40
1.0
 10
109.2856515657311
 20
145.0526002166848
 30
0.0
 10
109.2856515657311
 20
145.0526002166848
 30
0.0
 10
109.3013658861971
 20
145.0526002166848
 30
0.0
 10
109.3650498646655
 20
145.0526002166848
 30
0.0
 10
109.4136530590759
 20
145.0526002166848
 30
0.0
 10
109.5463365815015
 20
145.0526002166848
 30
0.0
 10
109.6314386858122
 20
145.0526002166848
 30
0.0
 10
109.8378809207222
 20
145.0526002166848
 30
0.0
 10
109.9619618623452
 20
145.0526002166848
 30
0.0
 10
110.0856515657312
 20
145.0526002166848
 30
0.0
  0
LINE
  5
91
330
1F
100
AcDbEntity
  8
0
  6
Continuous
 62
     7
370
    15
100
AcDbLine
 10
112.3056515657
 20
69.0629247586
 30
0.0
 11
110.0856515657
 21
69.0629247586
 31
0.0
  0
LINE
  5
92
330
1F
100
AcDbEntity
  8
0
  6
Continuous
 62
     7
370
    15
100
AcDbLine
 10
110.0856515657
 20
145.0526002167
 30
0.0
 11
112.3056515657
 21
145.0526002167
 31
0.0
  0
LINE
  5
93
330
1F
100
AcDbEntity
  8
0
  6
Continuous
 62
     7
370
    15
100
AcDbLine
 10
56.3956515657
 20
77.4385851866
 30
0.0
 11
56.3956515657
 21
79.8332669513
 31
0.0
  0
SPLINE
  5
94
330
1F
100
AcDbEntity
  8
0
  6
Continuous
 62
     7
370
    15
100
AcDbSpline
210
0.0
220
0.0
230
1.0
 70
     8
 71
     3
 72
    14
 73
    10
 74
     0
 42
0.00000001
 43
0.00000001
 40
0.0
 40
0.0
 40
0.0
 40
0.0
 40
0.2500000000000008
 40
0.2500000000000008
 40
0.5000000000000006
 40
0.5000000000000006
 40
0.7500000000000003
 40
0.7500000000000003
 40
1.0
 40
1.0
 40
1.0
 40
1.0
 10
55.3912290943942
 20
81.53611887294126
 30
0.0
 10
55.47999767233952
 20
81.37758474163331
 30
0.0
 10
55.60171551101845
 20
81.22514206474476
 30
0.0
 10
55.83676512087526
 20
80.92800744091585
 30
0.0
 10
55.95239530709215
 20
80.78332479729846
 30
0.0
 10
56.15280024051997
 20
80.50003559479507
 30
0.0
 10
56.23820053250431
 20
80.36148160175821
 30
0.0
 10
56.35990616622155
 20
80.09009757172468
 30
0.0
 10
56.39565156573417
 20
79.95796170309005
 30
0.0
 10
56.39565156573416
 20
79.83326695131932
 30
0.0
  0
SPLINE
  5
95
330
1F
100
AcDbEntity
  8
0
  6
Continuous
 62
     7
370
    15
100
AcDbSpline
210
0.0
220
0.0
230
1.0
 70
     8
 71
     3
 72
    14
 73
    10
 74
     0
 42
0.00000001
 43
0.00000001
 40
0.0
 40
0.0
 40
0.0
 40
0.0
 40
0.125000000000005
 40
0.125000000000005
 40
0.2500000000000099
 40
0.2500000000000099
 40
0.5000000000000063
 40
0.5000000000000063
 40
1.0
 40
1.0
 40
1.0
 40
1.0
 10
54.49565156573117
 20
82.16494881204139
 30
0.0
 10
54.56323386551563
 20
82.17210469714277
 30
0.0
 10
54.63572144326356
 20
82.16768022710377
 30
0.0
 10
54.7680125525295
 20
82.13797406933342
 30
0.0
 10
54.82528993191966
 20
82.11468978775518
 30
0.0
 10
54.97494035911996
 20
82.03720454790486
 30
0.0
 10
55.04865365464148
 20
81.97535272100349
 30
0.0
 10
55.23646163796768
 20
81.79067526835514
 30
0.0
 10
55.32050194432914
 20
81.66243234506396
 30
0.0
 10
55.39122909439542
 20
81.53611887294137
 30
0.0
  0
SPLINE
  5
96
330
1F
100
AcDbEntity
  8
0
  6
Continuous
 62
     7
370
    15
100
AcDbSpline
210
0.0
220
0.0
230
1.0
 70
     8
 71
     3
 72
     8
 73
     4
 74
     0
 42
0.00000001
 43
0.00000001
 40
0.0
 40
0.0
 40
0.0
 40
0.0
 40
1.0
 40
1.0
 40
1.0
 40
1.0
 10
50.95101117765023
 20
81.74690022724958
 30
0.0
 10
52.11630948835914
 20
81.9020876991362
 30
0.0
 10
53.300924702399
 20
82.03844633744653
 30
0.0
 10
54.49565156573114
 20
82.16494881204139
 30
0.0
  0
SPLINE
  5
97
330
1F
100
AcDbEntity
  8
0
  6
Continuous
 62
     7
370
    15
100
AcDbSpline
210
0.0
220
0.0
230
1.0
 70
     8
 71
     3
 72
    14
 73
    10
 74
     0
 42
0.00000001
 43
0.00000001
 40
0.0
 40
0.0
 40
0.0
 40
0.0
 40
0.5000000000000001
 40
0.5000000000000001
 40
0.7499999999999989
 40
0.7499999999999989
 40
0.8749999999999996
 40
0.8749999999999996
 40
1.0
 40
1.0
 40
1.0
 40
1.0
 10
43.19557668170082
 20
81.45676804811966
 30
0.0
 10
44.50387824423483
 20
81.46378277186078
 30
0.0
 10
45.80893761889187
 20
81.47919134830526
 30
0.0
 10
47.75481367038056
 20
81.53308790377194
 30
0.0
 10
48.4015111741197
 20
81.55611946837463
 30
0.0
 10
49.36535353797422
 20
81.60706199324535
 30
0.0
 10
49.68559222990834
 20
81.62679691547855
 30
0.0
 10
50.32228745625089
 20
81.67628404395015
 30
0.0
 10
50.63900286453388
 20
81.70534882287939
 30
0.0
 10
50.95101117765024
 20
81.74690022724955
 30
0.0
  0
SPLINE
  5
98
330
1F
100
AcDbEntity
  8
0
  6
Continuous
 62
     7
370
    15
100
AcDbSpline
210
0.0
220
0.0
230
1.0
 70
     8
 71
     3
 72
    12
 73
     8
 74
     0
 42
0.00000001
 43
0.00000001
 40
0.0
 40
0.0
 40
0.0
 40
0.0
 40
0.2500000000000001
 40
0.2500000000000001
 40
0.5000000000000001
 40
0.5000000000000001
 40
1.0
 40
1.0
 40
1.0
 40
1.0
 10
49.49565156573116
 20
145.7891231081812
 30
0.0
 10
48.97695274390297
 20
145.8216458830294
 30
0.0
 10
48.45524117069798
 20
145.8449426241999
 30
0.0
 10
47.4089491542024
 20
145.882788138622
 30
0.0
 10
46.88427752853214
 20
145.8970566131182
 30
0.0
 10
45.30743150599292
 20
145.9312661005765
 30
0.0
 10
44.25247619144604
 20
145.9427656045204
 30
0.0
 10
43.19557668170081
 20
145.9484323852499
 30
0.0
  0
SPLINE
  5
99
330
1F
100
AcDbEntity
  8
0
  6
Continuous
 62
     7
370
    15
100
AcDbSpline
210
0.0
220
0.0
230
1.0
 70
     8
 71
     3
 72
    20
 73
    16
 74
     0
 42
0.00000001
 43
0.00000001
 40
0.0
 40
0.0
 40
0.0
 40
0.0
 40
0.2499999999999988
 40
0.2499999999999988
 40
0.4999999999999977
 40
0.4999999999999977
 40
0.7499999999999964
 40
0.7499999999999964
 40
0.8749999999999971
 40
0.8749999999999971
 40
0.9374999999999982
 40
0.9374999999999982
 40
0.9687499999999991
 40
0.9687499999999991
 40
1.0
 40
1.0
 40
1.0
 40
1.0
 10
51.39565156573116
 20
147.4472089536694
 30
0.0
 10
51.39565156573116
 20
147.3115266339226
 30
0.0
 10
51.34693977651452
 20
147.1704396477825
 30
0.0
 10
51.17777835328932
 20
146.878367929052
 30
0.0
 10
51.05599793937102
 20
146.7267191869616
 30
0.0
 10
50.75845084462152
 20
146.4243107468085
 30
0.0
 10
50.58453823891873
 20
146.2717221106851
 30
0.0
 10
50.26512340503693
 20
146.0464513468428
 30
0.0
 10
50.15008262958967
 20
145.9717282523322
 30
0.0
 10
49.94299830557325
 20
145.8723178430751
 30
0.0
 10
49.86689047076687
 20
145.8407527507306
 30
0.0
 10
49.73549593121351
 20
145.8063093665376
 30
0.0
 10
49.68894271221205
 20
145.79725779477
 30
0.0
 10
49.59260936113133
 20
145.7870821459315
 30
0.0
 10
49.54334993777589
 20
145.7861323872565
 30
0.0
 10
49.49565156572916
 20
145.7891231081711
 30
0.0
  0
LINE
  5
9A
330
1F
100
AcDbEntity
  8
0
  6
Continuous
 62
     7
370
    15
100
AcDbLine
 10
51.3956515657
 20
147.4472089537
 30
0.0
 11
51.3956515657
 21
149.7161142447
 31
0.0
  0
LINE
  5
9B
330
1F
100
AcDbEntity
  8
0
  6
Continuous
 62
     7
370
    15
100
AcDbLine
 10
88.6956515657
 20
75.8203487137
 30
0.0
 11
88.6956515657
 21
151.5848517197
 31
0.0
  0
SPLINE
  5
9C
330
1F
100
AcDbEntity
  8
0
  6
Continuous
 62
     7
370
    15
100
AcDbSpline
210
0.0
220
0.0
230
1.0
 70
     8
 71
     3
 72
    22
 73
    18
 74
     0
 42
0.00000001
 43
0.00000001
 40
0.0
 40
0.0
 40
0.0
 40
0.0
 40
0.0002937850458186
 40
0.0628841327413374
 40
0.1261981682954104
 40
0.2510182590426629
 40
0.3131038291610295
 40
0.3757650688901447
 40
0.4382989835655121
 40
0.5000628079114054
 40
0.5617337561125819
 40
0.6246555685552126
 40
0.7491916976530685
 40
0.8115302181315633
 40
0.8745847230191042
 40
0.9378227588212174
 40
0.9999999999999999
 40
0.9999999999999999
 40
0.9999999999999999
 40
0.9999999999999999
 10
69.71560782957059
 20
76.77135495837243
 30
0.0
 10
69.71541297616037
 20
76.77133065105257
 30
0.0
 10
69.67370497267933
 20
76.76612771526594
 30
0.0
 10
69.81896807586566
 20
76.78474192315338
 30
0.0
 10
70.28911425303167
 20
76.84126787374956
 30
0.0
 10
71.25757033561781
 20
76.94748950317525
 30
0.0
 10
72.5700301451812
 20
77.03312231060619
 30
0.0
 10
73.70215385381177
 20
77.07177837670541
 30
0.0
 10
74.92434063043301
 20
77.07543968448388
 30
0.0
 10
76.19163901795412
 20
77.0330542697147
 30
0.0
 10
77.45835067218573
 20
76.94467729203801
 30
0.0
 10
79.0740086680555
 20
76.77462816341671
 30
0.0
 10
80.51397127808656
 20
76.55244642886069
 30
0.0
 10
81.57984043425222
 20
76.34945032072645
 30
0.0
 10
82.16904081768901
 20
76.22542488777691
 30
0.0
 10
82.55776033297509
 20
76.14050404733253
 30
0.0
 10
82.60454604580592
 20
76.12977732952817
 30
0.0
 10
82.62774103943373
 20
76.12445933529308
 30
0.0
  0
SPLINE
  5
9D
330
1F
100
AcDbEntity
  8
0
  6
Continuous
 62
     7
370
    15
100
AcDbSpline
210
0.0
220
0.0
230
1.0
 70
     8
 71
     3
 72
    41
 73
    37
 74
     0
 42
0.00000001
 43
0.00000001
 40
0.0
 40
0.0
 40
0.0
 40
0.0
 40
0.0619930061484559
 40
0.1254347783466237
 40
0.1886508898235997
 40
0.2510246408607235
 40
0.3131658188974684
 40
0.3756581641417405
 40
0.4382227146725277
 40
0.499804492294069
 40
0.5615164197174299
 40
0.6240683094121933
 40
0.6867257232409624
 40
0.7488365305144747
 40
0.8110685944254461
 40
0.8741742884451352
 40
0.9373212787639088
 40
0.9685511709612862
 40
0.9842086872484516
 40
0.9920641182530343
 40
0.996000486125458
 40
0.9979710794119774
 40
0.9989570090489371
 40
0.9994501359394937
 40
0.9996967403802097
 40
0.9998200529090677
 40
0.9998817117580786
 40
0.9999125418296593
 40
0.999927957027333
 40
0.9999356646666572
 40
0.9999395184964435
 40
0.9999414454138664
 40
0.999942408873212
 40
0.9999433723329776
 40
0.9999501697003241
 40
1.0
 40
1.0
 40
1.0
 40
1.0
 10
82.62761970895572
 20
151.280696080125
 30
0.0
 10
82.60404806361235
 20
151.2753866004751
 30
0.0
 10
82.55635390756782
 20
151.2646435595356
 30
0.0
 10
82.16431191814083
 20
151.17941442308
 30
0.0
 10
81.5737978688695
 20
151.0548456444394
 30
0.0
 10
80.76976042282678
 20
150.9018986982876
 30
0.0
 10
79.79368502264545
 20
150.7401421443342
 30
0.0
 10
78.67187628736703
 20
150.5879093764021
 30
0.0
 10
77.45834536757869
 20
150.4601294352006
 30
0.0
 10
76.19351466118246
 20
150.372280883518
 30
0.0
 10
74.92547162373818
 20
150.3298953996474
 30
0.0
 10
73.70196426603678
 20
150.3336312076189
 30
0.0
 10
72.56846572561749
 20
150.3722266780663
 30
0.0
 10
71.58235991464535
 20
150.4366660493581
 30
0.0
 10
70.77373210586185
 20
150.5101758566396
 30
0.0
 10
70.17711341075041
 20
150.5774895414507
 30
0.0
 10
69.86172212129246
 20
150.6154540927187
 30
0.0
 10
69.75165555249527
 20
150.6292531520508
 30
0.0
 10
69.72423616468028
 20
150.6327392259715
 30
0.0
 10
69.71731411385025
 20
150.6336184516649
 30
0.0
 10
69.71554587366647
 20
150.6338392262712
 30
0.0
 10
69.71508549449298
 20
150.6338944289819
 30
0.0
 10
69.7149613358081
 20
150.633908168769
 30
0.0
 10
69.71492578131485
 20
150.6339115646
 30
0.0
 10
69.71491463724476
 20
150.6339123929203
 30
0.0
 10
69.71491072404862
 20
150.6339125895091
 30
0.0
 10
69.7149091818438
 20
150.6339126334391
 30
0.0
 10
69.71490851484229
 20
150.6339126417459
 30
0.0
 10
69.71490820666453
 20
150.6339126425761
 30
0.0
 10
69.71490805989846
 20
150.633912642031
 30
0.0
 10
69.71490798694602
 20
150.6339126417011
 30
0.0
 10
69.71490795255365
 20
150.6339126412638
 30
0.0
 10
69.71490793030848
 20
150.6339126413523
 30
0.0
 10
69.71490790319906
 20
150.6339126385173
 30
0.0
 10
69.71490538363793
 20
150.6339129253725
 30
0.0
 10
69.71494147355611
 20
150.6339083052718
 30
0.0
 10
69.71497323137935
 20
150.6339042397502
 30
0.0
  0
SPLINE
  5
9E
330
1F
100
AcDbEntity
  8
0
  6
Continuous
 62
     7
370
    15
100
AcDbSpline
210
0.0
220
0.0
230
1.0
 70
     8
 71
     3
 72
    20
 73
    16
 74
     0
 42
0.00000001
 43
0.00000001
 40
0.0
 40
0.0
 40
0.0
 40
0.0
 40
0.249999999999986
 40
0.249999999999986
 40
0.3749999999999789
 40
0.3749999999999789
 40
0.4374999999999789
 40
0.4374999999999789
 40
0.4999999999999789
 40
0.4999999999999789
 40
0.6249999999999835
 40
0.6249999999999835
 40
0.7499999999999879
 40
0.7499999999999879
 40
1.0
 40
1.0
 40
1.0
 40
1.0
 10
41.58646579744717
 20
83.02411706398411
 30
0.0
 10
41.61273801466057
 20
83.04343500506656
 30
0.0
 10
41.64341815691542
 20
83.05782371616833
 30
0.0
 10
41.71488902729734
 20
83.05091935433231
 30
0.0
 10
41.74291606434166
 20
83.0437533509839
 30
0.0
 10
41.79799965383918
 20
83.01405432428031
 30
0.0
 10
41.81889098239161
 20
83.00058068171897
 30
0.0
 10
41.86409962983706
 20
82.96538241620297
 30
0.0
 10
41.88850384223264
 20
82.9434741874757
 30
0.0
 10
41.95983616028409
 20
82.87134932748016
 30
0.0
 10
42.00173294510434
 20
82.8190087865301
 30
0.0
 10
42.07330890396023
 20
82.72152539462937
 30
0.0
 10
42.10413689377754
 20
82.67477162475095
 30
0.0
 10
42.1872368266131
 20
82.54147840891183
 30
0.0
 10
42.2320917319834
 20
82.45884101099661
 30
0.0
 10
42.27220380743599
 20
82.37973411620584
 30
0.0
  0
SPLINE
  5
9F
330
1F
100
AcDbEntity
  8
0
  6
Continuous
 62
     7
370
    15
100
AcDbSpline
210
0.0
220
0.0
230
1.0
 70
     8
 71
     3
 72
    14
 73
    10
 74
     0
 42
0.00000001
 43
0.00000001
 40
0.0
 40
0.0
 40
0.0
 40
0.0
 40
0.2499999999999994
 40
0.2499999999999994
 40
0.4999999999999988
 40
0.4999999999999988
 40
0.7499999999999982
 40
0.7499999999999982
 40
1.0
 40
1.0
 40
1.0
 40
1.0
 10
41.29565156573117
 20
83.19993047411688
 30
0.0
 10
41.29565156573116
 20
83.15868354309252
 30
0.0
 10
41.30426128211241
 20
83.12177657081004
 30
0.0
 10
41.33534746168277
 20
83.06087651091065
 30
0.0
 10
41.35773701516682
 20
83.03669559137094
 30
0.0
 10
41.41248094634292
 20
83.00272800048768
 30
0.0
 10
41.44493118592813
 20
82.9928079165195
 30
0.0
 10
41.5149327006562
 20
82.99145670761465
 30
0.0
 10
41.55314320077871
 20
82.9996149843108
 30
0.0
 10
41.58646579745182
 20
83.0241170639789
 30
0.0
  0
LINE
  5
A0
330
1F
100
AcDbEntity
  8
0
  6
Continuous
 62
     7
370
    15
100
AcDbLine
 10
41.2956515657
 20
83.1999304741
 30
0.0
 11
41.2956515657
 21
144.2052699593
 31
0.0
  0
SPLINE
  5
A1
330
1F
100
AcDbEntity
  8
0
  6
Continuous
 62
     7
370
    15
100
AcDbSpline
210
0.0
220
0.0
230
1.0
 70
     8
 71
     3
 72
    10
 73
     6
 74
     0
 42
0.00000001
 43
0.00000001
 40
0.0
 40
0.0
 40
0.0
 40
0.0
 40
0.0592402688376383
 40
0.6438088530391344
 40
1.0
 40
1.0
 40
1.0
 40
1.0
 10
41.5864657974518
 20
144.3810833693907
 30
0.0
 10
41.58163353983061
 20
144.3843322760223
 30
0.0
 10
41.52911773769587
 20
144.419640604178
 30
0.0
 10
41.43016754001709
 20
144.4258949007366
 30
0.0
 10
41.38073901512573
 20
144.3706946630477
 30
0.0
 10
41.36202435038145
 20
144.3497947081244
 30
0.0
  0
SPLINE
  5
A2
330
1F
100
AcDbEntity
  8
0
  6
Continuous
 62
     7
370
    15
100
AcDbSpline
210
0.0
220
0.0
230
1.0
 70
     8
 71
     3
 72
     8
 73
     4
 74
     0
 42
0.00000001
 43
0.00000001
 40
0.0
 40
0.0
 40
0.0
 40
0.0
 40
1.0
 40
1.0
 40
1.0
 40
1.0
 10
41.31928523466737
 20
144.3128494603224
 30
0.0
 10
41.30393619603133
 20
144.2823394053264
 30
0.0
 10
41.29565156573117
 20
144.2460278498141
 30
0.0
 10
41.29565156573117
 20
144.2052699592527
 30
0.0
  0
SPLINE
  5
A3
330
1F
100
AcDbEntity
  8
0
  6
Continuous
 62
     7
370
    15
100
AcDbSpline
210
0.0
220
0.0
230
1.0
 70
     8
 71
     3
 72
    20
 73
    16
 74
     0
 42
0.00000001
 43
0.00000001
 40
0.0
 40
0.0
 40
0.0
 40
0.0
 40
0.2500000000000037
 40
0.2500000000000037
 40
0.3750000000000055
 40
0.3750000000000055
 40
0.5000000000000073
 40
0.5000000000000073
 40
0.5625000000000057
 40
0.5625000000000057
 40
0.625000000000004
 40
0.625000000000004
 40
0.7500000000000027
 40
0.7500000000000027
 40
1.0
 40
1.0
 40
1.0
 40
1.0
 10
42.27220380743357
 20
145.025466317163
 30
0.0
 10
42.23220758960974
 20
144.9465879106055
 30
0.0
 10
42.18709396177209
 20
144.863458263914
 30
0.0
 10
42.10383974740556
 20
144.7299695995631
 30
0.0
 10
42.07362041878507
 20
144.6841045436811
 30
0.0
 10
42.00153218364363
 20
144.5859129912762
 30
0.0
 10
41.95961486623256
 20
144.5336031717526
 30
0.0
 10
41.88836426168109
 20
144.4615972690181
 30
0.0
 10
41.86412844930177
 20
144.4398270567166
 30
0.0
 10
41.81853025911714
 20
144.4043523983875
 30
0.0
 10
41.79772776951742
 20
144.39098221421
 30
0.0
 10
41.7427867710983
 20
144.3614123020747
 30
0.0
 10
41.71471778301147
 20
144.3542857797728
 30
0.0
 10
41.64421495294865
 20
144.3474114082901
 30
0.0
 10
41.61279086515778
 20
144.3617265673772
 30
0.0
 10
41.58646579744918
 20
144.3810833693878
 30
0.0
  0
SPLINE
  5
A4
330
1F
100
AcDbEntity
  8
0
  6
Continuous
 62
     7
370
    15
100
AcDbSpline
210
0.0
220
0.0
230
1.0
 70
     8
 71
     3
 72
    10
 73
     6
 74
     0
 42
0.00000001
 43
0.00000001
 40
0.0
 40
0.0
 40
0.0
 40
0.0
 40
0.4999999999999989
 40
0.4999999999999989
 40
1.0
 40
1.0
 40
1.0
 40
1.0
 10
42.94565156573115
 20
145.9508854185048
 30
0.0
 10
42.82076329498097
 20
145.8198891404333
 30
0.0
 10
42.69931317692052
 20
145.6761763037683
 30
0.0
 10
42.4697292019631
 20
145.3656060110791
 30
0.0
 10
42.35945422656712
 20
145.197536938016
 30
0.0
 10
42.27220380743358
 20
145.025466317163
 30
0.0
  0
SPLINE
  5
A5
330
1F
100
AcDbEntity
  8
0
  6
Continuous
 62
     7
370
    15
100
AcDbSpline
210
0.0
220
0.0
230
1.0
 70
     8
 71
     3
 72
     8
 73
     4
 74
     0
 42
0.00000001
 43
0.00000001
 40
0.0
 40
0.0
 40
0.0
 40
0.0
 40
1.0
 40
1.0
 40
1.0
 40
1.0
 10
43.19557668169693
 20
145.9484323852494
 30
0.0
 10
43.10855865184857
 20
145.9488989500365
 30
0.0
 10
43.02560462546862
 20
145.9499389696126
 30
0.0
 10
42.94565156572885
 20
145.9508854185049
 30
0.0
  0
SPLINE
  5
A6
330
1F
100
AcDbEntity
  8
0
  6
Continuous
 62
     7
370
    15
100
AcDbSpline
210
0.0
220
0.0
230
1.0
 70
     8
 71
     3
 72
     8
 73
     4
 74
     0
 42
0.00000001
 43
0.00000001
 40
0.0
 40
0.0
 40
0.0
 40
0.0
 40
1.0
 40
1.0
 40
1.0
 40
1.0
 10
42.94565156572885
 20
81.45431501486472
 30
0.0
 10
43.02560462546862
 20
81.45526146375698
 30
0.0
 10
43.10855865184857
 20
81.4563014833331
 30
0.0
 10
43.19557668169695
 20
81.45676804812018
 30
0.0
  0
SPLINE
  5
A7
330
1F
100
AcDbEntity
  8
0
  6
Continuous
 62
     7
370
    15
100
AcDbSpline
210
0.0
220
0.0
230
1.0
 70
     8
 71
     3
 72
    10
 73
     6
 74
     0
 42
0.00000001
 43
0.00000001
 40
0.0
 40
0.0
 40
0.0
 40
0.0
 40
0.4999999999999989
 40
0.4999999999999989
 40
1.0
 40
1.0
 40
1.0
 40
1.0
 10
42.27220380743265
 20
82.3797341162084
 30
0.0
 10
42.35945422656614
 20
82.20766349535502
 30
0.0
 10
42.46972920196229
 20
82.03959442229159
 30
0.0
 10
42.69931317692014
 20
81.72902412960178
 30
0.0
 10
42.82076329498077
 20
81.5853112929365
 30
0.0
 10
42.94565156573115
 20
81.4543150148648
 30
0.0
  0
SPLINE
  5
A8
330
1F
100
AcDbEntity
  8
0
  6
Continuous
 62
     7
370
    15
100
AcDbSpline
210
0.0
220
0.0
230
1.0
 70
     8
 71
     3
 72
     8
 73
     4
 74
     0
 42
0.00000001
 43
0.00000001
 40
0.0
 40
0.0
 40
0.0
 40
0.0
 40
1.0
 40
1.0
 40
1.0
 40
1.0
 10
107.9336225448098
 20
152.6535629775718
 30
0.0
 10
108.3905488986093
 20
151.6376450078974
 30
0.0
 10
108.8417545404123
 20
150.6188491788063
 30
0.0
 10
109.2856515657312
 20
149.5980477228227
 30
0.0
  0
LINE
  5
A9
330
1F
100
AcDbEntity
  8
0
  6
Continuous
 62
     7
370
    15
100
AcDbLine
 10
109.2856515657
 20
149.5980477228
 30
0.0
 11
109.2856515657
 21
148.4168354092
 31
0.0
  0
SPLINE
  5
AA
330
1F
100
AcDbEntity
  8
0
  6
Continuous
 62
     7
370
    15
100
AcDbSpline
210
0.0
220
0.0
230
1.0
 70
     8
 71
     3
 72
    14
 73
    10
 74
     0
 42
0.00000001
 43
0.00000001
 40
0.0
 40
0.0
 40
0.0
 40
0.0
 40
0.25
 40
0.25
 40
0.5
 40
0.5
 40
0.75
 40
0.75
 40
1.0
 40
1.0
 40
1.0
 40
1.0
 10
109.2856515657311
 20
148.4168354091818
 30
0.0
 10
109.2856515657311
 20
148.2929685323926
 30
0.0
 10
109.3015106933588
 20
148.1687088555551
 30
0.0
 10
109.3648723388787
 20
147.9311004931492
 30
0.0
 10
109.413462046928
 20
147.8143201083968
 30
0.0
 10
109.5457476517028
 20
147.6055175797878
 30
0.0
 10
109.6310724429634
 20
147.5110068761952
 30
0.0
 10
109.8379636912696
 20
147.3730500753929
 30
0.0
 10
109.9619316371596
 20
147.3311316297572
 30
0.0
 10
110.0856515657312
 20
147.3311316297572
 30
0.0
  0
LINE
  5
AB
330
1F
100
AcDbEntity
  8
0
  6
Continuous
 62
     7
370
    15
100
AcDbLine
 10
110.0856515657
 20
147.3311316298
 30
0.0
 11
112.3056515657
 21
147.3311316297
 31
0.0
  0
SPLINE
  5
AC
330
1F
100
AcDbEntity
  8
0
  6
Continuous
 62
     7
370
    15
100
AcDbSpline
210
0.0
220
0.0
230
1.0
 70
     8
 71
     3
 72
    12
 73
     8
 74
     0
 42
0.00000001
 43
0.00000001
 40
0.0
 40
0.0
 40
0.0
 40
0.0
 40
0.250000000000002
 40
0.250000000000002
 40
0.500000000000004
 40
0.500000000000004
 40
1.0
 40
1.0
 40
1.0
 40
1.0
 10
112.3056515657332
 20
147.3311316297573
 30
0.0
 10
112.429352515713
 20
147.3311316297577
 30
0.0
 10
112.5534491279829
 20
147.3731252414906
 30
0.0
 10
112.7601042910693
 20
147.5109205681352
 30
0.0
 10
112.845145057796
 20
147.6048941666
 30
0.0
 10
113.044623626269
 20
147.9196823728207
 30
0.0
 10
113.1056515657312
 20
148.1699213650479
 30
0.0
 10
113.1056515657312
 20
148.4168354091819
 30
0.0
  0
LINE
  5
AD
330
1F
100
AcDbEntity
  8
0
  6
Continuous
 62
     7
370
    15
100
AcDbLine
 10
113.1056515657
 20
148.4168354092
 30
0.0
 11
113.1056515657
 21
149.5980477228
 31
0.0
  0
SPLINE
  5
AE
330
1F
100
AcDbEntity
  8
0
  6
Continuous
 62
     7
370
    15
100
AcDbSpline
210
0.0
220
0.0
230
1.0
 70
     8
 71
     3
 72
     8
 73
     4
 74
     0
 42
0.00000001
 43
0.00000001
 40
0.0
 40
0.0
 40
0.0
 40
0.0
 40
1.0
 40
1.0
 40
1.0
 40
1.0
 10
113.1056515657312
 20
149.5980477228226
 30
0.0
 10
113.5498015767567
 20
150.6194309537743
 30
0.0
 10
114.0008758870146
 20
151.6379154905426
 30
0.0
 10
114.4576805866526
 20
152.6535629775717
 30
0.0
  0
LINE
  5
AF
330
1F
100
AcDbEntity
  8
0
  6
Continuous
 62
     7
370
    15
100
AcDbLine
 10
114.4576805867
 20
152.6535629776
 30
0.0
 11
119.1456515657
 21
152.6535629776
 31
0.0
  0
SPLINE
  5
B0
330
1F
100
AcDbEntity
  8
0
  6
Continuous
 62
     7
370
    15
100
AcDbSpline
210
0.0
220
0.0
230
1.0
 70
     8
 71
     3
 72
    16
 73
    12
 74
     0
 42
0.00000001
 43
0.00000001
 40
0.0
 40
0.0
 40
0.0
 40
0.0
 40
0.125
 40
0.125
 40
0.25
 40
0.25
 40
0.5
 40
0.5
 40
0.75
 40
0.75
 40
1.0
 40
1.0
 40
1.0
 40
1.0
 10
119.1456515657302
 20
152.6535629775717
 30
0.0
 10
119.2212892721414
 20
152.6535629775718
 30
0.0
 10
119.2976049365597
 20
152.642217977437
 30
0.0
 10
119.4420156744518
 20
152.5995654267986
 30
0.0
 10
119.5104621235602
 20
152.5686311021158
 30
0.0
 10
119.7053933761736
 20
152.4493747303482
 30
0.0
 10
119.8132345499546
 20
152.3392227167277
 30
0.0
 10
119.9819472981668
 20
152.0910866310696
 30
0.0
 10
120.0443117108904
 20
151.9507443070658
 30
0.0
 10
120.1256156353989
 20
151.6624726155771
 30
0.0
 10
120.1456515657312
 20
151.5116676425971
 30
0.0
 10
120.1456515657312
 20
151.3612977512518
 30
0.0
  0
LINE
  5
B1
330
1F
100
AcDbEntity
  8
0
  6
Continuous
 62
     7
370
    15
100
AcDbLine
 10
120.1456515657
 20
151.3612977513
 30
0.0
 11
120.1456515657
 21
145.0526002167
 31
0.0
  0
LINE
  5
B2
330
1F
100
AcDbEntity
  8
0
  6
Continuous
 62
     7
370
    15
100
AcDbLine
 10
119.1456515657
 20
162.6923950723
 30
0.0
 11
114.4576805867
 21
162.6923950723
 31
0.0
  0
LINE
  5
B3
330
1F
100
AcDbEntity
  8
0
  6
Continuous
 62
     7
370
    15
100
AcDbLine
 10
114.4576805867
 20
152.6535629776
 30
0.0
 11
114.4576805867
 21
162.6923950723
 31
0.0
  0
SPLINE
  5
B4
330
1F
100
AcDbEntity
  8
0
  6
Continuous
 62
     7
370
    15
100
AcDbSpline
210
0.0
220
0.0
230
1.0
 70
     8
 71
     3
 72
    14
 73
    10
 74
     0
 42
0.00000001
 43
0.00000001
 40
0.0
 40
0.0
 40
0.0
 40
0.0
 40
0.25
 40
0.25
 40
0.5
 40
0.5
 40
0.75
 40
0.75
 40
1.0
 40
1.0
 40
1.0
 40
1.0
 10
113.1056515657312
 20
159.3961514575328
 30
0.0
 10
113.1056515657312
 20
159.2897947637804
 30
0.0
 10
113.0852640095899
 20
159.1839542760203
 30
0.0
 10
113.0066296641283
 20
158.9873893624838
 30
0.0
 10
112.9478983044897
 20
158.8962186201967
 30
0.0
 10
112.8012893988871
 20
158.744307531165
 30
0.0
 10
112.7118840788605
 20
158.6822386943455
 30
0.0
 10
112.5179933462601
 20
158.5989706465868
 30
0.0
 10
112.4114883563702
 20
158.5768759768572
 30
0.0
 10
112.3056515657309
 20
158.5768759768572
 30
0.0
  0
SPLINE
  5
B5
330
1F
100
AcDbEntity
  8
0
  6
Continuous
 62
     7
370
    15
100
AcDbSpline
210
0.0
220
0.0
230
1.0
 70
     8
 71
     3
 72
     8
 73
     4
 74
     0
 42
0.00000001
 43
0.00000001
 40
0.0
 40
0.0
 40
0.0
 40
0.0
 40
1.0
 40
1.0
 40
1.0
 40
1.0
 10
114.4576805866525
 20
162.6923950723483
 30
0.0
 10
114.0066536179393
 20
161.8950845021605
 30
0.0
 10
113.5559598014157
 20
161.0975862025033
 30
0.0
 10
113.1056515657312
 20
160.2998710773897
 30
0.0
  0
LINE
  5
B6
330
1F
100
AcDbEntity
  8
0
  6
Continuous
 62
     7
370
    15
100
AcDbLine
 10
113.1056515657
 20
149.5980477228
 30
0.0
 11
113.1056515657
 21
160.2998710774
 31
0.0
  0
SPLINE
  5
B7
330
1F
100
AcDbEntity
  8
0
  6
Continuous
 62
     7
370
    15
100
AcDbSpline
210
0.0
220
0.0
230
1.0
 70
     8
 71
     3
 72
    12
 73
     8
 74
     0
 42
0.00000001
 43
0.00000001
 40
0.0
 40
0.0
 40
0.0
 40
0.0
 40
0.5
 40
0.5
 40
0.75
 40
0.75
 40
1.0
 40
1.0
 40
1.0
 40
1.0
 10
120.1456515657312
 20
161.6713400375306
 30
0.0
 10
120.1456515657312
 20
161.936609470297
 30
0.0
 10
120.0410448222447
 20
162.1991245759494
 30
0.0
 10
119.7643764704994
 20
162.4846621819867
 30
0.0
 10
119.6540112111474
 20
162.5609837988481
 30
0.0
 10
119.4099391625317
 20
162.6653259636882
 30
0.0
 10
119.2781867011999
 20
162.6923950723484
 30
0.0
 10
119.1456515657312
 20
162.6923950723484
 30
0.0
  0
LINE
  5
B8
330
1F
100
AcDbEntity
  8
0
  6
Continuous
 62
     7
370
    15
100
AcDbLine
 10
120.1456515657
 20
151.3612977513
 30
0.0
 11
120.1456515657
 21
161.6713400375
 31
0.0
  0
SPLINE
  5
B9
330
1F
100
AcDbEntity
  8
0
  6
Continuous
 62
     7
370
    15
100
AcDbSpline
210
0.0
220
0.0
230
1.0
 70
     8
 71
     3
 72
    10
 73
     6
 74
     0
 42
0.00000001
 43
0.00000001
 40
0.0
 40
0.0
 40
0.0
 40
0.0
 40
0.5
 40
0.5
 40
1.0
 40
1.0
 40
1.0
 40
1.0
 10
110.0856515657312
 20
158.5768759768573
 30
0.0
 10
109.8731152518748
 20
158.5768759768573
 30
0.0
 10
109.6631790802208
 20
158.6682885634874
 30
0.0
 10
109.3694719392095
 20
158.9730334293916
 30
0.0
 10
109.2856515657311
 20
159.1851883993002
 30
0.0
 10
109.2856515657311
 20
159.3961514575328
 30
0.0
  0
SPLINE
  5
BA
330
1F
100
AcDbEntity
  8
0
  6
Continuous
 62
     7
370
    15
100
AcDbSpline
210
0.0
220
0.0
230
1.0
 70
     8
 71
     3
 72
     8
 73
     4
 74
     0
 42
0.00000001
 43
0.00000001
 40
0.0
 40
0.0
 40
0.0
 40
0.0
 40
1.0
 40
1.0
 40
1.0
 40
1.0
 10
109.2856515657312
 20
160.2998710773897
 30
0.0
 10
108.8353433300466
 20
161.0975862025033
 30
0.0
 10
108.384649513523
 20
161.8950845021605
 30
0.0
 10
107.9336225448098
 20
162.6923950723484
 30
0.0
  0
LINE
  5
BB
330
1F
100
AcDbEntity
  8
0
  6
Continuous
 62
     7
370
    15
100
AcDbLine
 10
109.2856515657
 20
149.5980477228
 30
0.0
 11
109.2856515657
 21
160.2998710774
 31
0.0
  0
LINE
  5
BC
330
1F
100
AcDbEntity
  8
0
  6
Continuous
 62
     7
370
    15
100
AcDbLine
 10
112.3056515657
 20
158.5768759769
 30
0.0
 11
110.0856515657
 21
158.5768759769
 31
0.0
  0
SPLINE
  5
BD
330
1F
100
AcDbEntity
  8
0
  6
Continuous
 62
     7
370
    15
100
AcDbSpline
210
0.0
220
0.0
230
1.0
 70
     8
 71
     3
 72
    66
 73
    62
 74
     0
 42
0.00000001
 43
0.00000001
 40
-0.0312499999999999
 40
-0.0312499999999999
 40
0.0
 40
0.0
 40
0.0312499999999999
 40
0.0312499999999999
 40
0.0624999999999998
 40
0.0624999999999998
 40
0.0937499999999996
 40
0.0937499999999996
 40
0.1249999999999995
 40
0.1249999999999995
 40
0.1562499999999994
 40
0.1562499999999994
 40
0.1874999999999993
 40
0.1874999999999993
 40
0.2187499999999992
 40
0.2187499999999992
 40
0.2499999999999991
 40
0.2499999999999991
 40
0.2812499999999989
 40
0.2812499999999989
 40
0.3124999999999988
 40
0.3124999999999988
 40
0.3437499999999987
 40
0.3437499999999987
 40
0.3749999999999986
 40
0.3749999999999986
 40
0.4062499999999984
 40
0.4062499999999984
 40
0.4374999999999983
 40
0.4374999999999983
 40
0.4687499999999982
 40
0.4687499999999982
 40
0.4999999999999981
 40
0.4999999999999981
 40
0.531249999999998
 40
0.531249999999998
 40
0.5624999999999979
 40
0.5624999999999979
 40
0.6249999999999996
 40
0.6249999999999996
 40
0.6875000000000012
 40
0.6875000000000012
 40
0.7187500000000011
 40
0.7187500000000011
 40
0.7500000000000009
 40
0.7500000000000009
 40
0.7812500000000008
 40
0.7812500000000008
 40
0.8125000000000007
 40
0.8125000000000007
 40
0.8437500000000006
 40
0.8437500000000006
 40
0.8750000000000004
 40
0.8750000000000004
 40
0.9062500000000003
 40
0.9062500000000003
 40
0.9375000000000002
 40
0.9375000000000002
 40
0.9687500000000001
 40
0.9687500000000001
 40
1.0
 40
1.0
 40
1.03125
 40
1.03125
 10
157.6017996846022
 20
115.8958602950078
 30
0.0
 10
157.9390965385361
 20
116.1801277850773
 30
0.0
 10
158.1186046685035
 20
116.3038092631432
 30
0.0
 10
158.4975218644414
 20
116.5174720189738
 30
0.0
 10
158.6985720140958
 20
116.607953939185
 30
0.0
 10
159.1134456113023
 20
116.7518271129524
 30
0.0
 10
159.3248900528327
 20
116.8047450480363
 30
0.0
 10
159.7554865961737
 20
116.8740712119366
 30
0.0
 10
159.9767642765842
 20
116.8903223223377
 30
0.0
 10
160.4143987843211
 20
116.8845968870482
 30
0.0
 10
160.630958031644
 20
116.8631019013092
 30
0.0
 10
161.0595772704683
 20
116.7829568447393
 30
0.0
 10
161.2735820135797
 20
116.723382382946
 30
0.0
 10
161.6821506250395
 20
116.5694289635718
 30
0.0
 10
161.87783247884
 20
116.4752388600974
 30
0.0
 10
162.2515093266013
 20
116.251363741011
 30
0.0
 10
162.4309518533023
 20
116.1200285793094
 30
0.0
 10
162.7559977839335
 20
115.8300117677316
 30
0.0
 10
162.9032794327957
 20
115.6707876498393
 30
0.0
 10
163.165478498946
 20
115.3220532484844
 30
0.0
 10
163.2803684025631
 20
115.1311715768749
 30
0.0
 10
163.4632463377713
 20
114.7363719020601
 30
0.0
 10
163.5331751225967
 20
114.5303724565375
 30
0.0
 10
163.626547912173
 20
114.0997568040654
 30
0.0
 10
163.6484116688556
 20
113.8804459282949
 30
0.0
 10
163.6423319251187
 20
113.4445104258326
 30
0.0
 10
163.6138523490286
 20
113.2234105505511
 30
0.0
 10
163.5090778950431
 20
112.7979322426293
 30
0.0
 10
163.4335714865873
 20
112.593105993691
 30
0.0
 10
163.2375880643268
 20
112.1988163625017
 30
0.0
 10
163.1186907514364
 20
112.0132637271071
 30
0.0
 10
162.8473473356338
 20
111.6713293624427
 30
0.0
 10
162.6923779534962
 20
111.5122511943107
 30
0.0
 10
162.3581331937281
 20
111.2295916843727
 30
0.0
 10
162.178933151957
 20
111.105306651696
 30
0.0
 10
161.7973461885443
 20
110.8893488438006
 30
0.0
 10
161.5953412188258
 20
110.7984224477354
 30
0.0
 10
160.9774329378977
 20
110.5833348430504
 30
0.0
 10
160.5354373782018
 20
110.5124531119041
 30
0.0
 10
159.6641127470401
 20
110.5229267910429
 30
0.0
 10
159.2236939085458
 20
110.6046258913133
 30
0.0
 10
158.6129935133787
 20
110.8341161502939
 30
0.0
 10
158.4152696968151
 20
110.9288615251278
 30
0.0
 10
158.0374649943781
 20
111.1552541622001
 30
0.0
 10
157.8619080205745
 20
111.2840069997191
 30
0.0
 10
157.5376265718662
 20
111.5728961340856
 30
0.0
 10
157.3876294222186
 20
111.734711373115
 30
0.0
 10
157.1238288794362
 20
112.0860294767311
 30
0.0
 10
157.0118152571151
 20
112.2724228175767
 30
0.0
 10
156.8286241030121
 20
112.6673112791638
 30
0.0
 10
156.7570513348432
 20
112.8788759237819
 30
0.0
 10
156.6647289894144
 20
113.3064930457554
 30
0.0
 10
156.6428259089176
 20
113.523340057982
 30
0.0
 10
156.6490536220086
 20
113.9633045326799
 30
0.0
 10
156.6777477579341
 20
114.1832362961783
 30
0.0
 10
156.7822976195544
 20
114.6073208535486
 30
0.0
 10
156.8595031378727
 20
114.8162372639537
 30
0.0
 10
157.0551691693643
 20
115.2087210330023
 30
0.0
 10
157.1729737161934
 20
115.3926697810699
 30
0.0
 10
157.4467657148447
 20
115.7371310271366
 30
0.0
 10
157.6017996846022
 20
115.8958602950078
 30
0.0
 10
157.9390965385361
 20
116.1801277850773
 30
0.0
  0
CIRCLE
  5
BE
330
1F
100
AcDbEntity
  8
0
  6
Continuous
 62
     7
370
    15
100
AcDbCircle
 10
160.1456515657
 20
113.7026002167
 30
0.0
 40
2.5
  0
LINE
  5
BF
330
1F
100
AcDbEntity
  8
0
  6
Continuous
 62
     7
370
    15
100
AcDbLine
 10
169.1456515657
 20
85.7026002167
 30
0.0
 11
169.1456515657
 21
141.7026002167
 31
0.0
  0
SPLINE
  5
C0
330
1F
100
AcDbEntity
  8
0
  6
Continuous
 62
     7
370
    15
100
AcDbSpline
210
0.0
220
0.0
230
1.0
 70
     8
 71
     3
 72
     9
 73
     5
 74
     0
 42
0.00000001
 43
0.00000001
 40
0.0
 40
0.0
 40
0.0
 40
0.0
 40
0.9886024579036882
 40
1.0
 40
1.0
 40
1.0
 40
1.0
 10
157.7704481107786
 20
141.6050362337756
 30
0.0
 10
157.8442661861011
 20
141.5996239358762
 30
0.0
 10
157.9189353058594
 20
141.5941492398989
 30
0.0
 10
158.00410057988
 20
141.5893650628894
 30
0.0
 10
158.0050712546758
 20
141.5893105350305
 30
0.0
  0
SPLINE
  5
C1
330
1F
100
AcDbEntity
  8
0
  6
Continuous
 62
     7
370
    15
100
AcDbSpline
210
0.0
220
0.0
230
1.0
 70
     8
 71
     3
 72
    37
 73
    33
 74
     0
 42
0.00000001
 43
0.00000001
 40
0.0
 40
0.0
 40
0.0
 40
0.0
 40
0.0200448768984395
 40
0.0446580479729677
 40
0.0673054973613122
 40
0.1133360453675425
 40
0.1367606175605352
 40
0.1601473751435339
 40
0.2076149225805283
 40
0.2317291261238786
 40
0.2570586082614084
 40
0.3084561932838734
 40
0.3345615740064267
 40
0.3621658506211473
 40
0.4182146080897198
 40
0.446709208297233
 40
0.4759984758702323
 40
0.5355325932641462
 40
0.5658451058220576
 40
0.5956948731733854
 40
0.6257566696325733
 40
0.6565017380112886
 40
0.6874902438141022
 40
0.7165897930559054
 40
0.7759080564407894
 40
0.8062367630461315
 40
0.8332088728285454
 40
0.8882531680255994
 40
0.9164356346533912
 40
0.9407600416177325
 40
0.9903493810745618
 40
1.0
 40
1.0
 40
1.0
 40
1.0
 10
163.6348125493416
 20
141.7014883179646
 30
0.0
 10
163.6377945137733
 20
141.7017938341526
 30
0.0
 10
163.6444380422577
 20
141.702474494685
 30
0.0
 10
163.6109459795227
 20
141.699042512407
 30
0.0
 10
163.5467025285356
 20
141.692540019411
 30
0.0
 10
163.4418533155189
 20
141.6821376044865
 30
0.0
 10
163.3011672054564
 20
141.6688157290724
 30
0.0
 10
163.1349288673106
 20
141.6536203387144
 30
0.0
 10
162.9339935641908
 20
141.6363390532993
 30
0.0
 10
162.7001626407318
 20
141.6179853876995
 30
0.0
 10
162.4378406244484
 20
141.5988048578195
 30
0.0
 10
162.1428221419098
 20
141.5798273037594
 30
0.0
 10
161.8201779560765
 20
141.562482579138
 30
0.0
 10
161.4698647220564
 20
141.5462540065212
 30
0.0
 10
161.0936240096316
 20
141.5333344022214
 30
0.0
 10
160.7017695226996
 20
141.525030843843
 30
0.0
 10
160.2930587400875
 20
141.520037244516
 30
0.0
 10
159.8737756085716
 20
141.5208053417583
 30
0.0
 10
159.4585007018969
 20
141.5274399550466
 30
0.0
 10
159.150183827508
 20
141.5352326715727
 30
0.0
 10
158.8474452043194
 20
141.545636062949
 30
0.0
 10
158.5504438790415
 20
141.5584971960463
 30
0.0
 10
158.2685419565703
 20
141.5731618453785
 30
0.0
 10
157.9167155698554
 20
141.5942843896971
 30
0.0
 10
157.5977829610373
 20
141.6171200785532
 30
0.0
 10
157.3264722584474
 20
141.639042047503
 30
0.0
 10
157.0934276526117
 20
141.6591290860957
 30
0.0
 10
156.9082720227125
 20
141.676454317013
 30
0.0
 10
156.7778135743073
 20
141.6892354180903
 30
0.0
 10
156.6873611328
 20
141.6983022545459
 30
0.0
 10
156.6436733510672
 20
141.7028039735032
 30
0.0
 10
156.6478716018619
 20
141.7023722957447
 30
0.0
 10
156.648555527369
 20
141.7023019723066
 30
0.0
  0
SPLINE
  5
C2
330
1F
100
AcDbEntity
  8
0
  6
Continuous
 62
     7
370
    15
100
AcDbSpline
210
0.0
220
0.0
230
1.0
 70
     8
 71
     3
 72
     9
 73
     5
 74
     0
 42
0.00000001
 43
0.00000001
 40
0.0
 40
0.0
 40
0.0
 40
0.0
 40
0.1050658222796778
 40
0.9999999999999999
 40
0.9999999999999999
 40
0.9999999999999999
 40
0.9999999999999999
 10
157.5419242772534
 20
141.6219682504931
 30
0.0
 10
157.5493173374395
 20
141.6213799275693
 30
0.0
 10
157.6196833235011
 20
141.6157803623538
 30
0.0
 10
157.6992453415649
 20
141.6101104405674
 30
0.0
 10
157.7704481107786
 20
141.6050362337756
 30
0.0
  0
LINE
  5
C3
330
1F
100
AcDbEntity
  8
0
  6
Continuous
 62
     7
370
    15
100
AcDbLine
 10
157.7704481111
 20
85.8001641996
 30
0.0
 11
157.7100087892
 21
85.7957240176
 31
0.0
  0
SPLINE
  5
C4
330
1F
100
AcDbEntity
  8
0
  6
Continuous
 62
     7
370
    15
100
AcDbSpline
210
0.0
220
0.0
230
1.0
 70
     8
 71
     3
 72
    38
 73
    34
 74
     0
 42
0.00000001
 43
0.00000001
 40
0.0
 40
0.0
 40
0.0
 40
0.0
 40
0.02769903979993
 40
0.0521382203193721
 40
0.0747836545487948
 40
0.1208029588413781
 40
0.1442171024784838
 40
0.1677258450025593
 40
0.2154381027547413
 40
0.2396749448255583
 40
0.2651883294540682
 40
0.3169602584017238
 40
0.3432568274431626
 40
0.3710292519135225
 40
0.4274237611473908
 40
0.4560972711928201
 40
0.4854762413024841
 40
0.5150523585469162
 40
0.5452496061903042
 40
0.5756619129380739
 40
0.6055013764018217
 40
0.6355539430798638
 40
0.666294767627975
 40
0.697281492526679
 40
0.7262569378826473
 40
0.7853301237809396
 40
0.8155391443361669
 40
0.8422948526096546
 40
0.8968980473290362
 40
0.9248540881543111
 40
0.9489927993921443
 40
0.998194948267713
 40
0.9999999999999999
 40
0.9999999999999999
 40
0.9999999999999999
 40
0.9999999999999999
 10
156.6563861752838
 20
85.70370144856189
 30
0.0
 10
156.6546155585941
 20
85.70352086804432
 30
0.0
 10
156.6512827064903
 20
85.70318095926488
 30
0.0
 10
156.6938272728665
 20
85.7075290903671
 30
0.0
 10
156.767079576255
 20
85.71490876748587
 30
0.0
 10
156.8797574140813
 20
85.72600261841902
 30
0.0
 10
157.0281275891802
 20
85.73990424875137
 30
0.0
 10
157.2021986435436
 20
85.75561299738499
 30
0.0
 10
157.4108474826267
 20
85.77325855274164
 30
0.0
 10
157.6520984291426
 20
85.79178905681452
 30
0.0
 10
157.9220310675425
 20
85.81102617132899
 30
0.0
 10
158.2243651414549
 20
85.82983145325002
 30
0.0
 10
158.553656970148
 20
85.84675474285149
 30
0.0
 10
158.9101505978939
 20
85.86237202362732
 30
0.0
 10
159.2916787612254
 20
85.87442590089195
 30
0.0
 10
159.6874444644188
 20
85.88166727762342
 30
0.0
 10
159.9935810316905
 20
85.88449136229995
 30
0.0
 10
160.3060379476719
 20
85.88446542125044
 30
0.0
 10
160.621039622735
 20
85.88146867507022
 30
0.0
 10
160.9336249211942
 20
85.87552886124081
 30
0.0
 10
161.240150919101
 20
85.86686107730326
 30
0.0
 10
161.540038902624
 20
85.85568249313587
 30
0.0
 10
161.8334134840354
 20
85.84215530769833
 30
0.0
 10
162.1105944086626
 20
85.82699572374433
 30
0.0
 10
162.4546737217997
 20
85.80547731400769
 30
0.0
 10
162.76428036779
 20
85.7826234396733
 30
0.0
 10
163.0250158103972
 20
85.76107297990325
 30
0.0
 10
163.2468452187291
 20
85.74159598714567
 30
0.0
 10
163.420104736258
 20
85.72517115866208
 30
0.0
 10
163.539089943312
 20
85.71341421216772
 30
0.0
 10
163.6179166384461
 20
85.70546633110635
 30
0.0
 10
163.6524852730905
 20
85.70189887667043
 30
0.0
 10
163.6451055149743
 20
85.7026562478504
 30
0.0
 10
163.6448443588039
 20
85.7026830498341
 30
0.0
  0
LINE
  5
C5
330
1F
100
AcDbEntity
  8
0
  6
Continuous
 62
     7
370
    15
100
AcDbLine
 10
194.0177302529
 20
87.2026002167
 30
0.0
 11
194.0177302529
 21
140.2026002167
 31
0.0
  0
ARC
  5
C6
330
1F
100
AcDbEntity
  8
0
  6
Continuous
 62
     7
370
    15
100
AcDbCircle
 10
100.1959088442
 20
146.2981546075
 30
0.0
 40
11.42053516404296
100
AcDbArc
 50
77.6340603254
 51
102.4327561028
  0
SPLINE
  5
C7
330
1F
100
AcDbEntity
  8
0
  6
Continuous
 62
     7
370
    15
100
AcDbSpline
210
0.0
220
0.0
230
1.0
 70
     8
 71
     3
 72
     9
 73
     5
 74
     0
 42
0.00000001
 43
0.00000001
 40
0.0
 40
0.0
 40
0.0
 40
0.0
 40
0.4357932741416338
 40
1.0
 40
1.0
 40
1.0
 40
1.0
 10
251.1956515657312
 20
133.3324566791291
 30
0.0
 10
251.1950332133952
 20
133.3879071471145
 30
0.0
 10
251.1936143013268
 20
133.515147449514
 30
0.0
 10
251.1763496240517
 20
133.6202891534508
 30
0.0
 10
251.1666087770132
 20
133.6796108099802
 30
0.0
  0
LINE
  5
C8
330
1F
100
AcDbEntity
  8
0
  6
Continuous
 62
     7
370
    15
100
AcDbLine
 10
251.1956515657
 20
94.0727437542
 30
0.0
 11
251.1956515657
 21
133.3324566791
 31
0.0
  0
LINE
  5
C9
330
1F
100
AcDbEntity
  8
0
  6
Continuous
 62
     7
370
    15
100
AcDbLine
 10
42.9456515657
 20
81.4526002167
 30
0.0
 11
42.9456515657
 21
81.4543150149
 31
0.0
  0
LINE
  5
CA
330
1F
100
AcDbEntity
  8
0
  6
Continuous
 62
     7
370
    15
100
AcDbLine
 10
42.9456515657
 20
145.9526002167
 30
0.0
 11
42.9456515657
 21
145.9508854185
 31
0.0
  0
LINE
  5
CB
330
1F
100
AcDbEntity
  8
0
  6
Continuous
 62
     7
370
    15
100
AcDbLine
 10
251.1956515657
 20
95.7033717753
 30
0.0
 11
251.2981196849
 21
93.0953839907
 31
0.0
  0
LINE
  5
CC
330
1F
100
AcDbEntity
  8
0
  6
Continuous
 62
     7
370
    15
100
AcDbLine
 10
251.0660414432
 20
93.2668751873
 30
0.0
 11
251.0884380033
 21
92.6968446671
 31
0.0
  0
LINE
  5
CD
330
1F
100
AcDbEntity
  8
0
  6
Continuous
 62
     7
370
    15
100
AcDbLine
 10
251.0099183718
 20
134.711440811
 30
0.0
 11
250.9953064231
 21
134.3395418812
 31
0.0
  0
LINE
  5
CE
330
1F
100
AcDbEntity
  8
0
  6
Continuous
 62
     7
370
    15
100
AcDbLine
 10
251.2196000533
 20
134.3129014874
 30
0.0
 11
251.188868568
 21
133.5307329557
 31
0.0
  0
SPLINE
  5
CF
330
1F
100
AcDbEntity
  8
0
  6
HIDDEN
 62
     7
370
     0
100
AcDbSpline
210
0.0
220
0.0
230
1.0
 70
     8
 71
     3
 72
    80
 73
    76
 74
     0
 42
0.00000001
 43
0.00000001
 40
-0.0312500000000007
 40
-0.0312500000000007
 40
0.0
 40
0.0
 40
0.0312499999999999
 40
0.0312499999999999
 40
0.0468749999999997
 40
0.0468749999999997
 40
0.0624999999999995
 40
0.0624999999999995
 40
0.0937499999999991
 40
0.0937499999999991
 40
0.1249999999999987
 40
0.1249999999999987
 40
0.1562499999999983
 40
0.1562499999999983
 40
0.1874999999999979
 40
0.1874999999999979
 40
0.2187499999999975
 40
0.2187499999999975
 40
0.2499999999999971
 40
0.2499999999999971
 40
0.2812499999999969
 40
0.2812499999999969
 40
0.3124999999999967
 40
0.3124999999999967
 40
0.3281249999999967
 40
0.3281249999999967
 40
0.3437499999999967
 40
0.3437499999999967
 40
0.3749999999999966
 40
0.3749999999999966
 40
0.4062499999999966
 40
0.4062499999999966
 40
0.4218749999999964
 40
0.4218749999999964
 40
0.4374999999999962
 40
0.4374999999999962
 40
0.4687499999999959
 40
0.4687499999999959
 40
0.4999999999999956
 40
0.4999999999999956
 40
0.5312499999999952
 40
0.5312499999999952
 40
0.5624999999999949
 40
0.5624999999999949
 40
0.5937499999999946
 40
0.5937499999999946
 40
0.6249999999999942
 40
0.6249999999999942
 40
0.6562499999999939
 40
0.6562499999999939
 40
0.6874999999999936
 40
0.6874999999999936
 40
0.7031249999999936
 40
0.7031249999999936
 40
0.7187499999999937
 40
0.7187499999999937
 40
0.7499999999999942
 40
0.7499999999999942
 40
0.7812499999999947
 40
0.7812499999999947
 40
0.7968749999999951
 40
0.7968749999999951
 40
0.8124999999999954
 40
0.8124999999999954
 40
0.8437499999999962
 40
0.8437499999999962
 40
0.874999999999997
 40
0.874999999999997
 40
0.9062499999999978
 40
0.9062499999999978
 40
0.9374999999999986
 40
0.9374999999999986
 40
0.9687499999999993
 40
0.9687499999999993
 40
1.0
 40
1.0
 40
1.03125
 40
1.03125
 10
99.86510625295485
 20
162.5621494731628
 30
0.0
 10
100.5261968785075
 20
162.5621494731628
 30
0.0
 10
100.8511770077591
 20
162.5552513273359
 30
0.0
 10
101.3306504190055
 20
162.5347248993554
 30
0.0
 10
101.4891322368463
 20
162.5261686722679
 30
0.0
 10
101.8033517693506
 20
162.5054422970503
 30
0.0
 10
101.959472053031
 20
162.4932149968439
 30
0.0
 10
102.4135260819876
 20
162.4516457030147
 30
0.0
 10
102.7006294649274
 20
162.4173014179169
 30
0.0
 10
103.2439840209544
 20
162.3339772935946
 30
0.0
 10
103.50108763216
 20
162.2845390708201
 30
0.0
 10
103.9619938870988
 20
162.1731593410602
 30
0.0
 10
104.1688915963138
 20
162.110864827548
 30
0.0
 10
104.534416910306
 20
161.970935184677
 30
0.0
 10
104.6896224324319
 20
161.894319286928
 30
0.0
 10
104.9390528190316
 20
161.7303606670723
 30
0.0
 10
105.0351427748168
 20
161.6418038129765
 30
0.0
 10
105.1636616240104
 20
161.4543231308708
 30
0.0
 10
105.1954724941882
 20
161.3570866694163
 30
0.0
 10
105.1958291439614
 20
161.1554540300893
 30
0.0
 10
105.1633318917644
 20
161.0499052382511
 30
0.0
 10
105.0357064180499
 20
160.8397904555626
 30
0.0
 10
104.941278016998
 20
160.7347249475937
 30
0.0
 10
104.7534171970124
 20
160.5778472403426
 30
0.0
 10
104.6825891982092
 20
160.5254135066369
 30
0.0
 10
104.527867306244
 20
160.4229750610072
 30
0.0
 10
104.4438908360605
 20
160.3728273323553
 30
0.0
 10
104.1725671664161
 20
160.2258113759218
 30
0.0
 10
103.9660179478138
 20
160.1323235554873
 30
0.0
 10
103.4994078076248
 20
159.956536697873
 30
0.0
 10
103.2470422379993
 20
159.8771582227893
 30
0.0
 10
102.8411408963206
 20
159.7716757852953
 30
0.0
 10
102.7012402788431
 20
159.7387902204551
 30
0.0
 10
102.4120163435962
 20
159.6778747412264
 30
0.0
 10
102.2621768873069
 20
159.649794169584
 30
0.0
 10
101.8080603176961
 20
159.5749921275412
 30
0.0
 10
101.4964090989593
 20
159.5369540692951
 30
0.0
 10
100.8554126340469
 20
159.485342142771
 30
0.0
 10
100.5238850060947
 20
159.4720282092495
 30
0.0
 10
99.87109396102325
 20
159.4719311229214
 30
0.0
 10
99.54655775599144
 20
159.4847192080825
 30
0.0
 10
98.90128830657503
 20
159.5362093976784
 30
0.0
 10
98.5855453004123
 20
159.5747339769985
 30
0.0
 10
97.9836560054286
 20
159.6736365398565
 30
0.0
 10
97.69290677461714
 20
159.7347406377815
 30
0.0
 10
97.14599498293263
 20
159.8765500708923
 30
0.0
 10
96.89421761909573
 20
159.9558845554714
 30
0.0
 10
96.43282962647459
 20
160.1292633001329
 30
0.0
 10
96.2215603468765
 20
160.2244232448869
 30
0.0
 10
95.85825599450031
 20
160.4209957682628
 30
0.0
 10
95.70444934605752
 20
160.5227519966692
 30
0.0
 10
95.5158298764601
 20
160.6795379594547
 30
0.0
 10
95.45979939025099
 20
160.7327919932047
 30
0.0
 10
95.36422562851483
 20
160.8385965547575
 30
0.0
 10
95.32446271148984
 20
160.891249619113
 30
0.0
 10
95.2286909611777
 20
161.0483233385721
 30
0.0
 10
95.19596812205158
 20
161.1518483738993
 30
0.0
 10
95.1953395357225
 20
161.3560631081264
 30
0.0
 10
95.22752568045728
 20
161.4535669457112
 30
0.0
 10
95.32243638231286
 20
161.5928939960628
 30
0.0
 10
95.36190316571182
 20
161.6382107275673
 30
0.0
 10
95.4568331644327
 20
161.7266505485561
 30
0.0
 10
95.51258999219607
 20
161.769904799016
 30
0.0
 10
95.70053011016597
 20
161.893796273606
 30
0.0
 10
95.85389157988214
 20
161.9694985643801
 30
0.0
 10
96.21615581476249
 20
162.1087529358383
 30
0.0
 10
96.4270042882284
 20
162.172514777367
 30
0.0
 10
96.88767425854732
 20
162.2840116168348
 30
0.0
 10
97.13904863813114
 20
162.3325376891515
 30
0.0
 10
97.68495652502926
 20
162.416591672532
 30
0.0
 10
97.9757790996805
 20
162.4513902261986
 30
0.0
 10
98.57710571446052
 20
162.5065866909625
 30
0.0
 10
98.89162429907292
 20
162.5274045397164
 30
0.0
 10
99.53820575519285
 20
162.5552518726271
 30
0.0
 10
99.86510625295485
 20
162.5621494731628
 30
0.0
 10
100.5261968785075
 20
162.5621494731628
 30
0.0
  0
LINE
  5
D0
330
1F
100
AcDbEntity
  8
0
  6
HIDDEN
 62
     7
370
     0
100
AcDbLine
 10
107.9336225448
 20
152.6535629776
 30
0.0
 11
107.9336225448
 21
145.0526002167
 31
0.0
  0
SPLINE
  5
D1
330
1F
100
AcDbEntity
  8
0
  6
HIDDEN
 62
     7
370
     0
100
AcDbSpline
210
0.0
220
0.0
230
1.0
 70
     8
 71
     3
 72
     9
 73
     5
 74
     0
 42
0.00000001
 43
0.00000001
 40
0.0
 40
0.0
 40
0.0
 40
0.0
 40
0.5038163044187015
 40
1.0
 40
1.0
 40
1.0
 40
1.0
 10
71.6090763151585
 20
76.96679385441065
 30
0.0
 10
71.3253971304184
 20
76.94264068031187
 30
0.0
 10
70.76233638337207
 20
76.89470024272191
 30
0.0
 10
70.40597534156377
 20
76.85338789443597
 30
0.0
 10
70.22915480287814
 20
76.8328893807903
 30
0.0
  0
SPLINE
  5
D2
330
1F
100
AcDbEntity
  8
0
  6
HIDDEN
 62
     7
370
     0
100
AcDbSpline
210
0.0
220
0.0
230
1.0
 70
     8
 71
     3
 72
    12
 73
     8
 74
     0
 42
0.00000001
 43
0.00000001
 40
0.0
 40
0.0
 40
0.0
 40
0.0
 40
0.1661348616725355
 40
0.3322013257383251
 40
0.5008932044678458
 40
0.7521370782640883
 40
1.0
 40
1.0
 40
1.0
 40
1.0
 10
69.71497323137935
 20
150.6339042397502
 30
0.0
 10
69.7253658554862
 20
150.6325261156888
 30
0.0
 10
69.74614682506382
 20
150.6297704349387
 30
0.0
 10
69.91944631451176
 20
150.6081670599768
 30
0.0
 10
70.24139790375636
 20
150.570302108035
 30
0.0
 10
70.7625637396763
 20
150.5099183413187
 30
0.0
 10
71.32812167951408
 20
150.4621252041693
 30
0.0
 10
71.60898510320213
 20
150.4383905110759
 30
0.0
  0
SPLINE
  5
D3
330
1F
100
AcDbEntity
  8
0
  6
HIDDEN
 62
     7
370
     0
100
AcDbSpline
210
0.0
220
0.0
230
1.0
 70
     8
 71
     3
 72
    33
 73
    29
 74
     0
 42
0.00000001
 43
0.00000001
 40
0.0
 40
0.0
 40
0.0
 40
0.0
 40
0.0315773698875104
 40
0.0633753287769057
 40
0.0958656851178231
 40
0.1285943208117605
 40
0.1601713694082662
 40
0.2244011681247345
 40
0.2571344568799636
 40
0.2885965627565487
 40
0.3526214070085076
 40
0.3852675959519929
 40
0.4162212184009612
 40
0.4791910353915302
 40
0.5112817741273479
 40
0.5421256322990662
 40
0.6048360558905652
 40
0.6367710793564881
 40
0.6680663384719832
 40
0.7316979547407203
 40
0.7641081282919966
 40
0.7957194290717577
 40
0.8275524266255816
 40
0.8600900250720824
 40
0.8928737620729298
 40
0.9241775068323748
 40
0.9878778414776339
 40
1.0
 40
1.0
 40
1.0
 40
1.0
 10
81.44885722092219
 20
82.33627799593773
 30
0.0
 10
81.36498607391694
 20
82.35015173431947
 30
0.0
 10
81.19665788397302
 20
82.3779961284042
 30
0.0
 10
80.8973032876315
 20
82.42442876863463
 30
0.0
 10
80.56330382037267
 20
82.47304137065545
 30
0.0
 10
80.19753385848539
 20
82.52218930384268
 30
0.0
 10
79.67415394379651
 20
82.58625508943531
 30
0.0
 10
79.09772673520192
 20
82.64603660384044
 30
0.0
 10
78.48258958835038
 20
82.6960362113045
 30
0.0
 10
77.84627386226747
 20
82.7381762039879
 30
0.0
 10
77.18249332482876
 20
82.76681092872595
 30
0.0
 10
76.51042757324564
 20
82.77907037980954
 30
0.0
 10
75.8409789898139
 20
82.78039967091783
 30
0.0
 10
75.17579442269995
 20
82.76553914800837
 30
0.0
 10
74.52950318380947
 20
82.73568118361919
 30
0.0
 10
73.90031323295108
 20
82.69693795555791
 30
0.0
 10
73.30059754077182
 20
82.64635972179804
 30
0.0
 10
72.74229797465
 20
82.58795970733152
 30
0.0
 10
72.21210310426243
 20
82.52563647596199
 30
0.0
 10
71.73293640195084
 20
82.46022790142644
 30
0.0
 10
71.31801841675598
 20
82.39743899782047
 30
0.0
 10
71.04074603282994
 20
82.35293439899907
 30
0.0
 10
70.79919074726877
 20
82.31222544956411
 30
0.0
 10
70.59369874292038
 20
82.27616831891463
 30
0.0
 10
70.42953431917611
 20
82.24641129396227
 30
0.0
 10
70.27010037261083
 20
82.21682598053785
 30
0.0
 10
70.19186214466222
 20
82.20187670153301
 30
0.0
 10
70.19958693500702
 20
82.2033491241342
 30
0.0
 10
70.20082193967649
 20
82.20358452842439
 30
0.0
  0
SPLINE
  5
D4
330
1F
100
AcDbEntity
  8
0
  6
HIDDEN
 62
     7
370
     0
100
AcDbSpline
210
0.0
220
0.0
230
1.0
 70
     8
 71
     3
 72
    32
 73
    28
 74
     0
 42
0.00000001
 43
0.00000001
 40
0.0
 40
0.0
 40
0.0
 40
0.0
 40
0.020356822172105
 40
0.0512207857583794
 40
0.1139954454389432
 40
0.1459779869097674
 40
0.1769364677636727
 40
0.2398766914470389
 40
0.2719275468465721
 40
0.3033698011481659
 40
0.3673099924152954
 40
0.3998847012176188
 40
0.4314690120325909
 40
0.4957360700021212
 40
0.5285028301030422
 40
0.5596434488300034
 40
0.6230067766607702
 40
0.6553079823205556
 40
0.6861132872619372
 40
0.748756262689177
 40
0.7806634244345373
 40
0.8117607067089887
 40
0.8749825776111492
 40
0.9071778073885584
 40
0.9301738434827028
 40
0.9765719131095674
 40
1.0
 40
1.0
 40
1.0
 40
1.0
 10
70.20082193967649
 20
145.2016159049452
 30
0.0
 10
70.20046488777024
 20
145.2016833838721
 30
0.0
 10
70.19956649218375
 20
145.2018531708667
 30
0.0
 10
70.26216023873637
 20
145.1899589296794
 30
0.0
 10
70.40397142019988
 20
145.1633120527598
 30
0.0
 10
70.62801601207539
 20
145.1229299813472
 30
0.0
 10
70.90255812790961
 20
145.0750607395967
 30
0.0
 10
71.25124941691718
 20
145.0175908543169
 30
0.0
 10
71.66752537929457
 20
144.9550963072624
 30
0.0
 10
72.12911942615735
 20
144.8905706256231
 30
0.0
 10
72.65265737525252
 20
144.8259902486399
 30
0.0
 10
73.22485484970726
 20
144.767234883755
 30
0.0
 10
73.82706122015924
 20
144.7138620273729
 30
0.0
 10
74.46828772694073
 20
144.6709994655406
 30
0.0
 10
75.12937304493688
 20
144.6429354195195
 30
0.0
 10
75.79608399938344
 20
144.6253467619799
 30
0.0
 10
76.46997321999037
 20
144.6239001137391
 30
0.0
 10
77.13432270393817
 20
144.6388256528769
 30
0.0
 10
77.7858569780978
 20
144.6638323781006
 30
0.0
 10
78.41651619075381
 20
144.7029364207825
 30
0.0
 10
79.01405516657628
 20
144.7530375785662
 30
0.0
 10
79.58805313453104
 20
144.8092087450493
 30
0.0
 10
80.11900284792434
 20
144.8721227737382
 30
0.0
 10
80.56238372918844
 20
144.9322262757917
 30
0.0
 10
80.91390437676205
 20
144.983115992777
 30
0.0
 10
81.20357188673891
 20
145.0282384693149
 30
0.0
 10
81.38723465113662
 20
145.0587014812023
 30
0.0
 10
81.44885722092219
 20
145.0689224374319
 30
0.0
  0
SPLINE
  5
D5
330
1F
100
AcDbEntity
  8
0
  6
HIDDEN
 62
     7
370
     0
100
AcDbSpline
210
0.0
220
0.0
230
1.0
 70
     8
 71
     3
 72
    13
 73
     9
 74
     0
 42
0.00000001
 43
0.00000001
 40
0.0
 40
0.0
 40
0.0
 40
0.0
 40
0.1623799806143947
 40
0.3258962946532959
 40
0.4929818081924006
 40
0.6612959774482133
 40
0.8237063498433501
 40
1.0
 40
1.0
 40
1.0
 40
1.0
 10
81.44885722092219
 20
145.0689224374319
 30
0.0
 10
81.52444672987912
 20
145.0812982096887
 30
0.0
 10
81.67615472239466
 20
145.1061363597286
 30
0.0
 10
81.85905362224618
 20
145.1333947076532
 30
0.0
 10
82.00811587166271
 20
145.1545145552983
 30
0.0
 10
82.11206641220262
 20
145.1685009830463
 30
0.0
 10
82.18739835791699
 20
145.1782939565646
 30
0.0
 10
82.17916855892878
 20
145.1772226194994
 30
0.0
 10
82.17488499213569
 20
145.1766649942302
 30
0.0
  0
SPLINE
  5
D6
330
1F
100
AcDbEntity
  8
0
  6
HIDDEN
 62
     7
370
     0
100
AcDbSpline
210
0.0
220
0.0
230
1.0
 70
     8
 71
     3
 72
    13
 73
     9
 74
     0
 42
0.00000001
 43
0.00000001
 40
0.0
 40
0.0
 40
0.0
 40
0.0
 40
0.1540223582567162
 40
0.3222978932030878
 40
0.4885662407211814
 40
0.6560437858589481
 40
0.8273549276607379
 40
0.9999999999999999
 40
0.9999999999999999
 40
0.9999999999999999
 40
0.9999999999999999
 10
82.17488464061726
 20
82.22853548461268
 30
0.0
 10
82.18007031195376
 20
82.22786365512847
 30
0.0
 10
82.19092153488992
 20
82.2264578252879
 30
0.0
 10
82.12158009597002
 20
82.23544471823868
 30
0.0
 10
82.02146263162298
 20
82.24885883439178
 30
0.0
 10
81.87493486362911
 20
82.26949938275425
 30
0.0
 10
81.68872096572404
 20
82.29706484366996
 30
0.0
 10
81.5290182554698
 20
82.32317319405841
 30
0.0
 10
81.44885722092219
 20
82.33627799593772
 30
0.0
  0
LINE
  5
D7
330
1F
100
AcDbEntity
  8
0
  6
HIDDEN
 62
     7
370
     0
100
AcDbLine
 10
61.1922758928
 20
87.2026002167
 30
0.0
 11
61.1922758928
 21
140.2026002167
 31
0.0
  0
LINE
  5
D8
330
1F
100
AcDbEntity
  8
0
  6
HIDDEN
 62
     7
370
     0
100
AcDbLine
 10
100.4797291841
 20
87.2026002167
 30
0.0
 11
100.4797291841
 21
140.2026002167
 31
0.0
  0
LINE
  5
D9
330
1F
100
AcDbEntity
  8
0
  6
HIDDEN
 62
     7
370
     0
100
AcDbLine
 10
103.6456515657
 20
88.8276002167
 30
0.0
 11
103.6456515657
 21
138.5776002167
 31
0.0
  0
SPLINE
  5
DA
330
1F
100
AcDbEntity
  8
0
  6
HIDDEN
 62
     7
370
     0
100
AcDbSpline
210
0.0
220
0.0
230
1.0
 70
     8
 71
     3
 72
    20
 73
    16
 74
     0
 42
0.00000001
 43
0.00000001
 40
0.0
 40
0.0
 40
0.0
 40
0.0
 40
0.2499999999999963
 40
0.2499999999999963
 40
0.3749999999999969
 40
0.3749999999999969
 40
0.4999999999999976
 40
0.4999999999999976
 40
0.6249999999999981
 40
0.6249999999999981
 40
0.7499999999999988
 40
0.7499999999999988
 40
0.8749999999999993
 40
0.8749999999999993
 40
1.0
 40
1.0
 40
1.0
 40
1.0
 10
51.39565156573116
 20
138.9311138470991
 30
0.0
 10
51.39565156573117
 20
138.8519108605668
 30
0.0
 10
51.34866907051843
 20
138.7708146421639
 30
0.0
 10
51.21084747974086
 20
138.650617950413
 30
0.0
 10
51.15456519583086
 20
138.6116912464109
 30
0.0
 10
51.02148034436366
 20
138.5365025139865
 30
0.0
 10
50.94364040213059
 20
138.4998603086445
 30
0.0
 10
50.77100804601623
 20
138.4322697758127
 30
0.0
 10
50.67661504892515
 20
138.4013115940371
 30
0.0
 10
50.47117774261001
 20
138.3457871726674
 30
0.0
 10
50.35883150262284
 20
138.3210786588342
 30
0.0
 10
50.1265906387232
 20
138.2812824317259
 30
0.0
 10
50.00587999630048
 20
138.2658625943289
 30
0.0
 10
49.75480913703142
 20
138.2447826194893
 30
0.0
 10
49.62528714061566
 20
138.2393053744683
 30
0.0
 10
49.49565156573116
 20
138.2393053744683
 30
0.0
  0
LINE
  5
DB
330
1F
100
AcDbEntity
  8
0
  6
HIDDEN
 62
     7
370
     0
100
AcDbLine
 10
49.4956515657
 20
138.2393053745
 30
0.0
 11
42.9456515657
 21
138.2393053745
 31
0.0
  0
LINE
  5
DC
330
1F
100
AcDbEntity
  8
0
  6
HIDDEN
 62
     7
370
     0
100
AcDbLine
 10
42.9456515657
 20
89.1658950589
 30
0.0
 11
54.4956515657
 21
89.1658950589
 31
0.0
  0
SPLINE
  5
DD
330
1F
100
AcDbEntity
  8
0
  6
HIDDEN
 62
     7
370
     0
100
AcDbSpline
210
0.0
220
0.0
230
1.0
 70
     8
 71
     3
 72
    18
 73
    14
 74
     0
 42
0.00000001
 43
0.00000001
 40
0.0
 40
0.0
 40
0.0
 40
0.0
 40
0.1249999999999979
 40
0.1249999999999979
 40
0.2499999999999958
 40
0.2499999999999958
 40
0.4999999999999977
 40
0.4999999999999977
 40
0.7499999999999994
 40
0.7499999999999994
 40
0.8749999999999998
 40
0.8749999999999998
 40
1.0
 40
1.0
 40
1.0
 40
1.0
 10
54.49565156573117
 20
89.16589505890128
 30
0.0
 10
54.62511887868838
 20
89.1658950589013
 30
0.0
 10
54.75212962758499
 20
89.16054206030864
 30
0.0
 10
55.00149294878224
 20
89.13980408761985
 30
0.0
 10
55.12511660341068
 20
89.12413218336556
 30
0.0
 10
55.47414894034475
 20
89.06443745496347
 30
0.0
 10
55.68466070515152
 20
89.00667227528248
 30
0.0
 10
56.02857738285103
 20
88.872150434005
 30
0.0
 10
56.16492778436885
 20
88.7944813204996
 30
0.0
 10
56.30196584093139
 20
88.67519018641225
 30
0.0
 10
56.33718485964428
 20
88.6342711772772
 30
0.0
 10
56.38380843658283
 20
88.55361518398716
 30
0.0
 10
56.39565156573116
 20
88.5136466637943
 30
0.0
 10
56.39565156573116
 20
88.4740865862705
 30
0.0
  0
LINE
  5
DE
330
1F
100
AcDbEntity
  8
0
  6
HIDDEN
 62
     7
370
     0
100
AcDbLine
 10
42.9456515657
 20
89.1658950589
 30
0.0
 11
42.9456515657
 21
138.2393053745
 31
0.0
  0
LWPOLYLINE
  5
DF
330
1F
100
AcDbEntity
  8
0
  6
HIDDEN
 62
     7
370
     0
100
AcDbPolyline
 90
       13
 70
   128
 43
0.0
 10
100.1956515657
 20
153.64633078
 10
101.3487309194
 20
153.7011489743
 10
102.4396474667
 20
153.862648294
 10
103.4095896142
 20
154.1221222692
 10
104.2062675295
 20
154.4655825905
 10
104.7867321001
 20
154.8745132232
 10
105.1196903308
 20
155.3268686111
 10
105.1871923571
 20
155.798262158
 10
104.9855991273
 20
156.2632809158
 10
104.5257785847
 20
156.6968556031
 10
103.8325197736
 20
157.075612096
 10
102.9431964561
 20
157.3791315341
 10
102.6416700341
 20
157.453730596
  0
LWPOLYLINE
  5
E0
330
1F
100
AcDbEntity
  8
0
  6
HIDDEN
 62
     7
370
     0
100
AcDbPolyline
 90
       13
 70
   128
 43
0.0
 10
97.7371400594
 20
157.450870846
 10
97.4481066754
 20
157.3791315341
 10
96.5587833579
 20
157.075612096
 10
95.8655245468
 20
156.6968556031
 10
95.4057040042
 20
156.2632809158
 10
95.2041107744
 20
155.798262158
 10
95.2716128007
 20
155.3268686111
 10
95.6045710313
 20
154.8745132232
 10
96.185035602
 20
154.4655825905
 10
96.9817135173
 20
154.1221222692
 10
97.9516556647
 20
153.862648294
 10
99.042572212
 20
153.7011489743
 10
100.1956515657
 20
153.64633078
  0
SPLINE
  5
E1
330
1F
100
AcDbEntity
  8
0
  6
HIDDEN
 62
     7
370
     0
100
AcDbSpline
210
0.0
220
0.0
230
1.0
 70
     8
 71
     3
 72
    11
 73
     7
 74
     0
 42
0.00000001
 43
0.00000001
 40
0.0
 40
0.0
 40
0.0
 40
0.0
 40
0.1657198923044822
 40
0.5168908109438876
 40
0.8862897677935242
 40
1.0
 40
1.0
 40
1.0
 40
1.0
 10
251.1666087770132
 20
133.6796108099802
 30
0.0
 10
251.1584598429424
 20
133.7500232405381
 30
0.0
 10
251.1330428028902
 20
133.9696440586882
 30
0.0
 10
251.0540424667164
 20
134.21381083736
 30
0.0
 10
250.9965899392905
 20
134.3706232457818
 30
0.0
 10
251.0052221354977
 20
134.3475334146078
 30
0.0
 10
251.0072539102132
 20
134.3420987217394
 30
0.0
  0
SPLINE
  5
E2
330
1F
100
AcDbEntity
  8
0
  6
HIDDEN
 62
     7
370
     0
100
AcDbSpline
210
0.0
220
0.0
230
1.0
 70
     8
 71
     3
 72
    12
 73
     8
 74
     0
 42
0.00000001
 43
0.00000001
 40
0.0
 40
0.0
 40
0.0
 40
0.0
 40
0.1577787696422754
 40
0.4193129465133494
 40
0.6961234971026362
 40
0.9881441100122299
 40
1.0
 40
1.0
 40
1.0
 40
1.0
 10
251.0082537492335
 20
93.06564957109298
 30
0.0
 10
251.0072047045203
 20
93.0627639721693
 30
0.0
 10
251.0044167627035
 20
93.05509520285459
 30
0.0
 10
251.0698570640618
 20
93.23153719791263
 30
0.0
 10
251.1569435426277
 20
93.55818787340885
 30
0.0
 10
251.1951629188098
 20
93.88309936347581
 30
0.0
 10
251.1956332168247
 20
94.06562252409637
 30
0.0
 10
251.1956515657312
 20
94.07274375424055
 30
0.0
  0
LINE
  5
E3
330
1F
100
AcDbEntity
  8
0
  6
HIDDEN
 62
     7
370
     0
100
AcDbLine
 10
42.9456515657
 20
86.3326002167
 30
0.0
 11
42.9456515657
 21
81.4543150149
 31
0.0
  0
LINE
  5
E4
330
1F
100
AcDbEntity
  8
0
  6
HIDDEN
 62
     7
370
     0
100
AcDbLine
 10
56.3956515657
 20
86.3326002167
 30
0.0
 11
56.3956515657
 21
79.8332669513
 31
0.0
  0
LINE
  5
E5
330
1F
100
AcDbEntity
  8
0
  6
HIDDEN
 62
     7
370
     0
100
AcDbLine
 10
247.6956515657
 20
97.7026002167
 30
0.0
 11
247.6956515657
 21
129.7026002167
 31
0.0
  0
LINE
  5
E6
330
1F
100
AcDbEntity
  8
0
  6
HIDDEN
 62
     7
370
     0
100
AcDbLine
 10
51.3956515657
 20
141.0726002167
 30
0.0
 11
51.3956515657
 21
147.4472089537
 31
0.0
  0
LINE
  5
E7
330
1F
100
AcDbEntity
  8
0
  6
HIDDEN
 62
     7
370
     0
100
AcDbLine
 10
42.9456515657
 20
141.0726002167
 30
0.0
 11
42.9456515657
 21
145.9508854185
 31
0.0
  0
SPLINE
  5
E8
330
1F
100
AcDbEntity
  8
0
  6
HIDDEN
 62
     7
370
     0
100
AcDbSpline
210
0.0
220
0.0
230
1.0
 70
     8
 71
     3
 72
    17
 73
    13
 74
     0
 42
0.00000001
 43
0.00000001
 40
0.0
 40
0.0
 40
0.0
 40
0.0
 40
0.1052992287148272
 40
0.213666397824569
 40
0.3189615854481417
 40
0.427283143709024
 40
0.5330757867477783
 40
0.6419159875060165
 40
0.7480214449178937
 40
0.857233567720108
 40
0.9627975942021951
 40
0.9999999999999999
 40
0.9999999999999999
 40
0.9999999999999999
 40
0.9999999999999999
 10
192.1956515657312
 20
129.8794355066913
 30
0.0
 10
192.3060233409851
 20
129.8800949174732
 30
0.0
 10
192.5299826228128
 20
129.8814329512669
 30
0.0
 10
192.8549418640232
 20
129.8919063871554
 30
0.0
 10
193.1640141109216
 20
129.9074763853406
 30
0.0
 10
193.4434621616055
 20
129.926784020576
 30
0.0
 10
193.6905686292111
 20
129.9478420373227
 30
0.0
 10
193.8936905604972
 20
129.9679809806103
 30
0.0
 10
194.0515741067744
 20
129.9853856903385
 30
0.0
 10
194.1514421962465
 20
129.9971777519738
 30
0.0
 10
194.1978021644092
 20
130.002863070411
 30
0.0
 10
194.1908864127628
 20
130.0020168153181
 30
0.0
 10
194.1890842902678
 20
130.0017962962166
 30
0.0
  0
LINE
  5
E9
330
1F
100
AcDbEntity
  8
0
  6
HIDDEN
 62
     7
370
     0
100
AcDbLine
 10
192.3085774166
 20
129.8805857784
 30
0.0
 11
192.1537355046
 21
129.880017606
 31
0.0
  0
SPLINE
  5
EA
330
1F
100
AcDbEntity
  8
0
  6
HIDDEN
 62
     7
370
     0
100
AcDbSpline
210
0.0
220
0.0
230
1.0
 70
     8
 71
     3
 72
    16
 73
    12
 74
     0
 42
0.00000001
 43
0.00000001
 40
0.0
 40
0.0
 40
0.0
 40
0.0
 40
0.1044622792326734
 40
0.2126639352102231
 40
0.3177993759112462
 40
0.4259463090975637
 40
0.5317500136744223
 40
0.6406010249177514
 40
0.7467282500513441
 40
0.8559624356092034
 40
1.0
 40
1.0
 40
1.0
 40
1.0
 10
190.1958283942963
 20
130.0025786627616
 30
0.0
 10
190.2009679057198
 20
130.0019438214353
 30
0.0
 10
190.2114309047318
 20
130.0006514137291
 30
0.0
 10
190.2971069757614
 20
129.9903392705457
 30
0.0
 10
190.4329722642734
 20
129.9749310719365
 30
0.0
 10
190.6180361210349
 20
129.9557354728776
 30
0.0
 10
190.8494255128313
 20
129.9347241713946
 30
0.0
 10
191.1175233914297
 20
129.9144568331617
 30
0.0
 10
191.4193107158044
 20
129.8971467564021
 30
0.0
 10
191.7787505821026
 20
129.8828081243347
 30
0.0
 10
192.0445113832419
 20
129.8806581904126
 30
0.0
 10
192.1956515657312
 20
129.8794355066913
 30
0.0
  0
SPLINE
  5
EB
330
1F
100
AcDbEntity
  8
0
  6
HIDDEN
 62
     7
370
     0
100
AcDbSpline
210
0.0
220
0.0
230
1.0
 70
     8
 71
     3
 72
    26
 73
    22
 74
     0
 42
0.00000001
 43
0.00000001
 40
0.0
 40
0.0
 40
0.0
 40
0.0
 40
0.0526543393530241
 40
0.1068426278961183
 40
0.1594949930259922
 40
0.2136609142553613
 40
0.2665581303956717
 40
0.3209789987155675
 40
0.3740355131421471
 40
0.428645429812556
 40
0.4814313093174785
 40
0.5357650047597896
 40
0.5882722264324918
 40
0.6422949100920922
 40
0.6949500007165784
 40
0.7491122487192345
 40
0.8021101979865294
 40
0.8566433765508034
 40
0.9096466210780874
 40
0.9642062922071033
 40
1.0
 40
1.0
 40
1.0
 40
1.0
 10
194.1956515657312
 20
97.40260021668479
 30
0.0
 10
194.1903541114791
 20
97.40325454112472
 30
0.0
 10
194.179604875226
 20
97.4045822520697
 30
0.0
 10
194.0931569924111
 20
97.41498372586803
 30
0.0
 10
193.9564856275385
 20
97.43047244814393
 30
0.0
 10
193.7706159948581
 20
97.44972355464027
 30
0.0
 10
193.5385255280408
 20
97.4707637863001
 30
0.0
 10
193.2699546262577
 20
97.49097279611246
 30
0.0
 10
192.9678364986142
 20
97.50835373148028
 30
0.0
 10
192.6465109594686
 20
97.52060906329137
 30
0.0
 10
192.3097641559958
 20
97.52653862050042
 30
0.0
 10
191.9739729606374
 20
97.5254047610771
 30
0.0
 10
191.6421248081944
 20
97.51737410758479
 30
0.0
 10
191.3292006166448
 20
97.50352084506929
 30
0.0
 10
191.0377467525244
 20
97.48515353403144
 30
0.0
 10
190.7804883720659
 20
97.46456357931993
 30
0.0
 10
190.5606045326229
 20
97.44374026293274
 30
0.0
 10
190.3877944577115
 20
97.42527085371577
 30
0.0
 10
190.2670989675174
 20
97.411304413521
 30
0.0
 10
190.2019673893836
 20
97.40337792659295
 30
0.0
 10
190.2017166668466
 20
97.40334395634024
 30
0.0
 10
190.2016173425121
 20
97.40333049894313
 30
0.0
  0
LINE
  5
EC
330
1F
100
AcDbEntity
  8
0
  6
HIDDEN
 62
     7
370
     0
100
AcDbLine
 10
189.6956515657
 20
97.8026002167
 30
0.0
 11
189.6956515657
 21
129.6026002017
 31
0.0
  0
LINE
  5
ED
330
1F
100
AcDbEntity
  8
0
  6
HIDDEN
 62
     7
370
     0
100
AcDbLine
 10
200.1956515657
 20
97.7026002167
 30
0.0
 11
200.1956515657
 21
129.7026002167
 31
0.0
  0
LINE
  5
EE
330
1F
100
AcDbEntity
  8
0
  6
HIDDEN
 62
     7
370
     0
100
AcDbLine
 10
115.4956515657
 20
100.7026002167
 30
0.0
 11
115.4956515657
 21
126.7026002167
 31
0.0
  0
LINE
  5
EF
330
1F
100
AcDbEntity
  8
0
  6
HIDDEN
 62
     7
370
     0
100
AcDbLine
 10
119.4956515657
 20
100.7026002167
 30
0.0
 11
119.4956515657
 21
126.7026002167
 31
0.0
  0
LINE
  5
F0
330
1F
100
AcDbEntity
  8
0
  6
HIDDEN
 62
     7
370
     0
100
AcDbLine
 10
104.3956515657
 20
102.4526002167
 30
0.0
 11
104.3956515657
 21
124.9526002167
 31
0.0
  0
ELLIPSE
  5
F1
330
1F
100
AcDbEntity
  8
0
  6
HIDDEN
 62
     7
370
     0
100
AcDbEllipse
 10
35.0109783654
 20
113.7026002167
 30
0.0
 11
31.08108570811668
 21
1.421085471520200E-14
 31
0.0
210
0.0
220
0.0
230
1.0
 40
0.8164965809
 41
1.312649268214808
 42
1.367189972061492
  0
ELLIPSE
  5
F2
330
1F
100
AcDbEntity
  8
0
  6
HIDDEN
 62
     7
370
     0
100
AcDbEllipse
 10
35.0109783654
 20
113.7026002167
 30
0.0
 11
31.08108570811668
 21
-1.421085471520200E-14
 31
0.0
210
0.0
220
0.0
230
1.0
 40
0.8164965809
 41
4.915995335118104
 42
4.970536038964791
  0
LINE
  5
F3
330
1F
100
AcDbEntity
  8
0
  6
HIDDEN
 62
     7
370
     0
100
AcDbLine
 10
120.1456515657
 20
69.8026002167
 30
0.0
 11
106.1456515657
 21
69.8026002167
 31
0.0
  0
LINE
  5
F4
330
1F
100
AcDbEntity
  8
0
  6
HIDDEN
 62
     7
370
     0
100
AcDbLine
 10
96.1456515657
 20
63.7126012169
 30
0.0
 11
96.1456515657
 21
69.8026002167
 31
0.0
  0
LINE
  5
F5
330
1F
100
AcDbEntity
  8
0
  6
HIDDEN
 62
     7
370
     0
100
AcDbLine
 10
106.1456515657
 20
69.8026002167
 30
0.0
 11
96.1456515657
 21
69.8026002167
 31
0.0
  0
LINE
  5
F6
330
1F
100
AcDbEntity
  8
0
  6
HIDDEN
 62
     7
370
     0
100
AcDbLine
 10
56.3956515657
 20
86.3326002167
 30
0.0
 11
56.3956515657
 21
88.4740865863
 31
0.0
  0
LINE
  5
F7
330
1F
100
AcDbEntity
  8
0
  6
HIDDEN
 62
     7
370
     0
100
AcDbLine
 10
42.9456515657
 20
86.3326002167
 30
0.0
 11
42.9456515657
 21
89.1658950589
 31
0.0
  0
LINE
  5
F8
330
1F
100
AcDbEntity
  8
0
  6
HIDDEN
 62
     7
370
     0
100
AcDbLine
 10
42.9456515657
 20
141.0726002167
 30
0.0
 11
42.9456515657
 21
138.2393053745
 31
0.0
  0
LINE
  5
F9
330
1F
100
AcDbEntity
  8
0
  6
HIDDEN
 62
     7
370
     0
100
AcDbLine
 10
51.3956515657
 20
141.0726002167
 30
0.0
 11
51.3956515657
 21
138.9311138471
 31
0.0
  0
LINE
  5
FA
330
1F
100
AcDbEntity
  8
0
  6
HIDDEN
 62
     7
370
     0
100
AcDbLine
 10
120.1456515657
 20
157.6026002167
 30
0.0
 11
106.1456515657
 21
157.6026002167
 31
0.0
  0
LINE
  5
FB
330
1F
100
AcDbEntity
  8
0
  6
HIDDEN
 62
     7
370
     0
100
AcDbLine
 10
106.1456515657
 20
157.6026002167
 30
0.0
 11
96.1456515657
 21
157.6026002167
 31
0.0
  0
SPLINE
  5
FC
330
1F
100
AcDbEntity
  8
0
  6
HIDDEN
 62
     7
370
     0
100
AcDbSpline
210
0.0
220
0.0
230
1.0
 70
     8
 71
     3
 72
    30
 73
    26
 74
     0
 42
0.00000001
 43
0.00000001
 40
0.0
 40
0.0
 40
0.0
 40
0.0
 40
0.0531668117647992
 40
0.1125460504300769
 40
0.1779415872288428
 40
0.2129647284523646
 40
0.2495168718380132
 40
0.2912815942972323
 40
0.3261230058049036
 40
0.3540373940804315
 40
0.375022111955744
 40
0.4414779880172269
 40
0.500194007376936
 40
0.5547072432095365
 40
0.6144498376510392
 40
0.6794734252828568
 40
0.7140294954789096
 40
0.7499255040486896
 40
0.7913888946716073
 40
0.8260548998966698
 40
0.8539197360120796
 40
0.8749805509938748
 40
0.9411652366795193
 40
0.9999141591664827
 40
1.0
 40
1.0
 40
1.0
 40
1.0
 10
82.19522842887248
 20
76.60266322457073
 30
0.0
 10
82.17902689603179
 20
76.60756537756816
 30
0.0
 10
82.14473071629848
 20
76.61794248953235
 30
0.0
 10
81.84338409447109
 20
76.69360375899656
 30
0.0
 10
81.40121182491528
 20
76.78989089251627
 30
0.0
 10
80.9063796541827
 20
76.88955560215283
 30
0.0
 10
80.43590385364534
 20
76.98183377506022
 30
0.0
 10
79.90498246769046
 20
77.07746579995361
 30
0.0
 10
79.36683195641255
 20
77.16311604485648
 30
0.0
 10
78.90878462403143
 20
77.2304078374944
 30
0.0
 10
78.25322030275484
 20
77.31875600651996
 30
0.0
 10
77.36991386531439
 20
77.4154140906551
 30
0.0
 10
76.24125213248209
 20
77.50218926745872
 30
0.0
 10
75.1514903826969
 20
77.54026796519975
 30
0.0
 10
74.05546210423847
 20
77.54211839997181
 30
0.0
 10
73.15007085731287
 20
77.51595694437913
 30
0.0
 10
72.45376814693053
 20
77.47934971923584
 30
0.0
 10
71.92708841911045
 20
77.44033284377308
 30
0.0
 10
71.46044230453036
 20
77.39812371633207
 30
0.0
 10
71.08922702895393
 20
77.3611196267902
 30
0.0
 10
70.83518055127452
 20
77.33241886632067
 30
0.0
 10
70.53412539817153
 20
77.2960389156981
 30
0.0
 10
70.27864160318734
 20
77.2632587486691
 30
0.0
 10
70.1794208782246
 20
77.24692086397272
 30
0.0
 10
70.19570143551176
 20
77.24951445014494
 30
0.0
 10
70.19572518909773
 20
77.24951823422745
 30
0.0
  0
SPLINE
  5
FD
330
1F
100
AcDbEntity
  8
0
  6
HIDDEN
 62
     7
370
     0
100
AcDbSpline
210
0.0
220
0.0
230
1.0
 70
     8
 71
     3
 72
    30
 73
    26
 74
     0
 42
0.00000001
 43
0.00000001
 40
0.0
 40
0.0
 40
0.0
 40
0.0
 40
0.0001123288057692
 40
0.0285431152706638
 40
0.0588466796121224
 40
0.0910271964548352
 40
0.1250880910051814
 40
0.1546766141816535
 40
0.1963554560804497
 40
0.2501101496293133
 40
0.3205253872349852
 40
0.385610430020096
 40
0.4454038608858225
 40
0.4999571692318041
 40
0.5283494388476924
 40
0.5586340270243796
 40
0.5908185964963244
 40
0.624909471458329
 40
0.654184457524067
 40
0.6958630078023593
 40
0.7499307292180755
 40
0.8215905285811296
 40
0.8871422909871766
 40
0.9466378748984584
 40
1.0
 40
1.0
 40
1.0
 40
1.0
 10
70.19574689783103
 20
150.1556119257131
 30
0.0
 10
70.1957150380729
 20
150.1556188728394
 30
0.0
 10
70.18761936980081
 20
150.1573841602324
 30
0.0
 10
70.2162808474758
 20
150.1519292415067
 30
0.0
 10
70.2896676936428
 20
150.1413863941611
 30
0.0
 10
70.43332423719642
 20
150.1217011865086
 30
0.0
 10
70.6343599372123
 20
150.0968619226405
 30
0.0
 10
70.91699048658626
 20
150.062653457494
 30
0.0
 10
71.33039961222867
 20
150.0189735607351
 30
0.0
 10
72.00668711330252
 20
149.9559304932095
 30
0.0
 10
72.9451180140328
 20
149.8946333227822
 30
0.0
 10
74.0546112275011
 20
149.8633448792809
 30
0.0
 10
75.15209195820795
 20
149.8650000468797
 30
0.0
 10
76.05212319667409
 20
149.8963062489779
 30
0.0
 10
76.76346412251891
 20
149.9431393977804
 30
0.0
 10
77.32888102348954
 20
149.9903062596753
 30
0.0
 10
77.91780444634009
 20
150.0497452662284
 30
0.0
 10
78.48221409848361
 20
150.1161024727873
 30
0.0
 10
79.07641029211332
 20
150.1980218791813
 30
0.0
 10
79.74301845316185
 20
150.2996698619337
 30
0.0
 10
80.54435119928831
 20
150.4418087725771
 30
0.0
 10
81.29686118408335
 20
150.5930533433835
 30
0.0
 10
81.84214767903448
 20
150.7109042166462
 30
0.0
 10
82.14486921046424
 20
150.7871334483974
 30
0.0
 10
82.17915966106514
 20
150.7975857578899
 30
0.0
 10
82.19537309770816
 20
150.8025278876887
 30
0.0
  0
LINE
  5
FE
330
1F
100
AcDbEntity
  8
0
  6
HIDDEN
 62
     7
370
     0
100
AcDbLine
 10
169.3952212562
 20
107.7026002167
 30
0.0
 11
169.3952212562
 21
119.7026002167
 31
0.0
  0
LINE
  5
FF
330
1F
100
AcDbEntity
  8
0
  6
HIDDEN
 62
     7
370
     0
100
AcDbLine
 10
169.6956515657
 20
108.2026002167
 30
0.0
 11
169.6956515657
 21
119.2026002167
 31
0.0
  0
LINE
  5
100
330
1F
100
AcDbEntity
  8
0
  6
HIDDEN
 62
     7
370
     0
100
AcDbLine
 10
162.6456515657
 20
86.2799504859
 30
0.0
 11
157.6456515657
 21
86.2799504859
 31
0.0
  0
LINE
  5
101
330
1F
100
AcDbEntity
  8
0
  6
HIDDEN
 62
     7
370
     0
100
AcDbLine
 10
160.1456515657
 20
141.1252499475
 30
0.0
 11
162.6456515657
 21
141.1252499475
 31
0.0
  0
LINE
  5
102
330
1F
100
AcDbEntity
  8
0
  6
HIDDEN
 62
     7
370
     0
100
AcDbLine
 10
157.6456515657
 20
141.1252499475
 30
0.0
 11
160.1456515657
 21
141.1252499475
 31
0.0
  0
LINE
  5
103
330
1F
100
AcDbEntity
  8
0
  6
HIDDEN
 62
     7
370
     0
100
AcDbLine
 10
160.1456515657
 20
127.7026002167
 30
0.0
 11
162.6456515657
 21
127.7026002167
 31
0.0
  0
LINE
  5
104
330
1F
100
AcDbEntity
  8
0
  6
HIDDEN
 62
     7
370
     0
100
AcDbLine
 10
157.6456515657
 20
127.7026002167
 30
0.0
 11
160.1456515657
 21
127.7026002167
 31
0.0
  0
LINE
  5
105
330
1F
100
AcDbEntity
  8
0
  6
HIDDEN
 62
     7
370
     0
100
AcDbLine
 10
162.6456515657
 20
99.7026002167
 30
0.0
 11
157.6456515657
 21
99.7026002167
 31
0.0
  0
LINE
  5
106
330
1F
100
AcDbEntity
  8
0
  6
HIDDEN
 62
     7
370
     0
100
AcDbLine
 10
192.1956515657
 20
90.2026002167
 30
0.0
 11
194.1956515657
 21
90.2026002167
 31
0.0
  0
LINE
  5
107
330
1F
100
AcDbEntity
  8
0
  6
HIDDEN
 62
     7
370
     0
100
AcDbLine
 10
190.1956515657
 20
90.2026002167
 30
0.0
 11
192.1956515657
 21
90.2026002167
 31
0.0
  0
SPLINE
  5
108
330
1F
100
AcDbEntity
  8
0
  6
HIDDEN
 62
     7
370
     0
100
AcDbSpline
210
0.0
220
0.0
230
1.0
 70
     8
 71
     3
 72
    17
 73
    13
 74
     0
 42
0.00000001
 43
0.00000001
 40
0.0
 40
0.0
 40
0.0
 40
0.0
 40
0.1268615981022002
 40
0.2528550143243365
 40
0.3539120696924166
 40
0.4252042758082433
 40
0.4968610997171151
 40
0.5879323887452381
 40
0.7252620515355902
 40
0.8645724338895981
 40
0.960191008643581
 40
1.0
 40
1.0
 40
1.0
 40
1.0
 10
190.3023142719615
 20
90.78996691733477
 30
0.0
 10
190.3758316868949
 20
90.88561497301303
 30
0.0
 10
190.5223633977053
 20
91.0762565134825
 30
0.0
 10
190.8019348650538
 20
91.49043056119757
 30
0.0
 10
191.0029148861672
 20
91.90120349169065
 30
0.0
 10
191.083047767315
 20
92.29031329527443
 30
0.0
 10
191.0374843071371
 20
92.67250653418476
 30
0.0
 10
190.8469880789063
 20
93.10163072078176
 30
0.0
 10
190.5492129120946
 20
93.52792970532433
 30
0.0
 10
190.3058371498506
 20
93.82763588813987
 30
0.0
 10
190.1948845181838
 20
93.9580895352237
 30
0.0
 10
190.2055756855175
 20
93.94550975034122
 30
0.0
 10
190.2087183587576
 20
93.94181191715971
 30
0.0
  0
SPLINE
  5
109
330
1F
100
AcDbEntity
  8
0
  6
HIDDEN
 62
     7
370
     0
100
AcDbSpline
210
0.0
220
0.0
230
1.0
 70
     8
 71
     3
 72
     9
 73
     5
 74
     0
 42
0.00000001
 43
0.00000001
 40
0.0
 40
0.0
 40
0.0
 40
0.0
 40
0.7736190411994545
 40
1.0
 40
1.0
 40
1.0
 40
1.0
 10
190.2069049546515
 20
90.82602355890127
 30
0.0
 10
190.2128135368453
 20
90.8262316433702
 30
0.0
 10
190.2204511231495
 20
90.82650061874165
 30
0.0
 10
190.2872029332005
 20
90.79671077151295
 30
0.0
 10
190.3023142719615
 20
90.78996691733481
 30
0.0
  0
SPLINE
  5
10A
330
1F
100
AcDbEntity
  8
0
  6
HIDDEN
 62
     7
370
     0
100
AcDbSpline
210
0.0
220
0.0
230
1.0
 70
     8
 71
     3
 72
    23
 73
    19
 74
     0
 42
0.00000001
 43
0.00000001
 40
0.0
 40
0.0
 40
0.0
 40
0.0
 40
0.0240524462865369
 40
0.1010685105252685
 40
0.1814349098471816
 40
0.2408293312866978
 40
0.3019282804491115
 40
0.3624140699806407
 40
0.4247465756215357
 40
0.4877183824062717
 40
0.5510969197512645
 40
0.6273903693682483
 40
0.6853741378172373
 40
0.7449714244635506
 40
0.8043351378616458
 40
0.8656930847325032
 40
0.9512905095582421
 40
0.9999999999999999
 40
0.9999999999999999
 40
0.9999999999999999
 40
0.9999999999999999
 10
194.1844243329043
 20
94.10024124542804
 30
0.0
 10
194.187750927511
 20
94.10441951524491
 30
0.0
 10
194.2017292961981
 20
94.12197662781185
 30
0.0
 10
194.1265613835081
 20
94.02780949989788
 30
0.0
 10
193.995747202429
 20
93.85910971093766
 30
0.0
 10
193.8371024601941
 20
93.64293127765933
 30
0.0
 10
193.6835058169235
 20
93.41670700971085
 30
0.0
 10
193.5285847453379
 20
93.15574617508513
 30
0.0
 10
193.3924225753956
 20
92.85983764402283
 30
0.0
 10
193.3110060029386
 20
92.52081161534322
 30
0.0
 10
193.3418036084229
 20
92.14087320112023
 30
0.0
 10
193.4771977604902
 20
91.8111360646347
 30
0.0
 10
193.6412993421037
 20
91.53269167390526
 30
0.0
 10
193.7967542173018
 20
91.3091859062949
 30
0.0
 10
193.9457899026807
 20
91.11431027333009
 30
0.0
 10
194.0893484245209
 20
90.93717358030129
 30
0.0
 10
194.1820396459771
 20
90.8277543233029
 30
0.0
 10
194.1920287775304
 20
90.81603964349624
 30
0.0
 10
194.1956515657312
 20
90.81179104555224
 30
0.0
  0
SPLINE
  5
10B
330
1F
100
AcDbEntity
  8
0
  6
HIDDEN
 62
     7
370
     0
100
AcDbSpline
210
0.0
220
0.0
230
1.0
 70
     8
 71
     3
 72
    22
 73
    18
 74
     0
 42
0.00000001
 43
0.00000001
 40
0.0
 40
0.0
 40
0.0
 40
0.0
 40
0.0861913641740255
 40
0.1720420202212211
 40
0.2289735059417675
 40
0.287546652518727
 40
0.3453290526399218
 40
0.4048133674200122
 40
0.4684678219588161
 40
0.5325693275141947
 40
0.6079878209253626
 40
0.6673378599164312
 40
0.7283099624511442
 40
0.7898092354370767
 40
0.8533073155353699
 40
0.938477137422975
 40
1.0
 40
1.0
 40
1.0
 40
1.0
 10
194.1956515657312
 20
136.5934093878173
 30
0.0
 10
194.1843589633114
 20
136.5802396133904
 30
0.0
 10
194.1618183972991
 20
136.5539521236869
 30
0.0
 10
194.0179836191259
 20
136.3815863103683
 30
0.0
 10
193.8617982085393
 20
136.1826171191715
 30
0.0
 10
193.7119268091013
 20
135.9773076789392
 30
0.0
 10
193.5585015198359
 20
135.7389066224098
 30
0.0
 10
193.4160462013934
 20
135.4609225120033
 30
0.0
 10
193.3178000061049
 20
135.13197724063
 30
0.0
 10
193.3274906627208
 20
134.7493240438451
 30
0.0
 10
193.4484385115696
 20
134.4080698671781
 30
0.0
 10
193.6053129423454
 20
134.1145697246428
 30
0.0
 10
193.7608833134196
 20
133.8716536744609
 30
0.0
 10
193.9149015451753
 20
133.6546606918938
 30
0.0
 10
194.0643294921626
 20
133.4566301945753
 30
0.0
 10
194.1802267608939
 20
133.3101031859312
 30
0.0
 10
194.1831840477785
 20
133.3064791199827
 30
0.0
 10
194.1844243329043
 20
133.3049591879416
 30
0.0
  0
SPLINE
  5
10C
330
1F
100
AcDbEntity
  8
0
  6
HIDDEN
 62
     7
370
     0
100
AcDbSpline
210
0.0
220
0.0
230
1.0
 70
     8
 71
     3
 72
    18
 73
    14
 74
     0
 42
0.00000001
 43
0.00000001
 40
0.0
 40
0.0
 40
0.0
 40
0.0
 40
0.0560460744485949
 40
0.146672627004141
 40
0.2452520936567198
 40
0.3634246023171054
 40
0.4706538860498666
 40
0.5422543574743639
 40
0.6142598826569969
 40
0.7041844142158677
 40
0.84567449510872
 40
0.9698941630659177
 40
1.0
 40
1.0
 40
1.0
 40
1.0
 10
190.2087183587576
 20
133.4633885162099
 30
0.0
 10
190.2071942151184
 20
133.4615830489598
 30
0.0
 10
190.2032055298504
 20
133.45685813955
 30
0.0
 10
190.3098511704503
 20
133.5827731472411
 30
0.0
 10
190.5023116122546
 20
133.8204333323784
 30
0.0
 10
190.7565326395852
 20
134.1674364149646
 30
0.0
 10
190.9756039270558
 20
134.5601741353152
 30
0.0
 10
191.0785678378839
 20
134.9526191702348
 30
0.0
 10
191.0541428426329
 20
135.337178791187
 30
0.0
 10
190.8801731809661
 20
135.7857323242581
 30
0.0
 10
190.6030536677943
 20
136.2167911107036
 30
0.0
 10
190.3954499711053
 20
136.4949663376446
 30
0.0
 10
190.317517372169
 20
136.5956015813252
 30
0.0
 10
190.3023142719615
 20
136.6152335160349
 30
0.0
  0
SPLINE
  5
10D
330
1F
100
AcDbEntity
  8
0
  6
HIDDEN
 62
     7
370
     0
100
AcDbSpline
210
0.0
220
0.0
230
1.0
 70
     8
 71
     3
 72
     9
 73
     5
 74
     0
 42
0.00000001
 43
0.00000001
 40
0.0
 40
0.0
 40
0.0
 40
0.0
 40
0.864805028998761
 40
1.0
 40
1.0
 40
1.0
 40
1.0
 10
190.3023142719615
 20
136.6152335160348
 30
0.0
 10
190.2437950682877
 20
136.5937782308823
 30
0.0
 10
190.1761275574482
 20
136.5689688409816
 30
0.0
 10
190.2032395496517
 20
136.5779611583786
 30
0.0
 10
190.2069049546515
 20
136.5791768744683
 30
0.0
  0
LINE
  5
10E
330
1F
100
AcDbEntity
  8
0
  6
HIDDEN
 62
     7
370
     0
100
AcDbLine
 10
192.1956515657
 20
137.4026002167
 30
0.0
 11
190.1956515657
 21
137.4026002167
 31
0.0
  0
LINE
  5
10F
330
1F
100
AcDbEntity
  8
0
  6
HIDDEN
 62
     7
370
     0
100
AcDbLine
 10
194.1956515657
 20
137.4026002167
 30
0.0
 11
192.1956515657
 21
137.4026002167
 31
0.0
  0
LINE
  5
110
330
1F
100
AcDbEntity
  8
0
  6
HIDDEN
 62
     7
370
     0
100
AcDbLine
 10
190.302314272
 20
90.7899669173
 30
0.0
 11
190.1793355663
 21
93.9199839882
 31
0.0
  0
LINE
  5
111
330
1F
100
AcDbEntity
  8
0
  6
HIDDEN
 62
     7
370
     0
100
AcDbLine
 10
190.302314272
 20
136.615233516
 30
0.0
 11
190.177901659
 21
133.4487210682
 31
0.0
  0
LWPOLYLINE
  5
112
330
1F
100
AcDbEntity
  8
0
  6
HIDDEN
 62
     7
370
     0
100
AcDbPolyline
 90
       28
 70
   128
 43
0.0
 10
100.1956515657
 20
159.0153060685
 10
101.3487309194
 20
158.9736581031
 10
102.4396474667
 20
158.8509594595
 10
103.4095896142
 20
158.6538248534
 10
104.2062675295
 20
158.3928818625
 10
104.7867321001
 20
158.0821979908
 10
105.1196903308
 20
157.7385222863
 10
105.1871923571
 20
157.3803823952
 10
104.9855991273
 20
157.0270857318
 10
104.5257785847
 20
156.6976786107
 10
103.8325197736
 20
156.4099194548
 10
102.9431964561
 20
156.179321435
 10
101.9057522824
 20
156.01831615
 10
100.7761161364
 20
155.9355834366
 10
99.6151869951
 20
155.9355834366
 10
98.4855508491
 20
156.01831615
 10
97.4481066754
 20
156.179321435
 10
96.5587833579
 20
156.4099194548
 10
95.8655245468
 20
156.6976786107
 10
95.4057040042
 20
157.0270857318
 10
95.2041107744
 20
157.3803823952
 10
95.2716128007
 20
157.7385222863
 10
95.6045710313
 20
158.0821979908
 10
96.185035602
 20
158.3928818625
 10
96.9817135173
 20
158.6538248534
 10
97.9516556647
 20
158.8509594595
 10
99.042572212
 20
158.9736581031
 10
100.1956515657
 20
159.0153060685
  0
LINE
  5
113
330
1F
100
AcDbEntity
  8
0
  6
HIDDEN
 62
     7
370
     0
100
AcDbLine
 10
114.4576805867
 20
152.6535629776
 30
0.0
 11
114.4576805867
 21
145.0526002167
 31
0.0
  0
LINE
  5
114
330
1F
100
AcDbEntity
  8
0
  6
HIDDEN
 62
     7
370
     0
100
AcDbLine
 10
113.1056515657
 20
148.4168354092
 30
0.0
 11
113.1056515657
 21
145.0526002167
 31
0.0
  0
LINE
  5
115
330
1F
100
AcDbEntity
  8
0
  6
HIDDEN
 62
     7
370
     0
100
AcDbLine
 10
109.2856515657
 20
148.4168354092
 30
0.0
 11
109.2856515657
 21
145.0526002167
 31
0.0
  0
CIRCLE
  5
116
330
1F
100
AcDbEntity
  8
0
  6
HIDDEN
 62
     7
370
     0
100
AcDbCircle
 10
98.1956515657
 20
113.7026002167
 30
0.0
 40
5.000000000000014
  0
LINE
  5
117
330
1F
100
AcDbEntity
  8
0
  6
HIDDEN
 62
     7
370
     0
100
AcDbLine
 10
251.1717030781
 20
96.3129014874
 30
0.0
 11
251.1956515657
 21
95.7033717753
 31
0.0
  0
LINE
  5
118
330
1F
100
AcDbEntity
  8
0
  6
HIDDEN
 62
     7
370
     0
100
AcDbLine
 10
250.9313987403
 20
96.6937608121
 30
0.0
 11
251.0660414432
 21
93.2668751873
 31
0.0
  0
LINE
  5
119
330
1F
100
AcDbEntity
  8
0
  6
HIDDEN
 62
     7
370
     0
100
AcDbLine
 10
243.9119812372
 20
96.4179671473
 30
0.0
 11
244.0690205003
 21
92.4210510023
 31
0.0
  0
LINE
  5
11A
330
1F
100
AcDbEntity
  8
0
  6
HIDDEN
 62
     7
370
     0
100
AcDbLine
 10
243.1920043219
 20
95.6391005083
 30
0.0
 11
243.2901538613
 21
93.1410279177
 31
0.0
  0
LINE
  5
11B
330
1F
100
AcDbEntity
  8
0
  6
HIDDEN
 62
     7
370
     0
100
AcDbLine
 10
248.7760986066
 20
93.6067641634
 30
0.0
 11
248.7368387909
 21
94.6059931996
 31
0.0
  0
LINE
  5
11C
330
1F
100
AcDbEntity
  8
0
  6
HIDDEN
 62
     7
370
     0
100
AcDbLine
 10
248.6975789751
 20
95.6052222359
 30
0.0
 11
248.7368387909
 21
94.6059931996
 31
0.0
  0
LINE
  5
11D
330
1F
100
AcDbEntity
  8
0
  6
HIDDEN
 62
     7
370
     0
100
AcDbLine
 10
248.7368387909
 20
94.6059931996
 30
0.0
 11
251.2349113815
 21
94.704142739
 31
0.0
  0
LINE
  5
11E
330
1F
100
AcDbEntity
  8
0
  6
HIDDEN
 62
     7
370
     0
100
AcDbLine
 10
248.6975789751
 20
95.6052222359
 30
0.0
 11
251.1956515657
 21
95.7033717753
 31
0.0
  0
LINE
  5
11F
330
1F
100
AcDbEntity
  8
0
  6
HIDDEN
 62
     7
370
     0
100
AcDbLine
 10
248.7760986066
 20
93.6067641634
 30
0.0
 11
251.2741711972
 21
93.7049137028
 31
0.0
  0
LINE
  5
120
330
1F
100
AcDbEntity
  8
0
  6
HIDDEN
 62
     7
370
     0
100
AcDbLine
 10
250.9953064231
 20
134.3395418812
 30
0.0
 11
250.8528791088
 21
130.714524666
 31
0.0
  0
LINE
  5
121
330
1F
100
AcDbEntity
  8
0
  6
HIDDEN
 62
     7
370
     0
100
AcDbLine
 10
243.9905008687
 20
134.9872344758
 30
0.0
 11
243.8334616057
 21
130.9903183308
 31
0.0
  0
LINE
  5
122
330
1F
100
AcDbEntity
  8
0
  6
HIDDEN
 62
     7
370
     0
100
AcDbLine
 10
251.188868568
 20
133.5307329557
 30
0.0
 11
251.0931834466
 21
131.0953839907
 31
0.0
  0
LINE
  5
123
330
1F
100
AcDbEntity
  8
0
  6
HIDDEN
 62
     7
370
     0
100
AcDbLine
 10
243.2116342297
 20
134.2672575604
 30
0.0
 11
243.1134846903
 21
131.7691849698
 31
0.0
  0
LINE
  5
124
330
1F
100
AcDbEntity
  8
0
  6
HIDDEN
 62
     7
370
     0
100
AcDbLine
 10
248.6975789751
 20
133.8015213147
 30
0.0
 11
248.6583191594
 21
132.8022922784
 31
0.0
  0
LINE
  5
125
330
1F
100
AcDbEntity
  8
0
  6
HIDDEN
 62
     7
370
     0
100
AcDbLine
 10
248.6583191594
 20
132.8022922784
 30
0.0
 11
251.15639175
 21
132.704142739
 31
0.0
  0
LINE
  5
126
330
1F
100
AcDbEntity
  8
0
  6
HIDDEN
 62
     7
370
     0
100
AcDbLine
 10
248.6190593436
 20
131.8030632422
 30
0.0
 11
248.6583191594
 21
132.8022922784
 31
0.0
  0
LINE
  5
127
330
1F
100
AcDbEntity
  8
0
  6
HIDDEN
 62
     7
370
     0
100
AcDbLine
 10
248.6975789751
 20
133.8015213147
 30
0.0
 11
251.1956515657
 21
133.7033717753
 31
0.0
  0
LINE
  5
128
330
1F
100
AcDbEntity
  8
0
  6
HIDDEN
 62
     7
370
     0
100
AcDbLine
 10
248.6190593436
 20
131.8030632422
 30
0.0
 11
251.1171319342
 21
131.7049137028
 31
0.0
  0
LINE
  5
129
330
1F
100
AcDbEntity
  8
0
  6
HIDDEN
 62
     7
370
     0
100
AcDbLine
 10
189.1956515657
 20
107.7026002167
 30
0.0
 11
189.1956515657
 21
119.7026002167
 31
0.0
  0
LINE
  5
12A
330
1F
100
AcDbEntity
  8
0
  6
HIDDEN
 62
     7
370
     0
100
AcDbLine
 10
174.1956515657
 20
107.7026002167
 30
0.0
 11
174.1956515657
 21
119.7026002167
 31
0.0
  0
LINE
  5
12B
330
1F
100
AcDbEntity
  8
0
  6
HIDDEN
 62
     7
370
     0
100
AcDbLine
 10
173.6956515657
 20
108.2026002167
 30
0.0
 11
173.6956515657
 21
119.2026002167
 31
0.0
  0
LINE
  5
12C
330
1F
100
AcDbEntity
  8
0
  6
HIDDEN
 62
     7
370
     0
100
AcDbLine
 10
193.6956515657
 20
112.2026002167
 30
0.0
 11
191.6956515657
 21
112.2026002167
 31
0.0
  0
LINE
  5
12D
330
1F
100
AcDbEntity
  8
0
  6
HIDDEN
 62
     7
370
     0
100
AcDbLine
 10
193.6956515657
 20
108.2026002167
 30
0.0
 11
193.6956515657
 21
112.2026002167
 31
0.0
  0
LINE
  5
12E
330
1F
100
AcDbEntity
  8
0
  6
HIDDEN
 62
     7
370
     0
100
AcDbLine
 10
193.6956515657
 20
115.2026002167
 30
0.0
 11
193.6956515657
 21
119.2026002167
 31
0.0
  0
LINE
  5
12F
330
1F
100
AcDbEntity
  8
0
  6
HIDDEN
 62
     7
370
     0
100
AcDbLine
 10
191.6956515657
 20
115.2026002167
 30
0.0
 11
193.6956515657
 21
115.2026002167
 31
0.0
  0
LINE
  5
130
330
1F
100
AcDbEntity
  8
0
  6
HIDDEN
 62
     7
370
     0
100
AcDbLine
 10
191.6956515657
 20
112.2026002167
 30
0.0
 11
191.6956515657
 21
115.2026002167
 31
0.0
  0
LINE
  5
131
330
1F
100
AcDbEntity
  8
0
  6
HIDDEN
 62
     7
370
     0
100
AcDbLine
 10
186.6956515657
 20
113.7026002167
 30
0.0
 11
186.6956515657
 21
112.2026002167
 31
0.0
  0
LINE
  5
132
330
1F
100
AcDbEntity
  8
0
  6
HIDDEN
 62
     7
370
     0
100
AcDbLine
 10
186.6956515657
 20
113.7026002167
 30
0.0
 11
191.6956515657
 21
113.7026002167
 31
0.0
  0
LINE
  5
133
330
1F
100
AcDbEntity
  8
0
  6
HIDDEN
 62
     7
370
     0
100
AcDbLine
 10
186.6956515657
 20
115.2026002167
 30
0.0
 11
186.6956515657
 21
113.7026002167
 31
0.0
  0
LINE
  5
134
330
1F
100
AcDbEntity
  8
0
  6
HIDDEN
 62
     7
370
     0
100
AcDbLine
 10
180.6956515657
 20
112.2026002167
 30
0.0
 11
180.6956515657
 21
113.7026002167
 31
0.0
  0
LINE
  5
135
330
1F
100
AcDbEntity
  8
0
  6
HIDDEN
 62
     7
370
     0
100
AcDbLine
 10
180.6956515657
 20
113.7026002167
 30
0.0
 11
173.6956515657
 21
113.7026002167
 31
0.0
  0
LINE
  5
136
330
1F
100
AcDbEntity
  8
0
  6
HIDDEN
 62
     7
370
     0
100
AcDbLine
 10
180.6956515657
 20
113.7026002167
 30
0.0
 11
180.6956515657
 21
115.2026002167
 31
0.0
  0
LINE
  5
137
330
1F
100
AcDbEntity
  8
0
  6
HIDDEN
 62
     7
370
     0
100
AcDbLine
 10
186.6956515657
 20
116.7026002167
 30
0.0
 11
186.6956515657
 21
115.2026002167
 31
0.0
  0
LINE
  5
138
330
1F
100
AcDbEntity
  8
0
  6
HIDDEN
 62
     7
370
     0
100
AcDbLine
 10
180.6956515657
 20
115.2026002167
 30
0.0
 11
180.6956515657
 21
116.7026002167
 31
0.0
  0
LINE
  5
139
330
1F
100
AcDbEntity
  8
0
  6
HIDDEN
 62
     7
370
     0
100
AcDbLine
 10
186.6956515657
 20
112.2026002167
 30
0.0
 11
186.6956515657
 21
110.7026002167
 31
0.0
  0
LINE
  5
13A
330
1F
100
AcDbEntity
  8
0
  6
HIDDEN
 62
     7
370
     0
100
AcDbLine
 10
180.6956515657
 20
110.7026002167
 30
0.0
 11
180.6956515657
 21
112.2026002167
 31
0.0
  0
LINE
  5
13B
330
1F
100
AcDbEntity
  8
0
  6
HIDDEN
 62
     7
370
     0
100
AcDbLine
 10
180.6956515657
 20
110.7026002167
 30
0.0
 11
173.6956515657
 21
110.7026002167
 31
0.0
  0
LINE
  5
13C
330
1F
100
AcDbEntity
  8
0
  6
HIDDEN
 62
     7
370
     0
100
AcDbLine
 10
180.6956515657
 20
116.7026002167
 30
0.0
 11
173.6956515657
 21
116.7026002167
 31
0.0
  0
LINE
  5
13D
330
1F
100
AcDbEntity
  8
0
  6
HIDDEN
 62
     7
370
     0
100
AcDbLine
 10
186.6956515657
 20
116.7026002167
 30
0.0
 11
193.6956515657
 21
116.7026002167
 31
0.0
  0
LINE
  5
13E
330
1F
100
AcDbEntity
  8
0
  6
HIDDEN
 62
     7
370
     0
100
AcDbLine
 10
186.6956515657
 20
110.7026002167
 30
0.0
 11
193.6956515657
 21
110.7026002167
 31
0.0
  0
LINE
  5
13F
330
1F
100
AcDbEntity
  8
0
  6
HIDDEN
 62
     7
370
     0
100
AcDbLine
 10
91.1956515657
 20
74.2979172601
 30
0.0
 11
91.2852531897
 21
74.935465942
 31
0.0
  0
LINE
  5
140
330
1F
100
AcDbEntity
  8
0
  6
HIDDEN
 62
     7
370
     0
100
AcDbLine
 10
91.2852531897
 20
152.4697344913
 30
0.0
 11
91.1956515657
 21
153.1072831733
 31
0.0
  0
ARC
  5
141
330
1F
100
AcDbEntity
  8
0
  6
HIDDEN
 62
     7
370
     0
100
AcDbCircle
 10
90.2987146473
 20
75.0741148922
 30
0.0
 40
0.996233821438679
100
AcDbArc
 50
352.0
 51
0.0
  0
ARC
  5
142
330
1F
100
AcDbEntity
  8
0
  6
HIDDEN
 62
     7
370
     0
100
AcDbCircle
 10
90.2987146473
 20
75.0741148922
 30
0.0
 40
0.996233821438679
100
AcDbArc
 50
0.0
 51
25.7988228126
  0
ARC
  5
143
330
1F
100
AcDbEntity
  8
0
  6
HIDDEN
 62
     7
370
     0
100
AcDbCircle
 10
90.2987146473
 20
152.3310855411
 30
0.0
 40
0.9962338214386854
100
AcDbArc
 50
348.75
 51
8.0
  0
LWPOLYLINE
  5
144
330
1F
100
AcDbEntity
  8
0
  6
HIDDEN
 62
     7
370
     0
100
AcDbPolyline
 90
        3
 70
   128
 43
0.0
 10
91.2758061152
 20
152.1367299641
 10
91.2191146845
 20
151.9498433629
 10
91.1956515657
 20
151.897512028
  0
LINE
  5
145
330
1F
100
AcDbEntity
  8
0
  6
HIDDEN
 62
     7
370
     0
100
AcDbLine
 10
91.2949484687
 20
75.0741148922
 30
0.0
 11
91.2949484687
 21
152.3310855411
 31
0.0
  0
LINE
  5
146
330
1F
100
AcDbEntity
  8
0
  6
HIDDEN
 62
     7
370
     0
100
AcDbLine
 10
64.6563775079
 20
82.2026002167
 30
0.0
 11
70.2008219397
 21
82.2026002167
 31
0.0
  0
LINE
  5
147
330
1F
100
AcDbEntity
  8
0
  6
HIDDEN
 62
     7
370
     0
100
AcDbLine
 10
70.2008219397
 20
145.2026002167
 30
0.0
 11
64.6563775079
 21
145.2026002167
 31
0.0
  0
ARC
  5
148
330
1F
100
AcDbEntity
  8
0
  6
HIDDEN
 62
     7
370
     0
100
AcDbCircle
 10
64.6563775079
 20
83.2026002167
 30
0.0
 40
1.0
100
AcDbArc
 50
210.0
 51
270.0
  0
ARC
  5
149
330
1F
100
AcDbEntity
  8
0
  6
HIDDEN
 62
     7
370
     0
100
AcDbCircle
 10
64.6563775079
 20
144.2026002167
 30
0.0
 40
1.0
100
AcDbArc
 50
90.0
 51
150.0
  0
ARC
  5
14A
330
1F
100
AcDbEntity
  8
0
  6
HIDDEN
 62
     7
370
     0
100
AcDbCircle
 10
81.4488572209
 20
94.2026002167
 30
0.0
 40
11.99999999999999
100
AcDbArc
 50
273.4752647186
 51
324.3146652873
  0
ARC
  5
14B
330
1F
100
AcDbEntity
  8
0
  6
HIDDEN
 62
     7
370
     0
100
AcDbCircle
 10
81.4488572209
 20
133.2026002167
 30
0.0
 40
12.00000000000001
100
AcDbArc
 50
35.6853347127
 51
86.5206520826
  0
LINE
  5
14C
330
1F
100
AcDbEntity
  8
0
  6
HIDDEN
 62
     7
370
     0
100
AcDbLine
 10
63.7903521041
 20
144.7026002167
 30
0.0
 11
61.1922758928
 21
140.2026002167
 31
0.0
  0
LINE
  5
14D
330
1F
100
AcDbEntity
  8
0
  6
HIDDEN
 62
     7
370
     0
100
AcDbLine
 10
61.1922758928
 20
87.2026002167
 30
0.0
 11
63.7903521041
 21
82.7026002167
 31
0.0
  0
ARC
  5
14E
330
1F
100
AcDbEntity
  8
0
  6
HIDDEN
 62
     7
370
     0
100
AcDbCircle
 10
101.6456515657
 20
88.8276002167
 30
0.0
 40
2.0
100
AcDbArc
 50
234.3409123039
 51
0.0
  0
ARC
  5
14F
330
1F
100
AcDbEntity
  8
0
  6
HIDDEN
 62
     7
370
     0
100
AcDbCircle
 10
101.6456515657
 20
138.5776002167
 30
0.0
 40
2.0
100
AcDbArc
 50
0.0
 51
125.6590876961
  0
LINE
  5
150
330
1F
100
AcDbEntity
  8
0
  6
HIDDEN
 62
     7
370
     0
100
AcDbLine
 10
56.3956515657
 20
87.2026002167
 30
0.0
 11
61.1922758928
 21
87.2026002167
 31
0.0
  0
LINE
  5
151
330
1F
100
AcDbEntity
  8
0
  6
HIDDEN
 62
     7
370
     0
100
AcDbLine
 10
61.1922758928
 20
140.2026002167
 30
0.0
 11
51.3956515657
 21
140.2026002167
 31
0.0
  0
LINE
  5
152
330
1F
100
AcDbEntity
  8
0
  6
HIDDEN
 62
     7
370
     0
100
AcDbLine
 10
91.1956515657
 20
87.2026002167
 30
0.0
 11
100.4797291841
 21
87.2026002167
 31
0.0
  0
LINE
  5
153
330
1F
100
AcDbEntity
  8
0
  6
HIDDEN
 62
     7
370
     0
100
AcDbLine
 10
100.4797291841
 20
140.2026002167
 30
0.0
 11
91.1956515657
 21
140.2026002167
 31
0.0
  0
LINE
  5
154
330
1F
100
AcDbEntity
  8
0
  6
HIDDEN
 62
     7
370
     0
100
AcDbLine
 10
95.1956515657
 20
159.3797630988
 30
0.0
 11
95.1956515657
 21
155.6800139954
 31
0.0
  0
LINE
  5
155
330
1F
100
AcDbEntity
  8
0
  6
HIDDEN
 62
     7
370
     0
100
AcDbLine
 10
105.1956515657
 20
155.6800139954
 30
0.0
 11
105.1956515657
 21
159.3783911496
 31
0.0
  0
LWPOLYLINE
  5
156
330
1F
100
AcDbEntity
  8
0
  6
HIDDEN
 62
     7
370
     0
100
AcDbPolyline
 90
        3
 70
   128
 43
0.0
 10
250.8140738602
 20
92.6860648706
 10
250.8570106016
 20
92.7571819545
 10
251.0092550683
 20
93.0663495286
  0
LWPOLYLINE
  5
157
330
1F
100
AcDbEntity
  8
0
  6
HIDDEN
 62
     7
370
     0
100
AcDbPolyline
 90
        3
 70
   128
 43
0.0
 10
251.0077463493
 20
134.3425276166
 10
250.8552608942
 20
134.6510236653
 10
250.8140738602
 20
134.7191355628
  0
ARC
  5
158
330
1F
100
AcDbEntity
  8
0
  6
HIDDEN
 62
     7
370
     0
100
AcDbCircle
 10
250.6956515657
 20
96.6659059686
 30
0.0
 40
0.5000000000000568
100
AcDbArc
 50
0.0
 51
80.0
  0
ARC
  5
159
330
1F
100
AcDbEntity
  8
0
  6
HIDDEN
 62
     7
370
     0
100
AcDbCircle
 10
250.6956515657
 20
130.7392944648
 30
0.0
 40
0.5000000000000568
100
AcDbArc
 50
280.0
 51
0.0
  0
LINE
  5
15A
330
1F
100
AcDbEntity
  8
0
  6
HIDDEN
 62
     7
370
     0
100
AcDbLine
 10
250.7824756546
 20
130.2468905882
 30
0.0
 11
247.6956515657
 21
129.7026002167
 31
0.0
  0
LINE
  5
15B
330
1F
100
AcDbEntity
  8
0
  6
HIDDEN
 62
     7
370
     0
100
AcDbLine
 10
247.6956515657
 20
97.7026002167
 30
0.0
 11
250.7824756546
 21
97.1583098451
 31
0.0
  0
LINE
  5
15C
330
1F
100
AcDbEntity
  8
0
  6
HIDDEN
 62
     7
370
     0
100
AcDbLine
 10
194.1956515657
 20
97.4026002167
 30
0.0
 11
199.3008775476
 21
97.4026002167
 31
0.0
  0
LINE
  5
15D
330
1F
100
AcDbEntity
  8
0
  6
HIDDEN
 62
     7
370
     0
100
AcDbLine
 10
190.0956515657
 20
97.4026002167
 30
0.0
 11
190.2016173425
 21
97.4026002167
 31
0.0
  0
LINE
  5
15E
330
1F
100
AcDbEntity
  8
0
  6
HIDDEN
 62
     7
370
     0
100
AcDbLine
 10
190.1958283943
 20
130.0026002167
 30
0.0
 11
190.0956515657
 21
130.0026002167
 31
0.0
  0
LINE
  5
15F
330
1F
100
AcDbEntity
  8
0
  6
HIDDEN
 62
     7
370
     0
100
AcDbLine
 10
199.3008775476
 20
130.0026002167
 30
0.0
 11
194.1890842903
 21
130.0026002167
 31
0.0
  0
ARC
  5
160
330
1F
100
AcDbEntity
  8
0
  6
HIDDEN
 62
     7
370
     0
100
AcDbCircle
 10
190.0956515657
 20
97.8026002167
 30
0.0
 40
0.4000000000000341
100
AcDbArc
 50
180.0
 51
270.0
  0
ARC
  5
161
330
1F
100
AcDbEntity
  8
0
  6
HIDDEN
 62
     7
370
     0
100
AcDbCircle
 10
190.0956515657
 20
129.6026002167
 30
0.0
 40
0.4000000000000341
100
AcDbArc
 50
90.0
 51
180.0
  0
ARC
  5
162
330
1F
100
AcDbEntity
  8
0
  6
HIDDEN
 62
     7
370
     0
100
AcDbCircle
 10
199.3008775476
 20
97.8026002167
 30
0.0
 40
0.4000000000000305
100
AcDbArc
 50
270.0
 51
290.0
  0
ARC
  5
163
330
1F
100
AcDbEntity
  8
0
  6
HIDDEN
 62
     7
370
     0
100
AcDbCircle
 10
199.3008775476
 20
129.6026002167
 30
0.0
 40
0.4000000000000057
100
AcDbArc
 50
70.0
 51
90.0
  0
LINE
  5
164
330
1F
100
AcDbEntity
  8
0
  6
HIDDEN
 62
     7
370
     0
100
AcDbLine
 10
199.4376856049
 20
97.4267231684
 30
0.0
 11
200.1956515657
 21
97.7026002167
 31
0.0
  0
LINE
  5
165
330
1F
100
AcDbEntity
  8
0
  6
HIDDEN
 62
     7
370
     0
100
AcDbLine
 10
200.1956515657
 20
129.7026002167
 30
0.0
 11
199.4376856049
 21
129.978477265
 31
0.0
  0
LINE
  5
166
330
1F
100
AcDbEntity
  8
0
  6
HIDDEN
 62
     7
370
     0
100
AcDbLine
 10
200.1956515657
 20
97.7026002167
 30
0.0
 11
247.6956515657
 21
97.7026002167
 31
0.0
  0
LINE
  5
167
330
1F
100
AcDbEntity
  8
0
  6
HIDDEN
 62
     7
370
     0
100
AcDbLine
 10
247.6956515657
 20
129.7026002167
 30
0.0
 11
200.1956515657
 21
129.7026002167
 31
0.0
  0
LINE
  5
168
330
1F
100
AcDbEntity
  8
0
  6
HIDDEN
 62
     7
370
     0
100
AcDbLine
 10
115.4956515657
 20
100.7026002167
 30
0.0
 11
119.4956515657
 21
100.7026002167
 31
0.0
  0
LINE
  5
169
330
1F
100
AcDbEntity
  8
0
  6
HIDDEN
 62
     7
370
     0
100
AcDbLine
 10
119.4956515657
 20
126.7026002167
 30
0.0
 11
115.4956515657
 21
126.7026002167
 31
0.0
  0
LINE
  5
16A
330
1F
100
AcDbEntity
  8
0
  6
HIDDEN
 62
     7
370
     0
100
AcDbLine
 10
103.6456515657
 20
101.7026002167
 30
0.0
 11
104.3956515657
 21
102.4526002167
 31
0.0
  0
LINE
  5
16B
330
1F
100
AcDbEntity
  8
0
  6
HIDDEN
 62
     7
370
     0
100
AcDbLine
 10
104.3956515657
 20
124.9526002167
 30
0.0
 11
103.6456515657
 21
125.7026002167
 31
0.0
  0
LINE
  5
16C
330
1F
100
AcDbEntity
  8
0
  6
HIDDEN
 62
     7
370
     0
100
AcDbLine
 10
104.3956515657
 20
102.4526002167
 30
0.0
 11
115.4956515657
 21
102.4526002167
 31
0.0
  0
LINE
  5
16D
330
1F
100
AcDbEntity
  8
0
  6
HIDDEN
 62
     7
370
     0
100
AcDbLine
 10
115.4956515657
 20
124.9526002167
 30
0.0
 11
104.3956515657
 21
124.9526002167
 31
0.0
  0
LINE
  5
16E
330
1F
100
AcDbEntity
  8
0
  6
HIDDEN
 62
     7
370
     0
100
AcDbLine
 10
96.1456515657
 20
163.7026002167
 30
0.0
 11
96.1456515657
 21
157.6026002167
 31
0.0
  0
LINE
  5
16F
330
1F
100
AcDbEntity
  8
0
  6
HIDDEN
 62
     7
370
     0
100
AcDbLine
 10
82.6283641818
 20
76.1243206461
 30
0.0
 11
82.1956548953
 21
76.6025453635
 31
0.0
  0
LINE
  5
170
330
1F
100
AcDbEntity
  8
0
  6
HIDDEN
 62
     7
370
     0
100
AcDbLine
 10
70.1956520238
 20
77.2495067201
 30
0.0
 11
69.7150247185
 21
76.7712820093
 31
0.0
  0
LINE
  5
171
330
1F
100
AcDbEntity
  8
0
  6
HIDDEN
 62
     7
370
     0
100
AcDbLine
 10
69.714906377
 20
150.6339125079
 30
0.0
 11
70.1956518411
 21
150.1556328361
 31
0.0
  0
LINE
  5
172
330
1F
100
AcDbEntity
  8
0
  6
HIDDEN
 62
     7
370
     0
100
AcDbLine
 10
82.1956515678
 20
150.8026052234
 30
0.0
 11
82.6284732376
 21
151.2808848963
 31
0.0
  0
LINE
  5
173
330
1F
100
AcDbEntity
  8
0
  6
HIDDEN
 62
     7
370
     0
100
AcDbLine
 10
82.1956515657
 20
145.1766651107
 30
0.0
 11
82.1956515657
 21
150.9026090494
 31
0.0
  0
LINE
  5
174
330
1F
100
AcDbEntity
  8
0
  6
HIDDEN
 62
     7
370
     0
100
AcDbLine
 10
70.1956515657
 20
150.1556223368
 30
0.0
 11
70.1956515657
 21
145.2016160173
 31
0.0
  0
LINE
  5
175
330
1F
100
AcDbEntity
  8
0
  6
HIDDEN
 62
     7
370
     0
100
AcDbLine
 10
82.1956515657
 20
76.5024165209
 30
0.0
 11
82.1956515657
 21
82.2285353227
 31
0.0
  0
LINE
  5
176
330
1F
100
AcDbEntity
  8
0
  6
HIDDEN
 62
     7
370
     0
100
AcDbLine
 10
70.1956515657
 20
82.203584416
 30
0.0
 11
70.1956515657
 21
77.2495451347
 31
0.0
  0
LINE
  5
177
330
1F
100
AcDbEntity
  8
0
  6
HIDDEN
 62
     7
370
     0
100
AcDbLine
 10
189.6956515657
 20
119.7026002167
 30
0.0
 11
189.1956515657
 21
119.2026002167
 31
0.0
  0
LINE
  5
178
330
1F
100
AcDbEntity
  8
0
  6
HIDDEN
 62
     7
370
     0
100
AcDbLine
 10
189.1956515657
 20
108.2026002167
 30
0.0
 11
189.6956515657
 21
107.7026002167
 31
0.0
  0
LINE
  5
179
330
1F
100
AcDbEntity
  8
0
  6
HIDDEN
 62
     7
370
     0
100
AcDbLine
 10
169.3952212562
 20
107.7026002167
 30
0.0
 11
169.6956515657
 21
108.2026002167
 31
0.0
  0
LINE
  5
17A
330
1F
100
AcDbEntity
  8
0
  6
HIDDEN
 62
     7
370
     0
100
AcDbLine
 10
169.6956515657
 20
119.2026002167
 30
0.0
 11
169.3952212562
 21
119.7026002167
 31
0.0
  0
LINE
  5
17B
330
1F
100
AcDbEntity
  8
0
  6
HIDDEN
 62
     7
370
     0
100
AcDbLine
 10
119.4956515657
 20
107.7026002167
 30
0.0
 11
169.3952212562
 21
107.7026002167
 31
0.0
  0
LINE
  5
17C
330
1F
100
AcDbEntity
  8
0
  6
HIDDEN
 62
     7
370
     0
100
AcDbLine
 10
169.3952212562
 20
119.7026002167
 30
0.0
 11
119.4956515657
 21
119.7026002167
 31
0.0
  0
LINE
  5
17D
330
1F
100
AcDbEntity
  8
0
  6
HIDDEN
 62
     7
370
     0
100
AcDbLine
 10
169.6956515657
 20
108.2026002167
 30
0.0
 11
189.1956515657
 21
108.2026002167
 31
0.0
  0
LINE
  5
17E
330
1F
100
AcDbEntity
  8
0
  6
HIDDEN
 62
     7
370
     0
100
AcDbLine
 10
189.1956515657
 20
119.2026002167
 30
0.0
 11
169.6956515657
 21
119.2026002167
 31
0.0
  0
LINE
  5
17F
330
1F
100
AcDbEntity
  8
0
  6
HIDDEN
 62
     7
370
     0
100
AcDbLine
 10
163.6456515657
 20
85.7026002167
 30
0.0
 11
162.6456515657
 21
86.2799504859
 31
0.0
  0
LINE
  5
180
330
1F
100
AcDbEntity
  8
0
  6
HIDDEN
 62
     7
370
     0
100
AcDbLine
 10
157.6456515657
 20
86.2799504859
 30
0.0
 11
156.6456515657
 21
85.7026002167
 31
0.0
  0
LINE
  5
181
330
1F
100
AcDbEntity
  8
0
  6
HIDDEN
 62
     7
370
     0
100
AcDbLine
 10
156.6456515657
 20
141.7026002167
 30
0.0
 11
157.6456515657
 21
141.1252499475
 31
0.0
  0
LINE
  5
182
330
1F
100
AcDbEntity
  8
0
  6
HIDDEN
 62
     7
370
     0
100
AcDbLine
 10
162.6456515657
 20
141.1252499475
 30
0.0
 11
163.6456515657
 21
141.7026002167
 31
0.0
  0
LINE
  5
183
330
1F
100
AcDbEntity
  8
0
  6
HIDDEN
 62
     7
370
     0
100
AcDbLine
 10
157.6456515657
 20
141.1252499475
 30
0.0
 11
157.6456515657
 21
127.7026002167
 31
0.0
  0
LINE
  5
184
330
1F
100
AcDbEntity
  8
0
  6
HIDDEN
 62
     7
370
     0
100
AcDbLine
 10
162.6456515657
 20
127.7026002167
 30
0.0
 11
162.6456515657
 21
141.1252499475
 31
0.0
  0
LINE
  5
185
330
1F
100
AcDbEntity
  8
0
  6
HIDDEN
 62
     7
370
     0
100
AcDbLine
 10
157.6456515657
 20
127.7026002167
 30
0.0
 11
160.1456515657
 21
126.2004486691
 31
0.0
  0
LINE
  5
186
330
1F
100
AcDbEntity
  8
0
  6
HIDDEN
 62
     7
370
     0
100
AcDbLine
 10
160.1456515657
 20
126.2004486691
 30
0.0
 11
162.6456515657
 21
127.7026002167
 31
0.0
  0
LINE
  5
187
330
1F
100
AcDbEntity
  8
0
  6
HIDDEN
 62
     7
370
     0
100
AcDbLine
 10
162.6456515657
 20
99.7026002167
 30
0.0
 11
160.1456515657
 21
101.2047517643
 31
0.0
  0
LINE
  5
188
330
1F
100
AcDbEntity
  8
0
  6
HIDDEN
 62
     7
370
     0
100
AcDbLine
 10
160.1456515657
 20
101.2047517643
 30
0.0
 11
157.6456515657
 21
99.7026002167
 31
0.0
  0
LINE
  5
189
330
1F
100
AcDbEntity
  8
0
  6
HIDDEN
 62
     7
370
     0
100
AcDbLine
 10
162.6456515657
 20
86.2799504859
 30
0.0
 11
162.6456515657
 21
99.7026002167
 31
0.0
  0
LINE
  5
18A
330
1F
100
AcDbEntity
  8
0
  6
HIDDEN
 62
     7
370
     0
100
AcDbLine
 10
157.6456515657
 20
99.7026002167
 30
0.0
 11
157.6456515657
 21
86.2799504859
 31
0.0
  0
LINE
  5
18B
330
1F
100
AcDbEntity
  8
0
  6
HIDDEN
 62
     7
370
     0
100
AcDbLine
 10
190.1956515657
 20
90.8260235589
 30
0.0
 11
190.1956515657
 21
90.2026002167
 31
0.0
  0
LINE
  5
18C
330
1F
100
AcDbEntity
  8
0
  6
HIDDEN
 62
     7
370
     0
100
AcDbLine
 10
190.1956515657
 20
97.4033298609
 30
0.0
 11
190.1956515657
 21
93.9418119172
 31
0.0
  0
LINE
  5
18D
330
1F
100
AcDbEntity
  8
0
  6
HIDDEN
 62
     7
370
     0
100
AcDbLine
 10
194.1956515657
 20
94.1002412454
 30
0.0
 11
194.1956515657
 21
97.4026002167
 31
0.0
  0
LINE
  5
18E
330
1F
100
AcDbEntity
  8
0
  6
HIDDEN
 62
     7
370
     0
100
AcDbLine
 10
194.1956515657
 20
90.2026002167
 30
0.0
 11
194.1956515657
 21
90.8117910456
 31
0.0
  0
LINE
  5
18F
330
1F
100
AcDbEntity
  8
0
  6
HIDDEN
 62
     7
370
     0
100
AcDbLine
 10
190.1956515657
 20
133.4633885162
 30
0.0
 11
190.1956515657
 21
130.0025788037
 31
0.0
  0
LINE
  5
190
330
1F
100
AcDbEntity
  8
0
  6
HIDDEN
 62
     7
370
     0
100
AcDbLine
 10
190.1956515657
 20
137.4026002167
 30
0.0
 11
190.1956515657
 21
136.5791768745
 31
0.0
  0
LINE
  5
191
330
1F
100
AcDbEntity
  8
0
  6
HIDDEN
 62
     7
370
     0
100
AcDbLine
 10
194.1956515657
 20
136.5934093878
 30
0.0
 11
194.1956515657
 21
137.4026002167
 31
0.0
  0
LINE
  5
192
330
1F
100
AcDbEntity
  8
0
  6
HIDDEN
 62
     7
370
     0
100
AcDbLine
 10
194.1956515657
 20
130.0017968719
 30
0.0
 11
194.1956515657
 21
133.3049591879
 31
0.0
  0
LINE
  5
193
330
1F
100
AcDbEntity
  8
0
  6
HIDDEN
 62
     7
370
     0
100
AcDbLine
 10
190.1956515657
 20
90.2026002167
 30
0.0
 11
192.1956515657
 21
89.0008789786
 31
0.0
  0
LINE
  5
194
330
1F
100
AcDbEntity
  8
0
  6
HIDDEN
 62
     7
370
     0
100
AcDbLine
 10
192.1956515657
 20
89.0008789786
 30
0.0
 11
194.1956515657
 21
90.2026002167
 31
0.0
  0
LINE
  5
195
330
1F
100
AcDbEntity
  8
0
  6
HIDDEN
 62
     7
370
     0
100
AcDbLine
 10
251.1956515657
 20
96.3538732884
 30
0.0
 11
194.1839035868
 21
94.1138756096
 31
0.0
  0
LINE
  5
196
330
1F
100
AcDbEntity
  8
0
  6
HIDDEN
 62
     7
370
     0
100
AcDbLine
 10
194.1956515657
 20
90.8117910456
 30
0.0
 11
251.0090982118
 21
93.0439974438
 31
0.0
  0
LINE
  5
197
330
1F
100
AcDbEntity
  8
0
  6
HIDDEN
 62
     7
370
     0
100
AcDbLine
 10
251.0079817523
 20
134.3612468554
 30
0.0
 11
194.1956515657
 21
136.5934093878
 31
0.0
  0
LINE
  5
198
330
1F
100
AcDbEntity
  8
0
  6
HIDDEN
 62
     7
370
     0
100
AcDbLine
 10
194.1839035868
 20
133.2913248238
 30
0.0
 11
251.1956515657
 21
131.051327145
 31
0.0
  0
LINE
  5
199
330
1F
100
AcDbEntity
  8
0
  6
HIDDEN
 62
     7
370
     0
100
AcDbLine
 10
190.2006869303
 20
136.5833223392
 30
0.0
 11
189.2520246826
 21
135.1363719454
 31
0.0
  0
LINE
  5
19A
330
1F
100
AcDbEntity
  8
0
  6
HIDDEN
 62
     7
370
     0
100
AcDbLine
 10
189.2520246826
 20
135.1363719454
 30
0.0
 11
190.177901659
 21
133.4487210682
 31
0.0
  0
LINE
  5
19B
330
1F
100
AcDbEntity
  8
0
  6
HIDDEN
 62
     7
370
     0
100
AcDbLine
 10
190.177901659
 20
93.9564793652
 30
0.0
 11
189.2520246826
 21
92.268828488
 31
0.0
  0
LINE
  5
19C
330
1F
100
AcDbEntity
  8
0
  6
HIDDEN
 62
     7
370
     0
100
AcDbLine
 10
189.2520246826
 20
92.268828488
 30
0.0
 11
190.2006869303
 21
90.8218780942
 31
0.0
  0
LINE
  5
19D
330
1F
100
AcDbEntity
  8
0
  6
HIDDEN
 62
     7
370
     0
100
AcDbLine
 10
95.1956515657
 20
161.2553115147
 30
0.0
 11
95.1956515657
 21
159.3797630988
 31
0.0
  0
LINE
  5
19E
330
1F
100
AcDbEntity
  8
0
  6
HIDDEN
 62
     7
370
     0
100
AcDbLine
 10
105.1956515657
 20
159.3783911496
 30
0.0
 11
105.1956515657
 21
161.2538832319
 31
0.0
  0
LINE
  5
19F
330
1F
100
AcDbEntity
  8
0
  6
HIDDEN
 62
     7
370
     0
100
AcDbLine
 10
251.1717030781
 20
96.3129014874
 30
0.0
 11
250.9313987403
 21
96.6937608121
 31
0.0
  0
LINE
  5
1A0
330
1F
100
AcDbEntity
  8
0
  6
HIDDEN
 62
     7
370
     0
100
AcDbLine
 10
250.9313987403
 20
96.6937608121
 30
0.0
 11
243.9119812372
 21
96.4179671473
 31
0.0
  0
LINE
  5
1A1
330
1F
100
AcDbEntity
  8
0
  6
HIDDEN
 62
     7
370
     0
100
AcDbLine
 10
244.0690205003
 20
92.4210510023
 30
0.0
 11
250.8140738602
 21
92.6860648706
 31
0.0
  0
LINE
  5
1A2
330
1F
100
AcDbEntity
  8
0
  6
HIDDEN
 62
     7
370
     0
100
AcDbLine
 10
243.9119812372
 20
96.4179671473
 30
0.0
 11
243.1920043219
 21
95.6391005083
 31
0.0
  0
LINE
  5
1A3
330
1F
100
AcDbEntity
  8
0
  6
HIDDEN
 62
     7
370
     0
100
AcDbLine
 10
243.2901538613
 20
93.1410279177
 30
0.0
 11
244.0690205003
 21
92.4210510023
 31
0.0
  0
LINE
  5
1A4
330
1F
100
AcDbEntity
  8
0
  6
HIDDEN
 62
     7
370
     0
100
AcDbLine
 10
250.8140738602
 20
134.7191355628
 30
0.0
 11
243.9905008687
 21
134.9872344758
 31
0.0
  0
LINE
  5
1A5
330
1F
100
AcDbEntity
  8
0
  6
HIDDEN
 62
     7
370
     0
100
AcDbLine
 10
243.8334616057
 20
130.9903183308
 30
0.0
 11
250.8528791088
 21
130.714524666
 31
0.0
  0
LINE
  5
1A6
330
1F
100
AcDbEntity
  8
0
  6
HIDDEN
 62
     7
370
     0
100
AcDbLine
 10
250.8528791088
 20
130.714524666
 30
0.0
 11
251.0931834466
 21
131.0953839907
 31
0.0
  0
LINE
  5
1A7
330
1F
100
AcDbEntity
  8
0
  6
HIDDEN
 62
     7
370
     0
100
AcDbLine
 10
243.9905008687
 20
134.9872344758
 30
0.0
 11
243.2116342297
 21
134.2672575604
 31
0.0
  0
LINE
  5
1A8
330
1F
100
AcDbEntity
  8
0
  6
HIDDEN
 62
     7
370
     0
100
AcDbLine
 10
243.1134846903
 20
131.7691849698
 30
0.0
 11
243.8334616057
 21
130.9903183308
 31
0.0
  0
LINE
  5
1A9
330
1F
100
AcDbEntity
  8
0
  6
HIDDEN
 62
     7
370
     0
100
AcDbLine
 10
189.1956515657
 20
107.7026002167
 30
0.0
 11
189.6956515657
 21
108.2026002167
 31
0.0
  0
LINE
  5
1AA
330
1F
100
AcDbEntity
  8
0
  6
HIDDEN
 62
     7
370
     0
100
AcDbLine
 10
189.6956515657
 20
119.2026002167
 30
0.0
 11
189.1956515657
 21
119.7026002167
 31
0.0
  0
LINE
  5
1AB
330
1F
100
AcDbEntity
  8
0
  6
HIDDEN
 62
     7
370
     0
100
AcDbLine
 10
174.1956515657
 20
107.7026002167
 30
0.0
 11
189.1956515657
 21
107.7026002167
 31
0.0
  0
LINE
  5
1AC
330
1F
100
AcDbEntity
  8
0
  6
HIDDEN
 62
     7
370
     0
100
AcDbLine
 10
189.1956515657
 20
119.7026002167
 30
0.0
 11
174.1956515657
 21
119.7026002167
 31
0.0
  0
LINE
  5
1AD
330
1F
100
AcDbEntity
  8
0
  6
HIDDEN
 62
     7
370
     0
100
AcDbLine
 10
174.1956515657
 20
119.7026002167
 30
0.0
 11
173.6956515657
 21
119.2026002167
 31
0.0
  0
LINE
  5
1AE
330
1F
100
AcDbEntity
  8
0
  6
HIDDEN
 62
     7
370
     0
100
AcDbLine
 10
173.6956515657
 20
108.2026002167
 30
0.0
 11
174.1956515657
 21
107.7026002167
 31
0.0
  0
LINE
  5
1AF
330
1F
100
AcDbEntity
  8
0
  6
HIDDEN
 62
     7
370
     0
100
AcDbLine
 10
189.6956515657
 20
108.2026002167
 30
0.0
 11
193.6956515657
 21
108.2026002167
 31
0.0
  0
LINE
  5
1B0
330
1F
100
AcDbEntity
  8
0
  6
HIDDEN
 62
     7
370
     0
100
AcDbLine
 10
193.6956515657
 20
119.2026002167
 30
0.0
 11
189.6956515657
 21
119.2026002167
 31
0.0
  0
LINE
  5
1B1
330
1F
100
AcDbEntity
  8
0
  6
HIDDEN
 62
     7
370
     0
100
AcDbLine
 10
180.6956515657
 20
110.7026002167
 30
0.0
 11
186.6956515657
 21
110.7026002167
 31
0.0
  0
LINE
  5
1B2
330
1F
100
AcDbEntity
  8
0
  6
HIDDEN
 62
     7
370
     0
100
AcDbLine
 10
186.6956515657
 20
116.7026002167
 30
0.0
 11
180.6956515657
 21
116.7026002167
 31
0.0
  0
DIMENSION
  5
1B3
330
1F
100
AcDbEntity
  8
VERMASSUNG
100
AcDbDimension
  2
*D1
 10
37.8029252438
 20
63.7026002167
 30
0.0
 11
37.8029252438
 21
113.7026002167
 31
0.0
 70
   160
  1
HSK A %%c<>
 71
     2
 42
-1.0
  3
SLDDIMSTYLE0
100
AcDbAlignedDimension
 13
91.6956515657
 23
163.7026002167
 33
0.0
 14
91.6956515657
 24
63.7026002167
 34
0.0
 50
90.0
100
AcDbRotatedDimension
  0
DIMENSION
  5
1C0
330
1F
100
AcDbEntity
  8
VERMASSUNG
100
AcDbDimension
  2
*D2
 10
251.1956515657
 20
161.7026002167
 30
0.0
 11
220.4456515657
 21
161.7026002167
 31
0.0
 70
   160
 71
     2
 42
-1.0
  3
SLDDIMSTYLE1
100
AcDbAlignedDimension
 13
189.6956515657
 23
129.6026002167
 33
0.0
 14
251.1956515657
 24
133.3916239875
 34
0.0
100
AcDbRotatedDimension
  0
DIMENSION
  5
1CB
330
1F
100
AcDbEntity
  8
VERMASSUNG
100
AcDbDimension
  2
*D3
 10
261.313431013
 20
129.7026002167
 30
0.0
 11
261.313431013
 21
113.7026002167
 31
0.0
 70
   160
  1
%%c<>
 71
     2
 42
-1.0
  3
SLDDIMSTYLE2
100
AcDbAlignedDimension
 13
247.6956515657
 23
97.7026002167
 33
0.0
 14
247.6956515657
 24
129.7026002167
 34
0.0
 50
90.0
100
AcDbRotatedDimension
  0
DIMENSION
  5
1D7
330
1F
100
AcDbEntity
  8
VERMASSUNG
100
AcDbDimension
  2
*D4
 10
267.313431013
 20
135.7026002167
 30
0.0
 11
267.313431013
 21
113.7026002167
 31
0.0
 70
   160
  1
%%c<>
 71
     2
 42
-1.0
  3
SLDDIMSTYLE3
100
AcDbAlignedDimension
 13
251.1956515657
 23
91.7026002167
 33
0.0
 14
251.1956515657
 24
135.7026002167
 34
0.0
 50
90.0
100
AcDbRotatedDimension
  0
DIMENSION
  5
1E3
330
1F
100
AcDbEntity
  8
VERMASSUNG
100
AcDbDimension
  2
*D5
 10
251.1956515657
 20
173.7026002167
 30
0.0
 11
171.1956515657
 21
173.7026002167
 31
0.0
 70
   160
 71
     2
 42
-1.0
  3
SLDDIMSTYLE0
100
AcDbAlignedDimension
 13
91.1956515657
 23
113.7026002167
 33
0.0
 14
251.1956515657
 24
133.3916239875
 34
0.0
100
AcDbRotatedDimension
  0
DIMENSION
  5
1ED
330
1F
100
AcDbEntity
  8
VERMASSUNG
100
AcDbDimension
  2
*D6
 10
251.1956515657
 20
167.7026002167
 30
0.0
 11
185.6706515657
 21
167.7026002167
 31
0.0
 70
   160
 71
     2
 42
-1.0
  3
SLDDIMSTYLE0
100
AcDbAlignedDimension
 13
120.1456515657
 23
161.6713400375
 33
0.0
 14
251.1956515657
 24
133.3324566791
 34
0.0
100
AcDbRotatedDimension
  0
DIMENSION
  5
1F7
330
1F
100
AcDbEntity
  8
VERMASSUNG
100
AcDbDimension
  2
*D7
 10
251.1956515657
 20
179.7026002167
 30
0.0
 11
146.2456515657
 21
179.7026002167
 31
0.0
 70
   160
 71
     2
 42
-1.0
  3
SLDDIMSTYLE0
100
AcDbAlignedDimension
 13
41.2956515657
 23
144.2052699593
 33
0.0
 14
251.1956515657
 24
133.3324566791
 34
0.0
100
AcDbRotatedDimension
  0
DIMENSION
  5
201
330
1F
100
AcDbEntity
  8
VERMASSUNG
100
AcDbDimension
  2
*D8
 10
273.313431013
 20
85.7026002167
 30
0.0
 11
273.313431013
 21
113.7026002167
 31
0.0
 70
   160
  1
%%c<>
 71
     2
 42
-1.0
  3
SLDDIMSTYLE0
100
AcDbAlignedDimension
 13
169.1456515657
 23
141.7026002167
 33
0.0
 14
169.1456515657
 24
85.7026002167
 34
0.0
 50
90.0
100
AcDbRotatedDimension
  0
LINE
  5
20C
330
1F
100
AcDbEntity
  8
VERMASSUNG
  6
CENTERX2
370
     0
100
AcDbLine
 10
39.0451822048
 20
113.7026002167
 30
0.0
 11
254.3236186349
 21
113.7026002167
 31
0.0
  0
OLE2FRAME
  5
20D
330
1F
100
AcDbEntity
  8
0
100
AcDbOle2Frame
 70
     2
  3
Bitmap Image
 10
13.8511154363
 20
38.264191557
 30
0.0
 11
51.6290888628
 21
31.9806341108
 31
0.0
 71
     2
 72
     0
 73
     1
 90
    12928
310
80552BED0767C5B32B40DDAF6807D121434000000000000000006FFBDDFB85D0
310
4940DDAF6807D121434000000000000000006FFBDDFB85D04940416F4BD60AFB
310
3F4000000000000000002BED0767C5B32B40416F4BD60AFB3F40000000000000
310
0000000000000100000000010000010000000100000000000100000000320000
310
D0CF11E0A1B11AE1000000000000000000000000000000003E000300FEFF0900
310
0600000000000000000000000100000001000000000000000010000002000000
310
01000000FEFFFFFF0000000000000000FFFFFFFFFFFFFFFFFFFFFFFFFFFFFFFF
310
FFFFFFFFFFFFFFFFFFFFFFFFFFFFFFFFFFFFFFFFFFFFFFFFFFFFFFFFFFFFFFFF
310
FFFFFFFFFFFFFFFFFFFFFFFFFFFFFFFFFFFFFFFFFFFFFFFFFFFFFFFFFFFFFFFF
310
FFFFFFFFFFFFFFFFFFFFFFFFFFFFFFFFFFFFFFFFFFFFFFFFFFFFFFFFFFFFFFFF
310
FFFFFFFFFFFFFFFFFFFFFFFFFFFFFFFFFFFFFFFFFFFFFFFFFFFFFFFFFFFFFFFF
310
FFFFFFFFFFFFFFFFFFFFFFFFFFFFFFFFFFFFFFFFFFFFFFFFFFFFFFFFFFFFFFFF
310
FFFFFFFFFFFFFFFFFFFFFFFFFFFFFFFFFFFFFFFFFFFFFFFFFFFFFFFFFFFFFFFF
310
FFFFFFFFFFFFFFFFFFFFFFFFFFFFFFFFFFFFFFFFFFFFFFFFFFFFFFFFFFFFFFFF
310
FFFFFFFFFFFFFFFFFFFFFFFFFFFFFFFFFFFFFFFFFFFFFFFFFFFFFFFFFFFFFFFF
310
FFFFFFFFFFFFFFFFFFFFFFFFFFFFFFFFFFFFFFFFFFFFFFFFFFFFFFFFFFFFFFFF
310
FFFFFFFFFFFFFFFFFFFFFFFFFFFFFFFFFFFFFFFFFFFFFFFFFFFFFFFFFFFFFFFF
310
FFFFFFFFFFFFFFFFFFFFFFFFFFFFFFFFFFFFFFFFFFFFFFFFFFFFFFFFFFFFFFFF
310
FFFFFFFFFFFFFFFFFFFFFFFFFFFFFFFFFFFFFFFFFFFFFFFFFFFFFFFFFFFFFFFF
310
FFFFFFFFFFFFFFFFFFFFFFFFFFFFFFFFFFFFFFFFFFFFFFFFFFFFFFFFFFFFFFFF
310
FDFFFFFFFEFFFFFFFEFFFFFFFEFFFFFF05000000060000000700000008000000
310
090000000A0000000B0000000C0000000D0000000E0000000F00000010000000
310
11000000120000001300000014000000150000001600000017000000FEFFFFFF
310
FFFFFFFFFFFFFFFFFFFFFFFFFFFFFFFFFFFFFFFFFFFFFFFFFFFFFFFFFFFFFFFF
310
FFFFFFFFFFFFFFFFFFFFFFFFFFFFFFFFFFFFFFFFFFFFFFFFFFFFFFFFFFFFFFFF
310
FFFFFFFFFFFFFFFFFFFFFFFFFFFFFFFFFFFFFFFFFFFFFFFFFFFFFFFFFFFFFFFF
310
FFFFFFFFFFFFFFFFFFFFFFFFFFFFFFFFFFFFFFFFFFFFFFFFFFFFFFFFFFFFFFFF
310
FFFFFFFFFFFFFFFFFFFFFFFFFFFFFFFFFFFFFFFFFFFFFFFFFFFFFFFFFFFFFFFF
310
FFFFFFFFFFFFFFFFFFFFFFFFFFFFFFFFFFFFFFFFFFFFFFFFFFFFFFFFFFFFFFFF
310
FFFFFFFFFFFFFFFFFFFFFFFFFFFFFFFFFFFFFFFFFFFFFFFFFFFFFFFFFFFFFFFF
310
FFFFFFFFFFFFFFFFFFFFFFFFFFFFFFFFFFFFFFFFFFFFFFFFFFFFFFFFFFFFFFFF
310
FFFFFFFFFFFFFFFFFFFFFFFFFFFFFFFFFFFFFFFFFFFFFFFFFFFFFFFFFFFFFFFF
310
FFFFFFFFFFFFFFFFFFFFFFFFFFFFFFFFFFFFFFFFFFFFFFFFFFFFFFFFFFFFFFFF
310
FFFFFFFFFFFFFFFFFFFFFFFFFFFFFFFFFFFFFFFFFFFFFFFFFFFFFFFFFFFFFFFF
310
FFFFFFFFFFFFFFFFFFFFFFFFFFFFFFFFFFFFFFFFFFFFFFFFFFFFFFFFFFFFFFFF
310
FFFFFFFFFFFFFFFFFFFFFFFFFFFFFFFFFFFFFFFFFFFFFFFFFFFFFFFFFFFFFFFF
310
52006F006F007400200045006E00740072007900000000000000000000000000
310
0000000000000000000000000000000000000000000000000000000000000000
310
16000500FFFFFFFFFFFFFFFF020000000A00030000000000C000000000000046
310
00000000000000000000000040B8C3CD9F08CC0103000000C000000000000000
310
01004F006C006500000000000000000000000000000000000000000000000000
310
0000000000000000000000000000000000000000000000000000000000000000
310
0A000200FFFFFFFFFFFFFFFFFFFFFFFF00000000000000000000000000000000
310
0000000000000000000000000000000000000000000000001400000000000000
310
010043006F006D0070004F0062006A0000000000000000000000000000000000
310
0000000000000000000000000000000000000000000000000000000000000000
310
120002010100000003000000FFFFFFFF00000000000000000000000000000000
310
0000000000000000000000000000000000000000010000004D00000000000000
310
01004F006C006500310030004E00610074006900760065000000000000000000
310
0000000000000000000000000000000000000000000000000000000000000000
310
1A000200FFFFFFFFFFFFFFFFFFFFFFFF00000000000000000000000000000000
310
0000000000000000000000000000000000000000040000002426000000000000
310
FEFFFFFF02000000FEFFFFFFFFFFFFFFFFFFFFFFFFFFFFFFFFFFFFFFFFFFFFFF
310
FFFFFFFFFFFFFFFFFFFFFFFFFFFFFFFFFFFFFFFFFFFFFFFFFFFFFFFFFFFFFFFF
310
FFFFFFFFFFFFFFFFFFFFFFFFFFFFFFFFFFFFFFFFFFFFFFFFFFFFFFFFFFFFFFFF
310
FFFFFFFFFFFFFFFFFFFFFFFFFFFFFFFFFFFFFFFFFFFFFFFFFFFFFFFFFFFFFFFF
310
FFFFFFFFFFFFFFFFFFFFFFFFFFFFFFFFFFFFFFFFFFFFFFFFFFFFFFFFFFFFFFFF
310
FFFFFFFFFFFFFFFFFFFFFFFFFFFFFFFFFFFFFFFFFFFFFFFFFFFFFFFFFFFFFFFF
310
FFFFFFFFFFFFFFFFFFFFFFFFFFFFFFFFFFFFFFFFFFFFFFFFFFFFFFFFFFFFFFFF
310
FFFFFFFFFFFFFFFFFFFFFFFFFFFFFFFFFFFFFFFFFFFFFFFFFFFFFFFFFFFFFFFF
310
FFFFFFFFFFFFFFFFFFFFFFFFFFFFFFFFFFFFFFFFFFFFFFFFFFFFFFFFFFFFFFFF
310
FFFFFFFFFFFFFFFFFFFFFFFFFFFFFFFFFFFFFFFFFFFFFFFFFFFFFFFFFFFFFFFF
310
FFFFFFFFFFFFFFFFFFFFFFFFFFFFFFFFFFFFFFFFFFFFFFFFFFFFFFFFFFFFFFFF
310
FFFFFFFFFFFFFFFFFFFFFFFFFFFFFFFFFFFFFFFFFFFFFFFFFFFFFFFFFFFFFFFF
310
FFFFFFFFFFFFFFFFFFFFFFFFFFFFFFFFFFFFFFFFFFFFFFFFFFFFFFFFFFFFFFFF
310
FFFFFFFFFFFFFFFFFFFFFFFFFFFFFFFFFFFFFFFFFFFFFFFFFFFFFFFFFFFFFFFF
310
FFFFFFFFFFFFFFFFFFFFFFFFFFFFFFFFFFFFFFFFFFFFFFFFFFFFFFFFFFFFFFFF
310
FFFFFFFFFFFFFFFFFFFFFFFFFFFFFFFFFFFFFFFFFFFFFFFFFFFFFFFFFFFFFFFF
310
0100000200000000000000000000000000000000000000000000000000000000
310
000000000000000038000000410000006E0FC70200000000900FA50200000000
310
0100FEFF030A0000FFFFFFFF0A00030000000000C00000000000004607000000
310
5042727573680007000000504272757368000700000050427275736800F439B2
310
7100000000000000000000000000000000000000000000000000C70600000000
310
425D000000000000000000000000000000000000000000003800000041000000
310
6E0FC70200000000580FCF020000000000000000000000000000000000000000
310
0000C70600000000435D00000000000000000000000000000000000000000000
310
38000000410000006E0FC70200000000A60F8102000000000000000000000000
310
00000000000000000000C706000000003D5D0000000000000000000000000000
310
000000000000000038000000410000006E0FC70200000000E40FA60200000000
310
000000000000000000000000000000000000C706000000003E5D000000000000
310
0000000000000000000000000000000038000000410000006E0FC70200000000
310
D80FD60200000000000000000000000000000000000000000000C70600000000
310
3F5D000000000000000000000000000000000000000000003800000041000000
310
6E0FC702000000007A0FB2020000000000000000000000000000000000000000
310
20260000424D0E260000000000003E00000028000000B40200006E0000000100
310
01000000000000000000130B0000130B00000200000002000000000000FFFFFF
310
FFFFFFFFFFFFFFFFFFFFFFFFFFFFFFFFFFFFFFFFFFFFFFFFFFFFFFFFFFFFFFFF
310
FFFFFFFFFFFFFFFFFFFFFFFFFFFFFFFFFFFFFFFFFFFFFFFFFFFFFFFFFFFFFFFF
310
FFFFFFFFFFFFFFFFFFFFFFFFFFFFFFFFFFFFFFFFFFFFFFFFF000FFFFFFFFFFFF
310
FFFFFFFFFFFFFFFFFFFFFFFFFFFFFFFFFFFFFFFFFFFFFFFFFFFFFFFFFFFFFFFF
310
FFFFFFFFFFFFFFFFFFFFFFFFFFFFFFFFFFFFFFFFFFFFFFFFFFFFFFFFFFFFFFFF
310
FFFFFFFFFFFFFFFFFFFFFFFFFFFFFFFFF000FFFFFFFFFFFFFFFFFFFFFFFFFFFF
310
FFFFFFFFFFFFFFFFFFFFFFFFFFFFFFFFFFFFFFFFFFFFFFFFFFFFFFFFFFFFFFFF
310
FFFFFFFFFFFFFFFFFFFFFFFFFFFFFFFFFFFFFFFFFFFFFFFFFFFFFFFFFFFFFFFF
310
FFFFFFFFFFFFFFFFF000FFFFFFFFFFFFFFFFFFFFFFFFFFFFFFFFFFFFFFFFFFFF
310
FFFFFFFFFFFFFFFFFFFFFFFFFFFFFFFFFFFFFFFFFFFFFFFFFFFFFFFFFFFFFFFF
310
FFFFFFFFFFFFFFFFFFFFFFFFFFFFFFFFFFFFFFFFFFFFFFFFFFFFFFFFFFFFFFFF
310
F000FFFFFFFFFFFFFFFFFFFFFFFFFFFFFFFFFFFFFFFFFFFFFFFFFFFFFFFFFFFF
310
FFFFFFFFFFFFFFFFFFFFFFFFFFFFFFFFFFFFFFFFFFFFFFFFFFFFFFFFFFFFFFFF
310
FFFFFFFFFFFFFFFFFFFFFFFFFFFFFFFFFFFFFFFFFFFFFFFFF000FFFFFFFFFFFF
310
FFFFFFFFFFFFFFFFFFFFFFFFFFFFFFFFFFFFFFFFFFFFFFFFFFFFFFFFFFFFFFFF
310
FFFFFFFFFFFFFFFFFFFFFFFFFFFFFFFFFFFFFFFFFFFFFFFFFFFFFFFFFFFFFFFF
310
FFFFFFFFFFFFFFFFFFFFFFFFFFFFFFFFF000FFFFFFFFFFFFFFFFFFFFFFFFFFFF
310
FFFFFFFFFFFFFFFFFFFFFFFFFFFFFFFFFFFFFFFFFFFFFFFFFFFFFFFFFFFFFFFF
310
FFFFFFFFFFFFFFFFFFFFFFFFFFFFFFFFFFFFFFFFFFFFFFFFFFFFFFFFFFFFFFFF
310
FFFFFFFFFFFFFFFFF000FFFFFFFFFFFFFFFFFFFFFFFFFFFFFFFFFFFFFFFFFFFF
310
FFFFFFFFFFFFFFFFFFFFFFFFFFFFFFFFFFFFFFFFFFFFFFFFFFFFFFFFFFFFFFFF
310
FFFFFFFFFFFFFFFFFFFFFFFFFFFFFFFFFFFFFFFFFFFFFFFFFFFFFFFFFFFFFFFF
310
F000FFFFFFFFFFFFFFFFFFFFFFFFFFFFFFFFFFFFFFFFFFFFFFFFFFFFFFFFFFFF
310
FFFFFFFFFFFFFFFFFFFFFFFFFFFFFFFFFFFFFFFFFFFFFFFFFFFFFFFFFFFFFFFF
310
FFFFFFFFFFFFFFFFFFFFFFFFFFFFFFFFFFFFFFFFFFFFFFFFF000FFFFFFFFFFFF
310
FFFFFFFFFFFFFFFFFFFFFFFFFFFFFFFFFFFFFFFFFFFFFFFFFFFFFFFFFFFFFFFF
310
FFFFFFFFFFFFFFFFFFFFFFFFFFFFFFFFFFFFFFFFFFFFFFFFFFFFFFFFFFFFFFFF
310
FFFFFFFFFFFFFFFFFFFFFFFFFFFFFFFFF000FFFFFFFFFFFFFFFFFFFFFFFFFFFF
310
FFFFFFFFFFFFFFFFFFFFFFFFFFFFFFFFFFFFFFFFFFFFFFFFFFFFFFFFFFFFFFFF
310
FFFFFFFFFFFFFFFFFFFFFFFFFFFFFFFFFFFFFFFFFFFFFFFFFFFFFFFFFFFFFFFF
310
FFFFFFFFFFFFFFFFF000FFFFFFFFFFFFFFFFFFFFFFFFFFFFFFFFFFFFFFFFFFFF
310
FFFFFFFFFFFFFFFFFFFFFFFFFFFFFFFFFFFFFFFFFFFFFFFFFFFFFFFFFFFFFFFF
310
FFFFFFFFFFFFFFFFFFFFFFFFFFFFFFFFFFFFFFFFFFFFFFFFFFFFFFFFFFFFFFFF
310
F000FFFFFFFFFFFFFFFFFFFFFFFFFFFFFFFFFFFFFFFFFFFFFFFFFFFFFFFFFFFF
310
FFFFFFFFFFFFFFFFFFFFFFFFFFFFFFFFFFFFFFFFFFFFFFFFFFFFFFFFFFFFFFFF
310
FFFFFFFFFFFFFFFFFFFFFFFFFFFFFFFFFFFFFFFFFFFFFFFFF000FFFFFFFFFFFF
310
FFFFFFFFFFFFFFFFFFFFFFFFFFFFFFFFFFFFFFFFFFFFFFFFFFFFFFFFFFFFFFFF
310
FFFFFFFFFFFFFFFFFFFFFFFFFFFFFFFFFFFFFFFFFFFFFFFFFFFFFFFFFFFFFFFF
310
FFFFFFFFFFFFFFFFFFFFFFFFFFFFFFFFF000FFFFFFFFFFFFFFFFFFFFFFFFFFFF
310
FFFFFFFFFFFFFFFFFFFFFFFFFFFFFFFFFFFFFFFFFFFFFFFFFFFFFFFFFFFFFFFF
310
FFFFFFFFFFFFFFFFFFFFFFFFFFFFFFFFFFFFFFFFFFFFFFFFFFFFFFFFFFFFFFFF
310
FFFFFFFFFFFFFFFFF000FFFFFFFFFFFFFFFFFFFFFFFFFFFFFFFFFFFFFFFFFFFF
310
FFFFFFFFFFFFFFFFFFFFFFFFFFFFFFFFFFFFFFFFFFFFFFFFFFFFFFFFFFFFFFFF
310
FFFFFFFFFFFFFFFFFFFFFFFFFFFFFFFFFFFFFFFFFFFFFFFFFFFFFFFFFFFFFFFF
310
F000FFFFFFFFFFFFFFFFFFFFFFFFFFFFFFFFFFFFFFFFFFFFFFFFFFFFFFFFFFFF
310
FFFFFFFFFFFFFFFFFFFFFFFFFFFFFFFFFFFFFFFFFFFFFFFFFFFFFFFFFFFFFFFF
310
FFFFFFFFFFFFFFFFFFFFFFFFFFFFFFFFFFFFFFFFFFFFFFFFF000FFFFFFFFFFFF
310
FFFFFFFFFFFFFFFFFFFFFFFFFFFFFFFFFFFFFFFFFFFFFFFFFFFFFFFFFFFFFFFF
310
FFFFFFFFFFFFFFFFFFFFFFFFFFFFFFFFFFFFFFFFFFFFFFFFFFFFFFFFFFFFFFFF
310
FFFFFFFFFFFFFFFFFFFFFFFFFFFFFFFFF000FFFFFFFFFFFFFFFFFFFFFFFFFFFF
310
FFFFFFFFFFFFFFFFFFFFFFFFFFFFFFFFFFFFFFFFFFFFFFFFFFFFFFFFFFFFFFFF
310
FFFFFFFFFFFFFFFFFFFFFFFFFFFFFFFFFFFFFFFFFFFFFFFFFFFFFFFFFFFFFFFF
310
FFFFFFFFFFFFFFFFF000FFFFF80003FFFFFFFFFFFFFFFFFFFFFFFFFFFFFFFFFF
310
FFFFF00007FFFFFFFFFF00007FFFFFF800000000000000007FFFFFFFFFFFFFFF
310
FFFFFFFC001FFFFFFFFFFFFFFC001FFFFFFFFFFFFFFFFFFFFFFFFFFE0007FFFF
310
F000FFFF8000007FFFFFFFF8000FFFFFC0007FFFFF80007FFFFF0000007FFFFF
310
FFF8000007FFFFF800000000000000007FFFFFF0001FFFFFFFFFFFC00001FFFF
310
FFFFFFFFC00001FFFFFFFF000000000003FFFFE000007FFFF000FFFE0000000F
310
FFFFFFF0000FFFFF80007FFFFF80007FFFFC0000001FFFFFFFC0000001FFFFF8
310
00000000000000007FFFFFF0001FFFFFFFFFFE0000003FFFFFFFFFFE0000003F
310
FFFFFF000000000003FFFF0000000FFFF000FFF800000003FFFFFFF00007FFFF
310
80007FFFFF80007FFFF000000007FFFFFF000000003FFFF80000000000000000
310
7FFFFFF0001FFFFFFFFFF80000000FFFFFFFFFF80000000FFFFFFF0000000000
310
03FFFC00000003FFF000FFE000000000FFFFFFF00007FFFF80003FFFFF80007F
310
FFC000000001FFFFFC000000001FFFF800000000000000007FFFFFF0001FFFFF
310
FFFFE000000003FFFFFFFFE000000003FFFFFF000000000003FFF000000000FF
310
F000FF80000000007FFFFFF00007FFFF80003FFFFF80007FFF8000000000FFFF
310
F80000000007FFF800000000000000007FFFFFF0001FFFFFFFFFC000000001FF
310
FFFFFFC000000001FFFFFF000000000003FFC0000000007FF000FF0000000000
310
3FFFFFE00007FFFF00003FFFFF80007FFE00000000003FFFF00000000003FFF8
310
00000000000000007FFFFFF0001FFFFFFFFF8000000000FFFFFFFF8000000000
310
FFFFFF000000000003FF80000000003FF000FE00000000001FFFFFE00003FFFF
310
00003FFFFF80007FFC00000000001FFFE00000000001FFF8000001FFFE000000
310
7FFFFFF0001FFFFFFFFE00000000003FFFFFFE00000000003FFFFF0000000000
310
03FF00000000001FF000FC00000000000FFFFFE00003FFFF00001FFFFF80007F
310
F800000000001FFFC00000000000FFF8000001FFFE0000007FFFFFF0001FFFFF
310
FFFC00000000001FFFFFFC00000000001FFFFF000000000003FE00000000000F
310
F000F8000000000007FFFFE00003FFFF00001FFFFF80007FF800000000000FFF
310
800000000000FFF8000001FFFE0000007FFFFFF0001FFFFFFFF800000000000F
310
FFFFF800000000000FFFFF000000000003FC000000000007F000F80000000000
310
03FFFFC00003FFFE00001FFFFF80007FF0000000000007FF0000000000007FF8
310
000001FFFE0000007FFFFFF0001FFFFFFFF0000000000007FFFFF00000000000
310
07FFFF000000000003F8000000000003F000F0000000000003FFFFC00001FFFE
310
00001FFFFF80007FE0000000000007FE0000000000003FF8000001FFFE000000
310
7FFFFFF0001FFFFFFFF0000000000007FFFFF0000000000007FFFF0000000000
310
03F800001F800003F000E00001FFF00001FFFFC00001FFFE00000FFFFF80007F
310
E00001FFE00003FE00001FFF00003FF8000001FFFE0000007FFFFFF0001FFFFF
310
FFE000003E000003FFFFE000003E000003FFFF000000000003F00001FFF80001
310
F000E00007FFFC0001FFFFC00001FFFE00000FFFFF80007FC0000FFFFC0003FC
310
0000FFFFC0001FF8000001FFFE0000007FFFFFF0001FFFFFFFC00003FFE00001
310
FFFFC00003FFE00001FFFF0001FFFFFFFFF00007FFFE0001F000E0000FFFFF00
310
00FFFF800001FFFC00000FFFFF80007FC0001FFFFE0001FC0001FFFFE0001FF8
310
000001FFFE0000007FFFFFF0001FFFFFFF80000FFFF80000FFFF80000FFFF800
310
00FFFF0003FFFFFFFFE0000FFFFF8000F000C0003FFFFF8000FFFF800000FFFC
310
000007FFFF80007F80003FFFFF0001FC0003FFFFF0001FF8000001FFFE000000
310
7FFFFFF0001FFFFFFF80003FFFFE0000FFFF80003FFFFE0000FFFF0003FFFFFF
310
FFE0003FFFFF8000F000C0003FFFFF8000FFFF800000FFFC000007FFFF80007F
310
80007FFFFF8001F80007FFFFF8000FF8000001FFFE0000007FFFFFF0001FFFFF
310
FF00007FFFFF00007FFF00007FFFFF00007FFF0003FFFFFFFFE0003FFFFFC000
310
F000C0007FFFFFC000FFFF000000FFFC000007FFFF80007F8000FFFFFF8000F8
310
000FFFFFF8000FF8000001FFFE0000007FFFFFF0001FFFFFFF0000FFFFFF8000
310
7FFF0000FFFFFF80007FFF0003FFFFFFFFC0007FFFFFC00070008000FFFFFFC0
310
00FFFF000000FFF8000007FFFF80007F8000FFFFFF8000F8000FFFFFF8000FF8
310
000001FFFE0000007FFFFFF0001FFFFFFE0001FFFFFFC0003FFE0001FFFFFFC0
310
003FFF0003FFFFFFFFC0007FFFFFE00070008000FFFFFFC0007FFF0000007FF8
310
000003FFFF80007F0001FFFFFF8000F8000FFFFFF8000FF8000001FFFE000000
310
7FFFFFF0001FFFFFFE0001FFFFFFC0003FFE0001FFFFFFC0003FFF0003FFFFFF
310
FFC000FFFFFFE00070008000FFFFFFC0007FFF0000007FF8000003FFFF80007F
310
0001FFFFFF8000F8001FFFFFF8000FF8000001FFFE0000007FFFFFF0001FFFFF
310
FE0003FFFFFFE0003FFE0003FFFFFFE0003FFF0003FFFFFFFFC000FFFFFFE000
310
70008000FFFFFFC0007FFE0000007FF8000003FFFF80007F0001FFFFFF8000F0
310
001FFFFFF8000FF8000001FFFE0000007FFFFFF0001FFFFFFC0003FFFFFFE000
310
1FFC0003FFFFFFE0001FFF0003FFFFFFFFC000FFFFFFC00070008000FFFFFF80
310
007FFE0000007FF0000003FFFF80007F0001FFFFFF0000F0001FFFFFF8000FF8
310
000001FFFE0000007FFFFFF0001FFFFFFC0007FFFFFFF0001FFC0007FFFFFFF0
310
001FFF0003FFFFFFFFC000FFFFFFC00070008001FFFFFF0000FFFE0000003FF0
310
000001FFFF80007F0001FFFFFF0000F8001FFFFFF0000FF8000001FFFE000000
310
7FFFFFF0001FFFFFFC0007FFFFFFF0001FFC0007FFFFFFF0001FFF0003FFFFFF
310
FFC001FFFFFF80007000FFFFFFFFFE0000FFFE0008003FF0008001FFFF80007F
310
FFFFFFFFFC0000FFFFFFFFFFE0000FF8000001FFFE0000007FFFFFF0001FFFFF
310
F8000FFFFFFFF8000FF8000FFFFFFFF8000FFF0003FFFFFFFFFFFFFFFFFF0000
310
7000FFFFFFFFFC0000FFFC0008003FF0008001FFFF80007FFFFFFFFFF80001FF
310
FFFFFFFF80000FF8000001FFFE0000007FFFFFF0001FFFFFF8000FFFFFFFF800
310
0FF8000FFFFFFFF8000FFF0003FFFFFFFFFFFFFFFFFE0000F000FFFFFFFFE000
310
00FFFC000C003FE000C001FFFF80007FFFFFFFFFC00001FFFFFFFFFE00001FF8
310
000001FFFE0000007FFFFFF0001FFFFFF8000FFFFFFFF8000FF8000FFFFFFFF8
310
000FFF0003FFFFFFFFFFFFFFFFF00000F000FFFFFFFE000001FFFC000C001FE0
310
00C000FFFF80007FFFFFFFFE000001FFFFFFFFE000001FF80FFFFFFFFFFFFFC0
310
7FFFFFF0001FFFFFF8000FFFFFFFF8000FF8000FFFFFFFF8000FFF0003FFFFFF
310
FFFFFFFFFF800000F000FFFFFFC0000001FFFC001C001FE001C000FFFF80007F
310
FFFFFF80000003FFFFFFF80000001FF80FFFFFFFFFFFFFC07FFFFFF0001FFFFF
310
F8001FFFFFFFFC000FF8001FFFFFFFFC000FFF0003FFFFFFFFFFFFFFF0000001
310
F000FFFFF800000001FFF8001C001FE001C000FFFF80007FFFFFF800000003FF
310
FFFF800000003FF80FFFFFFFFFFFFFC07FFFFFF0001FFFFFF8001FFFFFFFFC00
310
0FF8001FFFFFFFFC000FFF0003FFFFFFFFFFFFFE00000001F000FFFFC0000000
310
03FFF8001E001FC001E000FFFF80007FFFFF8000000007FFFFFC000000003FF8
310
0FFFFFFFFFFFFFC07FFFFFF0001FFFFFF8001FFFFFFFFC000FF8001FFFFFFFFC
310
000FFF0003FFFFFFFFFFFFE000000003F000FFFE0000000007FFF8001E000FC0
310
01E0007FFF80007FFFFE0000000007FFFFE0000000007FF80FFFFFFFFFFFFFC0
310
7FFFFFF0001FFFFFF0001FFFFFFFFC0007F0001FFFFFFFFC0007FF0003FFFFFF
310
FFFFFF0000000003F000FFF80000000007FFF8001E000FC003E0007FFF80007F
310
FFF0000000000FFFFF8000000000FFF80FFFFFFFFFFFFFC07FFFFFF0001FFFFF
310
F0001FFFFFFFFC0007F0001FFFFFFFFC0007FF0003FFFFFFFFFFFC0000000007
310
F000FFE0000000000FFFF0003E000FC003E0007FFF80007FFFC0000000001FFF
310
FE0000000001FFF80FFFFFFFFFFFFFC07FFFFFF0001FFFFFF0001FFFFFFFFC00
310
07F0001FFFFFFFFC0007FF0003FFFFFFFFFFF0000000000FF000FFC000000000
310
1FFFF0003F000F8003F0003FFF80007FFF80000000003FFFF80000000003FFF8
310
0FFFFFFFFFFFFFC07FFFFFF0001FFFFFF0001FFFFFFFFC0007F0001FFFFFFFFC
310
0007FF0003FFFFFFFFFFE0000000001FF000FF00000000007FFFF0003F000780
310
03F0003FFF80007FFF00000000007FFFF00000000007FFF80FFFFFFFFFFFFFC0
310
7FFFFFF0001FFFFFF0001FFFFFFFFC0007F0001FFFFFFFFC0007FF0003FFFFFF
310
FFFF80000000007FF000FE0000000000FFFFE0003F00078007F0003FFF80007F
310
FE0000000001FFFFE0000000001FFFF80FFFFFFFFFFFFFC07FFFFFF0001FFFFF
310
F0001FFFFFFFFC0007F0001FFFFFFFFC0007FF0003FFFFFFFFFF0000000000FF
310
F000FC0000000003FFFFE0007F00078007F0003FFF80007FFC0000000007FFFF
310
C0000000007FFFF80FFFFFFFFFFFFFC07FFFFFF0001FFFFFF8001FFFFFFFFC00
310
0FF8001FFFFFFFFC000FFF0003FFFFFFFFFE0000000003FFF000FC000000000F
310
FFFFE0007F80070007F8001FFF80007FF8000000001FFFFF8000000001FFFFF8
310
0FFFFFFFFFFFFFC07FFFFFF0001FFFFFF8001FFFFFFFFC000FF8001FFFFFFFFC
310
000FFF0003FFFFFFFFFC000000000FFFF000F8000000007FFFFFE0007F800700
310
07F8001FFF80007FF000000000FFFFFF800000000FFFFFF80FFFFFFFFFFFFFC0
310
7FFFFFF0001FFFFFF8000FFFFFFFF8000FF8000FFFFFFFF8000FFF0003FFFFFF
310
FFFC000000007FFFF000F800000007FFFFFFC0007F8003000FF8001FFF80007F
310
F000000007FFFFFF000000007FFFFFF80FFFFFFFFFFFFFC07FFFFFF0001FFFFF
310
F8000FFFFFFFF8000FF8000FFFFFFFF8000FFF0003FFFFFFFFF80000000FFFFF
310
F000F0000000FFFFFFFFC000FF8003000FF8001FFF80007FE0000000FFFFFFFF
310
0000000FFFFFFFF8000001FFFE0000007FFFFFF0001FFFFFF8000FFFFFFFF800
310
0FF8000FFFFFFFF8000FFF0003FFFFFFFFF8000000FFFFFFF000F000000FFFFF
310
FFFFC000FFC002000FF8000FFF80007FE000001FFFFFFFFE000001FFFFFFFFF8
310
000001FFFE0000007FFFFFF0001FFFFFF8000FFFFFFFF8000FF8000FFFFFFFF8
310
000FFF0003FFFFFFFFF000001FFFFFFFF000E00000FFFFFFFFFFC000FFC00200
310
0FFC000FFF80007FE00001FFFFFFFFFE00001FFFFFFFFFF8000001FFFE000000
310
7FFFFFF0001FFFFFFC000FFFFFFFF8001FFC000FFFFFFFF8001FFF0003FFFFFF
310
FFF00001FFFFFFFFF000E00007FFFFFFFFFF8000FFC000001FFC000FFF80007F
310
C0000FFFFFFFFFFE0000FFFFFFFFFFF8000001FFFE0000007FFFFFF0001FFFFF
310
FC0007FFFFFFF0001FFC0007FFFFFFF0001FFF0003FFFFFFFFF00007FFFFFFFF
310
F000E0001FFFFFFFFFFF8000FFC000001FFC000FFF80007FC0003FFFFFFFFFFE
310
0001FFFFFFFFFFF8000001FFFE0000007FFFFFF0001FFFFFFC0007FFFFFFF000
310
1FFC0007FFFFFFF0001FFF0003FFFFFFFFF0001FFFFFFFFFF000E0003FFFFF00
310
03FF8001FFE000001FFC0007FF80007FC0007FFFFF0007FC0003FFFFF0003FF8
310
000001FFFE0000007FFFFFF0001FFFFFFC0003FFFFFFE0001FFC0003FFFFFFE0
310
001FFF0003FFFFFFFFF0003FFFFFFFFFF000E0003FFFFF0001FF8001FFE00000
310
1FFE0007FF80007FC0007FFFFE0003FC0007FFFFE0003FF8000001FFFE000000
310
7FFFFFF0001FFFFFFE0003FFFFFFE0003FFE0003FFFFFFE0003FFF0003FFFFFF
310
FFF0003FFFFF8001F000E0003FFFFF0001FF0001FFE000001FFE0007FF80007F
310
C0007FFFFE0003FC0007FFFFE0003FF8000001FFFE0000007FFFFFF0001FFFFF
310
FE0001FFFFFFC0003FFE0001FFFFFFC0003FFF0003FFFFFFFFF0003FFFFF0001
310
F000E0003FFFFF0003FF0001FFE000003FFE0007FF80007FC0007FFFFE0003FC
310
0007FFFFE0003FF8000001FFFE0000007FFFFFF0001FFFFFFF0001FFFFFFC000
310
7FFF0001FFFFFFC0007FFF0003FFFFFFFFF0003FFFFF0001F000E0003FFFFE00
310
03FF0003FFF000003FFE0003FF80007FC0007FFFFC0003FE0007FFFFE0003FF8
310
000001FFFE0000007FFFFFF0001FFFFFFF0000FFFFFF80007FFF0000FFFFFF80
310
007FFF0003FFFFFFFFF0003FFFFF0001F000E0003FFFFE0003FF0003FFF00000
310
3FFF0003FF80007FC0007FFFFC0007FE0007FFFFC0003FF8000001FFFE000000
310
7FFFFFF0001FFFFFFF80007FFFFF0000FFFF80007FFFFF0000FFFF0003FFFFFF
310
FFF0003FFFFF0003F000E0003FFFFC0003FE0003FFF000003FFF0003FF80007F
310
E0003FFFF80007FE0003FFFFC0007FF8000001FFFE0000007FFFFFF0001FFFFF
310
FF80003FFFFE0000FFFF80003FFFFE0000FFFF0003FFFFFFFFF0001FFFFE0003
310
F000F0001FFFF80003FE0003FFF000007FFF0001FF80007FE0003FFFF00007FE
310
0001FFFF80007FF8000001FFFE0000007FFFFFF0001FFFFFFFC0000FFFF80001
310
FFFFC0000FFFF80001FFFF0003FFFFFFFFF0001FFFFC0003F000F0000FFFF000
310
07FE0007FFF800007FFF0001FF80007FE0001FFFE00007FF0000FFFE00007FF8
310
000001FFFE0000007FFFFFF0001FFFFFFFC00003FFE00001FFFFC00003FFE000
310
01FFFF0003FFFFFFFFF8000FFFF80003F000F00003FFC00007FC0007FFF80000
310
7FFF8001FF80007FF00007FF80000FFF00007FF80000FFF8000001FFFE000000
310
7F80000000000001FFE000003E000003FFFFE000003E000003FFFF0003FFFFFF
310
FFF80003FFE00007F000F800000000000FFC0007FFF800007FFF8001FF80007F
310
F000000000000FFF000000000000FFF8000001FFFE0000007F80000000000001
310
FFF0000000000007FFFFF0000000000007FFFF0003FFFFFFFFFC00007E000007
310
F000F800000000000FFC0007FFF80000FFFF8000FF80007FF800000000001FFF
310
800000000001FFF8000001FFFE0000007F80000000000001FFF800000000000F
310
FFFFF800000000000FFFFF0003FFFFFFFFFC00000000000FF000FC0000000000
310
1FFC0007FFFC0000FFFF8000FF80007FF800000000003FFFC00000000001FFF8
310
000001FFFE0000007F80000000000001FFF800000000000FFFFFF80000000000
310
0FFFFF0003FFFFFFFFFE00000000001FF000FE00000000003FF8000FFFFC0000
310
FFFF8000FF80007FFC00000000003FFFC00000000003FFF8000001FFFE000000
310
7F80000000000001FFFC00000000001FFFFFFC00000000001FFFFF0003FFFFFF
310
FFFF00000000001FF000FF00000000003FF8000FFFFC0000FFFFC000FF80007F
310
FE00000000007FFFE00000000007FFF8000001FFFE0000007F80000000000001
310
FFFE00000000003FFFFFFE00000000003FFFFF0003FFFFFFFFFF80000000003F
310
F000FF80000000007FF8000FFFFC0001FFFFC0007F80007FFF0000000000FFFF
310
F0000000000FFFF800000000000000007F80000000000001FFFF8000000000FF
310
FFFFFF8000000000FFFFFF0003FFFFFFFFFFC0000000007FF000FFC000000000
310
FFF8000FFFFE0001FFFFC0007F80007FFF8000000001FFFFF8000000001FFFF8
310
00000000000000007F80000000000001FFFFC000000001FFFFFFFFC000000001
310
FFFFFF0003FFFFFFFFFFE000000000FFF000FFE000000003FFF0001FFFFE0001
310
FFFFC0007F80007FFFC000000007FFFFFE000000003FFFF80000000000000000
310
7F80000000000001FFFFE000000003FFFFFFFFE000000003FFFFFF0003FFFFFF
310
FFFFF000000003FFF000FFF80000000FFFF0001FFFFE0001FFFFE0007F80007F
310
FFF00000000FFFFFFF00000000FFFFF800000000000000007F80000000000001
310
FFFFF80000000FFFFFFFFFF80000000FFFFFFF0003FFFFFFFFFFFC0000000FFF
310
F000FFFE0000003FFFF0001FFFFE0003FFFFE0003F80007FFFFC0000003FFFFF
310
FFC0000003FFFFF800000000000000007F80000000000001FFFFFE0000003FFF
310
FFFFFFFE0000003FFFFFFF0003FFFFFFFFFFFF0000003FFFF000FFFF800000FF
310
FFF0001FFFFF0003FFFFE0003F80007FFFFF000001FFFFFFFFF800001FFFFFF8
310
00000000000000007F80000000000001FFFFFFC00001FFFFFFFFFFFFC00001FF
310
FFFFFF0003FFFFFFFFFFFFC00000FFFFF000FFFFF8000FFFFFFFFFFFFFFFFFFF
310
FFFFFFFFFFFFFFFFFFFFF0001FFFFFFFFFFF0000FFFFFFF80000000000000000
310
7FFFFFFFFFFFFFFFFFFFFFFC001FFFFFFFFFFFFFFC001FFFFFFFFFFFFFFFFFFF
310
FFFFFFFC001FFFFFF000FFFFFFFFFFFFFFFFFFFFFFFFFFFFFFFFFFFFFFFFFFFF
310
FFFFFFFFFFFFFFFFFFFFFFFFFFFFFFFFFFFFFFFFFFFFFFFFFFFFFFFFFFFFFFFF
310
FFFFFFFFFFFFFFFFFFFFFFFFFFFFFFFFFFFFFFFFFFFFFFFFFFFFFFFFFFFFFFFF
310
F000FFFFFFFFFFFFFFFFFFFFFFFFFFFFFFFFFFFFFFFFFFFFFFFFFFFFFFFFFFFF
310
FFFFFFFFFFFFFFFFFFFFFFFFFFFFFFFFFFFFFFFFFFFFFFFFFFFFFFFFFFFFFFFF
310
FFFFFFFFFFFFFFFFFFFFFFFFFFFFFFFFFFFFFFFFFFFFFFFFF000FFFFFFFFFFFF
310
FFFFFFFFFFFFFFFFFFFFFFFFFFFFFFFFFFFFFFFFFFFFFFFFFFFFFFFFFFFFFFFF
310
FFFFFFFFFFFFFFFFFFFFFFFFFFFFFFFFFFFFFFFFFFFFFFFFFFFFFFFFFFFFFFFF
310
FFFFFFFFFFFFFFFFFFFFFFFFFFFFFFFFF000FFFFFFFFFFFFFFFFFFFFFFFFFFFF
310
FFFFFFFFFFFFFFFFFFFFFFFFFFFFFFFFFFFFFFFFFFFFFFFFFFFFFFFFFFFFFFFF
310
FFFFFFFFFFFFFFFFFFFFFFFFFFFFFFFFFFFFFFFFFFFFFFFFFFFFFFFFFFFFFFFF
310
FFFFFFFFFFFFFFFFF000FFFFFFFFFFFFFFFFFFFFFFFFFFFFFFFFFFFFFFFFFFFF
310
FFFFFFFFFFFFFFFFFFFFFFFFFFFFFFFFFFFFFFFFFFFFFFFFFFFFFFFFFFFFFFFF
310
FFFFFFFFFFFFFFFFFFFFFFFFFFFFFFFFFFFFFFFFFFFFFFFFFFFFFFFFFFFFFFFF
310
F000FFFFFFFFFFFFFFFFFFFFFFFFFFFFFFFFFFFFFFFFFFFFFFFFFFFFFFFFFFFF
310
FFFFFFFFFFFFFFFFFFFFFFFFFFFFFFFFFFFFFFFFFFFFFFFFFFFFFFFFFFFFFFFF
310
FFFFFFFFFFFFFFFFFFFFFFFFFFFFFFFFFFFFFFFFFFFFFFFFF000FFFFFFFFFFFF
310
FFFFFFFFFFFFFFFFFFFFFFFFFFFFFFFFFFFFFFFFFFFFFFFFFFFFFFFFFFFFFFFF
310
FFFFFFFFFFFFFFFFFFFFFFFFFFFFFFFFFFFFFFFFFFFFFFFFFFFFFFFFFFFFFFFF
310
FFFFFFFFFFFFFFFFFFFFFFFFFFFFFFFFF000FFFFFFFFFFFFFFFFFFFFFFFFFFFF
310
FFFFFFFFFFFFFFFFFFFFFFFFFFFFFFFFFFFFFFFFFFFFFFFFFFFFFFFFFFFFFFFF
310
FFFFFFFFFFFFFFFFFFFFFFFFFFFFFFFFFFFFFFFFFFFFFFFFFFFFFFFFFFFFFFFF
310
FFFFFFFFFFFFFFFFF000FFFFFFFFFFFFFFFFFFFFFFFFFFFFFFFFFFFFFFFFFFFF
310
FFFFFFFFFFFFFFFFFFFFFFFFFFFFFFFFFFFFFFFFFFFFFFFFFFFFFFFFFFFFFFFF
310
FFFFFFFFFFFFFFFFFFFFFFFFFFFFFFFFFFFFFFFFFFFFFFFFFFFFFFFFFFFFFFFF
310
F000FFFFFFFFFFFFFFFFFFFFFFFFFFFFFFFFFFFFFFFFFFFFFFFFFFFFFFFFFFFF
310
FFFFFFFFFFFFFFFFFFFFFFFFFFFFFFFFFFFFFFFFFFFFFFFFFFFFFFFFFFFFFFFF
310
FFFFFFFFFFFFFFFFFFFFFFFFFFFFFFFFFFFFFFFFFFFFFFFFF000FFFFFFFFFFFF
310
FFFFFFFFFFFFFFFFFFFFFFFFFFFFFFFFFFFFFFFFFFFFFFFFFFFFFFFFFFFFFFFF
310
FFFFFFFFFFFFFFFFFFFFFFFFFFFFFFFFFFFFFFFFFFFFFFFFFFFFFFFFFFFFFFFF
310
FFFFFFFFFFFFFFFFFFFFFFFFFFFFFFFFF000FFFFFFFFFFFFFFFFFFFFFFFFFFFF
310
FFFFFFFFFFFFFFFFFFFFFFFFFFFFFFFFFFFFFFFFFFFFFFFFFFFFFFFFFFFFFFFF
310
FFFFFFFFFFFFFFFFFFFFFFFFFFFFFFFFFFFFFFFFFFFFFFFFFFFFFFFFFFFFFFFF
310
FFFFFFFFFFFFFFFFF000FFFFFFFFFFFFFFFFFFFFFFFFFFFFFFFFFFFFFFFFFFFF
310
FFFFFFFFFFFFFFFFFFFFFFFFFFFFFFFFFFFFFFFFFFFFFFFFFFFFFFFFFFFFFFFF
310
FFFFFFFFFFFFFFFFFFFFFFFFFFFFFFFFFFFFFFFFFFFFFFFFFFFFFFFFFFFFFFFF
310
F000FFFFFFFFFFFFFFFFFFFFFFFFFFFFFFFFFFFFFFFFFFFFFFFFFFFFFFFFFFFF
310
FFFFFFFFFFFFFFFFFFFFFFFFFFFFFFFFFFFFFFFFFFFFFFFFFFFFFFFFFFFFFFFF
310
FFFFFFFFFFFFFFFFFFFFFFFFFFFFFFFFFFFFFFFFFFFFFFFFF000FFFFFFFFFFFF
310
FFFFFFFFFFFFFFFFFFFFFFFFFFFFFFFFFFFFFFFFFFFFFFFFFFFFFFFFFFFFFFFF
310
FFFFFFFFFFFFFFFFFFFFFFFFFFFFFFFFFFFFFFFFFFFFFFFFFFFFFFFFFFFFFFFF
310
FFFFFFFFFFFFFFFFFFFFFFFFFFFFFFFFF000FFFFFFFFFFFFFFFFFFFFFFFFFFFF
310
FFFFFFFFFFFFFFFFFFFFFFFFFFFFFFFFFFFFFFFFFFFFFFFFFFFFFFFFFFFFFFFF
310
FFFFFFFFFFFFFFFFFFFFFFFFFFFFFFFFFFFFFFFFFFFFFFFFFFFFFFFFFFFFFFFF
310
FFFFFFFFFFFFFFFFF000FFFFFFFFFFFFFFFFFFFFFFFFFFFFFFFFFFFFFFFFFFFF
310
FFFFFFFFFFFFFFFFFFFFFFFFFFFFFFFFFFFFFFFFFFFFFFFFFFFFFFFFFFFFFFFF
310
FFFFFFFFFFFFFFFFFFFFFFFFFFFFFFFFFFFFFFFFFFFFFFFFFFFFFFFFFFFFFFFF
310
F000FFFFFFFFFFFFFFFFFFFFFFFFFFFFFFFFFFFFFFFFFFFFFFFFFFFFFFFFFFFF
310
FFFFFFFFFFFFFFFFFFFFFFFFFFFFFFFFFFFFFFFFFFFFFFFFFFFFFFFFFFFFFFFF
310
FFFFFFFFFFFFFFFFFFFFFFFFFFFFFFFFFFFFFFFFFFFFFFFFF000FFFFFFFFFFFF
310
FFFFFFFFFFFFFFFFFFFFFFFFFFFFFFFFFFFFFFFFFFFFFFFFFFFFFFFFFFFFFFFF
310
FFFFFFFFFFFFFFFFFFFFFFFFFFFFFFFFFFFFFFFFFFFFFFFFFFFFFFFFFFFFFFFF
310
FFFFFFFFFFFFFFFFFFFFFFFFFFFFFFFFF000FFFFFFFFFFFFFFFFFFFFFFFFFFFF
310
FFFFFFFFFFFFFFFFFFFFFFFFFFFFFFFFFFFFFFFFFFFFFFFFFFFFFFFFFFFFFFFF
310
FFFFFFFFFFFFFFFFFFFFFFFFFFFFFFFFFFFFFFFFFFFFFFFFFFFFFFFFFFFFFFFF
310
FFFFFFFFFFFFFFFFF000FFFFFFFFFFFFFFFFFFFFFFFFFFFFFFFFFFFFFFFFFFFF
310
FFFFFFFFFFFFFFFFFFFFFFFFFFFFFFFFFFFFFFFFFFFFFFFFFFFFFFFFFFFFFFFF
310
FFFFFFFFFFFFFFFFFFFFFFFFFFFFFFFFFFFFFFFFFFFFFFFFFFFFFFFFFFFFFFFF
310
F000FFFFFFFFFFFFFFFFFFFFFFFFFFFFFFFFFFFFFFFFFFFFFFFFFFFFFFFFFFFF
310
FFFFFFFFFFFFFFFFFFFFFFFFFFFFFFFFFFFFFFFFFFFFFFFFFFFFFFFFFFFFFFFF
310
FFFFFFFFFFFFFFFFFFFFFFFFFFFFFFFFFFFFFFFFFFFFFFFFF000FFFFFFFFFFFF
310
FFFFFFFFFFFFFFFFFFFFFFFFFFFFFFFFFFFFFFFFFFFFFFFFFFFFFFFFFFFFFFFF
310
FFFFFFFFFFFFFFFFFFFFFFFFFFFFFFFFFFFFFFFFFFFFFFFFFFFFFFFFFFFFFFFF
310
FFFFFFFFFFFFFFFFFFFFFFFFFFFFFFFFF0000000000000000000000000000000
310
0000000001000000010000000100000001000000010000000100000001000000
310
0100000001000000010000000100000001000000010000000100000001000000
310
0100000001000000010000000100000001000000010000000100000001000000
310
0100000001000000010000000100000001000000010000000000000001000000
310
0100000001000000010000000100000001000000010000000100000001000000
310
0100000001000000010000000100000001000000010000000100000001000000
310
0100000001000000010000000100000001000000010000000100000001000000
310
0100000001000000010000000100000001000000010000000100000000000000
310
0100000001000000010000000100000001000000010000000100000001000000
310
0100000001000000010000000100000001000000010000000100000001000000
310
0100000000000000010000000000000001000000000000000100000001000000
310
0100000001000000010000000000000001000000010000000100000001000000
310
0100000001000000010000000100000001000000010000000100000001000000
310
0100000001000000010000000100000001000000010000000100000001000000
310
0100000001000000010000000100000000000000010000000100000001000000
  1
OLE
  0
ENDSEC
  0
SECTION
  2
OBJECTS
  0
DICTIONARY
  5
C
330
0
100
AcDbDictionary
281
     1
  3
ACAD_GROUP
350
D
  3
ACAD_LAYOUT
350
1A
  3
ACAD_MLEADERSTYLE
350
20F
  3
ACAD_MLINESTYLE
350
17
  3
ACAD_PLOTSETTINGS
350
19
  3
ACAD_PLOTSTYLENAME
350
E
  3
ACAD_TABLESTYLE
350
20E
  3
ACAD_VISUALSTYLE
350
2A
  3
AcDbVariableDictionary
350
210
  0
DICTIONARY
  5
D
102
{ACAD_REACTORS
330
C
102
}
330
C
100
AcDbDictionary
281
     1
  0
DICTIONARY
  5
1A
102
{ACAD_REACTORS
330
C
102
}
330
C
100
AcDbDictionary
281
     1
  3
Layout1
350
1E
  3
Layout2
350
26
  3
Model
350
22
  0
DICTIONARY
  5
20F
102
{ACAD_REACTORS
330
C
102
}
330
C
100
AcDbDictionary
281
     1
  0
DICTIONARY
  5
17
102
{ACAD_REACTORS
330
C
102
}
330
C
100
AcDbDictionary
281
     1
  3
Standard
350
18
  0
DICTIONARY
  5
19
102
{ACAD_REACTORS
330
C
102
}
330
C
100
AcDbDictionary
281
     1
  0
ACDBDICTIONARYWDFLT
  5
E
102
{ACAD_REACTORS
330
C
102
}
330
C
100
AcDbDictionary
281
     1
  3
Normal
350
F
100
AcDbDictionaryWithDefault
340
F
  0
DICTIONARY
  5
20E
102
{ACAD_REACTORS
330
C
102
}
330
C
100
AcDbDictionary
281
     1
  0
DICTIONARY
  5
2A
102
{ACAD_REACTORS
330
C
102
}
330
C
100
AcDbDictionary
281
     1
  3
2dWireframe
350
2F
  3
3D Hidden
350
31
  3
3dWireframe
350
30
  3
Basic
350
32
  3
Brighten
350
36
  3
ColorChange
350
3A
  3
Conceptual
350
34
  3
Dim
350
35
  3
Facepattern
350
39
  3
Flat
350
2B
  3
FlatWithEdges
350
2C
  3
Gouraud
350
2D
  3
GouraudWithEdges
350
2E
  3
Linepattern
350
38
  3
Realistic
350
33
  3
Thicken
350
37
  0
DICTIONARY
  5
210
102
{ACAD_REACTORS
330
C
102
}
330
C
100
AcDbDictionary
281
     1
  3
PSOLHEIGHT
350
212
  3
PSOLWIDTH
350
211
  0
LAYOUT
  5
1E
102
{ACAD_REACTORS
330
1A
102
}
330
1A
100
AcDbPlotSettings
  1

  2
none_device
  4

  6

 40
0.0
 41
0.0
 42
0.0
 43
0.0
 44
0.0
 45
0.0
 46
0.0
 47
0.0
 48
0.0
 49
0.0
140
0.0
141
0.0
142
1.0
143
1.0
 70
   688
 72
     0
 73
     0
 74
     5
  7

 75
    16
147
1.0
148
0.0
149
0.0
100
AcDbLayout
  1
Layout1
 70
     1
 71
     1
 10
0.0
 20
0.0
 11
420.0
 21
297.0
 12
0.0
 22
0.0
 32
0.0
 14
1.0000000000E+20
 24
1.0000000000E+20
 34
1.0000000000E+20
 15
-1.0000000000E+20
 25
-1.0000000000E+20
 35
-1.0000000000E+20
146
0.0
 13
0.0
 23
0.0
 33
0.0
 16
1.0
 26
0.0
 36
0.0
 17
0.0
 27
1.0
 37
0.0
 76
     0
330
1B
  0
LAYOUT
  5
26
102
{ACAD_REACTORS
330
1A
102
}
330
1A
100
AcDbPlotSettings
  1

  2
none_device
  4

  6

 40
0.0
 41
0.0
 42
0.0
 43
0.0
 44
0.0
 45
0.0
 46
0.0
 47
0.0
 48
0.0
 49
0.0
140
0.0
141
0.0
142
1.0
143
1.0
 70
   688
 72
     0
 73
     0
 74
     5
  7

 75
    16
147
1.0
148
0.0
149
0.0
100
AcDbLayout
  1
Layout2
 70
     1
 71
     2
 10
0.0
 20
0.0
 11
0.0
 21
0.0
 12
0.0
 22
0.0
 32
0.0
 14
0.0
 24
0.0
 34
0.0
 15
0.0
 25
0.0
 35
0.0
146
0.0
 13
0.0
 23
0.0
 33
0.0
 16
1.0
 26
0.0
 36
0.0
 17
0.0
 27
1.0
 37
0.0
 76
     0
330
23
  0
LAYOUT
  5
22
102
{ACAD_REACTORS
330
1A
102
}
330
1A
100
AcDbPlotSettings
  1

  2
none_device
  4

  6

 40
0.0
 41
0.0
 42
0.0
 43
0.0
 44
0.0
 45
0.0
 46
0.0
 47
0.0
 48
0.0
 49
0.0
140
0.0
141
0.0
142
1.0
143
1.0
 70
  1712
 72
     0
 73
     0
 74
     0
  7

 75
     0
147
1.0
148
0.0
149
0.0
100
AcDbLayout
  1
Model
 70
     1
 71
     0
 10
0.0
 20
0.0
 11
297.0
 21
210.0
 12
0.0
 22
0.0
 32
0.0
 14
0.0
 24
0.0
 34
0.0
 15
297.0
 25
210.0
 35
0.0
146
0.0
 13
0.0
 23
0.0
 33
0.0
 16
1.0
 26
0.0
 36
0.0
 17
0.0
 27
1.0
 37
0.0
 76
     0
330
1F
331
29
  0
MLINESTYLE
  5
18
102
{ACAD_REACTORS
330
17
102
}
330
17
100
AcDbMlineStyle
  2
Standard
 70
     0
  3

 62
   256
 51
90.0
 52
90.0
 71
     2
 49
0.5
 62
   256
  6
BYLAYER
 49
-0.5
 62
   256
  6
BYLAYER
  0
ACDBPLACEHOLDER
  5
F
102
{ACAD_REACTORS
330
E
102
}
330
E
  0
VISUALSTYLE
  5
2F
102
{ACAD_REACTORS
330
2A
102
}
330
2A
100
AcDbVisualStyle
  2
2dWireframe
 70
     4
 71
     0
 72
     2
 73
     0
 90
        0
 40
-0.6
 41
-30.0
 62
     5
 63
     7
 74
     1
 91
        4
 64
     7
 65
   257
 75
     1
175
     1
 42
1.0
 92
        0
 66
   257
 43
1.0
 76
     1
 77
     6
 78
     2
 67
     7
 79
     5
170
     0
171
     0
290
     0
174
     0
 93
        1
 44
0.0
173
     0
291
     0
 45
0.0
1001
ACAD
1000
AcDbSavedByObjectVersion
1070
     0
  0
VISUALSTYLE
  5
31
102
{ACAD_REACTORS
330
2A
102
}
330
2A
100
AcDbVisualStyle
  2
3D Hidden
 70
     6
 71
     1
 72
     2
 73
     2
 90
        0
 40
-0.6
 41
-30.0
 62
     5
 63
     7
 74
     2
 91
        2
 64
     7
 65
   257
 75
     2
175
     1
 42
40.0
 92
        0
 66
   257
 43
1.0
 76
     1
 77
     6
 78
     2
 67
     7
 79
     3
170
     0
171
     0
290
     0
174
     0
 93
        1
 44
0.0
173
     0
291
     0
 45
0.0
1001
ACAD
1000
AcDbSavedByObjectVersion
1070
     0
  0
VISUALSTYLE
  5
30
102
{ACAD_REACTORS
330
2A
102
}
330
2A
100
AcDbVisualStyle
  2
3dWireframe
 70
     5
 71
     0
 72
     2
 73
     0
 90
        0
 40
-0.6
 41
-30.0
 62
     5
 63
     7
 74
     1
 91
        4
 64
     7
 65
   257
 75
     1
175
     1
 42
1.0
 92
        0
 66
   257
 43
1.0
 76
     1
 77
     6
 78
     2
 67
     7
 79
     5
170
     0
171
     0
290
     0
174
     0
 93
        1
 44
0.0
173
     0
291
     0
 45
0.0
1001
ACAD
1000
AcDbSavedByObjectVersion
1070
     0
  0
VISUALSTYLE
  5
32
102
{ACAD_REACTORS
330
2A
102
}
330
2A
100
AcDbVisualStyle
  2
Basic
 70
     7
 71
     1
 72
     0
 73
     1
 90
        0
 40
-0.6
 41
-30.0
 62
     5
 63
     7
 74
     0
 91
        4
 64
     7
 65
   257
 75
     1
175
     1
 42
1.0
 92
        8
 66
     7
 43
1.0
 76
     1
 77
     6
 78
     2
 67
     7
 79
     5
170
     0
171
     0
290
     0
174
     0
 93
        1
 44
0.0
173
     0
291
     1
 45
0.0
1001
ACAD
1000
AcDbSavedByObjectVersion
1070
     0
  0
VISUALSTYLE
  5
36
102
{ACAD_REACTORS
330
2A
102
}
330
2A
100
AcDbVisualStyle
  2
Brighten
 70
    12
 71
     2
 72
     2
 73
     0
 90
        0
 40
-0.6
 41
-30.0
 62
     5
 63
     7
 74
     1
 91
        4
 64
     7
 65
   257
 75
     1
175
     1
 42
1.0
 92
        8
 66
     7
 43
1.0
 76
     1
 77
     6
 78
     2
 67
     7
 79
     5
170
     0
171
     0
290
     0
174
     0
 93
        1
 44
50.0
173
     0
291
     1
 45
0.0
1001
ACAD
1000
AcDbSavedByObjectVersion
1070
     0
  0
VISUALSTYLE
  5
3A
102
{ACAD_REACTORS
330
2A
102
}
330
2A
100
AcDbVisualStyle
  2
ColorChange
 70
    16
 71
     2
 72
     2
 73
     3
 90
        0
 40
-0.6
 41
-30.0
 62
     5
 63
     8
 74
     1
 91
        4
 64
     7
 65
   257
 75
     1
175
     1
 42
1.0
 92
        8
 66
     8
 43
1.0
 76
     1
 77
     6
 78
     2
 67
     7
 79
     5
170
     0
171
     0
290
     0
174
     0
 93
        1
 44
0.0
173
     0
291
     1
 45
0.0
1001
ACAD
1000
AcDbSavedByObjectVersion
1070
     0
  0
VISUALSTYLE
  5
34
102
{ACAD_REACTORS
330
2A
102
}
330
2A
100
AcDbVisualStyle
  2
Conceptual
 70
     9
 71
     3
 72
     2
 73
     0
 90
        0
 40
-0.6
 41
-30.0
 62
     5
 63
     7
 74
     2
 91
        2
 64
     7
 65
   257
 75
     1
175
     1
 42
40.0
 92
        8
 66
     7
 43
1.0
 76
     1
 77
     6
 78
     2
 67
     7
 79
     3
170
     0
171
     0
290
     0
174
     0
 93
        1
 44
0.0
173
     0
291
     0
 45
0.0
1001
ACAD
1000
AcDbSavedByObjectVersion
1070
     0
  0
VISUALSTYLE
  5
35
102
{ACAD_REACTORS
330
2A
102
}
330
2A
100
AcDbVisualStyle
  2
Dim
 70
    11
 71
     2
 72
     2
 73
     0
 90
        0
 40
-0.6
 41
-30.0
 62
     5
 63
     7
 74
     1
 91
        4
 64
     7
 65
   257
 75
     1
175
     1
 42
1.0
 92
        8
 66
     7
 43
1.0
 76
     1
 77
     6
 78
     2
 67
     7
 79
     5
170
     0
171
     0
290
     0
174
     0
 93
        1
 44
-50.0
173
     0
291
     1
 45
0.0
1001
ACAD
1000
AcDbSavedByObjectVersion
1070
     0
  0
VISUALSTYLE
  5
39
102
{ACAD_REACTORS
330
2A
102
}
330
2A
100
AcDbVisualStyle
  2
Facepattern
 70
    15
 71
     2
 72
     2
 73
     0
 90
        0
 40
-0.6
 41
-30.0
 62
     5
 63
     7
 74
     1
 91
        4
 64
     7
 65
   257
 75
     1
175
     1
 42
1.0
 92
        8
 66
     7
 43
1.0
 76
     1
 77
     6
 78
     2
 67
     7
 79
     5
170
     0
171
     0
290
     0
174
     0
 93
        1
 44
0.0
173
     0
291
     1
 45
0.0
1001
ACAD
1000
AcDbSavedByObjectVersion
1070
     0
  0
VISUALSTYLE
  5
2B
102
{ACAD_REACTORS
330
2A
102
}
330
2A
100
AcDbVisualStyle
  2
Flat
 70
     0
 71
     2
 72
     1
 73
     1
 90
        2
 40
-0.6
 41
30.0
 62
     5
 63
     7
 74
     0
 91
        4
 64
     7
 65
   257
 75
     1
175
     1
 42
1.0
 92
        8
 66
     7
 43
1.0
 76
     1
 77
     6
 78
     2
 67
     7
 79
     5
170
     0
171
     0
290
     0
174
     0
 93
       13
 44
0.0
173
     0
291
     1
 45
0.0
1001
ACAD
1000
AcDbSavedByObjectVersion
1070
     0
  0
VISUALSTYLE
  5
2C
102
{ACAD_REACTORS
330
2A
102
}
330
2A
100
AcDbVisualStyle
  2
FlatWithEdges
 70
     1
 71
     2
 72
     1
 73
     1
 90
        2
 40
-0.6
 41
30.0
 62
     5
 63
     7
 74
     1
 91
        4
 64
     7
 65
   257
 75
     1
175
     1
 42
1.0
 92
        0
 66
   257
 43
1.0
 76
     1
 77
     6
 78
     2
 67
     7
 79
     5
170
     0
171
     0
290
     0
174
     0
 93
       13
 44
0.0
173
     0
291
     1
 45
0.0
1001
ACAD
1000
AcDbSavedByObjectVersion
1070
     0
  0
VISUALSTYLE
  5
2D
102
{ACAD_REACTORS
330
2A
102
}
330
2A
100
AcDbVisualStyle
  2
Gouraud
 70
     2
 71
     2
 72
     2
 73
     1
 90
        2
 40
-0.6
 41
30.0
 62
     5
 63
     7
 74
     0
 91
        4
 64
     7
 65
   257
 75
     1
175
     1
 42
1.0
 92
        0
 66
     7
 43
1.0
 76
     1
 77
     6
 78
     2
 67
     7
 79
     5
170
     0
171
     0
290
     0
174
     0
 93
       13
 44
0.0
173
     0
291
     1
 45
0.0
1001
ACAD
1000
AcDbSavedByObjectVersion
1070
     0
  0
VISUALSTYLE
  5
2E
102
{ACAD_REACTORS
330
2A
102
}
330
2A
100
AcDbVisualStyle
  2
GouraudWithEdges
 70
     3
 71
     2
 72
     2
 73
     1
 90
        2
 40
-0.6
 41
30.0
 62
     5
 63
     7
 74
     1
 91
        4
 64
     7
 65
   257
 75
     1
175
     1
 42
1.0
 92
        0
 66
   257
 43
1.0
 76
     1
 77
     6
 78
     2
 67
     7
 79
     5
170
     0
171
     0
290
     0
174
     0
 93
       13
 44
0.0
173
     0
291
     1
 45
0.0
1001
ACAD
1000
AcDbSavedByObjectVersion
1070
     0
  0
VISUALSTYLE
  5
38
102
{ACAD_REACTORS
330
2A
102
}
330
2A
100
AcDbVisualStyle
  2
Linepattern
 70
    14
 71
     2
 72
     2
 73
     0
 90
        0
 40
-0.6
 41
-30.0
 62
     5
 63
     7
 74
     1
 91
        4
 64
     7
 65
   257
 75
     7
175
     7
 42
1.0
 92
        8
 66
     7
 43
1.0
 76
     1
 77
     6
 78
     2
 67
     7
 79
     5
170
     0
171
     0
290
     0
174
     0
 93
        1
 44
0.0
173
     0
291
     1
 45
0.0
1001
ACAD
1000
AcDbSavedByObjectVersion
1070
     0
  0
VISUALSTYLE
  5
33
102
{ACAD_REACTORS
330
2A
102
}
330
2A
100
AcDbVisualStyle
  2
Realistic
 70
     8
 71
     2
 72
     2
 73
     0
 90
        0
 40
-0.6
 41
-30.0
 62
     5
 63
     7
 74
     1
 91
        0
 64
     7
 65
   257
 75
     1
175
     1
 42
1.0
 92
        8
 66
     8
 43
1.0
 76
     1
 77
     6
 78
     2
 67
     7
 79
     5
170
     0
171
     0
290
     0
174
     0
 93
       13
 44
0.0
173
     0
291
     0
 45
0.0
1001
ACAD
1000
AcDbSavedByObjectVersion
1070
     0
  0
VISUALSTYLE
  5
37
102
{ACAD_REACTORS
330
2A
102
}
330
2A
100
AcDbVisualStyle
  2
Thicken
 70
    13
 71
     2
 72
     2
 73
     0
 90
        0
 40
-0.6
 41
-30.0
 62
     5
 63
     7
 74
     1
 91
        4
 64
     7
 65
   257
 75
     1
175
     1
 42
1.0
 92
       12
 66
     7
 43
1.0
 76
     1
 77
     6
 78
     2
 67
     7
 79
     5
170
     0
171
     0
290
     0
174
     0
 93
        1
 44
0.0
173
     0
291
     1
 45
0.0
1001
ACAD
1000
AcDbSavedByObjectVersion
1070
     0
  0
DICTIONARYVAR
  5
212
102
{ACAD_REACTORS
330
210
102
}
330
210
100
DictionaryVariables
280
     0
  1
80.000000
  0
DICTIONARYVAR
  5
211
102
{ACAD_REACTORS
330
210
102
}
330
210
100
DictionaryVariables
280
     0
  1
5.000000
  0
ENDSEC
  0
EOF
