  0
SECTION
  2
HEADER
  9
$ACADVER
  1
AC1015
  9
$ACADMAINTVER
 70
     6
  9
$DWGCODEPAGE
  3
ANSI_1252
  9
$INSBASE
 10
0.0
 20
0.0
 30
0.0
  9
$EXTMIN
 10
0.0
 20
0.0
 30
0.0
  9
$EXTMAX
 10
297.0
 20
210.0
 30
0.0
  9
$LIMMIN
 10
0.0
 20
0.0
  9
$LIMMAX
 10
297.0
 20
210.0
  9
$ORTHOMODE
 70
     0
  9
$REGENMODE
 70
     1
  9
$FILLMODE
 70
     1
  9
$QTEXTMODE
 70
     0
  9
$MIRRTEXT
 70
     1
  9
$LTSCALE
 40
1.0
  9
$ATTMODE
 70
     1
  9
$TEXTSIZE
 40
2.0
  9
$TRACEWID
 40
1.0
  9
$TEXTSTYLE
  7
Standard
  9
$CLAYER
  8
0
  9
$CELTYPE
  6
ByLayer
  9
$CECOLOR
 62
   256
  9
$CELTSCALE
 40
1.0
  9
$DISPSILH
 70
     0
  9
$DIMSCALE
 40
1.0
  9
$DIMASZ
 40
3.0
  9
$DIMEXO
 40
0.0
  9
$DIMDLI
 40
3.75
  9
$DIMRND
 40
0.0
  9
$DIMDLE
 40
0.0
  9
$DIMEXE
 40
1.0
  9
$DIMTP
 40
0.0
  9
$DIMTM
 40
0.0
  9
$DIMTXT
 40
2.0
  9
$DIMCEN
 40
2.5
  9
$DIMTSZ
 40
0.0
  9
$DIMTOL
 70
     0
  9
$DIMLIM
 70
     0
  9
$DIMTIH
 70
     1
  9
$DIMTOH
 70
     1
  9
$DIMSE1
 70
     0
  9
$DIMSE2
 70
     0
  9
$DIMTAD
 70
     1
  9
$DIMZIN
 70
     0
  9
$DIMBLK
  1

  9
$DIMASO
 70
     1
  9
$DIMSHO
 70
     1
  9
$DIMPOST
  1

  9
$DIMAPOST
  1

  9
$DIMALT
 70
     0
  9
$DIMALTD
 70
     3
  9
$DIMALTF
 40
0.0393700787
  9
$DIMLFAC
 40
1.0
  9
$DIMTOFL
 70
     1
  9
$DIMTVP
 40
0.0
  9
$DIMTIX
 70
     0
  9
$DIMSOXD
 70
     0
  9
$DIMSAH
 70
     0
  9
$DIMBLK1
  1

  9
$DIMBLK2
  1

  9
$DIMSTYLE
  2
ISO-25
  9
$DIMCLRD
 70
     0
  9
$DIMCLRE
 70
     0
  9
$DIMCLRT
 70
     0
  9
$DIMTFAC
 40
1.0
  9
$DIMGAP
 40
1.524
  9
$DIMJUST
 70
     0
  9
$DIMSD1
 70
     0
  9
$DIMSD2
 70
     0
  9
$DIMTOLJ
 70
     0
  9
$DIMTZIN
 70
     0
  9
$DIMALTZ
 70
     0
  9
$DIMALTTZ
 70
     0
  9
$DIMUPT
 70
     0
  9
$DIMDEC
 70
     2
  9
$DIMTDEC
 70
     3
  9
$DIMALTU
 70
     2
  9
$DIMALTTD
 70
     3
  9
$DIMTXSTY
  7
Standard
  9
$DIMAUNIT
 70
     0
  9
$DIMADEC
 70
     2
  9
$DIMALTRND
 40
0.0
  9
$DIMAZIN
 70
     0
  9
$DIMDSEP
 70
    44
  9
$DIMATFIT
 70
     3
  9
$DIMFRAC
 70
     0
  9
$DIMLDRBLK
  1

  9
$DIMLUNIT
 70
     2
  9
$DIMLWD
 70
    -2
  9
$DIMLWE
 70
    -2
  9
$DIMTMOVE
 70
     0
  9
$LUNITS
 70
     2
  9
$LUPREC
 70
     2
  9
$SKETCHINC
 40
1.0
  9
$FILLETRAD
 40
10.0
  9
$AUNITS
 70
     0
  9
$AUPREC
 70
     2
  9
$MENU
  1
.
  9
$ELEVATION
 40
0.0
  9
$PELEVATION
 40
0.0
  9
$THICKNESS
 40
0.0
  9
$LIMCHECK
 70
     0
  9
$CHAMFERA
 40
10.0
  9
$CHAMFERB
 40
10.0
  9
$CHAMFERC
 40
20.0
  9
$CHAMFERD
 40
0.0
  9
$SKPOLY
 70
     0
  9
$TDCREATE
 40
2455684.418970556
  9
$TDUCREATE
 40
2455684.335637222
  9
$TDUPDATE
 40
2455684.418970567
  9
$TDUUPDATE
 40
2455684.335637234
  9
$TDINDWG
 40
0.0000000116
  9
$TDUSRTIMER
 40
0.0000000116
  9
$USRTIMER
 70
     1
  9
$ANGBASE
 50
0.0
  9
$ANGDIR
 70
     0
  9
$PDMODE
 70
     0
  9
$PDSIZE
 40
-1.0
  9
$PLINEWID
 40
0.0
  9
$SPLFRAME
 70
     0
  9
$SPLINETYPE
 70
     6
  9
$SPLINESEGS
 70
     8
  9
$HANDSEED
  5
210
  9
$SURFTAB1
 70
     6
  9
$SURFTAB2
 70
     6
  9
$SURFTYPE
 70
     6
  9
$SURFU
 70
     6
  9
$SURFV
 70
     6
  9
$UCSBASE
  2

  9
$UCSNAME
  2

  9
$UCSORG
 10
0.0
 20
0.0
 30
0.0
  9
$UCSXDIR
 10
1.0
 20
0.0
 30
0.0
  9
$UCSYDIR
 10
0.0
 20
1.0
 30
0.0
  9
$UCSORTHOREF
  2

  9
$UCSORTHOVIEW
 70
     0
  9
$UCSORGTOP
 10
0.0
 20
0.0
 30
0.0
  9
$UCSORGBOTTOM
 10
0.0
 20
0.0
 30
0.0
  9
$UCSORGLEFT
 10
0.0
 20
0.0
 30
0.0
  9
$UCSORGRIGHT
 10
0.0
 20
0.0
 30
0.0
  9
$UCSORGFRONT
 10
0.0
 20
0.0
 30
0.0
  9
$UCSORGBACK
 10
0.0
 20
0.0
 30
0.0
  9
$PUCSBASE
  2

  9
$PUCSNAME
  2

  9
$PUCSORG
 10
0.0
 20
0.0
 30
0.0
  9
$PUCSXDIR
 10
1.0
 20
0.0
 30
0.0
  9
$PUCSYDIR
 10
0.0
 20
1.0
 30
0.0
  9
$PUCSORTHOREF
  2

  9
$PUCSORTHOVIEW
 70
     0
  9
$PUCSORGTOP
 10
0.0
 20
0.0
 30
0.0
  9
$PUCSORGBOTTOM
 10
0.0
 20
0.0
 30
0.0
  9
$PUCSORGLEFT
 10
0.0
 20
0.0
 30
0.0
  9
$PUCSORGRIGHT
 10
0.0
 20
0.0
 30
0.0
  9
$PUCSORGFRONT
 10
0.0
 20
0.0
 30
0.0
  9
$PUCSORGBACK
 10
0.0
 20
0.0
 30
0.0
  9
$USERI1
 70
     0
  9
$USERI2
 70
     0
  9
$USERI3
 70
     0
  9
$USERI4
 70
     0
  9
$USERI5
 70
     0
  9
$USERR1
 40
0.0
  9
$USERR2
 40
0.0
  9
$USERR3
 40
0.0
  9
$USERR4
 40
0.0
  9
$USERR5
 40
0.0
  9
$WORLDVIEW
 70
     1
  9
$SHADEDGE
 70
     3
  9
$SHADEDIF
 70
    70
  9
$TILEMODE
 70
     1
  9
$MAXACTVP
 70
    64
  9
$PINSBASE
 10
0.0
 20
0.0
 30
0.0
  9
$PLIMCHECK
 70
     0
  9
$PEXTMIN
 10
1.0000000000E+20
 20
1.0000000000E+20
 30
1.0000000000E+20
  9
$PEXTMAX
 10
-1.0000000000E+20
 20
-1.0000000000E+20
 30
-1.0000000000E+20
  9
$PLIMMIN
 10
0.0
 20
0.0
  9
$PLIMMAX
 10
420.0
 20
297.0
  9
$UNITMODE
 70
     0
  9
$VISRETAIN
 70
     1
  9
$PLINEGEN
 70
     0
  9
$PSLTSCALE
 70
     1
  9
$TREEDEPTH
 70
  3020
  9
$CMLSTYLE
  2
Standard
  9
$CMLJUST
 70
     0
  9
$CMLSCALE
 40
20.0
  9
$PROXYGRAPHICS
 70
     1
  9
$MEASUREMENT
 70
     1
  9
$CELWEIGHT
370
    -1
  9
$ENDCAPS
280
     0
  9
$JOINSTYLE
280
     0
  9
$LWDISPLAY
290
     1
  9
$INSUNITS
 70
     4
  9
$HYPERLINKBASE
  1

  9
$STYLESHEET
  1

  9
$XEDIT
290
     1
  9
$CEPSNTYPE
380
     0
  9
$PSTYLEMODE
290
     1
  9
$FINGERPRINTGUID
  2
{F0F6B376-CC0A-43DA-8367-5BEF64C90032}
  9
$VERSIONGUID
  2
{FAEB1C32-E019-11D5-929B-00C0DF256EC4}
  9
$EXTNAMES
290
     1
  9
$PSVPSCALE
 40
0.0
  9
$OLESTARTUP
290
     0
  0
ENDSEC
  0
SECTION
  2
CLASSES
  0
CLASS
  1
ACDBDICTIONARYWDFLT
  2
AcDbDictionaryWithDefault
  3
ObjectDBX Classes
 90
        0
280
     0
281
     0
  0
CLASS
  1
VISUALSTYLE
  2
AcDbVisualStyle
  3
ObjectDBX Classes
 90
     4095
280
     0
281
     0
  0
CLASS
  1
DICTIONARYVAR
  2
AcDbDictionaryVar
  3
ObjectDBX Classes
 90
        0
280
     0
281
     0
  0
CLASS
  1
ACDBPLACEHOLDER
  2
AcDbPlaceHolder
  3
ObjectDBX Classes
 90
        0
280
     0
281
     0
  0
CLASS
  1
LAYOUT
  2
AcDbLayout
  3
ObjectDBX Classes
 90
        0
280
     0
281
     0
  0
ENDSEC
  0
SECTION
  2
TABLES
  0
TABLE
  2
VPORT
  5
8
330
0
100
AcDbSymbolTable
 70
     1
  0
VPORT
  5
29
330
8
100
AcDbSymbolTableRecord
100
AcDbViewportTableRecord
  2
*Active
 70
     0
 10
0.0
 20
0.0
 11
1.0
 21
1.0
 12
148.5
 22
105.0
 13
0.0
 23
0.0
 14
10.0
 24
10.0
 15
10.0
 25
10.0
 16
0.0
 26
0.0
 36
1.0
 17
0.0
 27
0.0
 37
0.0
 40
210.0
 41
1.4142857143
 42
50.0
 43
0.0
 44
0.0
 50
0.0
 51
0.0
 71
     0
 72
  2000
 73
     1
 74
     3
 75
     0
 76
     0
 77
     0
 78
     0
281
     0
 65
     1
110
0.0
120
0.0
130
0.0
111
1.0
121
0.0
131
0.0
112
0.0
122
1.0
132
0.0
 79
     0
146
0.0
  0
ENDTAB
  0
TABLE
  2
LTYPE
  5
5
330
0
100
AcDbSymbolTable
 70
     6
  0
LTYPE
  5
14
330
5
100
AcDbSymbolTableRecord
100
AcDbLinetypeTableRecord
  2
ByBlock
 70
     0
  3

 72
    65
 73
     0
 40
0.0
  0
LTYPE
  5
15
330
5
100
AcDbSymbolTableRecord
100
AcDbLinetypeTableRecord
  2
ByLayer
 70
     0
  3

 72
    65
 73
     0
 40
0.0
  0
LTYPE
  5
16
330
5
100
AcDbSymbolTableRecord
100
AcDbLinetypeTableRecord
  2
Continuous
 70
     0
  3
Solid line
 72
    65
 73
     0
 40
0.0
  0
LTYPE
  5
3B
330
5
100
AcDbSymbolTableRecord
100
AcDbLinetypeTableRecord
  2
HIDDEN
 70
     0
  3
Hidden __ __ __ __ __ __ __ __ __ __ __ __ __ __
 72
    65
 73
     2
 40
1.905
 49
1.27
 74
     0
 49
-0.635
 74
     0
  0
LTYPE
  5
3C
330
5
100
AcDbSymbolTableRecord
100
AcDbLinetypeTableRecord
  2
PHANTOM
 70
     0
  3
Phantom ______  __  __  ______  __  __  ______
 72
    65
 73
     6
 40
12.7
 49
6.35
 74
     0
 49
-1.27
 74
     0
 49
1.27
 74
     0
 49
-1.27
 74
     0
 49
1.27
 74
     0
 49
-1.27
 74
     0
  0
LTYPE
  5
3D
330
5
100
AcDbSymbolTableRecord
100
AcDbLinetypeTableRecord
  2
CENTER
 70
     0
  3
Center ____ _ ____ _ ____ _ ____ _ ____ _ ____
 72
    65
 73
     4
 40
10.16
 49
6.35
 74
     0
 49
-1.27
 74
     0
 49
1.27
 74
     0
 49
-1.27
 74
     0
  0
LTYPE
  5
3E
330
5
100
AcDbSymbolTableRecord
100
AcDbLinetypeTableRecord
  2
CENTERX2
 70
     0
  3
Center (2x) ________  __  ________  __  _____
 72
    65
 73
     4
 40
20.32
 49
12.7
 74
     0
 49
-2.54
 74
     0
 49
2.54
 74
     0
 49
-2.54
 74
     0
  0
LTYPE
  5
3F
330
5
100
AcDbSymbolTableRecord
100
AcDbLinetypeTableRecord
  2
DOT2
 70
     0
  3
Dot (.5x) ........................................
 72
    65
 73
     2
 40
0.635
 49
0.0
 74
     0
 49
-0.635
 74
     0
  0
ENDTAB
  0
TABLE
  2
LAYER
  5
2
330
0
100
AcDbSymbolTable
 70
     5
  0
LAYER
  5
10
330
2
100
AcDbSymbolTableRecord
100
AcDbLayerTableRecord
  2
0
 70
     0
 62
     7
  6
Continuous
370
    -3
390
F
  0
LAYER
  5
40
330
2
100
AcDbSymbolTableRecord
100
AcDbLayerTableRecord
  2
FORMAT
 70
     0
 62
     7
  6
Continuous
370
    -3
390
F
  0
LAYER
  5
41
330
2
100
AcDbSymbolTableRecord
100
AcDbLayerTableRecord
  2
VERMASSUNG
 70
     0
 62
     7
  6
Continuous
370
    -3
390
F
  0
LAYER
  5
42
330
2
100
AcDbSymbolTableRecord
100
AcDbLayerTableRecord
  2
KOPF_DÜNN
 70
     0
 62
     7
  6
Continuous
370
    -3
390
F
  0
LAYER
  5
43
330
2
100
AcDbSymbolTableRecord
100
AcDbLayerTableRecord
  2
KOPF_DICK
 70
     0
 62
     7
  6
Continuous
370
    15
390
F
  0
ENDTAB
  0
TABLE
  2
STYLE
  5
3
330
0
100
AcDbSymbolTable
 70
     3
  0
STYLE
  5
11
330
3
100
AcDbSymbolTableRecord
100
AcDbTextStyleTableRecord
  2
Standard
 70
     0
 40
0.0
 41
1.0
 50
0.0
 71
     0
 42
2.5
  3
txt
  4

  0
STYLE
  5
44
330
3
100
AcDbSymbolTableRecord
100
AcDbTextStyleTableRecord
  2
SLDTEXTSTYLE0
 70
     0
 40
0.0
 41
0.7
 50
0.0
 71
     0
 42
0.2
  3
TXT
  4

  0
STYLE
  5
48
330
3
100
AcDbSymbolTableRecord
100
AcDbTextStyleTableRecord
  2
SLDTEXTSTYLE1
 70
     0
 40
0.0
 41
0.65
 50
0.0
 71
     0
 42
0.2
  3
TXT
  4

  0
ENDTAB
  0
TABLE
  2
VIEW
  5
6
330
0
100
AcDbSymbolTable
 70
     0
  0
ENDTAB
  0
TABLE
  2
UCS
  5
7
330
0
100
AcDbSymbolTable
 70
     0
  0
ENDTAB
  0
TABLE
  2
APPID
  5
9
330
0
100
AcDbSymbolTable
 70
     1
  0
APPID
  5
12
330
9
100
AcDbSymbolTableRecord
100
AcDbRegAppTableRecord
  2
ACAD
 70
     0
  0
ENDTAB
  0
TABLE
  2
DIMSTYLE
  5
A
330
0
100
AcDbSymbolTable
 70
     5
100
AcDbDimStyleTable
  0
DIMSTYLE
105
27
330
A
100
AcDbSymbolTableRecord
100
AcDbDimStyleTableRecord
  2
ISO-25
 70
     0
 41
2.5
 42
0.625
 43
3.75
 44
1.25
 73
     0
 74
     0
 77
     1
 78
     8
140
2.5
141
2.5
143
0.0393700787
147
0.625
171
     3
172
     1
271
     2
272
     2
274
     3
278
    44
283
     0
284
     8
340
11
  0
DIMSTYLE
105
1B0
102
{ACAD_REACTORS
330
1AF
330
1E0
330
1EA
330
1F4
330
1FE
102
}
330
A
100
AcDbSymbolTableRecord
100
AcDbDimStyleTableRecord
  2
SLDDIMSTYLE0
 70
     0
 41
3.0
 44
0.0
 45
0.000000001
 73
     0
 74
     0
 77
     1
 78
    12
140
2.0
147
0.5
173
     1
271
     2
272
     3
284
    12
340
44
  0
DIMSTYLE
105
1BD
102
{ACAD_REACTORS
330
1BC
102
}
330
A
100
AcDbSymbolTableRecord
100
AcDbDimStyleTableRecord
  2
SLDDIMSTYLE1
 70
     0
 41
3.0
 44
0.0
 45
0.000000001
 73
     0
 74
     0
 77
     1
 78
    12
140
2.0
147
0.5
173
     1
271
     2
272
     2
284
    12
340
44
  0
DIMSTYLE
105
1C8
102
{ACAD_REACTORS
330
1C7
102
}
330
A
100
AcDbSymbolTableRecord
100
AcDbDimStyleTableRecord
  2
SLDDIMSTYLE2
 70
     0
 41
3.0
 44
0.0
 45
0.000000001
 73
     0
 74
     0
 77
     1
 78
    12
140
2.0
147
0.5
173
     1
271
     2
272
     2
284
    12
340
44
  0
DIMSTYLE
105
1D5
102
{ACAD_REACTORS
330
1D4
102
}
330
A
100
AcDbSymbolTableRecord
100
AcDbDimStyleTableRecord
  2
SLDDIMSTYLE3
 70
     0
 41
3.0
 44
0.0
 45
0.000000001
 73
     0
 74
     0
 77
     1
 78
    12
140
2.0
147
0.5
173
     1
271
     2
272
     3
284
    12
340
44
  0
ENDTAB
  0
TABLE
  2
BLOCK_RECORD
  5
1
330
0
100
AcDbSymbolTable
 70
     9
  0
BLOCK_RECORD
  5
1F
330
1
100
AcDbSymbolTableRecord
100
AcDbBlockTableRecord
  2
*Model_Space
340
22
  0
BLOCK_RECORD
  5
1B
330
1
100
AcDbSymbolTableRecord
100
AcDbBlockTableRecord
  2
*Paper_Space
340
1E
  0
BLOCK_RECORD
  5
23
330
1
100
AcDbSymbolTableRecord
100
AcDbBlockTableRecord
  2
*Paper_Space0
340
26
  0
BLOCK_RECORD
  5
1B1
330
1
100
AcDbSymbolTableRecord
100
AcDbBlockTableRecord
  2
*D1
340
0
  0
BLOCK_RECORD
  5
1BE
330
1
100
AcDbSymbolTableRecord
100
AcDbBlockTableRecord
  2
*D2
340
0
  0
BLOCK_RECORD
  5
1C9
330
1
100
AcDbSymbolTableRecord
100
AcDbBlockTableRecord
  2
*D3
340
0
  0
BLOCK_RECORD
  5
1D6
330
1
100
AcDbSymbolTableRecord
100
AcDbBlockTableRecord
  2
*D4
340
0
  0
BLOCK_RECORD
  5
1E1
330
1
100
AcDbSymbolTableRecord
100
AcDbBlockTableRecord
  2
*D5
340
0
  0
BLOCK_RECORD
  5
1EB
330
1
100
AcDbSymbolTableRecord
100
AcDbBlockTableRecord
  2
*D6
340
0
  0
BLOCK_RECORD
  5
1F5
330
1
100
AcDbSymbolTableRecord
100
AcDbBlockTableRecord
  2
*D7
340
0
  0
BLOCK_RECORD
  5
1FF
330
1
100
AcDbSymbolTableRecord
100
AcDbBlockTableRecord
  2
*D8
340
0
  0
ENDTAB
  0
ENDSEC
  0
SECTION
  2
BLOCKS
  0
BLOCK
  5
20
330
1F
100
AcDbEntity
  8
0
100
AcDbBlockBegin
  2
*Model_Space
 70
     0
 10
0.0
 20
0.0
 30
0.0
  3
*Model_Space
  1

  0
ENDBLK
  5
21
330
1F
100
AcDbEntity
  8
0
100
AcDbBlockEnd
  0
BLOCK
  5
1C
330
1B
100
AcDbEntity
 67
     1
  8
0
100
AcDbBlockBegin
  2
*Paper_Space
 70
     0
 10
0.0
 20
0.0
 30
0.0
  3
*Paper_Space
  1

  0
ENDBLK
  5
1D
330
1B
100
AcDbEntity
 67
     1
  8
0
100
AcDbBlockEnd
  0
BLOCK
  5
24
330
23
100
AcDbEntity
  8
0
100
AcDbBlockBegin
  2
*Paper_Space0
 70
     0
 10
0.0
 20
0.0
 30
0.0
  3
*Paper_Space0
  1

  0
ENDBLK
  5
25
330
23
100
AcDbEntity
  8
0
100
AcDbBlockEnd
  0
BLOCK
  5
1B2
330
1B1
100
AcDbEntity
  8
0
100
AcDbBlockBegin
  2
*D1
 70
     1
 10
0.0
 20
0.0
 30
0.0
  3
*D1
  1

  0
SOLID
  5
1B4
330
1B1
100
AcDbEntity
  8
VERMASSUNG
100
AcDbTrace
 10
54.976056338
 20
158.132936078
 30
0.0
 11
54.526056338
 21
155.132936078
 31
0.0
 12
55.426056338
 22
155.132936078
 32
0.0
 13
55.426056338
 23
155.132936078
 33
0.0
  0
SOLID
  5
1B5
330
1B1
100
AcDbEntity
  8
VERMASSUNG
100
AcDbTrace
 10
54.976056338
 20
58.132936078
 30
0.0
 11
55.426056338
 21
61.132936078
 31
0.0
 12
54.526056338
 22
61.132936078
 32
0.0
 13
54.526056338
 23
61.132936078
 33
0.0
  0
LINE
  5
1B6
330
1B1
100
AcDbEntity
  8
VERMASSUNG
100
AcDbLine
 10
110.5353048702
 20
158.132936078
 30
0.0
 11
53.976056338
 21
158.132936078
 31
0.0
  0
LINE
  5
1B7
330
1B1
100
AcDbEntity
  8
VERMASSUNG
100
AcDbLine
 10
110.5353048702
 20
58.132936078
 30
0.0
 11
53.976056338
 21
58.132936078
 31
0.0
  0
LINE
  5
1B8
330
1B1
100
AcDbEntity
  8
VERMASSUNG
100
AcDbLine
 10
54.976056338
 20
158.132936078
 30
0.0
 11
54.976056338
 21
58.132936078
 31
0.0
  0
MTEXT
  5
1B9
330
1B1
100
AcDbEntity
  8
VERMASSUNG
100
AcDbMText
 10
52.197920849
 20
99.9292849404
 30
0.0
 40
2.0
 41
0.0
 71
     1
 72
     1
  1
HSK A 
  7
SLDTEXTSTYLE0
 11
-7.044195017643634E-15
 21
1.0
 31
0.0
 73
     1
 44
1.0
  0
MTEXT
  5
1BA
330
1B1
100
AcDbEntity
  8
VERMASSUNG
100
AcDbMText
 10
52.3979208585
 20
108.9292854843
 30
0.0
 40
2.0
 41
0.0
 71
     1
 72
     1
  1
%%c
  7
SLDTEXTSTYLE0
 11
-7.044195017643634E-15
 21
1.0
 31
0.0
 73
     1
 44
1.0
  0
MTEXT
  5
1BB
330
1B1
100
AcDbEntity
  8
VERMASSUNG
100
AcDbMText
 10
52.3979209749
 20
112.5376121343
 30
0.0
 40
2.0
 41
0.0
 71
     1
 72
     1
  1
100
  7
SLDTEXTSTYLE0
 11
-7.044195017643634E-15
 21
1.0
 31
0.0
 73
     1
 44
1.0
  0
ENDBLK
  5
1B3
330
1B1
100
AcDbEntity
  8
0
100
AcDbBlockEnd
  0
BLOCK
  5
1BF
330
1BE
100
AcDbEntity
  8
0
100
AcDbBlockBegin
  2
*D2
 70
     1
 10
0.0
 20
0.0
 30
0.0
  3
*D2
  1

  0
SOLID
  5
1C1
330
1BE
100
AcDbEntity
  8
VERMASSUNG
100
AcDbTrace
 10
168.5353048702
 20
159.6523293608
 30
0.0
 11
171.5353048702
 21
159.2023293608
 31
0.0
 12
171.5353048702
 22
160.1023293608
 32
0.0
 13
171.5353048702
 23
160.1023293608
 33
0.0
  0
SOLID
  5
1C2
330
1BE
100
AcDbEntity
  8
VERMASSUNG
100
AcDbTrace
 10
230.0353048702
 20
159.6523293608
 30
0.0
 11
227.0353048702
 21
160.1023293608
 31
0.0
 12
227.0353048702
 22
159.2023293608
 32
0.0
 13
227.0353048702
 23
159.2023293608
 33
0.0
  0
LINE
  5
1C3
330
1BE
100
AcDbEntity
  8
VERMASSUNG
100
AcDbLine
 10
168.5353048702
 20
124.032936078
 30
0.0
 11
168.5353048702
 21
160.6523293608
 31
0.0
  0
LINE
  5
1C4
330
1BE
100
AcDbEntity
  8
VERMASSUNG
100
AcDbLine
 10
230.0353048702
 20
127.8219598489
 30
0.0
 11
230.0353048702
 21
160.6523293608
 31
0.0
  0
LINE
  5
1C5
330
1BE
100
AcDbEntity
  8
VERMASSUNG
100
AcDbLine
 10
168.5353048702
 20
159.6523293608
 30
0.0
 11
230.0353048702
 21
159.6523293608
 31
0.0
  0
MTEXT
  5
1C6
330
1BE
100
AcDbEntity
  8
VERMASSUNG
100
AcDbMText
 10
197.0864478821
 20
162.2304647239
 30
0.0
 40
2.0
 41
0.0
 71
     1
 72
     1
  1
61.5
  7
SLDTEXTSTYLE0
 73
     1
 44
1.0
  0
ENDBLK
  5
1C0
330
1BE
100
AcDbEntity
  8
0
100
AcDbBlockEnd
  0
BLOCK
  5
1CA
330
1C9
100
AcDbEntity
  8
0
100
AcDbBlockBegin
  2
*D3
 70
     1
 10
0.0
 20
0.0
 30
0.0
  3
*D3
  1

  0
SOLID
  5
1CC
330
1C9
100
AcDbEntity
  8
VERMASSUNG
100
AcDbTrace
 10
236.7539544962
 20
92.132936078
 30
0.0
 11
237.2039544962
 21
95.132936078
 31
0.0
 12
236.3039544962
 22
95.132936078
 32
0.0
 13
236.3039544962
 23
95.132936078
 33
0.0
  0
SOLID
  5
1CD
330
1C9
100
AcDbEntity
  8
VERMASSUNG
100
AcDbTrace
 10
236.7539544962
 20
124.132936078
 30
0.0
 11
236.3039544962
 21
121.132936078
 31
0.0
 12
237.2039544962
 22
121.132936078
 32
0.0
 13
237.2039544962
 23
121.132936078
 33
0.0
  0
LINE
  5
1CE
330
1C9
100
AcDbEntity
  8
VERMASSUNG
100
AcDbLine
 10
226.5353048702
 20
92.132936078
 30
0.0
 11
237.7539544962
 21
92.132936078
 31
0.0
  0
LINE
  5
1CF
330
1C9
100
AcDbEntity
  8
VERMASSUNG
100
AcDbLine
 10
226.5353048702
 20
124.132936078
 30
0.0
 11
237.7539544962
 21
124.132936078
 31
0.0
  0
LINE
  5
1D0
330
1C9
100
AcDbEntity
  8
VERMASSUNG
100
AcDbLine
 10
236.7539544962
 20
92.132936078
 30
0.0
 11
236.7539544962
 21
124.132936078
 31
0.0
  0
MTEXT
  5
1D1
330
1C9
100
AcDbEntity
  8
VERMASSUNG
100
AcDbMText
 10
234.1758190167
 20
104.32931961
 30
0.0
 40
2.0
 41
0.0
 71
     1
 72
     1
  1
%%c
  7
SLDTEXTSTYLE0
 11
6.123233995736766E-17
 21
1.0
 31
0.0
 73
     1
 44
1.0
  0
MTEXT
  5
1D2
330
1C9
100
AcDbEntity
  8
VERMASSUNG
100
AcDbMText
 10
234.1758191331
 20
107.9379978332
 30
0.0
 40
2.0
 41
0.0
 71
     1
 72
     1
  1
32
  7
SLDTEXTSTYLE0
 11
6.123233995736766E-17
 21
1.0
 31
0.0
 73
     1
 44
1.0
  0
MTEXT
  5
1D3
330
1C9
100
AcDbEntity
  8
VERMASSUNG
100
AcDbMText
 10
234.1758191331
 20
110.7367540628
 30
0.0
 40
2.0
 41
0.0
 71
     1
 72
     1
  1
 
  7
SLDTEXTSTYLE0
 11
6.123233995736766E-17
 21
1.0
 31
0.0
 73
     1
 44
1.0
  0
ENDBLK
  5
1CB
330
1C9
100
AcDbEntity
  8
0
100
AcDbBlockEnd
  0
BLOCK
  5
1D7
330
1D6
100
AcDbEntity
  8
0
100
AcDbBlockBegin
  2
*D4
 70
     1
 10
0.0
 20
0.0
 30
0.0
  3
*D4
  1

  0
SOLID
  5
1D9
330
1D6
100
AcDbEntity
  8
VERMASSUNG
100
AcDbTrace
 10
242.7539544962
 20
86.132936078
 30
0.0
 11
243.2039544962
 21
89.132936078
 31
0.0
 12
242.3039544962
 22
89.132936078
 32
0.0
 13
242.3039544962
 23
89.132936078
 33
0.0
  0
SOLID
  5
1DA
330
1D6
100
AcDbEntity
  8
VERMASSUNG
100
AcDbTrace
 10
242.7539544962
 20
130.132936078
 30
0.0
 11
242.3039544962
 21
127.132936078
 31
0.0
 12
243.2039544962
 22
127.132936078
 32
0.0
 13
243.2039544962
 23
127.132936078
 33
0.0
  0
LINE
  5
1DB
330
1D6
100
AcDbEntity
  8
VERMASSUNG
100
AcDbLine
 10
230.0353048702
 20
86.132936078
 30
0.0
 11
243.7539544962
 21
86.132936078
 31
0.0
  0
LINE
  5
1DC
330
1D6
100
AcDbEntity
  8
VERMASSUNG
100
AcDbLine
 10
230.0353048702
 20
130.132936078
 30
0.0
 11
243.7539544962
 21
130.132936078
 31
0.0
  0
LINE
  5
1DD
330
1D6
100
AcDbEntity
  8
VERMASSUNG
100
AcDbLine
 10
242.7539544962
 20
86.132936078
 30
0.0
 11
242.7539544962
 21
130.132936078
 31
0.0
  0
MTEXT
  5
1DE
330
1D6
100
AcDbEntity
  8
VERMASSUNG
100
AcDbMText
 10
240.1758190167
 20
104.7296392199
 30
0.0
 40
2.0
 41
0.0
 71
     1
 72
     1
  1
%%c
  7
SLDTEXTSTYLE0
 11
6.123233995736766E-17
 21
1.0
 31
0.0
 73
     1
 44
1.0
  0
MTEXT
  5
1DF
330
1D6
100
AcDbEntity
  8
VERMASSUNG
100
AcDbMText
 10
240.1758191331
 20
108.3383174431
 30
0.0
 40
2.0
 41
0.0
 71
     1
 72
     1
  1
44
  7
SLDTEXTSTYLE0
 11
6.123233995736766E-17
 21
1.0
 31
0.0
 73
     1
 44
1.0
  0
ENDBLK
  5
1D8
330
1D6
100
AcDbEntity
  8
0
100
AcDbBlockEnd
  0
BLOCK
  5
1E2
330
1E1
100
AcDbEntity
  8
0
100
AcDbBlockBegin
  2
*D5
 70
     1
 10
0.0
 20
0.0
 30
0.0
  3
*D5
  1

  0
SOLID
  5
1E4
330
1E1
100
AcDbEntity
  8
VERMASSUNG
100
AcDbTrace
 10
110.0353048702
 20
171.6523293608
 30
0.0
 11
113.0353048702
 21
171.2023293608
 31
0.0
 12
113.0353048702
 22
172.1023293608
 32
0.0
 13
113.0353048702
 23
172.1023293608
 33
0.0
  0
SOLID
  5
1E5
330
1E1
100
AcDbEntity
  8
VERMASSUNG
100
AcDbTrace
 10
230.0353048702
 20
171.6523293608
 30
0.0
 11
227.0353048702
 21
172.1023293608
 31
0.0
 12
227.0353048702
 22
171.2023293608
 32
0.0
 13
227.0353048702
 23
171.2023293608
 33
0.0
  0
LINE
  5
1E6
330
1E1
100
AcDbEntity
  8
VERMASSUNG
100
AcDbLine
 10
110.0353048702
 20
157.632936078
 30
0.0
 11
110.0353048702
 21
172.6523293608
 31
0.0
  0
LINE
  5
1E7
330
1E1
100
AcDbEntity
  8
VERMASSUNG
100
AcDbLine
 10
230.0353048702
 20
127.8219598489
 30
0.0
 11
230.0353048702
 21
172.6523293608
 31
0.0
  0
LINE
  5
1E8
330
1E1
100
AcDbEntity
  8
VERMASSUNG
100
AcDbLine
 10
110.0353048702
 20
171.6523293608
 30
0.0
 11
230.0353048702
 21
171.6523293608
 31
0.0
  0
MTEXT
  5
1E9
330
1E1
100
AcDbEntity
  8
VERMASSUNG
100
AcDbMText
 10
168.1358173295
 20
174.2304647239
 30
0.0
 40
2.0
 41
0.0
 71
     1
 72
     1
  1
120
  7
SLDTEXTSTYLE0
 73
     1
 44
1.0
  0
ENDBLK
  5
1E3
330
1E1
100
AcDbEntity
  8
0
100
AcDbBlockEnd
  0
BLOCK
  5
1EC
330
1EB
100
AcDbEntity
  8
0
100
AcDbBlockBegin
  2
*D6
 70
     1
 10
0.0
 20
0.0
 30
0.0
  3
*D6
  1

  0
SOLID
  5
1EE
330
1EB
100
AcDbEntity
  8
VERMASSUNG
100
AcDbTrace
 10
138.9853048702
 20
165.6523293608
 30
0.0
 11
141.9853048702
 21
165.2023293608
 31
0.0
 12
141.9853048702
 22
166.1023293608
 32
0.0
 13
141.9853048702
 23
166.1023293608
 33
0.0
  0
SOLID
  5
1EF
330
1EB
100
AcDbEntity
  8
VERMASSUNG
100
AcDbTrace
 10
230.0353048702
 20
165.6523293608
 30
0.0
 11
227.0353048702
 21
166.1023293608
 31
0.0
 12
227.0353048702
 22
165.2023293608
 32
0.0
 13
227.0353048702
 23
165.2023293608
 33
0.0
  0
LINE
  5
1F0
330
1EB
100
AcDbEntity
  8
VERMASSUNG
100
AcDbLine
 10
138.9853048702
 20
156.1016758989
 30
0.0
 11
138.9853048702
 21
166.6523293608
 31
0.0
  0
LINE
  5
1F1
330
1EB
100
AcDbEntity
  8
VERMASSUNG
100
AcDbLine
 10
230.0353048702
 20
127.7627925405
 30
0.0
 11
230.0353048702
 21
166.6523293608
 31
0.0
  0
LINE
  5
1F2
330
1EB
100
AcDbEntity
  8
VERMASSUNG
100
AcDbLine
 10
138.9853048702
 20
165.6523293608
 30
0.0
 11
230.0353048702
 21
165.6523293608
 31
0.0
  0
MTEXT
  5
1F3
330
1EB
100
AcDbEntity
  8
VERMASSUNG
100
AcDbMText
 10
181.610598478
 20
168.2304647239
 30
0.0
 40
2.0
 41
0.0
 71
     1
 72
     1
  1
91.05
  7
SLDTEXTSTYLE0
 73
     1
 44
1.0
  0
ENDBLK
  5
1ED
330
1EB
100
AcDbEntity
  8
0
100
AcDbBlockEnd
  0
BLOCK
  5
1F6
330
1F5
100
AcDbEntity
  8
0
100
AcDbBlockBegin
  2
*D7
 70
     1
 10
0.0
 20
0.0
 30
0.0
  3
*D7
  1

  0
SOLID
  5
1F8
330
1F5
100
AcDbEntity
  8
VERMASSUNG
100
AcDbTrace
 10
60.1353048702
 20
177.6523293608
 30
0.0
 11
63.1353048702
 21
177.2023293608
 31
0.0
 12
63.1353048702
 22
178.1023293608
 32
0.0
 13
63.1353048702
 23
178.1023293608
 33
0.0
  0
SOLID
  5
1F9
330
1F5
100
AcDbEntity
  8
VERMASSUNG
100
AcDbTrace
 10
230.0353048702
 20
177.6523293608
 30
0.0
 11
227.0353048702
 21
178.1023293608
 31
0.0
 12
227.0353048702
 22
177.2023293608
 32
0.0
 13
227.0353048702
 23
177.2023293608
 33
0.0
  0
LINE
  5
1FA
330
1F5
100
AcDbEntity
  8
VERMASSUNG
100
AcDbLine
 10
60.1353048702
 20
138.6356058206
 30
0.0
 11
60.1353048702
 21
178.6523293608
 31
0.0
  0
LINE
  5
1FB
330
1F5
100
AcDbEntity
  8
VERMASSUNG
100
AcDbLine
 10
230.0353048702
 20
127.7627925405
 30
0.0
 11
230.0353048702
 21
178.6523293608
 31
0.0
  0
LINE
  5
1FC
330
1F5
100
AcDbEntity
  8
VERMASSUNG
100
AcDbLine
 10
60.1353048702
 20
177.6523293608
 30
0.0
 11
230.0353048702
 21
177.6523293608
 31
0.0
  0
MTEXT
  5
1FD
330
1F5
100
AcDbEntity
  8
VERMASSUNG
100
AcDbMText
 10
142.185598478
 20
180.2304647239
 30
0.0
 40
2.0
 41
0.0
 71
     1
 72
     1
  1
169.9
  7
SLDTEXTSTYLE0
 73
     1
 44
1.0
  0
ENDBLK
  5
1F7
330
1F5
100
AcDbEntity
  8
0
100
AcDbBlockEnd
  0
BLOCK
  5
200
330
1FF
100
AcDbEntity
  8
0
100
AcDbBlockBegin
  2
*D8
 70
     1
 10
0.0
 20
0.0
 30
0.0
  3
*D8
  1

  0
SOLID
  5
202
330
1FF
100
AcDbEntity
  8
VERMASSUNG
100
AcDbTrace
 10
248.7539544962
 20
134.632936078
 30
0.0
 11
248.3039544962
 21
131.632936078
 31
0.0
 12
249.2039544962
 22
131.632936078
 32
0.0
 13
249.2039544962
 23
131.632936078
 33
0.0
  0
SOLID
  5
203
330
1FF
100
AcDbEntity
  8
VERMASSUNG
100
AcDbTrace
 10
248.7539544962
 20
81.632936078
 30
0.0
 11
249.2039544962
 21
84.632936078
 31
0.0
 12
248.3039544962
 22
84.632936078
 32
0.0
 13
248.3039544962
 23
84.632936078
 33
0.0
  0
LINE
  5
204
330
1FF
100
AcDbEntity
  8
VERMASSUNG
100
AcDbLine
 10
172.8573835574
 20
134.632936078
 30
0.0
 11
249.7539544962
 21
134.632936078
 31
0.0
  0
LINE
  5
205
330
1FF
100
AcDbEntity
  8
VERMASSUNG
100
AcDbLine
 10
172.8573835574
 20
81.632936078
 30
0.0
 11
249.7539544962
 21
81.632936078
 31
0.0
  0
LINE
  5
206
330
1FF
100
AcDbEntity
  8
VERMASSUNG
100
AcDbLine
 10
248.7539544962
 20
134.632936078
 30
0.0
 11
248.7539544962
 21
81.632936078
 31
0.0
  0
MTEXT
  5
207
330
1FF
100
AcDbEntity
  8
VERMASSUNG
100
AcDbMText
 10
246.1758190167
 20
104.9292188516
 30
0.0
 40
2.0
 41
0.0
 71
     1
 72
     1
  1
%%c
  7
SLDTEXTSTYLE0
 11
-7.044195017643634E-15
 21
1.0
 31
0.0
 73
     1
 44
1.0
  0
MTEXT
  5
208
330
1FF
100
AcDbEntity
  8
VERMASSUNG
100
AcDbMText
 10
246.1758191331
 20
108.5378970748
 30
0.0
 40
2.0
 41
0.0
 71
     1
 72
     1
  1
53
  7
SLDTEXTSTYLE0
 11
-7.044195017643634E-15
 21
1.0
 31
0.0
 73
     1
 44
1.0
  0
ENDBLK
  5
201
330
1FF
100
AcDbEntity
  8
0
100
AcDbBlockEnd
  0
ENDSEC
  0
SECTION
  2
ENTITIES
  0
MTEXT
  5
45
330
1F
100
AcDbEntity
  8
KOPF_DÜNN
100
AcDbMText
 10
13.8892156294
 20
23.8442973028
 30
0.0
 40
3.0
 41
0.0
 71
     1
 72
     1
  1
HA0.S32.K21.120
  7
SLDTEXTSTYLE0
 73
     1
 44
1.0
  0
MTEXT
  5
46
330
1F
100
AcDbEntity
  8
VERMASSUNG
100
AcDbMText
 10
13.9329988022
 20
28.8834360957
 30
0.0
 40
3.0
 41
0.0
 71
     1
 72
     1
  1
Schrumpffutter_Heat shrink chuck
  7
SLDTEXTSTYLE0
 73
     1
 44
1.0
  0
MTEXT
  5
47
330
1F
100
AcDbEntity
  8
VERMASSUNG
100
AcDbMText
 10
98.8601118557
 20
13.8365368179
 30
0.0
 40
2.0
 41
0.0
 71
     1
 72
     1
  1
Datum: 02.05.2011
  7
SLDTEXTSTYLE0
 73
     1
 44
1.0
  0
MTEXT
  5
49
330
1F
100
AcDbEntity
  8
VERMASSUNG
100
AcDbMText
 10
13.933048693
 20
18.0482802738
 30
0.0
 40
2.0
 41
0.0
 71
     1
 72
     1
  1
DIN 69 893 HSK A 100
  7
SLDTEXTSTYLE1
 73
     1
 44
1.0
  0
MTEXT
  5
4A
330
1F
100
AcDbEntity
  8
VERMASSUNG
100
AcDbMText
 10
13.9808475933
 20
13.9090973692
 30
0.0
 40
2.0
 41
0.0
 71
     1
 72
     1
  1
Gewicht: 2989g
  7
SLDTEXTSTYLE0
 73
     1
 44
1.0
  0
LINE
  5
4B
330
1F
100
AcDbEntity
  8
0
  6
Continuous
 62
     7
370
    15
100
AcDbLine
 10
110.5353048702
 20
58.132936078
 30
0.0
 11
114.9853048702
 21
58.132936078
 31
0.0
  0
LINE
  5
4C
330
1F
100
AcDbEntity
  8
0
  6
Continuous
 62
     7
370
    15
100
AcDbLine
 10
115.0006828417
 20
158.132936078
 30
0.0
 11
110.5353048702
 21
158.132936078
 31
0.0
  0
ARC
  5
4D
330
1F
100
AcDbEntity
  8
0
  6
Continuous
 62
     7
370
    15
100
AcDbCircle
 10
110.5353048702
 20
58.632936078
 30
0.0
 40
0.5
100
AcDbArc
 50
180.0
 51
270.0
  0
ARC
  5
4E
330
1F
100
AcDbEntity
  8
0
  6
Continuous
 62
     7
370
    15
100
AcDbCircle
 10
110.5353048702
 20
157.632936078
 30
0.0
 40
0.5
100
AcDbArc
 50
90.0
 51
180.0
  0
ARC
  5
4F
330
1F
100
AcDbEntity
  8
0
  6
Continuous
 62
     7
370
    15
100
AcDbCircle
 10
109.1383679517
 20
69.5044507536
 30
0.0
 40
0.9962338214386793
100
AcDbArc
 50
25.7988228126
 51
90.0
  0
ARC
  5
50
330
1F
100
AcDbEntity
  8
0
  6
Continuous
 62
     7
370
    15
100
AcDbCircle
 10
109.1383679517
 20
146.7614214025
 30
0.0
 40
0.9962338214386932
100
AcDbArc
 50
270.0
 51
334.2011771874
  0
LINE
  5
51
330
1F
100
AcDbEntity
  8
0
  6
Continuous
 62
     7
370
    15
100
AcDbLine
 10
107.5353048702
 20
70.250684575
 30
0.0
 11
108.3411510246
 21
70.4666104013
 31
0.0
  0
LINE
  5
52
330
1F
100
AcDbEntity
  8
0
  6
Continuous
 62
     7
370
    15
100
AcDbLine
 10
108.3411510246
 20
145.7992617547
 30
0.0
 11
107.5353048702
 21
146.015187581
 31
0.0
  0
LINE
  5
53
330
1F
100
AcDbEntity
  8
0
  6
Continuous
 62
     7
370
    15
100
AcDbLine
 10
88.5546259515
 20
145.0642517634
 30
0.0
 11
70.2353048702
 21
144.1464501061
 31
0.0
  0
LINE
  5
54
330
1F
100
AcDbEntity
  8
0
  6
Continuous
 62
     7
370
    15
100
AcDbLine
 10
107.5353048702
 20
146.015187581
 30
0.0
 11
101.4672657157
 21
145.7111776033
 31
0.0
  0
LINE
  5
55
330
1F
100
AcDbEntity
  8
0
  6
Continuous
 62
     7
370
    15
100
AcDbLine
 10
101.4673889922
 20
70.5546883765
 30
0.0
 11
107.5353048702
 21
70.250684575
 31
0.0
  0
LINE
  5
56
330
1F
100
AcDbEntity
  8
0
  6
Continuous
 62
     7
370
    15
100
AcDbLine
 10
75.2353048702
 20
71.8689210479
 30
0.0
 11
88.5552560241
 21
71.2015888258
 31
0.0
  0
ARC
  5
57
330
1F
100
AcDbEntity
  8
0
  6
Continuous
 62
     7
370
    15
100
AcDbCircle
 10
108.5999700697
 20
69.500684575
 30
0.0
 40
0.9999999999999957
100
AcDbArc
 50
90.0
 51
105.0
  0
ARC
  5
58
330
1F
100
AcDbEntity
  8
0
  6
Continuous
 62
     7
370
    15
100
AcDbCircle
 10
108.5999700697
 20
146.765187581
 30
0.0
 40
1.0
100
AcDbArc
 50
255.0
 51
270.0
  0
LINE
  5
59
330
1F
100
AcDbEntity
  8
0
  6
Continuous
 62
     7
370
    15
100
AcDbLine
 10
108.5999700697
 20
70.500684575
 30
0.0
 11
109.1383679517
 21
70.500684575
 31
0.0
  0
LINE
  5
5A
330
1F
100
AcDbEntity
  8
0
  6
Continuous
 62
     7
370
    15
100
AcDbLine
 10
109.1383679517
 20
145.765187581
 30
0.0
 11
108.5999700697
 21
145.765187581
 31
0.0
  0
ARC
  5
5B
330
1F
100
AcDbEntity
  8
0
  6
Continuous
 62
     7
370
    15
100
AcDbCircle
 10
143.9853048702
 20
76.632936078
 30
0.0
 40
5.000000000000014
100
AcDbArc
 50
90.0
 51
180.0
  0
ARC
  5
5C
330
1F
100
AcDbEntity
  8
0
  6
Continuous
 62
     7
370
    15
100
AcDbCircle
 10
143.9853048702
 20
139.632936078
 30
0.0
 40
5.0
100
AcDbArc
 50
180.0
 51
270.0
  0
LINE
  5
5D
330
1F
100
AcDbEntity
  8
0
  6
Continuous
 62
     7
370
    15
100
AcDbLine
 10
172.8573835574
 20
81.632936078
 30
0.0
 11
227.7314526095
 21
85.9516189728
 31
0.0
  0
LINE
  5
5E
330
1F
100
AcDbEntity
  8
0
  6
Continuous
 62
     7
370
    15
100
AcDbLine
 10
227.7314526095
 20
130.3142531832
 30
0.0
 11
172.8573835574
 21
134.632936078
 31
0.0
  0
LINE
  5
5F
330
1F
100
AcDbEntity
  8
0
  6
Continuous
 62
     7
370
    15
100
AcDbLine
 10
155.484390384
 20
81.632936078
 30
0.0
 11
172.8573835574
 21
81.632936078
 31
0.0
  0
LINE
  5
60
330
1F
100
AcDbEntity
  8
0
  6
Continuous
 62
     7
370
    15
100
AcDbLine
 10
143.9853048702
 20
81.632936078
 30
0.0
 11
148.496025954
 21
81.632936078
 31
0.0
  0
LINE
  5
61
330
1F
100
AcDbEntity
  8
0
  6
Continuous
 62
     7
370
    15
100
AcDbLine
 10
148.487853589
 20
134.632936078
 30
0.0
 11
143.9853048702
 21
134.632936078
 31
0.0
  0
LINE
  5
62
330
1F
100
AcDbEntity
  8
0
  6
Continuous
 62
     7
370
    15
100
AcDbLine
 10
172.8573835574
 20
134.632936078
 30
0.0
 11
155.4743180415
 21
134.632936078
 31
0.0
  0
ARC
  5
63
330
1F
100
AcDbEntity
  8
0
  6
Continuous
 62
     7
370
    15
100
AcDbCircle
 10
227.5353048702
 20
88.4439123072
 30
0.0
 40
2.499999999999989
100
AcDbArc
 50
274.5
 51
327.9266412051
  0
ARC
  5
64
330
1F
100
AcDbEntity
  8
0
  6
Continuous
 62
     7
370
    15
100
AcDbCircle
 10
227.5353048702
 20
127.8219598489
 30
0.0
 40
2.499999999999997
100
AcDbArc
 50
32.073358795
 51
85.5
  0
LINE
  5
65
330
1F
100
AcDbEntity
  8
0
  6
Continuous
 62
     7
370
    15
100
AcDbLine
 10
61.7853048702
 20
75.882936078
 30
0.0
 11
73.3353048702
 21
75.882936078
 31
0.0
  0
ARC
  5
66
330
1F
100
AcDbEntity
  8
0
  6
Continuous
 62
     7
370
    15
100
AcDbCircle
 10
73.3353048702
 20
73.982936078
 30
0.0
 40
1.899999999999996
100
AcDbArc
 50
35.6630613694
 51
90.0
  0
ARC
  5
67
330
1F
100
AcDbEntity
  8
0
  6
Continuous
 62
     7
370
    15
100
AcDbCircle
 10
68.3353048702
 20
142.282936078
 30
0.0
 40
1.900000000000006
100
AcDbArc
 50
270.0
 51
312.7708047792
  0
LINE
  5
68
330
1F
100
AcDbEntity
  8
0
  6
Continuous
 62
     7
370
    15
100
AcDbLine
 10
61.7853048702
 20
140.382936078
 30
0.0
 11
60.1930184052
 21
138.7906496131
 31
0.0
  0
LINE
  5
69
330
1F
100
AcDbEntity
  8
0
  6
Continuous
 62
     7
370
    15
100
AcDbLine
 10
60.1928277706
 20
77.4754131776
 30
0.0
 11
61.7853048702
 21
75.882936078
 31
0.0
  0
LINE
  5
6A
330
1F
100
AcDbEntity
  8
0
  6
Continuous
 62
     7
370
    15
100
AcDbLine
 10
68.3353048702
 20
140.382936078
 30
0.0
 11
61.7853048702
 21
140.382936078
 31
0.0
  0
LINE
  5
6B
330
1F
100
AcDbEntity
  8
0
  6
Continuous
 62
     7
370
    15
100
AcDbLine
 10
230.0592533578
 20
128.7432373487
 30
0.0
 11
229.8495716762
 21
129.1417766723
 31
0.0
  0
LINE
  5
6C
330
1F
100
AcDbEntity
  8
0
  6
Continuous
 62
     7
370
    15
100
AcDbLine
 10
229.8495716762
 20
129.1417766723
 30
0.0
 11
229.6537271646
 21
129.1494714241
 31
0.0
  0
LINE
  5
6D
330
1F
100
AcDbEntity
  8
0
  6
Continuous
 62
     7
370
    15
100
AcDbLine
 10
229.6537271646
 20
87.1164007319
 30
0.0
 11
229.9280913078
 21
87.1271805285
 31
0.0
  0
LINE
  5
6E
330
1F
100
AcDbEntity
  8
0
  6
Continuous
 62
     7
370
    15
100
AcDbLine
 10
229.9280913078
 20
87.1271805285
 30
0.0
 11
230.1377729893
 21
87.525719852
 31
0.0
  0
SPLINE
  5
6F
330
1F
100
AcDbEntity
  8
0
  6
Continuous
 62
     7
370
    15
100
AcDbSpline
210
0.0
220
0.0
230
1.0
 70
     8
 71
     3
 72
    80
 73
    76
 74
     0
 42
0.00000001
 43
0.00000001
 40
-0.0312500000000001
 40
-0.0312500000000001
 40
0.0
 40
0.0
 40
0.0312499999999995
 40
0.0312499999999995
 40
0.0468749999999993
 40
0.0468749999999993
 40
0.0624999999999991
 40
0.0624999999999991
 40
0.0937499999999988
 40
0.0937499999999988
 40
0.1249999999999986
 40
0.1249999999999986
 40
0.1562499999999983
 40
0.1562499999999983
 40
0.1874999999999981
 40
0.1874999999999981
 40
0.2187499999999978
 40
0.2187499999999978
 40
0.2499999999999976
 40
0.2499999999999976
 40
0.2812499999999973
 40
0.2812499999999973
 40
0.3124999999999971
 40
0.3124999999999971
 40
0.3281249999999971
 40
0.3281249999999971
 40
0.3437499999999971
 40
0.3437499999999971
 40
0.3749999999999973
 40
0.3749999999999973
 40
0.4062499999999975
 40
0.4062499999999975
 40
0.4218749999999975
 40
0.4218749999999975
 40
0.4374999999999974
 40
0.4374999999999974
 40
0.4687499999999973
 40
0.4687499999999973
 40
0.4999999999999972
 40
0.4999999999999972
 40
0.531249999999997
 40
0.531249999999997
 40
0.562499999999997
 40
0.562499999999997
 40
0.5937499999999969
 40
0.5937499999999969
 40
0.6249999999999969
 40
0.6249999999999969
 40
0.6562499999999968
 40
0.6562499999999968
 40
0.6874999999999968
 40
0.6874999999999968
 40
0.7031249999999968
 40
0.7031249999999968
 40
0.7187499999999969
 40
0.7187499999999969
 40
0.7499999999999973
 40
0.7499999999999973
 40
0.7812499999999979
 40
0.7812499999999979
 40
0.7968749999999982
 40
0.7968749999999982
 40
0.8124999999999984
 40
0.8124999999999984
 40
0.8437499999999988
 40
0.8437499999999988
 40
0.874999999999999
 40
0.874999999999999
 40
0.9062499999999993
 40
0.9062499999999993
 40
0.9374999999999996
 40
0.9374999999999996
 40
0.9687499999999999
 40
0.9687499999999999
 40
1.0
 40
1.0
 40
1.03125
 40
1.03125
 10
118.704759557397
 20
151.5475655416379
 30
0.0
 10
119.3658501829496
 20
151.5475655416379
 30
0.0
 10
119.6908303122013
 20
151.56377377302
 30
0.0
 10
120.1703037234477
 20
151.6111384050396
 30
0.0
 10
120.3287855412885
 20
151.6307926169303
 30
0.0
 10
120.6430050737928
 20
151.6779037731229
 30
0.0
 10
120.7991253574732
 20
151.7054850926176
 30
0.0
 10
121.2531793864297
 20
151.7980208794114
 30
0.0
 10
121.5402827693696
 20
151.8730913130078
 30
0.0
 10
122.0836373253966
 20
152.0483296216184
 30
0.0
 10
122.3407409366022
 20
152.1493309194567
 30
0.0
 10
122.801647191541
 20
152.3666871179176
 30
0.0
 10
123.0085449007559
 20
152.4838514496898
 30
0.0
 10
123.3740702147481
 20
152.7339213739185
 30
0.0
 10
123.5292757368741
 20
152.8648674626775
 30
0.0
 10
123.7787061234738
 20
153.1306024063898
 30
0.0
 10
123.874796079259
 20
153.2673559997008
 30
0.0
 10
124.0033149284525
 20
153.5414215745398
 30
0.0
 10
124.0351257986303
 20
153.6763616650086
 30
0.0
 10
124.0354824484036
 20
153.9418333020773
 30
0.0
 10
124.0029851962065
 20
154.0736577792186
 30
0.0
 10
123.875359722492
 20
154.323107378839
 30
0.0
 10
123.7809313214402
 20
154.441540070767
 30
0.0
 10
123.5930705014546
 20
154.6104092678611
 30
0.0
 10
123.5222425026514
 20
154.6654952629813
 30
0.0
 10
123.3675206106861
 20
154.7707480914697
 30
0.0
 10
123.2835441405027
 20
154.82108332023
 30
0.0
 10
123.0122204708583
 20
154.9656591527681
 30
0.0
 10
122.805671252256
 20
155.0535207391851
 30
0.0
 10
122.339061112067
 20
155.2132418321846
 30
0.0
 10
122.0866955424415
 20
155.2824801286518
 30
0.0
 10
121.6807942007628
 20
155.3722675178816
 30
0.0
 10
121.5408935832853
 20
155.3998334799678
 30
0.0
 10
121.2516696480384
 20
155.4503242808941
 30
0.0
 10
121.1018301917491
 20
155.4732877197448
 30
0.0
 10
120.6477136221383
 20
155.5339182361637
 30
0.0
 10
120.3360624034014
 20
155.5639922649595
 30
0.0
 10
119.6950659384891
 20
155.6045818522182
 30
0.0
 10
119.3635383105369
 20
155.6148940824342
 30
0.0
 10
118.7107472654654
 20
155.6149696496
 30
0.0
 10
118.3862110604336
 20
155.6050680441322
 30
0.0
 10
117.7409416110172
 20
155.564581513607
 30
0.0
 10
117.4251986048545
 20
155.5341202137223
 30
0.0
 10
116.8233093098708
 20
155.4539695422857
 30
0.0
 10
116.5325600790593
 20
155.4036873104785
 30
0.0
 10
115.9856482873748
 20
155.2830171277056
 30
0.0
 10
115.7338709235379
 20
155.2137932685355
 30
0.0
 10
115.2724829309167
 20
155.0563415408949
 30
0.0
 10
115.0612136513187
 20
154.9669930662211
 30
0.0
 10
114.6979092989425
 20
154.7737451955203
 30
0.0
 10
114.5441026504997
 20
154.669617203641
 30
0.0
 10
114.3554831809023
 20
154.5009928174576
 30
0.0
 10
114.2994526946932
 20
154.4423644157826
 30
0.0
 10
114.203878932957
 20
154.3229095009564
 30
0.0
 10
114.164116015932
 20
154.2619897121182
 30
0.0
 10
114.0683442656198
 20
154.0755849859443
 30
0.0
 10
114.0356214264937
 20
153.9464721681493
 30
0.0
 10
114.0349928401646
 20
153.6778152451934
 30
0.0
 10
114.0671789848994
 20
153.5424445044366
 30
0.0
 10
114.162089686755
 20
153.3388941962006
 30
0.0
 10
114.201556470154
 20
153.2709222721372
 30
0.0
 10
114.2964864688748
 20
153.1348300490063
 30
0.0
 10
114.3522432966382
 20
153.0664799487969
 30
0.0
 10
114.5401834146081
 20
152.8657769357548
 30
0.0
 10
114.6935448843243
 20
152.7363886619421
 30
0.0
 10
115.0558091192046
 20
152.4877232298922
 30
0.0
 10
115.2666575926705
 20
152.367913587524
 30
0.0
 10
115.7273275629895
 20
152.1503912999514
 30
0.0
 10
115.9787019425733
 20
152.0513062001155
 30
0.0
 10
116.5246098294714
 20
151.8746337261986
 30
0.0
 10
116.8154324041226
 20
151.7985766380646
 30
0.0
 10
117.4167590189027
 20
151.6757316607116
 30
0.0
 10
117.7312776035151
 20
151.6280255356585
 30
0.0
 10
118.377859059635
 20
151.5637770005389
 30
0.0
 10
118.704759557397
 20
151.5475655416379
 30
0.0
 10
119.3658501829496
 20
151.5475655416379
 30
0.0
  0
LINE
  5
70
330
1F
100
AcDbEntity
  8
0
  6
Continuous
 62
     7
370
    15
100
AcDbLine
 10
114.9853048702
 20
139.482936078
 30
0.0
 11
126.7732758493
 21
139.482936078
 31
0.0
  0
LINE
  5
71
330
1F
100
AcDbEntity
  8
0
  6
Continuous
 62
     7
370
    15
100
AcDbLine
 10
126.7732758493
 20
59.357942485
 30
0.0
 11
126.7732758493
 21
139.482936078
 31
0.0
  0
LINE
  5
72
330
1F
100
AcDbEntity
  8
0
  6
Continuous
 62
     7
370
    15
100
AcDbLine
 10
126.7732758493
 20
59.357942485
 30
0.0
 11
124.9853048702
 21
59.357942485
 31
0.0
  0
SPLINE
  5
73
330
1F
100
AcDbEntity
  8
0
  6
Continuous
 62
     7
370
    15
100
AcDbSpline
210
0.0
220
0.0
230
1.0
 70
     8
 71
     3
 72
    30
 73
    26
 74
     0
 42
0.00000001
 43
0.00000001
 40
0.0
 40
0.0
 40
0.0
 40
0.0
 40
0.1250000000000002
 40
0.1250000000000002
 40
0.1875000000000003
 40
0.1875000000000003
 40
0.2500000000000004
 40
0.2500000000000004
 40
0.3750000000000001
 40
0.3750000000000001
 40
0.4374999999999998
 40
0.4374999999999998
 40
0.4999999999999996
 40
0.4999999999999996
 40
0.6249999999999996
 40
0.6249999999999996
 40
0.6874999999999997
 40
0.6874999999999997
 40
0.7499999999999997
 40
0.7499999999999997
 40
0.8124999999999998
 40
0.8124999999999998
 40
0.8749999999999999
 40
0.8749999999999999
 40
1.0
 40
1.0
 40
1.0
 40
1.0
 10
124.9853048701733
 20
59.35794248497777
 30
0.0
 10
124.3225601763283
 20
59.35794248497778
 30
0.0
 10
123.6713043172126
 20
59.34310240838897
 30
0.0
 10
122.7108537789543
 20
59.30073284415934
 30
0.0
 10
122.3934623357213
 20
59.28325474138018
 30
0.0
 10
121.7642988341665
 20
59.24192645482786
 30
0.0
 10
121.4521506477247
 20
59.21800118137017
 30
0.0
 10
120.5448433458765
 20
59.13919466490326
 30
0.0
 10
119.9714183882353
 20
59.0768886449268
 30
0.0
 10
119.1575415186606
 20
58.97375932468743
 30
0.0
 10
118.8927353220907
 20
58.93757540564092
 30
0.0
 10
118.3858279112764
 20
58.86378062144042
 30
0.0
 10
118.1444337599229
 20
58.82630676266877
 30
0.0
 10
117.4552922877906
 20
58.71359481932904
 30
0.0
 10
117.0422374729263
 20
58.63805872185526
 30
0.0
 10
116.4940826535513
 20
58.52966546483776
 30
0.0
 10
116.3246200462057
 20
58.4945932331745
 30
0.0
 10
116.0166027981903
 20
58.42835777257465
 30
0.0
 10
115.8772227775819
 20
58.39703107581993
 30
0.0
 10
115.6274372649552
 20
58.338622304239
 30
0.0
 10
115.5170311523013
 20
58.31153906905615
 30
0.0
 10
115.3257732986635
 20
58.26227931444257
 30
0.0
 10
115.2446537803793
 20
58.24001733463491
 30
0.0
 10
115.0505068602709
 20
58.18245042746664
 30
0.0
 10
114.9853048701733
 20
58.15619082268065
 30
0.0
 10
114.9853048701733
 20
58.14293707820662
 30
0.0
  0
LINE
  5
74
330
1F
100
AcDbEntity
  8
0
  6
Continuous
 62
     7
370
    15
100
AcDbLine
 10
114.9853048702
 20
58.1429370782
 30
0.0
 11
114.9853048702
 21
58.132936078
 31
0.0
  0
SPLINE
  5
75
330
1F
100
AcDbEntity
  8
0
  6
Continuous
 62
     7
370
    15
100
AcDbSpline
210
0.0
220
0.0
230
1.0
 70
     8
 71
     3
 72
    23
 73
    19
 74
     0
 42
0.00000001
 43
0.00000001
 40
0.0
 40
0.0
 40
0.0
 40
0.0
 40
0.0520256687590417
 40
0.1044186119084699
 40
0.1579654762732603
 40
0.2119084390155455
 40
0.2639329008030786
 40
0.3697142245600881
 40
0.4235868577364621
 40
0.4762679679182533
 40
0.5833878371337101
 40
0.6379530306539528
 40
0.6910551819358521
 40
0.7445319929992287
 40
0.7992014233075218
 40
0.8542881036302091
 40
0.9066815619543741
 40
1.0
 40
1.0
 40
1.0
 40
1.0
 10
124.9853048701733
 20
157.1227309336701
 30
0.0
 10
124.7122924729783
 20
157.124052502177
 30
0.0
 10
124.1643403518641
 20
157.1267049687827
 30
0.0
 10
123.3411939944089
 20
157.1481798572103
 30
0.0
 10
122.5199488938167
 20
157.1823975758784
 30
0.0
 10
121.7185200837085
 20
157.2294494860457
 30
0.0
 10
120.6861368295656
 20
157.3064384368716
 30
0.0
 10
119.7088888149415
 20
157.4023156875321
 30
0.0
 10
118.8078418036856
 20
157.5092451353203
 30
0.0
 10
117.9588680245842
 20
157.6210919431607
 30
0.0
 10
117.2012995789759
 20
157.73532054189
 30
0.0
 10
116.5563112885264
 20
157.8419002882538
 30
0.0
 10
116.1317374153286
 20
157.915830244655
 30
0.0
 10
115.7691807656796
 20
157.9817208027118
 30
0.0
 10
115.4679792085559
 20
158.038417153926
 30
0.0
 10
115.2407256365211
 20
158.0823534001607
 30
0.0
 10
115.0346183392986
 20
158.1230118469887
 30
0.0
 10
115.0139314012656
 20
158.1271952863782
 30
0.0
 10
115.0006828416539
 20
158.129874491297
 30
0.0
  0
LINE
  5
76
330
1F
100
AcDbEntity
  8
0
  6
Continuous
 62
     7
370
    15
100
AcDbLine
 10
126.7732758493
 20
157.1227309337
 30
0.0
 11
124.9853048702
 21
157.1227309337
 31
0.0
  0
LINE
  5
77
330
1F
100
AcDbEntity
  8
0
  6
Continuous
 62
     7
370
    15
100
AcDbLine
 10
126.7732758493
 20
147.0838988389
 30
0.0
 11
126.7732758493
 21
157.1227309337
 31
0.0
  0
LINE
  5
78
330
1F
100
AcDbEntity
  8
0
  6
Continuous
 62
     7
370
    15
100
AcDbLine
 10
124.6932717184
 20
147.0838988389
 30
0.0
 11
126.7732758493
 21
147.0838988389
 31
0.0
  0
SPLINE
  5
79
330
1F
100
AcDbEntity
  8
0
  6
Continuous
 62
     7
370
    15
100
AcDbSpline
210
0.0
220
0.0
230
1.0
 70
     8
 71
     3
 72
    22
 73
    18
 74
     0
 42
0.00000001
 43
0.00000001
 40
0.0
 40
0.0
 40
0.0
 40
0.0
 40
0.2500000000000002
 40
0.2500000000000002
 40
0.3750000000000003
 40
0.3750000000000003
 40
0.5000000000000004
 40
0.5000000000000004
 40
0.6250000000000004
 40
0.6250000000000004
 40
0.7500000000000004
 40
0.7500000000000004
 40
0.8750000000000004
 40
0.8750000000000004
 40
0.9375000000000002
 40
0.9375000000000002
 40
1.0
 40
1.0
 40
1.0
 40
1.0
 10
114.9853048701733
 20
139.4829360780066
 30
0.0
 10
115.1880298260924
 20
140.5021824198712
 30
0.0
 10
115.5027735478878
 20
141.4612905698105
 30
0.0
 10
116.2108290175588
 20
142.8037696473198
 30
0.0
 10
116.4892916477764
 20
143.2379782300598
 30
0.0
 10
117.1280590544136
 20
144.0496059455619
 30
0.0
 10
117.4884727342038
 20
144.4288862384987
 30
0.0
 10
118.3060049661931
 20
145.1318448175197
 30
0.0
 10
118.7671729494802
 20
145.4568736352203
 30
0.0
 10
119.765163195964
 20
146.0218889586112
 30
0.0
 10
120.3049223899563
 20
146.2655925528177
 30
0.0
 10
121.4795153539876
 20
146.6697924804627
 30
0.0
 10
122.0912515399795
 20
146.8222296735082
 30
0.0
 10
123.0431607648412
 20
146.9775572211169
 30
0.0
 10
123.3663939291018
 20
147.0170620011669
 30
0.0
 10
124.0254571003771
 20
147.0703711218356
 30
0.0
 10
124.3595211109511
 20
147.0838988388935
 30
0.0
 10
124.6932717183526
 20
147.0838988388935
 30
0.0
  0
LINE
  5
7A
330
1F
100
AcDbEntity
  8
0
  6
Continuous
 62
     7
370
    15
100
AcDbLine
 10
138.9853048702
 20
60.3835905328
 30
0.0
 11
138.9853048702
 21
139.482936078
 31
0.0
  0
SPLINE
  5
7B
330
1F
100
AcDbEntity
  8
0
  6
Continuous
 62
     7
370
    15
100
AcDbSpline
210
0.0
220
0.0
230
1.0
 70
     8
 71
     3
 72
    14
 73
    10
 74
     0
 42
0.00000001
 43
0.00000001
 40
0.0
 40
0.0
 40
0.0
 40
0.0
 40
0.25
 40
0.25
 40
0.5
 40
0.5
 40
0.75
 40
0.75
 40
1.0
 40
1.0
 40
1.0
 40
1.0
 10
138.9853048701733
 20
60.38359053275328
 30
0.0
 10
138.9853048701733
 20
60.25016483669874
 30
0.0
 10
138.9599937702624
 20
60.11831702885439
 30
0.0
 10
138.8616590064177
 20
59.87179448016028
 30
0.0
 10
138.7885150021616
 20
59.75798929191974
 30
0.0
 10
138.6050769410659
 20
59.56753211497247
 30
0.0
 10
138.4933906067274
 20
59.48989725112256
 30
0.0
 10
138.2508871764211
 20
59.38560584101008
 30
0.0
 10
138.1175127477269
 20
59.35794248497773
 30
0.0
 10
137.9853048701733
 20
59.35794248497773
 30
0.0
  0
SPLINE
  5
7C
330
1F
100
AcDbEntity
  8
0
  6
Continuous
 62
     7
370
    15
100
AcDbSpline
210
0.0
220
0.0
230
1.0
 70
    24
 71
     3
 72
    12
 73
     8
 74
     0
 42
0.00000001
 43
0.00000001
 40
0.0
 40
0.0
 40
0.0
 40
0.0
 40
0.2500000000000032
 40
0.2500000000000032
 40
0.5000000000000064
 40
0.5000000000000064
 40
1.0
 40
1.0
 40
1.0
 40
1.0
 10
137.9853048701733
 20
139.4829360780066
 30
0.0
 10
138.1373951071183
 20
139.4829360780066
 30
0.0
 10
138.2858543681937
 20
139.4829360780066
 30
0.0
 10
138.5432580004594
 20
139.4829360780066
 30
0.0
 10
138.6523627483014
 20
139.4829360780066
 30
0.0
 10
138.9064222247089
 20
139.4829360780066
 30
0.0
 10
138.9853048701733
 20
139.4829360780066
 30
0.0
 10
138.9853048701733
 20
139.4829360780066
 30
0.0
  0
LINE
  5
7D
330
1F
100
AcDbEntity
  8
0
  6
Continuous
 62
     7
370
    15
100
AcDbLine
 10
110.0353048702
 20
58.632936078
 30
0.0
 11
110.0353048702
 21
157.632936078
 31
0.0
  0
LINE
  5
7E
330
1F
100
AcDbEntity
  8
0
  6
Continuous
 62
     7
370
    15
100
AcDbLine
 10
133.2973338911
 20
59.357942485
 30
0.0
 11
133.2973338911
 21
139.482936078
 31
0.0
  0
SPLINE
  5
7F
330
1F
100
AcDbEntity
  8
0
  6
Continuous
 62
     7
370
    15
100
AcDbSpline
210
0.0
220
0.0
230
1.0
 70
     8
 71
     3
 72
     8
 73
     4
 74
     0
 42
0.00000001
 43
0.00000001
 40
0.0
 40
0.0
 40
0.0
 40
0.0
 40
1.0
 40
1.0
 40
1.0
 40
1.0
 10
133.2973338910947
 20
59.35794248497777
 30
0.0
 10
132.8462291616945
 20
60.15890241679769
 30
0.0
 10
132.3955313344511
 20
60.96009242835835
 30
0.0
 10
131.9453048701733
 20
61.76154779098312
 30
0.0
  0
LINE
  5
80
330
1F
100
AcDbEntity
  8
0
  6
Continuous
 62
     7
370
    15
100
AcDbLine
 10
131.9453048702
 20
61.761547791
 30
0.0
 11
131.9453048702
 21
139.482936078
 31
0.0
  0
SPLINE
  5
81
330
1F
100
AcDbEntity
  8
0
  6
Continuous
 62
     7
370
    15
100
AcDbSpline
210
0.0
220
0.0
230
1.0
 70
    24
 71
     3
 72
     8
 73
     4
 74
     0
 42
0.00000001
 43
0.00000001
 40
0.0
 40
0.0
 40
0.0
 40
0.0
 40
1.0
 40
1.0
 40
1.0
 40
1.0
 10
131.9453048701733
 20
139.4829360780066
 30
0.0
 10
132.3895177525273
 20
139.4829360780066
 30
0.0
 10
132.8405323187665
 20
139.4829360780066
 30
0.0
 10
133.2973338910947
 20
139.4829360780066
 30
0.0
  0
LINE
  5
82
330
1F
100
AcDbEntity
  8
0
  6
Continuous
 62
     7
370
    15
100
AcDbLine
 10
128.1253048702
 20
61.761547791
 30
0.0
 11
128.1253048702
 21
139.482936078
 31
0.0
  0
SPLINE
  5
83
330
1F
100
AcDbEntity
  8
0
  6
Continuous
 62
     7
370
    15
100
AcDbSpline
210
0.0
220
0.0
230
1.0
 70
     8
 71
     3
 72
     8
 73
     4
 74
     0
 42
0.00000001
 43
0.00000001
 40
0.0
 40
0.0
 40
0.0
 40
0.0
 40
1.0
 40
1.0
 40
1.0
 40
1.0
 10
128.1253048701733
 20
61.76154779098312
 30
0.0
 10
127.6750784058955
 20
60.96009242835835
 30
0.0
 10
127.2243805786522
 20
60.15890241679769
 30
0.0
 10
126.7732758492519
 20
59.35794248497777
 30
0.0
  0
SPLINE
  5
84
330
1F
100
AcDbEntity
  8
0
  6
Continuous
 62
     7
370
    15
100
AcDbSpline
210
0.0
220
0.0
230
1.0
 70
    24
 71
     3
 72
     8
 73
     4
 74
     0
 42
0.00000001
 43
0.00000001
 40
0.0
 40
0.0
 40
0.0
 40
0.0
 40
1.0
 40
1.0
 40
1.0
 40
1.0
 10
126.7732758492519
 20
139.4829360780066
 30
0.0
 10
127.2300774215802
 20
139.4829360780066
 30
0.0
 10
127.6810919878194
 20
139.4829360780066
 30
0.0
 10
128.1253048701733
 20
139.4829360780066
 30
0.0
  0
LINE
  5
85
330
1F
100
AcDbEntity
  8
0
  6
Continuous
 62
     7
370
    15
100
AcDbLine
 10
137.9853048702
 20
59.357942485
 30
0.0
 11
133.2973338911
 21
59.357942485
 31
0.0
  0
LINE
  5
86
330
1F
100
AcDbEntity
  8
0
  6
Continuous
 62
     7
370
    15
100
AcDbLine
 10
133.2973338911
 20
139.482936078
 30
0.0
 11
137.9853048702
 21
139.482936078
 31
0.0
  0
SPLINE
  5
87
330
1F
100
AcDbEntity
  8
0
  6
Continuous
 62
     7
370
    15
100
AcDbSpline
210
0.0
220
0.0
230
1.0
 70
     8
 71
     3
 72
    14
 73
    10
 74
     0
 42
0.00000001
 43
0.00000001
 40
0.0
 40
0.0
 40
0.0
 40
0.0
 40
0.25
 40
0.25
 40
0.5
 40
0.5
 40
0.75
 40
0.75
 40
1.0
 40
1.0
 40
1.0
 40
1.0
 10
131.9453048701733
 20
62.6697572956117
 30
0.0
 10
131.9453048701733
 20
62.77680137660607
 30
0.0
 10
131.9251871830152
 20
62.88203651684851
 30
0.0
 10
131.8466959937495
 20
63.07988700369621
 30
0.0
 10
131.7885393689483
 20
63.17093876726113
 30
0.0
 10
131.6420241133303
 20
63.32410486118591
 30
0.0
 10
131.5533815646892
 20
63.38639930739532
 30
0.0
 10
131.3576582418889
 20
63.47119309293131
 30
0.0
 10
131.2524270508179
 20
63.49326061995693
 30
0.0
 10
131.1453048701733
 20
63.49326061995694
 30
0.0
  0
SPLINE
  5
88
330
1F
100
AcDbEntity
  8
0
  6
Continuous
 62
     7
370
    15
100
AcDbSpline
210
0.0
220
0.0
230
1.0
 70
    24
 71
     3
 72
    14
 73
    10
 74
     0
 42
0.00000001
 43
0.00000001
 40
0.0
 40
0.0
 40
0.0
 40
0.0
 40
0.25
 40
0.25
 40
0.5
 40
0.5
 40
0.75
 40
0.75
 40
1.0
 40
1.0
 40
1.0
 40
1.0
 10
131.1453048701733
 20
139.4829360780066
 30
0.0
 10
131.2690746349384
 20
139.4829360780066
 30
0.0
 10
131.3934417389453
 20
139.4829360780066
 30
0.0
 10
131.5997982076714
 20
139.4829360780066
 30
0.0
 10
131.6851263510898
 20
139.4829360780066
 30
0.0
 10
131.817318409805
 20
139.4829360780066
 30
0.0
 10
131.8659636535556
 20
139.4829360780066
 30
0.0
 10
131.9294994452843
 20
139.4829360780066
 30
0.0
 10
131.9453048701733
 20
139.4829360780066
 30
0.0
 10
131.9453048701733
 20
139.4829360780066
 30
0.0
  0
SPLINE
  5
89
330
1F
100
AcDbEntity
  8
0
  6
Continuous
 62
     7
370
    15
100
AcDbSpline
210
0.0
220
0.0
230
1.0
 70
     8
 71
     3
 72
    12
 73
     8
 74
     0
 42
0.00000001
 43
0.00000001
 40
0.0
 40
0.0
 40
0.0
 40
0.0
 40
0.25
 40
0.25
 40
0.5
 40
0.5
 40
1.0
 40
1.0
 40
1.0
 40
1.0
 10
128.9253048701733
 20
63.49326061995694
 30
0.0
 10
128.8195442168244
 20
63.49326061995691
 30
0.0
 10
128.7115565886415
 20
63.47072111395652
 30
0.0
 10
128.5169619233759
 20
63.38615048196122
 30
0.0
 10
128.428090010537
 20
63.32366882920243
 30
0.0
 10
128.2088977182111
 20
63.09427987773027
 30
0.0
 10
128.1253048701733
 20
62.88169654020788
 30
0.0
 10
128.1253048701733
 20
62.6697572956117
 30
0.0
  0
SPLINE
  5
8A
330
1F
100
AcDbEntity
  8
0
  6
Continuous
 62
     7
370
    15
100
AcDbSpline
210
0.0
220
0.0
230
1.0
 70
    24
 71
     3
 72
    14
 73
    10
 74
     0
 42
0.00000001
 43
0.00000001
 40
0.0
 40
0.0
 40
0.0
 40
0.0
 40
0.25
 40
0.25
 40
0.5
 40
0.5
 40
0.75
 40
0.75
 40
1.0
 40
1.0
 40
1.0
 40
1.0
 10
128.1253048701733
 20
139.4829360780066
 30
0.0
 10
128.1253048701733
 20
139.4829360780066
 30
0.0
 10
128.1410191906392
 20
139.4829360780066
 30
0.0
 10
128.2047031691077
 20
139.4829360780066
 30
0.0
 10
128.2533063635181
 20
139.4829360780066
 30
0.0
 10
128.3859898859437
 20
139.4829360780066
 30
0.0
 10
128.4710919902543
 20
139.4829360780066
 30
0.0
 10
128.6775342251644
 20
139.4829360780066
 30
0.0
 10
128.8016151667874
 20
139.4829360780066
 30
0.0
 10
128.9253048701733
 20
139.4829360780066
 30
0.0
  0
LINE
  5
8B
330
1F
100
AcDbEntity
  8
0
  6
Continuous
 62
     7
370
    15
100
AcDbLine
 10
131.1453048702
 20
63.49326062
 30
0.0
 11
128.9253048702
 21
63.49326062
 31
0.0
  0
LINE
  5
8C
330
1F
100
AcDbEntity
  8
0
  6
Continuous
 62
     7
370
    15
100
AcDbLine
 10
128.9253048702
 20
139.482936078
 30
0.0
 11
131.1453048702
 21
139.482936078
 31
0.0
  0
LINE
  5
8D
330
1F
100
AcDbEntity
  8
0
  6
Continuous
 62
     7
370
    15
100
AcDbLine
 10
107.5353048702
 20
70.250684575
 30
0.0
 11
107.5353048702
 21
146.015187581
 31
0.0
  0
LINE
  5
8E
330
1F
100
AcDbEntity
  8
0
  6
Continuous
 62
     7
370
    15
100
AcDbLine
 10
75.2353048702
 20
71.8689210479
 30
0.0
 11
75.2353048702
 21
74.2636028126
 31
0.0
  0
SPLINE
  5
8F
330
1F
100
AcDbEntity
  8
0
  6
Continuous
 62
     7
370
    15
100
AcDbSpline
210
0.0
220
0.0
230
1.0
 70
     8
 71
     3
 72
    14
 73
    10
 74
     0
 42
0.00000001
 43
0.00000001
 40
0.0
 40
0.0
 40
0.0
 40
0.0
 40
0.25
 40
0.25
 40
0.5
 40
0.5
 40
0.75
 40
0.75
 40
1.0
 40
1.0
 40
1.0
 40
1.0
 10
74.23088239883637
 20
75.96645473426305
 30
0.0
 10
74.31965097678169
 20
75.80792060295511
 30
0.0
 10
74.44136881546059
 20
75.65547792606654
 30
0.0
 10
74.67641842531742
 20
75.35834330223761
 30
0.0
 10
74.79204861153433
 20
75.21366065862026
 30
0.0
 10
74.99245354496215
 20
74.93037145611684
 30
0.0
 10
75.07785383694646
 20
74.79181746308001
 30
0.0
 10
75.1995594706637
 20
74.52043343304646
 30
0.0
 10
75.23530487017634
 20
74.38829756441184
 30
0.0
 10
75.23530487017632
 20
74.26360281264108
 30
0.0
  0
SPLINE
  5
90
330
1F
100
AcDbEntity
  8
0
  6
Continuous
 62
     7
370
    15
100
AcDbSpline
210
0.0
220
0.0
230
1.0
 70
     8
 71
     3
 72
    14
 73
    10
 74
     0
 42
0.00000001
 43
0.00000001
 40
0.0
 40
0.0
 40
0.0
 40
0.0
 40
0.124999999999999
 40
0.124999999999999
 40
0.249999999999998
 40
0.249999999999998
 40
0.5000000000000007
 40
0.5000000000000007
 40
1.0
 40
1.0
 40
1.0
 40
1.0
 10
73.33530487017332
 20
76.59528467336315
 30
0.0
 10
73.40288716995781
 20
76.60244055846455
 30
0.0
 10
73.47537474770571
 20
76.59801608842554
 30
0.0
 10
73.60766585697165
 20
76.56830993065519
 30
0.0
 10
73.66494323636184
 20
76.54502564907696
 30
0.0
 10
73.8145936635621
 20
76.46754040922664
 30
0.0
 10
73.88830695908361
 20
76.40568858232527
 30
0.0
 10
74.07611494240984
 20
76.22101112967695
 30
0.0
 10
74.1601552487713
 20
76.09276820638574
 30
0.0
 10
74.23088239883757
 20
75.96645473426315
 30
0.0
  0
SPLINE
  5
91
330
1F
100
AcDbEntity
  8
0
  6
Continuous
 62
     7
370
    15
100
AcDbSpline
210
0.0
220
0.0
230
1.0
 70
     8
 71
     3
 72
     8
 73
     4
 74
     0
 42
0.00000001
 43
0.00000001
 40
0.0
 40
0.0
 40
0.0
 40
0.0
 40
1.0
 40
1.0
 40
1.0
 40
1.0
 10
69.79066448209254
 20
76.17723608857138
 30
0.0
 10
70.9559627928014
 20
76.332423560458
 30
0.0
 10
72.14057800684122
 20
76.46878219876832
 30
0.0
 10
73.33530487017332
 20
76.59528467336315
 30
0.0
  0
SPLINE
  5
92
330
1F
100
AcDbEntity
  8
0
  6
Continuous
 62
     7
370
    15
100
AcDbSpline
210
0.0
220
0.0
230
1.0
 70
     8
 71
     3
 72
    14
 73
    10
 74
     0
 42
0.00000001
 43
0.00000001
 40
0.0
 40
0.0
 40
0.0
 40
0.0
 40
0.4999999999999972
 40
0.4999999999999972
 40
0.7499999999999971
 40
0.7499999999999971
 40
0.8749999999999986
 40
0.8749999999999986
 40
1.0
 40
1.0
 40
1.0
 40
1.0
 10
62.03522998614462
 20
75.88710390944145
 30
0.0
 10
63.34353154867836
 20
75.89411863318257
 30
0.0
 10
64.64859092333518
 20
75.90952720962707
 30
0.0
 10
66.5944669748235
 20
75.96342376509374
 30
0.0
 10
67.2411644785625
 20
75.98645532969643
 30
0.0
 10
68.20500684241685
 20
76.03739785456719
 30
0.0
 10
68.52524553435093
 20
76.05713277680037
 30
0.0
 10
69.16194076069333
 20
76.10661990527196
 30
0.0
 10
69.47865616897624
 20
76.13568468420118
 30
0.0
 10
69.79066448209257
 20
76.17723608857132
 30
0.0
  0
SPLINE
  5
93
330
1F
100
AcDbEntity
  8
0
  6
Continuous
 62
     7
370
    15
100
AcDbSpline
210
0.0
220
0.0
230
1.0
 70
     8
 71
     3
 72
    12
 73
     8
 74
     0
 42
0.00000001
 43
0.00000001
 40
0.0
 40
0.0
 40
0.0
 40
0.0
 40
0.2500000000000009
 40
0.2500000000000009
 40
0.5000000000000018
 40
0.5000000000000018
 40
1.0
 40
1.0
 40
1.0
 40
1.0
 10
68.33530487017332
 20
140.219458969503
 30
0.0
 10
67.81660604834514
 20
140.2519817443512
 30
0.0
 10
67.29489447514014
 20
140.2752784855217
 30
0.0
 10
66.24860245864456
 20
140.3131239999438
 30
0.0
 10
65.7239308329743
 20
140.32739247444
 30
0.0
 10
64.14708481043508
 20
140.3616019618983
 30
0.0
 10
63.09212949588816
 20
140.3731014658422
 30
0.0
 10
62.03522998614293
 20
140.3787682465717
 30
0.0
  0
SPLINE
  5
94
330
1F
100
AcDbEntity
  8
0
  6
Continuous
 62
     7
370
    15
100
AcDbSpline
210
0.0
220
0.0
230
1.0
 70
     8
 71
     3
 72
    20
 73
    16
 74
     0
 42
0.00000001
 43
0.00000001
 40
0.0
 40
0.0
 40
0.0
 40
0.0
 40
0.2500000000000011
 40
0.2500000000000011
 40
0.5000000000000021
 40
0.5000000000000021
 40
0.7500000000000031
 40
0.7500000000000031
 40
0.8750000000000008
 40
0.8750000000000008
 40
0.9375000000000006
 40
0.9375000000000006
 40
0.9687500000000003
 40
0.9687500000000003
 40
1.0
 40
1.0
 40
1.0
 40
1.0
 10
70.23530487017332
 20
141.8775448149912
 30
0.0
 10
70.23530487017332
 20
141.7418624952443
 30
0.0
 10
70.1865930809567
 20
141.6007755091043
 30
0.0
 10
70.01743165773149
 20
141.3087037903738
 30
0.0
 10
69.89565124381319
 20
141.1570550482834
 30
0.0
 10
69.59810414906367
 20
140.8546466081303
 30
0.0
 10
69.4241915433609
 20
140.7020579720069
 30
0.0
 10
69.10477670947908
 20
140.4767872081646
 30
0.0
 10
68.98973593403183
 20
140.4020641136539
 30
0.0
 10
68.78265161001539
 20
140.3026537043969
 30
0.0
 10
68.70654377520901
 20
140.2710886120523
 30
0.0
 10
68.57514923565566
 20
140.2366452278594
 30
0.0
 10
68.5285960166542
 20
140.2275936560917
 30
0.0
 10
68.43226266557349
 20
140.2174180072533
 30
0.0
 10
68.38300324221805
 20
140.2164682485783
 30
0.0
 10
68.33530487017134
 20
140.2194589694928
 30
0.0
  0
LINE
  5
95
330
1F
100
AcDbEntity
  8
0
  6
Continuous
 62
     7
370
    15
100
AcDbLine
 10
70.2353048702
 20
141.877544815
 30
0.0
 11
70.2353048702
 21
144.1464501061
 31
0.0
  0
SPLINE
  5
96
330
1F
100
AcDbEntity
  8
0
  6
Continuous
 62
     7
370
    15
100
AcDbSpline
210
0.0
220
0.0
230
1.0
 70
     8
 71
     3
 72
    24
 73
    20
 74
     0
 42
0.00000001
 43
0.00000001
 40
0.0
 40
0.0
 40
0.0
 40
0.0
 40
0.0002934293894791
 40
0.062808005175641
 40
0.1260453927228619
 40
0.18907467666103
 40
0.2513200540860133
 40
0.3133304633786588
 40
0.3759158453762907
 40
0.4383740564599686
 40
0.5000631094857209
 40
0.5616593988040849
 40
0.6245050380644152
 40
0.6872231506510951
 40
0.7494953263230465
 40
0.8117583797535242
 40
0.8747365508229858
 40
0.9378980306234599
 40
1.0
 40
1.0
 40
1.0
 40
1.0
 10
88.55526113401274
 20
71.2016908196942
 30
0.0
 10
88.55506628112796
 20
71.20166651230022
 30
0.0
 10
88.51335839011682
 20
71.19646356064602
 30
0.0
 10
88.65847678164725
 20
71.21509818397652
 30
0.0
 10
89.0135557231865
 20
71.25761796252525
 30
0.0
 10
89.61813136072966
 20
71.32575424612708
 30
0.0
 10
90.42456666954585
 20
71.39900978314296
 30
0.0
 10
91.41004409346483
 20
71.46352912396084
 30
0.0
 10
92.54171369014438
 20
71.50209335202192
 30
0.0
 10
93.76400616030664
 20
71.50578785802331
 30
0.0
 10
95.0313348417585
 20
71.46336187797434
 30
0.0
 10
96.29782037218502
 20
71.37511473719336
 30
0.0
 10
97.51395773600494
 20
71.24672146692667
 30
0.0
 10
98.63936823184571
 20
71.09408047833415
 30
0.0
 10
99.61678529339967
 20
70.93230586322983
 30
0.0
 10
100.4200507719422
 20
70.77977697012894
 30
0.0
 10
101.0085442949434
 20
70.65576322686154
 30
0.0
 10
101.3974504065955
 20
70.57083930058525
 30
0.0
 10
101.4442115373335
 20
70.56011298930645
 30
0.0
 10
101.4673943438759
 20
70.55479519661486
 30
0.0
  0
SPLINE
  5
97
330
1F
100
AcDbEntity
  8
0
  6
Continuous
 62
     7
370
    15
100
AcDbSpline
210
0.0
220
0.0
230
1.0
 70
     8
 71
     3
 72
    41
 73
    37
 74
     0
 42
0.00000001
 43
0.00000001
 40
0.0
 40
0.0
 40
0.0
 40
0.0
 40
0.0619930061482746
 40
0.1254347783466151
 40
0.1886508898234768
 40
0.2510246408607227
 40
0.3131658188976554
 40
0.3756581641417402
 40
0.4382227146727798
 40
0.4998044922940677
 40
0.56151641971787
 40
0.6240683094121985
 40
0.686725723240935
 40
0.7488365305144522
 40
0.8110685944253986
 40
0.8741742884451361
 40
0.9373212787645211
 40
0.9685511709617411
 40
0.9842086872487193
 40
0.9920641182531791
 40
0.996000486125535
 40
0.9979710794120144
 40
0.9989570090489596
 40
0.9994501359395065
 40
0.9996967403802177
 40
0.9998200529090742
 40
0.9998817117580818
 40
0.999912541829664
 40
0.9999279570273361
 40
0.9999356646666602
 40
0.9999395184964466
 40
0.9999414454138695
 40
0.9999424088732151
 40
0.9999433723329806
 40
0.9999501697010513
 40
1.0
 40
1.0
 40
1.0
 40
1.0
 10
101.4672730133979
 20
145.7110319414468
 30
0.0
 10
101.4437013680543
 20
145.7057224617969
 30
0.0
 10
101.3960072120092
 20
145.6949794208574
 30
0.0
 10
101.0039652225837
 20
145.6097502844019
 30
0.0
 10
100.4134511733135
 20
145.4851815057612
 30
0.0
 10
99.60941372726839
 20
145.3322345596093
 30
0.0
 10
98.63333832708688
 20
145.1704780056558
 30
0.0
 10
97.51152959180638
 20
145.0182452377236
 30
0.0
 10
96.29799867201913
 20
144.8904652965222
 30
0.0
 10
95.03316796561992
 20
144.8026167448396
 30
0.0
 10
93.76512492817719
 20
144.7602312609689
 30
0.0
 10
92.54161757047608
 20
144.7639670689406
 30
0.0
 10
91.40811903006207
 20
144.8025625393887
 30
0.0
 10
90.42201321908787
 20
144.8670019106798
 30
0.0
 10
89.61338541030065
 20
144.940511717961
 30
0.0
 10
89.01676671519145
 20
145.0078254027728
 30
0.0
 10
88.70137542573337
 20
145.0457899540407
 30
0.0
 10
88.59130885693544
 20
145.0595890133726
 30
0.0
 10
88.56388946912125
 20
145.0630750872933
 30
0.0
 10
88.55696741829175
 20
145.0639543129866
 30
0.0
 10
88.55519917810834
 20
145.064175087593
 30
0.0
 10
88.55473879893496
 20
145.0642302903037
 30
0.0
 10
88.55461464025016
 20
145.0642440300907
 30
0.0
 10
88.55457908575698
 20
145.0642474259218
 30
0.0
 10
88.5545679416869
 20
145.064248254242
 30
0.0
 10
88.55456402849079
 20
145.0642484508309
 30
0.0
 10
88.55456248628596
 20
145.0642484947609
 30
0.0
 10
88.55456181928444
 20
145.0642485030677
 30
0.0
 10
88.5545615111067
 20
145.0642485038979
 30
0.0
 10
88.55456136434064
 20
145.0642485033527
 30
0.0
 10
88.5545612913882
 20
145.0642485030228
 30
0.0
 10
88.55456125699581
 20
145.0642485025856
 30
0.0
 10
88.55456123475065
 20
145.0642485026741
 30
0.0
 10
88.55456120764121
 20
145.0642484998391
 30
0.0
 10
88.55455868807987
 20
145.0642487866942
 30
0.0
 10
88.5545947779979
 20
145.0642441665936
 30
0.0
 10
88.55462653582055
 20
145.0642401010721
 30
0.0
  0
SPLINE
  5
98
330
1F
100
AcDbEntity
  8
0
  6
Continuous
 62
     7
370
    15
100
AcDbSpline
210
0.0
220
0.0
230
1.0
 70
     8
 71
     3
 72
    20
 73
    16
 74
     0
 42
0.00000001
 43
0.00000001
 40
0.0
 40
0.0
 40
0.0
 40
0.0
 40
0.249999999999986
 40
0.249999999999986
 40
0.3749999999999789
 40
0.3749999999999789
 40
0.4374999999999789
 40
0.4374999999999789
 40
0.4999999999999789
 40
0.4999999999999789
 40
0.6249999999999835
 40
0.6249999999999835
 40
0.7499999999999879
 40
0.7499999999999879
 40
1.0
 40
1.0
 40
1.0
 40
1.0
 10
60.42611910188933
 20
77.45445292530587
 30
0.0
 10
60.45239131910274
 20
77.47377086638834
 30
0.0
 10
60.48307146135758
 20
77.48815957749011
 30
0.0
 10
60.5545423317395
 20
77.4812552156541
 30
0.0
 10
60.58256936878384
 20
77.47408921230569
 30
0.0
 10
60.63765295828134
 20
77.44439018560209
 30
0.0
 10
60.65854428683377
 20
77.43091654304075
 30
0.0
 10
60.70375293427924
 20
77.39571827752474
 30
0.0
 10
60.7281571466748
 20
77.37381004879748
 30
0.0
 10
60.79948946472624
 20
77.30168518880193
 30
0.0
 10
60.84138624954652
 20
77.24934464785188
 30
0.0
 10
60.91296220840239
 20
77.15186125595113
 30
0.0
 10
60.94379019821969
 20
77.10510748607271
 30
0.0
 10
61.02689013105526
 20
76.9718142702336
 30
0.0
 10
61.07174503642557
 20
76.88917687231839
 30
0.0
 10
61.11185711187814
 20
76.8100699775276
 30
0.0
  0
SPLINE
  5
99
330
1F
100
AcDbEntity
  8
0
  6
Continuous
 62
     7
370
    15
100
AcDbSpline
210
0.0
220
0.0
230
1.0
 70
     8
 71
     3
 72
    14
 73
    10
 74
     0
 42
0.00000001
 43
0.00000001
 40
0.0
 40
0.0
 40
0.0
 40
0.0
 40
0.25
 40
0.25
 40
0.5
 40
0.5
 40
0.75
 40
0.75
 40
1.0
 40
1.0
 40
1.0
 40
1.0
 10
60.13530487017332
 20
77.63026633543865
 30
0.0
 10
60.13530487017334
 20
77.5890194044143
 30
0.0
 10
60.14391458655457
 20
77.55211243213182
 30
0.0
 10
60.17500076612492
 20
77.49121237223241
 30
0.0
 10
60.19739031960899
 20
77.46703145269272
 30
0.0
 10
60.2521342507851
 20
77.43306386180947
 30
0.0
 10
60.28458449037029
 20
77.42314377784128
 30
0.0
 10
60.35458600509835
 20
77.42179256893643
 30
0.0
 10
60.39279650522089
 20
77.42995084563259
 30
0.0
 10
60.42611910189398
 20
77.45445292530067
 30
0.0
  0
LINE
  5
9A
330
1F
100
AcDbEntity
  8
0
  6
Continuous
 62
     7
370
    15
100
AcDbLine
 10
60.1353048702
 20
77.6302663354
 30
0.0
 11
60.1353048702
 21
138.6356058206
 31
0.0
  0
SPLINE
  5
9B
330
1F
100
AcDbEntity
  8
0
  6
Continuous
 62
     7
370
    15
100
AcDbSpline
210
0.0
220
0.0
230
1.0
 70
     8
 71
     3
 72
    12
 73
     8
 74
     0
 42
0.00000001
 43
0.00000001
 40
0.0
 40
0.0
 40
0.0
 40
0.0
 40
0.0592077505114064
 40
0.3503612113849183
 40
0.644012000323884
 40
0.9432672693652688
 40
1.0
 40
1.0
 40
1.0
 40
1.0
 10
60.42611910189397
 20
138.8114192307124
 30
0.0
 10
60.42128321854549
 20
138.8146918743321
 30
0.0
 10
60.39266693210582
 20
138.8340577068983
 30
0.0
 10
60.33466859406547
 20
138.8480236040627
 30
0.0
 10
60.26266835360516
 20
138.8369505762474
 30
0.0
 10
60.21402866459444
 20
138.8156502723377
 30
0.0
 10
60.19724379253197
 20
138.792748902163
 30
0.0
 10
60.1945688382461
 20
138.7890991800755
 30
0.0
  0
SPLINE
  5
9C
330
1F
100
AcDbEntity
  8
0
  6
Continuous
 62
     7
370
    15
100
AcDbSpline
210
0.0
220
0.0
230
1.0
 70
     8
 71
     3
 72
     8
 73
     4
 74
     0
 42
0.00000001
 43
0.00000001
 40
0.0
 40
0.0
 40
0.0
 40
0.0
 40
1.0
 40
1.0
 40
1.0
 40
1.0
 10
60.15893853910953
 20
138.7431853216442
 30
0.0
 10
60.1435895004735
 20
138.7126752666482
 30
0.0
 10
60.13530487017332
 20
138.6763637111359
 30
0.0
 10
60.13530487017332
 20
138.6356058205745
 30
0.0
  0
SPLINE
  5
9D
330
1F
100
AcDbEntity
  8
0
  6
Continuous
 62
     7
370
    15
100
AcDbSpline
210
0.0
220
0.0
230
1.0
 70
     8
 71
     3
 72
    20
 73
    16
 74
     0
 42
0.00000001
 43
0.00000001
 40
0.0
 40
0.0
 40
0.0
 40
0.0
 40
0.2500000000000037
 40
0.2500000000000037
 40
0.3750000000000055
 40
0.3750000000000055
 40
0.5000000000000073
 40
0.5000000000000073
 40
0.5625000000000057
 40
0.5625000000000057
 40
0.625000000000004
 40
0.625000000000004
 40
0.7500000000000027
 40
0.7500000000000027
 40
1.0
 40
1.0
 40
1.0
 40
1.0
 10
61.11185711187575
 20
139.4558021784847
 30
0.0
 10
61.07186089405192
 20
139.3769237719273
 30
0.0
 10
61.02674726621427
 20
139.2937941252358
 30
0.0
 10
60.94349305184774
 20
139.1603054608848
 30
0.0
 10
60.91327372322723
 20
139.1144404050029
 30
0.0
 10
60.84118548808581
 20
139.016248852598
 30
0.0
 10
60.79926817067471
 20
138.9639390330744
 30
0.0
 10
60.72801756612326
 20
138.8919331303399
 30
0.0
 10
60.70378175374394
 20
138.8701629180383
 30
0.0
 10
60.65818356355928
 20
138.8346882597093
 30
0.0
 10
60.63738107395958
 20
138.8213180755318
 30
0.0
 10
60.58244007554045
 20
138.7917481633965
 30
0.0
 10
60.55437108745365
 20
138.7846216410946
 30
0.0
 10
60.48386825739081
 20
138.7777472696119
 30
0.0
 10
60.45244416959994
 20
138.792062428699
 30
0.0
 10
60.42611910189135
 20
138.8114192307096
 30
0.0
  0
SPLINE
  5
9E
330
1F
100
AcDbEntity
  8
0
  6
Continuous
 62
     7
370
    15
100
AcDbSpline
210
0.0
220
0.0
230
1.0
 70
     8
 71
     3
 72
    10
 73
     6
 74
     0
 42
0.00000001
 43
0.00000001
 40
0.0
 40
0.0
 40
0.0
 40
0.0
 40
0.4999999999999989
 40
0.4999999999999989
 40
1.0
 40
1.0
 40
1.0
 40
1.0
 10
61.78530487017333
 20
140.3812212798265
 30
0.0
 10
61.66041659942313
 20
140.2502250017551
 30
0.0
 10
61.53896648136269
 20
140.1065121650901
 30
0.0
 10
61.30938250640525
 20
139.7959418724009
 30
0.0
 10
61.19910753100927
 20
139.6278727993378
 30
0.0
 10
61.11185711187575
 20
139.4558021784847
 30
0.0
  0
SPLINE
  5
9F
330
1F
100
AcDbEntity
  8
0
  6
Continuous
 62
     7
370
    15
100
AcDbSpline
210
0.0
220
0.0
230
1.0
 70
     8
 71
     3
 72
     8
 73
     4
 74
     0
 42
0.00000001
 43
0.00000001
 40
0.0
 40
0.0
 40
0.0
 40
0.0
 40
1.0
 40
1.0
 40
1.0
 40
1.0
 10
62.03522998613906
 20
140.3787682465712
 30
0.0
 10
61.94821195629071
 20
140.3792348113583
 30
0.0
 10
61.86525792991077
 20
140.3802748309344
 30
0.0
 10
61.78530487017102
 20
140.3812212798267
 30
0.0
  0
SPLINE
  5
A0
330
1F
100
AcDbEntity
  8
0
  6
Continuous
 62
     7
370
    15
100
AcDbSpline
210
0.0
220
0.0
230
1.0
 70
     8
 71
     3
 72
     8
 73
     4
 74
     0
 42
0.00000001
 43
0.00000001
 40
0.0
 40
0.0
 40
0.0
 40
0.0
 40
1.0
 40
1.0
 40
1.0
 40
1.0
 10
61.78530487017102
 20
75.8846508761865
 30
0.0
 10
61.86525792991129
 20
75.88559732507876
 30
0.0
 10
61.94821195629177
 20
75.8866373446549
 30
0.0
 10
62.03522998614075
 20
75.88710390944196
 30
0.0
  0
SPLINE
  5
A1
330
1F
100
AcDbEntity
  8
0
  6
Continuous
 62
     7
370
    15
100
AcDbSpline
210
0.0
220
0.0
230
1.0
 70
     8
 71
     3
 72
    10
 73
     6
 74
     0
 42
0.00000001
 43
0.00000001
 40
0.0
 40
0.0
 40
0.0
 40
0.0
 40
0.4999999999999989
 40
0.4999999999999989
 40
1.0
 40
1.0
 40
1.0
 40
1.0
 10
61.11185711187482
 20
76.81006997753018
 30
0.0
 10
61.19910753100829
 20
76.63799935667681
 30
0.0
 10
61.30938250640445
 20
76.46993028361338
 30
0.0
 10
61.53896648136229
 20
76.15935999092355
 30
0.0
 10
61.66041659942292
 20
76.01564715425828
 30
0.0
 10
61.78530487017333
 20
75.88465087618657
 30
0.0
  0
LINE
  5
A2
330
1F
100
AcDbEntity
  8
0
  6
Continuous
 62
     7
370
    15
100
AcDbLine
 10
137.9853048702
 20
157.1227309337
 30
0.0
 11
133.2973338911
 21
157.1227309337
 31
0.0
  0
LINE
  5
A3
330
1F
100
AcDbEntity
  8
0
  6
Continuous
 62
     7
370
    15
100
AcDbLine
 10
133.2973338911
 20
147.0838988389
 30
0.0
 11
137.9853048702
 21
147.0838988389
 31
0.0
  0
LINE
  5
A4
330
1F
100
AcDbEntity
  8
0
  6
Continuous
 62
     7
370
    15
100
AcDbLine
 10
133.2973338911
 20
147.0838988389
 30
0.0
 11
133.2973338911
 21
157.1227309337
 31
0.0
  0
SPLINE
  5
A5
330
1F
100
AcDbEntity
  8
0
  6
Continuous
 62
     7
370
    15
100
AcDbSpline
210
0.0
220
0.0
230
1.0
 70
     8
 71
     3
 72
     8
 73
     4
 74
     0
 42
0.00000001
 43
0.00000001
 40
0.0
 40
0.0
 40
0.0
 40
0.0
 40
1.0
 40
1.0
 40
1.0
 40
1.0
 10
126.7732758492519
 20
147.0838988388935
 30
0.0
 10
127.2302022030514
 20
146.0679808692192
 30
0.0
 10
127.6814078448545
 20
145.049185040128
 30
0.0
 10
128.1253048701733
 20
144.0283835841444
 30
0.0
  0
LINE
  5
A6
330
1F
100
AcDbEntity
  8
0
  6
Continuous
 62
     7
370
    15
100
AcDbLine
 10
128.1253048702
 20
144.0283835841
 30
0.0
 11
128.1253048702
 21
142.8471712705
 31
0.0
  0
SPLINE
  5
A7
330
1F
100
AcDbEntity
  8
0
  6
Continuous
 62
     7
370
    15
100
AcDbSpline
210
0.0
220
0.0
230
1.0
 70
     8
 71
     3
 72
    14
 73
    10
 74
     0
 42
0.00000001
 43
0.00000001
 40
0.0
 40
0.0
 40
0.0
 40
0.0
 40
0.25
 40
0.25
 40
0.5
 40
0.5
 40
0.75
 40
0.75
 40
1.0
 40
1.0
 40
1.0
 40
1.0
 10
128.1253048701733
 20
142.8471712705036
 30
0.0
 10
128.1253048701733
 20
142.7233043937144
 30
0.0
 10
128.1411639978009
 20
142.5990447168769
 30
0.0
 10
128.2045256433208
 20
142.361436354471
 30
0.0
 10
128.2531153513702
 20
142.2446559697186
 30
0.0
 10
128.385400956145
 20
142.0358534411096
 30
0.0
 10
128.4707257474056
 20
141.941342737517
 30
0.0
 10
128.6776169957118
 20
141.8033859367147
 30
0.0
 10
128.8015849416018
 20
141.761467491079
 30
0.0
 10
128.9253048701733
 20
141.761467491079
 30
0.0
  0
LINE
  5
A8
330
1F
100
AcDbEntity
  8
0
  6
Continuous
 62
     7
370
    15
100
AcDbLine
 10
128.9253048702
 20
141.7614674911
 30
0.0
 11
131.1453048702
 21
141.7614674911
 31
0.0
  0
SPLINE
  5
A9
330
1F
100
AcDbEntity
  8
0
  6
Continuous
 62
     7
370
    15
100
AcDbSpline
210
0.0
220
0.0
230
1.0
 70
     8
 71
     3
 72
    12
 73
     8
 74
     0
 42
0.00000001
 43
0.00000001
 40
0.0
 40
0.0
 40
0.0
 40
0.0
 40
0.250000000000002
 40
0.250000000000002
 40
0.500000000000004
 40
0.500000000000004
 40
1.0
 40
1.0
 40
1.0
 40
1.0
 10
131.1453048701733
 20
141.7614674910791
 30
0.0
 10
131.2690058201533
 20
141.7614674910791
 30
0.0
 10
131.3931024324235
 20
141.8034611028116
 30
0.0
 10
131.5997575955105
 20
141.941256429456
 30
0.0
 10
131.6847983622374
 20
142.0352300279208
 30
0.0
 10
131.884276930711
 20
142.3500182341418
 30
0.0
 10
131.9453048701733
 20
142.6002572263694
 30
0.0
 10
131.9453048701733
 20
142.8471712705036
 30
0.0
  0
LINE
  5
AA
330
1F
100
AcDbEntity
  8
0
  6
Continuous
 62
     7
370
    15
100
AcDbLine
 10
131.9453048702
 20
142.8471712705
 30
0.0
 11
131.9453048702
 21
144.0283835841
 31
0.0
  0
SPLINE
  5
AB
330
1F
100
AcDbEntity
  8
0
  6
Continuous
 62
     7
370
    15
100
AcDbSpline
210
0.0
220
0.0
230
1.0
 70
     8
 71
     3
 72
     8
 73
     4
 74
     0
 42
0.00000001
 43
0.00000001
 40
0.0
 40
0.0
 40
0.0
 40
0.0
 40
1.0
 40
1.0
 40
1.0
 40
1.0
 10
131.9453048701733
 20
144.0283835841444
 30
0.0
 10
132.3894548811988
 20
145.0497668150961
 30
0.0
 10
132.8405291914567
 20
146.0682513518644
 30
0.0
 10
133.2973338910947
 20
147.0838988388935
 30
0.0
  0
SPLINE
  5
AC
330
1F
100
AcDbEntity
  8
0
  6
Continuous
 62
     7
370
    15
100
AcDbSpline
210
0.0
220
0.0
230
1.0
 70
     8
 71
     3
 72
    16
 73
    12
 74
     0
 42
0.00000001
 43
0.00000001
 40
0.0
 40
0.0
 40
0.0
 40
0.0
 40
0.1249999999999978
 40
0.1249999999999978
 40
0.2499999999999955
 40
0.2499999999999955
 40
0.499999999999997
 40
0.499999999999997
 40
0.7499999999999984
 40
0.7499999999999984
 40
1.0
 40
1.0
 40
1.0
 40
1.0
 10
137.9853048701733
 20
147.0838988388935
 30
0.0
 10
138.0609425765845
 20
147.0838988388935
 30
0.0
 10
138.1372582410027
 20
147.0725538387586
 30
0.0
 10
138.2816689788947
 20
147.02990128812
 30
0.0
 10
138.3501154280031
 20
146.9989669634372
 30
0.0
 10
138.5450466806162
 20
146.8797105916696
 30
0.0
 10
138.6528878543971
 20
146.769558578049
 30
0.0
 10
138.8216006026092
 20
146.521422492391
 30
0.0
 10
138.8839650153327
 20
146.3810801683873
 30
0.0
 10
138.9652689398411
 20
146.0928084768987
 30
0.0
 10
138.9853048701733
 20
145.9420035039188
 30
0.0
 10
138.9853048701733
 20
145.7916336125735
 30
0.0
  0
LINE
  5
AD
330
1F
100
AcDbEntity
  8
0
  6
Continuous
 62
     7
370
    15
100
AcDbLine
 10
138.9853048702
 20
145.7916336126
 30
0.0
 11
138.9853048702
 21
139.482936078
 31
0.0
  0
SPLINE
  5
AE
330
1F
100
AcDbEntity
  8
0
  6
Continuous
 62
     7
370
    15
100
AcDbSpline
210
0.0
220
0.0
230
1.0
 70
     8
 71
     3
 72
    14
 73
    10
 74
     0
 42
0.00000001
 43
0.00000001
 40
0.0
 40
0.0
 40
0.0
 40
0.0
 40
0.25
 40
0.25
 40
0.5
 40
0.5
 40
0.75
 40
0.75
 40
1.0
 40
1.0
 40
1.0
 40
1.0
 10
131.9453048701733
 20
153.8264873188546
 30
0.0
 10
131.9453048701733
 20
153.7201306251022
 30
0.0
 10
131.9249173140321
 20
153.6142901373421
 30
0.0
 10
131.8462829685705
 20
153.4177252238056
 30
0.0
 10
131.7875516089319
 20
153.3265544815185
 30
0.0
 10
131.6409427033294
 20
153.1746433924869
 30
0.0
 10
131.5515373833028
 20
153.1125745556674
 30
0.0
 10
131.3576466507025
 20
153.0293065079086
 30
0.0
 10
131.2511416608127
 20
153.007211838179
 30
0.0
 10
131.1453048701733
 20
153.007211838179
 30
0.0
  0
SPLINE
  5
AF
330
1F
100
AcDbEntity
  8
0
  6
Continuous
 62
     7
370
    15
100
AcDbSpline
210
0.0
220
0.0
230
1.0
 70
     8
 71
     3
 72
     8
 73
     4
 74
     0
 42
0.00000001
 43
0.00000001
 40
0.0
 40
0.0
 40
0.0
 40
0.0
 40
1.0
 40
1.0
 40
1.0
 40
1.0
 10
128.1253048701733
 20
154.7302069387115
 30
0.0
 10
127.6749966344888
 20
155.5279220638251
 30
0.0
 10
127.2243028179652
 20
156.3254203634823
 30
0.0
 10
126.7732758492519
 20
157.1227309336701
 30
0.0
  0
LINE
  5
B0
330
1F
100
AcDbEntity
  8
0
  6
Continuous
 62
     7
370
    15
100
AcDbLine
 10
128.1253048702
 20
144.0283835841
 30
0.0
 11
128.1253048702
 21
154.7302069387
 31
0.0
  0
SPLINE
  5
B1
330
1F
100
AcDbEntity
  8
0
  6
Continuous
 62
     7
370
    15
100
AcDbSpline
210
0.0
220
0.0
230
1.0
 70
     8
 71
     3
 72
     8
 73
     4
 74
     0
 42
0.00000001
 43
0.00000001
 40
0.0
 40
0.0
 40
0.0
 40
0.0
 40
1.0
 40
1.0
 40
1.0
 40
1.0
 10
133.2973338910947
 20
157.1227309336701
 30
0.0
 10
132.8463069223815
 20
156.3254203634823
 30
0.0
 10
132.3956131058579
 20
155.5279220638251
 30
0.0
 10
131.9453048701733
 20
154.7302069387115
 30
0.0
  0
LINE
  5
B2
330
1F
100
AcDbEntity
  8
0
  6
Continuous
 62
     7
370
    15
100
AcDbLine
 10
131.9453048702
 20
144.0283835841
 30
0.0
 11
131.9453048702
 21
154.7302069387
 31
0.0
  0
SPLINE
  5
B3
330
1F
100
AcDbEntity
  8
0
  6
Continuous
 62
     7
370
    15
100
AcDbSpline
210
0.0
220
0.0
230
1.0
 70
     8
 71
     3
 72
    10
 73
     6
 74
     0
 42
0.00000001
 43
0.00000001
 40
0.0
 40
0.0
 40
0.0
 40
0.0
 40
0.5
 40
0.5
 40
1.0
 40
1.0
 40
1.0
 40
1.0
 10
128.9253048701733
 20
153.007211838179
 30
0.0
 10
128.712768556317
 20
153.007211838179
 30
0.0
 10
128.502832384663
 20
153.0986244248092
 30
0.0
 10
128.2091252436517
 20
153.4033692907134
 30
0.0
 10
128.1253048701733
 20
153.615524260622
 30
0.0
 10
128.1253048701733
 20
153.8264873188546
 30
0.0
  0
SPLINE
  5
B4
330
1F
100
AcDbEntity
  8
0
  6
Continuous
 62
     7
370
    15
100
AcDbSpline
210
0.0
220
0.0
230
1.0
 70
     8
 71
     3
 72
    12
 73
     8
 74
     0
 42
0.00000001
 43
0.00000001
 40
0.0
 40
0.0
 40
0.0
 40
0.0
 40
0.4999999999999953
 40
0.4999999999999953
 40
0.7499999999999977
 40
0.7499999999999977
 40
1.0
 40
1.0
 40
1.0
 40
1.0
 10
138.9853048701733
 20
156.1016758988524
 30
0.0
 10
138.9853048701733
 20
156.3669453316188
 30
0.0
 10
138.8806981266869
 20
156.6294604372712
 30
0.0
 10
138.6040297749416
 20
156.9149980433085
 30
0.0
 10
138.4936645155896
 20
156.9913196601699
 30
0.0
 10
138.2495924669738
 20
157.09566182501
 30
0.0
 10
138.1178400056421
 20
157.1227309336702
 30
0.0
 10
137.9853048701733
 20
157.1227309336702
 30
0.0
  0
LINE
  5
B5
330
1F
100
AcDbEntity
  8
0
  6
Continuous
 62
     7
370
    15
100
AcDbLine
 10
138.9853048702
 20
145.7916336126
 30
0.0
 11
138.9853048702
 21
156.1016758989
 31
0.0
  0
LINE
  5
B6
330
1F
100
AcDbEntity
  8
0
  6
Continuous
 62
     7
370
    15
100
AcDbLine
 10
131.1453048702
 20
153.0072118382
 30
0.0
 11
128.9253048702
 21
153.0072118382
 31
0.0
  0
LINE
  5
B7
330
1F
100
AcDbEntity
  8
0
  6
Continuous
 62
     7
370
    15
100
AcDbLine
 10
172.8573835574
 20
81.632936078
 30
0.0
 11
172.8573835574
 21
134.632936078
 31
0.0
  0
LINE
  5
B8
330
1F
100
AcDbEntity
  8
0
  6
Continuous
 62
     7
370
    15
100
AcDbLine
 10
149.6141783632
 20
134.5305210231
 30
0.0
 11
149.8197902825
 21
134.5160872705
 31
0.0
  0
SPLINE
  5
B9
330
1F
100
AcDbEntity
  8
0
  6
Continuous
 62
     7
370
    15
100
AcDbSpline
210
0.0
220
0.0
230
1.0
 70
     8
 71
     3
 72
    37
 73
    33
 74
     0
 42
0.00000001
 43
0.00000001
 40
0.0
 40
0.0
 40
0.0
 40
0.0
 40
0.0219918609416139
 40
0.0464289550760501
 40
0.0688903826851399
 40
0.1145390248688181
 40
0.1377663623347242
 40
0.1610362521468132
 40
0.2082610599734141
 40
0.2322481544966267
 40
0.2575674930510798
 40
0.3089393840743322
 40
0.335028350373522
 40
0.3627270802390962
 40
0.4189646582396611
 40
0.4475533970027405
 40
0.4769963733283625
 40
0.5368425370966295
 40
0.5673138028772567
 40
0.597323565354192
 40
0.6275467655645667
 40
0.6584584734924487
 40
0.689615847987027
 40
0.7188331216103683
 40
0.778398799426816
 40
0.8088601688170558
 40
0.8358299138565639
 40
0.8908810780126023
 40
0.9190757451737558
 40
0.9432556002077663
 40
0.9925554026697244
 40
1.0
 40
1.0
 40
1.0
 40
1.0
 10
155.4743180415447
 20
134.6317569555202
 30
0.0
 10
155.4771001540946
 20
134.6320550200945
 30
0.0
 10
155.4829737169974
 20
134.6326842904763
 30
0.0
 10
155.4474090788767
 20
134.6288743022574
 30
0.0
 10
155.3812276557017
 20
134.6218743993826
 30
0.0
 10
155.275314506669
 20
134.61089976149
 30
0.0
 10
155.1340125029928
 20
134.596926488584
 30
0.0
 10
154.9672997587287
 20
134.5810133765821
 30
0.0
 10
154.7662577213499
 20
134.5629611756309
 30
0.0
 10
154.5325660243184
 20
134.5438077011797
 30
0.0
 10
154.2700810436363
 20
134.5237675221086
 30
0.0
 10
153.974921656853
 20
134.5039501817064
 30
0.0
 10
153.6521156727996
 20
134.4858444669202
 30
0.0
 10
153.3011201535275
 20
134.4688915029837
 30
0.0
 10
152.9240168194286
 20
134.4554253557984
 30
0.0
 10
152.531264141328
 20
134.4468216888294
 30
0.0
 10
152.1213454333912
 20
134.4417070377527
 30
0.0
 10
151.7007894478424
 20
134.4426748679743
 30
0.0
 10
151.284403108139
 20
134.4498225888436
 30
0.0
 10
150.9753293767469
 20
134.4581474169276
 30
0.0
 10
150.6719196880484
 20
134.4692153210888
 30
0.0
 10
150.3743559858342
 20
134.4828608791804
 30
0.0
 10
150.0921635600762
 20
134.4983803547374
 30
0.0
 10
149.7403448273755
 20
134.5206802864261
 30
0.0
 10
149.4218204963293
 20
134.5447190649364
 30
0.0
 10
149.15165811056
 20
134.5676952508937
 30
0.0
 10
148.9204765211229
 20
134.5886490124907
 30
0.0
 10
148.7376743026772
 20
134.6066114198552
 30
0.0
 10
148.6100101329544
 20
134.619729975734
 30
0.0
 10
148.522804171006
 20
134.6288908570181
 30
0.0
 10
148.4819211296759
 20
134.6333000273375
 30
0.0
 10
148.4871655462843
 20
134.6327362600191
 30
0.0
 10
148.4878535889815
 20
134.6326622964087
 30
0.0
  0
SPLINE
  5
BA
330
1F
100
AcDbEntity
  8
0
  6
Continuous
 62
     7
370
    15
100
AcDbSpline
210
0.0
220
0.0
230
1.0
 70
     8
 71
     3
 72
     9
 73
     5
 74
     0
 42
0.00000001
 43
0.00000001
 40
0.0
 40
0.0
 40
0.0
 40
0.0
 40
0.1713752781847553
 40
1.0
 40
1.0
 40
1.0
 40
1.0
 10
149.3708009334414
 20
134.5494553377807
 30
0.0
 10
149.3836964527073
 20
134.5483807944327
 30
0.0
 10
149.4589437077519
 20
134.5421106756653
 30
0.0
 10
149.5438351858089
 20
134.5357727691196
 30
0.0
 10
149.6141783631983
 20
134.5305210230712
 30
0.0
  0
SPLINE
  5
BB
330
1F
100
AcDbEntity
  8
0
  6
Continuous
 62
     7
370
    15
100
AcDbSpline
210
0.0
220
0.0
230
1.0
 70
     8
 71
     3
 72
    66
 73
    62
 74
     0
 42
0.00000001
 43
0.00000001
 40
-0.0312500000000003
 40
-0.0312500000000003
 40
0.0
 40
0.0
 40
0.0312499999999998
 40
0.0312499999999998
 40
0.0624999999999996
 40
0.0624999999999996
 40
0.0937499999999993
 40
0.0937499999999993
 40
0.1249999999999991
 40
0.1249999999999991
 40
0.1562499999999989
 40
0.1562499999999989
 40
0.1874999999999987
 40
0.1874999999999987
 40
0.2187499999999984
 40
0.2187499999999984
 40
0.2499999999999982
 40
0.2499999999999982
 40
0.2812499999999981
 40
0.2812499999999981
 40
0.3124999999999979
 40
0.3124999999999979
 40
0.3437499999999977
 40
0.3437499999999977
 40
0.3749999999999976
 40
0.3749999999999976
 40
0.4062499999999974
 40
0.4062499999999974
 40
0.4374999999999972
 40
0.4374999999999972
 40
0.4687499999999971
 40
0.4687499999999971
 40
0.4999999999999969
 40
0.4999999999999969
 40
0.5312499999999967
 40
0.5312499999999967
 40
0.5624999999999964
 40
0.5624999999999964
 40
0.5937499999999962
 40
0.5937499999999962
 40
0.624999999999996
 40
0.624999999999996
 40
0.6874999999999967
 40
0.6874999999999967
 40
0.7499999999999973
 40
0.7499999999999973
 40
0.7812499999999977
 40
0.7812499999999977
 40
0.812499999999998
 40
0.812499999999998
 40
0.8437499999999983
 40
0.8437499999999983
 40
0.8749999999999987
 40
0.8749999999999987
 40
0.906249999999999
 40
0.906249999999999
 40
0.9374999999999993
 40
0.9374999999999993
 40
0.9687499999999997
 40
0.9687499999999997
 40
1.0
 40
1.0
 40
1.03125
 40
1.03125
 10
149.4453942649263
 20
110.3193225890271
 30
0.0
 10
149.782962463184
 20
110.6016581869845
 30
0.0
 10
149.9624888216262
 20
110.7244204831368
 30
0.0
 10
150.3411935975231
 20
110.936399455074
 30
0.0
 10
150.5419617836079
 20
111.0260967866874
 30
0.0
 10
150.9562852401291
 20
111.168735333033
 30
0.0
 10
151.1673670176637
 20
111.2211613499173
 30
0.0
 10
151.5970621115297
 20
111.2897881170707
 30
0.0
 10
151.8177858300451
 20
111.3058427318166
 30
0.0
 10
152.2545729203964
 20
111.3000433104796
 30
0.0
 10
152.470668612066
 20
111.2786569249187
 30
0.0
 10
152.898288158322
 20
111.1990712497988
 30
0.0
 10
153.1118181497517
 20
111.1399557941979
 30
0.0
 10
153.5199212235223
 20
110.9870319485206
 30
0.0
 10
153.7153628776517
 20
110.893489553017
 30
0.0
 10
154.0885765943362
 20
110.6712381120754
 30
0.0
 10
154.2679705591343
 20
110.540797221702
 30
0.0
 10
154.5933722537549
 20
110.2523280418337
 30
0.0
 10
154.740802507818
 20
110.093974431571
 30
0.0
 10
155.0032931094777
 20
109.7472295992729
 30
0.0
 10
155.1186361773213
 20
109.5570156377754
 30
0.0
 10
155.3022341975821
 20
109.163412970847
 30
0.0
 10
155.3723912703359
 20
108.9581153180816
 30
0.0
 10
155.4660711352165
 20
108.5291769888535
 30
0.0
 10
155.488121627954
 20
108.3097142988794
 30
0.0
 10
155.4819066100206
 20
107.8747629471108
 30
0.0
 10
155.453251329937
 20
107.6543335752364
 30
0.0
 10
155.3477826321285
 20
107.2297259971108
 30
0.0
 10
155.2718468902373
 20
107.0255603852585
 30
0.0
 10
155.0751082120081
 20
106.6329342974043
 30
0.0
 10
154.9556971007073
 20
106.4480578949335
 30
0.0
 10
154.6836645780524
 20
106.1078917922765
 30
0.0
 10
154.5284684231559
 20
105.9497942883407
 30
0.0
 10
154.1939039230307
 20
105.668937561531
 30
0.0
 10
154.0146687238579
 20
105.5455398151482
 30
0.0
 10
153.633306796968
 20
105.3312388744928
 30
0.0
 10
153.4314823463946
 20
105.2410352310976
 30
0.0
 10
153.0200984947057
 20
105.0988464386845
 30
0.0
 10
152.8087594714211
 20
105.0457897898728
 30
0.0
 10
152.3746651024693
 20
104.9760676106818
 30
0.0
 10
152.1559656249806
 20
104.960226366292
 30
0.0
 10
151.503858418371
 20
104.9681755189652
 30
0.0
 10
151.0643394145922
 20
105.0493094531263
 30
0.0
 10
150.25135297672
 20
105.3531224223727
 30
0.0
 10
149.8661659929074
 20
105.5805300953276
 30
0.0
 10
149.3795917634308
 20
106.0112478540766
 30
0.0
 10
149.2297586847695
 20
106.1717434093215
 30
0.0
 10
148.9650393065436
 20
106.521871229285
 30
0.0
 10
148.8526900455535
 20
106.7075871168847
 30
0.0
 10
148.6689785242979
 20
107.1009017910042
 30
0.0
 10
148.5971311307587
 20
107.3116776569827
 30
0.0
 10
148.5043460992285
 20
107.738649118978
 30
0.0
 10
148.4824185457514
 20
107.9550102793463
 30
0.0
 10
148.4887926254922
 20
108.3936397129888
 30
0.0
 10
148.5177517092775
 20
108.6134889772644
 30
0.0
 10
148.6230037107848
 20
109.0364881405219
 30
0.0
 10
148.7006100458867
 20
109.2446386459416
 30
0.0
 10
148.8972575948958
 20
109.6357900564643
 30
0.0
 10
149.0155265964622
 20
109.8189006112534
 30
0.0
 10
149.2900052078657
 20
110.1614839145791
 30
0.0
 10
149.4453942649263
 20
110.3193225890271
 30
0.0
 10
149.782962463184
 20
110.6016581869845
 30
0.0
  0
LINE
  5
BC
330
1F
100
AcDbEntity
  8
0
  6
Continuous
 62
     7
370
    15
100
AcDbLine
 10
149.6141783635
 20
81.735351133
 30
0.0
 11
149.4423134987
 21
81.7221504419
 31
0.0
  0
SPLINE
  5
BD
330
1F
100
AcDbEntity
  8
0
  6
Continuous
 62
     7
370
    15
100
AcDbSpline
210
0.0
220
0.0
230
1.0
 70
     8
 71
     3
 72
    38
 73
    34
 74
     0
 42
0.00000001
 43
0.00000001
 40
0.0
 40
0.0
 40
0.0
 40
0.0
 40
0.027237105008293
 40
0.0515448230933235
 40
0.0740053980374229
 40
0.1196471979318313
 40
0.1428677006837872
 40
0.1662258393561625
 40
0.213627729498563
 40
0.2377036034876682
 40
0.2631554915946051
 40
0.3147972014812045
 40
0.3410239743819901
 40
0.3688435225403313
 40
0.4253295482668744
 40
0.4540468523921126
 40
0.4835536486036791
 40
0.5132580784482302
 40
0.5435849300326977
 40
0.5741272013602131
 40
0.6041294204430776
 40
0.634345844606713
 40
0.6652543622635745
 40
0.6964103289901608
 40
0.7255381142919324
 40
0.7849272569969739
 40
0.8153025705807996
 40
0.842114471426222
 40
0.8968438956646888
 40
0.924873379894388
 40
0.9489181010652047
 40
0.9979360007180607
 40
1.0
 40
1.0
 40
1.0
 40
1.0
 10
148.4960259540405
 20
81.63408662517332
 30
0.0
 10
148.4941904823228
 20
81.63389069872561
 30
0.0
 10
148.4907169463154
 20
81.63351991798056
 30
0.0
 10
148.5325975031685
 20
81.63799813188278
 30
0.0
 10
148.60489660909
 20
81.64562037874083
 30
0.0
 10
148.7161419762078
 20
81.65708708847188
 30
0.0
 10
148.8626762304222
 20
81.6714731959841
 30
0.0
 10
149.0347468585505
 20
81.68775439434702
 30
0.0
 10
149.2410831340377
 20
81.70607020463214
 30
0.0
 10
149.4798860025022
 20
81.72535488655127
 30
0.0
 10
149.7476371231384
 20
81.74544140406012
 30
0.0
 10
150.0478800189473
 20
81.76514124294093
 30
0.0
 10
150.375322931484
 20
81.78294927117034
 30
0.0
 10
150.7306401587647
 20
81.79946585993935
 30
0.0
 10
151.1114624432585
 20
81.81230932405104
 30
0.0
 10
151.5069704273485
 20
81.82014583954698
 30
0.0
 10
151.8133699613087
 20
81.82330307090697
 30
0.0
 10
152.1265061119084
 20
81.82346853312775
 30
0.0
 10
152.4423211615189
 20
81.8205059732043
 30
0.0
 10
152.7559742955094
 20
81.81443525699636
 30
0.0
 10
153.06381662122
 20
81.80547284847503
 30
0.0
 10
153.3652630043495
 20
81.79384041944547
 30
0.0
 10
153.6603229311509
 20
81.77970967502043
 30
0.0
 10
153.939243022068
 20
81.76383035898877
 30
0.0
 10
154.2856748400605
 20
81.74124437494727
 30
0.0
 10
154.597706616221
 20
81.717195996003
 30
0.0
 10
154.8604943701257
 20
81.69449597153408
 30
0.0
 10
155.0838485981276
 20
81.67399326091059
 30
0.0
 10
155.2583538008939
 20
81.65669265718871
 30
0.0
 10
155.37804847197
 20
81.64432152162351
 30
0.0
 10
155.4572006046478
 20
81.63597373207574
 30
0.0
 10
155.4919687910452
 20
81.63222060460544
 30
0.0
 10
155.4846847026438
 20
81.63300264875403
 30
0.0
 10
155.4843903840389
 20
81.63303424778607
 30
0.0
  0
CIRCLE
  5
BE
330
1F
100
AcDbEntity
  8
0
  6
Continuous
 62
     7
370
    15
100
AcDbCircle
 10
151.9853048702
 20
108.132936078
 30
0.0
 40
2.5
  0
ARC
  5
BF
330
1F
100
AcDbEntity
  8
0
  6
Continuous
 62
     7
370
    15
100
AcDbCircle
 10
119.0355789303
 20
140.6997095936
 30
0.0
 40
11.4486463901131
100
AcDbArc
 50
77.6649884509
 51
102.4018279774
  0
SPLINE
  5
C0
330
1F
100
AcDbEntity
  8
0
  6
Continuous
 62
     7
370
    15
100
AcDbSpline
210
0.0
220
0.0
230
1.0
 70
     8
 71
     3
 72
     9
 73
     5
 74
     0
 42
0.00000001
 43
0.00000001
 40
0.0
 40
0.0
 40
0.0
 40
0.0
 40
0.4357932741414372
 40
0.9999999999999999
 40
0.9999999999999999
 40
0.9999999999999999
 40
0.9999999999999999
 10
230.0353048701733
 20
127.7627925404508
 30
0.0
 10
230.0346865178373
 20
127.8182430084363
 30
0.0
 10
230.0332676057689
 20
127.9454833108358
 30
0.0
 10
230.0160029284938
 20
128.0506250147727
 30
0.0
 10
230.0062620814554
 20
128.1099466713021
 30
0.0
  0
LINE
  5
C1
330
1F
100
AcDbEntity
  8
0
  6
Continuous
 62
     7
370
    15
100
AcDbLine
 10
230.0353048702
 20
88.5030796156
 30
0.0
 11
230.0353048702
 21
127.7627925405
 31
0.0
  0
SPLINE
  5
C2
330
1F
100
AcDbEntity
  8
0
  6
Continuous
 62
     7
370
    15
100
AcDbSpline
210
0.0
220
0.0
230
1.0
 70
     8
 71
     3
 72
    12
 73
     8
 74
     0
 42
0.00000001
 43
0.00000001
 40
0.0
 40
0.0
 40
0.0
 40
0.0
 40
0.1577787696422902
 40
0.4193129465133634
 40
0.6961234971026514
 40
0.9881441100122411
 40
1.0
 40
1.0
 40
1.0
 40
1.0
 10
229.8479070536756
 20
87.49598543241476
 30
0.0
 10
229.8468580089625
 20
87.49309983349107
 30
0.0
 10
229.8440700671456
 20
87.48543106417637
 30
0.0
 10
229.9095103685039
 20
87.66187305923445
 30
0.0
 10
229.9965968470696
 20
87.98852373473062
 30
0.0
 10
230.0348162232527
 20
88.31343522479767
 30
0.0
 10
230.0352865212669
 20
88.49595838541815
 30
0.0
 10
230.0353048701733
 20
88.50307961556231
 30
0.0
  0
LINE
  5
C3
330
1F
100
AcDbEntity
  8
0
  6
Continuous
 62
     7
370
    15
100
AcDbLine
 10
61.7853048702
 20
75.882936078
 30
0.0
 11
61.7853048702
 21
75.8846508762
 31
0.0
  0
LINE
  5
C4
330
1F
100
AcDbEntity
  8
0
  6
Continuous
 62
     7
370
    15
100
AcDbLine
 10
61.7853048702
 20
140.382936078
 30
0.0
 11
61.7853048702
 21
140.3812212798
 31
0.0
  0
LINE
  5
C5
330
1F
100
AcDbEntity
  8
0
  6
Continuous
 62
     7
370
    15
100
AcDbLine
 10
230.0592533578
 20
128.7432373487
 30
0.0
 11
230.0285218725
 21
127.9610688171
 31
0.0
  0
LINE
  5
C6
330
1F
100
AcDbEntity
  8
0
  6
Continuous
 62
     7
370
    15
100
AcDbLine
 10
229.8495716762
 20
129.1417766723
 30
0.0
 11
229.8349597275
 21
128.7698777425
 31
0.0
  0
LINE
  5
C7
330
1F
100
AcDbEntity
  8
0
  6
Continuous
 62
     7
370
    15
100
AcDbLine
 10
229.9056947476
 20
87.6972110486
 30
0.0
 11
229.9280913078
 21
87.1271805285
 31
0.0
  0
LINE
  5
C8
330
1F
100
AcDbEntity
  8
0
  6
Continuous
 62
     7
370
    15
100
AcDbLine
 10
230.0353048702
 20
90.1337076366
 30
0.0
 11
230.1377729893
 21
87.525719852
 31
0.0
  0
SPLINE
  5
C9
330
1F
100
AcDbEntity
  8
0
  6
HIDDEN
 62
     7
370
     0
100
AcDbSpline
210
0.0
220
0.0
230
1.0
 70
     8
 71
     3
 72
    80
 73
    76
 74
     0
 42
0.00000001
 43
0.00000001
 40
-0.03125
 40
-0.03125
 40
0.0
 40
0.0
 40
0.0312500000000002
 40
0.0312500000000002
 40
0.0468750000000002
 40
0.0468750000000002
 40
0.0625000000000001
 40
0.0625000000000001
 40
0.0937499999999999
 40
0.0937499999999999
 40
0.1249999999999997
 40
0.1249999999999997
 40
0.1562499999999995
 40
0.1562499999999995
 40
0.1874999999999993
 40
0.1874999999999993
 40
0.2187499999999991
 40
0.2187499999999991
 40
0.2499999999999989
 40
0.2499999999999989
 40
0.2812499999999987
 40
0.2812499999999987
 40
0.3124999999999984
 40
0.3124999999999984
 40
0.3281249999999985
 40
0.3281249999999985
 40
0.3437499999999986
 40
0.3437499999999986
 40
0.3749999999999986
 40
0.3749999999999986
 40
0.4062499999999987
 40
0.4062499999999987
 40
0.4218749999999989
 40
0.4218749999999989
 40
0.4374999999999991
 40
0.4374999999999991
 40
0.4687499999999993
 40
0.4687499999999993
 40
0.4999999999999994
 40
0.4999999999999994
 40
0.5312499999999997
 40
0.5312499999999997
 40
0.5624999999999998
 40
0.5624999999999998
 40
0.59375
 40
0.59375
 40
0.6250000000000001
 40
0.6250000000000001
 40
0.6562500000000003
 40
0.6562500000000003
 40
0.6875000000000006
 40
0.6875000000000006
 40
0.7031250000000007
 40
0.7031250000000007
 40
0.7187500000000007
 40
0.7187500000000007
 40
0.7500000000000003
 40
0.7500000000000003
 40
0.78125
 40
0.78125
 40
0.7968749999999998
 40
0.7968749999999998
 40
0.8124999999999997
 40
0.8124999999999997
 40
0.8437499999999998
 40
0.8437499999999998
 40
0.8749999999999998
 40
0.8749999999999998
 40
0.9062499999999999
 40
0.9062499999999999
 40
0.9375
 40
0.9375
 40
0.96875
 40
0.96875
 40
1.0
 40
1.0
 40
1.03125
 40
1.03125
 10
118.704759557397
 20
156.9924853344846
 30
0.0
 10
119.3658501829496
 20
156.9924853344846
 30
0.0
 10
119.6908303122013
 20
156.9855871886577
 30
0.0
 10
120.1703037234477
 20
156.9650607606772
 30
0.0
 10
120.3287855412885
 20
156.9565045335897
 30
0.0
 10
120.6430050737928
 20
156.935778158372
 30
0.0
 10
120.7991253574732
 20
156.9235508581657
 30
0.0
 10
121.2531793864297
 20
156.8819815643364
 30
0.0
 10
121.5402827693696
 20
156.8476372792387
 30
0.0
 10
122.0836373253966
 20
156.7643131549164
 30
0.0
 10
122.3407409366022
 20
156.7148749321419
 30
0.0
 10
122.801647191541
 20
156.603495202382
 30
0.0
 10
123.0085449007559
 20
156.5412006888698
 30
0.0
 10
123.3740702147481
 20
156.4012710459988
 30
0.0
 10
123.5292757368741
 20
156.3246551482498
 30
0.0
 10
123.7787061234738
 20
156.160696528394
 30
0.0
 10
123.874796079259
 20
156.0721396742983
 30
0.0
 10
124.0033149284525
 20
155.8846589921925
 30
0.0
 10
124.0351257986303
 20
155.7874225307381
 30
0.0
 10
124.0354824484036
 20
155.585789891411
 30
0.0
 10
124.0029851962065
 20
155.4802410995729
 30
0.0
 10
123.875359722492
 20
155.2701263168844
 30
0.0
 10
123.7809313214401
 20
155.1650608089154
 30
0.0
 10
123.5930705014546
 20
155.0081831016644
 30
0.0
 10
123.5222425026514
 20
154.9557493679586
 30
0.0
 10
123.3675206106861
 20
154.8533109223289
 30
0.0
 10
123.2835441405027
 20
154.8031631936771
 30
0.0
 10
123.0122204708583
 20
154.6561472372435
 30
0.0
 10
122.805671252256
 20
154.5626594168091
 30
0.0
 10
122.3390611120669
 20
154.3868725591948
 30
0.0
 10
122.0866955424415
 20
154.307494084111
 30
0.0
 10
121.6807942007627
 20
154.202011646617
 30
0.0
 10
121.5408935832853
 20
154.1691260817769
 30
0.0
 10
121.2516696480384
 20
154.1082106025482
 30
0.0
 10
121.1018301917491
 20
154.0801300309058
 30
0.0
 10
120.6477136221383
 20
154.005327988863
 30
0.0
 10
120.3360624034014
 20
153.9672899306168
 30
0.0
 10
119.6950659384891
 20
153.9156780040927
 30
0.0
 10
119.3635383105369
 20
153.9023640705713
 30
0.0
 10
118.7107472654654
 20
153.9022669842432
 30
0.0
 10
118.3862110604336
 20
153.9150550694042
 30
0.0
 10
117.7409416110172
 20
153.9665452590002
 30
0.0
 10
117.4251986048545
 20
154.0050698383203
 30
0.0
 10
116.8233093098708
 20
154.1039724011783
 30
0.0
 10
116.5325600790593
 20
154.1650764991033
 30
0.0
 10
115.9856482873748
 20
154.306885932214
 30
0.0
 10
115.7338709235379
 20
154.3862204167932
 30
0.0
 10
115.2724829309167
 20
154.5595991614547
 30
0.0
 10
115.0612136513187
 20
154.6547591062087
 30
0.0
 10
114.6979092989425
 20
154.8513316295846
 30
0.0
 10
114.5441026504997
 20
154.9530878579909
 30
0.0
 10
114.3554831809023
 20
155.1098738207764
 30
0.0
 10
114.2994526946932
 20
155.1631278545264
 30
0.0
 10
114.203878932957
 20
155.2689324160792
 30
0.0
 10
114.164116015932
 20
155.3215854804348
 30
0.0
 10
114.0683442656199
 20
155.4786591998939
 30
0.0
 10
114.0356214264937
 20
155.5821842352211
 30
0.0
 10
114.0349928401647
 20
155.7863989694482
 30
0.0
 10
114.0671789848994
 20
155.8839028070329
 30
0.0
 10
114.162089686755
 20
156.0232298573846
 30
0.0
 10
114.201556470154
 20
156.0685465888891
 30
0.0
 10
114.2964864688749
 20
156.1569864098778
 30
0.0
 10
114.3522432966382
 20
156.2002406603378
 30
0.0
 10
114.5401834146081
 20
156.3241321349278
 30
0.0
 10
114.6935448843243
 20
156.3998344257019
 30
0.0
 10
115.0558091192047
 20
156.5390887971601
 30
0.0
 10
115.2666575926706
 20
156.6028506386888
 30
0.0
 10
115.7273275629895
 20
156.7143474781566
 30
0.0
 10
115.9787019425733
 20
156.7628735504732
 30
0.0
 10
116.5246098294714
 20
156.8469275338537
 30
0.0
 10
116.8154324041226
 20
156.8817260875205
 30
0.0
 10
117.4167590189027
 20
156.9369225522842
 30
0.0
 10
117.7312776035151
 20
156.9577404010381
 30
0.0
 10
118.377859059635
 20
156.9855877339489
 30
0.0
 10
118.704759557397
 20
156.9924853344846
 30
0.0
 10
119.3658501829496
 20
156.9924853344846
 30
0.0
  0
LINE
  5
CA
330
1F
100
AcDbEntity
  8
0
  6
HIDDEN
 62
     7
370
     0
100
AcDbLine
 10
126.7732758493
 20
147.0838988389
 30
0.0
 11
126.7732758493
 21
139.482936078
 31
0.0
  0
LINE
  5
CB
330
1F
100
AcDbEntity
  8
0
  6
HIDDEN
 62
     7
370
     0
100
AcDbLine
 10
90.4487296196
 20
71.3971297157
 30
0.0
 11
90.1787739188
 21
71.3732036165
 31
0.0
  0
SPLINE
  5
CC
330
1F
100
AcDbEntity
  8
0
  6
HIDDEN
 62
     7
370
     0
100
AcDbSpline
210
0.0
220
0.0
230
1.0
 70
     8
 71
     3
 72
    12
 73
     8
 74
     0
 42
0.00000001
 43
0.00000001
 40
0.0
 40
0.0
 40
0.0
 40
0.0
 40
0.1661348616735903
 40
0.3322013257393936
 40
0.5008932044678248
 40
0.752137078264078
 40
1.0
 40
1.0
 40
1.0
 40
1.0
 10
88.55462653582055
 20
145.0642401010721
 30
0.0
 10
88.56501915992861
 20
145.0628619770107
 30
0.0
 10
88.58580012950856
 20
145.0601062962605
 30
0.0
 10
88.75909961895547
 20
145.0385029212985
 30
0.0
 10
89.0810512081992
 20
145.0006379693567
 30
0.0
 10
89.60221704411853
 20
144.9402542026405
 30
0.0
 10
90.16777498395625
 20
144.8924610654911
 30
0.0
 10
90.4486384076443
 20
144.8687263723977
 30
0.0
  0
SPLINE
  5
CD
330
1F
100
AcDbEntity
  8
0
  6
HIDDEN
 62
     7
370
     0
100
AcDbSpline
210
0.0
220
0.0
230
1.0
 70
     8
 71
     3
 72
    33
 73
    29
 74
     0
 42
0.00000001
 43
0.00000001
 40
0.0
 40
0.0
 40
0.0
 40
0.0
 40
0.0315773698875104
 40
0.0633753287769057
 40
0.0958656851178231
 40
0.1285943208117605
 40
0.1601713694082662
 40
0.2244011681247345
 40
0.2571344568799636
 40
0.2885965627565487
 40
0.3526214070085076
 40
0.3852675959519929
 40
0.4162212184009612
 40
0.4791910353915302
 40
0.5112817741273479
 40
0.5421256322990662
 40
0.6048360558905652
 40
0.6367710793564881
 40
0.6680663384719832
 40
0.7316979547407203
 40
0.7641081282919966
 40
0.7957194290717577
 40
0.8275524266255816
 40
0.8600900250720824
 40
0.8928737620729298
 40
0.9241775068323748
 40
0.9878778414776339
 40
1.0
 40
1.0
 40
1.0
 40
1.0
 10
100.2885105253644
 20
76.7666138572595
 30
0.0
 10
100.2046393783591
 20
76.78048759564123
 30
0.0
 10
100.0363111884152
 20
76.80833198972599
 30
0.0
 10
99.73695659207367
 20
76.85476462995638
 30
0.0
 10
99.40295712481482
 20
76.90337723197723
 30
0.0
 10
99.03718716292754
 20
76.95252516516446
 30
0.0
 10
98.51380724823866
 20
77.01659095075709
 30
0.0
 10
97.93738003964408
 20
77.07637246516222
 30
0.0
 10
97.32224289279253
 20
77.12637207262627
 30
0.0
 10
96.68592716670962
 20
77.1685120653097
 30
0.0
 10
96.02214662927092
 20
77.19714679004771
 30
0.0
 10
95.3500808776878
 20
77.20940624113132
 30
0.0
 10
94.68063229425607
 20
77.2107355322396
 30
0.0
 10
94.01544772714212
 20
77.19587500933015
 30
0.0
 10
93.36915648825162
 20
77.16601704494097
 30
0.0
 10
92.73996653739324
 20
77.12727381687968
 30
0.0
 10
92.14025084521397
 20
77.07669558311981
 30
0.0
 10
91.58195127909217
 20
77.01829556865329
 30
0.0
 10
91.05175640870459
 20
76.95597233728377
 30
0.0
 10
90.572589706393
 20
76.89056376274822
 30
0.0
 10
90.15767172119816
 20
76.82777485914224
 30
0.0
 10
89.88039933727211
 20
76.78327026032086
 30
0.0
 10
89.63884405171093
 20
76.74256131088589
 30
0.0
 10
89.43335204736252
 20
76.70650418023641
 30
0.0
 10
89.26918762361828
 20
76.67674715528405
 30
0.0
 10
89.10975367705299
 20
76.64716184185963
 30
0.0
 10
89.03151544910439
 20
76.63221256285476
 30
0.0
 10
89.0392402394492
 20
76.63368498545597
 30
0.0
 10
89.04047524411865
 20
76.63392038974617
 30
0.0
  0
SPLINE
  5
CE
330
1F
100
AcDbEntity
  8
0
  6
HIDDEN
 62
     7
370
     0
100
AcDbSpline
210
0.0
220
0.0
230
1.0
 70
     8
 71
     3
 72
    32
 73
    28
 74
     0
 42
0.00000001
 43
0.00000001
 40
0.0
 40
0.0
 40
0.0
 40
0.0
 40
0.020356822172105
 40
0.0512207857583794
 40
0.1139954454389432
 40
0.1459779869097674
 40
0.1769364677636727
 40
0.2398766914470389
 40
0.2719275468465721
 40
0.3033698011481659
 40
0.3673099924152954
 40
0.3998847012176188
 40
0.4314690120325909
 40
0.4957360700021212
 40
0.5285028301030422
 40
0.5596434488300034
 40
0.6230067766607702
 40
0.6553079823205556
 40
0.6861132872619372
 40
0.748756262689177
 40
0.7806634244345373
 40
0.8117607067089887
 40
0.8749825776111492
 40
0.9071778073885584
 40
0.9301738434827028
 40
0.9765719131095674
 40
1.0
 40
1.0
 40
1.0
 40
1.0
 10
89.04047524411865
 20
139.631951766267
 30
0.0
 10
89.0401181922124
 20
139.6320192451939
 30
0.0
 10
89.0392197966259
 20
139.6321890321885
 30
0.0
 10
89.10181354317854
 20
139.6202947910012
 30
0.0
 10
89.24362472464205
 20
139.5936479140816
 30
0.0
 10
89.46766931651756
 20
139.5532658426689
 30
0.0
 10
89.74221143235178
 20
139.5053966009185
 30
0.0
 10
90.09090272135933
 20
139.4479267156387
 30
0.0
 10
90.50717868373674
 20
139.3854321685842
 30
0.0
 10
90.96877273059953
 20
139.3209064869449
 30
0.0
 10
91.49231067969468
 20
139.2563261099616
 30
0.0
 10
92.06450815414944
 20
139.1975707450768
 30
0.0
 10
92.6667145246014
 20
139.1441978886946
 30
0.0
 10
93.30794103138288
 20
139.1013353268624
 30
0.0
 10
93.96902634937904
 20
139.0732712808413
 30
0.0
 10
94.63573730382561
 20
139.0556826233016
 30
0.0
 10
95.30962652443253
 20
139.0542359750609
 30
0.0
 10
95.97397600838033
 20
139.0691615141987
 30
0.0
 10
96.62551028253996
 20
139.0941682394224
 30
0.0
 10
97.25616949519598
 20
139.1332722821043
 30
0.0
 10
97.85370847101845
 20
139.183373439888
 30
0.0
 10
98.42770643897319
 20
139.2395446063711
 30
0.0
 10
98.95865615236649
 20
139.3024586350599
 30
0.0
 10
99.40203703363059
 20
139.3625621371135
 30
0.0
 10
99.75355768120423
 20
139.4134518540988
 30
0.0
 10
100.0432251911811
 20
139.4585743306367
 30
0.0
 10
100.2268879555788
 20
139.4890373425241
 30
0.0
 10
100.2885105253644
 20
139.4992582987537
 30
0.0
  0
SPLINE
  5
CF
330
1F
100
AcDbEntity
  8
0
  6
HIDDEN
 62
     7
370
     0
100
AcDbSpline
210
0.0
220
0.0
230
1.0
 70
     8
 71
     3
 72
    13
 73
     9
 74
     0
 42
0.00000001
 43
0.00000001
 40
0.0
 40
0.0
 40
0.0
 40
0.0
 40
0.1623842459792028
 40
0.3259048552318911
 40
0.4929947577398003
 40
0.6613133482385
 40
0.8237279867967703
 40
1.0
 40
1.0
 40
1.0
 40
1.0
 10
100.2885105253644
 20
139.4992582987537
 30
0.0
 10
100.3641000361008
 20
139.5116340712419
 30
0.0
 10
100.5158080321879
 20
139.5364722217462
 30
0.0
 10
100.6987069049126
 20
139.5637305661436
 30
0.0
 10
100.8477692599974
 20
139.584850427528
 30
0.0
 10
100.9517194057956
 20
139.5988368039505
 30
0.0
 10
101.0270489142931
 20
139.6086294606735
 30
0.0
 10
101.0188204262039
 20
139.6075582941542
 30
0.0
 10
101.0145378477393
 20
139.6070007974891
 30
0.0
  0
SPLINE
  5
D0
330
1F
100
AcDbEntity
  8
0
  6
HIDDEN
 62
     7
370
     0
100
AcDbSpline
210
0.0
220
0.0
230
1.0
 70
     8
 71
     3
 72
    13
 73
     9
 74
     0
 42
0.00000001
 43
0.00000001
 40
0.0
 40
0.0
 40
0.0
 40
0.0
 40
0.1539914710597773
 40
0.3222731498559759
 40
0.488547567940171
 40
0.6560312277926349
 40
0.8273486242762432
 40
1.0
 40
1.0
 40
1.0
 40
1.0
 10
101.0145385689783
 20
76.65887126522284
 30
0.0
 10
101.0197225148794
 20
76.65819965929683
 30
0.0
 10
101.0305714701023
 20
76.65679412329052
 30
0.0
 10
100.9612329035054
 20
76.66578064395668
 30
0.0
 10
100.8611160694603
 20
76.67919467842636
 30
0.0
 10
100.7145881314868
 20
76.69983524881712
 30
0.0
 10
100.5283742794823
 20
76.72740070378444
 30
0.0
 10
100.3686715630253
 20
76.75350905497672
 30
0.0
 10
100.2885105253644
 20
76.7666138572595
 30
0.0
  0
LINE
  5
D1
330
1F
100
AcDbEntity
  8
0
  6
HIDDEN
 62
     7
370
     0
100
AcDbLine
 10
80.0319291972
 20
81.632936078
 30
0.0
 11
80.0319291972
 21
134.632936078
 31
0.0
  0
LINE
  5
D2
330
1F
100
AcDbEntity
  8
0
  6
HIDDEN
 62
     7
370
     0
100
AcDbLine
 10
119.3193824885
 20
81.632936078
 30
0.0
 11
119.3193824885
 21
134.632936078
 31
0.0
  0
LINE
  5
D3
330
1F
100
AcDbEntity
  8
0
  6
HIDDEN
 62
     7
370
     0
100
AcDbLine
 10
122.4853048702
 20
83.257936078
 30
0.0
 11
122.4853048702
 21
133.007936078
 31
0.0
  0
SPLINE
  5
D4
330
1F
100
AcDbEntity
  8
0
  6
HIDDEN
 62
     7
370
     0
100
AcDbSpline
210
0.0
220
0.0
230
1.0
 70
     8
 71
     3
 72
    20
 73
    16
 74
     0
 42
0.00000001
 43
0.00000001
 40
0.0
 40
0.0
 40
0.0
 40
0.0
 40
0.2499999999999978
 40
0.2499999999999978
 40
0.3749999999999982
 40
0.3749999999999982
 40
0.4999999999999986
 40
0.4999999999999986
 40
0.6249999999999989
 40
0.6249999999999989
 40
0.7499999999999992
 40
0.7499999999999992
 40
0.8749999999999997
 40
0.8749999999999997
 40
1.0
 40
1.0
 40
1.0
 40
1.0
 10
70.23530487017332
 20
133.3614497084209
 30
0.0
 10
70.23530487017332
 20
133.2822467218886
 30
0.0
 10
70.18832237496059
 20
133.2011505034856
 30
0.0
 10
70.05050078418301
 20
133.0809538117348
 30
0.0
 10
69.99421850027302
 20
133.0420271077327
 30
0.0
 10
69.8611336488058
 20
132.9668383753083
 30
0.0
 10
69.78329370657274
 20
132.9301961699663
 30
0.0
 10
69.6106613504584
 20
132.8626056371345
 30
0.0
 10
69.51626835336732
 20
132.8316474553588
 30
0.0
 10
69.31083104705219
 20
132.7761230339892
 30
0.0
 10
69.198484807065
 20
132.7514145201559
 30
0.0
 10
68.96624394316537
 20
132.7116182930477
 30
0.0
 10
68.84553330074264
 20
132.6961984556507
 30
0.0
 10
68.59446244147361
 20
132.6751184808111
 30
0.0
 10
68.46494044505782
 20
132.6696412357901
 30
0.0
 10
68.33530487017333
 20
132.6696412357901
 30
0.0
  0
LINE
  5
D5
330
1F
100
AcDbEntity
  8
0
  6
HIDDEN
 62
     7
370
     0
100
AcDbLine
 10
68.3353048702
 20
132.6696412358
 30
0.0
 11
61.7853048702
 21
132.6696412358
 31
0.0
  0
LINE
  5
D6
330
1F
100
AcDbEntity
  8
0
  6
HIDDEN
 62
     7
370
     0
100
AcDbLine
 10
61.7853048702
 20
83.5962309202
 30
0.0
 11
73.3353048702
 21
83.5962309202
 31
0.0
  0
SPLINE
  5
D7
330
1F
100
AcDbEntity
  8
0
  6
HIDDEN
 62
     7
370
     0
100
AcDbSpline
210
0.0
220
0.0
230
1.0
 70
     8
 71
     3
 72
    18
 73
    14
 74
     0
 42
0.00000001
 43
0.00000001
 40
0.0
 40
0.0
 40
0.0
 40
0.0
 40
0.1249999999999982
 40
0.1249999999999982
 40
0.2499999999999964
 40
0.2499999999999964
 40
0.4999999999999988
 40
0.4999999999999988
 40
0.7500000000000011
 40
0.7500000000000011
 40
0.8750000000000006
 40
0.8750000000000006
 40
1.0
 40
1.0
 40
1.0
 40
1.0
 10
73.33530487017332
 20
83.59623092022306
 30
0.0
 10
73.46477218313055
 20
83.59623092022306
 30
0.0
 10
73.59178293202717
 20
83.59087792163042
 30
0.0
 10
73.84114625322442
 20
83.57013994894163
 30
0.0
 10
73.96476990785287
 20
83.55446804468734
 30
0.0
 10
74.3138022447869
 20
83.49477331628526
 30
0.0
 10
74.5243140095937
 20
83.43700813660426
 30
0.0
 10
74.8682306872932
 20
83.30248629532677
 30
0.0
 10
75.00458108881102
 20
83.22481718182136
 30
0.0
 10
75.14161914537355
 20
83.10552604773403
 30
0.0
 10
75.17683816408646
 20
83.06460703859898
 30
0.0
 10
75.223461741025
 20
82.98395104530896
 30
0.0
 10
75.23530487017334
 20
82.94398252511608
 30
0.0
 10
75.23530487017332
 20
82.90442244759227
 30
0.0
  0
LINE
  5
D8
330
1F
100
AcDbEntity
  8
0
  6
HIDDEN
 62
     7
370
     0
100
AcDbLine
 10
61.7853048702
 20
83.5962309202
 30
0.0
 11
61.7853048702
 21
132.6696412358
 31
0.0
  0
LWPOLYLINE
  5
D9
330
1F
100
AcDbEntity
  8
0
  6
HIDDEN
 62
     7
370
     0
100
AcDbPolyline
 90
       14
 70
   128
 43
0.0
 10
119.0353048702
 20
148.0766666413
 10
120.1101570712
 20
148.1242130247
 10
121.134750378
 20
148.264628959
 10
122.0611759461
 20
148.4913487511
 10
122.8461151458
 20
148.7937712355
 10
123.4528650924
 20
149.1577554729
 10
123.8530548328
 20
149.566281965
 10
124.0279719394
 20
150.000248467
 10
123.9694374829
 20
150.4393631876
 10
123.6801884693
 20
150.8630936106
 10
123.173749861
 20
151.2516265722
 10
122.4738021644
 20
151.586794703
 10
121.6130741561
 20
151.8529259138
 10
121.4813233386
 20
151.8840664573
  0
LWPOLYLINE
  5
DA
330
1F
100
AcDbEntity
  8
0
  6
HIDDEN
 62
     7
370
     0
100
AcDbPolyline
 90
       14
 70
   128
 43
0.0
 10
116.5767933639
 20
151.8812067073
 10
116.4575355843
 20
151.8529259138
 10
115.5968075759
 20
151.586794703
 10
114.8968598794
 20
151.2516265722
 10
114.3904212711
 20
150.8630936106
 10
114.1011722575
 20
150.4393631876
 10
114.0426378009
 20
150.000248467
 10
114.2175549076
 20
149.566281965
 10
114.6177446479
 20
149.1577554729
 10
115.2244945945
 20
148.7937712355
 10
116.0094337942
 20
148.4913487511
 10
116.9358593624
 20
148.264628959
 10
117.9604526691
 20
148.1242130247
 10
119.0353048702
 20
148.0766666413
  0
SPLINE
  5
DB
330
1F
100
AcDbEntity
  8
0
  6
HIDDEN
 62
     7
370
     0
100
AcDbSpline
210
0.0
220
0.0
230
1.0
 70
     8
 71
     3
 72
    11
 73
     7
 74
     0
 42
0.00000001
 43
0.00000001
 40
0.0
 40
0.0
 40
0.0
 40
0.0
 40
0.1657198923043786
 40
0.5168908109438204
 40
0.8862897677934845
 40
1.0
 40
1.0
 40
1.0
 40
1.0
 10
230.0062620814554
 20
128.1099466713021
 30
0.0
 10
229.9981131473846
 20
128.18035910186
 30
0.0
 10
229.9726961073322
 20
128.39997992001
 30
0.0
 10
229.8936957711586
 20
128.6441466986818
 30
0.0
 10
229.8362432437326
 20
128.8009591071036
 30
0.0
 10
229.8448754399398
 20
128.7778692759295
 30
0.0
 10
229.8469072146554
 20
128.7724345830612
 30
0.0
  0
LINE
  5
DC
330
1F
100
AcDbEntity
  8
0
  6
HIDDEN
 62
     7
370
     0
100
AcDbLine
 10
61.7853048702
 20
80.762936078
 30
0.0
 11
61.7853048702
 21
75.8846508762
 31
0.0
  0
LINE
  5
DD
330
1F
100
AcDbEntity
  8
0
  6
HIDDEN
 62
     7
370
     0
100
AcDbLine
 10
75.2353048702
 20
80.762936078
 30
0.0
 11
75.2353048702
 21
74.2636028126
 31
0.0
  0
LINE
  5
DE
330
1F
100
AcDbEntity
  8
0
  6
HIDDEN
 62
     7
370
     0
100
AcDbLine
 10
226.5353048702
 20
92.132936078
 30
0.0
 11
226.5353048702
 21
124.132936078
 31
0.0
  0
LINE
  5
DF
330
1F
100
AcDbEntity
  8
0
  6
HIDDEN
 62
     7
370
     0
100
AcDbLine
 10
70.2353048702
 20
135.502936078
 30
0.0
 11
70.2353048702
 21
141.877544815
 31
0.0
  0
LINE
  5
E0
330
1F
100
AcDbEntity
  8
0
  6
HIDDEN
 62
     7
370
     0
100
AcDbLine
 10
61.7853048702
 20
135.502936078
 30
0.0
 11
61.7853048702
 21
140.3812212798
 31
0.0
  0
SPLINE
  5
E1
330
1F
100
AcDbEntity
  8
0
  6
HIDDEN
 62
     7
370
     0
100
AcDbSpline
210
0.0
220
0.0
230
1.0
 70
     8
 71
     3
 72
    17
 73
    13
 74
     0
 42
0.00000001
 43
0.00000001
 40
0.0
 40
0.0
 40
0.0
 40
0.0
 40
0.1052992287148272
 40
0.2136663978245714
 40
0.3189615854481397
 40
0.4272831437090223
 40
0.5330757867477783
 40
0.6419159875060241
 40
0.7480214449179022
 40
0.8572335677201103
 40
0.9627975942021979
 40
1.0
 40
1.0
 40
1.0
 40
1.0
 10
171.0353048701733
 20
124.3097713680131
 30
0.0
 10
171.1456766454272
 20
124.310430778795
 30
0.0
 10
171.369635927255
 20
124.3117688125886
 30
0.0
 10
171.6945951684653
 20
124.3222422484772
 30
0.0
 10
172.0036674153637
 20
124.3378122466624
 30
0.0
 10
172.2831154660475
 20
124.3571198818977
 30
0.0
 10
172.5302219336532
 20
124.3781778986445
 30
0.0
 10
172.7333438649393
 20
124.3983168419321
 30
0.0
 10
172.8912274112165
 20
124.4157215516603
 30
0.0
 10
172.9910955006886
 20
124.4275136132956
 30
0.0
 10
173.0374554688514
 20
124.4331989317328
 30
0.0
 10
173.0305397172049
 20
124.4323526766399
 30
0.0
 10
173.0287375947099
 20
124.4321321575383
 30
0.0
  0
LINE
  5
E2
330
1F
100
AcDbEntity
  8
0
  6
HIDDEN
 62
     7
370
     0
100
AcDbLine
 10
171.148230721
 20
124.3109216397
 30
0.0
 11
170.9933888091
 21
124.3103534673
 31
0.0
  0
SPLINE
  5
E3
330
1F
100
AcDbEntity
  8
0
  6
HIDDEN
 62
     7
370
     0
100
AcDbSpline
210
0.0
220
0.0
230
1.0
 70
     8
 71
     3
 72
    16
 73
    12
 74
     0
 42
0.00000001
 43
0.00000001
 40
0.0
 40
0.0
 40
0.0
 40
0.0
 40
0.1044622792326779
 40
0.2126639352102273
 40
0.3177993759112502
 40
0.4259463090975674
 40
0.531750013674426
 40
0.6406010249177566
 40
0.7467282500513511
 40
0.8559624356092057
 40
1.0
 40
1.0
 40
1.0
 40
1.0
 10
169.0354816987384
 20
124.4329145240833
 30
0.0
 10
169.040621210162
 20
124.4322796827571
 30
0.0
 10
169.0510842091739
 20
124.4309872750509
 30
0.0
 10
169.1367602802036
 20
124.4206751318674
 30
0.0
 10
169.2726255687156
 20
124.4052669332583
 30
0.0
 10
169.4576894254771
 20
124.3860713341994
 30
0.0
 10
169.6890788172735
 20
124.3650600327163
 30
0.0
 10
169.9571766958719
 20
124.3447926944834
 30
0.0
 10
170.2589640202465
 20
124.3274826177239
 30
0.0
 10
170.6184038865448
 20
124.3131439856565
 30
0.0
 10
170.884164687684
 20
124.3109940517344
 30
0.0
 10
171.0353048701733
 20
124.3097713680131
 30
0.0
  0
SPLINE
  5
E4
330
1F
100
AcDbEntity
  8
0
  6
HIDDEN
 62
     7
370
     0
100
AcDbSpline
210
0.0
220
0.0
230
1.0
 70
     8
 71
     3
 72
    26
 73
    22
 74
     0
 42
0.00000001
 43
0.00000001
 40
0.0
 40
0.0
 40
0.0
 40
0.0
 40
0.0526543393530236
 40
0.1068426278961177
 40
0.1594949930259916
 40
0.2136609142553607
 40
0.2665581303956701
 40
0.3209789987155658
 40
0.3740355131421466
 40
0.4286454298125568
 40
0.4814313093174792
 40
0.5357650047597936
 40
0.5882722264324903
 40
0.6422949100920918
 40
0.694950000716579
 40
0.7491122487192351
 40
0.8021101979865304
 40
0.8566433765508032
 40
0.9096466210780874
 40
0.9642062922071036
 40
1.0
 40
1.0
 40
1.0
 40
1.0
 10
173.0353048701733
 20
91.83293607800658
 30
0.0
 10
173.0300074159212
 20
91.83359040244652
 30
0.0
 10
173.0192581796681
 20
91.83491811339148
 30
0.0
 10
172.9328102968532
 20
91.8453195871898
 30
0.0
 10
172.7961389319806
 20
91.86080830946571
 30
0.0
 10
172.6102692993002
 20
91.88005941596204
 30
0.0
 10
172.3781788324829
 20
91.90109964762188
 30
0.0
 10
172.1096079306998
 20
91.92130865743425
 30
0.0
 10
171.8074898030563
 20
91.93868959280206
 30
0.0
 10
171.4861642639108
 20
91.95094492461314
 30
0.0
 10
171.1494174604379
 20
91.9568744818222
 30
0.0
 10
170.8136262650796
 20
91.95574062239888
 30
0.0
 10
170.4817781126365
 20
91.94770996890657
 30
0.0
 10
170.1688539210869
 20
91.93385670639107
 30
0.0
 10
169.8774000569666
 20
91.9154893953532
 30
0.0
 10
169.620141676508
 20
91.89489944064171
 30
0.0
 10
169.4002578370651
 20
91.8740761242545
 30
0.0
 10
169.2274477621537
 20
91.85560671503754
 30
0.0
 10
169.1067522719594
 20
91.84164027484279
 30
0.0
 10
169.0416206938257
 20
91.83371378791473
 30
0.0
 10
169.0413699712887
 20
91.833679817662
 30
0.0
 10
169.0412706469542
 20
91.83366636026491
 30
0.0
  0
LINE
  5
E5
330
1F
100
AcDbEntity
  8
0
  6
HIDDEN
 62
     7
370
     0
100
AcDbLine
 10
168.5353048702
 20
92.232936078
 30
0.0
 11
168.5353048702
 21
124.0329360127
 31
0.0
  0
LINE
  5
E6
330
1F
100
AcDbEntity
  8
0
  6
HIDDEN
 62
     7
370
     0
100
AcDbLine
 10
179.0353048702
 20
92.132936078
 30
0.0
 11
179.0353048702
 21
124.132936078
 31
0.0
  0
LINE
  5
E7
330
1F
100
AcDbEntity
  8
0
  6
HIDDEN
 62
     7
370
     0
100
AcDbLine
 10
134.3353048702
 20
95.132936078
 30
0.0
 11
134.3353048702
 21
121.132936078
 31
0.0
  0
LINE
  5
E8
330
1F
100
AcDbEntity
  8
0
  6
HIDDEN
 62
     7
370
     0
100
AcDbLine
 10
138.3353048702
 20
95.132936078
 30
0.0
 11
138.3353048702
 21
121.132936078
 31
0.0
  0
LINE
  5
E9
330
1F
100
AcDbEntity
  8
0
  6
HIDDEN
 62
     7
370
     0
100
AcDbLine
 10
123.2353048702
 20
96.882936078
 30
0.0
 11
123.2353048702
 21
119.382936078
 31
0.0
  0
ELLIPSE
  5
EA
330
1F
100
AcDbEntity
  8
0
  6
HIDDEN
 62
     7
370
     0
100
AcDbEllipse
 10
53.8506316699
 20
108.132936078
 30
0.0
 11
31.08108570811662
 21
0.0
 31
0.0
210
0.0
220
0.0
230
1.0
 40
0.8164965809
 41
4.915995335118103
 42
4.970536038964787
  0
ELLIPSE
  5
EB
330
1F
100
AcDbEntity
  8
0
  6
HIDDEN
 62
     7
370
     0
100
AcDbEllipse
 10
53.8506316699
 20
108.132936078
 30
0.0
 11
31.08108570811662
 21
1.421085471520200E-14
 31
0.0
210
0.0
220
0.0
230
1.0
 40
0.8164965809
 41
1.312649268214811
 42
1.367189972061495
  0
LINE
  5
EC
330
1F
100
AcDbEntity
  8
0
  6
HIDDEN
 62
     7
370
     0
100
AcDbLine
 10
138.9853048702
 20
64.232936078
 30
0.0
 11
124.9853048702
 21
64.232936078
 31
0.0
  0
LINE
  5
ED
330
1F
100
AcDbEntity
  8
0
  6
HIDDEN
 62
     7
370
     0
100
AcDbLine
 10
114.9853048702
 20
58.1429370782
 30
0.0
 11
114.9853048702
 21
64.232936078
 31
0.0
  0
LINE
  5
EE
330
1F
100
AcDbEntity
  8
0
  6
HIDDEN
 62
     7
370
     0
100
AcDbLine
 10
124.9853048702
 20
64.232936078
 30
0.0
 11
114.9853048702
 21
64.232936078
 31
0.0
  0
LINE
  5
EF
330
1F
100
AcDbEntity
  8
0
  6
HIDDEN
 62
     7
370
     0
100
AcDbLine
 10
75.2353048702
 20
80.762936078
 30
0.0
 11
75.2353048702
 21
82.9044224476
 31
0.0
  0
LINE
  5
F0
330
1F
100
AcDbEntity
  8
0
  6
HIDDEN
 62
     7
370
     0
100
AcDbLine
 10
61.7853048702
 20
80.762936078
 30
0.0
 11
61.7853048702
 21
83.5962309202
 31
0.0
  0
LINE
  5
F1
330
1F
100
AcDbEntity
  8
0
  6
HIDDEN
 62
     7
370
     0
100
AcDbLine
 10
61.7853048702
 20
135.502936078
 30
0.0
 11
61.7853048702
 21
132.6696412358
 31
0.0
  0
LINE
  5
F2
330
1F
100
AcDbEntity
  8
0
  6
HIDDEN
 62
     7
370
     0
100
AcDbLine
 10
70.2353048702
 20
135.502936078
 30
0.0
 11
70.2353048702
 21
133.3614497084
 31
0.0
  0
LINE
  5
F3
330
1F
100
AcDbEntity
  8
0
  6
HIDDEN
 62
     7
370
     0
100
AcDbLine
 10
124.9853048702
 20
152.032936078
 30
0.0
 11
114.9853048702
 21
152.032936078
 31
0.0
  0
LINE
  5
F4
330
1F
100
AcDbEntity
  8
0
  6
HIDDEN
 62
     7
370
     0
100
AcDbLine
 10
138.9853048702
 20
152.032936078
 30
0.0
 11
124.9853048702
 21
152.032936078
 31
0.0
  0
SPLINE
  5
F5
330
1F
100
AcDbEntity
  8
0
  6
HIDDEN
 62
     7
370
     0
100
AcDbSpline
210
0.0
220
0.0
230
1.0
 70
     8
 71
     3
 72
    30
 73
    26
 74
     0
 42
0.00000001
 43
0.00000001
 40
0.0
 40
0.0
 40
0.0
 40
0.0
 40
0.053137697210029
 40
0.1125187617572783
 40
0.1779163094258791
 40
0.2129405275844854
 40
0.2494937949186934
 40
0.2912598015771217
 40
0.3261022844240138
 40
0.3540175310646588
 40
0.3750028942496113
 40
0.4414608137952988
 40
0.5001786386337738
 40
0.5546935507125818
 40
0.6144379822027601
 40
0.6794635692733937
 40
0.7140207020501551
 40
0.7499178144036219
 40
0.7913824800939114
 40
0.8260495513092311
 40
0.8539152442213569
 40
0.874976706718574
 40
0.9411634275559974
 40
0.9999141565269247
 40
1.0
 40
1.0
 40
1.0
 40
1.0
 10
101.0348334504366
 20
71.03301242823689
 30
0.0
 10
101.0186379759617
 20
71.03791254018375
 30
0.0
 10
100.9843441538792
 20
71.04828849845222
 30
0.0
 10
100.6830335177087
 20
71.12394055094104
 30
0.0
 10
100.2408656697435
 20
71.22022662425084
 30
0.0
 10
99.74603284765719
 20
71.31989149006954
 30
0.0
 10
99.27555719350133
 20
71.41216962789585
 30
0.0
 10
98.7446357643638
 20
71.50780166317817
 30
0.0
 10
98.20648526319668
 20
71.59345190569036
 30
0.0
 10
97.74843792875339
 20
71.66074369880707
 30
0.0
 10
97.09287360765111
 20
71.74909186775967
 30
0.0
 10
96.20956716965304
 20
71.84574995201793
 30
0.0
 10
95.08090543693804
 20
71.93252512877856
 30
0.0
 10
93.99114368719299
 20
71.97060382649207
 30
0.0
 10
92.89511540876235
 20
71.97245426125542
 30
0.0
 10
91.98972416181863
 20
71.94629280567037
 30
0.0
 10
91.29342145140355
 20
71.90968558054145
 30
0.0
 10
90.76674172312852
 20
71.87066870506439
 30
0.0
 10
90.30009560809586
 20
71.82845957759245
 30
0.0
 10
89.92888033237205
 20
71.79145548802308
 30
0.0
 10
89.67483385513
 20
71.76275472757877
 30
0.0
 10
89.37377870242051
 20
71.7263747769888
 30
0.0
 10
89.11829490761806
 20
71.69359461000299
 30
0.0
 10
89.01907418266879
 20
71.6772567252924
 30
0.0
 10
89.03535473995393
 20
71.67985031146672
 30
0.0
 10
89.0353784935399
 20
71.67985409554922
 30
0.0
  0
SPLINE
  5
F6
330
1F
100
AcDbEntity
  8
0
  6
HIDDEN
 62
     7
370
     0
100
AcDbSpline
210
0.0
220
0.0
230
1.0
 70
     8
 71
     3
 72
    30
 73
    26
 74
     0
 42
0.00000001
 43
0.00000001
 40
0.0
 40
0.0
 40
0.0
 40
0.0
 40
0.0001124608211774
 40
0.0285432435279979
 40
0.0588468038670177
 40
0.0910273164623732
 40
0.1250882065199885
 40
0.1546767257580257
 40
0.1963555621539494
 40
0.2501102486373326
 40
0.3205254769495832
 40
0.3856105111426719
 40
0.4454039341126677
 40
0.4999572352524017
 40
0.5283495011230308
 40
0.5586340853023598
 40
0.590818650523838
 40
0.6249095209814354
 40
0.6541845032434853
 40
0.6958630480189438
 40
0.7499307622347382
 40
0.8215905521248807
 40
0.8871423058722278
 40
0.946637881932223
 40
1.0
 40
1.0
 40
1.0
 40
1.0
 10
89.03540031421576
 20
144.5859477626185
 30
0.0
 10
89.03536841687692
 20
144.5859547179369
 30
0.0
 10
89.02727267739404
 20
144.5877200202659
 30
0.0
 10
89.05593411863103
 20
144.5822651095022
 30
0.0
 10
89.12932100784174
 20
144.5717222535223
 30
0.0
 10
89.27297753874808
 20
144.5520370484044
 30
0.0
 10
89.47401324224064
 20
144.5271977838403
 30
0.0
 10
89.75664379060133
 20
144.4929893188836
 30
0.0
 10
90.17005291651746
 20
144.4493094220552
 30
0.0
 10
90.84634041756293
 20
144.3862663545493
 30
0.0
 10
91.78477131852861
 20
144.3249691841066
 30
0.0
 10
92.8942645320113
 20
144.2936807406088
 30
0.0
 10
93.99174526270315
 20
144.2953359082048
 30
0.0
 10
94.8917765011598
 20
144.3266421103022
 30
0.0
 10
95.6031174270108
 20
144.3734752591047
 30
0.0
 10
96.16853432800156
 20
144.4206421210006
 30
0.0
 10
96.75745775082989
 20
144.4800811275506
 30
0.0
 10
97.3218674033074
 20
144.5464383341586
 30
0.0
 10
97.91606359724356
 20
144.6283577405902
 30
0.0
 10
98.58267175821406
 20
144.7300057233406
 30
0.0
 10
99.3840045039143
 20
144.8721446339409
 30
0.0
 10
100.1365144884222
 20
145.0233892047073
 30
0.0
 10
100.6818009833884
 20
145.1412400779666
 30
0.0
 10
100.9845225148872
 20
145.2174693097159
 30
0.0
 10
101.0188129655003
 20
145.2279216192104
 30
0.0
 10
101.0350264021503
 20
145.2328637490106
 30
0.0
  0
LINE
  5
F7
330
1F
100
AcDbEntity
  8
0
  6
HIDDEN
 62
     7
370
     0
100
AcDbLine
 10
147.1353048702
 20
102.132936078
 30
0.0
 11
147.1353048702
 21
114.132936078
 31
0.0
  0
LINE
  5
F8
330
1F
100
AcDbEntity
  8
0
  6
HIDDEN
 62
     7
370
     0
100
AcDbLine
 10
168.0353048702
 20
102.632936078
 30
0.0
 11
168.0353048702
 21
113.632936078
 31
0.0
  0
LINE
  5
F9
330
1F
100
AcDbEntity
  8
0
  6
HIDDEN
 62
     7
370
     0
100
AcDbLine
 10
147.4357351797
 20
102.632936078
 30
0.0
 11
147.4357351797
 21
113.632936078
 31
0.0
  0
LINE
  5
FA
330
1F
100
AcDbEntity
  8
0
  6
HIDDEN
 62
     7
370
     0
100
AcDbLine
 10
154.4853048702
 20
82.2102863472
 30
0.0
 11
149.4853048702
 21
82.2102863472
 31
0.0
  0
LINE
  5
FB
330
1F
100
AcDbEntity
  8
0
  6
HIDDEN
 62
     7
370
     0
100
AcDbLine
 10
151.9853048702
 20
134.0555858088
 30
0.0
 11
154.4853048702
 21
134.0555858088
 31
0.0
  0
LINE
  5
FC
330
1F
100
AcDbEntity
  8
0
  6
HIDDEN
 62
     7
370
     0
100
AcDbLine
 10
149.4853048702
 20
134.0555858088
 30
0.0
 11
151.9853048702
 21
134.0555858088
 31
0.0
  0
LINE
  5
FD
330
1F
100
AcDbEntity
  8
0
  6
HIDDEN
 62
     7
370
     0
100
AcDbLine
 10
151.9853048702
 20
120.632936078
 30
0.0
 11
154.4853048702
 21
120.632936078
 31
0.0
  0
LINE
  5
FE
330
1F
100
AcDbEntity
  8
0
  6
HIDDEN
 62
     7
370
     0
100
AcDbLine
 10
149.4853048702
 20
120.632936078
 30
0.0
 11
151.9853048702
 21
120.632936078
 31
0.0
  0
LINE
  5
FF
330
1F
100
AcDbEntity
  8
0
  6
HIDDEN
 62
     7
370
     0
100
AcDbLine
 10
154.4853048702
 20
95.632936078
 30
0.0
 11
149.4853048702
 21
95.632936078
 31
0.0
  0
SPLINE
  5
100
330
1F
100
AcDbEntity
  8
0
  6
HIDDEN
 62
     7
370
     0
100
AcDbSpline
210
0.0
220
0.0
230
1.0
 70
     8
 71
     3
 72
    22
 73
    18
 74
     0
 42
0.00000001
 43
0.00000001
 40
0.0
 40
0.0
 40
0.0
 40
0.0
 40
0.0861913641740255
 40
0.1720420202212212
 40
0.2289735059417676
 40
0.2875466525187271
 40
0.3453290526399214
 40
0.4048133674200107
 40
0.4684678219588156
 40
0.5325693275141947
 40
0.6079878209253626
 40
0.6673378599164326
 40
0.728309962451143
 40
0.7898092354370754
 40
0.8533073155353692
 40
0.9384771374229738
 40
1.0
 40
1.0
 40
1.0
 40
1.0
 10
173.0353048701733
 20
131.0237452491391
 30
0.0
 10
173.0240122677535
 20
131.0105754747122
 30
0.0
 10
173.0014717017413
 20
130.9842879850086
 30
0.0
 10
172.857636923568
 20
130.8119221716901
 30
0.0
 10
172.7014515129814
 20
130.6129529804932
 30
0.0
 10
172.5515801135434
 20
130.407643540261
 30
0.0
 10
172.398154824278
 20
130.1692424837315
 30
0.0
 10
172.2556995058355
 20
129.8912583733251
 30
0.0
 10
172.157453310547
 20
129.5623131019518
 30
0.0
 10
172.1671439671629
 20
129.1796599051669
 30
0.0
 10
172.2880918160117
 20
128.8384057284999
 30
0.0
 10
172.4449662467876
 20
128.5449055859646
 30
0.0
 10
172.6005366178618
 20
128.3019895357827
 30
0.0
 10
172.7545548496174
 20
128.0849965532156
 30
0.0
 10
172.9039827966047
 20
127.8869660558971
 30
0.0
 10
173.019880065336
 20
127.740439047253
 30
0.0
 10
173.0228373522206
 20
127.7368149813045
 30
0.0
 10
173.0240776373464
 20
127.7352950492633
 30
0.0
  0
SPLINE
  5
101
330
1F
100
AcDbEntity
  8
0
  6
HIDDEN
 62
     7
370
     0
100
AcDbSpline
210
0.0
220
0.0
230
1.0
 70
     8
 71
     3
 72
    18
 73
    14
 74
     0
 42
0.00000001
 43
0.00000001
 40
0.0
 40
0.0
 40
0.0
 40
0.0
 40
0.0560460744486069
 40
0.1466726270041543
 40
0.2452520936567361
 40
0.3634246023171255
 40
0.470653886049883
 40
0.5422543574743796
 40
0.6142598826570117
 40
0.7041844142158865
 40
0.8456744951087425
 40
0.9698941630659449
 40
1.0
 40
1.0
 40
1.0
 40
1.0
 10
169.0483716631997
 20
127.8937243775317
 30
0.0
 10
169.0468475195606
 20
127.8919189102816
 30
0.0
 10
169.0428588342925
 20
127.8871940008718
 30
0.0
 10
169.1495044748925
 20
128.0131090085629
 30
0.0
 10
169.3419649166967
 20
128.2507691937002
 30
0.0
 10
169.5961859440273
 20
128.5977722762864
 30
0.0
 10
169.8152572314978
 20
128.990509996637
 30
0.0
 10
169.918221142326
 20
129.3829550315566
 30
0.0
 10
169.893796147075
 20
129.7675146525088
 30
0.0
 10
169.7198264854082
 20
130.21606818558
 30
0.0
 10
169.4427069722364
 20
130.6471269720253
 30
0.0
 10
169.2351032755475
 20
130.9253021989664
 30
0.0
 10
169.1571706766111
 20
131.025937442647
 30
0.0
 10
169.1419675764036
 20
131.0455693773567
 30
0.0
  0
SPLINE
  5
102
330
1F
100
AcDbEntity
  8
0
  6
HIDDEN
 62
     7
370
     0
100
AcDbSpline
210
0.0
220
0.0
230
1.0
 70
     8
 71
     3
 72
     9
 73
     5
 74
     0
 42
0.00000001
 43
0.00000001
 40
0.0
 40
0.0
 40
0.0
 40
0.0
 40
0.8648050289985445
 40
1.0
 40
1.0
 40
1.0
 40
1.0
 10
169.1419675764037
 20
131.0455693773566
 30
0.0
 10
169.0834483727298
 20
131.0241140922041
 30
0.0
 10
169.0157808618902
 20
130.9993047023032
 30
0.0
 10
169.0428928540939
 20
131.0082970197003
 30
0.0
 10
169.0465582590936
 20
131.00951273579
 30
0.0
  0
LINE
  5
103
330
1F
100
AcDbEntity
  8
0
  6
HIDDEN
 62
     7
370
     0
100
AcDbLine
 10
171.0353048702
 20
131.832936078
 30
0.0
 11
169.0353048702
 21
131.832936078
 31
0.0
  0
LINE
  5
104
330
1F
100
AcDbEntity
  8
0
  6
HIDDEN
 62
     7
370
     0
100
AcDbLine
 10
173.0353048702
 20
131.832936078
 30
0.0
 11
171.0353048702
 21
131.832936078
 31
0.0
  0
LINE
  5
105
330
1F
100
AcDbEntity
  8
0
  6
HIDDEN
 62
     7
370
     0
100
AcDbLine
 10
171.0353048702
 20
84.632936078
 30
0.0
 11
173.0353048702
 21
84.632936078
 31
0.0
  0
LINE
  5
106
330
1F
100
AcDbEntity
  8
0
  6
HIDDEN
 62
     7
370
     0
100
AcDbLine
 10
169.0353048702
 20
84.632936078
 30
0.0
 11
171.0353048702
 21
84.632936078
 31
0.0
  0
SPLINE
  5
107
330
1F
100
AcDbEntity
  8
0
  6
HIDDEN
 62
     7
370
     0
100
AcDbSpline
210
0.0
220
0.0
230
1.0
 70
     8
 71
     3
 72
    17
 73
    13
 74
     0
 42
0.00000001
 43
0.00000001
 40
0.0
 40
0.0
 40
0.0
 40
0.0
 40
0.1268615981022044
 40
0.252855014324344
 40
0.3539120696924182
 40
0.4252042758082437
 40
0.4968610997171132
 40
0.5879323887452411
 40
0.7252620515355982
 40
0.8645724338896092
 40
0.9601910086435917
 40
1.0
 40
1.0
 40
1.0
 40
1.0
 10
169.1419675764037
 20
85.22030277865657
 30
0.0
 10
169.215484991337
 20
85.31595083433486
 30
0.0
 10
169.3620167021475
 20
85.50659237480433
 30
0.0
 10
169.6415881694959
 20
85.9207664225194
 30
0.0
 10
169.8425681906094
 20
86.33153935301246
 30
0.0
 10
169.9227010717572
 20
86.72064915659627
 30
0.0
 10
169.8771376115792
 20
87.10284239550658
 30
0.0
 10
169.6866413833484
 20
87.53196658210356
 30
0.0
 10
169.3888662165367
 20
87.95826556664615
 30
0.0
 10
169.1454904542927
 20
88.25797174946165
 30
0.0
 10
169.0345378226259
 20
88.38842539654549
 30
0.0
 10
169.0452289899597
 20
88.375845611663
 30
0.0
 10
169.0483716631997
 20
88.37214777848149
 30
0.0
  0
SPLINE
  5
108
330
1F
100
AcDbEntity
  8
0
  6
HIDDEN
 62
     7
370
     0
100
AcDbSpline
210
0.0
220
0.0
230
1.0
 70
     8
 71
     3
 72
     9
 73
     5
 74
     0
 42
0.00000001
 43
0.00000001
 40
0.0
 40
0.0
 40
0.0
 40
0.0
 40
0.7736190411992141
 40
1.0
 40
1.0
 40
1.0
 40
1.0
 10
169.0465582590936
 20
85.2563594202231
 30
0.0
 10
169.0524668412874
 20
85.25656750469206
 30
0.0
 10
169.0601044275916
 20
85.2568364800635
 30
0.0
 10
169.1268562376426
 20
85.22704663283481
 30
0.0
 10
169.1419675764036
 20
85.22030277865666
 30
0.0
  0
SPLINE
  5
109
330
1F
100
AcDbEntity
  8
0
  6
HIDDEN
 62
     7
370
     0
100
AcDbSpline
210
0.0
220
0.0
230
1.0
 70
     8
 71
     3
 72
    23
 73
    19
 74
     0
 42
0.00000001
 43
0.00000001
 40
0.0
 40
0.0
 40
0.0
 40
0.0
 40
0.0240524462865354
 40
0.1010685105252674
 40
0.1814349098471797
 40
0.2408293312866967
 40
0.3019282804491087
 40
0.3624140699806385
 40
0.4247465756215341
 40
0.4877183824062682
 40
0.55109691975126
 40
0.6273903693682423
 40
0.6853741378172293
 40
0.7449714244635414
 40
0.8043351378616387
 40
0.8656930847324934
 40
0.9512905095582347
 40
1.0
 40
1.0
 40
1.0
 40
1.0
 10
173.0240776373464
 20
88.53057710674982
 30
0.0
 10
173.0274042319531
 20
88.5347553765667
 30
0.0
 10
173.0413826006402
 20
88.55231248913364
 30
0.0
 10
172.9662146879503
 20
88.45814536121966
 30
0.0
 10
172.8354005068712
 20
88.28944557225944
 30
0.0
 10
172.6767557646363
 20
88.07326713898111
 30
0.0
 10
172.5231591213656
 20
87.84704287103263
 30
0.0
 10
172.36823804978
 20
87.58608203640694
 30
0.0
 10
172.2320758798377
 20
87.29017350534463
 30
0.0
 10
172.1506593073807
 20
86.95114747666501
 30
0.0
 10
172.181456912865
 20
86.57120906244204
 30
0.0
 10
172.3168510649323
 20
86.2414719259565
 30
0.0
 10
172.4809526465458
 20
85.96302753522708
 30
0.0
 10
172.6364075217438
 20
85.7395217676167
 30
0.0
 10
172.7854432071229
 20
85.54464613465187
 30
0.0
 10
172.929001728963
 20
85.36750944162308
 30
0.0
 10
173.0216929504192
 20
85.25809018462468
 30
0.0
 10
173.0316820819725
 20
85.246375504818
 30
0.0
 10
173.0353048701733
 20
85.24212690687402
 30
0.0
  0
LINE
  5
10A
330
1F
100
AcDbEntity
  8
0
  6
HIDDEN
 62
     7
370
     0
100
AcDbLine
 10
169.1419675764
 20
85.2203027787
 30
0.0
 11
169.0175549635
 21
88.3868152265
 31
0.0
  0
LINE
  5
10B
330
1F
100
AcDbEntity
  8
0
  6
HIDDEN
 62
     7
370
     0
100
AcDbLine
 10
169.1419675764
 20
131.0455693774
 30
0.0
 11
169.0175549635
 21
127.8790569295
 31
0.0
  0
LWPOLYLINE
  5
10C
330
1F
100
AcDbEntity
  8
0
  6
HIDDEN
 62
     7
370
     0
100
AcDbPolyline
 90
       30
 70
   128
 43
0.0
 10
119.0353048702
 20
153.4456419298
 10
120.1101570712
 20
153.4095187018
 10
121.134750378
 20
153.3028380997
 10
122.0611759461
 20
153.1305883899
 10
122.8461151458
 20
152.9008237775
 10
123.4528650924
 20
152.6242878003
 10
123.8530548328
 20
152.3139109733
 10
124.0279719394
 20
151.984206172
 10
123.9694374829
 20
151.6505900263
 10
123.6801884693
 20
151.3286620566
 10
123.173749861
 20
151.0334752568
 10
122.4738021644
 20
150.7788322337
 10
121.6130741561
 20
150.576639812
 10
120.6318125209
 20
150.4363522846
 10
119.5758999623
 20
150.3645293403
 10
118.4947097781
 20
150.3645293403
 10
117.4387972195
 20
150.4363522846
 10
116.4575355843
 20
150.576639812
 10
115.5968075759
 20
150.7788322337
 10
114.8968598794
 20
151.0334752568
 10
114.3904212711
 20
151.3286620566
 10
114.1011722575
 20
151.6505900263
 10
114.0426378009
 20
151.984206172
 10
114.2175549076
 20
152.3139109733
 10
114.6177446479
 20
152.6242878003
 10
115.2244945945
 20
152.9008237775
 10
116.0094337942
 20
153.1305883899
 10
116.9358593624
 20
153.3028380997
 10
117.9604526691
 20
153.4095187018
 10
119.0353048702
 20
153.4456419298
  0
LINE
  5
10D
330
1F
100
AcDbEntity
  8
0
  6
HIDDEN
 62
     7
370
     0
100
AcDbLine
 10
133.2973338911
 20
147.0838988389
 30
0.0
 11
133.2973338911
 21
139.482936078
 31
0.0
  0
LINE
  5
10E
330
1F
100
AcDbEntity
  8
0
  6
HIDDEN
 62
     7
370
     0
100
AcDbLine
 10
128.1253048702
 20
142.8471712705
 30
0.0
 11
128.1253048702
 21
139.482936078
 31
0.0
  0
LINE
  5
10F
330
1F
100
AcDbEntity
  8
0
  6
HIDDEN
 62
     7
370
     0
100
AcDbLine
 10
131.9453048702
 20
142.8471712705
 30
0.0
 11
131.9453048702
 21
139.482936078
 31
0.0
  0
CIRCLE
  5
110
330
1F
100
AcDbEntity
  8
0
  6
HIDDEN
 62
     7
370
     0
100
AcDbCircle
 10
117.0353048702
 20
108.132936078
 30
0.0
 40
5.0
  0
LINE
  5
111
330
1F
100
AcDbEntity
  8
0
  6
HIDDEN
 62
     7
370
     0
100
AcDbLine
 10
230.0285218725
 20
127.9610688171
 30
0.0
 11
229.932836751
 21
125.525719852
 31
0.0
  0
LINE
  5
112
330
1F
100
AcDbEntity
  8
0
  6
HIDDEN
 62
     7
370
     0
100
AcDbLine
 10
229.8349597275
 20
128.7698777425
 30
0.0
 11
229.6925324132
 21
125.1448605273
 31
0.0
  0
LINE
  5
113
330
1F
100
AcDbEntity
  8
0
  6
HIDDEN
 62
     7
370
     0
100
AcDbLine
 10
222.8301541732
 20
129.4175703371
 30
0.0
 11
222.6731149102
 21
125.4206541921
 31
0.0
  0
LINE
  5
114
330
1F
100
AcDbEntity
  8
0
  6
HIDDEN
 62
     7
370
     0
100
AcDbLine
 10
222.0512875342
 20
128.6975934217
 30
0.0
 11
221.9531379948
 21
126.1995208311
 31
0.0
  0
LINE
  5
115
330
1F
100
AcDbEntity
  8
0
  6
HIDDEN
 62
     7
370
     0
100
AcDbLine
 10
227.5372322796
 20
128.231857176
 30
0.0
 11
227.4979724638
 21
127.2326281398
 31
0.0
  0
LINE
  5
116
330
1F
100
AcDbEntity
  8
0
  6
HIDDEN
 62
     7
370
     0
100
AcDbLine
 10
227.4979724638
 20
127.2326281398
 30
0.0
 11
229.9960450544
 21
127.1344786004
 31
0.0
  0
LINE
  5
117
330
1F
100
AcDbEntity
  8
0
  6
HIDDEN
 62
     7
370
     0
100
AcDbLine
 10
227.4587126481
 20
126.2333991035
 30
0.0
 11
227.4979724638
 21
127.2326281398
 31
0.0
  0
LINE
  5
118
330
1F
100
AcDbEntity
  8
0
  6
HIDDEN
 62
     7
370
     0
100
AcDbLine
 10
227.5372322796
 20
128.231857176
 30
0.0
 11
230.0353048702
 21
128.1337076366
 31
0.0
  0
LINE
  5
119
330
1F
100
AcDbEntity
  8
0
  6
HIDDEN
 62
     7
370
     0
100
AcDbLine
 10
227.4587126481
 20
126.2333991035
 30
0.0
 11
229.9567852387
 21
126.1352495641
 31
0.0
  0
LINE
  5
11A
330
1F
100
AcDbEntity
  8
0
  6
HIDDEN
 62
     7
370
     0
100
AcDbLine
 10
222.7516345417
 20
90.8483030086
 30
0.0
 11
222.9086738047
 21
86.8513868636
 31
0.0
  0
LINE
  5
11B
330
1F
100
AcDbEntity
  8
0
  6
HIDDEN
 62
     7
370
     0
100
AcDbLine
 10
222.0316576263
 20
90.0694363696
 30
0.0
 11
222.1298071657
 21
87.571363779
 31
0.0
  0
LINE
  5
11C
330
1F
100
AcDbEntity
  8
0
  6
HIDDEN
 62
     7
370
     0
100
AcDbLine
 10
229.7710520447
 20
91.1240966734
 30
0.0
 11
229.9056947476
 21
87.6972110486
 31
0.0
  0
LINE
  5
11D
330
1F
100
AcDbEntity
  8
0
  6
HIDDEN
 62
     7
370
     0
100
AcDbLine
 10
230.0113563826
 20
90.7432373487
 30
0.0
 11
230.0353048702
 21
90.1337076366
 31
0.0
  0
LINE
  5
11E
330
1F
100
AcDbEntity
  8
0
  6
HIDDEN
 62
     7
370
     0
100
AcDbLine
 10
227.5372322796
 20
90.0355580972
 30
0.0
 11
227.5764920953
 21
89.036329061
 31
0.0
  0
LINE
  5
11F
330
1F
100
AcDbEntity
  8
0
  6
HIDDEN
 62
     7
370
     0
100
AcDbLine
 10
227.6157519111
 20
88.0371000247
 30
0.0
 11
227.5764920953
 21
89.036329061
 31
0.0
  0
LINE
  5
120
330
1F
100
AcDbEntity
  8
0
  6
HIDDEN
 62
     7
370
     0
100
AcDbLine
 10
227.5764920953
 20
89.036329061
 30
0.0
 11
230.0745646859
 21
89.1344786004
 31
0.0
  0
LINE
  5
121
330
1F
100
AcDbEntity
  8
0
  6
HIDDEN
 62
     7
370
     0
100
AcDbLine
 10
227.5372322796
 20
90.0355580972
 30
0.0
 11
230.0353048702
 21
90.1337076366
 31
0.0
  0
LINE
  5
122
330
1F
100
AcDbEntity
  8
0
  6
HIDDEN
 62
     7
370
     0
100
AcDbLine
 10
227.6157519111
 20
88.0371000247
 30
0.0
 11
230.1138245017
 21
88.1352495641
 31
0.0
  0
LINE
  5
123
330
1F
100
AcDbEntity
  8
0
  6
HIDDEN
 62
     7
370
     0
100
AcDbLine
 10
174.0353048702
 20
102.132936078
 30
0.0
 11
174.0353048702
 21
114.132936078
 31
0.0
  0
LINE
  5
124
330
1F
100
AcDbEntity
  8
0
  6
HIDDEN
 62
     7
370
     0
100
AcDbLine
 10
159.0353048702
 20
102.132936078
 30
0.0
 11
159.0353048702
 21
114.132936078
 31
0.0
  0
LINE
  5
125
330
1F
100
AcDbEntity
  8
0
  6
HIDDEN
 62
     7
370
     0
100
AcDbLine
 10
174.5353048702
 20
102.632936078
 30
0.0
 11
174.5353048702
 21
113.632936078
 31
0.0
  0
LINE
  5
126
330
1F
100
AcDbEntity
  8
0
  6
HIDDEN
 62
     7
370
     0
100
AcDbLine
 10
158.5353048702
 20
102.632936078
 30
0.0
 11
158.5353048702
 21
113.632936078
 31
0.0
  0
LINE
  5
127
330
1F
100
AcDbEntity
  8
0
  6
HIDDEN
 62
     7
370
     0
100
AcDbLine
 10
178.5353048702
 20
106.632936078
 30
0.0
 11
176.5353048702
 21
106.632936078
 31
0.0
  0
LINE
  5
128
330
1F
100
AcDbEntity
  8
0
  6
HIDDEN
 62
     7
370
     0
100
AcDbLine
 10
178.5353048702
 20
102.632936078
 30
0.0
 11
178.5353048702
 21
106.632936078
 31
0.0
  0
LINE
  5
129
330
1F
100
AcDbEntity
  8
0
  6
HIDDEN
 62
     7
370
     0
100
AcDbLine
 10
178.5353048702
 20
109.632936078
 30
0.0
 11
178.5353048702
 21
113.632936078
 31
0.0
  0
LINE
  5
12A
330
1F
100
AcDbEntity
  8
0
  6
HIDDEN
 62
     7
370
     0
100
AcDbLine
 10
176.5353048702
 20
109.632936078
 30
0.0
 11
178.5353048702
 21
109.632936078
 31
0.0
  0
LINE
  5
12B
330
1F
100
AcDbEntity
  8
0
  6
HIDDEN
 62
     7
370
     0
100
AcDbLine
 10
176.5353048702
 20
106.632936078
 30
0.0
 11
176.5353048702
 21
109.632936078
 31
0.0
  0
LINE
  5
12C
330
1F
100
AcDbEntity
  8
0
  6
HIDDEN
 62
     7
370
     0
100
AcDbLine
 10
165.5353048701
 20
108.132936078
 30
0.0
 11
158.5353048702
 21
108.132936078
 31
0.0
  0
LINE
  5
12D
330
1F
100
AcDbEntity
  8
0
  6
HIDDEN
 62
     7
370
     0
100
AcDbLine
 10
171.5353048702
 20
108.132936078
 30
0.0
 11
176.5353048702
 21
108.132936078
 31
0.0
  0
LINE
  5
12E
330
1F
100
AcDbEntity
  8
0
  6
HIDDEN
 62
     7
370
     0
100
AcDbLine
 10
165.5353048701
 20
108.132936078
 30
0.0
 11
165.5353048701
 21
109.632936078
 31
0.0
  0
LINE
  5
12F
330
1F
100
AcDbEntity
  8
0
  6
HIDDEN
 62
     7
370
     0
100
AcDbLine
 10
165.5353048701
 20
106.632936078
 30
0.0
 11
165.5353048701
 21
108.132936078
 31
0.0
  0
LINE
  5
130
330
1F
100
AcDbEntity
  8
0
  6
HIDDEN
 62
     7
370
     0
100
AcDbLine
 10
171.5353048702
 20
108.132936078
 30
0.0
 11
171.5353048702
 21
106.632936078
 31
0.0
  0
LINE
  5
131
330
1F
100
AcDbEntity
  8
0
  6
HIDDEN
 62
     7
370
     0
100
AcDbLine
 10
171.5353048702
 20
109.632936078
 30
0.0
 11
171.5353048702
 21
108.132936078
 31
0.0
  0
LINE
  5
132
330
1F
100
AcDbEntity
  8
0
  6
HIDDEN
 62
     7
370
     0
100
AcDbLine
 10
171.5353048702
 20
106.632936078
 30
0.0
 11
171.5353048702
 21
105.132936078
 31
0.0
  0
LINE
  5
133
330
1F
100
AcDbEntity
  8
0
  6
HIDDEN
 62
     7
370
     0
100
AcDbLine
 10
165.5353048701
 20
105.132936078
 30
0.0
 11
165.5353048701
 21
106.632936078
 31
0.0
  0
LINE
  5
134
330
1F
100
AcDbEntity
  8
0
  6
HIDDEN
 62
     7
370
     0
100
AcDbLine
 10
171.5353048702
 20
111.132936078
 30
0.0
 11
171.5353048702
 21
109.632936078
 31
0.0
  0
LINE
  5
135
330
1F
100
AcDbEntity
  8
0
  6
HIDDEN
 62
     7
370
     0
100
AcDbLine
 10
165.5353048701
 20
109.632936078
 30
0.0
 11
165.5353048701
 21
111.132936078
 31
0.0
  0
LINE
  5
136
330
1F
100
AcDbEntity
  8
0
  6
HIDDEN
 62
     7
370
     0
100
AcDbLine
 10
171.5353048702
 20
111.132936078
 30
0.0
 11
178.5353048702
 21
111.132936078
 31
0.0
  0
LINE
  5
137
330
1F
100
AcDbEntity
  8
0
  6
HIDDEN
 62
     7
370
     0
100
AcDbLine
 10
171.5353048702
 20
105.132936078
 30
0.0
 11
178.5353048702
 21
105.132936078
 31
0.0
  0
LINE
  5
138
330
1F
100
AcDbEntity
  8
0
  6
HIDDEN
 62
     7
370
     0
100
AcDbLine
 10
165.5353048701
 20
105.132936078
 30
0.0
 11
158.5353048701
 21
105.132936078
 31
0.0
  0
LINE
  5
139
330
1F
100
AcDbEntity
  8
0
  6
HIDDEN
 62
     7
370
     0
100
AcDbLine
 10
165.5353048701
 20
111.132936078
 30
0.0
 11
158.5353048701
 21
111.132936078
 31
0.0
  0
LINE
  5
13A
330
1F
100
AcDbEntity
  8
0
  6
HIDDEN
 62
     7
370
     0
100
AcDbLine
 10
110.0353048702
 20
68.7282531214
 30
0.0
 11
110.1249064941
 21
69.3658018034
 31
0.0
  0
LINE
  5
13B
330
1F
100
AcDbEntity
  8
0
  6
HIDDEN
 62
     7
370
     0
100
AcDbLine
 10
110.1249064941
 20
146.9000703527
 30
0.0
 11
110.0353048702
 21
147.5376190346
 31
0.0
  0
ARC
  5
13C
330
1F
100
AcDbEntity
  8
0
  6
HIDDEN
 62
     7
370
     0
100
AcDbCircle
 10
109.1383679517
 20
69.5044507536
 30
0.0
 40
0.9962338214386932
100
AcDbArc
 50
352.0
 51
0.0
  0
ARC
  5
13D
330
1F
100
AcDbEntity
  8
0
  6
HIDDEN
 62
     7
370
     0
100
AcDbCircle
 10
109.1383679517
 20
69.5044507536
 30
0.0
 40
0.9962338214386932
100
AcDbArc
 50
0.0
 51
25.7988228126
  0
ARC
  5
13E
330
1F
100
AcDbEntity
  8
0
  6
HIDDEN
 62
     7
370
     0
100
AcDbCircle
 10
109.1383679517
 20
146.7614214025
 30
0.0
 40
0.9962338214386822
100
AcDbArc
 50
348.75
 51
8.0
  0
LWPOLYLINE
  5
13F
330
1F
100
AcDbEntity
  8
0
  6
HIDDEN
 62
     7
370
     0
100
AcDbPolyline
 90
        3
 70
   128
 43
0.0
 10
110.1154594196
 20
146.5670658254
 10
110.0587679889
 20
146.3801792242
 10
110.0353048702
 20
146.3278478893
  0
LINE
  5
140
330
1F
100
AcDbEntity
  8
0
  6
HIDDEN
 62
     7
370
     0
100
AcDbLine
 10
110.1346017732
 20
69.5044507536
 30
0.0
 11
110.1346017732
 21
146.7614214025
 31
0.0
  0
LINE
  5
141
330
1F
100
AcDbEntity
  8
0
  6
HIDDEN
 62
     7
370
     0
100
AcDbLine
 10
83.4960308123
 20
76.632936078
 30
0.0
 11
89.0404752441
 21
76.632936078
 31
0.0
  0
LINE
  5
142
330
1F
100
AcDbEntity
  8
0
  6
HIDDEN
 62
     7
370
     0
100
AcDbLine
 10
89.0404752441
 20
139.632936078
 30
0.0
 11
83.4960308123
 21
139.632936078
 31
0.0
  0
ARC
  5
143
330
1F
100
AcDbEntity
  8
0
  6
HIDDEN
 62
     7
370
     0
100
AcDbCircle
 10
100.2885105254
 20
88.632936078
 30
0.0
 40
12.0
100
AcDbArc
 50
273.4722179823
 51
324.3146652873
  0
ARC
  5
144
330
1F
100
AcDbEntity
  8
0
  6
HIDDEN
 62
     7
370
     0
100
AcDbCircle
 10
100.2885105254
 20
127.632936078
 30
0.0
 40
12.00000000000001
100
AcDbArc
 50
35.6853347127
 51
86.5325735396
  0
ARC
  5
145
330
1F
100
AcDbEntity
  8
0
  6
HIDDEN
 62
     7
370
     0
100
AcDbCircle
 10
83.4960308123
 20
77.632936078
 30
0.0
 40
1.000000000000014
100
AcDbArc
 50
210.0
 51
270.0
  0
ARC
  5
146
330
1F
100
AcDbEntity
  8
0
  6
HIDDEN
 62
     7
370
     0
100
AcDbCircle
 10
83.4960308123
 20
138.632936078
 30
0.0
 40
1.0
100
AcDbArc
 50
90.0
 51
150.0
  0
LINE
  5
147
330
1F
100
AcDbEntity
  8
0
  6
HIDDEN
 62
     7
370
     0
100
AcDbLine
 10
82.6300054086
 20
139.132936078
 30
0.0
 11
80.0319291972
 21
134.632936078
 31
0.0
  0
LINE
  5
148
330
1F
100
AcDbEntity
  8
0
  6
HIDDEN
 62
     7
370
     0
100
AcDbLine
 10
80.0319291972
 20
81.632936078
 30
0.0
 11
82.6300054086
 21
77.132936078
 31
0.0
  0
ARC
  5
149
330
1F
100
AcDbEntity
  8
0
  6
HIDDEN
 62
     7
370
     0
100
AcDbCircle
 10
120.4853048702
 20
83.257936078
 30
0.0
 40
2.000000000000015
100
AcDbArc
 50
234.3409123039
 51
0.0
  0
ARC
  5
14A
330
1F
100
AcDbEntity
  8
0
  6
HIDDEN
 62
     7
370
     0
100
AcDbCircle
 10
120.4853048702
 20
133.007936078
 30
0.0
 40
2.000000000000026
100
AcDbArc
 50
0.0
 51
125.6590876961
  0
LINE
  5
14B
330
1F
100
AcDbEntity
  8
0
  6
HIDDEN
 62
     7
370
     0
100
AcDbLine
 10
75.2353048702
 20
81.632936078
 30
0.0
 11
80.0319291972
 21
81.632936078
 31
0.0
  0
LINE
  5
14C
330
1F
100
AcDbEntity
  8
0
  6
HIDDEN
 62
     7
370
     0
100
AcDbLine
 10
80.0319291972
 20
134.632936078
 30
0.0
 11
70.2353048702
 21
134.632936078
 31
0.0
  0
LINE
  5
14D
330
1F
100
AcDbEntity
  8
0
  6
HIDDEN
 62
     7
370
     0
100
AcDbLine
 10
110.0353048702
 20
81.632936078
 30
0.0
 11
119.3193824885
 21
81.632936078
 31
0.0
  0
LINE
  5
14E
330
1F
100
AcDbEntity
  8
0
  6
HIDDEN
 62
     7
370
     0
100
AcDbLine
 10
119.3193824885
 20
134.632936078
 30
0.0
 11
110.0353048702
 21
134.632936078
 31
0.0
  0
LINE
  5
14F
330
1F
100
AcDbEntity
  8
0
  6
HIDDEN
 62
     7
370
     0
100
AcDbLine
 10
114.0353048702
 20
153.8100989601
 30
0.0
 11
114.0353048702
 21
150.1103498567
 31
0.0
  0
LINE
  5
150
330
1F
100
AcDbEntity
  8
0
  6
HIDDEN
 62
     7
370
     0
100
AcDbLine
 10
124.0353048702
 20
150.1103498567
 30
0.0
 11
124.0353048702
 21
153.8087270109
 31
0.0
  0
LWPOLYLINE
  5
151
330
1F
100
AcDbEntity
  8
0
  6
HIDDEN
 62
     7
370
     0
100
AcDbPolyline
 90
        3
 70
   128
 43
0.0
 10
229.6537271646
 20
87.1164007319
 10
229.6966639061
 20
87.1875178158
 10
229.8489083728
 20
87.4966853899
  0
LWPOLYLINE
  5
152
330
1F
100
AcDbEntity
  8
0
  6
HIDDEN
 62
     7
370
     0
100
AcDbPolyline
 90
        3
 70
   128
 43
0.0
 10
229.8473996538
 20
128.7728634779
 10
229.6949141987
 20
129.0813595266
 10
229.6537271646
 20
129.1494714241
  0
ARC
  5
153
330
1F
100
AcDbEntity
  8
0
  6
HIDDEN
 62
     7
370
     0
100
AcDbCircle
 10
229.5353048702
 20
91.0962418299
 30
0.0
 40
0.5
100
AcDbArc
 50
0.0
 51
80.0
  0
ARC
  5
154
330
1F
100
AcDbEntity
  8
0
  6
HIDDEN
 62
     7
370
     0
100
AcDbCircle
 10
229.5353048702
 20
125.1696303261
 30
0.0
 40
0.5
100
AcDbArc
 50
280.0
 51
0.0
  0
LINE
  5
155
330
1F
100
AcDbEntity
  8
0
  6
HIDDEN
 62
     7
370
     0
100
AcDbLine
 10
229.622128959
 20
124.6772264496
 30
0.0
 11
226.5353048702
 21
124.132936078
 31
0.0
  0
LINE
  5
156
330
1F
100
AcDbEntity
  8
0
  6
HIDDEN
 62
     7
370
     0
100
AcDbLine
 10
226.5353048702
 20
92.132936078
 30
0.0
 11
229.622128959
 21
91.5886457064
 31
0.0
  0
LINE
  5
157
330
1F
100
AcDbEntity
  8
0
  6
HIDDEN
 62
     7
370
     0
100
AcDbLine
 10
173.0353048702
 20
91.832936078
 30
0.0
 11
178.1405308521
 21
91.832936078
 31
0.0
  0
LINE
  5
158
330
1F
100
AcDbEntity
  8
0
  6
HIDDEN
 62
     7
370
     0
100
AcDbLine
 10
168.9353048702
 20
91.832936078
 30
0.0
 11
169.041270647
 21
91.832936078
 31
0.0
  0
LINE
  5
159
330
1F
100
AcDbEntity
  8
0
  6
HIDDEN
 62
     7
370
     0
100
AcDbLine
 10
169.0354816987
 20
124.432936078
 30
0.0
 11
168.9353048702
 21
124.432936078
 31
0.0
  0
LINE
  5
15A
330
1F
100
AcDbEntity
  8
0
  6
HIDDEN
 62
     7
370
     0
100
AcDbLine
 10
178.1405308521
 20
124.432936078
 30
0.0
 11
173.0287375947
 21
124.432936078
 31
0.0
  0
ARC
  5
15B
330
1F
100
AcDbEntity
  8
0
  6
HIDDEN
 62
     7
370
     0
100
AcDbCircle
 10
168.9353048702
 20
92.232936078
 30
0.0
 40
0.4000000000000057
100
AcDbArc
 50
180.0
 51
270.0
  0
ARC
  5
15C
330
1F
100
AcDbEntity
  8
0
  6
HIDDEN
 62
     7
370
     0
100
AcDbCircle
 10
168.9353048702
 20
124.032936078
 30
0.0
 40
0.4000000000000057
100
AcDbArc
 50
90.0
 51
180.0
  0
ARC
  5
15D
330
1F
100
AcDbEntity
  8
0
  6
HIDDEN
 62
     7
370
     0
100
AcDbCircle
 10
178.1405308521
 20
92.232936078
 30
0.0
 40
0.3999999999999977
100
AcDbArc
 50
270.0
 51
290.0
  0
ARC
  5
15E
330
1F
100
AcDbEntity
  8
0
  6
HIDDEN
 62
     7
370
     0
100
AcDbCircle
 10
178.1405308521
 20
124.032936078
 30
0.0
 40
0.3999999999999977
100
AcDbArc
 50
70.0
 51
90.0
  0
LINE
  5
15F
330
1F
100
AcDbEntity
  8
0
  6
HIDDEN
 62
     7
370
     0
100
AcDbLine
 10
178.2773389094
 20
91.8570590297
 30
0.0
 11
179.0353048702
 21
92.132936078
 31
0.0
  0
LINE
  5
160
330
1F
100
AcDbEntity
  8
0
  6
HIDDEN
 62
     7
370
     0
100
AcDbLine
 10
179.0353048702
 20
124.132936078
 30
0.0
 11
178.2773389094
 21
124.4088131263
 31
0.0
  0
LINE
  5
161
330
1F
100
AcDbEntity
  8
0
  6
HIDDEN
 62
     7
370
     0
100
AcDbLine
 10
179.0353048702
 20
92.132936078
 30
0.0
 11
226.5353048702
 21
92.132936078
 31
0.0
  0
LINE
  5
162
330
1F
100
AcDbEntity
  8
0
  6
HIDDEN
 62
     7
370
     0
100
AcDbLine
 10
226.5353048702
 20
124.132936078
 30
0.0
 11
179.0353048702
 21
124.132936078
 31
0.0
  0
LINE
  5
163
330
1F
100
AcDbEntity
  8
0
  6
HIDDEN
 62
     7
370
     0
100
AcDbLine
 10
134.3353048702
 20
95.132936078
 30
0.0
 11
138.3353048702
 21
95.132936078
 31
0.0
  0
LINE
  5
164
330
1F
100
AcDbEntity
  8
0
  6
HIDDEN
 62
     7
370
     0
100
AcDbLine
 10
138.3353048702
 20
121.132936078
 30
0.0
 11
134.3353048702
 21
121.132936078
 31
0.0
  0
LINE
  5
165
330
1F
100
AcDbEntity
  8
0
  6
HIDDEN
 62
     7
370
     0
100
AcDbLine
 10
122.4853048702
 20
96.132936078
 30
0.0
 11
123.2353048702
 21
96.882936078
 31
0.0
  0
LINE
  5
166
330
1F
100
AcDbEntity
  8
0
  6
HIDDEN
 62
     7
370
     0
100
AcDbLine
 10
123.2353048702
 20
119.382936078
 30
0.0
 11
122.4853048702
 21
120.132936078
 31
0.0
  0
LINE
  5
167
330
1F
100
AcDbEntity
  8
0
  6
HIDDEN
 62
     7
370
     0
100
AcDbLine
 10
123.2353048702
 20
96.882936078
 30
0.0
 11
134.3353048702
 21
96.882936078
 31
0.0
  0
LINE
  5
168
330
1F
100
AcDbEntity
  8
0
  6
HIDDEN
 62
     7
370
     0
100
AcDbLine
 10
134.3353048702
 20
119.382936078
 30
0.0
 11
123.2353048702
 21
119.382936078
 31
0.0
  0
LINE
  5
169
330
1F
100
AcDbEntity
  8
0
  6
HIDDEN
 62
     7
370
     0
100
AcDbLine
 10
114.9853048702
 20
158.132936078
 30
0.0
 11
114.9853048702
 21
152.032936078
 31
0.0
  0
LINE
  5
16A
330
1F
100
AcDbEntity
  8
0
  6
HIDDEN
 62
     7
370
     0
100
AcDbLine
 10
101.4680174862
 20
70.5546565074
 30
0.0
 11
101.0353081997
 21
71.0328812248
 31
0.0
  0
LINE
  5
16B
330
1F
100
AcDbEntity
  8
0
  6
HIDDEN
 62
     7
370
     0
100
AcDbLine
 10
89.0353053282
 20
71.6798425815
 30
0.0
 11
88.554678023
 21
71.2016178706
 31
0.0
  0
LINE
  5
16C
330
1F
100
AcDbEntity
  8
0
  6
HIDDEN
 62
     7
370
     0
100
AcDbLine
 10
88.5545596815
 20
145.0642483692
 30
0.0
 11
89.0353051455
 21
144.5859686974
 31
0.0
  0
LINE
  5
16D
330
1F
100
AcDbEntity
  8
0
  6
HIDDEN
 62
     7
370
     0
100
AcDbLine
 10
101.0353048723
 20
145.2329410847
 30
0.0
 11
101.468126542
 21
145.7112207576
 31
0.0
  0
LINE
  5
16E
330
1F
100
AcDbEntity
  8
0
  6
HIDDEN
 62
     7
370
     0
100
AcDbLine
 10
101.0353048702
 20
139.607000972
 30
0.0
 11
101.0353048702
 21
145.3329449108
 31
0.0
  0
LINE
  5
16F
330
1F
100
AcDbEntity
  8
0
  6
HIDDEN
 62
     7
370
     0
100
AcDbLine
 10
89.0353048702
 20
144.5859581981
 30
0.0
 11
89.0353048702
 21
139.6319518786
 31
0.0
  0
LINE
  5
170
330
1F
100
AcDbEntity
  8
0
  6
HIDDEN
 62
     7
370
     0
100
AcDbLine
 10
101.0353048702
 20
70.9327523822
 30
0.0
 11
101.0353048702
 21
76.658871184
 31
0.0
  0
LINE
  5
171
330
1F
100
AcDbEntity
  8
0
  6
HIDDEN
 62
     7
370
     0
100
AcDbLine
 10
89.0353048702
 20
76.6339202774
 30
0.0
 11
89.0353048702
 21
71.679880996
 31
0.0
  0
LINE
  5
172
330
1F
100
AcDbEntity
  8
0
  6
HIDDEN
 62
     7
370
     0
100
AcDbLine
 10
138.3353048702
 20
102.132936078
 30
0.0
 11
147.1353048702
 21
102.132936078
 31
0.0
  0
LINE
  5
173
330
1F
100
AcDbEntity
  8
0
  6
HIDDEN
 62
     7
370
     0
100
AcDbLine
 10
147.1353048702
 20
114.132936078
 30
0.0
 11
138.3353048702
 21
114.132936078
 31
0.0
  0
LINE
  5
174
330
1F
100
AcDbEntity
  8
0
  6
HIDDEN
 62
     7
370
     0
100
AcDbLine
 10
168.5353048702
 20
114.132936078
 30
0.0
 11
168.0353048702
 21
113.632936078
 31
0.0
  0
LINE
  5
175
330
1F
100
AcDbEntity
  8
0
  6
HIDDEN
 62
     7
370
     0
100
AcDbLine
 10
168.0353048702
 20
102.632936078
 30
0.0
 11
168.5353048702
 21
102.132936078
 31
0.0
  0
LINE
  5
176
330
1F
100
AcDbEntity
  8
0
  6
HIDDEN
 62
     7
370
     0
100
AcDbLine
 10
147.1353048702
 20
102.132936078
 30
0.0
 11
147.4357351797
 21
102.632936078
 31
0.0
  0
LINE
  5
177
330
1F
100
AcDbEntity
  8
0
  6
HIDDEN
 62
     7
370
     0
100
AcDbLine
 10
147.4357351797
 20
113.632936078
 30
0.0
 11
147.1353048702
 21
114.132936078
 31
0.0
  0
LINE
  5
178
330
1F
100
AcDbEntity
  8
0
  6
HIDDEN
 62
     7
370
     0
100
AcDbLine
 10
147.4357351797
 20
102.632936078
 30
0.0
 11
168.0353048702
 21
102.632936078
 31
0.0
  0
LINE
  5
179
330
1F
100
AcDbEntity
  8
0
  6
HIDDEN
 62
     7
370
     0
100
AcDbLine
 10
168.0353048702
 20
113.632936078
 30
0.0
 11
147.4357351797
 21
113.632936078
 31
0.0
  0
LINE
  5
17A
330
1F
100
AcDbEntity
  8
0
  6
HIDDEN
 62
     7
370
     0
100
AcDbLine
 10
155.4853048702
 20
81.632936078
 30
0.0
 11
154.4853048702
 21
82.2102863472
 31
0.0
  0
LINE
  5
17B
330
1F
100
AcDbEntity
  8
0
  6
HIDDEN
 62
     7
370
     0
100
AcDbLine
 10
149.4853048702
 20
82.2102863472
 30
0.0
 11
148.4853048702
 21
81.632936078
 31
0.0
  0
LINE
  5
17C
330
1F
100
AcDbEntity
  8
0
  6
HIDDEN
 62
     7
370
     0
100
AcDbLine
 10
148.4853048702
 20
134.632936078
 30
0.0
 11
149.4853048702
 21
134.0555858088
 31
0.0
  0
LINE
  5
17D
330
1F
100
AcDbEntity
  8
0
  6
HIDDEN
 62
     7
370
     0
100
AcDbLine
 10
154.4853048702
 20
134.0555858088
 30
0.0
 11
155.4853048702
 21
134.632936078
 31
0.0
  0
LINE
  5
17E
330
1F
100
AcDbEntity
  8
0
  6
HIDDEN
 62
     7
370
     0
100
AcDbLine
 10
149.4853048702
 20
134.0555858088
 30
0.0
 11
149.4853048702
 21
120.632936078
 31
0.0
  0
LINE
  5
17F
330
1F
100
AcDbEntity
  8
0
  6
HIDDEN
 62
     7
370
     0
100
AcDbLine
 10
154.4853048702
 20
120.632936078
 30
0.0
 11
154.4853048702
 21
134.0555858088
 31
0.0
  0
LINE
  5
180
330
1F
100
AcDbEntity
  8
0
  6
HIDDEN
 62
     7
370
     0
100
AcDbLine
 10
149.4853048702
 20
120.632936078
 30
0.0
 11
151.9853048702
 21
119.1307845304
 31
0.0
  0
LINE
  5
181
330
1F
100
AcDbEntity
  8
0
  6
HIDDEN
 62
     7
370
     0
100
AcDbLine
 10
151.9853048702
 20
119.1307845304
 30
0.0
 11
154.4853048702
 21
120.632936078
 31
0.0
  0
LINE
  5
182
330
1F
100
AcDbEntity
  8
0
  6
HIDDEN
 62
     7
370
     0
100
AcDbLine
 10
154.4853048702
 20
82.2102863472
 30
0.0
 11
154.4853048702
 21
95.632936078
 31
0.0
  0
LINE
  5
183
330
1F
100
AcDbEntity
  8
0
  6
HIDDEN
 62
     7
370
     0
100
AcDbLine
 10
149.4853048702
 20
95.632936078
 30
0.0
 11
149.4853048702
 21
82.2102863472
 31
0.0
  0
LINE
  5
184
330
1F
100
AcDbEntity
  8
0
  6
HIDDEN
 62
     7
370
     0
100
AcDbLine
 10
154.4853048702
 20
95.632936078
 30
0.0
 11
151.9853048702
 21
97.1350876256
 31
0.0
  0
LINE
  5
185
330
1F
100
AcDbEntity
  8
0
  6
HIDDEN
 62
     7
370
     0
100
AcDbLine
 10
151.9853048702
 20
97.1350876256
 30
0.0
 11
149.4853048702
 21
95.632936078
 31
0.0
  0
LINE
  5
186
330
1F
100
AcDbEntity
  8
0
  6
HIDDEN
 62
     7
370
     0
100
AcDbLine
 10
169.0353048702
 20
127.8937243775
 30
0.0
 11
169.0353048702
 21
124.432914665
 31
0.0
  0
LINE
  5
187
330
1F
100
AcDbEntity
  8
0
  6
HIDDEN
 62
     7
370
     0
100
AcDbLine
 10
169.0353048702
 20
131.832936078
 30
0.0
 11
169.0353048702
 21
131.0095127358
 31
0.0
  0
LINE
  5
188
330
1F
100
AcDbEntity
  8
0
  6
HIDDEN
 62
     7
370
     0
100
AcDbLine
 10
173.0353048702
 20
131.0237452491
 30
0.0
 11
173.0353048702
 21
131.832936078
 31
0.0
  0
LINE
  5
189
330
1F
100
AcDbEntity
  8
0
  6
HIDDEN
 62
     7
370
     0
100
AcDbLine
 10
173.0353048702
 20
124.4321327332
 30
0.0
 11
173.0353048702
 21
127.7352950493
 31
0.0
  0
LINE
  5
18A
330
1F
100
AcDbEntity
  8
0
  6
HIDDEN
 62
     7
370
     0
100
AcDbLine
 10
169.0353048702
 20
85.2563594202
 30
0.0
 11
169.0353048702
 21
84.632936078
 31
0.0
  0
LINE
  5
18B
330
1F
100
AcDbEntity
  8
0
  6
HIDDEN
 62
     7
370
     0
100
AcDbLine
 10
169.0353048702
 20
91.8336657222
 30
0.0
 11
169.0353048702
 21
88.3721477785
 31
0.0
  0
LINE
  5
18C
330
1F
100
AcDbEntity
  8
0
  6
HIDDEN
 62
     7
370
     0
100
AcDbLine
 10
173.0353048702
 20
88.5305771067
 30
0.0
 11
173.0353048702
 21
91.832936078
 31
0.0
  0
LINE
  5
18D
330
1F
100
AcDbEntity
  8
0
  6
HIDDEN
 62
     7
370
     0
100
AcDbLine
 10
173.0353048702
 20
84.632936078
 30
0.0
 11
173.0353048702
 21
85.2421269069
 31
0.0
  0
LINE
  5
18E
330
1F
100
AcDbEntity
  8
0
  6
HIDDEN
 62
     7
370
     0
100
AcDbLine
 10
169.0353048702
 20
84.632936078
 30
0.0
 11
171.0353048702
 21
83.43121484
 31
0.0
  0
LINE
  5
18F
330
1F
100
AcDbEntity
  8
0
  6
HIDDEN
 62
     7
370
     0
100
AcDbLine
 10
171.0353048702
 20
83.43121484
 30
0.0
 11
173.0353048702
 21
84.632936078
 31
0.0
  0
LINE
  5
190
330
1F
100
AcDbEntity
  8
0
  6
HIDDEN
 62
     7
370
     0
100
AcDbLine
 10
230.0353048702
 20
90.7842091497
 30
0.0
 11
173.0235568912
 21
88.5442114709
 31
0.0
  0
LINE
  5
191
330
1F
100
AcDbEntity
  8
0
  6
HIDDEN
 62
     7
370
     0
100
AcDbLine
 10
173.0353048702
 20
85.2421269069
 30
0.0
 11
229.8487515162
 21
87.4743333051
 31
0.0
  0
LINE
  5
192
330
1F
100
AcDbEntity
  8
0
  6
HIDDEN
 62
     7
370
     0
100
AcDbLine
 10
229.8476350568
 20
128.7915827168
 30
0.0
 11
173.0353048702
 21
131.0237452491
 31
0.0
  0
LINE
  5
193
330
1F
100
AcDbEntity
  8
0
  6
HIDDEN
 62
     7
370
     0
100
AcDbLine
 10
173.0235568912
 20
127.7216606851
 30
0.0
 11
230.0353048702
 21
125.4816630063
 31
0.0
  0
LINE
  5
194
330
1F
100
AcDbEntity
  8
0
  6
HIDDEN
 62
     7
370
     0
100
AcDbLine
 10
169.0403402348
 20
131.0136582005
 30
0.0
 11
168.091677987
 21
129.5667078067
 31
0.0
  0
LINE
  5
195
330
1F
100
AcDbEntity
  8
0
  6
HIDDEN
 62
     7
370
     0
100
AcDbLine
 10
168.091677987
 20
129.5667078067
 30
0.0
 11
169.0175549635
 21
127.8790569295
 31
0.0
  0
LINE
  5
196
330
1F
100
AcDbEntity
  8
0
  6
HIDDEN
 62
     7
370
     0
100
AcDbLine
 10
169.0175549635
 20
88.3868152265
 30
0.0
 11
168.091677987
 21
86.6991643493
 31
0.0
  0
LINE
  5
197
330
1F
100
AcDbEntity
  8
0
  6
HIDDEN
 62
     7
370
     0
100
AcDbLine
 10
168.091677987
 20
86.6991643493
 30
0.0
 11
169.0403402348
 21
85.2522139555
 31
0.0
  0
LINE
  5
198
330
1F
100
AcDbEntity
  8
0
  6
HIDDEN
 62
     7
370
     0
100
AcDbLine
 10
114.0353048702
 20
155.685647376
 30
0.0
 11
114.0353048702
 21
153.8100989601
 31
0.0
  0
LINE
  5
199
330
1F
100
AcDbEntity
  8
0
  6
HIDDEN
 62
     7
370
     0
100
AcDbLine
 10
124.0353048702
 20
153.8087270109
 30
0.0
 11
124.0353048702
 21
155.6842190932
 31
0.0
  0
LINE
  5
19A
330
1F
100
AcDbEntity
  8
0
  6
HIDDEN
 62
     7
370
     0
100
AcDbLine
 10
60.1930184052
 20
138.7906496131
 30
0.0
 11
60.1920885082
 21
138.7897197161
 31
0.0
  0
LINE
  5
19B
330
1F
100
AcDbEntity
  8
0
  6
HIDDEN
 62
     7
370
     0
100
AcDbLine
 10
229.6925324132
 20
125.1448605273
 30
0.0
 11
229.932836751
 21
125.525719852
 31
0.0
  0
LINE
  5
19C
330
1F
100
AcDbEntity
  8
0
  6
HIDDEN
 62
     7
370
     0
100
AcDbLine
 10
229.6537271646
 20
129.1494714241
 30
0.0
 11
222.8301541732
 21
129.4175703371
 31
0.0
  0
LINE
  5
19D
330
1F
100
AcDbEntity
  8
0
  6
HIDDEN
 62
     7
370
     0
100
AcDbLine
 10
222.6731149102
 20
125.4206541921
 30
0.0
 11
229.6925324132
 21
125.1448605273
 31
0.0
  0
LINE
  5
19E
330
1F
100
AcDbEntity
  8
0
  6
HIDDEN
 62
     7
370
     0
100
AcDbLine
 10
222.8301541732
 20
129.4175703371
 30
0.0
 11
222.0512875342
 21
128.6975934217
 31
0.0
  0
LINE
  5
19F
330
1F
100
AcDbEntity
  8
0
  6
HIDDEN
 62
     7
370
     0
100
AcDbLine
 10
221.9531379948
 20
126.1995208311
 30
0.0
 11
222.6731149102
 21
125.4206541921
 31
0.0
  0
LINE
  5
1A0
330
1F
100
AcDbEntity
  8
0
  6
HIDDEN
 62
     7
370
     0
100
AcDbLine
 10
222.7516345417
 20
90.8483030086
 30
0.0
 11
222.0316576263
 21
90.0694363696
 31
0.0
  0
LINE
  5
1A1
330
1F
100
AcDbEntity
  8
0
  6
HIDDEN
 62
     7
370
     0
100
AcDbLine
 10
222.1298071657
 20
87.571363779
 30
0.0
 11
222.9086738047
 21
86.8513868636
 31
0.0
  0
LINE
  5
1A2
330
1F
100
AcDbEntity
  8
0
  6
HIDDEN
 62
     7
370
     0
100
AcDbLine
 10
229.7710520447
 20
91.1240966734
 30
0.0
 11
222.7516345417
 21
90.8483030086
 31
0.0
  0
LINE
  5
1A3
330
1F
100
AcDbEntity
  8
0
  6
HIDDEN
 62
     7
370
     0
100
AcDbLine
 10
222.9086738047
 20
86.8513868636
 30
0.0
 11
229.6537271646
 21
87.1164007319
 31
0.0
  0
LINE
  5
1A4
330
1F
100
AcDbEntity
  8
0
  6
HIDDEN
 62
     7
370
     0
100
AcDbLine
 10
230.0113563826
 20
90.7432373487
 30
0.0
 11
229.7710520447
 21
91.1240966734
 31
0.0
  0
LINE
  5
1A5
330
1F
100
AcDbEntity
  8
0
  6
HIDDEN
 62
     7
370
     0
100
AcDbLine
 10
159.0353048702
 20
102.132936078
 30
0.0
 11
174.0353048702
 21
102.132936078
 31
0.0
  0
LINE
  5
1A6
330
1F
100
AcDbEntity
  8
0
  6
HIDDEN
 62
     7
370
     0
100
AcDbLine
 10
174.0353048702
 20
114.132936078
 30
0.0
 11
159.0353048702
 21
114.132936078
 31
0.0
  0
LINE
  5
1A7
330
1F
100
AcDbEntity
  8
0
  6
HIDDEN
 62
     7
370
     0
100
AcDbLine
 10
174.0353048702
 20
102.132936078
 30
0.0
 11
174.5353048702
 21
102.632936078
 31
0.0
  0
LINE
  5
1A8
330
1F
100
AcDbEntity
  8
0
  6
HIDDEN
 62
     7
370
     0
100
AcDbLine
 10
174.5353048702
 20
113.632936078
 30
0.0
 11
174.0353048702
 21
114.132936078
 31
0.0
  0
LINE
  5
1A9
330
1F
100
AcDbEntity
  8
0
  6
HIDDEN
 62
     7
370
     0
100
AcDbLine
 10
159.0353048702
 20
114.132936078
 30
0.0
 11
158.5353048702
 21
113.632936078
 31
0.0
  0
LINE
  5
1AA
330
1F
100
AcDbEntity
  8
0
  6
HIDDEN
 62
     7
370
     0
100
AcDbLine
 10
158.5353048702
 20
102.632936078
 30
0.0
 11
159.0353048702
 21
102.132936078
 31
0.0
  0
LINE
  5
1AB
330
1F
100
AcDbEntity
  8
0
  6
HIDDEN
 62
     7
370
     0
100
AcDbLine
 10
174.5353048702
 20
102.632936078
 30
0.0
 11
178.5353048702
 21
102.632936078
 31
0.0
  0
LINE
  5
1AC
330
1F
100
AcDbEntity
  8
0
  6
HIDDEN
 62
     7
370
     0
100
AcDbLine
 10
178.5353048702
 20
113.632936078
 30
0.0
 11
174.5353048702
 21
113.632936078
 31
0.0
  0
LINE
  5
1AD
330
1F
100
AcDbEntity
  8
0
  6
HIDDEN
 62
     7
370
     0
100
AcDbLine
 10
165.5353048701
 20
105.132936078
 30
0.0
 11
171.5353048702
 21
105.132936078
 31
0.0
  0
LINE
  5
1AE
330
1F
100
AcDbEntity
  8
0
  6
HIDDEN
 62
     7
370
     0
100
AcDbLine
 10
171.5353048702
 20
111.132936078
 30
0.0
 11
165.5353048701
 21
111.132936078
 31
0.0
  0
DIMENSION
  5
1AF
330
1F
100
AcDbEntity
  8
VERMASSUNG
100
AcDbDimension
  2
*D1
 10
54.976056338
 20
58.132936078
 30
0.0
 11
54.976056338
 21
108.132936078
 31
0.0
 70
   160
  1
HSK A %%c<>
 71
     2
 42
-1.0
  3
SLDDIMSTYLE0
100
AcDbAlignedDimension
 13
110.5353048702
 23
158.132936078
 33
0.0
 14
110.5353048702
 24
58.132936078
 34
0.0
 50
90.0
100
AcDbRotatedDimension
  0
DIMENSION
  5
1BC
330
1F
100
AcDbEntity
  8
VERMASSUNG
100
AcDbDimension
  2
*D2
 10
230.0353048702
 20
159.6523293608
 30
0.0
 11
199.2853048702
 21
159.6523293608
 31
0.0
 70
   160
 71
     2
 42
-1.0
  3
SLDDIMSTYLE1
100
AcDbAlignedDimension
 13
168.5353048702
 23
124.032936078
 33
0.0
 14
230.0353048702
 24
127.8219598489
 34
0.0
100
AcDbRotatedDimension
  0
DIMENSION
  5
1C7
330
1F
100
AcDbEntity
  8
VERMASSUNG
100
AcDbDimension
  2
*D3
 10
236.7539544962
 20
124.132936078
 30
0.0
 11
236.7539544962
 21
108.132936078
 31
0.0
 70
   160
  1
%%c<> 
 71
     2
 42
-1.0
  3
SLDDIMSTYLE2
100
AcDbAlignedDimension
 13
226.5353048702
 23
92.132936078
 33
0.0
 14
226.5353048702
 24
124.132936078
 34
0.0
 50
90.0
100
AcDbRotatedDimension
  0
DIMENSION
  5
1D4
330
1F
100
AcDbEntity
  8
VERMASSUNG
100
AcDbDimension
  2
*D4
 10
242.7539544962
 20
130.132936078
 30
0.0
 11
242.7539544962
 21
108.132936078
 31
0.0
 70
   160
  1
%%c<>
 71
     2
 42
-1.0
  3
SLDDIMSTYLE3
100
AcDbAlignedDimension
 13
230.0353048702
 23
86.132936078
 33
0.0
 14
230.0353048702
 24
130.132936078
 34
0.0
 50
90.0
100
AcDbRotatedDimension
  0
DIMENSION
  5
1E0
330
1F
100
AcDbEntity
  8
VERMASSUNG
100
AcDbDimension
  2
*D5
 10
230.0353048702
 20
171.6523293608
 30
0.0
 11
170.0353048702
 21
171.6523293608
 31
0.0
 70
   160
 71
     2
 42
-1.0
  3
SLDDIMSTYLE0
100
AcDbAlignedDimension
 13
110.0353048702
 23
157.632936078
 33
0.0
 14
230.0353048702
 24
127.8219598489
 34
0.0
100
AcDbRotatedDimension
  0
DIMENSION
  5
1EA
330
1F
100
AcDbEntity
  8
VERMASSUNG
100
AcDbDimension
  2
*D6
 10
230.0353048702
 20
165.6523293608
 30
0.0
 11
184.5103048702
 21
165.6523293608
 31
0.0
 70
   160
 71
     2
 42
-1.0
  3
SLDDIMSTYLE0
100
AcDbAlignedDimension
 13
138.9853048702
 23
156.1016758989
 33
0.0
 14
230.0353048702
 24
127.7627925405
 34
0.0
100
AcDbRotatedDimension
  0
DIMENSION
  5
1F4
330
1F
100
AcDbEntity
  8
VERMASSUNG
100
AcDbDimension
  2
*D7
 10
230.0353048702
 20
177.6523293608
 30
0.0
 11
145.0853048702
 21
177.6523293608
 31
0.0
 70
   160
 71
     2
 42
-1.0
  3
SLDDIMSTYLE0
100
AcDbAlignedDimension
 13
60.1353048702
 23
138.6356058206
 33
0.0
 14
230.0353048702
 24
127.7627925405
 34
0.0
100
AcDbRotatedDimension
  0
DIMENSION
  5
1FE
330
1F
100
AcDbEntity
  8
VERMASSUNG
100
AcDbDimension
  2
*D8
 10
248.7539544962
 20
81.632936078
 30
0.0
 11
248.7539544962
 21
108.132936078
 31
0.0
 70
   160
  1
%%c<>
 71
     2
 42
-1.0
  3
SLDDIMSTYLE0
100
AcDbAlignedDimension
 13
172.8573835574
 23
134.632936078
 33
0.0
 14
172.8573835574
 24
81.632936078
 34
0.0
 50
90.0
100
AcDbRotatedDimension
  0
LINE
  5
209
330
1F
100
AcDbEntity
  8
VERMASSUNG
  6
CENTERX2
370
     0
100
AcDbLine
 10
57.8848355092
 20
108.132936078
 30
0.0
 11
232.7411700975
 21
108.132936078
 31
0.0
  0
OLE2FRAME
  5
20A
330
1F
100
AcDbEntity
  8
0
100
AcDbOle2Frame
 70
     2
  3
Bitmap Image
 10
13.8511154363
 20
38.264191557
 30
0.0
 11
51.6290888628
 21
31.9806341108
 31
0.0
 71
     2
 72
     0
 73
     1
 90
    12928
310
80552BED0767C5B32B40DDAF6807D121434000000000000000006FFBDDFB85D0
310
4940DDAF6807D121434000000000000000006FFBDDFB85D04940416F4BD60AFB
310
3F4000000000000000002BED0767C5B32B40416F4BD60AFB3F40000000000000
310
0000000000000100000000010000010000000100000000000100000000320000
310
D0CF11E0A1B11AE1000000000000000000000000000000003E000300FEFF0900
310
0600000000000000000000000100000001000000000000000010000002000000
310
01000000FEFFFFFF0000000000000000FFFFFFFFFFFFFFFFFFFFFFFFFFFFFFFF
310
FFFFFFFFFFFFFFFFFFFFFFFFFFFFFFFFFFFFFFFFFFFFFFFFFFFFFFFFFFFFFFFF
310
FFFFFFFFFFFFFFFFFFFFFFFFFFFFFFFFFFFFFFFFFFFFFFFFFFFFFFFFFFFFFFFF
310
FFFFFFFFFFFFFFFFFFFFFFFFFFFFFFFFFFFFFFFFFFFFFFFFFFFFFFFFFFFFFFFF
310
FFFFFFFFFFFFFFFFFFFFFFFFFFFFFFFFFFFFFFFFFFFFFFFFFFFFFFFFFFFFFFFF
310
FFFFFFFFFFFFFFFFFFFFFFFFFFFFFFFFFFFFFFFFFFFFFFFFFFFFFFFFFFFFFFFF
310
FFFFFFFFFFFFFFFFFFFFFFFFFFFFFFFFFFFFFFFFFFFFFFFFFFFFFFFFFFFFFFFF
310
FFFFFFFFFFFFFFFFFFFFFFFFFFFFFFFFFFFFFFFFFFFFFFFFFFFFFFFFFFFFFFFF
310
FFFFFFFFFFFFFFFFFFFFFFFFFFFFFFFFFFFFFFFFFFFFFFFFFFFFFFFFFFFFFFFF
310
FFFFFFFFFFFFFFFFFFFFFFFFFFFFFFFFFFFFFFFFFFFFFFFFFFFFFFFFFFFFFFFF
310
FFFFFFFFFFFFFFFFFFFFFFFFFFFFFFFFFFFFFFFFFFFFFFFFFFFFFFFFFFFFFFFF
310
FFFFFFFFFFFFFFFFFFFFFFFFFFFFFFFFFFFFFFFFFFFFFFFFFFFFFFFFFFFFFFFF
310
FFFFFFFFFFFFFFFFFFFFFFFFFFFFFFFFFFFFFFFFFFFFFFFFFFFFFFFFFFFFFFFF
310
FFFFFFFFFFFFFFFFFFFFFFFFFFFFFFFFFFFFFFFFFFFFFFFFFFFFFFFFFFFFFFFF
310
FDFFFFFFFEFFFFFFFEFFFFFFFEFFFFFF05000000060000000700000008000000
310
090000000A0000000B0000000C0000000D0000000E0000000F00000010000000
310
11000000120000001300000014000000150000001600000017000000FEFFFFFF
310
FFFFFFFFFFFFFFFFFFFFFFFFFFFFFFFFFFFFFFFFFFFFFFFFFFFFFFFFFFFFFFFF
310
FFFFFFFFFFFFFFFFFFFFFFFFFFFFFFFFFFFFFFFFFFFFFFFFFFFFFFFFFFFFFFFF
310
FFFFFFFFFFFFFFFFFFFFFFFFFFFFFFFFFFFFFFFFFFFFFFFFFFFFFFFFFFFFFFFF
310
FFFFFFFFFFFFFFFFFFFFFFFFFFFFFFFFFFFFFFFFFFFFFFFFFFFFFFFFFFFFFFFF
310
FFFFFFFFFFFFFFFFFFFFFFFFFFFFFFFFFFFFFFFFFFFFFFFFFFFFFFFFFFFFFFFF
310
FFFFFFFFFFFFFFFFFFFFFFFFFFFFFFFFFFFFFFFFFFFFFFFFFFFFFFFFFFFFFFFF
310
FFFFFFFFFFFFFFFFFFFFFFFFFFFFFFFFFFFFFFFFFFFFFFFFFFFFFFFFFFFFFFFF
310
FFFFFFFFFFFFFFFFFFFFFFFFFFFFFFFFFFFFFFFFFFFFFFFFFFFFFFFFFFFFFFFF
310
FFFFFFFFFFFFFFFFFFFFFFFFFFFFFFFFFFFFFFFFFFFFFFFFFFFFFFFFFFFFFFFF
310
FFFFFFFFFFFFFFFFFFFFFFFFFFFFFFFFFFFFFFFFFFFFFFFFFFFFFFFFFFFFFFFF
310
FFFFFFFFFFFFFFFFFFFFFFFFFFFFFFFFFFFFFFFFFFFFFFFFFFFFFFFFFFFFFFFF
310
FFFFFFFFFFFFFFFFFFFFFFFFFFFFFFFFFFFFFFFFFFFFFFFFFFFFFFFFFFFFFFFF
310
FFFFFFFFFFFFFFFFFFFFFFFFFFFFFFFFFFFFFFFFFFFFFFFFFFFFFFFFFFFFFFFF
310
52006F006F007400200045006E00740072007900000000000000000000000000
310
0000000000000000000000000000000000000000000000000000000000000000
310
16000500FFFFFFFFFFFFFFFF020000000A00030000000000C000000000000046
310
000000000000000000000000D0EA09669F08CC0103000000C000000000000000
310
01004F006C006500000000000000000000000000000000000000000000000000
310
0000000000000000000000000000000000000000000000000000000000000000
310
0A000200FFFFFFFFFFFFFFFFFFFFFFFF00000000000000000000000000000000
310
0000000000000000000000000000000000000000000000001400000000000000
310
010043006F006D0070004F0062006A0000000000000000000000000000000000
310
0000000000000000000000000000000000000000000000000000000000000000
310
120002010100000003000000FFFFFFFF00000000000000000000000000000000
310
0000000000000000000000000000000000000000010000004D00000000000000
310
01004F006C006500310030004E00610074006900760065000000000000000000
310
0000000000000000000000000000000000000000000000000000000000000000
310
1A000200FFFFFFFFFFFFFFFFFFFFFFFF00000000000000000000000000000000
310
0000000000000000000000000000000000000000040000002426000000000000
310
FEFFFFFF02000000FEFFFFFFFFFFFFFFFFFFFFFFFFFFFFFFFFFFFFFFFFFFFFFF
310
FFFFFFFFFFFFFFFFFFFFFFFFFFFFFFFFFFFFFFFFFFFFFFFFFFFFFFFFFFFFFFFF
310
FFFFFFFFFFFFFFFFFFFFFFFFFFFFFFFFFFFFFFFFFFFFFFFFFFFFFFFFFFFFFFFF
310
FFFFFFFFFFFFFFFFFFFFFFFFFFFFFFFFFFFFFFFFFFFFFFFFFFFFFFFFFFFFFFFF
310
FFFFFFFFFFFFFFFFFFFFFFFFFFFFFFFFFFFFFFFFFFFFFFFFFFFFFFFFFFFFFFFF
310
FFFFFFFFFFFFFFFFFFFFFFFFFFFFFFFFFFFFFFFFFFFFFFFFFFFFFFFFFFFFFFFF
310
FFFFFFFFFFFFFFFFFFFFFFFFFFFFFFFFFFFFFFFFFFFFFFFFFFFFFFFFFFFFFFFF
310
FFFFFFFFFFFFFFFFFFFFFFFFFFFFFFFFFFFFFFFFFFFFFFFFFFFFFFFFFFFFFFFF
310
FFFFFFFFFFFFFFFFFFFFFFFFFFFFFFFFFFFFFFFFFFFFFFFFFFFFFFFFFFFFFFFF
310
FFFFFFFFFFFFFFFFFFFFFFFFFFFFFFFFFFFFFFFFFFFFFFFFFFFFFFFFFFFFFFFF
310
FFFFFFFFFFFFFFFFFFFFFFFFFFFFFFFFFFFFFFFFFFFFFFFFFFFFFFFFFFFFFFFF
310
FFFFFFFFFFFFFFFFFFFFFFFFFFFFFFFFFFFFFFFFFFFFFFFFFFFFFFFFFFFFFFFF
310
FFFFFFFFFFFFFFFFFFFFFFFFFFFFFFFFFFFFFFFFFFFFFFFFFFFFFFFFFFFFFFFF
310
FFFFFFFFFFFFFFFFFFFFFFFFFFFFFFFFFFFFFFFFFFFFFFFFFFFFFFFFFFFFFFFF
310
FFFFFFFFFFFFFFFFFFFFFFFFFFFFFFFFFFFFFFFFFFFFFFFFFFFFFFFFFFFFFFFF
310
FFFFFFFFFFFFFFFFFFFFFFFFFFFFFFFFFFFFFFFFFFFFFFFFFFFFFFFFFFFFFFFF
310
0100000200000000000000000000000000000000FFFFFFFFFFFFFFFFFFFFFFFF
310
FFFFFFFFFFFFFFFFFFFFFFFFFFFFFFFFFFFFFFFFFFFFFFFFFFFFFFFFFFFFFFFF
310
0100FEFF030A0000FFFFFFFF0A00030000000000C00000000000004607000000
310
5042727573680007000000504272757368000700000050427275736800F439B2
310
71000000000000000000000000FFFFFFFFFFFFFFFFFFFFFFFFFFFFFFFFFFFFFF
310
FFFFFFFFFFFFFFFFFFFFFFFFFFFFFFFFFFFFFFFFFFFFFFFFFFFFFFFFFFFFFFFF
310
FFFFFFFFFFFFFFFFFFFFFFFFFFFFFFFFFFFFFFFFFFFFFFFFFFFFFFFFFFFFFFFF
310
FFFFFFFFFFFFFFFFFFFFFFFFFFFFFFFFFFFFFFFFFFFFFFFFFFFFFFFFFFFFFFFF
310
FFFFFFFFFFFFFFFFFFFFFFFFFFFFFFFFFFFFFFFFFFFFFFFFFFFFFFFFFFFFFFFF
310
FFFFFFFFFFFFFFFFFFFFFFFFFFFFFFFFFFFFFFFFFFFFFFFFFFFFFFFFFFFFFFFF
310
FFFFFFFFFFFFFFFFFFFFFFFFFFFFFFFFFFFFFFFFFFFFFFFFFFFFFFFFFFFFFFFF
310
FFFFFFFFFFFFFFFFFFFFFFFFFFFFFFFFFFFFFFFFFFFFFFFFFFFFFFFFFFFFFFFF
310
FFFFFFFFFFFFFFFFFFFFFFFFFFFFFFFFFFFFFFFFFFFFFFFFFFFFFFFFFFFFFFFF
310
FFFFFFFFFFFFFFFFFFFFFFFFFFFFFFFFFFFFFFFFFFFFFFFFFFFFFFFFFFFFFFFF
310
FFFFFFFFFFFFFFFFFFFFFFFFFFFFFFFFFFFFFFFFFFFFFFFFFFFFFFFFFFFFFFFF
310
FFFFFFFFFFFFFFFFFFFFFFFFFFFFFFFFFFFFFFFFFFFFFFFFFFFFFFFFFFFFFFFF
310
20260000424D0E260000000000003E00000028000000B40200006E0000000100
310
01000000000000000000130B0000130B00000200000002000000000000FFFFFF
310
FFFFFFFFFFFFFFFFFFFFFFFFFFFFFFFFFFFFFFFFFFFFFFFFFFFFFFFFFFFFFFFF
310
FFFFFFFFFFFFFFFFFFFFFFFFFFFFFFFFFFFFFFFFFFFFFFFFFFFFFFFFFFFFFFFF
310
FFFFFFFFFFFFFFFFFFFFFFFFFFFFFFFFFFFFFFFFFFFFFFFFF000FFFFFFFFFFFF
310
FFFFFFFFFFFFFFFFFFFFFFFFFFFFFFFFFFFFFFFFFFFFFFFFFFFFFFFFFFFFFFFF
310
FFFFFFFFFFFFFFFFFFFFFFFFFFFFFFFFFFFFFFFFFFFFFFFFFFFFFFFFFFFFFFFF
310
FFFFFFFFFFFFFFFFFFFFFFFFFFFFFFFFF000FFFFFFFFFFFFFFFFFFFFFFFFFFFF
310
FFFFFFFFFFFFFFFFFFFFFFFFFFFFFFFFFFFFFFFFFFFFFFFFFFFFFFFFFFFFFFFF
310
FFFFFFFFFFFFFFFFFFFFFFFFFFFFFFFFFFFFFFFFFFFFFFFFFFFFFFFFFFFFFFFF
310
FFFFFFFFFFFFFFFFF000FFFFFFFFFFFFFFFFFFFFFFFFFFFFFFFFFFFFFFFFFFFF
310
FFFFFFFFFFFFFFFFFFFFFFFFFFFFFFFFFFFFFFFFFFFFFFFFFFFFFFFFFFFFFFFF
310
FFFFFFFFFFFFFFFFFFFFFFFFFFFFFFFFFFFFFFFFFFFFFFFFFFFFFFFFFFFFFFFF
310
F000FFFFFFFFFFFFFFFFFFFFFFFFFFFFFFFFFFFFFFFFFFFFFFFFFFFFFFFFFFFF
310
FFFFFFFFFFFFFFFFFFFFFFFFFFFFFFFFFFFFFFFFFFFFFFFFFFFFFFFFFFFFFFFF
310
FFFFFFFFFFFFFFFFFFFFFFFFFFFFFFFFFFFFFFFFFFFFFFFFF000FFFFFFFFFFFF
310
FFFFFFFFFFFFFFFFFFFFFFFFFFFFFFFFFFFFFFFFFFFFFFFFFFFFFFFFFFFFFFFF
310
FFFFFFFFFFFFFFFFFFFFFFFFFFFFFFFFFFFFFFFFFFFFFFFFFFFFFFFFFFFFFFFF
310
FFFFFFFFFFFFFFFFFFFFFFFFFFFFFFFFF000FFFFFFFFFFFFFFFFFFFFFFFFFFFF
310
FFFFFFFFFFFFFFFFFFFFFFFFFFFFFFFFFFFFFFFFFFFFFFFFFFFFFFFFFFFFFFFF
310
FFFFFFFFFFFFFFFFFFFFFFFFFFFFFFFFFFFFFFFFFFFFFFFFFFFFFFFFFFFFFFFF
310
FFFFFFFFFFFFFFFFF000FFFFFFFFFFFFFFFFFFFFFFFFFFFFFFFFFFFFFFFFFFFF
310
FFFFFFFFFFFFFFFFFFFFFFFFFFFFFFFFFFFFFFFFFFFFFFFFFFFFFFFFFFFFFFFF
310
FFFFFFFFFFFFFFFFFFFFFFFFFFFFFFFFFFFFFFFFFFFFFFFFFFFFFFFFFFFFFFFF
310
F000FFFFFFFFFFFFFFFFFFFFFFFFFFFFFFFFFFFFFFFFFFFFFFFFFFFFFFFFFFFF
310
FFFFFFFFFFFFFFFFFFFFFFFFFFFFFFFFFFFFFFFFFFFFFFFFFFFFFFFFFFFFFFFF
310
FFFFFFFFFFFFFFFFFFFFFFFFFFFFFFFFFFFFFFFFFFFFFFFFF000FFFFFFFFFFFF
310
FFFFFFFFFFFFFFFFFFFFFFFFFFFFFFFFFFFFFFFFFFFFFFFFFFFFFFFFFFFFFFFF
310
FFFFFFFFFFFFFFFFFFFFFFFFFFFFFFFFFFFFFFFFFFFFFFFFFFFFFFFFFFFFFFFF
310
FFFFFFFFFFFFFFFFFFFFFFFFFFFFFFFFF000FFFFFFFFFFFFFFFFFFFFFFFFFFFF
310
FFFFFFFFFFFFFFFFFFFFFFFFFFFFFFFFFFFFFFFFFFFFFFFFFFFFFFFFFFFFFFFF
310
FFFFFFFFFFFFFFFFFFFFFFFFFFFFFFFFFFFFFFFFFFFFFFFFFFFFFFFFFFFFFFFF
310
FFFFFFFFFFFFFFFFF000FFFFFFFFFFFFFFFFFFFFFFFFFFFFFFFFFFFFFFFFFFFF
310
FFFFFFFFFFFFFFFFFFFFFFFFFFFFFFFFFFFFFFFFFFFFFFFFFFFFFFFFFFFFFFFF
310
FFFFFFFFFFFFFFFFFFFFFFFFFFFFFFFFFFFFFFFFFFFFFFFFFFFFFFFFFFFFFFFF
310
F000FFFFFFFFFFFFFFFFFFFFFFFFFFFFFFFFFFFFFFFFFFFFFFFFFFFFFFFFFFFF
310
FFFFFFFFFFFFFFFFFFFFFFFFFFFFFFFFFFFFFFFFFFFFFFFFFFFFFFFFFFFFFFFF
310
FFFFFFFFFFFFFFFFFFFFFFFFFFFFFFFFFFFFFFFFFFFFFFFFF000FFFFFFFFFFFF
310
FFFFFFFFFFFFFFFFFFFFFFFFFFFFFFFFFFFFFFFFFFFFFFFFFFFFFFFFFFFFFFFF
310
FFFFFFFFFFFFFFFFFFFFFFFFFFFFFFFFFFFFFFFFFFFFFFFFFFFFFFFFFFFFFFFF
310
FFFFFFFFFFFFFFFFFFFFFFFFFFFFFFFFF000FFFFFFFFFFFFFFFFFFFFFFFFFFFF
310
FFFFFFFFFFFFFFFFFFFFFFFFFFFFFFFFFFFFFFFFFFFFFFFFFFFFFFFFFFFFFFFF
310
FFFFFFFFFFFFFFFFFFFFFFFFFFFFFFFFFFFFFFFFFFFFFFFFFFFFFFFFFFFFFFFF
310
FFFFFFFFFFFFFFFFF000FFFFFFFFFFFFFFFFFFFFFFFFFFFFFFFFFFFFFFFFFFFF
310
FFFFFFFFFFFFFFFFFFFFFFFFFFFFFFFFFFFFFFFFFFFFFFFFFFFFFFFFFFFFFFFF
310
FFFFFFFFFFFFFFFFFFFFFFFFFFFFFFFFFFFFFFFFFFFFFFFFFFFFFFFFFFFFFFFF
310
F000FFFFFFFFFFFFFFFFFFFFFFFFFFFFFFFFFFFFFFFFFFFFFFFFFFFFFFFFFFFF
310
FFFFFFFFFFFFFFFFFFFFFFFFFFFFFFFFFFFFFFFFFFFFFFFFFFFFFFFFFFFFFFFF
310
FFFFFFFFFFFFFFFFFFFFFFFFFFFFFFFFFFFFFFFFFFFFFFFFF000FFFFFFFFFFFF
310
FFFFFFFFFFFFFFFFFFFFFFFFFFFFFFFFFFFFFFFFFFFFFFFFFFFFFFFFFFFFFFFF
310
FFFFFFFFFFFFFFFFFFFFFFFFFFFFFFFFFFFFFFFFFFFFFFFFFFFFFFFFFFFFFFFF
310
FFFFFFFFFFFFFFFFFFFFFFFFFFFFFFFFF000FFFFFFFFFFFFFFFFFFFFFFFFFFFF
310
FFFFFFFFFFFFFFFFFFFFFFFFFFFFFFFFFFFFFFFFFFFFFFFFFFFFFFFFFFFFFFFF
310
FFFFFFFFFFFFFFFFFFFFFFFFFFFFFFFFFFFFFFFFFFFFFFFFFFFFFFFFFFFFFFFF
310
FFFFFFFFFFFFFFFFF000FFFFF80003FFFFFFFFFFFFFFFFFFFFFFFFFFFFFFFFFF
310
FFFFF00007FFFFFFFFFF00007FFFFFF800000000000000007FFFFFFFFFFFFFFF
310
FFFFFFFC001FFFFFFFFFFFFFFC001FFFFFFFFFFFFFFFFFFFFFFFFFFE0007FFFF
310
F000FFFF8000007FFFFFFFF8000FFFFFC0007FFFFF80007FFFFF0000007FFFFF
310
FFF8000007FFFFF800000000000000007FFFFFF0001FFFFFFFFFFFC00001FFFF
310
FFFFFFFFC00001FFFFFFFF000000000003FFFFE000007FFFF000FFFE0000000F
310
FFFFFFF0000FFFFF80007FFFFF80007FFFFC0000001FFFFFFFC0000001FFFFF8
310
00000000000000007FFFFFF0001FFFFFFFFFFE0000003FFFFFFFFFFE0000003F
310
FFFFFF000000000003FFFF0000000FFFF000FFF800000003FFFFFFF00007FFFF
310
80007FFFFF80007FFFF000000007FFFFFF000000003FFFF80000000000000000
310
7FFFFFF0001FFFFFFFFFF80000000FFFFFFFFFF80000000FFFFFFF0000000000
310
03FFFC00000003FFF000FFE000000000FFFFFFF00007FFFF80003FFFFF80007F
310
FFC000000001FFFFFC000000001FFFF800000000000000007FFFFFF0001FFFFF
310
FFFFE000000003FFFFFFFFE000000003FFFFFF000000000003FFF000000000FF
310
F000FF80000000007FFFFFF00007FFFF80003FFFFF80007FFF8000000000FFFF
310
F80000000007FFF800000000000000007FFFFFF0001FFFFFFFFFC000000001FF
310
FFFFFFC000000001FFFFFF000000000003FFC0000000007FF000FF0000000000
310
3FFFFFE00007FFFF00003FFFFF80007FFE00000000003FFFF00000000003FFF8
310
00000000000000007FFFFFF0001FFFFFFFFF8000000000FFFFFFFF8000000000
310
FFFFFF000000000003FF80000000003FF000FE00000000001FFFFFE00003FFFF
310
00003FFFFF80007FFC00000000001FFFE00000000001FFF8000001FFFE000000
310
7FFFFFF0001FFFFFFFFE00000000003FFFFFFE00000000003FFFFF0000000000
310
03FF00000000001FF000FC00000000000FFFFFE00003FFFF00001FFFFF80007F
310
F800000000001FFFC00000000000FFF8000001FFFE0000007FFFFFF0001FFFFF
310
FFFC00000000001FFFFFFC00000000001FFFFF000000000003FE00000000000F
310
F000F8000000000007FFFFE00003FFFF00001FFFFF80007FF800000000000FFF
310
800000000000FFF8000001FFFE0000007FFFFFF0001FFFFFFFF800000000000F
310
FFFFF800000000000FFFFF000000000003FC000000000007F000F80000000000
310
03FFFFC00003FFFE00001FFFFF80007FF0000000000007FF0000000000007FF8
310
000001FFFE0000007FFFFFF0001FFFFFFFF0000000000007FFFFF00000000000
310
07FFFF000000000003F8000000000003F000F0000000000003FFFFC00001FFFE
310
00001FFFFF80007FE0000000000007FE0000000000003FF8000001FFFE000000
310
7FFFFFF0001FFFFFFFF0000000000007FFFFF0000000000007FFFF0000000000
310
03F800001F800003F000E00001FFF00001FFFFC00001FFFE00000FFFFF80007F
310
E00001FFE00003FE00001FFF00003FF8000001FFFE0000007FFFFFF0001FFFFF
310
FFE000003E000003FFFFE000003E000003FFFF000000000003F00001FFF80001
310
F000E00007FFFC0001FFFFC00001FFFE00000FFFFF80007FC0000FFFFC0003FC
310
0000FFFFC0001FF8000001FFFE0000007FFFFFF0001FFFFFFFC00003FFE00001
310
FFFFC00003FFE00001FFFF0001FFFFFFFFF00007FFFE0001F000E0000FFFFF00
310
00FFFF800001FFFC00000FFFFF80007FC0001FFFFE0001FC0001FFFFE0001FF8
310
000001FFFE0000007FFFFFF0001FFFFFFF80000FFFF80000FFFF80000FFFF800
310
00FFFF0003FFFFFFFFE0000FFFFF8000F000C0003FFFFF8000FFFF800000FFFC
310
000007FFFF80007F80003FFFFF0001FC0003FFFFF0001FF8000001FFFE000000
310
7FFFFFF0001FFFFFFF80003FFFFE0000FFFF80003FFFFE0000FFFF0003FFFFFF
310
FFE0003FFFFF8000F000C0003FFFFF8000FFFF800000FFFC000007FFFF80007F
310
80007FFFFF8001F80007FFFFF8000FF8000001FFFE0000007FFFFFF0001FFFFF
310
FF00007FFFFF00007FFF00007FFFFF00007FFF0003FFFFFFFFE0003FFFFFC000
310
F000C0007FFFFFC000FFFF000000FFFC000007FFFF80007F8000FFFFFF8000F8
310
000FFFFFF8000FF8000001FFFE0000007FFFFFF0001FFFFFFF0000FFFFFF8000
310
7FFF0000FFFFFF80007FFF0003FFFFFFFFC0007FFFFFC00070008000FFFFFFC0
310
00FFFF000000FFF8000007FFFF80007F8000FFFFFF8000F8000FFFFFF8000FF8
310
000001FFFE0000007FFFFFF0001FFFFFFE0001FFFFFFC0003FFE0001FFFFFFC0
310
003FFF0003FFFFFFFFC0007FFFFFE00070008000FFFFFFC0007FFF0000007FF8
310
000003FFFF80007F0001FFFFFF8000F8000FFFFFF8000FF8000001FFFE000000
310
7FFFFFF0001FFFFFFE0001FFFFFFC0003FFE0001FFFFFFC0003FFF0003FFFFFF
310
FFC000FFFFFFE00070008000FFFFFFC0007FFF0000007FF8000003FFFF80007F
310
0001FFFFFF8000F8001FFFFFF8000FF8000001FFFE0000007FFFFFF0001FFFFF
310
FE0003FFFFFFE0003FFE0003FFFFFFE0003FFF0003FFFFFFFFC000FFFFFFE000
310
70008000FFFFFFC0007FFE0000007FF8000003FFFF80007F0001FFFFFF8000F0
310
001FFFFFF8000FF8000001FFFE0000007FFFFFF0001FFFFFFC0003FFFFFFE000
310
1FFC0003FFFFFFE0001FFF0003FFFFFFFFC000FFFFFFC00070008000FFFFFF80
310
007FFE0000007FF0000003FFFF80007F0001FFFFFF0000F0001FFFFFF8000FF8
310
000001FFFE0000007FFFFFF0001FFFFFFC0007FFFFFFF0001FFC0007FFFFFFF0
310
001FFF0003FFFFFFFFC000FFFFFFC00070008001FFFFFF0000FFFE0000003FF0
310
000001FFFF80007F0001FFFFFF0000F8001FFFFFF0000FF8000001FFFE000000
310
7FFFFFF0001FFFFFFC0007FFFFFFF0001FFC0007FFFFFFF0001FFF0003FFFFFF
310
FFC001FFFFFF80007000FFFFFFFFFE0000FFFE0008003FF0008001FFFF80007F
310
FFFFFFFFFC0000FFFFFFFFFFE0000FF8000001FFFE0000007FFFFFF0001FFFFF
310
F8000FFFFFFFF8000FF8000FFFFFFFF8000FFF0003FFFFFFFFFFFFFFFFFF0000
310
7000FFFFFFFFFC0000FFFC0008003FF0008001FFFF80007FFFFFFFFFF80001FF
310
FFFFFFFF80000FF8000001FFFE0000007FFFFFF0001FFFFFF8000FFFFFFFF800
310
0FF8000FFFFFFFF8000FFF0003FFFFFFFFFFFFFFFFFE0000F000FFFFFFFFE000
310
00FFFC000C003FE000C001FFFF80007FFFFFFFFFC00001FFFFFFFFFE00001FF8
310
000001FFFE0000007FFFFFF0001FFFFFF8000FFFFFFFF8000FF8000FFFFFFFF8
310
000FFF0003FFFFFFFFFFFFFFFFF00000F000FFFFFFFE000001FFFC000C001FE0
310
00C000FFFF80007FFFFFFFFE000001FFFFFFFFE000001FF80FFFFFFFFFFFFFC0
310
7FFFFFF0001FFFFFF8000FFFFFFFF8000FF8000FFFFFFFF8000FFF0003FFFFFF
310
FFFFFFFFFF800000F000FFFFFFC0000001FFFC001C001FE001C000FFFF80007F
310
FFFFFF80000003FFFFFFF80000001FF80FFFFFFFFFFFFFC07FFFFFF0001FFFFF
310
F8001FFFFFFFFC000FF8001FFFFFFFFC000FFF0003FFFFFFFFFFFFFFF0000001
310
F000FFFFF800000001FFF8001C001FE001C000FFFF80007FFFFFF800000003FF
310
FFFF800000003FF80FFFFFFFFFFFFFC07FFFFFF0001FFFFFF8001FFFFFFFFC00
310
0FF8001FFFFFFFFC000FFF0003FFFFFFFFFFFFFE00000001F000FFFFC0000000
310
03FFF8001E001FC001E000FFFF80007FFFFF8000000007FFFFFC000000003FF8
310
0FFFFFFFFFFFFFC07FFFFFF0001FFFFFF8001FFFFFFFFC000FF8001FFFFFFFFC
310
000FFF0003FFFFFFFFFFFFE000000003F000FFFE0000000007FFF8001E000FC0
310
01E0007FFF80007FFFFE0000000007FFFFE0000000007FF80FFFFFFFFFFFFFC0
310
7FFFFFF0001FFFFFF0001FFFFFFFFC0007F0001FFFFFFFFC0007FF0003FFFFFF
310
FFFFFF0000000003F000FFF80000000007FFF8001E000FC003E0007FFF80007F
310
FFF0000000000FFFFF8000000000FFF80FFFFFFFFFFFFFC07FFFFFF0001FFFFF
310
F0001FFFFFFFFC0007F0001FFFFFFFFC0007FF0003FFFFFFFFFFFC0000000007
310
F000FFE0000000000FFFF0003E000FC003E0007FFF80007FFFC0000000001FFF
310
FE0000000001FFF80FFFFFFFFFFFFFC07FFFFFF0001FFFFFF0001FFFFFFFFC00
310
07F0001FFFFFFFFC0007FF0003FFFFFFFFFFF0000000000FF000FFC000000000
310
1FFFF0003F000F8003F0003FFF80007FFF80000000003FFFF80000000003FFF8
310
0FFFFFFFFFFFFFC07FFFFFF0001FFFFFF0001FFFFFFFFC0007F0001FFFFFFFFC
310
0007FF0003FFFFFFFFFFE0000000001FF000FF00000000007FFFF0003F000780
310
03F0003FFF80007FFF00000000007FFFF00000000007FFF80FFFFFFFFFFFFFC0
310
7FFFFFF0001FFFFFF0001FFFFFFFFC0007F0001FFFFFFFFC0007FF0003FFFFFF
310
FFFF80000000007FF000FE0000000000FFFFE0003F00078007F0003FFF80007F
310
FE0000000001FFFFE0000000001FFFF80FFFFFFFFFFFFFC07FFFFFF0001FFFFF
310
F0001FFFFFFFFC0007F0001FFFFFFFFC0007FF0003FFFFFFFFFF0000000000FF
310
F000FC0000000003FFFFE0007F00078007F0003FFF80007FFC0000000007FFFF
310
C0000000007FFFF80FFFFFFFFFFFFFC07FFFFFF0001FFFFFF8001FFFFFFFFC00
310
0FF8001FFFFFFFFC000FFF0003FFFFFFFFFE0000000003FFF000FC000000000F
310
FFFFE0007F80070007F8001FFF80007FF8000000001FFFFF8000000001FFFFF8
310
0FFFFFFFFFFFFFC07FFFFFF0001FFFFFF8001FFFFFFFFC000FF8001FFFFFFFFC
310
000FFF0003FFFFFFFFFC000000000FFFF000F8000000007FFFFFE0007F800700
310
07F8001FFF80007FF000000000FFFFFF800000000FFFFFF80FFFFFFFFFFFFFC0
310
7FFFFFF0001FFFFFF8000FFFFFFFF8000FF8000FFFFFFFF8000FFF0003FFFFFF
310
FFFC000000007FFFF000F800000007FFFFFFC0007F8003000FF8001FFF80007F
310
F000000007FFFFFF000000007FFFFFF80FFFFFFFFFFFFFC07FFFFFF0001FFFFF
310
F8000FFFFFFFF8000FF8000FFFFFFFF8000FFF0003FFFFFFFFF80000000FFFFF
310
F000F0000000FFFFFFFFC000FF8003000FF8001FFF80007FE0000000FFFFFFFF
310
0000000FFFFFFFF8000001FFFE0000007FFFFFF0001FFFFFF8000FFFFFFFF800
310
0FF8000FFFFFFFF8000FFF0003FFFFFFFFF8000000FFFFFFF000F000000FFFFF
310
FFFFC000FFC002000FF8000FFF80007FE000001FFFFFFFFE000001FFFFFFFFF8
310
000001FFFE0000007FFFFFF0001FFFFFF8000FFFFFFFF8000FF8000FFFFFFFF8
310
000FFF0003FFFFFFFFF000001FFFFFFFF000E00000FFFFFFFFFFC000FFC00200
310
0FFC000FFF80007FE00001FFFFFFFFFE00001FFFFFFFFFF8000001FFFE000000
310
7FFFFFF0001FFFFFFC000FFFFFFFF8001FFC000FFFFFFFF8001FFF0003FFFFFF
310
FFF00001FFFFFFFFF000E00007FFFFFFFFFF8000FFC000001FFC000FFF80007F
310
C0000FFFFFFFFFFE0000FFFFFFFFFFF8000001FFFE0000007FFFFFF0001FFFFF
310
FC0007FFFFFFF0001FFC0007FFFFFFF0001FFF0003FFFFFFFFF00007FFFFFFFF
310
F000E0001FFFFFFFFFFF8000FFC000001FFC000FFF80007FC0003FFFFFFFFFFE
310
0001FFFFFFFFFFF8000001FFFE0000007FFFFFF0001FFFFFFC0007FFFFFFF000
310
1FFC0007FFFFFFF0001FFF0003FFFFFFFFF0001FFFFFFFFFF000E0003FFFFF00
310
03FF8001FFE000001FFC0007FF80007FC0007FFFFF0007FC0003FFFFF0003FF8
310
000001FFFE0000007FFFFFF0001FFFFFFC0003FFFFFFE0001FFC0003FFFFFFE0
310
001FFF0003FFFFFFFFF0003FFFFFFFFFF000E0003FFFFF0001FF8001FFE00000
310
1FFE0007FF80007FC0007FFFFE0003FC0007FFFFE0003FF8000001FFFE000000
310
7FFFFFF0001FFFFFFE0003FFFFFFE0003FFE0003FFFFFFE0003FFF0003FFFFFF
310
FFF0003FFFFF8001F000E0003FFFFF0001FF0001FFE000001FFE0007FF80007F
310
C0007FFFFE0003FC0007FFFFE0003FF8000001FFFE0000007FFFFFF0001FFFFF
310
FE0001FFFFFFC0003FFE0001FFFFFFC0003FFF0003FFFFFFFFF0003FFFFF0001
310
F000E0003FFFFF0003FF0001FFE000003FFE0007FF80007FC0007FFFFE0003FC
310
0007FFFFE0003FF8000001FFFE0000007FFFFFF0001FFFFFFF0001FFFFFFC000
310
7FFF0001FFFFFFC0007FFF0003FFFFFFFFF0003FFFFF0001F000E0003FFFFE00
310
03FF0003FFF000003FFE0003FF80007FC0007FFFFC0003FE0007FFFFE0003FF8
310
000001FFFE0000007FFFFFF0001FFFFFFF0000FFFFFF80007FFF0000FFFFFF80
310
007FFF0003FFFFFFFFF0003FFFFF0001F000E0003FFFFE0003FF0003FFF00000
310
3FFF0003FF80007FC0007FFFFC0007FE0007FFFFC0003FF8000001FFFE000000
310
7FFFFFF0001FFFFFFF80007FFFFF0000FFFF80007FFFFF0000FFFF0003FFFFFF
310
FFF0003FFFFF0003F000E0003FFFFC0003FE0003FFF000003FFF0003FF80007F
310
E0003FFFF80007FE0003FFFFC0007FF8000001FFFE0000007FFFFFF0001FFFFF
310
FF80003FFFFE0000FFFF80003FFFFE0000FFFF0003FFFFFFFFF0001FFFFE0003
310
F000F0001FFFF80003FE0003FFF000007FFF0001FF80007FE0003FFFF00007FE
310
0001FFFF80007FF8000001FFFE0000007FFFFFF0001FFFFFFFC0000FFFF80001
310
FFFFC0000FFFF80001FFFF0003FFFFFFFFF0001FFFFC0003F000F0000FFFF000
310
07FE0007FFF800007FFF0001FF80007FE0001FFFE00007FF0000FFFE00007FF8
310
000001FFFE0000007FFFFFF0001FFFFFFFC00003FFE00001FFFFC00003FFE000
310
01FFFF0003FFFFFFFFF8000FFFF80003F000F00003FFC00007FC0007FFF80000
310
7FFF8001FF80007FF00007FF80000FFF00007FF80000FFF8000001FFFE000000
310
7F80000000000001FFE000003E000003FFFFE000003E000003FFFF0003FFFFFF
310
FFF80003FFE00007F000F800000000000FFC0007FFF800007FFF8001FF80007F
310
F000000000000FFF000000000000FFF8000001FFFE0000007F80000000000001
310
FFF0000000000007FFFFF0000000000007FFFF0003FFFFFFFFFC00007E000007
310
F000F800000000000FFC0007FFF80000FFFF8000FF80007FF800000000001FFF
310
800000000001FFF8000001FFFE0000007F80000000000001FFF800000000000F
310
FFFFF800000000000FFFFF0003FFFFFFFFFC00000000000FF000FC0000000000
310
1FFC0007FFFC0000FFFF8000FF80007FF800000000003FFFC00000000001FFF8
310
000001FFFE0000007F80000000000001FFF800000000000FFFFFF80000000000
310
0FFFFF0003FFFFFFFFFE00000000001FF000FE00000000003FF8000FFFFC0000
310
FFFF8000FF80007FFC00000000003FFFC00000000003FFF8000001FFFE000000
310
7F80000000000001FFFC00000000001FFFFFFC00000000001FFFFF0003FFFFFF
310
FFFF00000000001FF000FF00000000003FF8000FFFFC0000FFFFC000FF80007F
310
FE00000000007FFFE00000000007FFF8000001FFFE0000007F80000000000001
310
FFFE00000000003FFFFFFE00000000003FFFFF0003FFFFFFFFFF80000000003F
310
F000FF80000000007FF8000FFFFC0001FFFFC0007F80007FFF0000000000FFFF
310
F0000000000FFFF800000000000000007F80000000000001FFFF8000000000FF
310
FFFFFF8000000000FFFFFF0003FFFFFFFFFFC0000000007FF000FFC000000000
310
FFF8000FFFFE0001FFFFC0007F80007FFF8000000001FFFFF8000000001FFFF8
310
00000000000000007F80000000000001FFFFC000000001FFFFFFFFC000000001
310
FFFFFF0003FFFFFFFFFFE000000000FFF000FFE000000003FFF0001FFFFE0001
310
FFFFC0007F80007FFFC000000007FFFFFE000000003FFFF80000000000000000
310
7F80000000000001FFFFE000000003FFFFFFFFE000000003FFFFFF0003FFFFFF
310
FFFFF000000003FFF000FFF80000000FFFF0001FFFFE0001FFFFE0007F80007F
310
FFF00000000FFFFFFF00000000FFFFF800000000000000007F80000000000001
310
FFFFF80000000FFFFFFFFFF80000000FFFFFFF0003FFFFFFFFFFFC0000000FFF
310
F000FFFE0000003FFFF0001FFFFE0003FFFFE0003F80007FFFFC0000003FFFFF
310
FFC0000003FFFFF800000000000000007F80000000000001FFFFFE0000003FFF
310
FFFFFFFE0000003FFFFFFF0003FFFFFFFFFFFF0000003FFFF000FFFF800000FF
310
FFF0001FFFFF0003FFFFE0003F80007FFFFF000001FFFFFFFFF800001FFFFFF8
310
00000000000000007F80000000000001FFFFFFC00001FFFFFFFFFFFFC00001FF
310
FFFFFF0003FFFFFFFFFFFFC00000FFFFF000FFFFF8000FFFFFFFFFFFFFFFFFFF
310
FFFFFFFFFFFFFFFFFFFFF0001FFFFFFFFFFF0000FFFFFFF80000000000000000
310
7FFFFFFFFFFFFFFFFFFFFFFC001FFFFFFFFFFFFFFC001FFFFFFFFFFFFFFFFFFF
310
FFFFFFFC001FFFFFF000FFFFFFFFFFFFFFFFFFFFFFFFFFFFFFFFFFFFFFFFFFFF
310
FFFFFFFFFFFFFFFFFFFFFFFFFFFFFFFFFFFFFFFFFFFFFFFFFFFFFFFFFFFFFFFF
310
FFFFFFFFFFFFFFFFFFFFFFFFFFFFFFFFFFFFFFFFFFFFFFFFFFFFFFFFFFFFFFFF
310
F000FFFFFFFFFFFFFFFFFFFFFFFFFFFFFFFFFFFFFFFFFFFFFFFFFFFFFFFFFFFF
310
FFFFFFFFFFFFFFFFFFFFFFFFFFFFFFFFFFFFFFFFFFFFFFFFFFFFFFFFFFFFFFFF
310
FFFFFFFFFFFFFFFFFFFFFFFFFFFFFFFFFFFFFFFFFFFFFFFFF000FFFFFFFFFFFF
310
FFFFFFFFFFFFFFFFFFFFFFFFFFFFFFFFFFFFFFFFFFFFFFFFFFFFFFFFFFFFFFFF
310
FFFFFFFFFFFFFFFFFFFFFFFFFFFFFFFFFFFFFFFFFFFFFFFFFFFFFFFFFFFFFFFF
310
FFFFFFFFFFFFFFFFFFFFFFFFFFFFFFFFF000FFFFFFFFFFFFFFFFFFFFFFFFFFFF
310
FFFFFFFFFFFFFFFFFFFFFFFFFFFFFFFFFFFFFFFFFFFFFFFFFFFFFFFFFFFFFFFF
310
FFFFFFFFFFFFFFFFFFFFFFFFFFFFFFFFFFFFFFFFFFFFFFFFFFFFFFFFFFFFFFFF
310
FFFFFFFFFFFFFFFFF000FFFFFFFFFFFFFFFFFFFFFFFFFFFFFFFFFFFFFFFFFFFF
310
FFFFFFFFFFFFFFFFFFFFFFFFFFFFFFFFFFFFFFFFFFFFFFFFFFFFFFFFFFFFFFFF
310
FFFFFFFFFFFFFFFFFFFFFFFFFFFFFFFFFFFFFFFFFFFFFFFFFFFFFFFFFFFFFFFF
310
F000FFFFFFFFFFFFFFFFFFFFFFFFFFFFFFFFFFFFFFFFFFFFFFFFFFFFFFFFFFFF
310
FFFFFFFFFFFFFFFFFFFFFFFFFFFFFFFFFFFFFFFFFFFFFFFFFFFFFFFFFFFFFFFF
310
FFFFFFFFFFFFFFFFFFFFFFFFFFFFFFFFFFFFFFFFFFFFFFFFF000FFFFFFFFFFFF
310
FFFFFFFFFFFFFFFFFFFFFFFFFFFFFFFFFFFFFFFFFFFFFFFFFFFFFFFFFFFFFFFF
310
FFFFFFFFFFFFFFFFFFFFFFFFFFFFFFFFFFFFFFFFFFFFFFFFFFFFFFFFFFFFFFFF
310
FFFFFFFFFFFFFFFFFFFFFFFFFFFFFFFFF000FFFFFFFFFFFFFFFFFFFFFFFFFFFF
310
FFFFFFFFFFFFFFFFFFFFFFFFFFFFFFFFFFFFFFFFFFFFFFFFFFFFFFFFFFFFFFFF
310
FFFFFFFFFFFFFFFFFFFFFFFFFFFFFFFFFFFFFFFFFFFFFFFFFFFFFFFFFFFFFFFF
310
FFFFFFFFFFFFFFFFF000FFFFFFFFFFFFFFFFFFFFFFFFFFFFFFFFFFFFFFFFFFFF
310
FFFFFFFFFFFFFFFFFFFFFFFFFFFFFFFFFFFFFFFFFFFFFFFFFFFFFFFFFFFFFFFF
310
FFFFFFFFFFFFFFFFFFFFFFFFFFFFFFFFFFFFFFFFFFFFFFFFFFFFFFFFFFFFFFFF
310
F000FFFFFFFFFFFFFFFFFFFFFFFFFFFFFFFFFFFFFFFFFFFFFFFFFFFFFFFFFFFF
310
FFFFFFFFFFFFFFFFFFFFFFFFFFFFFFFFFFFFFFFFFFFFFFFFFFFFFFFFFFFFFFFF
310
FFFFFFFFFFFFFFFFFFFFFFFFFFFFFFFFFFFFFFFFFFFFFFFFF000FFFFFFFFFFFF
310
FFFFFFFFFFFFFFFFFFFFFFFFFFFFFFFFFFFFFFFFFFFFFFFFFFFFFFFFFFFFFFFF
310
FFFFFFFFFFFFFFFFFFFFFFFFFFFFFFFFFFFFFFFFFFFFFFFFFFFFFFFFFFFFFFFF
310
FFFFFFFFFFFFFFFFFFFFFFFFFFFFFFFFF000FFFFFFFFFFFFFFFFFFFFFFFFFFFF
310
FFFFFFFFFFFFFFFFFFFFFFFFFFFFFFFFFFFFFFFFFFFFFFFFFFFFFFFFFFFFFFFF
310
FFFFFFFFFFFFFFFFFFFFFFFFFFFFFFFFFFFFFFFFFFFFFFFFFFFFFFFFFFFFFFFF
310
FFFFFFFFFFFFFFFFF000FFFFFFFFFFFFFFFFFFFFFFFFFFFFFFFFFFFFFFFFFFFF
310
FFFFFFFFFFFFFFFFFFFFFFFFFFFFFFFFFFFFFFFFFFFFFFFFFFFFFFFFFFFFFFFF
310
FFFFFFFFFFFFFFFFFFFFFFFFFFFFFFFFFFFFFFFFFFFFFFFFFFFFFFFFFFFFFFFF
310
F000FFFFFFFFFFFFFFFFFFFFFFFFFFFFFFFFFFFFFFFFFFFFFFFFFFFFFFFFFFFF
310
FFFFFFFFFFFFFFFFFFFFFFFFFFFFFFFFFFFFFFFFFFFFFFFFFFFFFFFFFFFFFFFF
310
FFFFFFFFFFFFFFFFFFFFFFFFFFFFFFFFFFFFFFFFFFFFFFFFF000FFFFFFFFFFFF
310
FFFFFFFFFFFFFFFFFFFFFFFFFFFFFFFFFFFFFFFFFFFFFFFFFFFFFFFFFFFFFFFF
310
FFFFFFFFFFFFFFFFFFFFFFFFFFFFFFFFFFFFFFFFFFFFFFFFFFFFFFFFFFFFFFFF
310
FFFFFFFFFFFFFFFFFFFFFFFFFFFFFFFFF000FFFFFFFFFFFFFFFFFFFFFFFFFFFF
310
FFFFFFFFFFFFFFFFFFFFFFFFFFFFFFFFFFFFFFFFFFFFFFFFFFFFFFFFFFFFFFFF
310
FFFFFFFFFFFFFFFFFFFFFFFFFFFFFFFFFFFFFFFFFFFFFFFFFFFFFFFFFFFFFFFF
310
FFFFFFFFFFFFFFFFF000FFFFFFFFFFFFFFFFFFFFFFFFFFFFFFFFFFFFFFFFFFFF
310
FFFFFFFFFFFFFFFFFFFFFFFFFFFFFFFFFFFFFFFFFFFFFFFFFFFFFFFFFFFFFFFF
310
FFFFFFFFFFFFFFFFFFFFFFFFFFFFFFFFFFFFFFFFFFFFFFFFFFFFFFFFFFFFFFFF
310
F000FFFFFFFFFFFFFFFFFFFFFFFFFFFFFFFFFFFFFFFFFFFFFFFFFFFFFFFFFFFF
310
FFFFFFFFFFFFFFFFFFFFFFFFFFFFFFFFFFFFFFFFFFFFFFFFFFFFFFFFFFFFFFFF
310
FFFFFFFFFFFFFFFFFFFFFFFFFFFFFFFFFFFFFFFFFFFFFFFFF000FFFFFFFFFFFF
310
FFFFFFFFFFFFFFFFFFFFFFFFFFFFFFFFFFFFFFFFFFFFFFFFFFFFFFFFFFFFFFFF
310
FFFFFFFFFFFFFFFFFFFFFFFFFFFFFFFFFFFFFFFFFFFFFFFFFFFFFFFFFFFFFFFF
310
FFFFFFFFFFFFFFFFFFFFFFFFFFFFFFFFF000FFFFFFFFFFFFFFFFFFFFFFFFFFFF
310
FFFFFFFFFFFFFFFFFFFFFFFFFFFFFFFFFFFFFFFFFFFFFFFFFFFFFFFFFFFFFFFF
310
FFFFFFFFFFFFFFFFFFFFFFFFFFFFFFFFFFFFFFFFFFFFFFFFFFFFFFFFFFFFFFFF
310
FFFFFFFFFFFFFFFFF000FFFFFFFFFFFFFFFFFFFFFFFFFFFFFFFFFFFFFFFFFFFF
310
FFFFFFFFFFFFFFFFFFFFFFFFFFFFFFFFFFFFFFFFFFFFFFFFFFFFFFFFFFFFFFFF
310
FFFFFFFFFFFFFFFFFFFFFFFFFFFFFFFFFFFFFFFFFFFFFFFFFFFFFFFFFFFFFFFF
310
F000FFFFFFFFFFFFFFFFFFFFFFFFFFFFFFFFFFFFFFFFFFFFFFFFFFFFFFFFFFFF
310
FFFFFFFFFFFFFFFFFFFFFFFFFFFFFFFFFFFFFFFFFFFFFFFFFFFFFFFFFFFFFFFF
310
FFFFFFFFFFFFFFFFFFFFFFFFFFFFFFFFFFFFFFFFFFFFFFFFF000FFFFFFFFFFFF
310
FFFFFFFFFFFFFFFFFFFFFFFFFFFFFFFFFFFFFFFFFFFFFFFFFFFFFFFFFFFFFFFF
310
FFFFFFFFFFFFFFFFFFFFFFFFFFFFFFFFFFFFFFFFFFFFFFFFFFFFFFFFFFFFFFFF
310
FFFFFFFFFFFFFFFFFFFFFFFFFFFFFFFFF0000000000000000000000000000000
310
0000000001000000010000000100000001000000010000000100000001000000
310
0100000001000000010000000100000001000000010000000100000001000000
310
0100000001000000010000000100000001000000010000000100000001000000
310
0100000001000000010000000000000001000000010000000100000001000000
310
0000000001000000000000000100000001000000010000000100000001000000
310
0000000001000000010000000100000001000000010000000100000001000000
310
0100000001000000010000000100000001000000010000000100000001000000
310
0100000001000000010000000100000001000000010000000100000001000000
310
0100000001000000010000000000000001000000010000000100000001000000
310
0100000001000000010000000100000001000000010000000100000001000000
310
0100000001000000010000000100000001000000010000000100000001000000
310
0100000001000000010000000100000001000000000000000100000001000000
310
0100000001000000010000000100000000000000010000000100000001000000
310
0100000001000000010000000000000001000000010000000100000001000000
310
0100000001000000010000000100000001000000010000000100000001000000
  1
OLE
  0
ENDSEC
  0
SECTION
  2
OBJECTS
  0
DICTIONARY
  5
C
330
0
100
AcDbDictionary
281
     1
  3
ACAD_GROUP
350
D
  3
ACAD_LAYOUT
350
1A
  3
ACAD_MLEADERSTYLE
350
20C
  3
ACAD_MLINESTYLE
350
17
  3
ACAD_PLOTSETTINGS
350
19
  3
ACAD_PLOTSTYLENAME
350
E
  3
ACAD_TABLESTYLE
350
20B
  3
ACAD_VISUALSTYLE
350
2A
  3
AcDbVariableDictionary
350
20D
  0
DICTIONARY
  5
D
102
{ACAD_REACTORS
330
C
102
}
330
C
100
AcDbDictionary
281
     1
  0
DICTIONARY
  5
1A
102
{ACAD_REACTORS
330
C
102
}
330
C
100
AcDbDictionary
281
     1
  3
Layout1
350
1E
  3
Layout2
350
26
  3
Model
350
22
  0
DICTIONARY
  5
20C
102
{ACAD_REACTORS
330
C
102
}
330
C
100
AcDbDictionary
281
     1
  0
DICTIONARY
  5
17
102
{ACAD_REACTORS
330
C
102
}
330
C
100
AcDbDictionary
281
     1
  3
Standard
350
18
  0
DICTIONARY
  5
19
102
{ACAD_REACTORS
330
C
102
}
330
C
100
AcDbDictionary
281
     1
  0
ACDBDICTIONARYWDFLT
  5
E
102
{ACAD_REACTORS
330
C
102
}
330
C
100
AcDbDictionary
281
     1
  3
Normal
350
F
100
AcDbDictionaryWithDefault
340
F
  0
DICTIONARY
  5
20B
102
{ACAD_REACTORS
330
C
102
}
330
C
100
AcDbDictionary
281
     1
  0
DICTIONARY
  5
2A
102
{ACAD_REACTORS
330
C
102
}
330
C
100
AcDbDictionary
281
     1
  3
2dWireframe
350
2F
  3
3D Hidden
350
31
  3
3dWireframe
350
30
  3
Basic
350
32
  3
Brighten
350
36
  3
ColorChange
350
3A
  3
Conceptual
350
34
  3
Dim
350
35
  3
Facepattern
350
39
  3
Flat
350
2B
  3
FlatWithEdges
350
2C
  3
Gouraud
350
2D
  3
GouraudWithEdges
350
2E
  3
Linepattern
350
38
  3
Realistic
350
33
  3
Thicken
350
37
  0
DICTIONARY
  5
20D
102
{ACAD_REACTORS
330
C
102
}
330
C
100
AcDbDictionary
281
     1
  3
PSOLHEIGHT
350
20F
  3
PSOLWIDTH
350
20E
  0
LAYOUT
  5
1E
102
{ACAD_REACTORS
330
1A
102
}
330
1A
100
AcDbPlotSettings
  1

  2
none_device
  4

  6

 40
0.0
 41
0.0
 42
0.0
 43
0.0
 44
0.0
 45
0.0
 46
0.0
 47
0.0
 48
0.0
 49
0.0
140
0.0
141
0.0
142
1.0
143
1.0
 70
   688
 72
     0
 73
     0
 74
     5
  7

 75
    16
147
1.0
148
0.0
149
0.0
100
AcDbLayout
  1
Layout1
 70
     1
 71
     1
 10
0.0
 20
0.0
 11
420.0
 21
297.0
 12
0.0
 22
0.0
 32
0.0
 14
1.0000000000E+20
 24
1.0000000000E+20
 34
1.0000000000E+20
 15
-1.0000000000E+20
 25
-1.0000000000E+20
 35
-1.0000000000E+20
146
0.0
 13
0.0
 23
0.0
 33
0.0
 16
1.0
 26
0.0
 36
0.0
 17
0.0
 27
1.0
 37
0.0
 76
     0
330
1B
  0
LAYOUT
  5
26
102
{ACAD_REACTORS
330
1A
102
}
330
1A
100
AcDbPlotSettings
  1

  2
none_device
  4

  6

 40
0.0
 41
0.0
 42
0.0
 43
0.0
 44
0.0
 45
0.0
 46
0.0
 47
0.0
 48
0.0
 49
0.0
140
0.0
141
0.0
142
1.0
143
1.0
 70
   688
 72
     0
 73
     0
 74
     5
  7

 75
    16
147
1.0
148
0.0
149
0.0
100
AcDbLayout
  1
Layout2
 70
     1
 71
     2
 10
0.0
 20
0.0
 11
0.0
 21
0.0
 12
0.0
 22
0.0
 32
0.0
 14
0.0
 24
0.0
 34
0.0
 15
0.0
 25
0.0
 35
0.0
146
0.0
 13
0.0
 23
0.0
 33
0.0
 16
1.0
 26
0.0
 36
0.0
 17
0.0
 27
1.0
 37
0.0
 76
     0
330
23
  0
LAYOUT
  5
22
102
{ACAD_REACTORS
330
1A
102
}
330
1A
100
AcDbPlotSettings
  1

  2
none_device
  4

  6

 40
0.0
 41
0.0
 42
0.0
 43
0.0
 44
0.0
 45
0.0
 46
0.0
 47
0.0
 48
0.0
 49
0.0
140
0.0
141
0.0
142
1.0
143
1.0
 70
  1712
 72
     0
 73
     0
 74
     0
  7

 75
     0
147
1.0
148
0.0
149
0.0
100
AcDbLayout
  1
Model
 70
     1
 71
     0
 10
0.0
 20
0.0
 11
297.0
 21
210.0
 12
0.0
 22
0.0
 32
0.0
 14
0.0
 24
0.0
 34
0.0
 15
297.0
 25
210.0
 35
0.0
146
0.0
 13
0.0
 23
0.0
 33
0.0
 16
1.0
 26
0.0
 36
0.0
 17
0.0
 27
1.0
 37
0.0
 76
     0
330
1F
331
29
  0
MLINESTYLE
  5
18
102
{ACAD_REACTORS
330
17
102
}
330
17
100
AcDbMlineStyle
  2
Standard
 70
     0
  3

 62
   256
 51
90.0
 52
90.0
 71
     2
 49
0.5
 62
   256
  6
BYLAYER
 49
-0.5
 62
   256
  6
BYLAYER
  0
ACDBPLACEHOLDER
  5
F
102
{ACAD_REACTORS
330
E
102
}
330
E
  0
VISUALSTYLE
  5
2F
102
{ACAD_REACTORS
330
2A
102
}
330
2A
100
AcDbVisualStyle
  2
2dWireframe
 70
     4
 71
     0
 72
     2
 73
     0
 90
        0
 40
-0.6
 41
-30.0
 62
     5
 63
     7
 74
     1
 91
        4
 64
     7
 65
   257
 75
     1
175
     1
 42
1.0
 92
        0
 66
   257
 43
1.0
 76
     1
 77
     6
 78
     2
 67
     7
 79
     5
170
     0
171
     0
290
     0
174
     0
 93
        1
 44
0.0
173
     0
291
     0
 45
0.0
1001
ACAD
1000
AcDbSavedByObjectVersion
1070
     0
  0
VISUALSTYLE
  5
31
102
{ACAD_REACTORS
330
2A
102
}
330
2A
100
AcDbVisualStyle
  2
3D Hidden
 70
     6
 71
     1
 72
     2
 73
     2
 90
        0
 40
-0.6
 41
-30.0
 62
     5
 63
     7
 74
     2
 91
        2
 64
     7
 65
   257
 75
     2
175
     1
 42
40.0
 92
        0
 66
   257
 43
1.0
 76
     1
 77
     6
 78
     2
 67
     7
 79
     3
170
     0
171
     0
290
     0
174
     0
 93
        1
 44
0.0
173
     0
291
     0
 45
0.0
1001
ACAD
1000
AcDbSavedByObjectVersion
1070
     0
  0
VISUALSTYLE
  5
30
102
{ACAD_REACTORS
330
2A
102
}
330
2A
100
AcDbVisualStyle
  2
3dWireframe
 70
     5
 71
     0
 72
     2
 73
     0
 90
        0
 40
-0.6
 41
-30.0
 62
     5
 63
     7
 74
     1
 91
        4
 64
     7
 65
   257
 75
     1
175
     1
 42
1.0
 92
        0
 66
   257
 43
1.0
 76
     1
 77
     6
 78
     2
 67
     7
 79
     5
170
     0
171
     0
290
     0
174
     0
 93
        1
 44
0.0
173
     0
291
     0
 45
0.0
1001
ACAD
1000
AcDbSavedByObjectVersion
1070
     0
  0
VISUALSTYLE
  5
32
102
{ACAD_REACTORS
330
2A
102
}
330
2A
100
AcDbVisualStyle
  2
Basic
 70
     7
 71
     1
 72
     0
 73
     1
 90
        0
 40
-0.6
 41
-30.0
 62
     5
 63
     7
 74
     0
 91
        4
 64
     7
 65
   257
 75
     1
175
     1
 42
1.0
 92
        8
 66
     7
 43
1.0
 76
     1
 77
     6
 78
     2
 67
     7
 79
     5
170
     0
171
     0
290
     0
174
     0
 93
        1
 44
0.0
173
     0
291
     1
 45
0.0
1001
ACAD
1000
AcDbSavedByObjectVersion
1070
     0
  0
VISUALSTYLE
  5
36
102
{ACAD_REACTORS
330
2A
102
}
330
2A
100
AcDbVisualStyle
  2
Brighten
 70
    12
 71
     2
 72
     2
 73
     0
 90
        0
 40
-0.6
 41
-30.0
 62
     5
 63
     7
 74
     1
 91
        4
 64
     7
 65
   257
 75
     1
175
     1
 42
1.0
 92
        8
 66
     7
 43
1.0
 76
     1
 77
     6
 78
     2
 67
     7
 79
     5
170
     0
171
     0
290
     0
174
     0
 93
        1
 44
50.0
173
     0
291
     1
 45
0.0
1001
ACAD
1000
AcDbSavedByObjectVersion
1070
     0
  0
VISUALSTYLE
  5
3A
102
{ACAD_REACTORS
330
2A
102
}
330
2A
100
AcDbVisualStyle
  2
ColorChange
 70
    16
 71
     2
 72
     2
 73
     3
 90
        0
 40
-0.6
 41
-30.0
 62
     5
 63
     8
 74
     1
 91
        4
 64
     7
 65
   257
 75
     1
175
     1
 42
1.0
 92
        8
 66
     8
 43
1.0
 76
     1
 77
     6
 78
     2
 67
     7
 79
     5
170
     0
171
     0
290
     0
174
     0
 93
        1
 44
0.0
173
     0
291
     1
 45
0.0
1001
ACAD
1000
AcDbSavedByObjectVersion
1070
     0
  0
VISUALSTYLE
  5
34
102
{ACAD_REACTORS
330
2A
102
}
330
2A
100
AcDbVisualStyle
  2
Conceptual
 70
     9
 71
     3
 72
     2
 73
     0
 90
        0
 40
-0.6
 41
-30.0
 62
     5
 63
     7
 74
     2
 91
        2
 64
     7
 65
   257
 75
     1
175
     1
 42
40.0
 92
        8
 66
     7
 43
1.0
 76
     1
 77
     6
 78
     2
 67
     7
 79
     3
170
     0
171
     0
290
     0
174
     0
 93
        1
 44
0.0
173
     0
291
     0
 45
0.0
1001
ACAD
1000
AcDbSavedByObjectVersion
1070
     0
  0
VISUALSTYLE
  5
35
102
{ACAD_REACTORS
330
2A
102
}
330
2A
100
AcDbVisualStyle
  2
Dim
 70
    11
 71
     2
 72
     2
 73
     0
 90
        0
 40
-0.6
 41
-30.0
 62
     5
 63
     7
 74
     1
 91
        4
 64
     7
 65
   257
 75
     1
175
     1
 42
1.0
 92
        8
 66
     7
 43
1.0
 76
     1
 77
     6
 78
     2
 67
     7
 79
     5
170
     0
171
     0
290
     0
174
     0
 93
        1
 44
-50.0
173
     0
291
     1
 45
0.0
1001
ACAD
1000
AcDbSavedByObjectVersion
1070
     0
  0
VISUALSTYLE
  5
39
102
{ACAD_REACTORS
330
2A
102
}
330
2A
100
AcDbVisualStyle
  2
Facepattern
 70
    15
 71
     2
 72
     2
 73
     0
 90
        0
 40
-0.6
 41
-30.0
 62
     5
 63
     7
 74
     1
 91
        4
 64
     7
 65
   257
 75
     1
175
     1
 42
1.0
 92
        8
 66
     7
 43
1.0
 76
     1
 77
     6
 78
     2
 67
     7
 79
     5
170
     0
171
     0
290
     0
174
     0
 93
        1
 44
0.0
173
     0
291
     1
 45
0.0
1001
ACAD
1000
AcDbSavedByObjectVersion
1070
     0
  0
VISUALSTYLE
  5
2B
102
{ACAD_REACTORS
330
2A
102
}
330
2A
100
AcDbVisualStyle
  2
Flat
 70
     0
 71
     2
 72
     1
 73
     1
 90
        2
 40
-0.6
 41
30.0
 62
     5
 63
     7
 74
     0
 91
        4
 64
     7
 65
   257
 75
     1
175
     1
 42
1.0
 92
        8
 66
     7
 43
1.0
 76
     1
 77
     6
 78
     2
 67
     7
 79
     5
170
     0
171
     0
290
     0
174
     0
 93
       13
 44
0.0
173
     0
291
     1
 45
0.0
1001
ACAD
1000
AcDbSavedByObjectVersion
1070
     0
  0
VISUALSTYLE
  5
2C
102
{ACAD_REACTORS
330
2A
102
}
330
2A
100
AcDbVisualStyle
  2
FlatWithEdges
 70
     1
 71
     2
 72
     1
 73
     1
 90
        2
 40
-0.6
 41
30.0
 62
     5
 63
     7
 74
     1
 91
        4
 64
     7
 65
   257
 75
     1
175
     1
 42
1.0
 92
        0
 66
   257
 43
1.0
 76
     1
 77
     6
 78
     2
 67
     7
 79
     5
170
     0
171
     0
290
     0
174
     0
 93
       13
 44
0.0
173
     0
291
     1
 45
0.0
1001
ACAD
1000
AcDbSavedByObjectVersion
1070
     0
  0
VISUALSTYLE
  5
2D
102
{ACAD_REACTORS
330
2A
102
}
330
2A
100
AcDbVisualStyle
  2
Gouraud
 70
     2
 71
     2
 72
     2
 73
     1
 90
        2
 40
-0.6
 41
30.0
 62
     5
 63
     7
 74
     0
 91
        4
 64
     7
 65
   257
 75
     1
175
     1
 42
1.0
 92
        0
 66
     7
 43
1.0
 76
     1
 77
     6
 78
     2
 67
     7
 79
     5
170
     0
171
     0
290
     0
174
     0
 93
       13
 44
0.0
173
     0
291
     1
 45
0.0
1001
ACAD
1000
AcDbSavedByObjectVersion
1070
     0
  0
VISUALSTYLE
  5
2E
102
{ACAD_REACTORS
330
2A
102
}
330
2A
100
AcDbVisualStyle
  2
GouraudWithEdges
 70
     3
 71
     2
 72
     2
 73
     1
 90
        2
 40
-0.6
 41
30.0
 62
     5
 63
     7
 74
     1
 91
        4
 64
     7
 65
   257
 75
     1
175
     1
 42
1.0
 92
        0
 66
   257
 43
1.0
 76
     1
 77
     6
 78
     2
 67
     7
 79
     5
170
     0
171
     0
290
     0
174
     0
 93
       13
 44
0.0
173
     0
291
     1
 45
0.0
1001
ACAD
1000
AcDbSavedByObjectVersion
1070
     0
  0
VISUALSTYLE
  5
38
102
{ACAD_REACTORS
330
2A
102
}
330
2A
100
AcDbVisualStyle
  2
Linepattern
 70
    14
 71
     2
 72
     2
 73
     0
 90
        0
 40
-0.6
 41
-30.0
 62
     5
 63
     7
 74
     1
 91
        4
 64
     7
 65
   257
 75
     7
175
     7
 42
1.0
 92
        8
 66
     7
 43
1.0
 76
     1
 77
     6
 78
     2
 67
     7
 79
     5
170
     0
171
     0
290
     0
174
     0
 93
        1
 44
0.0
173
     0
291
     1
 45
0.0
1001
ACAD
1000
AcDbSavedByObjectVersion
1070
     0
  0
VISUALSTYLE
  5
33
102
{ACAD_REACTORS
330
2A
102
}
330
2A
100
AcDbVisualStyle
  2
Realistic
 70
     8
 71
     2
 72
     2
 73
     0
 90
        0
 40
-0.6
 41
-30.0
 62
     5
 63
     7
 74
     1
 91
        0
 64
     7
 65
   257
 75
     1
175
     1
 42
1.0
 92
        8
 66
     8
 43
1.0
 76
     1
 77
     6
 78
     2
 67
     7
 79
     5
170
     0
171
     0
290
     0
174
     0
 93
       13
 44
0.0
173
     0
291
     0
 45
0.0
1001
ACAD
1000
AcDbSavedByObjectVersion
1070
     0
  0
VISUALSTYLE
  5
37
102
{ACAD_REACTORS
330
2A
102
}
330
2A
100
AcDbVisualStyle
  2
Thicken
 70
    13
 71
     2
 72
     2
 73
     0
 90
        0
 40
-0.6
 41
-30.0
 62
     5
 63
     7
 74
     1
 91
        4
 64
     7
 65
   257
 75
     1
175
     1
 42
1.0
 92
       12
 66
     7
 43
1.0
 76
     1
 77
     6
 78
     2
 67
     7
 79
     5
170
     0
171
     0
290
     0
174
     0
 93
        1
 44
0.0
173
     0
291
     1
 45
0.0
1001
ACAD
1000
AcDbSavedByObjectVersion
1070
     0
  0
DICTIONARYVAR
  5
20F
102
{ACAD_REACTORS
330
20D
102
}
330
20D
100
DictionaryVariables
280
     0
  1
80.000000
  0
DICTIONARYVAR
  5
20E
102
{ACAD_REACTORS
330
20D
102
}
330
20D
100
DictionaryVariables
280
     0
  1
5.000000
  0
ENDSEC
  0
EOF
