  0
SECTION
  2
HEADER
  9
$ACADVER
  1
AC1015
  9
$ACADMAINTVER
 70
     6
  9
$DWGCODEPAGE
  3
ANSI_1252
  9
$INSBASE
 10
0.0
 20
0.0
 30
0.0
  9
$EXTMIN
 10
0.0
 20
0.0
 30
0.0
  9
$EXTMAX
 10
297.0
 20
210.0
 30
0.0
  9
$LIMMIN
 10
0.0
 20
0.0
  9
$LIMMAX
 10
297.0
 20
210.0
  9
$ORTHOMODE
 70
     0
  9
$REGENMODE
 70
     1
  9
$FILLMODE
 70
     1
  9
$QTEXTMODE
 70
     0
  9
$MIRRTEXT
 70
     1
  9
$LTSCALE
 40
1.0
  9
$ATTMODE
 70
     1
  9
$TEXTSIZE
 40
2.0
  9
$TRACEWID
 40
1.0
  9
$TEXTSTYLE
  7
Standard
  9
$CLAYER
  8
0
  9
$CELTYPE
  6
ByLayer
  9
$CECOLOR
 62
   256
  9
$CELTSCALE
 40
1.0
  9
$DISPSILH
 70
     0
  9
$DIMSCALE
 40
1.0
  9
$DIMASZ
 40
3.0
  9
$DIMEXO
 40
0.0
  9
$DIMDLI
 40
3.75
  9
$DIMRND
 40
0.0
  9
$DIMDLE
 40
0.0
  9
$DIMEXE
 40
1.0
  9
$DIMTP
 40
0.0
  9
$DIMTM
 40
0.0
  9
$DIMTXT
 40
2.0
  9
$DIMCEN
 40
2.5
  9
$DIMTSZ
 40
0.0
  9
$DIMTOL
 70
     0
  9
$DIMLIM
 70
     0
  9
$DIMTIH
 70
     1
  9
$DIMTOH
 70
     1
  9
$DIMSE1
 70
     0
  9
$DIMSE2
 70
     0
  9
$DIMTAD
 70
     1
  9
$DIMZIN
 70
     0
  9
$DIMBLK
  1

  9
$DIMASO
 70
     1
  9
$DIMSHO
 70
     1
  9
$DIMPOST
  1

  9
$DIMAPOST
  1

  9
$DIMALT
 70
     0
  9
$DIMALTD
 70
     3
  9
$DIMALTF
 40
0.0393700787
  9
$DIMLFAC
 40
1.0
  9
$DIMTOFL
 70
     1
  9
$DIMTVP
 40
0.0
  9
$DIMTIX
 70
     0
  9
$DIMSOXD
 70
     0
  9
$DIMSAH
 70
     0
  9
$DIMBLK1
  1

  9
$DIMBLK2
  1

  9
$DIMSTYLE
  2
ISO-25
  9
$DIMCLRD
 70
     0
  9
$DIMCLRE
 70
     0
  9
$DIMCLRT
 70
     0
  9
$DIMTFAC
 40
1.0
  9
$DIMGAP
 40
1.524
  9
$DIMJUST
 70
     0
  9
$DIMSD1
 70
     0
  9
$DIMSD2
 70
     0
  9
$DIMTOLJ
 70
     0
  9
$DIMTZIN
 70
     0
  9
$DIMALTZ
 70
     0
  9
$DIMALTTZ
 70
     0
  9
$DIMUPT
 70
     0
  9
$DIMDEC
 70
     2
  9
$DIMTDEC
 70
     3
  9
$DIMALTU
 70
     2
  9
$DIMALTTD
 70
     3
  9
$DIMTXSTY
  7
Standard
  9
$DIMAUNIT
 70
     0
  9
$DIMADEC
 70
     2
  9
$DIMALTRND
 40
0.0
  9
$DIMAZIN
 70
     0
  9
$DIMDSEP
 70
    44
  9
$DIMATFIT
 70
     3
  9
$DIMFRAC
 70
     0
  9
$DIMLDRBLK
  1

  9
$DIMLUNIT
 70
     2
  9
$DIMLWD
 70
    -2
  9
$DIMLWE
 70
    -2
  9
$DIMTMOVE
 70
     0
  9
$LUNITS
 70
     2
  9
$LUPREC
 70
     2
  9
$SKETCHINC
 40
1.0
  9
$FILLETRAD
 40
10.0
  9
$AUNITS
 70
     0
  9
$AUPREC
 70
     2
  9
$MENU
  1
.
  9
$ELEVATION
 40
0.0
  9
$PELEVATION
 40
0.0
  9
$THICKNESS
 40
0.0
  9
$LIMCHECK
 70
     0
  9
$CHAMFERA
 40
10.0
  9
$CHAMFERB
 40
10.0
  9
$CHAMFERC
 40
20.0
  9
$CHAMFERD
 40
0.0
  9
$SKPOLY
 70
     0
  9
$TDCREATE
 40
2455684.412209062
  9
$TDUCREATE
 40
2455684.328875729
  9
$TDUPDATE
 40
2455684.412209074
  9
$TDUUPDATE
 40
2455684.328875741
  9
$TDINDWG
 40
0.0000000116
  9
$TDUSRTIMER
 40
0.0000000116
  9
$USRTIMER
 70
     1
  9
$ANGBASE
 50
0.0
  9
$ANGDIR
 70
     0
  9
$PDMODE
 70
     0
  9
$PDSIZE
 40
-1.0
  9
$PLINEWID
 40
0.0
  9
$SPLFRAME
 70
     0
  9
$SPLINETYPE
 70
     6
  9
$SPLINESEGS
 70
     8
  9
$HANDSEED
  5
206
  9
$SURFTAB1
 70
     6
  9
$SURFTAB2
 70
     6
  9
$SURFTYPE
 70
     6
  9
$SURFU
 70
     6
  9
$SURFV
 70
     6
  9
$UCSBASE
  2

  9
$UCSNAME
  2

  9
$UCSORG
 10
0.0
 20
0.0
 30
0.0
  9
$UCSXDIR
 10
1.0
 20
0.0
 30
0.0
  9
$UCSYDIR
 10
0.0
 20
1.0
 30
0.0
  9
$UCSORTHOREF
  2

  9
$UCSORTHOVIEW
 70
     0
  9
$UCSORGTOP
 10
0.0
 20
0.0
 30
0.0
  9
$UCSORGBOTTOM
 10
0.0
 20
0.0
 30
0.0
  9
$UCSORGLEFT
 10
0.0
 20
0.0
 30
0.0
  9
$UCSORGRIGHT
 10
0.0
 20
0.0
 30
0.0
  9
$UCSORGFRONT
 10
0.0
 20
0.0
 30
0.0
  9
$UCSORGBACK
 10
0.0
 20
0.0
 30
0.0
  9
$PUCSBASE
  2

  9
$PUCSNAME
  2

  9
$PUCSORG
 10
0.0
 20
0.0
 30
0.0
  9
$PUCSXDIR
 10
1.0
 20
0.0
 30
0.0
  9
$PUCSYDIR
 10
0.0
 20
1.0
 30
0.0
  9
$PUCSORTHOREF
  2

  9
$PUCSORTHOVIEW
 70
     0
  9
$PUCSORGTOP
 10
0.0
 20
0.0
 30
0.0
  9
$PUCSORGBOTTOM
 10
0.0
 20
0.0
 30
0.0
  9
$PUCSORGLEFT
 10
0.0
 20
0.0
 30
0.0
  9
$PUCSORGRIGHT
 10
0.0
 20
0.0
 30
0.0
  9
$PUCSORGFRONT
 10
0.0
 20
0.0
 30
0.0
  9
$PUCSORGBACK
 10
0.0
 20
0.0
 30
0.0
  9
$USERI1
 70
     0
  9
$USERI2
 70
     0
  9
$USERI3
 70
     0
  9
$USERI4
 70
     0
  9
$USERI5
 70
     0
  9
$USERR1
 40
0.0
  9
$USERR2
 40
0.0
  9
$USERR3
 40
0.0
  9
$USERR4
 40
0.0
  9
$USERR5
 40
0.0
  9
$WORLDVIEW
 70
     1
  9
$SHADEDGE
 70
     3
  9
$SHADEDIF
 70
    70
  9
$TILEMODE
 70
     1
  9
$MAXACTVP
 70
    64
  9
$PINSBASE
 10
0.0
 20
0.0
 30
0.0
  9
$PLIMCHECK
 70
     0
  9
$PEXTMIN
 10
1.0000000000E+20
 20
1.0000000000E+20
 30
1.0000000000E+20
  9
$PEXTMAX
 10
-1.0000000000E+20
 20
-1.0000000000E+20
 30
-1.0000000000E+20
  9
$PLIMMIN
 10
0.0
 20
0.0
  9
$PLIMMAX
 10
420.0
 20
297.0
  9
$UNITMODE
 70
     0
  9
$VISRETAIN
 70
     1
  9
$PLINEGEN
 70
     0
  9
$PSLTSCALE
 70
     1
  9
$TREEDEPTH
 70
  3020
  9
$CMLSTYLE
  2
Standard
  9
$CMLJUST
 70
     0
  9
$CMLSCALE
 40
20.0
  9
$PROXYGRAPHICS
 70
     1
  9
$MEASUREMENT
 70
     1
  9
$CELWEIGHT
370
    -1
  9
$ENDCAPS
280
     0
  9
$JOINSTYLE
280
     0
  9
$LWDISPLAY
290
     1
  9
$INSUNITS
 70
     4
  9
$HYPERLINKBASE
  1

  9
$STYLESHEET
  1

  9
$XEDIT
290
     1
  9
$CEPSNTYPE
380
     0
  9
$PSTYLEMODE
290
     1
  9
$FINGERPRINTGUID
  2
{79D6EFC9-4794-41B1-99CC-65AA9C864997}
  9
$VERSIONGUID
  2
{FAEB1C32-E019-11D5-929B-00C0DF256EC4}
  9
$EXTNAMES
290
     1
  9
$PSVPSCALE
 40
0.0
  9
$OLESTARTUP
290
     0
  0
ENDSEC
  0
SECTION
  2
CLASSES
  0
CLASS
  1
ACDBDICTIONARYWDFLT
  2
AcDbDictionaryWithDefault
  3
ObjectDBX Classes
 90
        0
280
     0
281
     0
  0
CLASS
  1
VISUALSTYLE
  2
AcDbVisualStyle
  3
ObjectDBX Classes
 90
     4095
280
     0
281
     0
  0
CLASS
  1
DICTIONARYVAR
  2
AcDbDictionaryVar
  3
ObjectDBX Classes
 90
        0
280
     0
281
     0
  0
CLASS
  1
ACDBPLACEHOLDER
  2
AcDbPlaceHolder
  3
ObjectDBX Classes
 90
        0
280
     0
281
     0
  0
CLASS
  1
LAYOUT
  2
AcDbLayout
  3
ObjectDBX Classes
 90
        0
280
     0
281
     0
  0
ENDSEC
  0
SECTION
  2
TABLES
  0
TABLE
  2
VPORT
  5
8
330
0
100
AcDbSymbolTable
 70
     1
  0
VPORT
  5
29
330
8
100
AcDbSymbolTableRecord
100
AcDbViewportTableRecord
  2
*Active
 70
     0
 10
0.0
 20
0.0
 11
1.0
 21
1.0
 12
148.5
 22
105.0
 13
0.0
 23
0.0
 14
10.0
 24
10.0
 15
10.0
 25
10.0
 16
0.0
 26
0.0
 36
1.0
 17
0.0
 27
0.0
 37
0.0
 40
210.0
 41
1.4142857143
 42
50.0
 43
0.0
 44
0.0
 50
0.0
 51
0.0
 71
     0
 72
  2000
 73
     1
 74
     3
 75
     0
 76
     0
 77
     0
 78
     0
281
     0
 65
     1
110
0.0
120
0.0
130
0.0
111
1.0
121
0.0
131
0.0
112
0.0
122
1.0
132
0.0
 79
     0
146
0.0
  0
ENDTAB
  0
TABLE
  2
LTYPE
  5
5
330
0
100
AcDbSymbolTable
 70
     6
  0
LTYPE
  5
14
330
5
100
AcDbSymbolTableRecord
100
AcDbLinetypeTableRecord
  2
ByBlock
 70
     0
  3

 72
    65
 73
     0
 40
0.0
  0
LTYPE
  5
15
330
5
100
AcDbSymbolTableRecord
100
AcDbLinetypeTableRecord
  2
ByLayer
 70
     0
  3

 72
    65
 73
     0
 40
0.0
  0
LTYPE
  5
16
330
5
100
AcDbSymbolTableRecord
100
AcDbLinetypeTableRecord
  2
Continuous
 70
     0
  3
Solid line
 72
    65
 73
     0
 40
0.0
  0
LTYPE
  5
3B
330
5
100
AcDbSymbolTableRecord
100
AcDbLinetypeTableRecord
  2
HIDDEN
 70
     0
  3
Hidden __ __ __ __ __ __ __ __ __ __ __ __ __ __
 72
    65
 73
     2
 40
1.905
 49
1.27
 74
     0
 49
-0.635
 74
     0
  0
LTYPE
  5
3C
330
5
100
AcDbSymbolTableRecord
100
AcDbLinetypeTableRecord
  2
PHANTOM
 70
     0
  3
Phantom ______  __  __  ______  __  __  ______
 72
    65
 73
     6
 40
12.7
 49
6.35
 74
     0
 49
-1.27
 74
     0
 49
1.27
 74
     0
 49
-1.27
 74
     0
 49
1.27
 74
     0
 49
-1.27
 74
     0
  0
LTYPE
  5
3D
330
5
100
AcDbSymbolTableRecord
100
AcDbLinetypeTableRecord
  2
CENTER
 70
     0
  3
Center ____ _ ____ _ ____ _ ____ _ ____ _ ____
 72
    65
 73
     4
 40
10.16
 49
6.35
 74
     0
 49
-1.27
 74
     0
 49
1.27
 74
     0
 49
-1.27
 74
     0
  0
LTYPE
  5
3E
330
5
100
AcDbSymbolTableRecord
100
AcDbLinetypeTableRecord
  2
CENTERX2
 70
     0
  3
Center (2x) ________  __  ________  __  _____
 72
    65
 73
     4
 40
20.32
 49
12.7
 74
     0
 49
-2.54
 74
     0
 49
2.54
 74
     0
 49
-2.54
 74
     0
  0
LTYPE
  5
3F
330
5
100
AcDbSymbolTableRecord
100
AcDbLinetypeTableRecord
  2
DOT2
 70
     0
  3
Dot (.5x) ........................................
 72
    65
 73
     2
 40
0.635
 49
0.0
 74
     0
 49
-0.635
 74
     0
  0
ENDTAB
  0
TABLE
  2
LAYER
  5
2
330
0
100
AcDbSymbolTable
 70
     5
  0
LAYER
  5
10
330
2
100
AcDbSymbolTableRecord
100
AcDbLayerTableRecord
  2
0
 70
     0
 62
     7
  6
Continuous
370
    -3
390
F
  0
LAYER
  5
40
330
2
100
AcDbSymbolTableRecord
100
AcDbLayerTableRecord
  2
FORMAT
 70
     0
 62
     7
  6
Continuous
370
    -3
390
F
  0
LAYER
  5
41
330
2
100
AcDbSymbolTableRecord
100
AcDbLayerTableRecord
  2
VERMASSUNG
 70
     0
 62
     7
  6
Continuous
370
    -3
390
F
  0
LAYER
  5
42
330
2
100
AcDbSymbolTableRecord
100
AcDbLayerTableRecord
  2
KOPF_DÜNN
 70
     0
 62
     7
  6
Continuous
370
    -3
390
F
  0
LAYER
  5
43
330
2
100
AcDbSymbolTableRecord
100
AcDbLayerTableRecord
  2
KOPF_DICK
 70
     0
 62
     7
  6
Continuous
370
    15
390
F
  0
ENDTAB
  0
TABLE
  2
STYLE
  5
3
330
0
100
AcDbSymbolTable
 70
     3
  0
STYLE
  5
11
330
3
100
AcDbSymbolTableRecord
100
AcDbTextStyleTableRecord
  2
Standard
 70
     0
 40
0.0
 41
1.0
 50
0.0
 71
     0
 42
2.5
  3
txt
  4

  0
STYLE
  5
44
330
3
100
AcDbSymbolTableRecord
100
AcDbTextStyleTableRecord
  2
SLDTEXTSTYLE0
 70
     0
 40
0.0
 41
0.7
 50
0.0
 71
     0
 42
0.2
  3
TXT
  4

  0
STYLE
  5
48
330
3
100
AcDbSymbolTableRecord
100
AcDbTextStyleTableRecord
  2
SLDTEXTSTYLE1
 70
     0
 40
0.0
 41
0.65
 50
0.0
 71
     0
 42
0.2
  3
TXT
  4

  0
ENDTAB
  0
TABLE
  2
VIEW
  5
6
330
0
100
AcDbSymbolTable
 70
     0
  0
ENDTAB
  0
TABLE
  2
UCS
  5
7
330
0
100
AcDbSymbolTable
 70
     0
  0
ENDTAB
  0
TABLE
  2
APPID
  5
9
330
0
100
AcDbSymbolTable
 70
     1
  0
APPID
  5
12
330
9
100
AcDbSymbolTableRecord
100
AcDbRegAppTableRecord
  2
ACAD
 70
     0
  0
ENDTAB
  0
TABLE
  2
DIMSTYLE
  5
A
330
0
100
AcDbSymbolTable
 70
     4
100
AcDbDimStyleTable
  0
DIMSTYLE
105
27
330
A
100
AcDbSymbolTableRecord
100
AcDbDimStyleTableRecord
  2
ISO-25
 70
     0
 41
2.5
 42
0.625
 43
3.75
 44
1.25
 73
     0
 74
     0
 77
     1
 78
     8
140
2.5
141
2.5
143
0.0393700787
147
0.625
171
     3
172
     1
271
     2
272
     2
274
     3
278
    44
283
     0
284
     8
340
11
  0
DIMSTYLE
105
1A8
102
{ACAD_REACTORS
330
1A7
330
1E1
330
1EB
330
1F5
102
}
330
A
100
AcDbSymbolTableRecord
100
AcDbDimStyleTableRecord
  2
SLDDIMSTYLE0
 70
     0
 41
3.0
 44
0.0
 45
0.000000001
 73
     0
 74
     0
 77
     1
 78
    12
140
2.0
147
0.5
173
     1
271
     2
272
     3
284
    12
340
44
  0
DIMSTYLE
105
1B5
102
{ACAD_REACTORS
330
1B4
102
}
330
A
100
AcDbSymbolTableRecord
100
AcDbDimStyleTableRecord
  2
SLDDIMSTYLE1
 70
     0
 41
3.0
 44
0.0
 45
0.000000001
 73
     0
 74
     0
 77
     1
 78
    12
140
2.0
147
0.5
173
     1
271
     2
272
     2
284
    12
340
44
  0
DIMSTYLE
105
1C0
102
{ACAD_REACTORS
330
1BF
330
1CB
330
1D6
102
}
330
A
100
AcDbSymbolTableRecord
100
AcDbDimStyleTableRecord
  2
SLDDIMSTYLE2
 70
     0
 41
3.0
 44
0.0
 45
0.000000001
 73
     0
 74
     0
 77
     1
 78
    12
140
2.0
147
0.5
173
     1
271
     2
272
     3
284
    12
340
44
  0
ENDTAB
  0
TABLE
  2
BLOCK_RECORD
  5
1
330
0
100
AcDbSymbolTable
 70
     9
  0
BLOCK_RECORD
  5
1F
330
1
100
AcDbSymbolTableRecord
100
AcDbBlockTableRecord
  2
*Model_Space
340
22
  0
BLOCK_RECORD
  5
1B
330
1
100
AcDbSymbolTableRecord
100
AcDbBlockTableRecord
  2
*Paper_Space
340
1E
  0
BLOCK_RECORD
  5
23
330
1
100
AcDbSymbolTableRecord
100
AcDbBlockTableRecord
  2
*Paper_Space0
340
26
  0
BLOCK_RECORD
  5
1A9
330
1
100
AcDbSymbolTableRecord
100
AcDbBlockTableRecord
  2
*D1
340
0
  0
BLOCK_RECORD
  5
1B6
330
1
100
AcDbSymbolTableRecord
100
AcDbBlockTableRecord
  2
*D2
340
0
  0
BLOCK_RECORD
  5
1C1
330
1
100
AcDbSymbolTableRecord
100
AcDbBlockTableRecord
  2
*D3
340
0
  0
BLOCK_RECORD
  5
1CC
330
1
100
AcDbSymbolTableRecord
100
AcDbBlockTableRecord
  2
*D4
340
0
  0
BLOCK_RECORD
  5
1D7
330
1
100
AcDbSymbolTableRecord
100
AcDbBlockTableRecord
  2
*D5
340
0
  0
BLOCK_RECORD
  5
1E2
330
1
100
AcDbSymbolTableRecord
100
AcDbBlockTableRecord
  2
*D6
340
0
  0
BLOCK_RECORD
  5
1EC
330
1
100
AcDbSymbolTableRecord
100
AcDbBlockTableRecord
  2
*D7
340
0
  0
BLOCK_RECORD
  5
1F6
330
1
100
AcDbSymbolTableRecord
100
AcDbBlockTableRecord
  2
*D8
340
0
  0
ENDTAB
  0
ENDSEC
  0
SECTION
  2
BLOCKS
  0
BLOCK
  5
20
330
1F
100
AcDbEntity
  8
0
100
AcDbBlockBegin
  2
*Model_Space
 70
     0
 10
0.0
 20
0.0
 30
0.0
  3
*Model_Space
  1

  0
ENDBLK
  5
21
330
1F
100
AcDbEntity
  8
0
100
AcDbBlockEnd
  0
BLOCK
  5
1C
330
1B
100
AcDbEntity
 67
     1
  8
0
100
AcDbBlockBegin
  2
*Paper_Space
 70
     0
 10
0.0
 20
0.0
 30
0.0
  3
*Paper_Space
  1

  0
ENDBLK
  5
1D
330
1B
100
AcDbEntity
 67
     1
  8
0
100
AcDbBlockEnd
  0
BLOCK
  5
24
330
23
100
AcDbEntity
  8
0
100
AcDbBlockBegin
  2
*Paper_Space0
 70
     0
 10
0.0
 20
0.0
 30
0.0
  3
*Paper_Space0
  1

  0
ENDBLK
  5
25
330
23
100
AcDbEntity
  8
0
100
AcDbBlockEnd
  0
BLOCK
  5
1AA
330
1A9
100
AcDbEntity
  8
0
100
AcDbBlockBegin
  2
*D1
 70
     1
 10
0.0
 20
0.0
 30
0.0
  3
*D1
  1

  0
SOLID
  5
1AC
330
1A9
100
AcDbEntity
  8
VERMASSUNG
100
AcDbTrace
 10
58.4570964247
 20
162.5422535211
 30
0.0
 11
58.0070964247
 21
159.5422535211
 31
0.0
 12
58.9070964247
 22
159.5422535211
 32
0.0
 13
58.9070964247
 23
159.5422535211
 33
0.0
  0
SOLID
  5
1AD
330
1A9
100
AcDbEntity
  8
VERMASSUNG
100
AcDbTrace
 10
58.4570964247
 20
62.5422535211
 30
0.0
 11
58.9070964247
 21
65.5422535211
 31
0.0
 12
58.0070964247
 22
65.5422535211
 32
0.0
 13
58.0070964247
 23
65.5422535211
 33
0.0
  0
LINE
  5
1AE
330
1A9
100
AcDbEntity
  8
VERMASSUNG
100
AcDbLine
 10
113.7171427976
 20
162.5422535211
 30
0.0
 11
57.4570964247
 21
162.5422535211
 31
0.0
  0
LINE
  5
1AF
330
1A9
100
AcDbEntity
  8
VERMASSUNG
100
AcDbLine
 10
113.7171427976
 20
62.5422535211
 30
0.0
 11
57.4570964247
 21
62.5422535211
 31
0.0
  0
LINE
  5
1B0
330
1A9
100
AcDbEntity
  8
VERMASSUNG
100
AcDbLine
 10
58.4570964247
 20
162.5422535211
 30
0.0
 11
58.4570964247
 21
62.5422535211
 31
0.0
  0
MTEXT
  5
1B1
330
1A9
100
AcDbEntity
  8
VERMASSUNG
100
AcDbMText
 10
55.6789609357
 20
104.3386023835
 30
0.0
 40
2.0
 41
0.0
 71
     1
 72
     1
  1
HSK A 
  7
SLDTEXTSTYLE0
 11
-7.044195017643634E-15
 21
1.0
 31
0.0
 73
     1
 44
1.0
  0
MTEXT
  5
1B2
330
1A9
100
AcDbEntity
  8
VERMASSUNG
100
AcDbMText
 10
55.8789609452
 20
113.3386029274
 30
0.0
 40
2.0
 41
0.0
 71
     1
 72
     1
  1
%%c
  7
SLDTEXTSTYLE0
 11
-7.044195017643634E-15
 21
1.0
 31
0.0
 73
     1
 44
1.0
  0
MTEXT
  5
1B3
330
1A9
100
AcDbEntity
  8
VERMASSUNG
100
AcDbMText
 10
55.8789610616
 20
116.9469295775
 30
0.0
 40
2.0
 41
0.0
 71
     1
 72
     1
  1
100
  7
SLDTEXTSTYLE0
 11
-7.044195017643634E-15
 21
1.0
 31
0.0
 73
     1
 44
1.0
  0
ENDBLK
  5
1AB
330
1A9
100
AcDbEntity
  8
0
100
AcDbBlockEnd
  0
BLOCK
  5
1B7
330
1B6
100
AcDbEntity
  8
0
100
AcDbBlockBegin
  2
*D2
 70
     1
 10
0.0
 20
0.0
 30
0.0
  3
*D2
  1

  0
SOLID
  5
1B9
330
1B6
100
AcDbEntity
  8
VERMASSUNG
100
AcDbTrace
 10
170.7171427976
 20
160.5422535211
 30
0.0
 11
173.7171427976
 21
160.0922535211
 31
0.0
 12
173.7171427976
 22
160.9922535211
 32
0.0
 13
173.7171427976
 23
160.9922535211
 33
0.0
  0
SOLID
  5
1BA
330
1B6
100
AcDbEntity
  8
VERMASSUNG
100
AcDbTrace
 10
228.2171427976
 20
160.5422535211
 30
0.0
 11
225.2171427976
 21
160.9922535211
 31
0.0
 12
225.2171427976
 22
160.0922535211
 32
0.0
 13
225.2171427976
 23
160.0922535211
 33
0.0
  0
LINE
  5
1BB
330
1B6
100
AcDbEntity
  8
VERMASSUNG
100
AcDbLine
 10
170.7171427976
 20
124.9422535211
 30
0.0
 11
170.7171427976
 21
161.5422535211
 31
0.0
  0
LINE
  5
1BC
330
1B6
100
AcDbEntity
  8
VERMASSUNG
100
AcDbLine
 10
228.2171427976
 20
132.231277292
 30
0.0
 11
228.2171427976
 21
161.5422535211
 31
0.0
  0
LINE
  5
1BD
330
1B6
100
AcDbEntity
  8
VERMASSUNG
100
AcDbLine
 10
170.7171427976
 20
160.5422535211
 30
0.0
 11
228.2171427976
 21
160.5422535211
 31
0.0
  0
MTEXT
  5
1BE
330
1B6
100
AcDbEntity
  8
VERMASSUNG
100
AcDbMText
 10
197.0675458312
 20
163.1203888843
 30
0.0
 40
2.0
 41
0.0
 71
     1
 72
     1
  1
57.5
  7
SLDTEXTSTYLE0
 73
     1
 44
1.0
  0
ENDBLK
  5
1B8
330
1B6
100
AcDbEntity
  8
0
100
AcDbBlockEnd
  0
BLOCK
  5
1C2
330
1C1
100
AcDbEntity
  8
0
100
AcDbBlockBegin
  2
*D3
 70
     1
 10
0.0
 20
0.0
 30
0.0
  3
*D3
  1

  0
SOLID
  5
1C4
330
1C1
100
AcDbEntity
  8
VERMASSUNG
100
AcDbTrace
 10
238.3636624247
 20
100.0422535211
 30
0.0
 11
238.8136624247
 21
103.0422535211
 31
0.0
 12
237.9136624247
 22
103.0422535211
 32
0.0
 13
237.9136624247
 23
103.0422535211
 33
0.0
  0
SOLID
  5
1C5
330
1C1
100
AcDbEntity
  8
VERMASSUNG
100
AcDbTrace
 10
238.3636624247
 20
125.0422535211
 30
0.0
 11
237.9136624247
 21
122.0422535211
 31
0.0
 12
238.8136624247
 22
122.0422535211
 32
0.0
 13
238.8136624247
 23
122.0422535211
 33
0.0
  0
LINE
  5
1C6
330
1C1
100
AcDbEntity
  8
VERMASSUNG
100
AcDbLine
 10
224.7171427976
 20
100.0422535211
 30
0.0
 11
239.3636624247
 21
100.0422535211
 31
0.0
  0
LINE
  5
1C7
330
1C1
100
AcDbEntity
  8
VERMASSUNG
100
AcDbLine
 10
224.7171427976
 20
125.0422535211
 30
0.0
 11
239.3636624247
 21
125.0422535211
 31
0.0
  0
LINE
  5
1C8
330
1C1
100
AcDbEntity
  8
VERMASSUNG
100
AcDbLine
 10
238.3636624247
 20
100.0422535211
 30
0.0
 11
238.3636624247
 21
125.0422535211
 31
0.0
  0
MTEXT
  5
1C9
330
1C1
100
AcDbEntity
  8
VERMASSUNG
100
AcDbMText
 10
235.7855269452
 20
109.3385362947
 30
0.0
 40
2.0
 41
0.0
 71
     1
 72
     1
  1
%%c
  7
SLDTEXTSTYLE0
 11
6.123233995736766E-17
 21
1.0
 31
0.0
 73
     1
 44
1.0
  0
MTEXT
  5
1CA
330
1C1
100
AcDbEntity
  8
VERMASSUNG
100
AcDbMText
 10
235.7855270616
 20
112.9472145179
 30
0.0
 40
2.0
 41
0.0
 71
     1
 72
     1
  1
25
  7
SLDTEXTSTYLE0
 11
6.123233995736766E-17
 21
1.0
 31
0.0
 73
     1
 44
1.0
  0
ENDBLK
  5
1C3
330
1C1
100
AcDbEntity
  8
0
100
AcDbBlockEnd
  0
BLOCK
  5
1CD
330
1CC
100
AcDbEntity
  8
0
100
AcDbBlockBegin
  2
*D4
 70
     1
 10
0.0
 20
0.0
 30
0.0
  3
*D4
  1

  0
SOLID
  5
1CF
330
1CC
100
AcDbEntity
  8
VERMASSUNG
100
AcDbTrace
 10
244.3636624247
 20
90.5422535211
 30
0.0
 11
244.8136624247
 21
93.5422535211
 31
0.0
 12
243.9136624247
 22
93.5422535211
 32
0.0
 13
243.9136624247
 23
93.5422535211
 33
0.0
  0
SOLID
  5
1D0
330
1CC
100
AcDbEntity
  8
VERMASSUNG
100
AcDbTrace
 10
244.3636624247
 20
134.5422535211
 30
0.0
 11
243.9136624247
 21
131.5422535211
 31
0.0
 12
244.8136624247
 22
131.5422535211
 32
0.0
 13
244.8136624247
 23
131.5422535211
 33
0.0
  0
LINE
  5
1D1
330
1CC
100
AcDbEntity
  8
VERMASSUNG
100
AcDbLine
 10
228.2171427976
 20
90.5422535211
 30
0.0
 11
245.3636624247
 21
90.5422535211
 31
0.0
  0
LINE
  5
1D2
330
1CC
100
AcDbEntity
  8
VERMASSUNG
100
AcDbLine
 10
228.2171427976
 20
134.5422535211
 30
0.0
 11
245.3636624247
 21
134.5422535211
 31
0.0
  0
LINE
  5
1D3
330
1CC
100
AcDbEntity
  8
VERMASSUNG
100
AcDbLine
 10
244.3636624247
 20
90.5422535211
 30
0.0
 11
244.3636624247
 21
134.5422535211
 31
0.0
  0
MTEXT
  5
1D4
330
1CC
100
AcDbEntity
  8
VERMASSUNG
100
AcDbMText
 10
241.7855269452
 20
109.1389566631
 30
0.0
 40
2.0
 41
0.0
 71
     1
 72
     1
  1
%%c
  7
SLDTEXTSTYLE0
 11
6.123233995736766E-17
 21
1.0
 31
0.0
 73
     1
 44
1.0
  0
MTEXT
  5
1D5
330
1CC
100
AcDbEntity
  8
VERMASSUNG
100
AcDbMText
 10
241.7855270616
 20
112.7476348862
 30
0.0
 40
2.0
 41
0.0
 71
     1
 72
     1
  1
44
  7
SLDTEXTSTYLE0
 11
6.123233995736766E-17
 21
1.0
 31
0.0
 73
     1
 44
1.0
  0
ENDBLK
  5
1CE
330
1CC
100
AcDbEntity
  8
0
100
AcDbBlockEnd
  0
BLOCK
  5
1D8
330
1D7
100
AcDbEntity
  8
0
100
AcDbBlockBegin
  2
*D5
 70
     1
 10
0.0
 20
0.0
 30
0.0
  3
*D5
  1

  0
SOLID
  5
1DA
330
1D7
100
AcDbEntity
  8
VERMASSUNG
100
AcDbTrace
 10
250.3636624247
 20
86.0422535211
 30
0.0
 11
250.8136624247
 21
89.0422535211
 31
0.0
 12
249.9136624247
 22
89.0422535211
 32
0.0
 13
249.9136624247
 23
89.0422535211
 33
0.0
  0
SOLID
  5
1DB
330
1D7
100
AcDbEntity
  8
VERMASSUNG
100
AcDbTrace
 10
250.3636624247
 20
139.0422535211
 30
0.0
 11
249.9136624247
 21
136.0422535211
 31
0.0
 12
250.8136624247
 22
136.0422535211
 32
0.0
 13
250.8136624247
 23
136.0422535211
 33
0.0
  0
LINE
  5
1DC
330
1D7
100
AcDbEntity
  8
VERMASSUNG
100
AcDbLine
 10
161.7171427976
 20
86.0422535211
 30
0.0
 11
251.3636624247
 21
86.0422535211
 31
0.0
  0
LINE
  5
1DD
330
1D7
100
AcDbEntity
  8
VERMASSUNG
100
AcDbLine
 10
161.7171427976
 20
139.0422535211
 30
0.0
 11
251.3636624247
 21
139.0422535211
 31
0.0
  0
LINE
  5
1DE
330
1D7
100
AcDbEntity
  8
VERMASSUNG
100
AcDbLine
 10
250.3636624247
 20
86.0422535211
 30
0.0
 11
250.3636624247
 21
139.0422535211
 31
0.0
  0
MTEXT
  5
1DF
330
1D7
100
AcDbEntity
  8
VERMASSUNG
100
AcDbMText
 10
247.7855269452
 20
109.3385362947
 30
0.0
 40
2.0
 41
0.0
 71
     1
 72
     1
  1
%%c
  7
SLDTEXTSTYLE0
 11
6.123233995736766E-17
 21
1.0
 31
0.0
 73
     1
 44
1.0
  0
MTEXT
  5
1E0
330
1D7
100
AcDbEntity
  8
VERMASSUNG
100
AcDbMText
 10
247.7855270616
 20
112.9472145179
 30
0.0
 40
2.0
 41
0.0
 71
     1
 72
     1
  1
53
  7
SLDTEXTSTYLE0
 11
6.123233995736766E-17
 21
1.0
 31
0.0
 73
     1
 44
1.0
  0
ENDBLK
  5
1D9
330
1D7
100
AcDbEntity
  8
0
100
AcDbBlockEnd
  0
BLOCK
  5
1E3
330
1E2
100
AcDbEntity
  8
0
100
AcDbBlockBegin
  2
*D6
 70
     1
 10
0.0
 20
0.0
 30
0.0
  3
*D6
  1

  0
SOLID
  5
1E5
330
1E2
100
AcDbEntity
  8
VERMASSUNG
100
AcDbTrace
 10
113.2171427976
 20
172.5422535211
 30
0.0
 11
116.2171427976
 21
172.0922535211
 31
0.0
 12
116.2171427976
 22
172.9922535211
 32
0.0
 13
116.2171427976
 23
172.9922535211
 33
0.0
  0
SOLID
  5
1E6
330
1E2
100
AcDbEntity
  8
VERMASSUNG
100
AcDbTrace
 10
228.2171427976
 20
172.5422535211
 30
0.0
 11
225.2171427976
 21
172.9922535211
 31
0.0
 12
225.2171427976
 22
172.0922535211
 32
0.0
 13
225.2171427976
 23
172.0922535211
 33
0.0
  0
LINE
  5
1E7
330
1E2
100
AcDbEntity
  8
VERMASSUNG
100
AcDbLine
 10
113.2171427976
 20
162.0422535211
 30
0.0
 11
113.2171427976
 21
173.5422535211
 31
0.0
  0
LINE
  5
1E8
330
1E2
100
AcDbEntity
  8
VERMASSUNG
100
AcDbLine
 10
228.2171427976
 20
132.231277292
 30
0.0
 11
228.2171427976
 21
173.5422535211
 31
0.0
  0
LINE
  5
1E9
330
1E2
100
AcDbEntity
  8
VERMASSUNG
100
AcDbLine
 10
113.2171427976
 20
172.5422535211
 30
0.0
 11
228.2171427976
 21
172.5422535211
 31
0.0
  0
MTEXT
  5
1EA
330
1E2
100
AcDbEntity
  8
VERMASSUNG
100
AcDbMText
 10
169.0172348886
 20
175.1203888843
 30
0.0
 40
2.0
 41
0.0
 71
     1
 72
     1
  1
115
  7
SLDTEXTSTYLE0
 73
     1
 44
1.0
  0
ENDBLK
  5
1E4
330
1E2
100
AcDbEntity
  8
0
100
AcDbBlockEnd
  0
BLOCK
  5
1ED
330
1EC
100
AcDbEntity
  8
0
100
AcDbBlockBegin
  2
*D7
 70
     1
 10
0.0
 20
0.0
 30
0.0
  3
*D7
  1

  0
SOLID
  5
1EF
330
1EC
100
AcDbEntity
  8
VERMASSUNG
100
AcDbTrace
 10
142.1671427976
 20
166.5422535211
 30
0.0
 11
145.1671427976
 21
166.0922535211
 31
0.0
 12
145.1671427976
 22
166.9922535211
 32
0.0
 13
145.1671427976
 23
166.9922535211
 33
0.0
  0
SOLID
  5
1F0
330
1EC
100
AcDbEntity
  8
VERMASSUNG
100
AcDbTrace
 10
228.2171427976
 20
166.5422535211
 30
0.0
 11
225.2171427976
 21
166.9922535211
 31
0.0
 12
225.2171427976
 22
166.0922535211
 32
0.0
 13
225.2171427976
 23
166.0922535211
 33
0.0
  0
LINE
  5
1F1
330
1EC
100
AcDbEntity
  8
VERMASSUNG
100
AcDbLine
 10
142.1671427976
 20
160.510993342
 30
0.0
 11
142.1671427976
 21
167.5422535211
 31
0.0
  0
LINE
  5
1F2
330
1EC
100
AcDbEntity
  8
VERMASSUNG
100
AcDbLine
 10
228.2171427976
 20
132.231277292
 30
0.0
 11
228.2171427976
 21
167.5422535211
 31
0.0
  0
LINE
  5
1F3
330
1EC
100
AcDbEntity
  8
VERMASSUNG
100
AcDbLine
 10
142.1671427976
 20
166.5422535211
 30
0.0
 11
228.2171427976
 21
166.5422535211
 31
0.0
  0
MTEXT
  5
1F4
330
1EC
100
AcDbEntity
  8
VERMASSUNG
100
AcDbMText
 10
182.0928567738
 20
169.1203888843
 30
0.0
 40
2.0
 41
0.0
 71
     1
 72
     1
  1
86.05
  7
SLDTEXTSTYLE0
 73
     1
 44
1.0
  0
ENDBLK
  5
1EE
330
1EC
100
AcDbEntity
  8
0
100
AcDbBlockEnd
  0
BLOCK
  5
1F7
330
1F6
100
AcDbEntity
  8
0
100
AcDbBlockBegin
  2
*D8
 70
     1
 10
0.0
 20
0.0
 30
0.0
  3
*D8
  1

  0
SOLID
  5
1F9
330
1F6
100
AcDbEntity
  8
VERMASSUNG
100
AcDbTrace
 10
63.3171427976
 20
178.5422535211
 30
0.0
 11
66.3171427976
 21
178.0922535211
 31
0.0
 12
66.3171427976
 22
178.9922535211
 32
0.0
 13
66.3171427976
 23
178.9922535211
 33
0.0
  0
SOLID
  5
1FA
330
1F6
100
AcDbEntity
  8
VERMASSUNG
100
AcDbTrace
 10
228.2171427976
 20
178.5422535211
 30
0.0
 11
225.2171427976
 21
178.9922535211
 31
0.0
 12
225.2171427976
 22
178.0922535211
 32
0.0
 13
225.2171427976
 23
178.0922535211
 33
0.0
  0
LINE
  5
1FB
330
1F6
100
AcDbEntity
  8
VERMASSUNG
100
AcDbLine
 10
63.3171427976
 20
143.0449232637
 30
0.0
 11
63.3171427976
 21
179.5422535211
 31
0.0
  0
LINE
  5
1FC
330
1F6
100
AcDbEntity
  8
VERMASSUNG
100
AcDbLine
 10
228.2171427976
 20
132.231277292
 30
0.0
 11
228.2171427976
 21
179.5422535211
 31
0.0
  0
LINE
  5
1FD
330
1F6
100
AcDbEntity
  8
VERMASSUNG
100
AcDbLine
 10
63.3171427976
 20
178.5422535211
 30
0.0
 11
228.2171427976
 21
178.5422535211
 31
0.0
  0
MTEXT
  5
1FE
330
1F6
100
AcDbEntity
  8
VERMASSUNG
100
AcDbMText
 10
142.7676465896
 20
181.1203888843
 30
0.0
 40
2.0
 41
0.0
 71
     1
 72
     1
  1
164.9
  7
SLDTEXTSTYLE0
 73
     1
 44
1.0
  0
ENDBLK
  5
1F8
330
1F6
100
AcDbEntity
  8
0
100
AcDbBlockEnd
  0
ENDSEC
  0
SECTION
  2
ENTITIES
  0
MTEXT
  5
45
330
1F
100
AcDbEntity
  8
KOPF_DÜNN
100
AcDbMText
 10
13.8892156294
 20
23.8442973028
 30
0.0
 40
3.0
 41
0.0
 71
     1
 72
     1
  1
HA0.S25.K21.115
  7
SLDTEXTSTYLE0
 73
     1
 44
1.0
  0
MTEXT
  5
46
330
1F
100
AcDbEntity
  8
VERMASSUNG
100
AcDbMText
 10
13.9329988022
 20
28.8834360957
 30
0.0
 40
3.0
 41
0.0
 71
     1
 72
     1
  1
Schrumpffutter_Heat shrink chuck
  7
SLDTEXTSTYLE0
 73
     1
 44
1.0
  0
MTEXT
  5
47
330
1F
100
AcDbEntity
  8
VERMASSUNG
100
AcDbMText
 10
98.8601118557
 20
13.8365368179
 30
0.0
 40
2.0
 41
0.0
 71
     1
 72
     1
  1
Datum: 02.05.2011
  7
SLDTEXTSTYLE0
 73
     1
 44
1.0
  0
MTEXT
  5
49
330
1F
100
AcDbEntity
  8
VERMASSUNG
100
AcDbMText
 10
13.933048693
 20
18.0482802738
 30
0.0
 40
2.0
 41
0.0
 71
     1
 72
     1
  1
DIN 69 893 HSK A 100
  7
SLDTEXTSTYLE1
 73
     1
 44
1.0
  0
MTEXT
  5
4A
330
1F
100
AcDbEntity
  8
VERMASSUNG
100
AcDbMText
 10
13.9808475933
 20
13.9090973692
 30
0.0
 40
2.0
 41
0.0
 71
     1
 72
     1
  1
Gewicht: 3071g
  7
SLDTEXTSTYLE0
 73
     1
 44
1.0
  0
LINE
  5
4B
330
1F
100
AcDbEntity
  8
0
  6
Continuous
 62
     7
370
    15
100
AcDbLine
 10
113.7171427976
 20
62.5422535211
 30
0.0
 11
118.1671427976
 21
62.5422535211
 31
0.0
  0
LINE
  5
4C
330
1F
100
AcDbEntity
  8
0
  6
Continuous
 62
     7
370
    15
100
AcDbLine
 10
118.1825207691
 20
162.5422535211
 30
0.0
 11
113.7171427976
 21
162.5422535211
 31
0.0
  0
ARC
  5
4D
330
1F
100
AcDbEntity
  8
0
  6
Continuous
 62
     7
370
    15
100
AcDbCircle
 10
113.7171427976
 20
63.0422535211
 30
0.0
 40
0.5
100
AcDbArc
 50
180.0
 51
270.0
  0
ARC
  5
4E
330
1F
100
AcDbEntity
  8
0
  6
Continuous
 62
     7
370
    15
100
AcDbCircle
 10
113.7171427976
 20
162.0422535211
 30
0.0
 40
0.5
100
AcDbArc
 50
90.0
 51
180.0
  0
ARC
  5
4F
330
1F
100
AcDbEntity
  8
0
  6
Continuous
 62
     7
370
    15
100
AcDbCircle
 10
112.3202058791
 20
73.9137681967
 30
0.0
 40
0.9962338214386932
100
AcDbArc
 50
25.7988228126
 51
90.0
  0
ARC
  5
50
330
1F
100
AcDbEntity
  8
0
  6
Continuous
 62
     7
370
    15
100
AcDbCircle
 10
112.3202058791
 20
151.1707388456
 30
0.0
 40
0.9962338214386665
100
AcDbArc
 50
270.0
 51
334.2011771874
  0
LINE
  5
51
330
1F
100
AcDbEntity
  8
0
  6
Continuous
 62
     7
370
    15
100
AcDbLine
 10
91.736463879
 20
149.4735692066
 30
0.0
 11
73.4171427976
 21
148.5557675492
 31
0.0
  0
LINE
  5
52
330
1F
100
AcDbEntity
  8
0
  6
Continuous
 62
     7
370
    15
100
AcDbLine
 10
110.7171427976
 20
150.4245050241
 30
0.0
 11
104.6491036431
 21
150.1204950465
 31
0.0
  0
LINE
  5
53
330
1F
100
AcDbEntity
  8
0
  6
Continuous
 62
     7
370
    15
100
AcDbLine
 10
104.6492269196
 20
74.9640058196
 30
0.0
 11
110.7171427976
 21
74.6600020181
 31
0.0
  0
LINE
  5
54
330
1F
100
AcDbEntity
  8
0
  6
Continuous
 62
     7
370
    15
100
AcDbLine
 10
78.4171427976
 20
76.2782384911
 30
0.0
 11
91.7370939515
 21
75.6109062689
 31
0.0
  0
LINE
  5
55
330
1F
100
AcDbEntity
  8
0
  6
Continuous
 62
     7
370
    15
100
AcDbLine
 10
110.7171427976
 20
74.6600020181
 30
0.0
 11
111.522988952
 21
74.8759278444
 31
0.0
  0
LINE
  5
56
330
1F
100
AcDbEntity
  8
0
  6
Continuous
 62
     7
370
    15
100
AcDbLine
 10
111.522988952
 20
150.2085791978
 30
0.0
 11
110.7171427976
 21
150.4245050241
 31
0.0
  0
ARC
  5
57
330
1F
100
AcDbEntity
  8
0
  6
Continuous
 62
     7
370
    15
100
AcDbCircle
 10
111.7818079971
 20
73.9100020181
 30
0.0
 40
1.0
100
AcDbArc
 50
90.0
 51
105.0
  0
ARC
  5
58
330
1F
100
AcDbEntity
  8
0
  6
Continuous
 62
     7
370
    15
100
AcDbCircle
 10
111.7818079971
 20
151.1745050241
 30
0.0
 40
1.0
100
AcDbArc
 50
255.0
 51
270.0
  0
LINE
  5
59
330
1F
100
AcDbEntity
  8
0
  6
Continuous
 62
     7
370
    15
100
AcDbLine
 10
111.7818079971
 20
74.9100020181
 30
0.0
 11
112.3202058791
 21
74.9100020181
 31
0.0
  0
LINE
  5
5A
330
1F
100
AcDbEntity
  8
0
  6
Continuous
 62
     7
370
    15
100
AcDbLine
 10
112.3202058791
 20
150.1745050241
 30
0.0
 11
111.7818079971
 21
150.1745050241
 31
0.0
  0
ARC
  5
5B
330
1F
100
AcDbEntity
  8
0
  6
Continuous
 62
     7
370
    15
100
AcDbCircle
 10
147.1671427976
 20
81.0422535211
 30
0.0
 40
5.0
100
AcDbArc
 50
90.0
 51
180.0
  0
ARC
  5
5C
330
1F
100
AcDbEntity
  8
0
  6
Continuous
 62
     7
370
    15
100
AcDbCircle
 10
147.1671427976
 20
144.0422535211
 30
0.0
 40
5.0
100
AcDbArc
 50
180.0
 51
270.0
  0
LINE
  5
5D
330
1F
100
AcDbEntity
  8
0
  6
Continuous
 62
     7
370
    15
100
AcDbLine
 10
171.0392214848
 20
86.0422535211
 30
0.0
 11
225.9132905369
 21
90.3609364159
 31
0.0
  0
LINE
  5
5E
330
1F
100
AcDbEntity
  8
0
  6
Continuous
 62
     7
370
    15
100
AcDbLine
 10
225.9132905369
 20
134.7235706263
 30
0.0
 11
171.0392214848
 21
139.0422535211
 31
0.0
  0
LINE
  5
5F
330
1F
100
AcDbEntity
  8
0
  6
Continuous
 62
     7
370
    15
100
AcDbLine
 10
158.6552272282
 20
86.0422535211
 30
0.0
 11
171.0392214848
 21
86.0422535211
 31
0.0
  0
LINE
  5
60
330
1F
100
AcDbEntity
  8
0
  6
Continuous
 62
     7
370
    15
100
AcDbLine
 10
147.1671427976
 20
86.0422535211
 30
0.0
 11
151.669810604
 21
86.0422535211
 31
0.0
  0
LINE
  5
61
330
1F
100
AcDbEntity
  8
0
  6
Continuous
 62
     7
370
    15
100
AcDbLine
 10
151.6782386213
 20
139.0422535211
 30
0.0
 11
147.1671427976
 21
139.0422535211
 31
0.0
  0
LINE
  5
62
330
1F
100
AcDbEntity
  8
0
  6
Continuous
 62
     7
370
    15
100
AcDbLine
 10
171.0392214848
 20
139.0422535211
 30
0.0
 11
158.6651420429
 21
139.0422535211
 31
0.0
  0
ARC
  5
63
330
1F
100
AcDbEntity
  8
0
  6
Continuous
 62
     7
370
    15
100
AcDbCircle
 10
225.7171427976
 20
92.8532297503
 30
0.0
 40
2.5
100
AcDbArc
 50
274.5
 51
0.0
  0
ARC
  5
64
330
1F
100
AcDbEntity
  8
0
  6
Continuous
 62
     7
370
    15
100
AcDbCircle
 10
225.7171427976
 20
132.231277292
 30
0.0
 40
2.5
100
AcDbArc
 50
0.0
 51
85.5
  0
LINE
  5
65
330
1F
100
AcDbEntity
  8
0
  6
Continuous
 62
     7
370
    15
100
AcDbLine
 10
64.9671427976
 20
80.2922535211
 30
0.0
 11
76.5171427976
 21
80.2922535211
 31
0.0
  0
ARC
  5
66
330
1F
100
AcDbEntity
  8
0
  6
Continuous
 62
     7
370
    15
100
AcDbCircle
 10
76.5171427976
 20
78.3922535211
 30
0.0
 40
1.899999999999996
100
AcDbArc
 50
35.6630613694
 51
90.0
  0
ARC
  5
67
330
1F
100
AcDbEntity
  8
0
  6
Continuous
 62
     7
370
    15
100
AcDbCircle
 10
71.5171427976
 20
146.6922535211
 30
0.0
 40
1.900000000000034
100
AcDbArc
 50
270.0
 51
312.7708047792
  0
LINE
  5
68
330
1F
100
AcDbEntity
  8
0
  6
Continuous
 62
     7
370
    15
100
AcDbLine
 10
64.9671427976
 20
144.7922535211
 30
0.0
 11
63.3748563327
 21
143.1999670562
 31
0.0
  0
LINE
  5
69
330
1F
100
AcDbEntity
  8
0
  6
Continuous
 62
     7
370
    15
100
AcDbLine
 10
63.374665698
 20
81.8847306207
 30
0.0
 11
64.9671427976
 21
80.2922535211
 31
0.0
  0
LINE
  5
6A
330
1F
100
AcDbEntity
  8
0
  6
Continuous
 62
     7
370
    15
100
AcDbLine
 10
71.5171427976
 20
144.7922535211
 30
0.0
 11
64.9671427976
 21
144.7922535211
 31
0.0
  0
LINE
  5
6B
330
1F
100
AcDbEntity
  8
0
  6
Continuous
 62
     7
370
    15
100
AcDbLine
 10
228.2410912852
 20
131.1525547918
 30
0.0
 11
228.2171427976
 21
131.1980733797
 31
0.0
  0
LINE
  5
6C
330
1F
100
AcDbEntity
  8
0
  6
Continuous
 62
     7
370
    15
100
AcDbLine
 10
228.2171427976
 20
93.7402774354
 30
0.0
 11
228.3196109167
 21
93.9350372951
 31
0.0
  0
SPLINE
  5
6D
330
1F
100
AcDbEntity
  8
0
  6
Continuous
 62
     7
370
    15
100
AcDbSpline
210
0.0
220
0.0
230
1.0
 70
     8
 71
     3
 72
    80
 73
    76
 74
     0
 42
0.00000001
 43
0.00000001
 40
-0.0312500000000001
 40
-0.0312500000000001
 40
0.0
 40
0.0
 40
0.0312499999999995
 40
0.0312499999999995
 40
0.0468749999999993
 40
0.0468749999999993
 40
0.0624999999999991
 40
0.0624999999999991
 40
0.0937499999999988
 40
0.0937499999999988
 40
0.1249999999999986
 40
0.1249999999999986
 40
0.1562499999999983
 40
0.1562499999999983
 40
0.1874999999999981
 40
0.1874999999999981
 40
0.2187499999999978
 40
0.2187499999999978
 40
0.2499999999999976
 40
0.2499999999999976
 40
0.2812499999999973
 40
0.2812499999999973
 40
0.3124999999999971
 40
0.3124999999999971
 40
0.3281249999999971
 40
0.3281249999999971
 40
0.3437499999999971
 40
0.3437499999999971
 40
0.3749999999999973
 40
0.3749999999999973
 40
0.4062499999999975
 40
0.4062499999999975
 40
0.4218749999999975
 40
0.4218749999999975
 40
0.4374999999999974
 40
0.4374999999999974
 40
0.4687499999999973
 40
0.4687499999999973
 40
0.4999999999999972
 40
0.4999999999999972
 40
0.531249999999997
 40
0.531249999999997
 40
0.562499999999997
 40
0.562499999999997
 40
0.5937499999999969
 40
0.5937499999999969
 40
0.6249999999999969
 40
0.6249999999999969
 40
0.6562499999999968
 40
0.6562499999999968
 40
0.6874999999999968
 40
0.6874999999999968
 40
0.7031249999999968
 40
0.7031249999999968
 40
0.7187499999999969
 40
0.7187499999999969
 40
0.7499999999999973
 40
0.7499999999999973
 40
0.7812499999999979
 40
0.7812499999999979
 40
0.7968749999999982
 40
0.7968749999999982
 40
0.8124999999999984
 40
0.8124999999999984
 40
0.8437499999999988
 40
0.8437499999999988
 40
0.874999999999999
 40
0.874999999999999
 40
0.9062499999999993
 40
0.9062499999999993
 40
0.9374999999999996
 40
0.9374999999999996
 40
0.9687499999999999
 40
0.9687499999999999
 40
1.0
 40
1.0
 40
1.03125
 40
1.03125
 10
121.886597484816
 20
155.9568829847581
 30
0.0
 10
122.5476881103686
 20
155.9568829847581
 30
0.0
 10
122.8726682396202
 20
155.9730912161403
 30
0.0
 10
123.3521416508666
 20
156.0204558481599
 30
0.0
 10
123.5106234687075
 20
156.0401100600505
 30
0.0
 10
123.8248430012117
 20
156.0872212162431
 30
0.0
 10
123.9809632848921
 20
156.1148025357378
 30
0.0
 10
124.4350173138487
 20
156.2073383225316
 30
0.0
 10
124.7221206967885
 20
156.2824087561281
 30
0.0
 10
125.2654752528156
 20
156.4576470647387
 30
0.0
 10
125.5225788640211
 20
156.558648362577
 30
0.0
 10
125.9834851189599
 20
156.7760045610378
 30
0.0
 10
126.1903828281749
 20
156.8931688928101
 30
0.0
 10
126.5559081421671
 20
157.1432388170387
 30
0.0
 10
126.7111136642931
 20
157.2741849057977
 30
0.0
 10
126.9605440508927
 20
157.5399198495101
 30
0.0
 10
127.0566340066779
 20
157.676673442821
 30
0.0
 10
127.1851528558715
 20
157.95073901766
 30
0.0
 10
127.2169637260493
 20
158.0856791081288
 30
0.0
 10
127.2173203758226
 20
158.3511507451976
 30
0.0
 10
127.1848231236255
 20
158.4829752223388
 30
0.0
 10
127.057197649911
 20
158.7324248219592
 30
0.0
 10
126.9627692488591
 20
158.8508575138872
 30
0.0
 10
126.7749084288736
 20
159.0197267109813
 30
0.0
 10
126.7040804300704
 20
159.0748127061015
 30
0.0
 10
126.5493585381051
 20
159.1800655345899
 30
0.0
 10
126.4653820679217
 20
159.2304007633502
 30
0.0
 10
126.1940583982772
 20
159.3749765958883
 30
0.0
 10
125.9875091796749
 20
159.4628381823053
 30
0.0
 10
125.5208990394859
 20
159.6225592753048
 30
0.0
 10
125.2685334698604
 20
159.691797571772
 30
0.0
 10
124.8626321281817
 20
159.7815849610018
 30
0.0
 10
124.7227315107042
 20
159.8091509230881
 30
0.0
 10
124.4335075754573
 20
159.8596417240144
 30
0.0
 10
124.2836681191681
 20
159.8826051628651
 30
0.0
 10
123.8295515495573
 20
159.9432356792839
 30
0.0
 10
123.5179003308204
 20
159.9733097080797
 30
0.0
 10
122.876903865908
 20
160.0138992953384
 30
0.0
 10
122.5453762379558
 20
160.0242115255544
 30
0.0
 10
121.8925851928844
 20
160.0242870927202
 30
0.0
 10
121.5680489878525
 20
160.0143854872524
 30
0.0
 10
120.9227795384361
 20
159.9738989567272
 30
0.0
 10
120.6070365322734
 20
159.9434376568425
 30
0.0
 10
120.0051472372897
 20
159.8632869854059
 30
0.0
 10
119.7143980064782
 20
159.8130047535988
 30
0.0
 10
119.1674862147937
 20
159.6923345708258
 30
0.0
 10
118.9157088509568
 20
159.6231107116558
 30
0.0
 10
118.4543208583357
 20
159.4656589840151
 30
0.0
 10
118.2430515787376
 20
159.3763105093414
 30
0.0
 10
117.8797472263614
 20
159.1830626386405
 30
0.0
 10
117.7259405779186
 20
159.0789346467613
 30
0.0
 10
117.5373211083212
 20
158.9103102605778
 30
0.0
 10
117.4812906221121
 20
158.8516818589029
 30
0.0
 10
117.3857168603759
 20
158.7322269440766
 30
0.0
 10
117.3459539433509
 20
158.6713071552384
 30
0.0
 10
117.2501821930388
 20
158.4849024290645
 30
0.0
 10
117.2174593539127
 20
158.3557896112695
 30
0.0
 10
117.2168307675836
 20
158.0871326883137
 30
0.0
 10
117.2490169123184
 20
157.9517619475569
 30
0.0
 10
117.343927614174
 20
157.7482116393209
 30
0.0
 10
117.3833943975729
 20
157.6802397152575
 30
0.0
 10
117.4783243962938
 20
157.5441474921265
 30
0.0
 10
117.5340812240572
 20
157.4757973919171
 30
0.0
 10
117.7220213420271
 20
157.275094378875
 30
0.0
 10
117.8753828117432
 20
157.1457061050623
 30
0.0
 10
118.2376470466236
 20
156.8970406730125
 30
0.0
 10
118.4484955200895
 20
156.7772310306443
 30
0.0
 10
118.9091654904084
 20
156.5597087430716
 30
0.0
 10
119.1605398699922
 20
156.4606236432357
 30
0.0
 10
119.7064477568904
 20
156.2839511693188
 30
0.0
 10
119.9972703315416
 20
156.2078940811848
 30
0.0
 10
120.5985969463216
 20
156.0850491038318
 30
0.0
 10
120.913115530934
 20
156.0373429787787
 30
0.0
 10
121.559696987054
 20
155.9730944436591
 30
0.0
 10
121.886597484816
 20
155.9568829847581
 30
0.0
 10
122.5476881103686
 20
155.9568829847581
 30
0.0
  0
LINE
  5
6E
330
1F
100
AcDbEntity
  8
0
  6
Continuous
 62
     7
370
    15
100
AcDbLine
 10
118.1671427976
 20
143.8922535211
 30
0.0
 11
129.9551137767
 21
143.8922535211
 31
0.0
  0
LINE
  5
6F
330
1F
100
AcDbEntity
  8
0
  6
Continuous
 62
     7
370
    15
100
AcDbLine
 10
129.9551137767
 20
63.7672599281
 30
0.0
 11
129.9551137767
 21
143.8922535211
 31
0.0
  0
LINE
  5
70
330
1F
100
AcDbEntity
  8
0
  6
Continuous
 62
     7
370
    15
100
AcDbLine
 10
129.9551137767
 20
63.7672599281
 30
0.0
 11
128.1671427976
 21
63.7672599281
 31
0.0
  0
SPLINE
  5
71
330
1F
100
AcDbEntity
  8
0
  6
Continuous
 62
     7
370
    15
100
AcDbSpline
210
0.0
220
0.0
230
1.0
 70
     8
 71
     3
 72
    30
 73
    26
 74
     0
 42
0.00000001
 43
0.00000001
 40
0.0
 40
0.0
 40
0.0
 40
0.0
 40
0.1250000000000002
 40
0.1250000000000002
 40
0.1875000000000003
 40
0.1875000000000003
 40
0.2500000000000004
 40
0.2500000000000004
 40
0.3750000000000001
 40
0.3750000000000001
 40
0.4374999999999998
 40
0.4374999999999998
 40
0.4999999999999996
 40
0.4999999999999996
 40
0.6249999999999996
 40
0.6249999999999996
 40
0.6874999999999997
 40
0.6874999999999997
 40
0.7499999999999997
 40
0.7499999999999997
 40
0.8124999999999998
 40
0.8124999999999998
 40
0.8749999999999999
 40
0.8749999999999999
 40
1.0
 40
1.0
 40
1.0
 40
1.0
 10
128.1671427975923
 20
63.76725992809801
 30
0.0
 10
127.5043981037472
 20
63.76725992809801
 30
0.0
 10
126.8531422446315
 20
63.7524198515092
 30
0.0
 10
125.8926917063733
 20
63.71005028727958
 30
0.0
 10
125.5753002631403
 20
63.69257218450041
 30
0.0
 10
124.9461367615854
 20
63.6512438979481
 30
0.0
 10
124.6339885751437
 20
63.62731862449039
 30
0.0
 10
123.7266812732955
 20
63.54851210802348
 30
0.0
 10
123.1532563156542
 20
63.48620608804703
 30
0.0
 10
122.3393794460795
 20
63.38307676780766
 30
0.0
 10
122.0745732495097
 20
63.34689284876116
 30
0.0
 10
121.5676658386953
 20
63.27309806456065
 30
0.0
 10
121.3262716873418
 20
63.235624205789
 30
0.0
 10
120.6371302152095
 20
63.12291226244926
 30
0.0
 10
120.2240754003453
 20
63.0473761649755
 30
0.0
 10
119.6759205809702
 20
62.93898290795799
 30
0.0
 10
119.5064579736246
 20
62.90391067629472
 30
0.0
 10
119.1984407256093
 20
62.83767521569489
 30
0.0
 10
119.0590607050009
 20
62.80634851894015
 30
0.0
 10
118.8092751923741
 20
62.74793974735923
 30
0.0
 10
118.6988690797202
 20
62.72085651217638
 30
0.0
 10
118.5076112260825
 20
62.67159675756279
 30
0.0
 10
118.4264917077982
 20
62.64933477775514
 30
0.0
 10
118.2323447876898
 20
62.59176787058687
 30
0.0
 10
118.1671427975923
 20
62.56550826580087
 30
0.0
 10
118.1671427975923
 20
62.55225452132684
 30
0.0
  0
LINE
  5
72
330
1F
100
AcDbEntity
  8
0
  6
Continuous
 62
     7
370
    15
100
AcDbLine
 10
118.1671427976
 20
62.5522545213
 30
0.0
 11
118.1671427976
 21
62.5422535211
 31
0.0
  0
SPLINE
  5
73
330
1F
100
AcDbEntity
  8
0
  6
Continuous
 62
     7
370
    15
100
AcDbSpline
210
0.0
220
0.0
230
1.0
 70
     8
 71
     3
 72
    23
 73
    19
 74
     0
 42
0.00000001
 43
0.00000001
 40
0.0
 40
0.0
 40
0.0
 40
0.0
 40
0.0520256687590417
 40
0.1044186119084699
 40
0.1579654762732603
 40
0.2119084390155455
 40
0.2639329008030786
 40
0.3697142245600881
 40
0.4235868577364621
 40
0.4762679679182533
 40
0.5833878371337101
 40
0.6379530306539528
 40
0.6910551819358521
 40
0.7445319929992287
 40
0.7992014233075218
 40
0.8542881036302091
 40
0.9066815619543741
 40
1.0
 40
1.0
 40
1.0
 40
1.0
 10
128.1671427975923
 20
161.5320483767904
 30
0.0
 10
127.8941304003973
 20
161.5333699452972
 30
0.0
 10
127.3461782792831
 20
161.5360224119029
 30
0.0
 10
126.5230319218279
 20
161.5574973003305
 30
0.0
 10
125.7017868212356
 20
161.5917150189986
 30
0.0
 10
124.9003580111275
 20
161.638766929166
 30
0.0
 10
123.8679747569845
 20
161.7157558799918
 30
0.0
 10
122.8907267423605
 20
161.8116331306523
 30
0.0
 10
121.9896797311045
 20
161.9185625784405
 30
0.0
 10
121.1407059520031
 20
162.030409386281
 30
0.0
 10
120.3831375063949
 20
162.1446379850103
 30
0.0
 10
119.7381492159454
 20
162.2512177313741
 30
0.0
 10
119.3135753427476
 20
162.3251476877753
 30
0.0
 10
118.9510186930985
 20
162.3910382458321
 30
0.0
 10
118.6498171359748
 20
162.4477345970462
 30
0.0
 10
118.4225635639401
 20
162.4916708432809
 30
0.0
 10
118.2164562667176
 20
162.5323292901089
 30
0.0
 10
118.1957693286845
 20
162.5365127294984
 30
0.0
 10
118.1825207690728
 20
162.5391919344172
 30
0.0
  0
LINE
  5
74
330
1F
100
AcDbEntity
  8
0
  6
Continuous
 62
     7
370
    15
100
AcDbLine
 10
129.9551137767
 20
161.5320483768
 30
0.0
 11
128.1671427976
 21
161.5320483768
 31
0.0
  0
LINE
  5
75
330
1F
100
AcDbEntity
  8
0
  6
Continuous
 62
     7
370
    15
100
AcDbLine
 10
129.9551137767
 20
151.493216282
 30
0.0
 11
129.9551137767
 21
161.5320483768
 31
0.0
  0
LINE
  5
76
330
1F
100
AcDbEntity
  8
0
  6
Continuous
 62
     7
370
    15
100
AcDbLine
 10
127.8751096458
 20
151.493216282
 30
0.0
 11
129.9551137767
 21
151.493216282
 31
0.0
  0
SPLINE
  5
77
330
1F
100
AcDbEntity
  8
0
  6
Continuous
 62
     7
370
    15
100
AcDbSpline
210
0.0
220
0.0
230
1.0
 70
     8
 71
     3
 72
    22
 73
    18
 74
     0
 42
0.00000001
 43
0.00000001
 40
0.0
 40
0.0
 40
0.0
 40
0.0
 40
0.2500000000000002
 40
0.2500000000000002
 40
0.3750000000000003
 40
0.3750000000000003
 40
0.5000000000000004
 40
0.5000000000000004
 40
0.6250000000000004
 40
0.6250000000000004
 40
0.7500000000000004
 40
0.7500000000000004
 40
0.8750000000000004
 40
0.8750000000000004
 40
0.9375000000000002
 40
0.9375000000000002
 40
1.0
 40
1.0
 40
1.0
 40
1.0
 10
118.1671427975923
 20
143.8922535211268
 30
0.0
 10
118.3698677535114
 20
144.9114998629914
 30
0.0
 10
118.6846114753067
 20
145.8706080129307
 30
0.0
 10
119.3926669449777
 20
147.21308709044
 30
0.0
 10
119.6711295751954
 20
147.64729567318
 30
0.0
 10
120.3098969818326
 20
148.4589233886821
 30
0.0
 10
120.6703106616228
 20
148.8382036816189
 30
0.0
 10
121.487842893612
 20
149.54116226064
 30
0.0
 10
121.9490108768992
 20
149.8661910783406
 30
0.0
 10
122.9470011233829
 20
150.4312064017315
 30
0.0
 10
123.4867603173752
 20
150.674909995938
 30
0.0
 10
124.6613532814065
 20
151.0791099235829
 30
0.0
 10
125.2730894673984
 20
151.2315471166285
 30
0.0
 10
126.2249986922601
 20
151.3868746642372
 30
0.0
 10
126.5482318565208
 20
151.4263794442872
 30
0.0
 10
127.207295027796
 20
151.4796885649559
 30
0.0
 10
127.54135903837
 20
151.4932162820137
 30
0.0
 10
127.8751096457716
 20
151.4932162820137
 30
0.0
  0
LINE
  5
78
330
1F
100
AcDbEntity
  8
0
  6
Continuous
 62
     7
370
    15
100
AcDbLine
 10
113.2171427976
 20
63.0422535211
 30
0.0
 11
113.2171427976
 21
162.0422535211
 31
0.0
  0
LINE
  5
79
330
1F
100
AcDbEntity
  8
0
  6
Continuous
 62
     7
370
    15
100
AcDbLine
 10
136.4791718185
 20
63.7672599281
 30
0.0
 11
136.4791718185
 21
143.8922535211
 31
0.0
  0
SPLINE
  5
7A
330
1F
100
AcDbEntity
  8
0
  6
Continuous
 62
     7
370
    15
100
AcDbSpline
210
0.0
220
0.0
230
1.0
 70
     8
 71
     3
 72
     8
 73
     4
 74
     0
 42
0.00000001
 43
0.00000001
 40
0.0
 40
0.0
 40
0.0
 40
0.0
 40
1.0
 40
1.0
 40
1.0
 40
1.0
 10
136.4791718185137
 20
63.76725992809801
 30
0.0
 10
136.0280670891134
 20
64.56821985991793
 30
0.0
 10
135.57736926187
 20
65.36940987147857
 30
0.0
 10
135.1271427975923
 20
66.17086523410335
 30
0.0
  0
LINE
  5
7B
330
1F
100
AcDbEntity
  8
0
  6
Continuous
 62
     7
370
    15
100
AcDbLine
 10
135.1271427976
 20
66.1708652341
 30
0.0
 11
135.1271427976
 21
143.8922535211
 31
0.0
  0
SPLINE
  5
7C
330
1F
100
AcDbEntity
  8
0
  6
Continuous
 62
     7
370
    15
100
AcDbSpline
210
0.0
220
0.0
230
1.0
 70
    24
 71
     3
 72
     8
 73
     4
 74
     0
 42
0.00000001
 43
0.00000001
 40
0.0
 40
0.0
 40
0.0
 40
0.0
 40
1.0
 40
1.0
 40
1.0
 40
1.0
 10
135.1271427975923
 20
143.8922535211268
 30
0.0
 10
135.5713556799462
 20
143.8922535211268
 30
0.0
 10
136.0223702461854
 20
143.8922535211268
 30
0.0
 10
136.4791718185137
 20
143.8922535211268
 30
0.0
  0
LINE
  5
7D
330
1F
100
AcDbEntity
  8
0
  6
Continuous
 62
     7
370
    15
100
AcDbLine
 10
142.1671427976
 20
64.7929079759
 30
0.0
 11
142.1671427976
 21
143.8922535211
 31
0.0
  0
SPLINE
  5
7E
330
1F
100
AcDbEntity
  8
0
  6
Continuous
 62
     7
370
    15
100
AcDbSpline
210
0.0
220
0.0
230
1.0
 70
     8
 71
     3
 72
    14
 73
    10
 74
     0
 42
0.00000001
 43
0.00000001
 40
0.0
 40
0.0
 40
0.0
 40
0.0
 40
0.25
 40
0.25
 40
0.5
 40
0.5
 40
0.75
 40
0.75
 40
1.0
 40
1.0
 40
1.0
 40
1.0
 10
142.1671427975923
 20
64.7929079758735
 30
0.0
 10
142.1671427975923
 20
64.65948227981896
 30
0.0
 10
142.1418316976814
 20
64.52763447197462
 30
0.0
 10
142.0434969338367
 20
64.2811119232805
 30
0.0
 10
141.9703529295806
 20
64.16730673503999
 30
0.0
 10
141.7869148684849
 20
63.9768495580927
 30
0.0
 10
141.6752285341463
 20
63.89921469424279
 30
0.0
 10
141.43272510384
 20
63.79492328413031
 30
0.0
 10
141.2993506751458
 20
63.76725992809795
 30
0.0
 10
141.1671427975923
 20
63.76725992809796
 30
0.0
  0
SPLINE
  5
7F
330
1F
100
AcDbEntity
  8
0
  6
Continuous
 62
     7
370
    15
100
AcDbSpline
210
0.0
220
0.0
230
1.0
 70
    24
 71
     3
 72
    12
 73
     8
 74
     0
 42
0.00000001
 43
0.00000001
 40
0.0
 40
0.0
 40
0.0
 40
0.0
 40
0.2500000000000032
 40
0.2500000000000032
 40
0.5000000000000064
 40
0.5000000000000064
 40
1.0
 40
1.0
 40
1.0
 40
1.0
 10
141.1671427975923
 20
143.8922535211268
 30
0.0
 10
141.3192330345373
 20
143.8922535211268
 30
0.0
 10
141.4676922956127
 20
143.8922535211268
 30
0.0
 10
141.7250959278784
 20
143.8922535211268
 30
0.0
 10
141.8342006757203
 20
143.8922535211268
 30
0.0
 10
142.0882601521279
 20
143.8922535211268
 30
0.0
 10
142.1671427975923
 20
143.8922535211268
 30
0.0
 10
142.1671427975923
 20
143.8922535211268
 30
0.0
  0
LINE
  5
80
330
1F
100
AcDbEntity
  8
0
  6
Continuous
 62
     7
370
    15
100
AcDbLine
 10
131.3071427976
 20
66.1708652341
 30
0.0
 11
131.3071427976
 21
143.8922535211
 31
0.0
  0
SPLINE
  5
81
330
1F
100
AcDbEntity
  8
0
  6
Continuous
 62
     7
370
    15
100
AcDbSpline
210
0.0
220
0.0
230
1.0
 70
     8
 71
     3
 72
     8
 73
     4
 74
     0
 42
0.00000001
 43
0.00000001
 40
0.0
 40
0.0
 40
0.0
 40
0.0
 40
1.0
 40
1.0
 40
1.0
 40
1.0
 10
131.3071427975923
 20
66.17086523410335
 30
0.0
 10
130.8569163333145
 20
65.36940987147857
 30
0.0
 10
130.4062185060711
 20
64.56821985991793
 30
0.0
 10
129.9551137766709
 20
63.76725992809801
 30
0.0
  0
SPLINE
  5
82
330
1F
100
AcDbEntity
  8
0
  6
Continuous
 62
     7
370
    15
100
AcDbSpline
210
0.0
220
0.0
230
1.0
 70
    24
 71
     3
 72
     8
 73
     4
 74
     0
 42
0.00000001
 43
0.00000001
 40
0.0
 40
0.0
 40
0.0
 40
0.0
 40
1.0
 40
1.0
 40
1.0
 40
1.0
 10
129.9551137766709
 20
143.8922535211268
 30
0.0
 10
130.4119153489991
 20
143.8922535211268
 30
0.0
 10
130.8629299152383
 20
143.8922535211268
 30
0.0
 10
131.3071427975923
 20
143.8922535211268
 30
0.0
  0
LINE
  5
83
330
1F
100
AcDbEntity
  8
0
  6
Continuous
 62
     7
370
    15
100
AcDbLine
 10
141.1671427976
 20
63.7672599281
 30
0.0
 11
136.4791718185
 21
63.7672599281
 31
0.0
  0
LINE
  5
84
330
1F
100
AcDbEntity
  8
0
  6
Continuous
 62
     7
370
    15
100
AcDbLine
 10
136.4791718185
 20
143.8922535211
 30
0.0
 11
141.1671427976
 21
143.8922535211
 31
0.0
  0
SPLINE
  5
85
330
1F
100
AcDbEntity
  8
0
  6
Continuous
 62
     7
370
    15
100
AcDbSpline
210
0.0
220
0.0
230
1.0
 70
     8
 71
     3
 72
    14
 73
    10
 74
     0
 42
0.00000001
 43
0.00000001
 40
0.0
 40
0.0
 40
0.0
 40
0.0
 40
0.25
 40
0.25
 40
0.5
 40
0.5
 40
0.75
 40
0.75
 40
1.0
 40
1.0
 40
1.0
 40
1.0
 10
135.1271427975923
 20
67.07907473873192
 30
0.0
 10
135.1271427975923
 20
67.1861188197263
 30
0.0
 10
135.1070251104341
 20
67.29135395996875
 30
0.0
 10
135.0285339211685
 20
67.48920444681644
 30
0.0
 10
134.9703772963673
 20
67.58025621038135
 30
0.0
 10
134.8238620407492
 20
67.73342230430613
 30
0.0
 10
134.7352194921081
 20
67.79571675051554
 30
0.0
 10
134.5394961693078
 20
67.88051053605155
 30
0.0
 10
134.4342649782369
 20
67.90257806307716
 30
0.0
 10
134.3271427975923
 20
67.90257806307717
 30
0.0
  0
SPLINE
  5
86
330
1F
100
AcDbEntity
  8
0
  6
Continuous
 62
     7
370
    15
100
AcDbSpline
210
0.0
220
0.0
230
1.0
 70
    24
 71
     3
 72
    14
 73
    10
 74
     0
 42
0.00000001
 43
0.00000001
 40
0.0
 40
0.0
 40
0.0
 40
0.0
 40
0.25
 40
0.25
 40
0.5
 40
0.5
 40
0.75
 40
0.75
 40
1.0
 40
1.0
 40
1.0
 40
1.0
 10
134.3271427975923
 20
143.8922535211268
 30
0.0
 10
134.4509125623574
 20
143.8922535211268
 30
0.0
 10
134.5752796663643
 20
143.8922535211268
 30
0.0
 10
134.7816361350904
 20
143.8922535211268
 30
0.0
 10
134.8669642785087
 20
143.8922535211268
 30
0.0
 10
134.9991563372239
 20
143.8922535211268
 30
0.0
 10
135.0478015809745
 20
143.8922535211268
 30
0.0
 10
135.1113373727032
 20
143.8922535211268
 30
0.0
 10
135.1271427975923
 20
143.8922535211268
 30
0.0
 10
135.1271427975923
 20
143.8922535211268
 30
0.0
  0
SPLINE
  5
87
330
1F
100
AcDbEntity
  8
0
  6
Continuous
 62
     7
370
    15
100
AcDbSpline
210
0.0
220
0.0
230
1.0
 70
     8
 71
     3
 72
    12
 73
     8
 74
     0
 42
0.00000001
 43
0.00000001
 40
0.0
 40
0.0
 40
0.0
 40
0.0
 40
0.25
 40
0.25
 40
0.5
 40
0.5
 40
1.0
 40
1.0
 40
1.0
 40
1.0
 10
132.1071427975923
 20
67.90257806307717
 30
0.0
 10
132.0013821442433
 20
67.90257806307714
 30
0.0
 10
131.8933945160604
 20
67.88003855707674
 30
0.0
 10
131.6987998507948
 20
67.79546792508145
 30
0.0
 10
131.6099279379559
 20
67.73298627232266
 30
0.0
 10
131.3907356456301
 20
67.5035973208505
 30
0.0
 10
131.3071427975923
 20
67.29101398332811
 30
0.0
 10
131.3071427975923
 20
67.07907473873192
 30
0.0
  0
SPLINE
  5
88
330
1F
100
AcDbEntity
  8
0
  6
Continuous
 62
     7
370
    15
100
AcDbSpline
210
0.0
220
0.0
230
1.0
 70
    24
 71
     3
 72
    14
 73
    10
 74
     0
 42
0.00000001
 43
0.00000001
 40
0.0
 40
0.0
 40
0.0
 40
0.0
 40
0.25
 40
0.25
 40
0.5
 40
0.5
 40
0.75
 40
0.75
 40
1.0
 40
1.0
 40
1.0
 40
1.0
 10
131.3071427975923
 20
143.8922535211268
 30
0.0
 10
131.3071427975923
 20
143.8922535211268
 30
0.0
 10
131.3228571180582
 20
143.8922535211268
 30
0.0
 10
131.3865410965266
 20
143.8922535211268
 30
0.0
 10
131.435144290937
 20
143.8922535211268
 30
0.0
 10
131.5678278133626
 20
143.8922535211268
 30
0.0
 10
131.6529299176733
 20
143.8922535211268
 30
0.0
 10
131.8593721525833
 20
143.8922535211268
 30
0.0
 10
131.9834530942064
 20
143.8922535211268
 30
0.0
 10
132.1071427975923
 20
143.8922535211268
 30
0.0
  0
LINE
  5
89
330
1F
100
AcDbEntity
  8
0
  6
Continuous
 62
     7
370
    15
100
AcDbLine
 10
134.3271427976
 20
67.9025780631
 30
0.0
 11
132.1071427976
 21
67.9025780631
 31
0.0
  0
LINE
  5
8A
330
1F
100
AcDbEntity
  8
0
  6
Continuous
 62
     7
370
    15
100
AcDbLine
 10
132.1071427976
 20
143.8922535211
 30
0.0
 11
134.3271427976
 21
143.8922535211
 31
0.0
  0
LINE
  5
8B
330
1F
100
AcDbEntity
  8
0
  6
Continuous
 62
     7
370
    15
100
AcDbLine
 10
78.4171427976
 20
76.2782384911
 30
0.0
 11
78.4171427976
 21
78.6729202558
 31
0.0
  0
SPLINE
  5
8C
330
1F
100
AcDbEntity
  8
0
  6
Continuous
 62
     7
370
    15
100
AcDbSpline
210
0.0
220
0.0
230
1.0
 70
     8
 71
     3
 72
    14
 73
    10
 74
     0
 42
0.00000001
 43
0.00000001
 40
0.0
 40
0.0
 40
0.0
 40
0.0
 40
0.25
 40
0.25
 40
0.5
 40
0.5
 40
0.75
 40
0.75
 40
1.0
 40
1.0
 40
1.0
 40
1.0
 10
77.41272032625533
 20
80.37577217738328
 30
0.0
 10
77.50148890420064
 20
80.21723804607534
 30
0.0
 10
77.62320674287955
 20
80.06479536918677
 30
0.0
 10
77.85825635273638
 20
79.76766074535784
 30
0.0
 10
77.97388653895328
 20
79.62297810174049
 30
0.0
 10
78.17429147238109
 20
79.33968889923707
 30
0.0
 10
78.25969176436543
 20
79.20113490620024
 30
0.0
 10
78.38139739808264
 20
78.9297508761667
 30
0.0
 10
78.41714279759529
 20
78.79761500753207
 30
0.0
 10
78.41714279759528
 20
78.67292025576131
 30
0.0
  0
SPLINE
  5
8D
330
1F
100
AcDbEntity
  8
0
  6
Continuous
 62
     7
370
    15
100
AcDbSpline
210
0.0
220
0.0
230
1.0
 70
     8
 71
     3
 72
    14
 73
    10
 74
     0
 42
0.00000001
 43
0.00000001
 40
0.0
 40
0.0
 40
0.0
 40
0.0
 40
0.124999999999999
 40
0.124999999999999
 40
0.249999999999998
 40
0.249999999999998
 40
0.5000000000000007
 40
0.5000000000000007
 40
1.0
 40
1.0
 40
1.0
 40
1.0
 10
76.51714279759229
 20
81.00460211648338
 30
0.0
 10
76.58472509737676
 20
81.01175800158478
 30
0.0
 10
76.65721267512467
 20
81.00733353154577
 30
0.0
 10
76.78950378439062
 20
80.97762737377542
 30
0.0
 10
76.84678116378079
 20
80.95434309219719
 30
0.0
 10
76.99643159098108
 20
80.87685785234687
 30
0.0
 10
77.07014488650258
 20
80.8150060254455
 30
0.0
 10
77.25795286982881
 20
80.63032857279718
 30
0.0
 10
77.34199317619026
 20
80.50208564950597
 30
0.0
 10
77.41272032625653
 20
80.37577217738338
 30
0.0
  0
SPLINE
  5
8E
330
1F
100
AcDbEntity
  8
0
  6
Continuous
 62
     7
370
    15
100
AcDbSpline
210
0.0
220
0.0
230
1.0
 70
     8
 71
     3
 72
     8
 73
     4
 74
     0
 42
0.00000001
 43
0.00000001
 40
0.0
 40
0.0
 40
0.0
 40
0.0
 40
1.0
 40
1.0
 40
1.0
 40
1.0
 10
72.97250240951149
 20
80.5865535316916
 30
0.0
 10
74.13780072022035
 20
80.74174100357823
 30
0.0
 10
75.32241593426018
 20
80.87809964188855
 30
0.0
 10
76.51714279759226
 20
81.00460211648338
 30
0.0
  0
SPLINE
  5
8F
330
1F
100
AcDbEntity
  8
0
  6
Continuous
 62
     7
370
    15
100
AcDbSpline
210
0.0
220
0.0
230
1.0
 70
     8
 71
     3
 72
    14
 73
    10
 74
     0
 42
0.00000001
 43
0.00000001
 40
0.0
 40
0.0
 40
0.0
 40
0.0
 40
0.4999999999999972
 40
0.4999999999999972
 40
0.7499999999999971
 40
0.7499999999999971
 40
0.8749999999999986
 40
0.8749999999999986
 40
1.0
 40
1.0
 40
1.0
 40
1.0
 10
65.21706791356358
 20
80.29642135256168
 30
0.0
 10
66.52536947609732
 20
80.3034360763028
 30
0.0
 10
67.83042885075413
 20
80.3188446527473
 30
0.0
 10
69.77630490224246
 20
80.37274120821397
 30
0.0
 10
70.42300240598145
 20
80.39577277281666
 30
0.0
 10
71.3868447698358
 20
80.44671529768742
 30
0.0
 10
71.70708346176988
 20
80.4664502199206
 30
0.0
 10
72.34377868811228
 20
80.51593734839219
 30
0.0
 10
72.66049409639521
 20
80.54500212732141
 30
0.0
 10
72.97250240951153
 20
80.58655353169156
 30
0.0
  0
SPLINE
  5
90
330
1F
100
AcDbEntity
  8
0
  6
Continuous
 62
     7
370
    15
100
AcDbSpline
210
0.0
220
0.0
230
1.0
 70
     8
 71
     3
 72
    12
 73
     8
 74
     0
 42
0.00000001
 43
0.00000001
 40
0.0
 40
0.0
 40
0.0
 40
0.0
 40
0.2500000000000009
 40
0.2500000000000009
 40
0.5000000000000018
 40
0.5000000000000018
 40
1.0
 40
1.0
 40
1.0
 40
1.0
 10
71.51714279759227
 20
144.6287764126232
 30
0.0
 10
70.99844397576408
 20
144.6612991874715
 30
0.0
 10
70.47673240255908
 20
144.684595928642
 30
0.0
 10
69.43044038606352
 20
144.722441443064
 30
0.0
 10
68.90576876039326
 20
144.7367099175602
 30
0.0
 10
67.32892273785404
 20
144.7709194050185
 30
0.0
 10
66.2739674233071
 20
144.7824189089624
 30
0.0
 10
65.21706791356188
 20
144.7880856896919
 30
0.0
  0
SPLINE
  5
91
330
1F
100
AcDbEntity
  8
0
  6
Continuous
 62
     7
370
    15
100
AcDbSpline
210
0.0
220
0.0
230
1.0
 70
     8
 71
     3
 72
    20
 73
    16
 74
     0
 42
0.00000001
 43
0.00000001
 40
0.0
 40
0.0
 40
0.0
 40
0.0
 40
0.2500000000000011
 40
0.2500000000000011
 40
0.5000000000000021
 40
0.5000000000000021
 40
0.7500000000000031
 40
0.7500000000000031
 40
0.8750000000000008
 40
0.8750000000000008
 40
0.9375000000000006
 40
0.9375000000000006
 40
0.9687500000000003
 40
0.9687500000000003
 40
1.0
 40
1.0
 40
1.0
 40
1.0
 10
73.41714279759228
 20
146.2868622581114
 30
0.0
 10
73.41714279759226
 20
146.1511799383646
 30
0.0
 10
73.36843100837565
 20
146.0100929522245
 30
0.0
 10
73.19926958515046
 20
145.718021233494
 30
0.0
 10
73.07748917123213
 20
145.5663724914036
 30
0.0
 10
72.77994207648264
 20
145.2639640512505
 30
0.0
 10
72.60602947077984
 20
145.1113754151271
 30
0.0
 10
72.28661463689804
 20
144.8861046512849
 30
0.0
 10
72.17157386145078
 20
144.8113815567741
 30
0.0
 10
71.96448953743436
 20
144.7119711475171
 30
0.0
 10
71.88838170262795
 20
144.6804060551725
 30
0.0
 10
71.75698716307463
 20
144.6459626709796
 30
0.0
 10
71.71043394407317
 20
144.6369110992119
 30
0.0
 10
71.61410059299244
 20
144.6267354503735
 30
0.0
 10
71.56484116963702
 20
144.6257856916985
 30
0.0
 10
71.51714279759028
 20
144.6287764126131
 30
0.0
  0
LINE
  5
92
330
1F
100
AcDbEntity
  8
0
  6
Continuous
 62
     7
370
    15
100
AcDbLine
 10
73.4171427976
 20
146.2868622581
 30
0.0
 11
73.4171427976
 21
148.5557675492
 31
0.0
  0
LINE
  5
93
330
1F
100
AcDbEntity
  8
0
  6
Continuous
 62
     7
370
    15
100
AcDbLine
 10
110.7171427976
 20
74.6600020181
 30
0.0
 11
110.7171427976
 21
150.4245050241
 31
0.0
  0
SPLINE
  5
94
330
1F
100
AcDbEntity
  8
0
  6
Continuous
 62
     7
370
    15
100
AcDbSpline
210
0.0
220
0.0
230
1.0
 70
     8
 71
     3
 72
    24
 73
    20
 74
     0
 42
0.00000001
 43
0.00000001
 40
0.0
 40
0.0
 40
0.0
 40
0.0
 40
0.0002934293894791
 40
0.062808005175641
 40
0.1260453927228619
 40
0.18907467666103
 40
0.2513200540860133
 40
0.3133304633786588
 40
0.3759158453762907
 40
0.4383740564599686
 40
0.5000631094857209
 40
0.5616593988040849
 40
0.6245050380644152
 40
0.6872231506510951
 40
0.7494953263230465
 40
0.8117583797535242
 40
0.8747365508229858
 40
0.9378980306234599
 40
1.0
 40
1.0
 40
1.0
 40
1.0
 10
91.73709906143169
 20
75.61100826281445
 30
0.0
 10
91.7369042085469
 20
75.61098395542045
 30
0.0
 10
91.69519631753576
 20
75.60578100376625
 30
0.0
 10
91.8403147090662
 20
75.62441562709675
 30
0.0
 10
92.19539365060547
 20
75.66693540564548
 30
0.0
 10
92.79996928814862
 20
75.73507168924732
 30
0.0
 10
93.60640459696481
 20
75.80832722626319
 30
0.0
 10
94.59188202088379
 20
75.87284656708107
 30
0.0
 10
95.72355161756333
 20
75.91141079514215
 30
0.0
 10
96.94584408772559
 20
75.91510530114354
 30
0.0
 10
98.21317276917743
 20
75.87267932109457
 30
0.0
 10
99.47965829960397
 20
75.78443218031359
 30
0.0
 10
100.6957956634239
 20
75.6560389100469
 30
0.0
 10
101.8212061592646
 20
75.50339792145438
 30
0.0
 10
102.7986232208186
 20
75.34162330635006
 30
0.0
 10
103.6018886993612
 20
75.18909441324917
 30
0.0
 10
104.1903822223624
 20
75.06508066998177
 30
0.0
 10
104.5792883340144
 20
74.98015674370548
 30
0.0
 10
104.6260494647524
 20
74.96943043242668
 30
0.0
 10
104.6492322712949
 20
74.96411263973509
 30
0.0
  0
SPLINE
  5
95
330
1F
100
AcDbEntity
  8
0
  6
Continuous
 62
     7
370
    15
100
AcDbSpline
210
0.0
220
0.0
230
1.0
 70
     8
 71
     3
 72
    41
 73
    37
 74
     0
 42
0.00000001
 43
0.00000001
 40
0.0
 40
0.0
 40
0.0
 40
0.0
 40
0.0619930061482746
 40
0.1254347783466151
 40
0.1886508898234768
 40
0.2510246408607227
 40
0.3131658188976554
 40
0.3756581641417402
 40
0.4382227146727798
 40
0.4998044922940677
 40
0.56151641971787
 40
0.6240683094121985
 40
0.686725723240935
 40
0.7488365305144522
 40
0.8110685944253986
 40
0.8741742884451361
 40
0.9373212787645211
 40
0.9685511709617411
 40
0.9842086872487193
 40
0.9920641182531791
 40
0.996000486125535
 40
0.9979710794120144
 40
0.9989570090489596
 40
0.9994501359395065
 40
0.9996967403802177
 40
0.9998200529090742
 40
0.9998817117580818
 40
0.999912541829664
 40
0.9999279570273361
 40
0.9999356646666602
 40
0.9999395184964466
 40
0.9999414454138695
 40
0.9999424088732151
 40
0.9999433723329806
 40
0.9999501697010513
 40
1.0
 40
1.0
 40
1.0
 40
1.0
 10
104.6491109408168
 20
150.120349384567
 30
0.0
 10
104.6255392954732
 20
150.1150399049172
 30
0.0
 10
104.5778451394282
 20
150.1042968639776
 30
0.0
 10
104.1858031500026
 20
150.0190677275222
 30
0.0
 10
103.5952891007324
 20
149.8944989488814
 30
0.0
 10
102.7912516546873
 20
149.7415520027296
 30
0.0
 10
101.8151762545058
 20
149.579795448776
 30
0.0
 10
100.6933675192253
 20
149.4275626808438
 30
0.0
 10
99.47983659943809
 20
149.2997827396424
 30
0.0
 10
98.21500589303888
 20
149.2119341879598
 30
0.0
 10
96.94696285559614
 20
149.1695487040892
 30
0.0
 10
95.72345549789503
 20
149.1732845120608
 30
0.0
 10
94.58995695748101
 20
149.2118799825089
 30
0.0
 10
93.60385114650683
 20
149.2763193538
 30
0.0
 10
92.7952233377196
 20
149.3498291610813
 30
0.0
 10
92.1986046426104
 20
149.417142845893
 30
0.0
 10
91.88321335315233
 20
149.455107397161
 30
0.0
 10
91.7731467843544
 20
149.4689064564928
 30
0.0
 10
91.7457273965402
 20
149.4723925304135
 30
0.0
 10
91.7388053457107
 20
149.4732717561068
 30
0.0
 10
91.73703710552728
 20
149.4734925307132
 30
0.0
 10
91.73657672635392
 20
149.4735477334239
 30
0.0
 10
91.7364525676691
 20
149.473561473211
 30
0.0
 10
91.73641701317595
 20
149.473564869042
 30
0.0
 10
91.73640586910585
 20
149.4735656973623
 30
0.0
 10
91.73640195590974
 20
149.4735658939511
 30
0.0
 10
91.73640041370491
 20
149.4735659378811
 30
0.0
 10
91.7363997467034
 20
149.4735659461879
 30
0.0
 10
91.73639943852565
 20
149.4735659470182
 30
0.0
 10
91.73639929175958
 20
149.4735659464729
 30
0.0
 10
91.73639921880715
 20
149.4735659461431
 30
0.0
 10
91.73639918441475
 20
149.4735659457058
 30
0.0
 10
91.7363991621696
 20
149.4735659457943
 30
0.0
 10
91.73639913506017
 20
149.4735659429593
 30
0.0
 10
91.73639661549882
 20
149.4735662298145
 30
0.0
 10
91.73643270541687
 20
149.4735616097138
 30
0.0
 10
91.7364644632395
 20
149.4735575441923
 30
0.0
  0
SPLINE
  5
96
330
1F
100
AcDbEntity
  8
0
  6
Continuous
 62
     7
370
    15
100
AcDbSpline
210
0.0
220
0.0
230
1.0
 70
     8
 71
     3
 72
    20
 73
    16
 74
     0
 42
0.00000001
 43
0.00000001
 40
0.0
 40
0.0
 40
0.0
 40
0.0
 40
0.249999999999986
 40
0.249999999999986
 40
0.3749999999999789
 40
0.3749999999999789
 40
0.4374999999999789
 40
0.4374999999999789
 40
0.4999999999999789
 40
0.4999999999999789
 40
0.6249999999999835
 40
0.6249999999999835
 40
0.7499999999999879
 40
0.7499999999999879
 40
1.0
 40
1.0
 40
1.0
 40
1.0
 10
63.60795702930829
 20
81.8637703684261
 30
0.0
 10
63.63422924652169
 20
81.88308830950857
 30
0.0
 10
63.66490938877653
 20
81.89747702061034
 30
0.0
 10
63.73638025915845
 20
81.89057265877433
 30
0.0
 10
63.76440729620278
 20
81.88340665542592
 30
0.0
 10
63.8194908857003
 20
81.85370762872232
 30
0.0
 10
63.84038221425273
 20
81.84023398616098
 30
0.0
 10
63.88559086169818
 20
81.80503572064497
 30
0.0
 10
63.90999507409376
 20
81.78312749191771
 30
0.0
 10
63.98132739214521
 20
81.71100263192216
 30
0.0
 10
64.02322417696546
 20
81.65866209097211
 30
0.0
 10
64.09480013582134
 20
81.56117869907136
 30
0.0
 10
64.12562812563866
 20
81.51442492919294
 30
0.0
 10
64.20872805847422
 20
81.38113171335382
 30
0.0
 10
64.25358296384452
 20
81.29849431543862
 30
0.0
 10
64.2936950392971
 20
81.21938742064783
 30
0.0
  0
SPLINE
  5
97
330
1F
100
AcDbEntity
  8
0
  6
Continuous
 62
     7
370
    15
100
AcDbSpline
210
0.0
220
0.0
230
1.0
 70
     8
 71
     3
 72
    14
 73
    10
 74
     0
 42
0.00000001
 43
0.00000001
 40
0.0
 40
0.0
 40
0.0
 40
0.0
 40
0.25
 40
0.25
 40
0.5
 40
0.5
 40
0.75
 40
0.75
 40
1.0
 40
1.0
 40
1.0
 40
1.0
 10
63.31714279759229
 20
82.03958377855888
 30
0.0
 10
63.31714279759229
 20
81.99833684753453
 30
0.0
 10
63.32575251397354
 20
81.96142987525205
 30
0.0
 10
63.35683869354387
 20
81.90052981535264
 30
0.0
 10
63.37922824702794
 20
81.87634889581295
 30
0.0
 10
63.43397217820405
 20
81.8423813049297
 30
0.0
 10
63.46642241778924
 20
81.8324612209615
 30
0.0
 10
63.53642393251731
 20
81.83111001205666
 30
0.0
 10
63.57463443263986
 20
81.83926828875282
 30
0.0
 10
63.60795702931294
 20
81.8637703684209
 30
0.0
  0
LINE
  5
98
330
1F
100
AcDbEntity
  8
0
  6
Continuous
 62
     7
370
    15
100
AcDbLine
 10
63.3171427976
 20
82.0395837786
 30
0.0
 11
63.3171427976
 21
143.0449232637
 31
0.0
  0
SPLINE
  5
99
330
1F
100
AcDbEntity
  8
0
  6
Continuous
 62
     7
370
    15
100
AcDbSpline
210
0.0
220
0.0
230
1.0
 70
     8
 71
     3
 72
    12
 73
     8
 74
     0
 42
0.00000001
 43
0.00000001
 40
0.0
 40
0.0
 40
0.0
 40
0.0
 40
0.0592077505114064
 40
0.3503612113849183
 40
0.644012000323884
 40
0.9432672693652688
 40
1.0
 40
1.0
 40
1.0
 40
1.0
 10
63.60795702931291
 20
143.2207366738327
 30
0.0
 10
63.60312114596445
 20
143.2240093174524
 30
0.0
 10
63.57450485952477
 20
143.2433751500185
 30
0.0
 10
63.51650652148441
 20
143.2573410471829
 30
0.0
 10
63.44450628102413
 20
143.2462680193676
 30
0.0
 10
63.39586659201338
 20
143.224967715458
 30
0.0
 10
63.37908171995094
 20
143.2020663452832
 30
0.0
 10
63.37640676566505
 20
143.1984166231957
 30
0.0
  0
SPLINE
  5
9A
330
1F
100
AcDbEntity
  8
0
  6
Continuous
 62
     7
370
    15
100
AcDbSpline
210
0.0
220
0.0
230
1.0
 70
     8
 71
     3
 72
     8
 73
     4
 74
     0
 42
0.00000001
 43
0.00000001
 40
0.0
 40
0.0
 40
0.0
 40
0.0
 40
1.0
 40
1.0
 40
1.0
 40
1.0
 10
63.34077646652848
 20
143.1525027647644
 30
0.0
 10
63.32542742789244
 20
143.1219927097684
 30
0.0
 10
63.31714279759229
 20
143.0856811542561
 30
0.0
 10
63.31714279759229
 20
143.0449232636947
 30
0.0
  0
SPLINE
  5
9B
330
1F
100
AcDbEntity
  8
0
  6
Continuous
 62
     7
370
    15
100
AcDbSpline
210
0.0
220
0.0
230
1.0
 70
     8
 71
     3
 72
    20
 73
    16
 74
     0
 42
0.00000001
 43
0.00000001
 40
0.0
 40
0.0
 40
0.0
 40
0.0
 40
0.2500000000000037
 40
0.2500000000000037
 40
0.3750000000000055
 40
0.3750000000000055
 40
0.5000000000000073
 40
0.5000000000000073
 40
0.5625000000000057
 40
0.5625000000000057
 40
0.625000000000004
 40
0.625000000000004
 40
0.7500000000000027
 40
0.7500000000000027
 40
1.0
 40
1.0
 40
1.0
 40
1.0
 10
64.29369503929469
 20
143.865119621605
 30
0.0
 10
64.25369882147086
 20
143.7862412150475
 30
0.0
 10
64.20858519363321
 20
143.703111568356
 30
0.0
 10
64.12533097926668
 20
143.5696229040051
 30
0.0
 10
64.09511165064619
 20
143.5237578481231
 30
0.0
 10
64.02302341550475
 20
143.4255662957182
 30
0.0
 10
63.98110609809368
 20
143.3732564761946
 30
0.0
 10
63.90985549354221
 20
143.3012505734601
 30
0.0
 10
63.88561968116289
 20
143.2794803611585
 30
0.0
 10
63.84002149097825
 20
143.2440057028295
 30
0.0
 10
63.81921900137853
 20
143.230635518652
 30
0.0
 10
63.76427800295941
 20
143.2010656065167
 30
0.0
 10
63.73620901487259
 20
143.1939390842148
 30
0.0
 10
63.66570618480976
 20
143.1870647127321
 30
0.0
 10
63.6342820970189
 20
143.2013798718193
 30
0.0
 10
63.6079570293103
 20
143.2207366738298
 30
0.0
  0
SPLINE
  5
9C
330
1F
100
AcDbEntity
  8
0
  6
Continuous
 62
     7
370
    15
100
AcDbSpline
210
0.0
220
0.0
230
1.0
 70
     8
 71
     3
 72
    10
 73
     6
 74
     0
 42
0.00000001
 43
0.00000001
 40
0.0
 40
0.0
 40
0.0
 40
0.0
 40
0.4999999999999989
 40
0.4999999999999989
 40
1.0
 40
1.0
 40
1.0
 40
1.0
 10
64.96714279759227
 20
144.7905387229468
 30
0.0
 10
64.84225452684208
 20
144.6595424448753
 30
0.0
 10
64.72080440878165
 20
144.5158296082103
 30
0.0
 10
64.49122043382421
 20
144.2052593155211
 30
0.0
 10
64.38094545842823
 20
144.037190242458
 30
0.0
 10
64.2936950392947
 20
143.865119621605
 30
0.0
  0
SPLINE
  5
9D
330
1F
100
AcDbEntity
  8
0
  6
Continuous
 62
     7
370
    15
100
AcDbSpline
210
0.0
220
0.0
230
1.0
 70
     8
 71
     3
 72
     8
 73
     4
 74
     0
 42
0.00000001
 43
0.00000001
 40
0.0
 40
0.0
 40
0.0
 40
0.0
 40
1.0
 40
1.0
 40
1.0
 40
1.0
 10
65.21706791355803
 20
144.7880856896914
 30
0.0
 10
65.13004988370966
 20
144.7885522544785
 30
0.0
 10
65.04709585732972
 20
144.7895922740546
 30
0.0
 10
64.96714279758997
 20
144.7905387229469
 30
0.0
  0
SPLINE
  5
9E
330
1F
100
AcDbEntity
  8
0
  6
Continuous
 62
     7
370
    15
100
AcDbSpline
210
0.0
220
0.0
230
1.0
 70
     8
 71
     3
 72
     8
 73
     4
 74
     0
 42
0.00000001
 43
0.00000001
 40
0.0
 40
0.0
 40
0.0
 40
0.0
 40
1.0
 40
1.0
 40
1.0
 40
1.0
 10
64.96714279758997
 20
80.29396831930673
 30
0.0
 10
65.04709585733023
 20
80.29491476819899
 30
0.0
 10
65.13004988371074
 20
80.29595478777513
 30
0.0
 10
65.21706791355972
 20
80.29642135256219
 30
0.0
  0
SPLINE
  5
9F
330
1F
100
AcDbEntity
  8
0
  6
Continuous
 62
     7
370
    15
100
AcDbSpline
210
0.0
220
0.0
230
1.0
 70
     8
 71
     3
 72
    10
 73
     6
 74
     0
 42
0.00000001
 43
0.00000001
 40
0.0
 40
0.0
 40
0.0
 40
0.0
 40
0.4999999999999989
 40
0.4999999999999989
 40
1.0
 40
1.0
 40
1.0
 40
1.0
 10
64.29369503929378
 20
81.2193874206504
 30
0.0
 10
64.38094545842726
 20
81.04731679979704
 30
0.0
 10
64.49122043382341
 20
80.87924772673361
 30
0.0
 10
64.72080440878125
 20
80.56867743404378
 30
0.0
 10
64.84225452684188
 20
80.4249645973785
 30
0.0
 10
64.96714279759227
 20
80.2939683193068
 30
0.0
  0
LINE
  5
A0
330
1F
100
AcDbEntity
  8
0
  6
Continuous
 62
     7
370
    15
100
AcDbLine
 10
141.1671427976
 20
161.5320483768
 30
0.0
 11
136.4791718185
 21
161.5320483768
 31
0.0
  0
LINE
  5
A1
330
1F
100
AcDbEntity
  8
0
  6
Continuous
 62
     7
370
    15
100
AcDbLine
 10
136.4791718185
 20
151.493216282
 30
0.0
 11
141.1671427976
 21
151.493216282
 31
0.0
  0
LINE
  5
A2
330
1F
100
AcDbEntity
  8
0
  6
Continuous
 62
     7
370
    15
100
AcDbLine
 10
136.4791718185
 20
151.493216282
 30
0.0
 11
136.4791718185
 21
161.5320483768
 31
0.0
  0
SPLINE
  5
A3
330
1F
100
AcDbEntity
  8
0
  6
Continuous
 62
     7
370
    15
100
AcDbSpline
210
0.0
220
0.0
230
1.0
 70
     8
 71
     3
 72
    14
 73
    10
 74
     0
 42
0.00000001
 43
0.00000001
 40
0.0
 40
0.0
 40
0.0
 40
0.0
 40
0.25
 40
0.25
 40
0.5
 40
0.5
 40
0.75
 40
0.75
 40
1.0
 40
1.0
 40
1.0
 40
1.0
 10
135.1271427975923
 20
158.2358047619748
 30
0.0
 10
135.1271427975923
 20
158.1294480682225
 30
0.0
 10
135.1067552414511
 20
158.0236075804623
 30
0.0
 10
135.0281208959895
 20
157.8270426669259
 30
0.0
 10
134.9693895363509
 20
157.7358719246388
 30
0.0
 10
134.8227806307483
 20
157.5839608356072
 30
0.0
 10
134.7333753107218
 20
157.5218919987876
 30
0.0
 10
134.5394845781215
 20
157.4386239510289
 30
0.0
 10
134.4329795882316
 20
157.4165292812992
 30
0.0
 10
134.3271427975923
 20
157.4165292812992
 30
0.0
  0
SPLINE
  5
A4
330
1F
100
AcDbEntity
  8
0
  6
Continuous
 62
     7
370
    15
100
AcDbSpline
210
0.0
220
0.0
230
1.0
 70
     8
 71
     3
 72
    12
 73
     8
 74
     0
 42
0.00000001
 43
0.00000001
 40
0.0
 40
0.0
 40
0.0
 40
0.0
 40
0.250000000000002
 40
0.250000000000002
 40
0.500000000000004
 40
0.500000000000004
 40
1.0
 40
1.0
 40
1.0
 40
1.0
 10
134.3271427975923
 20
146.1707849341993
 30
0.0
 10
134.4508437475722
 20
146.1707849341993
 30
0.0
 10
134.5749403598424
 20
146.2127785459318
 30
0.0
 10
134.7815955229295
 20
146.3505738725762
 30
0.0
 10
134.8666362896563
 20
146.4445474710411
 30
0.0
 10
135.0661148581299
 20
146.759335677262
 30
0.0
 10
135.1271427975923
 20
147.0095746694896
 30
0.0
 10
135.1271427975923
 20
147.2564887136238
 30
0.0
  0
SPLINE
  5
A5
330
1F
100
AcDbEntity
  8
0
  6
Continuous
 62
     7
370
    15
100
AcDbSpline
210
0.0
220
0.0
230
1.0
 70
     8
 71
     3
 72
     8
 73
     4
 74
     0
 42
0.00000001
 43
0.00000001
 40
0.0
 40
0.0
 40
0.0
 40
0.0
 40
1.0
 40
1.0
 40
1.0
 40
1.0
 10
131.3071427975923
 20
159.1395243818317
 30
0.0
 10
130.8568345619077
 20
159.9372395069453
 30
0.0
 10
130.4061407453841
 20
160.7347378066025
 30
0.0
 10
129.9551137766709
 20
161.5320483767904
 30
0.0
  0
LINE
  5
A6
330
1F
100
AcDbEntity
  8
0
  6
Continuous
 62
     7
370
    15
100
AcDbLine
 10
131.3071427976
 20
148.4377010273
 30
0.0
 11
131.3071427976
 21
159.1395243818
 31
0.0
  0
SPLINE
  5
A7
330
1F
100
AcDbEntity
  8
0
  6
Continuous
 62
     7
370
    15
100
AcDbSpline
210
0.0
220
0.0
230
1.0
 70
     8
 71
     3
 72
     8
 73
     4
 74
     0
 42
0.00000001
 43
0.00000001
 40
0.0
 40
0.0
 40
0.0
 40
0.0
 40
1.0
 40
1.0
 40
1.0
 40
1.0
 10
129.9551137766709
 20
151.4932162820137
 30
0.0
 10
130.4120401304704
 20
150.4772983123394
 30
0.0
 10
130.8632457722734
 20
149.4585024832483
 30
0.0
 10
131.3071427975923
 20
148.4377010272646
 30
0.0
  0
SPLINE
  5
A8
330
1F
100
AcDbEntity
  8
0
  6
Continuous
 62
     7
370
    15
100
AcDbSpline
210
0.0
220
0.0
230
1.0
 70
     8
 71
     3
 72
     8
 73
     4
 74
     0
 42
0.00000001
 43
0.00000001
 40
0.0
 40
0.0
 40
0.0
 40
0.0
 40
1.0
 40
1.0
 40
1.0
 40
1.0
 10
136.4791718185137
 20
161.5320483767904
 30
0.0
 10
136.0281448498004
 20
160.7347378066025
 30
0.0
 10
135.5774510332768
 20
159.9372395069453
 30
0.0
 10
135.1271427975923
 20
159.1395243818317
 30
0.0
  0
SPLINE
  5
A9
330
1F
100
AcDbEntity
  8
0
  6
Continuous
 62
     7
370
    15
100
AcDbSpline
210
0.0
220
0.0
230
1.0
 70
     8
 71
     3
 72
     8
 73
     4
 74
     0
 42
0.00000001
 43
0.00000001
 40
0.0
 40
0.0
 40
0.0
 40
0.0
 40
1.0
 40
1.0
 40
1.0
 40
1.0
 10
135.1271427975923
 20
148.4377010272646
 30
0.0
 10
135.5712928086178
 20
149.4590842582163
 30
0.0
 10
136.0223671188757
 20
150.4775687949846
 30
0.0
 10
136.4791718185137
 20
151.4932162820137
 30
0.0
  0
LINE
  5
AA
330
1F
100
AcDbEntity
  8
0
  6
Continuous
 62
     7
370
    15
100
AcDbLine
 10
135.1271427976
 20
148.4377010273
 30
0.0
 11
135.1271427976
 21
159.1395243818
 31
0.0
  0
SPLINE
  5
AB
330
1F
100
AcDbEntity
  8
0
  6
Continuous
 62
     7
370
    15
100
AcDbSpline
210
0.0
220
0.0
230
1.0
 70
     8
 71
     3
 72
    10
 73
     6
 74
     0
 42
0.00000001
 43
0.00000001
 40
0.0
 40
0.0
 40
0.0
 40
0.0
 40
0.5
 40
0.5
 40
1.0
 40
1.0
 40
1.0
 40
1.0
 10
132.1071427975923
 20
157.4165292812992
 30
0.0
 10
131.8946064837359
 20
157.4165292812992
 30
0.0
 10
131.6846703120819
 20
157.5079418679294
 30
0.0
 10
131.3909631710707
 20
157.8126867338336
 30
0.0
 10
131.3071427975923
 20
158.0248417037423
 30
0.0
 10
131.3071427975923
 20
158.2358047619748
 30
0.0
  0
SPLINE
  5
AC
330
1F
100
AcDbEntity
  8
0
  6
Continuous
 62
     7
370
    15
100
AcDbSpline
210
0.0
220
0.0
230
1.0
 70
     8
 71
     3
 72
    14
 73
    10
 74
     0
 42
0.00000001
 43
0.00000001
 40
0.0
 40
0.0
 40
0.0
 40
0.0
 40
0.25
 40
0.25
 40
0.5
 40
0.5
 40
0.75
 40
0.75
 40
1.0
 40
1.0
 40
1.0
 40
1.0
 10
131.3071427975923
 20
147.2564887136238
 30
0.0
 10
131.3071427975923
 20
147.1326218368347
 30
0.0
 10
131.3230019252199
 20
147.0083621599971
 30
0.0
 10
131.3863635707397
 20
146.7707537975913
 30
0.0
 10
131.4349532787891
 20
146.6539734128388
 30
0.0
 10
131.567238883564
 20
146.4451708842298
 30
0.0
 10
131.6525636748246
 20
146.3506601806372
 30
0.0
 10
131.8594549231307
 20
146.2127033798349
 30
0.0
 10
131.9834228690207
 20
146.1707849341992
 30
0.0
 10
132.1071427975923
 20
146.1707849341992
 30
0.0
  0
LINE
  5
AD
330
1F
100
AcDbEntity
  8
0
  6
Continuous
 62
     7
370
    15
100
AcDbLine
 10
131.3071427976
 20
148.4377010273
 30
0.0
 11
131.3071427976
 21
147.2564887136
 31
0.0
  0
LINE
  5
AE
330
1F
100
AcDbEntity
  8
0
  6
Continuous
 62
     7
370
    15
100
AcDbLine
 10
132.1071427976
 20
146.1707849342
 30
0.0
 11
134.3271427976
 21
146.1707849342
 31
0.0
  0
LINE
  5
AF
330
1F
100
AcDbEntity
  8
0
  6
Continuous
 62
     7
370
    15
100
AcDbLine
 10
135.1271427976
 20
147.2564887136
 30
0.0
 11
135.1271427976
 21
148.4377010273
 31
0.0
  0
SPLINE
  5
B0
330
1F
100
AcDbEntity
  8
0
  6
Continuous
 62
     7
370
    15
100
AcDbSpline
210
0.0
220
0.0
230
1.0
 70
     8
 71
     3
 72
    16
 73
    12
 74
     0
 42
0.00000001
 43
0.00000001
 40
0.0
 40
0.0
 40
0.0
 40
0.0
 40
0.1249999999999978
 40
0.1249999999999978
 40
0.2499999999999955
 40
0.2499999999999955
 40
0.499999999999997
 40
0.499999999999997
 40
0.7499999999999984
 40
0.7499999999999984
 40
1.0
 40
1.0
 40
1.0
 40
1.0
 10
141.1671427975923
 20
151.4932162820137
 30
0.0
 10
141.2427805040035
 20
151.4932162820137
 30
0.0
 10
141.3190961684217
 20
151.4818712818788
 30
0.0
 10
141.4635069063136
 20
151.4392187312403
 30
0.0
 10
141.5319533554221
 20
151.4082844065574
 30
0.0
 10
141.7268846080352
 20
151.2890280347898
 30
0.0
 10
141.8347257818161
 20
151.1788760211693
 30
0.0
 10
142.0034385300281
 20
150.9307399355112
 30
0.0
 10
142.0658029427516
 20
150.7903976115075
 30
0.0
 10
142.1471068672601
 20
150.5021259200189
 30
0.0
 10
142.1671427975923
 20
150.351320947039
 30
0.0
 10
142.1671427975923
 20
150.2009510556938
 30
0.0
  0
LINE
  5
B1
330
1F
100
AcDbEntity
  8
0
  6
Continuous
 62
     7
370
    15
100
AcDbLine
 10
142.1671427976
 20
150.2009510557
 30
0.0
 11
142.1671427976
 21
143.8922535211
 31
0.0
  0
SPLINE
  5
B2
330
1F
100
AcDbEntity
  8
0
  6
Continuous
 62
     7
370
    15
100
AcDbSpline
210
0.0
220
0.0
230
1.0
 70
     8
 71
     3
 72
    12
 73
     8
 74
     0
 42
0.00000001
 43
0.00000001
 40
0.0
 40
0.0
 40
0.0
 40
0.0
 40
0.4999999999999953
 40
0.4999999999999953
 40
0.7499999999999977
 40
0.7499999999999977
 40
1.0
 40
1.0
 40
1.0
 40
1.0
 10
142.1671427975923
 20
160.5109933419726
 30
0.0
 10
142.1671427975923
 20
160.7762627747391
 30
0.0
 10
142.0625360541058
 20
161.0387778803915
 30
0.0
 10
141.7858677023605
 20
161.3243154864287
 30
0.0
 10
141.6755024430085
 20
161.4006371032901
 30
0.0
 10
141.4314303943928
 20
161.5049792681303
 30
0.0
 10
141.299677933061
 20
161.5320483767904
 30
0.0
 10
141.1671427975923
 20
161.5320483767904
 30
0.0
  0
LINE
  5
B3
330
1F
100
AcDbEntity
  8
0
  6
Continuous
 62
     7
370
    15
100
AcDbLine
 10
142.1671427976
 20
150.2009510557
 30
0.0
 11
142.1671427976
 21
160.510993342
 31
0.0
  0
LINE
  5
B4
330
1F
100
AcDbEntity
  8
0
  6
Continuous
 62
     7
370
    15
100
AcDbLine
 10
134.3271427976
 20
157.4165292813
 30
0.0
 11
132.1071427976
 21
157.4165292813
 31
0.0
  0
LINE
  5
B5
330
1F
100
AcDbEntity
  8
0
  6
Continuous
 62
     7
370
    15
100
AcDbLine
 10
171.0392214848
 20
86.0422535211
 30
0.0
 11
171.0392214848
 21
139.0422535211
 31
0.0
  0
LINE
  5
B6
330
1F
100
AcDbEntity
  8
0
  6
Continuous
 62
     7
370
    15
100
AcDbLine
 10
152.7960162906
 20
138.9398384662
 30
0.0
 11
153.1698961099
 21
138.9150154531
 31
0.0
  0
SPLINE
  5
B7
330
1F
100
AcDbEntity
  8
0
  6
Continuous
 62
     7
370
    15
100
AcDbSpline
210
0.0
220
0.0
230
1.0
 70
     8
 71
     3
 72
    26
 73
    22
 74
     0
 42
0.00000001
 43
0.00000001
 40
0.0
 40
0.0
 40
0.0
 40
0.0
 40
0.0464134195616571
 40
0.0914740542587958
 40
0.1377626515002998
 40
0.184435937405222
 40
0.2322603435998894
 40
0.2830420803022323
 40
0.3350581820474208
 40
0.3906165996315629
 40
0.4475999489714508
 40
0.5066653807316659
 40
0.5673737932834838
 40
0.6275859084512788
 40
0.6896269212654708
 40
0.7482611274997333
 40
0.8088723523033813
 40
0.8630054933389563
 40
0.9190854846021596
 40
0.9676134681294328
 40
1.0
 40
1.0
 40
1.0
 40
1.0
 10
158.6651420428928
 20
139.0420396263057
 30
0.0
 10
158.6579578259966
 20
139.0412619628956
 30
0.0
 10
158.6437987863833
 20
139.0397293021771
 30
0.0
 10
158.517795484549
 20
139.0264056593969
 30
0.0
 10
158.3241004010461
 20
139.0068522272443
 30
0.0
 10
158.0558465171196
 20
138.9816119618089
 30
0.0
 10
157.7172393872766
 20
138.9528250070953
 30
0.0
 10
157.3098357183153
 20
138.9227916129956
 30
0.0
 10
156.832770059774
 20
138.8941052766621
 30
0.0
 10
156.2973016318499
 20
138.8703214593874
 30
0.0
 10
155.7106217493739
 20
138.8546570229501
 30
0.0
 10
155.0919905536482
 20
138.8499293853663
 30
0.0
 10
154.4638817615092
 20
138.8576510885319
 30
0.0
 10
153.8452422006486
 20
138.8774589884963
 30
0.0
 10
153.271362112634
 20
138.906697434347
 30
0.0
 10
152.7530008155799
 20
138.9418855112642
 30
0.0
 10
152.3292648685249
 20
138.9768539459462
 30
0.0
 10
151.9976869454219
 20
139.0079711479148
 30
0.0
 10
151.7861316269006
 20
139.029546912191
 30
0.0
 10
151.6765985027646
 20
139.0412333078558
 30
0.0
 10
151.6777698016717
 20
139.0411119270929
 30
0.0
 10
151.6782386212549
 20
139.0410633436968
 30
0.0
  0
SPLINE
  5
B8
330
1F
100
AcDbEntity
  8
0
  6
Continuous
 62
     7
370
    15
100
AcDbSpline
210
0.0
220
0.0
230
1.0
 70
     8
 71
     3
 72
    66
 73
    62
 74
     0
 42
0.00000001
 43
0.00000001
 40
-0.0312499999999997
 40
-0.0312499999999997
 40
0.0
 40
0.0
 40
0.0312500000000002
 40
0.0312500000000002
 40
0.0625000000000005
 40
0.0625000000000005
 40
0.0937500000000007
 40
0.0937500000000007
 40
0.1250000000000009
 40
0.1250000000000009
 40
0.1562500000000011
 40
0.1562500000000011
 40
0.1875000000000014
 40
0.1875000000000014
 40
0.2187500000000016
 40
0.2187500000000016
 40
0.2500000000000018
 40
0.2500000000000018
 40
0.2812500000000021
 40
0.2812500000000021
 40
0.3125000000000023
 40
0.3125000000000023
 40
0.3437500000000025
 40
0.3437500000000025
 40
0.3750000000000028
 40
0.3750000000000028
 40
0.4062500000000029
 40
0.4062500000000029
 40
0.4375000000000031
 40
0.4375000000000031
 40
0.4687500000000033
 40
0.4687500000000033
 40
0.5000000000000034
 40
0.5000000000000034
 40
0.5312500000000036
 40
0.5312500000000036
 40
0.5625000000000037
 40
0.5625000000000037
 40
0.5937500000000038
 40
0.5937500000000038
 40
0.6250000000000039
 40
0.6250000000000039
 40
0.6875000000000032
 40
0.6875000000000032
 40
0.7500000000000026
 40
0.7500000000000026
 40
0.7812500000000023
 40
0.7812500000000023
 40
0.812500000000002
 40
0.812500000000002
 40
0.8437500000000017
 40
0.8437500000000017
 40
0.8750000000000013
 40
0.8750000000000013
 40
0.906250000000001
 40
0.906250000000001
 40
0.9375000000000007
 40
0.9375000000000007
 40
0.9687500000000003
 40
0.9687500000000003
 40
1.0
 40
1.0
 40
1.03125
 40
1.03125
 10
152.6272321923452
 20
114.7286400321473
 30
0.0
 10
152.9648003906029
 20
115.0109756301047
 30
0.0
 10
153.1443267490451
 20
115.133737926257
 30
0.0
 10
153.523031524942
 20
115.3457168981942
 30
0.0
 10
153.7237997110269
 20
115.4354142298076
 30
0.0
 10
154.138123167548
 20
115.5780527761532
 30
0.0
 10
154.3492049450826
 20
115.6304787930375
 30
0.0
 10
154.7789000389487
 20
115.6991055601909
 30
0.0
 10
154.9996237574641
 20
115.7151601749368
 30
0.0
 10
155.4364108478154
 20
115.7093607535999
 30
0.0
 10
155.652506539485
 20
115.6879743680389
 30
0.0
 10
156.0801260857409
 20
115.6083886929191
 30
0.0
 10
156.2936560771707
 20
115.5492732373181
 30
0.0
 10
156.7017591509412
 20
115.3963493916408
 30
0.0
 10
156.8972008050707
 20
115.3028069961372
 30
0.0
 10
157.2704145217552
 20
115.0805555551957
 30
0.0
 10
157.4498084865533
 20
114.9501146648222
 30
0.0
 10
157.7752101811739
 20
114.6616454849539
 30
0.0
 10
157.922640435237
 20
114.5032918746913
 30
0.0
 10
158.1851310368966
 20
114.1565470423931
 30
0.0
 10
158.3004741047403
 20
113.9663330808956
 30
0.0
 10
158.484072125001
 20
113.5727304139672
 30
0.0
 10
158.5542291977549
 20
113.3674327612019
 30
0.0
 10
158.6479090626354
 20
112.9384944319737
 30
0.0
 10
158.669959555373
 20
112.7190317419997
 30
0.0
 10
158.6637445374396
 20
112.284080390231
 30
0.0
 10
158.6350892573559
 20
112.0636510183566
 30
0.0
 10
158.5296205595475
 20
111.6390434402311
 30
0.0
 10
158.4536848176563
 20
111.4348778283787
 30
0.0
 10
158.2569461394271
 20
111.0422517405245
 30
0.0
 10
158.1375350281262
 20
110.8573753380537
 30
0.0
 10
157.8655025054714
 20
110.5172092353967
 30
0.0
 10
157.7103063505748
 20
110.3591117314609
 30
0.0
 10
157.3757418504496
 20
110.0782550046513
 30
0.0
 10
157.1965066512769
 20
109.9548572582684
 30
0.0
 10
156.815144724387
 20
109.740556317613
 30
0.0
 10
156.6133202738135
 20
109.6503526742178
 30
0.0
 10
156.2019364221246
 20
109.5081638818047
 30
0.0
 10
155.9905973988401
 20
109.4551072329931
 30
0.0
 10
155.5565030298883
 20
109.385385053802
 30
0.0
 10
155.3378035523996
 20
109.3695438094122
 30
0.0
 10
154.6856963457899
 20
109.3774929620854
 30
0.0
 10
154.2461773420112
 20
109.4586268962466
 30
0.0
 10
153.4331909041389
 20
109.7624398654929
 30
0.0
 10
153.0480039203263
 20
109.9898475384478
 30
0.0
 10
152.5614296908498
 20
110.4205652971968
 30
0.0
 10
152.4115966121885
 20
110.5810608524418
 30
0.0
 10
152.1468772339626
 20
110.9311886724052
 30
0.0
 10
152.0345279729724
 20
111.1169045600049
 30
0.0
 10
151.8508164517169
 20
111.5102192341245
 30
0.0
 10
151.7789690581777
 20
111.720995100103
 30
0.0
 10
151.6861840266475
 20
112.1479665620982
 30
0.0
 10
151.6642564731703
 20
112.3643277224666
 30
0.0
 10
151.6706305529112
 20
112.802957156109
 30
0.0
 10
151.6995896366965
 20
113.0228064203846
 30
0.0
 10
151.8048416382038
 20
113.4458055836421
 30
0.0
 10
151.8824479733056
 20
113.6539560890618
 30
0.0
 10
152.0790955223148
 20
114.0451074995845
 30
0.0
 10
152.1973645238812
 20
114.2282180543736
 30
0.0
 10
152.4718431352847
 20
114.5708013576993
 30
0.0
 10
152.6272321923452
 20
114.7286400321473
 30
0.0
 10
152.9648003906029
 20
115.0109756301047
 30
0.0
  0
SPLINE
  5
B9
330
1F
100
AcDbEntity
  8
0
  6
Continuous
 62
     7
370
    15
100
AcDbSpline
210
0.0
220
0.0
230
1.0
 70
     8
 71
     3
 72
    27
 73
    23
 74
     0
 42
0.00000001
 43
0.00000001
 40
0.0
 40
0.0
 40
0.0
 40
0.0
 40
0.0031691415621048
 40
0.0515688105013909
 40
0.0966268341731015
 40
0.1429033655252519
 40
0.18975313456626
 40
0.2377548721703714
 40
0.2888022956710736
 40
0.341092410524484
 40
0.3968932878374198
 40
0.4541313364095158
 40
0.5133250127946498
 40
0.5741729402227841
 40
0.6343702342363274
 40
0.6964058844404906
 40
0.754860959384725
 40
0.8152982845669967
 40
0.8691145094633567
 40
0.9248662033492067
 40
0.9731220094146371
 40
1.0
 40
1.0
 40
1.0
 40
1.0
 10
151.6698106039515
 20
86.04253893105107
 30
0.0
 10
151.6689316543534
 20
86.04244490591682
 30
0.0
 10
151.6546292370031
 20
86.04091491294065
 30
0.0
 10
151.7079179077621
 20
86.04665272216288
 30
0.0
 10
151.8321134870873
 20
86.05970995505668
 30
0.0
 10
152.0372471496587
 20
86.08030522568207
 30
0.0
 10
152.3124191261229
 20
86.10593583886305
 30
0.0
 10
152.659222054982
 20
86.13502673238266
 30
0.0
 10
153.0742016576238
 20
86.16503511714934
 30
0.0
 10
153.5584943279548
 20
86.19335716335611
 30
0.0
 10
154.10016925504
 20
86.21639746977678
 30
0.0
 10
154.6913137685091
 20
86.2309569905426
 30
0.0
 10
155.3124146806713
 20
86.23434202139715
 30
0.0
 10
155.9401496933335
 20
86.22522670292626
 30
0.0
 10
156.5558688897491
 20
86.20418035562349
 30
0.0
 10
157.1237635927598
 20
86.17410813501877
 30
0.0
 10
157.6336702975162
 20
86.13859929581825
 30
0.0
 10
158.0466982794767
 20
86.10392221798926
 30
0.0
 10
158.3663811269391
 20
86.07357779676254
 30
0.0
 10
158.5652379210265
 20
86.05316127117348
 30
0.0
 10
158.6625924645385
 20
86.04274447712565
 30
0.0
 10
158.657167815261
 20
86.04332461815025
 30
0.0
 10
158.6552272282188
 20
86.0435321549139
 30
0.0
  0
CIRCLE
  5
BA
330
1F
100
AcDbEntity
  8
0
  6
Continuous
 62
     7
370
    15
100
AcDbCircle
 10
155.1671427976
 20
112.5422535211
 30
0.0
 40
2.499999999999986
  0
ARC
  5
BB
330
1F
100
AcDbEntity
  8
0
  6
Continuous
 62
     7
370
    15
100
AcDbCircle
 10
122.2173548459
 20
145.2153786347
 30
0.0
 40
11.3447860143613
100
AcDbArc
 50
77.5499391354
 51
102.5168772928
  0
LINE
  5
BC
330
1F
100
AcDbEntity
  8
0
  6
Continuous
 62
     7
370
    15
100
AcDbLine
 10
228.2171427976
 20
92.8532297503
 30
0.0
 11
228.2171427976
 21
132.2312772762
 31
0.0
  0
LINE
  5
BD
330
1F
100
AcDbEntity
  8
0
  6
Continuous
 62
     7
370
    15
100
AcDbLine
 10
64.9671427976
 20
80.2922535211
 30
0.0
 11
64.9671427976
 21
80.2939683193
 31
0.0
  0
LINE
  5
BE
330
1F
100
AcDbEntity
  8
0
  6
Continuous
 62
     7
370
    15
100
AcDbLine
 10
64.9671427976
 20
144.7922535211
 30
0.0
 11
64.9671427976
 21
144.7905387229
 31
0.0
  0
LINE
  5
BF
330
1F
100
AcDbEntity
  8
0
  6
Continuous
 62
     7
370
    15
100
AcDbLine
 10
228.2410912852
 20
131.1525547918
 30
0.0
 11
228.2171427976
 21
130.5430250797
 31
0.0
  0
LINE
  5
C0
330
1F
100
AcDbEntity
  8
0
  6
Continuous
 62
     7
370
    15
100
AcDbLine
 10
228.2171427976
 20
96.5430250797
 30
0.0
 11
228.3196109167
 21
93.9350372951
 31
0.0
  0
SPLINE
  5
C1
330
1F
100
AcDbEntity
  8
0
  6
HIDDEN
 62
     7
370
     0
100
AcDbSpline
210
0.0
220
0.0
230
1.0
 70
     8
 71
     3
 72
    80
 73
    76
 74
     0
 42
0.00000001
 43
0.00000001
 40
-0.03125
 40
-0.03125
 40
0.0
 40
0.0
 40
0.0312500000000002
 40
0.0312500000000002
 40
0.0468750000000002
 40
0.0468750000000002
 40
0.0625000000000001
 40
0.0625000000000001
 40
0.0937499999999999
 40
0.0937499999999999
 40
0.1249999999999997
 40
0.1249999999999997
 40
0.1562499999999995
 40
0.1562499999999995
 40
0.1874999999999993
 40
0.1874999999999993
 40
0.2187499999999991
 40
0.2187499999999991
 40
0.2499999999999989
 40
0.2499999999999989
 40
0.2812499999999987
 40
0.2812499999999987
 40
0.3124999999999984
 40
0.3124999999999984
 40
0.3281249999999985
 40
0.3281249999999985
 40
0.3437499999999986
 40
0.3437499999999986
 40
0.3749999999999986
 40
0.3749999999999986
 40
0.4062499999999987
 40
0.4062499999999987
 40
0.4218749999999989
 40
0.4218749999999989
 40
0.4374999999999991
 40
0.4374999999999991
 40
0.4687499999999993
 40
0.4687499999999993
 40
0.4999999999999994
 40
0.4999999999999994
 40
0.5312499999999997
 40
0.5312499999999997
 40
0.5624999999999998
 40
0.5624999999999998
 40
0.59375
 40
0.59375
 40
0.6250000000000001
 40
0.6250000000000001
 40
0.6562500000000003
 40
0.6562500000000003
 40
0.6875000000000006
 40
0.6875000000000006
 40
0.7031250000000007
 40
0.7031250000000007
 40
0.7187500000000007
 40
0.7187500000000007
 40
0.7500000000000003
 40
0.7500000000000003
 40
0.78125
 40
0.78125
 40
0.7968749999999998
 40
0.7968749999999998
 40
0.8124999999999997
 40
0.8124999999999997
 40
0.8437499999999998
 40
0.8437499999999998
 40
0.8749999999999998
 40
0.8749999999999998
 40
0.9062499999999999
 40
0.9062499999999999
 40
0.9375
 40
0.9375
 40
0.96875
 40
0.96875
 40
1.0
 40
1.0
 40
1.03125
 40
1.03125
 10
121.886597484816
 20
161.4018027776048
 30
0.0
 10
122.5476881103686
 20
161.4018027776048
 30
0.0
 10
122.8726682396202
 20
161.394904631778
 30
0.0
 10
123.3521416508666
 20
161.3743782037975
 30
0.0
 10
123.5106234687075
 20
161.3658219767099
 30
0.0
 10
123.8248430012117
 20
161.3450956014922
 30
0.0
 10
123.9809632848921
 20
161.3328683012859
 30
0.0
 10
124.4350173138487
 20
161.2912990074566
 30
0.0
 10
124.7221206967885
 20
161.2569547223589
 30
0.0
 10
125.2654752528156
 20
161.1736305980366
 30
0.0
 10
125.5225788640211
 20
161.1241923752621
 30
0.0
 10
125.9834851189599
 20
161.0128126455022
 30
0.0
 10
126.1903828281749
 20
160.95051813199
 30
0.0
 10
126.5559081421671
 20
160.8105884891191
 30
0.0
 10
126.711113664293
 20
160.73397259137
 30
0.0
 10
126.9605440508927
 20
160.5700139715143
 30
0.0
 10
127.0566340066779
 20
160.4814571174186
 30
0.0
 10
127.1851528558715
 20
160.2939764353128
 30
0.0
 10
127.2169637260493
 20
160.1967399738583
 30
0.0
 10
127.2173203758225
 20
159.9951073345313
 30
0.0
 10
127.1848231236255
 20
159.8895585426931
 30
0.0
 10
127.057197649911
 20
159.6794437600046
 30
0.0
 10
126.9627692488591
 20
159.5743782520356
 30
0.0
 10
126.7749084288735
 20
159.4175005447846
 30
0.0
 10
126.7040804300704
 20
159.3650668110788
 30
0.0
 10
126.5493585381051
 20
159.2626283654491
 30
0.0
 10
126.4653820679217
 20
159.2124806367973
 30
0.0
 10
126.1940583982772
 20
159.0654646803638
 30
0.0
 10
125.9875091796749
 20
158.9719768599293
 30
0.0
 10
125.5208990394859
 20
158.796190002315
 30
0.0
 10
125.2685334698604
 20
158.7168115272313
 30
0.0
 10
124.8626321281817
 20
158.6113290897372
 30
0.0
 10
124.7227315107042
 20
158.5784435248971
 30
0.0
 10
124.4335075754573
 20
158.5175280456684
 30
0.0
 10
124.283668119168
 20
158.489447474026
 30
0.0
 10
123.8295515495572
 20
158.4146454319832
 30
0.0
 10
123.5179003308204
 20
158.3766073737371
 30
0.0
 10
122.876903865908
 20
158.324995447213
 30
0.0
 10
122.5453762379559
 20
158.3116815136915
 30
0.0
 10
121.8925851928844
 20
158.3115844273634
 30
0.0
 10
121.5680489878525
 20
158.3243725125245
 30
0.0
 10
120.9227795384361
 20
158.3758627021204
 30
0.0
 10
120.6070365322734
 20
158.4143872814405
 30
0.0
 10
120.0051472372897
 20
158.5132898442985
 30
0.0
 10
119.7143980064782
 20
158.5743939422235
 30
0.0
 10
119.1674862147938
 20
158.7162033753342
 30
0.0
 10
118.9157088509568
 20
158.7955378599134
 30
0.0
 10
118.4543208583357
 20
158.9689166045749
 30
0.0
 10
118.2430515787376
 20
159.0640765493289
 30
0.0
 10
117.8797472263614
 20
159.2606490727048
 30
0.0
 10
117.7259405779186
 20
159.3624053011112
 30
0.0
 10
117.5373211083212
 20
159.5191912638967
 30
0.0
 10
117.4812906221121
 20
159.5724452976467
 30
0.0
 10
117.3857168603759
 20
159.6782498591994
 30
0.0
 10
117.3459539433509
 20
159.730902923555
 30
0.0
 10
117.2501821930388
 20
159.8879766430142
 30
0.0
 10
117.2174593539127
 20
159.9915016783413
 30
0.0
 10
117.2168307675836
 20
160.1957164125684
 30
0.0
 10
117.2490169123184
 20
160.2932202501532
 30
0.0
 10
117.343927614174
 20
160.4325473005048
 30
0.0
 10
117.3833943975729
 20
160.4778640320093
 30
0.0
 10
117.4783243962938
 20
160.5663038529981
 30
0.0
 10
117.5340812240572
 20
160.6095581034581
 30
0.0
 10
117.7220213420271
 20
160.733449578048
 30
0.0
 10
117.8753828117433
 20
160.8091518688221
 30
0.0
 10
118.2376470466236
 20
160.9484062402803
 30
0.0
 10
118.4484955200895
 20
161.012168081809
 30
0.0
 10
118.9091654904084
 20
161.1236649212768
 30
0.0
 10
119.1605398699922
 20
161.1721909935935
 30
0.0
 10
119.7064477568904
 20
161.2562449769739
 30
0.0
 10
119.9972703315416
 20
161.2910435306407
 30
0.0
 10
120.5985969463216
 20
161.3462399954045
 30
0.0
 10
120.913115530934
 20
161.3670578441584
 30
0.0
 10
121.559696987054
 20
161.3949051770691
 30
0.0
 10
121.886597484816
 20
161.4018027776048
 30
0.0
 10
122.5476881103686
 20
161.4018027776048
 30
0.0
  0
LINE
  5
C2
330
1F
100
AcDbEntity
  8
0
  6
HIDDEN
 62
     7
370
     0
100
AcDbLine
 10
129.9551137767
 20
151.493216282
 30
0.0
 11
129.9551137767
 21
143.8922535211
 31
0.0
  0
LINE
  5
C3
330
1F
100
AcDbEntity
  8
0
  6
HIDDEN
 62
     7
370
     0
100
AcDbLine
 10
93.630567547
 20
75.8064471589
 30
0.0
 11
93.3606118462
 21
75.7825210596
 31
0.0
  0
SPLINE
  5
C4
330
1F
100
AcDbEntity
  8
0
  6
HIDDEN
 62
     7
370
     0
100
AcDbSpline
210
0.0
220
0.0
230
1.0
 70
     8
 71
     3
 72
    12
 73
     8
 74
     0
 42
0.00000001
 43
0.00000001
 40
0.0
 40
0.0
 40
0.0
 40
0.0
 40
0.1661348616735903
 40
0.3322013257393936
 40
0.5008932044678248
 40
0.752137078264078
 40
1.0
 40
1.0
 40
1.0
 40
1.0
 10
91.7364644632395
 20
149.4735575441923
 30
0.0
 10
91.74685708734756
 20
149.4721794201309
 30
0.0
 10
91.76763805692752
 20
149.4694237393808
 30
0.0
 10
91.94093754637443
 20
149.4478203644188
 30
0.0
 10
92.26288913561815
 20
149.4099554124769
 30
0.0
 10
92.78405497153749
 20
149.3495716457607
 30
0.0
 10
93.3496129113752
 20
149.3017785086113
 30
0.0
 10
93.63047633506325
 20
149.2780438155179
 30
0.0
  0
SPLINE
  5
C5
330
1F
100
AcDbEntity
  8
0
  6
HIDDEN
 62
     7
370
     0
100
AcDbSpline
210
0.0
220
0.0
230
1.0
 70
     8
 71
     3
 72
    33
 73
    29
 74
     0
 42
0.00000001
 43
0.00000001
 40
0.0
 40
0.0
 40
0.0
 40
0.0
 40
0.0315773698875104
 40
0.0633753287769057
 40
0.0958656851178231
 40
0.1285943208117605
 40
0.1601713694082662
 40
0.2244011681247345
 40
0.2571344568799636
 40
0.2885965627565487
 40
0.3526214070085076
 40
0.3852675959519929
 40
0.4162212184009612
 40
0.4791910353915302
 40
0.5112817741273479
 40
0.5421256322990662
 40
0.6048360558905652
 40
0.6367710793564881
 40
0.6680663384719832
 40
0.7316979547407203
 40
0.7641081282919966
 40
0.7957194290717577
 40
0.8275524266255816
 40
0.8600900250720824
 40
0.8928737620729298
 40
0.9241775068323748
 40
0.9878778414776339
 40
1.0
 40
1.0
 40
1.0
 40
1.0
 10
103.4703484527833
 20
81.17593130037973
 30
0.0
 10
103.386477305778
 20
81.18980503876146
 30
0.0
 10
103.2181491158341
 20
81.21764943284622
 30
0.0
 10
102.9187945194926
 20
81.26408207307662
 30
0.0
 10
102.5847950522338
 20
81.31269467509746
 30
0.0
 10
102.2190250903465
 20
81.36184260828469
 30
0.0
 10
101.6956451756576
 20
81.42590839387732
 30
0.0
 10
101.119217967063
 20
81.48568990828245
 30
0.0
 10
100.5040808202115
 20
81.5356895157465
 30
0.0
 10
99.86776509412857
 20
81.57782950842993
 30
0.0
 10
99.20398455668989
 20
81.60646423316794
 30
0.0
 10
98.53191880510676
 20
81.61872368425155
 30
0.0
 10
97.86247022167503
 20
81.62005297535983
 30
0.0
 10
97.19728565456107
 20
81.60519245245038
 30
0.0
 10
96.55099441567059
 20
81.5753344880612
 30
0.0
 10
95.9218044648122
 20
81.53659125999991
 30
0.0
 10
95.32208877263292
 20
81.48601302624004
 30
0.0
 10
94.76378920651112
 20
81.42761301177352
 30
0.0
 10
94.23359433612355
 20
81.365289780404
 30
0.0
 10
93.75442763381194
 20
81.29988120586845
 30
0.0
 10
93.3395096486171
 20
81.23709230226248
 30
0.0
 10
93.06223726469106
 20
81.19258770344109
 30
0.0
 10
92.82068197912989
 20
81.15187875400612
 30
0.0
 10
92.61518997478149
 20
81.11582162335664
 30
0.0
 10
92.45102555103723
 20
81.08606459840428
 30
0.0
 10
92.29159160447195
 20
81.05647928497986
 30
0.0
 10
92.21335337652334
 20
81.041530005975
 30
0.0
 10
92.22107816686814
 20
81.0430024285762
 30
0.0
 10
92.2223131715376
 20
81.0432378328664
 30
0.0
  0
SPLINE
  5
C6
330
1F
100
AcDbEntity
  8
0
  6
HIDDEN
 62
     7
370
     0
100
AcDbSpline
210
0.0
220
0.0
230
1.0
 70
     8
 71
     3
 72
    32
 73
    28
 74
     0
 42
0.00000001
 43
0.00000001
 40
0.0
 40
0.0
 40
0.0
 40
0.0
 40
0.020356822172105
 40
0.0512207857583794
 40
0.1139954454389432
 40
0.1459779869097674
 40
0.1769364677636727
 40
0.2398766914470389
 40
0.2719275468465721
 40
0.3033698011481659
 40
0.3673099924152954
 40
0.3998847012176188
 40
0.4314690120325909
 40
0.4957360700021212
 40
0.5285028301030422
 40
0.5596434488300034
 40
0.6230067766607702
 40
0.6553079823205556
 40
0.6861132872619372
 40
0.748756262689177
 40
0.7806634244345373
 40
0.8117607067089887
 40
0.8749825776111492
 40
0.9071778073885584
 40
0.9301738434827028
 40
0.9765719131095674
 40
1.0
 40
1.0
 40
1.0
 40
1.0
 10
92.2223131715376
 20
144.0412692093872
 30
0.0
 10
92.22195611963136
 20
144.0413366883141
 30
0.0
 10
92.22105772404485
 20
144.0415064753088
 30
0.0
 10
92.28365147059749
 20
144.0296122341214
 30
0.0
 10
92.425462652061
 20
144.0029653572018
 30
0.0
 10
92.64950724393651
 20
143.9625832857892
 30
0.0
 10
92.92404935977073
 20
143.9147140440387
 30
0.0
 10
93.27274064877828
 20
143.857244158759
 30
0.0
 10
93.6890166111557
 20
143.7947496117044
 30
0.0
 10
94.15061065801846
 20
143.7302239300651
 30
0.0
 10
94.67414860711364
 20
143.6656435530819
 30
0.0
 10
95.24634608156838
 20
143.606888188197
 30
0.0
 10
95.84855245202036
 20
143.5535153318149
 30
0.0
 10
96.48977895880184
 20
143.5106527699826
 30
0.0
 10
97.150864276798
 20
143.4825887239616
 30
0.0
 10
97.81757523124456
 20
143.4650000664219
 30
0.0
 10
98.49146445185147
 20
143.4635534181812
 30
0.0
 10
99.15581393579929
 20
143.4784789573189
 30
0.0
 10
99.80734820995892
 20
143.5034856825426
 30
0.0
 10
100.4380074226149
 20
143.5425897252245
 30
0.0
 10
101.0355463984374
 20
143.5926908830082
 30
0.0
 10
101.6095443663921
 20
143.6488620494914
 30
0.0
 10
102.1404940797855
 20
143.7117760781802
 30
0.0
 10
102.5838749610495
 20
143.7718795802337
 30
0.0
 10
102.9353956086232
 20
143.822769297219
 30
0.0
 10
103.2250631186
 20
143.8678917737569
 30
0.0
 10
103.4087258829977
 20
143.8983547856443
 30
0.0
 10
103.4703484527833
 20
143.9085757418739
 30
0.0
  0
SPLINE
  5
C7
330
1F
100
AcDbEntity
  8
0
  6
HIDDEN
 62
     7
370
     0
100
AcDbSpline
210
0.0
220
0.0
230
1.0
 70
     8
 71
     3
 72
    13
 73
     9
 74
     0
 42
0.00000001
 43
0.00000001
 40
0.0
 40
0.0
 40
0.0
 40
0.0
 40
0.1623843067723241
 40
0.3259049772435632
 40
0.4929949423062889
 40
0.6613135958197989
 40
0.8237282951825687
 40
1.0
 40
1.0
 40
1.0
 40
1.0
 10
103.4703484527833
 20
143.9085757418739
 30
0.0
 10
103.5459379635452
 20
143.9209515143654
 30
0.0
 10
103.6976459596832
 20
143.9457896648763
 30
0.0
 10
103.8805448320212
 20
143.9730480092235
 30
0.0
 10
104.0296071886121
 20
143.9941678708037
 30
0.0
 10
104.1335573287838
 20
144.0081542464946
 30
0.0
 10
104.2088868025459
 20
144.0179468987027
 30
0.0
 10
104.2006583331402
 20
144.016875734614
 30
0.0
 10
104.1963757687612
 20
144.0163182397818
 30
0.0
  0
SPLINE
  5
C8
330
1F
100
AcDbEntity
  8
0
  6
HIDDEN
 62
     7
370
     0
100
AcDbSpline
210
0.0
220
0.0
230
1.0
 70
     8
 71
     3
 72
    13
 73
     9
 74
     0
 42
0.00000001
 43
0.00000001
 40
0.0
 40
0.0
 40
0.0
 40
0.0
 40
0.1540019449270218
 40
0.3222815403400119
 40
0.4885538998915544
 40
0.6560354862405501
 40
0.8273507617577543
 40
1.0
 40
1.0
 40
1.0
 40
1.0
 10
104.1963762848311
 20
81.06818873571179
 30
0.0
 10
104.2015608158014
 20
81.06751705398054
 30
0.0
 10
104.2124105399907
 20
81.06611141833697
 30
0.0
 10
104.1430709994353
 20
81.07509806523888
 30
0.0
 10
104.0429539516423
 20
81.088512127409
 30
0.0
 10
103.8964260713123
 20
81.10915269032958
 30
0.0
 10
103.710212203742
 20
81.13671814731407
 30
0.0
 10
103.5505094893885
 20
81.16282649823378
 30
0.0
 10
103.4703484527833
 20
81.17593130037973
 30
0.0
  0
LINE
  5
C9
330
1F
100
AcDbEntity
  8
0
  6
HIDDEN
 62
     7
370
     0
100
AcDbLine
 10
83.2137671246
 20
86.0422535211
 30
0.0
 11
83.2137671246
 21
139.0422535211
 31
0.0
  0
LINE
  5
CA
330
1F
100
AcDbEntity
  8
0
  6
HIDDEN
 62
     7
370
     0
100
AcDbLine
 10
122.501220416
 20
86.0422535211
 30
0.0
 11
122.501220416
 21
139.0422535211
 31
0.0
  0
LINE
  5
CB
330
1F
100
AcDbEntity
  8
0
  6
HIDDEN
 62
     7
370
     0
100
AcDbLine
 10
125.6671427976
 20
87.6672535211
 30
0.0
 11
125.6671427976
 21
137.4172534868
 31
0.0
  0
SPLINE
  5
CC
330
1F
100
AcDbEntity
  8
0
  6
HIDDEN
 62
     7
370
     0
100
AcDbSpline
210
0.0
220
0.0
230
1.0
 70
     8
 71
     3
 72
    20
 73
    16
 74
     0
 42
0.00000001
 43
0.00000001
 40
0.0
 40
0.0
 40
0.0
 40
0.0
 40
0.2499999999999978
 40
0.2499999999999978
 40
0.3749999999999982
 40
0.3749999999999982
 40
0.4999999999999986
 40
0.4999999999999986
 40
0.6249999999999989
 40
0.6249999999999989
 40
0.7499999999999992
 40
0.7499999999999992
 40
0.8749999999999997
 40
0.8749999999999997
 40
1.0
 40
1.0
 40
1.0
 40
1.0
 10
73.41714279759228
 20
137.7707671515411
 30
0.0
 10
73.41714279759229
 20
137.6915641650088
 30
0.0
 10
73.37016030237955
 20
137.6104679466059
 30
0.0
 10
73.23233871160197
 20
137.490271254855
 30
0.0
 10
73.17605642769198
 20
137.4513445508529
 30
0.0
 10
73.04297157622476
 20
137.3761558184285
 30
0.0
 10
72.9651316339917
 20
137.3395136130866
 30
0.0
 10
72.79249927787735
 20
137.2719230802547
 30
0.0
 10
72.69810628078626
 20
137.2409648984791
 30
0.0
 10
72.49266897447113
 20
137.1854404771094
 30
0.0
 10
72.38032273448395
 20
137.1607319632762
 30
0.0
 10
72.14808187058433
 20
137.120935736168
 30
0.0
 10
72.02737122816161
 20
137.1055158987709
 30
0.0
 10
71.77630036889256
 20
137.0844359239313
 30
0.0
 10
71.64677837247679
 20
137.0789586789103
 30
0.0
 10
71.51714279759227
 20
137.0789586789103
 30
0.0
  0
LINE
  5
CD
330
1F
100
AcDbEntity
  8
0
  6
HIDDEN
 62
     7
370
     0
100
AcDbLine
 10
71.5171427976
 20
137.0789586789
 30
0.0
 11
64.9671427976
 21
137.0789586789
 31
0.0
  0
LINE
  5
CE
330
1F
100
AcDbEntity
  8
0
  6
HIDDEN
 62
     7
370
     0
100
AcDbLine
 10
64.9671427976
 20
88.0055483633
 30
0.0
 11
76.5171427976
 21
88.0055483633
 31
0.0
  0
SPLINE
  5
CF
330
1F
100
AcDbEntity
  8
0
  6
HIDDEN
 62
     7
370
     0
100
AcDbSpline
210
0.0
220
0.0
230
1.0
 70
     8
 71
     3
 72
    18
 73
    14
 74
     0
 42
0.00000001
 43
0.00000001
 40
0.0
 40
0.0
 40
0.0
 40
0.0
 40
0.1249999999999982
 40
0.1249999999999982
 40
0.2499999999999964
 40
0.2499999999999964
 40
0.4999999999999988
 40
0.4999999999999988
 40
0.7500000000000011
 40
0.7500000000000011
 40
0.8750000000000006
 40
0.8750000000000006
 40
1.0
 40
1.0
 40
1.0
 40
1.0
 10
76.51714279759229
 20
88.0055483633433
 30
0.0
 10
76.64661011054949
 20
88.0055483633433
 30
0.0
 10
76.77362085944613
 20
88.00019536475065
 30
0.0
 10
77.02298418064338
 20
87.97945739206186
 30
0.0
 10
77.14660783527182
 20
87.96378548780757
 30
0.0
 10
77.49564017220587
 20
87.90409075940549
 30
0.0
 10
77.70615193701265
 20
87.84632557972449
 30
0.0
 10
78.05006861471217
 20
87.711803738447
 30
0.0
 10
78.18641901622996
 20
87.6341346249416
 30
0.0
 10
78.32345707279251
 20
87.51484349085426
 30
0.0
 10
78.35867609150542
 20
87.47392448171921
 30
0.0
 10
78.40529966844397
 20
87.39326848842919
 30
0.0
 10
78.41714279759229
 20
87.35329996823631
 30
0.0
 10
78.41714279759228
 20
87.31373989071251
 30
0.0
  0
LINE
  5
D0
330
1F
100
AcDbEntity
  8
0
  6
HIDDEN
 62
     7
370
     0
100
AcDbLine
 10
64.9671427976
 20
88.0055483633
 30
0.0
 11
64.9671427976
 21
137.0789586789
 31
0.0
  0
LWPOLYLINE
  5
D1
330
1F
100
AcDbEntity
  8
0
  6
HIDDEN
 62
     7
370
     0
100
AcDbPolyline
 90
       14
 70
   128
 43
0.0
 10
122.2171427976
 20
152.4859840844
 10
123.2567012517
 20
152.530424942
 10
124.250826013
 20
152.6618052361
 10
125.1560690591
 20
152.8743830174
 10
125.932866925
 20
153.1588676168
 10
126.5472698165
 20
153.5028256921
 10
126.9724253791
 20
153.8912246251
 10
127.1897522744
 20
154.3070895185
 10
127.1897522744
 20
154.7322450811
 10
126.9724253791
 20
155.1481099745
 10
126.5472698165
 20
155.5365089075
 10
125.932866925
 20
155.8804669829
 10
125.1560690591
 20
156.1649515822
 10
124.663161266
 20
156.2933839004
  0
LWPOLYLINE
  5
D2
330
1F
100
AcDbEntity
  8
0
  6
HIDDEN
 62
     7
370
     0
100
AcDbPolyline
 90
       14
 70
   128
 43
0.0
 10
119.7586312913
 20
156.2905241504
 10
119.2782165361
 20
156.1649515822
 10
118.5014186702
 20
155.8804669829
 10
117.8870157787
 20
155.5365089075
 10
117.4618602161
 20
155.1481099745
 10
117.2445333208
 20
154.7322450811
 10
117.2445333208
 20
154.3070895185
 10
117.4618602161
 20
153.8912246251
 10
117.8870157787
 20
153.5028256921
 10
118.5014186702
 20
153.1588676168
 10
119.2782165361
 20
152.8743830174
 10
120.1834595822
 20
152.6618052361
 10
121.1775843435
 20
152.530424942
 10
122.2171427976
 20
152.4859840844
  0
LINE
  5
D3
330
1F
100
AcDbEntity
  8
0
  6
HIDDEN
 62
     7
370
     0
100
AcDbLine
 10
64.9671427976
 20
85.1722535211
 30
0.0
 11
64.9671427976
 21
80.2939683193
 31
0.0
  0
LINE
  5
D4
330
1F
100
AcDbEntity
  8
0
  6
HIDDEN
 62
     7
370
     0
100
AcDbLine
 10
78.4171427976
 20
85.1722535211
 30
0.0
 11
78.4171427976
 21
78.6729202558
 31
0.0
  0
LINE
  5
D5
330
1F
100
AcDbEntity
  8
0
  6
HIDDEN
 62
     7
370
     0
100
AcDbLine
 10
73.4171427976
 20
139.9122535211
 30
0.0
 11
73.4171427976
 21
146.2868622581
 31
0.0
  0
LINE
  5
D6
330
1F
100
AcDbEntity
  8
0
  6
HIDDEN
 62
     7
370
     0
100
AcDbLine
 10
64.9671427976
 20
139.9122535211
 30
0.0
 11
64.9671427976
 21
144.7905387229
 31
0.0
  0
LINE
  5
D7
330
1F
100
AcDbEntity
  8
0
  6
HIDDEN
 62
     7
370
     0
100
AcDbLine
 10
224.7171427976
 20
100.0422535211
 30
0.0
 11
224.7171427976
 21
125.0422535211
 31
0.0
  0
LINE
  5
D8
330
1F
100
AcDbEntity
  8
0
  6
HIDDEN
 62
     7
370
     0
100
AcDbLine
 10
137.5171427976
 20
99.5422535211
 30
0.0
 11
137.5171427976
 21
125.5422535211
 31
0.0
  0
LINE
  5
D9
330
1F
100
AcDbEntity
  8
0
  6
HIDDEN
 62
     7
370
     0
100
AcDbLine
 10
141.5171427976
 20
99.5422535211
 30
0.0
 11
141.5171427976
 21
125.5422535211
 31
0.0
  0
LINE
  5
DA
330
1F
100
AcDbEntity
  8
0
  6
HIDDEN
 62
     7
370
     0
100
AcDbLine
 10
171.1171427976
 20
99.7422535211
 30
0.0
 11
171.1171427976
 21
125.3422535211
 31
0.0
  0
SPLINE
  5
DB
330
1F
100
AcDbEntity
  8
0
  6
HIDDEN
 62
     7
370
     0
100
AcDbSpline
210
0.0
220
0.0
230
1.0
 70
     8
 71
     3
 72
    23
 73
    19
 74
     0
 42
0.00000001
 43
0.00000001
 40
0.0
 40
0.0
 40
0.0
 40
0.0
 40
0.052312317876179
 40
0.1049915026917111
 40
0.1588250674243065
 40
0.2130559209977751
 40
0.2653675040126759
 40
0.3717463041428956
 40
0.4259341265728858
 40
0.4786474818970106
 40
0.5858456392878623
 40
0.6404576823414803
 40
0.6934236928582541
 40
0.7467611188863887
 40
0.8012766130235266
 40
0.8562022889957271
 40
0.9087321543526564
 40
1.0
 40
1.0
 40
1.0
 40
1.0
 10
173.2171427975923
 20
125.1850380245501
 30
0.0
 10
173.2719909202224
 20
125.1852447005143
 30
0.0
 10
173.3820718160524
 20
125.1856595018639
 30
0.0
 10
173.547438631144
 20
125.1890182062745
 30
0.0
 10
173.7124278050994
 20
125.1943712665259
 30
0.0
 10
173.8734529224377
 20
125.2017354276161
 30
0.0
 10
174.0809161781492
 20
125.2137925560017
 30
0.0
 10
174.2773085934555
 20
125.2288209156758
 30
0.0
 10
174.4580399740636
 20
125.2455652975466
 30
0.0
 10
174.6278071079477
 20
125.2630316192459
 30
0.0
 10
174.778947829399
 20
125.2808344377655
 30
0.0
 10
174.9072886229138
 20
125.2974064440142
 30
0.0
 10
174.9915355094527
 20
125.3088708844362
 30
0.0
 10
175.0632773248594
 20
125.3190607039235
 30
0.0
 10
175.1227640835887
 20
125.3278120672525
 30
0.0
 10
175.1675725990173
 20
125.3345825247087
 30
0.0
 10
175.207755182144
 20
125.3407776842003
 30
0.0
 10
175.2113422490269
 20
125.3413451377302
 30
0.0
 10
175.2136189463701
 20
125.3417052982698
 30
0.0
  0
LINE
  5
DC
330
1F
100
AcDbEntity
  8
0
  6
HIDDEN
 62
     7
370
     0
100
AcDbLine
 10
173.2683833463
 20
125.1853710705
 30
0.0
 11
172.9630967158
 21
125.1877280529
 31
0.0
  0
SPLINE
  5
DD
330
1F
100
AcDbEntity
  8
0
  6
HIDDEN
 62
     7
370
     0
100
AcDbSpline
210
0.0
220
0.0
230
1.0
 70
     8
 71
     3
 72
    22
 73
    18
 74
     0
 42
0.00000001
 43
0.00000001
 40
0.0
 40
0.0
 40
0.0
 40
0.0
 40
0.0468443003380621
 40
0.1530008964562443
 40
0.207093712218988
 40
0.2592571651740908
 40
0.3653258742232157
 40
0.4193506305076808
 40
0.4720432571313279
 40
0.579197845476088
 40
0.6337865429864533
 40
0.6867585594509598
 40
0.7401017575505735
 40
0.7946222893424436
 40
0.8495528116199232
 40
0.9242369618433932
 40
1.0
 40
1.0
 40
1.0
 40
1.0
 10
171.2177617316457
 20
125.342156927745
 30
0.0
 10
171.2186187228372
 20
125.3420231146529
 30
0.0
 10
171.2214177916593
 20
125.3415860599229
 30
0.0
 10
171.2574907748173
 20
125.3359606251386
 30
0.0
 10
171.319417512978
 20
125.3266359237756
 30
0.0
 10
171.399233702006
 20
125.3149472720531
 30
0.0
 10
171.5044563233072
 20
125.3002614934478
 30
0.0
 10
171.6332296956672
 20
125.2837343418307
 30
0.0
 10
171.7773781885327
 20
125.266378699612
 30
0.0
 10
171.9429877019077
 20
125.2485299756718
 30
0.0
 10
172.1260574458078
 20
125.2317701404305
 30
0.0
 10
172.2710687531309
 20
125.2201027341136
 30
0.0
 10
172.4227170935523
 20
125.2096579213798
 30
0.0
 10
172.5820417480349
 20
125.2006213521548
 30
0.0
 10
172.7675923439223
 20
125.1925454309644
 30
0.0
 10
172.9798994710143
 20
125.1863320886857
 30
0.0
 10
173.1376845189851
 20
125.1854714365668
 30
0.0
 10
173.2171427975923
 20
125.1850380245501
 30
0.0
  0
SPLINE
  5
DE
330
1F
100
AcDbEntity
  8
0
  6
HIDDEN
 62
     7
370
     0
100
AcDbSpline
210
0.0
220
0.0
230
1.0
 70
    11
 71
     3
 72
    60
 73
    56
 74
     0
 42
0.00000001
 43
0.00000001
 40
-0.0625000000000006
 40
-0.0625000000000006
 40
0.0
 40
0.0
 40
0.0312499999999994
 40
0.0312499999999994
 40
0.0624999999999987
 40
0.0624999999999987
 40
0.0937499999999981
 40
0.0937499999999981
 40
0.1249999999999974
 40
0.1249999999999974
 40
0.1874999999999973
 40
0.1874999999999973
 40
0.2499999999999971
 40
0.2499999999999971
 40
0.281249999999997
 40
0.281249999999997
 40
0.3124999999999969
 40
0.3124999999999969
 40
0.3437499999999968
 40
0.3437499999999968
 40
0.3749999999999968
 40
0.3749999999999968
 40
0.4062499999999967
 40
0.4062499999999967
 40
0.4374999999999966
 40
0.4374999999999966
 40
0.4687499999999965
 40
0.4687499999999965
 40
0.4999999999999964
 40
0.4999999999999964
 40
0.5624999999999963
 40
0.5624999999999963
 40
0.5937499999999967
 40
0.5937499999999967
 40
0.6249999999999969
 40
0.6249999999999969
 40
0.6562499999999971
 40
0.6562499999999971
 40
0.6874999999999973
 40
0.6874999999999973
 40
0.7187499999999977
 40
0.7187499999999977
 40
0.7499999999999979
 40
0.7499999999999979
 40
0.7812499999999981
 40
0.7812499999999981
 40
0.8124999999999983
 40
0.8124999999999983
 40
0.8437499999999987
 40
0.8437499999999987
 40
0.8749999999999989
 40
0.8749999999999989
 40
0.9374999999999994
 40
0.9374999999999994
 40
1.0
 40
1.0
 40
1.031249999999999
 40
1.031249999999999
 10
175.2171427975922
 20
99.7422535211268
 30
0.0
 10
175.2171427975922
 20
99.7422535211268
 30
0.0
 10
175.2041359596596
 20
99.74430412635985
 30
0.0
 10
175.1532103210556
 20
99.75211183542515
 30
0.0
 10
175.1146587905914
 20
99.75796250703306
 30
0.0
 10
175.0142008814721
 20
99.77248658722436
 30
0.0
 10
174.9527564526804
 20
99.78109453936057
 30
0.0
 10
174.8076252541538
 20
99.80002223132459
 30
0.0
 10
174.7232866220872
 20
99.81040013306921
 30
0.0
 10
174.4469715482061
 20
99.84111323154832
 30
0.0
 10
174.22416822096
 20
99.86169974839463
 30
0.0
 10
173.7430523158104
 20
99.89081389548751
 30
0.0
 10
173.4795881925149
 20
99.89944540842475
 30
0.0
 10
173.0876298077977
 20
99.89948074527388
 30
0.0
 10
172.9548890620654
 20
99.89739983593913
 30
0.0
 10
172.6982336172698
 20
99.88947459966336
 30
0.0
 10
172.5734668086687
 20
99.88367206221079
 30
0.0
 10
172.3310804317268
 20
99.86903481830711
 30
0.0
 10
172.2142609772505
 20
99.86021321795246
 30
0.0
 10
171.9977847440456
 20
99.84126110444869
 30
0.0
 10
171.8965798915109
 20
99.83102584845659
 30
0.0
 10
171.7101964354642
 20
99.81031298184254
 30
0.0
 10
171.6275890466019
 20
99.80013731844943
 30
0.0
 10
171.4827456668741
 20
99.78125913972028
 30
0.0
 10
171.4200054303585
 20
99.7724752840492
 30
0.0
 10
171.3196231056076
 20
99.75796181259236
 30
0.0
 10
171.281701478583
 20
99.7522070375663
 30
0.0
 10
171.2303382818188
 20
99.74433384110817
 30
0.0
 10
171.2171934805425
 20
99.74226144033722
 30
0.0
 10
171.2170418807
 20
99.74223775286353
 30
0.0
 10
171.2695021072373
 20
99.75071014284798
 30
0.0
 10
171.4189760493325
 20
99.7723289681209
 30
0.0
 10
171.4811493930243
 20
99.78104474370132
 30
0.0
 10
171.6269441813846
 20
99.80005951854913
 30
0.0
 10
171.7095225563149
 20
99.81022530358224
 30
0.0
 10
171.8937100944617
 20
99.8307194728635
 30
0.0
 10
171.9964329987542
 20
99.84113278142719
 30
0.0
 10
172.2132707529999
 20
99.86013639844722
 30
0.0
 10
172.3279813348572
 20
99.86881724078148
 30
0.0
 10
172.570261424756
 20
99.88350814270632
 30
0.0
 10
172.6971204459837
 20
99.8894241495253
 30
0.0
 10
172.9528378955969
 20
99.89735237711196
 30
0.0
 10
173.0832976961805
 20
99.89945151178225
 30
0.0
 10
173.3476600534689
 20
99.89948630463513
 30
0.0
 10
173.4777133804747
 20
99.89743140814385
 30
0.0
 10
173.7337307581747
 20
99.88956636142282
 30
0.0
 10
173.861045708023
 20
99.88365860759451
 30
0.0
 10
174.1030305148869
 20
99.86904511620827
 30
0.0
 10
174.2178917037151
 20
99.86038636810348
 30
0.0
 10
174.4354631731215
 20
99.8413653375683
 30
0.0
 10
174.5381386175661
 20
99.83097319469879
 30
0.0
 10
174.8145156843132
 20
99.80027288773154
 30
0.0
 10
174.9637224458269
 20
99.77977953641982
 30
0.0
 10
175.1637953440137
 20
99.75086353101298
 30
0.0
 10
175.2171427975922
 20
99.7422535211268
 30
0.0
 10
175.2171427975922
 20
99.7422535211268
 30
0.0
  0
LINE
  5
DF
330
1F
100
AcDbEntity
  8
0
  6
HIDDEN
 62
     7
370
     0
100
AcDbLine
 10
170.7171427976
 20
100.1422535211
 30
0.0
 11
170.7171427976
 21
124.9422534022
 31
0.0
  0
LINE
  5
E0
330
1F
100
AcDbEntity
  8
0
  6
HIDDEN
 62
     7
370
     0
100
AcDbLine
 10
181.2171427976
 20
100.0422535211
 30
0.0
 11
181.2171427976
 21
125.0422535211
 31
0.0
  0
LINE
  5
E1
330
1F
100
AcDbEntity
  8
0
  6
HIDDEN
 62
     7
370
     0
100
AcDbLine
 10
126.4171427976
 20
101.2922535211
 30
0.0
 11
126.4171427976
 21
123.7922535211
 31
0.0
  0
ELLIPSE
  5
E2
330
1F
100
AcDbEntity
  8
0
  6
HIDDEN
 62
     7
370
     0
100
AcDbEllipse
 10
57.0324695973
 20
112.5422535211
 30
0.0
 11
31.08108570811662
 21
-1.421085471520200E-14
 31
0.0
210
0.0
220
0.0
230
1.0
 40
0.8164965809
 41
4.915995335118103
 42
4.970536038964787
  0
ELLIPSE
  5
E3
330
1F
100
AcDbEntity
  8
0
  6
HIDDEN
 62
     7
370
     0
100
AcDbEllipse
 10
57.0324695973
 20
112.5422535211
 30
0.0
 11
31.08108570811662
 21
1.421085471520200E-14
 31
0.0
210
0.0
220
0.0
230
1.0
 40
0.8164965809
 41
1.312649268214811
 42
1.367189972061495
  0
LINE
  5
E4
330
1F
100
AcDbEntity
  8
0
  6
HIDDEN
 62
     7
370
     0
100
AcDbLine
 10
142.1671427976
 20
68.6422535211
 30
0.0
 11
128.1671427976
 21
68.6422535211
 31
0.0
  0
LINE
  5
E5
330
1F
100
AcDbEntity
  8
0
  6
HIDDEN
 62
     7
370
     0
100
AcDbLine
 10
118.1671427976
 20
62.5522545213
 30
0.0
 11
118.1671427976
 21
68.6422535211
 31
0.0
  0
LINE
  5
E6
330
1F
100
AcDbEntity
  8
0
  6
HIDDEN
 62
     7
370
     0
100
AcDbLine
 10
128.1671427976
 20
68.6422535211
 30
0.0
 11
118.1671427976
 21
68.6422535211
 31
0.0
  0
LINE
  5
E7
330
1F
100
AcDbEntity
  8
0
  6
HIDDEN
 62
     7
370
     0
100
AcDbLine
 10
78.4171427976
 20
85.1722535211
 30
0.0
 11
78.4171427976
 21
87.3137398907
 31
0.0
  0
LINE
  5
E8
330
1F
100
AcDbEntity
  8
0
  6
HIDDEN
 62
     7
370
     0
100
AcDbLine
 10
64.9671427976
 20
85.1722535211
 30
0.0
 11
64.9671427976
 21
88.0055483633
 31
0.0
  0
LINE
  5
E9
330
1F
100
AcDbEntity
  8
0
  6
HIDDEN
 62
     7
370
     0
100
AcDbLine
 10
64.9671427976
 20
139.9122535211
 30
0.0
 11
64.9671427976
 21
137.0789586789
 31
0.0
  0
LINE
  5
EA
330
1F
100
AcDbEntity
  8
0
  6
HIDDEN
 62
     7
370
     0
100
AcDbLine
 10
73.4171427976
 20
139.9122535211
 30
0.0
 11
73.4171427976
 21
137.7707671515
 31
0.0
  0
LINE
  5
EB
330
1F
100
AcDbEntity
  8
0
  6
HIDDEN
 62
     7
370
     0
100
AcDbLine
 10
128.1671427976
 20
156.4422535211
 30
0.0
 11
118.1671427976
 21
156.4422535211
 31
0.0
  0
LINE
  5
EC
330
1F
100
AcDbEntity
  8
0
  6
HIDDEN
 62
     7
370
     0
100
AcDbLine
 10
142.1671427976
 20
156.4422535211
 30
0.0
 11
128.1671427976
 21
156.4422535211
 31
0.0
  0
SPLINE
  5
ED
330
1F
100
AcDbEntity
  8
0
  6
HIDDEN
 62
     7
370
     0
100
AcDbSpline
210
0.0
220
0.0
230
1.0
 70
     8
 71
     3
 72
    30
 73
    26
 74
     0
 42
0.00000001
 43
0.00000001
 40
0.0
 40
0.0
 40
0.0
 40
0.0
 40
0.0531342455628749
 40
0.1125155265750545
 40
0.1779133126407893
 40
0.2129376584750276
 40
0.2494910590587914
 40
0.2912572179690492
 40
0.326099827829084
 40
0.3540151762306518
 40
0.3750006159146569
 40
0.441458777722908
 40
0.5001768166085706
 40
0.5546919274134664
 40
0.6144365766931759
 40
0.6794624008050159
 40
0.7140196595547182
 40
0.7499169027658243
 40
0.7913817196094494
 40
0.8260489171984744
 40
0.8539147116908822
 40
0.8749762509645607
 40
0.9411632130759326
 40
0.9999141562139949
 40
1.0
 40
1.0
 40
1.0
 40
1.0
 10
104.2166656539266
 20
75.44233145309032
 30
0.0
 10
104.2004708977964
 20
75.44723132304001
 30
0.0
 10
104.1661773551962
 20
75.45760714454083
 30
0.0
 10
103.8648709848733
 20
75.53325810442004
 30
0.0
 10
103.422703661263
 20
75.62954405200121
 30
0.0
 10
102.9278707619279
 20
75.72920893634245
 30
0.0
 10
102.4573951251042
 20
75.82148707001285
 30
0.0
 10
101.9264736908059
 20
75.91711910653265
 30
0.0
 10
101.3883231908055
 20
76.00276934876507
 30
0.0
 10
100.9302758561403
 20
76.07006114193496
 30
0.0
 10
100.2747115350973
 20
76.15840931087338
 30
0.0
 10
99.391405097063
 20
76.25506739514032
 30
0.0
 10
98.26274336435908
 20
76.3418425718983
 30
0.0
 10
97.17298161461134
 20
76.37992126961244
 30
0.0
 10
96.07695333618149
 20
76.3817717043756
 30
0.0
 10
95.17156208923755
 20
76.3556102487906
 30
0.0
 10
94.4752593788225
 20
76.31900302366168
 30
0.0
 10
93.94857965054746
 20
76.2799861481846
 30
0.0
 10
93.48193353551481
 20
76.23777702071268
 30
0.0
 10
93.11071825979101
 20
76.2007729311433
 30
0.0
 10
92.85667178254894
 20
76.172072170699
 30
0.0
 10
92.55561662983953
 20
76.13569222010896
 30
0.0
 10
92.30013283503591
 20
76.10291205312396
 30
0.0
 10
92.20091211008979
 20
76.08657416841127
 30
0.0
 10
92.21719266737288
 20
76.08916775458697
 30
0.0
 10
92.21721642095885
 20
76.08917153866945
 30
0.0
  0
SPLINE
  5
EE
330
1F
100
AcDbEntity
  8
0
  6
HIDDEN
 62
     7
370
     0
100
AcDbSpline
210
0.0
220
0.0
230
1.0
 70
     8
 71
     3
 72
    30
 73
    26
 74
     0
 42
0.00000001
 43
0.00000001
 40
0.0
 40
0.0
 40
0.0
 40
0.0
 40
0.000114389846639
 40
0.0285451177035873
 40
0.0588486195796929
 40
0.0910290700910382
 40
0.1250898944369394
 40
0.1546783565915499
 40
0.1963571125788942
 40
0.2501116953564556
 40
0.3205267878206604
 40
0.3856116964489398
 40
0.4454050040629273
 40
0.4999581999561183
 40
0.5283504110511834
 40
0.5586349368042077
 40
0.5908194399338572
 40
0.624910244621901
 40
0.6541851704054132
 40
0.6958636347728548
 40
0.7499312446789212
 40
0.8215908963199569
 40
0.8871425236020795
 40
0.9466379848806851
 40
1.0
 40
1.0
 40
1.0
 40
1.0
 10
92.21723987735673
 20
148.9952648489615
 30
0.0
 10
92.21720743084744
 20
148.9952719239938
 30
0.0
 10
92.20911065080692
 20
148.9970374445727
 30
0.0
 10
92.23777155976101
 20
148.9915826501373
 30
0.0
 10
92.3111590780665
 20
148.9810396680059
 30
0.0
 10
92.45481542422672
 20
148.9613544999348
 30
0.0
 10
92.65585117936983
 20
148.9365152250133
 30
0.0
 10
92.93848171445876
 20
148.902306762718
 30
0.0
 10
93.35189084536398
 20
148.8586268648891
 30
0.0
 10
94.02817834441147
 20
148.7955837977839
 30
0.0
 10
94.96660924610381
 20
148.7342866271954
 30
0.0
 10
96.07610245939327
 20
148.7029981837364
 30
0.0
 10
97.17358319013091
 20
148.7046533513233
 30
0.0
 10
98.07361442857766
 20
148.7359595534227
 30
0.0
 10
98.78495535443
 20
148.7827927022249
 30
0.0
 10
99.35037225542044
 20
148.8299595641209
 30
0.0
 10
99.93929567824887
 20
148.8893985706709
 30
0.0
 10
100.5037053307263
 20
148.9557557772789
 30
0.0
 10
101.0979015246625
 20
149.0376751837104
 30
0.0
 10
101.764509685633
 20
149.1393231664608
 30
0.0
 10
102.5658424313333
 20
149.2814620770611
 30
0.0
 10
103.3183524158412
 20
149.4327066478275
 30
0.0
 10
103.8636389108073
 20
149.5505575210869
 30
0.0
 10
104.1663604423062
 20
149.6267867528361
 30
0.0
 10
104.2006508929192
 20
149.6372390623307
 30
0.0
 10
104.2168643295692
 20
149.6421811921308
 30
0.0
  0
LINE
  5
EF
330
1F
100
AcDbEntity
  8
0
  6
HIDDEN
 62
     7
370
     0
100
AcDbLine
 10
170.2171427976
 20
107.0422535211
 30
0.0
 11
170.2171427976
 21
118.0422535211
 31
0.0
  0
LINE
  5
F0
330
1F
100
AcDbEntity
  8
0
  6
HIDDEN
 62
     7
370
     0
100
AcDbLine
 10
148.3171427976
 20
106.5422535211
 30
0.0
 11
148.3171427976
 21
118.5422535211
 31
0.0
  0
LINE
  5
F1
330
1F
100
AcDbEntity
  8
0
  6
HIDDEN
 62
     7
370
     0
100
AcDbLine
 10
148.6175731071
 20
107.0422535211
 30
0.0
 11
148.6175731071
 21
118.0422535211
 31
0.0
  0
LINE
  5
F2
330
1F
100
AcDbEntity
  8
0
  6
HIDDEN
 62
     7
370
     0
100
AcDbLine
 10
157.6671427976
 20
86.6196037903
 30
0.0
 11
152.6671427976
 21
86.6196037903
 31
0.0
  0
LINE
  5
F3
330
1F
100
AcDbEntity
  8
0
  6
HIDDEN
 62
     7
370
     0
100
AcDbLine
 10
155.1671427976
 20
138.4649032519
 30
0.0
 11
157.6671427976
 21
138.4649032519
 31
0.0
  0
LINE
  5
F4
330
1F
100
AcDbEntity
  8
0
  6
HIDDEN
 62
     7
370
     0
100
AcDbLine
 10
152.6671427976
 20
138.4649032519
 30
0.0
 11
155.1671427976
 21
138.4649032519
 31
0.0
  0
LINE
  5
F5
330
1F
100
AcDbEntity
  8
0
  6
HIDDEN
 62
     7
370
     0
100
AcDbLine
 10
155.1671427976
 20
125.0422535211
 30
0.0
 11
157.6671427976
 21
125.0422535211
 31
0.0
  0
LINE
  5
F6
330
1F
100
AcDbEntity
  8
0
  6
HIDDEN
 62
     7
370
     0
100
AcDbLine
 10
152.6671427976
 20
125.0422535211
 30
0.0
 11
155.1671427976
 21
125.0422535211
 31
0.0
  0
LINE
  5
F7
330
1F
100
AcDbEntity
  8
0
  6
HIDDEN
 62
     7
370
     0
100
AcDbLine
 10
157.6671427976
 20
100.0422535211
 30
0.0
 11
152.6671427976
 21
100.0422535211
 31
0.0
  0
SPLINE
  5
F8
330
1F
100
AcDbEntity
  8
0
  6
HIDDEN
 62
     7
370
     0
100
AcDbSpline
210
0.0
220
0.0
230
1.0
 70
     8
 71
     3
 72
    37
 73
    33
 74
     0
 42
0.00000001
 43
0.00000001
 40
0.0
 40
0.0
 40
0.0
 40
0.0
 40
0.0424596887654468
 40
0.0863314296594016
 40
0.1287563683575525
 40
0.1722285363916192
 40
0.2005448228974356
 40
0.2290758874995047
 40
0.2582206094554623
 40
0.2875553381332586
 40
0.3163102172471429
 40
0.3452443566603149
 40
0.3748113728793309
 40
0.4046596252194496
 40
0.4361449337451486
 40
0.4683534663768323
 40
0.4999011485141309
 40
0.5325825917621275
 40
0.5697987721843555
 40
0.6080595282904095
 40
0.6375782327276269
 40
0.6673207091954245
 40
0.6976639260098552
 40
0.7281925992597079
 40
0.7587898609273078
 40
0.7895978526010072
 40
0.8211557059601731
 40
0.8530228974824474
 40
0.8950953391608221
 40
0.9382731915443141
 40
0.9803984030180654
 40
1.0
 40
1.0
 40
1.0
 40
1.0
 10
175.2171427975922
 20
133.2759022642286
 30
0.0
 10
175.2144628965935
 20
133.2727618192378
 30
0.0
 10
175.2090139710056
 20
133.2663764896767
 30
0.0
 10
175.1660381811979
 20
133.2156874265374
 30
0.0
 10
175.100859817392
 20
133.1376458229394
 30
0.0
 10
175.0260097075322
 20
133.0459645006915
 30
0.0
 10
174.9511860547171
 20
132.9515688635854
 30
0.0
 10
174.882142180848
 20
132.861910787744
 30
0.0
 10
174.8087345008754
 20
132.7629515935498
 30
0.0
 10
174.7330732438539
 20
132.6558286217637
 30
0.0
 10
174.6572311082539
 20
132.5413587320561
 30
0.0
 10
174.5827168942854
 20
132.4189806348504
 30
0.0
 10
174.5112476448639
 20
132.2870035659044
 30
0.0
 10
174.4452140170598
 20
132.1423833030292
 30
0.0
 10
174.3899212015041
 20
131.9839280525965
 30
0.0
 10
174.3534889383787
 20
131.8133496484833
 30
0.0
 10
174.3429376894092
 20
131.6351486296458
 30
0.0
 10
174.3616201427045
 20
131.4485861739025
 30
0.0
 10
174.4110107203346
 20
131.2577157768928
 30
0.0
 10
174.4798667790946
 20
131.0843478111861
 30
0.0
 10
174.5540226270291
 20
130.9333246998598
 30
0.0
 10
174.627168310265
 20
130.8021699273941
 30
0.0
 10
174.7036769039237
 20
130.6771050347314
 30
0.0
 10
174.7813754354765
 20
130.5585651424498
 30
0.0
 10
174.8581040167393
 20
130.4474584052563
 30
0.0
 10
174.9325846936925
 20
130.3438504517269
 30
0.0
 10
175.0031749971422
 20
130.2487008070831
 30
0.0
 10
175.0744223570713
 20
130.1549954938517
 30
0.0
 10
175.1411808768131
 20
130.0691461834992
 30
0.0
 10
175.1913575450084
 20
130.0056670912068
 30
0.0
 10
175.2169160161646
 20
129.9736391537384
 30
0.0
 10
175.2143574818043
 20
129.97684552659
 30
0.0
 10
175.2135450088991
 20
129.977863723221
 30
0.0
  0
LWPOLYLINE
  5
F9
330
1F
100
AcDbEntity
  8
0
  6
HIDDEN
 62
     7
370
     0
100
AcDbPolyline
 90
       24
 70
   128
 43
0.0
 10
171.2177545254
 20
130.1312355106
 10
171.2283892401
 20
130.1437353933
 10
171.265134549
 20
130.1871874177
 10
171.321577176
 20
130.254780032
 10
171.3971862765
 20
130.3471713697
 10
171.5215813132
 20
130.5049587516
 10
171.6655400697
 20
130.7003509236
 10
171.8120067063
 20
130.9229634295
 10
171.9511019296
 20
131.1821092788
 10
172.0165659014
 20
131.3452408736
 10
172.064544478
 20
131.5225270022
 10
172.0860433839
 20
131.7041901542
 10
172.0774093297
 20
131.8947055585
 10
172.0389595097
 20
132.0823465931
 10
171.9760398547
 20
132.2650438714
 10
171.8513912238
 20
132.5241278552
 10
171.7084213958
 20
132.76262824
 10
171.5613983635
 20
132.9791517254
 10
171.423494605
 20
133.1674783401
 10
171.337758611
 20
133.279736658
 10
171.2701691411
 20
133.3662389347
 10
171.2311626244
 20
133.4154767489
 10
171.2171427976
 20
133.4330626923
 10
171.2171427976
 20
133.4330626923
  0
LINE
  5
FA
330
1F
100
AcDbEntity
  8
0
  6
HIDDEN
 62
     7
370
     0
100
AcDbLine
 10
175.2171427976
 20
134.3422535211
 30
0.0
 11
171.2171427976
 21
134.3422535211
 31
0.0
  0
LINE
  5
FB
330
1F
100
AcDbEntity
  8
0
  6
HIDDEN
 62
     7
370
     0
100
AcDbLine
 10
173.2171427976
 20
91.0422535211
 30
0.0
 11
175.2171427976
 21
91.0422535211
 31
0.0
  0
LINE
  5
FC
330
1F
100
AcDbEntity
  8
0
  6
HIDDEN
 62
     7
370
     0
100
AcDbLine
 10
171.2171427976
 20
91.0422535211
 30
0.0
 11
173.2171427976
 21
91.0422535211
 31
0.0
  0
SPLINE
  5
FD
330
1F
100
AcDbEntity
  8
0
  6
HIDDEN
 62
     7
370
     0
100
AcDbSpline
210
0.0
220
0.0
230
1.0
 70
     8
 71
     3
 72
    19
 73
    15
 74
     0
 42
0.00000001
 43
0.00000001
 40
0.0
 40
0.0
 40
0.0
 40
0.0
 40
0.0240958236836758
 40
0.1012507825846967
 40
0.1817621187324998
 40
0.3020655768120294
 40
0.4246133774183113
 40
0.4876987507417092
 40
0.5511915881438109
 40
0.6276226292233608
 40
0.7450289659137592
 40
0.8654508688542585
 40
0.9512026644016328
 40
0.9999999999999999
 40
0.9999999999999999
 40
0.9999999999999999
 40
0.9999999999999999
 10
175.2059155647653
 20
95.09705497790075
 30
0.0
 10
175.2092407243882
 20
95.10123143016789
 30
0.0
 10
175.2232130632656
 20
95.11878090538092
 30
0.0
 10
175.1481707801172
 20
95.02477289978003
 30
0.0
 10
174.9800709333619
 20
94.80800420409349
 30
0.0
 10
174.7027244048217
 20
94.42354017998117
 30
0.0
 10
174.4404393900985
 20
93.96410496244272
 30
0.0
 10
174.3323778636353
 20
93.51771951243708
 30
0.0
 10
174.363321137216
 20
93.13753566859059
 30
0.0
 10
174.5393076473427
 20
92.70992029070347
 30
0.0
 10
174.8266374558979
 20
92.28627081503255
 30
0.0
 10
175.0835016311453
 20
91.96626375371635
 30
0.0
 10
175.2034716948588
 20
91.82463740297412
 30
0.0
 10
175.2135042579469
 20
91.81287183260234
 30
0.0
 10
175.2171427975922
 20
91.80860477802497
 30
0.0
  0
SPLINE
  5
FE
330
1F
100
AcDbEntity
  8
0
  6
HIDDEN
 62
     7
370
     0
100
AcDbSpline
210
0.0
220
0.0
230
1.0
 70
     8
 71
     3
 72
    19
 73
    15
 74
     0
 42
0.00000001
 43
0.00000001
 40
0.0
 40
0.0
 40
0.0
 40
0.0
 40
0.0842370229743164
 40
0.1680990403005499
 40
0.2844695418496853
 40
0.403223713781648
 40
0.4701616865023178
 40
0.5377393992815743
 40
0.5960353086059978
 40
0.6985739384103442
 40
0.8067844865951725
 40
0.9020386211938957
 40
0.997897307162546
 40
1.0
 40
1.0
 40
1.0
 40
1.0
 10
171.2171427975923
 20
91.65144434999425
 30
0.0
 10
171.2279691554518
 20
91.66492465013148
 30
0.0
 10
171.2495736744848
 20
91.69182523892273
 30
0.0
 10
171.4219543514048
 20
91.91178381569743
 30
0.0
 10
171.6841435672477
 20
92.27005145714521
 30
0.0
 10
171.9485403316837
 20
92.70858972843855
 30
0.0
 10
172.0906946713312
 20
93.14650679303224
 30
0.0
 10
172.0914194730071
 20
93.51059304968621
 30
0.0
 10
171.9675567040032
 20
93.90732221126733
 30
0.0
 10
171.7340442172687
 20
94.30074261785126
 30
0.0
 10
171.4634162925034
 20
94.65852610995013
 30
0.0
 10
171.2775333451056
 20
94.88351439202181
 30
0.0
 10
171.1985390159083
 20
94.97595589140845
 30
0.0
 10
171.2179834758567
 20
94.95299794802698
 30
0.0
 10
171.2184008416305
 20
94.9525051670586
 30
0.0
  0
LINE
  5
FF
330
1F
100
AcDbEntity
  8
0
  6
HIDDEN
 62
     7
370
     0
100
AcDbLine
 10
170.3266373916
 20
133.468050745
 30
0.0
 11
170.1970799996
 21
130.1705949254
 31
0.0
  0
LINE
  5
100
330
1F
100
AcDbEntity
  8
0
  6
HIDDEN
 62
     7
370
     0
100
AcDbLine
 10
170.3266373916
 20
91.6164562973
 30
0.0
 11
170.1970799996
 21
94.9139121169
 31
0.0
  0
LWPOLYLINE
  5
101
330
1F
100
AcDbEntity
  8
0
  6
HIDDEN
 62
     7
370
     0
100
AcDbPolyline
 90
       31
 70
   128
 43
0.0
 10
122.2171427976
 20
157.8549593729
 10
123.2567012517
 20
157.8211955592
 10
124.250826013
 20
157.7213797588
 10
125.1560690591
 20
157.559874401
 10
125.932866925
 20
157.3437380451
 10
126.5472698165
 20
157.082416887
 10
126.9724253791
 20
156.7873319151
 10
127.1897522744
 20
156.4713797588
 10
127.1897522744
 20
156.1483690433
 10
126.9724253791
 20
155.832416887
 10
126.5472698165
 20
155.5373319151
 10
125.932866925
 20
155.2760107569
 10
125.1560690591
 20
155.059874401
 10
124.250826013
 20
154.8983690433
 10
123.2567012517
 20
154.7985532429
 10
122.2171427976
 20
154.7647894292
 10
121.1775843435
 20
154.7985532429
 10
120.1834595822
 20
154.8983690433
 10
119.2782165361
 20
155.059874401
 10
118.5014186702
 20
155.2760107569
 10
117.8870157787
 20
155.5373319151
 10
117.4618602161
 20
155.832416887
 10
117.2445333208
 20
156.1483690433
 10
117.2445333208
 20
156.4713797588
 10
117.4618602161
 20
156.7873319151
 10
117.8870157787
 20
157.082416887
 10
118.5014186702
 20
157.3437380451
 10
119.2782165361
 20
157.559874401
 10
120.1834595822
 20
157.7213797588
 10
121.1775843435
 20
157.8211955592
 10
122.2171427976
 20
157.8549593729
  0
LINE
  5
102
330
1F
100
AcDbEntity
  8
0
  6
HIDDEN
 62
     7
370
     0
100
AcDbLine
 10
136.4791718185
 20
151.493216282
 30
0.0
 11
136.4791718185
 21
143.8922535211
 31
0.0
  0
LINE
  5
103
330
1F
100
AcDbEntity
  8
0
  6
HIDDEN
 62
     7
370
     0
100
AcDbLine
 10
131.3071427976
 20
147.2564887136
 30
0.0
 11
131.3071427976
 21
143.8922535211
 31
0.0
  0
LINE
  5
104
330
1F
100
AcDbEntity
  8
0
  6
HIDDEN
 62
     7
370
     0
100
AcDbLine
 10
135.1271427976
 20
147.2564887136
 30
0.0
 11
135.1271427976
 21
143.8922535211
 31
0.0
  0
CIRCLE
  5
105
330
1F
100
AcDbEntity
  8
0
  6
HIDDEN
 62
     7
370
     0
100
AcDbCircle
 10
120.2171427976
 20
112.5422535211
 30
0.0
 40
5.000000000000014
  0
LINE
  5
106
330
1F
100
AcDbEntity
  8
0
  6
HIDDEN
 62
     7
370
     0
100
AcDbLine
 10
228.0314096037
 20
131.5510941154
 30
0.0
 11
227.8743703406
 21
127.5541779704
 31
0.0
  0
LINE
  5
107
330
1F
100
AcDbEntity
  8
0
  6
HIDDEN
 62
     7
370
     0
100
AcDbLine
 10
221.0119921006
 20
131.8268877802
 30
0.0
 11
220.8549528376
 21
127.8299716353
 31
0.0
  0
LINE
  5
108
330
1F
100
AcDbEntity
  8
0
  6
HIDDEN
 62
     7
370
     0
100
AcDbLine
 10
228.2171427976
 20
130.5430250797
 30
0.0
 11
228.1146746785
 21
127.9350372951
 31
0.0
  0
LINE
  5
109
330
1F
100
AcDbEntity
  8
0
  6
HIDDEN
 62
     7
370
     0
100
AcDbLine
 10
220.2331254616
 20
131.1069108649
 30
0.0
 11
220.1349759222
 21
128.6088382743
 31
0.0
  0
LINE
  5
10A
330
1F
100
AcDbEntity
  8
0
  6
HIDDEN
 62
     7
370
     0
100
AcDbLine
 10
225.6798103912
 20
129.6419455829
 30
0.0
 11
225.6405505755
 21
128.6427165466
 31
0.0
  0
LINE
  5
10B
330
1F
100
AcDbEntity
  8
0
  6
HIDDEN
 62
     7
370
     0
100
AcDbLine
 10
225.719070207
 20
130.6411746191
 30
0.0
 11
225.6798103912
 21
129.6419455829
 31
0.0
  0
LINE
  5
10C
330
1F
100
AcDbEntity
  8
0
  6
HIDDEN
 62
     7
370
     0
100
AcDbLine
 10
225.6798103912
 20
129.6419455829
 30
0.0
 11
228.1778829818
 21
129.5437960435
 31
0.0
  0
LINE
  5
10D
330
1F
100
AcDbEntity
  8
0
  6
HIDDEN
 62
     7
370
     0
100
AcDbLine
 10
225.6405505755
 20
128.6427165466
 30
0.0
 11
228.1386231661
 21
128.5445670072
 31
0.0
  0
LINE
  5
10E
330
1F
100
AcDbEntity
  8
0
  6
HIDDEN
 62
     7
370
     0
100
AcDbLine
 10
225.719070207
 20
130.6411746191
 30
0.0
 11
228.2171427976
 21
130.5430250797
 31
0.0
  0
LINE
  5
10F
330
1F
100
AcDbEntity
  8
0
  6
HIDDEN
 62
     7
370
     0
100
AcDbLine
 10
227.9528899721
 20
97.5334141165
 30
0.0
 11
228.1099292352
 21
93.5364979716
 31
0.0
  0
LINE
  5
110
330
1F
100
AcDbEntity
  8
0
  6
HIDDEN
 62
     7
370
     0
100
AcDbLine
 10
220.9334724691
 20
97.2576204517
 30
0.0
 11
221.0905117321
 21
93.2607043068
 31
0.0
  0
LINE
  5
111
330
1F
100
AcDbEntity
  8
0
  6
HIDDEN
 62
     7
370
     0
100
AcDbLine
 10
228.19319431
 20
97.1525547918
 30
0.0
 11
228.2171427976
 21
96.5430250797
 31
0.0
  0
LINE
  5
112
330
1F
100
AcDbEntity
  8
0
  6
HIDDEN
 62
     7
370
     0
100
AcDbLine
 10
220.2134955537
 20
96.4787538127
 30
0.0
 11
220.3116450931
 21
93.9806812221
 31
0.0
  0
LINE
  5
113
330
1F
100
AcDbEntity
  8
0
  6
HIDDEN
 62
     7
370
     0
100
AcDbLine
 10
225.7583300227
 20
95.4456465041
 30
0.0
 11
225.7975898385
 21
94.4464174679
 31
0.0
  0
LINE
  5
114
330
1F
100
AcDbEntity
  8
0
  6
HIDDEN
 62
     7
370
     0
100
AcDbLine
 10
225.7583300227
 20
95.4456465041
 30
0.0
 11
228.2564026134
 21
95.5437960435
 31
0.0
  0
LINE
  5
115
330
1F
100
AcDbEntity
  8
0
  6
HIDDEN
 62
     7
370
     0
100
AcDbLine
 10
225.719070207
 20
96.4448755403
 30
0.0
 11
225.7583300227
 21
95.4456465041
 31
0.0
  0
LINE
  5
116
330
1F
100
AcDbEntity
  8
0
  6
HIDDEN
 62
     7
370
     0
100
AcDbLine
 10
225.7975898385
 20
94.4464174679
 30
0.0
 11
228.2956624291
 21
94.5445670072
 31
0.0
  0
LINE
  5
117
330
1F
100
AcDbEntity
  8
0
  6
HIDDEN
 62
     7
370
     0
100
AcDbLine
 10
225.719070207
 20
96.4448755403
 30
0.0
 11
228.2171427976
 21
96.5430250797
 31
0.0
  0
LINE
  5
118
330
1F
100
AcDbEntity
  8
0
  6
HIDDEN
 62
     7
370
     0
100
AcDbLine
 10
176.7171427976
 20
107.0422535211
 30
0.0
 11
176.7171427976
 21
118.0422535211
 31
0.0
  0
LINE
  5
119
330
1F
100
AcDbEntity
  8
0
  6
HIDDEN
 62
     7
370
     0
100
AcDbLine
 10
176.2171427976
 20
106.5422535211
 30
0.0
 11
176.2171427976
 21
118.5422535211
 31
0.0
  0
LINE
  5
11A
330
1F
100
AcDbEntity
  8
0
  6
HIDDEN
 62
     7
370
     0
100
AcDbLine
 10
161.2171427976
 20
106.5422535211
 30
0.0
 11
161.2171427976
 21
118.5422535211
 31
0.0
  0
LINE
  5
11B
330
1F
100
AcDbEntity
  8
0
  6
HIDDEN
 62
     7
370
     0
100
AcDbLine
 10
160.7171427976
 20
107.0422535211
 30
0.0
 11
160.7171427976
 21
118.0422535211
 31
0.0
  0
LINE
  5
11C
330
1F
100
AcDbEntity
  8
0
  6
HIDDEN
 62
     7
370
     0
100
AcDbLine
 10
180.7171427976
 20
111.0422535211
 30
0.0
 11
178.7171427976
 21
111.0422535211
 31
0.0
  0
LINE
  5
11D
330
1F
100
AcDbEntity
  8
0
  6
HIDDEN
 62
     7
370
     0
100
AcDbLine
 10
180.7171427976
 20
107.0422535211
 30
0.0
 11
180.7171427976
 21
111.0422535211
 31
0.0
  0
LINE
  5
11E
330
1F
100
AcDbEntity
  8
0
  6
HIDDEN
 62
     7
370
     0
100
AcDbLine
 10
180.7171427976
 20
114.0422535211
 30
0.0
 11
180.7171427976
 21
118.0422535211
 31
0.0
  0
LINE
  5
11F
330
1F
100
AcDbEntity
  8
0
  6
HIDDEN
 62
     7
370
     0
100
AcDbLine
 10
178.7171427976
 20
114.0422535211
 30
0.0
 11
180.7171427976
 21
114.0422535211
 31
0.0
  0
LINE
  5
120
330
1F
100
AcDbEntity
  8
0
  6
HIDDEN
 62
     7
370
     0
100
AcDbLine
 10
178.7171427976
 20
111.0422535211
 30
0.0
 11
178.7171427976
 21
114.0422535211
 31
0.0
  0
LINE
  5
121
330
1F
100
AcDbEntity
  8
0
  6
HIDDEN
 62
     7
370
     0
100
AcDbLine
 10
173.7171427976
 20
112.5422535211
 30
0.0
 11
173.7171427976
 21
111.0422535211
 31
0.0
  0
LINE
  5
122
330
1F
100
AcDbEntity
  8
0
  6
HIDDEN
 62
     7
370
     0
100
AcDbLine
 10
173.7171427976
 20
112.5422535211
 30
0.0
 11
178.7171427976
 21
112.5422535211
 31
0.0
  0
LINE
  5
123
330
1F
100
AcDbEntity
  8
0
  6
HIDDEN
 62
     7
370
     0
100
AcDbLine
 10
173.7171427976
 20
114.0422535211
 30
0.0
 11
173.7171427976
 21
112.5422535211
 31
0.0
  0
LINE
  5
124
330
1F
100
AcDbEntity
  8
0
  6
HIDDEN
 62
     7
370
     0
100
AcDbLine
 10
167.7171427975
 20
112.5422535211
 30
0.0
 11
167.7171427975
 21
114.0422535211
 31
0.0
  0
LINE
  5
125
330
1F
100
AcDbEntity
  8
0
  6
HIDDEN
 62
     7
370
     0
100
AcDbLine
 10
167.7171427975
 20
112.5422535211
 30
0.0
 11
160.7171427976
 21
112.5422535211
 31
0.0
  0
LINE
  5
126
330
1F
100
AcDbEntity
  8
0
  6
HIDDEN
 62
     7
370
     0
100
AcDbLine
 10
167.7171427975
 20
111.0422535211
 30
0.0
 11
167.7171427975
 21
112.5422535211
 31
0.0
  0
LINE
  5
127
330
1F
100
AcDbEntity
  8
0
  6
HIDDEN
 62
     7
370
     0
100
AcDbLine
 10
167.7171427975
 20
114.0422535211
 30
0.0
 11
167.7171427975
 21
115.5422535211
 31
0.0
  0
LINE
  5
128
330
1F
100
AcDbEntity
  8
0
  6
HIDDEN
 62
     7
370
     0
100
AcDbLine
 10
173.7171427976
 20
111.0422535211
 30
0.0
 11
173.7171427976
 21
109.5422535211
 31
0.0
  0
LINE
  5
129
330
1F
100
AcDbEntity
  8
0
  6
HIDDEN
 62
     7
370
     0
100
AcDbLine
 10
173.7171427976
 20
115.5422535211
 30
0.0
 11
173.7171427976
 21
114.0422535211
 31
0.0
  0
LINE
  5
12A
330
1F
100
AcDbEntity
  8
0
  6
HIDDEN
 62
     7
370
     0
100
AcDbLine
 10
167.7171427975
 20
109.5422535211
 30
0.0
 11
167.7171427975
 21
111.0422535211
 31
0.0
  0
LINE
  5
12B
330
1F
100
AcDbEntity
  8
0
  6
HIDDEN
 62
     7
370
     0
100
AcDbLine
 10
173.7171427976
 20
109.5422535211
 30
0.0
 11
180.7171427976
 21
109.5422535211
 31
0.0
  0
LINE
  5
12C
330
1F
100
AcDbEntity
  8
0
  6
HIDDEN
 62
     7
370
     0
100
AcDbLine
 10
167.7171427975
 20
109.5422535211
 30
0.0
 11
160.7171427975
 21
109.5422535211
 31
0.0
  0
LINE
  5
12D
330
1F
100
AcDbEntity
  8
0
  6
HIDDEN
 62
     7
370
     0
100
AcDbLine
 10
173.7171427976
 20
115.5422535211
 30
0.0
 11
180.7171427976
 21
115.5422535211
 31
0.0
  0
LINE
  5
12E
330
1F
100
AcDbEntity
  8
0
  6
HIDDEN
 62
     7
370
     0
100
AcDbLine
 10
167.7171427975
 20
115.5422535211
 30
0.0
 11
160.7171427975
 21
115.5422535211
 31
0.0
  0
LINE
  5
12F
330
1F
100
AcDbEntity
  8
0
  6
HIDDEN
 62
     7
370
     0
100
AcDbLine
 10
113.2171427976
 20
73.1375705645
 30
0.0
 11
113.3067444215
 21
73.7751192465
 31
0.0
  0
LINE
  5
130
330
1F
100
AcDbEntity
  8
0
  6
HIDDEN
 62
     7
370
     0
100
AcDbLine
 10
113.3067444215
 20
151.3093877958
 30
0.0
 11
113.2171427976
 21
151.9469364777
 31
0.0
  0
ARC
  5
131
330
1F
100
AcDbEntity
  8
0
  6
HIDDEN
 62
     7
370
     0
100
AcDbCircle
 10
112.3202058791
 20
73.9137681967
 30
0.0
 40
0.996233821438679
100
AcDbArc
 50
352.0
 51
0.0
  0
ARC
  5
132
330
1F
100
AcDbEntity
  8
0
  6
HIDDEN
 62
     7
370
     0
100
AcDbCircle
 10
112.3202058791
 20
73.9137681967
 30
0.0
 40
0.996233821438679
100
AcDbArc
 50
0.0
 51
25.7988228126
  0
ARC
  5
133
330
1F
100
AcDbEntity
  8
0
  6
HIDDEN
 62
     7
370
     0
100
AcDbCircle
 10
112.3202058791
 20
151.1707388456
 30
0.0
 40
0.9962338214386743
100
AcDbArc
 50
348.75
 51
8.0
  0
LWPOLYLINE
  5
134
330
1F
100
AcDbEntity
  8
0
  6
HIDDEN
 62
     7
370
     0
100
AcDbPolyline
 90
        3
 70
   128
 43
0.0
 10
113.2972973471
 20
150.9763832685
 10
113.2406059164
 20
150.7894966673
 10
113.2171427976
 20
150.7371653324
  0
LINE
  5
135
330
1F
100
AcDbEntity
  8
0
  6
HIDDEN
 62
     7
370
     0
100
AcDbLine
 10
113.3164397006
 20
73.9137681967
 30
0.0
 11
113.3164397006
 21
151.1707388456
 31
0.0
  0
LINE
  5
136
330
1F
100
AcDbEntity
  8
0
  6
HIDDEN
 62
     7
370
     0
100
AcDbLine
 10
86.6778687398
 20
81.0422535211
 30
0.0
 11
92.2223131715
 21
81.0422535211
 31
0.0
  0
LINE
  5
137
330
1F
100
AcDbEntity
  8
0
  6
HIDDEN
 62
     7
370
     0
100
AcDbLine
 10
92.2223131715
 20
144.0422535211
 30
0.0
 11
86.6778687398
 21
144.0422535211
 31
0.0
  0
ARC
  5
138
330
1F
100
AcDbEntity
  8
0
  6
HIDDEN
 62
     7
370
     0
100
AcDbCircle
 10
103.4703484528
 20
93.0422535211
 30
0.0
 40
11.99999999999999
100
AcDbArc
 50
273.4678184691
 51
324.3146652873
  0
ARC
  5
139
330
1F
100
AcDbEntity
  8
0
  6
HIDDEN
 62
     7
370
     0
100
AcDbCircle
 10
103.4703484528
 20
132.0422535211
 30
0.0
 40
12.0
100
AcDbArc
 50
35.6853347127
 51
86.5343486087
  0
ARC
  5
13A
330
1F
100
AcDbEntity
  8
0
  6
HIDDEN
 62
     7
370
     0
100
AcDbCircle
 10
86.6778687398
 20
82.0422535211
 30
0.0
 40
1.0
100
AcDbArc
 50
210.0
 51
270.0
  0
ARC
  5
13B
330
1F
100
AcDbEntity
  8
0
  6
HIDDEN
 62
     7
370
     0
100
AcDbCircle
 10
86.6778687398
 20
143.0422535211
 30
0.0
 40
1.0
100
AcDbArc
 50
90.0
 51
150.0
  0
LINE
  5
13C
330
1F
100
AcDbEntity
  8
0
  6
HIDDEN
 62
     7
370
     0
100
AcDbLine
 10
85.811843336
 20
143.5422535211
 30
0.0
 11
83.2137671246
 21
139.0422535211
 31
0.0
  0
LINE
  5
13D
330
1F
100
AcDbEntity
  8
0
  6
HIDDEN
 62
     7
370
     0
100
AcDbLine
 10
83.2137671246
 20
86.0422535211
 30
0.0
 11
85.811843336
 21
81.5422535211
 31
0.0
  0
ARC
  5
13E
330
1F
100
AcDbEntity
  8
0
  6
HIDDEN
 62
     7
370
     0
100
AcDbCircle
 10
123.6671427976
 20
87.6672535211
 30
0.0
 40
2.000000000000007
100
AcDbArc
 50
234.3409123039
 51
0.0
  0
ARC
  5
13F
330
1F
100
AcDbEntity
  8
0
  6
HIDDEN
 62
     7
370
     0
100
AcDbCircle
 10
123.6671427976
 20
137.4172535211
 30
0.0
 40
2.0
100
AcDbArc
 50
0.0
 51
125.6590876961
  0
LINE
  5
140
330
1F
100
AcDbEntity
  8
0
  6
HIDDEN
 62
     7
370
     0
100
AcDbLine
 10
113.2171427976
 20
86.0422535211
 30
0.0
 11
122.501220416
 21
86.0422535211
 31
0.0
  0
LINE
  5
141
330
1F
100
AcDbEntity
  8
0
  6
HIDDEN
 62
     7
370
     0
100
AcDbLine
 10
122.501220416
 20
139.0422535211
 30
0.0
 11
113.2171427976
 21
139.0422535211
 31
0.0
  0
LINE
  5
142
330
1F
100
AcDbEntity
  8
0
  6
HIDDEN
 62
     7
370
     0
100
AcDbLine
 10
78.4171427976
 20
86.0422535211
 30
0.0
 11
83.2137671246
 21
86.0422535211
 31
0.0
  0
LINE
  5
143
330
1F
100
AcDbEntity
  8
0
  6
HIDDEN
 62
     7
370
     0
100
AcDbLine
 10
83.2137671246
 20
139.0422535211
 30
0.0
 11
73.4171427976
 21
139.0422535211
 31
0.0
  0
LINE
  5
144
330
1F
100
AcDbEntity
  8
0
  6
HIDDEN
 62
     7
370
     0
100
AcDbLine
 10
117.2171427976
 20
158.2194164032
 30
0.0
 11
117.2171427976
 21
154.5196672998
 31
0.0
  0
LINE
  5
145
330
1F
100
AcDbEntity
  8
0
  6
HIDDEN
 62
     7
370
     0
100
AcDbLine
 10
127.2171427976
 20
154.5196672998
 30
0.0
 11
127.2171427976
 21
158.218044454
 31
0.0
  0
ARC
  5
146
330
1F
100
AcDbEntity
  8
0
  6
HIDDEN
 62
     7
370
     0
100
AcDbCircle
 10
227.7171427976
 20
99.0055592731
 30
0.0
 40
0.5000000000000568
100
AcDbArc
 50
0.0
 51
80.0
  0
ARC
  5
147
330
1F
100
AcDbEntity
  8
0
  6
HIDDEN
 62
     7
370
     0
100
AcDbCircle
 10
227.7171427976
 20
126.0789477692
 30
0.0
 40
0.5000000000000568
100
AcDbArc
 50
280.0
 51
0.0
  0
LINE
  5
148
330
1F
100
AcDbEntity
  8
0
  6
HIDDEN
 62
     7
370
     0
100
AcDbLine
 10
227.8039668864
 20
125.5865438927
 30
0.0
 11
224.7171427976
 21
125.0422535211
 31
0.0
  0
LINE
  5
149
330
1F
100
AcDbEntity
  8
0
  6
HIDDEN
 62
     7
370
     0
100
AcDbLine
 10
224.7171427976
 20
100.0422535211
 30
0.0
 11
227.8039668864
 21
99.4979631496
 31
0.0
  0
LINE
  5
14A
330
1F
100
AcDbEntity
  8
0
  6
HIDDEN
 62
     7
370
     0
100
AcDbLine
 10
137.5171427976
 20
99.5422535211
 30
0.0
 11
141.5171427976
 21
99.5422535211
 31
0.0
  0
LINE
  5
14B
330
1F
100
AcDbEntity
  8
0
  6
HIDDEN
 62
     7
370
     0
100
AcDbLine
 10
141.5171427976
 20
125.5422535211
 30
0.0
 11
137.5171427976
 21
125.5422535211
 31
0.0
  0
ARC
  5
14C
330
1F
100
AcDbEntity
  8
0
  6
HIDDEN
 62
     7
370
     0
100
AcDbCircle
 10
180.3223687795
 20
100.1422535211
 30
0.0
 40
0.3999999999999941
100
AcDbArc
 50
270.0
 51
290.0
  0
ARC
  5
14D
330
1F
100
AcDbEntity
  8
0
  6
HIDDEN
 62
     7
370
     0
100
AcDbCircle
 10
180.3223687795
 20
124.9422535211
 30
0.0
 40
0.4000000000000057
100
AcDbArc
 50
70.0
 51
90.0
  0
LINE
  5
14E
330
1F
100
AcDbEntity
  8
0
  6
HIDDEN
 62
     7
370
     0
100
AcDbLine
 10
175.2171427976
 20
99.7422535211
 30
0.0
 11
180.3223687795
 21
99.7422535211
 31
0.0
  0
LINE
  5
14F
330
1F
100
AcDbEntity
  8
0
  6
HIDDEN
 62
     7
370
     0
100
AcDbLine
 10
171.2177617316
 20
125.3422535211
 30
0.0
 11
171.1171427976
 21
125.3422535211
 31
0.0
  0
LINE
  5
150
330
1F
100
AcDbEntity
  8
0
  6
HIDDEN
 62
     7
370
     0
100
AcDbLine
 10
180.3223687795
 20
125.3422535211
 30
0.0
 11
175.2136189464
 21
125.3422535211
 31
0.0
  0
ARC
  5
151
330
1F
100
AcDbEntity
  8
0
  6
HIDDEN
 62
     7
370
     0
100
AcDbCircle
 10
171.1171427976
 20
100.1422535211
 30
0.0
 40
0.4000000000000057
100
AcDbArc
 50
180.0
 51
270.0
  0
ARC
  5
152
330
1F
100
AcDbEntity
  8
0
  6
HIDDEN
 62
     7
370
     0
100
AcDbCircle
 10
171.1171427976
 20
124.9422535211
 30
0.0
 40
0.4000000000000057
100
AcDbArc
 50
90.0
 51
180.0
  0
LINE
  5
153
330
1F
100
AcDbEntity
  8
0
  6
HIDDEN
 62
     7
370
     0
100
AcDbLine
 10
180.4591768368
 20
99.7663764728
 30
0.0
 11
181.2171427976
 21
100.0422535211
 31
0.0
  0
LINE
  5
154
330
1F
100
AcDbEntity
  8
0
  6
HIDDEN
 62
     7
370
     0
100
AcDbLine
 10
181.2171427976
 20
125.0422535211
 30
0.0
 11
180.4591768368
 21
125.3181305694
 31
0.0
  0
LINE
  5
155
330
1F
100
AcDbEntity
  8
0
  6
HIDDEN
 62
     7
370
     0
100
AcDbLine
 10
181.2171427976
 20
100.0422535211
 30
0.0
 11
224.7171427976
 21
100.0422535211
 31
0.0
  0
LINE
  5
156
330
1F
100
AcDbEntity
  8
0
  6
HIDDEN
 62
     7
370
     0
100
AcDbLine
 10
224.7171427976
 20
125.0422535211
 30
0.0
 11
181.2171427976
 21
125.0422535211
 31
0.0
  0
LINE
  5
157
330
1F
100
AcDbEntity
  8
0
  6
HIDDEN
 62
     7
370
     0
100
AcDbLine
 10
125.6671427976
 20
100.5422535211
 30
0.0
 11
126.4171427976
 21
101.2922535211
 31
0.0
  0
LINE
  5
158
330
1F
100
AcDbEntity
  8
0
  6
HIDDEN
 62
     7
370
     0
100
AcDbLine
 10
126.4171427976
 20
123.7922535211
 30
0.0
 11
125.6671427976
 21
124.5422535211
 31
0.0
  0
LINE
  5
159
330
1F
100
AcDbEntity
  8
0
  6
HIDDEN
 62
     7
370
     0
100
AcDbLine
 10
126.4171427976
 20
101.2922535211
 30
0.0
 11
137.5171427976
 21
101.2922535211
 31
0.0
  0
LINE
  5
15A
330
1F
100
AcDbEntity
  8
0
  6
HIDDEN
 62
     7
370
     0
100
AcDbLine
 10
137.5171427976
 20
123.7922535211
 30
0.0
 11
126.4171427976
 21
123.7922535211
 31
0.0
  0
LINE
  5
15B
330
1F
100
AcDbEntity
  8
0
  6
HIDDEN
 62
     7
370
     0
100
AcDbLine
 10
118.1671427976
 20
162.5422535211
 30
0.0
 11
118.1671427976
 21
156.4422535211
 31
0.0
  0
LINE
  5
15C
330
1F
100
AcDbEntity
  8
0
  6
HIDDEN
 62
     7
370
     0
100
AcDbLine
 10
104.6498554136
 20
74.9639739505
 30
0.0
 11
104.2171461271
 21
75.4421986679
 31
0.0
  0
LINE
  5
15D
330
1F
100
AcDbEntity
  8
0
  6
HIDDEN
 62
     7
370
     0
100
AcDbLine
 10
92.2171432556
 20
76.0891600246
 30
0.0
 11
91.7365159504
 21
75.6109353138
 31
0.0
  0
LINE
  5
15E
330
1F
100
AcDbEntity
  8
0
  6
HIDDEN
 62
     7
370
     0
100
AcDbLine
 10
91.7363976089
 20
149.4735658124
 30
0.0
 11
92.217143073
 21
148.9952861405
 31
0.0
  0
LINE
  5
15F
330
1F
100
AcDbEntity
  8
0
  6
HIDDEN
 62
     7
370
     0
100
AcDbLine
 10
104.2171427997
 20
149.6422585278
 30
0.0
 11
104.6499644694
 21
150.1205382007
 31
0.0
  0
LINE
  5
160
330
1F
100
AcDbEntity
  8
0
  6
HIDDEN
 62
     7
370
     0
100
AcDbLine
 10
104.2171427976
 20
144.0163184151
 30
0.0
 11
104.2171427976
 21
149.7422623539
 31
0.0
  0
LINE
  5
161
330
1F
100
AcDbEntity
  8
0
  6
HIDDEN
 62
     7
370
     0
100
AcDbLine
 10
92.2171427976
 20
148.9952756412
 30
0.0
 11
92.2171427976
 21
144.0412693218
 31
0.0
  0
LINE
  5
162
330
1F
100
AcDbEntity
  8
0
  6
HIDDEN
 62
     7
370
     0
100
AcDbLine
 10
104.2171427976
 20
75.3420698254
 30
0.0
 11
104.2171427976
 21
81.0681886272
 31
0.0
  0
LINE
  5
163
330
1F
100
AcDbEntity
  8
0
  6
HIDDEN
 62
     7
370
     0
100
AcDbLine
 10
92.2171427976
 20
81.0432377205
 30
0.0
 11
92.2171427976
 21
76.0891984391
 31
0.0
  0
LINE
  5
164
330
1F
100
AcDbEntity
  8
0
  6
HIDDEN
 62
     7
370
     0
100
AcDbLine
 10
170.7171427976
 20
118.5422535211
 30
0.0
 11
170.2171427976
 21
118.0422535211
 31
0.0
  0
LINE
  5
165
330
1F
100
AcDbEntity
  8
0
  6
HIDDEN
 62
     7
370
     0
100
AcDbLine
 10
170.2171427976
 20
107.0422535211
 30
0.0
 11
170.7171427976
 21
106.5422535211
 31
0.0
  0
LINE
  5
166
330
1F
100
AcDbEntity
  8
0
  6
HIDDEN
 62
     7
370
     0
100
AcDbLine
 10
141.5171427976
 20
106.5422535211
 30
0.0
 11
148.3171427976
 21
106.5422535211
 31
0.0
  0
LINE
  5
167
330
1F
100
AcDbEntity
  8
0
  6
HIDDEN
 62
     7
370
     0
100
AcDbLine
 10
148.3171427976
 20
118.5422535211
 30
0.0
 11
141.5171427976
 21
118.5422535211
 31
0.0
  0
LINE
  5
168
330
1F
100
AcDbEntity
  8
0
  6
HIDDEN
 62
     7
370
     0
100
AcDbLine
 10
148.3171427976
 20
106.5422535211
 30
0.0
 11
148.6175731071
 21
107.0422535211
 31
0.0
  0
LINE
  5
169
330
1F
100
AcDbEntity
  8
0
  6
HIDDEN
 62
     7
370
     0
100
AcDbLine
 10
148.6175731071
 20
118.0422535211
 30
0.0
 11
148.3171427976
 21
118.5422535211
 31
0.0
  0
LINE
  5
16A
330
1F
100
AcDbEntity
  8
0
  6
HIDDEN
 62
     7
370
     0
100
AcDbLine
 10
148.6175731071
 20
107.0422535211
 30
0.0
 11
170.2171427976
 21
107.0422535211
 31
0.0
  0
LINE
  5
16B
330
1F
100
AcDbEntity
  8
0
  6
HIDDEN
 62
     7
370
     0
100
AcDbLine
 10
170.2171427976
 20
118.0422535211
 30
0.0
 11
148.6175731071
 21
118.0422535211
 31
0.0
  0
LINE
  5
16C
330
1F
100
AcDbEntity
  8
0
  6
HIDDEN
 62
     7
370
     0
100
AcDbLine
 10
158.6671427976
 20
86.0422535211
 30
0.0
 11
157.6671427976
 21
86.6196037903
 31
0.0
  0
LINE
  5
16D
330
1F
100
AcDbEntity
  8
0
  6
HIDDEN
 62
     7
370
     0
100
AcDbLine
 10
152.6671427976
 20
86.6196037903
 30
0.0
 11
151.6671427976
 21
86.0422535211
 31
0.0
  0
LINE
  5
16E
330
1F
100
AcDbEntity
  8
0
  6
HIDDEN
 62
     7
370
     0
100
AcDbLine
 10
151.6671427976
 20
139.0422535211
 30
0.0
 11
152.6671427976
 21
138.4649032519
 31
0.0
  0
LINE
  5
16F
330
1F
100
AcDbEntity
  8
0
  6
HIDDEN
 62
     7
370
     0
100
AcDbLine
 10
157.6671427976
 20
138.4649032519
 30
0.0
 11
158.6671427976
 21
139.0422535211
 31
0.0
  0
LINE
  5
170
330
1F
100
AcDbEntity
  8
0
  6
HIDDEN
 62
     7
370
     0
100
AcDbLine
 10
152.6671427976
 20
138.4649032519
 30
0.0
 11
152.6671427976
 21
125.0422535211
 31
0.0
  0
LINE
  5
171
330
1F
100
AcDbEntity
  8
0
  6
HIDDEN
 62
     7
370
     0
100
AcDbLine
 10
157.6671427976
 20
125.0422535211
 30
0.0
 11
157.6671427976
 21
138.4649032519
 31
0.0
  0
LINE
  5
172
330
1F
100
AcDbEntity
  8
0
  6
HIDDEN
 62
     7
370
     0
100
AcDbLine
 10
152.6671427976
 20
125.0422535211
 30
0.0
 11
155.1671427976
 21
123.5401019736
 31
0.0
  0
LINE
  5
173
330
1F
100
AcDbEntity
  8
0
  6
HIDDEN
 62
     7
370
     0
100
AcDbLine
 10
155.1671427976
 20
123.5401019736
 30
0.0
 11
157.6671427976
 21
125.0422535211
 31
0.0
  0
LINE
  5
174
330
1F
100
AcDbEntity
  8
0
  6
HIDDEN
 62
     7
370
     0
100
AcDbLine
 10
157.6671427976
 20
100.0422535211
 30
0.0
 11
155.1671427976
 21
101.5444050687
 31
0.0
  0
LINE
  5
175
330
1F
100
AcDbEntity
  8
0
  6
HIDDEN
 62
     7
370
     0
100
AcDbLine
 10
155.1671427976
 20
101.5444050687
 30
0.0
 11
152.6671427976
 21
100.0422535211
 31
0.0
  0
LINE
  5
176
330
1F
100
AcDbEntity
  8
0
  6
HIDDEN
 62
     7
370
     0
100
AcDbLine
 10
157.6671427976
 20
86.6196037903
 30
0.0
 11
157.6671427976
 21
100.0422535211
 31
0.0
  0
LINE
  5
177
330
1F
100
AcDbEntity
  8
0
  6
HIDDEN
 62
     7
370
     0
100
AcDbLine
 10
152.6671427976
 20
100.0422535211
 30
0.0
 11
152.6671427976
 21
86.6196037903
 31
0.0
  0
LINE
  5
178
330
1F
100
AcDbEntity
  8
0
  6
HIDDEN
 62
     7
370
     0
100
AcDbLine
 10
171.2171427976
 20
130.1312355106
 30
0.0
 11
171.2171427976
 21
125.3421570281
 31
0.0
  0
LINE
  5
179
330
1F
100
AcDbEntity
  8
0
  6
HIDDEN
 62
     7
370
     0
100
AcDbLine
 10
171.2171427976
 20
134.3422535211
 30
0.0
 11
171.2171427976
 21
133.4330626923
 31
0.0
  0
LINE
  5
17A
330
1F
100
AcDbEntity
  8
0
  6
HIDDEN
 62
     7
370
     0
100
AcDbLine
 10
175.2171427976
 20
133.2759022642
 30
0.0
 11
175.2171427976
 21
134.3422535211
 31
0.0
  0
LINE
  5
17B
330
1F
100
AcDbEntity
  8
0
  6
HIDDEN
 62
     7
370
     0
100
AcDbLine
 10
175.2171427976
 20
125.3417071956
 30
0.0
 11
175.2171427976
 21
129.9778637232
 31
0.0
  0
LINE
  5
17C
330
1F
100
AcDbEntity
  8
0
  6
HIDDEN
 62
     7
370
     0
100
AcDbLine
 10
171.2171427976
 20
91.65144435
 30
0.0
 11
171.2171427976
 21
91.0422535211
 31
0.0
  0
LINE
  5
17D
330
1F
100
AcDbEntity
  8
0
  6
HIDDEN
 62
     7
370
     0
100
AcDbLine
 10
171.2171427976
 20
99.7431297344
 30
0.0
 11
171.2171427976
 21
94.9525051671
 31
0.0
  0
LINE
  5
17E
330
1F
100
AcDbEntity
  8
0
  6
HIDDEN
 62
     7
370
     0
100
AcDbLine
 10
175.2171427976
 20
95.0970549779
 30
0.0
 11
175.2171427976
 21
99.7422535211
 31
0.0
  0
LINE
  5
17F
330
1F
100
AcDbEntity
  8
0
  6
HIDDEN
 62
     7
370
     0
100
AcDbLine
 10
175.2171427976
 20
91.0422535211
 30
0.0
 11
175.2171427976
 21
91.808604778
 31
0.0
  0
LINE
  5
180
330
1F
100
AcDbEntity
  8
0
  6
HIDDEN
 62
     7
370
     0
100
AcDbLine
 10
171.2171427976
 20
91.0422535211
 30
0.0
 11
173.2171427976
 21
89.8405322831
 31
0.0
  0
LINE
  5
181
330
1F
100
AcDbEntity
  8
0
  6
HIDDEN
 62
     7
370
     0
100
AcDbLine
 10
173.2171427976
 20
89.8405322831
 30
0.0
 11
175.2171427976
 21
91.0422535211
 31
0.0
  0
LINE
  5
182
330
1F
100
AcDbEntity
  8
0
  6
HIDDEN
 62
     7
370
     0
100
AcDbLine
 10
228.2171427976
 20
97.1935265928
 30
0.0
 11
175.2053948186
 21
95.1106893421
 31
0.0
  0
LINE
  5
183
330
1F
100
AcDbEntity
  8
0
  6
HIDDEN
 62
     7
370
     0
100
AcDbLine
 10
175.2171427976
 20
91.808604778
 30
0.0
 11
228.2171427976
 21
93.8909804494
 31
0.0
  0
LINE
  5
184
330
1F
100
AcDbEntity
  8
0
  6
HIDDEN
 62
     7
370
     0
100
AcDbLine
 10
228.2171427976
 20
131.1935265928
 30
0.0
 11
175.2171427976
 21
133.2759022642
 31
0.0
  0
LINE
  5
185
330
1F
100
AcDbEntity
  8
0
  6
HIDDEN
 62
     7
370
     0
100
AcDbLine
 10
175.2133737896
 20
129.9735042056
 30
0.0
 11
228.2171427976
 21
127.8909804494
 31
0.0
  0
LINE
  5
186
330
1F
100
AcDbEntity
  8
0
  6
HIDDEN
 62
     7
370
     0
100
AcDbLine
 10
171.2171427976
 20
133.4330626923
 30
0.0
 11
170.3266373916
 21
133.468050745
 31
0.0
  0
LINE
  5
187
330
1F
100
AcDbEntity
  8
0
  6
HIDDEN
 62
     7
370
     0
100
AcDbLine
 10
170.1970799996
 20
130.1705949254
 30
0.0
 11
171.2177246859
 21
130.1304936864
 31
0.0
  0
LINE
  5
188
330
1F
100
AcDbEntity
  8
0
  6
HIDDEN
 62
     7
370
     0
100
AcDbLine
 10
171.2183340441
 20
94.9540372976
 30
0.0
 11
170.1970799996
 21
94.9139121169
 31
0.0
  0
LINE
  5
189
330
1F
100
AcDbEntity
  8
0
  6
HIDDEN
 62
     7
370
     0
100
AcDbLine
 10
170.3266373916
 20
91.6164562973
 30
0.0
 11
171.2171427976
 21
91.65144435
 31
0.0
  0
LINE
  5
18A
330
1F
100
AcDbEntity
  8
0
  6
HIDDEN
 62
     7
370
     0
100
AcDbLine
 10
170.1970799996
 20
94.9139121169
 30
0.0
 11
169.2712030231
 21
93.2262612397
 31
0.0
  0
LINE
  5
18B
330
1F
100
AcDbEntity
  8
0
  6
HIDDEN
 62
     7
370
     0
100
AcDbLine
 10
169.2712030231
 20
93.2262612397
 30
0.0
 11
170.3266373916
 21
91.6164562973
 31
0.0
  0
LINE
  5
18C
330
1F
100
AcDbEntity
  8
0
  6
HIDDEN
 62
     7
370
     0
100
AcDbLine
 10
170.3266373916
 20
133.468050745
 30
0.0
 11
169.2712030231
 21
131.8582458025
 31
0.0
  0
LINE
  5
18D
330
1F
100
AcDbEntity
  8
0
  6
HIDDEN
 62
     7
370
     0
100
AcDbLine
 10
169.2712030231
 20
131.8582458025
 30
0.0
 11
170.1970799996
 21
130.1705949254
 31
0.0
  0
LINE
  5
18E
330
1F
100
AcDbEntity
  8
0
  6
HIDDEN
 62
     7
370
     0
100
AcDbLine
 10
117.2171427976
 20
160.0949648191
 30
0.0
 11
117.2171427976
 21
158.2194164032
 31
0.0
  0
LINE
  5
18F
330
1F
100
AcDbEntity
  8
0
  6
HIDDEN
 62
     7
370
     0
100
AcDbLine
 10
127.2171427976
 20
158.218044454
 30
0.0
 11
127.2171427976
 21
160.0935365364
 31
0.0
  0
LINE
  5
190
330
1F
100
AcDbEntity
  8
0
  6
HIDDEN
 62
     7
370
     0
100
AcDbLine
 10
63.3748563327
 20
143.1999670562
 30
0.0
 11
63.3739264356
 21
143.1990371592
 31
0.0
  0
LINE
  5
191
330
1F
100
AcDbEntity
  8
0
  6
HIDDEN
 62
     7
370
     0
100
AcDbLine
 10
228.0314096037
 20
131.5510941154
 30
0.0
 11
221.0119921006
 21
131.8268877802
 31
0.0
  0
LINE
  5
192
330
1F
100
AcDbEntity
  8
0
  6
HIDDEN
 62
     7
370
     0
100
AcDbLine
 10
220.8549528376
 20
127.8299716353
 30
0.0
 11
227.8743703406
 21
127.5541779704
 31
0.0
  0
LINE
  5
193
330
1F
100
AcDbEntity
  8
0
  6
HIDDEN
 62
     7
370
     0
100
AcDbLine
 10
227.8743703406
 20
127.5541779704
 30
0.0
 11
228.1146746785
 21
127.9350372951
 31
0.0
  0
LINE
  5
194
330
1F
100
AcDbEntity
  8
0
  6
HIDDEN
 62
     7
370
     0
100
AcDbLine
 10
228.2171427976
 20
131.1980733797
 30
0.0
 11
228.0314096037
 21
131.5510941154
 31
0.0
  0
LINE
  5
195
330
1F
100
AcDbEntity
  8
0
  6
HIDDEN
 62
     7
370
     0
100
AcDbLine
 10
221.0119921006
 20
131.8268877802
 30
0.0
 11
220.2331254616
 21
131.1069108649
 31
0.0
  0
LINE
  5
196
330
1F
100
AcDbEntity
  8
0
  6
HIDDEN
 62
     7
370
     0
100
AcDbLine
 10
220.1349759222
 20
128.6088382743
 30
0.0
 11
220.8549528376
 21
127.8299716353
 31
0.0
  0
LINE
  5
197
330
1F
100
AcDbEntity
  8
0
  6
HIDDEN
 62
     7
370
     0
100
AcDbLine
 10
227.9528899721
 20
97.5334141165
 30
0.0
 11
220.9334724691
 21
97.2576204517
 31
0.0
  0
LINE
  5
198
330
1F
100
AcDbEntity
  8
0
  6
HIDDEN
 62
     7
370
     0
100
AcDbLine
 10
221.0905117321
 20
93.2607043068
 30
0.0
 11
228.1099292352
 21
93.5364979716
 31
0.0
  0
LINE
  5
199
330
1F
100
AcDbEntity
  8
0
  6
HIDDEN
 62
     7
370
     0
100
AcDbLine
 10
228.1099292352
 20
93.5364979716
 30
0.0
 11
228.2171427976
 21
93.7402774354
 31
0.0
  0
LINE
  5
19A
330
1F
100
AcDbEntity
  8
0
  6
HIDDEN
 62
     7
370
     0
100
AcDbLine
 10
228.19319431
 20
97.1525547918
 30
0.0
 11
227.9528899721
 21
97.5334141165
 31
0.0
  0
LINE
  5
19B
330
1F
100
AcDbEntity
  8
0
  6
HIDDEN
 62
     7
370
     0
100
AcDbLine
 10
220.9334724691
 20
97.2576204517
 30
0.0
 11
220.2134955537
 21
96.4787538127
 31
0.0
  0
LINE
  5
19C
330
1F
100
AcDbEntity
  8
0
  6
HIDDEN
 62
     7
370
     0
100
AcDbLine
 10
220.3116450931
 20
93.9806812221
 30
0.0
 11
221.0905117321
 21
93.2607043068
 31
0.0
  0
LINE
  5
19D
330
1F
100
AcDbEntity
  8
0
  6
HIDDEN
 62
     7
370
     0
100
AcDbLine
 10
176.2171427976
 20
106.5422535211
 30
0.0
 11
176.7171427976
 21
107.0422535211
 31
0.0
  0
LINE
  5
19E
330
1F
100
AcDbEntity
  8
0
  6
HIDDEN
 62
     7
370
     0
100
AcDbLine
 10
176.7171427976
 20
118.0422535211
 30
0.0
 11
176.2171427976
 21
118.5422535211
 31
0.0
  0
LINE
  5
19F
330
1F
100
AcDbEntity
  8
0
  6
HIDDEN
 62
     7
370
     0
100
AcDbLine
 10
161.2171427976
 20
106.5422535211
 30
0.0
 11
176.2171427976
 21
106.5422535211
 31
0.0
  0
LINE
  5
1A0
330
1F
100
AcDbEntity
  8
0
  6
HIDDEN
 62
     7
370
     0
100
AcDbLine
 10
176.2171427976
 20
118.5422535211
 30
0.0
 11
161.2171427976
 21
118.5422535211
 31
0.0
  0
LINE
  5
1A1
330
1F
100
AcDbEntity
  8
0
  6
HIDDEN
 62
     7
370
     0
100
AcDbLine
 10
161.2171427976
 20
118.5422535211
 30
0.0
 11
160.7171427976
 21
118.0422535211
 31
0.0
  0
LINE
  5
1A2
330
1F
100
AcDbEntity
  8
0
  6
HIDDEN
 62
     7
370
     0
100
AcDbLine
 10
160.7171427976
 20
107.0422535211
 30
0.0
 11
161.2171427976
 21
106.5422535211
 31
0.0
  0
LINE
  5
1A3
330
1F
100
AcDbEntity
  8
0
  6
HIDDEN
 62
     7
370
     0
100
AcDbLine
 10
176.7171427976
 20
107.0422535211
 30
0.0
 11
180.7171427976
 21
107.0422535211
 31
0.0
  0
LINE
  5
1A4
330
1F
100
AcDbEntity
  8
0
  6
HIDDEN
 62
     7
370
     0
100
AcDbLine
 10
180.7171427976
 20
118.0422535211
 30
0.0
 11
176.7171427976
 21
118.0422535211
 31
0.0
  0
LINE
  5
1A5
330
1F
100
AcDbEntity
  8
0
  6
HIDDEN
 62
     7
370
     0
100
AcDbLine
 10
167.7171427975
 20
109.5422535211
 30
0.0
 11
173.7171427976
 21
109.5422535211
 31
0.0
  0
LINE
  5
1A6
330
1F
100
AcDbEntity
  8
0
  6
HIDDEN
 62
     7
370
     0
100
AcDbLine
 10
173.7171427976
 20
115.5422535211
 30
0.0
 11
167.7171427975
 21
115.5422535211
 31
0.0
  0
DIMENSION
  5
1A7
330
1F
100
AcDbEntity
  8
VERMASSUNG
100
AcDbDimension
  2
*D1
 10
58.4570964247
 20
62.5422535211
 30
0.0
 11
58.4570964247
 21
112.5422535211
 31
0.0
 70
   160
  1
HSK A %%c<>
 71
     2
 42
-1.0
  3
SLDDIMSTYLE0
100
AcDbAlignedDimension
 13
113.7171427976
 23
162.5422535211
 33
0.0
 14
113.7171427976
 24
62.5422535211
 34
0.0
 50
90.0
100
AcDbRotatedDimension
  0
DIMENSION
  5
1B4
330
1F
100
AcDbEntity
  8
VERMASSUNG
100
AcDbDimension
  2
*D2
 10
228.2171427976
 20
160.5422535211
 30
0.0
 11
199.4671427976
 21
160.5422535211
 31
0.0
 70
   160
 71
     2
 42
-1.0
  3
SLDDIMSTYLE1
100
AcDbAlignedDimension
 13
170.7171427976
 23
124.9422535211
 33
0.0
 14
228.2171427976
 24
132.231277292
 34
0.0
100
AcDbRotatedDimension
  0
DIMENSION
  5
1BF
330
1F
100
AcDbEntity
  8
VERMASSUNG
100
AcDbDimension
  2
*D3
 10
238.3636624247
 20
125.0422535211
 30
0.0
 11
238.3636624247
 21
112.5422535211
 31
0.0
 70
   160
  1
%%c<>
 71
     1
 42
-1.0
  3
SLDDIMSTYLE2
100
AcDbAlignedDimension
 13
224.7171427976
 23
100.0422535211
 33
0.0
 14
224.7171427976
 24
125.0422535211
 34
0.0
 50
90.0
100
AcDbRotatedDimension
  0
DIMENSION
  5
1CB
330
1F
100
AcDbEntity
  8
VERMASSUNG
100
AcDbDimension
  2
*D4
 10
244.3636624247
 20
134.5422535211
 30
0.0
 11
244.3636624247
 21
112.5422535211
 31
0.0
 70
   160
  1
%%c<>
 71
     1
 42
-1.0
  3
SLDDIMSTYLE2
100
AcDbAlignedDimension
 13
228.2171427976
 23
90.5422535211
 33
0.0
 14
228.2171427976
 24
134.5422535211
 34
0.0
 50
90.0
100
AcDbRotatedDimension
  0
DIMENSION
  5
1D6
330
1F
100
AcDbEntity
  8
VERMASSUNG
100
AcDbDimension
  2
*D5
 10
250.3636624247
 20
139.0422535211
 30
0.0
 11
250.3636624247
 21
112.5422535211
 31
0.0
 70
   160
  1
%%c<>
 71
     1
 42
-1.0
  3
SLDDIMSTYLE2
100
AcDbAlignedDimension
 13
161.7171427976
 23
86.0422535211
 33
0.0
 14
161.7171427976
 24
139.0422535211
 34
0.0
 50
90.0
100
AcDbRotatedDimension
  0
DIMENSION
  5
1E1
330
1F
100
AcDbEntity
  8
VERMASSUNG
100
AcDbDimension
  2
*D6
 10
228.2171427976
 20
172.5422535211
 30
0.0
 11
170.7171427976
 21
172.5422535211
 31
0.0
 70
   160
 71
     2
 42
-1.0
  3
SLDDIMSTYLE0
100
AcDbAlignedDimension
 13
113.2171427976
 23
162.0422535211
 33
0.0
 14
228.2171427976
 24
132.231277292
 34
0.0
100
AcDbRotatedDimension
  0
DIMENSION
  5
1EB
330
1F
100
AcDbEntity
  8
VERMASSUNG
100
AcDbDimension
  2
*D7
 10
228.2171427976
 20
166.5422535211
 30
0.0
 11
185.1921427976
 21
166.5422535211
 31
0.0
 70
   160
 71
     2
 42
-1.0
  3
SLDDIMSTYLE0
100
AcDbAlignedDimension
 13
142.1671427976
 23
160.510993342
 33
0.0
 14
228.2171427976
 24
132.231277292
 34
0.0
100
AcDbRotatedDimension
  0
DIMENSION
  5
1F5
330
1F
100
AcDbEntity
  8
VERMASSUNG
100
AcDbDimension
  2
*D8
 10
228.2171427976
 20
178.5422535211
 30
0.0
 11
145.7671427976
 21
178.5422535211
 31
0.0
 70
   160
 71
     2
 42
-1.0
  3
SLDDIMSTYLE0
100
AcDbAlignedDimension
 13
63.3171427976
 23
143.0449232637
 33
0.0
 14
228.2171427976
 24
132.231277292
 34
0.0
100
AcDbRotatedDimension
  0
LINE
  5
1FF
330
1F
100
AcDbEntity
  8
VERMASSUNG
  6
CENTERX2
370
     0
100
AcDbLine
 10
61.0666734366
 20
112.5422535211
 30
0.0
 11
233.9015167931
 21
112.5422535211
 31
0.0
  0
OLE2FRAME
  5
200
330
1F
100
AcDbEntity
  8
0
100
AcDbOle2Frame
 70
     2
  3
Bitmap Image
 10
13.8511154363
 20
38.264191557
 30
0.0
 11
51.6290888628
 21
31.9806341108
 31
0.0
 71
     2
 72
     0
 73
     1
 90
    12928
310
80552BED0767C5B32B40DDAF6807D121434000000000000000006FFBDDFB85D0
310
4940DDAF6807D121434000000000000000006FFBDDFB85D04940416F4BD60AFB
310
3F4000000000000000002BED0767C5B32B40416F4BD60AFB3F40000000000000
310
0000000000000100000000010000010000000100000000000100000000320000
310
D0CF11E0A1B11AE1000000000000000000000000000000003E000300FEFF0900
310
0600000000000000000000000100000001000000000000000010000002000000
310
01000000FEFFFFFF0000000000000000FFFFFFFFFFFFFFFFFFFFFFFFFFFFFFFF
310
FFFFFFFFFFFFFFFFFFFFFFFFFFFFFFFFFFFFFFFFFFFFFFFFFFFFFFFFFFFFFFFF
310
FFFFFFFFFFFFFFFFFFFFFFFFFFFFFFFFFFFFFFFFFFFFFFFFFFFFFFFFFFFFFFFF
310
FFFFFFFFFFFFFFFFFFFFFFFFFFFFFFFFFFFFFFFFFFFFFFFFFFFFFFFFFFFFFFFF
310
FFFFFFFFFFFFFFFFFFFFFFFFFFFFFFFFFFFFFFFFFFFFFFFFFFFFFFFFFFFFFFFF
310
FFFFFFFFFFFFFFFFFFFFFFFFFFFFFFFFFFFFFFFFFFFFFFFFFFFFFFFFFFFFFFFF
310
FFFFFFFFFFFFFFFFFFFFFFFFFFFFFFFFFFFFFFFFFFFFFFFFFFFFFFFFFFFFFFFF
310
FFFFFFFFFFFFFFFFFFFFFFFFFFFFFFFFFFFFFFFFFFFFFFFFFFFFFFFFFFFFFFFF
310
FFFFFFFFFFFFFFFFFFFFFFFFFFFFFFFFFFFFFFFFFFFFFFFFFFFFFFFFFFFFFFFF
310
FFFFFFFFFFFFFFFFFFFFFFFFFFFFFFFFFFFFFFFFFFFFFFFFFFFFFFFFFFFFFFFF
310
FFFFFFFFFFFFFFFFFFFFFFFFFFFFFFFFFFFFFFFFFFFFFFFFFFFFFFFFFFFFFFFF
310
FFFFFFFFFFFFFFFFFFFFFFFFFFFFFFFFFFFFFFFFFFFFFFFFFFFFFFFFFFFFFFFF
310
FFFFFFFFFFFFFFFFFFFFFFFFFFFFFFFFFFFFFFFFFFFFFFFFFFFFFFFFFFFFFFFF
310
FFFFFFFFFFFFFFFFFFFFFFFFFFFFFFFFFFFFFFFFFFFFFFFFFFFFFFFFFFFFFFFF
310
FDFFFFFFFEFFFFFFFEFFFFFFFEFFFFFF05000000060000000700000008000000
310
090000000A0000000B0000000C0000000D0000000E0000000F00000010000000
310
11000000120000001300000014000000150000001600000017000000FEFFFFFF
310
FFFFFFFFFFFFFFFFFFFFFFFFFFFFFFFFFFFFFFFFFFFFFFFFFFFFFFFFFFFFFFFF
310
FFFFFFFFFFFFFFFFFFFFFFFFFFFFFFFFFFFFFFFFFFFFFFFFFFFFFFFFFFFFFFFF
310
FFFFFFFFFFFFFFFFFFFFFFFFFFFFFFFFFFFFFFFFFFFFFFFFFFFFFFFFFFFFFFFF
310
FFFFFFFFFFFFFFFFFFFFFFFFFFFFFFFFFFFFFFFFFFFFFFFFFFFFFFFFFFFFFFFF
310
FFFFFFFFFFFFFFFFFFFFFFFFFFFFFFFFFFFFFFFFFFFFFFFFFFFFFFFFFFFFFFFF
310
FFFFFFFFFFFFFFFFFFFFFFFFFFFFFFFFFFFFFFFFFFFFFFFFFFFFFFFFFFFFFFFF
310
FFFFFFFFFFFFFFFFFFFFFFFFFFFFFFFFFFFFFFFFFFFFFFFFFFFFFFFFFFFFFFFF
310
FFFFFFFFFFFFFFFFFFFFFFFFFFFFFFFFFFFFFFFFFFFFFFFFFFFFFFFFFFFFFFFF
310
FFFFFFFFFFFFFFFFFFFFFFFFFFFFFFFFFFFFFFFFFFFFFFFFFFFFFFFFFFFFFFFF
310
FFFFFFFFFFFFFFFFFFFFFFFFFFFFFFFFFFFFFFFFFFFFFFFFFFFFFFFFFFFFFFFF
310
FFFFFFFFFFFFFFFFFFFFFFFFFFFFFFFFFFFFFFFFFFFFFFFFFFFFFFFFFFFFFFFF
310
FFFFFFFFFFFFFFFFFFFFFFFFFFFFFFFFFFFFFFFFFFFFFFFFFFFFFFFFFFFFFFFF
310
FFFFFFFFFFFFFFFFFFFFFFFFFFFFFFFFFFFFFFFFFFFFFFFFFFFFFFFFFFFFFFFF
310
52006F006F007400200045006E00740072007900000000000000000000000000
310
0000000000000000000000000000000000000000000000000000000000000000
310
16000500FFFFFFFFFFFFFFFF020000000A00030000000000C000000000000046
310
000000000000000000000000D04AD5099E08CC0103000000C000000000000000
310
01004F006C006500000000000000000000000000000000000000000000000000
310
0000000000000000000000000000000000000000000000000000000000000000
310
0A000200FFFFFFFFFFFFFFFFFFFFFFFF00000000000000000000000000000000
310
0000000000000000000000000000000000000000000000001400000000000000
310
010043006F006D0070004F0062006A0000000000000000000000000000000000
310
0000000000000000000000000000000000000000000000000000000000000000
310
120002010100000003000000FFFFFFFF00000000000000000000000000000000
310
0000000000000000000000000000000000000000010000004D00000000000000
310
01004F006C006500310030004E00610074006900760065000000000000000000
310
0000000000000000000000000000000000000000000000000000000000000000
310
1A000200FFFFFFFFFFFFFFFFFFFFFFFF00000000000000000000000000000000
310
0000000000000000000000000000000000000000040000002426000000000000
310
FEFFFFFF02000000FEFFFFFFFFFFFFFFFFFFFFFFFFFFFFFFFFFFFFFFFFFFFFFF
310
FFFFFFFFFFFFFFFFFFFFFFFFFFFFFFFFFFFFFFFFFFFFFFFFFFFFFFFFFFFFFFFF
310
FFFFFFFFFFFFFFFFFFFFFFFFFFFFFFFFFFFFFFFFFFFFFFFFFFFFFFFFFFFFFFFF
310
FFFFFFFFFFFFFFFFFFFFFFFFFFFFFFFFFFFFFFFFFFFFFFFFFFFFFFFFFFFFFFFF
310
FFFFFFFFFFFFFFFFFFFFFFFFFFFFFFFFFFFFFFFFFFFFFFFFFFFFFFFFFFFFFFFF
310
FFFFFFFFFFFFFFFFFFFFFFFFFFFFFFFFFFFFFFFFFFFFFFFFFFFFFFFFFFFFFFFF
310
FFFFFFFFFFFFFFFFFFFFFFFFFFFFFFFFFFFFFFFFFFFFFFFFFFFFFFFFFFFFFFFF
310
FFFFFFFFFFFFFFFFFFFFFFFFFFFFFFFFFFFFFFFFFFFFFFFFFFFFFFFFFFFFFFFF
310
FFFFFFFFFFFFFFFFFFFFFFFFFFFFFFFFFFFFFFFFFFFFFFFFFFFFFFFFFFFFFFFF
310
FFFFFFFFFFFFFFFFFFFFFFFFFFFFFFFFFFFFFFFFFFFFFFFFFFFFFFFFFFFFFFFF
310
FFFFFFFFFFFFFFFFFFFFFFFFFFFFFFFFFFFFFFFFFFFFFFFFFFFFFFFFFFFFFFFF
310
FFFFFFFFFFFFFFFFFFFFFFFFFFFFFFFFFFFFFFFFFFFFFFFFFFFFFFFFFFFFFFFF
310
FFFFFFFFFFFFFFFFFFFFFFFFFFFFFFFFFFFFFFFFFFFFFFFFFFFFFFFFFFFFFFFF
310
FFFFFFFFFFFFFFFFFFFFFFFFFFFFFFFFFFFFFFFFFFFFFFFFFFFFFFFFFFFFFFFF
310
FFFFFFFFFFFFFFFFFFFFFFFFFFFFFFFFFFFFFFFFFFFFFFFFFFFFFFFFFFFFFFFF
310
FFFFFFFFFFFFFFFFFFFFFFFFFFFFFFFFFFFFFFFFFFFFFFFFFFFFFFFFFFFFFFFF
310
0100000200000000000000000000000000000000860000008700000088000000
310
890000008A0000008B0000008C0000008D000000BD000000FEFFFFFF90000000
310
0100FEFF030A0000FFFFFFFF0A00030000000000C00000000000004607000000
310
5042727573680007000000504272757368000700000050427275736800F439B2
310
71000000000000000000000000000000A5000000A6000000A7000000A8000000
310
A9000000AA000000AB000000AC000000FEFFFFFFAE000000AF000000B0000000
310
B1000000B2000000B3000000B4000000B5000000B6000000B700000055000000
310
FEFFFFFFFEFFFFFFBB000000BC000000FEFFFFFFBE000000BF000000C0000000
310
C1000000C3000000FEFFFFFFC4000000C5000000C6000000FEFFFFFFC8000000
310
C9000000FEFFFFFFFEFFFFFFFFFFFFFFFFFFFFFFFFFFFFFFFFFFFFFFFFFFFFFF
310
FFFFFFFFFFFFFFFFFFFFFFFFFFFFFFFFFFFFFFFFFFFFFFFFFFFFFFFFFFFFFFFF
310
FFFFFFFFFFFFFFFFFFFFFFFFFFFFFFFFFFFFFFFFFFFFFFFFFFFFFFFFFFFFFFFF
310
FFFFFFFFFFFFFFFFFFFFFFFFFFFFFFFFFFFFFFFFFFFFFFFFFFFFFFFFFFFFFFFF
310
FFFFFFFFFFFFFFFFFFFFFFFFFFFFFFFFFFFFFFFFFFFFFFFFFFFFFFFFFFFFFFFF
310
FFFFFFFFFFFFFFFFFFFFFFFFFEFFFFFFFFFFFFFFFFFFFFFFFFFFFFFFF8000000
310
FEFFFFFFFFFFFFFFFB000000FC000000FEFFFFFFFFFFFFFFFFFFFFFFFFFFFFFF
310
20260000424D0E260000000000003E00000028000000B40200006E0000000100
310
01000000000000000000130B0000130B00000200000002000000000000FFFFFF
310
FFFFFFFFFFFFFFFFFFFFFFFFFFFFFFFFFFFFFFFFFFFFFFFFFFFFFFFFFFFFFFFF
310
FFFFFFFFFFFFFFFFFFFFFFFFFFFFFFFFFFFFFFFFFFFFFFFFFFFFFFFFFFFFFFFF
310
FFFFFFFFFFFFFFFFFFFFFFFFFFFFFFFFFFFFFFFFFFFFFFFFF000FFFFFFFFFFFF
310
FFFFFFFFFFFFFFFFFFFFFFFFFFFFFFFFFFFFFFFFFFFFFFFFFFFFFFFFFFFFFFFF
310
FFFFFFFFFFFFFFFFFFFFFFFFFFFFFFFFFFFFFFFFFFFFFFFFFFFFFFFFFFFFFFFF
310
FFFFFFFFFFFFFFFFFFFFFFFFFFFFFFFFF000FFFFFFFFFFFFFFFFFFFFFFFFFFFF
310
FFFFFFFFFFFFFFFFFFFFFFFFFFFFFFFFFFFFFFFFFFFFFFFFFFFFFFFFFFFFFFFF
310
FFFFFFFFFFFFFFFFFFFFFFFFFFFFFFFFFFFFFFFFFFFFFFFFFFFFFFFFFFFFFFFF
310
FFFFFFFFFFFFFFFFF000FFFFFFFFFFFFFFFFFFFFFFFFFFFFFFFFFFFFFFFFFFFF
310
FFFFFFFFFFFFFFFFFFFFFFFFFFFFFFFFFFFFFFFFFFFFFFFFFFFFFFFFFFFFFFFF
310
FFFFFFFFFFFFFFFFFFFFFFFFFFFFFFFFFFFFFFFFFFFFFFFFFFFFFFFFFFFFFFFF
310
F000FFFFFFFFFFFFFFFFFFFFFFFFFFFFFFFFFFFFFFFFFFFFFFFFFFFFFFFFFFFF
310
FFFFFFFFFFFFFFFFFFFFFFFFFFFFFFFFFFFFFFFFFFFFFFFFFFFFFFFFFFFFFFFF
310
FFFFFFFFFFFFFFFFFFFFFFFFFFFFFFFFFFFFFFFFFFFFFFFFF000FFFFFFFFFFFF
310
FFFFFFFFFFFFFFFFFFFFFFFFFFFFFFFFFFFFFFFFFFFFFFFFFFFFFFFFFFFFFFFF
310
FFFFFFFFFFFFFFFFFFFFFFFFFFFFFFFFFFFFFFFFFFFFFFFFFFFFFFFFFFFFFFFF
310
FFFFFFFFFFFFFFFFFFFFFFFFFFFFFFFFF000FFFFFFFFFFFFFFFFFFFFFFFFFFFF
310
FFFFFFFFFFFFFFFFFFFFFFFFFFFFFFFFFFFFFFFFFFFFFFFFFFFFFFFFFFFFFFFF
310
FFFFFFFFFFFFFFFFFFFFFFFFFFFFFFFFFFFFFFFFFFFFFFFFFFFFFFFFFFFFFFFF
310
FFFFFFFFFFFFFFFFF000FFFFFFFFFFFFFFFFFFFFFFFFFFFFFFFFFFFFFFFFFFFF
310
FFFFFFFFFFFFFFFFFFFFFFFFFFFFFFFFFFFFFFFFFFFFFFFFFFFFFFFFFFFFFFFF
310
FFFFFFFFFFFFFFFFFFFFFFFFFFFFFFFFFFFFFFFFFFFFFFFFFFFFFFFFFFFFFFFF
310
F000FFFFFFFFFFFFFFFFFFFFFFFFFFFFFFFFFFFFFFFFFFFFFFFFFFFFFFFFFFFF
310
FFFFFFFFFFFFFFFFFFFFFFFFFFFFFFFFFFFFFFFFFFFFFFFFFFFFFFFFFFFFFFFF
310
FFFFFFFFFFFFFFFFFFFFFFFFFFFFFFFFFFFFFFFFFFFFFFFFF000FFFFFFFFFFFF
310
FFFFFFFFFFFFFFFFFFFFFFFFFFFFFFFFFFFFFFFFFFFFFFFFFFFFFFFFFFFFFFFF
310
FFFFFFFFFFFFFFFFFFFFFFFFFFFFFFFFFFFFFFFFFFFFFFFFFFFFFFFFFFFFFFFF
310
FFFFFFFFFFFFFFFFFFFFFFFFFFFFFFFFF000FFFFFFFFFFFFFFFFFFFFFFFFFFFF
310
FFFFFFFFFFFFFFFFFFFFFFFFFFFFFFFFFFFFFFFFFFFFFFFFFFFFFFFFFFFFFFFF
310
FFFFFFFFFFFFFFFFFFFFFFFFFFFFFFFFFFFFFFFFFFFFFFFFFFFFFFFFFFFFFFFF
310
FFFFFFFFFFFFFFFFF000FFFFFFFFFFFFFFFFFFFFFFFFFFFFFFFFFFFFFFFFFFFF
310
FFFFFFFFFFFFFFFFFFFFFFFFFFFFFFFFFFFFFFFFFFFFFFFFFFFFFFFFFFFFFFFF
310
FFFFFFFFFFFFFFFFFFFFFFFFFFFFFFFFFFFFFFFFFFFFFFFFFFFFFFFFFFFFFFFF
310
F000FFFFFFFFFFFFFFFFFFFFFFFFFFFFFFFFFFFFFFFFFFFFFFFFFFFFFFFFFFFF
310
FFFFFFFFFFFFFFFFFFFFFFFFFFFFFFFFFFFFFFFFFFFFFFFFFFFFFFFFFFFFFFFF
310
FFFFFFFFFFFFFFFFFFFFFFFFFFFFFFFFFFFFFFFFFFFFFFFFF000FFFFFFFFFFFF
310
FFFFFFFFFFFFFFFFFFFFFFFFFFFFFFFFFFFFFFFFFFFFFFFFFFFFFFFFFFFFFFFF
310
FFFFFFFFFFFFFFFFFFFFFFFFFFFFFFFFFFFFFFFFFFFFFFFFFFFFFFFFFFFFFFFF
310
FFFFFFFFFFFFFFFFFFFFFFFFFFFFFFFFF000FFFFFFFFFFFFFFFFFFFFFFFFFFFF
310
FFFFFFFFFFFFFFFFFFFFFFFFFFFFFFFFFFFFFFFFFFFFFFFFFFFFFFFFFFFFFFFF
310
FFFFFFFFFFFFFFFFFFFFFFFFFFFFFFFFFFFFFFFFFFFFFFFFFFFFFFFFFFFFFFFF
310
FFFFFFFFFFFFFFFFF000FFFFFFFFFFFFFFFFFFFFFFFFFFFFFFFFFFFFFFFFFFFF
310
FFFFFFFFFFFFFFFFFFFFFFFFFFFFFFFFFFFFFFFFFFFFFFFFFFFFFFFFFFFFFFFF
310
FFFFFFFFFFFFFFFFFFFFFFFFFFFFFFFFFFFFFFFFFFFFFFFFFFFFFFFFFFFFFFFF
310
F000FFFFFFFFFFFFFFFFFFFFFFFFFFFFFFFFFFFFFFFFFFFFFFFFFFFFFFFFFFFF
310
FFFFFFFFFFFFFFFFFFFFFFFFFFFFFFFFFFFFFFFFFFFFFFFFFFFFFFFFFFFFFFFF
310
FFFFFFFFFFFFFFFFFFFFFFFFFFFFFFFFFFFFFFFFFFFFFFFFF000FFFFFFFFFFFF
310
FFFFFFFFFFFFFFFFFFFFFFFFFFFFFFFFFFFFFFFFFFFFFFFFFFFFFFFFFFFFFFFF
310
FFFFFFFFFFFFFFFFFFFFFFFFFFFFFFFFFFFFFFFFFFFFFFFFFFFFFFFFFFFFFFFF
310
FFFFFFFFFFFFFFFFFFFFFFFFFFFFFFFFF000FFFFFFFFFFFFFFFFFFFFFFFFFFFF
310
FFFFFFFFFFFFFFFFFFFFFFFFFFFFFFFFFFFFFFFFFFFFFFFFFFFFFFFFFFFFFFFF
310
FFFFFFFFFFFFFFFFFFFFFFFFFFFFFFFFFFFFFFFFFFFFFFFFFFFFFFFFFFFFFFFF
310
FFFFFFFFFFFFFFFFF000FFFFF80003FFFFFFFFFFFFFFFFFFFFFFFFFFFFFFFFFF
310
FFFFF00007FFFFFFFFFF00007FFFFFF800000000000000007FFFFFFFFFFFFFFF
310
FFFFFFFC001FFFFFFFFFFFFFFC001FFFFFFFFFFFFFFFFFFFFFFFFFFE0007FFFF
310
F000FFFF8000007FFFFFFFF8000FFFFFC0007FFFFF80007FFFFF0000007FFFFF
310
FFF8000007FFFFF800000000000000007FFFFFF0001FFFFFFFFFFFC00001FFFF
310
FFFFFFFFC00001FFFFFFFF000000000003FFFFE000007FFFF000FFFE0000000F
310
FFFFFFF0000FFFFF80007FFFFF80007FFFFC0000001FFFFFFFC0000001FFFFF8
310
00000000000000007FFFFFF0001FFFFFFFFFFE0000003FFFFFFFFFFE0000003F
310
FFFFFF000000000003FFFF0000000FFFF000FFF800000003FFFFFFF00007FFFF
310
80007FFFFF80007FFFF000000007FFFFFF000000003FFFF80000000000000000
310
7FFFFFF0001FFFFFFFFFF80000000FFFFFFFFFF80000000FFFFFFF0000000000
310
03FFFC00000003FFF000FFE000000000FFFFFFF00007FFFF80003FFFFF80007F
310
FFC000000001FFFFFC000000001FFFF800000000000000007FFFFFF0001FFFFF
310
FFFFE000000003FFFFFFFFE000000003FFFFFF000000000003FFF000000000FF
310
F000FF80000000007FFFFFF00007FFFF80003FFFFF80007FFF8000000000FFFF
310
F80000000007FFF800000000000000007FFFFFF0001FFFFFFFFFC000000001FF
310
FFFFFFC000000001FFFFFF000000000003FFC0000000007FF000FF0000000000
310
3FFFFFE00007FFFF00003FFFFF80007FFE00000000003FFFF00000000003FFF8
310
00000000000000007FFFFFF0001FFFFFFFFF8000000000FFFFFFFF8000000000
310
FFFFFF000000000003FF80000000003FF000FE00000000001FFFFFE00003FFFF
310
00003FFFFF80007FFC00000000001FFFE00000000001FFF8000001FFFE000000
310
7FFFFFF0001FFFFFFFFE00000000003FFFFFFE00000000003FFFFF0000000000
310
03FF00000000001FF000FC00000000000FFFFFE00003FFFF00001FFFFF80007F
310
F800000000001FFFC00000000000FFF8000001FFFE0000007FFFFFF0001FFFFF
310
FFFC00000000001FFFFFFC00000000001FFFFF000000000003FE00000000000F
310
F000F8000000000007FFFFE00003FFFF00001FFFFF80007FF800000000000FFF
310
800000000000FFF8000001FFFE0000007FFFFFF0001FFFFFFFF800000000000F
310
FFFFF800000000000FFFFF000000000003FC000000000007F000F80000000000
310
03FFFFC00003FFFE00001FFFFF80007FF0000000000007FF0000000000007FF8
310
000001FFFE0000007FFFFFF0001FFFFFFFF0000000000007FFFFF00000000000
310
07FFFF000000000003F8000000000003F000F0000000000003FFFFC00001FFFE
310
00001FFFFF80007FE0000000000007FE0000000000003FF8000001FFFE000000
310
7FFFFFF0001FFFFFFFF0000000000007FFFFF0000000000007FFFF0000000000
310
03F800001F800003F000E00001FFF00001FFFFC00001FFFE00000FFFFF80007F
310
E00001FFE00003FE00001FFF00003FF8000001FFFE0000007FFFFFF0001FFFFF
310
FFE000003E000003FFFFE000003E000003FFFF000000000003F00001FFF80001
310
F000E00007FFFC0001FFFFC00001FFFE00000FFFFF80007FC0000FFFFC0003FC
310
0000FFFFC0001FF8000001FFFE0000007FFFFFF0001FFFFFFFC00003FFE00001
310
FFFFC00003FFE00001FFFF0001FFFFFFFFF00007FFFE0001F000E0000FFFFF00
310
00FFFF800001FFFC00000FFFFF80007FC0001FFFFE0001FC0001FFFFE0001FF8
310
000001FFFE0000007FFFFFF0001FFFFFFF80000FFFF80000FFFF80000FFFF800
310
00FFFF0003FFFFFFFFE0000FFFFF8000F000C0003FFFFF8000FFFF800000FFFC
310
000007FFFF80007F80003FFFFF0001FC0003FFFFF0001FF8000001FFFE000000
310
7FFFFFF0001FFFFFFF80003FFFFE0000FFFF80003FFFFE0000FFFF0003FFFFFF
310
FFE0003FFFFF8000F000C0003FFFFF8000FFFF800000FFFC000007FFFF80007F
310
80007FFFFF8001F80007FFFFF8000FF8000001FFFE0000007FFFFFF0001FFFFF
310
FF00007FFFFF00007FFF00007FFFFF00007FFF0003FFFFFFFFE0003FFFFFC000
310
F000C0007FFFFFC000FFFF000000FFFC000007FFFF80007F8000FFFFFF8000F8
310
000FFFFFF8000FF8000001FFFE0000007FFFFFF0001FFFFFFF0000FFFFFF8000
310
7FFF0000FFFFFF80007FFF0003FFFFFFFFC0007FFFFFC00070008000FFFFFFC0
310
00FFFF000000FFF8000007FFFF80007F8000FFFFFF8000F8000FFFFFF8000FF8
310
000001FFFE0000007FFFFFF0001FFFFFFE0001FFFFFFC0003FFE0001FFFFFFC0
310
003FFF0003FFFFFFFFC0007FFFFFE00070008000FFFFFFC0007FFF0000007FF8
310
000003FFFF80007F0001FFFFFF8000F8000FFFFFF8000FF8000001FFFE000000
310
7FFFFFF0001FFFFFFE0001FFFFFFC0003FFE0001FFFFFFC0003FFF0003FFFFFF
310
FFC000FFFFFFE00070008000FFFFFFC0007FFF0000007FF8000003FFFF80007F
310
0001FFFFFF8000F8001FFFFFF8000FF8000001FFFE0000007FFFFFF0001FFFFF
310
FE0003FFFFFFE0003FFE0003FFFFFFE0003FFF0003FFFFFFFFC000FFFFFFE000
310
70008000FFFFFFC0007FFE0000007FF8000003FFFF80007F0001FFFFFF8000F0
310
001FFFFFF8000FF8000001FFFE0000007FFFFFF0001FFFFFFC0003FFFFFFE000
310
1FFC0003FFFFFFE0001FFF0003FFFFFFFFC000FFFFFFC00070008000FFFFFF80
310
007FFE0000007FF0000003FFFF80007F0001FFFFFF0000F0001FFFFFF8000FF8
310
000001FFFE0000007FFFFFF0001FFFFFFC0007FFFFFFF0001FFC0007FFFFFFF0
310
001FFF0003FFFFFFFFC000FFFFFFC00070008001FFFFFF0000FFFE0000003FF0
310
000001FFFF80007F0001FFFFFF0000F8001FFFFFF0000FF8000001FFFE000000
310
7FFFFFF0001FFFFFFC0007FFFFFFF0001FFC0007FFFFFFF0001FFF0003FFFFFF
310
FFC001FFFFFF80007000FFFFFFFFFE0000FFFE0008003FF0008001FFFF80007F
310
FFFFFFFFFC0000FFFFFFFFFFE0000FF8000001FFFE0000007FFFFFF0001FFFFF
310
F8000FFFFFFFF8000FF8000FFFFFFFF8000FFF0003FFFFFFFFFFFFFFFFFF0000
310
7000FFFFFFFFFC0000FFFC0008003FF0008001FFFF80007FFFFFFFFFF80001FF
310
FFFFFFFF80000FF8000001FFFE0000007FFFFFF0001FFFFFF8000FFFFFFFF800
310
0FF8000FFFFFFFF8000FFF0003FFFFFFFFFFFFFFFFFE0000F000FFFFFFFFE000
310
00FFFC000C003FE000C001FFFF80007FFFFFFFFFC00001FFFFFFFFFE00001FF8
310
000001FFFE0000007FFFFFF0001FFFFFF8000FFFFFFFF8000FF8000FFFFFFFF8
310
000FFF0003FFFFFFFFFFFFFFFFF00000F000FFFFFFFE000001FFFC000C001FE0
310
00C000FFFF80007FFFFFFFFE000001FFFFFFFFE000001FF80FFFFFFFFFFFFFC0
310
7FFFFFF0001FFFFFF8000FFFFFFFF8000FF8000FFFFFFFF8000FFF0003FFFFFF
310
FFFFFFFFFF800000F000FFFFFFC0000001FFFC001C001FE001C000FFFF80007F
310
FFFFFF80000003FFFFFFF80000001FF80FFFFFFFFFFFFFC07FFFFFF0001FFFFF
310
F8001FFFFFFFFC000FF8001FFFFFFFFC000FFF0003FFFFFFFFFFFFFFF0000001
310
F000FFFFF800000001FFF8001C001FE001C000FFFF80007FFFFFF800000003FF
310
FFFF800000003FF80FFFFFFFFFFFFFC07FFFFFF0001FFFFFF8001FFFFFFFFC00
310
0FF8001FFFFFFFFC000FFF0003FFFFFFFFFFFFFE00000001F000FFFFC0000000
310
03FFF8001E001FC001E000FFFF80007FFFFF8000000007FFFFFC000000003FF8
310
0FFFFFFFFFFFFFC07FFFFFF0001FFFFFF8001FFFFFFFFC000FF8001FFFFFFFFC
310
000FFF0003FFFFFFFFFFFFE000000003F000FFFE0000000007FFF8001E000FC0
310
01E0007FFF80007FFFFE0000000007FFFFE0000000007FF80FFFFFFFFFFFFFC0
310
7FFFFFF0001FFFFFF0001FFFFFFFFC0007F0001FFFFFFFFC0007FF0003FFFFFF
310
FFFFFF0000000003F000FFF80000000007FFF8001E000FC003E0007FFF80007F
310
FFF0000000000FFFFF8000000000FFF80FFFFFFFFFFFFFC07FFFFFF0001FFFFF
310
F0001FFFFFFFFC0007F0001FFFFFFFFC0007FF0003FFFFFFFFFFFC0000000007
310
F000FFE0000000000FFFF0003E000FC003E0007FFF80007FFFC0000000001FFF
310
FE0000000001FFF80FFFFFFFFFFFFFC07FFFFFF0001FFFFFF0001FFFFFFFFC00
310
07F0001FFFFFFFFC0007FF0003FFFFFFFFFFF0000000000FF000FFC000000000
310
1FFFF0003F000F8003F0003FFF80007FFF80000000003FFFF80000000003FFF8
310
0FFFFFFFFFFFFFC07FFFFFF0001FFFFFF0001FFFFFFFFC0007F0001FFFFFFFFC
310
0007FF0003FFFFFFFFFFE0000000001FF000FF00000000007FFFF0003F000780
310
03F0003FFF80007FFF00000000007FFFF00000000007FFF80FFFFFFFFFFFFFC0
310
7FFFFFF0001FFFFFF0001FFFFFFFFC0007F0001FFFFFFFFC0007FF0003FFFFFF
310
FFFF80000000007FF000FE0000000000FFFFE0003F00078007F0003FFF80007F
310
FE0000000001FFFFE0000000001FFFF80FFFFFFFFFFFFFC07FFFFFF0001FFFFF
310
F0001FFFFFFFFC0007F0001FFFFFFFFC0007FF0003FFFFFFFFFF0000000000FF
310
F000FC0000000003FFFFE0007F00078007F0003FFF80007FFC0000000007FFFF
310
C0000000007FFFF80FFFFFFFFFFFFFC07FFFFFF0001FFFFFF8001FFFFFFFFC00
310
0FF8001FFFFFFFFC000FFF0003FFFFFFFFFE0000000003FFF000FC000000000F
310
FFFFE0007F80070007F8001FFF80007FF8000000001FFFFF8000000001FFFFF8
310
0FFFFFFFFFFFFFC07FFFFFF0001FFFFFF8001FFFFFFFFC000FF8001FFFFFFFFC
310
000FFF0003FFFFFFFFFC000000000FFFF000F8000000007FFFFFE0007F800700
310
07F8001FFF80007FF000000000FFFFFF800000000FFFFFF80FFFFFFFFFFFFFC0
310
7FFFFFF0001FFFFFF8000FFFFFFFF8000FF8000FFFFFFFF8000FFF0003FFFFFF
310
FFFC000000007FFFF000F800000007FFFFFFC0007F8003000FF8001FFF80007F
310
F000000007FFFFFF000000007FFFFFF80FFFFFFFFFFFFFC07FFFFFF0001FFFFF
310
F8000FFFFFFFF8000FF8000FFFFFFFF8000FFF0003FFFFFFFFF80000000FFFFF
310
F000F0000000FFFFFFFFC000FF8003000FF8001FFF80007FE0000000FFFFFFFF
310
0000000FFFFFFFF8000001FFFE0000007FFFFFF0001FFFFFF8000FFFFFFFF800
310
0FF8000FFFFFFFF8000FFF0003FFFFFFFFF8000000FFFFFFF000F000000FFFFF
310
FFFFC000FFC002000FF8000FFF80007FE000001FFFFFFFFE000001FFFFFFFFF8
310
000001FFFE0000007FFFFFF0001FFFFFF8000FFFFFFFF8000FF8000FFFFFFFF8
310
000FFF0003FFFFFFFFF000001FFFFFFFF000E00000FFFFFFFFFFC000FFC00200
310
0FFC000FFF80007FE00001FFFFFFFFFE00001FFFFFFFFFF8000001FFFE000000
310
7FFFFFF0001FFFFFFC000FFFFFFFF8001FFC000FFFFFFFF8001FFF0003FFFFFF
310
FFF00001FFFFFFFFF000E00007FFFFFFFFFF8000FFC000001FFC000FFF80007F
310
C0000FFFFFFFFFFE0000FFFFFFFFFFF8000001FFFE0000007FFFFFF0001FFFFF
310
FC0007FFFFFFF0001FFC0007FFFFFFF0001FFF0003FFFFFFFFF00007FFFFFFFF
310
F000E0001FFFFFFFFFFF8000FFC000001FFC000FFF80007FC0003FFFFFFFFFFE
310
0001FFFFFFFFFFF8000001FFFE0000007FFFFFF0001FFFFFFC0007FFFFFFF000
310
1FFC0007FFFFFFF0001FFF0003FFFFFFFFF0001FFFFFFFFFF000E0003FFFFF00
310
03FF8001FFE000001FFC0007FF80007FC0007FFFFF0007FC0003FFFFF0003FF8
310
000001FFFE0000007FFFFFF0001FFFFFFC0003FFFFFFE0001FFC0003FFFFFFE0
310
001FFF0003FFFFFFFFF0003FFFFFFFFFF000E0003FFFFF0001FF8001FFE00000
310
1FFE0007FF80007FC0007FFFFE0003FC0007FFFFE0003FF8000001FFFE000000
310
7FFFFFF0001FFFFFFE0003FFFFFFE0003FFE0003FFFFFFE0003FFF0003FFFFFF
310
FFF0003FFFFF8001F000E0003FFFFF0001FF0001FFE000001FFE0007FF80007F
310
C0007FFFFE0003FC0007FFFFE0003FF8000001FFFE0000007FFFFFF0001FFFFF
310
FE0001FFFFFFC0003FFE0001FFFFFFC0003FFF0003FFFFFFFFF0003FFFFF0001
310
F000E0003FFFFF0003FF0001FFE000003FFE0007FF80007FC0007FFFFE0003FC
310
0007FFFFE0003FF8000001FFFE0000007FFFFFF0001FFFFFFF0001FFFFFFC000
310
7FFF0001FFFFFFC0007FFF0003FFFFFFFFF0003FFFFF0001F000E0003FFFFE00
310
03FF0003FFF000003FFE0003FF80007FC0007FFFFC0003FE0007FFFFE0003FF8
310
000001FFFE0000007FFFFFF0001FFFFFFF0000FFFFFF80007FFF0000FFFFFF80
310
007FFF0003FFFFFFFFF0003FFFFF0001F000E0003FFFFE0003FF0003FFF00000
310
3FFF0003FF80007FC0007FFFFC0007FE0007FFFFC0003FF8000001FFFE000000
310
7FFFFFF0001FFFFFFF80007FFFFF0000FFFF80007FFFFF0000FFFF0003FFFFFF
310
FFF0003FFFFF0003F000E0003FFFFC0003FE0003FFF000003FFF0003FF80007F
310
E0003FFFF80007FE0003FFFFC0007FF8000001FFFE0000007FFFFFF0001FFFFF
310
FF80003FFFFE0000FFFF80003FFFFE0000FFFF0003FFFFFFFFF0001FFFFE0003
310
F000F0001FFFF80003FE0003FFF000007FFF0001FF80007FE0003FFFF00007FE
310
0001FFFF80007FF8000001FFFE0000007FFFFFF0001FFFFFFFC0000FFFF80001
310
FFFFC0000FFFF80001FFFF0003FFFFFFFFF0001FFFFC0003F000F0000FFFF000
310
07FE0007FFF800007FFF0001FF80007FE0001FFFE00007FF0000FFFE00007FF8
310
000001FFFE0000007FFFFFF0001FFFFFFFC00003FFE00001FFFFC00003FFE000
310
01FFFF0003FFFFFFFFF8000FFFF80003F000F00003FFC00007FC0007FFF80000
310
7FFF8001FF80007FF00007FF80000FFF00007FF80000FFF8000001FFFE000000
310
7F80000000000001FFE000003E000003FFFFE000003E000003FFFF0003FFFFFF
310
FFF80003FFE00007F000F800000000000FFC0007FFF800007FFF8001FF80007F
310
F000000000000FFF000000000000FFF8000001FFFE0000007F80000000000001
310
FFF0000000000007FFFFF0000000000007FFFF0003FFFFFFFFFC00007E000007
310
F000F800000000000FFC0007FFF80000FFFF8000FF80007FF800000000001FFF
310
800000000001FFF8000001FFFE0000007F80000000000001FFF800000000000F
310
FFFFF800000000000FFFFF0003FFFFFFFFFC00000000000FF000FC0000000000
310
1FFC0007FFFC0000FFFF8000FF80007FF800000000003FFFC00000000001FFF8
310
000001FFFE0000007F80000000000001FFF800000000000FFFFFF80000000000
310
0FFFFF0003FFFFFFFFFE00000000001FF000FE00000000003FF8000FFFFC0000
310
FFFF8000FF80007FFC00000000003FFFC00000000003FFF8000001FFFE000000
310
7F80000000000001FFFC00000000001FFFFFFC00000000001FFFFF0003FFFFFF
310
FFFF00000000001FF000FF00000000003FF8000FFFFC0000FFFFC000FF80007F
310
FE00000000007FFFE00000000007FFF8000001FFFE0000007F80000000000001
310
FFFE00000000003FFFFFFE00000000003FFFFF0003FFFFFFFFFF80000000003F
310
F000FF80000000007FF8000FFFFC0001FFFFC0007F80007FFF0000000000FFFF
310
F0000000000FFFF800000000000000007F80000000000001FFFF8000000000FF
310
FFFFFF8000000000FFFFFF0003FFFFFFFFFFC0000000007FF000FFC000000000
310
FFF8000FFFFE0001FFFFC0007F80007FFF8000000001FFFFF8000000001FFFF8
310
00000000000000007F80000000000001FFFFC000000001FFFFFFFFC000000001
310
FFFFFF0003FFFFFFFFFFE000000000FFF000FFE000000003FFF0001FFFFE0001
310
FFFFC0007F80007FFFC000000007FFFFFE000000003FFFF80000000000000000
310
7F80000000000001FFFFE000000003FFFFFFFFE000000003FFFFFF0003FFFFFF
310
FFFFF000000003FFF000FFF80000000FFFF0001FFFFE0001FFFFE0007F80007F
310
FFF00000000FFFFFFF00000000FFFFF800000000000000007F80000000000001
310
FFFFF80000000FFFFFFFFFF80000000FFFFFFF0003FFFFFFFFFFFC0000000FFF
310
F000FFFE0000003FFFF0001FFFFE0003FFFFE0003F80007FFFFC0000003FFFFF
310
FFC0000003FFFFF800000000000000007F80000000000001FFFFFE0000003FFF
310
FFFFFFFE0000003FFFFFFF0003FFFFFFFFFFFF0000003FFFF000FFFF800000FF
310
FFF0001FFFFF0003FFFFE0003F80007FFFFF000001FFFFFFFFF800001FFFFFF8
310
00000000000000007F80000000000001FFFFFFC00001FFFFFFFFFFFFC00001FF
310
FFFFFF0003FFFFFFFFFFFFC00000FFFFF000FFFFF8000FFFFFFFFFFFFFFFFFFF
310
FFFFFFFFFFFFFFFFFFFFF0001FFFFFFFFFFF0000FFFFFFF80000000000000000
310
7FFFFFFFFFFFFFFFFFFFFFFC001FFFFFFFFFFFFFFC001FFFFFFFFFFFFFFFFFFF
310
FFFFFFFC001FFFFFF000FFFFFFFFFFFFFFFFFFFFFFFFFFFFFFFFFFFFFFFFFFFF
310
FFFFFFFFFFFFFFFFFFFFFFFFFFFFFFFFFFFFFFFFFFFFFFFFFFFFFFFFFFFFFFFF
310
FFFFFFFFFFFFFFFFFFFFFFFFFFFFFFFFFFFFFFFFFFFFFFFFFFFFFFFFFFFFFFFF
310
F000FFFFFFFFFFFFFFFFFFFFFFFFFFFFFFFFFFFFFFFFFFFFFFFFFFFFFFFFFFFF
310
FFFFFFFFFFFFFFFFFFFFFFFFFFFFFFFFFFFFFFFFFFFFFFFFFFFFFFFFFFFFFFFF
310
FFFFFFFFFFFFFFFFFFFFFFFFFFFFFFFFFFFFFFFFFFFFFFFFF000FFFFFFFFFFFF
310
FFFFFFFFFFFFFFFFFFFFFFFFFFFFFFFFFFFFFFFFFFFFFFFFFFFFFFFFFFFFFFFF
310
FFFFFFFFFFFFFFFFFFFFFFFFFFFFFFFFFFFFFFFFFFFFFFFFFFFFFFFFFFFFFFFF
310
FFFFFFFFFFFFFFFFFFFFFFFFFFFFFFFFF000FFFFFFFFFFFFFFFFFFFFFFFFFFFF
310
FFFFFFFFFFFFFFFFFFFFFFFFFFFFFFFFFFFFFFFFFFFFFFFFFFFFFFFFFFFFFFFF
310
FFFFFFFFFFFFFFFFFFFFFFFFFFFFFFFFFFFFFFFFFFFFFFFFFFFFFFFFFFFFFFFF
310
FFFFFFFFFFFFFFFFF000FFFFFFFFFFFFFFFFFFFFFFFFFFFFFFFFFFFFFFFFFFFF
310
FFFFFFFFFFFFFFFFFFFFFFFFFFFFFFFFFFFFFFFFFFFFFFFFFFFFFFFFFFFFFFFF
310
FFFFFFFFFFFFFFFFFFFFFFFFFFFFFFFFFFFFFFFFFFFFFFFFFFFFFFFFFFFFFFFF
310
F000FFFFFFFFFFFFFFFFFFFFFFFFFFFFFFFFFFFFFFFFFFFFFFFFFFFFFFFFFFFF
310
FFFFFFFFFFFFFFFFFFFFFFFFFFFFFFFFFFFFFFFFFFFFFFFFFFFFFFFFFFFFFFFF
310
FFFFFFFFFFFFFFFFFFFFFFFFFFFFFFFFFFFFFFFFFFFFFFFFF000FFFFFFFFFFFF
310
FFFFFFFFFFFFFFFFFFFFFFFFFFFFFFFFFFFFFFFFFFFFFFFFFFFFFFFFFFFFFFFF
310
FFFFFFFFFFFFFFFFFFFFFFFFFFFFFFFFFFFFFFFFFFFFFFFFFFFFFFFFFFFFFFFF
310
FFFFFFFFFFFFFFFFFFFFFFFFFFFFFFFFF000FFFFFFFFFFFFFFFFFFFFFFFFFFFF
310
FFFFFFFFFFFFFFFFFFFFFFFFFFFFFFFFFFFFFFFFFFFFFFFFFFFFFFFFFFFFFFFF
310
FFFFFFFFFFFFFFFFFFFFFFFFFFFFFFFFFFFFFFFFFFFFFFFFFFFFFFFFFFFFFFFF
310
FFFFFFFFFFFFFFFFF000FFFFFFFFFFFFFFFFFFFFFFFFFFFFFFFFFFFFFFFFFFFF
310
FFFFFFFFFFFFFFFFFFFFFFFFFFFFFFFFFFFFFFFFFFFFFFFFFFFFFFFFFFFFFFFF
310
FFFFFFFFFFFFFFFFFFFFFFFFFFFFFFFFFFFFFFFFFFFFFFFFFFFFFFFFFFFFFFFF
310
F000FFFFFFFFFFFFFFFFFFFFFFFFFFFFFFFFFFFFFFFFFFFFFFFFFFFFFFFFFFFF
310
FFFFFFFFFFFFFFFFFFFFFFFFFFFFFFFFFFFFFFFFFFFFFFFFFFFFFFFFFFFFFFFF
310
FFFFFFFFFFFFFFFFFFFFFFFFFFFFFFFFFFFFFFFFFFFFFFFFF000FFFFFFFFFFFF
310
FFFFFFFFFFFFFFFFFFFFFFFFFFFFFFFFFFFFFFFFFFFFFFFFFFFFFFFFFFFFFFFF
310
FFFFFFFFFFFFFFFFFFFFFFFFFFFFFFFFFFFFFFFFFFFFFFFFFFFFFFFFFFFFFFFF
310
FFFFFFFFFFFFFFFFFFFFFFFFFFFFFFFFF000FFFFFFFFFFFFFFFFFFFFFFFFFFFF
310
FFFFFFFFFFFFFFFFFFFFFFFFFFFFFFFFFFFFFFFFFFFFFFFFFFFFFFFFFFFFFFFF
310
FFFFFFFFFFFFFFFFFFFFFFFFFFFFFFFFFFFFFFFFFFFFFFFFFFFFFFFFFFFFFFFF
310
FFFFFFFFFFFFFFFFF000FFFFFFFFFFFFFFFFFFFFFFFFFFFFFFFFFFFFFFFFFFFF
310
FFFFFFFFFFFFFFFFFFFFFFFFFFFFFFFFFFFFFFFFFFFFFFFFFFFFFFFFFFFFFFFF
310
FFFFFFFFFFFFFFFFFFFFFFFFFFFFFFFFFFFFFFFFFFFFFFFFFFFFFFFFFFFFFFFF
310
F000FFFFFFFFFFFFFFFFFFFFFFFFFFFFFFFFFFFFFFFFFFFFFFFFFFFFFFFFFFFF
310
FFFFFFFFFFFFFFFFFFFFFFFFFFFFFFFFFFFFFFFFFFFFFFFFFFFFFFFFFFFFFFFF
310
FFFFFFFFFFFFFFFFFFFFFFFFFFFFFFFFFFFFFFFFFFFFFFFFF000FFFFFFFFFFFF
310
FFFFFFFFFFFFFFFFFFFFFFFFFFFFFFFFFFFFFFFFFFFFFFFFFFFFFFFFFFFFFFFF
310
FFFFFFFFFFFFFFFFFFFFFFFFFFFFFFFFFFFFFFFFFFFFFFFFFFFFFFFFFFFFFFFF
310
FFFFFFFFFFFFFFFFFFFFFFFFFFFFFFFFF000FFFFFFFFFFFFFFFFFFFFFFFFFFFF
310
FFFFFFFFFFFFFFFFFFFFFFFFFFFFFFFFFFFFFFFFFFFFFFFFFFFFFFFFFFFFFFFF
310
FFFFFFFFFFFFFFFFFFFFFFFFFFFFFFFFFFFFFFFFFFFFFFFFFFFFFFFFFFFFFFFF
310
FFFFFFFFFFFFFFFFF000FFFFFFFFFFFFFFFFFFFFFFFFFFFFFFFFFFFFFFFFFFFF
310
FFFFFFFFFFFFFFFFFFFFFFFFFFFFFFFFFFFFFFFFFFFFFFFFFFFFFFFFFFFFFFFF
310
FFFFFFFFFFFFFFFFFFFFFFFFFFFFFFFFFFFFFFFFFFFFFFFFFFFFFFFFFFFFFFFF
310
F000FFFFFFFFFFFFFFFFFFFFFFFFFFFFFFFFFFFFFFFFFFFFFFFFFFFFFFFFFFFF
310
FFFFFFFFFFFFFFFFFFFFFFFFFFFFFFFFFFFFFFFFFFFFFFFFFFFFFFFFFFFFFFFF
310
FFFFFFFFFFFFFFFFFFFFFFFFFFFFFFFFFFFFFFFFFFFFFFFFF000FFFFFFFFFFFF
310
FFFFFFFFFFFFFFFFFFFFFFFFFFFFFFFFFFFFFFFFFFFFFFFFFFFFFFFFFFFFFFFF
310
FFFFFFFFFFFFFFFFFFFFFFFFFFFFFFFFFFFFFFFFFFFFFFFFFFFFFFFFFFFFFFFF
310
FFFFFFFFFFFFFFFFFFFFFFFFFFFFFFFFF000FFFFFFFFFFFFFFFFFFFFFFFFFFFF
310
FFFFFFFFFFFFFFFFFFFFFFFFFFFFFFFFFFFFFFFFFFFFFFFFFFFFFFFFFFFFFFFF
310
FFFFFFFFFFFFFFFFFFFFFFFFFFFFFFFFFFFFFFFFFFFFFFFFFFFFFFFFFFFFFFFF
310
FFFFFFFFFFFFFFFFF000FFFFFFFFFFFFFFFFFFFFFFFFFFFFFFFFFFFFFFFFFFFF
310
FFFFFFFFFFFFFFFFFFFFFFFFFFFFFFFFFFFFFFFFFFFFFFFFFFFFFFFFFFFFFFFF
310
FFFFFFFFFFFFFFFFFFFFFFFFFFFFFFFFFFFFFFFFFFFFFFFFFFFFFFFFFFFFFFFF
310
F000FFFFFFFFFFFFFFFFFFFFFFFFFFFFFFFFFFFFFFFFFFFFFFFFFFFFFFFFFFFF
310
FFFFFFFFFFFFFFFFFFFFFFFFFFFFFFFFFFFFFFFFFFFFFFFFFFFFFFFFFFFFFFFF
310
FFFFFFFFFFFFFFFFFFFFFFFFFFFFFFFFFFFFFFFFFFFFFFFFF000FFFFFFFFFFFF
310
FFFFFFFFFFFFFFFFFFFFFFFFFFFFFFFFFFFFFFFFFFFFFFFFFFFFFFFFFFFFFFFF
310
FFFFFFFFFFFFFFFFFFFFFFFFFFFFFFFFFFFFFFFFFFFFFFFFFFFFFFFFFFFFFFFF
310
FFFFFFFFFFFFFFFFFFFFFFFFFFFFFFFFF0000000000000000000000000000000
310
000000000100000001000000010000000000A163FF0700000000000000000000
310
00000000010000000100000000000000B0EFA163FF0700000000000000000000
310
0000000000000000AE0007030000000500AE40720000000040CD7D7200000000
310
0000000000000000000000000000000000000000000000000000000000000000
310
0000000000000000000000000000000000000000000000000000000000000000
310
0000000000000000000000000000000000000000000000000000000000000000
310
0000000000000000000000000000000000000000000000000000000000000000
310
0000000000000000000000000000000000000000000000000000000000000000
310
0000000000000000000000000000000000000000000000000000000000000000
310
0000000000000000000000000000000000000000000000000000000000000000
310
0000000000000000000000000000000000000000000000000000000000000000
310
0000000000000000E0040000C002000000000000000000000000000000000000
310
0000000000000000000000000000000050639D63FF07000040AE9D63FF070000
310
0000000000000000000000000000000000000000000000000000000000000000
310
0000000000000000000000000000000000000000000000000000000000000000
  1
OLE
  0
ENDSEC
  0
SECTION
  2
OBJECTS
  0
DICTIONARY
  5
C
330
0
100
AcDbDictionary
281
     1
  3
ACAD_GROUP
350
D
  3
ACAD_LAYOUT
350
1A
  3
ACAD_MLEADERSTYLE
350
202
  3
ACAD_MLINESTYLE
350
17
  3
ACAD_PLOTSETTINGS
350
19
  3
ACAD_PLOTSTYLENAME
350
E
  3
ACAD_TABLESTYLE
350
201
  3
ACAD_VISUALSTYLE
350
2A
  3
AcDbVariableDictionary
350
203
  0
DICTIONARY
  5
D
102
{ACAD_REACTORS
330
C
102
}
330
C
100
AcDbDictionary
281
     1
  0
DICTIONARY
  5
1A
102
{ACAD_REACTORS
330
C
102
}
330
C
100
AcDbDictionary
281
     1
  3
Layout1
350
1E
  3
Layout2
350
26
  3
Model
350
22
  0
DICTIONARY
  5
202
102
{ACAD_REACTORS
330
C
102
}
330
C
100
AcDbDictionary
281
     1
  0
DICTIONARY
  5
17
102
{ACAD_REACTORS
330
C
102
}
330
C
100
AcDbDictionary
281
     1
  3
Standard
350
18
  0
DICTIONARY
  5
19
102
{ACAD_REACTORS
330
C
102
}
330
C
100
AcDbDictionary
281
     1
  0
ACDBDICTIONARYWDFLT
  5
E
102
{ACAD_REACTORS
330
C
102
}
330
C
100
AcDbDictionary
281
     1
  3
Normal
350
F
100
AcDbDictionaryWithDefault
340
F
  0
DICTIONARY
  5
201
102
{ACAD_REACTORS
330
C
102
}
330
C
100
AcDbDictionary
281
     1
  0
DICTIONARY
  5
2A
102
{ACAD_REACTORS
330
C
102
}
330
C
100
AcDbDictionary
281
     1
  3
2dWireframe
350
2F
  3
3D Hidden
350
31
  3
3dWireframe
350
30
  3
Basic
350
32
  3
Brighten
350
36
  3
ColorChange
350
3A
  3
Conceptual
350
34
  3
Dim
350
35
  3
Facepattern
350
39
  3
Flat
350
2B
  3
FlatWithEdges
350
2C
  3
Gouraud
350
2D
  3
GouraudWithEdges
350
2E
  3
Linepattern
350
38
  3
Realistic
350
33
  3
Thicken
350
37
  0
DICTIONARY
  5
203
102
{ACAD_REACTORS
330
C
102
}
330
C
100
AcDbDictionary
281
     1
  3
PSOLHEIGHT
350
205
  3
PSOLWIDTH
350
204
  0
LAYOUT
  5
1E
102
{ACAD_REACTORS
330
1A
102
}
330
1A
100
AcDbPlotSettings
  1

  2
none_device
  4

  6

 40
0.0
 41
0.0
 42
0.0
 43
0.0
 44
0.0
 45
0.0
 46
0.0
 47
0.0
 48
0.0
 49
0.0
140
0.0
141
0.0
142
1.0
143
1.0
 70
   688
 72
     0
 73
     0
 74
     5
  7

 75
    16
147
1.0
148
0.0
149
0.0
100
AcDbLayout
  1
Layout1
 70
     1
 71
     1
 10
0.0
 20
0.0
 11
420.0
 21
297.0
 12
0.0
 22
0.0
 32
0.0
 14
1.0000000000E+20
 24
1.0000000000E+20
 34
1.0000000000E+20
 15
-1.0000000000E+20
 25
-1.0000000000E+20
 35
-1.0000000000E+20
146
0.0
 13
0.0
 23
0.0
 33
0.0
 16
1.0
 26
0.0
 36
0.0
 17
0.0
 27
1.0
 37
0.0
 76
     0
330
1B
  0
LAYOUT
  5
26
102
{ACAD_REACTORS
330
1A
102
}
330
1A
100
AcDbPlotSettings
  1

  2
none_device
  4

  6

 40
0.0
 41
0.0
 42
0.0
 43
0.0
 44
0.0
 45
0.0
 46
0.0
 47
0.0
 48
0.0
 49
0.0
140
0.0
141
0.0
142
1.0
143
1.0
 70
   688
 72
     0
 73
     0
 74
     5
  7

 75
    16
147
1.0
148
0.0
149
0.0
100
AcDbLayout
  1
Layout2
 70
     1
 71
     2
 10
0.0
 20
0.0
 11
0.0
 21
0.0
 12
0.0
 22
0.0
 32
0.0
 14
0.0
 24
0.0
 34
0.0
 15
0.0
 25
0.0
 35
0.0
146
0.0
 13
0.0
 23
0.0
 33
0.0
 16
1.0
 26
0.0
 36
0.0
 17
0.0
 27
1.0
 37
0.0
 76
     0
330
23
  0
LAYOUT
  5
22
102
{ACAD_REACTORS
330
1A
102
}
330
1A
100
AcDbPlotSettings
  1

  2
none_device
  4

  6

 40
0.0
 41
0.0
 42
0.0
 43
0.0
 44
0.0
 45
0.0
 46
0.0
 47
0.0
 48
0.0
 49
0.0
140
0.0
141
0.0
142
1.0
143
1.0
 70
  1712
 72
     0
 73
     0
 74
     0
  7

 75
     0
147
1.0
148
0.0
149
0.0
100
AcDbLayout
  1
Model
 70
     1
 71
     0
 10
0.0
 20
0.0
 11
297.0
 21
210.0
 12
0.0
 22
0.0
 32
0.0
 14
0.0
 24
0.0
 34
0.0
 15
297.0
 25
210.0
 35
0.0
146
0.0
 13
0.0
 23
0.0
 33
0.0
 16
1.0
 26
0.0
 36
0.0
 17
0.0
 27
1.0
 37
0.0
 76
     0
330
1F
331
29
  0
MLINESTYLE
  5
18
102
{ACAD_REACTORS
330
17
102
}
330
17
100
AcDbMlineStyle
  2
Standard
 70
     0
  3

 62
   256
 51
90.0
 52
90.0
 71
     2
 49
0.5
 62
   256
  6
BYLAYER
 49
-0.5
 62
   256
  6
BYLAYER
  0
ACDBPLACEHOLDER
  5
F
102
{ACAD_REACTORS
330
E
102
}
330
E
  0
VISUALSTYLE
  5
2F
102
{ACAD_REACTORS
330
2A
102
}
330
2A
100
AcDbVisualStyle
  2
2dWireframe
 70
     4
 71
     0
 72
     2
 73
     0
 90
        0
 40
-0.6
 41
-30.0
 62
     5
 63
     7
 74
     1
 91
        4
 64
     7
 65
   257
 75
     1
175
     1
 42
1.0
 92
        0
 66
   257
 43
1.0
 76
     1
 77
     6
 78
     2
 67
     7
 79
     5
170
     0
171
     0
290
     0
174
     0
 93
        1
 44
0.0
173
     0
291
     0
 45
0.0
1001
ACAD
1000
AcDbSavedByObjectVersion
1070
     0
  0
VISUALSTYLE
  5
31
102
{ACAD_REACTORS
330
2A
102
}
330
2A
100
AcDbVisualStyle
  2
3D Hidden
 70
     6
 71
     1
 72
     2
 73
     2
 90
        0
 40
-0.6
 41
-30.0
 62
     5
 63
     7
 74
     2
 91
        2
 64
     7
 65
   257
 75
     2
175
     1
 42
40.0
 92
        0
 66
   257
 43
1.0
 76
     1
 77
     6
 78
     2
 67
     7
 79
     3
170
     0
171
     0
290
     0
174
     0
 93
        1
 44
0.0
173
     0
291
     0
 45
0.0
1001
ACAD
1000
AcDbSavedByObjectVersion
1070
     0
  0
VISUALSTYLE
  5
30
102
{ACAD_REACTORS
330
2A
102
}
330
2A
100
AcDbVisualStyle
  2
3dWireframe
 70
     5
 71
     0
 72
     2
 73
     0
 90
        0
 40
-0.6
 41
-30.0
 62
     5
 63
     7
 74
     1
 91
        4
 64
     7
 65
   257
 75
     1
175
     1
 42
1.0
 92
        0
 66
   257
 43
1.0
 76
     1
 77
     6
 78
     2
 67
     7
 79
     5
170
     0
171
     0
290
     0
174
     0
 93
        1
 44
0.0
173
     0
291
     0
 45
0.0
1001
ACAD
1000
AcDbSavedByObjectVersion
1070
     0
  0
VISUALSTYLE
  5
32
102
{ACAD_REACTORS
330
2A
102
}
330
2A
100
AcDbVisualStyle
  2
Basic
 70
     7
 71
     1
 72
     0
 73
     1
 90
        0
 40
-0.6
 41
-30.0
 62
     5
 63
     7
 74
     0
 91
        4
 64
     7
 65
   257
 75
     1
175
     1
 42
1.0
 92
        8
 66
     7
 43
1.0
 76
     1
 77
     6
 78
     2
 67
     7
 79
     5
170
     0
171
     0
290
     0
174
     0
 93
        1
 44
0.0
173
     0
291
     1
 45
0.0
1001
ACAD
1000
AcDbSavedByObjectVersion
1070
     0
  0
VISUALSTYLE
  5
36
102
{ACAD_REACTORS
330
2A
102
}
330
2A
100
AcDbVisualStyle
  2
Brighten
 70
    12
 71
     2
 72
     2
 73
     0
 90
        0
 40
-0.6
 41
-30.0
 62
     5
 63
     7
 74
     1
 91
        4
 64
     7
 65
   257
 75
     1
175
     1
 42
1.0
 92
        8
 66
     7
 43
1.0
 76
     1
 77
     6
 78
     2
 67
     7
 79
     5
170
     0
171
     0
290
     0
174
     0
 93
        1
 44
50.0
173
     0
291
     1
 45
0.0
1001
ACAD
1000
AcDbSavedByObjectVersion
1070
     0
  0
VISUALSTYLE
  5
3A
102
{ACAD_REACTORS
330
2A
102
}
330
2A
100
AcDbVisualStyle
  2
ColorChange
 70
    16
 71
     2
 72
     2
 73
     3
 90
        0
 40
-0.6
 41
-30.0
 62
     5
 63
     8
 74
     1
 91
        4
 64
     7
 65
   257
 75
     1
175
     1
 42
1.0
 92
        8
 66
     8
 43
1.0
 76
     1
 77
     6
 78
     2
 67
     7
 79
     5
170
     0
171
     0
290
     0
174
     0
 93
        1
 44
0.0
173
     0
291
     1
 45
0.0
1001
ACAD
1000
AcDbSavedByObjectVersion
1070
     0
  0
VISUALSTYLE
  5
34
102
{ACAD_REACTORS
330
2A
102
}
330
2A
100
AcDbVisualStyle
  2
Conceptual
 70
     9
 71
     3
 72
     2
 73
     0
 90
        0
 40
-0.6
 41
-30.0
 62
     5
 63
     7
 74
     2
 91
        2
 64
     7
 65
   257
 75
     1
175
     1
 42
40.0
 92
        8
 66
     7
 43
1.0
 76
     1
 77
     6
 78
     2
 67
     7
 79
     3
170
     0
171
     0
290
     0
174
     0
 93
        1
 44
0.0
173
     0
291
     0
 45
0.0
1001
ACAD
1000
AcDbSavedByObjectVersion
1070
     0
  0
VISUALSTYLE
  5
35
102
{ACAD_REACTORS
330
2A
102
}
330
2A
100
AcDbVisualStyle
  2
Dim
 70
    11
 71
     2
 72
     2
 73
     0
 90
        0
 40
-0.6
 41
-30.0
 62
     5
 63
     7
 74
     1
 91
        4
 64
     7
 65
   257
 75
     1
175
     1
 42
1.0
 92
        8
 66
     7
 43
1.0
 76
     1
 77
     6
 78
     2
 67
     7
 79
     5
170
     0
171
     0
290
     0
174
     0
 93
        1
 44
-50.0
173
     0
291
     1
 45
0.0
1001
ACAD
1000
AcDbSavedByObjectVersion
1070
     0
  0
VISUALSTYLE
  5
39
102
{ACAD_REACTORS
330
2A
102
}
330
2A
100
AcDbVisualStyle
  2
Facepattern
 70
    15
 71
     2
 72
     2
 73
     0
 90
        0
 40
-0.6
 41
-30.0
 62
     5
 63
     7
 74
     1
 91
        4
 64
     7
 65
   257
 75
     1
175
     1
 42
1.0
 92
        8
 66
     7
 43
1.0
 76
     1
 77
     6
 78
     2
 67
     7
 79
     5
170
     0
171
     0
290
     0
174
     0
 93
        1
 44
0.0
173
     0
291
     1
 45
0.0
1001
ACAD
1000
AcDbSavedByObjectVersion
1070
     0
  0
VISUALSTYLE
  5
2B
102
{ACAD_REACTORS
330
2A
102
}
330
2A
100
AcDbVisualStyle
  2
Flat
 70
     0
 71
     2
 72
     1
 73
     1
 90
        2
 40
-0.6
 41
30.0
 62
     5
 63
     7
 74
     0
 91
        4
 64
     7
 65
   257
 75
     1
175
     1
 42
1.0
 92
        8
 66
     7
 43
1.0
 76
     1
 77
     6
 78
     2
 67
     7
 79
     5
170
     0
171
     0
290
     0
174
     0
 93
       13
 44
0.0
173
     0
291
     1
 45
0.0
1001
ACAD
1000
AcDbSavedByObjectVersion
1070
     0
  0
VISUALSTYLE
  5
2C
102
{ACAD_REACTORS
330
2A
102
}
330
2A
100
AcDbVisualStyle
  2
FlatWithEdges
 70
     1
 71
     2
 72
     1
 73
     1
 90
        2
 40
-0.6
 41
30.0
 62
     5
 63
     7
 74
     1
 91
        4
 64
     7
 65
   257
 75
     1
175
     1
 42
1.0
 92
        0
 66
   257
 43
1.0
 76
     1
 77
     6
 78
     2
 67
     7
 79
     5
170
     0
171
     0
290
     0
174
     0
 93
       13
 44
0.0
173
     0
291
     1
 45
0.0
1001
ACAD
1000
AcDbSavedByObjectVersion
1070
     0
  0
VISUALSTYLE
  5
2D
102
{ACAD_REACTORS
330
2A
102
}
330
2A
100
AcDbVisualStyle
  2
Gouraud
 70
     2
 71
     2
 72
     2
 73
     1
 90
        2
 40
-0.6
 41
30.0
 62
     5
 63
     7
 74
     0
 91
        4
 64
     7
 65
   257
 75
     1
175
     1
 42
1.0
 92
        0
 66
     7
 43
1.0
 76
     1
 77
     6
 78
     2
 67
     7
 79
     5
170
     0
171
     0
290
     0
174
     0
 93
       13
 44
0.0
173
     0
291
     1
 45
0.0
1001
ACAD
1000
AcDbSavedByObjectVersion
1070
     0
  0
VISUALSTYLE
  5
2E
102
{ACAD_REACTORS
330
2A
102
}
330
2A
100
AcDbVisualStyle
  2
GouraudWithEdges
 70
     3
 71
     2
 72
     2
 73
     1
 90
        2
 40
-0.6
 41
30.0
 62
     5
 63
     7
 74
     1
 91
        4
 64
     7
 65
   257
 75
     1
175
     1
 42
1.0
 92
        0
 66
   257
 43
1.0
 76
     1
 77
     6
 78
     2
 67
     7
 79
     5
170
     0
171
     0
290
     0
174
     0
 93
       13
 44
0.0
173
     0
291
     1
 45
0.0
1001
ACAD
1000
AcDbSavedByObjectVersion
1070
     0
  0
VISUALSTYLE
  5
38
102
{ACAD_REACTORS
330
2A
102
}
330
2A
100
AcDbVisualStyle
  2
Linepattern
 70
    14
 71
     2
 72
     2
 73
     0
 90
        0
 40
-0.6
 41
-30.0
 62
     5
 63
     7
 74
     1
 91
        4
 64
     7
 65
   257
 75
     7
175
     7
 42
1.0
 92
        8
 66
     7
 43
1.0
 76
     1
 77
     6
 78
     2
 67
     7
 79
     5
170
     0
171
     0
290
     0
174
     0
 93
        1
 44
0.0
173
     0
291
     1
 45
0.0
1001
ACAD
1000
AcDbSavedByObjectVersion
1070
     0
  0
VISUALSTYLE
  5
33
102
{ACAD_REACTORS
330
2A
102
}
330
2A
100
AcDbVisualStyle
  2
Realistic
 70
     8
 71
     2
 72
     2
 73
     0
 90
        0
 40
-0.6
 41
-30.0
 62
     5
 63
     7
 74
     1
 91
        0
 64
     7
 65
   257
 75
     1
175
     1
 42
1.0
 92
        8
 66
     8
 43
1.0
 76
     1
 77
     6
 78
     2
 67
     7
 79
     5
170
     0
171
     0
290
     0
174
     0
 93
       13
 44
0.0
173
     0
291
     0
 45
0.0
1001
ACAD
1000
AcDbSavedByObjectVersion
1070
     0
  0
VISUALSTYLE
  5
37
102
{ACAD_REACTORS
330
2A
102
}
330
2A
100
AcDbVisualStyle
  2
Thicken
 70
    13
 71
     2
 72
     2
 73
     0
 90
        0
 40
-0.6
 41
-30.0
 62
     5
 63
     7
 74
     1
 91
        4
 64
     7
 65
   257
 75
     1
175
     1
 42
1.0
 92
       12
 66
     7
 43
1.0
 76
     1
 77
     6
 78
     2
 67
     7
 79
     5
170
     0
171
     0
290
     0
174
     0
 93
        1
 44
0.0
173
     0
291
     1
 45
0.0
1001
ACAD
1000
AcDbSavedByObjectVersion
1070
     0
  0
DICTIONARYVAR
  5
205
102
{ACAD_REACTORS
330
203
102
}
330
203
100
DictionaryVariables
280
     0
  1
80.000000
  0
DICTIONARYVAR
  5
204
102
{ACAD_REACTORS
330
203
102
}
330
203
100
DictionaryVariables
280
     0
  1
5.000000
  0
ENDSEC
  0
EOF
