  0
SECTION
  2
HEADER
  9
$ACADVER
  1
AC1015
  9
$ACADMAINTVER
 70
     6
  9
$DWGCODEPAGE
  3
ANSI_1252
  9
$INSBASE
 10
0.0
 20
0.0
 30
0.0
  9
$EXTMIN
 10
0.0
 20
0.0
 30
0.0
  9
$EXTMAX
 10
297.0
 20
210.0
 30
0.0
  9
$LIMMIN
 10
0.0
 20
0.0
  9
$LIMMAX
 10
297.0
 20
210.0
  9
$ORTHOMODE
 70
     0
  9
$REGENMODE
 70
     1
  9
$FILLMODE
 70
     1
  9
$QTEXTMODE
 70
     0
  9
$MIRRTEXT
 70
     1
  9
$LTSCALE
 40
1.0
  9
$ATTMODE
 70
     1
  9
$TEXTSIZE
 40
2.0
  9
$TRACEWID
 40
1.0
  9
$TEXTSTYLE
  7
Standard
  9
$CLAYER
  8
0
  9
$CELTYPE
  6
ByLayer
  9
$CECOLOR
 62
   256
  9
$CELTSCALE
 40
1.0
  9
$DISPSILH
 70
     0
  9
$DIMSCALE
 40
1.0
  9
$DIMASZ
 40
3.0
  9
$DIMEXO
 40
0.0
  9
$DIMDLI
 40
3.75
  9
$DIMRND
 40
0.0
  9
$DIMDLE
 40
0.0
  9
$DIMEXE
 40
1.0
  9
$DIMTP
 40
0.0
  9
$DIMTM
 40
0.0
  9
$DIMTXT
 40
2.0
  9
$DIMCEN
 40
2.5
  9
$DIMTSZ
 40
0.0
  9
$DIMTOL
 70
     0
  9
$DIMLIM
 70
     0
  9
$DIMTIH
 70
     1
  9
$DIMTOH
 70
     1
  9
$DIMSE1
 70
     0
  9
$DIMSE2
 70
     0
  9
$DIMTAD
 70
     1
  9
$DIMZIN
 70
     0
  9
$DIMBLK
  1

  9
$DIMASO
 70
     1
  9
$DIMSHO
 70
     1
  9
$DIMPOST
  1

  9
$DIMAPOST
  1

  9
$DIMALT
 70
     0
  9
$DIMALTD
 70
     3
  9
$DIMALTF
 40
0.0393700787
  9
$DIMLFAC
 40
1.0
  9
$DIMTOFL
 70
     1
  9
$DIMTVP
 40
0.0
  9
$DIMTIX
 70
     0
  9
$DIMSOXD
 70
     0
  9
$DIMSAH
 70
     0
  9
$DIMBLK1
  1

  9
$DIMBLK2
  1

  9
$DIMSTYLE
  2
ISO-25
  9
$DIMCLRD
 70
     0
  9
$DIMCLRE
 70
     0
  9
$DIMCLRT
 70
     0
  9
$DIMTFAC
 40
1.0
  9
$DIMGAP
 40
1.524
  9
$DIMJUST
 70
     0
  9
$DIMSD1
 70
     0
  9
$DIMSD2
 70
     0
  9
$DIMTOLJ
 70
     0
  9
$DIMTZIN
 70
     0
  9
$DIMALTZ
 70
     0
  9
$DIMALTTZ
 70
     0
  9
$DIMUPT
 70
     0
  9
$DIMDEC
 70
     2
  9
$DIMTDEC
 70
     3
  9
$DIMALTU
 70
     2
  9
$DIMALTTD
 70
     3
  9
$DIMTXSTY
  7
Standard
  9
$DIMAUNIT
 70
     0
  9
$DIMADEC
 70
     2
  9
$DIMALTRND
 40
0.0
  9
$DIMAZIN
 70
     0
  9
$DIMDSEP
 70
    44
  9
$DIMATFIT
 70
     3
  9
$DIMFRAC
 70
     0
  9
$DIMLDRBLK
  1

  9
$DIMLUNIT
 70
     2
  9
$DIMLWD
 70
    -2
  9
$DIMLWE
 70
    -2
  9
$DIMTMOVE
 70
     0
  9
$LUNITS
 70
     2
  9
$LUPREC
 70
     2
  9
$SKETCHINC
 40
1.0
  9
$FILLETRAD
 40
10.0
  9
$AUNITS
 70
     0
  9
$AUPREC
 70
     2
  9
$MENU
  1
.
  9
$ELEVATION
 40
0.0
  9
$PELEVATION
 40
0.0
  9
$THICKNESS
 40
0.0
  9
$LIMCHECK
 70
     0
  9
$CHAMFERA
 40
10.0
  9
$CHAMFERB
 40
10.0
  9
$CHAMFERC
 40
20.0
  9
$CHAMFERD
 40
0.0
  9
$SKPOLY
 70
     0
  9
$TDCREATE
 40
2455684.343542674
  9
$TDUCREATE
 40
2455684.26020934
  9
$TDUPDATE
 40
2455684.343542685
  9
$TDUUPDATE
 40
2455684.260209352
  9
$TDINDWG
 40
0.0000000116
  9
$TDUSRTIMER
 40
0.0000000116
  9
$USRTIMER
 70
     1
  9
$ANGBASE
 50
0.0
  9
$ANGDIR
 70
     0
  9
$PDMODE
 70
     0
  9
$PDSIZE
 40
-1.0
  9
$PLINEWID
 40
0.0
  9
$SPLFRAME
 70
     0
  9
$SPLINETYPE
 70
     6
  9
$SPLINESEGS
 70
     8
  9
$HANDSEED
  5
20C
  9
$SURFTAB1
 70
     6
  9
$SURFTAB2
 70
     6
  9
$SURFTYPE
 70
     6
  9
$SURFU
 70
     6
  9
$SURFV
 70
     6
  9
$UCSBASE
  2

  9
$UCSNAME
  2

  9
$UCSORG
 10
0.0
 20
0.0
 30
0.0
  9
$UCSXDIR
 10
1.0
 20
0.0
 30
0.0
  9
$UCSYDIR
 10
0.0
 20
1.0
 30
0.0
  9
$UCSORTHOREF
  2

  9
$UCSORTHOVIEW
 70
     0
  9
$UCSORGTOP
 10
0.0
 20
0.0
 30
0.0
  9
$UCSORGBOTTOM
 10
0.0
 20
0.0
 30
0.0
  9
$UCSORGLEFT
 10
0.0
 20
0.0
 30
0.0
  9
$UCSORGRIGHT
 10
0.0
 20
0.0
 30
0.0
  9
$UCSORGFRONT
 10
0.0
 20
0.0
 30
0.0
  9
$UCSORGBACK
 10
0.0
 20
0.0
 30
0.0
  9
$PUCSBASE
  2

  9
$PUCSNAME
  2

  9
$PUCSORG
 10
0.0
 20
0.0
 30
0.0
  9
$PUCSXDIR
 10
1.0
 20
0.0
 30
0.0
  9
$PUCSYDIR
 10
0.0
 20
1.0
 30
0.0
  9
$PUCSORTHOREF
  2

  9
$PUCSORTHOVIEW
 70
     0
  9
$PUCSORGTOP
 10
0.0
 20
0.0
 30
0.0
  9
$PUCSORGBOTTOM
 10
0.0
 20
0.0
 30
0.0
  9
$PUCSORGLEFT
 10
0.0
 20
0.0
 30
0.0
  9
$PUCSORGRIGHT
 10
0.0
 20
0.0
 30
0.0
  9
$PUCSORGFRONT
 10
0.0
 20
0.0
 30
0.0
  9
$PUCSORGBACK
 10
0.0
 20
0.0
 30
0.0
  9
$USERI1
 70
     0
  9
$USERI2
 70
     0
  9
$USERI3
 70
     0
  9
$USERI4
 70
     0
  9
$USERI5
 70
     0
  9
$USERR1
 40
0.0
  9
$USERR2
 40
0.0
  9
$USERR3
 40
0.0
  9
$USERR4
 40
0.0
  9
$USERR5
 40
0.0
  9
$WORLDVIEW
 70
     1
  9
$SHADEDGE
 70
     3
  9
$SHADEDIF
 70
    70
  9
$TILEMODE
 70
     1
  9
$MAXACTVP
 70
    64
  9
$PINSBASE
 10
0.0
 20
0.0
 30
0.0
  9
$PLIMCHECK
 70
     0
  9
$PEXTMIN
 10
1.0000000000E+20
 20
1.0000000000E+20
 30
1.0000000000E+20
  9
$PEXTMAX
 10
-1.0000000000E+20
 20
-1.0000000000E+20
 30
-1.0000000000E+20
  9
$PLIMMIN
 10
0.0
 20
0.0
  9
$PLIMMAX
 10
420.0
 20
297.0
  9
$UNITMODE
 70
     0
  9
$VISRETAIN
 70
     1
  9
$PLINEGEN
 70
     0
  9
$PSLTSCALE
 70
     1
  9
$TREEDEPTH
 70
  3020
  9
$CMLSTYLE
  2
Standard
  9
$CMLJUST
 70
     0
  9
$CMLSCALE
 40
20.0
  9
$PROXYGRAPHICS
 70
     1
  9
$MEASUREMENT
 70
     1
  9
$CELWEIGHT
370
    -1
  9
$ENDCAPS
280
     0
  9
$JOINSTYLE
280
     0
  9
$LWDISPLAY
290
     1
  9
$INSUNITS
 70
     4
  9
$HYPERLINKBASE
  1

  9
$STYLESHEET
  1

  9
$XEDIT
290
     1
  9
$CEPSNTYPE
380
     0
  9
$PSTYLEMODE
290
     1
  9
$FINGERPRINTGUID
  2
{5660CFFB-FBA4-4EE0-A4FB-CC2ABBAAF153}
  9
$VERSIONGUID
  2
{FAEB1C32-E019-11D5-929B-00C0DF256EC4}
  9
$EXTNAMES
290
     1
  9
$PSVPSCALE
 40
0.0
  9
$OLESTARTUP
290
     0
  0
ENDSEC
  0
SECTION
  2
CLASSES
  0
CLASS
  1
ACDBDICTIONARYWDFLT
  2
AcDbDictionaryWithDefault
  3
ObjectDBX Classes
 90
        0
280
     0
281
     0
  0
CLASS
  1
VISUALSTYLE
  2
AcDbVisualStyle
  3
ObjectDBX Classes
 90
     4095
280
     0
281
     0
  0
CLASS
  1
DICTIONARYVAR
  2
AcDbDictionaryVar
  3
ObjectDBX Classes
 90
        0
280
     0
281
     0
  0
CLASS
  1
ACDBPLACEHOLDER
  2
AcDbPlaceHolder
  3
ObjectDBX Classes
 90
        0
280
     0
281
     0
  0
CLASS
  1
LAYOUT
  2
AcDbLayout
  3
ObjectDBX Classes
 90
        0
280
     0
281
     0
  0
ENDSEC
  0
SECTION
  2
TABLES
  0
TABLE
  2
VPORT
  5
8
330
0
100
AcDbSymbolTable
 70
     1
  0
VPORT
  5
29
330
8
100
AcDbSymbolTableRecord
100
AcDbViewportTableRecord
  2
*Active
 70
     0
 10
0.0
 20
0.0
 11
1.0
 21
1.0
 12
148.5
 22
105.0
 13
0.0
 23
0.0
 14
10.0
 24
10.0
 15
10.0
 25
10.0
 16
0.0
 26
0.0
 36
1.0
 17
0.0
 27
0.0
 37
0.0
 40
210.0
 41
1.4142857143
 42
50.0
 43
0.0
 44
0.0
 50
0.0
 51
0.0
 71
     0
 72
  2000
 73
     1
 74
     3
 75
     0
 76
     0
 77
     0
 78
     0
281
     0
 65
     1
110
0.0
120
0.0
130
0.0
111
1.0
121
0.0
131
0.0
112
0.0
122
1.0
132
0.0
 79
     0
146
0.0
  0
ENDTAB
  0
TABLE
  2
LTYPE
  5
5
330
0
100
AcDbSymbolTable
 70
     6
  0
LTYPE
  5
14
330
5
100
AcDbSymbolTableRecord
100
AcDbLinetypeTableRecord
  2
ByBlock
 70
     0
  3

 72
    65
 73
     0
 40
0.0
  0
LTYPE
  5
15
330
5
100
AcDbSymbolTableRecord
100
AcDbLinetypeTableRecord
  2
ByLayer
 70
     0
  3

 72
    65
 73
     0
 40
0.0
  0
LTYPE
  5
16
330
5
100
AcDbSymbolTableRecord
100
AcDbLinetypeTableRecord
  2
Continuous
 70
     0
  3
Solid line
 72
    65
 73
     0
 40
0.0
  0
LTYPE
  5
3B
330
5
100
AcDbSymbolTableRecord
100
AcDbLinetypeTableRecord
  2
HIDDEN
 70
     0
  3
Hidden __ __ __ __ __ __ __ __ __ __ __ __ __ __
 72
    65
 73
     2
 40
1.905
 49
1.27
 74
     0
 49
-0.635
 74
     0
  0
LTYPE
  5
3C
330
5
100
AcDbSymbolTableRecord
100
AcDbLinetypeTableRecord
  2
PHANTOM
 70
     0
  3
Phantom ______  __  __  ______  __  __  ______
 72
    65
 73
     6
 40
12.7
 49
6.35
 74
     0
 49
-1.27
 74
     0
 49
1.27
 74
     0
 49
-1.27
 74
     0
 49
1.27
 74
     0
 49
-1.27
 74
     0
  0
LTYPE
  5
3D
330
5
100
AcDbSymbolTableRecord
100
AcDbLinetypeTableRecord
  2
CENTER
 70
     0
  3
Center ____ _ ____ _ ____ _ ____ _ ____ _ ____
 72
    65
 73
     4
 40
10.16
 49
6.35
 74
     0
 49
-1.27
 74
     0
 49
1.27
 74
     0
 49
-1.27
 74
     0
  0
LTYPE
  5
3E
330
5
100
AcDbSymbolTableRecord
100
AcDbLinetypeTableRecord
  2
CENTERX2
 70
     0
  3
Center (2x) ________  __  ________  __  _____
 72
    65
 73
     4
 40
20.32
 49
12.7
 74
     0
 49
-2.54
 74
     0
 49
2.54
 74
     0
 49
-2.54
 74
     0
  0
LTYPE
  5
3F
330
5
100
AcDbSymbolTableRecord
100
AcDbLinetypeTableRecord
  2
DOT2
 70
     0
  3
Dot (.5x) ........................................
 72
    65
 73
     2
 40
0.635
 49
0.0
 74
     0
 49
-0.635
 74
     0
  0
ENDTAB
  0
TABLE
  2
LAYER
  5
2
330
0
100
AcDbSymbolTable
 70
     5
  0
LAYER
  5
10
330
2
100
AcDbSymbolTableRecord
100
AcDbLayerTableRecord
  2
0
 70
     0
 62
     7
  6
Continuous
370
    -3
390
F
  0
LAYER
  5
40
330
2
100
AcDbSymbolTableRecord
100
AcDbLayerTableRecord
  2
FORMAT
 70
     0
 62
     7
  6
Continuous
370
    -3
390
F
  0
LAYER
  5
41
330
2
100
AcDbSymbolTableRecord
100
AcDbLayerTableRecord
  2
VERMASSUNG
 70
     0
 62
     7
  6
Continuous
370
    -3
390
F
  0
LAYER
  5
42
330
2
100
AcDbSymbolTableRecord
100
AcDbLayerTableRecord
  2
KOPF_DÜNN
 70
     0
 62
     7
  6
Continuous
370
    -3
390
F
  0
LAYER
  5
43
330
2
100
AcDbSymbolTableRecord
100
AcDbLayerTableRecord
  2
KOPF_DICK
 70
     0
 62
     7
  6
Continuous
370
    15
390
F
  0
ENDTAB
  0
TABLE
  2
STYLE
  5
3
330
0
100
AcDbSymbolTable
 70
     3
  0
STYLE
  5
11
330
3
100
AcDbSymbolTableRecord
100
AcDbTextStyleTableRecord
  2
Standard
 70
     0
 40
0.0
 41
1.0
 50
0.0
 71
     0
 42
2.5
  3
txt
  4

  0
STYLE
  5
44
330
3
100
AcDbSymbolTableRecord
100
AcDbTextStyleTableRecord
  2
SLDTEXTSTYLE0
 70
     0
 40
0.0
 41
0.7
 50
0.0
 71
     0
 42
0.2
  3
TXT
  4

  0
STYLE
  5
48
330
3
100
AcDbSymbolTableRecord
100
AcDbTextStyleTableRecord
  2
SLDTEXTSTYLE1
 70
     0
 40
0.0
 41
0.65
 50
0.0
 71
     0
 42
0.2
  3
TXT
  4

  0
ENDTAB
  0
TABLE
  2
VIEW
  5
6
330
0
100
AcDbSymbolTable
 70
     0
  0
ENDTAB
  0
TABLE
  2
UCS
  5
7
330
0
100
AcDbSymbolTable
 70
     0
  0
ENDTAB
  0
TABLE
  2
APPID
  5
9
330
0
100
AcDbSymbolTable
 70
     1
  0
APPID
  5
12
330
9
100
AcDbSymbolTableRecord
100
AcDbRegAppTableRecord
  2
ACAD
 70
     0
  0
ENDTAB
  0
TABLE
  2
DIMSTYLE
  5
A
330
0
100
AcDbSymbolTable
 70
     5
100
AcDbDimStyleTable
  0
DIMSTYLE
105
27
330
A
100
AcDbSymbolTableRecord
100
AcDbDimStyleTableRecord
  2
ISO-25
 70
     0
 41
2.5
 42
0.625
 43
3.75
 44
1.25
 73
     0
 74
     0
 77
     1
 78
     8
140
2.5
141
2.5
143
0.0393700787
147
0.625
171
     3
172
     1
271
     2
272
     2
274
     3
278
    44
283
     0
284
     8
340
11
  0
DIMSTYLE
105
1AD
102
{ACAD_REACTORS
330
1AC
330
1E7
330
1F1
330
1FB
102
}
330
A
100
AcDbSymbolTableRecord
100
AcDbDimStyleTableRecord
  2
SLDDIMSTYLE0
 70
     0
 41
3.0
 44
0.0
 45
0.000000001
 73
     0
 74
     0
 77
     1
 78
    12
140
2.0
147
0.5
173
     1
271
     2
272
     3
284
    12
340
44
  0
DIMSTYLE
105
1BA
102
{ACAD_REACTORS
330
1B9
102
}
330
A
100
AcDbSymbolTableRecord
100
AcDbDimStyleTableRecord
  2
SLDDIMSTYLE1
 70
     0
 41
3.0
 44
0.0
 45
0.000000001
 73
     0
 74
     0
 77
     1
 78
    12
140
2.0
147
0.5
173
     1
271
     2
272
     2
284
    12
340
44
  0
DIMSTYLE
105
1C5
102
{ACAD_REACTORS
330
1C4
102
}
330
A
100
AcDbSymbolTableRecord
100
AcDbDimStyleTableRecord
  2
SLDDIMSTYLE2
 70
     0
 41
3.0
 44
0.0
 45
0.000000001
 73
     0
 74
     0
 77
     1
 78
    12
140
2.0
147
0.5
173
     1
271
     2
272
     2
284
    12
340
44
  0
DIMSTYLE
105
1D1
102
{ACAD_REACTORS
330
1D0
330
1DC
102
}
330
A
100
AcDbSymbolTableRecord
100
AcDbDimStyleTableRecord
  2
SLDDIMSTYLE3
 70
     0
 41
3.0
 44
0.0
 45
0.000000001
 73
     0
 74
     0
 77
     1
 78
    12
140
2.0
147
0.5
173
     1
271
     2
272
     3
284
    12
340
44
  0
ENDTAB
  0
TABLE
  2
BLOCK_RECORD
  5
1
330
0
100
AcDbSymbolTable
 70
     9
  0
BLOCK_RECORD
  5
1F
330
1
100
AcDbSymbolTableRecord
100
AcDbBlockTableRecord
  2
*Model_Space
340
22
  0
BLOCK_RECORD
  5
1B
330
1
100
AcDbSymbolTableRecord
100
AcDbBlockTableRecord
  2
*Paper_Space
340
1E
  0
BLOCK_RECORD
  5
23
330
1
100
AcDbSymbolTableRecord
100
AcDbBlockTableRecord
  2
*Paper_Space0
340
26
  0
BLOCK_RECORD
  5
1AE
330
1
100
AcDbSymbolTableRecord
100
AcDbBlockTableRecord
  2
*D1
340
0
  0
BLOCK_RECORD
  5
1BB
330
1
100
AcDbSymbolTableRecord
100
AcDbBlockTableRecord
  2
*D2
340
0
  0
BLOCK_RECORD
  5
1C6
330
1
100
AcDbSymbolTableRecord
100
AcDbBlockTableRecord
  2
*D3
340
0
  0
BLOCK_RECORD
  5
1D2
330
1
100
AcDbSymbolTableRecord
100
AcDbBlockTableRecord
  2
*D4
340
0
  0
BLOCK_RECORD
  5
1DD
330
1
100
AcDbSymbolTableRecord
100
AcDbBlockTableRecord
  2
*D5
340
0
  0
BLOCK_RECORD
  5
1E8
330
1
100
AcDbSymbolTableRecord
100
AcDbBlockTableRecord
  2
*D6
340
0
  0
BLOCK_RECORD
  5
1F2
330
1
100
AcDbSymbolTableRecord
100
AcDbBlockTableRecord
  2
*D7
340
0
  0
BLOCK_RECORD
  5
1FC
330
1
100
AcDbSymbolTableRecord
100
AcDbBlockTableRecord
  2
*D8
340
0
  0
ENDTAB
  0
ENDSEC
  0
SECTION
  2
BLOCKS
  0
BLOCK
  5
20
330
1F
100
AcDbEntity
  8
0
100
AcDbBlockBegin
  2
*Model_Space
 70
     0
 10
0.0
 20
0.0
 30
0.0
  3
*Model_Space
  1

  0
ENDBLK
  5
21
330
1F
100
AcDbEntity
  8
0
100
AcDbBlockEnd
  0
BLOCK
  5
1C
330
1B
100
AcDbEntity
 67
     1
  8
0
100
AcDbBlockBegin
  2
*Paper_Space
 70
     0
 10
0.0
 20
0.0
 30
0.0
  3
*Paper_Space
  1

  0
ENDBLK
  5
1D
330
1B
100
AcDbEntity
 67
     1
  8
0
100
AcDbBlockEnd
  0
BLOCK
  5
24
330
23
100
AcDbEntity
  8
0
100
AcDbBlockBegin
  2
*Paper_Space0
 70
     0
 10
0.0
 20
0.0
 30
0.0
  3
*Paper_Space0
  1

  0
ENDBLK
  5
25
330
23
100
AcDbEntity
  8
0
100
AcDbBlockEnd
  0
BLOCK
  5
1AF
330
1AE
100
AcDbEntity
  8
0
100
AcDbBlockBegin
  2
*D1
 70
     1
 10
0.0
 20
0.0
 30
0.0
  3
*D1
  1

  0
SOLID
  5
1B1
330
1AE
100
AcDbEntity
  8
VERMASSUNG
100
AcDbTrace
 10
68.9002166847
 20
160.4536294691
 30
0.0
 11
68.4502166847
 21
157.4536294691
 31
0.0
 12
69.3502166847
 22
157.4536294691
 32
0.0
 13
69.3502166847
 23
157.4536294691
 33
0.0
  0
SOLID
  5
1B2
330
1AE
100
AcDbEntity
  8
VERMASSUNG
100
AcDbTrace
 10
68.9002166847
 20
60.4536294691
 30
0.0
 11
69.3502166847
 21
63.4536294691
 31
0.0
 12
68.4502166847
 22
63.4536294691
 32
0.0
 13
68.4502166847
 23
63.4536294691
 33
0.0
  0
LINE
  5
1B3
330
1AE
100
AcDbEntity
  8
VERMASSUNG
100
AcDbLine
 10
124.495206066
 20
160.4536294691
 30
0.0
 11
67.9002166847
 21
160.4536294691
 31
0.0
  0
LINE
  5
1B4
330
1AE
100
AcDbEntity
  8
VERMASSUNG
100
AcDbLine
 10
124.495206066
 20
60.4536294691
 30
0.0
 11
67.9002166847
 21
60.4536294691
 31
0.0
  0
LINE
  5
1B5
330
1AE
100
AcDbEntity
  8
VERMASSUNG
100
AcDbLine
 10
68.9002166847
 20
160.4536294691
 30
0.0
 11
68.9002166847
 21
60.4536294691
 31
0.0
  0
MTEXT
  5
1B6
330
1AE
100
AcDbEntity
  8
VERMASSUNG
100
AcDbMText
 10
66.1220811957
 20
102.2499783315
 30
0.0
 40
2.0
 41
0.0
 71
     1
 72
     1
  1
HSK A 
  7
SLDTEXTSTYLE0
 11
-7.044195017643634E-15
 21
1.0
 31
0.0
 73
     1
 44
1.0
  0
MTEXT
  5
1B7
330
1AE
100
AcDbEntity
  8
VERMASSUNG
100
AcDbMText
 10
66.3220812052
 20
111.2499788754
 30
0.0
 40
2.0
 41
0.0
 71
     1
 72
     1
  1
%%c
  7
SLDTEXTSTYLE0
 11
-7.044195017643634E-15
 21
1.0
 31
0.0
 73
     1
 44
1.0
  0
MTEXT
  5
1B8
330
1AE
100
AcDbEntity
  8
VERMASSUNG
100
AcDbMText
 10
66.3220813216
 20
114.8583055255
 30
0.0
 40
2.0
 41
0.0
 71
     1
 72
     1
  1
100
  7
SLDTEXTSTYLE0
 11
-7.044195017643634E-15
 21
1.0
 31
0.0
 73
     1
 44
1.0
  0
ENDBLK
  5
1B0
330
1AE
100
AcDbEntity
  8
0
100
AcDbBlockEnd
  0
BLOCK
  5
1BC
330
1BB
100
AcDbEntity
  8
0
100
AcDbBlockBegin
  2
*D2
 70
     1
 10
0.0
 20
0.0
 30
0.0
  3
*D2
  1

  0
SOLID
  5
1BE
330
1BB
100
AcDbEntity
  8
VERMASSUNG
100
AcDbTrace
 10
174.495206066
 20
158.4536294691
 30
0.0
 11
177.495206066
 21
158.0036294691
 31
0.0
 12
177.495206066
 22
158.9036294691
 32
0.0
 13
177.495206066
 23
158.9036294691
 33
0.0
  0
SOLID
  5
1BF
330
1BB
100
AcDbEntity
  8
VERMASSUNG
100
AcDbTrace
 10
223.995206066
 20
158.4536294691
 30
0.0
 11
220.995206066
 21
158.9036294691
 31
0.0
 12
220.995206066
 22
158.0036294691
 32
0.0
 13
220.995206066
 23
158.0036294691
 33
0.0
  0
LINE
  5
1C0
330
1BB
100
AcDbEntity
  8
VERMASSUNG
100
AcDbLine
 10
174.495206066
 20
118.3536294691
 30
0.0
 11
174.495206066
 21
159.4536294691
 31
0.0
  0
LINE
  5
1C1
330
1BB
100
AcDbEntity
  8
VERMASSUNG
100
AcDbLine
 10
223.995206066
 20
122.1048484858
 30
0.0
 11
223.995206066
 21
159.4536294691
 31
0.0
  0
LINE
  5
1C2
330
1BB
100
AcDbEntity
  8
VERMASSUNG
100
AcDbLine
 10
174.495206066
 20
158.4536294691
 30
0.0
 11
223.995206066
 21
158.4536294691
 31
0.0
  0
MTEXT
  5
1C3
330
1BB
100
AcDbEntity
  8
VERMASSUNG
100
AcDbMText
 10
196.7458192837
 20
161.0317648323
 30
0.0
 40
2.0
 41
0.0
 71
     1
 72
     1
  1
49.5
  7
SLDTEXTSTYLE0
 73
     1
 44
1.0
  0
ENDBLK
  5
1BD
330
1BB
100
AcDbEntity
  8
0
100
AcDbBlockEnd
  0
BLOCK
  5
1C7
330
1C6
100
AcDbEntity
  8
0
100
AcDbBlockBegin
  2
*D3
 70
     1
 10
0.0
 20
0.0
 30
0.0
  3
*D3
  1

  0
SOLID
  5
1C9
330
1C6
100
AcDbEntity
  8
VERMASSUNG
100
AcDbTrace
 10
234.0835406514
 20
102.4536294691
 30
0.0
 11
234.5335406514
 21
105.4536294691
 31
0.0
 12
233.6335406514
 22
105.4536294691
 32
0.0
 13
233.6335406514
 23
105.4536294691
 33
0.0
  0
SOLID
  5
1CA
330
1C6
100
AcDbEntity
  8
VERMASSUNG
100
AcDbTrace
 10
234.0835406514
 20
118.4536294691
 30
0.0
 11
233.6335406514
 21
115.4536294691
 31
0.0
 12
234.5335406514
 22
115.4536294691
 32
0.0
 13
234.5335406514
 23
115.4536294691
 33
0.0
  0
LINE
  5
1CB
330
1C6
100
AcDbEntity
  8
VERMASSUNG
100
AcDbLine
 10
220.495206066
 20
102.4536294691
 30
0.0
 11
235.0835406514
 21
102.4536294691
 31
0.0
  0
LINE
  5
1CC
330
1C6
100
AcDbEntity
  8
VERMASSUNG
100
AcDbLine
 10
220.495206066
 20
118.4536294691
 30
0.0
 11
235.0835406514
 21
118.4536294691
 31
0.0
  0
LINE
  5
1CD
330
1C6
100
AcDbEntity
  8
VERMASSUNG
100
AcDbLine
 10
234.0835406514
 20
102.4536294691
 30
0.0
 11
234.0835406514
 21
118.4536294691
 31
0.0
  0
MTEXT
  5
1CE
330
1C6
100
AcDbEntity
  8
VERMASSUNG
100
AcDbMText
 10
231.5054051719
 20
107.4494918743
 30
0.0
 40
2.0
 41
0.0
 71
     1
 72
     1
  1
%%c
  7
SLDTEXTSTYLE0
 11
6.123233995736766E-17
 21
1.0
 31
0.0
 73
     1
 44
1.0
  0
MTEXT
  5
1CF
330
1C6
100
AcDbEntity
  8
VERMASSUNG
100
AcDbMText
 10
231.5054052883
 20
111.0581700975
 30
0.0
 40
2.0
 41
0.0
 71
     1
 72
     1
  1
16
  7
SLDTEXTSTYLE0
 11
6.123233995736766E-17
 21
1.0
 31
0.0
 73
     1
 44
1.0
  0
ENDBLK
  5
1C8
330
1C6
100
AcDbEntity
  8
0
100
AcDbBlockEnd
  0
BLOCK
  5
1D3
330
1D2
100
AcDbEntity
  8
0
100
AcDbBlockBegin
  2
*D4
 70
     1
 10
0.0
 20
0.0
 30
0.0
  3
*D4
  1

  0
SOLID
  5
1D5
330
1D2
100
AcDbEntity
  8
VERMASSUNG
100
AcDbTrace
 10
240.0835406514
 20
96.9536294691
 30
0.0
 11
240.5335406514
 21
99.9536294691
 31
0.0
 12
239.6335406514
 22
99.9536294691
 32
0.0
 13
239.6335406514
 23
99.9536294691
 33
0.0
  0
SOLID
  5
1D6
330
1D2
100
AcDbEntity
  8
VERMASSUNG
100
AcDbTrace
 10
240.0835406514
 20
123.9536294691
 30
0.0
 11
239.6335406514
 21
120.9536294691
 31
0.0
 12
240.5335406514
 22
120.9536294691
 32
0.0
 13
240.5335406514
 23
120.9536294691
 33
0.0
  0
LINE
  5
1D7
330
1D2
100
AcDbEntity
  8
VERMASSUNG
100
AcDbLine
 10
223.995206066
 20
96.9536294691
 30
0.0
 11
241.0835406514
 21
96.9536294691
 31
0.0
  0
LINE
  5
1D8
330
1D2
100
AcDbEntity
  8
VERMASSUNG
100
AcDbLine
 10
223.995206066
 20
123.9536294691
 30
0.0
 11
241.0835406514
 21
123.9536294691
 31
0.0
  0
LINE
  5
1D9
330
1D2
100
AcDbEntity
  8
VERMASSUNG
100
AcDbLine
 10
240.0835406514
 20
96.9536294691
 30
0.0
 11
240.0835406514
 21
123.9536294691
 31
0.0
  0
MTEXT
  5
1DA
330
1D2
100
AcDbEntity
  8
VERMASSUNG
100
AcDbMText
 10
237.5054051719
 20
107.2499122427
 30
0.0
 40
2.0
 41
0.0
 71
     1
 72
     1
  1
%%c
  7
SLDTEXTSTYLE0
 11
6.123233995736766E-17
 21
1.0
 31
0.0
 73
     1
 44
1.0
  0
MTEXT
  5
1DB
330
1D2
100
AcDbEntity
  8
VERMASSUNG
100
AcDbMText
 10
237.5054052883
 20
110.8585904659
 30
0.0
 40
2.0
 41
0.0
 71
     1
 72
     1
  1
27
  7
SLDTEXTSTYLE0
 11
6.123233995736766E-17
 21
1.0
 31
0.0
 73
     1
 44
1.0
  0
ENDBLK
  5
1D4
330
1D2
100
AcDbEntity
  8
0
100
AcDbBlockEnd
  0
BLOCK
  5
1DE
330
1DD
100
AcDbEntity
  8
0
100
AcDbBlockBegin
  2
*D5
 70
     1
 10
0.0
 20
0.0
 30
0.0
  3
*D5
  1

  0
SOLID
  5
1E0
330
1DD
100
AcDbEntity
  8
VERMASSUNG
100
AcDbTrace
 10
246.0835406514
 20
93.4536294691
 30
0.0
 11
246.5335406514
 21
96.4536294691
 31
0.0
 12
245.6335406514
 22
96.4536294691
 32
0.0
 13
245.6335406514
 23
96.4536294691
 33
0.0
  0
SOLID
  5
1E1
330
1DD
100
AcDbEntity
  8
VERMASSUNG
100
AcDbTrace
 10
246.0835406514
 20
127.4536294691
 30
0.0
 11
245.6335406514
 21
124.4536294691
 31
0.0
 12
246.5335406514
 22
124.4536294691
 32
0.0
 13
246.5335406514
 23
124.4536294691
 33
0.0
  0
LINE
  5
1E2
330
1DD
100
AcDbEntity
  8
VERMASSUNG
100
AcDbLine
 10
173.995206066
 20
93.4536294691
 30
0.0
 11
247.0835406514
 21
93.4536294691
 31
0.0
  0
LINE
  5
1E3
330
1DD
100
AcDbEntity
  8
VERMASSUNG
100
AcDbLine
 10
173.995206066
 20
127.4536294691
 30
0.0
 11
247.0835406514
 21
127.4536294691
 31
0.0
  0
LINE
  5
1E4
330
1DD
100
AcDbEntity
  8
VERMASSUNG
100
AcDbLine
 10
246.0835406514
 20
93.4536294691
 30
0.0
 11
246.0835406514
 21
127.4536294691
 31
0.0
  0
MTEXT
  5
1E5
330
1DD
100
AcDbEntity
  8
VERMASSUNG
100
AcDbMText
 10
243.5054051719
 20
107.1501224269
 30
0.0
 40
2.0
 41
0.0
 71
     1
 72
     1
  1
%%c
  7
SLDTEXTSTYLE0
 11
6.123233995736766E-17
 21
1.0
 31
0.0
 73
     1
 44
1.0
  0
MTEXT
  5
1E6
330
1DD
100
AcDbEntity
  8
VERMASSUNG
100
AcDbMText
 10
243.5054052883
 20
110.7588006501
 30
0.0
 40
2.0
 41
0.0
 71
     1
 72
     1
  1
34
  7
SLDTEXTSTYLE0
 11
6.123233995736766E-17
 21
1.0
 31
0.0
 73
     1
 44
1.0
  0
ENDBLK
  5
1DF
330
1DD
100
AcDbEntity
  8
0
100
AcDbBlockEnd
  0
BLOCK
  5
1E9
330
1E8
100
AcDbEntity
  8
0
100
AcDbBlockBegin
  2
*D6
 70
     1
 10
0.0
 20
0.0
 30
0.0
  3
*D6
  1

  0
SOLID
  5
1EB
330
1E8
100
AcDbEntity
  8
VERMASSUNG
100
AcDbTrace
 10
123.995206066
 20
170.4536294691
 30
0.0
 11
126.995206066
 21
170.0036294691
 31
0.0
 12
126.995206066
 22
170.9036294691
 32
0.0
 13
126.995206066
 23
170.9036294691
 33
0.0
  0
SOLID
  5
1EC
330
1E8
100
AcDbEntity
  8
VERMASSUNG
100
AcDbTrace
 10
223.995206066
 20
170.4536294691
 30
0.0
 11
220.995206066
 21
170.9036294691
 31
0.0
 12
220.995206066
 22
170.0036294691
 32
0.0
 13
220.995206066
 23
170.0036294691
 33
0.0
  0
LINE
  5
1ED
330
1E8
100
AcDbEntity
  8
VERMASSUNG
100
AcDbLine
 10
123.995206066
 20
159.9536294691
 30
0.0
 11
123.995206066
 21
171.4536294691
 31
0.0
  0
LINE
  5
1EE
330
1E8
100
AcDbEntity
  8
VERMASSUNG
100
AcDbLine
 10
223.995206066
 20
122.1048484858
 30
0.0
 11
223.995206066
 21
171.4536294691
 31
0.0
  0
LINE
  5
1EF
330
1E8
100
AcDbEntity
  8
VERMASSUNG
100
AcDbLine
 10
123.995206066
 20
170.4536294691
 30
0.0
 11
223.995206066
 21
170.4536294691
 31
0.0
  0
MTEXT
  5
1F0
330
1E8
100
AcDbEntity
  8
VERMASSUNG
100
AcDbMText
 10
172.0957185254
 20
173.0317648323
 30
0.0
 40
2.0
 41
0.0
 71
     1
 72
     1
  1
100
  7
SLDTEXTSTYLE0
 73
     1
 44
1.0
  0
ENDBLK
  5
1EA
330
1E8
100
AcDbEntity
  8
0
100
AcDbBlockEnd
  0
BLOCK
  5
1F3
330
1F2
100
AcDbEntity
  8
0
100
AcDbBlockBegin
  2
*D7
 70
     1
 10
0.0
 20
0.0
 30
0.0
  3
*D7
  1

  0
SOLID
  5
1F5
330
1F2
100
AcDbEntity
  8
VERMASSUNG
100
AcDbTrace
 10
152.945206066
 20
164.4536294691
 30
0.0
 11
155.945206066
 21
164.0036294691
 31
0.0
 12
155.945206066
 22
164.9036294691
 32
0.0
 13
155.945206066
 23
164.9036294691
 33
0.0
  0
SOLID
  5
1F6
330
1F2
100
AcDbEntity
  8
VERMASSUNG
100
AcDbTrace
 10
223.995206066
 20
164.4536294691
 30
0.0
 11
220.995206066
 21
164.9036294691
 31
0.0
 12
220.995206066
 22
164.0036294691
 32
0.0
 13
220.995206066
 23
164.0036294691
 33
0.0
  0
LINE
  5
1F7
330
1F2
100
AcDbEntity
  8
VERMASSUNG
100
AcDbLine
 10
152.945206066
 20
158.42236929
 30
0.0
 11
152.945206066
 21
165.4536294691
 31
0.0
  0
LINE
  5
1F8
330
1F2
100
AcDbEntity
  8
VERMASSUNG
100
AcDbLine
 10
223.995206066
 20
122.0530772289
 30
0.0
 11
223.995206066
 21
165.4536294691
 31
0.0
  0
LINE
  5
1F9
330
1F2
100
AcDbEntity
  8
VERMASSUNG
100
AcDbLine
 10
152.945206066
 20
164.4536294691
 30
0.0
 11
223.995206066
 21
164.4536294691
 31
0.0
  0
MTEXT
  5
1FA
330
1F2
100
AcDbEntity
  8
VERMASSUNG
100
AcDbMText
 10
185.5704996738
 20
167.0317648323
 30
0.0
 40
2.0
 41
0.0
 71
     1
 72
     1
  1
71.05
  7
SLDTEXTSTYLE0
 73
     1
 44
1.0
  0
ENDBLK
  5
1F4
330
1F2
100
AcDbEntity
  8
0
100
AcDbBlockEnd
  0
BLOCK
  5
1FD
330
1FC
100
AcDbEntity
  8
0
100
AcDbBlockBegin
  2
*D8
 70
     1
 10
0.0
 20
0.0
 30
0.0
  3
*D8
  1

  0
SOLID
  5
1FF
330
1FC
100
AcDbEntity
  8
VERMASSUNG
100
AcDbTrace
 10
74.095206066
 20
176.4536294691
 30
0.0
 11
77.095206066
 21
176.0036294691
 31
0.0
 12
77.095206066
 22
176.9036294691
 32
0.0
 13
77.095206066
 23
176.9036294691
 33
0.0
  0
SOLID
  5
200
330
1FC
100
AcDbEntity
  8
VERMASSUNG
100
AcDbTrace
 10
223.995206066
 20
176.4536294691
 30
0.0
 11
220.995206066
 21
176.9036294691
 31
0.0
 12
220.995206066
 22
176.0036294691
 32
0.0
 13
220.995206066
 23
176.0036294691
 33
0.0
  0
LINE
  5
201
330
1FC
100
AcDbEntity
  8
VERMASSUNG
100
AcDbLine
 10
74.095206066
 20
140.9562992117
 30
0.0
 11
74.095206066
 21
177.4536294691
 31
0.0
  0
LINE
  5
202
330
1FC
100
AcDbEntity
  8
VERMASSUNG
100
AcDbLine
 10
223.995206066
 20
122.0530772289
 30
0.0
 11
223.995206066
 21
177.4536294691
 31
0.0
  0
LINE
  5
203
330
1FC
100
AcDbEntity
  8
VERMASSUNG
100
AcDbLine
 10
74.095206066
 20
176.4536294691
 30
0.0
 11
223.995206066
 21
176.4536294691
 31
0.0
  0
MTEXT
  5
204
330
1FC
100
AcDbEntity
  8
VERMASSUNG
100
AcDbMText
 10
146.045709858
 20
179.0317648323
 30
0.0
 40
2.0
 41
0.0
 71
     1
 72
     1
  1
149.9
  7
SLDTEXTSTYLE0
 73
     1
 44
1.0
  0
ENDBLK
  5
1FE
330
1FC
100
AcDbEntity
  8
0
100
AcDbBlockEnd
  0
ENDSEC
  0
SECTION
  2
ENTITIES
  0
MTEXT
  5
45
330
1F
100
AcDbEntity
  8
KOPF_DÜNN
100
AcDbMText
 10
13.8892156294
 20
23.8442973028
 30
0.0
 40
3.0
 41
0.0
 71
     1
 72
     1
  1
HA0.S16.K21.100
  7
SLDTEXTSTYLE0
 73
     1
 44
1.0
  0
MTEXT
  5
46
330
1F
100
AcDbEntity
  8
VERMASSUNG
100
AcDbMText
 10
13.9329988022
 20
28.8834360957
 30
0.0
 40
3.0
 41
0.0
 71
     1
 72
     1
  1
Schrumpffutter_Heat shrink chuck
  7
SLDTEXTSTYLE0
 73
     1
 44
1.0
  0
MTEXT
  5
47
330
1F
100
AcDbEntity
  8
VERMASSUNG
100
AcDbMText
 10
98.8601118557
 20
13.8365368179
 30
0.0
 40
2.0
 41
0.0
 71
     1
 72
     1
  1
Datum: 02.05.2011
  7
SLDTEXTSTYLE0
 73
     1
 44
1.0
  0
MTEXT
  5
49
330
1F
100
AcDbEntity
  8
VERMASSUNG
100
AcDbMText
 10
13.933048693
 20
18.0482802738
 30
0.0
 40
2.0
 41
0.0
 71
     1
 72
     1
  1
DIN 69 893 HSK A 100
  7
SLDTEXTSTYLE1
 73
     1
 44
1.0
  0
MTEXT
  5
4A
330
1F
100
AcDbEntity
  8
VERMASSUNG
100
AcDbMText
 10
13.9808475933
 20
13.9090973692
 30
0.0
 40
2.0
 41
0.0
 71
     1
 72
     1
  1
Gewicht: 2341g
  7
SLDTEXTSTYLE0
 73
     1
 44
1.0
  0
LINE
  5
4B
330
1F
100
AcDbEntity
  8
0
  6
Continuous
 62
     7
370
    15
100
AcDbLine
 10
124.495206066
 20
60.4536294691
 30
0.0
 11
128.945206066
 21
60.4536294691
 31
0.0
  0
LINE
  5
4C
330
1F
100
AcDbEntity
  8
0
  6
Continuous
 62
     7
370
    15
100
AcDbLine
 10
128.9792788984
 20
160.4536294691
 30
0.0
 11
124.495206066
 21
160.4536294691
 31
0.0
  0
ARC
  5
4D
330
1F
100
AcDbEntity
  8
0
  6
Continuous
 62
     7
370
    15
100
AcDbCircle
 10
124.495206066
 20
60.9536294691
 30
0.0
 40
0.5000000000000071
100
AcDbArc
 50
180.0
 51
270.0
  0
ARC
  5
4E
330
1F
100
AcDbEntity
  8
0
  6
Continuous
 62
     7
370
    15
100
AcDbCircle
 10
124.495206066
 20
159.9536294691
 30
0.0
 40
0.5
100
AcDbArc
 50
90.0
 51
180.0
  0
ARC
  5
4F
330
1F
100
AcDbEntity
  8
0
  6
Continuous
 62
     7
370
    15
100
AcDbCircle
 10
123.0982691475
 20
71.8251441447
 30
0.0
 40
0.9962338214386983
100
AcDbArc
 50
25.7988228126
 51
90.0
  0
ARC
  5
50
330
1F
100
AcDbEntity
  8
0
  6
Continuous
 62
     7
370
    15
100
AcDbCircle
 10
123.0982691475
 20
149.0821147936
 30
0.0
 40
0.9962338214387216
100
AcDbArc
 50
270.0
 51
334.2011771874
  0
LINE
  5
51
330
1F
100
AcDbEntity
  8
0
  6
Continuous
 62
     7
370
    15
100
AcDbLine
 10
102.5145271473
 20
147.3849451546
 30
0.0
 11
84.195206066
 21
146.4671434972
 31
0.0
  0
LINE
  5
52
330
1F
100
AcDbEntity
  8
0
  6
Continuous
 62
     7
370
    15
100
AcDbLine
 10
121.495206066
 20
148.3358809721
 30
0.0
 11
115.4271669115
 21
148.0318709944
 31
0.0
  0
LINE
  5
53
330
1F
100
AcDbEntity
  8
0
  6
Continuous
 62
     7
370
    15
100
AcDbLine
 10
115.427290188
 20
72.8753817676
 30
0.0
 11
121.495206066
 21
72.5713779661
 31
0.0
  0
LINE
  5
54
330
1F
100
AcDbEntity
  8
0
  6
Continuous
 62
     7
370
    15
100
AcDbLine
 10
89.195206066
 20
74.1896144391
 30
0.0
 11
102.5151572199
 21
73.5222822169
 31
0.0
  0
LINE
  5
55
330
1F
100
AcDbEntity
  8
0
  6
Continuous
 62
     7
370
    15
100
AcDbLine
 10
121.495206066
 20
72.5713779661
 30
0.0
 11
122.3010522204
 21
72.7873037924
 31
0.0
  0
LINE
  5
56
330
1F
100
AcDbEntity
  8
0
  6
Continuous
 62
     7
370
    15
100
AcDbLine
 10
122.3010522204
 20
148.1199551458
 30
0.0
 11
121.495206066
 21
148.3358809721
 31
0.0
  0
ARC
  5
57
330
1F
100
AcDbEntity
  8
0
  6
Continuous
 62
     7
370
    15
100
AcDbCircle
 10
122.5598712655
 20
71.8213779661
 30
0.0
 40
1.0
100
AcDbArc
 50
90.0
 51
105.0
  0
ARC
  5
58
330
1F
100
AcDbEntity
  8
0
  6
Continuous
 62
     7
370
    15
100
AcDbCircle
 10
122.5598712655
 20
149.0858809721
 30
0.0
 40
1.000000000000028
100
AcDbArc
 50
255.0
 51
270.0
  0
LINE
  5
59
330
1F
100
AcDbEntity
  8
0
  6
Continuous
 62
     7
370
    15
100
AcDbLine
 10
122.5598712655
 20
72.8213779661
 30
0.0
 11
123.0982691475
 21
72.8213779661
 31
0.0
  0
LINE
  5
5A
330
1F
100
AcDbEntity
  8
0
  6
Continuous
 62
     7
370
    15
100
AcDbLine
 10
123.0982691475
 20
148.0858809721
 30
0.0
 11
122.5598712655
 21
148.0858809721
 31
0.0
  0
ARC
  5
5B
330
1F
100
AcDbEntity
  8
0
  6
Continuous
 62
     7
370
    15
100
AcDbCircle
 10
157.945206066
 20
88.4536294691
 30
0.0
 40
5.000000000000028
100
AcDbArc
 50
90.0
 51
180.0
  0
ARC
  5
5C
330
1F
100
AcDbEntity
  8
0
  6
Continuous
 62
     7
370
    15
100
AcDbCircle
 10
157.945206066
 20
132.4536294691
 30
0.0
 40
5.000000000000028
100
AcDbArc
 50
180.0
 51
270.0
  0
LINE
  5
5D
330
1F
100
AcDbEntity
  8
0
  6
Continuous
 62
     7
370
    15
100
AcDbLine
 10
75.745206066
 20
78.2036294691
 30
0.0
 11
87.295206066
 21
78.2036294691
 31
0.0
  0
LINE
  5
5E
330
1F
100
AcDbEntity
  8
0
  6
Continuous
 62
     7
370
    15
100
AcDbLine
 10
169.4426162135
 20
93.4536294691
 30
0.0
 11
179.5234894894
 21
93.4536294691
 31
0.0
  0
LINE
  5
5F
330
1F
100
AcDbEntity
  8
0
  6
Continuous
 62
     7
370
    15
100
AcDbLine
 10
157.945206066
 20
93.4536294691
 30
0.0
 11
162.4465114972
 21
93.4536294691
 31
0.0
  0
LINE
  5
60
330
1F
100
AcDbEntity
  8
0
  6
Continuous
 62
     7
370
    15
100
AcDbLine
 10
162.4558611468
 20
127.4536294691
 30
0.0
 11
157.945206066
 21
127.4536294691
 31
0.0
  0
LINE
  5
61
330
1F
100
AcDbEntity
  8
0
  6
Continuous
 62
     7
370
    15
100
AcDbLine
 10
179.5234894894
 20
127.4536294691
 30
0.0
 11
169.4360116718
 21
127.4536294691
 31
0.0
  0
LINE
  5
62
330
1F
100
AcDbEntity
  8
0
  6
Continuous
 62
     7
370
    15
100
AcDbLine
 10
179.5234894894
 20
93.4536294691
 30
0.0
 11
222.1521242574
 21
96.808575785
 31
0.0
  0
LINE
  5
63
330
1F
100
AcDbEntity
  8
0
  6
Continuous
 62
     7
370
    15
100
AcDbLine
 10
222.1521242574
 20
124.0986831533
 30
0.0
 11
179.5234894894
 21
127.4536294691
 31
0.0
  0
ARC
  5
64
330
1F
100
AcDbEntity
  8
0
  6
Continuous
 62
     7
370
    15
100
AcDbCircle
 10
87.295206066
 20
76.3036294691
 30
0.0
 40
1.900000000000007
100
AcDbArc
 50
35.5995333592
 51
90.0
  0
ARC
  5
65
330
1F
100
AcDbEntity
  8
0
  6
Continuous
 62
     7
370
    15
100
AcDbCircle
 10
82.295206066
 20
144.6036294691
 30
0.0
 40
1.899999999999996
100
AcDbArc
 50
270.0
 51
310.9212832533
  0
LINE
  5
66
330
1F
100
AcDbEntity
  8
0
  6
Continuous
 62
     7
370
    15
100
AcDbLine
 10
75.745206066
 20
142.7036294691
 30
0.0
 11
74.151989704
 21
141.1104131072
 31
0.0
  0
LINE
  5
67
330
1F
100
AcDbEntity
  8
0
  6
Continuous
 62
     7
370
    15
100
AcDbLine
 10
74.1527289664
 20
79.7961065687
 30
0.0
 11
75.745206066
 21
78.2036294691
 31
0.0
  0
LINE
  5
68
330
1F
100
AcDbEntity
  8
0
  6
Continuous
 62
     7
370
    15
100
AcDbLine
 10
82.295206066
 20
142.7036294691
 30
0.0
 11
75.745206066
 21
142.7036294691
 31
0.0
  0
ARC
  5
69
330
1F
100
AcDbEntity
  8
0
  6
Continuous
 62
     7
370
    15
100
AcDbCircle
 10
221.995206066
 20
98.8024104524
 30
0.0
 40
2.000000000000004
100
AcDbArc
 50
274.5
 51
334.6108581548
  0
ARC
  5
6A
330
1F
100
AcDbEntity
  8
0
  6
Continuous
 62
     7
370
    15
100
AcDbCircle
 10
221.995206066
 20
122.1048484858
 30
0.0
 40
2.000000000000004
100
AcDbArc
 50
25.3891418452
 51
85.5
  0
LINE
  5
6B
330
1F
100
AcDbEntity
  8
0
  6
Continuous
 62
     7
370
    15
100
AcDbLine
 10
223.8020391947
 20
97.9448825842
 30
0.0
 11
223.921718756
 21
97.9495848069
 31
0.0
  0
LINE
  5
6C
330
1F
100
AcDbEntity
  8
0
  6
Continuous
 62
     7
370
    15
100
AcDbLine
 10
223.921718756
 20
97.9495848069
 30
0.0
 11
224.0725282731
 21
98.2362265512
 31
0.0
  0
LINE
  5
6D
330
1F
100
AcDbEntity
  8
0
  6
Continuous
 62
     7
370
    15
100
AcDbLine
 10
223.8628290324
 20
122.9599879148
 30
0.0
 11
223.8020391947
 21
122.9623763541
 31
0.0
  0
LINE
  5
6E
330
1F
100
AcDbEntity
  8
0
  6
Continuous
 62
     7
370
    15
100
AcDbLine
 10
224.0136385495
 20
122.6733461706
 30
0.0
 11
223.8628290324
 21
122.9599879148
 31
0.0
  0
SPLINE
  5
6F
330
1F
100
AcDbEntity
  8
0
  6
Continuous
 62
     7
370
    15
100
AcDbSpline
210
0.0
220
0.0
230
1.0
 70
     8
 71
     3
 72
    80
 73
    76
 74
     0
 42
0.00000001
 43
0.00000001
 40
-0.0312500000000001
 40
-0.0312500000000001
 40
0.0
 40
0.0
 40
0.0312499999999995
 40
0.0312499999999995
 40
0.0468749999999993
 40
0.0468749999999993
 40
0.0624999999999991
 40
0.0624999999999991
 40
0.0937499999999988
 40
0.0937499999999988
 40
0.1249999999999986
 40
0.1249999999999986
 40
0.1562499999999983
 40
0.1562499999999983
 40
0.1874999999999981
 40
0.1874999999999981
 40
0.2187499999999978
 40
0.2187499999999978
 40
0.2499999999999976
 40
0.2499999999999976
 40
0.2812499999999973
 40
0.2812499999999973
 40
0.3124999999999971
 40
0.3124999999999971
 40
0.3281249999999971
 40
0.3281249999999971
 40
0.3437499999999971
 40
0.3437499999999971
 40
0.3749999999999973
 40
0.3749999999999973
 40
0.4062499999999975
 40
0.4062499999999975
 40
0.4218749999999975
 40
0.4218749999999975
 40
0.4374999999999974
 40
0.4374999999999974
 40
0.4687499999999973
 40
0.4687499999999973
 40
0.4999999999999972
 40
0.4999999999999972
 40
0.531249999999997
 40
0.531249999999997
 40
0.562499999999997
 40
0.562499999999997
 40
0.5937499999999969
 40
0.5937499999999969
 40
0.6249999999999969
 40
0.6249999999999969
 40
0.6562499999999968
 40
0.6562499999999968
 40
0.6874999999999968
 40
0.6874999999999968
 40
0.7031249999999968
 40
0.7031249999999968
 40
0.7187499999999969
 40
0.7187499999999969
 40
0.7499999999999973
 40
0.7499999999999973
 40
0.7812499999999979
 40
0.7812499999999979
 40
0.7968749999999982
 40
0.7968749999999982
 40
0.8124999999999984
 40
0.8124999999999984
 40
0.8437499999999988
 40
0.8437499999999988
 40
0.874999999999999
 40
0.874999999999999
 40
0.9062499999999993
 40
0.9062499999999993
 40
0.9374999999999996
 40
0.9374999999999996
 40
0.9687499999999999
 40
0.9687499999999999
 40
1.0
 40
1.0
 40
1.03125
 40
1.03125
 10
132.6646607532037
 20
153.8682589327538
 30
0.0
 10
133.3257513787563
 20
153.8682589327538
 30
0.0
 10
133.6507315080079
 20
153.8844671641359
 30
0.0
 10
134.1302049192543
 20
153.9318317961555
 30
0.0
 10
134.2886867370952
 20
153.9514860080461
 30
0.0
 10
134.6029062695994
 20
153.9985971642388
 30
0.0
 10
134.7590265532798
 20
154.0261784837335
 30
0.0
 10
135.2130805822364
 20
154.1187142705272
 30
0.0
 10
135.5001839651762
 20
154.1937847041238
 30
0.0
 10
136.0435385212032
 20
154.3690230127344
 30
0.0
 10
136.3006421324088
 20
154.4700243105726
 30
0.0
 10
136.7615483873476
 20
154.6873805090335
 30
0.0
 10
136.9684460965626
 20
154.8045448408058
 30
0.0
 10
137.3339714105548
 20
155.0546147650344
 30
0.0
 10
137.4891769326807
 20
155.1855608537934
 30
0.0
 10
137.7386073192804
 20
155.4512957975057
 30
0.0
 10
137.8346972750656
 20
155.5880493908167
 30
0.0
 10
137.9632161242592
 20
155.8621149656556
 30
0.0
 10
137.995026994437
 20
155.9970550561245
 30
0.0
 10
137.9953836442102
 20
156.2625266931933
 30
0.0
 10
137.9628863920132
 20
156.3943511703345
 30
0.0
 10
137.8352609182987
 20
156.6438007699549
 30
0.0
 10
137.7408325172468
 20
156.7622334618829
 30
0.0
 10
137.5529716972613
 20
156.931102658977
 30
0.0
 10
137.482143698458
 20
156.9861886540972
 30
0.0
 10
137.3274218064928
 20
157.0914414825856
 30
0.0
 10
137.2434453363094
 20
157.1417767113459
 30
0.0
 10
136.9721216666649
 20
157.286352543884
 30
0.0
 10
136.7655724480626
 20
157.374214130301
 30
0.0
 10
136.2989623078736
 20
157.5339352233005
 30
0.0
 10
136.0465967382482
 20
157.6031735197677
 30
0.0
 10
135.6406953965694
 20
157.6929609089975
 30
0.0
 10
135.5007947790919
 20
157.7205268710838
 30
0.0
 10
135.211570843845
 20
157.77101767201
 30
0.0
 10
135.0617313875557
 20
157.7939811108607
 30
0.0
 10
134.6076148179449
 20
157.8546116272796
 30
0.0
 10
134.2959635992081
 20
157.8846856560754
 30
0.0
 10
133.6549671342957
 20
157.9252752433341
 30
0.0
 10
133.3234395063435
 20
157.9355874735501
 30
0.0
 10
132.6706484612721
 20
157.9356630407159
 30
0.0
 10
132.3461122562402
 20
157.9257614352481
 30
0.0
 10
131.7008428068238
 20
157.8852749047229
 30
0.0
 10
131.3850998006611
 20
157.8548136048382
 30
0.0
 10
130.7832105056774
 20
157.7746629334016
 30
0.0
 10
130.4924612748659
 20
157.7243807015944
 30
0.0
 10
129.9455494831814
 20
157.6037105188215
 30
0.0
 10
129.6937721193445
 20
157.5344866596515
 30
0.0
 10
129.2323841267234
 20
157.3770349320108
 30
0.0
 10
129.0211148471253
 20
157.287686457337
 30
0.0
 10
128.6578104947491
 20
157.0944385866362
 30
0.0
 10
128.5040038463063
 20
156.9903105947569
 30
0.0
 10
128.3153843767089
 20
156.8216862085735
 30
0.0
 10
128.2593538904998
 20
156.7630578068985
 30
0.0
 10
128.1637801287636
 20
156.6436028920723
 30
0.0
 10
128.1240172117386
 20
156.5826831032341
 30
0.0
 10
128.0282454614265
 20
156.3962783770602
 30
0.0
 10
127.9955226223004
 20
156.2671655592652
 30
0.0
 10
127.9948940359713
 20
155.9985086363093
 30
0.0
 10
128.0270801807061
 20
155.8631378955525
 30
0.0
 10
128.1219908825616
 20
155.6595875873166
 30
0.0
 10
128.1614576659606
 20
155.5916156632531
 30
0.0
 10
128.2563876646815
 20
155.4555234401222
 30
0.0
 10
128.3121444924448
 20
155.3871733399128
 30
0.0
 10
128.5000846104148
 20
155.1864703268707
 30
0.0
 10
128.6534460801309
 20
155.057082053058
 30
0.0
 10
129.0157103150113
 20
154.8084166210081
 30
0.0
 10
129.2265587884772
 20
154.6886069786399
 30
0.0
 10
129.6872287587961
 20
154.4710846910673
 30
0.0
 10
129.9386031383799
 20
154.3719995912314
 30
0.0
 10
130.4845110252781
 20
154.1953271173145
 30
0.0
 10
130.7753335999293
 20
154.1192700291805
 30
0.0
 10
131.3766602147093
 20
153.9964250518275
 30
0.0
 10
131.6911787993217
 20
153.9487189267744
 30
0.0
 10
132.3377602554417
 20
153.8844703916548
 30
0.0
 10
132.6646607532037
 20
153.8682589327538
 30
0.0
 10
133.3257513787563
 20
153.8682589327538
 30
0.0
  0
LINE
  5
70
330
1F
100
AcDbEntity
  8
0
  6
Continuous
 62
     7
370
    15
100
AcDbLine
 10
128.945206066
 20
141.8036294691
 30
0.0
 11
140.7331770451
 21
141.8036294691
 31
0.0
  0
LINE
  5
71
330
1F
100
AcDbEntity
  8
0
  6
Continuous
 62
     7
370
    15
100
AcDbLine
 10
140.7331770451
 20
61.6786358761
 30
0.0
 11
140.7331770451
 21
141.8036294691
 31
0.0
  0
LINE
  5
72
330
1F
100
AcDbEntity
  8
0
  6
Continuous
 62
     7
370
    15
100
AcDbLine
 10
140.7331770451
 20
61.6786358761
 30
0.0
 11
138.945206066
 21
61.6786358761
 31
0.0
  0
SPLINE
  5
73
330
1F
100
AcDbEntity
  8
0
  6
Continuous
 62
     7
370
    15
100
AcDbSpline
210
0.0
220
0.0
230
1.0
 70
     8
 71
     3
 72
    30
 73
    26
 74
     0
 42
0.00000001
 43
0.00000001
 40
0.0
 40
0.0
 40
0.0
 40
0.0
 40
0.1250000000000002
 40
0.1250000000000002
 40
0.1875000000000003
 40
0.1875000000000003
 40
0.2500000000000004
 40
0.2500000000000004
 40
0.3750000000000001
 40
0.3750000000000001
 40
0.4374999999999998
 40
0.4374999999999998
 40
0.4999999999999996
 40
0.4999999999999996
 40
0.6249999999999996
 40
0.6249999999999996
 40
0.6874999999999997
 40
0.6874999999999997
 40
0.7499999999999997
 40
0.7499999999999997
 40
0.8124999999999998
 40
0.8124999999999998
 40
0.8749999999999999
 40
0.8749999999999999
 40
1.0
 40
1.0
 40
1.0
 40
1.0
 10
138.94520606598
 20
61.67863587609369
 30
0.0
 10
138.2824613721349
 20
61.67863587609369
 30
0.0
 10
137.6312055130192
 20
61.66379579950488
 30
0.0
 10
136.6707549747609
 20
61.62142623527526
 30
0.0
 10
136.353363531528
 20
61.60394813249609
 30
0.0
 10
135.7242000299731
 20
61.56261984594378
 30
0.0
 10
135.4120518435314
 20
61.53869457248609
 30
0.0
 10
134.5047445416832
 20
61.45988805601917
 30
0.0
 10
133.9313195840419
 20
61.39758203604271
 30
0.0
 10
133.1174427144672
 20
61.29445271580335
 30
0.0
 10
132.8526365178974
 20
61.25826879675684
 30
0.0
 10
132.345729107083
 20
61.18447401255634
 30
0.0
 10
132.1043349557295
 20
61.14700015378469
 30
0.0
 10
131.4151934835972
 20
61.03428821044495
 30
0.0
 10
131.002138668733
 20
60.95875211297117
 30
0.0
 10
130.4539838493579
 20
60.85035885595368
 30
0.0
 10
130.2845212420123
 20
60.81528662429042
 30
0.0
 10
129.9765039939969
 20
60.74905116369057
 30
0.0
 10
129.8371239733886
 20
60.71772446693584
 30
0.0
 10
129.5873384607618
 20
60.65931569535491
 30
0.0
 10
129.4769323481079
 20
60.63223246017206
 30
0.0
 10
129.2856744944702
 20
60.58297270555848
 30
0.0
 10
129.2045549761859
 20
60.56071072575083
 30
0.0
 10
129.0104080560775
 20
60.50314381858256
 30
0.0
 10
128.94520606598
 20
60.47688421379657
 30
0.0
 10
128.94520606598
 20
60.46363046932254
 30
0.0
  0
LINE
  5
74
330
1F
100
AcDbEntity
  8
0
  6
Continuous
 62
     7
370
    15
100
AcDbLine
 10
128.945206066
 20
60.4636304693
 30
0.0
 11
128.945206066
 21
60.4536294691
 31
0.0
  0
SPLINE
  5
75
330
1F
100
AcDbEntity
  8
0
  6
Continuous
 62
     7
370
    15
100
AcDbSpline
210
0.0
220
0.0
230
1.0
 70
     8
 71
     3
 72
    17
 73
    13
 74
     0
 42
0.00000001
 43
0.00000001
 40
0.0
 40
0.0
 40
0.0
 40
0.0
 40
0.104384384054747
 40
0.2118345768143993
 40
0.316208200519045
 40
0.4235375806108392
 40
0.5292276236193852
 40
0.6379275864803491
 40
0.7444714844189683
 40
0.8541836219421859
 40
0.9593080534965217
 40
1.0
 40
1.0
 40
1.0
 40
1.0
 10
138.94520606598
 20
159.4434243247861
 30
0.0
 10
138.3972676181206
 20
159.4487925285348
 30
0.0
 10
137.2852975636559
 20
159.4596866021998
 30
0.0
 10
135.6724416504409
 20
159.5448639764587
 30
0.0
 10
134.138928433464
 20
159.6712386827513
 30
0.0
 10
132.7479075841273
 20
159.8281415033281
 30
0.0
 10
131.512391066897
 20
159.9998403328486
 30
0.0
 10
130.4890352997417
 20
160.1651766089497
 30
0.0
 10
129.6886933014766
 20
160.3088900885362
 30
0.0
 10
129.1783611995631
 20
160.4070448957154
 30
0.0
 10
128.9384527707385
 20
160.4549732925853
 30
0.0
 10
128.9703715501583
 20
160.4486058933457
 30
0.0
 10
128.9792788984405
 20
160.4468289882224
 30
0.0
  0
LINE
  5
76
330
1F
100
AcDbEntity
  8
0
  6
Continuous
 62
     7
370
    15
100
AcDbLine
 10
140.7331770451
 20
159.4434243248
 30
0.0
 11
138.945206066
 21
159.4434243248
 31
0.0
  0
LINE
  5
77
330
1F
100
AcDbEntity
  8
0
  6
Continuous
 62
     7
370
    15
100
AcDbLine
 10
140.7331770451
 20
149.40459223
 30
0.0
 11
140.7331770451
 21
159.4434243248
 31
0.0
  0
LINE
  5
78
330
1F
100
AcDbEntity
  8
0
  6
Continuous
 62
     7
370
    15
100
AcDbLine
 10
138.6531729142
 20
149.40459223
 30
0.0
 11
140.7331770451
 21
149.40459223
 31
0.0
  0
SPLINE
  5
79
330
1F
100
AcDbEntity
  8
0
  6
Continuous
 62
     7
370
    15
100
AcDbSpline
210
0.0
220
0.0
230
1.0
 70
     8
 71
     3
 72
    22
 73
    18
 74
     0
 42
0.00000001
 43
0.00000001
 40
0.0
 40
0.0
 40
0.0
 40
0.0
 40
0.2500000000000002
 40
0.2500000000000002
 40
0.3750000000000003
 40
0.3750000000000003
 40
0.5000000000000004
 40
0.5000000000000004
 40
0.6250000000000004
 40
0.6250000000000004
 40
0.7500000000000004
 40
0.7500000000000004
 40
0.8750000000000004
 40
0.8750000000000004
 40
0.9375000000000002
 40
0.9375000000000002
 40
1.0
 40
1.0
 40
1.0
 40
1.0
 10
128.94520606598
 20
141.8036294691225
 30
0.0
 10
129.1479310218991
 20
142.8228758109871
 30
0.0
 10
129.4626747436944
 20
143.7819839609264
 30
0.0
 10
130.1707302133654
 20
145.1244630384357
 30
0.0
 10
130.449192843583
 20
145.5586716211757
 30
0.0
 10
131.0879602502202
 20
146.3702993366778
 30
0.0
 10
131.4483739300104
 20
146.7495796296147
 30
0.0
 10
132.2659061619997
 20
147.4525382086356
 30
0.0
 10
132.7270741452868
 20
147.7775670263363
 30
0.0
 10
133.7250643917706
 20
148.3425823497271
 30
0.0
 10
134.2648235857629
 20
148.5862859439337
 30
0.0
 10
135.4394165497942
 20
148.9904858715786
 30
0.0
 10
136.0511527357861
 20
149.1429230646241
 30
0.0
 10
137.0030619606478
 20
149.2982506122328
 30
0.0
 10
137.3262951249085
 20
149.3377553922829
 30
0.0
 10
137.9853582961837
 20
149.3910645129516
 30
0.0
 10
138.3194223067577
 20
149.4045922300094
 30
0.0
 10
138.6531729141593
 20
149.4045922300094
 30
0.0
  0
LINE
  5
7A
330
1F
100
AcDbEntity
  8
0
  6
Continuous
 62
     7
370
    15
100
AcDbLine
 10
151.945206066
 20
61.6786358761
 30
0.0
 11
147.2572350869
 21
61.6786358761
 31
0.0
  0
LINE
  5
7B
330
1F
100
AcDbEntity
  8
0
  6
Continuous
 62
     7
370
    15
100
AcDbLine
 10
147.2572350869
 20
61.6786358761
 30
0.0
 11
147.2572350869
 21
141.8036294691
 31
0.0
  0
LINE
  5
7C
330
1F
100
AcDbEntity
  8
0
  6
Continuous
 62
     7
370
    15
100
AcDbLine
 10
147.2572350869
 20
141.8036294691
 30
0.0
 11
151.945206066
 21
141.8036294691
 31
0.0
  0
SPLINE
  5
7D
330
1F
100
AcDbEntity
  8
0
  6
Continuous
 62
     7
370
    15
100
AcDbSpline
210
0.0
220
0.0
230
1.0
 70
     8
 71
     3
 72
     8
 73
     4
 74
     0
 42
0.00000001
 43
0.00000001
 40
0.0
 40
0.0
 40
0.0
 40
0.0
 40
1.0
 40
1.0
 40
1.0
 40
1.0
 10
147.2572350869014
 20
61.67863587609369
 30
0.0
 10
146.8061303575012
 20
62.4795958079136
 30
0.0
 10
146.3554325302578
 20
63.28078581947427
 30
0.0
 10
145.9052060659799
 20
64.08224118209903
 30
0.0
  0
LINE
  5
7E
330
1F
100
AcDbEntity
  8
0
  6
Continuous
 62
     7
370
    15
100
AcDbLine
 10
145.905206066
 20
64.0822411821
 30
0.0
 11
145.905206066
 21
141.8036294691
 31
0.0
  0
SPLINE
  5
7F
330
1F
100
AcDbEntity
  8
0
  6
Continuous
 62
     7
370
    15
100
AcDbSpline
210
0.0
220
0.0
230
1.0
 70
    24
 71
     3
 72
     8
 73
     4
 74
     0
 42
0.00000001
 43
0.00000001
 40
0.0
 40
0.0
 40
0.0
 40
0.0
 40
1.0
 40
1.0
 40
1.0
 40
1.0
 10
145.90520606598
 20
141.8036294691225
 30
0.0
 10
146.3494189483339
 20
141.8036294691225
 30
0.0
 10
146.8004335145731
 20
141.8036294691225
 30
0.0
 10
147.2572350869014
 20
141.8036294691225
 30
0.0
  0
LINE
  5
80
330
1F
100
AcDbEntity
  8
0
  6
Continuous
 62
     7
370
    15
100
AcDbLine
 10
123.995206066
 20
60.9536294691
 30
0.0
 11
123.995206066
 21
159.9536294644
 31
0.0
  0
LINE
  5
81
330
1F
100
AcDbEntity
  8
0
  6
Continuous
 62
     7
370
    15
100
AcDbLine
 10
152.945206066
 20
62.7042839239
 30
0.0
 11
152.945206066
 21
141.8036294691
 31
0.0
  0
SPLINE
  5
82
330
1F
100
AcDbEntity
  8
0
  6
Continuous
 62
     7
370
    15
100
AcDbSpline
210
0.0
220
0.0
230
1.0
 70
     8
 71
     3
 72
    14
 73
    10
 74
     0
 42
0.00000001
 43
0.00000001
 40
0.0
 40
0.0
 40
0.0
 40
0.0
 40
0.25
 40
0.25
 40
0.5
 40
0.5
 40
0.75
 40
0.75
 40
1.0
 40
1.0
 40
1.0
 40
1.0
 10
152.94520606598
 20
62.70428392386921
 30
0.0
 10
152.94520606598
 20
62.57085822781466
 30
0.0
 10
152.9198949660691
 20
62.4390104199703
 30
0.0
 10
152.8215602022244
 20
62.1924878712762
 30
0.0
 10
152.7484161979683
 20
62.07868268303566
 30
0.0
 10
152.5649781368726
 20
61.88822550608838
 30
0.0
 10
152.453291802534
 20
61.81059064223847
 30
0.0
 10
152.2107883722277
 20
61.706299232126
 30
0.0
 10
152.0774139435335
 20
61.67863587609364
 30
0.0
 10
151.94520606598
 20
61.67863587609365
 30
0.0
  0
SPLINE
  5
83
330
1F
100
AcDbEntity
  8
0
  6
Continuous
 62
     7
370
    15
100
AcDbSpline
210
0.0
220
0.0
230
1.0
 70
    24
 71
     3
 72
    12
 73
     8
 74
     0
 42
0.00000001
 43
0.00000001
 40
0.0
 40
0.0
 40
0.0
 40
0.0
 40
0.2500000000000032
 40
0.2500000000000032
 40
0.5000000000000064
 40
0.5000000000000064
 40
1.0
 40
1.0
 40
1.0
 40
1.0
 10
151.94520606598
 20
141.8036294691225
 30
0.0
 10
152.0972963029249
 20
141.8036294691225
 30
0.0
 10
152.2457555640004
 20
141.8036294691225
 30
0.0
 10
152.5031591962661
 20
141.8036294691225
 30
0.0
 10
152.612263944108
 20
141.8036294691225
 30
0.0
 10
152.8663234205155
 20
141.8036294691225
 30
0.0
 10
152.94520606598
 20
141.8036294691225
 30
0.0
 10
152.94520606598
 20
141.8036294691225
 30
0.0
  0
LINE
  5
84
330
1F
100
AcDbEntity
  8
0
  6
Continuous
 62
     7
370
    15
100
AcDbLine
 10
142.085206066
 20
64.0822411821
 30
0.0
 11
142.085206066
 21
141.8036294691
 31
0.0
  0
SPLINE
  5
85
330
1F
100
AcDbEntity
  8
0
  6
Continuous
 62
     7
370
    15
100
AcDbSpline
210
0.0
220
0.0
230
1.0
 70
     8
 71
     3
 72
     8
 73
     4
 74
     0
 42
0.00000001
 43
0.00000001
 40
0.0
 40
0.0
 40
0.0
 40
0.0
 40
1.0
 40
1.0
 40
1.0
 40
1.0
 10
142.08520606598
 20
64.08224118209903
 30
0.0
 10
141.6349796017022
 20
63.28078581947427
 30
0.0
 10
141.1842817744588
 20
62.4795958079136
 30
0.0
 10
140.7331770450586
 20
61.67863587609369
 30
0.0
  0
SPLINE
  5
86
330
1F
100
AcDbEntity
  8
0
  6
Continuous
 62
     7
370
    15
100
AcDbSpline
210
0.0
220
0.0
230
1.0
 70
    24
 71
     3
 72
     8
 73
     4
 74
     0
 42
0.00000001
 43
0.00000001
 40
0.0
 40
0.0
 40
0.0
 40
0.0
 40
1.0
 40
1.0
 40
1.0
 40
1.0
 10
140.7331770450586
 20
141.8036294691225
 30
0.0
 10
141.1899786173868
 20
141.8036294691225
 30
0.0
 10
141.640993183626
 20
141.8036294691225
 30
0.0
 10
142.08520606598
 20
141.8036294691225
 30
0.0
  0
SPLINE
  5
87
330
1F
100
AcDbEntity
  8
0
  6
Continuous
 62
     7
370
    15
100
AcDbSpline
210
0.0
220
0.0
230
1.0
 70
     8
 71
     3
 72
    12
 73
     8
 74
     0
 42
0.00000001
 43
0.00000001
 40
0.0
 40
0.0
 40
0.0
 40
0.0
 40
0.25
 40
0.25
 40
0.5
 40
0.5
 40
1.0
 40
1.0
 40
1.0
 40
1.0
 10
142.88520606598
 20
65.81395401107285
 30
0.0
 10
142.779445412631
 20
65.81395401107285
 30
0.0
 10
142.6714577844481
 20
65.79141450507245
 30
0.0
 10
142.4768631191825
 20
65.70684387307712
 30
0.0
 10
142.3879912063437
 20
65.64436222031836
 30
0.0
 10
142.1687989140178
 20
65.41497326884618
 30
0.0
 10
142.0852060659799
 20
65.2023899313238
 30
0.0
 10
142.0852060659799
 20
64.9904506867276
 30
0.0
  0
SPLINE
  5
88
330
1F
100
AcDbEntity
  8
0
  6
Continuous
 62
     7
370
    15
100
AcDbSpline
210
0.0
220
0.0
230
1.0
 70
    24
 71
     3
 72
    14
 73
    10
 74
     0
 42
0.00000001
 43
0.00000001
 40
0.0
 40
0.0
 40
0.0
 40
0.0
 40
0.25
 40
0.25
 40
0.5
 40
0.5
 40
0.75
 40
0.75
 40
1.0
 40
1.0
 40
1.0
 40
1.0
 10
142.08520606598
 20
141.8036294691225
 30
0.0
 10
142.0852060659799
 20
141.8036294691225
 30
0.0
 10
142.1009203864459
 20
141.8036294691225
 30
0.0
 10
142.1646043649143
 20
141.8036294691225
 30
0.0
 10
142.2132075593247
 20
141.8036294691225
 30
0.0
 10
142.3458910817503
 20
141.8036294691225
 30
0.0
 10
142.430993186061
 20
141.8036294691225
 30
0.0
 10
142.637435420971
 20
141.8036294691225
 30
0.0
 10
142.7615163625941
 20
141.8036294691225
 30
0.0
 10
142.88520606598
 20
141.8036294691225
 30
0.0
  0
SPLINE
  5
89
330
1F
100
AcDbEntity
  8
0
  6
Continuous
 62
     7
370
    15
100
AcDbSpline
210
0.0
220
0.0
230
1.0
 70
     8
 71
     3
 72
    14
 73
    10
 74
     0
 42
0.00000001
 43
0.00000001
 40
0.0
 40
0.0
 40
0.0
 40
0.0
 40
0.25
 40
0.25
 40
0.5
 40
0.5
 40
0.75
 40
0.75
 40
1.0
 40
1.0
 40
1.0
 40
1.0
 10
145.90520606598
 20
64.9904506867276
 30
0.0
 10
145.90520606598
 20
65.09749476772198
 30
0.0
 10
145.8850883788218
 20
65.20272990796444
 30
0.0
 10
145.8065971895562
 20
65.40058039481211
 30
0.0
 10
145.748440564755
 20
65.49163215837704
 30
0.0
 10
145.6019253091369
 20
65.64479825230183
 30
0.0
 10
145.5132827604958
 20
65.70709269851123
 30
0.0
 10
145.3175594376955
 20
65.79188648404721
 30
0.0
 10
145.2123282466246
 20
65.81395401107285
 30
0.0
 10
145.10520606598
 20
65.81395401107285
 30
0.0
  0
SPLINE
  5
8A
330
1F
100
AcDbEntity
  8
0
  6
Continuous
 62
     7
370
    15
100
AcDbSpline
210
0.0
220
0.0
230
1.0
 70
    24
 71
     3
 72
    14
 73
    10
 74
     0
 42
0.00000001
 43
0.00000001
 40
0.0
 40
0.0
 40
0.0
 40
0.0
 40
0.25
 40
0.25
 40
0.5
 40
0.5
 40
0.75
 40
0.75
 40
1.0
 40
1.0
 40
1.0
 40
1.0
 10
145.10520606598
 20
141.8036294691225
 30
0.0
 10
145.2289758307451
 20
141.8036294691225
 30
0.0
 10
145.353342934752
 20
141.8036294691225
 30
0.0
 10
145.559699403478
 20
141.8036294691225
 30
0.0
 10
145.6450275468964
 20
141.8036294691225
 30
0.0
 10
145.7772196056116
 20
141.8036294691225
 30
0.0
 10
145.8258648493622
 20
141.8036294691225
 30
0.0
 10
145.889400641091
 20
141.8036294691225
 30
0.0
 10
145.90520606598
 20
141.8036294691225
 30
0.0
 10
145.90520606598
 20
141.8036294691225
 30
0.0
  0
LINE
  5
8B
330
1F
100
AcDbEntity
  8
0
  6
Continuous
 62
     7
370
    15
100
AcDbLine
 10
145.105206066
 20
65.8139540111
 30
0.0
 11
142.885206066
 21
65.8139540111
 31
0.0
  0
LINE
  5
8C
330
1F
100
AcDbEntity
  8
0
  6
Continuous
 62
     7
370
    15
100
AcDbLine
 10
142.885206066
 20
141.8036294691
 30
0.0
 11
145.105206066
 21
141.8036294691
 31
0.0
  0
LINE
  5
8D
330
1F
100
AcDbEntity
  8
0
  6
Continuous
 62
     7
370
    15
100
AcDbLine
 10
89.195206066
 20
74.1896144391
 30
0.0
 11
89.195206066
 21
76.5842962038
 31
0.0
  0
SPLINE
  5
8E
330
1F
100
AcDbEntity
  8
0
  6
Continuous
 62
     7
370
    15
100
AcDbSpline
210
0.0
220
0.0
230
1.0
 70
     8
 71
     3
 72
    14
 73
    10
 74
     0
 42
0.00000001
 43
0.00000001
 40
0.0
 40
0.0
 40
0.0
 40
0.0
 40
0.25
 40
0.25
 40
0.5
 40
0.5
 40
0.75
 40
0.75
 40
1.0
 40
1.0
 40
1.0
 40
1.0
 10
88.19078359464301
 20
78.28714812537896
 30
0.0
 10
88.27955217258832
 20
78.128613994071
 30
0.0
 10
88.40127001126724
 20
77.97617131718246
 30
0.0
 10
88.63631962112407
 20
77.67903669335354
 30
0.0
 10
88.75194980734096
 20
77.53435404973618
 30
0.0
 10
88.9523547407688
 20
77.25106484723277
 30
0.0
 10
89.0377550327531
 20
77.1125108541959
 30
0.0
 10
89.15946066647035
 20
76.84112682416239
 30
0.0
 10
89.19520606598299
 20
76.70899095552775
 30
0.0
 10
89.19520606598297
 20
76.58429620375699
 30
0.0
  0
SPLINE
  5
8F
330
1F
100
AcDbEntity
  8
0
  6
Continuous
 62
     7
370
    15
100
AcDbSpline
210
0.0
220
0.0
230
1.0
 70
     8
 71
     3
 72
    14
 73
    10
 74
     0
 42
0.00000001
 43
0.00000001
 40
0.0
 40
0.0
 40
0.0
 40
0.0
 40
0.124999999999999
 40
0.124999999999999
 40
0.249999999999998
 40
0.249999999999998
 40
0.5000000000000007
 40
0.5000000000000007
 40
1.0
 40
1.0
 40
1.0
 40
1.0
 10
87.29520606597995
 20
78.91597806447908
 30
0.0
 10
87.36278836576446
 20
78.92313394958047
 30
0.0
 10
87.43527594351235
 20
78.91870947954143
 30
0.0
 10
87.5675670527783
 20
78.8890033217711
 30
0.0
 10
87.62484443216847
 20
78.86571904019287
 30
0.0
 10
87.77449485936876
 20
78.78823380034255
 30
0.0
 10
87.84820815489024
 20
78.72638197344119
 30
0.0
 10
88.03601613821648
 20
78.54170452079288
 30
0.0
 10
88.12005644457794
 20
78.41346159750165
 30
0.0
 10
88.19078359464422
 20
78.28714812537908
 30
0.0
  0
SPLINE
  5
90
330
1F
100
AcDbEntity
  8
0
  6
Continuous
 62
     7
370
    15
100
AcDbSpline
210
0.0
220
0.0
230
1.0
 70
     8
 71
     3
 72
     8
 73
     4
 74
     0
 42
0.00000001
 43
0.00000001
 40
0.0
 40
0.0
 40
0.0
 40
0.0
 40
1.0
 40
1.0
 40
1.0
 40
1.0
 10
83.75056567789917
 20
78.49792947968729
 30
0.0
 10
84.91586398860805
 20
78.65311695157389
 30
0.0
 10
86.10047920264786
 20
78.78947558988422
 30
0.0
 10
87.29520606597995
 20
78.91597806447909
 30
0.0
  0
SPLINE
  5
91
330
1F
100
AcDbEntity
  8
0
  6
Continuous
 62
     7
370
    15
100
AcDbSpline
210
0.0
220
0.0
230
1.0
 70
     8
 71
     3
 72
    14
 73
    10
 74
     0
 42
0.00000001
 43
0.00000001
 40
0.0
 40
0.0
 40
0.0
 40
0.0
 40
0.4999999999999972
 40
0.4999999999999972
 40
0.7499999999999971
 40
0.7499999999999971
 40
0.8749999999999986
 40
0.8749999999999986
 40
1.0
 40
1.0
 40
1.0
 40
1.0
 10
75.99513118195127
 20
78.20779730055736
 30
0.0
 10
77.30343274448501
 20
78.2148120242985
 30
0.0
 10
78.60849211914183
 20
78.23022060074297
 30
0.0
 10
80.55436817063016
 20
78.28411715620965
 30
0.0
 10
81.20106567436915
 20
78.30714872081235
 30
0.0
 10
82.16490803822349
 20
78.3580912456831
 30
0.0
 10
82.48514673015757
 20
78.3778261679163
 30
0.0
 10
83.12184195649998
 20
78.42731329638785
 30
0.0
 10
83.4385573647829
 20
78.45637807531709
 30
0.0
 10
83.7505656778992
 20
78.49792947968726
 30
0.0
  0
SPLINE
  5
92
330
1F
100
AcDbEntity
  8
0
  6
Continuous
 62
     7
370
    15
100
AcDbSpline
210
0.0
220
0.0
230
1.0
 70
     8
 71
     3
 72
    12
 73
     8
 74
     0
 42
0.00000001
 43
0.00000001
 40
0.0
 40
0.0
 40
0.0
 40
0.0
 40
0.2500000000000009
 40
0.2500000000000009
 40
0.5000000000000018
 40
0.5000000000000018
 40
1.0
 40
1.0
 40
1.0
 40
1.0
 10
82.29520606597997
 20
142.5401523606189
 30
0.0
 10
81.77650724415179
 20
142.5726751354671
 30
0.0
 10
81.25479567094679
 20
142.5959718766376
 30
0.0
 10
80.2085036544512
 20
142.6338173910597
 30
0.0
 10
79.68383202878094
 20
142.6480858655559
 30
0.0
 10
78.10698600624171
 20
142.6822953530142
 30
0.0
 10
77.05203069169481
 20
142.6937948569581
 30
0.0
 10
75.99513118194957
 20
142.6994616376876
 30
0.0
  0
SPLINE
  5
93
330
1F
100
AcDbEntity
  8
0
  6
Continuous
 62
     7
370
    15
100
AcDbSpline
210
0.0
220
0.0
230
1.0
 70
     8
 71
     3
 72
    20
 73
    16
 74
     0
 42
0.00000001
 43
0.00000001
 40
0.0
 40
0.0
 40
0.0
 40
0.0
 40
0.2500000000000011
 40
0.2500000000000011
 40
0.5000000000000021
 40
0.5000000000000021
 40
0.7500000000000031
 40
0.7500000000000031
 40
0.8750000000000008
 40
0.8750000000000008
 40
0.9375000000000006
 40
0.9375000000000006
 40
0.9687500000000003
 40
0.9687500000000003
 40
1.0
 40
1.0
 40
1.0
 40
1.0
 10
84.19520606597996
 20
144.198238206107
 30
0.0
 10
84.19520606597996
 20
144.0625558863603
 30
0.0
 10
84.14649427676333
 20
143.9214689002202
 30
0.0
 10
83.97733285353814
 20
143.6293971814897
 30
0.0
 10
83.85555243961984
 20
143.4777484393992
 30
0.0
 10
83.55800534487032
 20
143.1753399992461
 30
0.0
 10
83.38409273916756
 20
143.0227513631228
 30
0.0
 10
83.06467790528572
 20
142.7974805992805
 30
0.0
 10
82.94963712983846
 20
142.7227575047698
 30
0.0
 10
82.74255280582204
 20
142.6233470955128
 30
0.0
 10
82.66644497101566
 20
142.5917820031682
 30
0.0
 10
82.53505043146231
 20
142.5573386189753
 30
0.0
 10
82.48849721246084
 20
142.5482870472076
 30
0.0
 10
82.39216386138014
 20
142.5381113983692
 30
0.0
 10
82.34290443802469
 20
142.5371616396941
 30
0.0
 10
82.29520606597798
 20
142.5401523606087
 30
0.0
  0
LINE
  5
94
330
1F
100
AcDbEntity
  8
0
  6
Continuous
 62
     7
370
    15
100
AcDbLine
 10
84.195206066
 20
144.1982382061
 30
0.0
 11
84.195206066
 21
146.4671434972
 31
0.0
  0
LINE
  5
95
330
1F
100
AcDbEntity
  8
0
  6
Continuous
 62
     7
370
    15
100
AcDbLine
 10
121.495206066
 20
72.5713779661
 30
0.0
 11
121.495206066
 21
148.3358809721
 31
0.0
  0
SPLINE
  5
96
330
1F
100
AcDbEntity
  8
0
  6
Continuous
 62
     7
370
    15
100
AcDbSpline
210
0.0
220
0.0
230
1.0
 70
     8
 71
     3
 72
    24
 73
    20
 74
     0
 42
0.00000001
 43
0.00000001
 40
0.0
 40
0.0
 40
0.0
 40
0.0
 40
0.0002934293894791
 40
0.062808005175641
 40
0.1260453927228619
 40
0.18907467666103
 40
0.2513200540860133
 40
0.3133304633786588
 40
0.3759158453762907
 40
0.4383740564599686
 40
0.5000631094857209
 40
0.5616593988040849
 40
0.6245050380644152
 40
0.6872231506510951
 40
0.7494953263230465
 40
0.8117583797535242
 40
0.8747365508229858
 40
0.9378980306234599
 40
1.0
 40
1.0
 40
1.0
 40
1.0
 10
102.5151623298194
 20
73.52238421081012
 30
0.0
 10
102.5149674769346
 20
73.52235990341613
 30
0.0
 10
102.4732595859235
 20
73.51715695176192
 30
0.0
 10
102.6183779774539
 20
73.53579157509243
 30
0.0
 10
102.9734569189932
 20
73.57831135364117
 30
0.0
 10
103.5780325565363
 20
73.646447637243
 30
0.0
 10
104.3844678653525
 20
73.71970317425888
 30
0.0
 10
105.3699452892715
 20
73.78422251507673
 30
0.0
 10
106.501614885951
 20
73.82278674313783
 30
0.0
 10
107.7239073561133
 20
73.82648124913922
 30
0.0
 10
108.9912360375651
 20
73.78405526909023
 30
0.0
 10
110.2577215679917
 20
73.69580812830928
 30
0.0
 10
111.4738589318116
 20
73.56741485804261
 30
0.0
 10
112.5992694276524
 20
73.41477386945007
 30
0.0
 10
113.5766864892063
 20
73.25299925434574
 30
0.0
 10
114.3799519677488
 20
73.10047036124485
 30
0.0
 10
114.9684454907501
 20
72.97645661797745
 30
0.0
 10
115.3573516024021
 20
72.89153269170117
 30
0.0
 10
115.4041127331401
 20
72.88080638042238
 30
0.0
 10
115.4272955396825
 20
72.87548858773077
 30
0.0
  0
SPLINE
  5
97
330
1F
100
AcDbEntity
  8
0
  6
Continuous
 62
     7
370
    15
100
AcDbSpline
210
0.0
220
0.0
230
1.0
 70
     8
 71
     3
 72
    41
 73
    37
 74
     0
 42
0.00000001
 43
0.00000001
 40
0.0
 40
0.0
 40
0.0
 40
0.0
 40
0.0619930061482746
 40
0.1254347783466151
 40
0.1886508898234768
 40
0.2510246408607227
 40
0.3131658188976554
 40
0.3756581641417402
 40
0.4382227146727798
 40
0.4998044922940677
 40
0.56151641971787
 40
0.6240683094121985
 40
0.686725723240935
 40
0.7488365305144522
 40
0.8110685944253986
 40
0.8741742884451361
 40
0.9373212787645211
 40
0.9685511709617411
 40
0.9842086872487193
 40
0.9920641182531791
 40
0.996000486125535
 40
0.9979710794120144
 40
0.9989570090489596
 40
0.9994501359395065
 40
0.9996967403802177
 40
0.9998200529090742
 40
0.9998817117580818
 40
0.999912541829664
 40
0.9999279570273361
 40
0.9999356646666602
 40
0.9999395184964466
 40
0.9999414454138695
 40
0.9999424088732151
 40
0.9999433723329806
 40
0.9999501697010513
 40
1.0
 40
1.0
 40
1.0
 40
1.0
 10
115.4271742092045
 20
148.0317253325627
 30
0.0
 10
115.4036025638609
 20
148.0264158529128
 30
0.0
 10
115.3559084078159
 20
148.0156728119733
 30
0.0
 10
114.9638664183903
 20
147.9304436755179
 30
0.0
 10
114.3733523691201
 20
147.8058748968771
 30
0.0
 10
113.569314923075
 20
147.6529279507253
 30
0.0
 10
112.5932395228935
 20
147.4911713967717
 30
0.0
 10
111.471430787613
 20
147.3389386288395
 30
0.0
 10
110.2578998678258
 20
147.2111586876381
 30
0.0
 10
108.9930691614266
 20
147.1233101359555
 30
0.0
 10
107.7250261239838
 20
147.0809246520849
 30
0.0
 10
106.5015187662827
 20
147.0846604600565
 30
0.0
 10
105.3680202258687
 20
147.1232559305047
 30
0.0
 10
104.3819144148945
 20
147.1876953017957
 30
0.0
 10
103.5732866061073
 20
147.2612051090769
 30
0.0
 10
102.9766679109981
 20
147.3285187938887
 30
0.0
 10
102.66127662154
 20
147.3664833451566
 30
0.0
 10
102.5512100527421
 20
147.3802824044885
 30
0.0
 10
102.5237906649279
 20
147.3837684784092
 30
0.0
 10
102.5168686140984
 20
147.3846477041025
 30
0.0
 10
102.515100373915
 20
147.3848684787089
 30
0.0
 10
102.5146399947416
 20
147.3849236814196
 30
0.0
 10
102.5145158360568
 20
147.3849374212066
 30
0.0
 10
102.5144802815636
 20
147.3849408170377
 30
0.0
 10
102.5144691374935
 20
147.3849416453579
 30
0.0
 10
102.5144652242974
 20
147.3849418419468
 30
0.0
 10
102.5144636820926
 20
147.3849418858768
 30
0.0
 10
102.5144630150911
 20
147.3849418941836
 30
0.0
 10
102.5144627069133
 20
147.3849418950138
 30
0.0
 10
102.5144625601473
 20
147.3849418944687
 30
0.0
 10
102.5144624871948
 20
147.3849418941388
 30
0.0
 10
102.5144624528025
 20
147.3849418937015
 30
0.0
 10
102.5144624305573
 20
147.38494189379
 30
0.0
 10
102.5144624034479
 20
147.384941890955
 30
0.0
 10
102.5144598838865
 20
147.3849421778101
 30
0.0
 10
102.5144959738045
 20
147.3849375577095
 30
0.0
 10
102.5145277316272
 20
147.384933492188
 30
0.0
  0
SPLINE
  5
98
330
1F
100
AcDbEntity
  8
0
  6
Continuous
 62
     7
370
    15
100
AcDbSpline
210
0.0
220
0.0
230
1.0
 70
     8
 71
     3
 72
    20
 73
    16
 74
     0
 42
0.00000001
 43
0.00000001
 40
0.0
 40
0.0
 40
0.0
 40
0.0
 40
0.249999999999986
 40
0.249999999999986
 40
0.3749999999999789
 40
0.3749999999999789
 40
0.4374999999999789
 40
0.4374999999999789
 40
0.4999999999999789
 40
0.4999999999999789
 40
0.6249999999999835
 40
0.6249999999999835
 40
0.7499999999999879
 40
0.7499999999999879
 40
1.0
 40
1.0
 40
1.0
 40
1.0
 10
74.38602029769598
 20
79.7751463164218
 30
0.0
 10
74.41229251490938
 20
79.79446425750425
 30
0.0
 10
74.44297265716422
 20
79.80885296860603
 30
0.0
 10
74.51444352754615
 20
79.80194860677001
 30
0.0
 10
74.54247056459049
 20
79.7947826034216
 30
0.0
 10
74.59755415408799
 20
79.76508357671801
 30
0.0
 10
74.61844548264042
 20
79.75160993415668
 30
0.0
 10
74.66365413008589
 20
79.71641166864066
 30
0.0
 10
74.68805834248145
 20
79.69450343991339
 30
0.0
 10
74.75939066053289
 20
79.62237857991786
 30
0.0
 10
74.80128744535317
 20
79.5700380389678
 30
0.0
 10
74.87286340420904
 20
79.47255464706706
 30
0.0
 10
74.90369139402634
 20
79.42580087718864
 30
0.0
 10
74.9867913268619
 20
79.29250766134952
 30
0.0
 10
75.03164623223222
 20
79.2098702634343
 30
0.0
 10
75.07175830768479
 20
79.13076336864353
 30
0.0
  0
SPLINE
  5
99
330
1F
100
AcDbEntity
  8
0
  6
Continuous
 62
     7
370
    15
100
AcDbSpline
210
0.0
220
0.0
230
1.0
 70
     8
 71
     3
 72
    14
 73
    10
 74
     0
 42
0.00000001
 43
0.00000001
 40
0.0
 40
0.0
 40
0.0
 40
0.0
 40
0.25
 40
0.25
 40
0.5
 40
0.5
 40
0.75
 40
0.75
 40
1.0
 40
1.0
 40
1.0
 40
1.0
 10
74.09520606597997
 20
79.95095972655457
 30
0.0
 10
74.09520606597998
 20
79.90971279553023
 30
0.0
 10
74.10381578236122
 20
79.87280582324775
 30
0.0
 10
74.13490196193156
 20
79.81190576334834
 30
0.0
 10
74.15729151541562
 20
79.78772484380863
 30
0.0
 10
74.21203544659174
 20
79.75375725292538
 30
0.0
 10
74.24448568617693
 20
79.7438371689572
 30
0.0
 10
74.314487200905
 20
79.74248596005235
 30
0.0
 10
74.35269770102754
 20
79.7506442367485
 30
0.0
 10
74.38602029770063
 20
79.7751463164166
 30
0.0
  0
LINE
  5
9A
330
1F
100
AcDbEntity
  8
0
  6
Continuous
 62
     7
370
    15
100
AcDbLine
 10
74.095206066
 20
79.9509597266
 30
0.0
 11
74.095206066
 21
140.9562992117
 31
0.0
  0
SPLINE
  5
9B
330
1F
100
AcDbEntity
  8
0
  6
Continuous
 62
     7
370
    15
100
AcDbSpline
210
0.0
220
0.0
230
1.0
 70
     8
 71
     3
 72
    10
 73
     6
 74
     0
 42
0.00000001
 43
0.00000001
 40
0.0
 40
0.0
 40
0.0
 40
0.0
 40
0.0592402688376383
 40
0.6438088530391344
 40
1.0
 40
1.0
 40
1.0
 40
1.0
 10
74.38602029770061
 20
141.1321126218284
 30
0.0
 10
74.38118804007941
 20
141.13536152846
 30
0.0
 10
74.32867223794467
 20
141.1706698566157
 30
0.0
 10
74.2297220402659
 20
141.1769241531743
 30
0.0
 10
74.18029351537456
 20
141.1217239154853
 30
0.0
 10
74.16157885063025
 20
141.1008239605621
 30
0.0
  0
SPLINE
  5
9C
330
1F
100
AcDbEntity
  8
0
  6
Continuous
 62
     7
370
    15
100
AcDbSpline
210
0.0
220
0.0
230
1.0
 70
     8
 71
     3
 72
     8
 73
     4
 74
     0
 42
0.00000001
 43
0.00000001
 40
0.0
 40
0.0
 40
0.0
 40
0.0
 40
1.0
 40
1.0
 40
1.0
 40
1.0
 10
74.11883973491618
 20
141.0638787127601
 30
0.0
 10
74.10349069628013
 20
141.0333686577641
 30
0.0
 10
74.09520606597997
 20
140.9970571022518
 30
0.0
 10
74.09520606597997
 20
140.9562992116904
 30
0.0
  0
SPLINE
  5
9D
330
1F
100
AcDbEntity
  8
0
  6
Continuous
 62
     7
370
    15
100
AcDbSpline
210
0.0
220
0.0
230
1.0
 70
     8
 71
     3
 72
    20
 73
    16
 74
     0
 42
0.00000001
 43
0.00000001
 40
0.0
 40
0.0
 40
0.0
 40
0.0
 40
0.2500000000000037
 40
0.2500000000000037
 40
0.3750000000000055
 40
0.3750000000000055
 40
0.5000000000000073
 40
0.5000000000000073
 40
0.5625000000000057
 40
0.5625000000000057
 40
0.625000000000004
 40
0.625000000000004
 40
0.7500000000000027
 40
0.7500000000000027
 40
1.0
 40
1.0
 40
1.0
 40
1.0
 10
75.0717583076824
 20
141.7764955696007
 30
0.0
 10
75.03176208985856
 20
141.6976171630432
 30
0.0
 10
74.98664846202091
 20
141.6144875163517
 30
0.0
 10
74.90339424765438
 20
141.4809988520008
 30
0.0
 10
74.87317491903387
 20
141.4351337961188
 30
0.0
 10
74.80108668389246
 20
141.3369422437139
 30
0.0
 10
74.75916936648136
 20
141.2846324241903
 30
0.0
 10
74.6879187619299
 20
141.2126265214558
 30
0.0
 10
74.66368294955059
 20
141.1908563091542
 30
0.0
 10
74.61808475936593
 20
141.1553816508252
 30
0.0
 10
74.59728226976623
 20
141.1420114666477
 30
0.0
 10
74.5423412713471
 20
141.1124415545124
 30
0.0
 10
74.5142722832603
 20
141.1053150322105
 30
0.0
 10
74.44376945319746
 20
141.0984406607278
 30
0.0
 10
74.41234536540658
 20
141.1127558198149
 30
0.0
 10
74.38602029769798
 20
141.1321126218255
 30
0.0
  0
SPLINE
  5
9E
330
1F
100
AcDbEntity
  8
0
  6
Continuous
 62
     7
370
    15
100
AcDbSpline
210
0.0
220
0.0
230
1.0
 70
     8
 71
     3
 72
    10
 73
     6
 74
     0
 42
0.00000001
 43
0.00000001
 40
0.0
 40
0.0
 40
0.0
 40
0.0
 40
0.4999999999999989
 40
0.4999999999999989
 40
1.0
 40
1.0
 40
1.0
 40
1.0
 10
75.74520606597999
 20
142.7019146709425
 30
0.0
 10
75.62031779522978
 20
142.570918392871
 30
0.0
 10
75.49886767716933
 20
142.427205556206
 30
0.0
 10
75.2692837022119
 20
142.1166352635168
 30
0.0
 10
75.15900872681591
 20
141.9485661904537
 30
0.0
 10
75.0717583076824
 20
141.7764955696007
 30
0.0
  0
SPLINE
  5
9F
330
1F
100
AcDbEntity
  8
0
  6
Continuous
 62
     7
370
    15
100
AcDbSpline
210
0.0
220
0.0
230
1.0
 70
     8
 71
     3
 72
     8
 73
     4
 74
     0
 42
0.00000001
 43
0.00000001
 40
0.0
 40
0.0
 40
0.0
 40
0.0
 40
1.0
 40
1.0
 40
1.0
 40
1.0
 10
75.99513118194571
 20
142.6994616376871
 30
0.0
 10
75.90811315209734
 20
142.6999282024742
 30
0.0
 10
75.8251591257174
 20
142.7009682220503
 30
0.0
 10
75.74520606597767
 20
142.7019146709426
 30
0.0
  0
SPLINE
  5
A0
330
1F
100
AcDbEntity
  8
0
  6
Continuous
 62
     7
370
    15
100
AcDbSpline
210
0.0
220
0.0
230
1.0
 70
     8
 71
     3
 72
     8
 73
     4
 74
     0
 42
0.00000001
 43
0.00000001
 40
0.0
 40
0.0
 40
0.0
 40
0.0
 40
1.0
 40
1.0
 40
1.0
 40
1.0
 10
75.74520606597767
 20
78.20534426730241
 30
0.0
 10
75.82515912571795
 20
78.20629071619469
 30
0.0
 10
75.90811315209842
 20
78.20733073577081
 30
0.0
 10
75.9951311819474
 20
78.20779730055789
 30
0.0
  0
SPLINE
  5
A1
330
1F
100
AcDbEntity
  8
0
  6
Continuous
 62
     7
370
    15
100
AcDbSpline
210
0.0
220
0.0
230
1.0
 70
     8
 71
     3
 72
    10
 73
     6
 74
     0
 42
0.00000001
 43
0.00000001
 40
0.0
 40
0.0
 40
0.0
 40
0.0
 40
0.4999999999999989
 40
0.4999999999999989
 40
1.0
 40
1.0
 40
1.0
 40
1.0
 10
75.07175830768146
 20
79.13076336864609
 30
0.0
 10
75.15900872681495
 20
78.95869274779271
 30
0.0
 10
75.2692837022111
 20
78.79062367472928
 30
0.0
 10
75.49886767716893
 20
78.48005338203947
 30
0.0
 10
75.62031779522957
 20
78.3363405453742
 30
0.0
 10
75.74520606597999
 20
78.2053442673025
 30
0.0
  0
LINE
  5
A2
330
1F
100
AcDbEntity
  8
0
  6
Continuous
 62
     7
370
    15
100
AcDbLine
 10
151.945206066
 20
159.4434243248
 30
0.0
 11
147.2572350869
 21
159.4434243248
 31
0.0
  0
LINE
  5
A3
330
1F
100
AcDbEntity
  8
0
  6
Continuous
 62
     7
370
    15
100
AcDbLine
 10
147.2572350869
 20
149.40459223
 30
0.0
 11
151.945206066
 21
149.40459223
 31
0.0
  0
LINE
  5
A4
330
1F
100
AcDbEntity
  8
0
  6
Continuous
 62
     7
370
    15
100
AcDbLine
 10
147.2572350869
 20
149.40459223
 30
0.0
 11
147.2572350869
 21
159.4434243248
 31
0.0
  0
SPLINE
  5
A5
330
1F
100
AcDbEntity
  8
0
  6
Continuous
 62
     7
370
    15
100
AcDbSpline
210
0.0
220
0.0
230
1.0
 70
     8
 71
     3
 72
     8
 73
     4
 74
     0
 42
0.00000001
 43
0.00000001
 40
0.0
 40
0.0
 40
0.0
 40
0.0
 40
1.0
 40
1.0
 40
1.0
 40
1.0
 10
142.08520606598
 20
157.0509003298274
 30
0.0
 10
141.6348978302954
 20
157.848615454941
 30
0.0
 10
141.1842040137718
 20
158.6461137545982
 30
0.0
 10
140.7331770450586
 20
159.4434243247861
 30
0.0
  0
LINE
  5
A6
330
1F
100
AcDbEntity
  8
0
  6
Continuous
 62
     7
370
    15
100
AcDbLine
 10
142.085206066
 20
146.3490769753
 30
0.0
 11
142.085206066
 21
157.0509003298
 31
0.0
  0
SPLINE
  5
A7
330
1F
100
AcDbEntity
  8
0
  6
Continuous
 62
     7
370
    15
100
AcDbSpline
210
0.0
220
0.0
230
1.0
 70
     8
 71
     3
 72
     8
 73
     4
 74
     0
 42
0.00000001
 43
0.00000001
 40
0.0
 40
0.0
 40
0.0
 40
0.0
 40
1.0
 40
1.0
 40
1.0
 40
1.0
 10
140.7331770450586
 20
149.4045922300094
 30
0.0
 10
141.1901033988581
 20
148.3886742603351
 30
0.0
 10
141.6413090406611
 20
147.369878431244
 30
0.0
 10
142.08520606598
 20
146.3490769752603
 30
0.0
  0
LINE
  5
A8
330
1F
100
AcDbEntity
  8
0
  6
Continuous
 62
     7
370
    15
100
AcDbLine
 10
142.085206066
 20
146.3490769753
 30
0.0
 11
142.085206066
 21
145.1678646616
 31
0.0
  0
SPLINE
  5
A9
330
1F
100
AcDbEntity
  8
0
  6
Continuous
 62
     7
370
    15
100
AcDbSpline
210
0.0
220
0.0
230
1.0
 70
     8
 71
     3
 72
    14
 73
    10
 74
     0
 42
0.00000001
 43
0.00000001
 40
0.0
 40
0.0
 40
0.0
 40
0.0
 40
0.25
 40
0.25
 40
0.5
 40
0.5
 40
0.75
 40
0.75
 40
1.0
 40
1.0
 40
1.0
 40
1.0
 10
142.08520606598
 20
145.1678646616195
 30
0.0
 10
142.08520606598
 20
145.0439977848303
 30
0.0
 10
142.1010651936076
 20
144.9197381079928
 30
0.0
 10
142.1644268391275
 20
144.682129745587
 30
0.0
 10
142.2130165471768
 20
144.5653493608345
 30
0.0
 10
142.3453021519516
 20
144.3565468322255
 30
0.0
 10
142.4306269432122
 20
144.2620361286329
 30
0.0
 10
142.6375181915184
 20
144.1240793278306
 30
0.0
 10
142.7614861374084
 20
144.0821608821949
 30
0.0
 10
142.88520606598
 20
144.0821608821949
 30
0.0
  0
LINE
  5
AA
330
1F
100
AcDbEntity
  8
0
  6
Continuous
 62
     7
370
    15
100
AcDbLine
 10
142.885206066
 20
144.0821608822
 30
0.0
 11
145.105206066
 21
144.0821608822
 31
0.0
  0
SPLINE
  5
AB
330
1F
100
AcDbEntity
  8
0
  6
Continuous
 62
     7
370
    15
100
AcDbSpline
210
0.0
220
0.0
230
1.0
 70
     8
 71
     3
 72
    12
 73
     8
 74
     0
 42
0.00000001
 43
0.00000001
 40
0.0
 40
0.0
 40
0.0
 40
0.0
 40
0.250000000000002
 40
0.250000000000002
 40
0.500000000000004
 40
0.500000000000004
 40
1.0
 40
1.0
 40
1.0
 40
1.0
 10
145.10520606598
 20
144.082160882195
 30
0.0
 10
145.2289070159599
 20
144.082160882195
 30
0.0
 10
145.3530036282301
 20
144.1241544939275
 30
0.0
 10
145.5596587913172
 20
144.2619498205719
 30
0.0
 10
145.644699558044
 20
144.3559234190367
 30
0.0
 10
145.8441781265176
 20
144.6707116252577
 30
0.0
 10
145.90520606598
 20
144.9209506174853
 30
0.0
 10
145.90520606598
 20
145.1678646616195
 30
0.0
  0
LINE
  5
AC
330
1F
100
AcDbEntity
  8
0
  6
Continuous
 62
     7
370
    15
100
AcDbLine
 10
145.905206066
 20
145.1678646616
 30
0.0
 11
145.905206066
 21
146.3490769753
 31
0.0
  0
SPLINE
  5
AD
330
1F
100
AcDbEntity
  8
0
  6
Continuous
 62
     7
370
    15
100
AcDbSpline
210
0.0
220
0.0
230
1.0
 70
     8
 71
     3
 72
     8
 73
     4
 74
     0
 42
0.00000001
 43
0.00000001
 40
0.0
 40
0.0
 40
0.0
 40
0.0
 40
1.0
 40
1.0
 40
1.0
 40
1.0
 10
145.90520606598
 20
146.3490769752603
 30
0.0
 10
146.3493560770055
 20
147.370460206212
 30
0.0
 10
146.8004303872634
 20
148.3889447429803
 30
0.0
 10
147.2572350869014
 20
149.4045922300094
 30
0.0
  0
SPLINE
  5
AE
330
1F
100
AcDbEntity
  8
0
  6
Continuous
 62
     7
370
    15
100
AcDbSpline
210
0.0
220
0.0
230
1.0
 70
     8
 71
     3
 72
    16
 73
    12
 74
     0
 42
0.00000001
 43
0.00000001
 40
0.0
 40
0.0
 40
0.0
 40
0.0
 40
0.1249999999999978
 40
0.1249999999999978
 40
0.2499999999999955
 40
0.2499999999999955
 40
0.499999999999997
 40
0.499999999999997
 40
0.7499999999999984
 40
0.7499999999999984
 40
1.0
 40
1.0
 40
1.0
 40
1.0
 10
151.94520606598
 20
149.4045922300094
 30
0.0
 10
152.0208437723912
 20
149.4045922300094
 30
0.0
 10
152.0971594368094
 20
149.3932472298745
 30
0.0
 10
152.2415701747013
 20
149.3505946792359
 30
0.0
 10
152.3100166238098
 20
149.3196603545531
 30
0.0
 10
152.5049478764229
 20
149.2004039827855
 30
0.0
 10
152.6127890502038
 20
149.0902519691649
 30
0.0
 10
152.7815017984158
 20
148.8421158835069
 30
0.0
 10
152.8438662111394
 20
148.7017735595032
 30
0.0
 10
152.9251701356477
 20
148.4135018680145
 30
0.0
 10
152.94520606598
 20
148.2626968950347
 30
0.0
 10
152.94520606598
 20
148.1123270036894
 30
0.0
  0
LINE
  5
AF
330
1F
100
AcDbEntity
  8
0
  6
Continuous
 62
     7
370
    15
100
AcDbLine
 10
152.945206066
 20
148.1123270037
 30
0.0
 11
152.945206066
 21
141.8036294691
 31
0.0
  0
SPLINE
  5
B0
330
1F
100
AcDbEntity
  8
0
  6
Continuous
 62
     7
370
    15
100
AcDbSpline
210
0.0
220
0.0
230
1.0
 70
     8
 71
     3
 72
    12
 73
     8
 74
     0
 42
0.00000001
 43
0.00000001
 40
0.0
 40
0.0
 40
0.0
 40
0.0
 40
0.4999999999999953
 40
0.4999999999999953
 40
0.7499999999999977
 40
0.7499999999999977
 40
1.0
 40
1.0
 40
1.0
 40
1.0
 10
152.94520606598
 20
158.4223692899683
 30
0.0
 10
152.94520606598
 20
158.6876387227347
 30
0.0
 10
152.8405993224935
 20
158.9501538283871
 30
0.0
 10
152.5639309707482
 20
159.2356914344244
 30
0.0
 10
152.4535657113962
 20
159.3120130512858
 30
0.0
 10
152.2094936627805
 20
159.4163552161259
 30
0.0
 10
152.0777412014487
 20
159.4434243247861
 30
0.0
 10
151.94520606598
 20
159.4434243247861
 30
0.0
  0
LINE
  5
B1
330
1F
100
AcDbEntity
  8
0
  6
Continuous
 62
     7
370
    15
100
AcDbLine
 10
152.945206066
 20
148.1123270037
 30
0.0
 11
152.945206066
 21
158.42236929
 31
0.0
  0
SPLINE
  5
B2
330
1F
100
AcDbEntity
  8
0
  6
Continuous
 62
     7
370
    15
100
AcDbSpline
210
0.0
220
0.0
230
1.0
 70
     8
 71
     3
 72
    14
 73
    10
 74
     0
 42
0.00000001
 43
0.00000001
 40
0.0
 40
0.0
 40
0.0
 40
0.0
 40
0.25
 40
0.25
 40
0.5
 40
0.5
 40
0.75
 40
0.75
 40
1.0
 40
1.0
 40
1.0
 40
1.0
 10
145.90520606598
 20
156.1471807099705
 30
0.0
 10
145.90520606598
 20
156.0408240162181
 30
0.0
 10
145.8848185098387
 20
155.934983528458
 30
0.0
 10
145.8061841643772
 20
155.7384186149216
 30
0.0
 10
145.7474528047385
 20
155.6472478726345
 30
0.0
 10
145.600843899136
 20
155.4953367836028
 30
0.0
 10
145.5114385791095
 20
155.4332679467832
 30
0.0
 10
145.3175478465091
 20
155.3499998990245
 30
0.0
 10
145.2110428566193
 20
155.3279052292949
 30
0.0
 10
145.10520606598
 20
155.3279052292949
 30
0.0
  0
SPLINE
  5
B3
330
1F
100
AcDbEntity
  8
0
  6
Continuous
 62
     7
370
    15
100
AcDbSpline
210
0.0
220
0.0
230
1.0
 70
     8
 71
     3
 72
     8
 73
     4
 74
     0
 42
0.00000001
 43
0.00000001
 40
0.0
 40
0.0
 40
0.0
 40
0.0
 40
1.0
 40
1.0
 40
1.0
 40
1.0
 10
147.2572350869014
 20
159.4434243247861
 30
0.0
 10
146.8062081181881
 20
158.6461137545982
 30
0.0
 10
146.3555143016645
 20
157.848615454941
 30
0.0
 10
145.90520606598
 20
157.0509003298274
 30
0.0
  0
LINE
  5
B4
330
1F
100
AcDbEntity
  8
0
  6
Continuous
 62
     7
370
    15
100
AcDbLine
 10
145.905206066
 20
146.3490769753
 30
0.0
 11
145.905206066
 21
157.0509003298
 31
0.0
  0
SPLINE
  5
B5
330
1F
100
AcDbEntity
  8
0
  6
Continuous
 62
     7
370
    15
100
AcDbSpline
210
0.0
220
0.0
230
1.0
 70
     8
 71
     3
 72
    10
 73
     6
 74
     0
 42
0.00000001
 43
0.00000001
 40
0.0
 40
0.0
 40
0.0
 40
0.0
 40
0.5
 40
0.5
 40
1.0
 40
1.0
 40
1.0
 40
1.0
 10
142.88520606598
 20
155.3279052292949
 30
0.0
 10
142.6726697521236
 20
155.3279052292949
 30
0.0
 10
142.4627335804696
 20
155.4193178159251
 30
0.0
 10
142.1690264394583
 20
155.7240626818293
 30
0.0
 10
142.08520606598
 20
155.9362176517379
 30
0.0
 10
142.08520606598
 20
156.1471807099705
 30
0.0
  0
LINE
  5
B6
330
1F
100
AcDbEntity
  8
0
  6
Continuous
 62
     7
370
    15
100
AcDbLine
 10
145.105206066
 20
155.3279052293
 30
0.0
 11
142.885206066
 21
155.3279052293
 31
0.0
  0
ARC
  5
B7
330
1F
100
AcDbEntity
  8
0
  6
Continuous
 62
     7
370
    15
100
AcDbCircle
 10
132.9961991931
 20
143.0992080891
 30
0.0
 40
11.37202689554166
100
AcDbArc
 50
77.9692803937
 51
102.3697954855
  0
LINE
  5
B8
330
1F
100
AcDbEntity
  8
0
  6
Continuous
 62
     7
370
    15
100
AcDbLine
 10
75.745206066
 20
78.2036294691
 30
0.0
 11
75.745206066
 21
78.2053442673
 31
0.0
  0
LINE
  5
B9
330
1F
100
AcDbEntity
  8
0
  6
Continuous
 62
     7
370
    15
100
AcDbLine
 10
179.5234894894
 20
93.4536294691
 30
0.0
 11
179.5234894894
 21
127.4536294691
 31
0.0
  0
LINE
  5
BA
330
1F
100
AcDbEntity
  8
0
  6
Continuous
 62
     7
370
    15
100
AcDbLine
 10
163.6089268905
 20
127.3044497601
 30
0.0
 11
163.7492157706
 21
127.291368186
 31
0.0
  0
SPLINE
  5
BB
330
1F
100
AcDbEntity
  8
0
  6
Continuous
 62
     7
370
    15
100
AcDbSpline
210
0.0
220
0.0
230
1.0
 70
     8
 71
     3
 72
    27
 73
    23
 74
     0
 42
0.00000001
 43
0.00000001
 40
0.0
 40
0.0
 40
0.0
 40
0.0
 40
0.0168839716414426
 40
0.0618081662867353
 40
0.1033815713108983
 40
0.1460093027922912
 40
0.1907251380608325
 40
0.2364505305697981
 40
0.2873593429478862
 40
0.3394234305719009
 40
0.3970747075261638
 40
0.4561653966826073
 40
0.5182523870146177
 40
0.5820707442801684
 40
0.645261853400876
 40
0.7104123796365496
 40
0.7712161722927272
 40
0.8342450376997751
 40
0.8795057675745884
 40
0.926019104462844
 40
0.9713185353628986
 40
0.9999999999999999
 40
0.9999999999999999
 40
0.9999999999999999
 40
0.9999999999999999
 10
169.4360116717635
 20
127.4522361120152
 30
0.0
 10
169.4383477261584
 20
127.4525900374514
 30
0.0
 10
169.4468994604046
 20
127.4538856734948
 30
0.0
 10
169.3796814922244
 20
127.4436910051773
 30
0.0
 10
169.2420562931551
 20
127.4234334451803
 30
0.0
 10
169.0367258681558
 20
127.3945768334785
 30
0.0
 10
168.7673763453031
 20
127.359337124858
 30
0.0
 10
168.4269150364232
 20
127.3190464287172
 30
0.0
 10
168.0193595995811
 20
127.2772318992532
 30
0.0
 10
167.5351996024842
 20
127.2369085510349
 30
0.0
 10
166.9901779987619
 20
127.2038996151251
 30
0.0
 10
166.3872666577331
 20
127.1831523135127
 30
0.0
 10
165.7518658149503
 20
127.1792790159443
 30
0.0
 10
165.1074172810503
 20
127.1944892421955
 30
0.0
 10
164.4762799120695
 20
127.2277169693363
 30
0.0
 10
163.8972945447093
 20
127.274075513255
 30
0.0
 10
163.3813276057534
 20
127.3276728241642
 30
0.0
 10
162.9942641120168
 20
127.3756078515693
 30
0.0
 10
162.7177681178462
 20
127.4134465085631
 30
0.0
 10
162.5460102829354
 20
127.4384075578743
 30
0.0
 10
162.4524922047939
 20
127.4525202208362
 30
0.0
 10
162.4549199430938
 20
127.4521562376409
 30
0.0
 10
162.4558611467612
 20
127.4520151259245
 30
0.0
  0
LINE
  5
BC
330
1F
100
AcDbEntity
  8
0
  6
Continuous
 62
     7
370
    15
100
AcDbLine
 10
163.5031796458
 20
127.3165403456
 30
0.0
 11
163.6089268905
 21
127.3044497601
 31
0.0
  0
SPLINE
  5
BD
330
1F
100
AcDbEntity
  8
0
  6
Continuous
 62
     7
370
    15
100
AcDbSpline
210
0.0
220
0.0
230
1.0
 70
     8
 71
     3
 72
    66
 73
    62
 74
     0
 42
0.00000001
 43
0.00000001
 40
-0.0625000000000001
 40
-0.0625000000000001
 40
0.0
 40
0.0
 40
0.0624999999999991
 40
0.0624999999999991
 40
0.0937499999999992
 40
0.0937499999999992
 40
0.1249999999999992
 40
0.1249999999999992
 40
0.1562499999999992
 40
0.1562499999999992
 40
0.1874999999999993
 40
0.1874999999999993
 40
0.2187499999999993
 40
0.2187499999999993
 40
0.2499999999999993
 40
0.2499999999999993
 40
0.2812499999999994
 40
0.2812499999999994
 40
0.3124999999999994
 40
0.3124999999999994
 40
0.3437499999999995
 40
0.3437499999999995
 40
0.3749999999999996
 40
0.3749999999999996
 40
0.4062499999999997
 40
0.4062499999999997
 40
0.4374999999999997
 40
0.4374999999999997
 40
0.4687499999999998
 40
0.4687499999999998
 40
0.4999999999999998
 40
0.4999999999999998
 40
0.5312499999999998
 40
0.5312499999999998
 40
0.5624999999999998
 40
0.5624999999999998
 40
0.5937499999999998
 40
0.5937499999999998
 40
0.6249999999999998
 40
0.6249999999999998
 40
0.6562499999999998
 40
0.6562499999999998
 40
0.6874999999999998
 40
0.6874999999999998
 40
0.7187499999999998
 40
0.7187499999999998
 40
0.7499999999999998
 40
0.7499999999999998
 40
0.7812499999999999
 40
0.7812499999999999
 40
0.8124999999999999
 40
0.8124999999999999
 40
0.8437499999999999
 40
0.8437499999999999
 40
0.8749999999999999
 40
0.8749999999999999
 40
0.9062499999999999
 40
0.9062499999999999
 40
0.9374999999999999
 40
0.9374999999999999
 40
1.0
 40
1.0
 40
1.062499999999999
 40
1.062499999999999
 10
163.269803885587
 20
112.4363649694531
 30
0.0
 10
163.9480498978755
 20
112.9652706863622
 30
0.0
 10
164.326844290581
 20
113.1610440495808
 30
0.0
 10
164.9397242262039
 20
113.3590274329934
 30
0.0
 10
165.1471781894581
 20
113.4073245770929
 30
0.0
 10
165.568110885896
 20
113.4703343232396
 30
0.0
 10
165.7831581043252
 20
113.4849877425047
 30
0.0
 10
166.2120910256281
 20
113.4793361619127
 30
0.0
 10
166.4239115211487
 20
113.4593380821295
 30
0.0
 10
166.8423664592108
 20
113.3856210890555
 30
0.0
 10
167.0503472855286
 20
113.3314269995772
 30
0.0
 10
167.4546085195229
 20
113.1887502952438
 30
0.0
 10
167.6480651600064
 20
113.1015358054966
 30
0.0
 10
168.0175193199923
 20
112.8949278671992
 30
0.0
 10
168.1944592453219
 20
112.7748107872373
 30
0.0
 10
168.5246871308743
 20
112.5013093375996
 30
0.0
 10
168.6742103630561
 20
112.3513128122327
 30
0.0
 10
168.9408041846175
 20
112.0235388045317
 30
0.0
 10
169.0589573739103
 20
111.8437215000685
 30
0.0
 10
169.2520791219371
 20
111.4605399297891
 30
0.0
 10
169.3254266774568
 20
111.2614644407528
 30
0.0
 10
169.4236804175527
 20
110.8476343123112
 30
0.0
 10
169.4480219170555
 20
110.6299088545235
 30
0.0
 10
169.4418518213067
 20
110.2028116227948
 30
0.0
 10
169.4122594780076
 20
109.9900503998993
 30
0.0
 10
169.3009309488053
 20
109.5729091990406
 30
0.0
 10
169.2211880450088
 20
109.3747864458965
 30
0.0
 10
169.0179089298265
 20
108.9974628370639
 30
0.0
 10
168.8943175010886
 20
108.8194546075954
 30
0.0
 10
168.6167060136875
 20
108.4957042581762
 30
0.0
 10
168.4599598777812
 20
108.3466768690457
 30
0.0
 10
168.1234399007499
 20
108.0821986751266
 30
0.0
 10
167.9443920696265
 20
107.9667379687984
 30
0.0
 10
167.5660727715151
 20
107.7670170486991
 30
0.0
 10
167.3663529089655
 20
107.6830424073952
 30
0.0
 10
166.9607280266358
 20
107.5509615661952
 30
0.0
 10
166.7531637509795
 20
107.5018791389355
 30
0.0
 10
166.3285485411103
 20
107.437418534267
 30
0.0
 10
166.1128472714038
 20
107.4225752591416
 30
0.0
 10
165.6866028992511
 20
107.4274479967123
 30
0.0
 10
165.4743455082954
 20
107.4468636011067
 30
0.0
 10
165.0516100017044
 20
107.5206938501733
 30
0.0
 10
164.8424172694874
 20
107.575248881181
 30
0.0
 10
164.4412847433727
 20
107.7163317706845
 30
0.0
 10
164.2474461743383
 20
107.8031153173224
 30
0.0
 10
163.8740633819843
 20
108.0114367349422
 30
0.0
 10
163.695158839435
 20
108.1332113034742
 30
0.0
 10
163.3685124449893
 20
108.4035361185228
 30
0.0
 10
163.2186257489116
 20
108.5531050382711
 30
0.0
 10
162.9487881477549
 20
108.8845897253857
 30
0.0
 10
162.8298367929754
 20
109.0664104434456
 30
0.0
 10
162.6381283334207
 20
109.4474656081818
 30
0.0
 10
162.5629306195213
 20
109.6516297679157
 30
0.0
 10
162.4650341374329
 20
110.0697033875504
 30
0.0
 10
162.4419785364453
 20
110.2816731513975
 30
0.0
 10
162.4491514651084
 20
110.7116555568921
 30
0.0
 10
162.4801421557445
 20
110.9271229314951
 30
0.0
 10
162.5916648932972
 20
111.3399777635358
 30
0.0
 10
162.6736525224591
 20
111.5423133091907
 30
0.0
 10
162.98034803002
 20
112.1066115270402
 30
0.0
 10
163.269803885587
 20
112.4363649694531
 30
0.0
 10
163.9480498978755
 20
112.9652706863622
 30
0.0
  0
LINE
  5
BE
330
1F
100
AcDbEntity
  8
0
  6
Continuous
 62
     7
370
    15
100
AcDbLine
 10
163.6089268911
 20
93.6028091782
 30
0.0
 11
163.4751243941
 21
93.5877732566
 31
0.0
  0
SPLINE
  5
BF
330
1F
100
AcDbEntity
  8
0
  6
Continuous
 62
     7
370
    15
100
AcDbSpline
210
0.0
220
0.0
230
1.0
 70
     8
 71
     3
 72
    27
 73
    23
 74
     0
 42
0.00000001
 43
0.00000001
 40
0.0
 40
0.0
 40
0.0
 40
0.0
 40
0.001492782417071
 40
0.0473948858325561
 40
0.0888874383008968
 40
0.1314672555557529
 40
0.1753755831539945
 40
0.2202860543373073
 40
0.2700216577132126
 40
0.3208761300234709
 40
0.377474328510266
 40
0.4354581739774389
 40
0.4970308014203271
 40
0.5602911489147636
 40
0.6235158429561325
 40
0.6886601079860012
 40
0.7501842434781179
 40
0.8138907364254588
 40
0.8603649035402985
 40
0.908118015079768
 40
0.9546366343018605
 40
1.0
 40
1.0
 40
1.0
 40
1.0
 10
162.4465114971741
 20
93.45382665289702
 30
0.0
 10
162.4460782985487
 20
93.4537612215364
 30
0.0
 10
162.432324519593
 20
93.45168381773568
 30
0.0
 10
162.4809478471332
 20
93.45907384103927
 30
0.0
 10
162.5927745887455
 20
93.47572778048065
 30
0.0
 10
162.7767266179584
 20
93.5020724048097
 30
0.0
 10
163.0236764476433
 20
93.53526082783429
 30
0.0
 10
163.3401566360798
 20
93.57417598743994
 30
0.0
 10
163.723442258274
 20
93.61570075396494
 30
0.0
 10
164.183557219097
 20
93.65722569406721
 30
0.0
 10
164.7069108627958
 20
93.69318642568314
 30
0.0
 10
165.2936915143652
 20
93.71877021033029
 30
0.0
 10
165.9194582789718
 20
93.72876841591138
 30
0.0
 10
166.5640469024563
 20
93.7200647168897
 30
0.0
 10
167.2036099783511
 20
93.69265264821797
 30
0.0
 10
167.8015829929098
 20
93.6501491618299
 30
0.0
 10
168.3450351355941
 20
93.59789728688867
 30
0.0
 10
168.7661087836051
 20
93.5483453230612
 30
0.0
 10
169.0785841937893
 20
93.50700032332125
 30
0.0
 10
169.2866030714503
 20
93.47739876866406
 30
0.0
 10
169.4211615706627
 20
93.45729940963705
 30
0.0
 10
169.4355248635362
 20
93.45510426815747
 30
0.0
 10
169.4426162134653
 20
93.45402049742937
 30
0.0
  0
CIRCLE
  5
C0
330
1F
100
AcDbEntity
  8
0
  6
Continuous
 62
     7
370
    15
100
AcDbCircle
 10
165.945206066
 20
110.4536294691
 30
0.0
 40
2.5
  0
LINE
  5
C1
330
1F
100
AcDbEntity
  8
0
  6
Continuous
 62
     7
370
    15
100
AcDbLine
 10
75.745206066
 20
142.7036294691
 30
0.0
 11
75.745206066
 21
142.7019146709
 31
0.0
  0
SPLINE
  5
C2
330
1F
100
AcDbEntity
  8
0
  6
Continuous
 62
     7
370
    15
100
AcDbSpline
210
0.0
220
0.0
230
1.0
 70
     8
 71
     3
 72
    13
 73
     9
 74
     0
 42
0.00000001
 43
0.00000001
 40
0.0
 40
0.0
 40
0.0
 40
0.0
 40
0.045659431372776
 40
0.3457970739012817
 40
0.6485311114849648
 40
0.805085147399721
 40
0.9663783072091047
 40
1.0
 40
1.0
 40
1.0
 40
1.0
 10
223.9044326307506
 20
122.6994374633342
 30
0.0
 10
223.9036531929426
 20
122.7022786290635
 30
0.0
 10
223.8977501997345
 20
122.7237959096366
 30
0.0
 10
223.9236514669597
 20
122.6337123750971
 30
0.0
 10
223.9608714123898
 20
122.4668716746011
 30
0.0
 10
223.9867095413021
 20
122.2701510220269
 30
0.0
 10
223.9947028995122
 20
122.1422061373667
 30
0.0
 10
223.9951320414585
 20
122.0661896384705
 30
0.0
 10
223.99520606598
 20
122.0530772289295
 30
0.0
  0
LINE
  5
C3
330
1F
100
AcDbEntity
  8
0
  6
Continuous
 62
     7
370
    15
100
AcDbLine
 10
223.995206066
 20
98.8541817093
 30
0.0
 11
223.995206066
 21
122.0530772289
 31
0.0
  0
LINE
  5
C4
330
1F
100
AcDbEntity
  8
0
  6
Continuous
 62
     7
370
    15
100
AcDbLine
 10
223.9096183008
 20
98.2575619572
 30
0.0
 11
223.921718756
 21
97.9495848069
 31
0.0
  0
LINE
  5
C5
330
1F
100
AcDbEntity
  8
0
  6
Continuous
 62
     7
370
    15
100
AcDbLine
 10
224.0246509278
 20
99.4547863609
 30
0.0
 11
224.0725282731
 21
98.2362265512
 31
0.0
  0
LINE
  5
C6
330
1F
100
AcDbEntity
  8
0
  6
Continuous
 62
     7
370
    15
100
AcDbLine
 10
223.995206066
 20
100.2042081381
 30
0.0
 11
224.0246509278
 21
99.4547863609
 31
0.0
  0
LINE
  5
C7
330
1F
100
AcDbEntity
  8
0
  6
Continuous
 62
     7
370
    15
100
AcDbLine
 10
223.8628290324
 20
122.9599879148
 30
0.0
 11
223.8572647173
 21
122.8183666399
 31
0.0
  0
LINE
  5
C8
330
1F
100
AcDbEntity
  8
0
  6
Continuous
 62
     7
370
    15
100
AcDbLine
 10
224.0136385495
 20
122.6733461706
 30
0.0
 11
223.9929362698
 21
122.1464379668
 31
0.0
  0
SPLINE
  5
C9
330
1F
100
AcDbEntity
  8
0
  6
HIDDEN
 62
     7
370
     0
100
AcDbSpline
210
0.0
220
0.0
230
1.0
 70
     8
 71
     3
 72
    80
 73
    76
 74
     0
 42
0.00000001
 43
0.00000001
 40
-0.03125
 40
-0.03125
 40
0.0
 40
0.0
 40
0.0312500000000002
 40
0.0312500000000002
 40
0.0468750000000002
 40
0.0468750000000002
 40
0.0625000000000001
 40
0.0625000000000001
 40
0.0937499999999999
 40
0.0937499999999999
 40
0.1249999999999997
 40
0.1249999999999997
 40
0.1562499999999995
 40
0.1562499999999995
 40
0.1874999999999993
 40
0.1874999999999993
 40
0.2187499999999991
 40
0.2187499999999991
 40
0.2499999999999989
 40
0.2499999999999989
 40
0.2812499999999987
 40
0.2812499999999987
 40
0.3124999999999984
 40
0.3124999999999984
 40
0.3281249999999985
 40
0.3281249999999985
 40
0.3437499999999986
 40
0.3437499999999986
 40
0.3749999999999986
 40
0.3749999999999986
 40
0.4062499999999987
 40
0.4062499999999987
 40
0.4218749999999989
 40
0.4218749999999989
 40
0.4374999999999991
 40
0.4374999999999991
 40
0.4687499999999993
 40
0.4687499999999993
 40
0.4999999999999994
 40
0.4999999999999994
 40
0.5312499999999997
 40
0.5312499999999997
 40
0.5624999999999998
 40
0.5624999999999998
 40
0.59375
 40
0.59375
 40
0.6250000000000001
 40
0.6250000000000001
 40
0.6562500000000003
 40
0.6562500000000003
 40
0.6875000000000006
 40
0.6875000000000006
 40
0.7031250000000007
 40
0.7031250000000007
 40
0.7187500000000007
 40
0.7187500000000007
 40
0.7500000000000003
 40
0.7500000000000003
 40
0.78125
 40
0.78125
 40
0.7968749999999998
 40
0.7968749999999998
 40
0.8124999999999997
 40
0.8124999999999997
 40
0.8437499999999998
 40
0.8437499999999998
 40
0.8749999999999998
 40
0.8749999999999998
 40
0.9062499999999999
 40
0.9062499999999999
 40
0.9375
 40
0.9375
 40
0.96875
 40
0.96875
 40
1.0
 40
1.0
 40
1.03125
 40
1.03125
 10
132.6646607532037
 20
159.3131787256005
 30
0.0
 10
133.3257513787563
 20
159.3131787256005
 30
0.0
 10
133.6507315080079
 20
159.3062805797736
 30
0.0
 10
134.1302049192543
 20
159.2857541517931
 30
0.0
 10
134.2886867370952
 20
159.2771979247056
 30
0.0
 10
134.6029062695994
 20
159.2564715494879
 30
0.0
 10
134.7590265532798
 20
159.2442442492816
 30
0.0
 10
135.2130805822364
 20
159.2026749554523
 30
0.0
 10
135.5001839651762
 20
159.1683306703546
 30
0.0
 10
136.0435385212032
 20
159.0850065460323
 30
0.0
 10
136.3006421324088
 20
159.0355683232578
 30
0.0
 10
136.7615483873476
 20
158.9241885934979
 30
0.0
 10
136.9684460965626
 20
158.8618940799857
 30
0.0
 10
137.3339714105548
 20
158.7219644371148
 30
0.0
 10
137.4891769326807
 20
158.6453485393657
 30
0.0
 10
137.7386073192804
 20
158.48138991951
 30
0.0
 10
137.8346972750656
 20
158.3928330654142
 30
0.0
 10
137.9632161242592
 20
158.2053523833085
 30
0.0
 10
137.995026994437
 20
158.108115921854
 30
0.0
 10
137.9953836442102
 20
157.9064832825269
 30
0.0
 10
137.9628863920132
 20
157.8009344906888
 30
0.0
 10
137.8352609182987
 20
157.5908197080003
 30
0.0
 10
137.7408325172468
 20
157.4857542000313
 30
0.0
 10
137.5529716972612
 20
157.3288764927803
 30
0.0
 10
137.482143698458
 20
157.2764427590745
 30
0.0
 10
137.3274218064928
 20
157.1740043134448
 30
0.0
 10
137.2434453363093
 20
157.123856584793
 30
0.0
 10
136.9721216666649
 20
156.9768406283594
 30
0.0
 10
136.7655724480626
 20
156.883352807925
 30
0.0
 10
136.2989623078736
 20
156.7075659503107
 30
0.0
 10
136.0465967382481
 20
156.628187475227
 30
0.0
 10
135.6406953965694
 20
156.5227050377329
 30
0.0
 10
135.5007947790919
 20
156.4898194728928
 30
0.0
 10
135.211570843845
 20
156.4289039936641
 30
0.0
 10
135.0617313875557
 20
156.4008234220217
 30
0.0
 10
134.6076148179449
 20
156.3260213799789
 30
0.0
 10
134.2959635992081
 20
156.2879833217328
 30
0.0
 10
133.6549671342957
 20
156.2363713952087
 30
0.0
 10
133.3234395063435
 20
156.2230574616872
 30
0.0
 10
132.670648461272
 20
156.2229603753591
 30
0.0
 10
132.3461122562402
 20
156.2357484605201
 30
0.0
 10
131.7008428068238
 20
156.2872386501161
 30
0.0
 10
131.3850998006611
 20
156.3257632294361
 30
0.0
 10
130.7832105056774
 20
156.4246657922942
 30
0.0
 10
130.4924612748659
 20
156.4857698902192
 30
0.0
 10
129.9455494831814
 20
156.6275793233299
 30
0.0
 10
129.6937721193445
 20
156.7069138079091
 30
0.0
 10
129.2323841267234
 20
156.8802925525706
 30
0.0
 10
129.0211148471253
 20
156.9754524973246
 30
0.0
 10
128.6578104947491
 20
157.1720250207005
 30
0.0
 10
128.5040038463063
 20
157.2737812491069
 30
0.0
 10
128.3153843767089
 20
157.4305672118924
 30
0.0
 10
128.2593538904998
 20
157.4838212456423
 30
0.0
 10
128.1637801287636
 20
157.5896258071951
 30
0.0
 10
128.1240172117386
 20
157.6422788715507
 30
0.0
 10
128.0282454614265
 20
157.7993525910099
 30
0.0
 10
127.9955226223004
 20
157.902877626337
 30
0.0
 10
127.9948940359713
 20
158.1070923605641
 30
0.0
 10
128.0270801807061
 20
158.2045961981489
 30
0.0
 10
128.1219908825616
 20
158.3439232485005
 30
0.0
 10
128.1614576659606
 20
158.389239980005
 30
0.0
 10
128.2563876646815
 20
158.4776798009938
 30
0.0
 10
128.3121444924449
 20
158.5209340514538
 30
0.0
 10
128.5000846104148
 20
158.6448255260437
 30
0.0
 10
128.6534460801309
 20
158.7205278168178
 30
0.0
 10
129.0157103150113
 20
158.859782188276
 30
0.0
 10
129.2265587884772
 20
158.9235440298047
 30
0.0
 10
129.6872287587961
 20
159.0350408692725
 30
0.0
 10
129.93860313838
 20
159.0835669415891
 30
0.0
 10
130.4845110252781
 20
159.1676209249696
 30
0.0
 10
130.7753335999293
 20
159.2024194786364
 30
0.0
 10
131.3766602147093
 20
159.2576159434002
 30
0.0
 10
131.6911787993217
 20
159.2784337921541
 30
0.0
 10
132.3377602554417
 20
159.3062811250648
 30
0.0
 10
132.6646607532037
 20
159.3131787256005
 30
0.0
 10
133.3257513787563
 20
159.3131787256005
 30
0.0
  0
LINE
  5
CA
330
1F
100
AcDbEntity
  8
0
  6
HIDDEN
 62
     7
370
     0
100
AcDbLine
 10
140.7331770451
 20
149.40459223
 30
0.0
 11
140.7331770451
 21
141.8036294691
 31
0.0
  0
LINE
  5
CB
330
1F
100
AcDbEntity
  8
0
  6
HIDDEN
 62
     7
370
     0
100
AcDbLine
 10
104.4086308154
 20
73.7178231068
 30
0.0
 11
104.1386751146
 21
73.6938970076
 31
0.0
  0
SPLINE
  5
CC
330
1F
100
AcDbEntity
  8
0
  6
HIDDEN
 62
     7
370
     0
100
AcDbSpline
210
0.0
220
0.0
230
1.0
 70
     8
 71
     3
 72
    12
 73
     8
 74
     0
 42
0.00000001
 43
0.00000001
 40
0.0
 40
0.0
 40
0.0
 40
0.0
 40
0.1661348616735903
 40
0.3322013257393936
 40
0.5008932044678248
 40
0.752137078264078
 40
1.0
 40
1.0
 40
1.0
 40
1.0
 10
102.5145277316272
 20
147.384933492188
 30
0.0
 10
102.5249203557352
 20
147.3835553681266
 30
0.0
 10
102.5457013253152
 20
147.3807996873765
 30
0.0
 10
102.7190008147621
 20
147.3591963124144
 30
0.0
 10
103.0409524040058
 20
147.3213313604726
 30
0.0
 10
103.5621182399252
 20
147.2609475937564
 30
0.0
 10
104.1276761797629
 20
147.213154456607
 30
0.0
 10
104.4085396034509
 20
147.1894197635136
 30
0.0
  0
SPLINE
  5
CD
330
1F
100
AcDbEntity
  8
0
  6
HIDDEN
 62
     7
370
     0
100
AcDbSpline
210
0.0
220
0.0
230
1.0
 70
     8
 71
     3
 72
    11
 73
     7
 74
     0
 42
0.00000001
 43
0.00000001
 40
0.0
 40
0.0
 40
0.0
 40
0.0
 40
0.325651243182229
 40
0.6607839150664075
 40
0.9864854556989321
 40
1.0
 40
1.0
 40
1.0
 40
1.0
 10
114.248411721171
 20
141.8199516898696
 30
0.0
 10
114.3942925243822
 20
141.8432171427119
 30
0.0
 10
114.690301491942
 20
141.890425428683
 30
0.0
 10
114.919462357658
 20
141.920520577309
 30
0.0
 10
115.0207265304591
 20
141.9336958903411
 30
0.0
 10
114.9929928173211
 20
141.9300811276117
 30
0.0
 10
114.9918878918429
 20
141.9299371135947
 30
0.0
  0
SPLINE
  5
CE
330
1F
100
AcDbEntity
  8
0
  6
HIDDEN
 62
     7
370
     0
100
AcDbSpline
210
0.0
220
0.0
230
1.0
 70
     8
 71
     3
 72
    13
 73
     9
 74
     0
 42
0.00000001
 43
0.00000001
 40
0.0
 40
0.0
 40
0.0
 40
0.0
 40
0.1540205077997773
 40
0.3222964108251806
 40
0.4885651220318663
 40
0.6560430335031743
 40
0.8273545500239584
 40
0.9999999999999999
 40
0.9999999999999999
 40
0.9999999999999999
 40
0.9999999999999999
 10
114.9744391782464
 20
78.97956473221477
 30
0.0
 10
114.9796247462051
 20
78.97889291612483
 30
0.0
 10
114.990475833278
 20
78.97748710388845
 30
0.0
 10
114.9211345664515
 20
78.98647397453406
 30
0.0
 10
114.8210171398629
 20
78.99988808579388
 30
0.0
 10
114.6744893616863
 20
79.02052863547596
 30
0.0
 10
114.4882754665309
 20
79.0480940960353
 30
0.0
 10
114.3285727559051
 20
79.07420244647193
 30
0.0
 10
114.248411721171
 20
79.08730724837542
 30
0.0
  0
SPLINE
  5
CF
330
1F
100
AcDbEntity
  8
0
  6
HIDDEN
 62
     7
370
     0
100
AcDbSpline
210
0.0
220
0.0
230
1.0
 70
     8
 71
     3
 72
    33
 73
    29
 74
     0
 42
0.00000001
 43
0.00000001
 40
0.0
 40
0.0
 40
0.0
 40
0.0
 40
0.0315773698875104
 40
0.0633753287769057
 40
0.0958656851178231
 40
0.1285943208117605
 40
0.1601713694082662
 40
0.2244011681247345
 40
0.2571344568799636
 40
0.2885965627565487
 40
0.3526214070085076
 40
0.3852675959519929
 40
0.4162212184009612
 40
0.4791910353915302
 40
0.5112817741273479
 40
0.5421256322990662
 40
0.6048360558905652
 40
0.6367710793564881
 40
0.6680663384719832
 40
0.7316979547407203
 40
0.7641081282919966
 40
0.7957194290717577
 40
0.8275524266255816
 40
0.8600900250720824
 40
0.8928737620729298
 40
0.9241775068323748
 40
0.9878778414776339
 40
1.0
 40
1.0
 40
1.0
 40
1.0
 10
114.248411721171
 20
79.08730724837542
 30
0.0
 10
114.1645405741658
 20
79.10118098675716
 30
0.0
 10
113.9962123842218
 20
79.12902538084191
 30
0.0
 10
113.6968577878803
 20
79.17545802107232
 30
0.0
 10
113.3628583206215
 20
79.22407062309314
 30
0.0
 10
112.9970883587342
 20
79.27321855628037
 30
0.0
 10
112.4737084440453
 20
79.33728434187302
 30
0.0
 10
111.8972812354507
 20
79.39706585627813
 30
0.0
 10
111.2821440885992
 20
79.44706546374219
 30
0.0
 10
110.6458283625163
 20
79.4892054564256
 30
0.0
 10
109.9820478250776
 20
79.51784018116363
 30
0.0
 10
109.3099820734945
 20
79.53009963224723
 30
0.0
 10
108.6405334900627
 20
79.53142892335552
 30
0.0
 10
107.9753489229488
 20
79.51656840044606
 30
0.0
 10
107.3290576840583
 20
79.48671043605688
 30
0.0
 10
106.6998677331999
 20
79.4479672079956
 30
0.0
 10
106.1001520410206
 20
79.39738897423574
 30
0.0
 10
105.5418524748988
 20
79.33898895976921
 30
0.0
 10
105.0116576045112
 20
79.27666572839968
 30
0.0
 10
104.5324909021997
 20
79.21125715386412
 30
0.0
 10
104.1175729170048
 20
79.14846825025816
 30
0.0
 10
103.8403005330788
 20
79.10396365143677
 30
0.0
 10
103.5987452475176
 20
79.0632547020018
 30
0.0
 10
103.3932532431692
 20
79.02719757135232
 30
0.0
 10
103.2290888194249
 20
78.99744054639996
 30
0.0
 10
103.0696548728596
 20
78.96785523297555
 30
0.0
 10
102.991416644911
 20
78.9529059539707
 30
0.0
 10
102.9991414352559
 20
78.95437837657191
 30
0.0
 10
103.0003764399253
 20
78.95461378086208
 30
0.0
  0
SPLINE
  5
D0
330
1F
100
AcDbEntity
  8
0
  6
HIDDEN
 62
     7
370
     0
100
AcDbSpline
210
0.0
220
0.0
230
1.0
 70
     8
 71
     3
 72
    24
 73
    20
 74
     0
 42
0.00000001
 43
0.00000001
 40
0.0
 40
0.0
 40
0.0
 40
0.0
 40
0.0203729619474678
 40
0.0822870750602629
 40
0.1459896397253447
 40
0.2080895879354084
 40
0.2719360348739573
 40
0.3350079792507124
 40
0.3998886074506655
 40
0.4632504589199175
 40
0.5284999352472107
 40
0.5909722114153436
 40
0.6552989095534106
 40
0.7170937383192271
 40
0.7806505850197497
 40
0.8430286835696731
 40
0.9071616706581624
 40
0.9532355028060499
 40
1.0
 40
1.0
 40
1.0
 40
1.0
 10
103.0141231803318
 20
141.9500351694904
 30
0.0
 10
103.008744736436
 20
141.9510567442614
 30
0.0
 10
102.9870210215581
 20
141.955182918947
 30
0.0
 10
103.1192944912666
 20
141.9299923072098
 30
0.0
 10
103.4052174737477
 20
141.8774248402412
 30
0.0
 10
103.8599873167257
 20
141.7990029016322
 30
0.0
 10
104.4505923698752
 20
141.7068185448206
 30
0.0
 10
105.1777214601764
 20
141.6084337780641
 30
0.0
 10
106.0112258049198
 20
141.5163955750274
 30
0.0
 10
106.9406759691099
 20
141.4401535625055
 30
0.0
 10
107.9190562734681
 20
141.3902403802124
 30
0.0
 10
108.9334682028499
 20
141.3714763821182
 30
0.0
 10
109.9319137639817
 20
141.3858062394618
 30
0.0
 10
110.9085239906429
 20
141.4312609670993
 30
0.0
 10
111.8217210072497
 20
141.5016856352459
 30
0.0
 10
112.6671277383756
 20
141.5908200320245
 30
0.0
 10
113.3401251838219
 20
141.6788776313052
 30
0.0
 10
113.8702196774851
 20
141.7577414739845
 30
0.0
 10
114.1217240229016
 20
141.7991123591885
 30
0.0
 10
114.248411721171
 20
141.8199516898696
 30
0.0
  0
LINE
  5
D1
330
1F
100
AcDbEntity
  8
0
  6
HIDDEN
 62
     7
370
     0
100
AcDbLine
 10
93.991830393
 20
83.9536294691
 30
0.0
 11
93.991830393
 21
136.9536294691
 31
0.0
  0
LINE
  5
D2
330
1F
100
AcDbEntity
  8
0
  6
HIDDEN
 62
     7
370
     0
100
AcDbLine
 10
133.2792836843
 20
83.9536294691
 30
0.0
 11
133.2792836843
 21
136.9536294691
 31
0.0
  0
LINE
  5
D3
330
1F
100
AcDbEntity
  8
0
  6
HIDDEN
 62
     7
370
     0
100
AcDbLine
 10
136.445206066
 20
85.5786294691
 30
0.0
 11
136.445206066
 21
135.3286294407
 31
0.0
  0
SPLINE
  5
D4
330
1F
100
AcDbEntity
  8
0
  6
HIDDEN
 62
     7
370
     0
100
AcDbSpline
210
0.0
220
0.0
230
1.0
 70
     8
 71
     3
 72
    20
 73
    16
 74
     0
 42
0.00000001
 43
0.00000001
 40
0.0
 40
0.0
 40
0.0
 40
0.0
 40
0.2499999999999978
 40
0.2499999999999978
 40
0.3749999999999982
 40
0.3749999999999982
 40
0.4999999999999986
 40
0.4999999999999986
 40
0.6249999999999989
 40
0.6249999999999989
 40
0.7499999999999992
 40
0.7499999999999992
 40
0.8749999999999997
 40
0.8749999999999997
 40
1.0
 40
1.0
 40
1.0
 40
1.0
 10
84.19520606597996
 20
135.6821430995368
 30
0.0
 10
84.19520606597996
 20
135.6029401130045
 30
0.0
 10
84.14822357076723
 20
135.5218438946016
 30
0.0
 10
84.01040197998965
 20
135.4016472028507
 30
0.0
 10
83.95411969607967
 20
135.3627204988486
 30
0.0
 10
83.82103484461246
 20
135.2875317664242
 30
0.0
 10
83.74319490237939
 20
135.2508895610822
 30
0.0
 10
83.57056254626505
 20
135.1832990282504
 30
0.0
 10
83.47616954917397
 20
135.1523408464748
 30
0.0
 10
83.27073224285883
 20
135.0968164251051
 30
0.0
 10
83.15838600287165
 20
135.0721079112718
 30
0.0
 10
82.926145138972
 20
135.0323116841636
 30
0.0
 10
82.80543449654928
 20
135.0168918467666
 30
0.0
 10
82.55436363728026
 20
134.995811871927
 30
0.0
 10
82.42484164086447
 20
134.990334626906
 30
0.0
 10
82.29520606597998
 20
134.990334626906
 30
0.0
  0
LINE
  5
D5
330
1F
100
AcDbEntity
  8
0
  6
HIDDEN
 62
     7
370
     0
100
AcDbLine
 10
82.295206066
 20
134.9903346269
 30
0.0
 11
75.745206066
 21
134.9903346269
 31
0.0
  0
LINE
  5
D6
330
1F
100
AcDbEntity
  8
0
  6
HIDDEN
 62
     7
370
     0
100
AcDbLine
 10
75.745206066
 20
85.9169243113
 30
0.0
 11
87.295206066
 21
85.9169243113
 31
0.0
  0
SPLINE
  5
D7
330
1F
100
AcDbEntity
  8
0
  6
HIDDEN
 62
     7
370
     0
100
AcDbSpline
210
0.0
220
0.0
230
1.0
 70
     8
 71
     3
 72
    18
 73
    14
 74
     0
 42
0.00000001
 43
0.00000001
 40
0.0
 40
0.0
 40
0.0
 40
0.0
 40
0.1249999999999982
 40
0.1249999999999982
 40
0.2499999999999964
 40
0.2499999999999964
 40
0.4999999999999988
 40
0.4999999999999988
 40
0.7500000000000011
 40
0.7500000000000011
 40
0.8750000000000006
 40
0.8750000000000006
 40
1.0
 40
1.0
 40
1.0
 40
1.0
 10
87.29520606597995
 20
85.91692431133899
 30
0.0
 10
87.4246733789372
 20
85.91692431133897
 30
0.0
 10
87.55168412783382
 20
85.91157131274633
 30
0.0
 10
87.80104744903107
 20
85.89083334005755
 30
0.0
 10
87.9246711036595
 20
85.87516143580326
 30
0.0
 10
88.27370344059354
 20
85.81546670740117
 30
0.0
 10
88.48421520540035
 20
85.75770152772019
 30
0.0
 10
88.82813188309984
 20
85.62317968644268
 30
0.0
 10
88.96448228461767
 20
85.54551057293729
 30
0.0
 10
89.1015203411802
 20
85.42621943884996
 30
0.0
 10
89.13673935989311
 20
85.3853004297149
 30
0.0
 10
89.18336293683166
 20
85.30464443642487
 30
0.0
 10
89.19520606597999
 20
85.26467591623202
 30
0.0
 10
89.19520606597997
 20
85.22511583870819
 30
0.0
  0
LINE
  5
D8
330
1F
100
AcDbEntity
  8
0
  6
HIDDEN
 62
     7
370
     0
100
AcDbLine
 10
75.745206066
 20
85.9169243113
 30
0.0
 11
75.745206066
 21
134.9903346269
 31
0.0
  0
LWPOLYLINE
  5
D9
330
1F
100
AcDbEntity
  8
0
  6
HIDDEN
 62
     7
370
     0
100
AcDbPolyline
 90
       14
 70
   128
 43
0.0
 10
132.995206066
 20
150.3973600324
 10
134.0347645201
 20
150.44180089
 10
135.0288892814
 20
150.5731811841
 10
135.9341323274
 20
150.7857589654
 10
136.7109301934
 20
151.0702435648
 10
137.3253330849
 20
151.4142016401
 10
137.7504886475
 20
151.8026005731
 10
137.9678155428
 20
152.2184654665
 10
137.9678155428
 20
152.6436210291
 10
137.7504886475
 20
153.0594859225
 10
137.3253330849
 20
153.4478848555
 10
136.7109301934
 20
153.7918429308
 10
135.9341323274
 20
154.0763275302
 10
135.3665401606
 20
154.2214596332
  0
LWPOLYLINE
  5
DA
330
1F
100
AcDbEntity
  8
0
  6
HIDDEN
 62
     7
370
     0
100
AcDbPolyline
 90
       14
 70
   128
 43
0.0
 10
130.5600787384
 20
154.2072372952
 10
130.0562798045
 20
154.0763275302
 10
129.2794819386
 20
153.7918429308
 10
128.6650790471
 20
153.4478848555
 10
128.2399234845
 20
153.0594859225
 10
128.0225965891
 20
152.6436210291
 10
128.0225965891
 20
152.2184654665
 10
128.2399234845
 20
151.8026005731
 10
128.6650790471
 20
151.4142016401
 10
129.2794819386
 20
151.0702435648
 10
130.0562798045
 20
150.7857589654
 10
130.9615228506
 20
150.5731811841
 10
131.9556476119
 20
150.44180089
 10
132.995206066
 20
150.3973600324
  0
LINE
  5
DB
330
1F
100
AcDbEntity
  8
0
  6
HIDDEN
 62
     7
370
     0
100
AcDbLine
 10
75.745206066
 20
83.0836294691
 30
0.0
 11
75.745206066
 21
78.2053442673
 31
0.0
  0
LINE
  5
DC
330
1F
100
AcDbEntity
  8
0
  6
HIDDEN
 62
     7
370
     0
100
AcDbLine
 10
89.195206066
 20
83.0836294691
 30
0.0
 11
89.195206066
 21
76.5842962038
 31
0.0
  0
LINE
  5
DD
330
1F
100
AcDbEntity
  8
0
  6
HIDDEN
 62
     7
370
     0
100
AcDbLine
 10
84.195206066
 20
137.8236294691
 30
0.0
 11
84.195206066
 21
144.1982382061
 31
0.0
  0
LINE
  5
DE
330
1F
100
AcDbEntity
  8
0
  6
HIDDEN
 62
     7
370
     0
100
AcDbLine
 10
75.745206066
 20
137.8236294691
 30
0.0
 11
75.745206066
 21
142.7019146709
 31
0.0
  0
SPLINE
  5
DF
330
1F
100
AcDbEntity
  8
0
  6
HIDDEN
 62
     7
370
     0
100
AcDbSpline
210
0.0
220
0.0
230
1.0
 70
     8
 71
     3
 72
    12
 73
     8
 74
     0
 42
0.00000001
 43
0.00000001
 40
0.0
 40
0.0
 40
0.0
 40
0.0
 40
0.1073605010756472
 40
0.3941450068455369
 40
0.7057759084906183
 40
0.8617177385321522
 40
1.0
 40
1.0
 40
1.0
 40
1.0
 10
223.99520606598
 20
98.85418170931548
 30
0.0
 10
223.9944773445918
 20
98.81286237985663
 30
0.0
 10
223.9918020413505
 20
98.66116965088048
 30
0.0
 10
223.960151668755
 20
98.43183005298694
 30
0.0
 10
223.922605028311
 20
98.27325970361653
 30
0.0
 10
223.9042711718672
 20
98.20687443675072
 30
0.0
 10
223.9031694776322
 20
98.20306945293588
 30
0.0
 10
223.9026516928054
 20
98.20128115013556
 30
0.0
  0
LINE
  5
E0
330
1F
100
AcDbEntity
  8
0
  6
HIDDEN
 62
     7
370
     0
100
AcDbLine
 10
148.295206066
 20
97.4536294691
 30
0.0
 11
148.295206066
 21
123.4536294691
 31
0.0
  0
LINE
  5
E1
330
1F
100
AcDbEntity
  8
0
  6
HIDDEN
 62
     7
370
     0
100
AcDbLine
 10
152.295206066
 20
97.4536294691
 30
0.0
 11
152.295206066
 21
123.4536294691
 31
0.0
  0
LINE
  5
E2
330
1F
100
AcDbEntity
  8
0
  6
HIDDEN
 62
     7
370
     0
100
AcDbLine
 10
137.195206066
 20
99.2036294691
 30
0.0
 11
137.195206066
 21
121.7036294691
 31
0.0
  0
ELLIPSE
  5
E3
330
1F
100
AcDbEntity
  8
0
  6
HIDDEN
 62
     7
370
     0
100
AcDbEllipse
 10
67.8105328657
 20
110.4536294691
 30
0.0
 11
31.0810857081166
 21
1.421085471520200E-14
 31
0.0
210
0.0
220
0.0
230
1.0
 40
0.8164965809
 41
1.312649268214811
 42
1.367189972061496
  0
ELLIPSE
  5
E4
330
1F
100
AcDbEntity
  8
0
  6
HIDDEN
 62
     7
370
     0
100
AcDbEllipse
 10
67.8105328657
 20
110.4536294691
 30
0.0
 11
31.0810857081166
 21
-1.421085471520200E-14
 31
0.0
210
0.0
220
0.0
230
1.0
 40
0.8164965809
 41
4.915995335118103
 42
4.970536038964788
  0
LINE
  5
E5
330
1F
100
AcDbEntity
  8
0
  6
HIDDEN
 62
     7
370
     0
100
AcDbLine
 10
152.945206066
 20
66.5536294691
 30
0.0
 11
138.945206066
 21
66.5536294691
 31
0.0
  0
LINE
  5
E6
330
1F
100
AcDbEntity
  8
0
  6
HIDDEN
 62
     7
370
     0
100
AcDbLine
 10
128.945206066
 20
60.4636304693
 30
0.0
 11
128.945206066
 21
66.5536294691
 31
0.0
  0
LINE
  5
E7
330
1F
100
AcDbEntity
  8
0
  6
HIDDEN
 62
     7
370
     0
100
AcDbLine
 10
138.945206066
 20
66.5536294691
 30
0.0
 11
128.945206066
 21
66.5536294691
 31
0.0
  0
LINE
  5
E8
330
1F
100
AcDbEntity
  8
0
  6
HIDDEN
 62
     7
370
     0
100
AcDbLine
 10
89.195206066
 20
83.0836294691
 30
0.0
 11
89.195206066
 21
85.2251158387
 31
0.0
  0
LINE
  5
E9
330
1F
100
AcDbEntity
  8
0
  6
HIDDEN
 62
     7
370
     0
100
AcDbLine
 10
75.745206066
 20
83.0836294691
 30
0.0
 11
75.745206066
 21
85.9169243113
 31
0.0
  0
LINE
  5
EA
330
1F
100
AcDbEntity
  8
0
  6
HIDDEN
 62
     7
370
     0
100
AcDbLine
 10
84.195206066
 20
137.8236294691
 30
0.0
 11
84.195206066
 21
135.6821430995
 31
0.0
  0
LINE
  5
EB
330
1F
100
AcDbEntity
  8
0
  6
HIDDEN
 62
     7
370
     0
100
AcDbLine
 10
75.745206066
 20
137.8236294691
 30
0.0
 11
75.745206066
 21
134.9903346269
 31
0.0
  0
LINE
  5
EC
330
1F
100
AcDbEntity
  8
0
  6
HIDDEN
 62
     7
370
     0
100
AcDbLine
 10
138.945206066
 20
154.3536294691
 30
0.0
 11
128.945206066
 21
154.3536294691
 31
0.0
  0
LINE
  5
ED
330
1F
100
AcDbEntity
  8
0
  6
HIDDEN
 62
     7
370
     0
100
AcDbLine
 10
152.945206066
 20
154.3536294691
 30
0.0
 11
138.945206066
 21
154.3536294691
 31
0.0
  0
LINE
  5
EE
330
1F
100
AcDbEntity
  8
0
  6
HIDDEN
 62
     7
370
     0
100
AcDbLine
 10
220.495206066
 20
102.4536294691
 30
0.0
 11
220.495206066
 21
118.4536294691
 31
0.0
  0
SPLINE
  5
EF
330
1F
100
AcDbEntity
  8
0
  6
HIDDEN
 62
     7
370
     0
100
AcDbSpline
210
0.0
220
0.0
230
1.0
 70
     8
 71
     3
 72
    17
 73
    13
 74
     0
 42
0.00000001
 43
0.00000001
 40
0.0
 40
0.0
 40
0.0
 40
0.0
 40
0.1046541973392221
 40
0.2123747458021454
 40
0.3170201632568017
 40
0.4246419815463974
 40
0.5303635483484311
 40
0.6391062491879579
 40
0.7455195256377064
 40
0.8550829026357679
 40
0.9603326369105993
 40
1.0
 40
1.0
 40
1.0
 40
1.0
 10
176.49520606598
 20
118.6169621219059
 30
0.0
 10
176.5775702887198
 20
118.6176899684373
 30
0.0
 10
176.744711992658
 20
118.6191669872861
 30
0.0
 10
176.9871688251513
 20
118.6307192029293
 30
0.0
 10
177.2177203618939
 20
118.6478689466265
 30
0.0
 10
177.4266504238364
 20
118.6691539436664
 30
0.0
 10
177.6119818148385
 20
118.6924234383915
 30
0.0
 10
177.765144256214
 20
118.7147854135848
 30
0.0
 10
177.8847115075275
 20
118.7341898745876
 30
0.0
 10
177.9607736456511
 20
118.7474118035803
 30
0.0
 10
177.9963960754402
 20
118.7538435559582
 30
0.0
 10
177.9914882275433
 20
118.7529588970427
 30
0.0
 10
177.9901448292276
 20
118.7527167442046
 30
0.0
  0
LINE
  5
F0
330
1F
100
AcDbEntity
  8
0
  6
HIDDEN
 62
     7
370
     0
100
AcDbLine
 10
176.5864195464
 20
118.6183358623
 30
0.0
 11
176.4704108989
 21
118.6175153637
 31
0.0
  0
SPLINE
  5
F1
330
1F
100
AcDbEntity
  8
0
  6
HIDDEN
 62
     7
370
     0
100
AcDbSpline
210
0.0
220
0.0
230
1.0
 70
     8
 71
     3
 72
    16
 73
    12
 74
     0
 42
0.00000001
 43
0.00000001
 40
0.0
 40
0.0
 40
0.0
 40
0.0
 40
0.0949220059651353
 40
0.2023359984188384
 40
0.3065979822133498
 40
0.4138066660735888
 40
0.5194636518291714
 40
0.6281339182912737
 40
0.7345954131155373
 40
0.8442032371576628
 40
0.9999999999999999
 40
0.9999999999999999
 40
0.9999999999999999
 40
0.9999999999999999
 10
174.9968693562453
 20
118.7533303500781
 30
0.0
 10
174.9994329034935
 20
118.7528635072071
 30
0.0
 10
175.0048973675731
 20
118.7518683837112
 30
0.0
 10
175.0638228102468
 20
118.7413829947331
 30
0.0
 10
175.1609311073198
 20
118.7250305457979
 30
0.0
 10
175.2950072758861
 20
118.7042606849442
 30
0.0
 10
175.464081121158
 20
118.6811618097062
 30
0.0
 10
175.6618733703961
 20
118.6584526659968
 30
0.0
 10
175.8860629349585
 20
118.6386703348923
 30
0.0
 10
176.1632209732656
 20
118.6212822973381
 30
0.0
 10
176.372409206971
 20
118.6185600971918
 30
0.0
 10
176.49520606598
 20
118.6169621219059
 30
0.0
  0
SPLINE
  5
F2
330
1F
100
AcDbEntity
  8
0
  6
HIDDEN
 62
     7
370
     0
100
AcDbSpline
210
0.0
220
0.0
230
1.0
 70
     8
 71
     3
 72
    38
 73
    34
 74
     0
 42
0.00000001
 43
0.00000001
 40
0.0
 40
0.0
 40
0.0
 40
0.0
 40
0.0260846842642819
 40
0.0523528118399894
 40
0.0791978112896103
 40
0.1062411333090346
 40
0.1323253507907425
 40
0.1853661583804832
 40
0.2123818799842191
 40
0.2387254603690913
 40
0.2922942340381161
 40
0.3195826940015787
 40
0.3461034267219877
 40
0.3728106816256438
 40
0.4001107671821802
 40
0.4276178611709401
 40
0.4538485545196499
 40
0.5072221216573353
 40
0.5344318489031501
 40
0.5603565896039031
 40
0.613080356495542
 40
0.6399389707507988
 40
0.6660185957121114
 40
0.7190411070475204
 40
0.7460430716371436
 40
0.7724947906407068
 40
0.8262928625727298
 40
0.8537050699251758
 40
0.8801714888916216
 40
0.934025145173722
 40
0.9614820674997198
 40
0.9875874915050701
 40
1.0
 40
1.0
 40
1.0
 40
1.0
 10
177.99520606598
 20
102.1536294691225
 30
0.0
 10
177.9942322029998
 20
102.1538057547212
 30
0.0
 10
177.9922776282446
 20
102.1541595656657
 30
0.0
 10
177.9763452010704
 20
102.1570254955597
 30
0.0
 10
177.9505802508402
 20
102.1615968037349
 30
0.0
 10
177.9143544273017
 20
102.1678925871852
 30
0.0
 10
177.8532466564027
 20
102.1782151413102
 30
0.0
 10
177.7730625243481
 20
102.1911133241716
 30
0.0
 10
177.6753806439451
 20
102.2055482850961
 30
0.0
 10
177.5662600160526
 20
102.2206646663051
 30
0.0
 10
177.441194918895
 20
102.2361511397073
 30
0.0
 10
177.3031206030344
 20
102.2506447037609
 30
0.0
 10
177.1937738411931
 20
102.2607106317332
 30
0.0
 10
177.0794310846408
 20
102.2696963971662
 30
0.0
 10
176.9593722407948
 20
102.2774188526625
 30
0.0
 10
176.8365223703751
 20
102.2834750199339
 30
0.0
 10
176.6709085913524
 20
102.289139920442
 30
0.0
 10
176.5022349614972
 20
102.2910632340723
 30
0.0
 10
176.3348880869165
 20
102.2890391589533
 30
0.0
 10
176.170117211961
 20
102.2845369089741
 30
0.0
 10
176.0095835740293
 20
102.2765126639339
 30
0.0
 10
175.8565419436192
 20
102.265608434481
 30
0.0
 10
175.70904881908
 20
102.2530847668456
 30
0.0
 10
175.5715458676088
 20
102.2386389142385
 30
0.0
 10
175.4472075209106
 20
102.2234622407422
 30
0.0
 10
175.3317789484158
 20
102.2081329448401
 30
0.0
 10
175.2317524280473
 20
102.1932947255516
 30
0.0
 10
175.1502288718982
 20
102.1803024903631
 30
0.0
 10
175.0815237781021
 20
102.1688979377567
 30
0.0
 10
175.0318325828626
 20
102.1601946036871
 30
0.0
 10
175.0056004663386
 20
102.1555066142425
 30
0.0
 10
174.9938673529485
 20
102.1533887918256
 30
0.0
 10
174.9977194558446
 20
102.1540823948749
 30
0.0
 10
174.9989608064784
 20
102.1543059103437
 30
0.0
  0
LINE
  5
F3
330
1F
100
AcDbEntity
  8
0
  6
HIDDEN
 62
     7
370
     0
100
AcDbLine
 10
174.495206066
 20
102.5536294691
 30
0.0
 11
174.495206066
 21
118.3536294691
 31
0.0
  0
LINE
  5
F4
330
1F
100
AcDbEntity
  8
0
  6
HIDDEN
 62
     7
370
     0
100
AcDbLine
 10
184.995206066
 20
102.4536294691
 30
0.0
 11
184.995206066
 21
118.4536294691
 31
0.0
  0
SPLINE
  5
F5
330
1F
100
AcDbEntity
  8
0
  6
HIDDEN
 62
     7
370
     0
100
AcDbSpline
210
0.0
220
0.0
230
1.0
 70
     8
 71
     3
 72
    30
 73
    26
 74
     0
 42
0.00000001
 43
0.00000001
 40
0.0
 40
0.0
 40
0.0
 40
0.0
 40
0.0531240661071964
 40
0.1125059855088366
 40
0.177904474645584
 40
0.2129291970155396
 40
0.249482990573407
 40
0.2912495984984925
 40
0.3260925829404584
 40
0.3540082314511498
 40
0.3749938967430113
 40
0.4414527730220408
 40
0.5001714431668567
 40
0.5546871400465488
 40
0.6144324316221768
 40
0.6794589548061833
 40
0.7140165850700969
 40
0.7499142142011653
 40
0.7913794768199842
 40
0.8260470471051382
 40
0.8539131411739312
 40
0.8749749068735888
 40
0.9411625805401567
 40
0.9999141552911154
 40
1.0
 40
1.0
 40
1.0
 40
1.0
 10
114.9947120417817
 20
73.35371206580133
 30
0.0
 10
114.9785194042884
 20
73.35861122203616
 30
0.0
 10
114.9442266858904
 20
73.36898664019876
 30
0.0
 10
114.6429328957309
 20
73.44463437792129
 30
0.0
 10
114.2007671187164
 20
73.54091995466314
 30
0.0
 10
113.7059339915347
 20
73.64058489363691
 30
0.0
 10
113.2354584058326
 20
73.73286301504953
 30
0.0
 10
112.7045369563122
 20
73.8284950552192
 30
0.0
 10
112.1663864597532
 20
73.91414529662647
 30
0.0
 10
111.7083391244335
 20
73.98143708995332
 30
0.0
 10
111.0527748035651
 20
74.06978525884985
 30
0.0
 10
110.1694683654242
 20
74.16644334314238
 30
0.0
 10
109.0408066327529
 20
74.2532185198925
 30
0.0
 10
107.9510448829973
 20
74.29129721760854
 30
0.0
 10
106.8550166045697
 20
74.29314765237113
 30
0.0
 10
105.9496253576252
 20
74.26698619678632
 30
0.0
 10
105.2533226472102
 20
74.23037897165733
 30
0.0
 10
104.7266429189351
 20
74.19136209618031
 30
0.0
 10
104.2599968039025
 20
74.14915296870836
 30
0.0
 10
103.8887815281787
 20
74.112148879139
 30
0.0
 10
103.6347350509366
 20
74.08344811869463
 30
0.0
 10
103.3336798982273
 20
74.04706816810489
 30
0.0
 10
103.078196103423
 20
74.01428800111694
 30
0.0
 10
102.9789753784785
 20
73.99795011641194
 30
0.0
 10
102.9952559357606
 20
74.00054370258263
 30
0.0
 10
102.9952796893465
 20
74.00054748666514
 30
0.0
  0
SPLINE
  5
F6
330
1F
100
AcDbEntity
  8
0
  6
HIDDEN
 62
     7
370
     0
100
AcDbSpline
210
0.0
220
0.0
230
1.0
 70
     8
 71
     3
 72
    30
 73
    26
 74
     0
 42
0.00000001
 43
0.00000001
 40
0.0
 40
0.0
 40
0.0
 40
0.0
 40
0.0001200787205626
 40
0.0285506448201812
 40
0.0588539742837629
 40
0.0910342417036386
 40
0.1250948722596368
 40
0.1546831660699597
 40
0.1963616849249903
 40
0.2501159618645227
 40
0.3205306537003164
 40
0.3856151920263974
 40
0.4454081594448814
 40
0.4999610449563144
 40
0.5283530945131919
 40
0.5586374479616575
 40
0.59082176797678
 40
0.6249123787043468
 40
0.6541871379274442
 40
0.6958653651642315
 40
0.7499326674512932
 40
0.8215919113829674
 40
0.8871431657074843
 40
0.9466382884851907
 40
1.0
 40
1.0
 40
1.0
 40
1.0
 10
102.9953079696762
 20
146.9066397447804
 30
0.0
 10
102.9952739032138
 20
146.9066471729398
 30
0.0
 10
102.9871740545053
 20
146.9084133371533
 30
0.0
 10
103.0158333944671
 20
146.9029588856264
 30
0.0
 10
103.0892227674756
 20
146.892415531575
 30
0.0
 10
103.2328785689656
 20
146.8727304727256
 30
0.0
 10
103.4339144763853
 20
146.8478911672684
 30
0.0
 10
103.7165449723463
 20
146.8136827128193
 30
0.0
 10
104.1299541179604
 20
146.7700028120408
 30
0.0
 10
104.8062416111175
 20
146.7069597461168
 30
0.0
 10
105.7446725149521
 20
146.6456625750988
 30
0.0
 10
106.8541657276719
 20
146.614374131754
 30
0.0
 10
107.9516464585446
 20
146.6160292993137
 30
0.0
 10
108.8516776969621
 20
146.647335501419
 30
0.0
 10
109.5630186228183
 20
146.6941686502204
 30
0.0
 10
110.1284355238079
 20
146.7413355121166
 30
0.0
 10
110.7173589466366
 20
146.8007745186665
 30
0.0
 10
111.281768599114
 20
146.8671317252745
 30
0.0
 10
111.8759647930502
 20
146.9490511317061
 30
0.0
 10
112.5425729540207
 20
147.0506991144565
 30
0.0
 10
113.3439056997209
 20
147.1928380250568
 30
0.0
 10
114.0964156842289
 20
147.3440825958232
 30
0.0
 10
114.641702179195
 20
147.4619334690826
 30
0.0
 10
114.9444237106939
 20
147.5381627008318
 30
0.0
 10
114.9787141613069
 20
147.5486150103264
 30
0.0
 10
114.9949275979569
 20
147.5535571401265
 30
0.0
  0
LINE
  5
F7
330
1F
100
AcDbEntity
  8
0
  6
HIDDEN
 62
     7
370
     0
100
AcDbLine
 10
174.1947757565
 20
104.9536294691
 30
0.0
 11
174.1947757565
 21
115.9536294691
 31
0.0
  0
LINE
  5
F8
330
1F
100
AcDbEntity
  8
0
  6
HIDDEN
 62
     7
370
     0
100
AcDbLine
 10
165.945206066
 20
126.8762791999
 30
0.0
 11
168.445206066
 21
126.8762791999
 31
0.0
  0
LINE
  5
F9
330
1F
100
AcDbEntity
  8
0
  6
HIDDEN
 62
     7
370
     0
100
AcDbLine
 10
163.445206066
 20
126.8762791999
 30
0.0
 11
165.945206066
 21
126.8762791999
 31
0.0
  0
LINE
  5
FA
330
1F
100
AcDbEntity
  8
0
  6
HIDDEN
 62
     7
370
     0
100
AcDbLine
 10
168.445206066
 20
94.0309797383
 30
0.0
 11
163.445206066
 21
94.0309797383
 31
0.0
  0
LINE
  5
FB
330
1F
100
AcDbEntity
  8
0
  6
HIDDEN
 62
     7
370
     0
100
AcDbLine
 10
165.945206066
 20
118.4536294691
 30
0.0
 11
168.445206066
 21
118.4536294691
 31
0.0
  0
LINE
  5
FC
330
1F
100
AcDbEntity
  8
0
  6
HIDDEN
 62
     7
370
     0
100
AcDbLine
 10
163.445206066
 20
118.4536294691
 30
0.0
 11
165.945206066
 21
118.4536294691
 31
0.0
  0
LINE
  5
FD
330
1F
100
AcDbEntity
  8
0
  6
HIDDEN
 62
     7
370
     0
100
AcDbLine
 10
168.445206066
 20
102.4536294691
 30
0.0
 11
163.445206066
 21
102.4536294691
 31
0.0
  0
SPLINE
  5
FE
330
1F
100
AcDbEntity
  8
0
  6
HIDDEN
 62
     7
370
     0
100
AcDbSpline
210
0.0
220
0.0
230
1.0
 70
     8
 71
     3
 72
    20
 73
    16
 74
     0
 42
0.00000001
 43
0.00000001
 40
0.0
 40
0.0
 40
0.0
 40
0.0
 40
0.0837700074900128
 40
0.1671642956623867
 40
0.2832392399699938
 40
0.3419682516181152
 40
0.4021695966617075
 40
0.4682656389883181
 40
0.5350318016472124
 40
0.5920958805130447
 40
0.6924889590539709
 40
0.7990475557046145
 40
0.8954755043762634
 40
0.9925551802366297
 40
1.0
 40
1.0
 40
1.0
 40
1.0
 10
177.99520606598
 20
122.0100099432215
 30
0.0
 10
177.9869602880432
 20
122.0201699155416
 30
0.0
 10
177.9705057155502
 20
122.0404442913919
 30
0.0
 10
177.8393585842087
 20
122.2061994363956
 30
0.0
 10
177.6758327773148
 20
122.4256940709956
 30
0.0
 10
177.5215062096475
 20
122.6680150042604
 30
0.0
 10
177.4094624905728
 20
122.8815632574428
 30
0.0
 10
177.3235887861564
 20
123.1338214701866
 30
0.0
 10
177.3191303800761
 20
123.406231404977
 30
0.0
 10
177.4101686438966
 20
123.7033179469786
 30
0.0
 10
177.5854668179574
 20
123.9983182139883
 30
0.0
 10
177.7928535416848
 20
124.2712679541205
 30
0.0
 10
177.9420088053204
 20
124.4504467239042
 30
0.0
 10
178.0077527999635
 20
124.5265816624648
 30
0.0
 10
177.9930351564016
 20
124.5094054480446
 30
0.0
 10
177.9919868834297
 20
124.5081820618918
 30
0.0
  0
SPLINE
  5
FF
330
1F
100
AcDbEntity
  8
0
  6
HIDDEN
 62
     7
370
     0
100
AcDbSpline
210
0.0
220
0.0
230
1.0
 70
     8
 71
     3
 72
     9
 73
     5
 74
     0
 42
0.00000001
 43
0.00000001
 40
0.0
 40
0.0
 40
0.0
 40
0.0
 40
0.7277434543784167
 40
1.0
 40
1.0
 40
1.0
 40
1.0
 10
175.0047986563715
 20
124.4969551608861
 30
0.0
 10
175.0080915190188
 20
124.496579388584
 30
0.0
 10
175.0126162765105
 20
124.4960630358779
 30
0.0
 10
175.0640876838132
 20
124.5193465755617
 30
0.0
 10
175.0781011113637
 20
124.5256856716458
 30
0.0
  0
SPLINE
  5
100
330
1F
100
AcDbEntity
  8
0
  6
HIDDEN
 62
     7
370
     0
100
AcDbSpline
210
0.0
220
0.0
230
1.0
 70
     8
 71
     3
 72
    18
 73
    14
 74
     0
 42
0.00000001
 43
0.00000001
 40
0.0
 40
0.0
 40
0.0
 40
0.0
 40
0.0515453819247845
 40
0.1416915078118229
 40
0.2391516983525818
 40
0.3558391244879486
 40
0.4675642173198303
 40
0.5384545751043462
 40
0.609818534590868
 40
0.696167866973751
 40
0.8353916622310301
 40
0.9794688505619403
 40
1.0
 40
1.0
 40
1.0
 40
1.0
 10
175.0055026408908
 20
122.1398604174166
 30
0.0
 10
175.0038193076749
 20
122.1378949723854
 30
0.0
 10
174.9991920450065
 20
122.1324922212639
 30
0.0
 10
175.0767632077043
 20
122.2230168108985
 30
0.0
 10
175.2199011619025
 20
122.396983230659
 30
0.0
 10
175.4149641322812
 20
122.6569075631163
 30
0.0
 10
175.5881727439144
 20
122.9522231130708
 30
0.0
 10
175.6741117531014
 20
123.2508172817984
 30
0.0
 10
175.6616984550813
 20
123.5370724715415
 30
0.0
 10
175.5354242995382
 20
123.8727657910033
 30
0.0
 10
175.3150047379433
 20
124.216570241003
 30
0.0
 10
175.1490268971258
 20
124.4351422930739
 30
0.0
 10
175.0859664669854
 20
124.5156448118373
 30
0.0
 10
175.0781011113637
 20
124.5256856716459
 30
0.0
  0
LINE
  5
101
330
1F
100
AcDbEntity
  8
0
  6
HIDDEN
 62
     7
370
     0
100
AcDbLine
 10
177.995206066
 20
124.9536294691
 30
0.0
 11
174.995206066
 21
124.9536294691
 31
0.0
  0
LWPOLYLINE
  5
102
330
1F
100
AcDbEntity
  8
0
  6
HIDDEN
 62
     7
370
     0
100
AcDbPolyline
 90
       27
 70
   128
 43
0.0
 10
177.9937637895
 20
96.3969968625
 10
177.9887477446
 20
96.4028297081
 10
177.9627890015
 20
96.4331679754
 10
177.9218361379
 20
96.4815696879
 10
177.8660845413
 20
96.54866954
 10
177.7736977238
 20
96.663670336
 10
177.6656470825
 20
96.8066042284
 10
177.5541326224
 20
96.9697922602
 10
177.4458939549
 20
97.1592545114
 10
177.3911630642
 20
97.2828210946
 10
177.3488705973
 20
97.4176492141
 10
177.3287932788
 20
97.5341999242
 10
177.3251687142
 20
97.6565655765
 10
177.3385357544
 20
97.7745668548
 10
177.3671416782
 20
97.891578292
 10
177.4337085043
 20
98.0642064357
 10
177.5178561481
 20
98.2265839417
 10
177.5798281043
 20
98.3297211848
 10
177.6431893225
 20
98.4270219939
 10
177.707094422
 20
98.5194866807
 10
177.7689881856
 20
98.6051072733
 10
177.8509990885
 20
98.7141413594
 10
177.9206058371
 20
98.8036722733
 10
177.9621585273
 20
98.8560642255
 10
177.9881163944
 20
98.8884473571
 10
177.995206066
 20
98.897248995
 10
177.995206066
 20
98.897248995
  0
LINE
  5
103
330
1F
100
AcDbEntity
  8
0
  6
HIDDEN
 62
     7
370
     0
100
AcDbLine
 10
176.495206066
 20
95.9536294691
 30
0.0
 11
177.995206066
 21
95.9536294691
 31
0.0
  0
LINE
  5
104
330
1F
100
AcDbEntity
  8
0
  6
HIDDEN
 62
     7
370
     0
100
AcDbLine
 10
174.995206066
 20
95.9536294691
 30
0.0
 11
176.495206066
 21
95.9536294691
 31
0.0
  0
SPLINE
  5
105
330
1F
100
AcDbEntity
  8
0
  6
HIDDEN
 62
     7
370
     0
100
AcDbSpline
210
0.0
220
0.0
230
1.0
 70
     8
 71
     3
 72
    10
 73
     6
 74
     0
 42
0.00000001
 43
0.00000001
 40
0.0
 40
0.0
 40
0.0
 40
0.0
 40
0.4156311632970292
 40
0.8422636458334753
 40
1.0
 40
1.0
 40
1.0
 40
1.0
 10
175.0781011113638
 20
96.38157326659909
 30
0.0
 10
175.0584274579767
 20
96.39033114650607
 30
0.0
 10
175.0185594103136
 20
96.40807871817927
 30
0.0
 10
174.9943535940554
 20
96.41349925793097
 30
0.0
 10
174.9979490516665
 20
96.41258437263743
 30
0.0
 10
174.9989195592287
 20
96.4123374212916
 30
0.0
  0
SPLINE
  5
106
330
1F
100
AcDbEntity
  8
0
  6
HIDDEN
 62
     7
370
     0
100
AcDbSpline
210
0.0
220
0.0
230
1.0
 70
     8
 71
     3
 72
    26
 73
    22
 74
     0
 42
0.00000001
 43
0.00000001
 40
0.0
 40
0.0
 40
0.0
 40
0.0
 40
0.0625289022711314
 40
0.1271626702609759
 40
0.1895680344144417
 40
0.2532629405695377
 40
0.3027655552123836
 40
0.3532126134742783
 40
0.387822222311507
 40
0.4232935305826952
 40
0.4579642142702353
 40
0.4938252756086977
 40
0.5377351921179714
 40
0.5828531043869328
 40
0.6504853717853286
 40
0.7200169520450336
 40
0.7886787821173924
 40
0.8598441819873995
 40
0.9070515079454643
 40
0.9555504940005192
 40
0.9999999999999999
 40
0.9999999999999999
 40
0.9999999999999999
 40
0.9999999999999999
 10
175.0781011113637
 20
96.38157326659915
 30
0.0
 10
175.1036416190738
 20
96.4143005155409
 30
0.0
 10
175.1555823863393
 20
96.48085668740019
 30
0.0
 10
175.2560708407754
 20
96.61552480359374
 30
0.0
 10
175.3641931922129
 20
96.77025566240415
 30
0.0
 10
175.4653970697062
 20
96.93108477593651
 30
0.0
 10
175.5529408203459
 20
97.09568315008978
 30
0.0
 10
175.6137086731911
 20
97.24301148363722
 30
0.0
 10
175.651709304485
 20
97.38388481746347
 30
0.0
 10
175.6682847799221
 20
97.51147612481194
 30
0.0
 10
175.6648255195223
 20
97.64214221752839
 30
0.0
 10
175.6395198917106
 20
97.77987015998616
 30
0.0
 10
175.5907604266389
 20
97.92170028538533
 30
0.0
 10
175.5113977011962
 20
98.08553018189616
 30
0.0
 10
175.405280406772
 20
98.25705572319572
 30
0.0
 10
175.2834330080727
 20
98.42635901098731
 30
0.0
 10
175.1689637569362
 20
98.57226423792102
 30
0.0
 10
175.0842629884575
 20
98.67471311572587
 30
0.0
 10
175.0302300262705
 20
98.73856689633837
 30
0.0
 10
175.0004221657031
 20
98.77332753882021
 30
0.0
 10
174.9972718212997
 20
98.77698106895
 30
0.0
 10
174.9957652745084
 20
98.77872824747688
 30
0.0
  0
LINE
  5
107
330
1F
100
AcDbEntity
  8
0
  6
HIDDEN
 62
     7
370
     0
100
AcDbLine
 10
174.9839085205
 20
98.7789347922
 30
0.0
 11
175.0781011114
 21
96.3815732666
 31
0.0
  0
LINE
  5
108
330
1F
100
AcDbEntity
  8
0
  6
HIDDEN
 62
     7
370
     0
100
AcDbLine
 10
174.9839085205
 20
122.128324146
 30
0.0
 11
175.0781011114
 21
124.5256856716
 31
0.0
  0
LWPOLYLINE
  5
109
330
1F
100
AcDbEntity
  8
0
  6
HIDDEN
 62
     7
370
     0
100
AcDbPolyline
 90
       31
 70
   128
 43
0.0
 10
132.995206066
 20
155.7663353209
 10
134.0347645201
 20
155.7325715072
 10
135.0288892814
 20
155.6327557068
 10
135.9341323274
 20
155.471250349
 10
136.7109301934
 20
155.2551139931
 10
137.3253330849
 20
154.993792835
 10
137.7504886475
 20
154.6987078631
 10
137.9678155428
 20
154.3827557068
 10
137.9678155428
 20
154.0597449913
 10
137.7504886475
 20
153.743792835
 10
137.3253330849
 20
153.4487078631
 10
136.7109301934
 20
153.1873867049
 10
135.9341323274
 20
152.971250349
 10
135.0288892814
 20
152.8097449913
 10
134.0347645201
 20
152.7099291909
 10
132.995206066
 20
152.6761653772
 10
131.9556476119
 20
152.7099291909
 10
130.9615228506
 20
152.8097449913
 10
130.0562798045
 20
152.971250349
 10
129.2794819386
 20
153.1873867049
 10
128.6650790471
 20
153.4487078631
 10
128.2399234845
 20
153.743792835
 10
128.0225965891
 20
154.0597449913
 10
128.0225965891
 20
154.3827557068
 10
128.2399234845
 20
154.6987078631
 10
128.6650790471
 20
154.993792835
 10
129.2794819386
 20
155.2551139931
 10
130.0562798045
 20
155.471250349
 10
130.9615228506
 20
155.6327557068
 10
131.9556476119
 20
155.7325715072
 10
132.995206066
 20
155.7663353209
  0
LINE
  5
10A
330
1F
100
AcDbEntity
  8
0
  6
HIDDEN
 62
     7
370
     0
100
AcDbLine
 10
147.2572350869
 20
149.40459223
 30
0.0
 11
147.2572350869
 21
141.8036294691
 31
0.0
  0
LINE
  5
10B
330
1F
100
AcDbEntity
  8
0
  6
HIDDEN
 62
     7
370
     0
100
AcDbLine
 10
145.905206066
 20
145.1678646616
 30
0.0
 11
145.905206066
 21
141.8036294691
 31
0.0
  0
LINE
  5
10C
330
1F
100
AcDbEntity
  8
0
  6
HIDDEN
 62
     7
370
     0
100
AcDbLine
 10
142.085206066
 20
145.1678646616
 30
0.0
 11
142.085206066
 21
141.8036294691
 31
0.0
  0
CIRCLE
  5
10D
330
1F
100
AcDbEntity
  8
0
  6
HIDDEN
 62
     7
370
     0
100
AcDbCircle
 10
130.995206066
 20
110.4536294691
 30
0.0
 40
5.0
  0
LINE
  5
10E
330
1F
100
AcDbEntity
  8
0
  6
HIDDEN
 62
     7
370
     0
100
AcDbLine
 10
223.8628290324
 20
99.4484283613
 30
0.0
 11
223.9096183008
 21
98.2575619572
 31
0.0
  0
LINE
  5
10F
330
1F
100
AcDbEntity
  8
0
  6
HIDDEN
 62
     7
370
     0
100
AcDbLine
 10
223.8039393087
 20
100.9472719157
 30
0.0
 11
223.8628290324
 21
99.4484283613
 31
0.0
  0
LINE
  5
110
330
1F
100
AcDbEntity
  8
0
  6
HIDDEN
 62
     7
370
     0
100
AcDbLine
 10
218.5288912285
 20
99.2388573742
 30
0.0
 11
218.5877809521
 21
97.7400138199
 31
0.0
  0
LINE
  5
111
330
1F
100
AcDbEntity
  8
0
  6
HIDDEN
 62
     7
370
     0
100
AcDbLine
 10
218.4700015048
 20
100.7377009286
 30
0.0
 11
218.5288912285
 21
99.2388573742
 31
0.0
  0
LINE
  5
112
330
1F
100
AcDbEntity
  8
0
  6
HIDDEN
 62
     7
370
     0
100
AcDbLine
 10
218.0292767104
 20
99.2192274663
 30
0.0
 11
218.0685365261
 21
98.2199984301
 31
0.0
  0
LINE
  5
113
330
1F
100
AcDbEntity
  8
0
  6
HIDDEN
 62
     7
370
     0
100
AcDbLine
 10
217.9900168946
 20
100.2184565026
 30
0.0
 11
218.0292767104
 21
99.2192274663
 31
0.0
  0
LINE
  5
114
330
1F
100
AcDbEntity
  8
0
  6
HIDDEN
 62
     7
370
     0
100
AcDbLine
 10
223.9767735825
 20
100.6733461706
 30
0.0
 11
223.995206066
 21
100.2042081381
 31
0.0
  0
LINE
  5
115
330
1F
100
AcDbEntity
  8
0
  6
HIDDEN
 62
     7
370
     0
100
AcDbLine
 10
222.0261928553
 20
99.3762667294
 30
0.0
 11
224.0246509278
 21
99.4547863609
 31
0.0
  0
LINE
  5
116
330
1F
100
AcDbEntity
  8
0
  6
HIDDEN
 62
     7
370
     0
100
AcDbLine
 10
222.0556377171
 20
98.6268449522
 30
0.0
 11
222.0261928553
 21
99.3762667294
 31
0.0
  0
LINE
  5
117
330
1F
100
AcDbEntity
  8
0
  6
HIDDEN
 62
     7
370
     0
100
AcDbLine
 10
221.9967479935
 20
100.1256885066
 30
0.0
 11
222.0261928553
 21
99.3762667294
 31
0.0
  0
LINE
  5
118
330
1F
100
AcDbEntity
  8
0
  6
HIDDEN
 62
     7
370
     0
100
AcDbLine
 10
222.0556377171
 20
98.6268449522
 30
0.0
 11
224.0540957896
 21
98.7053645837
 31
0.0
  0
LINE
  5
119
330
1F
100
AcDbEntity
  8
0
  6
HIDDEN
 62
     7
370
     0
100
AcDbLine
 10
221.9967479935
 20
100.1256885066
 30
0.0
 11
223.995206066
 21
100.2042081381
 31
0.0
  0
LINE
  5
11A
330
1F
100
AcDbEntity
  8
0
  6
HIDDEN
 62
     7
370
     0
100
AcDbLine
 10
223.8572647173
 20
122.8183666399
 30
0.0
 11
223.7450495851
 21
119.9623008061
 31
0.0
  0
LINE
  5
11B
330
1F
100
AcDbEntity
  8
0
  6
HIDDEN
 62
     7
370
     0
100
AcDbLine
 10
218.5288912285
 20
123.1695589019
 30
0.0
 11
218.4111117812
 21
120.1718717932
 31
0.0
  0
LINE
  5
11C
330
1F
100
AcDbEntity
  8
0
  6
HIDDEN
 62
     7
370
     0
100
AcDbLine
 10
223.9929362698
 20
122.1464379668
 30
0.0
 11
223.9178838588
 21
120.2362265512
 31
0.0
  0
LINE
  5
11D
330
1F
100
AcDbEntity
  8
0
  6
HIDDEN
 62
     7
370
     0
100
AcDbLine
 10
218.0096468025
 20
122.6895742917
 30
0.0
 11
217.931127171
 21
120.6911162192
 31
0.0
  0
LINE
  5
11E
330
1F
100
AcDbEntity
  8
0
  6
HIDDEN
 62
     7
370
     0
100
AcDbLine
 10
221.9967479935
 20
122.2827277696
 30
0.0
 11
221.9673031317
 21
121.5333059924
 31
0.0
  0
LINE
  5
11F
330
1F
100
AcDbEntity
  8
0
  6
HIDDEN
 62
     7
370
     0
100
AcDbLine
 10
221.9673031317
 20
121.5333059924
 30
0.0
 11
223.9657612042
 21
121.4547863609
 31
0.0
  0
LINE
  5
120
330
1F
100
AcDbEntity
  8
0
  6
HIDDEN
 62
     7
370
     0
100
AcDbLine
 10
221.9378582699
 20
120.7838842152
 30
0.0
 11
221.9673031317
 21
121.5333059924
 31
0.0
  0
LINE
  5
121
330
1F
100
AcDbEntity
  8
0
  6
HIDDEN
 62
     7
370
     0
100
AcDbLine
 10
221.9967479935
 20
122.2827277696
 30
0.0
 11
223.995206066
 21
122.2042081381
 31
0.0
  0
LINE
  5
122
330
1F
100
AcDbEntity
  8
0
  6
HIDDEN
 62
     7
370
     0
100
AcDbLine
 10
221.9378582699
 20
120.7838842152
 30
0.0
 11
223.9363163423
 21
120.7053645837
 31
0.0
  0
LINE
  5
123
330
1F
100
AcDbEntity
  8
0
  6
HIDDEN
 62
     7
370
     0
100
AcDbLine
 10
179.995206066
 20
104.4536294691
 30
0.0
 11
179.995206066
 21
116.4536294691
 31
0.0
  0
LINE
  5
124
330
1F
100
AcDbEntity
  8
0
  6
HIDDEN
 62
     7
370
     0
100
AcDbLine
 10
164.995206066
 20
104.4536294691
 30
0.0
 11
164.995206066
 21
116.4536294691
 31
0.0
  0
LINE
  5
125
330
1F
100
AcDbEntity
  8
0
  6
HIDDEN
 62
     7
370
     0
100
AcDbLine
 10
180.495206066
 20
104.9536294691
 30
0.0
 11
180.495206066
 21
115.9536294691
 31
0.0
  0
LINE
  5
126
330
1F
100
AcDbEntity
  8
0
  6
HIDDEN
 62
     7
370
     0
100
AcDbLine
 10
164.495206066
 20
104.9536294691
 30
0.0
 11
164.495206066
 21
115.9536294691
 31
0.0
  0
LINE
  5
127
330
1F
100
AcDbEntity
  8
0
  6
HIDDEN
 62
     7
370
     0
100
AcDbLine
 10
184.495206066
 20
108.9536294691
 30
0.0
 11
182.495206066
 21
108.9536294691
 31
0.0
  0
LINE
  5
128
330
1F
100
AcDbEntity
  8
0
  6
HIDDEN
 62
     7
370
     0
100
AcDbLine
 10
184.495206066
 20
104.9536294691
 30
0.0
 11
184.495206066
 21
108.9536294691
 31
0.0
  0
LINE
  5
129
330
1F
100
AcDbEntity
  8
0
  6
HIDDEN
 62
     7
370
     0
100
AcDbLine
 10
184.495206066
 20
111.9536294691
 30
0.0
 11
184.495206066
 21
115.9536294691
 31
0.0
  0
LINE
  5
12A
330
1F
100
AcDbEntity
  8
0
  6
HIDDEN
 62
     7
370
     0
100
AcDbLine
 10
182.495206066
 20
111.9536294691
 30
0.0
 11
184.495206066
 21
111.9536294691
 31
0.0
  0
LINE
  5
12B
330
1F
100
AcDbEntity
  8
0
  6
HIDDEN
 62
     7
370
     0
100
AcDbLine
 10
182.495206066
 20
108.9536294691
 30
0.0
 11
182.495206066
 21
111.9536294691
 31
0.0
  0
LINE
  5
12C
330
1F
100
AcDbEntity
  8
0
  6
HIDDEN
 62
     7
370
     0
100
AcDbLine
 10
177.495206066
 20
111.9536294691
 30
0.0
 11
177.495206066
 21
110.4536294691
 31
0.0
  0
LINE
  5
12D
330
1F
100
AcDbEntity
  8
0
  6
HIDDEN
 62
     7
370
     0
100
AcDbLine
 10
171.4952060659
 20
110.4536294691
 30
0.0
 11
164.495206066
 21
110.4536294691
 31
0.0
  0
LINE
  5
12E
330
1F
100
AcDbEntity
  8
0
  6
HIDDEN
 62
     7
370
     0
100
AcDbLine
 10
171.4952060659
 20
110.4536294691
 30
0.0
 11
171.4952060659
 21
111.9536294691
 31
0.0
  0
LINE
  5
12F
330
1F
100
AcDbEntity
  8
0
  6
HIDDEN
 62
     7
370
     0
100
AcDbLine
 10
171.4952060659
 20
108.9536294691
 30
0.0
 11
171.4952060659
 21
110.4536294691
 31
0.0
  0
LINE
  5
130
330
1F
100
AcDbEntity
  8
0
  6
HIDDEN
 62
     7
370
     0
100
AcDbLine
 10
177.495206066
 20
110.4536294691
 30
0.0
 11
177.495206066
 21
108.9536294691
 31
0.0
  0
LINE
  5
131
330
1F
100
AcDbEntity
  8
0
  6
HIDDEN
 62
     7
370
     0
100
AcDbLine
 10
177.495206066
 20
110.4536294691
 30
0.0
 11
182.495206066
 21
110.4536294691
 31
0.0
  0
LINE
  5
132
330
1F
100
AcDbEntity
  8
0
  6
HIDDEN
 62
     7
370
     0
100
AcDbLine
 10
171.4952060659
 20
107.4536294691
 30
0.0
 11
171.4952060659
 21
108.9536294691
 31
0.0
  0
LINE
  5
133
330
1F
100
AcDbEntity
  8
0
  6
HIDDEN
 62
     7
370
     0
100
AcDbLine
 10
171.4952060659
 20
111.9536294691
 30
0.0
 11
171.4952060659
 21
113.4536294691
 31
0.0
  0
LINE
  5
134
330
1F
100
AcDbEntity
  8
0
  6
HIDDEN
 62
     7
370
     0
100
AcDbLine
 10
177.495206066
 20
113.4536294691
 30
0.0
 11
177.495206066
 21
111.9536294691
 31
0.0
  0
LINE
  5
135
330
1F
100
AcDbEntity
  8
0
  6
HIDDEN
 62
     7
370
     0
100
AcDbLine
 10
177.495206066
 20
108.9536294691
 30
0.0
 11
177.495206066
 21
107.4536294691
 31
0.0
  0
LINE
  5
136
330
1F
100
AcDbEntity
  8
0
  6
HIDDEN
 62
     7
370
     0
100
AcDbLine
 10
171.4952060659
 20
113.4536294691
 30
0.0
 11
166.0672725282
 21
113.4536294691
 31
0.0
  0
LINE
  5
137
330
1F
100
AcDbEntity
  8
0
  6
HIDDEN
 62
     7
370
     0
100
AcDbLine
 10
165.7151057841
 20
113.4536294691
 30
0.0
 11
164.4952060659
 21
113.4536294691
 31
0.0
  0
LINE
  5
138
330
1F
100
AcDbEntity
  8
0
  6
HIDDEN
 62
     7
370
     0
100
AcDbLine
 10
177.495206066
 20
113.4536294691
 30
0.0
 11
184.495206066
 21
113.4536294691
 31
0.0
  0
LINE
  5
139
330
1F
100
AcDbEntity
  8
0
  6
HIDDEN
 62
     7
370
     0
100
AcDbLine
 10
177.495206066
 20
107.4536294691
 30
0.0
 11
184.495206066
 21
107.4536294691
 31
0.0
  0
LINE
  5
13A
330
1F
100
AcDbEntity
  8
0
  6
HIDDEN
 62
     7
370
     0
100
AcDbLine
 10
171.4952060659
 20
107.4536294691
 30
0.0
 11
166.4075842333
 21
107.4536294691
 31
0.0
  0
LINE
  5
13B
330
1F
100
AcDbEntity
  8
0
  6
HIDDEN
 62
     7
370
     0
100
AcDbLine
 10
166.3288382687
 20
107.4536294691
 30
0.0
 11
164.4952060659
 21
107.4536294691
 31
0.0
  0
LINE
  5
13C
330
1F
100
AcDbEntity
  8
0
  6
HIDDEN
 62
     7
370
     0
100
AcDbLine
 10
123.995206066
 20
71.0489465125
 30
0.0
 11
124.0848076899
 21
71.6864951945
 31
0.0
  0
LINE
  5
13D
330
1F
100
AcDbEntity
  8
0
  6
HIDDEN
 62
     7
370
     0
100
AcDbLine
 10
124.0848076899
 20
149.2207637438
 30
0.0
 11
123.995206066
 21
149.8583124257
 31
0.0
  0
ARC
  5
13E
330
1F
100
AcDbEntity
  8
0
  6
HIDDEN
 62
     7
370
     0
100
AcDbCircle
 10
123.0982691475
 20
71.8251441447
 30
0.0
 40
0.9962338214386983
100
AcDbArc
 50
352.0
 51
0.0
  0
ARC
  5
13F
330
1F
100
AcDbEntity
  8
0
  6
HIDDEN
 62
     7
370
     0
100
AcDbCircle
 10
123.0982691475
 20
71.8251441447
 30
0.0
 40
0.9962338214386983
100
AcDbArc
 50
0.0
 51
25.7988228126
  0
ARC
  5
140
330
1F
100
AcDbEntity
  8
0
  6
HIDDEN
 62
     7
370
     0
100
AcDbCircle
 10
123.0982691475
 20
149.0821147936
 30
0.0
 40
0.9962338214386963
100
AcDbArc
 50
348.75
 51
8.0
  0
LWPOLYLINE
  5
141
330
1F
100
AcDbEntity
  8
0
  6
HIDDEN
 62
     7
370
     0
100
AcDbPolyline
 90
        3
 70
   128
 43
0.0
 10
124.0753606154
 20
148.8877592165
 10
124.0186691848
 20
148.7008726153
 10
123.995206066
 20
148.6485412804
  0
LINE
  5
142
330
1F
100
AcDbEntity
  8
0
  6
HIDDEN
 62
     7
370
     0
100
AcDbLine
 10
124.094502969
 20
71.8251441447
 30
0.0
 11
124.094502969
 21
149.0821147936
 31
0.0
  0
ARC
  5
143
330
1F
100
AcDbEntity
  8
0
  6
HIDDEN
 62
     7
370
     0
100
AcDbCircle
 10
114.2484117212
 20
90.9536294691
 30
0.0
 40
12.0
100
AcDbArc
 50
273.4628765274
 51
324.3146652873
  0
ARC
  5
144
330
1F
100
AcDbEntity
  8
0
  6
HIDDEN
 62
     7
370
     0
100
AcDbCircle
 10
114.2484117212
 20
129.9536294691
 30
0.0
 40
12.0
100
AcDbArc
 50
35.6853347127
 51
86.4555951883
  0
ARC
  5
145
330
1F
100
AcDbEntity
  8
0
  6
HIDDEN
 62
     7
370
     0
100
AcDbCircle
 10
97.4559320081
 20
79.9536294691
 30
0.0
 40
1.000000000000008
100
AcDbArc
 50
210.0
 51
270.0
  0
ARC
  5
146
330
1F
100
AcDbEntity
  8
0
  6
HIDDEN
 62
     7
370
     0
100
AcDbCircle
 10
97.4559320081
 20
140.9536294691
 30
0.0
 40
1.000000000000008
100
AcDbArc
 50
90.0
 51
150.0
  0
LINE
  5
147
330
1F
100
AcDbEntity
  8
0
  6
HIDDEN
 62
     7
370
     0
100
AcDbLine
 10
97.4559320081
 20
78.9536294691
 30
0.0
 11
103.0003764399
 21
78.9536294691
 31
0.0
  0
LINE
  5
148
330
1F
100
AcDbEntity
  8
0
  6
HIDDEN
 62
     7
370
     0
100
AcDbLine
 10
103.0141231803
 20
141.9536294691
 30
0.0
 11
97.4559320081
 21
141.9536294691
 31
0.0
  0
LINE
  5
149
330
1F
100
AcDbEntity
  8
0
  6
HIDDEN
 62
     7
370
     0
100
AcDbLine
 10
96.5899066044
 20
141.4536294691
 30
0.0
 11
93.991830393
 21
136.9536294691
 31
0.0
  0
LINE
  5
14A
330
1F
100
AcDbEntity
  8
0
  6
HIDDEN
 62
     7
370
     0
100
AcDbLine
 10
93.991830393
 20
83.9536294691
 30
0.0
 11
96.5899066044
 21
79.4536294691
 31
0.0
  0
ARC
  5
14B
330
1F
100
AcDbEntity
  8
0
  6
HIDDEN
 62
     7
370
     0
100
AcDbCircle
 10
134.445206066
 20
85.5786294691
 30
0.0
 40
2.000000000000008
100
AcDbArc
 50
234.3409123039
 51
0.0
  0
ARC
  5
14C
330
1F
100
AcDbEntity
  8
0
  6
HIDDEN
 62
     7
370
     0
100
AcDbCircle
 10
134.445206066
 20
135.3286294691
 30
0.0
 40
2.00000000000002
100
AcDbArc
 50
0.0
 51
125.6590876961
  0
LINE
  5
14D
330
1F
100
AcDbEntity
  8
0
  6
HIDDEN
 62
     7
370
     0
100
AcDbLine
 10
123.995206066
 20
83.9536294691
 30
0.0
 11
133.2792836843
 21
83.9536294691
 31
0.0
  0
LINE
  5
14E
330
1F
100
AcDbEntity
  8
0
  6
HIDDEN
 62
     7
370
     0
100
AcDbLine
 10
133.2792836843
 20
136.9536294691
 30
0.0
 11
123.995206066
 21
136.9536294691
 31
0.0
  0
LINE
  5
14F
330
1F
100
AcDbEntity
  8
0
  6
HIDDEN
 62
     7
370
     0
100
AcDbLine
 10
89.195206066
 20
83.9536294691
 30
0.0
 11
93.991830393
 21
83.9536294691
 31
0.0
  0
LINE
  5
150
330
1F
100
AcDbEntity
  8
0
  6
HIDDEN
 62
     7
370
     0
100
AcDbLine
 10
93.991830393
 20
136.9536294691
 30
0.0
 11
84.195206066
 21
136.9536294691
 31
0.0
  0
LINE
  5
151
330
1F
100
AcDbEntity
  8
0
  6
HIDDEN
 62
     7
370
     0
100
AcDbLine
 10
127.995206066
 20
156.1306911066
 30
0.0
 11
127.995206066
 21
152.4310432478
 31
0.0
  0
LINE
  5
152
330
1F
100
AcDbEntity
  8
0
  6
HIDDEN
 62
     7
370
     0
100
AcDbLine
 10
137.995206066
 20
152.4310432478
 30
0.0
 11
137.995206066
 21
156.1251828483
 31
0.0
  0
LINE
  5
153
330
1F
100
AcDbEntity
  8
0
  6
HIDDEN
 62
     7
370
     0
100
AcDbLine
 10
223.8020391947
 20
97.9448825842
 30
0.0
 11
223.9025923412
 21
98.2008478231
 31
0.0
  0
LINE
  5
154
330
1F
100
AcDbEntity
  8
0
  6
HIDDEN
 62
     7
370
     0
100
AcDbLine
 10
223.90445556
 20
122.7004711598
 30
0.0
 11
223.8020391947
 21
122.9623763541
 31
0.0
  0
LINE
  5
155
330
1F
100
AcDbEntity
  8
0
  6
HIDDEN
 62
     7
370
     0
100
AcDbLine
 10
148.295206066
 20
97.4536294691
 30
0.0
 11
152.295206066
 21
97.4536294691
 31
0.0
  0
LINE
  5
156
330
1F
100
AcDbEntity
  8
0
  6
HIDDEN
 62
     7
370
     0
100
AcDbLine
 10
152.295206066
 20
123.4536294691
 30
0.0
 11
148.295206066
 21
123.4536294691
 31
0.0
  0
LINE
  5
157
330
1F
100
AcDbEntity
  8
0
  6
HIDDEN
 62
     7
370
     0
100
AcDbLine
 10
136.445206066
 20
98.4536294691
 30
0.0
 11
137.195206066
 21
99.2036294691
 31
0.0
  0
LINE
  5
158
330
1F
100
AcDbEntity
  8
0
  6
HIDDEN
 62
     7
370
     0
100
AcDbLine
 10
137.195206066
 20
121.7036294691
 30
0.0
 11
136.445206066
 21
122.4536294691
 31
0.0
  0
LINE
  5
159
330
1F
100
AcDbEntity
  8
0
  6
HIDDEN
 62
     7
370
     0
100
AcDbLine
 10
137.195206066
 20
99.2036294691
 30
0.0
 11
148.295206066
 21
99.2036294691
 31
0.0
  0
LINE
  5
15A
330
1F
100
AcDbEntity
  8
0
  6
HIDDEN
 62
     7
370
     0
100
AcDbLine
 10
148.295206066
 20
121.7036294691
 30
0.0
 11
137.195206066
 21
121.7036294691
 31
0.0
  0
LINE
  5
15B
330
1F
100
AcDbEntity
  8
0
  6
HIDDEN
 62
     7
370
     0
100
AcDbLine
 10
128.945206066
 20
160.4536294691
 30
0.0
 11
128.945206066
 21
154.3536294691
 31
0.0
  0
ARC
  5
15C
330
1F
100
AcDbEntity
  8
0
  6
HIDDEN
 62
     7
370
     0
100
AcDbCircle
 10
223.495206066
 20
101.4169352211
 30
0.0
 40
0.5
100
AcDbArc
 50
0.0
 51
80.0
  0
ARC
  5
15D
330
1F
100
AcDbEntity
  8
0
  6
HIDDEN
 62
     7
370
     0
100
AcDbCircle
 10
223.495206066
 20
119.4903237172
 30
0.0
 40
0.5
100
AcDbArc
 50
280.0
 51
0.0
  0
LINE
  5
15E
330
1F
100
AcDbEntity
  8
0
  6
HIDDEN
 62
     7
370
     0
100
AcDbLine
 10
223.5820301548
 20
118.9979198407
 30
0.0
 11
220.495206066
 21
118.4536294691
 31
0.0
  0
LINE
  5
15F
330
1F
100
AcDbEntity
  8
0
  6
HIDDEN
 62
     7
370
     0
100
AcDbLine
 10
220.495206066
 20
102.4536294691
 30
0.0
 11
223.5820301548
 21
101.9093390976
 31
0.0
  0
ARC
  5
160
330
1F
100
AcDbEntity
  8
0
  6
HIDDEN
 62
     7
370
     0
100
AcDbCircle
 10
184.1004320479
 20
102.5536294691
 30
0.0
 40
0.4000000000000038
100
AcDbArc
 50
270.0
 51
290.0
  0
ARC
  5
161
330
1F
100
AcDbEntity
  8
0
  6
HIDDEN
 62
     7
370
     0
100
AcDbCircle
 10
184.1004320479
 20
118.3536294691
 30
0.0
 40
0.4000000000000038
100
AcDbArc
 50
70.0
 51
90.0
  0
LINE
  5
162
330
1F
100
AcDbEntity
  8
0
  6
HIDDEN
 62
     7
370
     0
100
AcDbLine
 10
177.995206066
 20
102.1536294691
 30
0.0
 11
184.1004320479
 21
102.1536294691
 31
0.0
  0
LINE
  5
163
330
1F
100
AcDbEntity
  8
0
  6
HIDDEN
 62
     7
370
     0
100
AcDbLine
 10
174.895206066
 20
102.1536294691
 30
0.0
 11
174.9989608065
 21
102.1536294691
 31
0.0
  0
LINE
  5
164
330
1F
100
AcDbEntity
  8
0
  6
HIDDEN
 62
     7
370
     0
100
AcDbLine
 10
174.9968693562
 20
118.7536294691
 30
0.0
 11
174.895206066
 21
118.7536294691
 31
0.0
  0
LINE
  5
165
330
1F
100
AcDbEntity
  8
0
  6
HIDDEN
 62
     7
370
     0
100
AcDbLine
 10
184.1004320479
 20
118.7536294691
 30
0.0
 11
177.9901448292
 21
118.7536294691
 31
0.0
  0
ARC
  5
166
330
1F
100
AcDbEntity
  8
0
  6
HIDDEN
 62
     7
370
     0
100
AcDbCircle
 10
174.895206066
 20
102.5536294691
 30
0.0
 40
0.4000000000000341
100
AcDbArc
 50
180.0
 51
270.0
  0
ARC
  5
167
330
1F
100
AcDbEntity
  8
0
  6
HIDDEN
 62
     7
370
     0
100
AcDbCircle
 10
174.895206066
 20
118.3536294691
 30
0.0
 40
0.4000000000000341
100
AcDbArc
 50
90.0
 51
180.0
  0
LINE
  5
168
330
1F
100
AcDbEntity
  8
0
  6
HIDDEN
 62
     7
370
     0
100
AcDbLine
 10
184.2372401052
 20
102.1777524208
 30
0.0
 11
184.995206066
 21
102.4536294691
 31
0.0
  0
LINE
  5
169
330
1F
100
AcDbEntity
  8
0
  6
HIDDEN
 62
     7
370
     0
100
AcDbLine
 10
184.995206066
 20
118.4536294691
 30
0.0
 11
184.2372401052
 21
118.7295065174
 31
0.0
  0
LINE
  5
16A
330
1F
100
AcDbEntity
  8
0
  6
HIDDEN
 62
     7
370
     0
100
AcDbLine
 10
184.995206066
 20
102.4536294691
 30
0.0
 11
220.495206066
 21
102.4536294691
 31
0.0
  0
LINE
  5
16B
330
1F
100
AcDbEntity
  8
0
  6
HIDDEN
 62
     7
370
     0
100
AcDbLine
 10
220.495206066
 20
118.4536294691
 30
0.0
 11
184.995206066
 21
118.4536294691
 31
0.0
  0
LINE
  5
16C
330
1F
100
AcDbEntity
  8
0
  6
HIDDEN
 62
     7
370
     0
100
AcDbLine
 10
115.427918682
 20
72.8753498985
 30
0.0
 11
114.9952093955
 21
73.3535746159
 31
0.0
  0
LINE
  5
16D
330
1F
100
AcDbEntity
  8
0
  6
HIDDEN
 62
     7
370
     0
100
AcDbLine
 10
102.995206524
 20
74.0005359726
 30
0.0
 11
102.5145792188
 21
73.5223112618
 31
0.0
  0
LINE
  5
16E
330
1F
100
AcDbEntity
  8
0
  6
HIDDEN
 62
     7
370
     0
100
AcDbLine
 10
102.5144608773
 20
147.3849417604
 30
0.0
 11
102.9952063414
 21
146.9066620885
 31
0.0
  0
LINE
  5
16F
330
1F
100
AcDbEntity
  8
0
  6
HIDDEN
 62
     7
370
     0
100
AcDbLine
 10
114.9952060681
 20
147.5536344758
 30
0.0
 11
115.4280277378
 21
148.0319141487
 31
0.0
  0
LINE
  5
170
330
1F
100
AcDbEntity
  8
0
  6
HIDDEN
 62
     7
370
     0
100
AcDbLine
 10
114.995206066
 20
73.2534457733
 30
0.0
 11
114.995206066
 21
78.9795645752
 31
0.0
  0
LINE
  5
171
330
1F
100
AcDbEntity
  8
0
  6
HIDDEN
 62
     7
370
     0
100
AcDbLine
 10
102.995206066
 20
78.9546136685
 30
0.0
 11
102.995206066
 21
74.0005743871
 31
0.0
  0
LINE
  5
172
330
1F
100
AcDbEntity
  8
0
  6
HIDDEN
 62
     7
370
     0
100
AcDbLine
 10
114.995206066
 20
141.9299553718
 30
0.0
 11
114.995206066
 21
147.6536383019
 31
0.0
  0
LINE
  5
173
330
1F
100
AcDbEntity
  8
0
  6
HIDDEN
 62
     7
370
     0
100
AcDbLine
 10
102.995206066
 20
146.9066515892
 30
0.0
 11
102.995206066
 21
141.9500386459
 31
0.0
  0
LINE
  5
174
330
1F
100
AcDbEntity
  8
0
  6
HIDDEN
 62
     7
370
     0
100
AcDbLine
 10
174.495206066
 20
116.4536294691
 30
0.0
 11
174.1947757565
 21
115.9536294691
 31
0.0
  0
LINE
  5
175
330
1F
100
AcDbEntity
  8
0
  6
HIDDEN
 62
     7
370
     0
100
AcDbLine
 10
174.1947757565
 20
104.9536294691
 30
0.0
 11
174.495206066
 21
104.4536294691
 31
0.0
  0
LINE
  5
176
330
1F
100
AcDbEntity
  8
0
  6
HIDDEN
 62
     7
370
     0
100
AcDbLine
 10
152.295206066
 20
104.9536294691
 30
0.0
 11
174.1947757565
 21
104.9536294691
 31
0.0
  0
LINE
  5
177
330
1F
100
AcDbEntity
  8
0
  6
HIDDEN
 62
     7
370
     0
100
AcDbLine
 10
174.1947757565
 20
115.9536294691
 30
0.0
 11
152.295206066
 21
115.9536294691
 31
0.0
  0
LINE
  5
178
330
1F
100
AcDbEntity
  8
0
  6
HIDDEN
 62
     7
370
     0
100
AcDbLine
 10
162.445206066
 20
127.4536294691
 30
0.0
 11
163.445206066
 21
126.8762791999
 31
0.0
  0
LINE
  5
179
330
1F
100
AcDbEntity
  8
0
  6
HIDDEN
 62
     7
370
     0
100
AcDbLine
 10
168.445206066
 20
126.8762791999
 30
0.0
 11
169.445206066
 21
127.4536294691
 31
0.0
  0
LINE
  5
17A
330
1F
100
AcDbEntity
  8
0
  6
HIDDEN
 62
     7
370
     0
100
AcDbLine
 10
169.445206066
 20
93.4536294691
 30
0.0
 11
168.445206066
 21
94.0309797383
 31
0.0
  0
LINE
  5
17B
330
1F
100
AcDbEntity
  8
0
  6
HIDDEN
 62
     7
370
     0
100
AcDbLine
 10
163.445206066
 20
94.0309797383
 30
0.0
 11
162.445206066
 21
93.4536294691
 31
0.0
  0
LINE
  5
17C
330
1F
100
AcDbEntity
  8
0
  6
HIDDEN
 62
     7
370
     0
100
AcDbLine
 10
163.445206066
 20
126.8762791999
 30
0.0
 11
163.445206066
 21
118.4536294691
 31
0.0
  0
LINE
  5
17D
330
1F
100
AcDbEntity
  8
0
  6
HIDDEN
 62
     7
370
     0
100
AcDbLine
 10
168.445206066
 20
118.4536294691
 30
0.0
 11
168.445206066
 21
126.8762791999
 31
0.0
  0
LINE
  5
17E
330
1F
100
AcDbEntity
  8
0
  6
HIDDEN
 62
     7
370
     0
100
AcDbLine
 10
163.445206066
 20
118.4536294691
 30
0.0
 11
165.945206066
 21
116.9514779216
 31
0.0
  0
LINE
  5
17F
330
1F
100
AcDbEntity
  8
0
  6
HIDDEN
 62
     7
370
     0
100
AcDbLine
 10
165.945206066
 20
116.9514779216
 30
0.0
 11
168.445206066
 21
118.4536294691
 31
0.0
  0
LINE
  5
180
330
1F
100
AcDbEntity
  8
0
  6
HIDDEN
 62
     7
370
     0
100
AcDbLine
 10
168.445206066
 20
102.4536294691
 30
0.0
 11
165.945206066
 21
103.9557810167
 31
0.0
  0
LINE
  5
181
330
1F
100
AcDbEntity
  8
0
  6
HIDDEN
 62
     7
370
     0
100
AcDbLine
 10
165.945206066
 20
103.9557810167
 30
0.0
 11
163.445206066
 21
102.4536294691
 31
0.0
  0
LINE
  5
182
330
1F
100
AcDbEntity
  8
0
  6
HIDDEN
 62
     7
370
     0
100
AcDbLine
 10
168.445206066
 20
94.0309797383
 30
0.0
 11
168.445206066
 21
102.4536294691
 31
0.0
  0
LINE
  5
183
330
1F
100
AcDbEntity
  8
0
  6
HIDDEN
 62
     7
370
     0
100
AcDbLine
 10
163.445206066
 20
102.4536294691
 30
0.0
 11
163.445206066
 21
94.0309797383
 31
0.0
  0
LINE
  5
184
330
1F
100
AcDbEntity
  8
0
  6
HIDDEN
 62
     7
370
     0
100
AcDbLine
 10
174.995206066
 20
122.1398604174
 30
0.0
 11
174.995206066
 21
118.7533316579
 31
0.0
  0
LINE
  5
185
330
1F
100
AcDbEntity
  8
0
  6
HIDDEN
 62
     7
370
     0
100
AcDbLine
 10
174.995206066
 20
124.9536294691
 30
0.0
 11
174.995206066
 21
124.4969551609
 31
0.0
  0
LINE
  5
186
330
1F
100
AcDbEntity
  8
0
  6
HIDDEN
 62
     7
370
     0
100
AcDbLine
 10
177.995206066
 20
124.5081820619
 30
0.0
 11
177.995206066
 21
124.9536294691
 31
0.0
  0
LINE
  5
187
330
1F
100
AcDbEntity
  8
0
  6
HIDDEN
 62
     7
370
     0
100
AcDbLine
 10
177.995206066
 20
118.7527172067
 30
0.0
 11
177.995206066
 21
122.0100099432
 31
0.0
  0
LINE
  5
188
330
1F
100
AcDbEntity
  8
0
  6
HIDDEN
 62
     7
370
     0
100
AcDbLine
 10
174.995206066
 20
96.4123374213
 30
0.0
 11
174.995206066
 21
95.9536294691
 31
0.0
  0
LINE
  5
189
330
1F
100
AcDbEntity
  8
0
  6
HIDDEN
 62
     7
370
     0
100
AcDbLine
 10
174.995206066
 20
102.1543046098
 30
0.0
 11
174.995206066
 21
98.7787282475
 31
0.0
  0
LINE
  5
18A
330
1F
100
AcDbEntity
  8
0
  6
HIDDEN
 62
     7
370
     0
100
AcDbLine
 10
177.995206066
 20
98.897248995
 30
0.0
 11
177.995206066
 21
102.1536294691
 31
0.0
  0
LINE
  5
18B
330
1F
100
AcDbEntity
  8
0
  6
HIDDEN
 62
     7
370
     0
100
AcDbLine
 10
177.995206066
 20
95.9536294691
 30
0.0
 11
177.995206066
 21
96.3969968625
 31
0.0
  0
LINE
  5
18C
330
1F
100
AcDbEntity
  8
0
  6
HIDDEN
 62
     7
370
     0
100
AcDbLine
 10
174.995206066
 20
95.9536294691
 30
0.0
 11
176.495206066
 21
95.0523385406
 31
0.0
  0
LINE
  5
18D
330
1F
100
AcDbEntity
  8
0
  6
HIDDEN
 62
     7
370
     0
100
AcDbLine
 10
176.495206066
 20
95.0523385406
 30
0.0
 11
177.995206066
 21
95.9536294691
 31
0.0
  0
LINE
  5
18E
330
1F
100
AcDbEntity
  8
0
  6
HIDDEN
 62
     7
370
     0
100
AcDbLine
 10
177.9938325807
 20
96.3952661341
 30
0.0
 11
223.9027385734
 21
98.1990319632
 31
0.0
  0
LINE
  5
18F
330
1F
100
AcDbEntity
  8
0
  6
HIDDEN
 62
     7
370
     0
100
AcDbLine
 10
223.995206066
 20
100.7045939174
 30
0.0
 11
177.995206066
 21
98.897248995
 31
0.0
  0
LINE
  5
190
330
1F
100
AcDbEntity
  8
0
  6
HIDDEN
 62
     7
370
     0
100
AcDbLine
 10
177.995206066
 20
122.0100099432
 30
0.0
 11
223.995206066
 21
120.2026650209
 31
0.0
  0
LINE
  5
191
330
1F
100
AcDbEntity
  8
0
  6
HIDDEN
 62
     7
370
     0
100
AcDbLine
 10
223.9047454259
 20
122.7081481256
 30
0.0
 11
177.9921513693
 21
124.5120588591
 31
0.0
  0
LINE
  5
192
330
1F
100
AcDbEntity
  8
0
  6
HIDDEN
 62
     7
370
     0
100
AcDbLine
 10
174.9839085205
 20
98.7789347922
 30
0.0
 11
174.2824865686
 21
97.5004114004
 31
0.0
  0
LINE
  5
193
330
1F
100
AcDbEntity
  8
0
  6
HIDDEN
 62
     7
370
     0
100
AcDbLine
 10
174.2824865686
 20
97.5004114004
 30
0.0
 11
174.9967795209
 21
96.4109335899
 31
0.0
  0
LINE
  5
194
330
1F
100
AcDbEntity
  8
0
  6
HIDDEN
 62
     7
370
     0
100
AcDbLine
 10
174.9995014555
 20
124.5004769886
 30
0.0
 11
174.2824865686
 21
123.4068475378
 31
0.0
  0
LINE
  5
195
330
1F
100
AcDbEntity
  8
0
  6
HIDDEN
 62
     7
370
     0
100
AcDbLine
 10
174.2824865686
 20
123.4068475378
 30
0.0
 11
174.9839085205
 21
122.128324146
 31
0.0
  0
LINE
  5
196
330
1F
100
AcDbEntity
  8
0
  6
HIDDEN
 62
     7
370
     0
100
AcDbLine
 10
127.995206066
 20
158.0062353654
 30
0.0
 11
127.995206066
 21
156.1306911066
 31
0.0
  0
LINE
  5
197
330
1F
100
AcDbEntity
  8
0
  6
HIDDEN
 62
     7
370
     0
100
AcDbLine
 10
137.995206066
 20
156.1251828483
 30
0.0
 11
137.995206066
 21
158.0005009326
 31
0.0
  0
LINE
  5
198
330
1F
100
AcDbEntity
  8
0
  6
HIDDEN
 62
     7
370
     0
100
AcDbLine
 10
223.8039393087
 20
100.9472719157
 30
0.0
 11
218.4700015048
 21
100.7377009286
 31
0.0
  0
LINE
  5
199
330
1F
100
AcDbEntity
  8
0
  6
HIDDEN
 62
     7
370
     0
100
AcDbLine
 10
218.5877809521
 20
97.7400138199
 30
0.0
 11
223.8020391947
 21
97.9448825842
 31
0.0
  0
LINE
  5
19A
330
1F
100
AcDbEntity
  8
0
  6
HIDDEN
 62
     7
370
     0
100
AcDbLine
 10
218.4700015048
 20
100.7377009286
 30
0.0
 11
217.9900168946
 21
100.2184565026
 31
0.0
  0
LINE
  5
19B
330
1F
100
AcDbEntity
  8
0
  6
HIDDEN
 62
     7
370
     0
100
AcDbLine
 10
218.0685365261
 20
98.2199984301
 30
0.0
 11
218.5877809521
 21
97.7400138199
 31
0.0
  0
LINE
  5
19C
330
1F
100
AcDbEntity
  8
0
  6
HIDDEN
 62
     7
370
     0
100
AcDbLine
 10
223.9767735825
 20
100.6733461706
 30
0.0
 11
223.8039393087
 21
100.9472719157
 31
0.0
  0
LINE
  5
19D
330
1F
100
AcDbEntity
  8
0
  6
HIDDEN
 62
     7
370
     0
100
AcDbLine
 10
223.8020391947
 20
122.9623763541
 30
0.0
 11
218.5288912285
 21
123.1695589019
 31
0.0
  0
LINE
  5
19E
330
1F
100
AcDbEntity
  8
0
  6
HIDDEN
 62
     7
370
     0
100
AcDbLine
 10
218.4111117812
 20
120.1718717932
 30
0.0
 11
223.7450495851
 21
119.9623008061
 31
0.0
  0
LINE
  5
19F
330
1F
100
AcDbEntity
  8
0
  6
HIDDEN
 62
     7
370
     0
100
AcDbLine
 10
223.7450495851
 20
119.9623008061
 30
0.0
 11
223.9178838588
 21
120.2362265512
 31
0.0
  0
LINE
  5
1A0
330
1F
100
AcDbEntity
  8
0
  6
HIDDEN
 62
     7
370
     0
100
AcDbLine
 10
218.5288912285
 20
123.1695589019
 30
0.0
 11
218.0096468025
 21
122.6895742917
 31
0.0
  0
LINE
  5
1A1
330
1F
100
AcDbEntity
  8
0
  6
HIDDEN
 62
     7
370
     0
100
AcDbLine
 10
217.931127171
 20
120.6911162192
 30
0.0
 11
218.4111117812
 21
120.1718717932
 31
0.0
  0
LINE
  5
1A2
330
1F
100
AcDbEntity
  8
0
  6
HIDDEN
 62
     7
370
     0
100
AcDbLine
 10
164.995206066
 20
104.4536294691
 30
0.0
 11
179.995206066
 21
104.4536294691
 31
0.0
  0
LINE
  5
1A3
330
1F
100
AcDbEntity
  8
0
  6
HIDDEN
 62
     7
370
     0
100
AcDbLine
 10
179.995206066
 20
116.4536294691
 30
0.0
 11
164.995206066
 21
116.4536294691
 31
0.0
  0
LINE
  5
1A4
330
1F
100
AcDbEntity
  8
0
  6
HIDDEN
 62
     7
370
     0
100
AcDbLine
 10
179.995206066
 20
104.4536294691
 30
0.0
 11
180.495206066
 21
104.9536294691
 31
0.0
  0
LINE
  5
1A5
330
1F
100
AcDbEntity
  8
0
  6
HIDDEN
 62
     7
370
     0
100
AcDbLine
 10
180.495206066
 20
115.9536294691
 30
0.0
 11
179.995206066
 21
116.4536294691
 31
0.0
  0
LINE
  5
1A6
330
1F
100
AcDbEntity
  8
0
  6
HIDDEN
 62
     7
370
     0
100
AcDbLine
 10
164.995206066
 20
116.4536294691
 30
0.0
 11
164.495206066
 21
115.9536294691
 31
0.0
  0
LINE
  5
1A7
330
1F
100
AcDbEntity
  8
0
  6
HIDDEN
 62
     7
370
     0
100
AcDbLine
 10
164.495206066
 20
104.9536294691
 30
0.0
 11
164.995206066
 21
104.4536294691
 31
0.0
  0
LINE
  5
1A8
330
1F
100
AcDbEntity
  8
0
  6
HIDDEN
 62
     7
370
     0
100
AcDbLine
 10
180.495206066
 20
104.9536294691
 30
0.0
 11
184.495206066
 21
104.9536294691
 31
0.0
  0
LINE
  5
1A9
330
1F
100
AcDbEntity
  8
0
  6
HIDDEN
 62
     7
370
     0
100
AcDbLine
 10
184.495206066
 20
115.9536294691
 30
0.0
 11
180.495206066
 21
115.9536294691
 31
0.0
  0
LINE
  5
1AA
330
1F
100
AcDbEntity
  8
0
  6
HIDDEN
 62
     7
370
     0
100
AcDbLine
 10
171.4952060659
 20
107.4536294691
 30
0.0
 11
177.495206066
 21
107.4536294691
 31
0.0
  0
LINE
  5
1AB
330
1F
100
AcDbEntity
  8
0
  6
HIDDEN
 62
     7
370
     0
100
AcDbLine
 10
177.495206066
 20
113.4536294691
 30
0.0
 11
171.4952060659
 21
113.4536294691
 31
0.0
  0
DIMENSION
  5
1AC
330
1F
100
AcDbEntity
  8
VERMASSUNG
100
AcDbDimension
  2
*D1
 10
68.9002166847
 20
60.4536294691
 30
0.0
 11
68.9002166847
 21
110.4536294691
 31
0.0
 70
   160
  1
HSK A %%c<>
 71
     2
 42
-1.0
  3
SLDDIMSTYLE0
100
AcDbAlignedDimension
 13
124.495206066
 23
160.4536294691
 33
0.0
 14
124.495206066
 24
60.4536294691
 34
0.0
 50
90.0
100
AcDbRotatedDimension
  0
DIMENSION
  5
1B9
330
1F
100
AcDbEntity
  8
VERMASSUNG
100
AcDbDimension
  2
*D2
 10
223.995206066
 20
158.4536294691
 30
0.0
 11
199.245206066
 21
158.4536294691
 31
0.0
 70
   160
 71
     2
 42
-1.0
  3
SLDDIMSTYLE1
100
AcDbAlignedDimension
 13
174.495206066
 23
118.3536294691
 33
0.0
 14
223.995206066
 24
122.1048484858
 34
0.0
 50
0.0
100
AcDbRotatedDimension
  0
DIMENSION
  5
1C4
330
1F
100
AcDbEntity
  8
VERMASSUNG
100
AcDbDimension
  2
*D3
 10
234.0835406514
 20
118.4536294691
 30
0.0
 11
234.0835406514
 21
110.4536294691
 31
0.0
 70
   160
  1
%%c<>
 71
     2
 42
-1.0
  3
SLDDIMSTYLE2
100
AcDbAlignedDimension
 13
220.495206066
 23
102.4536294691
 33
0.0
 14
220.495206066
 24
118.4536294691
 34
0.0
 50
90.0
100
AcDbRotatedDimension
  0
DIMENSION
  5
1D0
330
1F
100
AcDbEntity
  8
VERMASSUNG
100
AcDbDimension
  2
*D4
 10
240.0835406514
 20
123.9536294691
 30
0.0
 11
240.0835406514
 21
110.4536294691
 31
0.0
 70
   160
  1
%%c<>
 71
     2
 42
-1.0
  3
SLDDIMSTYLE3
100
AcDbAlignedDimension
 13
223.995206066
 23
96.9536294691
 33
0.0
 14
223.995206066
 24
123.9536294691
 34
0.0
 50
90.0
100
AcDbRotatedDimension
  0
DIMENSION
  5
1DC
330
1F
100
AcDbEntity
  8
VERMASSUNG
100
AcDbDimension
  2
*D5
 10
246.0835406514
 20
127.4536294691
 30
0.0
 11
246.0835406514
 21
110.4536294691
 31
0.0
 70
   160
  1
%%c<>
 71
     2
 42
-1.0
  3
SLDDIMSTYLE3
100
AcDbAlignedDimension
 13
173.995206066
 23
93.4536294691
 33
0.0
 14
173.995206066
 24
127.4536294691
 34
0.0
 50
90.0
100
AcDbRotatedDimension
  0
DIMENSION
  5
1E7
330
1F
100
AcDbEntity
  8
VERMASSUNG
100
AcDbDimension
  2
*D6
 10
223.995206066
 20
170.4536294691
 30
0.0
 11
173.995206066
 21
170.4536294691
 31
0.0
 70
   160
 71
     2
 42
-1.0
  3
SLDDIMSTYLE0
100
AcDbAlignedDimension
 13
123.995206066
 23
159.9536294691
 33
0.0
 14
223.995206066
 24
122.1048484858
 34
0.0
100
AcDbRotatedDimension
  0
DIMENSION
  5
1F1
330
1F
100
AcDbEntity
  8
VERMASSUNG
100
AcDbDimension
  2
*D7
 10
223.995206066
 20
164.4536294691
 30
0.0
 11
188.470206066
 21
164.4536294691
 31
0.0
 70
   160
 71
     2
 42
-1.0
  3
SLDDIMSTYLE0
100
AcDbAlignedDimension
 13
152.945206066
 23
158.42236929
 33
0.0
 14
223.995206066
 24
122.0530772289
 34
0.0
100
AcDbRotatedDimension
  0
DIMENSION
  5
1FB
330
1F
100
AcDbEntity
  8
VERMASSUNG
100
AcDbDimension
  2
*D8
 10
223.995206066
 20
176.4536294691
 30
0.0
 11
149.045206066
 21
176.4536294691
 31
0.0
 70
   160
 71
     2
 42
-1.0
  3
SLDDIMSTYLE0
100
AcDbAlignedDimension
 13
74.095206066
 23
140.9562992117
 33
0.0
 14
223.995206066
 24
122.0530772289
 34
0.0
100
AcDbRotatedDimension
  0
LINE
  5
205
330
1F
100
AcDbEntity
  8
VERMASSUNG
  6
CENTERX2
370
     0
100
AcDbLine
 10
71.844736705
 20
110.4536294691
 30
0.0
 11
228.3318526544
 21
110.4536294691
 31
0.0
  0
OLE2FRAME
  5
206
330
1F
100
AcDbEntity
  8
0
100
AcDbOle2Frame
 70
     2
  3
Bitmap Image
 10
13.8511154363
 20
38.264191557
 30
0.0
 11
51.6290888628
 21
31.9806341108
 31
0.0
 71
     2
 72
     0
 73
     1
 90
    12928
310
80552BED0767C5B32B40DDAF6807D121434000000000000000006FFBDDFB85D0
310
4940DDAF6807D121434000000000000000006FFBDDFB85D04940416F4BD60AFB
310
3F4000000000000000002BED0767C5B32B40416F4BD60AFB3F40000000000000
310
0000000000000100000000010000010000000100000000000100000000320000
310
D0CF11E0A1B11AE1000000000000000000000000000000003E000300FEFF0900
310
0600000000000000000000000100000001000000000000000010000002000000
310
01000000FEFFFFFF0000000000000000FFFFFFFFFFFFFFFFFFFFFFFFFFFFFFFF
310
FFFFFFFFFFFFFFFFFFFFFFFFFFFFFFFFFFFFFFFFFFFFFFFFFFFFFFFFFFFFFFFF
310
FFFFFFFFFFFFFFFFFFFFFFFFFFFFFFFFFFFFFFFFFFFFFFFFFFFFFFFFFFFFFFFF
310
FFFFFFFFFFFFFFFFFFFFFFFFFFFFFFFFFFFFFFFFFFFFFFFFFFFFFFFFFFFFFFFF
310
FFFFFFFFFFFFFFFFFFFFFFFFFFFFFFFFFFFFFFFFFFFFFFFFFFFFFFFFFFFFFFFF
310
FFFFFFFFFFFFFFFFFFFFFFFFFFFFFFFFFFFFFFFFFFFFFFFFFFFFFFFFFFFFFFFF
310
FFFFFFFFFFFFFFFFFFFFFFFFFFFFFFFFFFFFFFFFFFFFFFFFFFFFFFFFFFFFFFFF
310
FFFFFFFFFFFFFFFFFFFFFFFFFFFFFFFFFFFFFFFFFFFFFFFFFFFFFFFFFFFFFFFF
310
FFFFFFFFFFFFFFFFFFFFFFFFFFFFFFFFFFFFFFFFFFFFFFFFFFFFFFFFFFFFFFFF
310
FFFFFFFFFFFFFFFFFFFFFFFFFFFFFFFFFFFFFFFFFFFFFFFFFFFFFFFFFFFFFFFF
310
FFFFFFFFFFFFFFFFFFFFFFFFFFFFFFFFFFFFFFFFFFFFFFFFFFFFFFFFFFFFFFFF
310
FFFFFFFFFFFFFFFFFFFFFFFFFFFFFFFFFFFFFFFFFFFFFFFFFFFFFFFFFFFFFFFF
310
FFFFFFFFFFFFFFFFFFFFFFFFFFFFFFFFFFFFFFFFFFFFFFFFFFFFFFFFFFFFFFFF
310
FFFFFFFFFFFFFFFFFFFFFFFFFFFFFFFFFFFFFFFFFFFFFFFFFFFFFFFFFFFFFFFF
310
FDFFFFFFFEFFFFFFFEFFFFFFFEFFFFFF05000000060000000700000008000000
310
090000000A0000000B0000000C0000000D0000000E0000000F00000010000000
310
11000000120000001300000014000000150000001600000017000000FEFFFFFF
310
FFFFFFFFFFFFFFFFFFFFFFFFFFFFFFFFFFFFFFFFFFFFFFFFFFFFFFFFFFFFFFFF
310
FFFFFFFFFFFFFFFFFFFFFFFFFFFFFFFFFFFFFFFFFFFFFFFFFFFFFFFFFFFFFFFF
310
FFFFFFFFFFFFFFFFFFFFFFFFFFFFFFFFFFFFFFFFFFFFFFFFFFFFFFFFFFFFFFFF
310
FFFFFFFFFFFFFFFFFFFFFFFFFFFFFFFFFFFFFFFFFFFFFFFFFFFFFFFFFFFFFFFF
310
FFFFFFFFFFFFFFFFFFFFFFFFFFFFFFFFFFFFFFFFFFFFFFFFFFFFFFFFFFFFFFFF
310
FFFFFFFFFFFFFFFFFFFFFFFFFFFFFFFFFFFFFFFFFFFFFFFFFFFFFFFFFFFFFFFF
310
FFFFFFFFFFFFFFFFFFFFFFFFFFFFFFFFFFFFFFFFFFFFFFFFFFFFFFFFFFFFFFFF
310
FFFFFFFFFFFFFFFFFFFFFFFFFFFFFFFFFFFFFFFFFFFFFFFFFFFFFFFFFFFFFFFF
310
FFFFFFFFFFFFFFFFFFFFFFFFFFFFFFFFFFFFFFFFFFFFFFFFFFFFFFFFFFFFFFFF
310
FFFFFFFFFFFFFFFFFFFFFFFFFFFFFFFFFFFFFFFFFFFFFFFFFFFFFFFFFFFFFFFF
310
FFFFFFFFFFFFFFFFFFFFFFFFFFFFFFFFFFFFFFFFFFFFFFFFFFFFFFFFFFFFFFFF
310
FFFFFFFFFFFFFFFFFFFFFFFFFFFFFFFFFFFFFFFFFFFFFFFFFFFFFFFFFFFFFFFF
310
FFFFFFFFFFFFFFFFFFFFFFFFFFFFFFFFFFFFFFFFFFFFFFFFFFFFFFFFFFFFFFFF
310
52006F006F007400200045006E00740072007900000000000000000000000000
310
0000000000000000000000000000000000000000000000000000000000000000
310
16000500FFFFFFFFFFFFFFFF020000000A00030000000000C000000000000046
310
00000000000000000000000050849F399008CC0103000000C000000000000000
310
01004F006C006500000000000000000000000000000000000000000000000000
310
0000000000000000000000000000000000000000000000000000000000000000
310
0A000200FFFFFFFFFFFFFFFFFFFFFFFF00000000000000000000000000000000
310
0000000000000000000000000000000000000000000000001400000000000000
310
010043006F006D0070004F0062006A0000000000000000000000000000000000
310
0000000000000000000000000000000000000000000000000000000000000000
310
120002010100000003000000FFFFFFFF00000000000000000000000000000000
310
0000000000000000000000000000000000000000010000004D00000000000000
310
01004F006C006500310030004E00610074006900760065000000000000000000
310
0000000000000000000000000000000000000000000000000000000000000000
310
1A000200FFFFFFFFFFFFFFFFFFFFFFFF00000000000000000000000000000000
310
0000000000000000000000000000000000000000040000002426000000000000
310
FEFFFFFF02000000FEFFFFFFFFFFFFFFFFFFFFFFFFFFFFFFFFFFFFFFFFFFFFFF
310
FFFFFFFFFFFFFFFFFFFFFFFFFFFFFFFFFFFFFFFFFFFFFFFFFFFFFFFFFFFFFFFF
310
FFFFFFFFFFFFFFFFFFFFFFFFFFFFFFFFFFFFFFFFFFFFFFFFFFFFFFFFFFFFFFFF
310
FFFFFFFFFFFFFFFFFFFFFFFFFFFFFFFFFFFFFFFFFFFFFFFFFFFFFFFFFFFFFFFF
310
FFFFFFFFFFFFFFFFFFFFFFFFFFFFFFFFFFFFFFFFFFFFFFFFFFFFFFFFFFFFFFFF
310
FFFFFFFFFFFFFFFFFFFFFFFFFFFFFFFFFFFFFFFFFFFFFFFFFFFFFFFFFFFFFFFF
310
FFFFFFFFFFFFFFFFFFFFFFFFFFFFFFFFFFFFFFFFFFFFFFFFFFFFFFFFFFFFFFFF
310
FFFFFFFFFFFFFFFFFFFFFFFFFFFFFFFFFFFFFFFFFFFFFFFFFFFFFFFFFFFFFFFF
310
FFFFFFFFFFFFFFFFFFFFFFFFFFFFFFFFFFFFFFFFFFFFFFFFFFFFFFFFFFFFFFFF
310
FFFFFFFFFFFFFFFFFFFFFFFFFFFFFFFFFFFFFFFFFFFFFFFFFFFFFFFFFFFFFFFF
310
FFFFFFFFFFFFFFFFFFFFFFFFFFFFFFFFFFFFFFFFFFFFFFFFFFFFFFFFFFFFFFFF
310
FFFFFFFFFFFFFFFFFFFFFFFFFFFFFFFFFFFFFFFFFFFFFFFFFFFFFFFFFFFFFFFF
310
FFFFFFFFFFFFFFFFFFFFFFFFFFFFFFFFFFFFFFFFFFFFFFFFFFFFFFFFFFFFFFFF
310
FFFFFFFFFFFFFFFFFFFFFFFFFFFFFFFFFFFFFFFFFFFFFFFFFFFFFFFFFFFFFFFF
310
FFFFFFFFFFFFFFFFFFFFFFFFFFFFFFFFFFFFFFFFFFFFFFFFFFFFFFFFFFFFFFFF
310
FFFFFFFFFFFFFFFFFFFFFFFFFFFFFFFFFFFFFFFFFFFFFFFFFFFFFFFFFFFFFFFF
310
0100000200000000000000000000000000000000000000008010820000000004
310
701EF07100000000C80225000000000000000000000000000000000000000000
310
0100FEFF030A0000FFFFFFFF0A00030000000000C00000000000004607000000
310
5042727573680007000000504272757368000700000050427275736800F439B2
310
7100000000000000000000000000000000000000000000000000000000000000
310
0000000000000000000000000000000000000000000000000000000000000000
310
0000000000000000000000000000000000000000000000000000000000000000
310
0000000000000000000000000000000000000000000000000000000000000000
310
0000000000000000000000000000000000000000000000000000000000000000
310
0000000000000000000000000000000000000000000000000000000000000000
310
0000000000000000000000000000000000000000000000000000000000000000
310
0000000000000000000000000000000000000000000000000000000000000000
310
0000000000000000000000000000000000000000000000000000000000000000
310
0000000000000000000000000000000000000000000000000000000000000000
310
0000000000000000000000000000000000000000000000000000000000000000
310
0000000000000000000000000000000000000000000000000000000000000000
310
20260000424D0E260000000000003E00000028000000B40200006E0000000100
310
01000000000000000000130B0000130B00000200000002000000000000FFFFFF
310
FFFFFFFFFFFFFFFFFFFFFFFFFFFFFFFFFFFFFFFFFFFFFFFFFFFFFFFFFFFFFFFF
310
FFFFFFFFFFFFFFFFFFFFFFFFFFFFFFFFFFFFFFFFFFFFFFFFFFFFFFFFFFFFFFFF
310
FFFFFFFFFFFFFFFFFFFFFFFFFFFFFFFFFFFFFFFFFFFFFFFFF000FFFFFFFFFFFF
310
FFFFFFFFFFFFFFFFFFFFFFFFFFFFFFFFFFFFFFFFFFFFFFFFFFFFFFFFFFFFFFFF
310
FFFFFFFFFFFFFFFFFFFFFFFFFFFFFFFFFFFFFFFFFFFFFFFFFFFFFFFFFFFFFFFF
310
FFFFFFFFFFFFFFFFFFFFFFFFFFFFFFFFF000FFFFFFFFFFFFFFFFFFFFFFFFFFFF
310
FFFFFFFFFFFFFFFFFFFFFFFFFFFFFFFFFFFFFFFFFFFFFFFFFFFFFFFFFFFFFFFF
310
FFFFFFFFFFFFFFFFFFFFFFFFFFFFFFFFFFFFFFFFFFFFFFFFFFFFFFFFFFFFFFFF
310
FFFFFFFFFFFFFFFFF000FFFFFFFFFFFFFFFFFFFFFFFFFFFFFFFFFFFFFFFFFFFF
310
FFFFFFFFFFFFFFFFFFFFFFFFFFFFFFFFFFFFFFFFFFFFFFFFFFFFFFFFFFFFFFFF
310
FFFFFFFFFFFFFFFFFFFFFFFFFFFFFFFFFFFFFFFFFFFFFFFFFFFFFFFFFFFFFFFF
310
F000FFFFFFFFFFFFFFFFFFFFFFFFFFFFFFFFFFFFFFFFFFFFFFFFFFFFFFFFFFFF
310
FFFFFFFFFFFFFFFFFFFFFFFFFFFFFFFFFFFFFFFFFFFFFFFFFFFFFFFFFFFFFFFF
310
FFFFFFFFFFFFFFFFFFFFFFFFFFFFFFFFFFFFFFFFFFFFFFFFF000FFFFFFFFFFFF
310
FFFFFFFFFFFFFFFFFFFFFFFFFFFFFFFFFFFFFFFFFFFFFFFFFFFFFFFFFFFFFFFF
310
FFFFFFFFFFFFFFFFFFFFFFFFFFFFFFFFFFFFFFFFFFFFFFFFFFFFFFFFFFFFFFFF
310
FFFFFFFFFFFFFFFFFFFFFFFFFFFFFFFFF000FFFFFFFFFFFFFFFFFFFFFFFFFFFF
310
FFFFFFFFFFFFFFFFFFFFFFFFFFFFFFFFFFFFFFFFFFFFFFFFFFFFFFFFFFFFFFFF
310
FFFFFFFFFFFFFFFFFFFFFFFFFFFFFFFFFFFFFFFFFFFFFFFFFFFFFFFFFFFFFFFF
310
FFFFFFFFFFFFFFFFF000FFFFFFFFFFFFFFFFFFFFFFFFFFFFFFFFFFFFFFFFFFFF
310
FFFFFFFFFFFFFFFFFFFFFFFFFFFFFFFFFFFFFFFFFFFFFFFFFFFFFFFFFFFFFFFF
310
FFFFFFFFFFFFFFFFFFFFFFFFFFFFFFFFFFFFFFFFFFFFFFFFFFFFFFFFFFFFFFFF
310
F000FFFFFFFFFFFFFFFFFFFFFFFFFFFFFFFFFFFFFFFFFFFFFFFFFFFFFFFFFFFF
310
FFFFFFFFFFFFFFFFFFFFFFFFFFFFFFFFFFFFFFFFFFFFFFFFFFFFFFFFFFFFFFFF
310
FFFFFFFFFFFFFFFFFFFFFFFFFFFFFFFFFFFFFFFFFFFFFFFFF000FFFFFFFFFFFF
310
FFFFFFFFFFFFFFFFFFFFFFFFFFFFFFFFFFFFFFFFFFFFFFFFFFFFFFFFFFFFFFFF
310
FFFFFFFFFFFFFFFFFFFFFFFFFFFFFFFFFFFFFFFFFFFFFFFFFFFFFFFFFFFFFFFF
310
FFFFFFFFFFFFFFFFFFFFFFFFFFFFFFFFF000FFFFFFFFFFFFFFFFFFFFFFFFFFFF
310
FFFFFFFFFFFFFFFFFFFFFFFFFFFFFFFFFFFFFFFFFFFFFFFFFFFFFFFFFFFFFFFF
310
FFFFFFFFFFFFFFFFFFFFFFFFFFFFFFFFFFFFFFFFFFFFFFFFFFFFFFFFFFFFFFFF
310
FFFFFFFFFFFFFFFFF000FFFFFFFFFFFFFFFFFFFFFFFFFFFFFFFFFFFFFFFFFFFF
310
FFFFFFFFFFFFFFFFFFFFFFFFFFFFFFFFFFFFFFFFFFFFFFFFFFFFFFFFFFFFFFFF
310
FFFFFFFFFFFFFFFFFFFFFFFFFFFFFFFFFFFFFFFFFFFFFFFFFFFFFFFFFFFFFFFF
310
F000FFFFFFFFFFFFFFFFFFFFFFFFFFFFFFFFFFFFFFFFFFFFFFFFFFFFFFFFFFFF
310
FFFFFFFFFFFFFFFFFFFFFFFFFFFFFFFFFFFFFFFFFFFFFFFFFFFFFFFFFFFFFFFF
310
FFFFFFFFFFFFFFFFFFFFFFFFFFFFFFFFFFFFFFFFFFFFFFFFF000FFFFFFFFFFFF
310
FFFFFFFFFFFFFFFFFFFFFFFFFFFFFFFFFFFFFFFFFFFFFFFFFFFFFFFFFFFFFFFF
310
FFFFFFFFFFFFFFFFFFFFFFFFFFFFFFFFFFFFFFFFFFFFFFFFFFFFFFFFFFFFFFFF
310
FFFFFFFFFFFFFFFFFFFFFFFFFFFFFFFFF000FFFFFFFFFFFFFFFFFFFFFFFFFFFF
310
FFFFFFFFFFFFFFFFFFFFFFFFFFFFFFFFFFFFFFFFFFFFFFFFFFFFFFFFFFFFFFFF
310
FFFFFFFFFFFFFFFFFFFFFFFFFFFFFFFFFFFFFFFFFFFFFFFFFFFFFFFFFFFFFFFF
310
FFFFFFFFFFFFFFFFF000FFFFFFFFFFFFFFFFFFFFFFFFFFFFFFFFFFFFFFFFFFFF
310
FFFFFFFFFFFFFFFFFFFFFFFFFFFFFFFFFFFFFFFFFFFFFFFFFFFFFFFFFFFFFFFF
310
FFFFFFFFFFFFFFFFFFFFFFFFFFFFFFFFFFFFFFFFFFFFFFFFFFFFFFFFFFFFFFFF
310
F000FFFFFFFFFFFFFFFFFFFFFFFFFFFFFFFFFFFFFFFFFFFFFFFFFFFFFFFFFFFF
310
FFFFFFFFFFFFFFFFFFFFFFFFFFFFFFFFFFFFFFFFFFFFFFFFFFFFFFFFFFFFFFFF
310
FFFFFFFFFFFFFFFFFFFFFFFFFFFFFFFFFFFFFFFFFFFFFFFFF000FFFFFFFFFFFF
310
FFFFFFFFFFFFFFFFFFFFFFFFFFFFFFFFFFFFFFFFFFFFFFFFFFFFFFFFFFFFFFFF
310
FFFFFFFFFFFFFFFFFFFFFFFFFFFFFFFFFFFFFFFFFFFFFFFFFFFFFFFFFFFFFFFF
310
FFFFFFFFFFFFFFFFFFFFFFFFFFFFFFFFF000FFFFFFFFFFFFFFFFFFFFFFFFFFFF
310
FFFFFFFFFFFFFFFFFFFFFFFFFFFFFFFFFFFFFFFFFFFFFFFFFFFFFFFFFFFFFFFF
310
FFFFFFFFFFFFFFFFFFFFFFFFFFFFFFFFFFFFFFFFFFFFFFFFFFFFFFFFFFFFFFFF
310
FFFFFFFFFFFFFFFFF000FFFFF80003FFFFFFFFFFFFFFFFFFFFFFFFFFFFFFFFFF
310
FFFFF00007FFFFFFFFFF00007FFFFFF800000000000000007FFFFFFFFFFFFFFF
310
FFFFFFFC001FFFFFFFFFFFFFFC001FFFFFFFFFFFFFFFFFFFFFFFFFFE0007FFFF
310
F000FFFF8000007FFFFFFFF8000FFFFFC0007FFFFF80007FFFFF0000007FFFFF
310
FFF8000007FFFFF800000000000000007FFFFFF0001FFFFFFFFFFFC00001FFFF
310
FFFFFFFFC00001FFFFFFFF000000000003FFFFE000007FFFF000FFFE0000000F
310
FFFFFFF0000FFFFF80007FFFFF80007FFFFC0000001FFFFFFFC0000001FFFFF8
310
00000000000000007FFFFFF0001FFFFFFFFFFE0000003FFFFFFFFFFE0000003F
310
FFFFFF000000000003FFFF0000000FFFF000FFF800000003FFFFFFF00007FFFF
310
80007FFFFF80007FFFF000000007FFFFFF000000003FFFF80000000000000000
310
7FFFFFF0001FFFFFFFFFF80000000FFFFFFFFFF80000000FFFFFFF0000000000
310
03FFFC00000003FFF000FFE000000000FFFFFFF00007FFFF80003FFFFF80007F
310
FFC000000001FFFFFC000000001FFFF800000000000000007FFFFFF0001FFFFF
310
FFFFE000000003FFFFFFFFE000000003FFFFFF000000000003FFF000000000FF
310
F000FF80000000007FFFFFF00007FFFF80003FFFFF80007FFF8000000000FFFF
310
F80000000007FFF800000000000000007FFFFFF0001FFFFFFFFFC000000001FF
310
FFFFFFC000000001FFFFFF000000000003FFC0000000007FF000FF0000000000
310
3FFFFFE00007FFFF00003FFFFF80007FFE00000000003FFFF00000000003FFF8
310
00000000000000007FFFFFF0001FFFFFFFFF8000000000FFFFFFFF8000000000
310
FFFFFF000000000003FF80000000003FF000FE00000000001FFFFFE00003FFFF
310
00003FFFFF80007FFC00000000001FFFE00000000001FFF8000001FFFE000000
310
7FFFFFF0001FFFFFFFFE00000000003FFFFFFE00000000003FFFFF0000000000
310
03FF00000000001FF000FC00000000000FFFFFE00003FFFF00001FFFFF80007F
310
F800000000001FFFC00000000000FFF8000001FFFE0000007FFFFFF0001FFFFF
310
FFFC00000000001FFFFFFC00000000001FFFFF000000000003FE00000000000F
310
F000F8000000000007FFFFE00003FFFF00001FFFFF80007FF800000000000FFF
310
800000000000FFF8000001FFFE0000007FFFFFF0001FFFFFFFF800000000000F
310
FFFFF800000000000FFFFF000000000003FC000000000007F000F80000000000
310
03FFFFC00003FFFE00001FFFFF80007FF0000000000007FF0000000000007FF8
310
000001FFFE0000007FFFFFF0001FFFFFFFF0000000000007FFFFF00000000000
310
07FFFF000000000003F8000000000003F000F0000000000003FFFFC00001FFFE
310
00001FFFFF80007FE0000000000007FE0000000000003FF8000001FFFE000000
310
7FFFFFF0001FFFFFFFF0000000000007FFFFF0000000000007FFFF0000000000
310
03F800001F800003F000E00001FFF00001FFFFC00001FFFE00000FFFFF80007F
310
E00001FFE00003FE00001FFF00003FF8000001FFFE0000007FFFFFF0001FFFFF
310
FFE000003E000003FFFFE000003E000003FFFF000000000003F00001FFF80001
310
F000E00007FFFC0001FFFFC00001FFFE00000FFFFF80007FC0000FFFFC0003FC
310
0000FFFFC0001FF8000001FFFE0000007FFFFFF0001FFFFFFFC00003FFE00001
310
FFFFC00003FFE00001FFFF0001FFFFFFFFF00007FFFE0001F000E0000FFFFF00
310
00FFFF800001FFFC00000FFFFF80007FC0001FFFFE0001FC0001FFFFE0001FF8
310
000001FFFE0000007FFFFFF0001FFFFFFF80000FFFF80000FFFF80000FFFF800
310
00FFFF0003FFFFFFFFE0000FFFFF8000F000C0003FFFFF8000FFFF800000FFFC
310
000007FFFF80007F80003FFFFF0001FC0003FFFFF0001FF8000001FFFE000000
310
7FFFFFF0001FFFFFFF80003FFFFE0000FFFF80003FFFFE0000FFFF0003FFFFFF
310
FFE0003FFFFF8000F000C0003FFFFF8000FFFF800000FFFC000007FFFF80007F
310
80007FFFFF8001F80007FFFFF8000FF8000001FFFE0000007FFFFFF0001FFFFF
310
FF00007FFFFF00007FFF00007FFFFF00007FFF0003FFFFFFFFE0003FFFFFC000
310
F000C0007FFFFFC000FFFF000000FFFC000007FFFF80007F8000FFFFFF8000F8
310
000FFFFFF8000FF8000001FFFE0000007FFFFFF0001FFFFFFF0000FFFFFF8000
310
7FFF0000FFFFFF80007FFF0003FFFFFFFFC0007FFFFFC00070008000FFFFFFC0
310
00FFFF000000FFF8000007FFFF80007F8000FFFFFF8000F8000FFFFFF8000FF8
310
000001FFFE0000007FFFFFF0001FFFFFFE0001FFFFFFC0003FFE0001FFFFFFC0
310
003FFF0003FFFFFFFFC0007FFFFFE00070008000FFFFFFC0007FFF0000007FF8
310
000003FFFF80007F0001FFFFFF8000F8000FFFFFF8000FF8000001FFFE000000
310
7FFFFFF0001FFFFFFE0001FFFFFFC0003FFE0001FFFFFFC0003FFF0003FFFFFF
310
FFC000FFFFFFE00070008000FFFFFFC0007FFF0000007FF8000003FFFF80007F
310
0001FFFFFF8000F8001FFFFFF8000FF8000001FFFE0000007FFFFFF0001FFFFF
310
FE0003FFFFFFE0003FFE0003FFFFFFE0003FFF0003FFFFFFFFC000FFFFFFE000
310
70008000FFFFFFC0007FFE0000007FF8000003FFFF80007F0001FFFFFF8000F0
310
001FFFFFF8000FF8000001FFFE0000007FFFFFF0001FFFFFFC0003FFFFFFE000
310
1FFC0003FFFFFFE0001FFF0003FFFFFFFFC000FFFFFFC00070008000FFFFFF80
310
007FFE0000007FF0000003FFFF80007F0001FFFFFF0000F0001FFFFFF8000FF8
310
000001FFFE0000007FFFFFF0001FFFFFFC0007FFFFFFF0001FFC0007FFFFFFF0
310
001FFF0003FFFFFFFFC000FFFFFFC00070008001FFFFFF0000FFFE0000003FF0
310
000001FFFF80007F0001FFFFFF0000F8001FFFFFF0000FF8000001FFFE000000
310
7FFFFFF0001FFFFFFC0007FFFFFFF0001FFC0007FFFFFFF0001FFF0003FFFFFF
310
FFC001FFFFFF80007000FFFFFFFFFE0000FFFE0008003FF0008001FFFF80007F
310
FFFFFFFFFC0000FFFFFFFFFFE0000FF8000001FFFE0000007FFFFFF0001FFFFF
310
F8000FFFFFFFF8000FF8000FFFFFFFF8000FFF0003FFFFFFFFFFFFFFFFFF0000
310
7000FFFFFFFFFC0000FFFC0008003FF0008001FFFF80007FFFFFFFFFF80001FF
310
FFFFFFFF80000FF8000001FFFE0000007FFFFFF0001FFFFFF8000FFFFFFFF800
310
0FF8000FFFFFFFF8000FFF0003FFFFFFFFFFFFFFFFFE0000F000FFFFFFFFE000
310
00FFFC000C003FE000C001FFFF80007FFFFFFFFFC00001FFFFFFFFFE00001FF8
310
000001FFFE0000007FFFFFF0001FFFFFF8000FFFFFFFF8000FF8000FFFFFFFF8
310
000FFF0003FFFFFFFFFFFFFFFFF00000F000FFFFFFFE000001FFFC000C001FE0
310
00C000FFFF80007FFFFFFFFE000001FFFFFFFFE000001FF80FFFFFFFFFFFFFC0
310
7FFFFFF0001FFFFFF8000FFFFFFFF8000FF8000FFFFFFFF8000FFF0003FFFFFF
310
FFFFFFFFFF800000F000FFFFFFC0000001FFFC001C001FE001C000FFFF80007F
310
FFFFFF80000003FFFFFFF80000001FF80FFFFFFFFFFFFFC07FFFFFF0001FFFFF
310
F8001FFFFFFFFC000FF8001FFFFFFFFC000FFF0003FFFFFFFFFFFFFFF0000001
310
F000FFFFF800000001FFF8001C001FE001C000FFFF80007FFFFFF800000003FF
310
FFFF800000003FF80FFFFFFFFFFFFFC07FFFFFF0001FFFFFF8001FFFFFFFFC00
310
0FF8001FFFFFFFFC000FFF0003FFFFFFFFFFFFFE00000001F000FFFFC0000000
310
03FFF8001E001FC001E000FFFF80007FFFFF8000000007FFFFFC000000003FF8
310
0FFFFFFFFFFFFFC07FFFFFF0001FFFFFF8001FFFFFFFFC000FF8001FFFFFFFFC
310
000FFF0003FFFFFFFFFFFFE000000003F000FFFE0000000007FFF8001E000FC0
310
01E0007FFF80007FFFFE0000000007FFFFE0000000007FF80FFFFFFFFFFFFFC0
310
7FFFFFF0001FFFFFF0001FFFFFFFFC0007F0001FFFFFFFFC0007FF0003FFFFFF
310
FFFFFF0000000003F000FFF80000000007FFF8001E000FC003E0007FFF80007F
310
FFF0000000000FFFFF8000000000FFF80FFFFFFFFFFFFFC07FFFFFF0001FFFFF
310
F0001FFFFFFFFC0007F0001FFFFFFFFC0007FF0003FFFFFFFFFFFC0000000007
310
F000FFE0000000000FFFF0003E000FC003E0007FFF80007FFFC0000000001FFF
310
FE0000000001FFF80FFFFFFFFFFFFFC07FFFFFF0001FFFFFF0001FFFFFFFFC00
310
07F0001FFFFFFFFC0007FF0003FFFFFFFFFFF0000000000FF000FFC000000000
310
1FFFF0003F000F8003F0003FFF80007FFF80000000003FFFF80000000003FFF8
310
0FFFFFFFFFFFFFC07FFFFFF0001FFFFFF0001FFFFFFFFC0007F0001FFFFFFFFC
310
0007FF0003FFFFFFFFFFE0000000001FF000FF00000000007FFFF0003F000780
310
03F0003FFF80007FFF00000000007FFFF00000000007FFF80FFFFFFFFFFFFFC0
310
7FFFFFF0001FFFFFF0001FFFFFFFFC0007F0001FFFFFFFFC0007FF0003FFFFFF
310
FFFF80000000007FF000FE0000000000FFFFE0003F00078007F0003FFF80007F
310
FE0000000001FFFFE0000000001FFFF80FFFFFFFFFFFFFC07FFFFFF0001FFFFF
310
F0001FFFFFFFFC0007F0001FFFFFFFFC0007FF0003FFFFFFFFFF0000000000FF
310
F000FC0000000003FFFFE0007F00078007F0003FFF80007FFC0000000007FFFF
310
C0000000007FFFF80FFFFFFFFFFFFFC07FFFFFF0001FFFFFF8001FFFFFFFFC00
310
0FF8001FFFFFFFFC000FFF0003FFFFFFFFFE0000000003FFF000FC000000000F
310
FFFFE0007F80070007F8001FFF80007FF8000000001FFFFF8000000001FFFFF8
310
0FFFFFFFFFFFFFC07FFFFFF0001FFFFFF8001FFFFFFFFC000FF8001FFFFFFFFC
310
000FFF0003FFFFFFFFFC000000000FFFF000F8000000007FFFFFE0007F800700
310
07F8001FFF80007FF000000000FFFFFF800000000FFFFFF80FFFFFFFFFFFFFC0
310
7FFFFFF0001FFFFFF8000FFFFFFFF8000FF8000FFFFFFFF8000FFF0003FFFFFF
310
FFFC000000007FFFF000F800000007FFFFFFC0007F8003000FF8001FFF80007F
310
F000000007FFFFFF000000007FFFFFF80FFFFFFFFFFFFFC07FFFFFF0001FFFFF
310
F8000FFFFFFFF8000FF8000FFFFFFFF8000FFF0003FFFFFFFFF80000000FFFFF
310
F000F0000000FFFFFFFFC000FF8003000FF8001FFF80007FE0000000FFFFFFFF
310
0000000FFFFFFFF8000001FFFE0000007FFFFFF0001FFFFFF8000FFFFFFFF800
310
0FF8000FFFFFFFF8000FFF0003FFFFFFFFF8000000FFFFFFF000F000000FFFFF
310
FFFFC000FFC002000FF8000FFF80007FE000001FFFFFFFFE000001FFFFFFFFF8
310
000001FFFE0000007FFFFFF0001FFFFFF8000FFFFFFFF8000FF8000FFFFFFFF8
310
000FFF0003FFFFFFFFF000001FFFFFFFF000E00000FFFFFFFFFFC000FFC00200
310
0FFC000FFF80007FE00001FFFFFFFFFE00001FFFFFFFFFF8000001FFFE000000
310
7FFFFFF0001FFFFFFC000FFFFFFFF8001FFC000FFFFFFFF8001FFF0003FFFFFF
310
FFF00001FFFFFFFFF000E00007FFFFFFFFFF8000FFC000001FFC000FFF80007F
310
C0000FFFFFFFFFFE0000FFFFFFFFFFF8000001FFFE0000007FFFFFF0001FFFFF
310
FC0007FFFFFFF0001FFC0007FFFFFFF0001FFF0003FFFFFFFFF00007FFFFFFFF
310
F000E0001FFFFFFFFFFF8000FFC000001FFC000FFF80007FC0003FFFFFFFFFFE
310
0001FFFFFFFFFFF8000001FFFE0000007FFFFFF0001FFFFFFC0007FFFFFFF000
310
1FFC0007FFFFFFF0001FFF0003FFFFFFFFF0001FFFFFFFFFF000E0003FFFFF00
310
03FF8001FFE000001FFC0007FF80007FC0007FFFFF0007FC0003FFFFF0003FF8
310
000001FFFE0000007FFFFFF0001FFFFFFC0003FFFFFFE0001FFC0003FFFFFFE0
310
001FFF0003FFFFFFFFF0003FFFFFFFFFF000E0003FFFFF0001FF8001FFE00000
310
1FFE0007FF80007FC0007FFFFE0003FC0007FFFFE0003FF8000001FFFE000000
310
7FFFFFF0001FFFFFFE0003FFFFFFE0003FFE0003FFFFFFE0003FFF0003FFFFFF
310
FFF0003FFFFF8001F000E0003FFFFF0001FF0001FFE000001FFE0007FF80007F
310
C0007FFFFE0003FC0007FFFFE0003FF8000001FFFE0000007FFFFFF0001FFFFF
310
FE0001FFFFFFC0003FFE0001FFFFFFC0003FFF0003FFFFFFFFF0003FFFFF0001
310
F000E0003FFFFF0003FF0001FFE000003FFE0007FF80007FC0007FFFFE0003FC
310
0007FFFFE0003FF8000001FFFE0000007FFFFFF0001FFFFFFF0001FFFFFFC000
310
7FFF0001FFFFFFC0007FFF0003FFFFFFFFF0003FFFFF0001F000E0003FFFFE00
310
03FF0003FFF000003FFE0003FF80007FC0007FFFFC0003FE0007FFFFE0003FF8
310
000001FFFE0000007FFFFFF0001FFFFFFF0000FFFFFF80007FFF0000FFFFFF80
310
007FFF0003FFFFFFFFF0003FFFFF0001F000E0003FFFFE0003FF0003FFF00000
310
3FFF0003FF80007FC0007FFFFC0007FE0007FFFFC0003FF8000001FFFE000000
310
7FFFFFF0001FFFFFFF80007FFFFF0000FFFF80007FFFFF0000FFFF0003FFFFFF
310
FFF0003FFFFF0003F000E0003FFFFC0003FE0003FFF000003FFF0003FF80007F
310
E0003FFFF80007FE0003FFFFC0007FF8000001FFFE0000007FFFFFF0001FFFFF
310
FF80003FFFFE0000FFFF80003FFFFE0000FFFF0003FFFFFFFFF0001FFFFE0003
310
F000F0001FFFF80003FE0003FFF000007FFF0001FF80007FE0003FFFF00007FE
310
0001FFFF80007FF8000001FFFE0000007FFFFFF0001FFFFFFFC0000FFFF80001
310
FFFFC0000FFFF80001FFFF0003FFFFFFFFF0001FFFFC0003F000F0000FFFF000
310
07FE0007FFF800007FFF0001FF80007FE0001FFFE00007FF0000FFFE00007FF8
310
000001FFFE0000007FFFFFF0001FFFFFFFC00003FFE00001FFFFC00003FFE000
310
01FFFF0003FFFFFFFFF8000FFFF80003F000F00003FFC00007FC0007FFF80000
310
7FFF8001FF80007FF00007FF80000FFF00007FF80000FFF8000001FFFE000000
310
7F80000000000001FFE000003E000003FFFFE000003E000003FFFF0003FFFFFF
310
FFF80003FFE00007F000F800000000000FFC0007FFF800007FFF8001FF80007F
310
F000000000000FFF000000000000FFF8000001FFFE0000007F80000000000001
310
FFF0000000000007FFFFF0000000000007FFFF0003FFFFFFFFFC00007E000007
310
F000F800000000000FFC0007FFF80000FFFF8000FF80007FF800000000001FFF
310
800000000001FFF8000001FFFE0000007F80000000000001FFF800000000000F
310
FFFFF800000000000FFFFF0003FFFFFFFFFC00000000000FF000FC0000000000
310
1FFC0007FFFC0000FFFF8000FF80007FF800000000003FFFC00000000001FFF8
310
000001FFFE0000007F80000000000001FFF800000000000FFFFFF80000000000
310
0FFFFF0003FFFFFFFFFE00000000001FF000FE00000000003FF8000FFFFC0000
310
FFFF8000FF80007FFC00000000003FFFC00000000003FFF8000001FFFE000000
310
7F80000000000001FFFC00000000001FFFFFFC00000000001FFFFF0003FFFFFF
310
FFFF00000000001FF000FF00000000003FF8000FFFFC0000FFFFC000FF80007F
310
FE00000000007FFFE00000000007FFF8000001FFFE0000007F80000000000001
310
FFFE00000000003FFFFFFE00000000003FFFFF0003FFFFFFFFFF80000000003F
310
F000FF80000000007FF8000FFFFC0001FFFFC0007F80007FFF0000000000FFFF
310
F0000000000FFFF800000000000000007F80000000000001FFFF8000000000FF
310
FFFFFF8000000000FFFFFF0003FFFFFFFFFFC0000000007FF000FFC000000000
310
FFF8000FFFFE0001FFFFC0007F80007FFF8000000001FFFFF8000000001FFFF8
310
00000000000000007F80000000000001FFFFC000000001FFFFFFFFC000000001
310
FFFFFF0003FFFFFFFFFFE000000000FFF000FFE000000003FFF0001FFFFE0001
310
FFFFC0007F80007FFFC000000007FFFFFE000000003FFFF80000000000000000
310
7F80000000000001FFFFE000000003FFFFFFFFE000000003FFFFFF0003FFFFFF
310
FFFFF000000003FFF000FFF80000000FFFF0001FFFFE0001FFFFE0007F80007F
310
FFF00000000FFFFFFF00000000FFFFF800000000000000007F80000000000001
310
FFFFF80000000FFFFFFFFFF80000000FFFFFFF0003FFFFFFFFFFFC0000000FFF
310
F000FFFE0000003FFFF0001FFFFE0003FFFFE0003F80007FFFFC0000003FFFFF
310
FFC0000003FFFFF800000000000000007F80000000000001FFFFFE0000003FFF
310
FFFFFFFE0000003FFFFFFF0003FFFFFFFFFFFF0000003FFFF000FFFF800000FF
310
FFF0001FFFFF0003FFFFE0003F80007FFFFF000001FFFFFFFFF800001FFFFFF8
310
00000000000000007F80000000000001FFFFFFC00001FFFFFFFFFFFFC00001FF
310
FFFFFF0003FFFFFFFFFFFFC00000FFFFF000FFFFF8000FFFFFFFFFFFFFFFFFFF
310
FFFFFFFFFFFFFFFFFFFFF0001FFFFFFFFFFF0000FFFFFFF80000000000000000
310
7FFFFFFFFFFFFFFFFFFFFFFC001FFFFFFFFFFFFFFC001FFFFFFFFFFFFFFFFFFF
310
FFFFFFFC001FFFFFF000FFFFFFFFFFFFFFFFFFFFFFFFFFFFFFFFFFFFFFFFFFFF
310
FFFFFFFFFFFFFFFFFFFFFFFFFFFFFFFFFFFFFFFFFFFFFFFFFFFFFFFFFFFFFFFF
310
FFFFFFFFFFFFFFFFFFFFFFFFFFFFFFFFFFFFFFFFFFFFFFFFFFFFFFFFFFFFFFFF
310
F000FFFFFFFFFFFFFFFFFFFFFFFFFFFFFFFFFFFFFFFFFFFFFFFFFFFFFFFFFFFF
310
FFFFFFFFFFFFFFFFFFFFFFFFFFFFFFFFFFFFFFFFFFFFFFFFFFFFFFFFFFFFFFFF
310
FFFFFFFFFFFFFFFFFFFFFFFFFFFFFFFFFFFFFFFFFFFFFFFFF000FFFFFFFFFFFF
310
FFFFFFFFFFFFFFFFFFFFFFFFFFFFFFFFFFFFFFFFFFFFFFFFFFFFFFFFFFFFFFFF
310
FFFFFFFFFFFFFFFFFFFFFFFFFFFFFFFFFFFFFFFFFFFFFFFFFFFFFFFFFFFFFFFF
310
FFFFFFFFFFFFFFFFFFFFFFFFFFFFFFFFF000FFFFFFFFFFFFFFFFFFFFFFFFFFFF
310
FFFFFFFFFFFFFFFFFFFFFFFFFFFFFFFFFFFFFFFFFFFFFFFFFFFFFFFFFFFFFFFF
310
FFFFFFFFFFFFFFFFFFFFFFFFFFFFFFFFFFFFFFFFFFFFFFFFFFFFFFFFFFFFFFFF
310
FFFFFFFFFFFFFFFFF000FFFFFFFFFFFFFFFFFFFFFFFFFFFFFFFFFFFFFFFFFFFF
310
FFFFFFFFFFFFFFFFFFFFFFFFFFFFFFFFFFFFFFFFFFFFFFFFFFFFFFFFFFFFFFFF
310
FFFFFFFFFFFFFFFFFFFFFFFFFFFFFFFFFFFFFFFFFFFFFFFFFFFFFFFFFFFFFFFF
310
F000FFFFFFFFFFFFFFFFFFFFFFFFFFFFFFFFFFFFFFFFFFFFFFFFFFFFFFFFFFFF
310
FFFFFFFFFFFFFFFFFFFFFFFFFFFFFFFFFFFFFFFFFFFFFFFFFFFFFFFFFFFFFFFF
310
FFFFFFFFFFFFFFFFFFFFFFFFFFFFFFFFFFFFFFFFFFFFFFFFF000FFFFFFFFFFFF
310
FFFFFFFFFFFFFFFFFFFFFFFFFFFFFFFFFFFFFFFFFFFFFFFFFFFFFFFFFFFFFFFF
310
FFFFFFFFFFFFFFFFFFFFFFFFFFFFFFFFFFFFFFFFFFFFFFFFFFFFFFFFFFFFFFFF
310
FFFFFFFFFFFFFFFFFFFFFFFFFFFFFFFFF000FFFFFFFFFFFFFFFFFFFFFFFFFFFF
310
FFFFFFFFFFFFFFFFFFFFFFFFFFFFFFFFFFFFFFFFFFFFFFFFFFFFFFFFFFFFFFFF
310
FFFFFFFFFFFFFFFFFFFFFFFFFFFFFFFFFFFFFFFFFFFFFFFFFFFFFFFFFFFFFFFF
310
FFFFFFFFFFFFFFFFF000FFFFFFFFFFFFFFFFFFFFFFFFFFFFFFFFFFFFFFFFFFFF
310
FFFFFFFFFFFFFFFFFFFFFFFFFFFFFFFFFFFFFFFFFFFFFFFFFFFFFFFFFFFFFFFF
310
FFFFFFFFFFFFFFFFFFFFFFFFFFFFFFFFFFFFFFFFFFFFFFFFFFFFFFFFFFFFFFFF
310
F000FFFFFFFFFFFFFFFFFFFFFFFFFFFFFFFFFFFFFFFFFFFFFFFFFFFFFFFFFFFF
310
FFFFFFFFFFFFFFFFFFFFFFFFFFFFFFFFFFFFFFFFFFFFFFFFFFFFFFFFFFFFFFFF
310
FFFFFFFFFFFFFFFFFFFFFFFFFFFFFFFFFFFFFFFFFFFFFFFFF000FFFFFFFFFFFF
310
FFFFFFFFFFFFFFFFFFFFFFFFFFFFFFFFFFFFFFFFFFFFFFFFFFFFFFFFFFFFFFFF
310
FFFFFFFFFFFFFFFFFFFFFFFFFFFFFFFFFFFFFFFFFFFFFFFFFFFFFFFFFFFFFFFF
310
FFFFFFFFFFFFFFFFFFFFFFFFFFFFFFFFF000FFFFFFFFFFFFFFFFFFFFFFFFFFFF
310
FFFFFFFFFFFFFFFFFFFFFFFFFFFFFFFFFFFFFFFFFFFFFFFFFFFFFFFFFFFFFFFF
310
FFFFFFFFFFFFFFFFFFFFFFFFFFFFFFFFFFFFFFFFFFFFFFFFFFFFFFFFFFFFFFFF
310
FFFFFFFFFFFFFFFFF000FFFFFFFFFFFFFFFFFFFFFFFFFFFFFFFFFFFFFFFFFFFF
310
FFFFFFFFFFFFFFFFFFFFFFFFFFFFFFFFFFFFFFFFFFFFFFFFFFFFFFFFFFFFFFFF
310
FFFFFFFFFFFFFFFFFFFFFFFFFFFFFFFFFFFFFFFFFFFFFFFFFFFFFFFFFFFFFFFF
310
F000FFFFFFFFFFFFFFFFFFFFFFFFFFFFFFFFFFFFFFFFFFFFFFFFFFFFFFFFFFFF
310
FFFFFFFFFFFFFFFFFFFFFFFFFFFFFFFFFFFFFFFFFFFFFFFFFFFFFFFFFFFFFFFF
310
FFFFFFFFFFFFFFFFFFFFFFFFFFFFFFFFFFFFFFFFFFFFFFFFF000FFFFFFFFFFFF
310
FFFFFFFFFFFFFFFFFFFFFFFFFFFFFFFFFFFFFFFFFFFFFFFFFFFFFFFFFFFFFFFF
310
FFFFFFFFFFFFFFFFFFFFFFFFFFFFFFFFFFFFFFFFFFFFFFFFFFFFFFFFFFFFFFFF
310
FFFFFFFFFFFFFFFFFFFFFFFFFFFFFFFFF000FFFFFFFFFFFFFFFFFFFFFFFFFFFF
310
FFFFFFFFFFFFFFFFFFFFFFFFFFFFFFFFFFFFFFFFFFFFFFFFFFFFFFFFFFFFFFFF
310
FFFFFFFFFFFFFFFFFFFFFFFFFFFFFFFFFFFFFFFFFFFFFFFFFFFFFFFFFFFFFFFF
310
FFFFFFFFFFFFFFFFF000FFFFFFFFFFFFFFFFFFFFFFFFFFFFFFFFFFFFFFFFFFFF
310
FFFFFFFFFFFFFFFFFFFFFFFFFFFFFFFFFFFFFFFFFFFFFFFFFFFFFFFFFFFFFFFF
310
FFFFFFFFFFFFFFFFFFFFFFFFFFFFFFFFFFFFFFFFFFFFFFFFFFFFFFFFFFFFFFFF
310
F000FFFFFFFFFFFFFFFFFFFFFFFFFFFFFFFFFFFFFFFFFFFFFFFFFFFFFFFFFFFF
310
FFFFFFFFFFFFFFFFFFFFFFFFFFFFFFFFFFFFFFFFFFFFFFFFFFFFFFFFFFFFFFFF
310
FFFFFFFFFFFFFFFFFFFFFFFFFFFFFFFFFFFFFFFFFFFFFFFFF000FFFFFFFFFFFF
310
FFFFFFFFFFFFFFFFFFFFFFFFFFFFFFFFFFFFFFFFFFFFFFFFFFFFFFFFFFFFFFFF
310
FFFFFFFFFFFFFFFFFFFFFFFFFFFFFFFFFFFFFFFFFFFFFFFFFFFFFFFFFFFFFFFF
310
FFFFFFFFFFFFFFFFFFFFFFFFFFFFFFFFF000FFFFFFFFFFFFFFFFFFFFFFFFFFFF
310
FFFFFFFFFFFFFFFFFFFFFFFFFFFFFFFFFFFFFFFFFFFFFFFFFFFFFFFFFFFFFFFF
310
FFFFFFFFFFFFFFFFFFFFFFFFFFFFFFFFFFFFFFFFFFFFFFFFFFFFFFFFFFFFFFFF
310
FFFFFFFFFFFFFFFFF000FFFFFFFFFFFFFFFFFFFFFFFFFFFFFFFFFFFFFFFFFFFF
310
FFFFFFFFFFFFFFFFFFFFFFFFFFFFFFFFFFFFFFFFFFFFFFFFFFFFFFFFFFFFFFFF
310
FFFFFFFFFFFFFFFFFFFFFFFFFFFFFFFFFFFFFFFFFFFFFFFFFFFFFFFFFFFFFFFF
310
F000FFFFFFFFFFFFFFFFFFFFFFFFFFFFFFFFFFFFFFFFFFFFFFFFFFFFFFFFFFFF
310
FFFFFFFFFFFFFFFFFFFFFFFFFFFFFFFFFFFFFFFFFFFFFFFFFFFFFFFFFFFFFFFF
310
FFFFFFFFFFFFFFFFFFFFFFFFFFFFFFFFFFFFFFFFFFFFFFFFF000FFFFFFFFFFFF
310
FFFFFFFFFFFFFFFFFFFFFFFFFFFFFFFFFFFFFFFFFFFFFFFFFFFFFFFFFFFFFFFF
310
FFFFFFFFFFFFFFFFFFFFFFFFFFFFFFFFFFFFFFFFFFFFFFFFFFFFFFFFFFFFFFFF
310
FFFFFFFFFFFFFFFFFFFFFFFFFFFFFFFFF0000000000000000000000000000000
310
0000000001000000000000000100000001000000010000000100000001000000
310
0100000001000000010000000100000001000000010000000100000001000000
310
0100000001000000010000000100000001000000010000000100000001000000
310
0100000001000000010000000100000001000000010000000100000001000000
310
0100000001000000010000000100000001000000000000000100000001000000
310
0100000001000000010000000000000001000000000000000100000000000000
310
0100000001000000010000000100000001000000000000000100000001000000
310
0100000001000000010000000100000001000000010000000100000001000000
310
0100000001000000010000000100000001000000010000000100000001000000
310
0100000001000000010000000100000001000000010000000100000001000000
310
0000000001000000010000000100000001000000010000000100000001000000
310
0100000001000000010000000100000001000000010000000000000001000000
310
0100000001000000010000000100000001000000010000000100000001000000
310
0100000001000000010000000100000000000000010000000100000001000000
310
0100000001000000010000000100000001000000000000000100000001000000
  1
OLE
  0
ENDSEC
  0
SECTION
  2
OBJECTS
  0
DICTIONARY
  5
C
330
0
100
AcDbDictionary
281
     1
  3
ACAD_GROUP
350
D
  3
ACAD_LAYOUT
350
1A
  3
ACAD_MLEADERSTYLE
350
208
  3
ACAD_MLINESTYLE
350
17
  3
ACAD_PLOTSETTINGS
350
19
  3
ACAD_PLOTSTYLENAME
350
E
  3
ACAD_TABLESTYLE
350
207
  3
ACAD_VISUALSTYLE
350
2A
  3
AcDbVariableDictionary
350
209
  0
DICTIONARY
  5
D
102
{ACAD_REACTORS
330
C
102
}
330
C
100
AcDbDictionary
281
     1
  0
DICTIONARY
  5
1A
102
{ACAD_REACTORS
330
C
102
}
330
C
100
AcDbDictionary
281
     1
  3
Layout1
350
1E
  3
Layout2
350
26
  3
Model
350
22
  0
DICTIONARY
  5
208
102
{ACAD_REACTORS
330
C
102
}
330
C
100
AcDbDictionary
281
     1
  0
DICTIONARY
  5
17
102
{ACAD_REACTORS
330
C
102
}
330
C
100
AcDbDictionary
281
     1
  3
Standard
350
18
  0
DICTIONARY
  5
19
102
{ACAD_REACTORS
330
C
102
}
330
C
100
AcDbDictionary
281
     1
  0
ACDBDICTIONARYWDFLT
  5
E
102
{ACAD_REACTORS
330
C
102
}
330
C
100
AcDbDictionary
281
     1
  3
Normal
350
F
100
AcDbDictionaryWithDefault
340
F
  0
DICTIONARY
  5
207
102
{ACAD_REACTORS
330
C
102
}
330
C
100
AcDbDictionary
281
     1
  0
DICTIONARY
  5
2A
102
{ACAD_REACTORS
330
C
102
}
330
C
100
AcDbDictionary
281
     1
  3
2dWireframe
350
2F
  3
3D Hidden
350
31
  3
3dWireframe
350
30
  3
Basic
350
32
  3
Brighten
350
36
  3
ColorChange
350
3A
  3
Conceptual
350
34
  3
Dim
350
35
  3
Facepattern
350
39
  3
Flat
350
2B
  3
FlatWithEdges
350
2C
  3
Gouraud
350
2D
  3
GouraudWithEdges
350
2E
  3
Linepattern
350
38
  3
Realistic
350
33
  3
Thicken
350
37
  0
DICTIONARY
  5
209
102
{ACAD_REACTORS
330
C
102
}
330
C
100
AcDbDictionary
281
     1
  3
PSOLHEIGHT
350
20B
  3
PSOLWIDTH
350
20A
  0
LAYOUT
  5
1E
102
{ACAD_REACTORS
330
1A
102
}
330
1A
100
AcDbPlotSettings
  1

  2
none_device
  4

  6

 40
0.0
 41
0.0
 42
0.0
 43
0.0
 44
0.0
 45
0.0
 46
0.0
 47
0.0
 48
0.0
 49
0.0
140
0.0
141
0.0
142
1.0
143
1.0
 70
   688
 72
     0
 73
     0
 74
     5
  7

 75
    16
147
1.0
148
0.0
149
0.0
100
AcDbLayout
  1
Layout1
 70
     1
 71
     1
 10
0.0
 20
0.0
 11
420.0
 21
297.0
 12
0.0
 22
0.0
 32
0.0
 14
1.0000000000E+20
 24
1.0000000000E+20
 34
1.0000000000E+20
 15
-1.0000000000E+20
 25
-1.0000000000E+20
 35
-1.0000000000E+20
146
0.0
 13
0.0
 23
0.0
 33
0.0
 16
1.0
 26
0.0
 36
0.0
 17
0.0
 27
1.0
 37
0.0
 76
     0
330
1B
  0
LAYOUT
  5
26
102
{ACAD_REACTORS
330
1A
102
}
330
1A
100
AcDbPlotSettings
  1

  2
none_device
  4

  6

 40
0.0
 41
0.0
 42
0.0
 43
0.0
 44
0.0
 45
0.0
 46
0.0
 47
0.0
 48
0.0
 49
0.0
140
0.0
141
0.0
142
1.0
143
1.0
 70
   688
 72
     0
 73
     0
 74
     5
  7

 75
    16
147
1.0
148
0.0
149
0.0
100
AcDbLayout
  1
Layout2
 70
     1
 71
     2
 10
0.0
 20
0.0
 11
0.0
 21
0.0
 12
0.0
 22
0.0
 32
0.0
 14
0.0
 24
0.0
 34
0.0
 15
0.0
 25
0.0
 35
0.0
146
0.0
 13
0.0
 23
0.0
 33
0.0
 16
1.0
 26
0.0
 36
0.0
 17
0.0
 27
1.0
 37
0.0
 76
     0
330
23
  0
LAYOUT
  5
22
102
{ACAD_REACTORS
330
1A
102
}
330
1A
100
AcDbPlotSettings
  1

  2
none_device
  4

  6

 40
0.0
 41
0.0
 42
0.0
 43
0.0
 44
0.0
 45
0.0
 46
0.0
 47
0.0
 48
0.0
 49
0.0
140
0.0
141
0.0
142
1.0
143
1.0
 70
  1712
 72
     0
 73
     0
 74
     0
  7

 75
     0
147
1.0
148
0.0
149
0.0
100
AcDbLayout
  1
Model
 70
     1
 71
     0
 10
0.0
 20
0.0
 11
297.0
 21
210.0
 12
0.0
 22
0.0
 32
0.0
 14
0.0
 24
0.0
 34
0.0
 15
297.0
 25
210.0
 35
0.0
146
0.0
 13
0.0
 23
0.0
 33
0.0
 16
1.0
 26
0.0
 36
0.0
 17
0.0
 27
1.0
 37
0.0
 76
     0
330
1F
331
29
  0
MLINESTYLE
  5
18
102
{ACAD_REACTORS
330
17
102
}
330
17
100
AcDbMlineStyle
  2
Standard
 70
     0
  3

 62
   256
 51
90.0
 52
90.0
 71
     2
 49
0.5
 62
   256
  6
BYLAYER
 49
-0.5
 62
   256
  6
BYLAYER
  0
ACDBPLACEHOLDER
  5
F
102
{ACAD_REACTORS
330
E
102
}
330
E
  0
VISUALSTYLE
  5
2F
102
{ACAD_REACTORS
330
2A
102
}
330
2A
100
AcDbVisualStyle
  2
2dWireframe
 70
     4
 71
     0
 72
     2
 73
     0
 90
        0
 40
-0.6
 41
-30.0
 62
     5
 63
     7
 74
     1
 91
        4
 64
     7
 65
   257
 75
     1
175
     1
 42
1.0
 92
        0
 66
   257
 43
1.0
 76
     1
 77
     6
 78
     2
 67
     7
 79
     5
170
     0
171
     0
290
     0
174
     0
 93
        1
 44
0.0
173
     0
291
     0
 45
0.0
1001
ACAD
1000
AcDbSavedByObjectVersion
1070
     0
  0
VISUALSTYLE
  5
31
102
{ACAD_REACTORS
330
2A
102
}
330
2A
100
AcDbVisualStyle
  2
3D Hidden
 70
     6
 71
     1
 72
     2
 73
     2
 90
        0
 40
-0.6
 41
-30.0
 62
     5
 63
     7
 74
     2
 91
        2
 64
     7
 65
   257
 75
     2
175
     1
 42
40.0
 92
        0
 66
   257
 43
1.0
 76
     1
 77
     6
 78
     2
 67
     7
 79
     3
170
     0
171
     0
290
     0
174
     0
 93
        1
 44
0.0
173
     0
291
     0
 45
0.0
1001
ACAD
1000
AcDbSavedByObjectVersion
1070
     0
  0
VISUALSTYLE
  5
30
102
{ACAD_REACTORS
330
2A
102
}
330
2A
100
AcDbVisualStyle
  2
3dWireframe
 70
     5
 71
     0
 72
     2
 73
     0
 90
        0
 40
-0.6
 41
-30.0
 62
     5
 63
     7
 74
     1
 91
        4
 64
     7
 65
   257
 75
     1
175
     1
 42
1.0
 92
        0
 66
   257
 43
1.0
 76
     1
 77
     6
 78
     2
 67
     7
 79
     5
170
     0
171
     0
290
     0
174
     0
 93
        1
 44
0.0
173
     0
291
     0
 45
0.0
1001
ACAD
1000
AcDbSavedByObjectVersion
1070
     0
  0
VISUALSTYLE
  5
32
102
{ACAD_REACTORS
330
2A
102
}
330
2A
100
AcDbVisualStyle
  2
Basic
 70
     7
 71
     1
 72
     0
 73
     1
 90
        0
 40
-0.6
 41
-30.0
 62
     5
 63
     7
 74
     0
 91
        4
 64
     7
 65
   257
 75
     1
175
     1
 42
1.0
 92
        8
 66
     7
 43
1.0
 76
     1
 77
     6
 78
     2
 67
     7
 79
     5
170
     0
171
     0
290
     0
174
     0
 93
        1
 44
0.0
173
     0
291
     1
 45
0.0
1001
ACAD
1000
AcDbSavedByObjectVersion
1070
     0
  0
VISUALSTYLE
  5
36
102
{ACAD_REACTORS
330
2A
102
}
330
2A
100
AcDbVisualStyle
  2
Brighten
 70
    12
 71
     2
 72
     2
 73
     0
 90
        0
 40
-0.6
 41
-30.0
 62
     5
 63
     7
 74
     1
 91
        4
 64
     7
 65
   257
 75
     1
175
     1
 42
1.0
 92
        8
 66
     7
 43
1.0
 76
     1
 77
     6
 78
     2
 67
     7
 79
     5
170
     0
171
     0
290
     0
174
     0
 93
        1
 44
50.0
173
     0
291
     1
 45
0.0
1001
ACAD
1000
AcDbSavedByObjectVersion
1070
     0
  0
VISUALSTYLE
  5
3A
102
{ACAD_REACTORS
330
2A
102
}
330
2A
100
AcDbVisualStyle
  2
ColorChange
 70
    16
 71
     2
 72
     2
 73
     3
 90
        0
 40
-0.6
 41
-30.0
 62
     5
 63
     8
 74
     1
 91
        4
 64
     7
 65
   257
 75
     1
175
     1
 42
1.0
 92
        8
 66
     8
 43
1.0
 76
     1
 77
     6
 78
     2
 67
     7
 79
     5
170
     0
171
     0
290
     0
174
     0
 93
        1
 44
0.0
173
     0
291
     1
 45
0.0
1001
ACAD
1000
AcDbSavedByObjectVersion
1070
     0
  0
VISUALSTYLE
  5
34
102
{ACAD_REACTORS
330
2A
102
}
330
2A
100
AcDbVisualStyle
  2
Conceptual
 70
     9
 71
     3
 72
     2
 73
     0
 90
        0
 40
-0.6
 41
-30.0
 62
     5
 63
     7
 74
     2
 91
        2
 64
     7
 65
   257
 75
     1
175
     1
 42
40.0
 92
        8
 66
     7
 43
1.0
 76
     1
 77
     6
 78
     2
 67
     7
 79
     3
170
     0
171
     0
290
     0
174
     0
 93
        1
 44
0.0
173
     0
291
     0
 45
0.0
1001
ACAD
1000
AcDbSavedByObjectVersion
1070
     0
  0
VISUALSTYLE
  5
35
102
{ACAD_REACTORS
330
2A
102
}
330
2A
100
AcDbVisualStyle
  2
Dim
 70
    11
 71
     2
 72
     2
 73
     0
 90
        0
 40
-0.6
 41
-30.0
 62
     5
 63
     7
 74
     1
 91
        4
 64
     7
 65
   257
 75
     1
175
     1
 42
1.0
 92
        8
 66
     7
 43
1.0
 76
     1
 77
     6
 78
     2
 67
     7
 79
     5
170
     0
171
     0
290
     0
174
     0
 93
        1
 44
-50.0
173
     0
291
     1
 45
0.0
1001
ACAD
1000
AcDbSavedByObjectVersion
1070
     0
  0
VISUALSTYLE
  5
39
102
{ACAD_REACTORS
330
2A
102
}
330
2A
100
AcDbVisualStyle
  2
Facepattern
 70
    15
 71
     2
 72
     2
 73
     0
 90
        0
 40
-0.6
 41
-30.0
 62
     5
 63
     7
 74
     1
 91
        4
 64
     7
 65
   257
 75
     1
175
     1
 42
1.0
 92
        8
 66
     7
 43
1.0
 76
     1
 77
     6
 78
     2
 67
     7
 79
     5
170
     0
171
     0
290
     0
174
     0
 93
        1
 44
0.0
173
     0
291
     1
 45
0.0
1001
ACAD
1000
AcDbSavedByObjectVersion
1070
     0
  0
VISUALSTYLE
  5
2B
102
{ACAD_REACTORS
330
2A
102
}
330
2A
100
AcDbVisualStyle
  2
Flat
 70
     0
 71
     2
 72
     1
 73
     1
 90
        2
 40
-0.6
 41
30.0
 62
     5
 63
     7
 74
     0
 91
        4
 64
     7
 65
   257
 75
     1
175
     1
 42
1.0
 92
        8
 66
     7
 43
1.0
 76
     1
 77
     6
 78
     2
 67
     7
 79
     5
170
     0
171
     0
290
     0
174
     0
 93
       13
 44
0.0
173
     0
291
     1
 45
0.0
1001
ACAD
1000
AcDbSavedByObjectVersion
1070
     0
  0
VISUALSTYLE
  5
2C
102
{ACAD_REACTORS
330
2A
102
}
330
2A
100
AcDbVisualStyle
  2
FlatWithEdges
 70
     1
 71
     2
 72
     1
 73
     1
 90
        2
 40
-0.6
 41
30.0
 62
     5
 63
     7
 74
     1
 91
        4
 64
     7
 65
   257
 75
     1
175
     1
 42
1.0
 92
        0
 66
   257
 43
1.0
 76
     1
 77
     6
 78
     2
 67
     7
 79
     5
170
     0
171
     0
290
     0
174
     0
 93
       13
 44
0.0
173
     0
291
     1
 45
0.0
1001
ACAD
1000
AcDbSavedByObjectVersion
1070
     0
  0
VISUALSTYLE
  5
2D
102
{ACAD_REACTORS
330
2A
102
}
330
2A
100
AcDbVisualStyle
  2
Gouraud
 70
     2
 71
     2
 72
     2
 73
     1
 90
        2
 40
-0.6
 41
30.0
 62
     5
 63
     7
 74
     0
 91
        4
 64
     7
 65
   257
 75
     1
175
     1
 42
1.0
 92
        0
 66
     7
 43
1.0
 76
     1
 77
     6
 78
     2
 67
     7
 79
     5
170
     0
171
     0
290
     0
174
     0
 93
       13
 44
0.0
173
     0
291
     1
 45
0.0
1001
ACAD
1000
AcDbSavedByObjectVersion
1070
     0
  0
VISUALSTYLE
  5
2E
102
{ACAD_REACTORS
330
2A
102
}
330
2A
100
AcDbVisualStyle
  2
GouraudWithEdges
 70
     3
 71
     2
 72
     2
 73
     1
 90
        2
 40
-0.6
 41
30.0
 62
     5
 63
     7
 74
     1
 91
        4
 64
     7
 65
   257
 75
     1
175
     1
 42
1.0
 92
        0
 66
   257
 43
1.0
 76
     1
 77
     6
 78
     2
 67
     7
 79
     5
170
     0
171
     0
290
     0
174
     0
 93
       13
 44
0.0
173
     0
291
     1
 45
0.0
1001
ACAD
1000
AcDbSavedByObjectVersion
1070
     0
  0
VISUALSTYLE
  5
38
102
{ACAD_REACTORS
330
2A
102
}
330
2A
100
AcDbVisualStyle
  2
Linepattern
 70
    14
 71
     2
 72
     2
 73
     0
 90
        0
 40
-0.6
 41
-30.0
 62
     5
 63
     7
 74
     1
 91
        4
 64
     7
 65
   257
 75
     7
175
     7
 42
1.0
 92
        8
 66
     7
 43
1.0
 76
     1
 77
     6
 78
     2
 67
     7
 79
     5
170
     0
171
     0
290
     0
174
     0
 93
        1
 44
0.0
173
     0
291
     1
 45
0.0
1001
ACAD
1000
AcDbSavedByObjectVersion
1070
     0
  0
VISUALSTYLE
  5
33
102
{ACAD_REACTORS
330
2A
102
}
330
2A
100
AcDbVisualStyle
  2
Realistic
 70
     8
 71
     2
 72
     2
 73
     0
 90
        0
 40
-0.6
 41
-30.0
 62
     5
 63
     7
 74
     1
 91
        0
 64
     7
 65
   257
 75
     1
175
     1
 42
1.0
 92
        8
 66
     8
 43
1.0
 76
     1
 77
     6
 78
     2
 67
     7
 79
     5
170
     0
171
     0
290
     0
174
     0
 93
       13
 44
0.0
173
     0
291
     0
 45
0.0
1001
ACAD
1000
AcDbSavedByObjectVersion
1070
     0
  0
VISUALSTYLE
  5
37
102
{ACAD_REACTORS
330
2A
102
}
330
2A
100
AcDbVisualStyle
  2
Thicken
 70
    13
 71
     2
 72
     2
 73
     0
 90
        0
 40
-0.6
 41
-30.0
 62
     5
 63
     7
 74
     1
 91
        4
 64
     7
 65
   257
 75
     1
175
     1
 42
1.0
 92
       12
 66
     7
 43
1.0
 76
     1
 77
     6
 78
     2
 67
     7
 79
     5
170
     0
171
     0
290
     0
174
     0
 93
        1
 44
0.0
173
     0
291
     1
 45
0.0
1001
ACAD
1000
AcDbSavedByObjectVersion
1070
     0
  0
DICTIONARYVAR
  5
20B
102
{ACAD_REACTORS
330
209
102
}
330
209
100
DictionaryVariables
280
     0
  1
80.000000
  0
DICTIONARYVAR
  5
20A
102
{ACAD_REACTORS
330
209
102
}
330
209
100
DictionaryVariables
280
     0
  1
5.000000
  0
ENDSEC
  0
EOF
