  0
SECTION
  2
HEADER
  9
$ACADVER
  1
AC1015
  9
$ACADMAINTVER
 70
     6
  9
$DWGCODEPAGE
  3
ANSI_1252
  9
$INSBASE
 10
0.0
 20
0.0
 30
0.0
  9
$EXTMIN
 10
0.0
 20
0.0
 30
0.0
  9
$EXTMAX
 10
297.0
 20
210.0
 30
0.0
  9
$LIMMIN
 10
0.0
 20
0.0
  9
$LIMMAX
 10
297.0
 20
210.0
  9
$ORTHOMODE
 70
     0
  9
$REGENMODE
 70
     1
  9
$FILLMODE
 70
     1
  9
$QTEXTMODE
 70
     0
  9
$MIRRTEXT
 70
     1
  9
$LTSCALE
 40
1.0
  9
$ATTMODE
 70
     1
  9
$TEXTSIZE
 40
2.0
  9
$TRACEWID
 40
1.0
  9
$TEXTSTYLE
  7
Standard
  9
$CLAYER
  8
0
  9
$CELTYPE
  6
ByLayer
  9
$CECOLOR
 62
   256
  9
$CELTSCALE
 40
1.0
  9
$DISPSILH
 70
     0
  9
$DIMSCALE
 40
1.0
  9
$DIMASZ
 40
3.0
  9
$DIMEXO
 40
0.0
  9
$DIMDLI
 40
3.75
  9
$DIMRND
 40
0.0
  9
$DIMDLE
 40
0.0
  9
$DIMEXE
 40
1.0
  9
$DIMTP
 40
0.0
  9
$DIMTM
 40
0.0
  9
$DIMTXT
 40
2.0
  9
$DIMCEN
 40
2.5
  9
$DIMTSZ
 40
0.0
  9
$DIMTOL
 70
     0
  9
$DIMLIM
 70
     0
  9
$DIMTIH
 70
     1
  9
$DIMTOH
 70
     1
  9
$DIMSE1
 70
     0
  9
$DIMSE2
 70
     0
  9
$DIMTAD
 70
     1
  9
$DIMZIN
 70
     0
  9
$DIMBLK
  1

  9
$DIMASO
 70
     1
  9
$DIMSHO
 70
     1
  9
$DIMPOST
  1

  9
$DIMAPOST
  1

  9
$DIMALT
 70
     0
  9
$DIMALTD
 70
     3
  9
$DIMALTF
 40
0.0393700787
  9
$DIMLFAC
 40
1.0
  9
$DIMTOFL
 70
     1
  9
$DIMTVP
 40
0.0
  9
$DIMTIX
 70
     0
  9
$DIMSOXD
 70
     0
  9
$DIMSAH
 70
     0
  9
$DIMBLK1
  1

  9
$DIMBLK2
  1

  9
$DIMSTYLE
  2
ISO-25
  9
$DIMCLRD
 70
     0
  9
$DIMCLRE
 70
     0
  9
$DIMCLRT
 70
     0
  9
$DIMTFAC
 40
1.0
  9
$DIMGAP
 40
1.524
  9
$DIMJUST
 70
     0
  9
$DIMSD1
 70
     0
  9
$DIMSD2
 70
     0
  9
$DIMTOLJ
 70
     0
  9
$DIMTZIN
 70
     0
  9
$DIMALTZ
 70
     0
  9
$DIMALTTZ
 70
     0
  9
$DIMUPT
 70
     0
  9
$DIMDEC
 70
     2
  9
$DIMTDEC
 70
     3
  9
$DIMALTU
 70
     2
  9
$DIMALTTD
 70
     3
  9
$DIMTXSTY
  7
Standard
  9
$DIMAUNIT
 70
     0
  9
$DIMADEC
 70
     2
  9
$DIMALTRND
 40
0.0
  9
$DIMAZIN
 70
     0
  9
$DIMDSEP
 70
    44
  9
$DIMATFIT
 70
     3
  9
$DIMFRAC
 70
     0
  9
$DIMLDRBLK
  1

  9
$DIMLUNIT
 70
     2
  9
$DIMLWD
 70
    -2
  9
$DIMLWE
 70
    -2
  9
$DIMTMOVE
 70
     0
  9
$LUNITS
 70
     2
  9
$LUPREC
 70
     2
  9
$SKETCHINC
 40
1.0
  9
$FILLETRAD
 40
10.0
  9
$AUNITS
 70
     0
  9
$AUPREC
 70
     2
  9
$MENU
  1
.
  9
$ELEVATION
 40
0.0
  9
$PELEVATION
 40
0.0
  9
$THICKNESS
 40
0.0
  9
$LIMCHECK
 70
     0
  9
$CHAMFERA
 40
10.0
  9
$CHAMFERB
 40
10.0
  9
$CHAMFERC
 40
20.0
  9
$CHAMFERD
 40
0.0
  9
$SKPOLY
 70
     0
  9
$TDCREATE
 40
2455680.541798368
  9
$TDUCREATE
 40
2455680.458465035
  9
$TDUPDATE
 40
2455680.54179838
  9
$TDUUPDATE
 40
2455680.458465046
  9
$TDINDWG
 40
0.0000000116
  9
$TDUSRTIMER
 40
0.0000000116
  9
$USRTIMER
 70
     1
  9
$ANGBASE
 50
0.0
  9
$ANGDIR
 70
     0
  9
$PDMODE
 70
     0
  9
$PDSIZE
 40
-1.0
  9
$PLINEWID
 40
0.0
  9
$SPLFRAME
 70
     0
  9
$SPLINETYPE
 70
     6
  9
$SPLINESEGS
 70
     8
  9
$HANDSEED
  5
20F
  9
$SURFTAB1
 70
     6
  9
$SURFTAB2
 70
     6
  9
$SURFTYPE
 70
     6
  9
$SURFU
 70
     6
  9
$SURFV
 70
     6
  9
$UCSBASE
  2

  9
$UCSNAME
  2

  9
$UCSORG
 10
0.0
 20
0.0
 30
0.0
  9
$UCSXDIR
 10
1.0
 20
0.0
 30
0.0
  9
$UCSYDIR
 10
0.0
 20
1.0
 30
0.0
  9
$UCSORTHOREF
  2

  9
$UCSORTHOVIEW
 70
     0
  9
$UCSORGTOP
 10
0.0
 20
0.0
 30
0.0
  9
$UCSORGBOTTOM
 10
0.0
 20
0.0
 30
0.0
  9
$UCSORGLEFT
 10
0.0
 20
0.0
 30
0.0
  9
$UCSORGRIGHT
 10
0.0
 20
0.0
 30
0.0
  9
$UCSORGFRONT
 10
0.0
 20
0.0
 30
0.0
  9
$UCSORGBACK
 10
0.0
 20
0.0
 30
0.0
  9
$PUCSBASE
  2

  9
$PUCSNAME
  2

  9
$PUCSORG
 10
0.0
 20
0.0
 30
0.0
  9
$PUCSXDIR
 10
1.0
 20
0.0
 30
0.0
  9
$PUCSYDIR
 10
0.0
 20
1.0
 30
0.0
  9
$PUCSORTHOREF
  2

  9
$PUCSORTHOVIEW
 70
     0
  9
$PUCSORGTOP
 10
0.0
 20
0.0
 30
0.0
  9
$PUCSORGBOTTOM
 10
0.0
 20
0.0
 30
0.0
  9
$PUCSORGLEFT
 10
0.0
 20
0.0
 30
0.0
  9
$PUCSORGRIGHT
 10
0.0
 20
0.0
 30
0.0
  9
$PUCSORGFRONT
 10
0.0
 20
0.0
 30
0.0
  9
$PUCSORGBACK
 10
0.0
 20
0.0
 30
0.0
  9
$USERI1
 70
     0
  9
$USERI2
 70
     0
  9
$USERI3
 70
     0
  9
$USERI4
 70
     0
  9
$USERI5
 70
     0
  9
$USERR1
 40
0.0
  9
$USERR2
 40
0.0
  9
$USERR3
 40
0.0
  9
$USERR4
 40
0.0
  9
$USERR5
 40
0.0
  9
$WORLDVIEW
 70
     1
  9
$SHADEDGE
 70
     3
  9
$SHADEDIF
 70
    70
  9
$TILEMODE
 70
     1
  9
$MAXACTVP
 70
    64
  9
$PINSBASE
 10
0.0
 20
0.0
 30
0.0
  9
$PLIMCHECK
 70
     0
  9
$PEXTMIN
 10
1.0000000000E+20
 20
1.0000000000E+20
 30
1.0000000000E+20
  9
$PEXTMAX
 10
-1.0000000000E+20
 20
-1.0000000000E+20
 30
-1.0000000000E+20
  9
$PLIMMIN
 10
0.0
 20
0.0
  9
$PLIMMAX
 10
420.0
 20
297.0
  9
$UNITMODE
 70
     0
  9
$VISRETAIN
 70
     1
  9
$PLINEGEN
 70
     0
  9
$PSLTSCALE
 70
     1
  9
$TREEDEPTH
 70
  3020
  9
$CMLSTYLE
  2
Standard
  9
$CMLJUST
 70
     0
  9
$CMLSCALE
 40
20.0
  9
$PROXYGRAPHICS
 70
     1
  9
$MEASUREMENT
 70
     1
  9
$CELWEIGHT
370
    -1
  9
$ENDCAPS
280
     0
  9
$JOINSTYLE
280
     0
  9
$LWDISPLAY
290
     1
  9
$INSUNITS
 70
     4
  9
$HYPERLINKBASE
  1

  9
$STYLESHEET
  1

  9
$XEDIT
290
     1
  9
$CEPSNTYPE
380
     0
  9
$PSTYLEMODE
290
     1
  9
$FINGERPRINTGUID
  2
{EC9EBDC1-6FC4-4B43-B2E8-691C79A46B51}
  9
$VERSIONGUID
  2
{FAEB1C32-E019-11D5-929B-00C0DF256EC4}
  9
$EXTNAMES
290
     1
  9
$PSVPSCALE
 40
0.0
  9
$OLESTARTUP
290
     0
  0
ENDSEC
  0
SECTION
  2
CLASSES
  0
CLASS
  1
ACDBDICTIONARYWDFLT
  2
AcDbDictionaryWithDefault
  3
ObjectDBX Classes
 90
        0
280
     0
281
     0
  0
CLASS
  1
VISUALSTYLE
  2
AcDbVisualStyle
  3
ObjectDBX Classes
 90
     4095
280
     0
281
     0
  0
CLASS
  1
DICTIONARYVAR
  2
AcDbDictionaryVar
  3
ObjectDBX Classes
 90
        0
280
     0
281
     0
  0
CLASS
  1
ACDBPLACEHOLDER
  2
AcDbPlaceHolder
  3
ObjectDBX Classes
 90
        0
280
     0
281
     0
  0
CLASS
  1
LAYOUT
  2
AcDbLayout
  3
ObjectDBX Classes
 90
        0
280
     0
281
     0
  0
ENDSEC
  0
SECTION
  2
TABLES
  0
TABLE
  2
VPORT
  5
8
330
0
100
AcDbSymbolTable
 70
     1
  0
VPORT
  5
29
330
8
100
AcDbSymbolTableRecord
100
AcDbViewportTableRecord
  2
*Active
 70
     0
 10
0.0
 20
0.0
 11
1.0
 21
1.0
 12
148.5
 22
105.0
 13
0.0
 23
0.0
 14
10.0
 24
10.0
 15
10.0
 25
10.0
 16
0.0
 26
0.0
 36
1.0
 17
0.0
 27
0.0
 37
0.0
 40
210.0
 41
1.4142857143
 42
50.0
 43
0.0
 44
0.0
 50
0.0
 51
0.0
 71
     0
 72
  2000
 73
     1
 74
     3
 75
     0
 76
     0
 77
     0
 78
     0
281
     0
 65
     1
110
0.0
120
0.0
130
0.0
111
1.0
121
0.0
131
0.0
112
0.0
122
1.0
132
0.0
 79
     0
146
0.0
  0
ENDTAB
  0
TABLE
  2
LTYPE
  5
5
330
0
100
AcDbSymbolTable
 70
     6
  0
LTYPE
  5
14
330
5
100
AcDbSymbolTableRecord
100
AcDbLinetypeTableRecord
  2
ByBlock
 70
     0
  3

 72
    65
 73
     0
 40
0.0
  0
LTYPE
  5
15
330
5
100
AcDbSymbolTableRecord
100
AcDbLinetypeTableRecord
  2
ByLayer
 70
     0
  3

 72
    65
 73
     0
 40
0.0
  0
LTYPE
  5
16
330
5
100
AcDbSymbolTableRecord
100
AcDbLinetypeTableRecord
  2
Continuous
 70
     0
  3
Solid line
 72
    65
 73
     0
 40
0.0
  0
LTYPE
  5
3B
330
5
100
AcDbSymbolTableRecord
100
AcDbLinetypeTableRecord
  2
HIDDEN
 70
     0
  3
Hidden __ __ __ __ __ __ __ __ __ __ __ __ __ __
 72
    65
 73
     2
 40
1.905
 49
1.27
 74
     0
 49
-0.635
 74
     0
  0
LTYPE
  5
3C
330
5
100
AcDbSymbolTableRecord
100
AcDbLinetypeTableRecord
  2
PHANTOM
 70
     0
  3
Phantom ______  __  __  ______  __  __  ______
 72
    65
 73
     6
 40
12.7
 49
6.35
 74
     0
 49
-1.27
 74
     0
 49
1.27
 74
     0
 49
-1.27
 74
     0
 49
1.27
 74
     0
 49
-1.27
 74
     0
  0
LTYPE
  5
3D
330
5
100
AcDbSymbolTableRecord
100
AcDbLinetypeTableRecord
  2
CENTER
 70
     0
  3
Center ____ _ ____ _ ____ _ ____ _ ____ _ ____
 72
    65
 73
     4
 40
10.16
 49
6.35
 74
     0
 49
-1.27
 74
     0
 49
1.27
 74
     0
 49
-1.27
 74
     0
  0
LTYPE
  5
3E
330
5
100
AcDbSymbolTableRecord
100
AcDbLinetypeTableRecord
  2
CENTERX2
 70
     0
  3
Center (2x) ________  __  ________  __  _____
 72
    65
 73
     4
 40
20.32
 49
12.7
 74
     0
 49
-2.54
 74
     0
 49
2.54
 74
     0
 49
-2.54
 74
     0
  0
LTYPE
  5
3F
330
5
100
AcDbSymbolTableRecord
100
AcDbLinetypeTableRecord
  2
DOT2
 70
     0
  3
Dot (.5x) ........................................
 72
    65
 73
     2
 40
0.635
 49
0.0
 74
     0
 49
-0.635
 74
     0
  0
ENDTAB
  0
TABLE
  2
LAYER
  5
2
330
0
100
AcDbSymbolTable
 70
     5
  0
LAYER
  5
10
330
2
100
AcDbSymbolTableRecord
100
AcDbLayerTableRecord
  2
0
 70
     0
 62
     7
  6
Continuous
370
    -3
390
F
  0
LAYER
  5
40
330
2
100
AcDbSymbolTableRecord
100
AcDbLayerTableRecord
  2
FORMAT
 70
     0
 62
     7
  6
Continuous
370
    -3
390
F
  0
LAYER
  5
41
330
2
100
AcDbSymbolTableRecord
100
AcDbLayerTableRecord
  2
VERMASSUNG
 70
     0
 62
     7
  6
Continuous
370
    -3
390
F
  0
LAYER
  5
42
330
2
100
AcDbSymbolTableRecord
100
AcDbLayerTableRecord
  2
KOPF_DÜNN
 70
     0
 62
     7
  6
Continuous
370
    -3
390
F
  0
LAYER
  5
43
330
2
100
AcDbSymbolTableRecord
100
AcDbLayerTableRecord
  2
KOPF_DICK
 70
     0
 62
     7
  6
Continuous
370
    15
390
F
  0
ENDTAB
  0
TABLE
  2
STYLE
  5
3
330
0
100
AcDbSymbolTable
 70
     3
  0
STYLE
  5
11
330
3
100
AcDbSymbolTableRecord
100
AcDbTextStyleTableRecord
  2
Standard
 70
     0
 40
0.0
 41
1.0
 50
0.0
 71
     0
 42
2.5
  3
txt
  4

  0
STYLE
  5
44
330
3
100
AcDbSymbolTableRecord
100
AcDbTextStyleTableRecord
  2
SLDTEXTSTYLE0
 70
     0
 40
0.0
 41
0.7
 50
0.0
 71
     0
 42
0.2
  3
TXT
  4

  0
STYLE
  5
48
330
3
100
AcDbSymbolTableRecord
100
AcDbTextStyleTableRecord
  2
SLDTEXTSTYLE1
 70
     0
 40
0.0
 41
0.65
 50
0.0
 71
     0
 42
0.2
  3
TXT
  4

  0
ENDTAB
  0
TABLE
  2
VIEW
  5
6
330
0
100
AcDbSymbolTable
 70
     0
  0
ENDTAB
  0
TABLE
  2
UCS
  5
7
330
0
100
AcDbSymbolTable
 70
     0
  0
ENDTAB
  0
TABLE
  2
APPID
  5
9
330
0
100
AcDbSymbolTable
 70
     1
  0
APPID
  5
12
330
9
100
AcDbSymbolTableRecord
100
AcDbRegAppTableRecord
  2
ACAD
 70
     0
  0
ENDTAB
  0
TABLE
  2
DIMSTYLE
  5
A
330
0
100
AcDbSymbolTable
 70
     5
100
AcDbDimStyleTable
  0
DIMSTYLE
105
27
330
A
100
AcDbSymbolTableRecord
100
AcDbDimStyleTableRecord
  2
ISO-25
 70
     0
 41
2.5
 42
0.625
 43
3.75
 44
1.25
 73
     0
 74
     0
 77
     1
 78
     8
140
2.5
141
2.5
143
0.0393700787
147
0.625
171
     3
172
     1
271
     2
272
     2
274
     3
278
    44
283
     0
284
     8
340
11
  0
DIMSTYLE
105
1B0
102
{ACAD_REACTORS
330
1AF
330
1DF
330
1E9
330
1F3
330
1FD
102
}
330
A
100
AcDbSymbolTableRecord
100
AcDbDimStyleTableRecord
  2
SLDDIMSTYLE0
 70
     0
 41
3.0
 44
0.0
 45
0.000000001
 73
     0
 74
     0
 77
     1
 78
    12
140
2.0
147
0.5
173
     1
271
     2
272
     3
284
    12
340
44
  0
DIMSTYLE
105
1BD
102
{ACAD_REACTORS
330
1BC
102
}
330
A
100
AcDbSymbolTableRecord
100
AcDbDimStyleTableRecord
  2
SLDDIMSTYLE1
 70
     0
 41
3.0
 44
0.0
 45
0.000000001
 73
     0
 74
     0
 77
     1
 78
    12
140
2.0
147
0.5
173
     1
271
     2
272
     2
284
    12
340
44
  0
DIMSTYLE
105
1C8
102
{ACAD_REACTORS
330
1C7
102
}
330
A
100
AcDbSymbolTableRecord
100
AcDbDimStyleTableRecord
  2
SLDDIMSTYLE2
 70
     0
 41
3.0
 44
0.0
 45
0.000000001
 73
     0
 74
     0
 77
     1
 78
    12
140
2.0
147
0.5
173
     1
271
     2
272
     2
284
    12
340
44
  0
DIMSTYLE
105
1D4
102
{ACAD_REACTORS
330
1D3
102
}
330
A
100
AcDbSymbolTableRecord
100
AcDbDimStyleTableRecord
  2
SLDDIMSTYLE3
 70
     0
 41
3.0
 44
0.0
 45
0.000000001
 73
     0
 74
     0
 77
     1
 78
    12
140
2.0
147
0.5
173
     1
271
     2
272
     3
284
    12
340
44
  0
ENDTAB
  0
TABLE
  2
BLOCK_RECORD
  5
1
330
0
100
AcDbSymbolTable
 70
     9
  0
BLOCK_RECORD
  5
1F
330
1
100
AcDbSymbolTableRecord
100
AcDbBlockTableRecord
  2
*Model_Space
340
22
  0
BLOCK_RECORD
  5
1B
330
1
100
AcDbSymbolTableRecord
100
AcDbBlockTableRecord
  2
*Paper_Space
340
1E
  0
BLOCK_RECORD
  5
23
330
1
100
AcDbSymbolTableRecord
100
AcDbBlockTableRecord
  2
*Paper_Space0
340
26
  0
BLOCK_RECORD
  5
1B1
330
1
100
AcDbSymbolTableRecord
100
AcDbBlockTableRecord
  2
*D1
340
0
  0
BLOCK_RECORD
  5
1BE
330
1
100
AcDbSymbolTableRecord
100
AcDbBlockTableRecord
  2
*D2
340
0
  0
BLOCK_RECORD
  5
1C9
330
1
100
AcDbSymbolTableRecord
100
AcDbBlockTableRecord
  2
*D3
340
0
  0
BLOCK_RECORD
  5
1D5
330
1
100
AcDbSymbolTableRecord
100
AcDbBlockTableRecord
  2
*D4
340
0
  0
BLOCK_RECORD
  5
1E0
330
1
100
AcDbSymbolTableRecord
100
AcDbBlockTableRecord
  2
*D5
340
0
  0
BLOCK_RECORD
  5
1EA
330
1
100
AcDbSymbolTableRecord
100
AcDbBlockTableRecord
  2
*D6
340
0
  0
BLOCK_RECORD
  5
1F4
330
1
100
AcDbSymbolTableRecord
100
AcDbBlockTableRecord
  2
*D7
340
0
  0
BLOCK_RECORD
  5
1FE
330
1
100
AcDbSymbolTableRecord
100
AcDbBlockTableRecord
  2
*D8
340
0
  0
ENDTAB
  0
ENDSEC
  0
SECTION
  2
BLOCKS
  0
BLOCK
  5
20
330
1F
100
AcDbEntity
  8
0
100
AcDbBlockBegin
  2
*Model_Space
 70
     0
 10
0.0
 20
0.0
 30
0.0
  3
*Model_Space
  1

  0
ENDBLK
  5
21
330
1F
100
AcDbEntity
  8
0
100
AcDbBlockEnd
  0
BLOCK
  5
1C
330
1B
100
AcDbEntity
 67
     1
  8
0
100
AcDbBlockBegin
  2
*Paper_Space
 70
     0
 10
0.0
 20
0.0
 30
0.0
  3
*Paper_Space
  1

  0
ENDBLK
  5
1D
330
1B
100
AcDbEntity
 67
     1
  8
0
100
AcDbBlockEnd
  0
BLOCK
  5
24
330
23
100
AcDbEntity
  8
0
100
AcDbBlockBegin
  2
*Paper_Space0
 70
     0
 10
0.0
 20
0.0
 30
0.0
  3
*Paper_Space0
  1

  0
ENDBLK
  5
25
330
23
100
AcDbEntity
  8
0
100
AcDbBlockEnd
  0
BLOCK
  5
1B2
330
1B1
100
AcDbEntity
  8
0
100
AcDbBlockBegin
  2
*D1
 70
     1
 10
0.0
 20
0.0
 30
0.0
  3
*D1
  1

  0
SOLID
  5
1B4
330
1B1
100
AcDbEntity
  8
VERMASSUNG
100
AcDbTrace
 10
53.8157096425
 20
161.3819068256
 30
0.0
 11
53.3657096425
 21
158.3819068256
 31
0.0
 12
54.2657096425
 22
158.3819068256
 32
0.0
 13
54.2657096425
 23
158.3819068256
 33
0.0
  0
SOLID
  5
1B5
330
1B1
100
AcDbEntity
  8
VERMASSUNG
100
AcDbTrace
 10
53.8157096425
 20
61.3819068256
 30
0.0
 11
54.2657096425
 21
64.3819068256
 31
0.0
 12
53.3657096425
 22
64.3819068256
 32
0.0
 13
53.3657096425
 23
64.3819068256
 33
0.0
  0
LINE
  5
1B6
330
1B1
100
AcDbEntity
  8
VERMASSUNG
100
AcDbLine
 10
111.1089138723
 20
161.3819068256
 30
0.0
 11
52.8157096425
 21
161.3819068256
 31
0.0
  0
LINE
  5
1B7
330
1B1
100
AcDbEntity
  8
VERMASSUNG
100
AcDbLine
 10
111.1089138723
 20
61.3819068256
 30
0.0
 11
52.8157096425
 21
61.3819068256
 31
0.0
  0
LINE
  5
1B8
330
1B1
100
AcDbEntity
  8
VERMASSUNG
100
AcDbLine
 10
53.8157096425
 20
161.3819068256
 30
0.0
 11
53.8157096425
 21
61.3819068256
 31
0.0
  0
MTEXT
  5
1B9
330
1B1
100
AcDbEntity
  8
VERMASSUNG
100
AcDbMText
 10
51.0375741534
 20
103.178255688
 30
0.0
 40
2.0
 41
0.0
 71
     1
 72
     1
  1
HSK A 
  7
SLDTEXTSTYLE0
 11
-7.044195017643634E-15
 21
1.0
 31
0.0
 73
     1
 44
1.0
  0
MTEXT
  5
1BA
330
1B1
100
AcDbEntity
  8
VERMASSUNG
100
AcDbMText
 10
51.2375741629
 20
112.1782562319
 30
0.0
 40
2.0
 41
0.0
 71
     1
 72
     1
  1
%%c
  7
SLDTEXTSTYLE0
 11
-7.044195017643634E-15
 21
1.0
 31
0.0
 73
     1
 44
1.0
  0
MTEXT
  5
1BB
330
1B1
100
AcDbEntity
  8
VERMASSUNG
100
AcDbMText
 10
51.2375742793
 20
115.7865828819
 30
0.0
 40
2.0
 41
0.0
 71
     1
 72
     1
  1
100
  7
SLDTEXTSTYLE0
 11
-7.044195017643634E-15
 21
1.0
 31
0.0
 73
     1
 44
1.0
  0
ENDBLK
  5
1B3
330
1B1
100
AcDbEntity
  8
0
100
AcDbBlockEnd
  0
BLOCK
  5
1BF
330
1BE
100
AcDbEntity
  8
0
100
AcDbBlockBegin
  2
*D2
 70
     1
 10
0.0
 20
0.0
 30
0.0
  3
*D2
  1

  0
SOLID
  5
1C1
330
1BE
100
AcDbEntity
  8
VERMASSUNG
100
AcDbTrace
 10
204.1089138723
 20
160.3485373781
 30
0.0
 11
207.1089138723
 21
159.8985373781
 31
0.0
 12
207.1089138723
 22
160.7985373781
 32
0.0
 13
207.1089138723
 23
160.7985373781
 33
0.0
  0
SOLID
  5
1C2
330
1BE
100
AcDbEntity
  8
VERMASSUNG
100
AcDbTrace
 10
240.6089138723
 20
160.3485373781
 30
0.0
 11
237.6089138723
 21
160.7985373781
 31
0.0
 12
237.6089138723
 22
159.8985373781
 32
0.0
 13
237.6089138723
 23
159.8985373781
 33
0.0
  0
LINE
  5
1C3
330
1BE
100
AcDbEntity
  8
VERMASSUNG
100
AcDbLine
 10
204.1089138723
 20
115.2819068256
 30
0.0
 11
204.1089138723
 21
161.3485373781
 31
0.0
  0
LINE
  5
1C4
330
1BE
100
AcDbEntity
  8
VERMASSUNG
100
AcDbLine
 10
240.6089138723
 20
120.0331258423
 30
0.0
 11
240.6089138723
 21
161.3485373781
 31
0.0
  0
LINE
  5
1C5
330
1BE
100
AcDbEntity
  8
VERMASSUNG
100
AcDbLine
 10
204.1089138723
 20
160.3485373781
 30
0.0
 11
240.6089138723
 21
160.3485373781
 31
0.0
  0
MTEXT
  5
1C6
330
1BE
100
AcDbEntity
  8
VERMASSUNG
100
AcDbMText
 10
219.9593169059
 20
162.9266727412
 30
0.0
 40
2.0
 41
0.0
 71
     1
 72
     1
  1
36.5
  7
SLDTEXTSTYLE0
 73
     1
 44
1.0
  0
ENDBLK
  5
1C0
330
1BE
100
AcDbEntity
  8
0
100
AcDbBlockEnd
  0
BLOCK
  5
1CA
330
1C9
100
AcDbEntity
  8
0
100
AcDbBlockBegin
  2
*D3
 70
     1
 10
0.0
 20
0.0
 30
0.0
  3
*D3
  1

  0
SOLID
  5
1CC
330
1C9
100
AcDbEntity
  8
VERMASSUNG
100
AcDbTrace
 10
248.3574214518
 20
107.3819068256
 30
0.0
 11
248.8074214518
 21
110.3819068256
 31
0.0
 12
247.9074214518
 22
110.3819068256
 32
0.0
 13
247.9074214518
 23
110.3819068256
 33
0.0
  0
SOLID
  5
1CD
330
1C9
100
AcDbEntity
  8
VERMASSUNG
100
AcDbTrace
 10
248.3574214518
 20
115.3819068256
 30
0.0
 11
247.9074214518
 21
112.3819068256
 31
0.0
 12
248.8074214518
 22
112.3819068256
 32
0.0
 13
248.8074214518
 23
112.3819068256
 33
0.0
  0
LINE
  5
1CE
330
1C9
100
AcDbEntity
  8
VERMASSUNG
100
AcDbLine
 10
237.1089138723
 20
107.3819068256
 30
0.0
 11
249.3574214518
 21
107.3819068256
 31
0.0
  0
LINE
  5
1CF
330
1C9
100
AcDbEntity
  8
VERMASSUNG
100
AcDbLine
 10
237.1089138723
 20
115.3819068256
 30
0.0
 11
249.3574214518
 21
115.3819068256
 31
0.0
  0
LINE
  5
1D0
330
1C9
100
AcDbEntity
  8
VERMASSUNG
100
AcDbLine
 10
248.3574214518
 20
107.3819068256
 30
0.0
 11
248.3574214518
 21
115.3819068256
 31
0.0
  0
MTEXT
  5
1D1
330
1C9
100
AcDbEntity
  8
VERMASSUNG
100
AcDbMText
 10
245.7792859722
 20
108.8778786566
 30
0.0
 40
2.0
 41
0.0
 71
     1
 72
     1
  1
%%c
  7
SLDTEXTSTYLE0
 11
6.123233995736766E-17
 21
1.0
 31
0.0
 73
     1
 44
1.0
  0
MTEXT
  5
1D2
330
1C9
100
AcDbEntity
  8
VERMASSUNG
100
AcDbMText
 10
245.7792860887
 20
112.4865568797
 30
0.0
 40
2.0
 41
0.0
 71
     1
 72
     1
  1
8
  7
SLDTEXTSTYLE0
 11
6.123233995736766E-17
 21
1.0
 31
0.0
 73
     1
 44
1.0
  0
ENDBLK
  5
1CB
330
1C9
100
AcDbEntity
  8
0
100
AcDbBlockEnd
  0
BLOCK
  5
1D6
330
1D5
100
AcDbEntity
  8
0
100
AcDbBlockBegin
  2
*D4
 70
     1
 10
0.0
 20
0.0
 30
0.0
  3
*D4
  1

  0
SOLID
  5
1D8
330
1D5
100
AcDbEntity
  8
VERMASSUNG
100
AcDbTrace
 10
254.3574214518
 20
100.8819068256
 30
0.0
 11
254.8074214518
 21
103.8819068256
 31
0.0
 12
253.9074214518
 22
103.8819068256
 32
0.0
 13
253.9074214518
 23
103.8819068256
 33
0.0
  0
SOLID
  5
1D9
330
1D5
100
AcDbEntity
  8
VERMASSUNG
100
AcDbTrace
 10
254.3574214518
 20
121.8819068256
 30
0.0
 11
253.9074214518
 21
118.8819068256
 31
0.0
 12
254.8074214518
 22
118.8819068256
 32
0.0
 13
254.8074214518
 23
118.8819068256
 33
0.0
  0
LINE
  5
1DA
330
1D5
100
AcDbEntity
  8
VERMASSUNG
100
AcDbLine
 10
240.6089138723
 20
100.8819068256
 30
0.0
 11
255.3574214518
 21
100.8819068256
 31
0.0
  0
LINE
  5
1DB
330
1D5
100
AcDbEntity
  8
VERMASSUNG
100
AcDbLine
 10
240.6089138723
 20
121.8819068256
 30
0.0
 11
255.3574214518
 21
121.8819068256
 31
0.0
  0
LINE
  5
1DC
330
1D5
100
AcDbEntity
  8
VERMASSUNG
100
AcDbLine
 10
254.3574214518
 20
100.8819068256
 30
0.0
 11
254.3574214518
 21
121.8819068256
 31
0.0
  0
MTEXT
  5
1DD
330
1D5
100
AcDbEntity
  8
VERMASSUNG
100
AcDbMText
 10
251.7792859722
 20
108.3777692308
 30
0.0
 40
2.0
 41
0.0
 71
     1
 72
     1
  1
%%c
  7
SLDTEXTSTYLE0
 11
6.123233995736766E-17
 21
1.0
 31
0.0
 73
     1
 44
1.0
  0
MTEXT
  5
1DE
330
1D5
100
AcDbEntity
  8
VERMASSUNG
100
AcDbMText
 10
251.7792860887
 20
111.986447454
 30
0.0
 40
2.0
 41
0.0
 71
     1
 72
     1
  1
21
  7
SLDTEXTSTYLE0
 11
6.123233995736766E-17
 21
1.0
 31
0.0
 73
     1
 44
1.0
  0
ENDBLK
  5
1D7
330
1D5
100
AcDbEntity
  8
0
100
AcDbBlockEnd
  0
BLOCK
  5
1E1
330
1E0
100
AcDbEntity
  8
0
100
AcDbBlockBegin
  2
*D5
 70
     1
 10
0.0
 20
0.0
 30
0.0
  3
*D5
  1

  0
SOLID
  5
1E3
330
1E0
100
AcDbEntity
  8
VERMASSUNG
100
AcDbTrace
 10
110.6089138723
 20
172.3485373781
 30
0.0
 11
113.6089138723
 21
171.8985373781
 31
0.0
 12
113.6089138723
 22
172.7985373781
 32
0.0
 13
113.6089138723
 23
172.7985373781
 33
0.0
  0
SOLID
  5
1E4
330
1E0
100
AcDbEntity
  8
VERMASSUNG
100
AcDbTrace
 10
240.6089138723
 20
172.3485373781
 30
0.0
 11
237.6089138723
 21
172.7985373781
 31
0.0
 12
237.6089138723
 22
171.8985373781
 32
0.0
 13
237.6089138723
 23
171.8985373781
 33
0.0
  0
LINE
  5
1E5
330
1E0
100
AcDbEntity
  8
VERMASSUNG
100
AcDbLine
 10
110.6089138723
 20
160.8819068256
 30
0.0
 11
110.6089138723
 21
173.3485373781
 31
0.0
  0
LINE
  5
1E6
330
1E0
100
AcDbEntity
  8
VERMASSUNG
100
AcDbLine
 10
240.6089138723
 20
120.0331258423
 30
0.0
 11
240.6089138723
 21
173.3485373781
 31
0.0
  0
LINE
  5
1E7
330
1E0
100
AcDbEntity
  8
VERMASSUNG
100
AcDbLine
 10
110.6089138723
 20
172.3485373781
 30
0.0
 11
240.6089138723
 21
172.3485373781
 31
0.0
  0
MTEXT
  5
1E8
330
1E0
100
AcDbEntity
  8
VERMASSUNG
100
AcDbMText
 10
173.7094263317
 20
174.9266727412
 30
0.0
 40
2.0
 41
0.0
 71
     1
 72
     1
  1
130
  7
SLDTEXTSTYLE0
 73
     1
 44
1.0
  0
ENDBLK
  5
1E2
330
1E0
100
AcDbEntity
  8
0
100
AcDbBlockEnd
  0
BLOCK
  5
1EB
330
1EA
100
AcDbEntity
  8
0
100
AcDbBlockBegin
  2
*D6
 70
     1
 10
0.0
 20
0.0
 30
0.0
  3
*D6
  1

  0
SOLID
  5
1ED
330
1EA
100
AcDbEntity
  8
VERMASSUNG
100
AcDbTrace
 10
139.5589138723
 20
166.3485373781
 30
0.0
 11
142.5589138723
 21
165.8985373781
 31
0.0
 12
142.5589138723
 22
166.7985373781
 32
0.0
 13
142.5589138723
 23
166.7985373781
 33
0.0
  0
SOLID
  5
1EE
330
1EA
100
AcDbEntity
  8
VERMASSUNG
100
AcDbTrace
 10
240.6089138723
 20
166.3485373781
 30
0.0
 11
237.6089138723
 21
166.7985373781
 31
0.0
 12
237.6089138723
 22
165.8985373781
 32
0.0
 13
237.6089138723
 23
165.8985373781
 33
0.0
  0
LINE
  5
1EF
330
1EA
100
AcDbEntity
  8
VERMASSUNG
100
AcDbLine
 10
139.5589138723
 20
159.3506466464
 30
0.0
 11
139.5589138723
 21
167.3485373781
 31
0.0
  0
LINE
  5
1F0
330
1EA
100
AcDbEntity
  8
VERMASSUNG
100
AcDbLine
 10
240.6089138723
 20
120.0331258423
 30
0.0
 11
240.6089138723
 21
167.3485373781
 31
0.0
  0
LINE
  5
1F1
330
1EA
100
AcDbEntity
  8
VERMASSUNG
100
AcDbLine
 10
139.5589138723
 20
166.3485373781
 30
0.0
 11
240.6089138723
 21
166.3485373781
 31
0.0
  0
MTEXT
  5
1F2
330
1EA
100
AcDbEntity
  8
VERMASSUNG
100
AcDbMText
 10
186.6840980543
 20
168.9266727412
 30
0.0
 40
2.0
 41
0.0
 71
     1
 72
     1
  1
101.05
  7
SLDTEXTSTYLE0
 73
     1
 44
1.0
  0
ENDBLK
  5
1EC
330
1EA
100
AcDbEntity
  8
0
100
AcDbBlockEnd
  0
BLOCK
  5
1F5
330
1F4
100
AcDbEntity
  8
0
100
AcDbBlockBegin
  2
*D7
 70
     1
 10
0.0
 20
0.0
 30
0.0
  3
*D7
  1

  0
SOLID
  5
1F7
330
1F4
100
AcDbEntity
  8
VERMASSUNG
100
AcDbTrace
 10
60.7089138723
 20
178.3485373781
 30
0.0
 11
63.7089138723
 21
177.8985373781
 31
0.0
 12
63.7089138723
 22
178.7985373781
 32
0.0
 13
63.7089138723
 23
178.7985373781
 33
0.0
  0
SOLID
  5
1F8
330
1F4
100
AcDbEntity
  8
VERMASSUNG
100
AcDbTrace
 10
240.6089138723
 20
178.3485373781
 30
0.0
 11
237.6089138723
 21
178.7985373781
 31
0.0
 12
237.6089138723
 22
177.8985373781
 32
0.0
 13
237.6089138723
 23
177.8985373781
 33
0.0
  0
LINE
  5
1F9
330
1F4
100
AcDbEntity
  8
VERMASSUNG
100
AcDbLine
 10
60.7089138723
 20
141.8845765681
 30
0.0
 11
60.7089138723
 21
179.3485373781
 31
0.0
  0
LINE
  5
1FA
330
1F4
100
AcDbEntity
  8
VERMASSUNG
100
AcDbLine
 10
240.6089138723
 20
120.0331258423
 30
0.0
 11
240.6089138723
 21
179.3485373781
 31
0.0
  0
LINE
  5
1FB
330
1F4
100
AcDbEntity
  8
VERMASSUNG
100
AcDbLine
 10
60.7089138723
 20
178.3485373781
 30
0.0
 11
240.6089138723
 21
178.3485373781
 31
0.0
  0
MTEXT
  5
1FC
330
1F4
100
AcDbEntity
  8
VERMASSUNG
100
AcDbMText
 10
147.7592074801
 20
180.9266727412
 30
0.0
 40
2.0
 41
0.0
 71
     1
 72
     1
  1
179.9
  7
SLDTEXTSTYLE0
 73
     1
 44
1.0
  0
ENDBLK
  5
1F6
330
1F4
100
AcDbEntity
  8
0
100
AcDbBlockEnd
  0
BLOCK
  5
1FF
330
1FE
100
AcDbEntity
  8
0
100
AcDbBlockBegin
  2
*D8
 70
     1
 10
0.0
 20
0.0
 30
0.0
  3
*D8
  1

  0
SOLID
  5
201
330
1FE
100
AcDbEntity
  8
VERMASSUNG
100
AcDbTrace
 10
260.3574214518
 20
126.3819068256
 30
0.0
 11
259.9074214518
 21
123.3819068256
 31
0.0
 12
260.8074214518
 22
123.3819068256
 32
0.0
 13
260.8074214518
 23
123.3819068256
 33
0.0
  0
SOLID
  5
202
330
1FE
100
AcDbEntity
  8
VERMASSUNG
100
AcDbTrace
 10
260.3574214518
 20
96.3819068256
 30
0.0
 11
260.8074214518
 21
99.3819068256
 31
0.0
 12
259.9074214518
 22
99.3819068256
 32
0.0
 13
259.9074214518
 23
99.3819068256
 33
0.0
  0
LINE
  5
203
330
1FE
100
AcDbEntity
  8
VERMASSUNG
100
AcDbLine
 10
161.5589138723
 20
126.3819068256
 30
0.0
 11
261.3574214518
 21
126.3819068256
 31
0.0
  0
LINE
  5
204
330
1FE
100
AcDbEntity
  8
VERMASSUNG
100
AcDbLine
 10
161.5589138723
 20
96.3819068256
 30
0.0
 11
261.3574214518
 21
96.3819068256
 31
0.0
  0
LINE
  5
205
330
1FE
100
AcDbEntity
  8
VERMASSUNG
100
AcDbLine
 10
260.3574214518
 20
126.3819068256
 30
0.0
 11
260.3574214518
 21
96.3819068256
 31
0.0
  0
MTEXT
  5
206
330
1FE
100
AcDbEntity
  8
VERMASSUNG
100
AcDbMText
 10
257.7792859722
 20
108.1781895991
 30
0.0
 40
2.0
 41
0.0
 71
     1
 72
     1
  1
%%c
  7
SLDTEXTSTYLE0
 11
-7.044195017643634E-15
 21
1.0
 31
0.0
 73
     1
 44
1.0
  0
MTEXT
  5
207
330
1FE
100
AcDbEntity
  8
VERMASSUNG
100
AcDbMText
 10
257.7792860887
 20
111.7868678223
 30
0.0
 40
2.0
 41
0.0
 71
     1
 72
     1
  1
30
  7
SLDTEXTSTYLE0
 11
-7.044195017643634E-15
 21
1.0
 31
0.0
 73
     1
 44
1.0
  0
ENDBLK
  5
200
330
1FE
100
AcDbEntity
  8
0
100
AcDbBlockEnd
  0
ENDSEC
  0
SECTION
  2
ENTITIES
  0
MTEXT
  5
45
330
1F
100
AcDbEntity
  8
KOPF_DÜNN
100
AcDbMText
 10
13.8892156294
 20
23.8442973028
 30
0.0
 40
3.0
 41
0.0
 71
     1
 72
     1
  1
HA0.S08.K21.130
  7
SLDTEXTSTYLE0
 73
     1
 44
1.0
  0
MTEXT
  5
46
330
1F
100
AcDbEntity
  8
VERMASSUNG
100
AcDbMText
 10
13.9329988022
 20
28.8834360957
 30
0.0
 40
3.0
 41
0.0
 71
     1
 72
     1
  1
Schrumpffutter_Heat shrink chuck
  7
SLDTEXTSTYLE0
 73
     1
 44
1.0
  0
MTEXT
  5
47
330
1F
100
AcDbEntity
  8
VERMASSUNG
100
AcDbMText
 10
98.8601118557
 20
13.8365368179
 30
0.0
 40
2.0
 41
0.0
 71
     1
 72
     1
  1
Datum: 28.04.2011
  7
SLDTEXTSTYLE0
 73
     1
 44
1.0
  0
MTEXT
  5
49
330
1F
100
AcDbEntity
  8
VERMASSUNG
100
AcDbMText
 10
13.933048693
 20
18.0482802738
 30
0.0
 40
2.0
 41
0.0
 71
     1
 72
     1
  1
DIN 69 893 HSK A 100
  7
SLDTEXTSTYLE1
 73
     1
 44
1.0
  0
MTEXT
  5
4A
330
1F
100
AcDbEntity
  8
VERMASSUNG
100
AcDbMText
 10
13.9808475933
 20
13.9090973692
 30
0.0
 40
2.0
 41
0.0
 71
     1
 72
     1
  1
Gewicht: 2400g
  7
SLDTEXTSTYLE0
 73
     1
 44
1.0
  0
LINE
  5
4B
330
1F
100
AcDbEntity
  8
0
  6
Continuous
 62
     7
370
    15
100
AcDbLine
 10
240.6089138723
 20
103.0175385652
 30
0.0
 11
240.6862360795
 21
103.1645039076
 31
0.0
  0
LINE
  5
4C
330
1F
100
AcDbEntity
  8
0
  6
Continuous
 62
     7
370
    15
100
AcDbLine
 10
240.6273463558
 20
119.601623527
 30
0.0
 11
240.6089138723
 21
119.6366579156
 31
0.0
  0
ARC
  5
4D
330
1F
100
AcDbEntity
  8
0
  6
Continuous
 62
     7
370
    15
100
AcDbCircle
 10
111.1089138723
 20
61.8819068256
 30
0.0
 40
0.5000000000000071
100
AcDbArc
 50
180.0
 51
270.0
  0
ARC
  5
4E
330
1F
100
AcDbEntity
  8
0
  6
Continuous
 62
     7
370
    15
100
AcDbCircle
 10
111.1089138723
 20
160.8819068256
 30
0.0
 40
0.5
100
AcDbArc
 50
90.0
 51
180.0
  0
LINE
  5
4F
330
1F
100
AcDbEntity
  8
0
  6
Continuous
 62
     7
370
    15
100
AcDbLine
 10
111.1089138723
 20
61.3819068256
 30
0.0
 11
115.5589138723
 21
61.3819068256
 31
0.0
  0
LINE
  5
50
330
1F
100
AcDbEntity
  8
0
  6
Continuous
 62
     7
370
    15
100
AcDbLine
 10
115.5742918438
 20
161.3819068256
 30
0.0
 11
111.1089138723
 21
161.3819068256
 31
0.0
  0
ARC
  5
51
330
1F
100
AcDbEntity
  8
0
  6
Continuous
 62
     7
370
    15
100
AcDbCircle
 10
109.7119769539
 20
72.7534215011
 30
0.0
 40
0.9962338214386932
100
AcDbArc
 50
25.7988228126
 51
90.0
  0
ARC
  5
52
330
1F
100
AcDbEntity
  8
0
  6
Continuous
 62
     7
370
    15
100
AcDbCircle
 10
109.7119769539
 20
150.01039215
 30
0.0
 40
0.9962338214387216
100
AcDbArc
 50
270.0
 51
334.2011771874
  0
LINE
  5
53
330
1F
100
AcDbEntity
  8
0
  6
Continuous
 62
     7
370
    15
100
AcDbLine
 10
108.1089138723
 20
73.4996553226
 30
0.0
 11
108.9147600267
 21
73.7155811489
 31
0.0
  0
LINE
  5
54
330
1F
100
AcDbEntity
  8
0
  6
Continuous
 62
     7
370
    15
100
AcDbLine
 10
108.9147600267
 20
149.0482325023
 30
0.0
 11
108.1089138723
 21
149.2641583286
 31
0.0
  0
LINE
  5
55
330
1F
100
AcDbEntity
  8
0
  6
Continuous
 62
     7
370
    15
100
AcDbLine
 10
89.1282349537
 20
148.313222511
 30
0.0
 11
70.8089138723
 21
147.3954208536
 31
0.0
  0
LINE
  5
56
330
1F
100
AcDbEntity
  8
0
  6
Continuous
 62
     7
370
    15
100
AcDbLine
 10
108.1089138723
 20
149.2641583286
 30
0.0
 11
102.0408747179
 21
148.9601483509
 31
0.0
  0
LINE
  5
57
330
1F
100
AcDbEntity
  8
0
  6
Continuous
 62
     7
370
    15
100
AcDbLine
 10
102.0409979943
 20
73.8036591241
 30
0.0
 11
108.1089138723
 21
73.4996553226
 31
0.0
  0
LINE
  5
58
330
1F
100
AcDbEntity
  8
0
  6
Continuous
 62
     7
370
    15
100
AcDbLine
 10
75.8089138723
 20
75.1178917955
 30
0.0
 11
89.1288650262
 21
74.4505595734
 31
0.0
  0
ARC
  5
59
330
1F
100
AcDbEntity
  8
0
  6
Continuous
 62
     7
370
    15
100
AcDbCircle
 10
109.1735790718
 20
72.7496553226
 30
0.0
 40
1.000000000000009
100
AcDbArc
 50
90.0
 51
105.0
  0
ARC
  5
5A
330
1F
100
AcDbEntity
  8
0
  6
Continuous
 62
     7
370
    15
100
AcDbCircle
 10
109.1735790718
 20
150.0141583286
 30
0.0
 40
1.0
100
AcDbArc
 50
255.0
 51
270.0
  0
LINE
  5
5B
330
1F
100
AcDbEntity
  8
0
  6
Continuous
 62
     7
370
    15
100
AcDbLine
 10
109.1735790718
 20
73.7496553226
 30
0.0
 11
109.7119769539
 21
73.7496553226
 31
0.0
  0
LINE
  5
5C
330
1F
100
AcDbEntity
  8
0
  6
Continuous
 62
     7
370
    15
100
AcDbLine
 10
109.7119769539
 20
149.0141583286
 30
0.0
 11
109.1735790718
 21
149.0141583286
 31
0.0
  0
ARC
  5
5D
330
1F
100
AcDbEntity
  8
0
  6
Continuous
 62
     7
370
    15
100
AcDbCircle
 10
144.5589138723
 20
91.3819068256
 30
0.0
 40
5.0
100
AcDbArc
 50
90.0
 51
180.0
  0
ARC
  5
5E
330
1F
100
AcDbEntity
  8
0
  6
Continuous
 62
     7
370
    15
100
AcDbCircle
 10
144.5589138723
 20
131.3819068256
 30
0.0
 40
5.0
100
AcDbArc
 50
180.0
 51
270.0
  0
LINE
  5
5F
330
1F
100
AcDbEntity
  8
0
  6
Continuous
 62
     7
370
    15
100
AcDbLine
 10
62.3589138723
 20
79.1319068256
 30
0.0
 11
73.9089138723
 21
79.1319068256
 31
0.0
  0
ARC
  5
60
330
1F
100
AcDbEntity
  8
0
  6
Continuous
 62
     7
370
    15
100
AcDbCircle
 10
73.9089138723
 20
77.2319068256
 30
0.0
 40
1.899999999999999
100
AcDbArc
 50
35.6630613694
 51
90.0
  0
ARC
  5
61
330
1F
100
AcDbEntity
  8
0
  6
Continuous
 62
     7
370
    15
100
AcDbCircle
 10
68.9089138723
 20
145.5319068256
 30
0.0
 40
1.899999999999986
100
AcDbArc
 50
270.0
 51
310.9212832533
  0
LINE
  5
62
330
1F
100
AcDbEntity
  8
0
  6
Continuous
 62
     7
370
    15
100
AcDbLine
 10
62.3589138723
 20
143.6319068256
 30
0.0
 11
60.7656975104
 21
142.0386904636
 31
0.0
  0
LINE
  5
63
330
1F
100
AcDbEntity
  8
0
  6
Continuous
 62
     7
370
    15
100
AcDbLine
 10
60.7664367728
 20
80.7243839251
 30
0.0
 11
62.3589138723
 21
79.1319068256
 31
0.0
  0
LINE
  5
64
330
1F
100
AcDbEntity
  8
0
  6
Continuous
 62
     7
370
    15
100
AcDbLine
 10
68.9089138723
 20
143.6319068256
 30
0.0
 11
62.3589138723
 21
143.6319068256
 31
0.0
  0
LINE
  5
65
330
1F
100
AcDbEntity
  8
0
  6
Continuous
 62
     7
370
    15
100
AcDbLine
 10
156.0579012486
 20
96.3819068256
 30
0.0
 11
161.5589138723
 21
96.3819068256
 31
0.0
  0
LINE
  5
66
330
1F
100
AcDbEntity
  8
0
  6
Continuous
 62
     7
370
    15
100
AcDbLine
 10
144.5589138723
 20
96.3819068256
 30
0.0
 11
149.0637642408
 21
96.3819068256
 31
0.0
  0
LINE
  5
67
330
1F
100
AcDbEntity
  8
0
  6
Continuous
 62
     7
370
    15
100
AcDbLine
 10
149.0600407602
 20
126.3819068256
 30
0.0
 11
144.5589138723
 21
126.3819068256
 31
0.0
  0
LINE
  5
68
330
1F
100
AcDbEntity
  8
0
  6
Continuous
 62
     7
370
    15
100
AcDbLine
 10
161.5589138723
 20
126.3819068256
 30
0.0
 11
156.0491517127
 21
126.3819068256
 31
0.0
  0
ARC
  5
69
330
1F
100
AcDbEntity
  8
0
  6
Continuous
 62
     7
370
    15
100
AcDbCircle
 10
202.1514008619
 20
-452.1180931744
 30
0.0
 40
550.0
100
AcDbArc
 50
90.0
 51
94.2325360682
  0
ARC
  5
6A
330
1F
100
AcDbEntity
  8
0
  6
Continuous
 62
     7
370
    15
100
AcDbCircle
 10
202.1514008619
 20
674.8819068256
 30
0.0
 40
550.0
100
AcDbArc
 50
265.7674639318
 51
270.0
  0
LINE
  5
6B
330
1F
100
AcDbEntity
  8
0
  6
Continuous
 62
     7
370
    15
100
AcDbLine
 10
202.1514008619
 20
97.8819068256
 30
0.0
 11
202.4902996638
 21
97.8819068256
 31
0.0
  0
LINE
  5
6C
330
1F
100
AcDbEntity
  8
0
  6
Continuous
 62
     7
370
    15
100
AcDbLine
 10
202.4902996638
 20
124.8819068256
 30
0.0
 11
202.1514008619
 21
124.8819068256
 31
0.0
  0
LINE
  5
6D
330
1F
100
AcDbEntity
  8
0
  6
Continuous
 62
     7
370
    15
100
AcDbLine
 10
202.4902996638
 20
97.8819068256
 30
0.0
 11
238.7658320638
 21
100.7368531414
 31
0.0
  0
LINE
  5
6E
330
1F
100
AcDbEntity
  8
0
  6
Continuous
 62
     7
370
    15
100
AcDbLine
 10
238.7658320638
 20
122.0269605097
 30
0.0
 11
202.4902996638
 21
124.8819068256
 31
0.0
  0
ARC
  5
6F
330
1F
100
AcDbEntity
  8
0
  6
Continuous
 62
     7
370
    15
100
AcDbCircle
 10
238.6089138723
 20
102.7306878089
 30
0.0
 40
2.0
100
AcDbArc
 50
274.5
 51
0.0
  0
ARC
  5
70
330
1F
100
AcDbEntity
  8
0
  6
Continuous
 62
     7
370
    15
100
AcDbCircle
 10
238.6089138723
 20
120.0331258423
 30
0.0
 40
2.0
100
AcDbArc
 50
0.0
 51
85.5
  0
LINE
  5
71
330
1F
100
AcDbEntity
  8
0
  6
Continuous
 62
     7
370
    15
100
AcDbLine
 10
240.6089138723
 20
105.1324854945
 30
0.0
 11
240.6862360795
 21
103.1645039076
 31
0.0
  0
LINE
  5
72
330
1F
100
AcDbEntity
  8
0
  6
Continuous
 62
     7
370
    15
100
AcDbLine
 10
240.6209320078
 20
119.4383674686
 30
0.0
 11
240.6089138723
 21
119.1324854945
 31
0.0
  0
LINE
  5
73
330
1F
100
AcDbEntity
  8
0
  6
Continuous
 62
     7
370
    15
100
AcDbLine
 10
240.6273463558
 20
119.601623527
 30
0.0
 11
240.6209320078
 21
119.4383674686
 31
0.0
  0
LINE
  5
74
330
1F
100
AcDbEntity
  8
0
  6
Continuous
 62
     7
370
    15
100
AcDbLine
 10
133.8709428932
 20
62.6069132325
 30
0.0
 11
133.8709428932
 21
142.7319068256
 31
0.0
  0
SPLINE
  5
75
330
1F
100
AcDbEntity
  8
0
  6
Continuous
 62
     7
370
    15
100
AcDbSpline
210
0.0
220
0.0
230
1.0
 70
     8
 71
     3
 72
     8
 73
     4
 74
     0
 42
0.00000001
 43
0.00000001
 40
0.0
 40
0.0
 40
0.0
 40
0.0
 40
1.0
 40
1.0
 40
1.0
 40
1.0
 10
133.8709428932457
 20
62.60691323253997
 30
0.0
 10
133.4198381638454
 20
63.40787316435989
 30
0.0
 10
132.9691403366021
 20
64.20906317592056
 30
0.0
 10
132.5189138723243
 20
65.01051853854533
 30
0.0
  0
LINE
  5
76
330
1F
100
AcDbEntity
  8
0
  6
Continuous
 62
     7
370
    15
100
AcDbLine
 10
132.5189138723
 20
65.0105185385
 30
0.0
 11
132.5189138723
 21
142.7319068256
 31
0.0
  0
SPLINE
  5
77
330
1F
100
AcDbEntity
  8
0
  6
Continuous
 62
     7
370
    15
100
AcDbSpline
210
0.0
220
0.0
230
1.0
 70
    24
 71
     3
 72
     8
 73
     4
 74
     0
 42
0.00000001
 43
0.00000001
 40
0.0
 40
0.0
 40
0.0
 40
0.0
 40
1.0
 40
1.0
 40
1.0
 40
1.0
 10
132.5189138723243
 20
142.7319068255688
 30
0.0
 10
132.9631267546782
 20
142.7319068255688
 30
0.0
 10
133.4141413209174
 20
142.7319068255688
 30
0.0
 10
133.8709428932457
 20
142.7319068255688
 30
0.0
  0
LINE
  5
78
330
1F
100
AcDbEntity
  8
0
  6
Continuous
 62
     7
370
    15
100
AcDbLine
 10
110.6089138723
 20
61.8819068256
 30
0.0
 11
110.6089138723
 21
160.8819068211
 31
0.0
  0
LINE
  5
79
330
1F
100
AcDbEntity
  8
0
  6
Continuous
 62
     7
370
    15
100
AcDbLine
 10
128.6989138723
 20
65.0105185385
 30
0.0
 11
128.6989138723
 21
142.7319068256
 31
0.0
  0
SPLINE
  5
7A
330
1F
100
AcDbEntity
  8
0
  6
Continuous
 62
     7
370
    15
100
AcDbSpline
210
0.0
220
0.0
230
1.0
 70
     8
 71
     3
 72
     8
 73
     4
 74
     0
 42
0.00000001
 43
0.00000001
 40
0.0
 40
0.0
 40
0.0
 40
0.0
 40
1.0
 40
1.0
 40
1.0
 40
1.0
 10
128.6989138723243
 20
65.01051853854533
 30
0.0
 10
128.2486874080465
 20
64.20906317592056
 30
0.0
 10
127.7979895808031
 20
63.40787316435989
 30
0.0
 10
127.3468848514029
 20
62.60691323253997
 30
0.0
  0
LINE
  5
7B
330
1F
100
AcDbEntity
  8
0
  6
Continuous
 62
     7
370
    15
100
AcDbLine
 10
127.3468848514
 20
62.6069132325
 30
0.0
 11
127.3468848514
 21
142.7319068256
 31
0.0
  0
SPLINE
  5
7C
330
1F
100
AcDbEntity
  8
0
  6
Continuous
 62
     7
370
    15
100
AcDbSpline
210
0.0
220
0.0
230
1.0
 70
    24
 71
     3
 72
     8
 73
     4
 74
     0
 42
0.00000001
 43
0.00000001
 40
0.0
 40
0.0
 40
0.0
 40
0.0
 40
1.0
 40
1.0
 40
1.0
 40
1.0
 10
127.3468848514029
 20
142.7319068255688
 30
0.0
 10
127.8036864237311
 20
142.7319068255688
 30
0.0
 10
128.2547009899703
 20
142.7319068255688
 30
0.0
 10
128.6989138723243
 20
142.7319068255688
 30
0.0
  0
LINE
  5
7D
330
1F
100
AcDbEntity
  8
0
  6
Continuous
 62
     7
370
    15
100
AcDbLine
 10
138.5589138723
 20
62.6069132325
 30
0.0
 11
133.8709428932
 21
62.6069132325
 31
0.0
  0
LINE
  5
7E
330
1F
100
AcDbEntity
  8
0
  6
Continuous
 62
     7
370
    15
100
AcDbLine
 10
133.8709428932
 20
142.7319068256
 30
0.0
 11
138.5589138723
 21
142.7319068256
 31
0.0
  0
LINE
  5
7F
330
1F
100
AcDbEntity
  8
0
  6
Continuous
 62
     7
370
    15
100
AcDbLine
 10
139.5589138723
 20
63.6325612803
 30
0.0
 11
139.5589138723
 21
142.7319068256
 31
0.0
  0
SPLINE
  5
80
330
1F
100
AcDbEntity
  8
0
  6
Continuous
 62
     7
370
    15
100
AcDbSpline
210
0.0
220
0.0
230
1.0
 70
     8
 71
     3
 72
    14
 73
    10
 74
     0
 42
0.00000001
 43
0.00000001
 40
0.0
 40
0.0
 40
0.0
 40
0.0
 40
0.25
 40
0.25
 40
0.5
 40
0.5
 40
0.75
 40
0.75
 40
1.0
 40
1.0
 40
1.0
 40
1.0
 10
139.5589138723243
 20
63.6325612803155
 30
0.0
 10
139.5589138723243
 20
63.49913558426096
 30
0.0
 10
139.5336027724134
 20
63.36728777641659
 30
0.0
 10
139.4352680085687
 20
63.1207652277225
 30
0.0
 10
139.3621240043126
 20
63.00696003948195
 30
0.0
 10
139.1786859432169
 20
62.81650286253468
 30
0.0
 10
139.0669996088783
 20
62.73886799868476
 30
0.0
 10
138.824496178572
 20
62.6345765885723
 30
0.0
 10
138.6911217498778
 20
62.60691323253995
 30
0.0
 10
138.5589138723243
 20
62.60691323253995
 30
0.0
  0
SPLINE
  5
81
330
1F
100
AcDbEntity
  8
0
  6
Continuous
 62
     7
370
    15
100
AcDbSpline
210
0.0
220
0.0
230
1.0
 70
    24
 71
     3
 72
    12
 73
     8
 74
     0
 42
0.00000001
 43
0.00000001
 40
0.0
 40
0.0
 40
0.0
 40
0.0
 40
0.2500000000000032
 40
0.2500000000000032
 40
0.5000000000000064
 40
0.5000000000000064
 40
1.0
 40
1.0
 40
1.0
 40
1.0
 10
138.5589138723243
 20
142.7319068255688
 30
0.0
 10
138.7110041092693
 20
142.7319068255688
 30
0.0
 10
138.8594633703447
 20
142.7319068255688
 30
0.0
 10
139.1168670026104
 20
142.7319068255688
 30
0.0
 10
139.2259717504523
 20
142.7319068255688
 30
0.0
 10
139.4800312268598
 20
142.7319068255688
 30
0.0
 10
139.5589138723243
 20
142.7319068255688
 30
0.0
 10
139.5589138723243
 20
142.7319068255688
 30
0.0
  0
SPLINE
  5
82
330
1F
100
AcDbEntity
  8
0
  6
Continuous
 62
     7
370
    15
100
AcDbSpline
210
0.0
220
0.0
230
1.0
 70
     8
 71
     3
 72
    80
 73
    76
 74
     0
 42
0.00000001
 43
0.00000001
 40
-0.0312500000000001
 40
-0.0312500000000001
 40
0.0
 40
0.0
 40
0.0312499999999995
 40
0.0312499999999995
 40
0.0468749999999993
 40
0.0468749999999993
 40
0.0624999999999991
 40
0.0624999999999991
 40
0.0937499999999988
 40
0.0937499999999988
 40
0.1249999999999986
 40
0.1249999999999986
 40
0.1562499999999983
 40
0.1562499999999983
 40
0.1874999999999981
 40
0.1874999999999981
 40
0.2187499999999978
 40
0.2187499999999978
 40
0.2499999999999976
 40
0.2499999999999976
 40
0.2812499999999973
 40
0.2812499999999973
 40
0.3124999999999971
 40
0.3124999999999971
 40
0.3281249999999971
 40
0.3281249999999971
 40
0.3437499999999971
 40
0.3437499999999971
 40
0.3749999999999973
 40
0.3749999999999973
 40
0.4062499999999975
 40
0.4062499999999975
 40
0.4218749999999975
 40
0.4218749999999975
 40
0.4374999999999974
 40
0.4374999999999974
 40
0.4687499999999973
 40
0.4687499999999973
 40
0.4999999999999972
 40
0.4999999999999972
 40
0.531249999999997
 40
0.531249999999997
 40
0.562499999999997
 40
0.562499999999997
 40
0.5937499999999969
 40
0.5937499999999969
 40
0.6249999999999969
 40
0.6249999999999969
 40
0.6562499999999968
 40
0.6562499999999968
 40
0.6874999999999968
 40
0.6874999999999968
 40
0.7031249999999968
 40
0.7031249999999968
 40
0.7187499999999969
 40
0.7187499999999969
 40
0.7499999999999973
 40
0.7499999999999973
 40
0.7812499999999979
 40
0.7812499999999979
 40
0.7968749999999982
 40
0.7968749999999982
 40
0.8124999999999984
 40
0.8124999999999984
 40
0.8437499999999988
 40
0.8437499999999988
 40
0.874999999999999
 40
0.874999999999999
 40
0.9062499999999993
 40
0.9062499999999993
 40
0.9374999999999996
 40
0.9374999999999996
 40
0.9687499999999999
 40
0.9687499999999999
 40
1.0
 40
1.0
 40
1.03125
 40
1.03125
 10
119.278368559548
 20
154.7965362892001
 30
0.0
 10
119.9394591851006
 20
154.7965362892001
 30
0.0
 10
120.2644393143522
 20
154.8127445205822
 30
0.0
 10
120.7439127255986
 20
154.8601091526018
 30
0.0
 10
120.9023945434395
 20
154.8797633644924
 30
0.0
 10
121.2166140759437
 20
154.9268745206851
 30
0.0
 10
121.3727343596241
 20
154.9544558401798
 30
0.0
 10
121.8267883885807
 20
155.0469916269736
 30
0.0
 10
122.1138917715205
 20
155.12206206057
 30
0.0
 10
122.6572463275475
 20
155.2973003691806
 30
0.0
 10
122.9143499387531
 20
155.3983016670189
 30
0.0
 10
123.3752561936919
 20
155.6156578654798
 30
0.0
 10
123.5821539029069
 20
155.732822197252
 30
0.0
 10
123.9476792168991
 20
155.9828921214807
 30
0.0
 10
124.102884739025
 20
156.1138382102397
 30
0.0
 10
124.3523151256248
 20
156.379573153952
 30
0.0
 10
124.4484050814099
 20
156.516326747263
 30
0.0
 10
124.5769239306035
 20
156.790392322102
 30
0.0
 10
124.6087348007813
 20
156.9253324125708
 30
0.0
 10
124.6090914505545
 20
157.1908040496395
 30
0.0
 10
124.5765941983575
 20
157.3226285267808
 30
0.0
 10
124.448968724643
 20
157.5720781264012
 30
0.0
 10
124.3545403235911
 20
157.6905108183292
 30
0.0
 10
124.1666795036056
 20
157.8593800154233
 30
0.0
 10
124.0958515048024
 20
157.9144660105435
 30
0.0
 10
123.9411296128371
 20
158.0197188390319
 30
0.0
 10
123.8571531426537
 20
158.0700540677922
 30
0.0
 10
123.5858294730093
 20
158.2146299003303
 30
0.0
 10
123.3792802544069
 20
158.3024914867473
 30
0.0
 10
122.9126701142179
 20
158.4622125797468
 30
0.0
 10
122.6603045445924
 20
158.531450876214
 30
0.0
 10
122.2544032029137
 20
158.6212382654438
 30
0.0
 10
122.1145025854362
 20
158.6488042275301
 30
0.0
 10
121.8252786501893
 20
158.6992950284563
 30
0.0
 10
121.6754391939
 20
158.722258467307
 30
0.0
 10
121.2213226242893
 20
158.7828889837259
 30
0.0
 10
120.9096714055524
 20
158.8129630125217
 30
0.0
 10
120.26867494064
 20
158.8535525997804
 30
0.0
 10
119.9371473126878
 20
158.8638648299964
 30
0.0
 10
119.2843562676164
 20
158.8639403971622
 30
0.0
 10
118.9598200625845
 20
158.8540387916944
 30
0.0
 10
118.3145506131681
 20
158.8135522611692
 30
0.0
 10
117.9988076070054
 20
158.7830909612845
 30
0.0
 10
117.3969183120217
 20
158.7029402898479
 30
0.0
 10
117.1061690812102
 20
158.6526580580407
 30
0.0
 10
116.5592572895257
 20
158.5319878752678
 30
0.0
 10
116.3074799256888
 20
158.4627640160978
 30
0.0
 10
115.8460919330677
 20
158.3053122884571
 30
0.0
 10
115.6348226534696
 20
158.2159638137833
 30
0.0
 10
115.2715183010934
 20
158.0227159430825
 30
0.0
 10
115.1177116526506
 20
157.9185879512032
 30
0.0
 10
114.9290921830532
 20
157.7499635650198
 30
0.0
 10
114.8730616968441
 20
157.6913351633448
 30
0.0
 10
114.7774879351079
 20
157.5718802485186
 30
0.0
 10
114.7377250180829
 20
157.5109604596804
 30
0.0
 10
114.6419532677708
 20
157.3245557335065
 30
0.0
 10
114.6092304286447
 20
157.1954429157115
 30
0.0
 10
114.6086018423156
 20
156.9267859927556
 30
0.0
 10
114.6407879870504
 20
156.7914152519988
 30
0.0
 10
114.735698688906
 20
156.5878649437629
 30
0.0
 10
114.7751654723049
 20
156.5198930196994
 30
0.0
 10
114.8700954710258
 20
156.3838007965685
 30
0.0
 10
114.9258522987892
 20
156.3154506963591
 30
0.0
 10
115.1137924167591
 20
156.114747683317
 30
0.0
 10
115.2671538864752
 20
155.9853594095043
 30
0.0
 10
115.6294181213556
 20
155.7366939774544
 30
0.0
 10
115.8402665948215
 20
155.6168843350862
 30
0.0
 10
116.3009365651404
 20
155.3993620475136
 30
0.0
 10
116.5523109447242
 20
155.3002769476777
 30
0.0
 10
117.0982188316224
 20
155.1236044737608
 30
0.0
 10
117.3890414062736
 20
155.0475473856268
 30
0.0
 10
117.9903680210536
 20
154.9247024082738
 30
0.0
 10
118.304886605666
 20
154.8769962832206
 30
0.0
 10
118.951468061786
 20
154.8127477481011
 30
0.0
 10
119.278368559548
 20
154.7965362892001
 30
0.0
 10
119.9394591851006
 20
154.7965362892001
 30
0.0
  0
LINE
  5
83
330
1F
100
AcDbEntity
  8
0
  6
Continuous
 62
     7
370
    15
100
AcDbLine
 10
115.5589138723
 20
142.7319068256
 30
0.0
 11
127.3468848514
 21
142.7319068256
 31
0.0
  0
LINE
  5
84
330
1F
100
AcDbEntity
  8
0
  6
Continuous
 62
     7
370
    15
100
AcDbLine
 10
127.3468848514
 20
62.6069132325
 30
0.0
 11
125.5589138723
 21
62.6069132325
 31
0.0
  0
SPLINE
  5
85
330
1F
100
AcDbEntity
  8
0
  6
Continuous
 62
     7
370
    15
100
AcDbSpline
210
0.0
220
0.0
230
1.0
 70
     8
 71
     3
 72
    30
 73
    26
 74
     0
 42
0.00000001
 43
0.00000001
 40
0.0
 40
0.0
 40
0.0
 40
0.0
 40
0.1250000000000002
 40
0.1250000000000002
 40
0.1875000000000003
 40
0.1875000000000003
 40
0.2500000000000004
 40
0.2500000000000004
 40
0.3750000000000001
 40
0.3750000000000001
 40
0.4374999999999998
 40
0.4374999999999998
 40
0.4999999999999996
 40
0.4999999999999996
 40
0.6249999999999996
 40
0.6249999999999996
 40
0.6874999999999997
 40
0.6874999999999997
 40
0.7499999999999997
 40
0.7499999999999997
 40
0.8124999999999998
 40
0.8124999999999998
 40
0.8749999999999999
 40
0.8749999999999999
 40
1.0
 40
1.0
 40
1.0
 40
1.0
 10
125.5589138723243
 20
62.60691323253997
 30
0.0
 10
124.8961691784792
 20
62.60691323253999
 30
0.0
 10
124.2449133193635
 20
62.59207315595117
 30
0.0
 10
123.2844627811052
 20
62.54970359172155
 30
0.0
 10
122.9670713378723
 20
62.53222548894238
 30
0.0
 10
122.3379078363174
 20
62.49089720239007
 30
0.0
 10
122.0257596498757
 20
62.46697192893238
 30
0.0
 10
121.1184523480275
 20
62.38816541246547
 30
0.0
 10
120.5450273903862
 20
62.325859392489
 30
0.0
 10
119.7311505208115
 20
62.22273007224964
 30
0.0
 10
119.4663443242417
 20
62.18654615320313
 30
0.0
 10
118.9594369134273
 20
62.11275136900263
 30
0.0
 10
118.7180427620738
 20
62.07527751023098
 30
0.0
 10
118.0289012899415
 20
61.96256556689124
 30
0.0
 10
117.6158464750773
 20
61.88702946941746
 30
0.0
 10
117.0676916557022
 20
61.77863621239997
 30
0.0
 10
116.8982290483566
 20
61.74356398073671
 30
0.0
 10
116.5902118003412
 20
61.67732852013686
 30
0.0
 10
116.4508317797329
 20
61.64600182338214
 30
0.0
 10
116.2010462671062
 20
61.58759305180121
 30
0.0
 10
116.0906401544522
 20
61.56050981661836
 30
0.0
 10
115.8993823008145
 20
61.51125006200477
 30
0.0
 10
115.8182627825302
 20
61.48898808219712
 30
0.0
 10
115.6241158624218
 20
61.43142117502885
 30
0.0
 10
115.5589138723243
 20
61.40516157024286
 30
0.0
 10
115.5589138723243
 20
61.39190782576883
 30
0.0
  0
LINE
  5
86
330
1F
100
AcDbEntity
  8
0
  6
Continuous
 62
     7
370
    15
100
AcDbLine
 10
115.5589138723
 20
61.3919078258
 30
0.0
 11
115.5589138723
 21
61.3819068256
 31
0.0
  0
SPLINE
  5
87
330
1F
100
AcDbEntity
  8
0
  6
Continuous
 62
     7
370
    15
100
AcDbSpline
210
0.0
220
0.0
230
1.0
 70
     8
 71
     3
 72
    23
 73
    19
 74
     0
 42
0.00000001
 43
0.00000001
 40
0.0
 40
0.0
 40
0.0
 40
0.0
 40
0.0520256687590417
 40
0.1044186119084699
 40
0.1579654762732603
 40
0.2119084390155455
 40
0.2639329008030786
 40
0.3697142245600881
 40
0.4235868577364621
 40
0.4762679679182533
 40
0.5833878371337101
 40
0.6379530306539528
 40
0.6910551819358521
 40
0.7445319929992287
 40
0.7992014233075218
 40
0.8542881036302091
 40
0.9066815619543741
 40
1.0
 40
1.0
 40
1.0
 40
1.0
 10
125.5589138723243
 20
160.3717016812324
 30
0.0
 10
125.2859014751293
 20
160.3730232497392
 30
0.0
 10
124.7379493540151
 20
160.3756757163449
 30
0.0
 10
123.9148029965599
 20
160.3971506047725
 30
0.0
 10
123.0935578959676
 20
160.4313683234406
 30
0.0
 10
122.2921290858595
 20
160.4784202336079
 30
0.0
 10
121.2597458317165
 20
160.5554091844338
 30
0.0
 10
120.2824978170925
 20
160.6512864350942
 30
0.0
 10
119.3814508058365
 20
160.7582158828825
 30
0.0
 10
118.5324770267351
 20
160.8700626907229
 30
0.0
 10
117.7749085811269
 20
160.9842912894523
 30
0.0
 10
117.1299202906774
 20
161.090871035816
 30
0.0
 10
116.7053464174796
 20
161.1648009922172
 30
0.0
 10
116.3427897678305
 20
161.230691550274
 30
0.0
 10
116.0415882107068
 20
161.2873879014882
 30
0.0
 10
115.8143346386721
 20
161.3313241477229
 30
0.0
 10
115.6082273414496
 20
161.3719825945509
 30
0.0
 10
115.5875404034165
 20
161.3761660339404
 30
0.0
 10
115.5742918438048
 20
161.3788452388592
 30
0.0
  0
LINE
  5
88
330
1F
100
AcDbEntity
  8
0
  6
Continuous
 62
     7
370
    15
100
AcDbLine
 10
127.3468848514
 20
160.3717016812
 30
0.0
 11
125.5589138723
 21
160.3717016812
 31
0.0
  0
LINE
  5
89
330
1F
100
AcDbEntity
  8
0
  6
Continuous
 62
     7
370
    15
100
AcDbLine
 10
127.3468848514
 20
150.3328695865
 30
0.0
 11
127.3468848514
 21
160.3717016812
 31
0.0
  0
LINE
  5
8A
330
1F
100
AcDbEntity
  8
0
  6
Continuous
 62
     7
370
    15
100
AcDbLine
 10
125.2668807205
 20
150.3328695865
 30
0.0
 11
127.3468848514
 21
150.3328695865
 31
0.0
  0
SPLINE
  5
8B
330
1F
100
AcDbEntity
  8
0
  6
Continuous
 62
     7
370
    15
100
AcDbSpline
210
0.0
220
0.0
230
1.0
 70
     8
 71
     3
 72
    22
 73
    18
 74
     0
 42
0.00000001
 43
0.00000001
 40
0.0
 40
0.0
 40
0.0
 40
0.0
 40
0.2500000000000002
 40
0.2500000000000002
 40
0.3750000000000003
 40
0.3750000000000003
 40
0.5000000000000004
 40
0.5000000000000004
 40
0.6250000000000004
 40
0.6250000000000004
 40
0.7500000000000004
 40
0.7500000000000004
 40
0.8750000000000004
 40
0.8750000000000004
 40
0.9375000000000002
 40
0.9375000000000002
 40
1.0
 40
1.0
 40
1.0
 40
1.0
 10
115.5589138723243
 20
142.7319068255688
 30
0.0
 10
115.7616388282433
 20
143.7511531674334
 30
0.0
 10
116.0763825500387
 20
144.7102613173727
 30
0.0
 10
116.7844380197097
 20
146.052740394882
 30
0.0
 10
117.0629006499273
 20
146.486948977622
 30
0.0
 10
117.7016680565645
 20
147.2985766931241
 30
0.0
 10
118.0620817363547
 20
147.677856986061
 30
0.0
 10
118.879613968344
 20
148.3808155650819
 30
0.0
 10
119.3407819516312
 20
148.7058443827826
 30
0.0
 10
120.338772198115
 20
149.2708597061734
 30
0.0
 10
120.8785313921072
 20
149.51456330038
 30
0.0
 10
122.0531243561386
 20
149.9187632280249
 30
0.0
 10
122.6648605421304
 20
150.0712004210704
 30
0.0
 10
123.6167697669921
 20
150.2265279686791
 30
0.0
 10
123.9400029312528
 20
150.2660327487292
 30
0.0
 10
124.5990661025281
 20
150.3193418693978
 30
0.0
 10
124.933130113102
 20
150.3328695864557
 30
0.0
 10
125.2668807205036
 20
150.3328695864557
 30
0.0
  0
SPLINE
  5
8C
330
1F
100
AcDbEntity
  8
0
  6
Continuous
 62
     7
370
    15
100
AcDbSpline
210
0.0
220
0.0
230
1.0
 70
     8
 71
     3
 72
    14
 73
    10
 74
     0
 42
0.00000001
 43
0.00000001
 40
0.0
 40
0.0
 40
0.0
 40
0.0
 40
0.25
 40
0.25
 40
0.5
 40
0.5
 40
0.75
 40
0.75
 40
1.0
 40
1.0
 40
1.0
 40
1.0
 10
132.5189138723243
 20
65.91872804317389
 30
0.0
 10
132.5189138723243
 20
66.02577212416828
 30
0.0
 10
132.4987961851661
 20
66.13100726441074
 30
0.0
 10
132.4203049959005
 20
66.32885775125841
 30
0.0
 10
132.3621483710993
 20
66.41990951482333
 30
0.0
 10
132.2156331154812
 20
66.57307560874811
 30
0.0
 10
132.1269905668401
 20
66.63537005495752
 30
0.0
 10
131.9312672440398
 20
66.72016384049351
 30
0.0
 10
131.8260360529688
 20
66.74223136751914
 30
0.0
 10
131.7189138723243
 20
66.74223136751914
 30
0.0
  0
SPLINE
  5
8D
330
1F
100
AcDbEntity
  8
0
  6
Continuous
 62
     7
370
    15
100
AcDbSpline
210
0.0
220
0.0
230
1.0
 70
    24
 71
     3
 72
    14
 73
    10
 74
     0
 42
0.00000001
 43
0.00000001
 40
0.0
 40
0.0
 40
0.0
 40
0.0
 40
0.25
 40
0.25
 40
0.5
 40
0.5
 40
0.75
 40
0.75
 40
1.0
 40
1.0
 40
1.0
 40
1.0
 10
131.7189138723243
 20
142.7319068255688
 30
0.0
 10
131.8426836370894
 20
142.7319068255688
 30
0.0
 10
131.9670507410963
 20
142.7319068255688
 30
0.0
 10
132.1734072098224
 20
142.7319068255688
 30
0.0
 10
132.2587353532407
 20
142.7319068255688
 30
0.0
 10
132.3909274119559
 20
142.7319068255688
 30
0.0
 10
132.4395726557065
 20
142.7319068255688
 30
0.0
 10
132.5031084474353
 20
142.7319068255688
 30
0.0
 10
132.5189138723243
 20
142.7319068255688
 30
0.0
 10
132.5189138723243
 20
142.7319068255688
 30
0.0
  0
SPLINE
  5
8E
330
1F
100
AcDbEntity
  8
0
  6
Continuous
 62
     7
370
    15
100
AcDbSpline
210
0.0
220
0.0
230
1.0
 70
     8
 71
     3
 72
    12
 73
     8
 74
     0
 42
0.00000001
 43
0.00000001
 40
0.0
 40
0.0
 40
0.0
 40
0.0
 40
0.25
 40
0.25
 40
0.5
 40
0.5
 40
1.0
 40
1.0
 40
1.0
 40
1.0
 10
129.4989138723243
 20
66.74223136751914
 30
0.0
 10
129.3931532189753
 20
66.74223136751914
 30
0.0
 10
129.2851655907924
 20
66.71969186151874
 30
0.0
 10
129.0905709255268
 20
66.63512122952342
 30
0.0
 10
129.001699012688
 20
66.57263957676466
 30
0.0
 10
128.7825067203621
 20
66.34325062529248
 30
0.0
 10
128.6989138723242
 20
66.1306672877701
 30
0.0
 10
128.6989138723242
 20
65.91872804317389
 30
0.0
  0
SPLINE
  5
8F
330
1F
100
AcDbEntity
  8
0
  6
Continuous
 62
     7
370
    15
100
AcDbSpline
210
0.0
220
0.0
230
1.0
 70
    24
 71
     3
 72
    14
 73
    10
 74
     0
 42
0.00000001
 43
0.00000001
 40
0.0
 40
0.0
 40
0.0
 40
0.0
 40
0.25
 40
0.25
 40
0.5
 40
0.5
 40
0.75
 40
0.75
 40
1.0
 40
1.0
 40
1.0
 40
1.0
 10
128.6989138723243
 20
142.7319068255688
 30
0.0
 10
128.6989138723242
 20
142.7319068255688
 30
0.0
 10
128.7146281927902
 20
142.7319068255688
 30
0.0
 10
128.7783121712586
 20
142.7319068255688
 30
0.0
 10
128.826915365669
 20
142.7319068255688
 30
0.0
 10
128.9595988880946
 20
142.7319068255688
 30
0.0
 10
129.0447009924053
 20
142.7319068255688
 30
0.0
 10
129.2511432273153
 20
142.7319068255688
 30
0.0
 10
129.3752241689384
 20
142.7319068255688
 30
0.0
 10
129.4989138723243
 20
142.7319068255688
 30
0.0
  0
LINE
  5
90
330
1F
100
AcDbEntity
  8
0
  6
Continuous
 62
     7
370
    15
100
AcDbLine
 10
131.7189138723
 20
66.7422313675
 30
0.0
 11
129.4989138723
 21
66.7422313675
 31
0.0
  0
LINE
  5
91
330
1F
100
AcDbEntity
  8
0
  6
Continuous
 62
     7
370
    15
100
AcDbLine
 10
129.4989138723
 20
142.7319068256
 30
0.0
 11
131.7189138723
 21
142.7319068256
 31
0.0
  0
LINE
  5
92
330
1F
100
AcDbEntity
  8
0
  6
Continuous
 62
     7
370
    15
100
AcDbLine
 10
108.1089138723
 20
73.4996553226
 30
0.0
 11
108.1089138723
 21
149.2641583286
 31
0.0
  0
LINE
  5
93
330
1F
100
AcDbEntity
  8
0
  6
Continuous
 62
     7
370
    15
100
AcDbLine
 10
75.8089138723
 20
75.1178917955
 30
0.0
 11
75.8089138723
 21
77.5125735602
 31
0.0
  0
SPLINE
  5
94
330
1F
100
AcDbEntity
  8
0
  6
Continuous
 62
     7
370
    15
100
AcDbSpline
210
0.0
220
0.0
230
1.0
 70
     8
 71
     3
 72
    14
 73
    10
 74
     0
 42
0.00000001
 43
0.00000001
 40
0.0
 40
0.0
 40
0.0
 40
0.0
 40
0.25
 40
0.25
 40
0.5
 40
0.5
 40
0.75
 40
0.75
 40
1.0
 40
1.0
 40
1.0
 40
1.0
 10
74.80449140098732
 20
79.21542548182525
 30
0.0
 10
74.89325997893263
 20
79.0568913505173
 30
0.0
 10
75.01497781761154
 20
78.90444867362875
 30
0.0
 10
75.25002742746838
 20
78.60731404979983
 30
0.0
 10
75.36565761368527
 20
78.46263140618247
 30
0.0
 10
75.56606254711309
 20
78.17934220367906
 30
0.0
 10
75.6514628390974
 20
78.0407882106422
 30
0.0
 10
75.77316847281465
 20
77.76940418060867
 30
0.0
 10
75.80891387232728
 20
77.63726831197405
 30
0.0
 10
75.80891387232727
 20
77.5125735602033
 30
0.0
  0
SPLINE
  5
95
330
1F
100
AcDbEntity
  8
0
  6
Continuous
 62
     7
370
    15
100
AcDbSpline
210
0.0
220
0.0
230
1.0
 70
     8
 71
     3
 72
    14
 73
    10
 74
     0
 42
0.00000001
 43
0.00000001
 40
0.0
 40
0.0
 40
0.0
 40
0.0
 40
0.124999999999999
 40
0.124999999999999
 40
0.249999999999998
 40
0.249999999999998
 40
0.5000000000000007
 40
0.5000000000000007
 40
1.0
 40
1.0
 40
1.0
 40
1.0
 10
73.90891387232426
 20
79.84425542092536
 30
0.0
 10
73.97649617210877
 20
79.85141130602678
 30
0.0
 10
74.04898374985666
 20
79.84698683598774
 30
0.0
 10
74.1812748591226
 20
79.81728067821739
 30
0.0
 10
74.23855223851278
 20
79.79399639663917
 30
0.0
 10
74.38820266571305
 20
79.71651115678885
 30
0.0
 10
74.46191596123455
 20
79.65465932988748
 30
0.0
 10
74.64972394456079
 20
79.46998187723916
 30
0.0
 10
74.73376425092225
 20
79.34173895394794
 30
0.0
 10
74.80449140098852
 20
79.21542548182536
 30
0.0
  0
SPLINE
  5
96
330
1F
100
AcDbEntity
  8
0
  6
Continuous
 62
     7
370
    15
100
AcDbSpline
210
0.0
220
0.0
230
1.0
 70
     8
 71
     3
 72
     8
 73
     4
 74
     0
 42
0.00000001
 43
0.00000001
 40
0.0
 40
0.0
 40
0.0
 40
0.0
 40
1.0
 40
1.0
 40
1.0
 40
1.0
 10
70.36427348424348
 20
79.42620683613357
 30
0.0
 10
71.52957179495236
 20
79.5813943080202
 30
0.0
 10
72.71418700899217
 20
79.71775294633052
 30
0.0
 10
73.90891387232426
 20
79.84425542092538
 30
0.0
  0
SPLINE
  5
97
330
1F
100
AcDbEntity
  8
0
  6
Continuous
 62
     7
370
    15
100
AcDbSpline
210
0.0
220
0.0
230
1.0
 70
     8
 71
     3
 72
    14
 73
    10
 74
     0
 42
0.00000001
 43
0.00000001
 40
0.0
 40
0.0
 40
0.0
 40
0.0
 40
0.4999999999999972
 40
0.4999999999999972
 40
0.7499999999999971
 40
0.7499999999999971
 40
0.8749999999999986
 40
0.8749999999999986
 40
1.0
 40
1.0
 40
1.0
 40
1.0
 10
62.60883898829557
 20
79.13607465700366
 30
0.0
 10
63.91714055082931
 20
79.1430893807448
 30
0.0
 10
65.22219992548612
 20
79.15849795718927
 30
0.0
 10
67.16807597697445
 20
79.21239451265593
 30
0.0
 10
67.81477348071346
 20
79.23542607725864
 30
0.0
 10
68.7786158445678
 20
79.2863686021294
 30
0.0
 10
69.09885453650188
 20
79.3061035243626
 30
0.0
 10
69.73554976284429
 20
79.35559065283415
 30
0.0
 10
70.0522651711272
 20
79.38465543176339
 30
0.0
 10
70.36427348424351
 20
79.42620683613355
 30
0.0
  0
SPLINE
  5
98
330
1F
100
AcDbEntity
  8
0
  6
Continuous
 62
     7
370
    15
100
AcDbSpline
210
0.0
220
0.0
230
1.0
 70
     8
 71
     3
 72
    12
 73
     8
 74
     0
 42
0.00000001
 43
0.00000001
 40
0.0
 40
0.0
 40
0.0
 40
0.0
 40
0.2500000000000009
 40
0.2500000000000009
 40
0.5000000000000018
 40
0.5000000000000018
 40
1.0
 40
1.0
 40
1.0
 40
1.0
 10
68.90891387232428
 20
143.4684297170652
 30
0.0
 10
68.39021505049608
 20
143.5009524919134
 30
0.0
 10
67.86850347729109
 20
143.5242492330839
 30
0.0
 10
66.8222114607955
 20
143.562094747506
 30
0.0
 10
66.29753983512525
 20
143.5763632220022
 30
0.0
 10
64.72069381258602
 20
143.6105727094605
 30
0.0
 10
63.66573849803911
 20
143.6220722134044
 30
0.0
 10
62.60883898829388
 20
143.6277389941339
 30
0.0
  0
SPLINE
  5
99
330
1F
100
AcDbEntity
  8
0
  6
Continuous
 62
     7
370
    15
100
AcDbSpline
210
0.0
220
0.0
230
1.0
 70
     8
 71
     3
 72
    20
 73
    16
 74
     0
 42
0.00000001
 43
0.00000001
 40
0.0
 40
0.0
 40
0.0
 40
0.0
 40
0.2500000000000011
 40
0.2500000000000011
 40
0.5000000000000021
 40
0.5000000000000021
 40
0.7500000000000031
 40
0.7500000000000031
 40
0.8750000000000008
 40
0.8750000000000008
 40
0.9375000000000006
 40
0.9375000000000006
 40
0.9687500000000003
 40
0.9687500000000003
 40
1.0
 40
1.0
 40
1.0
 40
1.0
 10
70.80891387232427
 20
145.1265155625534
 30
0.0
 10
70.80891387232427
 20
144.9908332428066
 30
0.0
 10
70.76020208310764
 20
144.8497462566665
 30
0.0
 10
70.59104065988245
 20
144.557674537936
 30
0.0
 10
70.46926024596415
 20
144.4060257958456
 30
0.0
 10
70.17171315121462
 20
144.1036173556924
 30
0.0
 10
69.99780054551185
 20
143.9510287195691
 30
0.0
 10
69.67838571163003
 20
143.7257579557268
 30
0.0
 10
69.56334493618277
 20
143.6510348612161
 30
0.0
 10
69.35626061216635
 20
143.5516244519591
 30
0.0
 10
69.28015277735996
 20
143.5200593596145
 30
0.0
 10
69.14875823780662
 20
143.4856159754216
 30
0.0
 10
69.10220501880515
 20
143.4765644036539
 30
0.0
 10
69.00587166772443
 20
143.4663887548155
 30
0.0
 10
68.956612244369
 20
143.4654389961404
 30
0.0
 10
68.90891387232229
 20
143.468429717055
 30
0.0
  0
LINE
  5
9A
330
1F
100
AcDbEntity
  8
0
  6
Continuous
 62
     7
370
    15
100
AcDbLine
 10
70.8089138723
 20
145.1265155626
 30
0.0
 11
70.8089138723
 21
147.3954208536
 31
0.0
  0
SPLINE
  5
9B
330
1F
100
AcDbEntity
  8
0
  6
Continuous
 62
     7
370
    15
100
AcDbSpline
210
0.0
220
0.0
230
1.0
 70
     8
 71
     3
 72
    24
 73
    20
 74
     0
 42
0.00000001
 43
0.00000001
 40
0.0
 40
0.0
 40
0.0
 40
0.0
 40
0.0002934293894791
 40
0.062808005175641
 40
0.1260453927228619
 40
0.18907467666103
 40
0.2513200540860133
 40
0.3133304633786588
 40
0.3759158453762907
 40
0.4383740564599686
 40
0.5000631094857209
 40
0.5616593988040849
 40
0.6245050380644152
 40
0.6872231506510951
 40
0.7494953263230465
 40
0.8117583797535242
 40
0.8747365508229858
 40
0.9378980306234599
 40
1.0
 40
1.0
 40
1.0
 40
1.0
 10
89.12887013616368
 20
74.4506615672564
 30
0.0
 10
89.12867528327892
 20
74.45063725986242
 30
0.0
 10
89.08696739226777
 20
74.44543430820822
 30
0.0
 10
89.2320857837982
 20
74.46406893153873
 30
0.0
 10
89.58716472533746
 20
74.50658871008746
 30
0.0
 10
90.19174036288061
 20
74.57472499368929
 30
0.0
 10
90.9981756716968
 20
74.64798053070518
 30
0.0
 10
91.98365309561578
 20
74.71249987152304
 30
0.0
 10
93.11532269229532
 20
74.75106409958413
 30
0.0
 10
94.3376151624576
 20
74.75475860558552
 30
0.0
 10
95.60494384390944
 20
74.71233262553653
 30
0.0
 10
96.87142937433596
 20
74.62408548475558
 30
0.0
 10
98.08756673815589
 20
74.4956922144889
 30
0.0
 10
99.21297723399667
 20
74.34305122589636
 30
0.0
 10
100.1903942955506
 20
74.18127661079203
 30
0.0
 10
100.9936597740931
 20
74.02874771769113
 30
0.0
 10
101.5821532970944
 20
73.90473397442373
 30
0.0
 10
101.9710594087464
 20
73.81981004814747
 30
0.0
 10
102.0178205394844
 20
73.80908373686867
 30
0.0
 10
102.0410033460268
 20
73.80376594417706
 30
0.0
  0
SPLINE
  5
9C
330
1F
100
AcDbEntity
  8
0
  6
Continuous
 62
     7
370
    15
100
AcDbSpline
210
0.0
220
0.0
230
1.0
 70
     8
 71
     3
 72
    41
 73
    37
 74
     0
 42
0.00000001
 43
0.00000001
 40
0.0
 40
0.0
 40
0.0
 40
0.0
 40
0.0619930061482746
 40
0.1254347783466151
 40
0.1886508898234768
 40
0.2510246408607227
 40
0.3131658188976554
 40
0.3756581641417402
 40
0.4382227146727798
 40
0.4998044922940677
 40
0.56151641971787
 40
0.6240683094121985
 40
0.686725723240935
 40
0.7488365305144522
 40
0.8110685944253986
 40
0.8741742884451361
 40
0.9373212787645211
 40
0.9685511709617411
 40
0.9842086872487193
 40
0.9920641182531791
 40
0.996000486125535
 40
0.9979710794120144
 40
0.9989570090489596
 40
0.9994501359395065
 40
0.9996967403802177
 40
0.9998200529090742
 40
0.9998817117580818
 40
0.999912541829664
 40
0.9999279570273361
 40
0.9999356646666602
 40
0.9999395184964466
 40
0.9999414454138695
 40
0.9999424088732151
 40
0.9999433723329806
 40
0.9999501697010513
 40
1.0
 40
1.0
 40
1.0
 40
1.0
 10
102.0408820155488
 20
148.960002689009
 30
0.0
 10
102.0173103702052
 20
148.9546932093591
 30
0.0
 10
101.9696162141602
 20
148.9439501684196
 30
0.0
 10
101.5775742247346
 20
148.8587210319642
 30
0.0
 10
100.9870601754644
 20
148.7341522533234
 30
0.0
 10
100.1830227294193
 20
148.5812053071716
 30
0.0
 10
99.20694732923782
 20
148.419448753218
 30
0.0
 10
98.08513859395732
 20
148.2672159852858
 30
0.0
 10
96.87160767417008
 20
148.1394360440844
 30
0.0
 10
95.60677696777087
 20
148.0515874924018
 30
0.0
 10
94.33873393032815
 20
148.0092020085312
 30
0.0
 10
93.11522657262702
 20
148.0129378165028
 30
0.0
 10
91.98172803221303
 20
148.051533286951
 30
0.0
 10
90.99562222123882
 20
148.115972658242
 30
0.0
 10
90.1869944124516
 20
148.1894824655232
 30
0.0
 10
89.5903757173424
 20
148.256796150335
 30
0.0
 10
89.27498442788432
 20
148.2947607016029
 30
0.0
 10
89.1649178590864
 20
148.3085597609348
 30
0.0
 10
89.1374984712722
 20
148.3120458348555
 30
0.0
 10
89.1305764204427
 20
148.3129250605488
 30
0.0
 10
89.12880818025928
 20
148.3131458351552
 30
0.0
 10
89.12834780108592
 20
148.3132010378659
 30
0.0
 10
89.12822364240111
 20
148.3132147776529
 30
0.0
 10
89.12818808790793
 20
148.313218173484
 30
0.0
 10
89.12817694383784
 20
148.3132190018042
 30
0.0
 10
89.12817303064173
 20
148.3132191983931
 30
0.0
 10
89.1281714884369
 20
148.3132192423231
 30
0.0
 10
89.1281708214354
 20
148.3132192506299
 30
0.0
 10
89.12817051325766
 20
148.3132192514601
 30
0.0
 10
89.12817036649159
 20
148.313219250915
 30
0.0
 10
89.12817029353914
 20
148.313219250585
 30
0.0
 10
89.12817025914677
 20
148.3132192501478
 30
0.0
 10
89.1281702369016
 20
148.3132192502363
 30
0.0
 10
89.12817020979216
 20
148.3132192474013
 30
0.0
 10
89.12816769023081
 20
148.3132195342564
 30
0.0
 10
89.12820378014885
 20
148.3132149141558
 30
0.0
 10
89.1282355379715
 20
148.3132108486343
 30
0.0
  0
SPLINE
  5
9D
330
1F
100
AcDbEntity
  8
0
  6
Continuous
 62
     7
370
    15
100
AcDbSpline
210
0.0
220
0.0
230
1.0
 70
     8
 71
     3
 72
    20
 73
    16
 74
     0
 42
0.00000001
 43
0.00000001
 40
0.0
 40
0.0
 40
0.0
 40
0.0
 40
0.249999999999986
 40
0.249999999999986
 40
0.3749999999999789
 40
0.3749999999999789
 40
0.4374999999999789
 40
0.4374999999999789
 40
0.4999999999999789
 40
0.4999999999999789
 40
0.6249999999999835
 40
0.6249999999999835
 40
0.7499999999999879
 40
0.7499999999999879
 40
1.0
 40
1.0
 40
1.0
 40
1.0
 10
60.99972810404028
 20
80.7034236728681
 30
0.0
 10
61.02600032125369
 20
80.72274161395055
 30
0.0
 10
61.05668046350853
 20
80.73713032505232
 30
0.0
 10
61.12815133389045
 20
80.7302259632163
 30
0.0
 10
61.15617837093479
 20
80.7230599598679
 30
0.0
 10
61.21126196043229
 20
80.6933609331643
 30
0.0
 10
61.23215328898472
 20
80.67988729060296
 30
0.0
 10
61.27736193643018
 20
80.64468902508695
 30
0.0
 10
61.30176614882575
 20
80.62278079635969
 30
0.0
 10
61.37309846687719
 20
80.55065593636415
 30
0.0
 10
61.41499525169747
 20
80.4983153954141
 30
0.0
 10
61.48657121055334
 20
80.40083200351334
 30
0.0
 10
61.51739920037064
 20
80.35407823363492
 30
0.0
 10
61.60049913320621
 20
80.2207850177958
 30
0.0
 10
61.64535403857651
 20
80.1381476198806
 30
0.0
 10
61.68546611402908
 20
80.05904072508982
 30
0.0
  0
SPLINE
  5
9E
330
1F
100
AcDbEntity
  8
0
  6
Continuous
 62
     7
370
    15
100
AcDbSpline
210
0.0
220
0.0
230
1.0
 70
     8
 71
     3
 72
    14
 73
    10
 74
     0
 42
0.00000001
 43
0.00000001
 40
0.0
 40
0.0
 40
0.0
 40
0.0
 40
0.25
 40
0.25
 40
0.5
 40
0.5
 40
0.75
 40
0.75
 40
1.0
 40
1.0
 40
1.0
 40
1.0
 10
60.70891387232427
 20
80.87923708300086
 30
0.0
 10
60.70891387232429
 20
80.83799015197651
 30
0.0
 10
60.71752358870553
 20
80.80108317969403
 30
0.0
 10
60.74860976827587
 20
80.74018311979462
 30
0.0
 10
60.77099932175993
 20
80.71600220025493
 30
0.0
 10
60.82574325293605
 20
80.68203460937168
 30
0.0
 10
60.85819349252124
 20
80.67211452540349
 30
0.0
 10
60.9281950072493
 20
80.67076331649864
 30
0.0
 10
60.96640550737184
 20
80.6789215931948
 30
0.0
 10
60.99972810404493
 20
80.70342367286288
 30
0.0
  0
LINE
  5
9F
330
1F
100
AcDbEntity
  8
0
  6
Continuous
 62
     7
370
    15
100
AcDbLine
 10
60.7089138723
 20
80.879237083
 30
0.0
 11
60.7089138723
 21
141.8845765681
 31
0.0
  0
SPLINE
  5
A0
330
1F
100
AcDbEntity
  8
0
  6
Continuous
 62
     7
370
    15
100
AcDbSpline
210
0.0
220
0.0
230
1.0
 70
     8
 71
     3
 72
    10
 73
     6
 74
     0
 42
0.00000001
 43
0.00000001
 40
0.0
 40
0.0
 40
0.0
 40
0.0
 40
0.0592402688376383
 40
0.6438088530391344
 40
1.0
 40
1.0
 40
1.0
 40
1.0
 10
60.99972810404491
 20
142.0603899782747
 30
0.0
 10
60.99489584642372
 20
142.0636388849063
 30
0.0
 10
60.94238004428898
 20
142.098947213062
 30
0.0
 10
60.84342984661021
 20
142.1052015096205
 30
0.0
 10
60.79400132171886
 20
142.0500012719316
 30
0.0
 10
60.77528665697456
 20
142.0291013170084
 30
0.0
  0
SPLINE
  5
A1
330
1F
100
AcDbEntity
  8
0
  6
Continuous
 62
     7
370
    15
100
AcDbSpline
210
0.0
220
0.0
230
1.0
 70
     8
 71
     3
 72
     8
 73
     4
 74
     0
 42
0.00000001
 43
0.00000001
 40
0.0
 40
0.0
 40
0.0
 40
0.0
 40
1.0
 40
1.0
 40
1.0
 40
1.0
 10
60.73254754126048
 20
141.9921560692064
 30
0.0
 10
60.71719850262444
 20
141.9616460142104
 30
0.0
 10
60.70891387232427
 20
141.9253344586981
 30
0.0
 10
60.70891387232427
 20
141.8845765681367
 30
0.0
  0
SPLINE
  5
A2
330
1F
100
AcDbEntity
  8
0
  6
Continuous
 62
     7
370
    15
100
AcDbSpline
210
0.0
220
0.0
230
1.0
 70
     8
 71
     3
 72
    20
 73
    16
 74
     0
 42
0.00000001
 43
0.00000001
 40
0.0
 40
0.0
 40
0.0
 40
0.0
 40
0.2500000000000037
 40
0.2500000000000037
 40
0.3750000000000055
 40
0.3750000000000055
 40
0.5000000000000073
 40
0.5000000000000073
 40
0.5625000000000057
 40
0.5625000000000057
 40
0.625000000000004
 40
0.625000000000004
 40
0.7500000000000027
 40
0.7500000000000027
 40
1.0
 40
1.0
 40
1.0
 40
1.0
 10
61.6854661140267
 20
142.704772926047
 30
0.0
 10
61.64546989620287
 20
142.6258945194895
 30
0.0
 10
61.60035626836521
 20
142.542764872798
 30
0.0
 10
61.51710205399868
 20
142.4092762084471
 30
0.0
 10
61.48688272537818
 20
142.3634111525651
 30
0.0
 10
61.41479449023677
 20
142.2652196001602
 30
0.0
 10
61.37287717282566
 20
142.2129097806366
 30
0.0
 10
61.3016265682742
 20
142.1409038779021
 30
0.0
 10
61.27739075589489
 20
142.1191336656005
 30
0.0
 10
61.23179256571024
 20
142.0836590072715
 30
0.0
 10
61.21099007611053
 20
142.070288823094
 30
0.0
 10
61.1560490776914
 20
142.0407189109587
 30
0.0
 10
61.1279800896046
 20
142.0335923886568
 30
0.0
 10
61.05747725954176
 20
142.0267180171741
 30
0.0
 10
61.02605317175089
 20
142.0410331762612
 30
0.0
 10
60.99972810404229
 20
142.0603899782718
 30
0.0
  0
SPLINE
  5
A3
330
1F
100
AcDbEntity
  8
0
  6
Continuous
 62
     7
370
    15
100
AcDbSpline
210
0.0
220
0.0
230
1.0
 70
     8
 71
     3
 72
    10
 73
     6
 74
     0
 42
0.00000001
 43
0.00000001
 40
0.0
 40
0.0
 40
0.0
 40
0.0
 40
0.4999999999999989
 40
0.4999999999999989
 40
1.0
 40
1.0
 40
1.0
 40
1.0
 10
62.35891387232429
 20
143.6301920273888
 30
0.0
 10
62.23402560157408
 20
143.4991957493173
 30
0.0
 10
62.11257548351364
 20
143.3554829126523
 30
0.0
 10
61.8829915085562
 20
143.0449126199631
 30
0.0
 10
61.77271653316021
 20
142.8768435469
 30
0.0
 10
61.6854661140267
 20
142.704772926047
 30
0.0
  0
SPLINE
  5
A4
330
1F
100
AcDbEntity
  8
0
  6
Continuous
 62
     7
370
    15
100
AcDbSpline
210
0.0
220
0.0
230
1.0
 70
     8
 71
     3
 72
     8
 73
     4
 74
     0
 42
0.00000001
 43
0.00000001
 40
0.0
 40
0.0
 40
0.0
 40
0.0
 40
1.0
 40
1.0
 40
1.0
 40
1.0
 10
62.60883898829
 20
143.6277389941334
 30
0.0
 10
62.52182095844165
 20
143.6282055589205
 30
0.0
 10
62.43886693206171
 20
143.6292455784966
 30
0.0
 10
62.35891387232196
 20
143.6301920273889
 30
0.0
  0
SPLINE
  5
A5
330
1F
100
AcDbEntity
  8
0
  6
Continuous
 62
     7
370
    15
100
AcDbSpline
210
0.0
220
0.0
230
1.0
 70
     8
 71
     3
 72
     8
 73
     4
 74
     0
 42
0.00000001
 43
0.00000001
 40
0.0
 40
0.0
 40
0.0
 40
0.0
 40
1.0
 40
1.0
 40
1.0
 40
1.0
 10
62.35891387232196
 20
79.13362162374871
 30
0.0
 10
62.43886693206224
 20
79.13456807264097
 30
0.0
 10
62.52182095844272
 20
79.13560809221711
 30
0.0
 10
62.6088389882917
 20
79.13607465700417
 30
0.0
  0
SPLINE
  5
A6
330
1F
100
AcDbEntity
  8
0
  6
Continuous
 62
     7
370
    15
100
AcDbSpline
210
0.0
220
0.0
230
1.0
 70
     8
 71
     3
 72
    10
 73
     6
 74
     0
 42
0.00000001
 43
0.00000001
 40
0.0
 40
0.0
 40
0.0
 40
0.0
 40
0.4999999999999989
 40
0.4999999999999989
 40
1.0
 40
1.0
 40
1.0
 40
1.0
 10
61.68546611402577
 20
80.05904072509239
 30
0.0
 10
61.77271653315925
 20
79.88697010423901
 30
0.0
 10
61.88299150855541
 20
79.71890103117558
 30
0.0
 10
62.11257548351323
 20
79.40833073848577
 30
0.0
 10
62.23402560157388
 20
79.26461790182049
 30
0.0
 10
62.35891387232429
 20
79.1336216237488
 30
0.0
  0
LINE
  5
A7
330
1F
100
AcDbEntity
  8
0
  6
Continuous
 62
     7
370
    15
100
AcDbLine
 10
138.5589138723
 20
160.3717016812
 30
0.0
 11
133.8709428932
 21
160.3717016812
 31
0.0
  0
LINE
  5
A8
330
1F
100
AcDbEntity
  8
0
  6
Continuous
 62
     7
370
    15
100
AcDbLine
 10
133.8709428932
 20
150.3328695865
 30
0.0
 11
138.5589138723
 21
150.3328695865
 31
0.0
  0
LINE
  5
A9
330
1F
100
AcDbEntity
  8
0
  6
Continuous
 62
     7
370
    15
100
AcDbLine
 10
133.8709428932
 20
150.3328695865
 30
0.0
 11
133.8709428932
 21
160.3717016812
 31
0.0
  0
SPLINE
  5
AA
330
1F
100
AcDbEntity
  8
0
  6
Continuous
 62
     7
370
    15
100
AcDbSpline
210
0.0
220
0.0
230
1.0
 70
     8
 71
     3
 72
     8
 73
     4
 74
     0
 42
0.00000001
 43
0.00000001
 40
0.0
 40
0.0
 40
0.0
 40
0.0
 40
1.0
 40
1.0
 40
1.0
 40
1.0
 10
127.3468848514029
 20
150.3328695864557
 30
0.0
 10
127.8038112052024
 20
149.3169516167814
 30
0.0
 10
128.2550168470054
 20
148.2981557876903
 30
0.0
 10
128.6989138723243
 20
147.2773543317066
 30
0.0
  0
LINE
  5
AB
330
1F
100
AcDbEntity
  8
0
  6
Continuous
 62
     7
370
    15
100
AcDbLine
 10
128.6989138723
 20
147.2773543317
 30
0.0
 11
128.6989138723
 21
146.0961420181
 31
0.0
  0
SPLINE
  5
AC
330
1F
100
AcDbEntity
  8
0
  6
Continuous
 62
     7
370
    15
100
AcDbSpline
210
0.0
220
0.0
230
1.0
 70
     8
 71
     3
 72
    14
 73
    10
 74
     0
 42
0.00000001
 43
0.00000001
 40
0.0
 40
0.0
 40
0.0
 40
0.0
 40
0.25
 40
0.25
 40
0.5
 40
0.5
 40
0.75
 40
0.75
 40
1.0
 40
1.0
 40
1.0
 40
1.0
 10
128.6989138723242
 20
146.0961420180658
 30
0.0
 10
128.6989138723243
 20
145.9722751412766
 30
0.0
 10
128.7147729999519
 20
145.8480154644391
 30
0.0
 10
128.7781346454717
 20
145.6104071020333
 30
0.0
 10
128.8267243535211
 20
145.4936267172808
 30
0.0
 10
128.959009958296
 20
145.2848241886718
 30
0.0
 10
129.0443347495565
 20
145.1903134850792
 30
0.0
 10
129.2512259978627
 20
145.0523566842769
 30
0.0
 10
129.3751939437527
 20
145.0104382386412
 30
0.0
 10
129.4989138723243
 20
145.0104382386412
 30
0.0
  0
LINE
  5
AD
330
1F
100
AcDbEntity
  8
0
  6
Continuous
 62
     7
370
    15
100
AcDbLine
 10
129.4989138723
 20
145.0104382386
 30
0.0
 11
131.7189138723
 21
145.0104382386
 31
0.0
  0
SPLINE
  5
AE
330
1F
100
AcDbEntity
  8
0
  6
Continuous
 62
     7
370
    15
100
AcDbSpline
210
0.0
220
0.0
230
1.0
 70
     8
 71
     3
 72
    12
 73
     8
 74
     0
 42
0.00000001
 43
0.00000001
 40
0.0
 40
0.0
 40
0.0
 40
0.0
 40
0.250000000000002
 40
0.250000000000002
 40
0.500000000000004
 40
0.500000000000004
 40
1.0
 40
1.0
 40
1.0
 40
1.0
 10
131.7189138723243
 20
145.0104382386413
 30
0.0
 10
131.8426148223043
 20
145.0104382386413
 30
0.0
 10
131.9667114345744
 20
145.0524318503738
 30
0.0
 10
132.1733665976615
 20
145.1902271770182
 30
0.0
 10
132.2584073643883
 20
145.284200775483
 30
0.0
 10
132.4578859328619
 20
145.598988981704
 30
0.0
 10
132.5189138723243
 20
145.8492279739316
 30
0.0
 10
132.5189138723243
 20
146.0961420180658
 30
0.0
  0
LINE
  5
AF
330
1F
100
AcDbEntity
  8
0
  6
Continuous
 62
     7
370
    15
100
AcDbLine
 10
132.5189138723
 20
146.0961420181
 30
0.0
 11
132.5189138723
 21
147.2773543317
 31
0.0
  0
SPLINE
  5
B0
330
1F
100
AcDbEntity
  8
0
  6
Continuous
 62
     7
370
    15
100
AcDbSpline
210
0.0
220
0.0
230
1.0
 70
     8
 71
     3
 72
     8
 73
     4
 74
     0
 42
0.00000001
 43
0.00000001
 40
0.0
 40
0.0
 40
0.0
 40
0.0
 40
1.0
 40
1.0
 40
1.0
 40
1.0
 10
132.5189138723243
 20
147.2773543317066
 30
0.0
 10
132.9630638833498
 20
148.2987375626583
 30
0.0
 10
133.4141381936077
 20
149.3172220994266
 30
0.0
 10
133.8709428932456
 20
150.3328695864557
 30
0.0
  0
SPLINE
  5
B1
330
1F
100
AcDbEntity
  8
0
  6
Continuous
 62
     7
370
    15
100
AcDbSpline
210
0.0
220
0.0
230
1.0
 70
     8
 71
     3
 72
    16
 73
    12
 74
     0
 42
0.00000001
 43
0.00000001
 40
0.0
 40
0.0
 40
0.0
 40
0.0
 40
0.1249999999999978
 40
0.1249999999999978
 40
0.2499999999999955
 40
0.2499999999999955
 40
0.499999999999997
 40
0.499999999999997
 40
0.7499999999999984
 40
0.7499999999999984
 40
1.0
 40
1.0
 40
1.0
 40
1.0
 10
138.5589138723243
 20
150.3328695864557
 30
0.0
 10
138.6345515787355
 20
150.3328695864557
 30
0.0
 10
138.7108672431537
 20
150.3215245863208
 30
0.0
 10
138.8552779810456
 20
150.2788720356822
 30
0.0
 10
138.923724430154
 20
150.2479377109994
 30
0.0
 10
139.1186556827672
 20
150.1286813392318
 30
0.0
 10
139.2264968565481
 20
150.0185293256112
 30
0.0
 10
139.3952096047601
 20
149.7703932399532
 30
0.0
 10
139.4575740174837
 20
149.6300509159495
 30
0.0
 10
139.538877941992
 20
149.3417792244609
 30
0.0
 10
139.5589138723243
 20
149.190974251481
 30
0.0
 10
139.5589138723243
 20
149.0406043601357
 30
0.0
  0
LINE
  5
B2
330
1F
100
AcDbEntity
  8
0
  6
Continuous
 62
     7
370
    15
100
AcDbLine
 10
139.5589138723
 20
149.0406043601
 30
0.0
 11
139.5589138723
 21
142.7319068256
 31
0.0
  0
SPLINE
  5
B3
330
1F
100
AcDbEntity
  8
0
  6
Continuous
 62
     7
370
    15
100
AcDbSpline
210
0.0
220
0.0
230
1.0
 70
     8
 71
     3
 72
     8
 73
     4
 74
     0
 42
0.00000001
 43
0.00000001
 40
0.0
 40
0.0
 40
0.0
 40
0.0
 40
1.0
 40
1.0
 40
1.0
 40
1.0
 10
128.6989138723243
 20
157.9791776862737
 30
0.0
 10
128.2486056366397
 20
158.7768928113873
 30
0.0
 10
127.7979118201161
 20
159.5743911110445
 30
0.0
 10
127.3468848514029
 20
160.3717016812324
 30
0.0
  0
LINE
  5
B4
330
1F
100
AcDbEntity
  8
0
  6
Continuous
 62
     7
370
    15
100
AcDbLine
 10
128.6989138723
 20
147.2773543317
 30
0.0
 11
128.6989138723
 21
157.9791776863
 31
0.0
  0
SPLINE
  5
B5
330
1F
100
AcDbEntity
  8
0
  6
Continuous
 62
     7
370
    15
100
AcDbSpline
210
0.0
220
0.0
230
1.0
 70
     8
 71
     3
 72
    12
 73
     8
 74
     0
 42
0.00000001
 43
0.00000001
 40
0.0
 40
0.0
 40
0.0
 40
0.0
 40
0.4999999999999953
 40
0.4999999999999953
 40
0.7499999999999977
 40
0.7499999999999977
 40
1.0
 40
1.0
 40
1.0
 40
1.0
 10
139.5589138723243
 20
159.3506466464146
 30
0.0
 10
139.5589138723243
 20
159.615916079181
 30
0.0
 10
139.4543071288378
 20
159.8784311848334
 30
0.0
 10
139.1776387770925
 20
160.1639687908707
 30
0.0
 10
139.0672735177405
 20
160.2402904077321
 30
0.0
 10
138.8232014691248
 20
160.3446325725722
 30
0.0
 10
138.691449007793
 20
160.3717016812324
 30
0.0
 10
138.5589138723243
 20
160.3717016812324
 30
0.0
  0
LINE
  5
B6
330
1F
100
AcDbEntity
  8
0
  6
Continuous
 62
     7
370
    15
100
AcDbLine
 10
139.5589138723
 20
149.0406043601
 30
0.0
 11
139.5589138723
 21
159.3506466464
 31
0.0
  0
SPLINE
  5
B7
330
1F
100
AcDbEntity
  8
0
  6
Continuous
 62
     7
370
    15
100
AcDbSpline
210
0.0
220
0.0
230
1.0
 70
     8
 71
     3
 72
    10
 73
     6
 74
     0
 42
0.00000001
 43
0.00000001
 40
0.0
 40
0.0
 40
0.0
 40
0.0
 40
0.5
 40
0.5
 40
1.0
 40
1.0
 40
1.0
 40
1.0
 10
129.4989138723243
 20
156.2561825857412
 30
0.0
 10
129.2863775584679
 20
156.2561825857412
 30
0.0
 10
129.0764413868139
 20
156.3475951723714
 30
0.0
 10
128.7827342458027
 20
156.6523400382756
 30
0.0
 10
128.6989138723242
 20
156.8644950081842
 30
0.0
 10
128.6989138723243
 20
157.0754580664168
 30
0.0
  0
SPLINE
  5
B8
330
1F
100
AcDbEntity
  8
0
  6
Continuous
 62
     7
370
    15
100
AcDbSpline
210
0.0
220
0.0
230
1.0
 70
     8
 71
     3
 72
    14
 73
    10
 74
     0
 42
0.00000001
 43
0.00000001
 40
0.0
 40
0.0
 40
0.0
 40
0.0
 40
0.25
 40
0.25
 40
0.5
 40
0.5
 40
0.75
 40
0.75
 40
1.0
 40
1.0
 40
1.0
 40
1.0
 10
132.5189138723243
 20
157.0754580664168
 30
0.0
 10
132.5189138723243
 20
156.9691013726644
 30
0.0
 10
132.498526316183
 20
156.8632608849043
 30
0.0
 10
132.4198919707215
 20
156.6666959713679
 30
0.0
 10
132.3611606110829
 20
156.5755252290807
 30
0.0
 10
132.2145517054803
 20
156.4236141400491
 30
0.0
 10
132.1251463854537
 20
156.3615453032295
 30
0.0
 10
131.9312556528534
 20
156.2782772554708
 30
0.0
 10
131.8247506629636
 20
156.2561825857412
 30
0.0
 10
131.7189138723243
 20
156.2561825857412
 30
0.0
  0
SPLINE
  5
B9
330
1F
100
AcDbEntity
  8
0
  6
Continuous
 62
     7
370
    15
100
AcDbSpline
210
0.0
220
0.0
230
1.0
 70
     8
 71
     3
 72
     8
 73
     4
 74
     0
 42
0.00000001
 43
0.00000001
 40
0.0
 40
0.0
 40
0.0
 40
0.0
 40
1.0
 40
1.0
 40
1.0
 40
1.0
 10
133.8709428932457
 20
160.3717016812324
 30
0.0
 10
133.4199159245324
 20
159.5743911110445
 30
0.0
 10
132.9692221080088
 20
158.7768928113873
 30
0.0
 10
132.5189138723243
 20
157.9791776862737
 30
0.0
  0
LINE
  5
BA
330
1F
100
AcDbEntity
  8
0
  6
Continuous
 62
     7
370
    15
100
AcDbLine
 10
132.5189138723
 20
147.2773543317
 30
0.0
 11
132.5189138723
 21
157.9791776863
 31
0.0
  0
LINE
  5
BB
330
1F
100
AcDbEntity
  8
0
  6
Continuous
 62
     7
370
    15
100
AcDbLine
 10
131.7189138723
 20
156.2561825857
 30
0.0
 11
129.4989138723
 21
156.2561825857
 31
0.0
  0
ARC
  5
BC
330
1F
100
AcDbEntity
  8
0
  6
Continuous
 62
     7
370
    15
100
AcDbCircle
 10
119.6091879325
 20
143.9486803411
 30
0.0
 40
11.44864639011294
100
AcDbArc
 50
77.6649884509
 51
102.4018279774
  0
LINE
  5
BD
330
1F
100
AcDbEntity
  8
0
  6
Continuous
 62
     7
370
    15
100
AcDbLine
 10
62.3589138723
 20
79.1319068256
 30
0.0
 11
62.3589138723
 21
79.1336216237
 31
0.0
  0
LINE
  5
BE
330
1F
100
AcDbEntity
  8
0
  6
Continuous
 62
     7
370
    15
100
AcDbLine
 10
62.3589138723
 20
143.6319068256
 30
0.0
 11
62.3589138723
 21
143.6301920274
 31
0.0
  0
LINE
  5
BF
330
1F
100
AcDbEntity
  8
0
  6
Continuous
 62
     7
370
    15
100
AcDbLine
 10
161.5589138723
 20
96.3819068256
 30
0.0
 11
161.5589138723
 21
126.3819068256
 31
0.0
  0
LINE
  5
C0
330
1F
100
AcDbEntity
  8
0
  6
Continuous
 62
     7
370
    15
100
AcDbLine
 10
150.2324904337
 20
126.2170015376
 30
0.0
 11
150.4046555399
 21
126.1983580761
 31
0.0
  0
SPLINE
  5
C1
330
1F
100
AcDbEntity
  8
0
  6
Continuous
 62
     7
370
    15
100
AcDbSpline
210
0.0
220
0.0
230
1.0
 70
     8
 71
     3
 72
    37
 73
    33
 74
     0
 42
0.00000001
 43
0.00000001
 40
0.0
 40
0.0
 40
0.0
 40
0.0
 40
0.0260745690363585
 40
0.0485613789562384
 40
0.0686516358259708
 40
0.1094511196058707
 40
0.1301874919269438
 40
0.1516489175492166
 40
0.1951472409224596
 40
0.217202908328428
 40
0.2418582355108142
 40
0.2918187188911572
 40
0.3171485545383644
 40
0.3455750682187081
 40
0.4032428283255142
 40
0.4325284642472568
 40
0.4636592982830772
 40
0.5269199854930219
 40
0.5591193170383671
 40
0.5911186074605721
 40
0.6233445310618142
 40
0.6563033069143737
 40
0.6895250809470383
 40
0.7206642780458473
 40
0.7842158098972054
 40
0.8167789331396226
 40
0.839561328646624
 40
0.8858326780637157
 40
0.9093994472971431
 40
0.9321878521921764
 40
0.9787112702307819
 40
1.0
 40
1.0
 40
1.0
 40
1.0
 10
156.0491517127063
 20
126.3802869027405
 30
0.0
 10
156.0506175702796
 20
126.3805286669601
 30
0.0
 10
156.0533475891349
 20
126.3809789295844
 30
0.0
 10
156.0138263838087
 20
126.3744431799204
 30
0.0
 10
155.9481433017578
 20
126.3637134697608
 30
0.0
 10
155.8501086423194
 20
126.3480001926182
 30
0.0
 10
155.7218661853304
 20
126.3282426287863
 30
0.0
 10
155.5701277215
 20
126.3055578425564
 30
0.0
 10
155.3881179939267
 20
126.2797411024746
 30
0.0
 10
155.1756654485538
 20
126.2518313092565
 30
0.0
 10
154.9314081267883
 20
126.2216332550417
 30
0.0
 10
154.6541885944632
 20
126.19100359504
 30
0.0
 10
154.3473700792358
 20
126.1619889709997
 30
0.0
 10
154.004769446181
 20
126.1335700554329
 30
0.0
 10
153.6315178869586
 20
126.1098693158631
 30
0.0
 10
153.2387826362624
 20
126.0934488428145
 30
0.0
 10
152.8217021100415
 20
126.0823235749745
 30
0.0
 10
152.3890281552791
 20
126.0812624914778
 30
0.0
 10
151.957962687613
 20
126.0908015500847
 30
0.0
 10
151.6359067277255
 20
126.1031482227272
 30
0.0
 10
151.3178427481592
 20
126.1203941121777
 30
0.0
 10
151.0048888843232
 20
126.1422329622228
 30
0.0
 10
150.7070926174959
 20
126.1675093366746
 30
0.0
 10
150.3344260527169
 20
126.2042722688799
 30
0.0
 10
149.9950458612323
 20
126.2444375244266
 30
0.0
 10
149.720906750184
 20
126.2811033504175
 30
0.0
 10
149.5107341614776
 20
126.3108711530137
 30
0.0
 10
149.3491578414605
 20
126.3352997643036
 30
0.0
 10
149.2241888320417
 20
126.354972388726
 30
0.0
 10
149.1256054022617
 20
126.3708460539989
 30
0.0
 10
149.0661895838513
 20
126.3806981706594
 30
0.0
 10
149.0615098887727
 20
126.3814756785128
 30
0.0
 10
149.0600407601999
 20
126.3817197668528
 30
0.0
  0
SPLINE
  5
C2
330
1F
100
AcDbEntity
  8
0
  6
Continuous
 62
     7
370
    15
100
AcDbSpline
210
0.0
220
0.0
230
1.0
 70
     8
 71
     3
 72
     9
 73
     5
 74
     0
 42
0.00000001
 43
0.00000001
 40
0.0
 40
0.0
 40
0.0
 40
0.0
 40
0.362503321687466
 40
0.9999999999999999
 40
0.9999999999999999
 40
0.9999999999999999
 40
0.9999999999999999
 10
149.9701321418787
 20
126.2489588417144
 30
0.0
 10
149.9994979575973
 20
126.2451019935591
 30
0.0
 10
150.0805063621048
 20
126.2344625099335
 30
0.0
 10
150.1733212505907
 20
126.2237992990804
 30
0.0
 10
150.2324904336984
 20
126.2170015375814
 30
0.0
  0
SPLINE
  5
C3
330
1F
100
AcDbEntity
  8
0
  6
Continuous
 62
     7
370
    15
100
AcDbSpline
210
0.0
220
0.0
230
1.0
 70
     8
 71
     3
 72
    60
 73
    56
 74
     0
 42
0.00000001
 43
0.00000001
 40
-0.0312499999999996
 40
-0.0312499999999996
 40
0.0
 40
0.0
 40
0.0625000000000014
 40
0.0625000000000014
 40
0.0937500000000021
 40
0.0937500000000021
 40
0.1250000000000028
 40
0.1250000000000028
 40
0.1875000000000032
 40
0.1875000000000032
 40
0.2500000000000036
 40
0.2500000000000036
 40
0.2812500000000038
 40
0.2812500000000038
 40
0.3125000000000039
 40
0.3125000000000039
 40
0.3437500000000041
 40
0.3437500000000041
 40
0.3750000000000042
 40
0.3750000000000042
 40
0.4062500000000044
 40
0.4062500000000044
 40
0.4375000000000046
 40
0.4375000000000046
 40
0.4687500000000047
 40
0.4687500000000047
 40
0.5000000000000049
 40
0.5000000000000049
 40
0.5625000000000044
 40
0.5625000000000044
 40
0.5937500000000042
 40
0.5937500000000042
 40
0.6250000000000041
 40
0.6250000000000041
 40
0.6562500000000039
 40
0.6562500000000039
 40
0.6875000000000038
 40
0.6875000000000038
 40
0.7500000000000023
 40
0.7500000000000023
 40
0.7812500000000021
 40
0.7812500000000021
 40
0.8125000000000018
 40
0.8125000000000018
 40
0.8437500000000016
 40
0.8437500000000016
 40
0.8750000000000012
 40
0.8750000000000012
 40
0.906250000000001
 40
0.906250000000001
 40
0.9375000000000007
 40
0.9375000000000007
 40
0.9687500000000004
 40
0.9687500000000004
 40
1.0
 40
1.0
 40
1.062500000000001
 40
1.062500000000001
 10
150.0627807269492
 20
113.4705806132248
 30
0.0
 10
150.5719098509863
 20
113.8588574067184
 30
0.0
 10
150.9491280065159
 20
114.0497053491879
 30
0.0
 10
151.5592130762269
 20
114.2429905691993
 30
0.0
 10
151.7655143757937
 20
114.290102962756
 30
0.0
 10
152.1837102943925
 20
114.351561513078
 30
0.0
 10
152.39681811811
 20
114.365868104134
 30
0.0
 10
153.0367339115821
 20
114.357733771655
 30
0.0
 10
153.4538574119252
 20
114.2863938042753
 30
0.0
 10
154.2604846715176
 20
114.0076949548325
 30
0.0
 10
154.6300536760358
 20
113.808227310165
 30
0.0
 10
155.1276041241829
 20
113.4058763342255
 30
0.0
 10
155.2788633984422
 20
113.2578696960235
 30
0.0
 10
155.5487523095069
 20
112.9337526934205
 30
0.0
 10
155.6689464663393
 20
112.7546781138071
 30
0.0
 10
155.8629493316044
 20
112.3784718039777
 30
0.0
 10
155.9375034907994
 20
112.1817149054839
 30
0.0
 10
156.0376270701104
 20
111.7692290123224
 30
0.0
 10
156.0619698708105
 20
111.5537386723334
 30
0.0
 10
156.0552244901722
 20
111.1306088019889
 30
0.0
 10
156.0242066826171
 20
110.9165968798028
 30
0.0
 10
155.9109718510643
 20
110.5059468435076
 30
0.0
 10
155.8299239172932
 20
110.3099475832288
 30
0.0
 10
155.6221293816272
 20
109.9353051915192
 30
0.0
 10
155.4987323489709
 20
109.7627309351993
 30
0.0
 10
155.2185134924311
 20
109.4443698519437
 30
0.0
 10
155.0606522825374
 20
109.2982481823378
 30
0.0
 10
154.5569864523627
 20
108.9119646419888
 30
0.0
 10
154.1711414921373
 20
108.7156001183058
 30
0.0
 10
153.566324189969
 20
108.5229143672874
 30
0.0
 10
153.357838097791
 20
108.4747116136386
 30
0.0
 10
152.9354650765098
 20
108.4122642321831
 30
0.0
 10
152.7240892067328
 20
108.3981627587911
 30
0.0
 10
152.300971052246
 20
108.4030343191674
 30
0.0
 10
152.0880266896708
 20
108.4222232300723
 30
0.0
 10
151.6671248506519
 20
108.4947043286762
 30
0.0
 10
151.4622631739608
 20
108.5472508064539
 30
0.0
 10
150.8642289455701
 20
108.7534641937937
 30
0.0
 10
150.4824304614145
 20
108.9598703103895
 30
0.0
 10
149.9926229051763
 20
109.3560157238621
 30
0.0
 10
149.8414735267261
 20
109.5029988798472
 30
0.0
 10
149.567368075535
 20
109.8320433036736
 30
0.0
 10
149.4494776755558
 20
110.008114542126
 30
0.0
 10
149.2550263422435
 20
110.3849199779812
 30
0.0
 10
149.1783617075168
 20
110.5881474799925
 30
0.0
 10
149.0793944646346
 20
111.0000000352625
 30
0.0
 10
149.0554684528936
 20
111.2112202027827
 30
0.0
 10
149.0631540250734
 20
111.6416072350785
 30
0.0
 10
149.0944633629944
 20
111.8516931545308
 30
0.0
 10
149.2084856588763
 20
112.2623241916025
 30
0.0
 10
149.2918045362791
 20
112.4619719363304
 30
0.0
 10
149.4986189488054
 20
112.8326649434811
 30
0.0
 10
149.6243554466092
 20
113.0079839402559
 30
0.0
 10
149.9061914664364
 20
113.3262911141777
 30
0.0
 10
150.0627807269492
 20
113.4705806132248
 30
0.0
 10
150.5719098509863
 20
113.8588574067184
 30
0.0
  0
SPLINE
  5
C4
330
1F
100
AcDbEntity
  8
0
  6
Continuous
 62
     7
370
    15
100
AcDbSpline
210
0.0
220
0.0
230
1.0
 70
     8
 71
     3
 72
     9
 73
     5
 74
     0
 42
0.00000001
 43
0.00000001
 40
0.0
 40
0.0
 40
0.0
 40
0.0
 40
0.8306961451679926
 40
1.0
 40
1.0
 40
1.0
 40
1.0
 10
150.232490434006
 20
96.54681211359103
 30
0.0
 10
150.160580277148
 20
96.53860506216043
 30
0.0
 10
150.0740141394858
 20
96.52872533480364
 30
0.0
 10
150.0011681236842
 20
96.51901667707085
 30
0.0
 10
149.9888350123998
 20
96.51737296389146
 30
0.0
  0
SPLINE
  5
C5
330
1F
100
AcDbEntity
  8
0
  6
Continuous
 62
     7
370
    15
100
AcDbSpline
210
0.0
220
0.0
230
1.0
 70
     8
 71
     3
 72
    39
 73
    35
 74
     0
 42
0.00000001
 43
0.00000001
 40
0.0
 40
0.0
 40
0.0
 40
0.0
 40
0.0060930915915705
 40
0.0287231216979002
 40
0.0488575597471496
 40
0.0897791026067263
 40
0.1105983631044339
 40
0.131524678751656
 40
0.1739506973677861
 40
0.1954697364836918
 40
0.219251300953707
 40
0.2674372844787148
 40
0.2918637061366418
 40
0.3194211748210423
 40
0.375305358944288
 40
0.4036706937147593
 40
0.4343190429066368
 40
0.4965752772228843
 40
0.5282468941304267
 40
0.5601856082085998
 40
0.5923465560573513
 40
0.6252194849322184
 40
0.6583446550624823
 40
0.6898805263369179
 40
0.7216586971763909
 40
0.7542539956277852
 40
0.7871589908225303
 40
0.8110125140027766
 40
0.8594545121918965
 40
0.8841254510707373
 40
0.9079858265415882
 40
0.9567347565320061
 40
0.981732796806202
 40
1.0
 40
1.0
 40
1.0
 40
1.0
 10
149.0637642408397
 20
96.38271013404662
 30
0.0
 10
149.0621157219528
 20
96.38243718488557
 30
0.0
 10
149.0543445260173
 20
96.38115048964197
 30
0.0
 10
149.0739005886041
 20
96.38439715686982
 30
0.0
 10
149.1157160332808
 20
96.39129868888584
 30
0.0
 10
149.1944988619049
 20
96.40414344334386
 30
0.0
 10
149.3035407133991
 20
96.42134257098536
 30
0.0
 10
149.4348462410694
 20
96.44154107153733
 30
0.0
 10
149.5959159107339
 20
96.4652675591678
 30
0.0
 10
149.7872297581494
 20
96.49165989824951
 30
0.0
 10
150.008300050346
 20
96.52063011676485
 30
0.0
 10
150.2618284420185
 20
96.55088248780885
 30
0.0
 10
150.5456965715219
 20
96.58063284057148
 30
0.0
 10
150.8654646492013
 20
96.61073845852938
 30
0.0
 10
151.2173747056722
 20
96.6375505246758
 30
0.0
 10
151.5923416575162
 20
96.65846191461453
 30
0.0
 10
151.9959988292865
 20
96.67514472126666
 30
0.0
 10
152.4201133211663
 20
96.68274237307185
 30
0.0
 10
152.8482566205633
 20
96.67999082654897
 30
0.0
 10
153.1721886223656
 20
96.67263555470842
 30
0.0
 10
153.4958935216369
 20
96.66003333477133
 30
0.0
 10
153.8168294982266
 20
96.64238608647926
 30
0.0
 10
154.1264308788225
 20
96.62049293841551
 30
0.0
 10
154.4210060035205
 20
96.59534026469909
 30
0.0
 10
154.7002590034469
 20
96.56770226962504
 30
0.0
 10
154.9665819439576
 20
96.53791259987604
 30
0.0
 10
155.1925540519478
 20
96.50992148167491
 30
0.0
 10
155.4360577051413
 20
96.47752048415079
 30
0.0
 10
155.631637196048
 20
96.44927499478473
 30
0.0
 10
155.7904830263979
 20
96.42506528900229
 30
0.0
 10
155.9236116247375
 20
96.40414040703479
 30
0.0
 10
156.0133437945464
 20
96.38946065921026
 30
0.0
 10
156.05464719786
 20
96.38261668735078
 30
0.0
 10
156.0569352150998
 20
96.3822357884407
 30
0.0
 10
156.0579012486288
 20
96.38207496748537
 30
0.0
  0
LINE
  5
C6
330
1F
100
AcDbEntity
  8
0
  6
Continuous
 62
     7
370
    15
100
AcDbLine
 10
150.301676657
 20
96.5543539755
 30
0.0
 11
150.232490434
 21
96.5468121136
 31
0.0
  0
CIRCLE
  5
C7
330
1F
100
AcDbEntity
  8
0
  6
Continuous
 62
     7
370
    15
100
AcDbCircle
 10
152.5589138723
 20
111.3819068256
 30
0.0
 40
2.500000000000014
  0
LINE
  5
C8
330
1F
100
AcDbEntity
  8
0
  6
Continuous
 62
     7
370
    15
100
AcDbLine
 10
202.4902996638
 20
97.8819068256
 30
0.0
 11
202.4902996638
 21
124.8819068256
 31
0.0
  0
LINE
  5
C9
330
1F
100
AcDbEntity
  8
0
  6
Continuous
 62
     7
370
    15
100
AcDbLine
 10
240.6089138723
 20
102.7306878089
 30
0.0
 11
240.6089138723
 21
120.0331258423
 31
0.0
  0
LINE
  5
CA
330
1F
100
AcDbEntity
  8
0
  6
HIDDEN
 62
     7
370
     0
100
AcDbLine
 10
203.6089138723
 20
108.3819068256
 30
0.0
 11
203.6089138723
 21
114.3819068256
 31
0.0
  0
LINE
  5
CB
330
1F
100
AcDbEntity
  8
0
  6
HIDDEN
 62
     7
370
     0
100
AcDbLine
 10
191.1089138723
 20
108.3819068256
 30
0.0
 11
191.1089138723
 21
114.3819068256
 31
0.0
  0
LINE
  5
CC
330
1F
100
AcDbEntity
  8
0
  6
HIDDEN
 62
     7
370
     0
100
AcDbLine
 10
190.6089138723
 20
108.8819068256
 30
0.0
 11
190.6089138723
 21
113.8819068256
 31
0.0
  0
LINE
  5
CD
330
1F
100
AcDbEntity
  8
0
  6
HIDDEN
 62
     7
370
     0
100
AcDbLine
 10
206.6089138723
 20
110.3819068256
 30
0.0
 11
204.6089138723
 21
110.3819068256
 31
0.0
  0
LINE
  5
CE
330
1F
100
AcDbEntity
  8
0
  6
HIDDEN
 62
     7
370
     0
100
AcDbLine
 10
206.6089138723
 20
108.8819068256
 30
0.0
 11
206.6089138723
 21
110.3819068256
 31
0.0
  0
LINE
  5
CF
330
1F
100
AcDbEntity
  8
0
  6
HIDDEN
 62
     7
370
     0
100
AcDbLine
 10
206.6089138723
 20
112.3819068256
 30
0.0
 11
206.6089138723
 21
113.8819068256
 31
0.0
  0
LINE
  5
D0
330
1F
100
AcDbEntity
  8
0
  6
HIDDEN
 62
     7
370
     0
100
AcDbLine
 10
204.6089138723
 20
112.3819068256
 30
0.0
 11
206.6089138723
 21
112.3819068256
 31
0.0
  0
LINE
  5
D1
330
1F
100
AcDbEntity
  8
0
  6
HIDDEN
 62
     7
370
     0
100
AcDbLine
 10
204.6089138723
 20
110.3819068256
 30
0.0
 11
204.6089138723
 21
112.3819068256
 31
0.0
  0
LINE
  5
D2
330
1F
100
AcDbEntity
  8
0
  6
HIDDEN
 62
     7
370
     0
100
AcDbLine
 10
202.1089138723
 20
112.1319068256
 30
0.0
 11
202.1089138723
 21
111.3819068256
 31
0.0
  0
LINE
  5
D3
330
1F
100
AcDbEntity
  8
0
  6
HIDDEN
 62
     7
370
     0
100
AcDbLine
 10
202.1089138723
 20
111.3819068256
 30
0.0
 11
202.1089138723
 21
110.6319068256
 31
0.0
  0
LINE
  5
D4
330
1F
100
AcDbEntity
  8
0
  6
HIDDEN
 62
     7
370
     0
100
AcDbLine
 10
202.1089138723
 20
111.3819068256
 30
0.0
 11
204.6089138723
 21
111.3819068256
 31
0.0
  0
LINE
  5
D5
330
1F
100
AcDbEntity
  8
0
  6
HIDDEN
 62
     7
370
     0
100
AcDbLine
 10
195.1089138723
 20
111.3819068256
 30
0.0
 11
190.6089138723
 21
111.3819068256
 31
0.0
  0
LINE
  5
D6
330
1F
100
AcDbEntity
  8
0
  6
HIDDEN
 62
     7
370
     0
100
AcDbLine
 10
195.1089138723
 20
111.3819068256
 30
0.0
 11
195.1089138723
 21
112.1319068256
 31
0.0
  0
LINE
  5
D7
330
1F
100
AcDbEntity
  8
0
  6
HIDDEN
 62
     7
370
     0
100
AcDbLine
 10
195.1089138723
 20
110.6319068256
 30
0.0
 11
195.1089138723
 21
111.3819068256
 31
0.0
  0
LINE
  5
D8
330
1F
100
AcDbEntity
  8
0
  6
HIDDEN
 62
     7
370
     0
100
AcDbLine
 10
195.1089138723
 20
109.8819068256
 30
0.0
 11
195.1089138723
 21
110.6319068256
 31
0.0
  0
LINE
  5
D9
330
1F
100
AcDbEntity
  8
0
  6
HIDDEN
 62
     7
370
     0
100
AcDbLine
 10
202.1089138723
 20
112.8819068256
 30
0.0
 11
202.1089138723
 21
112.1319068256
 31
0.0
  0
LINE
  5
DA
330
1F
100
AcDbEntity
  8
0
  6
HIDDEN
 62
     7
370
     0
100
AcDbLine
 10
202.1089138723
 20
110.6319068256
 30
0.0
 11
202.1089138723
 21
109.8819068256
 31
0.0
  0
LINE
  5
DB
330
1F
100
AcDbEntity
  8
0
  6
HIDDEN
 62
     7
370
     0
100
AcDbLine
 10
195.1089138723
 20
112.1319068256
 30
0.0
 11
195.1089138723
 21
112.8819068256
 31
0.0
  0
LINE
  5
DC
330
1F
100
AcDbEntity
  8
0
  6
HIDDEN
 62
     7
370
     0
100
AcDbLine
 10
195.1089138723
 20
109.8819068256
 30
0.0
 11
190.6089138723
 21
109.8819068256
 31
0.0
  0
LINE
  5
DD
330
1F
100
AcDbEntity
  8
0
  6
HIDDEN
 62
     7
370
     0
100
AcDbLine
 10
202.1089138723
 20
112.8819068256
 30
0.0
 11
206.6089138723
 21
112.8819068256
 31
0.0
  0
LINE
  5
DE
330
1F
100
AcDbEntity
  8
0
  6
HIDDEN
 62
     7
370
     0
100
AcDbLine
 10
195.1089138723
 20
112.8819068256
 30
0.0
 11
190.6089138723
 21
112.8819068256
 31
0.0
  0
LINE
  5
DF
330
1F
100
AcDbEntity
  8
0
  6
HIDDEN
 62
     7
370
     0
100
AcDbLine
 10
202.1089138723
 20
109.8819068256
 30
0.0
 11
206.6089138723
 21
109.8819068256
 31
0.0
  0
LINE
  5
E0
330
1F
100
AcDbEntity
  8
0
  6
HIDDEN
 62
     7
370
     0
100
AcDbLine
 10
240.4176471151
 20
105.8755492721
 30
0.0
 11
240.5354265624
 21
102.8778621634
 31
0.0
  0
LINE
  5
E1
330
1F
100
AcDbEntity
  8
0
  6
HIDDEN
 62
     7
370
     0
100
AcDbLine
 10
235.0837093112
 20
105.665978285
 30
0.0
 11
235.2014887585
 21
102.6682911763
 31
0.0
  0
LINE
  5
E2
330
1F
100
AcDbEntity
  8
0
  6
HIDDEN
 62
     7
370
     0
100
AcDbLine
 10
240.5904813888
 20
105.601623527
 30
0.0
 11
240.6089138723
 21
105.1324854945
 31
0.0
  0
LINE
  5
E3
330
1F
100
AcDbEntity
  8
0
  6
HIDDEN
 62
     7
370
     0
100
AcDbLine
 10
234.6037247009
 20
105.146733859
 30
0.0
 11
234.6822443325
 21
103.1482757865
 31
0.0
  0
LINE
  5
E4
330
1F
100
AcDbEntity
  8
0
  6
HIDDEN
 62
     7
370
     0
100
AcDbLine
 10
238.6399006617
 20
104.3045440858
 30
0.0
 11
238.6104557998
 21
105.053965863
 31
0.0
  0
LINE
  5
E5
330
1F
100
AcDbEntity
  8
0
  6
HIDDEN
 62
     7
370
     0
100
AcDbLine
 10
238.6693455235
 20
103.5551223086
 30
0.0
 11
238.6399006617
 21
104.3045440858
 31
0.0
  0
LINE
  5
E6
330
1F
100
AcDbEntity
  8
0
  6
HIDDEN
 62
     7
370
     0
100
AcDbLine
 10
238.6399006617
 20
104.3045440858
 30
0.0
 11
240.6383587341
 21
104.3830637173
 31
0.0
  0
LINE
  5
E7
330
1F
100
AcDbEntity
  8
0
  6
HIDDEN
 62
     7
370
     0
100
AcDbLine
 10
238.6693455235
 20
103.5551223086
 30
0.0
 11
240.667803596
 21
103.6336419402
 31
0.0
  0
LINE
  5
E8
330
1F
100
AcDbEntity
  8
0
  6
HIDDEN
 62
     7
370
     0
100
AcDbLine
 10
238.6104557998
 20
105.053965863
 30
0.0
 11
240.6089138723
 21
105.1324854945
 31
0.0
  0
LINE
  5
E9
330
1F
100
AcDbEntity
  8
0
  6
HIDDEN
 62
     7
370
     0
100
AcDbLine
 10
240.4686471118
 20
119.6874583113
 30
0.0
 11
240.3587573914
 21
116.8905781626
 31
0.0
  0
LINE
  5
EA
330
1F
100
AcDbEntity
  8
0
  6
HIDDEN
 62
     7
370
     0
100
AcDbLine
 10
240.4765368387
 20
119.8882652713
 30
0.0
 11
240.4686471118
 21
119.6874583113
 31
0.0
  0
LINE
  5
EB
330
1F
100
AcDbEntity
  8
0
  6
HIDDEN
 62
     7
370
     0
100
AcDbLine
 10
235.1347093079
 20
119.8970292984
 30
0.0
 11
235.0248195875
 21
117.1001491497
 31
0.0
  0
LINE
  5
EC
330
1F
100
AcDbEntity
  8
0
  6
HIDDEN
 62
     7
370
     0
100
AcDbLine
 10
235.1425990348
 20
120.0978362584
 30
0.0
 11
235.1347093079
 21
119.8970292984
 31
0.0
  0
LINE
  5
ED
330
1F
100
AcDbEntity
  8
0
  6
HIDDEN
 62
     7
370
     0
100
AcDbLine
 10
234.6180947909
 20
119.4839803415
 30
0.0
 11
234.5448349773
 21
117.6193935757
 31
0.0
  0
LINE
  5
EE
330
1F
100
AcDbEntity
  8
0
  6
HIDDEN
 62
     7
370
     0
100
AcDbLine
 10
234.6233546088
 20
119.6178516481
 30
0.0
 11
234.6180947909
 21
119.4839803415
 31
0.0
  0
LINE
  5
EF
330
1F
100
AcDbEntity
  8
0
  6
HIDDEN
 62
     7
370
     0
100
AcDbLine
 10
240.6089138723
 20
119.1324854945
 30
0.0
 11
240.5315916652
 21
117.1645039076
 31
0.0
  0
LINE
  5
F0
330
1F
100
AcDbEntity
  8
0
  6
HIDDEN
 62
     7
370
     0
100
AcDbLine
 10
238.581010938
 20
118.4615833489
 30
0.0
 11
238.6104557998
 21
119.211005126
 31
0.0
  0
LINE
  5
F1
330
1F
100
AcDbEntity
  8
0
  6
HIDDEN
 62
     7
370
     0
100
AcDbLine
 10
238.581010938
 20
118.4615833489
 30
0.0
 11
238.5515660762
 21
117.7121615717
 31
0.0
  0
LINE
  5
F2
330
1F
100
AcDbEntity
  8
0
  6
HIDDEN
 62
     7
370
     0
100
AcDbLine
 10
238.581010938
 20
118.4615833489
 30
0.0
 11
240.5794690105
 21
118.3830637173
 31
0.0
  0
LINE
  5
F3
330
1F
100
AcDbEntity
  8
0
  6
HIDDEN
 62
     7
370
     0
100
AcDbLine
 10
238.5515660762
 20
117.7121615717
 30
0.0
 11
240.5500241487
 21
117.6336419402
 31
0.0
  0
LINE
  5
F4
330
1F
100
AcDbEntity
  8
0
  6
HIDDEN
 62
     7
370
     0
100
AcDbLine
 10
238.6104557998
 20
119.211005126
 30
0.0
 11
240.6089138723
 21
119.1324854945
 31
0.0
  0
SPLINE
  5
F5
330
1F
100
AcDbEntity
  8
0
  6
HIDDEN
 62
     7
370
     0
100
AcDbSpline
210
0.0
220
0.0
230
1.0
 70
     8
 71
     3
 72
    80
 73
    76
 74
     0
 42
0.00000001
 43
0.00000001
 40
-0.03125
 40
-0.03125
 40
0.0
 40
0.0
 40
0.0312500000000002
 40
0.0312500000000002
 40
0.0468750000000002
 40
0.0468750000000002
 40
0.0625000000000001
 40
0.0625000000000001
 40
0.0937499999999999
 40
0.0937499999999999
 40
0.1249999999999997
 40
0.1249999999999997
 40
0.1562499999999995
 40
0.1562499999999995
 40
0.1874999999999993
 40
0.1874999999999993
 40
0.2187499999999991
 40
0.2187499999999991
 40
0.2499999999999989
 40
0.2499999999999989
 40
0.2812499999999987
 40
0.2812499999999987
 40
0.3124999999999984
 40
0.3124999999999984
 40
0.3281249999999985
 40
0.3281249999999985
 40
0.3437499999999986
 40
0.3437499999999986
 40
0.3749999999999986
 40
0.3749999999999986
 40
0.4062499999999987
 40
0.4062499999999987
 40
0.4218749999999989
 40
0.4218749999999989
 40
0.4374999999999991
 40
0.4374999999999991
 40
0.4687499999999993
 40
0.4687499999999993
 40
0.4999999999999994
 40
0.4999999999999994
 40
0.5312499999999997
 40
0.5312499999999997
 40
0.5624999999999998
 40
0.5624999999999998
 40
0.59375
 40
0.59375
 40
0.6250000000000001
 40
0.6250000000000001
 40
0.6562500000000003
 40
0.6562500000000003
 40
0.6875000000000006
 40
0.6875000000000006
 40
0.7031250000000007
 40
0.7031250000000007
 40
0.7187500000000007
 40
0.7187500000000007
 40
0.7500000000000003
 40
0.7500000000000003
 40
0.78125
 40
0.78125
 40
0.7968749999999998
 40
0.7968749999999998
 40
0.8124999999999997
 40
0.8124999999999997
 40
0.8437499999999998
 40
0.8437499999999998
 40
0.8749999999999998
 40
0.8749999999999998
 40
0.9062499999999999
 40
0.9062499999999999
 40
0.9375
 40
0.9375
 40
0.96875
 40
0.96875
 40
1.0
 40
1.0
 40
1.03125
 40
1.03125
 10
119.278368559548
 20
160.2414560820468
 30
0.0
 10
119.9394591851006
 20
160.2414560820468
 30
0.0
 10
120.2644393143522
 20
160.2345579362199
 30
0.0
 10
120.7439127255986
 20
160.2140315082394
 30
0.0
 10
120.9023945434394
 20
160.2054752811519
 30
0.0
 10
121.2166140759437
 20
160.1847489059342
 30
0.0
 10
121.3727343596241
 20
160.1725216057279
 30
0.0
 10
121.8267883885807
 20
160.1309523118986
 30
0.0
 10
122.1138917715205
 20
160.0966080268009
 30
0.0
 10
122.6572463275475
 20
160.0132839024786
 30
0.0
 10
122.9143499387531
 20
159.9638456797041
 30
0.0
 10
123.3752561936919
 20
159.8524659499442
 30
0.0
 10
123.5821539029069
 20
159.790171436432
 30
0.0
 10
123.9476792168991
 20
159.650241793561
 30
0.0
 10
124.102884739025
 20
159.573625895812
 30
0.0
 10
124.3523151256247
 20
159.4096672759562
 30
0.0
 10
124.4484050814099
 20
159.3211104218605
 30
0.0
 10
124.5769239306035
 20
159.1336297397548
 30
0.0
 10
124.6087348007813
 20
159.0363932783003
 30
0.0
 10
124.6090914505545
 20
158.8347606389732
 30
0.0
 10
124.5765941983575
 20
158.7292118471351
 30
0.0
 10
124.448968724643
 20
158.5190970644466
 30
0.0
 10
124.3545403235911
 20
158.4140315564776
 30
0.0
 10
124.1666795036055
 20
158.2571538492266
 30
0.0
 10
124.0958515048023
 20
158.2047201155208
 30
0.0
 10
123.9411296128371
 20
158.1022816698911
 30
0.0
 10
123.8571531426537
 20
158.0521339412393
 30
0.0
 10
123.5858294730093
 20
157.9051179848057
 30
0.0
 10
123.3792802544069
 20
157.8116301643713
 30
0.0
 10
122.9126701142179
 20
157.635843306757
 30
0.0
 10
122.6603045445924
 20
157.5564648316733
 30
0.0
 10
122.2544032029137
 20
157.4509823941792
 30
0.0
 10
122.1145025854362
 20
157.4180968293391
 30
0.0
 10
121.8252786501893
 20
157.3571813501104
 30
0.0
 10
121.6754391939
 20
157.329100778468
 30
0.0
 10
121.2213226242892
 20
157.2542987364252
 30
0.0
 10
120.9096714055524
 20
157.2162606781791
 30
0.0
 10
120.26867494064
 20
157.1646487516549
 30
0.0
 10
119.9371473126878
 20
157.1513348181335
 30
0.0
 10
119.2843562676164
 20
157.1512377318054
 30
0.0
 10
118.9598200625845
 20
157.1640258169664
 30
0.0
 10
118.3145506131681
 20
157.2155160065624
 30
0.0
 10
117.9988076070054
 20
157.2540405858824
 30
0.0
 10
117.3969183120217
 20
157.3529431487405
 30
0.0
 10
117.1061690812102
 20
157.4140472466655
 30
0.0
 10
116.5592572895257
 20
157.5558566797762
 30
0.0
 10
116.3074799256888
 20
157.6351911643554
 30
0.0
 10
115.8460919330677
 20
157.8085699090169
 30
0.0
 10
115.6348226534696
 20
157.9037298537709
 30
0.0
 10
115.2715183010934
 20
158.1003023771468
 30
0.0
 10
115.1177116526506
 20
158.2020586055532
 30
0.0
 10
114.9290921830532
 20
158.3588445683387
 30
0.0
 10
114.8730616968441
 20
158.4120986020886
 30
0.0
 10
114.7774879351079
 20
158.5179031636414
 30
0.0
 10
114.7377250180829
 20
158.570556227997
 30
0.0
 10
114.6419532677708
 20
158.7276299474561
 30
0.0
 10
114.6092304286447
 20
158.8311549827833
 30
0.0
 10
114.6086018423156
 20
159.0353697170104
 30
0.0
 10
114.6407879870504
 20
159.1328735545952
 30
0.0
 10
114.735698688906
 20
159.2722006049468
 30
0.0
 10
114.7751654723049
 20
159.3175173364513
 30
0.0
 10
114.8700954710258
 20
159.4059571574401
 30
0.0
 10
114.9258522987892
 20
159.4492114079001
 30
0.0
 10
115.1137924167591
 20
159.57310288249
 30
0.0
 10
115.2671538864752
 20
159.6488051732641
 30
0.0
 10
115.6294181213556
 20
159.7880595447223
 30
0.0
 10
115.8402665948215
 20
159.851821386251
 30
0.0
 10
116.3009365651404
 20
159.9633182257188
 30
0.0
 10
116.5523109447243
 20
160.0118442980354
 30
0.0
 10
117.0982188316224
 20
160.0958982814159
 30
0.0
 10
117.3890414062736
 20
160.1306968350827
 30
0.0
 10
117.9903680210536
 20
160.1858932998464
 30
0.0
 10
118.304886605666
 20
160.2067111486004
 30
0.0
 10
118.951468061786
 20
160.2345584815111
 30
0.0
 10
119.278368559548
 20
160.2414560820468
 30
0.0
 10
119.9394591851006
 20
160.2414560820468
 30
0.0
  0
LINE
  5
F6
330
1F
100
AcDbEntity
  8
0
  6
HIDDEN
 62
     7
370
     0
100
AcDbLine
 10
127.3468848514
 20
150.3328695865
 30
0.0
 11
127.3468848514
 21
142.7319068256
 31
0.0
  0
LINE
  5
F7
330
1F
100
AcDbEntity
  8
0
  6
HIDDEN
 62
     7
370
     0
100
AcDbLine
 10
91.0223386218
 20
74.6461004633
 30
0.0
 11
90.7523829209
 21
74.622174364
 31
0.0
  0
SPLINE
  5
F8
330
1F
100
AcDbEntity
  8
0
  6
HIDDEN
 62
     7
370
     0
100
AcDbSpline
210
0.0
220
0.0
230
1.0
 70
     8
 71
     3
 72
    12
 73
     8
 74
     0
 42
0.00000001
 43
0.00000001
 40
0.0
 40
0.0
 40
0.0
 40
0.0
 40
0.1661348616735903
 40
0.3322013257393936
 40
0.5008932044678248
 40
0.752137078264078
 40
1.0
 40
1.0
 40
1.0
 40
1.0
 10
89.1282355379715
 20
148.3132108486343
 30
0.0
 10
89.13862816207956
 20
148.3118327245729
 30
0.0
 10
89.15940913165952
 20
148.3090770438228
 30
0.0
 10
89.33270862110643
 20
148.2874736688607
 30
0.0
 10
89.65466021035014
 20
148.2496087169189
 30
0.0
 10
90.17582604626948
 20
148.1892249502027
 30
0.0
 10
90.74138398610721
 20
148.1414318130533
 30
0.0
 10
91.02224740979524
 20
148.1176971199599
 30
0.0
  0
SPLINE
  5
F9
330
1F
100
AcDbEntity
  8
0
  6
HIDDEN
 62
     7
370
     0
100
AcDbSpline
210
0.0
220
0.0
230
1.0
 70
     8
 71
     3
 72
    33
 73
    29
 74
     0
 42
0.00000001
 43
0.00000001
 40
0.0
 40
0.0
 40
0.0
 40
0.0
 40
0.0315773698875104
 40
0.0633753287769057
 40
0.0958656851178231
 40
0.1285943208117605
 40
0.1601713694082662
 40
0.2244011681247345
 40
0.2571344568799636
 40
0.2885965627565487
 40
0.3526214070085076
 40
0.3852675959519929
 40
0.4162212184009612
 40
0.4791910353915302
 40
0.5112817741273479
 40
0.5421256322990662
 40
0.6048360558905652
 40
0.6367710793564881
 40
0.6680663384719832
 40
0.7316979547407203
 40
0.7641081282919966
 40
0.7957194290717577
 40
0.8275524266255816
 40
0.8600900250720824
 40
0.8928737620729298
 40
0.9241775068323748
 40
0.9878778414776339
 40
1.0
 40
1.0
 40
1.0
 40
1.0
 10
100.8621195275153
 20
80.01558460482173
 30
0.0
 10
100.77824838051
 20
80.02945834320344
 30
0.0
 10
100.6099201905661
 20
80.0573027372882
 30
0.0
 10
100.3105655942246
 20
80.1037353775186
 30
0.0
 10
99.97656612696578
 20
80.15234797953943
 30
0.0
 10
99.61079616507848
 20
80.20149591272667
 30
0.0
 10
99.08741625038961
 20
80.2655616983193
 30
0.0
 10
98.51098904179503
 20
80.32534321272443
 30
0.0
 10
97.89585189494349
 20
80.3753428201885
 30
0.0
 10
97.25953616886058
 20
80.4174828128719
 30
0.0
 10
96.59575563142187
 20
80.44611753760992
 30
0.0
 10
95.92368987983875
 20
80.45837698869353
 30
0.0
 10
95.25424129640702
 20
80.45970627980181
 30
0.0
 10
94.58905672929306
 20
80.44484575689235
 30
0.0
 10
93.94276549040256
 20
80.41498779250318
 30
0.0
 10
93.3135755395442
 20
80.37624456444189
 30
0.0
 10
92.71385984736493
 20
80.32566633068203
 30
0.0
 10
92.15556028124311
 20
80.2672663162155
 30
0.0
 10
91.62536541085555
 20
80.20494308484598
 30
0.0
 10
91.14619870854396
 20
80.13953451031041
 30
0.0
 10
90.7312807233491
 20
80.07674560670445
 30
0.0
 10
90.45400833942305
 20
80.03224100788306
 30
0.0
 10
90.21245305386188
 20
79.9915320584481
 30
0.0
 10
90.00696104951348
 20
79.95547492779862
 30
0.0
 10
89.84279662576922
 20
79.92571790284624
 30
0.0
 10
89.68336267920395
 20
79.89613258942184
 30
0.0
 10
89.60512445125534
 20
79.88118331041699
 30
0.0
 10
89.61284924160014
 20
79.8826557330182
 30
0.0
 10
89.6140842462696
 20
79.88289113730838
 30
0.0
  0
SPLINE
  5
FA
330
1F
100
AcDbEntity
  8
0
  6
HIDDEN
 62
     7
370
     0
100
AcDbSpline
210
0.0
220
0.0
230
1.0
 70
     8
 71
     3
 72
    32
 73
    28
 74
     0
 42
0.00000001
 43
0.00000001
 40
0.0
 40
0.0
 40
0.0
 40
0.0
 40
0.020356822172105
 40
0.0512207857583794
 40
0.1139954454389432
 40
0.1459779869097674
 40
0.1769364677636727
 40
0.2398766914470389
 40
0.2719275468465721
 40
0.3033698011481659
 40
0.3673099924152954
 40
0.3998847012176188
 40
0.4314690120325909
 40
0.4957360700021212
 40
0.5285028301030422
 40
0.5596434488300034
 40
0.6230067766607702
 40
0.6553079823205556
 40
0.6861132872619372
 40
0.748756262689177
 40
0.7806634244345373
 40
0.8117607067089887
 40
0.8749825776111492
 40
0.9071778073885584
 40
0.9301738434827028
 40
0.9765719131095674
 40
1.0
 40
1.0
 40
1.0
 40
1.0
 10
89.6140842462696
 20
142.8809225138292
 30
0.0
 10
89.61372719436335
 20
142.8809899927561
 30
0.0
 10
89.61282879877686
 20
142.8811597797507
 30
0.0
 10
89.67542254532948
 20
142.8692655385634
 30
0.0
 10
89.81723372679299
 20
142.8426186616438
 30
0.0
 10
90.04127831866852
 20
142.8022365902312
 30
0.0
 10
90.31582043450273
 20
142.7543673484807
 30
0.0
 10
90.66451172351029
 20
142.6968974632009
 30
0.0
 10
91.08078768588769
 20
142.6344029161464
 30
0.0
 10
91.54238173275047
 20
142.5698772345071
 30
0.0
 10
92.06591968184563
 20
142.5052968575239
 30
0.0
 10
92.63811715630038
 20
142.446541492639
 30
0.0
 10
93.24032352675235
 20
142.3931686362569
 30
0.0
 10
93.88155003353384
 20
142.3503060744246
 30
0.0
 10
94.54263535152998
 20
142.3222420284035
 30
0.0
 10
95.20934630597655
 20
142.3046533708639
 30
0.0
 10
95.88323552658348
 20
142.3032067226231
 30
0.0
 10
96.54758501053128
 20
142.3181322617609
 30
0.0
 10
97.19911928469091
 20
142.3431389869846
 30
0.0
 10
97.82977849734692
 20
142.3822430296665
 30
0.0
 10
98.4273174731694
 20
142.4323441874502
 30
0.0
 10
99.00131544112415
 20
142.4885153539333
 30
0.0
 10
99.53226515451743
 20
142.5514293826222
 30
0.0
 10
99.97564603578155
 20
142.6115328846757
 30
0.0
 10
100.3271666833552
 20
142.662422601661
 30
0.0
 10
100.616834193332
 20
142.7075450781989
 30
0.0
 10
100.8004969577297
 20
142.7380080900863
 30
0.0
 10
100.8621195275153
 20
142.7482290463159
 30
0.0
  0
SPLINE
  5
FB
330
1F
100
AcDbEntity
  8
0
  6
HIDDEN
 62
     7
370
     0
100
AcDbSpline
210
0.0
220
0.0
230
1.0
 70
     8
 71
     3
 72
    13
 73
     9
 74
     0
 42
0.00000001
 43
0.00000001
 40
0.0
 40
0.0
 40
0.0
 40
0.0
 40
0.1623836687590154
 40
0.3259036967521354
 40
0.4929930053128654
 40
0.6613109974968223
 40
0.8237250587268701
 40
1.0
 40
1.0
 40
1.0
 40
1.0
 10
100.8621195275153
 20
142.7482290463159
 30
0.0
 10
100.9377090380109
 20
142.7606048187727
 30
0.0
 10
101.0894170336147
 20
142.7854429692142
 30
0.0
 10
101.2723159100105
 20
142.812701314089
 30
0.0
 10
101.4213782507948
 20
142.833821173614
 30
0.0
 10
101.5253284500149
 20
142.8478075569826
 30
0.0
 10
101.6006582883216
 20
142.857600256575
 30
0.0
 10
101.5924296228356
 20
142.8565290669766
 30
0.0
 10
101.588146910629
 20
142.8559715529086
 30
0.0
  0
SPLINE
  5
FC
330
1F
100
AcDbEntity
  8
0
  6
HIDDEN
 62
     7
370
     0
100
AcDbSpline
210
0.0
220
0.0
230
1.0
 70
     8
 71
     3
 72
    13
 73
     9
 74
     0
 42
0.00000001
 43
0.00000001
 40
0.0
 40
0.0
 40
0.0
 40
0.0
 40
0.1539979175619511
 40
0.3222783140682305
 40
0.4885514651576366
 40
0.6560338488010076
 40
0.8273499398628251
 40
1.0
 40
1.0
 40
1.0
 40
1.0
 10
101.5881474409142
 20
79.90784202962998
 30
0.0
 10
101.593331746913
 20
79.90717037704745
 30
0.0
 10
101.6041811754207
 20
79.90576477971622
 30
0.0
 10
101.5348420093733
 20
79.9147513780778
 30
0.0
 10
101.4347250437683
 20
79.92816542959683
 30
0.0
 10
101.2881971412739
 20
79.94880599538975
 30
0.0
 10
101.1019832796887
 20
79.97637145159862
 30
0.0
 10
100.9422805645264
 20
80.00247980262316
 30
0.0
 10
100.8621195275153
 20
80.01558460482173
 30
0.0
  0
LINE
  5
FD
330
1F
100
AcDbEntity
  8
0
  6
HIDDEN
 62
     7
370
     0
100
AcDbLine
 10
80.6055381994
 20
84.8819068256
 30
0.0
 11
80.6055381994
 21
137.8819068256
 31
0.0
  0
LINE
  5
FE
330
1F
100
AcDbEntity
  8
0
  6
HIDDEN
 62
     7
370
     0
100
AcDbLine
 10
119.8929914907
 20
84.8819068256
 30
0.0
 11
119.8929914907
 21
137.8819068256
 31
0.0
  0
LINE
  5
FF
330
1F
100
AcDbEntity
  8
0
  6
HIDDEN
 62
     7
370
     0
100
AcDbLine
 10
123.0589138723
 20
86.5069068256
 30
0.0
 11
123.0589138723
 21
136.2569068077
 31
0.0
  0
SPLINE
  5
100
330
1F
100
AcDbEntity
  8
0
  6
HIDDEN
 62
     7
370
     0
100
AcDbSpline
210
0.0
220
0.0
230
1.0
 70
     8
 71
     3
 72
    20
 73
    16
 74
     0
 42
0.00000001
 43
0.00000001
 40
0.0
 40
0.0
 40
0.0
 40
0.0
 40
0.2499999999999978
 40
0.2499999999999978
 40
0.3749999999999982
 40
0.3749999999999982
 40
0.4999999999999986
 40
0.4999999999999986
 40
0.6249999999999989
 40
0.6249999999999989
 40
0.7499999999999992
 40
0.7499999999999992
 40
0.8749999999999997
 40
0.8749999999999997
 40
1.0
 40
1.0
 40
1.0
 40
1.0
 10
70.80891387232427
 20
136.6104204559831
 30
0.0
 10
70.80891387232427
 20
136.5312174694508
 30
0.0
 10
70.76193137711154
 20
136.4501212510479
 30
0.0
 10
70.62410978633396
 20
136.329924559297
 30
0.0
 10
70.56782750242398
 20
136.2909978552948
 30
0.0
 10
70.43474265095675
 20
136.2158091228705
 30
0.0
 10
70.3569027087237
 20
136.1791669175285
 30
0.0
 10
70.18427035260935
 20
136.1115763846967
 30
0.0
 10
70.08987735551828
 20
136.080618202921
 30
0.0
 10
69.88444004920314
 20
136.0250937815514
 30
0.0
 10
69.77209380921595
 20
136.0003852677181
 30
0.0
 10
69.53985294531631
 20
135.9605890406099
 30
0.0
 10
69.41914230289359
 20
135.9451692032129
 30
0.0
 10
69.16807144362457
 20
135.9240892283733
 30
0.0
 10
69.03854944720878
 20
135.9186119833523
 30
0.0
 10
68.90891387232429
 20
135.9186119833523
 30
0.0
  0
LINE
  5
101
330
1F
100
AcDbEntity
  8
0
  6
HIDDEN
 62
     7
370
     0
100
AcDbLine
 10
68.9089138723
 20
135.9186119834
 30
0.0
 11
62.3589138723
 21
135.9186119834
 31
0.0
  0
LINE
  5
102
330
1F
100
AcDbEntity
  8
0
  6
HIDDEN
 62
     7
370
     0
100
AcDbLine
 10
62.3589138723
 20
86.8452016678
 30
0.0
 11
73.9089138723
 21
86.8452016678
 31
0.0
  0
SPLINE
  5
103
330
1F
100
AcDbEntity
  8
0
  6
HIDDEN
 62
     7
370
     0
100
AcDbSpline
210
0.0
220
0.0
230
1.0
 70
     8
 71
     3
 72
    18
 73
    14
 74
     0
 42
0.00000001
 43
0.00000001
 40
0.0
 40
0.0
 40
0.0
 40
0.0
 40
0.1249999999999982
 40
0.1249999999999982
 40
0.2499999999999964
 40
0.2499999999999964
 40
0.4999999999999988
 40
0.4999999999999988
 40
0.7500000000000011
 40
0.7500000000000011
 40
0.8750000000000006
 40
0.8750000000000006
 40
1.0
 40
1.0
 40
1.0
 40
1.0
 10
73.90891387232426
 20
86.84520166778528
 30
0.0
 10
74.0383811852815
 20
86.84520166778528
 30
0.0
 10
74.16539193417812
 20
86.83984866919263
 30
0.0
 10
74.41475525537537
 20
86.81911069650384
 30
0.0
 10
74.53837891000381
 20
86.80343879224955
 30
0.0
 10
74.88741124693784
 20
86.74374406384747
 30
0.0
 10
75.09792301174464
 20
86.68597888416649
 30
0.0
 10
75.44183968944415
 20
86.55145704288898
 30
0.0
 10
75.57819009096198
 20
86.47378792938358
 30
0.0
 10
75.7152281475245
 20
86.35449679529624
 30
0.0
 10
75.75044716623741
 20
86.31357778616119
 30
0.0
 10
75.79707074317596
 20
86.23292179287117
 30
0.0
 10
75.80891387232428
 20
86.19295327267831
 30
0.0
 10
75.80891387232427
 20
86.15339319515448
 30
0.0
  0
LINE
  5
104
330
1F
100
AcDbEntity
  8
0
  6
HIDDEN
 62
     7
370
     0
100
AcDbLine
 10
62.3589138723
 20
86.8452016678
 30
0.0
 11
62.3589138723
 21
135.9186119834
 31
0.0
  0
LWPOLYLINE
  5
105
330
1F
100
AcDbEntity
  8
0
  6
HIDDEN
 62
     7
370
     0
100
AcDbPolyline
 90
       14
 70
   128
 43
0.0
 10
119.6089138723
 20
151.3256373889
 10
120.6837660734
 20
151.3731837723
 10
121.7083593801
 20
151.5135997066
 10
122.6347849483
 20
151.7403194986
 10
123.419724148
 20
152.042741983
 10
124.0264740946
 20
152.4067262205
 10
124.4266638349
 20
152.8152527125
 10
124.6015809416
 20
153.2492192146
 10
124.543046485
 20
153.6883339352
 10
124.2537974714
 20
154.1120643581
 10
123.7473588631
 20
154.5005973198
 10
123.0474111666
 20
154.8357654506
 10
122.1866831582
 20
155.1018966614
 10
122.0549323407
 20
155.1330372049
  0
LWPOLYLINE
  5
106
330
1F
100
AcDbEntity
  8
0
  6
HIDDEN
 62
     7
370
     0
100
AcDbPolyline
 90
       14
 70
   128
 43
0.0
 10
117.150402366
 20
155.1301774549
 10
117.0311445864
 20
155.1018966614
 10
116.1704165781
 20
154.8357654506
 10
115.4704688815
 20
154.5005973198
 10
114.9640302732
 20
154.1120643581
 10
114.6747812596
 20
153.6883339352
 10
114.6162468031
 20
153.2492192146
 10
114.7911639097
 20
152.8152527125
 10
115.1913536501
 20
152.4067262205
 10
115.7981035967
 20
152.042741983
 10
116.5830427964
 20
151.7403194986
 10
117.5094683645
 20
151.5135997066
 10
118.5340616713
 20
151.3731837723
 10
119.6089138723
 20
151.3256373889
  0
LINE
  5
107
330
1F
100
AcDbEntity
  8
0
  6
HIDDEN
 62
     7
370
     0
100
AcDbLine
 10
62.3589138723
 20
84.0119068256
 30
0.0
 11
62.3589138723
 21
79.1336216237
 31
0.0
  0
LINE
  5
108
330
1F
100
AcDbEntity
  8
0
  6
HIDDEN
 62
     7
370
     0
100
AcDbLine
 10
75.8089138723
 20
84.0119068256
 30
0.0
 11
75.8089138723
 21
77.5125735602
 31
0.0
  0
LINE
  5
109
330
1F
100
AcDbEntity
  8
0
  6
HIDDEN
 62
     7
370
     0
100
AcDbLine
 10
70.8089138723
 20
138.7519068256
 30
0.0
 11
70.8089138723
 21
145.1265155626
 31
0.0
  0
LINE
  5
10A
330
1F
100
AcDbEntity
  8
0
  6
HIDDEN
 62
     7
370
     0
100
AcDbLine
 10
62.3589138723
 20
138.7519068256
 30
0.0
 11
62.3589138723
 21
143.6301920274
 31
0.0
  0
LINE
  5
10B
330
1F
100
AcDbEntity
  8
0
  6
HIDDEN
 62
     7
370
     0
100
AcDbLine
 10
134.9089138723
 20
98.3819068256
 30
0.0
 11
134.9089138723
 21
124.3819068256
 31
0.0
  0
LINE
  5
10C
330
1F
100
AcDbEntity
  8
0
  6
HIDDEN
 62
     7
370
     0
100
AcDbLine
 10
138.9089138723
 20
98.3819068256
 30
0.0
 11
138.9089138723
 21
124.3819068256
 31
0.0
  0
LINE
  5
10D
330
1F
100
AcDbEntity
  8
0
  6
HIDDEN
 62
     7
370
     0
100
AcDbLine
 10
123.8089138723
 20
100.1319068256
 30
0.0
 11
123.8089138723
 21
122.6319068256
 31
0.0
  0
ELLIPSE
  5
10E
330
1F
100
AcDbEntity
  8
0
  6
HIDDEN
 62
     7
370
     0
100
AcDbEllipse
 10
54.424240672
 20
111.3819068256
 30
0.0
 11
31.08108570811661
 21
1.421085471520200E-14
 31
0.0
210
0.0
220
0.0
230
1.0
 40
0.8164965809
 41
1.312649268214811
 42
1.367189972061496
  0
ELLIPSE
  5
10F
330
1F
100
AcDbEntity
  8
0
  6
HIDDEN
 62
     7
370
     0
100
AcDbEllipse
 10
54.424240672
 20
111.3819068256
 30
0.0
 11
31.08108570811661
 21
-1.421085471520200E-14
 31
0.0
210
0.0
220
0.0
230
1.0
 40
0.8164965809
 41
4.915995335118103
 42
4.970536038964788
  0
LINE
  5
110
330
1F
100
AcDbEntity
  8
0
  6
HIDDEN
 62
     7
370
     0
100
AcDbLine
 10
139.5589138723
 20
67.4819068256
 30
0.0
 11
125.5589138723
 21
67.4819068256
 31
0.0
  0
LINE
  5
111
330
1F
100
AcDbEntity
  8
0
  6
HIDDEN
 62
     7
370
     0
100
AcDbLine
 10
115.5589138723
 20
61.3919078258
 30
0.0
 11
115.5589138723
 21
67.4819068256
 31
0.0
  0
LINE
  5
112
330
1F
100
AcDbEntity
  8
0
  6
HIDDEN
 62
     7
370
     0
100
AcDbLine
 10
125.5589138723
 20
67.4819068256
 30
0.0
 11
115.5589138723
 21
67.4819068256
 31
0.0
  0
LINE
  5
113
330
1F
100
AcDbEntity
  8
0
  6
HIDDEN
 62
     7
370
     0
100
AcDbLine
 10
75.8089138723
 20
84.0119068256
 30
0.0
 11
75.8089138723
 21
86.1533931952
 31
0.0
  0
LINE
  5
114
330
1F
100
AcDbEntity
  8
0
  6
HIDDEN
 62
     7
370
     0
100
AcDbLine
 10
62.3589138723
 20
84.0119068256
 30
0.0
 11
62.3589138723
 21
86.8452016678
 31
0.0
  0
LINE
  5
115
330
1F
100
AcDbEntity
  8
0
  6
HIDDEN
 62
     7
370
     0
100
AcDbLine
 10
70.8089138723
 20
138.7519068256
 30
0.0
 11
70.8089138723
 21
136.610420456
 31
0.0
  0
LINE
  5
116
330
1F
100
AcDbEntity
  8
0
  6
HIDDEN
 62
     7
370
     0
100
AcDbLine
 10
62.3589138723
 20
138.7519068256
 30
0.0
 11
62.3589138723
 21
135.9186119834
 31
0.0
  0
LINE
  5
117
330
1F
100
AcDbEntity
  8
0
  6
HIDDEN
 62
     7
370
     0
100
AcDbLine
 10
125.5589138723
 20
155.2819068256
 30
0.0
 11
115.5589138723
 21
155.2819068256
 31
0.0
  0
LINE
  5
118
330
1F
100
AcDbEntity
  8
0
  6
HIDDEN
 62
     7
370
     0
100
AcDbLine
 10
139.5589138723
 20
155.2819068256
 30
0.0
 11
125.5589138723
 21
155.2819068256
 31
0.0
  0
SPLINE
  5
119
330
1F
100
AcDbEntity
  8
0
  6
HIDDEN
 62
     7
370
     0
100
AcDbSpline
210
0.0
220
0.0
230
1.0
 70
     8
 71
     3
 72
    30
 73
    26
 74
     0
 42
0.00000001
 43
0.00000001
 40
0.0
 40
0.0
 40
0.0
 40
0.0
 40
0.0531447579710286
 40
0.1125253797131272
 40
0.1779224397116067
 40
0.2129463966942924
 40
0.2494993914504459
 40
0.291265086659374
 40
0.3261073096855474
 40
0.3540223481619386
 40
0.3750075548588426
 40
0.4414649788272059
 40
0.5001823658063147
 40
0.5546968713669163
 40
0.6144408573423134
 40
0.6794659595165392
 40
0.71402283460044
 40
0.7499196792688061
 40
0.7913840357566979
 40
0.826050848459345
 40
0.8539163335767396
 40
0.8749776390184348
 40
0.9411638663008652
 40
0.9999141571670602
 40
1.0
 40
1.0
 40
1.0
 40
1.0
 10
101.6084541617053
 20
74.2819799401369
 30
0.0
 10
101.5922572178359
 20
74.28688054710386
 30
0.0
 10
101.5579628240201
 20
74.2972567851532
 30
0.0
 10
101.2566434612761
 20
74.37291107277247
 30
0.0
 10
100.8144745407816
 20
74.46919740325099
 30
0.0
 10
100.3196418767018
 20
74.56886223118327
 30
0.0
 10
99.8491661870943
 20
74.66114037751007
 30
0.0
 10
99.3182447685129
 20
74.75677241026126
 30
0.0
 10
98.78009426495929
 20
74.84242265334571
 30
0.0
 10
98.32204693096988
 20
74.90971444635353
 30
0.0
 10
97.6664826097465
 20
74.9980626153352
 30
0.0
 10
96.78317617182239
 20
75.0947206995757
 30
0.0
 10
95.6545144390847
 20
75.18149587634181
 30
0.0
 10
94.56475268934517
 20
75.21957457405398
 30
0.0
 10
93.46872441091291
 20
75.22142500881772
 30
0.0
 10
92.56333316396962
 20
75.19526355323255
 30
0.0
 10
91.86703045355449
 20
75.15865632810366
 30
0.0
 10
91.34035072527945
 20
75.11963945262659
 30
0.0
 10
90.8737046102468
 20
75.07743032515468
 30
0.0
 10
90.50248933452299
 20
75.04042623558527
 30
0.0
 10
90.24844285728095
 20
75.01172547514095
 30
0.0
 10
89.94738770457148
 20
74.97534552455109
 30
0.0
 10
89.6919039097685
 20
74.94256535756432
 30
0.0
 10
89.59268318482069
 20
74.92622747285627
 30
0.0
 10
89.60896374210488
 20
74.92882105902893
 30
0.0
 10
89.60898749569084
 20
74.92882484311144
 30
0.0
  0
SPLINE
  5
11A
330
1F
100
AcDbEntity
  8
0
  6
HIDDEN
 62
     7
370
     0
100
AcDbSpline
210
0.0
220
0.0
230
1.0
 70
     8
 71
     3
 72
    30
 73
    26
 74
     0
 42
0.00000001
 43
0.00000001
 40
0.0
 40
0.0
 40
0.0
 40
0.0
 40
0.0001123288057695
 40
0.0285431152663135
 40
0.0588466796063202
 40
0.091027196450477
 40
0.1250880910051604
 40
0.1546766141497773
 40
0.1963554560485685
 40
0.2501101496291966
 40
0.320525387238388
 40
0.3856104300246703
 40
0.445403860889207
 40
0.4999571692316274
 40
0.5283494388508946
 40
0.558634027028705
 40
0.5908185964995195
 40
0.6249094714581434
 40
0.6541844575853767
 40
0.6958630078636641
 40
0.7499307292180327
 40
0.8215905285694356
 40
0.8871422909715975
 40
0.9466378748868088
 40
1.0
 40
1.0
 40
1.0
 40
1.0
 10
89.60900920442415
 20
147.8349185345971
 30
0.0
 10
89.60897734466602
 20
147.8349254817234
 30
0.0
 10
89.60088167639515
 20
147.8366907691155
 30
0.0
 10
89.62954315406455
 20
147.8312358503906
 30
0.0
 10
89.70293000021877
 20
147.8206930030444
 30
0.0
 10
89.8465865437695
 20
147.801007795391
 30
0.0
 10
90.047622243727
 20
147.7761685315357
 30
0.0
 10
90.33025279299605
 20
147.741960066397
 30
0.0
 10
90.7436619185707
 20
147.6982801696369
 30
0.0
 10
91.41994941975292
 20
147.6352371021037
 30
0.0
 10
92.35838032066887
 20
147.573939931671
 30
0.0
 10
93.46787353416478
 20
147.5426514881705
 30
0.0
 10
94.56535426485351
 20
147.5443066557671
 30
0.0
 10
95.46538550331081
 20
147.5756128578644
 30
0.0
 10
96.17672642916173
 20
147.6224460066669
 30
0.0
 10
96.74214333015252
 20
147.6696128685628
 30
0.0
 10
97.33106675298083
 20
147.7290518751128
 30
0.0
 10
97.89547640545834
 20
147.7954090817208
 30
0.0
 10
98.48967259939451
 20
147.8773284881524
 30
0.0
 10
99.15628076036501
 20
147.9789764709028
 30
0.0
 10
99.95761350606524
 20
148.1211153815031
 30
0.0
 10
100.7101234905732
 20
148.2723599522695
 30
0.0
 10
101.2554099855393
 20
148.3902108255288
 30
0.0
 10
101.5581315170382
 20
148.4664400572781
 30
0.0
 10
101.5924219676512
 20
148.4768923667726
 30
0.0
 10
101.6086354043012
 20
148.4818344965728
 30
0.0
  0
LINE
  5
11B
330
1F
100
AcDbEntity
  8
0
  6
HIDDEN
 62
     7
370
     0
100
AcDbLine
 10
237.1089138723
 20
107.3819068256
 30
0.0
 11
237.1089138723
 21
115.3819068256
 31
0.0
  0
SPLINE
  5
11C
330
1F
100
AcDbEntity
  8
0
  6
HIDDEN
 62
     7
370
     0
100
AcDbSpline
210
0.0
220
0.0
230
1.0
 70
     8
 71
     3
 72
    22
 73
    18
 74
     0
 42
0.00000001
 43
0.00000001
 40
0.0
 40
0.0
 40
0.0
 40
0.0
 40
0.0505062323214758
 40
0.1533178645990338
 40
0.2057385496080986
 40
0.2562410477514878
 40
0.3588605346652425
 40
0.4110693372550063
 40
0.4635437978253525
 40
0.5701739320268535
 40
0.6244506830213229
 40
0.6783211864617956
 40
0.7325832186661315
 40
0.7881146978497682
 40
0.844101398319759
 40
0.8959032115444813
 40
0.9999999999999999
 40
0.9999999999999999
 40
0.9999999999999999
 40
0.9999999999999999
 10
206.1089138723243
 20
115.4117951614908
 30
0.0
 10
206.1488775337839
 20
115.4121539365179
 30
0.0
 10
206.2701921311104
 20
115.4132430421295
 30
0.0
 10
206.4315070145314
 20
115.4233992457126
 30
0.0
 10
206.5871420278716
 20
115.4395263418281
 30
0.0
 10
206.7380628998925
 20
115.4594580369066
 30
0.0
 10
206.8808588277299
 20
115.4841257095642
 30
0.0
 10
207.0138540412698
 20
115.5117849190398
 30
0.0
 10
207.1411749689553
 20
115.5411288880374
 30
0.0
 10
207.2561446806854
 20
115.5714004818696
 30
0.0
 10
207.3554295800527
 20
115.5999971704209
 30
0.0
 10
207.4217891304253
 20
115.6201255705962
 30
0.0
 10
207.4793053864619
 20
115.6383294835214
 30
0.0
 10
207.5275635010038
 20
115.6541457137136
 30
0.0
 10
207.5642720890908
 20
115.666503332144
 30
0.0
 10
207.5995467908862
 20
115.6786173812984
 30
0.0
 10
207.6049973281807
 20
115.6805321789147
 30
0.0
 10
207.6086367670313
 20
115.6818107297179
 30
0.0
  0
LINE
  5
11D
330
1F
100
AcDbEntity
  8
0
  6
HIDDEN
 62
     7
370
     0
100
AcDbLine
 10
206.2306100107
 20
115.4136889903
 30
0.0
 11
205.9922805469
 21
115.4136867896
 31
0.0
  0
SPLINE
  5
11E
330
1F
100
AcDbEntity
  8
0
  6
HIDDEN
 62
     7
370
     0
100
AcDbSpline
210
0.0
220
0.0
230
1.0
 70
     8
 71
     3
 72
    24
 73
    20
 74
     0
 42
0.00000001
 43
0.00000001
 40
0.0
 40
0.0
 40
0.0
 40
0.0
 40
0.0278664948483521
 40
0.0745123240789309
 40
0.1694560654689825
 40
0.2178686538723673
 40
0.2637245790889884
 40
0.3569001571388137
 40
0.404304460631897
 40
0.4519730588879468
 40
0.5488049110533126
 40
0.5980652521401394
 40
0.647744512567047
 40
0.6977719603247757
 40
0.7489216020009568
 40
0.8004727937078306
 40
0.849382960224268
 40
0.9490670052352572
 40
1.0
 40
1.0
 40
1.0
 40
1.0
 10
204.6231555313326
 20
115.6769665525954
 30
0.0
 10
204.619817118208
 20
115.6781211663883
 30
0.0
 10
204.6108905229544
 20
115.6812084924975
 30
0.0
 10
204.6061779411143
 20
115.6828707146614
 30
0.0
 10
204.6182117312488
 20
115.6786404896668
 30
0.0
 10
204.6506738849239
 20
115.6674886966064
 30
0.0
 10
204.6950882057846
 20
115.65250667982
 30
0.0
 10
204.7571502443143
 20
115.632209232001
 30
0.0
 10
204.8363464144187
 20
115.6078014113882
 30
0.0
 10
204.9279585407388
 20
115.5808328340292
 30
0.0
 10
205.0364791719011
 20
115.5513493424145
 30
0.0
 10
205.1600572057306
 20
115.5216355407924
 30
0.0
 10
205.2608377987278
 20
115.4996441495064
 30
0.0
 10
205.3691362975457
 20
115.4786411977838
 30
0.0
 10
205.4845095715515
 20
115.459319278415
 30
0.0
 10
205.604055500934
 20
115.4426932700158
 30
0.0
 10
205.7671162845721
 20
115.4248928361776
 30
0.0
 10
205.9362364817283
 20
115.4134836038297
 30
0.0
 10
206.0652771810616
 20
115.412221841769
 30
0.0
 10
206.1089138723243
 20
115.4117951614908
 30
0.0
  0
SPLINE
  5
11F
330
1F
100
AcDbEntity
  8
0
  6
HIDDEN
 62
     7
370
     0
100
AcDbSpline
210
0.0
220
0.0
230
1.0
 70
     8
 71
     3
 72
    27
 73
    23
 74
     0
 42
0.00000001
 43
0.00000001
 40
0.0
 40
0.0
 40
0.0
 40
0.0
 40
0.0507816103274929
 40
0.1030881979290498
 40
0.1538561257728962
 40
0.2060070907766569
 40
0.258505042328121
 40
0.3124305571578461
 40
0.3665037503210689
 40
0.4222571586564679
 40
0.4743148081469568
 40
0.5280476338066701
 40
0.5775602478487418
 40
0.6284669923466477
 40
0.6788956278408012
 40
0.7306348167685542
 40
0.7839167771556473
 40
0.838703222173709
 40
0.8925100780107033
 40
0.9480286554418246
 40
0.9993150357584295
 40
1.0
 40
1.0
 40
1.0
 40
1.0
 10
207.6089138723243
 20
107.0819068255688
 30
0.0
 10
207.6051619426495
 20
107.08322295982
 30
0.0
 10
207.5975454124442
 20
107.085894751977
 30
0.0
 10
207.5364790088254
 20
107.1068488478589
 30
0.0
 10
207.4404996748972
 20
107.1381614736395
 30
0.0
 10
207.3094074181519
 20
107.1778042527844
 30
0.0
 10
207.1440825450353
 20
107.2224136145075
 30
0.0
 10
206.9480660401956
 20
107.2672975904363
 30
0.0
 10
206.7232687085891
 20
107.3076977714636
 30
0.0
 10
206.4816587357801
 20
107.3373468355879
 30
0.0
 10
206.2287998932605
 20
107.352854311016
 30
0.0
 10
205.9817876153854
 20
107.3525026186431
 30
0.0
 10
205.7407718130103
 20
107.3374275040694
 30
0.0
 10
205.5151441349632
 20
107.3104480275715
 30
0.0
 10
205.3025157591415
 20
107.2737346264795
 30
0.0
 10
205.1081349519996
 20
107.2308961152751
 30
0.0
 10
204.9354285425131
 20
107.1855602672251
 30
0.0
 10
204.7935797383356
 20
107.1433432351764
 30
0.0
 10
204.6859322188066
 20
107.1084018144987
 30
0.0
 10
204.6265718715274
 20
107.088086325363
 30
0.0
 10
204.6023198882696
 20
107.0796202652197
 30
0.0
 10
204.6090926855539
 20
107.08196883426
 30
0.0
 10
204.609181948666
 20
107.0819997875829
 30
0.0
  0
LINE
  5
120
330
1F
100
AcDbEntity
  8
0
  6
HIDDEN
 62
     7
370
     0
100
AcDbLine
 10
204.1089138723
 20
107.4819068256
 30
0.0
 11
204.1089138723
 21
115.2819063558
 31
0.0
  0
LINE
  5
121
330
1F
100
AcDbEntity
  8
0
  6
HIDDEN
 62
     7
370
     0
100
AcDbLine
 10
214.6089138723
 20
107.3819068256
 30
0.0
 11
214.6089138723
 21
115.3819068256
 31
0.0
  0
LINE
  5
122
330
1F
100
AcDbEntity
  8
0
  6
HIDDEN
 62
     7
370
     0
100
AcDbLine
 10
186.707407789
 20
107.1319068256
 30
0.0
 11
186.707407789
 21
115.6319068256
 31
0.0
  0
LINE
  5
123
330
1F
100
AcDbEntity
  8
0
  6
HIDDEN
 62
     7
370
     0
100
AcDbLine
 10
187.7589138723
 20
108.8819068256
 30
0.0
 11
187.7589138723
 21
113.8819068256
 31
0.0
  0
LINE
  5
124
330
1F
100
AcDbEntity
  8
0
  6
HIDDEN
 62
     7
370
     0
100
AcDbLine
 10
155.0589138723
 20
96.9592570948
 30
0.0
 11
150.0589138723
 21
96.9592570948
 31
0.0
  0
LINE
  5
125
330
1F
100
AcDbEntity
  8
0
  6
HIDDEN
 62
     7
370
     0
100
AcDbLine
 10
152.5589138723
 20
125.8045565564
 30
0.0
 11
155.0589138723
 21
125.8045565564
 31
0.0
  0
LINE
  5
126
330
1F
100
AcDbEntity
  8
0
  6
HIDDEN
 62
     7
370
     0
100
AcDbLine
 10
150.0589138723
 20
125.8045565564
 30
0.0
 11
152.5589138723
 21
125.8045565564
 31
0.0
  0
LINE
  5
127
330
1F
100
AcDbEntity
  8
0
  6
HIDDEN
 62
     7
370
     0
100
AcDbLine
 10
152.5589138723
 20
118.3819068256
 30
0.0
 11
155.0589138723
 21
118.3819068256
 31
0.0
  0
LINE
  5
128
330
1F
100
AcDbEntity
  8
0
  6
HIDDEN
 62
     7
370
     0
100
AcDbLine
 10
150.0589138723
 20
118.3819068256
 30
0.0
 11
152.5589138723
 21
118.3819068256
 31
0.0
  0
LINE
  5
129
330
1F
100
AcDbEntity
  8
0
  6
HIDDEN
 62
     7
370
     0
100
AcDbLine
 10
155.0589138723
 20
104.3819068256
 30
0.0
 11
150.0589138723
 21
104.3819068256
 31
0.0
  0
SPLINE
  5
12A
330
1F
100
AcDbEntity
  8
0
  6
HIDDEN
 62
     7
370
     0
100
AcDbSpline
210
0.0
220
0.0
230
1.0
 70
     8
 71
     3
 72
    44
 73
    40
 74
     0
 42
0.00000001
 43
0.00000001
 40
0.0
 40
0.0
 40
0.0
 40
0.0
 40
0.0205357488746166
 40
0.0412439942479035
 40
0.062482423175356
 40
0.0838950308835925
 40
0.1250576179278663
 40
0.1672263197395497
 40
0.1957437391615856
 40
0.2244807603093996
 40
0.2538309647378759
 40
0.2833643508373169
 40
0.3125605298181985
 40
0.3419196624656993
 40
0.3718258480711839
 40
0.4019606175250476
 40
0.4346521362133515
 40
0.4679885701179571
 40
0.5007609054381266
 40
0.534843959174814
 40
0.563042108511914
 40
0.5918412137099633
 40
0.6165182204748296
 40
0.6413908936333546
 40
0.6667534360916558
 40
0.692249947680332
 40
0.7185324520351346
 40
0.744946404428516
 40
0.7717835263566452
 40
0.7987778077244996
 40
0.8225160866985812
 40
0.8463894309196901
 40
0.8707306753071128
 40
0.8952558211469996
 40
0.9190030610988106
 40
0.9429607340775922
 40
0.9676384428876857
 40
0.9925876305392081
 40
1.0
 40
1.0
 40
1.0
 40
1.0
 10
207.6089138723243
 20
118.4275159085681
 30
0.0
 10
207.6084360102566
 20
118.4281083503101
 30
0.0
 10
207.6074762721679
 20
118.4292982101952
 30
0.0
 10
207.5996811000658
 20
118.4389757136952
 30
0.0
 10
207.5871708573624
 20
118.4545529540001
 30
0.0
 10
207.5642045177386
 20
118.4832800462242
 30
0.0
 10
207.5248517576952
 20
118.5329100673344
 30
0.0
 10
207.4706024850614
 20
118.6026470444673
 30
0.0
 10
207.4155789200009
 20
118.6751387252639
 30
0.0
 10
207.3638886163071
 20
118.7449404097383
 30
0.0
 10
207.3088162344028
 20
118.8217142337519
 30
0.0
 10
207.2517330415362
 20
118.9046651550751
 30
0.0
 10
207.194089110953
 20
118.9930831554446
 30
0.0
 10
207.1369306717672
 20
119.0872436719247
 30
0.0
 10
207.0815004413362
 20
119.187991607811
 30
0.0
 10
207.0286557233505
 20
119.2986361101456
 30
0.0
 10
206.9821077659978
 20
119.4203937618199
 30
0.0
 10
206.9482525796003
 20
119.5529649118041
 30
0.0
 10
206.9341190800376
 20
119.6929372301783
 30
0.0
 10
206.9436543224577
 20
119.8263837880794
 30
0.0
 10
206.9714782401488
 20
119.9497179431827
 30
0.0
 10
207.0082932888423
 20
120.0548882636033
 30
0.0
 10
207.0510224367295
 20
120.1503474218176
 30
0.0
 10
207.0963860992297
 20
120.2369510157144
 30
0.0
 10
207.1451690590816
 20
120.3199126112516
 30
0.0
 10
207.1964779451799
 20
120.3998837561342
 30
0.0
 10
207.2489921716915
 20
120.4763721503392
 30
0.0
 10
207.3018852300256
 20
120.5494208095399
 30
0.0
 10
207.3537722668901
 20
120.6181250248116
 30
0.0
 10
207.4016038480635
 20
120.6793692335135
 30
0.0
 10
207.4447078797969
 20
120.7332008085126
 30
0.0
 10
207.4830339936471
 20
120.7801553721943
 30
0.0
 10
207.5177978950346
 20
120.8220803636015
 30
0.0
 10
207.5478247042364
 20
120.857834654953
 30
0.0
 10
207.5723696776937
 20
120.8867805064614
 30
0.0
 10
207.591440928636
 20
120.9091073272474
 30
0.0
 10
207.6034070374848
 20
120.9230477671146
 30
0.0
 10
207.6100212428494
 20
120.9307324904105
 30
0.0
 10
207.6079467544994
 20
120.9283205033212
 30
0.0
 10
207.6074715958401
 20
120.9277680410469
 30
0.0
  0
SPLINE
  5
12B
330
1F
100
AcDbEntity
  8
0
  6
HIDDEN
 62
     7
370
     0
100
AcDbSpline
210
0.0
220
0.0
230
1.0
 70
     8
 71
     3
 72
    10
 73
     6
 74
     0
 42
0.00000001
 43
0.00000001
 40
0.0
 40
0.0
 40
0.0
 40
0.0
 40
0.3845743046454907
 40
0.8689635483474026
 40
1.0
 40
1.0
 40
1.0
 40
1.0
 10
204.6114121689657
 20
120.9278408413284
 30
0.0
 10
204.6125453932141
 20
120.9281329528515
 30
0.0
 10
204.6151059661699
 20
120.9287929924397
 30
0.0
 10
204.6478776285915
 20
120.939116476489
 30
0.0
 10
204.6762148602308
 20
120.9524961973091
 30
0.0
 10
204.6822484241715
 20
120.95534500774
 30
0.0
  0
SPLINE
  5
12C
330
1F
100
AcDbEntity
  8
0
  6
HIDDEN
 62
     7
370
     0
100
AcDbSpline
210
0.0
220
0.0
230
1.0
 70
     8
 71
     3
 72
    27
 73
    23
 74
     0
 42
0.00000001
 43
0.00000001
 40
0.0
 40
0.0
 40
0.0
 40
0.0
 40
0.0436974915428055
 40
0.0878335253671121
 40
0.1331056124352906
 40
0.1803435214697333
 40
0.2285619252985945
 40
0.284836116662703
 40
0.3422362494845326
 40
0.4099429175776113
 40
0.4800763979315517
 40
0.5134973703868317
 40
0.5477807228015682
 40
0.5812484962832146
 40
0.6157765870447993
 40
0.6611901320798164
 40
0.7078347370113907
 40
0.7790431163817708
 40
0.8522596840366288
 40
0.9116646089722095
 40
0.9725942847190284
 40
0.9999999999999999
 40
0.9999999999999999
 40
0.9999999999999999
 40
0.9999999999999999
 10
204.609978615732
 20
118.5466245489606
 30
0.0
 10
204.6112345729069
 20
118.54808027633
 30
0.0
 10
204.6137590918777
 20
118.5510063405574
 30
0.0
 10
204.6414967344251
 20
118.5833509876882
 30
0.0
 10
204.6843915099371
 20
118.6339608989462
 30
0.0
 10
204.7434724868422
 20
118.704975979873
 30
0.0
 10
204.8193357765327
 20
118.7988509569533
 30
0.0
 10
204.910372074081
 20
118.9166934308128
 30
0.0
 10
205.018339471308
 20
119.0675910539251
 30
0.0
 10
205.1333756162316
 20
119.2513208646602
 30
0.0
 10
205.2198282956683
 20
119.435631315317
 30
0.0
 10
205.264838988599
 20
119.5977178892905
 30
0.0
 10
205.2815890022093
 20
119.7219281868312
 30
0.0
 10
205.279146144009
 20
119.8491024570512
 30
0.0
 10
205.2558038788353
 20
119.9872123839228
 30
0.0
 10
205.2083496234621
 20
120.1335155750629
 30
0.0
 10
205.1278695125115
 20
120.3081715533409
 30
0.0
 10
205.0188320780921
 20
120.4933119918027
 30
0.0
 10
204.9000345097017
 20
120.6672713050308
 30
0.0
 10
204.7954949859208
 20
120.8093139358062
 30
0.0
 10
204.7255183642369
 20
120.9002697431314
 30
0.0
 10
204.6924940810127
 20
120.9423040314696
 30
0.0
 10
204.6822484241715
 20
120.95534500774
 30
0.0
  0
LINE
  5
12D
330
1F
100
AcDbEntity
  8
0
  6
HIDDEN
 62
     7
370
     0
100
AcDbLine
 10
207.6089138723
 20
121.3819068256
 30
0.0
 11
204.6089138723
 21
121.3819068256
 31
0.0
  0
LWPOLYLINE
  5
12E
330
1F
100
AcDbEntity
  8
0
  6
HIDDEN
 62
     7
370
     0
100
AcDbPolyline
 90
       14
 70
   128
 43
0.0
 10
207.6056946898
 20
101.8381256239
 10
207.5764968078
 20
101.872216723
 10
207.4797923476
 20
101.9877182876
 10
207.2793548888
 20
102.2456529759
 10
207.0596017613
 20
102.598303259
 10
206.9625784037
 20
102.8566979616
 10
206.9388765205
 20
103.095614324
 10
206.9808494846
 20
103.3306270395
 10
207.1315639545
 20
103.6656326893
 10
207.3826959919
 20
104.0441560209
 10
207.5343136435
 20
104.2427210209
 10
207.6018242007
 20
104.3274961047
 10
207.6089138723
 20
104.3362977426
 10
207.6089138723
 20
104.3362977426
  0
LINE
  5
12F
330
1F
100
AcDbEntity
  8
0
  6
HIDDEN
 62
     7
370
     0
100
AcDbLine
 10
206.1089138723
 20
101.3819068256
 30
0.0
 11
207.6089138723
 21
101.3819068256
 31
0.0
  0
LINE
  5
130
330
1F
100
AcDbEntity
  8
0
  6
HIDDEN
 62
     7
370
     0
100
AcDbLine
 10
204.6089138723
 20
101.3819068256
 30
0.0
 11
206.1089138723
 21
101.3819068256
 31
0.0
  0
SPLINE
  5
131
330
1F
100
AcDbEntity
  8
0
  6
HIDDEN
 62
     7
370
     0
100
AcDbSpline
210
0.0
220
0.0
230
1.0
 70
     8
 71
     3
 72
     9
 73
     5
 74
     0
 42
0.00000001
 43
0.00000001
 40
0.0
 40
0.0
 40
0.0
 40
0.0
 40
0.9127674511735774
 40
1.0
 40
1.0
 40
1.0
 40
1.0
 10
204.6822484241715
 20
101.8084686433975
 30
0.0
 10
204.638937402524
 20
101.8249774947476
 30
0.0
 10
204.591487176739
 20
101.8430640855093
 30
0.0
 10
204.6126547067725
 20
101.8354016129792
 30
0.0
 10
204.6145012043697
 20
101.8347331959701
 30
0.0
  0
SPLINE
  5
132
330
1F
100
AcDbEntity
  8
0
  6
HIDDEN
 62
     7
370
     0
100
AcDbSpline
210
0.0
220
0.0
230
1.0
 70
     8
 71
     3
 72
    17
 73
    13
 74
     0
 42
0.00000001
 43
0.00000001
 40
0.0
 40
0.0
 40
0.0
 40
0.0
 40
0.1236628338234109
 40
0.2464323737452002
 40
0.3531987520651192
 40
0.4234332315585019
 40
0.4941244379417724
 40
0.580159705122782
 40
0.7140608633124766
 40
0.8512841765222245
 40
0.9473213221325846
 40
0.9999999999999999
 40
0.9999999999999999
 40
0.9999999999999999
 40
0.9999999999999999
 10
204.6822484241715
 20
101.8084686433976
 30
0.0
 10
204.7358964636321
 20
101.8771879403422
 30
0.0
 10
204.8428050092501
 20
102.0141301318203
 30
0.0
 10
205.0577828288993
 20
102.3232452553692
 30
0.0
 10
205.2203422073031
 20
102.6326883108973
 30
0.0
 10
205.2918169003504
 20
102.931839730636
 30
0.0
 10
205.2655950600579
 20
103.2170991656347
 30
0.0
 10
205.128073363306
 20
103.5394031562198
 30
0.0
 10
204.9044083550303
 20
103.861653249689
 30
0.0
 10
204.7108038985659
 20
104.0995624612528
 30
0.0
 10
204.6133679161683
 20
104.213270386092
 30
0.0
 10
204.6178520179926
 20
104.2080339065811
 30
0.0
 10
204.619440393392
 20
104.20617902113
 30
0.0
  0
LINE
  5
133
330
1F
100
AcDbEntity
  8
0
  6
HIDDEN
 62
     7
370
     0
100
AcDbLine
 10
204.587593798
 20
118.5462238976
 30
0.0
 11
204.6822484242
 21
120.9553450077
 31
0.0
  0
LINE
  5
134
330
1F
100
AcDbEntity
  8
0
  6
HIDDEN
 62
     7
370
     0
100
AcDbLine
 10
204.587593798
 20
104.2175897535
 30
0.0
 11
204.6822484242
 21
101.8084686434
 31
0.0
  0
LWPOLYLINE
  5
135
330
1F
100
AcDbEntity
  8
0
  6
HIDDEN
 62
     7
370
     0
100
AcDbPolyline
 90
       30
 70
   128
 43
0.0
 10
119.6089138723
 20
156.6946126773
 10
120.6837660734
 20
156.6584894493
 10
121.7083593801
 20
156.5518088472
 10
122.6347849483
 20
156.3795591375
 10
123.419724148
 20
156.1497945251
 10
124.0264740946
 20
155.8732585479
 10
124.4266638349
 20
155.5628817209
 10
124.6015809416
 20
155.2331769195
 10
124.543046485
 20
154.8995607739
 10
124.2537974714
 20
154.5776328041
 10
123.7473588631
 20
154.2824460044
 10
123.0474111666
 20
154.0278029813
 10
122.1866831582
 20
153.8256105595
 10
121.205421523
 20
153.6853230321
 10
120.1495089644
 20
153.6135000879
 10
119.0683187802
 20
153.6135000879
 10
118.0124062216
 20
153.6853230321
 10
117.0311445864
 20
153.8256105595
 10
116.1704165781
 20
154.0278029813
 10
115.4704688815
 20
154.2824460044
 10
114.9640302732
 20
154.5776328041
 10
114.6747812596
 20
154.8995607739
 10
114.6162468031
 20
155.2331769195
 10
114.7911639097
 20
155.5628817209
 10
115.1913536501
 20
155.8732585479
 10
115.7981035967
 20
156.1497945251
 10
116.5830427964
 20
156.3795591375
 10
117.5094683645
 20
156.5518088472
 10
118.5340616713
 20
156.6584894493
 10
119.6089138723
 20
156.6946126773
  0
LINE
  5
136
330
1F
100
AcDbEntity
  8
0
  6
HIDDEN
 62
     7
370
     0
100
AcDbLine
 10
133.8709428932
 20
150.3328695865
 30
0.0
 11
133.8709428932
 21
142.7319068256
 31
0.0
  0
LINE
  5
137
330
1F
100
AcDbEntity
  8
0
  6
HIDDEN
 62
     7
370
     0
100
AcDbLine
 10
132.5189138723
 20
146.0961420181
 30
0.0
 11
132.5189138723
 21
142.7319068256
 31
0.0
  0
LINE
  5
138
330
1F
100
AcDbEntity
  8
0
  6
HIDDEN
 62
     7
370
     0
100
AcDbLine
 10
128.6989138723
 20
146.0961420181
 30
0.0
 11
128.6989138723
 21
142.7319068256
 31
0.0
  0
CIRCLE
  5
139
330
1F
100
AcDbEntity
  8
0
  6
HIDDEN
 62
     7
370
     0
100
AcDbCircle
 10
117.6089138723
 20
111.3819068256
 30
0.0
 40
5.0
  0
LINE
  5
13A
330
1F
100
AcDbEntity
  8
0
  6
HIDDEN
 62
     7
370
     0
100
AcDbLine
 10
191.1089138723
 20
108.3819068256
 30
0.0
 11
203.6089138723
 21
108.3819068256
 31
0.0
  0
LINE
  5
13B
330
1F
100
AcDbEntity
  8
0
  6
HIDDEN
 62
     7
370
     0
100
AcDbLine
 10
203.6089138723
 20
114.3819068256
 30
0.0
 11
191.1089138723
 21
114.3819068256
 31
0.0
  0
LINE
  5
13C
330
1F
100
AcDbEntity
  8
0
  6
HIDDEN
 62
     7
370
     0
100
AcDbLine
 10
203.6089138723
 20
108.3819068256
 30
0.0
 11
204.1089138723
 21
108.8819068256
 31
0.0
  0
LINE
  5
13D
330
1F
100
AcDbEntity
  8
0
  6
HIDDEN
 62
     7
370
     0
100
AcDbLine
 10
204.1089138723
 20
113.8819068256
 30
0.0
 11
203.6089138723
 21
114.3819068256
 31
0.0
  0
LINE
  5
13E
330
1F
100
AcDbEntity
  8
0
  6
HIDDEN
 62
     7
370
     0
100
AcDbLine
 10
191.1089138723
 20
114.3819068256
 30
0.0
 11
190.6089138723
 21
113.8819068256
 31
0.0
  0
LINE
  5
13F
330
1F
100
AcDbEntity
  8
0
  6
HIDDEN
 62
     7
370
     0
100
AcDbLine
 10
190.6089138723
 20
108.8819068256
 30
0.0
 11
191.1089138723
 21
108.3819068256
 31
0.0
  0
LINE
  5
140
330
1F
100
AcDbEntity
  8
0
  6
HIDDEN
 62
     7
370
     0
100
AcDbLine
 10
204.1089138723
 20
108.8819068256
 30
0.0
 11
206.6089138723
 21
108.8819068256
 31
0.0
  0
LINE
  5
141
330
1F
100
AcDbEntity
  8
0
  6
HIDDEN
 62
     7
370
     0
100
AcDbLine
 10
206.6089138723
 20
113.8819068256
 30
0.0
 11
204.1089138723
 21
113.8819068256
 31
0.0
  0
LINE
  5
142
330
1F
100
AcDbEntity
  8
0
  6
HIDDEN
 62
     7
370
     0
100
AcDbLine
 10
195.1089138723
 20
109.8819068256
 30
0.0
 11
202.1089138723
 21
109.8819068256
 31
0.0
  0
LINE
  5
143
330
1F
100
AcDbEntity
  8
0
  6
HIDDEN
 62
     7
370
     0
100
AcDbLine
 10
202.1089138723
 20
112.8819068256
 30
0.0
 11
195.1089138723
 21
112.8819068256
 31
0.0
  0
LINE
  5
144
330
1F
100
AcDbEntity
  8
0
  6
HIDDEN
 62
     7
370
     0
100
AcDbLine
 10
240.4176471151
 20
105.8755492721
 30
0.0
 11
235.0837093112
 21
105.665978285
 31
0.0
  0
LINE
  5
145
330
1F
100
AcDbEntity
  8
0
  6
HIDDEN
 62
     7
370
     0
100
AcDbLine
 10
235.2014887585
 20
102.6682911763
 30
0.0
 11
240.5354265624
 21
102.8778621634
 31
0.0
  0
LINE
  5
146
330
1F
100
AcDbEntity
  8
0
  6
HIDDEN
 62
     7
370
     0
100
AcDbLine
 10
240.5354265624
 20
102.8778621634
 30
0.0
 11
240.6089138723
 21
103.0175385652
 31
0.0
  0
LINE
  5
147
330
1F
100
AcDbEntity
  8
0
  6
HIDDEN
 62
     7
370
     0
100
AcDbLine
 10
240.5904813888
 20
105.601623527
 30
0.0
 11
240.4176471151
 21
105.8755492721
 31
0.0
  0
LINE
  5
148
330
1F
100
AcDbEntity
  8
0
  6
HIDDEN
 62
     7
370
     0
100
AcDbLine
 10
235.0837093112
 20
105.665978285
 30
0.0
 11
234.6037247009
 21
105.146733859
 31
0.0
  0
LINE
  5
149
330
1F
100
AcDbEntity
  8
0
  6
HIDDEN
 62
     7
370
     0
100
AcDbLine
 10
234.6822443325
 20
103.1482757865
 30
0.0
 11
235.2014887585
 21
102.6682911763
 31
0.0
  0
LINE
  5
14A
330
1F
100
AcDbEntity
  8
0
  6
HIDDEN
 62
     7
370
     0
100
AcDbLine
 10
240.4765368387
 20
119.8882652713
 30
0.0
 11
235.1425990348
 21
120.0978362584
 31
0.0
  0
LINE
  5
14B
330
1F
100
AcDbEntity
  8
0
  6
HIDDEN
 62
     7
370
     0
100
AcDbLine
 10
235.0248195875
 20
117.1001491497
 30
0.0
 11
240.3587573914
 21
116.8905781626
 31
0.0
  0
LINE
  5
14C
330
1F
100
AcDbEntity
  8
0
  6
HIDDEN
 62
     7
370
     0
100
AcDbLine
 10
235.1425990348
 20
120.0978362584
 30
0.0
 11
234.6233546088
 21
119.6178516481
 31
0.0
  0
LINE
  5
14D
330
1F
100
AcDbEntity
  8
0
  6
HIDDEN
 62
     7
370
     0
100
AcDbLine
 10
234.5448349773
 20
117.6193935757
 30
0.0
 11
235.0248195875
 21
117.1001491497
 31
0.0
  0
LINE
  5
14E
330
1F
100
AcDbEntity
  8
0
  6
HIDDEN
 62
     7
370
     0
100
AcDbLine
 10
240.3587573914
 20
116.8905781626
 30
0.0
 11
240.5315916652
 21
117.1645039076
 31
0.0
  0
LINE
  5
14F
330
1F
100
AcDbEntity
  8
0
  6
HIDDEN
 62
     7
370
     0
100
AcDbLine
 10
240.6089138723
 20
119.6366579156
 30
0.0
 11
240.4765368387
 21
119.8882652713
 31
0.0
  0
LINE
  5
150
330
1F
100
AcDbEntity
  8
0
  6
HIDDEN
 62
     7
370
     0
100
AcDbLine
 10
110.6089138723
 20
71.977223869
 30
0.0
 11
110.6985154962
 21
72.6147725509
 31
0.0
  0
LINE
  5
151
330
1F
100
AcDbEntity
  8
0
  6
HIDDEN
 62
     7
370
     0
100
AcDbLine
 10
110.6985154962
 20
150.1490411002
 30
0.0
 11
110.6089138723
 21
150.7865897822
 31
0.0
  0
ARC
  5
152
330
1F
100
AcDbEntity
  8
0
  6
HIDDEN
 62
     7
370
     0
100
AcDbCircle
 10
109.7119769539
 20
72.7534215011
 30
0.0
 40
0.9962338214386932
100
AcDbArc
 50
352.0
 51
0.0
  0
ARC
  5
153
330
1F
100
AcDbEntity
  8
0
  6
HIDDEN
 62
     7
370
     0
100
AcDbCircle
 10
109.7119769539
 20
72.7534215011
 30
0.0
 40
0.9962338214386932
100
AcDbArc
 50
0.0
 51
25.7988228126
  0
ARC
  5
154
330
1F
100
AcDbEntity
  8
0
  6
HIDDEN
 62
     7
370
     0
100
AcDbCircle
 10
109.7119769539
 20
150.01039215
 30
0.0
 40
0.9962338214386854
100
AcDbArc
 50
348.75
 51
8.0
  0
LWPOLYLINE
  5
155
330
1F
100
AcDbEntity
  8
0
  6
HIDDEN
 62
     7
370
     0
100
AcDbPolyline
 90
        3
 70
   128
 43
0.0
 10
110.6890684218
 20
149.816036573
 10
110.6323769911
 20
149.6291499718
 10
110.6089138723
 20
149.5768186369
  0
LINE
  5
156
330
1F
100
AcDbEntity
  8
0
  6
HIDDEN
 62
     7
370
     0
100
AcDbLine
 10
110.7082107753
 20
72.7534215011
 30
0.0
 11
110.7082107753
 21
150.01039215
 31
0.0
  0
LINE
  5
157
330
1F
100
AcDbEntity
  8
0
  6
HIDDEN
 62
     7
370
     0
100
AcDbLine
 10
84.0696398145
 20
79.8819068256
 30
0.0
 11
89.6140842463
 21
79.8819068256
 31
0.0
  0
LINE
  5
158
330
1F
100
AcDbEntity
  8
0
  6
HIDDEN
 62
     7
370
     0
100
AcDbLine
 10
89.6140842463
 20
142.8819068256
 30
0.0
 11
84.0696398145
 21
142.8819068256
 31
0.0
  0
ARC
  5
159
330
1F
100
AcDbEntity
  8
0
  6
HIDDEN
 62
     7
370
     0
100
AcDbCircle
 10
100.8621195275
 20
91.8819068256
 30
0.0
 40
11.99999999999999
100
AcDbArc
 50
273.4750678888
 51
324.3146652873
  0
ARC
  5
15A
330
1F
100
AcDbEntity
  8
0
  6
HIDDEN
 62
     7
370
     0
100
AcDbCircle
 10
100.8621195275
 20
130.8819068256
 30
0.0
 40
12.00000000000003
100
AcDbArc
 50
35.6853347127
 51
86.5284337865
  0
ARC
  5
15B
330
1F
100
AcDbEntity
  8
0
  6
HIDDEN
 62
     7
370
     0
100
AcDbCircle
 10
84.0696398145
 20
80.8819068256
 30
0.0
 40
1.000000000000008
100
AcDbArc
 50
210.0
 51
270.0
  0
ARC
  5
15C
330
1F
100
AcDbEntity
  8
0
  6
HIDDEN
 62
     7
370
     0
100
AcDbCircle
 10
84.0696398145
 20
141.8819068256
 30
0.0
 40
1.000000000000008
100
AcDbArc
 50
90.0
 51
150.0
  0
LINE
  5
15D
330
1F
100
AcDbEntity
  8
0
  6
HIDDEN
 62
     7
370
     0
100
AcDbLine
 10
83.2036144107
 20
142.3819068256
 30
0.0
 11
80.6055381994
 21
137.8819068256
 31
0.0
  0
LINE
  5
15E
330
1F
100
AcDbEntity
  8
0
  6
HIDDEN
 62
     7
370
     0
100
AcDbLine
 10
80.6055381994
 20
84.8819068256
 30
0.0
 11
83.2036144107
 21
80.3819068256
 31
0.0
  0
ARC
  5
15F
330
1F
100
AcDbEntity
  8
0
  6
HIDDEN
 62
     7
370
     0
100
AcDbCircle
 10
121.0589138723
 20
86.5069068256
 30
0.0
 40
2.0
100
AcDbArc
 50
234.3409123039
 51
0.0
  0
ARC
  5
160
330
1F
100
AcDbEntity
  8
0
  6
HIDDEN
 62
     7
370
     0
100
AcDbCircle
 10
121.0589138723
 20
136.2569068256
 30
0.0
 40
2.000000000000003
100
AcDbArc
 50
0.0
 51
125.6590876961
  0
LINE
  5
161
330
1F
100
AcDbEntity
  8
0
  6
HIDDEN
 62
     7
370
     0
100
AcDbLine
 10
75.8089138723
 20
84.8819068256
 30
0.0
 11
80.6055381994
 21
84.8819068256
 31
0.0
  0
LINE
  5
162
330
1F
100
AcDbEntity
  8
0
  6
HIDDEN
 62
     7
370
     0
100
AcDbLine
 10
80.6055381994
 20
137.8819068256
 30
0.0
 11
70.8089138723
 21
137.8819068256
 31
0.0
  0
LINE
  5
163
330
1F
100
AcDbEntity
  8
0
  6
HIDDEN
 62
     7
370
     0
100
AcDbLine
 10
110.6089138723
 20
84.8819068256
 30
0.0
 11
119.8929914907
 21
84.8819068256
 31
0.0
  0
LINE
  5
164
330
1F
100
AcDbEntity
  8
0
  6
HIDDEN
 62
     7
370
     0
100
AcDbLine
 10
119.8929914907
 20
137.8819068256
 30
0.0
 11
110.6089138723
 21
137.8819068256
 31
0.0
  0
LINE
  5
165
330
1F
100
AcDbEntity
  8
0
  6
HIDDEN
 62
     7
370
     0
100
AcDbLine
 10
114.6089138723
 20
157.0590697077
 30
0.0
 11
114.6089138723
 21
153.3593206042
 31
0.0
  0
LINE
  5
166
330
1F
100
AcDbEntity
  8
0
  6
HIDDEN
 62
     7
370
     0
100
AcDbLine
 10
124.6089138723
 20
153.3593206042
 30
0.0
 11
124.6089138723
 21
157.0576977584
 31
0.0
  0
LINE
  5
167
330
1F
100
AcDbEntity
  8
0
  6
HIDDEN
 62
     7
370
     0
100
AcDbLine
 10
134.9089138723
 20
98.3819068256
 30
0.0
 11
138.9089138723
 21
98.3819068256
 31
0.0
  0
LINE
  5
168
330
1F
100
AcDbEntity
  8
0
  6
HIDDEN
 62
     7
370
     0
100
AcDbLine
 10
138.9089138723
 20
124.3819068256
 30
0.0
 11
134.9089138723
 21
124.3819068256
 31
0.0
  0
LINE
  5
169
330
1F
100
AcDbEntity
  8
0
  6
HIDDEN
 62
     7
370
     0
100
AcDbLine
 10
123.0589138723
 20
99.3819068256
 30
0.0
 11
123.8089138723
 21
100.1319068256
 31
0.0
  0
LINE
  5
16A
330
1F
100
AcDbEntity
  8
0
  6
HIDDEN
 62
     7
370
     0
100
AcDbLine
 10
123.8089138723
 20
122.6319068256
 30
0.0
 11
123.0589138723
 21
123.3819068256
 31
0.0
  0
LINE
  5
16B
330
1F
100
AcDbEntity
  8
0
  6
HIDDEN
 62
     7
370
     0
100
AcDbLine
 10
123.8089138723
 20
100.1319068256
 30
0.0
 11
134.9089138723
 21
100.1319068256
 31
0.0
  0
LINE
  5
16C
330
1F
100
AcDbEntity
  8
0
  6
HIDDEN
 62
     7
370
     0
100
AcDbLine
 10
134.9089138723
 20
122.6319068256
 30
0.0
 11
123.8089138723
 21
122.6319068256
 31
0.0
  0
LINE
  5
16D
330
1F
100
AcDbEntity
  8
0
  6
HIDDEN
 62
     7
370
     0
100
AcDbLine
 10
115.5589138723
 20
161.3819068256
 30
0.0
 11
115.5589138723
 21
155.2819068256
 31
0.0
  0
LINE
  5
16E
330
1F
100
AcDbEntity
  8
0
  6
HIDDEN
 62
     7
370
     0
100
AcDbLine
 10
102.0416264884
 20
73.803627255
 30
0.0
 11
101.6089172019
 21
74.2818519723
 31
0.0
  0
LINE
  5
16F
330
1F
100
AcDbEntity
  8
0
  6
HIDDEN
 62
     7
370
     0
100
AcDbLine
 10
89.6089143304
 20
74.928813329
 30
0.0
 11
89.1282870251
 21
74.4505886182
 31
0.0
  0
LINE
  5
170
330
1F
100
AcDbEntity
  8
0
  6
HIDDEN
 62
     7
370
     0
100
AcDbLine
 10
89.1281686836
 20
148.3132191168
 30
0.0
 11
89.6089141477
 21
147.834939445
 31
0.0
  0
LINE
  5
171
330
1F
100
AcDbEntity
  8
0
  6
HIDDEN
 62
     7
370
     0
100
AcDbLine
 10
101.6089138744
 20
148.4819118323
 30
0.0
 11
102.0417355442
 21
148.9601915052
 31
0.0
  0
LINE
  5
172
330
1F
100
AcDbEntity
  8
0
  6
HIDDEN
 62
     7
370
     0
100
AcDbLine
 10
101.6089138723
 20
74.1817231298
 30
0.0
 11
101.6089138723
 21
79.9078419316
 31
0.0
  0
LINE
  5
173
330
1F
100
AcDbEntity
  8
0
  6
HIDDEN
 62
     7
370
     0
100
AcDbLine
 10
89.6089138723
 20
79.8828910249
 30
0.0
 11
89.6089138723
 21
74.9288517435
 31
0.0
  0
LINE
  5
174
330
1F
100
AcDbEntity
  8
0
  6
HIDDEN
 62
     7
370
     0
100
AcDbLine
 10
101.6089138723
 20
142.8559717195
 30
0.0
 11
101.6089138723
 21
148.5819156583
 31
0.0
  0
LINE
  5
175
330
1F
100
AcDbEntity
  8
0
  6
HIDDEN
 62
     7
370
     0
100
AcDbLine
 10
89.6089138723
 20
147.8349289457
 30
0.0
 11
89.6089138723
 21
142.8809226262
 31
0.0
  0
ARC
  5
176
330
1F
100
AcDbEntity
  8
0
  6
HIDDEN
 62
     7
370
     0
100
AcDbCircle
 10
240.1089138723
 20
106.3452125775
 30
0.0
 40
0.5
100
AcDbArc
 50
0.0
 51
80.0
  0
ARC
  5
177
330
1F
100
AcDbEntity
  8
0
  6
HIDDEN
 62
     7
370
     0
100
AcDbCircle
 10
240.1089138723
 20
116.4186010736
 30
0.0
 40
0.5
100
AcDbArc
 50
280.0
 51
0.0
  0
LINE
  5
178
330
1F
100
AcDbEntity
  8
0
  6
HIDDEN
 62
     7
370
     0
100
AcDbLine
 10
240.1957379612
 20
115.9261971971
 30
0.0
 11
237.1089138723
 21
115.3819068256
 31
0.0
  0
LINE
  5
179
330
1F
100
AcDbEntity
  8
0
  6
HIDDEN
 62
     7
370
     0
100
AcDbLine
 10
237.1089138723
 20
107.3819068256
 30
0.0
 11
240.1957379612
 21
106.837616454
 31
0.0
  0
ARC
  5
17A
330
1F
100
AcDbEntity
  8
0
  6
HIDDEN
 62
     7
370
     0
100
AcDbCircle
 10
213.7141398542
 20
107.4819068256
 30
0.0
 40
0.4000000000000057
100
AcDbArc
 50
270.0
 51
290.0
  0
ARC
  5
17B
330
1F
100
AcDbEntity
  8
0
  6
HIDDEN
 62
     7
370
     0
100
AcDbCircle
 10
213.7141398542
 20
115.2819068256
 30
0.0
 40
0.3999999999999977
100
AcDbArc
 50
70.0
 51
90.0
  0
LINE
  5
17C
330
1F
100
AcDbEntity
  8
0
  6
HIDDEN
 62
     7
370
     0
100
AcDbLine
 10
207.6089138723
 20
107.0819068256
 30
0.0
 11
213.7141398542
 21
107.0819068256
 31
0.0
  0
LINE
  5
17D
330
1F
100
AcDbEntity
  8
0
  6
HIDDEN
 62
     7
370
     0
100
AcDbLine
 10
204.5089138723
 20
107.0819068256
 30
0.0
 11
204.6091819487
 21
107.0819068256
 31
0.0
  0
LINE
  5
17E
330
1F
100
AcDbEntity
  8
0
  6
HIDDEN
 62
     7
370
     0
100
AcDbLine
 10
204.6093022096
 20
115.6819068256
 30
0.0
 11
204.5089138723
 21
115.6819068256
 31
0.0
  0
LINE
  5
17F
330
1F
100
AcDbEntity
  8
0
  6
HIDDEN
 62
     7
370
     0
100
AcDbLine
 10
213.7141398542
 20
115.6819068256
 30
0.0
 11
207.608636767
 21
115.6819068256
 31
0.0
  0
ARC
  5
180
330
1F
100
AcDbEntity
  8
0
  6
HIDDEN
 62
     7
370
     0
100
AcDbCircle
 10
204.5089138723
 20
107.4819068256
 30
0.0
 40
0.4000000000000057
100
AcDbArc
 50
180.0
 51
270.0
  0
ARC
  5
181
330
1F
100
AcDbEntity
  8
0
  6
HIDDEN
 62
     7
370
     0
100
AcDbCircle
 10
204.5089138723
 20
115.2819068256
 30
0.0
 40
0.3999999999999915
100
AcDbArc
 50
90.0
 51
180.0
  0
LINE
  5
182
330
1F
100
AcDbEntity
  8
0
  6
HIDDEN
 62
     7
370
     0
100
AcDbLine
 10
213.8509479115
 20
107.1060297773
 30
0.0
 11
214.6089138723
 21
107.3819068256
 31
0.0
  0
LINE
  5
183
330
1F
100
AcDbEntity
  8
0
  6
HIDDEN
 62
     7
370
     0
100
AcDbLine
 10
214.6089138723
 20
115.3819068256
 30
0.0
 11
213.8509479115
 21
115.6577838739
 31
0.0
  0
LINE
  5
184
330
1F
100
AcDbEntity
  8
0
  6
HIDDEN
 62
     7
370
     0
100
AcDbLine
 10
138.9089138723
 20
107.1319068256
 30
0.0
 11
186.707407789
 21
107.1319068256
 31
0.0
  0
LINE
  5
185
330
1F
100
AcDbEntity
  8
0
  6
HIDDEN
 62
     7
370
     0
100
AcDbLine
 10
186.707407789
 20
115.6319068256
 30
0.0
 11
138.9089138723
 21
115.6319068256
 31
0.0
  0
LINE
  5
186
330
1F
100
AcDbEntity
  8
0
  6
HIDDEN
 62
     7
370
     0
100
AcDbLine
 10
186.707407789
 20
107.1319068256
 30
0.0
 11
187.7589138723
 21
108.8819068256
 31
0.0
  0
LINE
  5
187
330
1F
100
AcDbEntity
  8
0
  6
HIDDEN
 62
     7
370
     0
100
AcDbLine
 10
187.7589138723
 20
113.8819068256
 30
0.0
 11
186.707407789
 21
115.6319068256
 31
0.0
  0
LINE
  5
188
330
1F
100
AcDbEntity
  8
0
  6
HIDDEN
 62
     7
370
     0
100
AcDbLine
 10
214.6089138723
 20
107.3819068256
 30
0.0
 11
237.1089138723
 21
107.3819068256
 31
0.0
  0
LINE
  5
189
330
1F
100
AcDbEntity
  8
0
  6
HIDDEN
 62
     7
370
     0
100
AcDbLine
 10
237.1089138723
 20
115.3819068256
 30
0.0
 11
214.6089138723
 21
115.3819068256
 31
0.0
  0
LINE
  5
18A
330
1F
100
AcDbEntity
  8
0
  6
HIDDEN
 62
     7
370
     0
100
AcDbLine
 10
156.0589138723
 20
96.3819068256
 30
0.0
 11
155.0589138723
 21
96.9592570948
 31
0.0
  0
LINE
  5
18B
330
1F
100
AcDbEntity
  8
0
  6
HIDDEN
 62
     7
370
     0
100
AcDbLine
 10
150.0589138723
 20
96.9592570948
 30
0.0
 11
149.0589138723
 21
96.3819068256
 31
0.0
  0
LINE
  5
18C
330
1F
100
AcDbEntity
  8
0
  6
HIDDEN
 62
     7
370
     0
100
AcDbLine
 10
149.0589138723
 20
126.3819068256
 30
0.0
 11
150.0589138723
 21
125.8045565564
 31
0.0
  0
LINE
  5
18D
330
1F
100
AcDbEntity
  8
0
  6
HIDDEN
 62
     7
370
     0
100
AcDbLine
 10
155.0589138723
 20
125.8045565564
 30
0.0
 11
156.0589138723
 21
126.3819068256
 31
0.0
  0
LINE
  5
18E
330
1F
100
AcDbEntity
  8
0
  6
HIDDEN
 62
     7
370
     0
100
AcDbLine
 10
204.1089138723
 20
114.3819068256
 30
0.0
 11
203.6089138723
 21
113.8819068256
 31
0.0
  0
LINE
  5
18F
330
1F
100
AcDbEntity
  8
0
  6
HIDDEN
 62
     7
370
     0
100
AcDbLine
 10
203.6089138723
 20
108.8819068256
 30
0.0
 11
204.1089138723
 21
108.3819068256
 31
0.0
  0
LINE
  5
190
330
1F
100
AcDbEntity
  8
0
  6
HIDDEN
 62
     7
370
     0
100
AcDbLine
 10
150.0589138723
 20
125.8045565564
 30
0.0
 11
150.0589138723
 21
118.3819068256
 31
0.0
  0
LINE
  5
191
330
1F
100
AcDbEntity
  8
0
  6
HIDDEN
 62
     7
370
     0
100
AcDbLine
 10
155.0589138723
 20
118.3819068256
 30
0.0
 11
155.0589138723
 21
125.8045565564
 31
0.0
  0
LINE
  5
192
330
1F
100
AcDbEntity
  8
0
  6
HIDDEN
 62
     7
370
     0
100
AcDbLine
 10
187.7589138723
 20
108.8819068256
 30
0.0
 11
203.6089138723
 21
108.8819068256
 31
0.0
  0
LINE
  5
193
330
1F
100
AcDbEntity
  8
0
  6
HIDDEN
 62
     7
370
     0
100
AcDbLine
 10
203.6089138723
 20
113.8819068256
 30
0.0
 11
187.7589138723
 21
113.8819068256
 31
0.0
  0
LINE
  5
194
330
1F
100
AcDbEntity
  8
0
  6
HIDDEN
 62
     7
370
     0
100
AcDbLine
 10
150.0589138723
 20
118.3819068256
 30
0.0
 11
152.5589138723
 21
116.879755278
 31
0.0
  0
LINE
  5
195
330
1F
100
AcDbEntity
  8
0
  6
HIDDEN
 62
     7
370
     0
100
AcDbLine
 10
152.5589138723
 20
116.879755278
 30
0.0
 11
155.0589138723
 21
118.3819068256
 31
0.0
  0
LINE
  5
196
330
1F
100
AcDbEntity
  8
0
  6
HIDDEN
 62
     7
370
     0
100
AcDbLine
 10
155.0589138723
 20
104.3819068256
 30
0.0
 11
152.5589138723
 21
105.8840583731
 31
0.0
  0
LINE
  5
197
330
1F
100
AcDbEntity
  8
0
  6
HIDDEN
 62
     7
370
     0
100
AcDbLine
 10
152.5589138723
 20
105.8840583731
 30
0.0
 11
150.0589138723
 21
104.3819068256
 31
0.0
  0
LINE
  5
198
330
1F
100
AcDbEntity
  8
0
  6
HIDDEN
 62
     7
370
     0
100
AcDbLine
 10
155.0589138723
 20
96.9592570948
 30
0.0
 11
155.0589138723
 21
104.3819068256
 31
0.0
  0
LINE
  5
199
330
1F
100
AcDbEntity
  8
0
  6
HIDDEN
 62
     7
370
     0
100
AcDbLine
 10
150.0589138723
 20
104.3819068256
 30
0.0
 11
150.0589138723
 21
96.9592570948
 31
0.0
  0
LINE
  5
19A
330
1F
100
AcDbEntity
  8
0
  6
HIDDEN
 62
     7
370
     0
100
AcDbLine
 10
204.6089138723
 20
118.546624549
 30
0.0
 11
204.6089138723
 21
115.681772823
 31
0.0
  0
LINE
  5
19B
330
1F
100
AcDbEntity
  8
0
  6
HIDDEN
 62
     7
370
     0
100
AcDbLine
 10
204.6089138723
 20
121.3819068256
 30
0.0
 11
204.6089138723
 21
120.9278408413
 31
0.0
  0
LINE
  5
19C
330
1F
100
AcDbEntity
  8
0
  6
HIDDEN
 62
     7
370
     0
100
AcDbLine
 10
207.6089138723
 20
120.927768041
 30
0.0
 11
207.6089138723
 21
121.3819068256
 31
0.0
  0
LINE
  5
19D
330
1F
100
AcDbEntity
  8
0
  6
HIDDEN
 62
     7
370
     0
100
AcDbLine
 10
207.6089138723
 20
115.6818112873
 30
0.0
 11
207.6089138723
 21
118.4275159086
 31
0.0
  0
LINE
  5
19E
330
1F
100
AcDbEntity
  8
0
  6
HIDDEN
 62
     7
370
     0
100
AcDbLine
 10
204.6089138723
 20
101.834733196
 30
0.0
 11
204.6089138723
 21
101.3819068256
 31
0.0
  0
LINE
  5
19F
330
1F
100
AcDbEntity
  8
0
  6
HIDDEN
 62
     7
370
     0
100
AcDbLine
 10
204.6089138723
 20
107.0819992452
 30
0.0
 11
204.6089138723
 21
104.2061790211
 31
0.0
  0
LINE
  5
1A0
330
1F
100
AcDbEntity
  8
0
  6
HIDDEN
 62
     7
370
     0
100
AcDbLine
 10
207.6089138723
 20
104.3362977426
 30
0.0
 11
207.6089138723
 21
107.0819068256
 31
0.0
  0
LINE
  5
1A1
330
1F
100
AcDbEntity
  8
0
  6
HIDDEN
 62
     7
370
     0
100
AcDbLine
 10
207.6089138723
 20
101.3819068256
 30
0.0
 11
207.6089138723
 21
101.8381256239
 31
0.0
  0
LINE
  5
1A2
330
1F
100
AcDbEntity
  8
0
  6
HIDDEN
 62
     7
370
     0
100
AcDbLine
 10
204.6089138723
 20
101.3819068256
 30
0.0
 11
206.1089138723
 21
100.480615897
 31
0.0
  0
LINE
  5
1A3
330
1F
100
AcDbEntity
  8
0
  6
HIDDEN
 62
     7
370
     0
100
AcDbLine
 10
206.1089138723
 20
100.480615897
 30
0.0
 11
207.6089138723
 21
101.3819068256
 31
0.0
  0
LINE
  5
1A4
330
1F
100
AcDbEntity
  8
0
  6
HIDDEN
 62
     7
370
     0
100
AcDbLine
 10
207.6058591756
 20
101.8342488267
 30
0.0
 11
240.6089138723
 21
103.1309423773
 31
0.0
  0
LINE
  5
1A5
330
1F
100
AcDbEntity
  8
0
  6
HIDDEN
 62
     7
370
     0
100
AcDbLine
 10
240.6089138723
 20
105.6328712738
 30
0.0
 11
207.6089138723
 21
104.3362977426
 31
0.0
  0
LINE
  5
1A6
330
1F
100
AcDbEntity
  8
0
  6
HIDDEN
 62
     7
370
     0
100
AcDbLine
 10
207.6089138723
 20
118.4275159086
 30
0.0
 11
240.6089138723
 21
117.1309423773
 31
0.0
  0
LINE
  5
1A7
330
1F
100
AcDbEntity
  8
0
  6
HIDDEN
 62
     7
370
     0
100
AcDbLine
 10
240.6089138723
 20
119.6328712738
 30
0.0
 11
207.607540387
 21
120.9294987695
 31
0.0
  0
LINE
  5
1A8
330
1F
100
AcDbEntity
  8
0
  6
HIDDEN
 62
     7
370
     0
100
AcDbLine
 10
204.6100003781
 20
120.9287692761
 30
0.0
 11
203.8861718461
 21
119.8247472894
 31
0.0
  0
LINE
  5
1A9
330
1F
100
AcDbEntity
  8
0
  6
HIDDEN
 62
     7
370
     0
100
AcDbLine
 10
203.8861718461
 20
119.8247472894
 30
0.0
 11
204.587593798
 21
118.5462238976
 31
0.0
  0
LINE
  5
1AA
330
1F
100
AcDbEntity
  8
0
  6
HIDDEN
 62
     7
370
     0
100
AcDbLine
 10
204.587593798
 20
104.2175897535
 30
0.0
 11
203.8861718461
 21
102.9390663617
 31
0.0
  0
LINE
  5
1AB
330
1F
100
AcDbEntity
  8
0
  6
HIDDEN
 62
     7
370
     0
100
AcDbLine
 10
203.8861718461
 20
102.9390663617
 30
0.0
 11
204.6115193472
 21
101.8327275622
 31
0.0
  0
LINE
  5
1AC
330
1F
100
AcDbEntity
  8
0
  6
HIDDEN
 62
     7
370
     0
100
AcDbLine
 10
70.1991418222
 20
144.1371624628
 30
0.0
 11
70.1534547984
 21
144.0962474358
 31
0.0
  0
LINE
  5
1AD
330
1F
100
AcDbEntity
  8
0
  6
HIDDEN
 62
     7
370
     0
100
AcDbLine
 10
114.6089138723
 20
158.9346181236
 30
0.0
 11
114.6089138723
 21
157.0590697077
 31
0.0
  0
LINE
  5
1AE
330
1F
100
AcDbEntity
  8
0
  6
HIDDEN
 62
     7
370
     0
100
AcDbLine
 10
124.6089138723
 20
157.0576977584
 30
0.0
 11
124.6089138723
 21
158.9331898408
 31
0.0
  0
DIMENSION
  5
1AF
330
1F
100
AcDbEntity
  8
VERMASSUNG
100
AcDbDimension
  2
*D1
 10
53.8157096425
 20
61.3819068256
 30
0.0
 11
53.8157096425
 21
111.3819068256
 31
0.0
 70
   160
  1
HSK A %%c<>
 71
     2
 42
-1.0
  3
SLDDIMSTYLE0
100
AcDbAlignedDimension
 13
111.1089138723
 23
161.3819068256
 33
0.0
 14
111.1089138723
 24
61.3819068256
 34
0.0
 50
90.0
100
AcDbRotatedDimension
  0
DIMENSION
  5
1BC
330
1F
100
AcDbEntity
  8
VERMASSUNG
100
AcDbDimension
  2
*D2
 10
240.6089138723
 20
160.3485373781
 30
0.0
 11
222.3589138723
 21
160.3485373781
 31
0.0
 70
   160
 71
     2
 42
-1.0
  3
SLDDIMSTYLE1
100
AcDbAlignedDimension
 13
204.1089138723
 23
115.2819068256
 33
0.0
 14
240.6089138723
 24
120.0331258423
 34
0.0
100
AcDbRotatedDimension
  0
DIMENSION
  5
1C7
330
1F
100
AcDbEntity
  8
VERMASSUNG
100
AcDbDimension
  2
*D3
 10
248.3574214518
 20
115.3819068256
 30
0.0
 11
248.3574214518
 21
111.3819068256
 31
0.0
 70
   160
  1
%%c<>
 71
     2
 42
-1.0
  3
SLDDIMSTYLE2
100
AcDbAlignedDimension
 13
237.1089138723
 23
107.3819068256
 33
0.0
 14
237.1089138723
 24
115.3819068256
 34
0.0
 50
90.0
100
AcDbRotatedDimension
  0
DIMENSION
  5
1D3
330
1F
100
AcDbEntity
  8
VERMASSUNG
100
AcDbDimension
  2
*D4
 10
254.3574214518
 20
121.8819068256
 30
0.0
 11
254.3574214518
 21
111.3819068256
 31
0.0
 70
   160
  1
%%c<>
 71
     2
 42
-1.0
  3
SLDDIMSTYLE3
100
AcDbAlignedDimension
 13
240.6089138723
 23
100.8819068256
 33
0.0
 14
240.6089138723
 24
121.8819068256
 34
0.0
 50
90.0
100
AcDbRotatedDimension
  0
DIMENSION
  5
1DF
330
1F
100
AcDbEntity
  8
VERMASSUNG
100
AcDbDimension
  2
*D5
 10
240.6089138723
 20
172.3485373781
 30
0.0
 11
175.6089138723
 21
172.3485373781
 31
0.0
 70
   160
 71
     2
 42
-1.0
  3
SLDDIMSTYLE0
100
AcDbAlignedDimension
 13
110.6089138723
 23
160.8819068256
 33
0.0
 14
240.6089138723
 24
120.0331258423
 34
0.0
100
AcDbRotatedDimension
  0
DIMENSION
  5
1E9
330
1F
100
AcDbEntity
  8
VERMASSUNG
100
AcDbDimension
  2
*D6
 10
240.6089138723
 20
166.3485373781
 30
0.0
 11
190.0839138723
 21
166.3485373781
 31
0.0
 70
   160
 71
     2
 42
-1.0
  3
SLDDIMSTYLE0
100
AcDbAlignedDimension
 13
139.5589138723
 23
159.3506466464
 33
0.0
 14
240.6089138723
 24
120.0331258423
 34
0.0
100
AcDbRotatedDimension
  0
DIMENSION
  5
1F3
330
1F
100
AcDbEntity
  8
VERMASSUNG
100
AcDbDimension
  2
*D7
 10
240.6089138723
 20
178.3485373781
 30
0.0
 11
150.6589138723
 21
178.3485373781
 31
0.0
 70
   160
 71
     2
 42
-1.0
  3
SLDDIMSTYLE0
100
AcDbAlignedDimension
 13
60.7089138723
 23
141.8845765681
 33
0.0
 14
240.6089138723
 24
120.0331258423
 34
0.0
100
AcDbRotatedDimension
  0
DIMENSION
  5
1FD
330
1F
100
AcDbEntity
  8
VERMASSUNG
100
AcDbDimension
  2
*D8
 10
260.3574214518
 20
96.3819068256
 30
0.0
 11
260.3574214518
 21
111.3819068256
 31
0.0
 70
   160
  1
%%c<>
 71
     2
 42
-1.0
  3
SLDDIMSTYLE0
100
AcDbAlignedDimension
 13
161.5589138723
 23
126.3819068256
 33
0.0
 14
161.5589138723
 24
96.3819068256
 34
0.0
 50
90.0
100
AcDbRotatedDimension
  0
LINE
  5
208
330
1F
100
AcDbEntity
  8
VERMASSUNG
  6
CENTERX2
370
     0
100
AcDbLine
 10
56.3684723727
 20
111.3819068256
 30
0.0
 11
242.6089138723
 21
111.3819068256
 31
0.0
  0
OLE2FRAME
  5
209
330
1F
100
AcDbEntity
  8
0
100
AcDbOle2Frame
 70
     2
  3
Bitmap Image
 10
13.8511154363
 20
38.264191557
 30
0.0
 11
51.6290888628
 21
31.9806341108
 31
0.0
 71
     2
 72
     0
 73
     1
 90
    12928
310
80552BED0767C5B32B40DDAF6807D121434000000000000000006FFBDDFB85D0
310
4940DDAF6807D121434000000000000000006FFBDDFB85D04940416F4BD60AFB
310
3F4000000000000000002BED0767C5B32B40416F4BD60AFB3F40000000000000
310
0000000000000100000000010000010000000100000000000100000000320000
310
D0CF11E0A1B11AE1000000000000000000000000000000003E000300FEFF0900
310
0600000000000000000000000100000001000000000000000010000002000000
310
01000000FEFFFFFF0000000000000000FFFFFFFFFFFFFFFFFFFFFFFFFFFFFFFF
310
FFFFFFFFFFFFFFFFFFFFFFFFFFFFFFFFFFFFFFFFFFFFFFFFFFFFFFFFFFFFFFFF
310
FFFFFFFFFFFFFFFFFFFFFFFFFFFFFFFFFFFFFFFFFFFFFFFFFFFFFFFFFFFFFFFF
310
FFFFFFFFFFFFFFFFFFFFFFFFFFFFFFFFFFFFFFFFFFFFFFFFFFFFFFFFFFFFFFFF
310
FFFFFFFFFFFFFFFFFFFFFFFFFFFFFFFFFFFFFFFFFFFFFFFFFFFFFFFFFFFFFFFF
310
FFFFFFFFFFFFFFFFFFFFFFFFFFFFFFFFFFFFFFFFFFFFFFFFFFFFFFFFFFFFFFFF
310
FFFFFFFFFFFFFFFFFFFFFFFFFFFFFFFFFFFFFFFFFFFFFFFFFFFFFFFFFFFFFFFF
310
FFFFFFFFFFFFFFFFFFFFFFFFFFFFFFFFFFFFFFFFFFFFFFFFFFFFFFFFFFFFFFFF
310
FFFFFFFFFFFFFFFFFFFFFFFFFFFFFFFFFFFFFFFFFFFFFFFFFFFFFFFFFFFFFFFF
310
FFFFFFFFFFFFFFFFFFFFFFFFFFFFFFFFFFFFFFFFFFFFFFFFFFFFFFFFFFFFFFFF
310
FFFFFFFFFFFFFFFFFFFFFFFFFFFFFFFFFFFFFFFFFFFFFFFFFFFFFFFFFFFFFFFF
310
FFFFFFFFFFFFFFFFFFFFFFFFFFFFFFFFFFFFFFFFFFFFFFFFFFFFFFFFFFFFFFFF
310
FFFFFFFFFFFFFFFFFFFFFFFFFFFFFFFFFFFFFFFFFFFFFFFFFFFFFFFFFFFFFFFF
310
FFFFFFFFFFFFFFFFFFFFFFFFFFFFFFFFFFFFFFFFFFFFFFFFFFFFFFFFFFFFFFFF
310
FDFFFFFFFEFFFFFFFEFFFFFFFEFFFFFF05000000060000000700000008000000
310
090000000A0000000B0000000C0000000D0000000E0000000F00000010000000
310
11000000120000001300000014000000150000001600000017000000FEFFFFFF
310
FFFFFFFFFFFFFFFFFFFFFFFFFFFFFFFFFFFFFFFFFFFFFFFFFFFFFFFFFFFFFFFF
310
FFFFFFFFFFFFFFFFFFFFFFFFFFFFFFFFFFFFFFFFFFFFFFFFFFFFFFFFFFFFFFFF
310
FFFFFFFFFFFFFFFFFFFFFFFFFFFFFFFFFFFFFFFFFFFFFFFFFFFFFFFFFFFFFFFF
310
FFFFFFFFFFFFFFFFFFFFFFFFFFFFFFFFFFFFFFFFFFFFFFFFFFFFFFFFFFFFFFFF
310
FFFFFFFFFFFFFFFFFFFFFFFFFFFFFFFFFFFFFFFFFFFFFFFFFFFFFFFFFFFFFFFF
310
FFFFFFFFFFFFFFFFFFFFFFFFFFFFFFFFFFFFFFFFFFFFFFFFFFFFFFFFFFFFFFFF
310
FFFFFFFFFFFFFFFFFFFFFFFFFFFFFFFFFFFFFFFFFFFFFFFFFFFFFFFFFFFFFFFF
310
FFFFFFFFFFFFFFFFFFFFFFFFFFFFFFFFFFFFFFFFFFFFFFFFFFFFFFFFFFFFFFFF
310
FFFFFFFFFFFFFFFFFFFFFFFFFFFFFFFFFFFFFFFFFFFFFFFFFFFFFFFFFFFFFFFF
310
FFFFFFFFFFFFFFFFFFFFFFFFFFFFFFFFFFFFFFFFFFFFFFFFFFFFFFFFFFFFFFFF
310
FFFFFFFFFFFFFFFFFFFFFFFFFFFFFFFFFFFFFFFFFFFFFFFFFFFFFFFFFFFFFFFF
310
FFFFFFFFFFFFFFFFFFFFFFFFFFFFFFFFFFFFFFFFFFFFFFFFFFFFFFFFFFFFFFFF
310
FFFFFFFFFFFFFFFFFFFFFFFFFFFFFFFFFFFFFFFFFFFFFFFFFFFFFFFFFFFFFFFF
310
52006F006F007400200045006E00740072007900000000000000000000000000
310
0000000000000000000000000000000000000000000000000000000000000000
310
16000500FFFFFFFFFFFFFFFF020000000A00030000000000C000000000000046
310
0000000000000000000000000057D5719305CC0103000000C000000000000000
310
01004F006C006500000000000000000000000000000000000000000000000000
310
0000000000000000000000000000000000000000000000000000000000000000
310
0A000200FFFFFFFFFFFFFFFFFFFFFFFF00000000000000000000000000000000
310
0000000000000000000000000000000000000000000000001400000000000000
310
010043006F006D0070004F0062006A0000000000000000000000000000000000
310
0000000000000000000000000000000000000000000000000000000000000000
310
120002010100000003000000FFFFFFFF00000000000000000000000000000000
310
0000000000000000000000000000000000000000010000004D00000000000000
310
01004F006C006500310030004E00610074006900760065000000000000000000
310
0000000000000000000000000000000000000000000000000000000000000000
310
1A000200FFFFFFFFFFFFFFFFFFFFFFFF00000000000000000000000000000000
310
0000000000000000000000000000000000000000040000002426000000000000
310
FEFFFFFF02000000FEFFFFFFFFFFFFFFFFFFFFFFFFFFFFFFFFFFFFFFFFFFFFFF
310
FFFFFFFFFFFFFFFFFFFFFFFFFFFFFFFFFFFFFFFFFFFFFFFFFFFFFFFFFFFFFFFF
310
FFFFFFFFFFFFFFFFFFFFFFFFFFFFFFFFFFFFFFFFFFFFFFFFFFFFFFFFFFFFFFFF
310
FFFFFFFFFFFFFFFFFFFFFFFFFFFFFFFFFFFFFFFFFFFFFFFFFFFFFFFFFFFFFFFF
310
FFFFFFFFFFFFFFFFFFFFFFFFFFFFFFFFFFFFFFFFFFFFFFFFFFFFFFFFFFFFFFFF
310
FFFFFFFFFFFFFFFFFFFFFFFFFFFFFFFFFFFFFFFFFFFFFFFFFFFFFFFFFFFFFFFF
310
FFFFFFFFFFFFFFFFFFFFFFFFFFFFFFFFFFFFFFFFFFFFFFFFFFFFFFFFFFFFFFFF
310
FFFFFFFFFFFFFFFFFFFFFFFFFFFFFFFFFFFFFFFFFFFFFFFFFFFFFFFFFFFFFFFF
310
FFFFFFFFFFFFFFFFFFFFFFFFFFFFFFFFFFFFFFFFFFFFFFFFFFFFFFFFFFFFFFFF
310
FFFFFFFFFFFFFFFFFFFFFFFFFFFFFFFFFFFFFFFFFFFFFFFFFFFFFFFFFFFFFFFF
310
FFFFFFFFFFFFFFFFFFFFFFFFFFFFFFFFFFFFFFFFFFFFFFFFFFFFFFFFFFFFFFFF
310
FFFFFFFFFFFFFFFFFFFFFFFFFFFFFFFFFFFFFFFFFFFFFFFFFFFFFFFFFFFFFFFF
310
FFFFFFFFFFFFFFFFFFFFFFFFFFFFFFFFFFFFFFFFFFFFFFFFFFFFFFFFFFFFFFFF
310
FFFFFFFFFFFFFFFFFFFFFFFFFFFFFFFFFFFFFFFFFFFFFFFFFFFFFFFFFFFFFFFF
310
FFFFFFFFFFFFFFFFFFFFFFFFFFFFFFFFFFFFFFFFFFFFFFFFFFFFFFFFFFFFFFFF
310
FFFFFFFFFFFFFFFFFFFFFFFFFFFFFFFFFFFFFFFFFFFFFFFFFFFFFFFFFFFFFFFF
310
0100000200000000000000000000000000000000000000000000000000000000
310
00000000000000003800000041000000E00DB60400000000620D410500000000
310
0100FEFF030A0000FFFFFFFF0A00030000000000C00000000000004607000000
310
5042727573680007000000504272757368000700000050427275736800F439B2
310
7100000000000000000000000000000000000000000000000000C70600000000
310
425D000000000000000000000000000000000000000000003800000041000000
310
E00DB60400000000DC0D26040000000000000000000000000000000000000000
310
0000C70600000000435D00000000000000000000000000000000000000000000
310
3800000041000000E00DB60400000000760D4103000000000000000000000000
310
00000000000000000000C706000000003D5D0000000000000000000000000000
310
00000000000000003800000041000000E00DB60400000000BA0D240500000000
310
000000000000000000000000000000000000C706000000003E5D000000000000
310
000000000000000000000000000000003800000041000000E00DB60400000000
310
B20D030500000000000000000000000000000000000000000000C70600000000
310
3F5D000000000000000000000000000000000000000000003800000041000000
310
E00DB60400000000B00DE7040000000000000000000000000000000000000000
310
20260000424D0E260000000000003E00000028000000B40200006E0000000100
310
01000000000000000000130B0000130B00000200000002000000000000FFFFFF
310
FFFFFFFFFFFFFFFFFFFFFFFFFFFFFFFFFFFFFFFFFFFFFFFFFFFFFFFFFFFFFFFF
310
FFFFFFFFFFFFFFFFFFFFFFFFFFFFFFFFFFFFFFFFFFFFFFFFFFFFFFFFFFFFFFFF
310
FFFFFFFFFFFFFFFFFFFFFFFFFFFFFFFFFFFFFFFFFFFFFFFFF000FFFFFFFFFFFF
310
FFFFFFFFFFFFFFFFFFFFFFFFFFFFFFFFFFFFFFFFFFFFFFFFFFFFFFFFFFFFFFFF
310
FFFFFFFFFFFFFFFFFFFFFFFFFFFFFFFFFFFFFFFFFFFFFFFFFFFFFFFFFFFFFFFF
310
FFFFFFFFFFFFFFFFFFFFFFFFFFFFFFFFF000FFFFFFFFFFFFFFFFFFFFFFFFFFFF
310
FFFFFFFFFFFFFFFFFFFFFFFFFFFFFFFFFFFFFFFFFFFFFFFFFFFFFFFFFFFFFFFF
310
FFFFFFFFFFFFFFFFFFFFFFFFFFFFFFFFFFFFFFFFFFFFFFFFFFFFFFFFFFFFFFFF
310
FFFFFFFFFFFFFFFFF000FFFFFFFFFFFFFFFFFFFFFFFFFFFFFFFFFFFFFFFFFFFF
310
FFFFFFFFFFFFFFFFFFFFFFFFFFFFFFFFFFFFFFFFFFFFFFFFFFFFFFFFFFFFFFFF
310
FFFFFFFFFFFFFFFFFFFFFFFFFFFFFFFFFFFFFFFFFFFFFFFFFFFFFFFFFFFFFFFF
310
F000FFFFFFFFFFFFFFFFFFFFFFFFFFFFFFFFFFFFFFFFFFFFFFFFFFFFFFFFFFFF
310
FFFFFFFFFFFFFFFFFFFFFFFFFFFFFFFFFFFFFFFFFFFFFFFFFFFFFFFFFFFFFFFF
310
FFFFFFFFFFFFFFFFFFFFFFFFFFFFFFFFFFFFFFFFFFFFFFFFF000FFFFFFFFFFFF
310
FFFFFFFFFFFFFFFFFFFFFFFFFFFFFFFFFFFFFFFFFFFFFFFFFFFFFFFFFFFFFFFF
310
FFFFFFFFFFFFFFFFFFFFFFFFFFFFFFFFFFFFFFFFFFFFFFFFFFFFFFFFFFFFFFFF
310
FFFFFFFFFFFFFFFFFFFFFFFFFFFFFFFFF000FFFFFFFFFFFFFFFFFFFFFFFFFFFF
310
FFFFFFFFFFFFFFFFFFFFFFFFFFFFFFFFFFFFFFFFFFFFFFFFFFFFFFFFFFFFFFFF
310
FFFFFFFFFFFFFFFFFFFFFFFFFFFFFFFFFFFFFFFFFFFFFFFFFFFFFFFFFFFFFFFF
310
FFFFFFFFFFFFFFFFF000FFFFFFFFFFFFFFFFFFFFFFFFFFFFFFFFFFFFFFFFFFFF
310
FFFFFFFFFFFFFFFFFFFFFFFFFFFFFFFFFFFFFFFFFFFFFFFFFFFFFFFFFFFFFFFF
310
FFFFFFFFFFFFFFFFFFFFFFFFFFFFFFFFFFFFFFFFFFFFFFFFFFFFFFFFFFFFFFFF
310
F000FFFFFFFFFFFFFFFFFFFFFFFFFFFFFFFFFFFFFFFFFFFFFFFFFFFFFFFFFFFF
310
FFFFFFFFFFFFFFFFFFFFFFFFFFFFFFFFFFFFFFFFFFFFFFFFFFFFFFFFFFFFFFFF
310
FFFFFFFFFFFFFFFFFFFFFFFFFFFFFFFFFFFFFFFFFFFFFFFFF000FFFFFFFFFFFF
310
FFFFFFFFFFFFFFFFFFFFFFFFFFFFFFFFFFFFFFFFFFFFFFFFFFFFFFFFFFFFFFFF
310
FFFFFFFFFFFFFFFFFFFFFFFFFFFFFFFFFFFFFFFFFFFFFFFFFFFFFFFFFFFFFFFF
310
FFFFFFFFFFFFFFFFFFFFFFFFFFFFFFFFF000FFFFFFFFFFFFFFFFFFFFFFFFFFFF
310
FFFFFFFFFFFFFFFFFFFFFFFFFFFFFFFFFFFFFFFFFFFFFFFFFFFFFFFFFFFFFFFF
310
FFFFFFFFFFFFFFFFFFFFFFFFFFFFFFFFFFFFFFFFFFFFFFFFFFFFFFFFFFFFFFFF
310
FFFFFFFFFFFFFFFFF000FFFFFFFFFFFFFFFFFFFFFFFFFFFFFFFFFFFFFFFFFFFF
310
FFFFFFFFFFFFFFFFFFFFFFFFFFFFFFFFFFFFFFFFFFFFFFFFFFFFFFFFFFFFFFFF
310
FFFFFFFFFFFFFFFFFFFFFFFFFFFFFFFFFFFFFFFFFFFFFFFFFFFFFFFFFFFFFFFF
310
F000FFFFFFFFFFFFFFFFFFFFFFFFFFFFFFFFFFFFFFFFFFFFFFFFFFFFFFFFFFFF
310
FFFFFFFFFFFFFFFFFFFFFFFFFFFFFFFFFFFFFFFFFFFFFFFFFFFFFFFFFFFFFFFF
310
FFFFFFFFFFFFFFFFFFFFFFFFFFFFFFFFFFFFFFFFFFFFFFFFF000FFFFFFFFFFFF
310
FFFFFFFFFFFFFFFFFFFFFFFFFFFFFFFFFFFFFFFFFFFFFFFFFFFFFFFFFFFFFFFF
310
FFFFFFFFFFFFFFFFFFFFFFFFFFFFFFFFFFFFFFFFFFFFFFFFFFFFFFFFFFFFFFFF
310
FFFFFFFFFFFFFFFFFFFFFFFFFFFFFFFFF000FFFFFFFFFFFFFFFFFFFFFFFFFFFF
310
FFFFFFFFFFFFFFFFFFFFFFFFFFFFFFFFFFFFFFFFFFFFFFFFFFFFFFFFFFFFFFFF
310
FFFFFFFFFFFFFFFFFFFFFFFFFFFFFFFFFFFFFFFFFFFFFFFFFFFFFFFFFFFFFFFF
310
FFFFFFFFFFFFFFFFF000FFFFFFFFFFFFFFFFFFFFFFFFFFFFFFFFFFFFFFFFFFFF
310
FFFFFFFFFFFFFFFFFFFFFFFFFFFFFFFFFFFFFFFFFFFFFFFFFFFFFFFFFFFFFFFF
310
FFFFFFFFFFFFFFFFFFFFFFFFFFFFFFFFFFFFFFFFFFFFFFFFFFFFFFFFFFFFFFFF
310
F000FFFFFFFFFFFFFFFFFFFFFFFFFFFFFFFFFFFFFFFFFFFFFFFFFFFFFFFFFFFF
310
FFFFFFFFFFFFFFFFFFFFFFFFFFFFFFFFFFFFFFFFFFFFFFFFFFFFFFFFFFFFFFFF
310
FFFFFFFFFFFFFFFFFFFFFFFFFFFFFFFFFFFFFFFFFFFFFFFFF000FFFFFFFFFFFF
310
FFFFFFFFFFFFFFFFFFFFFFFFFFFFFFFFFFFFFFFFFFFFFFFFFFFFFFFFFFFFFFFF
310
FFFFFFFFFFFFFFFFFFFFFFFFFFFFFFFFFFFFFFFFFFFFFFFFFFFFFFFFFFFFFFFF
310
FFFFFFFFFFFFFFFFFFFFFFFFFFFFFFFFF000FFFFFFFFFFFFFFFFFFFFFFFFFFFF
310
FFFFFFFFFFFFFFFFFFFFFFFFFFFFFFFFFFFFFFFFFFFFFFFFFFFFFFFFFFFFFFFF
310
FFFFFFFFFFFFFFFFFFFFFFFFFFFFFFFFFFFFFFFFFFFFFFFFFFFFFFFFFFFFFFFF
310
FFFFFFFFFFFFFFFFF000FFFFF80003FFFFFFFFFFFFFFFFFFFFFFFFFFFFFFFFFF
310
FFFFF00007FFFFFFFFFF00007FFFFFF800000000000000007FFFFFFFFFFFFFFF
310
FFFFFFFC001FFFFFFFFFFFFFFC001FFFFFFFFFFFFFFFFFFFFFFFFFFE0007FFFF
310
F000FFFF8000007FFFFFFFF8000FFFFFC0007FFFFF80007FFFFF0000007FFFFF
310
FFF8000007FFFFF800000000000000007FFFFFF0001FFFFFFFFFFFC00001FFFF
310
FFFFFFFFC00001FFFFFFFF000000000003FFFFE000007FFFF000FFFE0000000F
310
FFFFFFF0000FFFFF80007FFFFF80007FFFFC0000001FFFFFFFC0000001FFFFF8
310
00000000000000007FFFFFF0001FFFFFFFFFFE0000003FFFFFFFFFFE0000003F
310
FFFFFF000000000003FFFF0000000FFFF000FFF800000003FFFFFFF00007FFFF
310
80007FFFFF80007FFFF000000007FFFFFF000000003FFFF80000000000000000
310
7FFFFFF0001FFFFFFFFFF80000000FFFFFFFFFF80000000FFFFFFF0000000000
310
03FFFC00000003FFF000FFE000000000FFFFFFF00007FFFF80003FFFFF80007F
310
FFC000000001FFFFFC000000001FFFF800000000000000007FFFFFF0001FFFFF
310
FFFFE000000003FFFFFFFFE000000003FFFFFF000000000003FFF000000000FF
310
F000FF80000000007FFFFFF00007FFFF80003FFFFF80007FFF8000000000FFFF
310
F80000000007FFF800000000000000007FFFFFF0001FFFFFFFFFC000000001FF
310
FFFFFFC000000001FFFFFF000000000003FFC0000000007FF000FF0000000000
310
3FFFFFE00007FFFF00003FFFFF80007FFE00000000003FFFF00000000003FFF8
310
00000000000000007FFFFFF0001FFFFFFFFF8000000000FFFFFFFF8000000000
310
FFFFFF000000000003FF80000000003FF000FE00000000001FFFFFE00003FFFF
310
00003FFFFF80007FFC00000000001FFFE00000000001FFF8000001FFFE000000
310
7FFFFFF0001FFFFFFFFE00000000003FFFFFFE00000000003FFFFF0000000000
310
03FF00000000001FF000FC00000000000FFFFFE00003FFFF00001FFFFF80007F
310
F800000000001FFFC00000000000FFF8000001FFFE0000007FFFFFF0001FFFFF
310
FFFC00000000001FFFFFFC00000000001FFFFF000000000003FE00000000000F
310
F000F8000000000007FFFFE00003FFFF00001FFFFF80007FF800000000000FFF
310
800000000000FFF8000001FFFE0000007FFFFFF0001FFFFFFFF800000000000F
310
FFFFF800000000000FFFFF000000000003FC000000000007F000F80000000000
310
03FFFFC00003FFFE00001FFFFF80007FF0000000000007FF0000000000007FF8
310
000001FFFE0000007FFFFFF0001FFFFFFFF0000000000007FFFFF00000000000
310
07FFFF000000000003F8000000000003F000F0000000000003FFFFC00001FFFE
310
00001FFFFF80007FE0000000000007FE0000000000003FF8000001FFFE000000
310
7FFFFFF0001FFFFFFFF0000000000007FFFFF0000000000007FFFF0000000000
310
03F800001F800003F000E00001FFF00001FFFFC00001FFFE00000FFFFF80007F
310
E00001FFE00003FE00001FFF00003FF8000001FFFE0000007FFFFFF0001FFFFF
310
FFE000003E000003FFFFE000003E000003FFFF000000000003F00001FFF80001
310
F000E00007FFFC0001FFFFC00001FFFE00000FFFFF80007FC0000FFFFC0003FC
310
0000FFFFC0001FF8000001FFFE0000007FFFFFF0001FFFFFFFC00003FFE00001
310
FFFFC00003FFE00001FFFF0001FFFFFFFFF00007FFFE0001F000E0000FFFFF00
310
00FFFF800001FFFC00000FFFFF80007FC0001FFFFE0001FC0001FFFFE0001FF8
310
000001FFFE0000007FFFFFF0001FFFFFFF80000FFFF80000FFFF80000FFFF800
310
00FFFF0003FFFFFFFFE0000FFFFF8000F000C0003FFFFF8000FFFF800000FFFC
310
000007FFFF80007F80003FFFFF0001FC0003FFFFF0001FF8000001FFFE000000
310
7FFFFFF0001FFFFFFF80003FFFFE0000FFFF80003FFFFE0000FFFF0003FFFFFF
310
FFE0003FFFFF8000F000C0003FFFFF8000FFFF800000FFFC000007FFFF80007F
310
80007FFFFF8001F80007FFFFF8000FF8000001FFFE0000007FFFFFF0001FFFFF
310
FF00007FFFFF00007FFF00007FFFFF00007FFF0003FFFFFFFFE0003FFFFFC000
310
F000C0007FFFFFC000FFFF000000FFFC000007FFFF80007F8000FFFFFF8000F8
310
000FFFFFF8000FF8000001FFFE0000007FFFFFF0001FFFFFFF0000FFFFFF8000
310
7FFF0000FFFFFF80007FFF0003FFFFFFFFC0007FFFFFC00070008000FFFFFFC0
310
00FFFF000000FFF8000007FFFF80007F8000FFFFFF8000F8000FFFFFF8000FF8
310
000001FFFE0000007FFFFFF0001FFFFFFE0001FFFFFFC0003FFE0001FFFFFFC0
310
003FFF0003FFFFFFFFC0007FFFFFE00070008000FFFFFFC0007FFF0000007FF8
310
000003FFFF80007F0001FFFFFF8000F8000FFFFFF8000FF8000001FFFE000000
310
7FFFFFF0001FFFFFFE0001FFFFFFC0003FFE0001FFFFFFC0003FFF0003FFFFFF
310
FFC000FFFFFFE00070008000FFFFFFC0007FFF0000007FF8000003FFFF80007F
310
0001FFFFFF8000F8001FFFFFF8000FF8000001FFFE0000007FFFFFF0001FFFFF
310
FE0003FFFFFFE0003FFE0003FFFFFFE0003FFF0003FFFFFFFFC000FFFFFFE000
310
70008000FFFFFFC0007FFE0000007FF8000003FFFF80007F0001FFFFFF8000F0
310
001FFFFFF8000FF8000001FFFE0000007FFFFFF0001FFFFFFC0003FFFFFFE000
310
1FFC0003FFFFFFE0001FFF0003FFFFFFFFC000FFFFFFC00070008000FFFFFF80
310
007FFE0000007FF0000003FFFF80007F0001FFFFFF0000F0001FFFFFF8000FF8
310
000001FFFE0000007FFFFFF0001FFFFFFC0007FFFFFFF0001FFC0007FFFFFFF0
310
001FFF0003FFFFFFFFC000FFFFFFC00070008001FFFFFF0000FFFE0000003FF0
310
000001FFFF80007F0001FFFFFF0000F8001FFFFFF0000FF8000001FFFE000000
310
7FFFFFF0001FFFFFFC0007FFFFFFF0001FFC0007FFFFFFF0001FFF0003FFFFFF
310
FFC001FFFFFF80007000FFFFFFFFFE0000FFFE0008003FF0008001FFFF80007F
310
FFFFFFFFFC0000FFFFFFFFFFE0000FF8000001FFFE0000007FFFFFF0001FFFFF
310
F8000FFFFFFFF8000FF8000FFFFFFFF8000FFF0003FFFFFFFFFFFFFFFFFF0000
310
7000FFFFFFFFFC0000FFFC0008003FF0008001FFFF80007FFFFFFFFFF80001FF
310
FFFFFFFF80000FF8000001FFFE0000007FFFFFF0001FFFFFF8000FFFFFFFF800
310
0FF8000FFFFFFFF8000FFF0003FFFFFFFFFFFFFFFFFE0000F000FFFFFFFFE000
310
00FFFC000C003FE000C001FFFF80007FFFFFFFFFC00001FFFFFFFFFE00001FF8
310
000001FFFE0000007FFFFFF0001FFFFFF8000FFFFFFFF8000FF8000FFFFFFFF8
310
000FFF0003FFFFFFFFFFFFFFFFF00000F000FFFFFFFE000001FFFC000C001FE0
310
00C000FFFF80007FFFFFFFFE000001FFFFFFFFE000001FF80FFFFFFFFFFFFFC0
310
7FFFFFF0001FFFFFF8000FFFFFFFF8000FF8000FFFFFFFF8000FFF0003FFFFFF
310
FFFFFFFFFF800000F000FFFFFFC0000001FFFC001C001FE001C000FFFF80007F
310
FFFFFF80000003FFFFFFF80000001FF80FFFFFFFFFFFFFC07FFFFFF0001FFFFF
310
F8001FFFFFFFFC000FF8001FFFFFFFFC000FFF0003FFFFFFFFFFFFFFF0000001
310
F000FFFFF800000001FFF8001C001FE001C000FFFF80007FFFFFF800000003FF
310
FFFF800000003FF80FFFFFFFFFFFFFC07FFFFFF0001FFFFFF8001FFFFFFFFC00
310
0FF8001FFFFFFFFC000FFF0003FFFFFFFFFFFFFE00000001F000FFFFC0000000
310
03FFF8001E001FC001E000FFFF80007FFFFF8000000007FFFFFC000000003FF8
310
0FFFFFFFFFFFFFC07FFFFFF0001FFFFFF8001FFFFFFFFC000FF8001FFFFFFFFC
310
000FFF0003FFFFFFFFFFFFE000000003F000FFFE0000000007FFF8001E000FC0
310
01E0007FFF80007FFFFE0000000007FFFFE0000000007FF80FFFFFFFFFFFFFC0
310
7FFFFFF0001FFFFFF0001FFFFFFFFC0007F0001FFFFFFFFC0007FF0003FFFFFF
310
FFFFFF0000000003F000FFF80000000007FFF8001E000FC003E0007FFF80007F
310
FFF0000000000FFFFF8000000000FFF80FFFFFFFFFFFFFC07FFFFFF0001FFFFF
310
F0001FFFFFFFFC0007F0001FFFFFFFFC0007FF0003FFFFFFFFFFFC0000000007
310
F000FFE0000000000FFFF0003E000FC003E0007FFF80007FFFC0000000001FFF
310
FE0000000001FFF80FFFFFFFFFFFFFC07FFFFFF0001FFFFFF0001FFFFFFFFC00
310
07F0001FFFFFFFFC0007FF0003FFFFFFFFFFF0000000000FF000FFC000000000
310
1FFFF0003F000F8003F0003FFF80007FFF80000000003FFFF80000000003FFF8
310
0FFFFFFFFFFFFFC07FFFFFF0001FFFFFF0001FFFFFFFFC0007F0001FFFFFFFFC
310
0007FF0003FFFFFFFFFFE0000000001FF000FF00000000007FFFF0003F000780
310
03F0003FFF80007FFF00000000007FFFF00000000007FFF80FFFFFFFFFFFFFC0
310
7FFFFFF0001FFFFFF0001FFFFFFFFC0007F0001FFFFFFFFC0007FF0003FFFFFF
310
FFFF80000000007FF000FE0000000000FFFFE0003F00078007F0003FFF80007F
310
FE0000000001FFFFE0000000001FFFF80FFFFFFFFFFFFFC07FFFFFF0001FFFFF
310
F0001FFFFFFFFC0007F0001FFFFFFFFC0007FF0003FFFFFFFFFF0000000000FF
310
F000FC0000000003FFFFE0007F00078007F0003FFF80007FFC0000000007FFFF
310
C0000000007FFFF80FFFFFFFFFFFFFC07FFFFFF0001FFFFFF8001FFFFFFFFC00
310
0FF8001FFFFFFFFC000FFF0003FFFFFFFFFE0000000003FFF000FC000000000F
310
FFFFE0007F80070007F8001FFF80007FF8000000001FFFFF8000000001FFFFF8
310
0FFFFFFFFFFFFFC07FFFFFF0001FFFFFF8001FFFFFFFFC000FF8001FFFFFFFFC
310
000FFF0003FFFFFFFFFC000000000FFFF000F8000000007FFFFFE0007F800700
310
07F8001FFF80007FF000000000FFFFFF800000000FFFFFF80FFFFFFFFFFFFFC0
310
7FFFFFF0001FFFFFF8000FFFFFFFF8000FF8000FFFFFFFF8000FFF0003FFFFFF
310
FFFC000000007FFFF000F800000007FFFFFFC0007F8003000FF8001FFF80007F
310
F000000007FFFFFF000000007FFFFFF80FFFFFFFFFFFFFC07FFFFFF0001FFFFF
310
F8000FFFFFFFF8000FF8000FFFFFFFF8000FFF0003FFFFFFFFF80000000FFFFF
310
F000F0000000FFFFFFFFC000FF8003000FF8001FFF80007FE0000000FFFFFFFF
310
0000000FFFFFFFF8000001FFFE0000007FFFFFF0001FFFFFF8000FFFFFFFF800
310
0FF8000FFFFFFFF8000FFF0003FFFFFFFFF8000000FFFFFFF000F000000FFFFF
310
FFFFC000FFC002000FF8000FFF80007FE000001FFFFFFFFE000001FFFFFFFFF8
310
000001FFFE0000007FFFFFF0001FFFFFF8000FFFFFFFF8000FF8000FFFFFFFF8
310
000FFF0003FFFFFFFFF000001FFFFFFFF000E00000FFFFFFFFFFC000FFC00200
310
0FFC000FFF80007FE00001FFFFFFFFFE00001FFFFFFFFFF8000001FFFE000000
310
7FFFFFF0001FFFFFFC000FFFFFFFF8001FFC000FFFFFFFF8001FFF0003FFFFFF
310
FFF00001FFFFFFFFF000E00007FFFFFFFFFF8000FFC000001FFC000FFF80007F
310
C0000FFFFFFFFFFE0000FFFFFFFFFFF8000001FFFE0000007FFFFFF0001FFFFF
310
FC0007FFFFFFF0001FFC0007FFFFFFF0001FFF0003FFFFFFFFF00007FFFFFFFF
310
F000E0001FFFFFFFFFFF8000FFC000001FFC000FFF80007FC0003FFFFFFFFFFE
310
0001FFFFFFFFFFF8000001FFFE0000007FFFFFF0001FFFFFFC0007FFFFFFF000
310
1FFC0007FFFFFFF0001FFF0003FFFFFFFFF0001FFFFFFFFFF000E0003FFFFF00
310
03FF8001FFE000001FFC0007FF80007FC0007FFFFF0007FC0003FFFFF0003FF8
310
000001FFFE0000007FFFFFF0001FFFFFFC0003FFFFFFE0001FFC0003FFFFFFE0
310
001FFF0003FFFFFFFFF0003FFFFFFFFFF000E0003FFFFF0001FF8001FFE00000
310
1FFE0007FF80007FC0007FFFFE0003FC0007FFFFE0003FF8000001FFFE000000
310
7FFFFFF0001FFFFFFE0003FFFFFFE0003FFE0003FFFFFFE0003FFF0003FFFFFF
310
FFF0003FFFFF8001F000E0003FFFFF0001FF0001FFE000001FFE0007FF80007F
310
C0007FFFFE0003FC0007FFFFE0003FF8000001FFFE0000007FFFFFF0001FFFFF
310
FE0001FFFFFFC0003FFE0001FFFFFFC0003FFF0003FFFFFFFFF0003FFFFF0001
310
F000E0003FFFFF0003FF0001FFE000003FFE0007FF80007FC0007FFFFE0003FC
310
0007FFFFE0003FF8000001FFFE0000007FFFFFF0001FFFFFFF0001FFFFFFC000
310
7FFF0001FFFFFFC0007FFF0003FFFFFFFFF0003FFFFF0001F000E0003FFFFE00
310
03FF0003FFF000003FFE0003FF80007FC0007FFFFC0003FE0007FFFFE0003FF8
310
000001FFFE0000007FFFFFF0001FFFFFFF0000FFFFFF80007FFF0000FFFFFF80
310
007FFF0003FFFFFFFFF0003FFFFF0001F000E0003FFFFE0003FF0003FFF00000
310
3FFF0003FF80007FC0007FFFFC0007FE0007FFFFC0003FF8000001FFFE000000
310
7FFFFFF0001FFFFFFF80007FFFFF0000FFFF80007FFFFF0000FFFF0003FFFFFF
310
FFF0003FFFFF0003F000E0003FFFFC0003FE0003FFF000003FFF0003FF80007F
310
E0003FFFF80007FE0003FFFFC0007FF8000001FFFE0000007FFFFFF0001FFFFF
310
FF80003FFFFE0000FFFF80003FFFFE0000FFFF0003FFFFFFFFF0001FFFFE0003
310
F000F0001FFFF80003FE0003FFF000007FFF0001FF80007FE0003FFFF00007FE
310
0001FFFF80007FF8000001FFFE0000007FFFFFF0001FFFFFFFC0000FFFF80001
310
FFFFC0000FFFF80001FFFF0003FFFFFFFFF0001FFFFC0003F000F0000FFFF000
310
07FE0007FFF800007FFF0001FF80007FE0001FFFE00007FF0000FFFE00007FF8
310
000001FFFE0000007FFFFFF0001FFFFFFFC00003FFE00001FFFFC00003FFE000
310
01FFFF0003FFFFFFFFF8000FFFF80003F000F00003FFC00007FC0007FFF80000
310
7FFF8001FF80007FF00007FF80000FFF00007FF80000FFF8000001FFFE000000
310
7F80000000000001FFE000003E000003FFFFE000003E000003FFFF0003FFFFFF
310
FFF80003FFE00007F000F800000000000FFC0007FFF800007FFF8001FF80007F
310
F000000000000FFF000000000000FFF8000001FFFE0000007F80000000000001
310
FFF0000000000007FFFFF0000000000007FFFF0003FFFFFFFFFC00007E000007
310
F000F800000000000FFC0007FFF80000FFFF8000FF80007FF800000000001FFF
310
800000000001FFF8000001FFFE0000007F80000000000001FFF800000000000F
310
FFFFF800000000000FFFFF0003FFFFFFFFFC00000000000FF000FC0000000000
310
1FFC0007FFFC0000FFFF8000FF80007FF800000000003FFFC00000000001FFF8
310
000001FFFE0000007F80000000000001FFF800000000000FFFFFF80000000000
310
0FFFFF0003FFFFFFFFFE00000000001FF000FE00000000003FF8000FFFFC0000
310
FFFF8000FF80007FFC00000000003FFFC00000000003FFF8000001FFFE000000
310
7F80000000000001FFFC00000000001FFFFFFC00000000001FFFFF0003FFFFFF
310
FFFF00000000001FF000FF00000000003FF8000FFFFC0000FFFFC000FF80007F
310
FE00000000007FFFE00000000007FFF8000001FFFE0000007F80000000000001
310
FFFE00000000003FFFFFFE00000000003FFFFF0003FFFFFFFFFF80000000003F
310
F000FF80000000007FF8000FFFFC0001FFFFC0007F80007FFF0000000000FFFF
310
F0000000000FFFF800000000000000007F80000000000001FFFF8000000000FF
310
FFFFFF8000000000FFFFFF0003FFFFFFFFFFC0000000007FF000FFC000000000
310
FFF8000FFFFE0001FFFFC0007F80007FFF8000000001FFFFF8000000001FFFF8
310
00000000000000007F80000000000001FFFFC000000001FFFFFFFFC000000001
310
FFFFFF0003FFFFFFFFFFE000000000FFF000FFE000000003FFF0001FFFFE0001
310
FFFFC0007F80007FFFC000000007FFFFFE000000003FFFF80000000000000000
310
7F80000000000001FFFFE000000003FFFFFFFFE000000003FFFFFF0003FFFFFF
310
FFFFF000000003FFF000FFF80000000FFFF0001FFFFE0001FFFFE0007F80007F
310
FFF00000000FFFFFFF00000000FFFFF800000000000000007F80000000000001
310
FFFFF80000000FFFFFFFFFF80000000FFFFFFF0003FFFFFFFFFFFC0000000FFF
310
F000FFFE0000003FFFF0001FFFFE0003FFFFE0003F80007FFFFC0000003FFFFF
310
FFC0000003FFFFF800000000000000007F80000000000001FFFFFE0000003FFF
310
FFFFFFFE0000003FFFFFFF0003FFFFFFFFFFFF0000003FFFF000FFFF800000FF
310
FFF0001FFFFF0003FFFFE0003F80007FFFFF000001FFFFFFFFF800001FFFFFF8
310
00000000000000007F80000000000001FFFFFFC00001FFFFFFFFFFFFC00001FF
310
FFFFFF0003FFFFFFFFFFFFC00000FFFFF000FFFFF8000FFFFFFFFFFFFFFFFFFF
310
FFFFFFFFFFFFFFFFFFFFF0001FFFFFFFFFFF0000FFFFFFF80000000000000000
310
7FFFFFFFFFFFFFFFFFFFFFFC001FFFFFFFFFFFFFFC001FFFFFFFFFFFFFFFFFFF
310
FFFFFFFC001FFFFFF000FFFFFFFFFFFFFFFFFFFFFFFFFFFFFFFFFFFFFFFFFFFF
310
FFFFFFFFFFFFFFFFFFFFFFFFFFFFFFFFFFFFFFFFFFFFFFFFFFFFFFFFFFFFFFFF
310
FFFFFFFFFFFFFFFFFFFFFFFFFFFFFFFFFFFFFFFFFFFFFFFFFFFFFFFFFFFFFFFF
310
F000FFFFFFFFFFFFFFFFFFFFFFFFFFFFFFFFFFFFFFFFFFFFFFFFFFFFFFFFFFFF
310
FFFFFFFFFFFFFFFFFFFFFFFFFFFFFFFFFFFFFFFFFFFFFFFFFFFFFFFFFFFFFFFF
310
FFFFFFFFFFFFFFFFFFFFFFFFFFFFFFFFFFFFFFFFFFFFFFFFF000FFFFFFFFFFFF
310
FFFFFFFFFFFFFFFFFFFFFFFFFFFFFFFFFFFFFFFFFFFFFFFFFFFFFFFFFFFFFFFF
310
FFFFFFFFFFFFFFFFFFFFFFFFFFFFFFFFFFFFFFFFFFFFFFFFFFFFFFFFFFFFFFFF
310
FFFFFFFFFFFFFFFFFFFFFFFFFFFFFFFFF000FFFFFFFFFFFFFFFFFFFFFFFFFFFF
310
FFFFFFFFFFFFFFFFFFFFFFFFFFFFFFFFFFFFFFFFFFFFFFFFFFFFFFFFFFFFFFFF
310
FFFFFFFFFFFFFFFFFFFFFFFFFFFFFFFFFFFFFFFFFFFFFFFFFFFFFFFFFFFFFFFF
310
FFFFFFFFFFFFFFFFF000FFFFFFFFFFFFFFFFFFFFFFFFFFFFFFFFFFFFFFFFFFFF
310
FFFFFFFFFFFFFFFFFFFFFFFFFFFFFFFFFFFFFFFFFFFFFFFFFFFFFFFFFFFFFFFF
310
FFFFFFFFFFFFFFFFFFFFFFFFFFFFFFFFFFFFFFFFFFFFFFFFFFFFFFFFFFFFFFFF
310
F000FFFFFFFFFFFFFFFFFFFFFFFFFFFFFFFFFFFFFFFFFFFFFFFFFFFFFFFFFFFF
310
FFFFFFFFFFFFFFFFFFFFFFFFFFFFFFFFFFFFFFFFFFFFFFFFFFFFFFFFFFFFFFFF
310
FFFFFFFFFFFFFFFFFFFFFFFFFFFFFFFFFFFFFFFFFFFFFFFFF000FFFFFFFFFFFF
310
FFFFFFFFFFFFFFFFFFFFFFFFFFFFFFFFFFFFFFFFFFFFFFFFFFFFFFFFFFFFFFFF
310
FFFFFFFFFFFFFFFFFFFFFFFFFFFFFFFFFFFFFFFFFFFFFFFFFFFFFFFFFFFFFFFF
310
FFFFFFFFFFFFFFFFFFFFFFFFFFFFFFFFF000FFFFFFFFFFFFFFFFFFFFFFFFFFFF
310
FFFFFFFFFFFFFFFFFFFFFFFFFFFFFFFFFFFFFFFFFFFFFFFFFFFFFFFFFFFFFFFF
310
FFFFFFFFFFFFFFFFFFFFFFFFFFFFFFFFFFFFFFFFFFFFFFFFFFFFFFFFFFFFFFFF
310
FFFFFFFFFFFFFFFFF000FFFFFFFFFFFFFFFFFFFFFFFFFFFFFFFFFFFFFFFFFFFF
310
FFFFFFFFFFFFFFFFFFFFFFFFFFFFFFFFFFFFFFFFFFFFFFFFFFFFFFFFFFFFFFFF
310
FFFFFFFFFFFFFFFFFFFFFFFFFFFFFFFFFFFFFFFFFFFFFFFFFFFFFFFFFFFFFFFF
310
F000FFFFFFFFFFFFFFFFFFFFFFFFFFFFFFFFFFFFFFFFFFFFFFFFFFFFFFFFFFFF
310
FFFFFFFFFFFFFFFFFFFFFFFFFFFFFFFFFFFFFFFFFFFFFFFFFFFFFFFFFFFFFFFF
310
FFFFFFFFFFFFFFFFFFFFFFFFFFFFFFFFFFFFFFFFFFFFFFFFF000FFFFFFFFFFFF
310
FFFFFFFFFFFFFFFFFFFFFFFFFFFFFFFFFFFFFFFFFFFFFFFFFFFFFFFFFFFFFFFF
310
FFFFFFFFFFFFFFFFFFFFFFFFFFFFFFFFFFFFFFFFFFFFFFFFFFFFFFFFFFFFFFFF
310
FFFFFFFFFFFFFFFFFFFFFFFFFFFFFFFFF000FFFFFFFFFFFFFFFFFFFFFFFFFFFF
310
FFFFFFFFFFFFFFFFFFFFFFFFFFFFFFFFFFFFFFFFFFFFFFFFFFFFFFFFFFFFFFFF
310
FFFFFFFFFFFFFFFFFFFFFFFFFFFFFFFFFFFFFFFFFFFFFFFFFFFFFFFFFFFFFFFF
310
FFFFFFFFFFFFFFFFF000FFFFFFFFFFFFFFFFFFFFFFFFFFFFFFFFFFFFFFFFFFFF
310
FFFFFFFFFFFFFFFFFFFFFFFFFFFFFFFFFFFFFFFFFFFFFFFFFFFFFFFFFFFFFFFF
310
FFFFFFFFFFFFFFFFFFFFFFFFFFFFFFFFFFFFFFFFFFFFFFFFFFFFFFFFFFFFFFFF
310
F000FFFFFFFFFFFFFFFFFFFFFFFFFFFFFFFFFFFFFFFFFFFFFFFFFFFFFFFFFFFF
310
FFFFFFFFFFFFFFFFFFFFFFFFFFFFFFFFFFFFFFFFFFFFFFFFFFFFFFFFFFFFFFFF
310
FFFFFFFFFFFFFFFFFFFFFFFFFFFFFFFFFFFFFFFFFFFFFFFFF000FFFFFFFFFFFF
310
FFFFFFFFFFFFFFFFFFFFFFFFFFFFFFFFFFFFFFFFFFFFFFFFFFFFFFFFFFFFFFFF
310
FFFFFFFFFFFFFFFFFFFFFFFFFFFFFFFFFFFFFFFFFFFFFFFFFFFFFFFFFFFFFFFF
310
FFFFFFFFFFFFFFFFFFFFFFFFFFFFFFFFF000FFFFFFFFFFFFFFFFFFFFFFFFFFFF
310
FFFFFFFFFFFFFFFFFFFFFFFFFFFFFFFFFFFFFFFFFFFFFFFFFFFFFFFFFFFFFFFF
310
FFFFFFFFFFFFFFFFFFFFFFFFFFFFFFFFFFFFFFFFFFFFFFFFFFFFFFFFFFFFFFFF
310
FFFFFFFFFFFFFFFFF000FFFFFFFFFFFFFFFFFFFFFFFFFFFFFFFFFFFFFFFFFFFF
310
FFFFFFFFFFFFFFFFFFFFFFFFFFFFFFFFFFFFFFFFFFFFFFFFFFFFFFFFFFFFFFFF
310
FFFFFFFFFFFFFFFFFFFFFFFFFFFFFFFFFFFFFFFFFFFFFFFFFFFFFFFFFFFFFFFF
310
F000FFFFFFFFFFFFFFFFFFFFFFFFFFFFFFFFFFFFFFFFFFFFFFFFFFFFFFFFFFFF
310
FFFFFFFFFFFFFFFFFFFFFFFFFFFFFFFFFFFFFFFFFFFFFFFFFFFFFFFFFFFFFFFF
310
FFFFFFFFFFFFFFFFFFFFFFFFFFFFFFFFFFFFFFFFFFFFFFFFF000FFFFFFFFFFFF
310
FFFFFFFFFFFFFFFFFFFFFFFFFFFFFFFFFFFFFFFFFFFFFFFFFFFFFFFFFFFFFFFF
310
FFFFFFFFFFFFFFFFFFFFFFFFFFFFFFFFFFFFFFFFFFFFFFFFFFFFFFFFFFFFFFFF
310
FFFFFFFFFFFFFFFFFFFFFFFFFFFFFFFFF000FFFFFFFFFFFFFFFFFFFFFFFFFFFF
310
FFFFFFFFFFFFFFFFFFFFFFFFFFFFFFFFFFFFFFFFFFFFFFFFFFFFFFFFFFFFFFFF
310
FFFFFFFFFFFFFFFFFFFFFFFFFFFFFFFFFFFFFFFFFFFFFFFFFFFFFFFFFFFFFFFF
310
FFFFFFFFFFFFFFFFF000FFFFFFFFFFFFFFFFFFFFFFFFFFFFFFFFFFFFFFFFFFFF
310
FFFFFFFFFFFFFFFFFFFFFFFFFFFFFFFFFFFFFFFFFFFFFFFFFFFFFFFFFFFFFFFF
310
FFFFFFFFFFFFFFFFFFFFFFFFFFFFFFFFFFFFFFFFFFFFFFFFFFFFFFFFFFFFFFFF
310
F000FFFFFFFFFFFFFFFFFFFFFFFFFFFFFFFFFFFFFFFFFFFFFFFFFFFFFFFFFFFF
310
FFFFFFFFFFFFFFFFFFFFFFFFFFFFFFFFFFFFFFFFFFFFFFFFFFFFFFFFFFFFFFFF
310
FFFFFFFFFFFFFFFFFFFFFFFFFFFFFFFFFFFFFFFFFFFFFFFFF000FFFFFFFFFFFF
310
FFFFFFFFFFFFFFFFFFFFFFFFFFFFFFFFFFFFFFFFFFFFFFFFFFFFFFFFFFFFFFFF
310
FFFFFFFFFFFFFFFFFFFFFFFFFFFFFFFFFFFFFFFFFFFFFFFFFFFFFFFFFFFFFFFF
310
FFFFFFFFFFFFFFFFFFFFFFFFFFFFFFFFF0000000000000000000000000000000
310
0000000000750067005C005A0065006900630068006E0075006E00670065006E
310
005C00570061006C0074006500720020004D0065006900650072005C00530063
310
006800720075006D00700066006600750074007400650072005C004B00610074
310
0061006C006F0067007A0065006900630068006E0075006E00670065006E005C
310
004800450034002D005300310030002E004B00300031002E003000360033002E
310
0053004C004400440052005700040000000040A24405000000C61157DA0ADFC5
310
010040C01DFFFEFF012A00030000000050724809000000FFFEFF012A00030000
310
000050724809000000FFFEFF535A003A005C005A0065006900630068006E0075
310
006E00670065006E002D005700650072006B007A006500750067005C005A0065
310
006900630068006E0075006E00670065006E005C00570061006C007400650072
310
0020004D0065006900650072005C00530063006800720075006D007000660066
310
00750074007400650072005C004B006100740061006C006F0067007A00650069
310
00630068006E0075006E00670065006E005C00040000000040A24405000000FF
310
FEFF012A00030000000050724809000000FFFEFF012A00030000000050724809
310
000000FFFEFF012A00040000000040A244050000001C0C0000D4981E00010000
  1
OLE
  0
ENDSEC
  0
SECTION
  2
OBJECTS
  0
DICTIONARY
  5
C
330
0
100
AcDbDictionary
281
     1
  3
ACAD_GROUP
350
D
  3
ACAD_LAYOUT
350
1A
  3
ACAD_MLEADERSTYLE
350
20B
  3
ACAD_MLINESTYLE
350
17
  3
ACAD_PLOTSETTINGS
350
19
  3
ACAD_PLOTSTYLENAME
350
E
  3
ACAD_TABLESTYLE
350
20A
  3
ACAD_VISUALSTYLE
350
2A
  3
AcDbVariableDictionary
350
20C
  0
DICTIONARY
  5
D
102
{ACAD_REACTORS
330
C
102
}
330
C
100
AcDbDictionary
281
     1
  0
DICTIONARY
  5
1A
102
{ACAD_REACTORS
330
C
102
}
330
C
100
AcDbDictionary
281
     1
  3
Layout1
350
1E
  3
Layout2
350
26
  3
Model
350
22
  0
DICTIONARY
  5
20B
102
{ACAD_REACTORS
330
C
102
}
330
C
100
AcDbDictionary
281
     1
  0
DICTIONARY
  5
17
102
{ACAD_REACTORS
330
C
102
}
330
C
100
AcDbDictionary
281
     1
  3
Standard
350
18
  0
DICTIONARY
  5
19
102
{ACAD_REACTORS
330
C
102
}
330
C
100
AcDbDictionary
281
     1
  0
ACDBDICTIONARYWDFLT
  5
E
102
{ACAD_REACTORS
330
C
102
}
330
C
100
AcDbDictionary
281
     1
  3
Normal
350
F
100
AcDbDictionaryWithDefault
340
F
  0
DICTIONARY
  5
20A
102
{ACAD_REACTORS
330
C
102
}
330
C
100
AcDbDictionary
281
     1
  0
DICTIONARY
  5
2A
102
{ACAD_REACTORS
330
C
102
}
330
C
100
AcDbDictionary
281
     1
  3
2dWireframe
350
2F
  3
3D Hidden
350
31
  3
3dWireframe
350
30
  3
Basic
350
32
  3
Brighten
350
36
  3
ColorChange
350
3A
  3
Conceptual
350
34
  3
Dim
350
35
  3
Facepattern
350
39
  3
Flat
350
2B
  3
FlatWithEdges
350
2C
  3
Gouraud
350
2D
  3
GouraudWithEdges
350
2E
  3
Linepattern
350
38
  3
Realistic
350
33
  3
Thicken
350
37
  0
DICTIONARY
  5
20C
102
{ACAD_REACTORS
330
C
102
}
330
C
100
AcDbDictionary
281
     1
  3
PSOLHEIGHT
350
20E
  3
PSOLWIDTH
350
20D
  0
LAYOUT
  5
1E
102
{ACAD_REACTORS
330
1A
102
}
330
1A
100
AcDbPlotSettings
  1

  2
none_device
  4

  6

 40
0.0
 41
0.0
 42
0.0
 43
0.0
 44
0.0
 45
0.0
 46
0.0
 47
0.0
 48
0.0
 49
0.0
140
0.0
141
0.0
142
1.0
143
1.0
 70
   688
 72
     0
 73
     0
 74
     5
  7

 75
    16
147
1.0
148
0.0
149
0.0
100
AcDbLayout
  1
Layout1
 70
     1
 71
     1
 10
0.0
 20
0.0
 11
420.0
 21
297.0
 12
0.0
 22
0.0
 32
0.0
 14
1.0000000000E+20
 24
1.0000000000E+20
 34
1.0000000000E+20
 15
-1.0000000000E+20
 25
-1.0000000000E+20
 35
-1.0000000000E+20
146
0.0
 13
0.0
 23
0.0
 33
0.0
 16
1.0
 26
0.0
 36
0.0
 17
0.0
 27
1.0
 37
0.0
 76
     0
330
1B
  0
LAYOUT
  5
26
102
{ACAD_REACTORS
330
1A
102
}
330
1A
100
AcDbPlotSettings
  1

  2
none_device
  4

  6

 40
0.0
 41
0.0
 42
0.0
 43
0.0
 44
0.0
 45
0.0
 46
0.0
 47
0.0
 48
0.0
 49
0.0
140
0.0
141
0.0
142
1.0
143
1.0
 70
   688
 72
     0
 73
     0
 74
     5
  7

 75
    16
147
1.0
148
0.0
149
0.0
100
AcDbLayout
  1
Layout2
 70
     1
 71
     2
 10
0.0
 20
0.0
 11
0.0
 21
0.0
 12
0.0
 22
0.0
 32
0.0
 14
0.0
 24
0.0
 34
0.0
 15
0.0
 25
0.0
 35
0.0
146
0.0
 13
0.0
 23
0.0
 33
0.0
 16
1.0
 26
0.0
 36
0.0
 17
0.0
 27
1.0
 37
0.0
 76
     0
330
23
  0
LAYOUT
  5
22
102
{ACAD_REACTORS
330
1A
102
}
330
1A
100
AcDbPlotSettings
  1

  2
none_device
  4

  6

 40
0.0
 41
0.0
 42
0.0
 43
0.0
 44
0.0
 45
0.0
 46
0.0
 47
0.0
 48
0.0
 49
0.0
140
0.0
141
0.0
142
1.0
143
1.0
 70
  1712
 72
     0
 73
     0
 74
     0
  7

 75
     0
147
1.0
148
0.0
149
0.0
100
AcDbLayout
  1
Model
 70
     1
 71
     0
 10
0.0
 20
0.0
 11
297.0
 21
210.0
 12
0.0
 22
0.0
 32
0.0
 14
0.0
 24
0.0
 34
0.0
 15
297.0
 25
210.0
 35
0.0
146
0.0
 13
0.0
 23
0.0
 33
0.0
 16
1.0
 26
0.0
 36
0.0
 17
0.0
 27
1.0
 37
0.0
 76
     0
330
1F
331
29
  0
MLINESTYLE
  5
18
102
{ACAD_REACTORS
330
17
102
}
330
17
100
AcDbMlineStyle
  2
Standard
 70
     0
  3

 62
   256
 51
90.0
 52
90.0
 71
     2
 49
0.5
 62
   256
  6
BYLAYER
 49
-0.5
 62
   256
  6
BYLAYER
  0
ACDBPLACEHOLDER
  5
F
102
{ACAD_REACTORS
330
E
102
}
330
E
  0
VISUALSTYLE
  5
2F
102
{ACAD_REACTORS
330
2A
102
}
330
2A
100
AcDbVisualStyle
  2
2dWireframe
 70
     4
 71
     0
 72
     2
 73
     0
 90
        0
 40
-0.6
 41
-30.0
 62
     5
 63
     7
 74
     1
 91
        4
 64
     7
 65
   257
 75
     1
175
     1
 42
1.0
 92
        0
 66
   257
 43
1.0
 76
     1
 77
     6
 78
     2
 67
     7
 79
     5
170
     0
171
     0
290
     0
174
     0
 93
        1
 44
0.0
173
     0
291
     0
 45
0.0
1001
ACAD
1000
AcDbSavedByObjectVersion
1070
     0
  0
VISUALSTYLE
  5
31
102
{ACAD_REACTORS
330
2A
102
}
330
2A
100
AcDbVisualStyle
  2
3D Hidden
 70
     6
 71
     1
 72
     2
 73
     2
 90
        0
 40
-0.6
 41
-30.0
 62
     5
 63
     7
 74
     2
 91
        2
 64
     7
 65
   257
 75
     2
175
     1
 42
40.0
 92
        0
 66
   257
 43
1.0
 76
     1
 77
     6
 78
     2
 67
     7
 79
     3
170
     0
171
     0
290
     0
174
     0
 93
        1
 44
0.0
173
     0
291
     0
 45
0.0
1001
ACAD
1000
AcDbSavedByObjectVersion
1070
     0
  0
VISUALSTYLE
  5
30
102
{ACAD_REACTORS
330
2A
102
}
330
2A
100
AcDbVisualStyle
  2
3dWireframe
 70
     5
 71
     0
 72
     2
 73
     0
 90
        0
 40
-0.6
 41
-30.0
 62
     5
 63
     7
 74
     1
 91
        4
 64
     7
 65
   257
 75
     1
175
     1
 42
1.0
 92
        0
 66
   257
 43
1.0
 76
     1
 77
     6
 78
     2
 67
     7
 79
     5
170
     0
171
     0
290
     0
174
     0
 93
        1
 44
0.0
173
     0
291
     0
 45
0.0
1001
ACAD
1000
AcDbSavedByObjectVersion
1070
     0
  0
VISUALSTYLE
  5
32
102
{ACAD_REACTORS
330
2A
102
}
330
2A
100
AcDbVisualStyle
  2
Basic
 70
     7
 71
     1
 72
     0
 73
     1
 90
        0
 40
-0.6
 41
-30.0
 62
     5
 63
     7
 74
     0
 91
        4
 64
     7
 65
   257
 75
     1
175
     1
 42
1.0
 92
        8
 66
     7
 43
1.0
 76
     1
 77
     6
 78
     2
 67
     7
 79
     5
170
     0
171
     0
290
     0
174
     0
 93
        1
 44
0.0
173
     0
291
     1
 45
0.0
1001
ACAD
1000
AcDbSavedByObjectVersion
1070
     0
  0
VISUALSTYLE
  5
36
102
{ACAD_REACTORS
330
2A
102
}
330
2A
100
AcDbVisualStyle
  2
Brighten
 70
    12
 71
     2
 72
     2
 73
     0
 90
        0
 40
-0.6
 41
-30.0
 62
     5
 63
     7
 74
     1
 91
        4
 64
     7
 65
   257
 75
     1
175
     1
 42
1.0
 92
        8
 66
     7
 43
1.0
 76
     1
 77
     6
 78
     2
 67
     7
 79
     5
170
     0
171
     0
290
     0
174
     0
 93
        1
 44
50.0
173
     0
291
     1
 45
0.0
1001
ACAD
1000
AcDbSavedByObjectVersion
1070
     0
  0
VISUALSTYLE
  5
3A
102
{ACAD_REACTORS
330
2A
102
}
330
2A
100
AcDbVisualStyle
  2
ColorChange
 70
    16
 71
     2
 72
     2
 73
     3
 90
        0
 40
-0.6
 41
-30.0
 62
     5
 63
     8
 74
     1
 91
        4
 64
     7
 65
   257
 75
     1
175
     1
 42
1.0
 92
        8
 66
     8
 43
1.0
 76
     1
 77
     6
 78
     2
 67
     7
 79
     5
170
     0
171
     0
290
     0
174
     0
 93
        1
 44
0.0
173
     0
291
     1
 45
0.0
1001
ACAD
1000
AcDbSavedByObjectVersion
1070
     0
  0
VISUALSTYLE
  5
34
102
{ACAD_REACTORS
330
2A
102
}
330
2A
100
AcDbVisualStyle
  2
Conceptual
 70
     9
 71
     3
 72
     2
 73
     0
 90
        0
 40
-0.6
 41
-30.0
 62
     5
 63
     7
 74
     2
 91
        2
 64
     7
 65
   257
 75
     1
175
     1
 42
40.0
 92
        8
 66
     7
 43
1.0
 76
     1
 77
     6
 78
     2
 67
     7
 79
     3
170
     0
171
     0
290
     0
174
     0
 93
        1
 44
0.0
173
     0
291
     0
 45
0.0
1001
ACAD
1000
AcDbSavedByObjectVersion
1070
     0
  0
VISUALSTYLE
  5
35
102
{ACAD_REACTORS
330
2A
102
}
330
2A
100
AcDbVisualStyle
  2
Dim
 70
    11
 71
     2
 72
     2
 73
     0
 90
        0
 40
-0.6
 41
-30.0
 62
     5
 63
     7
 74
     1
 91
        4
 64
     7
 65
   257
 75
     1
175
     1
 42
1.0
 92
        8
 66
     7
 43
1.0
 76
     1
 77
     6
 78
     2
 67
     7
 79
     5
170
     0
171
     0
290
     0
174
     0
 93
        1
 44
-50.0
173
     0
291
     1
 45
0.0
1001
ACAD
1000
AcDbSavedByObjectVersion
1070
     0
  0
VISUALSTYLE
  5
39
102
{ACAD_REACTORS
330
2A
102
}
330
2A
100
AcDbVisualStyle
  2
Facepattern
 70
    15
 71
     2
 72
     2
 73
     0
 90
        0
 40
-0.6
 41
-30.0
 62
     5
 63
     7
 74
     1
 91
        4
 64
     7
 65
   257
 75
     1
175
     1
 42
1.0
 92
        8
 66
     7
 43
1.0
 76
     1
 77
     6
 78
     2
 67
     7
 79
     5
170
     0
171
     0
290
     0
174
     0
 93
        1
 44
0.0
173
     0
291
     1
 45
0.0
1001
ACAD
1000
AcDbSavedByObjectVersion
1070
     0
  0
VISUALSTYLE
  5
2B
102
{ACAD_REACTORS
330
2A
102
}
330
2A
100
AcDbVisualStyle
  2
Flat
 70
     0
 71
     2
 72
     1
 73
     1
 90
        2
 40
-0.6
 41
30.0
 62
     5
 63
     7
 74
     0
 91
        4
 64
     7
 65
   257
 75
     1
175
     1
 42
1.0
 92
        8
 66
     7
 43
1.0
 76
     1
 77
     6
 78
     2
 67
     7
 79
     5
170
     0
171
     0
290
     0
174
     0
 93
       13
 44
0.0
173
     0
291
     1
 45
0.0
1001
ACAD
1000
AcDbSavedByObjectVersion
1070
     0
  0
VISUALSTYLE
  5
2C
102
{ACAD_REACTORS
330
2A
102
}
330
2A
100
AcDbVisualStyle
  2
FlatWithEdges
 70
     1
 71
     2
 72
     1
 73
     1
 90
        2
 40
-0.6
 41
30.0
 62
     5
 63
     7
 74
     1
 91
        4
 64
     7
 65
   257
 75
     1
175
     1
 42
1.0
 92
        0
 66
   257
 43
1.0
 76
     1
 77
     6
 78
     2
 67
     7
 79
     5
170
     0
171
     0
290
     0
174
     0
 93
       13
 44
0.0
173
     0
291
     1
 45
0.0
1001
ACAD
1000
AcDbSavedByObjectVersion
1070
     0
  0
VISUALSTYLE
  5
2D
102
{ACAD_REACTORS
330
2A
102
}
330
2A
100
AcDbVisualStyle
  2
Gouraud
 70
     2
 71
     2
 72
     2
 73
     1
 90
        2
 40
-0.6
 41
30.0
 62
     5
 63
     7
 74
     0
 91
        4
 64
     7
 65
   257
 75
     1
175
     1
 42
1.0
 92
        0
 66
     7
 43
1.0
 76
     1
 77
     6
 78
     2
 67
     7
 79
     5
170
     0
171
     0
290
     0
174
     0
 93
       13
 44
0.0
173
     0
291
     1
 45
0.0
1001
ACAD
1000
AcDbSavedByObjectVersion
1070
     0
  0
VISUALSTYLE
  5
2E
102
{ACAD_REACTORS
330
2A
102
}
330
2A
100
AcDbVisualStyle
  2
GouraudWithEdges
 70
     3
 71
     2
 72
     2
 73
     1
 90
        2
 40
-0.6
 41
30.0
 62
     5
 63
     7
 74
     1
 91
        4
 64
     7
 65
   257
 75
     1
175
     1
 42
1.0
 92
        0
 66
   257
 43
1.0
 76
     1
 77
     6
 78
     2
 67
     7
 79
     5
170
     0
171
     0
290
     0
174
     0
 93
       13
 44
0.0
173
     0
291
     1
 45
0.0
1001
ACAD
1000
AcDbSavedByObjectVersion
1070
     0
  0
VISUALSTYLE
  5
38
102
{ACAD_REACTORS
330
2A
102
}
330
2A
100
AcDbVisualStyle
  2
Linepattern
 70
    14
 71
     2
 72
     2
 73
     0
 90
        0
 40
-0.6
 41
-30.0
 62
     5
 63
     7
 74
     1
 91
        4
 64
     7
 65
   257
 75
     7
175
     7
 42
1.0
 92
        8
 66
     7
 43
1.0
 76
     1
 77
     6
 78
     2
 67
     7
 79
     5
170
     0
171
     0
290
     0
174
     0
 93
        1
 44
0.0
173
     0
291
     1
 45
0.0
1001
ACAD
1000
AcDbSavedByObjectVersion
1070
     0
  0
VISUALSTYLE
  5
33
102
{ACAD_REACTORS
330
2A
102
}
330
2A
100
AcDbVisualStyle
  2
Realistic
 70
     8
 71
     2
 72
     2
 73
     0
 90
        0
 40
-0.6
 41
-30.0
 62
     5
 63
     7
 74
     1
 91
        0
 64
     7
 65
   257
 75
     1
175
     1
 42
1.0
 92
        8
 66
     8
 43
1.0
 76
     1
 77
     6
 78
     2
 67
     7
 79
     5
170
     0
171
     0
290
     0
174
     0
 93
       13
 44
0.0
173
     0
291
     0
 45
0.0
1001
ACAD
1000
AcDbSavedByObjectVersion
1070
     0
  0
VISUALSTYLE
  5
37
102
{ACAD_REACTORS
330
2A
102
}
330
2A
100
AcDbVisualStyle
  2
Thicken
 70
    13
 71
     2
 72
     2
 73
     0
 90
        0
 40
-0.6
 41
-30.0
 62
     5
 63
     7
 74
     1
 91
        4
 64
     7
 65
   257
 75
     1
175
     1
 42
1.0
 92
       12
 66
     7
 43
1.0
 76
     1
 77
     6
 78
     2
 67
     7
 79
     5
170
     0
171
     0
290
     0
174
     0
 93
        1
 44
0.0
173
     0
291
     1
 45
0.0
1001
ACAD
1000
AcDbSavedByObjectVersion
1070
     0
  0
DICTIONARYVAR
  5
20E
102
{ACAD_REACTORS
330
20C
102
}
330
20C
100
DictionaryVariables
280
     0
  1
80.000000
  0
DICTIONARYVAR
  5
20D
102
{ACAD_REACTORS
330
20C
102
}
330
20C
100
DictionaryVariables
280
     0
  1
5.000000
  0
ENDSEC
  0
EOF
