  0
SECTION
  2
HEADER
  9
$ACADVER
  1
AC1015
  9
$ACADMAINTVER
 70
     6
  9
$DWGCODEPAGE
  3
ANSI_1252
  9
$INSBASE
 10
0.0
 20
0.0
 30
0.0
  9
$EXTMIN
 10
0.0
 20
0.0
 30
0.0
  9
$EXTMAX
 10
297.0
 20
210.0
 30
0.0
  9
$LIMMIN
 10
0.0
 20
0.0
  9
$LIMMAX
 10
297.0
 20
210.0
  9
$ORTHOMODE
 70
     0
  9
$REGENMODE
 70
     1
  9
$FILLMODE
 70
     1
  9
$QTEXTMODE
 70
     0
  9
$MIRRTEXT
 70
     1
  9
$LTSCALE
 40
1.0
  9
$ATTMODE
 70
     1
  9
$TEXTSIZE
 40
2.0
  9
$TRACEWID
 40
1.0
  9
$TEXTSTYLE
  7
Standard
  9
$CLAYER
  8
0
  9
$CELTYPE
  6
ByLayer
  9
$CECOLOR
 62
   256
  9
$CELTSCALE
 40
1.0
  9
$DISPSILH
 70
     0
  9
$DIMSCALE
 40
1.0
  9
$DIMASZ
 40
3.0
  9
$DIMEXO
 40
0.0
  9
$DIMDLI
 40
3.75
  9
$DIMRND
 40
0.0
  9
$DIMDLE
 40
0.0
  9
$DIMEXE
 40
1.0
  9
$DIMTP
 40
0.0
  9
$DIMTM
 40
0.0
  9
$DIMTXT
 40
2.0
  9
$DIMCEN
 40
2.5
  9
$DIMTSZ
 40
0.0
  9
$DIMTOL
 70
     0
  9
$DIMLIM
 70
     0
  9
$DIMTIH
 70
     1
  9
$DIMTOH
 70
     1
  9
$DIMSE1
 70
     0
  9
$DIMSE2
 70
     0
  9
$DIMTAD
 70
     1
  9
$DIMZIN
 70
     0
  9
$DIMBLK
  1

  9
$DIMASO
 70
     1
  9
$DIMSHO
 70
     1
  9
$DIMPOST
  1

  9
$DIMAPOST
  1

  9
$DIMALT
 70
     0
  9
$DIMALTD
 70
     3
  9
$DIMALTF
 40
0.0393700787
  9
$DIMLFAC
 40
1.0
  9
$DIMTOFL
 70
     1
  9
$DIMTVP
 40
0.0
  9
$DIMTIX
 70
     0
  9
$DIMSOXD
 70
     0
  9
$DIMSAH
 70
     0
  9
$DIMBLK1
  1

  9
$DIMBLK2
  1

  9
$DIMSTYLE
  2
ISO-25
  9
$DIMCLRD
 70
     0
  9
$DIMCLRE
 70
     0
  9
$DIMCLRT
 70
     0
  9
$DIMTFAC
 40
1.0
  9
$DIMGAP
 40
1.524
  9
$DIMJUST
 70
     0
  9
$DIMSD1
 70
     0
  9
$DIMSD2
 70
     0
  9
$DIMTOLJ
 70
     0
  9
$DIMTZIN
 70
     0
  9
$DIMALTZ
 70
     0
  9
$DIMALTTZ
 70
     0
  9
$DIMUPT
 70
     0
  9
$DIMDEC
 70
     2
  9
$DIMTDEC
 70
     3
  9
$DIMALTU
 70
     2
  9
$DIMALTTD
 70
     3
  9
$DIMTXSTY
  7
Standard
  9
$DIMAUNIT
 70
     0
  9
$DIMADEC
 70
     2
  9
$DIMALTRND
 40
0.0
  9
$DIMAZIN
 70
     0
  9
$DIMDSEP
 70
    44
  9
$DIMATFIT
 70
     3
  9
$DIMFRAC
 70
     0
  9
$DIMLDRBLK
  1

  9
$DIMLUNIT
 70
     2
  9
$DIMLWD
 70
    -2
  9
$DIMLWE
 70
    -2
  9
$DIMTMOVE
 70
     0
  9
$LUNITS
 70
     2
  9
$LUPREC
 70
     2
  9
$SKETCHINC
 40
1.0
  9
$FILLETRAD
 40
10.0
  9
$AUNITS
 70
     0
  9
$AUPREC
 70
     2
  9
$MENU
  1
.
  9
$ELEVATION
 40
0.0
  9
$PELEVATION
 40
0.0
  9
$THICKNESS
 40
0.0
  9
$LIMCHECK
 70
     0
  9
$CHAMFERA
 40
10.0
  9
$CHAMFERB
 40
10.0
  9
$CHAMFERC
 40
20.0
  9
$CHAMFERD
 40
0.0
  9
$SKPOLY
 70
     0
  9
$TDCREATE
 40
2455680.49760294
  9
$TDUCREATE
 40
2455680.414269607
  9
$TDUPDATE
 40
2455680.497602951
  9
$TDUUPDATE
 40
2455680.414269618
  9
$TDINDWG
 40
0.0000000116
  9
$TDUSRTIMER
 40
0.0000000116
  9
$USRTIMER
 70
     1
  9
$ANGBASE
 50
0.0
  9
$ANGDIR
 70
     0
  9
$PDMODE
 70
     0
  9
$PDSIZE
 40
-1.0
  9
$PLINEWID
 40
0.0
  9
$SPLFRAME
 70
     0
  9
$SPLINETYPE
 70
     6
  9
$SPLINESEGS
 70
     8
  9
$HANDSEED
  5
212
  9
$SURFTAB1
 70
     6
  9
$SURFTAB2
 70
     6
  9
$SURFTYPE
 70
     6
  9
$SURFU
 70
     6
  9
$SURFV
 70
     6
  9
$UCSBASE
  2

  9
$UCSNAME
  2

  9
$UCSORG
 10
0.0
 20
0.0
 30
0.0
  9
$UCSXDIR
 10
1.0
 20
0.0
 30
0.0
  9
$UCSYDIR
 10
0.0
 20
1.0
 30
0.0
  9
$UCSORTHOREF
  2

  9
$UCSORTHOVIEW
 70
     0
  9
$UCSORGTOP
 10
0.0
 20
0.0
 30
0.0
  9
$UCSORGBOTTOM
 10
0.0
 20
0.0
 30
0.0
  9
$UCSORGLEFT
 10
0.0
 20
0.0
 30
0.0
  9
$UCSORGRIGHT
 10
0.0
 20
0.0
 30
0.0
  9
$UCSORGFRONT
 10
0.0
 20
0.0
 30
0.0
  9
$UCSORGBACK
 10
0.0
 20
0.0
 30
0.0
  9
$PUCSBASE
  2

  9
$PUCSNAME
  2

  9
$PUCSORG
 10
0.0
 20
0.0
 30
0.0
  9
$PUCSXDIR
 10
1.0
 20
0.0
 30
0.0
  9
$PUCSYDIR
 10
0.0
 20
1.0
 30
0.0
  9
$PUCSORTHOREF
  2

  9
$PUCSORTHOVIEW
 70
     0
  9
$PUCSORGTOP
 10
0.0
 20
0.0
 30
0.0
  9
$PUCSORGBOTTOM
 10
0.0
 20
0.0
 30
0.0
  9
$PUCSORGLEFT
 10
0.0
 20
0.0
 30
0.0
  9
$PUCSORGRIGHT
 10
0.0
 20
0.0
 30
0.0
  9
$PUCSORGFRONT
 10
0.0
 20
0.0
 30
0.0
  9
$PUCSORGBACK
 10
0.0
 20
0.0
 30
0.0
  9
$USERI1
 70
     0
  9
$USERI2
 70
     0
  9
$USERI3
 70
     0
  9
$USERI4
 70
     0
  9
$USERI5
 70
     0
  9
$USERR1
 40
0.0
  9
$USERR2
 40
0.0
  9
$USERR3
 40
0.0
  9
$USERR4
 40
0.0
  9
$USERR5
 40
0.0
  9
$WORLDVIEW
 70
     1
  9
$SHADEDGE
 70
     3
  9
$SHADEDIF
 70
    70
  9
$TILEMODE
 70
     1
  9
$MAXACTVP
 70
    64
  9
$PINSBASE
 10
0.0
 20
0.0
 30
0.0
  9
$PLIMCHECK
 70
     0
  9
$PEXTMIN
 10
1.0000000000E+20
 20
1.0000000000E+20
 30
1.0000000000E+20
  9
$PEXTMAX
 10
-1.0000000000E+20
 20
-1.0000000000E+20
 30
-1.0000000000E+20
  9
$PLIMMIN
 10
0.0
 20
0.0
  9
$PLIMMAX
 10
420.0
 20
297.0
  9
$UNITMODE
 70
     0
  9
$VISRETAIN
 70
     1
  9
$PLINEGEN
 70
     0
  9
$PSLTSCALE
 70
     1
  9
$TREEDEPTH
 70
  3020
  9
$CMLSTYLE
  2
Standard
  9
$CMLJUST
 70
     0
  9
$CMLSCALE
 40
20.0
  9
$PROXYGRAPHICS
 70
     1
  9
$MEASUREMENT
 70
     1
  9
$CELWEIGHT
370
    -1
  9
$ENDCAPS
280
     0
  9
$JOINSTYLE
280
     0
  9
$LWDISPLAY
290
     1
  9
$INSUNITS
 70
     4
  9
$HYPERLINKBASE
  1

  9
$STYLESHEET
  1

  9
$XEDIT
290
     1
  9
$CEPSNTYPE
380
     0
  9
$PSTYLEMODE
290
     1
  9
$FINGERPRINTGUID
  2
{EF6F3B88-E1D9-41B1-9D86-1CBBF794DAD9}
  9
$VERSIONGUID
  2
{FAEB1C32-E019-11D5-929B-00C0DF256EC4}
  9
$EXTNAMES
290
     1
  9
$PSVPSCALE
 40
0.0
  9
$OLESTARTUP
290
     0
  0
ENDSEC
  0
SECTION
  2
CLASSES
  0
CLASS
  1
ACDBDICTIONARYWDFLT
  2
AcDbDictionaryWithDefault
  3
ObjectDBX Classes
 90
        0
280
     0
281
     0
  0
CLASS
  1
VISUALSTYLE
  2
AcDbVisualStyle
  3
ObjectDBX Classes
 90
     4095
280
     0
281
     0
  0
CLASS
  1
DICTIONARYVAR
  2
AcDbDictionaryVar
  3
ObjectDBX Classes
 90
        0
280
     0
281
     0
  0
CLASS
  1
ACDBPLACEHOLDER
  2
AcDbPlaceHolder
  3
ObjectDBX Classes
 90
        0
280
     0
281
     0
  0
CLASS
  1
LAYOUT
  2
AcDbLayout
  3
ObjectDBX Classes
 90
        0
280
     0
281
     0
  0
ENDSEC
  0
SECTION
  2
TABLES
  0
TABLE
  2
VPORT
  5
8
330
0
100
AcDbSymbolTable
 70
     1
  0
VPORT
  5
29
330
8
100
AcDbSymbolTableRecord
100
AcDbViewportTableRecord
  2
*Active
 70
     0
 10
0.0
 20
0.0
 11
1.0
 21
1.0
 12
148.5
 22
105.0
 13
0.0
 23
0.0
 14
10.0
 24
10.0
 15
10.0
 25
10.0
 16
0.0
 26
0.0
 36
1.0
 17
0.0
 27
0.0
 37
0.0
 40
210.0
 41
1.4142857143
 42
50.0
 43
0.0
 44
0.0
 50
0.0
 51
0.0
 71
     0
 72
  2000
 73
     1
 74
     3
 75
     0
 76
     0
 77
     0
 78
     0
281
     0
 65
     1
110
0.0
120
0.0
130
0.0
111
1.0
121
0.0
131
0.0
112
0.0
122
1.0
132
0.0
 79
     0
146
0.0
  0
ENDTAB
  0
TABLE
  2
LTYPE
  5
5
330
0
100
AcDbSymbolTable
 70
     6
  0
LTYPE
  5
14
330
5
100
AcDbSymbolTableRecord
100
AcDbLinetypeTableRecord
  2
ByBlock
 70
     0
  3

 72
    65
 73
     0
 40
0.0
  0
LTYPE
  5
15
330
5
100
AcDbSymbolTableRecord
100
AcDbLinetypeTableRecord
  2
ByLayer
 70
     0
  3

 72
    65
 73
     0
 40
0.0
  0
LTYPE
  5
16
330
5
100
AcDbSymbolTableRecord
100
AcDbLinetypeTableRecord
  2
Continuous
 70
     0
  3
Solid line
 72
    65
 73
     0
 40
0.0
  0
LTYPE
  5
3B
330
5
100
AcDbSymbolTableRecord
100
AcDbLinetypeTableRecord
  2
HIDDEN
 70
     0
  3
Hidden __ __ __ __ __ __ __ __ __ __ __ __ __ __
 72
    65
 73
     2
 40
1.905
 49
1.27
 74
     0
 49
-0.635
 74
     0
  0
LTYPE
  5
3C
330
5
100
AcDbSymbolTableRecord
100
AcDbLinetypeTableRecord
  2
PHANTOM
 70
     0
  3
Phantom ______  __  __  ______  __  __  ______
 72
    65
 73
     6
 40
12.7
 49
6.35
 74
     0
 49
-1.27
 74
     0
 49
1.27
 74
     0
 49
-1.27
 74
     0
 49
1.27
 74
     0
 49
-1.27
 74
     0
  0
LTYPE
  5
3D
330
5
100
AcDbSymbolTableRecord
100
AcDbLinetypeTableRecord
  2
CENTER
 70
     0
  3
Center ____ _ ____ _ ____ _ ____ _ ____ _ ____
 72
    65
 73
     4
 40
10.16
 49
6.35
 74
     0
 49
-1.27
 74
     0
 49
1.27
 74
     0
 49
-1.27
 74
     0
  0
LTYPE
  5
3E
330
5
100
AcDbSymbolTableRecord
100
AcDbLinetypeTableRecord
  2
CENTERX2
 70
     0
  3
Center (2x) ________  __  ________  __  _____
 72
    65
 73
     4
 40
20.32
 49
12.7
 74
     0
 49
-2.54
 74
     0
 49
2.54
 74
     0
 49
-2.54
 74
     0
  0
LTYPE
  5
3F
330
5
100
AcDbSymbolTableRecord
100
AcDbLinetypeTableRecord
  2
DOT2
 70
     0
  3
Dot (.5x) ........................................
 72
    65
 73
     2
 40
0.635
 49
0.0
 74
     0
 49
-0.635
 74
     0
  0
ENDTAB
  0
TABLE
  2
LAYER
  5
2
330
0
100
AcDbSymbolTable
 70
     5
  0
LAYER
  5
10
330
2
100
AcDbSymbolTableRecord
100
AcDbLayerTableRecord
  2
0
 70
     0
 62
     7
  6
Continuous
370
    -3
390
F
  0
LAYER
  5
40
330
2
100
AcDbSymbolTableRecord
100
AcDbLayerTableRecord
  2
FORMAT
 70
     0
 62
     7
  6
Continuous
370
    -3
390
F
  0
LAYER
  5
41
330
2
100
AcDbSymbolTableRecord
100
AcDbLayerTableRecord
  2
VERMASSUNG
 70
     0
 62
     7
  6
Continuous
370
    -3
390
F
  0
LAYER
  5
42
330
2
100
AcDbSymbolTableRecord
100
AcDbLayerTableRecord
  2
KOPF_DÜNN
 70
     0
 62
     7
  6
Continuous
370
    -3
390
F
  0
LAYER
  5
43
330
2
100
AcDbSymbolTableRecord
100
AcDbLayerTableRecord
  2
KOPF_DICK
 70
     0
 62
     7
  6
Continuous
370
    15
390
F
  0
ENDTAB
  0
TABLE
  2
STYLE
  5
3
330
0
100
AcDbSymbolTable
 70
     3
  0
STYLE
  5
11
330
3
100
AcDbSymbolTableRecord
100
AcDbTextStyleTableRecord
  2
Standard
 70
     0
 40
0.0
 41
1.0
 50
0.0
 71
     0
 42
2.5
  3
txt
  4

  0
STYLE
  5
44
330
3
100
AcDbSymbolTableRecord
100
AcDbTextStyleTableRecord
  2
SLDTEXTSTYLE0
 70
     0
 40
0.0
 41
0.7
 50
0.0
 71
     0
 42
0.2
  3
TXT
  4

  0
STYLE
  5
48
330
3
100
AcDbSymbolTableRecord
100
AcDbTextStyleTableRecord
  2
SLDTEXTSTYLE1
 70
     0
 40
0.0
 41
0.65
 50
0.0
 71
     0
 42
0.2
  3
TXT
  4

  0
ENDTAB
  0
TABLE
  2
VIEW
  5
6
330
0
100
AcDbSymbolTable
 70
     0
  0
ENDTAB
  0
TABLE
  2
UCS
  5
7
330
0
100
AcDbSymbolTable
 70
     0
  0
ENDTAB
  0
TABLE
  2
APPID
  5
9
330
0
100
AcDbSymbolTable
 70
     1
  0
APPID
  5
12
330
9
100
AcDbSymbolTableRecord
100
AcDbRegAppTableRecord
  2
ACAD
 70
     0
  0
ENDTAB
  0
TABLE
  2
DIMSTYLE
  5
A
330
0
100
AcDbSymbolTable
 70
     5
100
AcDbDimStyleTable
  0
DIMSTYLE
105
27
330
A
100
AcDbSymbolTableRecord
100
AcDbDimStyleTableRecord
  2
ISO-25
 70
     0
 41
2.5
 42
0.625
 43
3.75
 44
1.25
 73
     0
 74
     0
 77
     1
 78
     8
140
2.5
141
2.5
143
0.0393700787
147
0.625
171
     3
172
     1
271
     2
272
     2
274
     3
278
    44
283
     0
284
     8
340
11
  0
DIMSTYLE
105
1B1
102
{ACAD_REACTORS
330
1B0
330
1E2
330
1EC
330
1F6
330
200
102
}
330
A
100
AcDbSymbolTableRecord
100
AcDbDimStyleTableRecord
  2
SLDDIMSTYLE0
 70
     0
 41
3.0
 44
0.0
 45
0.000000001
 73
     0
 74
     0
 77
     1
 78
    12
140
2.0
147
0.5
173
     1
271
     2
272
     3
284
    12
340
44
  0
DIMSTYLE
105
1BE
102
{ACAD_REACTORS
330
1BD
102
}
330
A
100
AcDbSymbolTableRecord
100
AcDbDimStyleTableRecord
  2
SLDDIMSTYLE1
 70
     0
 41
3.0
 44
0.0
 45
0.000000001
 73
     0
 74
     0
 77
     1
 78
    12
140
2.0
147
0.5
173
     1
271
     2
272
     2
284
    12
340
44
  0
DIMSTYLE
105
1C9
102
{ACAD_REACTORS
330
1C8
102
}
330
A
100
AcDbSymbolTableRecord
100
AcDbDimStyleTableRecord
  2
SLDDIMSTYLE2
 70
     0
 41
3.0
 44
0.0
 45
0.000000001
 73
     0
 74
     0
 77
     1
 78
    12
140
2.0
147
0.5
173
     1
271
     2
272
     2
284
    12
340
44
  0
DIMSTYLE
105
1D7
102
{ACAD_REACTORS
330
1D6
102
}
330
A
100
AcDbSymbolTableRecord
100
AcDbDimStyleTableRecord
  2
SLDDIMSTYLE3
 70
     0
 41
3.0
 44
0.0
 45
0.000000001
 73
     0
 74
     0
 77
     1
 78
    12
140
2.0
147
0.5
173
     1
271
     2
272
     3
284
    12
340
44
  0
ENDTAB
  0
TABLE
  2
BLOCK_RECORD
  5
1
330
0
100
AcDbSymbolTable
 70
     9
  0
BLOCK_RECORD
  5
1F
330
1
100
AcDbSymbolTableRecord
100
AcDbBlockTableRecord
  2
*Model_Space
340
22
  0
BLOCK_RECORD
  5
1B
330
1
100
AcDbSymbolTableRecord
100
AcDbBlockTableRecord
  2
*Paper_Space
340
1E
  0
BLOCK_RECORD
  5
23
330
1
100
AcDbSymbolTableRecord
100
AcDbBlockTableRecord
  2
*Paper_Space0
340
26
  0
BLOCK_RECORD
  5
1B2
330
1
100
AcDbSymbolTableRecord
100
AcDbBlockTableRecord
  2
*D1
340
0
  0
BLOCK_RECORD
  5
1BF
330
1
100
AcDbSymbolTableRecord
100
AcDbBlockTableRecord
  2
*D2
340
0
  0
BLOCK_RECORD
  5
1CA
330
1
100
AcDbSymbolTableRecord
100
AcDbBlockTableRecord
  2
*D3
340
0
  0
BLOCK_RECORD
  5
1D8
330
1
100
AcDbSymbolTableRecord
100
AcDbBlockTableRecord
  2
*D4
340
0
  0
BLOCK_RECORD
  5
1E3
330
1
100
AcDbSymbolTableRecord
100
AcDbBlockTableRecord
  2
*D5
340
0
  0
BLOCK_RECORD
  5
1ED
330
1
100
AcDbSymbolTableRecord
100
AcDbBlockTableRecord
  2
*D6
340
0
  0
BLOCK_RECORD
  5
1F7
330
1
100
AcDbSymbolTableRecord
100
AcDbBlockTableRecord
  2
*D7
340
0
  0
BLOCK_RECORD
  5
201
330
1
100
AcDbSymbolTableRecord
100
AcDbBlockTableRecord
  2
*D8
340
0
  0
ENDTAB
  0
ENDSEC
  0
SECTION
  2
BLOCKS
  0
BLOCK
  5
20
330
1F
100
AcDbEntity
  8
0
100
AcDbBlockBegin
  2
*Model_Space
 70
     0
 10
0.0
 20
0.0
 30
0.0
  3
*Model_Space
  1

  0
ENDBLK
  5
21
330
1F
100
AcDbEntity
  8
0
100
AcDbBlockEnd
  0
BLOCK
  5
1C
330
1B
100
AcDbEntity
 67
     1
  8
0
100
AcDbBlockBegin
  2
*Paper_Space
 70
     0
 10
0.0
 20
0.0
 30
0.0
  3
*Paper_Space
  1

  0
ENDBLK
  5
1D
330
1B
100
AcDbEntity
 67
     1
  8
0
100
AcDbBlockEnd
  0
BLOCK
  5
24
330
23
100
AcDbEntity
  8
0
100
AcDbBlockBegin
  2
*Paper_Space0
 70
     0
 10
0.0
 20
0.0
 30
0.0
  3
*Paper_Space0
  1

  0
ENDBLK
  5
25
330
23
100
AcDbEntity
  8
0
100
AcDbBlockEnd
  0
BLOCK
  5
1B3
330
1B2
100
AcDbEntity
  8
0
100
AcDbBlockBegin
  2
*D1
 70
     1
 10
0.0
 20
0.0
 30
0.0
  3
*D1
  1

  0
SOLID
  5
1B5
330
1B2
100
AcDbEntity
  8
VERMASSUNG
100
AcDbTrace
 10
56.8326110509
 20
153.7236186349
 30
0.0
 11
56.3826110509
 21
150.7236186349
 31
0.0
 12
57.2826110509
 22
150.7236186349
 32
0.0
 13
57.2826110509
 23
150.7236186349
 33
0.0
  0
SOLID
  5
1B6
330
1B2
100
AcDbEntity
  8
VERMASSUNG
100
AcDbTrace
 10
56.8326110509
 20
53.7236186349
 30
0.0
 11
57.2826110509
 21
56.7236186349
 31
0.0
 12
56.3826110509
 22
56.7236186349
 32
0.0
 13
56.3826110509
 23
56.7236186349
 33
0.0
  0
LINE
  5
1B7
330
1B2
100
AcDbEntity
  8
VERMASSUNG
100
AcDbLine
 10
113.8937459417
 20
153.7236186349
 30
0.0
 11
55.8326110509
 21
153.7236186349
 31
0.0
  0
LINE
  5
1B8
330
1B2
100
AcDbEntity
  8
VERMASSUNG
100
AcDbLine
 10
113.8937459417
 20
53.7236186349
 30
0.0
 11
55.8326110509
 21
53.7236186349
 31
0.0
  0
LINE
  5
1B9
330
1B2
100
AcDbEntity
  8
VERMASSUNG
100
AcDbLine
 10
56.8326110509
 20
153.7236186349
 30
0.0
 11
56.8326110509
 21
53.7236186349
 31
0.0
  0
MTEXT
  5
1BA
330
1B2
100
AcDbEntity
  8
VERMASSUNG
100
AcDbMText
 10
54.0544755619
 20
95.5199674973
 30
0.0
 40
2.0
 41
0.0
 71
     1
 72
     1
  1
HSK A 
  7
SLDTEXTSTYLE0
 11
-7.044195017643634E-15
 21
1.0
 31
0.0
 73
     1
 44
1.0
  0
MTEXT
  5
1BB
330
1B2
100
AcDbEntity
  8
VERMASSUNG
100
AcDbMText
 10
54.2544755714
 20
104.5199680412
 30
0.0
 40
2.0
 41
0.0
 71
     1
 72
     1
  1
%%c
  7
SLDTEXTSTYLE0
 11
-7.044195017643634E-15
 21
1.0
 31
0.0
 73
     1
 44
1.0
  0
MTEXT
  5
1BC
330
1B2
100
AcDbEntity
  8
VERMASSUNG
100
AcDbMText
 10
54.2544756878
 20
108.1282946912
 30
0.0
 40
2.0
 41
0.0
 71
     1
 72
     1
  1
100
  7
SLDTEXTSTYLE0
 11
-7.044195017643634E-15
 21
1.0
 31
0.0
 73
     1
 44
1.0
  0
ENDBLK
  5
1B4
330
1B2
100
AcDbEntity
  8
0
100
AcDbBlockEnd
  0
BLOCK
  5
1C0
330
1BF
100
AcDbEntity
  8
0
100
AcDbBlockBegin
  2
*D2
 70
     1
 10
0.0
 20
0.0
 30
0.0
  3
*D2
  1

  0
SOLID
  5
1C2
330
1BF
100
AcDbEntity
  8
VERMASSUNG
100
AcDbTrace
 10
206.8937459417
 20
151.7236186349
 30
0.0
 11
209.8937459417
 21
151.2736186349
 31
0.0
 12
209.8937459417
 22
152.1736186349
 32
0.0
 13
209.8937459417
 23
152.1736186349
 33
0.0
  0
SOLID
  5
1C3
330
1BF
100
AcDbEntity
  8
VERMASSUNG
100
AcDbTrace
 10
243.3937459417
 20
151.7236186349
 30
0.0
 11
240.3937459417
 21
152.1736186349
 31
0.0
 12
240.3937459417
 22
151.2736186349
 32
0.0
 13
240.3937459417
 23
151.2736186349
 33
0.0
  0
LINE
  5
1C4
330
1BF
100
AcDbEntity
  8
VERMASSUNG
100
AcDbLine
 10
206.8937459417
 20
106.6236186349
 30
0.0
 11
206.8937459417
 21
152.7236186349
 31
0.0
  0
LINE
  5
1C5
330
1BF
100
AcDbEntity
  8
VERMASSUNG
100
AcDbLine
 10
243.3937459417
 20
112.3748376516
 30
0.0
 11
243.3937459417
 21
152.7236186349
 31
0.0
  0
LINE
  5
1C6
330
1BF
100
AcDbEntity
  8
VERMASSUNG
100
AcDbLine
 10
206.8937459417
 20
151.7236186349
 30
0.0
 11
243.3937459417
 21
151.7236186349
 31
0.0
  0
MTEXT
  5
1C7
330
1BF
100
AcDbEntity
  8
VERMASSUNG
100
AcDbMText
 10
222.7441489752
 20
154.301753998
 30
0.0
 40
2.0
 41
0.0
 71
     1
 72
     1
  1
36.5
  7
SLDTEXTSTYLE0
 73
     1
 44
1.0
  0
ENDBLK
  5
1C1
330
1BF
100
AcDbEntity
  8
0
100
AcDbBlockEnd
  0
BLOCK
  5
1CB
330
1CA
100
AcDbEntity
  8
0
100
AcDbBlockBegin
  2
*D3
 70
     1
 10
0.0
 20
0.0
 30
0.0
  3
*D3
  1

  0
SOLID
  5
1CD
330
1CA
100
AcDbEntity
  8
VERMASSUNG
100
AcDbTrace
 10
249.9143011918
 20
100.7236186349
 30
0.0
 11
249.4643011918
 21
97.7236186349
 31
0.0
 12
250.3643011918
 22
97.7236186349
 32
0.0
 13
250.3643011918
 23
97.7236186349
 33
0.0
  0
SOLID
  5
1CE
330
1CA
100
AcDbEntity
  8
VERMASSUNG
100
AcDbTrace
 10
249.9143011918
 20
106.7236186349
 30
0.0
 11
250.3643011918
 21
109.7236186349
 31
0.0
 12
249.4643011918
 22
109.7236186349
 32
0.0
 13
249.4643011918
 23
109.7236186349
 33
0.0
  0
LINE
  5
1CF
330
1CA
100
AcDbEntity
  8
VERMASSUNG
100
AcDbLine
 10
239.8937459417
 20
100.7236186349
 30
0.0
 11
250.9143011918
 21
100.7236186349
 31
0.0
  0
LINE
  5
1D0
330
1CA
100
AcDbEntity
  8
VERMASSUNG
100
AcDbLine
 10
239.8937459417
 20
106.7236186349
 30
0.0
 11
250.9143011918
 21
106.7236186349
 31
0.0
  0
LINE
  5
1D1
330
1CA
100
AcDbEntity
  8
VERMASSUNG
100
AcDbLine
 10
249.9143011918
 20
100.7236186349
 30
0.0
 11
249.9143011918
 21
94.7236186349
 31
0.0
  0
LINE
  5
1D2
330
1CA
100
AcDbEntity
  8
VERMASSUNG
100
AcDbLine
 10
249.9143011918
 20
100.7236186349
 30
0.0
 11
249.9143011918
 21
106.7236186349
 31
0.0
  0
LINE
  5
1D3
330
1CA
100
AcDbEntity
  8
VERMASSUNG
100
AcDbLine
 10
249.9143011918
 20
106.7236186349
 30
0.0
 11
249.9143011918
 21
112.7236186349
 31
0.0
  0
MTEXT
  5
1D4
330
1CA
100
AcDbEntity
  8
VERMASSUNG
100
AcDbMText
 10
247.3361657122
 20
101.2195904659
 30
0.0
 40
2.0
 41
0.0
 71
     1
 72
     1
  1
%%c
  7
SLDTEXTSTYLE0
 11
6.123233995736766E-17
 21
1.0
 31
0.0
 73
     1
 44
1.0
  0
MTEXT
  5
1D5
330
1CA
100
AcDbEntity
  8
VERMASSUNG
100
AcDbMText
 10
247.3361658286
 20
104.8282686891
 30
0.0
 40
2.0
 41
0.0
 71
     1
 72
     1
  1
6
  7
SLDTEXTSTYLE0
 11
6.123233995736766E-17
 21
1.0
 31
0.0
 73
     1
 44
1.0
  0
ENDBLK
  5
1CC
330
1CA
100
AcDbEntity
  8
0
100
AcDbBlockEnd
  0
BLOCK
  5
1D9
330
1D8
100
AcDbEntity
  8
0
100
AcDbBlockBegin
  2
*D4
 70
     1
 10
0.0
 20
0.0
 30
0.0
  3
*D4
  1

  0
SOLID
  5
1DB
330
1D8
100
AcDbEntity
  8
VERMASSUNG
100
AcDbTrace
 10
255.9143011918
 20
93.2236186349
 30
0.0
 11
256.3643011918
 21
96.2236186349
 31
0.0
 12
255.4643011918
 22
96.2236186349
 32
0.0
 13
255.4643011918
 23
96.2236186349
 33
0.0
  0
SOLID
  5
1DC
330
1D8
100
AcDbEntity
  8
VERMASSUNG
100
AcDbTrace
 10
255.9143011918
 20
114.2236186349
 30
0.0
 11
255.4643011918
 21
111.2236186349
 31
0.0
 12
256.3643011918
 22
111.2236186349
 32
0.0
 13
256.3643011918
 23
111.2236186349
 33
0.0
  0
LINE
  5
1DD
330
1D8
100
AcDbEntity
  8
VERMASSUNG
100
AcDbLine
 10
243.3937459417
 20
93.2236186349
 30
0.0
 11
256.9143011918
 21
93.2236186349
 31
0.0
  0
LINE
  5
1DE
330
1D8
100
AcDbEntity
  8
VERMASSUNG
100
AcDbLine
 10
243.3937459417
 20
114.2236186349
 30
0.0
 11
256.9143011918
 21
114.2236186349
 31
0.0
  0
LINE
  5
1DF
330
1D8
100
AcDbEntity
  8
VERMASSUNG
100
AcDbLine
 10
255.9143011918
 20
93.2236186349
 30
0.0
 11
255.9143011918
 21
114.2236186349
 31
0.0
  0
MTEXT
  5
1E0
330
1D8
100
AcDbEntity
  8
VERMASSUNG
100
AcDbMText
 10
253.3361657122
 20
100.7194810401
 30
0.0
 40
2.0
 41
0.0
 71
     1
 72
     1
  1
%%c
  7
SLDTEXTSTYLE0
 11
6.123233995736766E-17
 21
1.0
 31
0.0
 73
     1
 44
1.0
  0
MTEXT
  5
1E1
330
1D8
100
AcDbEntity
  8
VERMASSUNG
100
AcDbMText
 10
253.3361658286
 20
104.3281592633
 30
0.0
 40
2.0
 41
0.0
 71
     1
 72
     1
  1
21
  7
SLDTEXTSTYLE0
 11
6.123233995736766E-17
 21
1.0
 31
0.0
 73
     1
 44
1.0
  0
ENDBLK
  5
1DA
330
1D8
100
AcDbEntity
  8
0
100
AcDbBlockEnd
  0
BLOCK
  5
1E4
330
1E3
100
AcDbEntity
  8
0
100
AcDbBlockBegin
  2
*D5
 70
     1
 10
0.0
 20
0.0
 30
0.0
  3
*D5
  1

  0
SOLID
  5
1E6
330
1E3
100
AcDbEntity
  8
VERMASSUNG
100
AcDbTrace
 10
113.3937459417
 20
163.7236186349
 30
0.0
 11
116.3937459417
 21
163.2736186349
 31
0.0
 12
116.3937459417
 22
164.1736186349
 32
0.0
 13
116.3937459417
 23
164.1736186349
 33
0.0
  0
SOLID
  5
1E7
330
1E3
100
AcDbEntity
  8
VERMASSUNG
100
AcDbTrace
 10
243.3937459417
 20
163.7236186349
 30
0.0
 11
240.3937459417
 21
164.1736186349
 31
0.0
 12
240.3937459417
 22
163.2736186349
 32
0.0
 13
240.3937459417
 23
163.2736186349
 33
0.0
  0
LINE
  5
1E8
330
1E3
100
AcDbEntity
  8
VERMASSUNG
100
AcDbLine
 10
113.3937459417
 20
153.2236186349
 30
0.0
 11
113.3937459417
 21
164.7236186349
 31
0.0
  0
LINE
  5
1E9
330
1E3
100
AcDbEntity
  8
VERMASSUNG
100
AcDbLine
 10
243.3937459417
 20
112.3748376516
 30
0.0
 11
243.3937459417
 21
164.7236186349
 31
0.0
  0
LINE
  5
1EA
330
1E3
100
AcDbEntity
  8
VERMASSUNG
100
AcDbLine
 10
113.3937459417
 20
163.7236186349
 30
0.0
 11
243.3937459417
 21
163.7236186349
 31
0.0
  0
MTEXT
  5
1EB
330
1E3
100
AcDbEntity
  8
VERMASSUNG
100
AcDbMText
 10
176.494258401
 20
166.301753998
 30
0.0
 40
2.0
 41
0.0
 71
     1
 72
     1
  1
130
  7
SLDTEXTSTYLE0
 73
     1
 44
1.0
  0
ENDBLK
  5
1E5
330
1E3
100
AcDbEntity
  8
0
100
AcDbBlockEnd
  0
BLOCK
  5
1EE
330
1ED
100
AcDbEntity
  8
0
100
AcDbBlockBegin
  2
*D6
 70
     1
 10
0.0
 20
0.0
 30
0.0
  3
*D6
  1

  0
SOLID
  5
1F0
330
1ED
100
AcDbEntity
  8
VERMASSUNG
100
AcDbTrace
 10
142.3437459417
 20
157.7236186349
 30
0.0
 11
145.3437459417
 21
157.2736186349
 31
0.0
 12
145.3437459417
 22
158.1736186349
 32
0.0
 13
145.3437459417
 23
158.1736186349
 33
0.0
  0
SOLID
  5
1F1
330
1ED
100
AcDbEntity
  8
VERMASSUNG
100
AcDbTrace
 10
243.3937459417
 20
157.7236186349
 30
0.0
 11
240.3937459417
 21
158.1736186349
 31
0.0
 12
240.3937459417
 22
157.2736186349
 32
0.0
 13
240.3937459417
 23
157.2736186349
 33
0.0
  0
LINE
  5
1F2
330
1ED
100
AcDbEntity
  8
VERMASSUNG
100
AcDbLine
 10
142.3437459417
 20
151.6923584557
 30
0.0
 11
142.3437459417
 21
158.7236186349
 31
0.0
  0
LINE
  5
1F3
330
1ED
100
AcDbEntity
  8
VERMASSUNG
100
AcDbLine
 10
243.3937459417
 20
112.3748376516
 30
0.0
 11
243.3937459417
 21
158.7236186349
 31
0.0
  0
LINE
  5
1F4
330
1ED
100
AcDbEntity
  8
VERMASSUNG
100
AcDbLine
 10
142.3437459417
 20
157.7236186349
 30
0.0
 11
243.3937459417
 21
157.7236186349
 31
0.0
  0
MTEXT
  5
1F5
330
1ED
100
AcDbEntity
  8
VERMASSUNG
100
AcDbMText
 10
189.4689301237
 20
160.301753998
 30
0.0
 40
2.0
 41
0.0
 71
     1
 72
     1
  1
101.05
  7
SLDTEXTSTYLE0
 73
     1
 44
1.0
  0
ENDBLK
  5
1EF
330
1ED
100
AcDbEntity
  8
0
100
AcDbBlockEnd
  0
BLOCK
  5
1F8
330
1F7
100
AcDbEntity
  8
0
100
AcDbBlockBegin
  2
*D7
 70
     1
 10
0.0
 20
0.0
 30
0.0
  3
*D7
  1

  0
SOLID
  5
1FA
330
1F7
100
AcDbEntity
  8
VERMASSUNG
100
AcDbTrace
 10
63.4937459417
 20
169.7236186349
 30
0.0
 11
66.4937459417
 21
169.2736186349
 31
0.0
 12
66.4937459417
 22
170.1736186349
 32
0.0
 13
66.4937459417
 23
170.1736186349
 33
0.0
  0
SOLID
  5
1FB
330
1F7
100
AcDbEntity
  8
VERMASSUNG
100
AcDbTrace
 10
243.3937459417
 20
169.7236186349
 30
0.0
 11
240.3937459417
 21
170.1736186349
 31
0.0
 12
240.3937459417
 22
169.2736186349
 32
0.0
 13
240.3937459417
 23
169.2736186349
 33
0.0
  0
LINE
  5
1FC
330
1F7
100
AcDbEntity
  8
VERMASSUNG
100
AcDbLine
 10
63.4937459417
 20
134.2262883775
 30
0.0
 11
63.4937459417
 21
170.7236186349
 31
0.0
  0
LINE
  5
1FD
330
1F7
100
AcDbEntity
  8
VERMASSUNG
100
AcDbLine
 10
243.3937459417
 20
112.3748376516
 30
0.0
 11
243.3937459417
 21
170.7236186349
 31
0.0
  0
LINE
  5
1FE
330
1F7
100
AcDbEntity
  8
VERMASSUNG
100
AcDbLine
 10
63.4937459417
 20
169.7236186349
 30
0.0
 11
243.3937459417
 21
169.7236186349
 31
0.0
  0
MTEXT
  5
1FF
330
1F7
100
AcDbEntity
  8
VERMASSUNG
100
AcDbMText
 10
150.5440395495
 20
172.301753998
 30
0.0
 40
2.0
 41
0.0
 71
     1
 72
     1
  1
179.9
  7
SLDTEXTSTYLE0
 73
     1
 44
1.0
  0
ENDBLK
  5
1F9
330
1F7
100
AcDbEntity
  8
0
100
AcDbBlockEnd
  0
BLOCK
  5
202
330
201
100
AcDbEntity
  8
0
100
AcDbBlockBegin
  2
*D8
 70
     1
 10
0.0
 20
0.0
 30
0.0
  3
*D8
  1

  0
SOLID
  5
204
330
201
100
AcDbEntity
  8
VERMASSUNG
100
AcDbTrace
 10
261.9143011918
 20
118.7236186349
 30
0.0
 11
261.4643011918
 21
115.7236186349
 31
0.0
 12
262.3643011918
 22
115.7236186349
 32
0.0
 13
262.3643011918
 23
115.7236186349
 33
0.0
  0
SOLID
  5
205
330
201
100
AcDbEntity
  8
VERMASSUNG
100
AcDbTrace
 10
261.9143011918
 20
88.7236186349
 30
0.0
 11
262.3643011918
 21
91.7236186349
 31
0.0
 12
261.4643011918
 22
91.7236186349
 32
0.0
 13
261.4643011918
 23
91.7236186349
 33
0.0
  0
LINE
  5
206
330
201
100
AcDbEntity
  8
VERMASSUNG
100
AcDbLine
 10
164.3437459417
 20
118.7236186349
 30
0.0
 11
262.9143011918
 21
118.7236186349
 31
0.0
  0
LINE
  5
207
330
201
100
AcDbEntity
  8
VERMASSUNG
100
AcDbLine
 10
164.3437459417
 20
88.7236186349
 30
0.0
 11
262.9143011918
 21
88.7236186349
 31
0.0
  0
LINE
  5
208
330
201
100
AcDbEntity
  8
VERMASSUNG
100
AcDbLine
 10
261.9143011918
 20
118.7236186349
 30
0.0
 11
261.9143011918
 21
88.7236186349
 31
0.0
  0
MTEXT
  5
209
330
201
100
AcDbEntity
  8
VERMASSUNG
100
AcDbMText
 10
259.3361657122
 20
100.5199014085
 30
0.0
 40
2.0
 41
0.0
 71
     1
 72
     1
  1
%%c
  7
SLDTEXTSTYLE0
 11
-7.044195017643634E-15
 21
1.0
 31
0.0
 73
     1
 44
1.0
  0
MTEXT
  5
20A
330
201
100
AcDbEntity
  8
VERMASSUNG
100
AcDbMText
 10
259.3361658286
 20
104.1285796316
 30
0.0
 40
2.0
 41
0.0
 71
     1
 72
     1
  1
30
  7
SLDTEXTSTYLE0
 11
-7.044195017643634E-15
 21
1.0
 31
0.0
 73
     1
 44
1.0
  0
ENDBLK
  5
203
330
201
100
AcDbEntity
  8
0
100
AcDbBlockEnd
  0
ENDSEC
  0
SECTION
  2
ENTITIES
  0
MTEXT
  5
45
330
1F
100
AcDbEntity
  8
KOPF_DÜNN
100
AcDbMText
 10
13.8892156294
 20
23.8442973028
 30
0.0
 40
3.0
 41
0.0
 71
     1
 72
     1
  1
HA0.S06.K21.130
  7
SLDTEXTSTYLE0
 73
     1
 44
1.0
  0
MTEXT
  5
46
330
1F
100
AcDbEntity
  8
VERMASSUNG
100
AcDbMText
 10
13.9329988022
 20
28.8834360957
 30
0.0
 40
3.0
 41
0.0
 71
     1
 72
     1
  1
Schrumpffutter_Heat shrink chuck
  7
SLDTEXTSTYLE0
 73
     1
 44
1.0
  0
MTEXT
  5
47
330
1F
100
AcDbEntity
  8
VERMASSUNG
100
AcDbMText
 10
98.8601118557
 20
13.8365368179
 30
0.0
 40
2.0
 41
0.0
 71
     1
 72
     1
  1
Datum: 28.04.2011
  7
SLDTEXTSTYLE0
 73
     1
 44
1.0
  0
MTEXT
  5
49
330
1F
100
AcDbEntity
  8
VERMASSUNG
100
AcDbMText
 10
13.933048693
 20
18.0482802738
 30
0.0
 40
2.0
 41
0.0
 71
     1
 72
     1
  1
DIN 69 893 HSK A 100
  7
SLDTEXTSTYLE1
 73
     1
 44
1.0
  0
MTEXT
  5
4A
330
1F
100
AcDbEntity
  8
VERMASSUNG
100
AcDbMText
 10
13.9808475933
 20
13.9090973692
 30
0.0
 40
2.0
 41
0.0
 71
     1
 72
     1
  1
Gewicht: 2420g
  7
SLDTEXTSTYLE0
 73
     1
 44
1.0
  0
LINE
  5
4B
330
1F
100
AcDbEntity
  8
0
  6
Continuous
 62
     7
370
    15
100
AcDbLine
 10
243.4121784252
 20
111.4433353364
 30
0.0
 11
243.3937459417
 21
111.4783697249
 31
0.0
  0
LINE
  5
4C
330
1F
100
AcDbEntity
  8
0
  6
Continuous
 62
     7
370
    15
100
AcDbLine
 10
243.3937459417
 20
95.8592503745
 30
0.0
 11
243.4710681488
 21
96.006215717
 31
0.0
  0
ARC
  5
4D
330
1F
100
AcDbEntity
  8
0
  6
Continuous
 62
     7
370
    15
100
AcDbCircle
 10
113.8937459417
 20
54.2236186349
 30
0.0
 40
0.5000000000000142
100
AcDbArc
 50
180.0
 51
270.0
  0
ARC
  5
4E
330
1F
100
AcDbEntity
  8
0
  6
Continuous
 62
     7
370
    15
100
AcDbCircle
 10
113.8937459417
 20
153.2236186349
 30
0.0
 40
0.5000000000000142
100
AcDbArc
 50
90.0
 51
180.0
  0
LINE
  5
4F
330
1F
100
AcDbEntity
  8
0
  6
Continuous
 62
     7
370
    15
100
AcDbLine
 10
113.8937459417
 20
53.7236186349
 30
0.0
 11
118.3437459417
 21
53.7236186349
 31
0.0
  0
LINE
  5
50
330
1F
100
AcDbEntity
  8
0
  6
Continuous
 62
     7
370
    15
100
AcDbLine
 10
118.3591239131
 20
153.7236186349
 30
0.0
 11
113.8937459417
 21
153.7236186349
 31
0.0
  0
ARC
  5
51
330
1F
100
AcDbEntity
  8
0
  6
Continuous
 62
     7
370
    15
100
AcDbCircle
 10
112.4968090232
 20
65.0951333104
 30
0.0
 40
0.996233821438679
100
AcDbArc
 50
25.7988228126
 51
90.0
  0
ARC
  5
52
330
1F
100
AcDbEntity
  8
0
  6
Continuous
 62
     7
370
    15
100
AcDbCircle
 10
112.4968090232
 20
142.3521039593
 30
0.0
 40
0.9962338214386665
100
AcDbArc
 50
270.0
 51
334.2011771874
  0
LINE
  5
53
330
1F
100
AcDbEntity
  8
0
  6
Continuous
 62
     7
370
    15
100
AcDbLine
 10
110.8937459417
 20
65.8413671319
 30
0.0
 11
111.699592096
 21
66.0572929582
 31
0.0
  0
LINE
  5
54
330
1F
100
AcDbEntity
  8
0
  6
Continuous
 62
     7
370
    15
100
AcDbLine
 10
111.699592096
 20
141.3899443116
 30
0.0
 11
110.8937459417
 21
141.6058701379
 31
0.0
  0
LINE
  5
55
330
1F
100
AcDbEntity
  8
0
  6
Continuous
 62
     7
370
    15
100
AcDbLine
 10
91.913067023
 20
140.6549343203
 30
0.0
 11
73.5937459417
 21
139.7371326629
 31
0.0
  0
LINE
  5
56
330
1F
100
AcDbEntity
  8
0
  6
Continuous
 62
     7
370
    15
100
AcDbLine
 10
110.8937459417
 20
141.6058701379
 30
0.0
 11
104.8257067872
 21
141.3018601602
 31
0.0
  0
LINE
  5
57
330
1F
100
AcDbEntity
  8
0
  6
Continuous
 62
     7
370
    15
100
AcDbLine
 10
104.8258300637
 20
66.1453709334
 30
0.0
 11
110.8937459417
 21
65.8413671319
 31
0.0
  0
LINE
  5
58
330
1F
100
AcDbEntity
  8
0
  6
Continuous
 62
     7
370
    15
100
AcDbLine
 10
78.5937459417
 20
67.4596036048
 30
0.0
 11
91.9136970956
 21
66.7922713827
 31
0.0
  0
ARC
  5
59
330
1F
100
AcDbEntity
  8
0
  6
Continuous
 62
     7
370
    15
100
AcDbCircle
 10
111.9584111411
 20
65.0913671319
 30
0.0
 40
0.9999999999999993
100
AcDbArc
 50
90.0
 51
105.0
  0
ARC
  5
5A
330
1F
100
AcDbEntity
  8
0
  6
Continuous
 62
     7
370
    15
100
AcDbCircle
 10
111.9584111411
 20
142.3558701379
 30
0.0
 40
1.0
100
AcDbArc
 50
255.0
 51
270.0
  0
LINE
  5
5B
330
1F
100
AcDbEntity
  8
0
  6
Continuous
 62
     7
370
    15
100
AcDbLine
 10
111.9584111411
 20
66.0913671319
 30
0.0
 11
112.4968090232
 21
66.0913671319
 31
0.0
  0
LINE
  5
5C
330
1F
100
AcDbEntity
  8
0
  6
Continuous
 62
     7
370
    15
100
AcDbLine
 10
112.4968090232
 20
141.3558701379
 30
0.0
 11
111.9584111411
 21
141.3558701379
 31
0.0
  0
ARC
  5
5D
330
1F
100
AcDbEntity
  8
0
  6
Continuous
 62
     7
370
    15
100
AcDbCircle
 10
147.3437459417
 20
83.7236186349
 30
0.0
 40
5.0
100
AcDbArc
 50
90.0
 51
180.0
  0
ARC
  5
5E
330
1F
100
AcDbEntity
  8
0
  6
Continuous
 62
     7
370
    15
100
AcDbCircle
 10
147.3437459417
 20
123.7236186349
 30
0.0
 40
5.000000000000014
100
AcDbArc
 50
180.0
 51
270.0
  0
LINE
  5
5F
330
1F
100
AcDbEntity
  8
0
  6
Continuous
 62
     7
370
    15
100
AcDbLine
 10
65.1437459417
 20
71.4736186349
 30
0.0
 11
76.6937459417
 21
71.4736186349
 31
0.0
  0
ARC
  5
60
330
1F
100
AcDbEntity
  8
0
  6
Continuous
 62
     7
370
    15
100
AcDbCircle
 10
76.6937459417
 20
69.5736186349
 30
0.0
 40
1.900000000000007
100
AcDbArc
 50
35.6630613694
 51
90.0
  0
ARC
  5
61
330
1F
100
AcDbEntity
  8
0
  6
Continuous
 62
     7
370
    15
100
AcDbCircle
 10
71.6937459417
 20
137.8736186349
 30
0.0
 40
1.900000000000006
100
AcDbArc
 50
270.0
 51
312.7708047792
  0
LINE
  5
62
330
1F
100
AcDbEntity
  8
0
  6
Continuous
 62
     7
370
    15
100
AcDbLine
 10
65.1437459417
 20
135.9736186349
 30
0.0
 11
63.5505295797
 21
134.3804022729
 31
0.0
  0
LINE
  5
63
330
1F
100
AcDbEntity
  8
0
  6
Continuous
 62
     7
370
    15
100
AcDbLine
 10
63.5512688421
 20
73.0660957344
 30
0.0
 11
65.1437459417
 21
71.4736186349
 31
0.0
  0
LINE
  5
64
330
1F
100
AcDbEntity
  8
0
  6
Continuous
 62
     7
370
    15
100
AcDbLine
 10
71.6937459417
 20
135.9736186349
 30
0.0
 11
65.1437459417
 21
135.9736186349
 31
0.0
  0
ARC
  5
65
330
1F
100
AcDbEntity
  8
0
  6
Continuous
 62
     7
370
    15
100
AcDbCircle
 10
204.9362329313
 20
-459.7763813651
 30
0.0
 40
550.0
100
AcDbArc
 50
90.0
 51
94.2325360682
  0
ARC
  5
66
330
1F
100
AcDbEntity
  8
0
  6
Continuous
 62
     7
370
    15
100
AcDbCircle
 10
204.9362329313
 20
667.2236186349
 30
0.0
 40
550.0
100
AcDbArc
 50
265.7674639318
 51
270.0
  0
LINE
  5
67
330
1F
100
AcDbEntity
  8
0
  6
Continuous
 62
     7
370
    15
100
AcDbLine
 10
158.842733318
 20
88.7236186349
 30
0.0
 11
164.3437459417
 21
88.7236186349
 31
0.0
  0
LINE
  5
68
330
1F
100
AcDbEntity
  8
0
  6
Continuous
 62
     7
370
    15
100
AcDbLine
 10
147.3437459417
 20
88.7236186349
 30
0.0
 11
151.8485963102
 21
88.7236186349
 31
0.0
  0
LINE
  5
69
330
1F
100
AcDbEntity
  8
0
  6
Continuous
 62
     7
370
    15
100
AcDbLine
 10
151.8448728295
 20
118.7236186349
 30
0.0
 11
147.3437459417
 21
118.7236186349
 31
0.0
  0
LINE
  5
6A
330
1F
100
AcDbEntity
  8
0
  6
Continuous
 62
     7
370
    15
100
AcDbLine
 10
164.3437459417
 20
118.7236186349
 30
0.0
 11
158.833983782
 21
118.7236186349
 31
0.0
  0
LINE
  5
6B
330
1F
100
AcDbEntity
  8
0
  6
Continuous
 62
     7
370
    15
100
AcDbLine
 10
205.2751317331
 20
90.2236186349
 30
0.0
 11
241.5506641331
 21
93.0785649507
 31
0.0
  0
LINE
  5
6C
330
1F
100
AcDbEntity
  8
0
  6
Continuous
 62
     7
370
    15
100
AcDbLine
 10
241.5506641331
 20
114.368672319
 30
0.0
 11
205.2751317331
 21
117.2236186349
 31
0.0
  0
LINE
  5
6D
330
1F
100
AcDbEntity
  8
0
  6
Continuous
 62
     7
370
    15
100
AcDbLine
 10
204.9362329313
 20
90.2236186349
 30
0.0
 11
205.2751317331
 21
90.2236186349
 31
0.0
  0
LINE
  5
6E
330
1F
100
AcDbEntity
  8
0
  6
Continuous
 62
     7
370
    15
100
AcDbLine
 10
205.2751317331
 20
117.2236186349
 30
0.0
 11
204.9362329313
 21
117.2236186349
 31
0.0
  0
ARC
  5
6F
330
1F
100
AcDbEntity
  8
0
  6
Continuous
 62
     7
370
    15
100
AcDbCircle
 10
241.3937459417
 20
95.0723996182
 30
0.0
 40
1.99999999999999
100
AcDbArc
 50
274.5
 51
0.0
  0
ARC
  5
70
330
1F
100
AcDbEntity
  8
0
  6
Continuous
 62
     7
370
    15
100
AcDbCircle
 10
241.3937459417
 20
112.3748376516
 30
0.0
 40
1.99999999999999
100
AcDbArc
 50
0.0
 51
85.5
  0
LINE
  5
71
330
1F
100
AcDbEntity
  8
0
  6
Continuous
 62
     7
370
    15
100
AcDbLine
 10
243.4057640772
 20
111.2800792779
 30
0.0
 11
243.3937459417
 21
110.9741973038
 31
0.0
  0
LINE
  5
72
330
1F
100
AcDbEntity
  8
0
  6
Continuous
 62
     7
370
    15
100
AcDbLine
 10
243.4121784252
 20
111.4433353364
 30
0.0
 11
243.4057640772
 21
111.2800792779
 31
0.0
  0
LINE
  5
73
330
1F
100
AcDbEntity
  8
0
  6
Continuous
 62
     7
370
    15
100
AcDbLine
 10
243.3937459417
 20
97.9741973038
 30
0.0
 11
243.4710681488
 21
96.006215717
 31
0.0
  0
LINE
  5
74
330
1F
100
AcDbEntity
  8
0
  6
Continuous
 62
     7
370
    15
100
AcDbLine
 10
141.3437459417
 20
54.9486250419
 30
0.0
 11
136.6557749626
 21
54.9486250419
 31
0.0
  0
LINE
  5
75
330
1F
100
AcDbEntity
  8
0
  6
Continuous
 62
     7
370
    15
100
AcDbLine
 10
136.6557749626
 20
54.9486250419
 30
0.0
 11
136.6557749626
 21
135.0736186349
 31
0.0
  0
LINE
  5
76
330
1F
100
AcDbEntity
  8
0
  6
Continuous
 62
     7
370
    15
100
AcDbLine
 10
136.6557749626
 20
135.0736186349
 30
0.0
 11
141.3437459417
 21
135.0736186349
 31
0.0
  0
LINE
  5
77
330
1F
100
AcDbEntity
  8
0
  6
Continuous
 62
     7
370
    15
100
AcDbLine
 10
113.3937459417
 20
54.2236186349
 30
0.0
 11
113.3937459417
 21
153.2236186304
 31
0.0
  0
LINE
  5
78
330
1F
100
AcDbEntity
  8
0
  6
Continuous
 62
     7
370
    15
100
AcDbLine
 10
131.4837459417
 20
57.3522303479
 30
0.0
 11
131.4837459417
 21
135.0736186349
 31
0.0
  0
SPLINE
  5
79
330
1F
100
AcDbEntity
  8
0
  6
Continuous
 62
     7
370
    15
100
AcDbSpline
210
0.0
220
0.0
230
1.0
 70
     8
 71
     3
 72
     8
 73
     4
 74
     0
 42
0.00000001
 43
0.00000001
 40
0.0
 40
0.0
 40
0.0
 40
0.0
 40
1.0
 40
1.0
 40
1.0
 40
1.0
 10
131.4837459416634
 20
57.35223034786288
 30
0.0
 10
131.0335194773856
 20
56.55077498523812
 30
0.0
 10
130.5828216501422
 20
55.74958497367746
 30
0.0
 10
130.131716920742
 20
54.94862504185754
 30
0.0
  0
LINE
  5
7A
330
1F
100
AcDbEntity
  8
0
  6
Continuous
 62
     7
370
    15
100
AcDbLine
 10
130.1317169207
 20
54.9486250419
 30
0.0
 11
130.1317169207
 21
135.0736186349
 31
0.0
  0
SPLINE
  5
7B
330
1F
100
AcDbEntity
  8
0
  6
Continuous
 62
     7
370
    15
100
AcDbSpline
210
0.0
220
0.0
230
1.0
 70
    24
 71
     3
 72
     8
 73
     4
 74
     0
 42
0.00000001
 43
0.00000001
 40
0.0
 40
0.0
 40
0.0
 40
0.0
 40
1.0
 40
1.0
 40
1.0
 40
1.0
 10
130.131716920742
 20
135.0736186348863
 30
0.0
 10
130.5885184930703
 20
135.0736186348863
 30
0.0
 10
131.0395330593095
 20
135.0736186348863
 30
0.0
 10
131.4837459416634
 20
135.0736186348863
 30
0.0
  0
LINE
  5
7C
330
1F
100
AcDbEntity
  8
0
  6
Continuous
 62
     7
370
    15
100
AcDbLine
 10
142.3437459417
 20
55.9742730896
 30
0.0
 11
142.3437459417
 21
135.0736186349
 31
0.0
  0
SPLINE
  5
7D
330
1F
100
AcDbEntity
  8
0
  6
Continuous
 62
     7
370
    15
100
AcDbSpline
210
0.0
220
0.0
230
1.0
 70
     8
 71
     3
 72
    14
 73
    10
 74
     0
 42
0.00000001
 43
0.00000001
 40
0.0
 40
0.0
 40
0.0
 40
0.0
 40
0.25
 40
0.25
 40
0.5
 40
0.5
 40
0.75
 40
0.75
 40
1.0
 40
1.0
 40
1.0
 40
1.0
 10
142.3437459416634
 20
55.97427308963305
 30
0.0
 10
142.3437459416634
 20
55.84084739357851
 30
0.0
 10
142.3184348417525
 20
55.70899958573415
 30
0.0
 10
142.2201000779078
 20
55.46247703704005
 30
0.0
 10
142.1469560736518
 20
55.34867184879951
 30
0.0
 10
141.9635180125561
 20
55.15821467185224
 30
0.0
 10
141.8518316782175
 20
55.08057980800232
 30
0.0
 10
141.6093282479112
 20
54.97628839788985
 30
0.0
 10
141.475953819217
 20
54.9486250418575
 30
0.0
 10
141.3437459416634
 20
54.9486250418575
 30
0.0
  0
SPLINE
  5
7E
330
1F
100
AcDbEntity
  8
0
  6
Continuous
 62
     7
370
    15
100
AcDbSpline
210
0.0
220
0.0
230
1.0
 70
    24
 71
     3
 72
    12
 73
     8
 74
     0
 42
0.00000001
 43
0.00000001
 40
0.0
 40
0.0
 40
0.0
 40
0.0
 40
0.2500000000000032
 40
0.2500000000000032
 40
0.5000000000000064
 40
0.5000000000000064
 40
1.0
 40
1.0
 40
1.0
 40
1.0
 10
141.3437459416634
 20
135.0736186348863
 30
0.0
 10
141.4958361786084
 20
135.0736186348864
 30
0.0
 10
141.6442954396838
 20
135.0736186348863
 30
0.0
 10
141.9016990719495
 20
135.0736186348863
 30
0.0
 10
142.0108038197914
 20
135.0736186348863
 30
0.0
 10
142.264863296199
 20
135.0736186348864
 30
0.0
 10
142.3437459416634
 20
135.0736186348863
 30
0.0
 10
142.3437459416634
 20
135.0736186348863
 30
0.0
  0
SPLINE
  5
7F
330
1F
100
AcDbEntity
  8
0
  6
Continuous
 62
     7
370
    15
100
AcDbSpline
210
0.0
220
0.0
230
1.0
 70
     8
 71
     3
 72
     8
 73
     4
 74
     0
 42
0.00000001
 43
0.00000001
 40
0.0
 40
0.0
 40
0.0
 40
0.0
 40
1.0
 40
1.0
 40
1.0
 40
1.0
 10
136.6557749625848
 20
54.94862504185754
 30
0.0
 10
136.2046702331846
 20
55.74958497367746
 30
0.0
 10
135.7539724059412
 20
56.55077498523812
 30
0.0
 10
135.3037459416634
 20
57.35223034786288
 30
0.0
  0
LINE
  5
80
330
1F
100
AcDbEntity
  8
0
  6
Continuous
 62
     7
370
    15
100
AcDbLine
 10
135.3037459417
 20
57.3522303479
 30
0.0
 11
135.3037459417
 21
135.0736186349
 31
0.0
  0
SPLINE
  5
81
330
1F
100
AcDbEntity
  8
0
  6
Continuous
 62
     7
370
    15
100
AcDbSpline
210
0.0
220
0.0
230
1.0
 70
    24
 71
     3
 72
     8
 73
     4
 74
     0
 42
0.00000001
 43
0.00000001
 40
0.0
 40
0.0
 40
0.0
 40
0.0
 40
1.0
 40
1.0
 40
1.0
 40
1.0
 10
135.3037459416634
 20
135.0736186348863
 30
0.0
 10
135.7479588240174
 20
135.0736186348863
 30
0.0
 10
136.1989733902566
 20
135.0736186348863
 30
0.0
 10
136.6557749625848
 20
135.0736186348863
 30
0.0
  0
SPLINE
  5
82
330
1F
100
AcDbEntity
  8
0
  6
Continuous
 62
     7
370
    15
100
AcDbSpline
210
0.0
220
0.0
230
1.0
 70
     8
 71
     3
 72
    80
 73
    76
 74
     0
 42
0.00000001
 43
0.00000001
 40
-0.0312500000000001
 40
-0.0312500000000001
 40
0.0
 40
0.0
 40
0.0312499999999995
 40
0.0312499999999995
 40
0.0468749999999993
 40
0.0468749999999993
 40
0.0624999999999991
 40
0.0624999999999991
 40
0.0937499999999988
 40
0.0937499999999988
 40
0.1249999999999986
 40
0.1249999999999986
 40
0.1562499999999983
 40
0.1562499999999983
 40
0.1874999999999981
 40
0.1874999999999981
 40
0.2187499999999978
 40
0.2187499999999978
 40
0.2499999999999976
 40
0.2499999999999976
 40
0.2812499999999973
 40
0.2812499999999973
 40
0.3124999999999971
 40
0.3124999999999971
 40
0.3281249999999971
 40
0.3281249999999971
 40
0.3437499999999971
 40
0.3437499999999971
 40
0.3749999999999973
 40
0.3749999999999973
 40
0.4062499999999975
 40
0.4062499999999975
 40
0.4218749999999975
 40
0.4218749999999975
 40
0.4374999999999974
 40
0.4374999999999974
 40
0.4687499999999973
 40
0.4687499999999973
 40
0.4999999999999972
 40
0.4999999999999972
 40
0.531249999999997
 40
0.531249999999997
 40
0.562499999999997
 40
0.562499999999997
 40
0.5937499999999969
 40
0.5937499999999969
 40
0.6249999999999969
 40
0.6249999999999969
 40
0.6562499999999968
 40
0.6562499999999968
 40
0.6874999999999968
 40
0.6874999999999968
 40
0.7031249999999968
 40
0.7031249999999968
 40
0.7187499999999969
 40
0.7187499999999969
 40
0.7499999999999973
 40
0.7499999999999973
 40
0.7812499999999979
 40
0.7812499999999979
 40
0.7968749999999982
 40
0.7968749999999982
 40
0.8124999999999984
 40
0.8124999999999984
 40
0.8437499999999988
 40
0.8437499999999988
 40
0.874999999999999
 40
0.874999999999999
 40
0.9062499999999993
 40
0.9062499999999993
 40
0.9374999999999996
 40
0.9374999999999996
 40
0.9687499999999999
 40
0.9687499999999999
 40
1.0
 40
1.0
 40
1.03125
 40
1.03125
 10
122.0632006288871
 20
147.1382480985176
 30
0.0
 10
122.7242912544397
 20
147.1382480985176
 30
0.0
 10
123.0492713836914
 20
147.1544563298998
 30
0.0
 10
123.5287447949378
 20
147.2018209619194
 30
0.0
 10
123.6872266127786
 20
147.22147517381
 30
0.0
 10
124.0014461452829
 20
147.2685863300027
 30
0.0
 10
124.1575664289633
 20
147.2961676494973
 30
0.0
 10
124.6116204579198
 20
147.3887034362911
 30
0.0
 10
124.8987238408597
 20
147.4637738698876
 30
0.0
 10
125.4420783968867
 20
147.6390121784982
 30
0.0
 10
125.6991820080923
 20
147.7400134763365
 30
0.0
 10
126.1600882630311
 20
147.9573696747973
 30
0.0
 10
126.366985972246
 20
148.0745340065696
 30
0.0
 10
126.7325112862382
 20
148.3246039307982
 30
0.0
 10
126.8877168083642
 20
148.4555500195572
 30
0.0
 10
127.1371471949639
 20
148.7212849632696
 30
0.0
 10
127.2332371507491
 20
148.8580385565805
 30
0.0
 10
127.3617559999426
 20
149.1321041314195
 30
0.0
 10
127.3935668701204
 20
149.2670442218884
 30
0.0
 10
127.3939235198937
 20
149.5325158589571
 30
0.0
 10
127.3614262676966
 20
149.6643403360984
 30
0.0
 10
127.2338007939821
 20
149.9137899357187
 30
0.0
 10
127.1393723929303
 20
150.0322226276468
 30
0.0
 10
126.9515115729447
 20
150.2010918247408
 30
0.0
 10
126.8806835741415
 20
150.256177819861
 30
0.0
 10
126.7259616821762
 20
150.3614306483495
 30
0.0
 10
126.6419852119928
 20
150.4117658771098
 30
0.0
 10
126.3706615423484
 20
150.5563417096479
 30
0.0
 10
126.1641123237461
 20
150.6442032960649
 30
0.0
 10
125.697502183557
 20
150.8039243890644
 30
0.0
 10
125.4451366139316
 20
150.8731626855316
 30
0.0
 10
125.0392352722529
 20
150.9629500747614
 30
0.0
 10
124.8993346547754
 20
150.9905160368476
 30
0.0
 10
124.6101107195285
 20
151.0410068377739
 30
0.0
 10
124.4602712632392
 20
151.0639702766246
 30
0.0
 10
124.0061546936284
 20
151.1246007930435
 30
0.0
 10
123.6945034748915
 20
151.1546748218393
 30
0.0
 10
123.0535070099792
 20
151.1952644090979
 30
0.0
 10
122.721979382027
 20
151.2055766393139
 30
0.0
 10
122.0691883369555
 20
151.2056522064798
 30
0.0
 10
121.7446521319237
 20
151.195750601012
 30
0.0
 10
121.0993826825073
 20
151.1552640704867
 30
0.0
 10
120.7836396763446
 20
151.1248027706021
 30
0.0
 10
120.1817503813609
 20
151.0446520991655
 30
0.0
 10
119.8910011505494
 20
150.9943698673583
 30
0.0
 10
119.3440893588649
 20
150.8736996845853
 30
0.0
 10
119.092311995028
 20
150.8044758254153
 30
0.0
 10
118.6309240024068
 20
150.6470240977747
 30
0.0
 10
118.4196547228087
 20
150.5576756231009
 30
0.0
 10
118.0563503704326
 20
150.3644277524001
 30
0.0
 10
117.9025437219898
 20
150.2602997605208
 30
0.0
 10
117.7139242523924
 20
150.0916753743373
 30
0.0
 10
117.6578937661832
 20
150.0330469726624
 30
0.0
 10
117.5623200044471
 20
149.9135920578362
 30
0.0
 10
117.5225570874221
 20
149.852672268998
 30
0.0
 10
117.42678533711
 20
149.666267542824
 30
0.0
 10
117.3940624979838
 20
149.537154725029
 30
0.0
 10
117.3934339116547
 20
149.2684978020732
 30
0.0
 10
117.4256200563895
 20
149.1331270613164
 30
0.0
 10
117.5205307582451
 20
148.9295767530804
 30
0.0
 10
117.5599975416441
 20
148.861604829017
 30
0.0
 10
117.6549275403649
 20
148.7255126058861
 30
0.0
 10
117.7106843681283
 20
148.6571625056767
 30
0.0
 10
117.8986244860982
 20
148.4564594926345
 30
0.0
 10
118.0519859558144
 20
148.3270712188219
 30
0.0
 10
118.4142501906947
 20
148.078405786772
 30
0.0
 10
118.6250986641607
 20
147.9585961444038
 30
0.0
 10
119.0857686344796
 20
147.7410738568312
 30
0.0
 10
119.3371430140634
 20
147.6419887569952
 30
0.0
 10
119.8830509009615
 20
147.4653162830784
 30
0.0
 10
120.1738734756128
 20
147.3892591949444
 30
0.0
 10
120.7752000903928
 20
147.2664142175914
 30
0.0
 10
121.0897186750052
 20
147.2187080925382
 30
0.0
 10
121.7363001311251
 20
147.1544595574186
 30
0.0
 10
122.0632006288871
 20
147.1382480985176
 30
0.0
 10
122.7242912544397
 20
147.1382480985176
 30
0.0
  0
LINE
  5
83
330
1F
100
AcDbEntity
  8
0
  6
Continuous
 62
     7
370
    15
100
AcDbLine
 10
118.3437459417
 20
135.0736186349
 30
0.0
 11
130.1317169207
 21
135.0736186349
 31
0.0
  0
LINE
  5
84
330
1F
100
AcDbEntity
  8
0
  6
Continuous
 62
     7
370
    15
100
AcDbLine
 10
130.1317169207
 20
54.9486250419
 30
0.0
 11
128.3437459417
 21
54.9486250419
 31
0.0
  0
SPLINE
  5
85
330
1F
100
AcDbEntity
  8
0
  6
Continuous
 62
     7
370
    15
100
AcDbSpline
210
0.0
220
0.0
230
1.0
 70
     8
 71
     3
 72
    30
 73
    26
 74
     0
 42
0.00000001
 43
0.00000001
 40
0.0
 40
0.0
 40
0.0
 40
0.0
 40
0.1250000000000002
 40
0.1250000000000002
 40
0.1875000000000003
 40
0.1875000000000003
 40
0.2500000000000004
 40
0.2500000000000004
 40
0.3750000000000001
 40
0.3750000000000001
 40
0.4374999999999998
 40
0.4374999999999998
 40
0.4999999999999996
 40
0.4999999999999996
 40
0.6249999999999996
 40
0.6249999999999996
 40
0.6874999999999997
 40
0.6874999999999997
 40
0.7499999999999997
 40
0.7499999999999997
 40
0.8124999999999998
 40
0.8124999999999998
 40
0.8749999999999999
 40
0.8749999999999999
 40
1.0
 40
1.0
 40
1.0
 40
1.0
 10
128.3437459416634
 20
54.94862504185754
 30
0.0
 10
127.6810012478184
 20
54.94862504185755
 30
0.0
 10
127.0297453887027
 20
54.93378496526874
 30
0.0
 10
126.0692948504444
 20
54.89141540103911
 30
0.0
 10
125.7519034072114
 20
54.87393729825994
 30
0.0
 10
125.1227399056566
 20
54.83260901170763
 30
0.0
 10
124.8105917192149
 20
54.80868373824994
 30
0.0
 10
123.9032844173666
 20
54.72987722178303
 30
0.0
 10
123.3298594597253
 20
54.66757120180656
 30
0.0
 10
122.5159825901507
 20
54.5644418815672
 30
0.0
 10
122.2511763935808
 20
54.52825796252069
 30
0.0
 10
121.7442689827665
 20
54.45446317832019
 30
0.0
 10
121.502874831413
 20
54.41698931954854
 30
0.0
 10
120.8137333592806
 20
54.3042773762088
 30
0.0
 10
120.4006785444164
 20
54.22874127873502
 30
0.0
 10
119.8525237250414
 20
54.12034802171753
 30
0.0
 10
119.6830611176958
 20
54.08527579005427
 30
0.0
 10
119.3750438696804
 20
54.01904032945442
 30
0.0
 10
119.235663849072
 20
53.98771363269969
 30
0.0
 10
118.9858783364453
 20
53.92930486111877
 30
0.0
 10
118.8754722237914
 20
53.90222162593592
 30
0.0
 10
118.6842143701536
 20
53.85296187132233
 30
0.0
 10
118.6030948518693
 20
53.83069989151468
 30
0.0
 10
118.408947931761
 20
53.77313298434641
 30
0.0
 10
118.3437459416634
 20
53.74687337956042
 30
0.0
 10
118.3437459416634
 20
53.73361963508639
 30
0.0
  0
LINE
  5
86
330
1F
100
AcDbEntity
  8
0
  6
Continuous
 62
     7
370
    15
100
AcDbLine
 10
118.3437459417
 20
53.7336196351
 30
0.0
 11
118.3437459417
 21
53.7236186349
 31
0.0
  0
SPLINE
  5
87
330
1F
100
AcDbEntity
  8
0
  6
Continuous
 62
     7
370
    15
100
AcDbSpline
210
0.0
220
0.0
230
1.0
 70
     8
 71
     3
 72
    23
 73
    19
 74
     0
 42
0.00000001
 43
0.00000001
 40
0.0
 40
0.0
 40
0.0
 40
0.0
 40
0.0520256687590417
 40
0.1044186119084699
 40
0.1579654762732603
 40
0.2119084390155455
 40
0.2639329008030786
 40
0.3697142245600881
 40
0.4235868577364621
 40
0.4762679679182533
 40
0.5833878371337101
 40
0.6379530306539528
 40
0.6910551819358521
 40
0.7445319929992287
 40
0.7992014233075218
 40
0.8542881036302091
 40
0.9066815619543741
 40
1.0
 40
1.0
 40
1.0
 40
1.0
 10
128.3437459416634
 20
152.7134134905499
 30
0.0
 10
128.0707335444684
 20
152.7147350590567
 30
0.0
 10
127.5227814233542
 20
152.7173875256624
 30
0.0
 10
126.699635065899
 20
152.7388624140901
 30
0.0
 10
125.8783899653068
 20
152.7730801327581
 30
0.0
 10
125.0769611551986
 20
152.8201320429255
 30
0.0
 10
124.0445779010557
 20
152.8971209937513
 30
0.0
 10
123.0673298864316
 20
152.9929982444118
 30
0.0
 10
122.1662828751757
 20
153.0999276922001
 30
0.0
 10
121.3173090960742
 20
153.2117745000405
 30
0.0
 10
120.559740650466
 20
153.3260030987698
 30
0.0
 10
119.9147523600165
 20
153.4325828451336
 30
0.0
 10
119.4901784868187
 20
153.5065128015348
 30
0.0
 10
119.1276218371697
 20
153.5724033595916
 30
0.0
 10
118.826420280046
 20
153.6290997108058
 30
0.0
 10
118.5991667080112
 20
153.6730359570404
 30
0.0
 10
118.3930594107887
 20
153.7136944038685
 30
0.0
 10
118.3723724727557
 20
153.717877843258
 30
0.0
 10
118.359123913144
 20
153.7205570481767
 30
0.0
  0
LINE
  5
88
330
1F
100
AcDbEntity
  8
0
  6
Continuous
 62
     7
370
    15
100
AcDbLine
 10
130.1317169207
 20
152.7134134905
 30
0.0
 11
128.3437459417
 21
152.7134134905
 31
0.0
  0
LINE
  5
89
330
1F
100
AcDbEntity
  8
0
  6
Continuous
 62
     7
370
    15
100
AcDbLine
 10
130.1317169207
 20
142.6745813958
 30
0.0
 11
130.1317169207
 21
152.7134134905
 31
0.0
  0
LINE
  5
8A
330
1F
100
AcDbEntity
  8
0
  6
Continuous
 62
     7
370
    15
100
AcDbLine
 10
128.0517127898
 20
142.6745813958
 30
0.0
 11
130.1317169207
 21
142.6745813958
 31
0.0
  0
SPLINE
  5
8B
330
1F
100
AcDbEntity
  8
0
  6
Continuous
 62
     7
370
    15
100
AcDbSpline
210
0.0
220
0.0
230
1.0
 70
     8
 71
     3
 72
    22
 73
    18
 74
     0
 42
0.00000001
 43
0.00000001
 40
0.0
 40
0.0
 40
0.0
 40
0.0
 40
0.2500000000000002
 40
0.2500000000000002
 40
0.3750000000000003
 40
0.3750000000000003
 40
0.5000000000000004
 40
0.5000000000000004
 40
0.6250000000000004
 40
0.6250000000000004
 40
0.7500000000000004
 40
0.7500000000000004
 40
0.8750000000000004
 40
0.8750000000000004
 40
0.9375000000000002
 40
0.9375000000000002
 40
1.0
 40
1.0
 40
1.0
 40
1.0
 10
118.3437459416634
 20
135.0736186348863
 30
0.0
 10
118.5464708975825
 20
136.092864976751
 30
0.0
 10
118.8612146193779
 20
137.0519731266903
 30
0.0
 10
119.5692700890489
 20
138.3944522041996
 30
0.0
 10
119.8477327192665
 20
138.8286607869396
 30
0.0
 10
120.4865001259037
 20
139.6402885024417
 30
0.0
 10
120.8469138056939
 20
140.0195687953785
 30
0.0
 10
121.6644460376832
 20
140.7225273743995
 30
0.0
 10
122.1256140209703
 20
141.0475561921001
 30
0.0
 10
123.1236042674541
 20
141.612571515491
 30
0.0
 10
123.6633634614464
 20
141.8562751096975
 30
0.0
 10
124.8379564254777
 20
142.2604750373425
 30
0.0
 10
125.4496926114696
 20
142.412912230388
 30
0.0
 10
126.4016018363313
 20
142.5682397779967
 30
0.0
 10
126.7248350005919
 20
142.6077445580467
 30
0.0
 10
127.3838981718672
 20
142.6610536787154
 30
0.0
 10
127.7179621824412
 20
142.6745813957733
 30
0.0
 10
128.0517127898427
 20
142.6745813957733
 30
0.0
  0
SPLINE
  5
8C
330
1F
100
AcDbEntity
  8
0
  6
Continuous
 62
     7
370
    15
100
AcDbSpline
210
0.0
220
0.0
230
1.0
 70
     8
 71
     3
 72
    12
 73
     8
 74
     0
 42
0.00000001
 43
0.00000001
 40
0.0
 40
0.0
 40
0.0
 40
0.0
 40
0.25
 40
0.25
 40
0.5
 40
0.5
 40
1.0
 40
1.0
 40
1.0
 40
1.0
 10
132.2837459416634
 20
59.0839431768367
 30
0.0
 10
132.1779852883145
 20
59.08394317683669
 30
0.0
 10
132.0699976601315
 20
59.06140367083629
 30
0.0
 10
131.8754029948659
 20
58.97683303884099
 30
0.0
 10
131.7865310820271
 20
58.9143513860822
 30
0.0
 10
131.5673387897012
 20
58.68496243461004
 30
0.0
 10
131.4837459416634
 20
58.47237909708765
 30
0.0
 10
131.4837459416634
 20
58.26043985249146
 30
0.0
  0
SPLINE
  5
8D
330
1F
100
AcDbEntity
  8
0
  6
Continuous
 62
     7
370
    15
100
AcDbSpline
210
0.0
220
0.0
230
1.0
 70
    24
 71
     3
 72
    14
 73
    10
 74
     0
 42
0.00000001
 43
0.00000001
 40
0.0
 40
0.0
 40
0.0
 40
0.0
 40
0.25
 40
0.25
 40
0.5
 40
0.5
 40
0.75
 40
0.75
 40
1.0
 40
1.0
 40
1.0
 40
1.0
 10
131.4837459416634
 20
135.0736186348863
 30
0.0
 10
131.4837459416634
 20
135.0736186348863
 30
0.0
 10
131.4994602621294
 20
135.0736186348863
 30
0.0
 10
131.5631442405977
 20
135.0736186348863
 30
0.0
 10
131.6117474350082
 20
135.0736186348863
 30
0.0
 10
131.7444309574338
 20
135.0736186348864
 30
0.0
 10
131.8295330617444
 20
135.0736186348863
 30
0.0
 10
132.0359752966545
 20
135.0736186348863
 30
0.0
 10
132.1600562382775
 20
135.0736186348863
 30
0.0
 10
132.2837459416634
 20
135.0736186348863
 30
0.0
  0
SPLINE
  5
8E
330
1F
100
AcDbEntity
  8
0
  6
Continuous
 62
     7
370
    15
100
AcDbSpline
210
0.0
220
0.0
230
1.0
 70
     8
 71
     3
 72
    14
 73
    10
 74
     0
 42
0.00000001
 43
0.00000001
 40
0.0
 40
0.0
 40
0.0
 40
0.0
 40
0.25
 40
0.25
 40
0.5
 40
0.5
 40
0.75
 40
0.75
 40
1.0
 40
1.0
 40
1.0
 40
1.0
 10
135.3037459416634
 20
58.26043985249146
 30
0.0
 10
135.3037459416634
 20
58.36748393348584
 30
0.0
 10
135.2836282545052
 20
58.47271907372829
 30
0.0
 10
135.2051370652396
 20
58.67056956057597
 30
0.0
 10
135.1469804404384
 20
58.7616213241409
 30
0.0
 10
135.0004651848204
 20
58.91478741806568
 30
0.0
 10
134.9118226361793
 20
58.97708186427509
 30
0.0
 10
134.7160993133789
 20
59.06187564981107
 30
0.0
 10
134.610868122308
 20
59.0839431768367
 30
0.0
 10
134.5037459416634
 20
59.0839431768367
 30
0.0
  0
SPLINE
  5
8F
330
1F
100
AcDbEntity
  8
0
  6
Continuous
 62
     7
370
    15
100
AcDbSpline
210
0.0
220
0.0
230
1.0
 70
    24
 71
     3
 72
    14
 73
    10
 74
     0
 42
0.00000001
 43
0.00000001
 40
0.0
 40
0.0
 40
0.0
 40
0.0
 40
0.25
 40
0.25
 40
0.5
 40
0.5
 40
0.75
 40
0.75
 40
1.0
 40
1.0
 40
1.0
 40
1.0
 10
134.5037459416634
 20
135.0736186348863
 30
0.0
 10
134.6275157064286
 20
135.0736186348863
 30
0.0
 10
134.7518828104355
 20
135.0736186348863
 30
0.0
 10
134.9582392791615
 20
135.0736186348863
 30
0.0
 10
135.0435674225798
 20
135.0736186348863
 30
0.0
 10
135.1757594812951
 20
135.0736186348864
 30
0.0
 10
135.2244047250456
 20
135.0736186348863
 30
0.0
 10
135.2879405167744
 20
135.0736186348863
 30
0.0
 10
135.3037459416634
 20
135.0736186348863
 30
0.0
 10
135.3037459416634
 20
135.0736186348863
 30
0.0
  0
LINE
  5
90
330
1F
100
AcDbEntity
  8
0
  6
Continuous
 62
     7
370
    15
100
AcDbLine
 10
134.5037459417
 20
59.0839431768
 30
0.0
 11
132.2837459417
 21
59.0839431768
 31
0.0
  0
LINE
  5
91
330
1F
100
AcDbEntity
  8
0
  6
Continuous
 62
     7
370
    15
100
AcDbLine
 10
132.2837459417
 20
135.0736186349
 30
0.0
 11
134.5037459417
 21
135.0736186349
 31
0.0
  0
LINE
  5
92
330
1F
100
AcDbEntity
  8
0
  6
Continuous
 62
     7
370
    15
100
AcDbLine
 10
110.8937459417
 20
65.8413671319
 30
0.0
 11
110.8937459417
 21
141.6058701379
 31
0.0
  0
LINE
  5
93
330
1F
100
AcDbEntity
  8
0
  6
Continuous
 62
     7
370
    15
100
AcDbLine
 10
78.5937459417
 20
67.4596036048
 30
0.0
 11
78.5937459417
 21
69.8542853695
 31
0.0
  0
SPLINE
  5
94
330
1F
100
AcDbEntity
  8
0
  6
Continuous
 62
     7
370
    15
100
AcDbSpline
210
0.0
220
0.0
230
1.0
 70
     8
 71
     3
 72
    14
 73
    10
 74
     0
 42
0.00000001
 43
0.00000001
 40
0.0
 40
0.0
 40
0.0
 40
0.0
 40
0.25
 40
0.25
 40
0.5
 40
0.5
 40
0.75
 40
0.75
 40
1.0
 40
1.0
 40
1.0
 40
1.0
 10
77.58932347032646
 20
71.55713729114282
 30
0.0
 10
77.67809204827178
 20
71.39860315983488
 30
0.0
 10
77.7998098869507
 20
71.24616048294631
 30
0.0
 10
78.03485949680753
 20
70.94902585911738
 30
0.0
 10
78.15048968302442
 20
70.80434321550003
 30
0.0
 10
78.35089461645222
 20
70.52105401299661
 30
0.0
 10
78.43629490843657
 20
70.38250001995976
 30
0.0
 10
78.55800054215378
 20
70.11111598992622
 30
0.0
 10
78.59374594166643
 20
69.97898012129161
 30
0.0
 10
78.59374594166641
 20
69.85428536952085
 30
0.0
  0
SPLINE
  5
95
330
1F
100
AcDbEntity
  8
0
  6
Continuous
 62
     7
370
    15
100
AcDbSpline
210
0.0
220
0.0
230
1.0
 70
     8
 71
     3
 72
    14
 73
    10
 74
     0
 42
0.00000001
 43
0.00000001
 40
0.0
 40
0.0
 40
0.0
 40
0.0
 40
0.124999999999999
 40
0.124999999999999
 40
0.249999999999998
 40
0.249999999999998
 40
0.5000000000000007
 40
0.5000000000000007
 40
1.0
 40
1.0
 40
1.0
 40
1.0
 10
76.69374594166342
 20
72.18596723024292
 30
0.0
 10
76.76132824144791
 20
72.19312311534432
 30
0.0
 10
76.8338158191958
 20
72.18869864530531
 30
0.0
 10
76.96610692846176
 20
72.15899248753496
 30
0.0
 10
77.02338430785193
 20
72.13570820595673
 30
0.0
 10
77.17303473505221
 20
72.05822296610641
 30
0.0
 10
77.24674803057371
 20
71.99637113920504
 30
0.0
 10
77.43455601389995
 20
71.81169368655672
 30
0.0
 10
77.5185963202614
 20
71.68345076326551
 30
0.0
 10
77.58932347032768
 20
71.55713729114292
 30
0.0
  0
SPLINE
  5
96
330
1F
100
AcDbEntity
  8
0
  6
Continuous
 62
     7
370
    15
100
AcDbSpline
210
0.0
220
0.0
230
1.0
 70
     8
 71
     3
 72
     8
 73
     4
 74
     0
 42
0.00000001
 43
0.00000001
 40
0.0
 40
0.0
 40
0.0
 40
0.0
 40
1.0
 40
1.0
 40
1.0
 40
1.0
 10
73.14910555358263
 20
71.76791864545115
 30
0.0
 10
74.3144038642915
 20
71.92310611733777
 30
0.0
 10
75.49901907833132
 20
72.0594647556481
 30
0.0
 10
76.6937459416634
 20
72.18596723024292
 30
0.0
  0
SPLINE
  5
97
330
1F
100
AcDbEntity
  8
0
  6
Continuous
 62
     7
370
    15
100
AcDbSpline
210
0.0
220
0.0
230
1.0
 70
     8
 71
     3
 72
    14
 73
    10
 74
     0
 42
0.00000001
 43
0.00000001
 40
0.0
 40
0.0
 40
0.0
 40
0.0
 40
0.4999999999999972
 40
0.4999999999999972
 40
0.7499999999999971
 40
0.7499999999999971
 40
0.8749999999999986
 40
0.8749999999999986
 40
1.0
 40
1.0
 40
1.0
 40
1.0
 10
65.39367105763472
 20
71.47778646632122
 30
0.0
 10
66.70197262016848
 20
71.48480119006234
 30
0.0
 10
68.00703199482527
 20
71.50020976650684
 30
0.0
 10
69.9529080463136
 20
71.5541063219735
 30
0.0
 10
70.5996055500526
 20
71.5771378865762
 30
0.0
 10
71.56344791390694
 20
71.62808041144696
 30
0.0
 10
71.88368660584102
 20
71.64781533368014
 30
0.0
 10
72.52038183218343
 20
71.69730246215173
 30
0.0
 10
72.83709724046636
 20
71.72636724108095
 30
0.0
 10
73.14910555358267
 20
71.76791864545109
 30
0.0
  0
SPLINE
  5
98
330
1F
100
AcDbEntity
  8
0
  6
Continuous
 62
     7
370
    15
100
AcDbSpline
210
0.0
220
0.0
230
1.0
 70
     8
 71
     3
 72
    12
 73
     8
 74
     0
 42
0.00000001
 43
0.00000001
 40
0.0
 40
0.0
 40
0.0
 40
0.0
 40
0.2500000000000009
 40
0.2500000000000009
 40
0.5000000000000018
 40
0.5000000000000018
 40
1.0
 40
1.0
 40
1.0
 40
1.0
 10
71.69374594166342
 20
135.8101415263828
 30
0.0
 10
71.17504711983521
 20
135.842664301231
 30
0.0
 10
70.65333554663023
 20
135.8659610424015
 30
0.0
 10
69.60704353013466
 20
135.9038065568236
 30
0.0
 10
69.0823719044644
 20
135.9180750313197
 30
0.0
 10
67.50552588192518
 20
135.952284518778
 30
0.0
 10
66.45057056737824
 20
135.9637840227219
 30
0.0
 10
65.39367105763303
 20
135.9694508034515
 30
0.0
  0
SPLINE
  5
99
330
1F
100
AcDbEntity
  8
0
  6
Continuous
 62
     7
370
    15
100
AcDbSpline
210
0.0
220
0.0
230
1.0
 70
     8
 71
     3
 72
    20
 73
    16
 74
     0
 42
0.00000001
 43
0.00000001
 40
0.0
 40
0.0
 40
0.0
 40
0.0
 40
0.2500000000000011
 40
0.2500000000000011
 40
0.5000000000000021
 40
0.5000000000000021
 40
0.7500000000000031
 40
0.7500000000000031
 40
0.8750000000000008
 40
0.8750000000000008
 40
0.9375000000000006
 40
0.9375000000000006
 40
0.9687500000000003
 40
0.9687500000000003
 40
1.0
 40
1.0
 40
1.0
 40
1.0
 10
73.59374594166341
 20
137.4682273718709
 30
0.0
 10
73.5937459416634
 20
137.3325450521241
 30
0.0
 10
73.54503415244679
 20
137.1914580659841
 30
0.0
 10
73.37587272922161
 20
136.8993863472535
 30
0.0
 10
73.25409231530328
 20
136.7477376051631
 30
0.0
 10
72.95654522055378
 20
136.44532916501
 30
0.0
 10
72.782632614851
 20
136.2927405288867
 30
0.0
 10
72.46321778096917
 20
136.0674697650444
 30
0.0
 10
72.34817700552192
 20
135.9927466705337
 30
0.0
 10
72.1410926815055
 20
135.8933362612767
 30
0.0
 10
72.0649848466991
 20
135.8617711689321
 30
0.0
 10
71.93359030714578
 20
135.8273277847392
 30
0.0
 10
71.88703708814431
 20
135.8182762129715
 30
0.0
 10
71.7907037370636
 20
135.8081005641331
 30
0.0
 10
71.74144431370816
 20
135.807150805458
 30
0.0
 10
71.69374594166142
 20
135.8101415263726
 30
0.0
  0
LINE
  5
9A
330
1F
100
AcDbEntity
  8
0
  6
Continuous
 62
     7
370
    15
100
AcDbLine
 10
73.5937459417
 20
137.4682273719
 30
0.0
 11
73.5937459417
 21
139.7371326629
 31
0.0
  0
SPLINE
  5
9B
330
1F
100
AcDbEntity
  8
0
  6
Continuous
 62
     7
370
    15
100
AcDbSpline
210
0.0
220
0.0
230
1.0
 70
     8
 71
     3
 72
    24
 73
    20
 74
     0
 42
0.00000001
 43
0.00000001
 40
0.0
 40
0.0
 40
0.0
 40
0.0
 40
0.0002934293894791
 40
0.062808005175641
 40
0.1260453927228619
 40
0.18907467666103
 40
0.2513200540860133
 40
0.3133304633786588
 40
0.3759158453762907
 40
0.4383740564599686
 40
0.5000631094857209
 40
0.5616593988040849
 40
0.6245050380644152
 40
0.6872231506510951
 40
0.7494953263230465
 40
0.8117583797535242
 40
0.8747365508229858
 40
0.9378980306234599
 40
1.0
 40
1.0
 40
1.0
 40
1.0
 10
91.91370220550284
 20
66.79237337657398
 30
0.0
 10
91.91350735261805
 20
66.79234906917999
 30
0.0
 10
91.8717994616069
 20
66.7871461175258
 30
0.0
 10
92.01691785313734
 20
66.80578074085629
 30
0.0
 10
92.37199679467662
 20
66.84830051940502
 30
0.0
 10
92.97657243221975
 20
66.91643680300685
 30
0.0
 10
93.78300774103595
 20
66.98969234002273
 30
0.0
 10
94.76848516495492
 20
67.05421168084061
 30
0.0
 10
95.90015476163447
 20
67.09277590890169
 30
0.0
 10
97.12244723179674
 20
67.09647041490308
 30
0.0
 10
98.38977591324857
 20
67.0540444348541
 30
0.0
 10
99.6562614436751
 20
66.96579729407313
 30
0.0
 10
100.872398807495
 20
66.83740402380644
 30
0.0
 10
101.9978093033358
 20
66.68476303521392
 30
0.0
 10
102.9752263648898
 20
66.52298842010958
 30
0.0
 10
103.7784918434323
 20
66.3704595270087
 30
0.0
 10
104.3669853664335
 20
66.24644578374131
 30
0.0
 10
104.7558914780855
 20
66.16152185746502
 30
0.0
 10
104.8026526088236
 20
66.15079554618622
 30
0.0
 10
104.825835415366
 20
66.14547775349463
 30
0.0
  0
SPLINE
  5
9C
330
1F
100
AcDbEntity
  8
0
  6
Continuous
 62
     7
370
    15
100
AcDbSpline
210
0.0
220
0.0
230
1.0
 70
     8
 71
     3
 72
    41
 73
    37
 74
     0
 42
0.00000001
 43
0.00000001
 40
0.0
 40
0.0
 40
0.0
 40
0.0
 40
0.0619930061482746
 40
0.1254347783466151
 40
0.1886508898234768
 40
0.2510246408607227
 40
0.3131658188976554
 40
0.3756581641417402
 40
0.4382227146727798
 40
0.4998044922940677
 40
0.56151641971787
 40
0.6240683094121985
 40
0.686725723240935
 40
0.7488365305144522
 40
0.8110685944253986
 40
0.8741742884451361
 40
0.9373212787645211
 40
0.9685511709617411
 40
0.9842086872487193
 40
0.9920641182531791
 40
0.996000486125535
 40
0.9979710794120144
 40
0.9989570090489596
 40
0.9994501359395065
 40
0.9996967403802177
 40
0.9998200529090742
 40
0.9998817117580818
 40
0.999912541829664
 40
0.9999279570273361
 40
0.9999356646666602
 40
0.9999395184964466
 40
0.9999414454138695
 40
0.9999424088732151
 40
0.9999433723329806
 40
0.9999501697010513
 40
1.0
 40
1.0
 40
1.0
 40
1.0
 10
104.825714084888
 20
141.3017144983265
 30
0.0
 10
104.8021424395444
 20
141.2964050186767
 30
0.0
 10
104.7544482834993
 20
141.2856619777371
 30
0.0
 10
104.3624062940738
 20
141.2004328412817
 30
0.0
 10
103.7718922448036
 20
141.0758640626409
 30
0.0
 10
102.9678547987585
 20
140.9229171164891
 30
0.0
 10
101.991779398577
 20
140.7611605625355
 30
0.0
 10
100.8699706632965
 20
140.6089277946033
 30
0.0
 10
99.65643974350922
 20
140.4811478534019
 30
0.0
 10
98.39160903711002
 20
140.3932993017193
 30
0.0
 10
97.12356599966729
 20
140.3509138178487
 30
0.0
 10
95.90005864196617
 20
140.3546496258204
 30
0.0
 10
94.76656010155216
 20
140.3932450962685
 30
0.0
 10
93.78045429057796
 20
140.4576844675596
 30
0.0
 10
92.97182648179074
 20
140.5311942748408
 30
0.0
 10
92.37520778668154
 20
140.5985079596526
 30
0.0
 10
92.05981649722348
 20
140.6364725109205
 30
0.0
 10
91.94974992842555
 20
140.6502715702524
 30
0.0
 10
91.92233054061134
 20
140.653757644173
 30
0.0
 10
91.91540848978184
 20
140.6546368698664
 30
0.0
 10
91.91364024959842
 20
140.6548576444727
 30
0.0
 10
91.91317987042507
 20
140.6549128471835
 30
0.0
 10
91.91305571174024
 20
140.6549265869705
 30
0.0
 10
91.91302015724709
 20
140.6549299828015
 30
0.0
 10
91.91300901317699
 20
140.6549308111218
 30
0.0
 10
91.91300509998088
 20
140.6549310077106
 30
0.0
 10
91.91300355777605
 20
140.6549310516407
 30
0.0
 10
91.91300289077455
 20
140.6549310599474
 30
0.0
 10
91.9130025825968
 20
140.6549310607777
 30
0.0
 10
91.91300243583072
 20
140.6549310602325
 30
0.0
 10
91.91300236287829
 20
140.6549310599026
 30
0.0
 10
91.9130023284859
 20
140.6549310594654
 30
0.0
 10
91.91300230624074
 20
140.6549310595539
 30
0.0
 10
91.9130022791313
 20
140.6549310567189
 30
0.0
 10
91.91299975956996
 20
140.654931343574
 30
0.0
 10
91.91303584948801
 20
140.6549267234734
 30
0.0
 10
91.91306760731065
 20
140.6549226579519
 30
0.0
  0
SPLINE
  5
9D
330
1F
100
AcDbEntity
  8
0
  6
Continuous
 62
     7
370
    15
100
AcDbSpline
210
0.0
220
0.0
230
1.0
 70
     8
 71
     3
 72
    20
 73
    16
 74
     0
 42
0.00000001
 43
0.00000001
 40
0.0
 40
0.0
 40
0.0
 40
0.0
 40
0.249999999999986
 40
0.249999999999986
 40
0.3749999999999789
 40
0.3749999999999789
 40
0.4374999999999789
 40
0.4374999999999789
 40
0.4999999999999789
 40
0.4999999999999789
 40
0.6249999999999835
 40
0.6249999999999835
 40
0.7499999999999879
 40
0.7499999999999879
 40
1.0
 40
1.0
 40
1.0
 40
1.0
 10
63.78456017337943
 20
73.04513548218564
 30
0.0
 10
63.81083239059284
 20
73.0644534232681
 30
0.0
 10
63.84151253284767
 20
73.07884213436988
 30
0.0
 10
63.9129834032296
 20
73.07193777253387
 30
0.0
 10
63.94101044027392
 20
73.06477176918546
 30
0.0
 10
63.99609402977144
 20
73.03507274248186
 30
0.0
 10
64.01698535832386
 20
73.02159909992052
 30
0.0
 10
64.06219400576931
 20
72.9864008344045
 30
0.0
 10
64.0865982181649
 20
72.96449260567725
 30
0.0
 10
64.15793053621636
 20
72.8923677456817
 30
0.0
 10
64.19982732103661
 20
72.84002720473165
 30
0.0
 10
64.27140327989248
 20
72.7425438128309
 30
0.0
 10
64.3022312697098
 20
72.69579004295248
 30
0.0
 10
64.38533120254536
 20
72.56249682711336
 30
0.0
 10
64.43018610791566
 20
72.47985942919816
 30
0.0
 10
64.47029818336824
 20
72.40075253440737
 30
0.0
  0
SPLINE
  5
9E
330
1F
100
AcDbEntity
  8
0
  6
Continuous
 62
     7
370
    15
100
AcDbSpline
210
0.0
220
0.0
230
1.0
 70
     8
 71
     3
 72
    14
 73
    10
 74
     0
 42
0.00000001
 43
0.00000001
 40
0.0
 40
0.0
 40
0.0
 40
0.0
 40
0.25
 40
0.25
 40
0.5
 40
0.5
 40
0.75
 40
0.75
 40
1.0
 40
1.0
 40
1.0
 40
1.0
 10
63.49374594166343
 20
73.22094889231842
 30
0.0
 10
63.49374594166343
 20
73.17970196129407
 30
0.0
 10
63.50235565804469
 20
73.14279498901159
 30
0.0
 10
63.53344183761502
 20
73.08189492911218
 30
0.0
 10
63.55583139109908
 20
73.05771400957249
 30
0.0
 10
63.6105753222752
 20
73.02374641868924
 30
0.0
 10
63.64302556186038
 20
73.01382633472105
 30
0.0
 10
63.71302707658845
 20
73.0124751258162
 30
0.0
 10
63.751237576711
 20
73.02063340251236
 30
0.0
 10
63.78456017338407
 20
73.04513548218044
 30
0.0
  0
LINE
  5
9F
330
1F
100
AcDbEntity
  8
0
  6
Continuous
 62
     7
370
    15
100
AcDbLine
 10
63.4937459417
 20
73.2209488923
 30
0.0
 11
63.4937459417
 21
134.2262883775
 31
0.0
  0
SPLINE
  5
A0
330
1F
100
AcDbEntity
  8
0
  6
Continuous
 62
     7
370
    15
100
AcDbSpline
210
0.0
220
0.0
230
1.0
 70
     8
 71
     3
 72
    10
 73
     6
 74
     0
 42
0.00000001
 43
0.00000001
 40
0.0
 40
0.0
 40
0.0
 40
0.0
 40
0.0592402688376383
 40
0.6438088530391344
 40
1.0
 40
1.0
 40
1.0
 40
1.0
 10
63.78456017338406
 20
134.4021017875922
 30
0.0
 10
63.77972791576286
 20
134.4053506942239
 30
0.0
 10
63.72721211362813
 20
134.4406590223795
 30
0.0
 10
63.62826191594935
 20
134.4469133189381
 30
0.0
 10
63.57883339105799
 20
134.3917130812492
 30
0.0
 10
63.5601187263137
 20
134.3708131263259
 30
0.0
  0
SPLINE
  5
A1
330
1F
100
AcDbEntity
  8
0
  6
Continuous
 62
     7
370
    15
100
AcDbSpline
210
0.0
220
0.0
230
1.0
 70
     8
 71
     3
 72
     8
 73
     4
 74
     0
 42
0.00000001
 43
0.00000001
 40
0.0
 40
0.0
 40
0.0
 40
0.0
 40
1.0
 40
1.0
 40
1.0
 40
1.0
 10
63.51737961059963
 20
134.3338678785239
 30
0.0
 10
63.50203057196357
 20
134.303357823528
 30
0.0
 10
63.49374594166343
 20
134.2670462680157
 30
0.0
 10
63.49374594166343
 20
134.2262883774543
 30
0.0
  0
SPLINE
  5
A2
330
1F
100
AcDbEntity
  8
0
  6
Continuous
 62
     7
370
    15
100
AcDbSpline
210
0.0
220
0.0
230
1.0
 70
     8
 71
     3
 72
    20
 73
    16
 74
     0
 42
0.00000001
 43
0.00000001
 40
0.0
 40
0.0
 40
0.0
 40
0.0
 40
0.2500000000000037
 40
0.2500000000000037
 40
0.3750000000000055
 40
0.3750000000000055
 40
0.5000000000000073
 40
0.5000000000000073
 40
0.5625000000000057
 40
0.5625000000000057
 40
0.625000000000004
 40
0.625000000000004
 40
0.7500000000000027
 40
0.7500000000000027
 40
1.0
 40
1.0
 40
1.0
 40
1.0
 10
64.47029818336583
 20
135.0464847353645
 30
0.0
 10
64.430301965542
 20
134.9676063288071
 30
0.0
 10
64.38518833770435
 20
134.8844766821156
 30
0.0
 10
64.30193412333782
 20
134.7509880177646
 30
0.0
 10
64.27171479471733
 20
134.7051229618826
 30
0.0
 10
64.19962655957589
 20
134.6069314094777
 30
0.0
 10
64.15770924216483
 20
134.5546215899542
 30
0.0
 10
64.08645863761335
 20
134.4826156872196
 30
0.0
 10
64.06222282523403
 20
134.4608454749181
 30
0.0
 10
64.0166246350494
 20
134.4253708165891
 30
0.0
 10
63.99582214544967
 20
134.4120006324115
 30
0.0
 10
63.94088114703056
 20
134.3824307202763
 30
0.0
 10
63.91281215894373
 20
134.3753041979743
 30
0.0
 10
63.84230932888091
 20
134.3684298264916
 30
0.0
 10
63.81088524109003
 20
134.3827449855788
 30
0.0
 10
63.78456017338144
 20
134.4021017875893
 30
0.0
  0
SPLINE
  5
A3
330
1F
100
AcDbEntity
  8
0
  6
Continuous
 62
     7
370
    15
100
AcDbSpline
210
0.0
220
0.0
230
1.0
 70
     8
 71
     3
 72
    10
 73
     6
 74
     0
 42
0.00000001
 43
0.00000001
 40
0.0
 40
0.0
 40
0.0
 40
0.0
 40
0.4999999999999989
 40
0.4999999999999989
 40
1.0
 40
1.0
 40
1.0
 40
1.0
 10
65.14374594166341
 20
135.9719038367063
 30
0.0
 10
65.01885767091322
 20
135.8409075586349
 30
0.0
 10
64.89740755285278
 20
135.6971947219699
 30
0.0
 10
64.66782357789536
 20
135.3866244292807
 30
0.0
 10
64.55754860249938
 20
135.2185553562176
 30
0.0
 10
64.47029818336584
 20
135.0464847353645
 30
0.0
  0
SPLINE
  5
A4
330
1F
100
AcDbEntity
  8
0
  6
Continuous
 62
     7
370
    15
100
AcDbSpline
210
0.0
220
0.0
230
1.0
 70
     8
 71
     3
 72
     8
 73
     4
 74
     0
 42
0.00000001
 43
0.00000001
 40
0.0
 40
0.0
 40
0.0
 40
0.0
 40
1.0
 40
1.0
 40
1.0
 40
1.0
 10
65.39367105762916
 20
135.969450803451
 30
0.0
 10
65.3066530277808
 20
135.969917368238
 30
0.0
 10
65.22369900140086
 20
135.9709573878141
 30
0.0
 10
65.14374594166111
 20
135.9719038367064
 30
0.0
  0
SPLINE
  5
A5
330
1F
100
AcDbEntity
  8
0
  6
Continuous
 62
     7
370
    15
100
AcDbSpline
210
0.0
220
0.0
230
1.0
 70
     8
 71
     3
 72
     8
 73
     4
 74
     0
 42
0.00000001
 43
0.00000001
 40
0.0
 40
0.0
 40
0.0
 40
0.0
 40
1.0
 40
1.0
 40
1.0
 40
1.0
 10
65.14374594166111
 20
71.47533343306627
 30
0.0
 10
65.22369900140137
 20
71.47627988195853
 30
0.0
 10
65.30665302778188
 20
71.47731990153467
 30
0.0
 10
65.39367105763085
 20
71.47778646632173
 30
0.0
  0
SPLINE
  5
A6
330
1F
100
AcDbEntity
  8
0
  6
Continuous
 62
     7
370
    15
100
AcDbSpline
210
0.0
220
0.0
230
1.0
 70
     8
 71
     3
 72
    10
 73
     6
 74
     0
 42
0.00000001
 43
0.00000001
 40
0.0
 40
0.0
 40
0.0
 40
0.0
 40
0.4999999999999989
 40
0.4999999999999989
 40
1.0
 40
1.0
 40
1.0
 40
1.0
 10
64.47029818336492
 20
72.40075253440995
 30
0.0
 10
64.5575486024984
 20
72.22868191355658
 30
0.0
 10
64.66782357789455
 20
72.06061284049315
 30
0.0
 10
64.8974075528524
 20
71.75004254780332
 30
0.0
 10
65.01885767091304
 20
71.60632971113805
 30
0.0
 10
65.14374594166341
 20
71.47533343306634
 30
0.0
  0
SPLINE
  5
A7
330
1F
100
AcDbEntity
  8
0
  6
Continuous
 62
     7
370
    15
100
AcDbSpline
210
0.0
220
0.0
230
1.0
 70
     8
 71
     3
 72
    14
 73
    10
 74
     0
 42
0.00000001
 43
0.00000001
 40
0.0
 40
0.0
 40
0.0
 40
0.0
 40
0.25
 40
0.25
 40
0.5
 40
0.5
 40
0.75
 40
0.75
 40
1.0
 40
1.0
 40
1.0
 40
1.0
 10
135.3037459416634
 20
149.4171698757343
 30
0.0
 10
135.3037459416634
 20
149.310813181982
 30
0.0
 10
135.2833583855222
 20
149.2049726942219
 30
0.0
 10
135.2047240400607
 20
149.0084077806854
 30
0.0
 10
135.145992680422
 20
148.9172370383983
 30
0.0
 10
134.9993837748194
 20
148.7653259493667
 30
0.0
 10
134.9099784547929
 20
148.7032571125471
 30
0.0
 10
134.7160877221926
 20
148.6199890647884
 30
0.0
 10
134.6095827323028
 20
148.5978943950588
 30
0.0
 10
134.5037459416634
 20
148.5978943950587
 30
0.0
  0
SPLINE
  5
A8
330
1F
100
AcDbEntity
  8
0
  6
Continuous
 62
     7
370
    15
100
AcDbSpline
210
0.0
220
0.0
230
1.0
 70
     8
 71
     3
 72
    12
 73
     8
 74
     0
 42
0.00000001
 43
0.00000001
 40
0.0
 40
0.0
 40
0.0
 40
0.0
 40
0.250000000000002
 40
0.250000000000002
 40
0.500000000000004
 40
0.500000000000004
 40
1.0
 40
1.0
 40
1.0
 40
1.0
 10
134.5037459416634
 20
137.3521500479588
 30
0.0
 10
134.6274468916434
 20
137.3521500479588
 30
0.0
 10
134.7515435039136
 20
137.3941436596914
 30
0.0
 10
134.9581986670006
 20
137.5319389863357
 30
0.0
 10
135.0432394337275
 20
137.6259125848006
 30
0.0
 10
135.2427180022011
 20
137.9407007910216
 30
0.0
 10
135.3037459416634
 20
138.1909397832491
 30
0.0
 10
135.3037459416634
 20
138.4378538273834
 30
0.0
  0
SPLINE
  5
A9
330
1F
100
AcDbEntity
  8
0
  6
Continuous
 62
     7
370
    15
100
AcDbSpline
210
0.0
220
0.0
230
1.0
 70
     8
 71
     3
 72
    10
 73
     6
 74
     0
 42
0.00000001
 43
0.00000001
 40
0.0
 40
0.0
 40
0.0
 40
0.0
 40
0.5
 40
0.5
 40
1.0
 40
1.0
 40
1.0
 40
1.0
 10
132.2837459416634
 20
148.5978943950588
 30
0.0
 10
132.0712096278071
 20
148.5978943950588
 30
0.0
 10
131.8612734561531
 20
148.689306981689
 30
0.0
 10
131.5675663151418
 20
148.9940518475932
 30
0.0
 10
131.4837459416634
 20
149.2062068175018
 30
0.0
 10
131.4837459416634
 20
149.4171698757343
 30
0.0
  0
SPLINE
  5
AA
330
1F
100
AcDbEntity
  8
0
  6
Continuous
 62
     7
370
    15
100
AcDbSpline
210
0.0
220
0.0
230
1.0
 70
     8
 71
     3
 72
    14
 73
    10
 74
     0
 42
0.00000001
 43
0.00000001
 40
0.0
 40
0.0
 40
0.0
 40
0.0
 40
0.25
 40
0.25
 40
0.5
 40
0.5
 40
0.75
 40
0.75
 40
1.0
 40
1.0
 40
1.0
 40
1.0
 10
131.4837459416634
 20
138.4378538273834
 30
0.0
 10
131.4837459416634
 20
138.3139869505942
 30
0.0
 10
131.499605069291
 20
138.1897272737567
 30
0.0
 10
131.5629667148109
 20
137.9521189113508
 30
0.0
 10
131.6115564228603
 20
137.8353385265983
 30
0.0
 10
131.7438420276351
 20
137.6265359979894
 30
0.0
 10
131.8291668188957
 20
137.5320252943967
 30
0.0
 10
132.0360580672019
 20
137.3940684935945
 30
0.0
 10
132.1600260130919
 20
137.3521500479588
 30
0.0
 10
132.2837459416634
 20
137.3521500479588
 30
0.0
  0
SPLINE
  5
AB
330
1F
100
AcDbEntity
  8
0
  6
Continuous
 62
     7
370
    15
100
AcDbSpline
210
0.0
220
0.0
230
1.0
 70
     8
 71
     3
 72
     8
 73
     4
 74
     0
 42
0.00000001
 43
0.00000001
 40
0.0
 40
0.0
 40
0.0
 40
0.0
 40
1.0
 40
1.0
 40
1.0
 40
1.0
 10
131.4837459416634
 20
150.3208894955912
 30
0.0
 10
131.0334377059789
 20
151.1186046207049
 30
0.0
 10
130.5827438894553
 20
151.916102920362
 30
0.0
 10
130.131716920742
 20
152.7134134905499
 30
0.0
  0
LINE
  5
AC
330
1F
100
AcDbEntity
  8
0
  6
Continuous
 62
     7
370
    15
100
AcDbLine
 10
131.4837459417
 20
139.619066141
 30
0.0
 11
131.4837459417
 21
150.3208894956
 31
0.0
  0
SPLINE
  5
AD
330
1F
100
AcDbEntity
  8
0
  6
Continuous
 62
     7
370
    15
100
AcDbSpline
210
0.0
220
0.0
230
1.0
 70
     8
 71
     3
 72
     8
 73
     4
 74
     0
 42
0.00000001
 43
0.00000001
 40
0.0
 40
0.0
 40
0.0
 40
0.0
 40
1.0
 40
1.0
 40
1.0
 40
1.0
 10
130.131716920742
 20
142.6745813957733
 30
0.0
 10
130.5886432745416
 20
141.658663426099
 30
0.0
 10
131.0398489163446
 20
140.6398675970078
 30
0.0
 10
131.4837459416634
 20
139.6190661410242
 30
0.0
  0
LINE
  5
AE
330
1F
100
AcDbEntity
  8
0
  6
Continuous
 62
     7
370
    15
100
AcDbLine
 10
131.4837459417
 20
139.619066141
 30
0.0
 11
131.4837459417
 21
138.4378538274
 31
0.0
  0
LINE
  5
AF
330
1F
100
AcDbEntity
  8
0
  6
Continuous
 62
     7
370
    15
100
AcDbLine
 10
132.2837459417
 20
137.352150048
 30
0.0
 11
134.5037459417
 21
137.352150048
 31
0.0
  0
LINE
  5
B0
330
1F
100
AcDbEntity
  8
0
  6
Continuous
 62
     7
370
    15
100
AcDbLine
 10
135.3037459417
 20
138.4378538274
 30
0.0
 11
135.3037459417
 21
139.619066141
 31
0.0
  0
SPLINE
  5
B1
330
1F
100
AcDbEntity
  8
0
  6
Continuous
 62
     7
370
    15
100
AcDbSpline
210
0.0
220
0.0
230
1.0
 70
     8
 71
     3
 72
     8
 73
     4
 74
     0
 42
0.00000001
 43
0.00000001
 40
0.0
 40
0.0
 40
0.0
 40
0.0
 40
1.0
 40
1.0
 40
1.0
 40
1.0
 10
135.3037459416634
 20
139.6190661410242
 30
0.0
 10
135.7478959526889
 20
140.6404493719758
 30
0.0
 10
136.1989702629468
 20
141.6589339087442
 30
0.0
 10
136.6557749625848
 20
142.6745813957733
 30
0.0
  0
LINE
  5
B2
330
1F
100
AcDbEntity
  8
0
  6
Continuous
 62
     7
370
    15
100
AcDbLine
 10
136.6557749626
 20
142.6745813958
 30
0.0
 11
141.3437459417
 21
142.6745813958
 31
0.0
  0
SPLINE
  5
B3
330
1F
100
AcDbEntity
  8
0
  6
Continuous
 62
     7
370
    15
100
AcDbSpline
210
0.0
220
0.0
230
1.0
 70
     8
 71
     3
 72
    16
 73
    12
 74
     0
 42
0.00000001
 43
0.00000001
 40
0.0
 40
0.0
 40
0.0
 40
0.0
 40
0.1249999999999978
 40
0.1249999999999978
 40
0.2499999999999955
 40
0.2499999999999955
 40
0.499999999999997
 40
0.499999999999997
 40
0.7499999999999984
 40
0.7499999999999984
 40
1.0
 40
1.0
 40
1.0
 40
1.0
 10
141.3437459416634
 20
142.6745813957733
 30
0.0
 10
141.4193836480746
 20
142.6745813957733
 30
0.0
 10
141.4956993124928
 20
142.6632363956384
 30
0.0
 10
141.6401100503848
 20
142.6205838449998
 30
0.0
 10
141.7085564994932
 20
142.589649520317
 30
0.0
 10
141.9034877521063
 20
142.4703931485494
 30
0.0
 10
142.0113289258872
 20
142.3602411349288
 30
0.0
 10
142.1800416740993
 20
142.1121050492708
 30
0.0
 10
142.2424060868228
 20
141.971762725267
 30
0.0
 10
142.3237100113312
 20
141.6834910337784
 30
0.0
 10
142.3437459416634
 20
141.5326860607986
 30
0.0
 10
142.3437459416634
 20
141.3823161694533
 30
0.0
  0
LINE
  5
B4
330
1F
100
AcDbEntity
  8
0
  6
Continuous
 62
     7
370
    15
100
AcDbLine
 10
142.3437459417
 20
141.3823161695
 30
0.0
 11
142.3437459417
 21
135.0736186349
 31
0.0
  0
SPLINE
  5
B5
330
1F
100
AcDbEntity
  8
0
  6
Continuous
 62
     7
370
    15
100
AcDbSpline
210
0.0
220
0.0
230
1.0
 70
     8
 71
     3
 72
     8
 73
     4
 74
     0
 42
0.00000001
 43
0.00000001
 40
0.0
 40
0.0
 40
0.0
 40
0.0
 40
1.0
 40
1.0
 40
1.0
 40
1.0
 10
136.6557749625848
 20
152.7134134905499
 30
0.0
 10
136.2047479938716
 20
151.9161029203621
 30
0.0
 10
135.754054177348
 20
151.1186046207049
 30
0.0
 10
135.3037459416634
 20
150.3208894955912
 30
0.0
  0
LINE
  5
B6
330
1F
100
AcDbEntity
  8
0
  6
Continuous
 62
     7
370
    15
100
AcDbLine
 10
136.6557749626
 20
142.6745813958
 30
0.0
 11
136.6557749626
 21
152.7134134905
 31
0.0
  0
LINE
  5
B7
330
1F
100
AcDbEntity
  8
0
  6
Continuous
 62
     7
370
    15
100
AcDbLine
 10
135.3037459417
 20
139.619066141
 30
0.0
 11
135.3037459417
 21
150.3208894956
 31
0.0
  0
LINE
  5
B8
330
1F
100
AcDbEntity
  8
0
  6
Continuous
 62
     7
370
    15
100
AcDbLine
 10
141.3437459417
 20
152.7134134905
 30
0.0
 11
136.6557749626
 21
152.7134134905
 31
0.0
  0
SPLINE
  5
B9
330
1F
100
AcDbEntity
  8
0
  6
Continuous
 62
     7
370
    15
100
AcDbSpline
210
0.0
220
0.0
230
1.0
 70
     8
 71
     3
 72
    12
 73
     8
 74
     0
 42
0.00000001
 43
0.00000001
 40
0.0
 40
0.0
 40
0.0
 40
0.0
 40
0.4999999999999953
 40
0.4999999999999953
 40
0.7499999999999977
 40
0.7499999999999977
 40
1.0
 40
1.0
 40
1.0
 40
1.0
 10
142.3437459416634
 20
151.6923584557322
 30
0.0
 10
142.3437459416634
 20
151.9576278884986
 30
0.0
 10
142.239139198177
 20
152.220142994151
 30
0.0
 10
141.9624708464316
 20
152.5056806001883
 30
0.0
 10
141.8521055870797
 20
152.5820022170496
 30
0.0
 10
141.6080335384639
 20
152.6863443818898
 30
0.0
 10
141.4762810771322
 20
152.7134134905499
 30
0.0
 10
141.3437459416634
 20
152.7134134905499
 30
0.0
  0
LINE
  5
BA
330
1F
100
AcDbEntity
  8
0
  6
Continuous
 62
     7
370
    15
100
AcDbLine
 10
142.3437459417
 20
141.3823161695
 30
0.0
 11
142.3437459417
 21
151.6923584557
 31
0.0
  0
LINE
  5
BB
330
1F
100
AcDbEntity
  8
0
  6
Continuous
 62
     7
370
    15
100
AcDbLine
 10
134.5037459417
 20
148.5978943951
 30
0.0
 11
132.2837459417
 21
148.5978943951
 31
0.0
  0
ARC
  5
BC
330
1F
100
AcDbEntity
  8
0
  6
Continuous
 62
     7
370
    15
100
AcDbCircle
 10
122.3940200018
 20
136.2903921504
 30
0.0
 40
11.44864639011365
100
AcDbArc
 50
77.6649884509
 51
102.4018279774
  0
LINE
  5
BD
330
1F
100
AcDbEntity
  8
0
  6
Continuous
 62
     7
370
    15
100
AcDbLine
 10
65.1437459417
 20
71.4736186349
 30
0.0
 11
65.1437459417
 21
71.4753334331
 31
0.0
  0
LINE
  5
BE
330
1F
100
AcDbEntity
  8
0
  6
Continuous
 62
     7
370
    15
100
AcDbLine
 10
65.1437459417
 20
135.9736186349
 30
0.0
 11
65.1437459417
 21
135.9719038367
 31
0.0
  0
LINE
  5
BF
330
1F
100
AcDbEntity
  8
0
  6
Continuous
 62
     7
370
    15
100
AcDbLine
 10
164.3437459417
 20
88.7236186349
 30
0.0
 11
164.3437459417
 21
118.7236186349
 31
0.0
  0
LINE
  5
C0
330
1F
100
AcDbEntity
  8
0
  6
Continuous
 62
     7
370
    15
100
AcDbLine
 10
153.017322503
 20
118.5587133469
 30
0.0
 11
153.1894876092
 21
118.5400698854
 31
0.0
  0
SPLINE
  5
C1
330
1F
100
AcDbEntity
  8
0
  6
Continuous
 62
     7
370
    15
100
AcDbSpline
210
0.0
220
0.0
230
1.0
 70
     8
 71
     3
 72
    37
 73
    33
 74
     0
 42
0.00000001
 43
0.00000001
 40
0.0
 40
0.0
 40
0.0
 40
0.0
 40
0.026074569036359
 40
0.048561378956239
 40
0.0686516358259715
 40
0.1094511196058715
 40
0.1301874919269446
 40
0.1516489175492174
 40
0.1951472409224604
 40
0.2172029083284288
 40
0.241858235510815
 40
0.291818718891158
 40
0.3171485545383653
 40
0.3455750682187091
 40
0.4032428283255152
 40
0.4325284642472579
 40
0.4636592982830784
 40
0.5269199854930227
 40
0.5591193170383681
 40
0.5911186074605725
 40
0.6233445310618146
 40
0.656303306914375
 40
0.689525080947039
 40
0.7206642780458482
 40
0.784215809897206
 40
0.8167789331396238
 40
0.8395613286466256
 40
0.8858326780637179
 40
0.9093994472971453
 40
0.9321878521921786
 40
0.9787112702307844
 40
1.0
 40
1.0
 40
1.0
 40
1.0
 10
158.8339837820454
 20
118.7219987120581
 30
0.0
 10
158.8354496396187
 20
118.7222404762776
 30
0.0
 10
158.838179658474
 20
118.722690738902
 30
0.0
 10
158.7986584531479
 20
118.716154989238
 30
0.0
 10
158.7329753710969
 20
118.7054252790783
 30
0.0
 10
158.6349407116585
 20
118.6897120019358
 30
0.0
 10
158.5066982546695
 20
118.6699544381039
 30
0.0
 10
158.3549597908391
 20
118.647269651874
 30
0.0
 10
158.1729500632659
 20
118.6214529117922
 30
0.0
 10
157.9604975178929
 20
118.5935431185741
 30
0.0
 10
157.7162401961274
 20
118.5633450643593
 30
0.0
 10
157.4390206638023
 20
118.5327154043575
 30
0.0
 10
157.132202148575
 20
118.5037007803173
 30
0.0
 10
156.7896015155201
 20
118.4752818647505
 30
0.0
 10
156.4163499562978
 20
118.4515811251807
 30
0.0
 10
156.0236147056016
 20
118.4351606521321
 30
0.0
 10
155.6065341793806
 20
118.424035384292
 30
0.0
 10
155.1738602246182
 20
118.4229743007954
 30
0.0
 10
154.7427947569522
 20
118.4325133594023
 30
0.0
 10
154.4207387970647
 20
118.4448600320448
 30
0.0
 10
154.1026748174984
 20
118.4621059214953
 30
0.0
 10
153.7897209536623
 20
118.4839447715404
 30
0.0
 10
153.491924686835
 20
118.5092211459922
 30
0.0
 10
153.119258122056
 20
118.5459840781975
 30
0.0
 10
152.7798779305714
 20
118.5861493337442
 30
0.0
 10
152.5057388195232
 20
118.6228151597351
 30
0.0
 10
152.2955662308167
 20
118.6525829623312
 30
0.0
 10
152.1339899107996
 20
118.6770115736212
 30
0.0
 10
152.0090209013808
 20
118.6966841980436
 30
0.0
 10
151.9104374716008
 20
118.7125578633165
 30
0.0
 10
151.8510216531905
 20
118.7224099799769
 30
0.0
 10
151.8463419581119
 20
118.7231874878304
 30
0.0
 10
151.8448728295391
 20
118.7234315761703
 30
0.0
  0
SPLINE
  5
C2
330
1F
100
AcDbEntity
  8
0
  6
Continuous
 62
     7
370
    15
100
AcDbSpline
210
0.0
220
0.0
230
1.0
 70
     8
 71
     3
 72
     9
 73
     5
 74
     0
 42
0.00000001
 43
0.00000001
 40
0.0
 40
0.0
 40
0.0
 40
0.0
 40
0.3625033216873356
 40
1.0
 40
1.0
 40
1.0
 40
1.0
 10
152.7549642112179
 20
118.590670651032
 30
0.0
 10
152.7843300269365
 20
118.5868138028766
 30
0.0
 10
152.865338431444
 20
118.5761743192511
 30
0.0
 10
152.9581533199299
 20
118.565511108398
 30
0.0
 10
153.0173225030376
 20
118.558713346899
 30
0.0
  0
SPLINE
  5
C3
330
1F
100
AcDbEntity
  8
0
  6
Continuous
 62
     7
370
    15
100
AcDbSpline
210
0.0
220
0.0
230
1.0
 70
     8
 71
     3
 72
    60
 73
    56
 74
     0
 42
0.00000001
 43
0.00000001
 40
-0.0312499999999994
 40
-0.0312499999999994
 40
0.0
 40
0.0
 40
0.0625000000000017
 40
0.0625000000000017
 40
0.0937500000000026
 40
0.0937500000000026
 40
0.1250000000000035
 40
0.1250000000000035
 40
0.1875000000000042
 40
0.1875000000000042
 40
0.250000000000005
 40
0.250000000000005
 40
0.281250000000005
 40
0.281250000000005
 40
0.3125000000000049
 40
0.3125000000000049
 40
0.3437500000000049
 40
0.3437500000000049
 40
0.3750000000000049
 40
0.3750000000000049
 40
0.4062500000000049
 40
0.4062500000000049
 40
0.4375000000000049
 40
0.4375000000000049
 40
0.4687500000000049
 40
0.4687500000000049
 40
0.5000000000000049
 40
0.5000000000000049
 40
0.5625000000000049
 40
0.5625000000000049
 40
0.5937500000000049
 40
0.5937500000000049
 40
0.6250000000000048
 40
0.6250000000000048
 40
0.6562500000000048
 40
0.6562500000000048
 40
0.6875000000000048
 40
0.6875000000000048
 40
0.7500000000000038
 40
0.7500000000000038
 40
0.7812500000000033
 40
0.7812500000000033
 40
0.8125000000000029
 40
0.8125000000000029
 40
0.8437500000000024
 40
0.8437500000000024
 40
0.8750000000000019
 40
0.8750000000000019
 40
0.9062500000000014
 40
0.9062500000000014
 40
0.937500000000001
 40
0.937500000000001
 40
0.9687500000000006
 40
0.9687500000000006
 40
1.0
 40
1.0
 40
1.062500000000002
 40
1.062500000000002
 10
152.8476127962883
 20
105.8122924225424
 30
0.0
 10
153.3567419203254
 20
106.2005692160359
 30
0.0
 10
153.7339600758551
 20
106.3914171585054
 30
0.0
 10
154.3440451455661
 20
106.5847023785168
 30
0.0
 10
154.5503464451328
 20
106.6318147720735
 30
0.0
 10
154.9685423637316
 20
106.6932733223956
 30
0.0
 10
155.1816501874491
 20
106.7075799134516
 30
0.0
 10
155.8215659809213
 20
106.6994455809725
 30
0.0
 10
156.2386894812643
 20
106.6281056135928
 30
0.0
 10
157.0453167408567
 20
106.3494067641501
 30
0.0
 10
157.4148857453749
 20
106.1499391194826
 30
0.0
 10
157.912436193522
 20
105.747588143543
 30
0.0
 10
158.0636954677814
 20
105.599581505341
 30
0.0
 10
158.333584378846
 20
105.275464502738
 30
0.0
 10
158.4537785356785
 20
105.0963899231246
 30
0.0
 10
158.6477814009436
 20
104.7201836132953
 30
0.0
 10
158.7223355601385
 20
104.5234267148015
 30
0.0
 10
158.8224591394496
 20
104.1109408216399
 30
0.0
 10
158.8468019401497
 20
103.895450481651
 30
0.0
 10
158.8400565595114
 20
103.4723206113064
 30
0.0
 10
158.8090387519562
 20
103.2583086891204
 30
0.0
 10
158.6958039204034
 20
102.8476586528252
 30
0.0
 10
158.6147559866324
 20
102.6516593925464
 30
0.0
 10
158.4069614509664
 20
102.2770170008367
 30
0.0
 10
158.28356441831
 20
102.1044427445169
 30
0.0
 10
158.0033455617702
 20
101.7860816612613
 30
0.0
 10
157.8454843518765
 20
101.6399599916553
 30
0.0
 10
157.3418185217018
 20
101.2536764513063
 30
0.0
 10
156.9559735614765
 20
101.0573119276233
 30
0.0
 10
156.3511562593082
 20
100.8646261766049
 30
0.0
 10
156.1426701671301
 20
100.8164234229562
 30
0.0
 10
155.720297145849
 20
100.7539760415007
 30
0.0
 10
155.508921276072
 20
100.7398745681086
 30
0.0
 10
155.0858031215852
 20
100.7447461284849
 30
0.0
 10
154.8728587590099
 20
100.7639350393899
 30
0.0
 10
154.451956919991
 20
100.8364161379938
 30
0.0
 10
154.2470952433
 20
100.8889626157714
 30
0.0
 10
153.6490610149093
 20
101.0951760031113
 30
0.0
 10
153.2672625307536
 20
101.3015821197071
 30
0.0
 10
152.7774549745155
 20
101.6977275331797
 30
0.0
 10
152.6263055960653
 20
101.8447106891647
 30
0.0
 10
152.3522001448741
 20
102.1737551129911
 30
0.0
 10
152.2343097448949
 20
102.3498263514436
 30
0.0
 10
152.0398584115827
 20
102.7266317872988
 30
0.0
 10
151.963193776856
 20
102.9298592893101
 30
0.0
 10
151.8642265339737
 20
103.3417118445801
 30
0.0
 10
151.8403005222328
 20
103.5529320121002
 30
0.0
 10
151.8479860944126
 20
103.9833190443961
 30
0.0
 10
151.8792954323335
 20
104.1934049638484
 30
0.0
 10
151.9933177282154
 20
104.6040360009201
 30
0.0
 10
152.0766366056183
 20
104.803683745648
 30
0.0
 10
152.2834510181445
 20
105.1743767527986
 30
0.0
 10
152.4091875159483
 20
105.3496957495735
 30
0.0
 10
152.6910235357756
 20
105.6680029234953
 30
0.0
 10
152.8476127962883
 20
105.8122924225424
 30
0.0
 10
153.3567419203254
 20
106.2005692160359
 30
0.0
  0
SPLINE
  5
C4
330
1F
100
AcDbEntity
  8
0
  6
Continuous
 62
     7
370
    15
100
AcDbSpline
210
0.0
220
0.0
230
1.0
 70
     8
 71
     3
 72
     9
 73
     5
 74
     0
 42
0.00000001
 43
0.00000001
 40
0.0
 40
0.0
 40
0.0
 40
0.0
 40
0.8306961451679654
 40
1.0
 40
1.0
 40
1.0
 40
1.0
 10
153.0173225033452
 20
88.88852392290858
 30
0.0
 10
152.9454123464871
 20
88.88031687147799
 30
0.0
 10
152.858846208825
 20
88.87043714412118
 30
0.0
 10
152.7860001930233
 20
88.86072848638841
 30
0.0
 10
152.7736670817389
 20
88.85908477320902
 30
0.0
  0
SPLINE
  5
C5
330
1F
100
AcDbEntity
  8
0
  6
Continuous
 62
     7
370
    15
100
AcDbSpline
210
0.0
220
0.0
230
1.0
 70
     8
 71
     3
 72
    39
 73
    35
 74
     0
 42
0.00000001
 43
0.00000001
 40
0.0
 40
0.0
 40
0.0
 40
0.0
 40
0.0060930915915705
 40
0.0287231216979003
 40
0.0488575597471495
 40
0.0897791026067262
 40
0.1105983631044339
 40
0.1315246787516562
 40
0.1739506973677866
 40
0.1954697364836922
 40
0.2192513009537069
 40
0.2674372844787148
 40
0.2918637061366419
 40
0.3194211748210418
 40
0.3753053589442876
 40
0.403670693714759
 40
0.4343190429066366
 40
0.4965752772228844
 40
0.5282468941304269
 40
0.5601856082085993
 40
0.592346556057351
 40
0.6252194849322181
 40
0.6583446550624822
 40
0.6898805263369179
 40
0.7216586971763901
 40
0.7542539956277844
 40
0.7871589908225296
 40
0.8110125140027771
 40
0.8594545121918967
 40
0.8841254510707374
 40
0.9079858265415888
 40
0.9567347565320068
 40
0.9817327968062028
 40
1.0
 40
1.0
 40
1.0
 40
1.0
 10
151.8485963101788
 20
88.72442194336418
 30
0.0
 10
151.8469477912919
 20
88.72414899420313
 30
0.0
 10
151.8391765953564
 20
88.72286229895953
 30
0.0
 10
151.8587326579432
 20
88.72610896618738
 30
0.0
 10
151.9005481026199
 20
88.73301049820341
 30
0.0
 10
151.9793309312441
 20
88.74585525266141
 30
0.0
 10
152.0883727827383
 20
88.76305438030292
 30
0.0
 10
152.2196783104086
 20
88.78325288085487
 30
0.0
 10
152.3807479800731
 20
88.80697936848536
 30
0.0
 10
152.5720618274885
 20
88.83337170756705
 30
0.0
 10
152.7931321196852
 20
88.86234192608241
 30
0.0
 10
153.0466605113576
 20
88.89259429712641
 30
0.0
 10
153.330528640861
 20
88.92234464988904
 30
0.0
 10
153.6502967185405
 20
88.95245026784694
 30
0.0
 10
154.0022067750113
 20
88.97926233399336
 30
0.0
 10
154.3771737268553
 20
89.0001737239321
 30
0.0
 10
154.7808308986256
 20
89.01685653058422
 30
0.0
 10
155.2049453905055
 20
89.02445418238939
 30
0.0
 10
155.6330886899025
 20
89.02170263586653
 30
0.0
 10
155.9570206917047
 20
89.01434736402598
 30
0.0
 10
156.2807255909761
 20
89.00174514408887
 30
0.0
 10
156.6016615675658
 20
88.98409789579682
 30
0.0
 10
156.9112629481617
 20
88.96220474773305
 30
0.0
 10
157.2058380728597
 20
88.93705207401665
 30
0.0
 10
157.4850910727861
 20
88.9094140789426
 30
0.0
 10
157.7514140132968
 20
88.87962440919358
 30
0.0
 10
157.977386121287
 20
88.85163329099247
 30
0.0
 10
158.2208897744805
 20
88.81923229346835
 30
0.0
 10
158.4164692653871
 20
88.79098680410229
 30
0.0
 10
158.5753150957371
 20
88.76677709831984
 30
0.0
 10
158.7084436940767
 20
88.74585221635235
 30
0.0
 10
158.7981758638855
 20
88.73117246852782
 30
0.0
 10
158.8394792671992
 20
88.72432849666833
 30
0.0
 10
158.8417672844389
 20
88.72394759775825
 30
0.0
 10
158.8427333179679
 20
88.72378677680292
 30
0.0
  0
LINE
  5
C6
330
1F
100
AcDbEntity
  8
0
  6
Continuous
 62
     7
370
    15
100
AcDbLine
 10
153.0865087263
 20
88.8960657848
 30
0.0
 11
153.0173225033
 21
88.8885239229
 31
0.0
  0
CIRCLE
  5
C7
330
1F
100
AcDbEntity
  8
0
  6
Continuous
 62
     7
370
    15
100
AcDbCircle
 10
155.3437459417
 20
103.7236186349
 30
0.0
 40
2.500000000000014
  0
LINE
  5
C8
330
1F
100
AcDbEntity
  8
0
  6
Continuous
 62
     7
370
    15
100
AcDbLine
 10
205.2751317331
 20
90.2236186349
 30
0.0
 11
205.2751317331
 21
117.2236186349
 31
0.0
  0
LINE
  5
C9
330
1F
100
AcDbEntity
  8
0
  6
Continuous
 62
     7
370
    15
100
AcDbLine
 10
243.3937459417
 20
95.0723996182
 30
0.0
 11
243.3937459417
 21
112.3748376516
 31
0.0
  0
LINE
  5
CA
330
1F
100
AcDbEntity
  8
0
  6
HIDDEN
 62
     7
370
     0
100
AcDbLine
 10
206.4937459417
 20
101.2236186349
 30
0.0
 11
206.4937459417
 21
106.2236186349
 31
0.0
  0
LINE
  5
CB
330
1F
100
AcDbEntity
  8
0
  6
HIDDEN
 62
     7
370
     0
100
AcDbLine
 10
195.2937459417
 20
101.2236186349
 30
0.0
 11
195.2937459417
 21
106.2236186349
 31
0.0
  0
LINE
  5
CC
330
1F
100
AcDbEntity
  8
0
  6
HIDDEN
 62
     7
370
     0
100
AcDbLine
 10
194.8937459417
 20
101.6236186349
 30
0.0
 11
194.8937459417
 21
105.8236186349
 31
0.0
  0
LINE
  5
CD
330
1F
100
AcDbEntity
  8
0
  6
HIDDEN
 62
     7
370
     0
100
AcDbLine
 10
208.8937459417
 20
102.7236186349
 30
0.0
 11
207.8937459417
 21
102.7236186349
 31
0.0
  0
LINE
  5
CE
330
1F
100
AcDbEntity
  8
0
  6
HIDDEN
 62
     7
370
     0
100
AcDbLine
 10
208.8937459417
 20
101.6236186349
 30
0.0
 11
208.8937459417
 21
102.7236186349
 31
0.0
  0
LINE
  5
CF
330
1F
100
AcDbEntity
  8
0
  6
HIDDEN
 62
     7
370
     0
100
AcDbLine
 10
208.8937459417
 20
104.7236186349
 30
0.0
 11
208.8937459417
 21
105.8236186349
 31
0.0
  0
LINE
  5
D0
330
1F
100
AcDbEntity
  8
0
  6
HIDDEN
 62
     7
370
     0
100
AcDbLine
 10
207.8937459417
 20
104.7236186349
 30
0.0
 11
208.8937459417
 21
104.7236186349
 31
0.0
  0
LINE
  5
D1
330
1F
100
AcDbEntity
  8
0
  6
HIDDEN
 62
     7
370
     0
100
AcDbLine
 10
207.8937459417
 20
102.7236186349
 30
0.0
 11
207.8937459417
 21
104.7236186349
 31
0.0
  0
LINE
  5
D2
330
1F
100
AcDbEntity
  8
0
  6
HIDDEN
 62
     7
370
     0
100
AcDbLine
 10
204.8937459417
 20
103.7236186349
 30
0.0
 11
207.8937459417
 21
103.7236186349
 31
0.0
  0
LINE
  5
D3
330
1F
100
AcDbEntity
  8
0
  6
HIDDEN
 62
     7
370
     0
100
AcDbLine
 10
198.8937459416
 20
103.7236186349
 30
0.0
 11
198.8937459416
 21
104.3486186349
 31
0.0
  0
LINE
  5
D4
330
1F
100
AcDbEntity
  8
0
  6
HIDDEN
 62
     7
370
     0
100
AcDbLine
 10
204.8937459417
 20
104.3486186349
 30
0.0
 11
204.8937459417
 21
103.7236186349
 31
0.0
  0
LINE
  5
D5
330
1F
100
AcDbEntity
  8
0
  6
HIDDEN
 62
     7
370
     0
100
AcDbLine
 10
204.8937459417
 20
103.7236186349
 30
0.0
 11
204.8937459417
 21
103.0986186349
 31
0.0
  0
LINE
  5
D6
330
1F
100
AcDbEntity
  8
0
  6
HIDDEN
 62
     7
370
     0
100
AcDbLine
 10
198.8937459416
 20
103.0986186349
 30
0.0
 11
198.8937459416
 21
103.7236186349
 31
0.0
  0
LINE
  5
D7
330
1F
100
AcDbEntity
  8
0
  6
HIDDEN
 62
     7
370
     0
100
AcDbLine
 10
198.8937459416
 20
103.7236186349
 30
0.0
 11
194.8937459417
 21
103.7236186349
 31
0.0
  0
LINE
  5
D8
330
1F
100
AcDbEntity
  8
0
  6
HIDDEN
 62
     7
370
     0
100
AcDbLine
 10
198.8937459416
 20
104.3486186349
 30
0.0
 11
198.8937459416
 21
104.9736186349
 31
0.0
  0
LINE
  5
D9
330
1F
100
AcDbEntity
  8
0
  6
HIDDEN
 62
     7
370
     0
100
AcDbLine
 10
198.8937459416
 20
102.4736186349
 30
0.0
 11
198.8937459416
 21
103.0986186349
 31
0.0
  0
LINE
  5
DA
330
1F
100
AcDbEntity
  8
0
  6
HIDDEN
 62
     7
370
     0
100
AcDbLine
 10
204.8937459417
 20
103.0986186349
 30
0.0
 11
204.8937459417
 21
102.4736186349
 31
0.0
  0
LINE
  5
DB
330
1F
100
AcDbEntity
  8
0
  6
HIDDEN
 62
     7
370
     0
100
AcDbLine
 10
204.8937459417
 20
104.9736186349
 30
0.0
 11
204.8937459417
 21
104.3486186349
 31
0.0
  0
LINE
  5
DC
330
1F
100
AcDbEntity
  8
0
  6
HIDDEN
 62
     7
370
     0
100
AcDbLine
 10
198.8937459416
 20
102.4736186349
 30
0.0
 11
194.8937459416
 21
102.4736186349
 31
0.0
  0
LINE
  5
DD
330
1F
100
AcDbEntity
  8
0
  6
HIDDEN
 62
     7
370
     0
100
AcDbLine
 10
204.8937459417
 20
104.9736186349
 30
0.0
 11
208.8937459417
 21
104.9736186349
 31
0.0
  0
LINE
  5
DE
330
1F
100
AcDbEntity
  8
0
  6
HIDDEN
 62
     7
370
     0
100
AcDbLine
 10
204.8937459417
 20
102.4736186349
 30
0.0
 11
208.8937459417
 21
102.4736186349
 31
0.0
  0
LINE
  5
DF
330
1F
100
AcDbEntity
  8
0
  6
HIDDEN
 62
     7
370
     0
100
AcDbLine
 10
198.8937459416
 20
104.9736186349
 30
0.0
 11
194.8937459416
 21
104.9736186349
 31
0.0
  0
LINE
  5
E0
330
1F
100
AcDbEntity
  8
0
  6
HIDDEN
 62
     7
370
     0
100
AcDbLine
 10
237.9195413772
 20
111.7387411077
 30
0.0
 11
237.8096516569
 21
108.941860959
 31
0.0
  0
LINE
  5
E1
330
1F
100
AcDbEntity
  8
0
  6
HIDDEN
 62
     7
370
     0
100
AcDbLine
 10
237.9274311042
 20
111.9395480677
 30
0.0
 11
237.9195413772
 21
111.7387411077
 31
0.0
  0
LINE
  5
E2
330
1F
100
AcDbEntity
  8
0
  6
HIDDEN
 62
     7
370
     0
100
AcDbLine
 10
237.4029268602
 20
111.3256921508
 30
0.0
 11
237.3296670466
 21
109.461105385
 31
0.0
  0
LINE
  5
E3
330
1F
100
AcDbEntity
  8
0
  6
HIDDEN
 62
     7
370
     0
100
AcDbLine
 10
237.4081866782
 20
111.4595634575
 30
0.0
 11
237.4029268602
 21
111.3256921508
 31
0.0
  0
LINE
  5
E4
330
1F
100
AcDbEntity
  8
0
  6
HIDDEN
 62
     7
370
     0
100
AcDbLine
 10
243.2534791811
 20
111.5291701206
 30
0.0
 11
243.1435894608
 21
108.7322899719
 31
0.0
  0
LINE
  5
E5
330
1F
100
AcDbEntity
  8
0
  6
HIDDEN
 62
     7
370
     0
100
AcDbLine
 10
243.2613689081
 20
111.7299770806
 30
0.0
 11
243.2534791811
 21
111.5291701206
 31
0.0
  0
LINE
  5
E6
330
1F
100
AcDbEntity
  8
0
  6
HIDDEN
 62
     7
370
     0
100
AcDbLine
 10
243.3937459417
 20
110.9741973038
 30
0.0
 11
243.3164237345
 21
109.006215717
 31
0.0
  0
LINE
  5
E7
330
1F
100
AcDbEntity
  8
0
  6
HIDDEN
 62
     7
370
     0
100
AcDbLine
 10
241.3658430074
 20
110.3032951582
 30
0.0
 11
241.3952878692
 21
111.0527169354
 31
0.0
  0
LINE
  5
E8
330
1F
100
AcDbEntity
  8
0
  6
HIDDEN
 62
     7
370
     0
100
AcDbLine
 10
241.3658430074
 20
110.3032951582
 30
0.0
 11
243.3643010798
 21
110.2247755267
 31
0.0
  0
LINE
  5
E9
330
1F
100
AcDbEntity
  8
0
  6
HIDDEN
 62
     7
370
     0
100
AcDbLine
 10
241.3658430074
 20
110.3032951582
 30
0.0
 11
241.3363981455
 21
109.553873381
 31
0.0
  0
LINE
  5
EA
330
1F
100
AcDbEntity
  8
0
  6
HIDDEN
 62
     7
370
     0
100
AcDbLine
 10
241.3363981455
 20
109.553873381
 30
0.0
 11
243.334856218
 21
109.4753537495
 31
0.0
  0
LINE
  5
EB
330
1F
100
AcDbEntity
  8
0
  6
HIDDEN
 62
     7
370
     0
100
AcDbLine
 10
241.3952878692
 20
111.0527169354
 30
0.0
 11
243.3937459417
 21
110.9741973038
 31
0.0
  0
LINE
  5
EC
330
1F
100
AcDbEntity
  8
0
  6
HIDDEN
 62
     7
370
     0
100
AcDbLine
 10
243.3753134582
 20
98.4433353364
 30
0.0
 11
243.3937459417
 21
97.9741973038
 31
0.0
  0
LINE
  5
ED
330
1F
100
AcDbEntity
  8
0
  6
HIDDEN
 62
     7
370
     0
100
AcDbLine
 10
243.2024791844
 20
98.7172610814
 30
0.0
 11
243.3202586317
 21
95.7195739727
 31
0.0
  0
LINE
  5
EE
330
1F
100
AcDbEntity
  8
0
  6
HIDDEN
 62
     7
370
     0
100
AcDbLine
 10
237.8685413805
 20
98.5076900943
 30
0.0
 11
237.9863208278
 21
95.5100029856
 31
0.0
  0
LINE
  5
EF
330
1F
100
AcDbEntity
  8
0
  6
HIDDEN
 62
     7
370
     0
100
AcDbLine
 10
237.3885567703
 20
97.9884456683
 30
0.0
 11
237.4670764018
 21
95.9899875959
 31
0.0
  0
LINE
  5
F0
330
1F
100
AcDbEntity
  8
0
  6
HIDDEN
 62
     7
370
     0
100
AcDbLine
 10
241.424732731
 20
97.1462558951
 30
0.0
 11
241.3952878692
 21
97.8956776723
 31
0.0
  0
LINE
  5
F1
330
1F
100
AcDbEntity
  8
0
  6
HIDDEN
 62
     7
370
     0
100
AcDbLine
 10
241.4541775928
 20
96.396834118
 30
0.0
 11
241.424732731
 21
97.1462558951
 31
0.0
  0
LINE
  5
F2
330
1F
100
AcDbEntity
  8
0
  6
HIDDEN
 62
     7
370
     0
100
AcDbLine
 10
241.424732731
 20
97.1462558951
 30
0.0
 11
243.4231908035
 21
97.2247755267
 31
0.0
  0
LINE
  5
F3
330
1F
100
AcDbEntity
  8
0
  6
HIDDEN
 62
     7
370
     0
100
AcDbLine
 10
241.4541775928
 20
96.396834118
 30
0.0
 11
243.4526356653
 21
96.4753537495
 31
0.0
  0
LINE
  5
F4
330
1F
100
AcDbEntity
  8
0
  6
HIDDEN
 62
     7
370
     0
100
AcDbLine
 10
241.3952878692
 20
97.8956776723
 30
0.0
 11
243.3937459417
 21
97.9741973038
 31
0.0
  0
SPLINE
  5
F5
330
1F
100
AcDbEntity
  8
0
  6
HIDDEN
 62
     7
370
     0
100
AcDbSpline
210
0.0
220
0.0
230
1.0
 70
     8
 71
     3
 72
    80
 73
    76
 74
     0
 42
0.00000001
 43
0.00000001
 40
-0.03125
 40
-0.03125
 40
0.0
 40
0.0
 40
0.0312500000000002
 40
0.0312500000000002
 40
0.0468750000000002
 40
0.0468750000000002
 40
0.0625000000000001
 40
0.0625000000000001
 40
0.0937499999999999
 40
0.0937499999999999
 40
0.1249999999999997
 40
0.1249999999999997
 40
0.1562499999999995
 40
0.1562499999999995
 40
0.1874999999999993
 40
0.1874999999999993
 40
0.2187499999999991
 40
0.2187499999999991
 40
0.2499999999999989
 40
0.2499999999999989
 40
0.2812499999999987
 40
0.2812499999999987
 40
0.3124999999999984
 40
0.3124999999999984
 40
0.3281249999999985
 40
0.3281249999999985
 40
0.3437499999999986
 40
0.3437499999999986
 40
0.3749999999999986
 40
0.3749999999999986
 40
0.4062499999999987
 40
0.4062499999999987
 40
0.4218749999999989
 40
0.4218749999999989
 40
0.4374999999999991
 40
0.4374999999999991
 40
0.4687499999999993
 40
0.4687499999999993
 40
0.4999999999999994
 40
0.4999999999999994
 40
0.5312499999999997
 40
0.5312499999999997
 40
0.5624999999999998
 40
0.5624999999999998
 40
0.59375
 40
0.59375
 40
0.6250000000000001
 40
0.6250000000000001
 40
0.6562500000000003
 40
0.6562500000000003
 40
0.6875000000000006
 40
0.6875000000000006
 40
0.7031250000000007
 40
0.7031250000000007
 40
0.7187500000000007
 40
0.7187500000000007
 40
0.7500000000000003
 40
0.7500000000000003
 40
0.78125
 40
0.78125
 40
0.7968749999999998
 40
0.7968749999999998
 40
0.8124999999999997
 40
0.8124999999999997
 40
0.8437499999999998
 40
0.8437499999999998
 40
0.8749999999999998
 40
0.8749999999999998
 40
0.9062499999999999
 40
0.9062499999999999
 40
0.9375
 40
0.9375
 40
0.96875
 40
0.96875
 40
1.0
 40
1.0
 40
1.03125
 40
1.03125
 10
122.0632006288871
 20
152.5831678913643
 30
0.0
 10
122.7242912544397
 20
152.5831678913643
 30
0.0
 10
123.0492713836913
 20
152.5762697455375
 30
0.0
 10
123.5287447949378
 20
152.555743317557
 30
0.0
 10
123.6872266127786
 20
152.5471870904694
 30
0.0
 10
124.0014461452829
 20
152.5264607152518
 30
0.0
 10
124.1575664289633
 20
152.5142334150455
 30
0.0
 10
124.6116204579198
 20
152.4726641212162
 30
0.0
 10
124.8987238408597
 20
152.4383198361184
 30
0.0
 10
125.4420783968867
 20
152.3549957117961
 30
0.0
 10
125.6991820080923
 20
152.3055574890216
 30
0.0
 10
126.160088263031
 20
152.1941777592617
 30
0.0
 10
126.366985972246
 20
152.1318832457496
 30
0.0
 10
126.7325112862382
 20
151.9919536028786
 30
0.0
 10
126.8877168083642
 20
151.9153377051296
 30
0.0
 10
127.1371471949639
 20
151.7513790852738
 30
0.0
 10
127.2332371507491
 20
151.6628222311781
 30
0.0
 10
127.3617559999426
 20
151.4753415490723
 30
0.0
 10
127.3935668701204
 20
151.3781050876179
 30
0.0
 10
127.3939235198937
 20
151.1764724482908
 30
0.0
 10
127.3614262676966
 20
151.0709236564527
 30
0.0
 10
127.2338007939821
 20
150.8608088737641
 30
0.0
 10
127.1393723929302
 20
150.7557433657952
 30
0.0
 10
126.9515115729447
 20
150.5988656585441
 30
0.0
 10
126.8806835741415
 20
150.5464319248384
 30
0.0
 10
126.7259616821762
 20
150.4439934792087
 30
0.0
 10
126.6419852119928
 20
150.3938457505568
 30
0.0
 10
126.3706615423484
 20
150.2468297941233
 30
0.0
 10
126.1641123237461
 20
150.1533419736889
 30
0.0
 10
125.697502183557
 20
149.9775551160745
 30
0.0
 10
125.4451366139316
 20
149.8981766409908
 30
0.0
 10
125.0392352722529
 20
149.7926942034968
 30
0.0
 10
124.8993346547754
 20
149.7598086386566
 30
0.0
 10
124.6101107195284
 20
149.698893159428
 30
0.0
 10
124.4602712632392
 20
149.6708125877855
 30
0.0
 10
124.0061546936284
 20
149.5960105457428
 30
0.0
 10
123.6945034748915
 20
149.5579724874966
 30
0.0
 10
123.0535070099792
 20
149.5063605609725
 30
0.0
 10
122.721979382027
 20
149.4930466274511
 30
0.0
 10
122.0691883369555
 20
149.492949541123
 30
0.0
 10
121.7446521319237
 20
149.505737626284
 30
0.0
 10
121.0993826825073
 20
149.5572278158799
 30
0.0
 10
120.7836396763446
 20
149.5957523952
 30
0.0
 10
120.1817503813609
 20
149.6946549580581
 30
0.0
 10
119.8910011505494
 20
149.7557590559831
 30
0.0
 10
119.3440893588649
 20
149.8975684890938
 30
0.0
 10
119.092311995028
 20
149.9769029736729
 30
0.0
 10
118.6309240024069
 20
150.1502817183344
 30
0.0
 10
118.4196547228088
 20
150.2454416630885
 30
0.0
 10
118.0563503704326
 20
150.4420141864643
 30
0.0
 10
117.9025437219898
 20
150.5437704148707
 30
0.0
 10
117.7139242523924
 20
150.7005563776562
 30
0.0
 10
117.6578937661832
 20
150.7538104114062
 30
0.0
 10
117.5623200044471
 20
150.859614972959
 30
0.0
 10
117.5225570874221
 20
150.9122680373146
 30
0.0
 10
117.42678533711
 20
151.0693417567737
 30
0.0
 10
117.3940624979838
 20
151.1728667921008
 30
0.0
 10
117.3934339116548
 20
151.3770815263279
 30
0.0
 10
117.4256200563895
 20
151.4745853639127
 30
0.0
 10
117.5205307582451
 20
151.6139124142643
 30
0.0
 10
117.5599975416441
 20
151.6592291457688
 30
0.0
 10
117.654927540365
 20
151.7476689667576
 30
0.0
 10
117.7106843681283
 20
151.7909232172176
 30
0.0
 10
117.8986244860982
 20
151.9148146918076
 30
0.0
 10
118.0519859558144
 20
151.9905169825817
 30
0.0
 10
118.4142501906947
 20
152.1297713540399
 30
0.0
 10
118.6250986641607
 20
152.1935331955686
 30
0.0
 10
119.0857686344796
 20
152.3050300350364
 30
0.0
 10
119.3371430140634
 20
152.353556107353
 30
0.0
 10
119.8830509009615
 20
152.4376100907335
 30
0.0
 10
120.1738734756128
 20
152.4724086444002
 30
0.0
 10
120.7752000903928
 20
152.527605109164
 30
0.0
 10
121.0897186750052
 20
152.5484229579179
 30
0.0
 10
121.7363001311251
 20
152.5762702908287
 30
0.0
 10
122.0632006288871
 20
152.5831678913643
 30
0.0
 10
122.7242912544397
 20
152.5831678913643
 30
0.0
  0
LINE
  5
F6
330
1F
100
AcDbEntity
  8
0
  6
HIDDEN
 62
     7
370
     0
100
AcDbLine
 10
130.1317169207
 20
142.6745813958
 30
0.0
 11
130.1317169207
 21
135.0736186349
 31
0.0
  0
LINE
  5
F7
330
1F
100
AcDbEntity
  8
0
  6
HIDDEN
 62
     7
370
     0
100
AcDbLine
 10
93.8071706911
 20
66.9878122726
 30
0.0
 11
93.5372149903
 21
66.9638861733
 31
0.0
  0
SPLINE
  5
F8
330
1F
100
AcDbEntity
  8
0
  6
HIDDEN
 62
     7
370
     0
100
AcDbSpline
210
0.0
220
0.0
230
1.0
 70
     8
 71
     3
 72
    12
 73
     8
 74
     0
 42
0.00000001
 43
0.00000001
 40
0.0
 40
0.0
 40
0.0
 40
0.0
 40
0.1661348616735903
 40
0.3322013257393936
 40
0.5008932044678248
 40
0.752137078264078
 40
1.0
 40
1.0
 40
1.0
 40
1.0
 10
91.91306760731065
 20
140.6549226579519
 30
0.0
 10
91.9234602314187
 20
140.6535445338905
 30
0.0
 10
91.94424120099866
 20
140.6507888531403
 30
0.0
 10
92.11754069044558
 20
140.6291854781783
 30
0.0
 10
92.4394922796893
 20
140.5913205262364
 30
0.0
 10
92.96065811560862
 20
140.5309367595203
 30
0.0
 10
93.52621605544635
 20
140.4831436223708
 30
0.0
 10
93.80707947913439
 20
140.4594089292774
 30
0.0
  0
SPLINE
  5
F9
330
1F
100
AcDbEntity
  8
0
  6
HIDDEN
 62
     7
370
     0
100
AcDbSpline
210
0.0
220
0.0
230
1.0
 70
     8
 71
     3
 72
    33
 73
    29
 74
     0
 42
0.00000001
 43
0.00000001
 40
0.0
 40
0.0
 40
0.0
 40
0.0
 40
0.0315773698875104
 40
0.0633753287769057
 40
0.0958656851178231
 40
0.1285943208117605
 40
0.1601713694082662
 40
0.2244011681247345
 40
0.2571344568799636
 40
0.2885965627565487
 40
0.3526214070085076
 40
0.3852675959519929
 40
0.4162212184009612
 40
0.4791910353915302
 40
0.5112817741273479
 40
0.5421256322990662
 40
0.6048360558905652
 40
0.6367710793564881
 40
0.6680663384719832
 40
0.7316979547407203
 40
0.7641081282919966
 40
0.7957194290717577
 40
0.8275524266255816
 40
0.8600900250720824
 40
0.8928737620729298
 40
0.9241775068323748
 40
0.9878778414776339
 40
1.0
 40
1.0
 40
1.0
 40
1.0
 10
103.6469515968544
 20
72.35729641413927
 30
0.0
 10
103.5630804498492
 20
72.371170152521
 30
0.0
 10
103.3947522599053
 20
72.39901454660576
 30
0.0
 10
103.0953976635638
 20
72.44544718683615
 30
0.0
 10
102.7613981963049
 20
72.49405978885699
 30
0.0
 10
102.3956282344176
 20
72.54320772204423
 30
0.0
 10
101.8722483197288
 20
72.60727350763686
 30
0.0
 10
101.2958211111342
 20
72.66705502204199
 30
0.0
 10
100.6806839642826
 20
72.71705462950604
 30
0.0
 10
100.0443682381997
 20
72.75919462218947
 30
0.0
 10
99.38058770076103
 20
72.78782934692748
 30
0.0
 10
98.7085219491779
 20
72.80008879801109
 30
0.0
 10
98.03907336574616
 20
72.80141808911937
 30
0.0
 10
97.37388879863221
 20
72.78655756620991
 30
0.0
 10
96.72759755974172
 20
72.75669960182074
 30
0.0
 10
96.09840760888335
 20
72.71795637375945
 30
0.0
 10
95.49869191670408
 20
72.66737813999958
 30
0.0
 10
94.94039235058226
 20
72.60897812553306
 30
0.0
 10
94.4101974801947
 20
72.54665489416354
 30
0.0
 10
93.9310307778831
 20
72.48124631962799
 30
0.0
 10
93.51611279268823
 20
72.41845741602201
 30
0.0
 10
93.23884040876221
 20
72.37395281720063
 30
0.0
 10
92.99728512320104
 20
72.33324386776566
 30
0.0
 10
92.79179311885264
 20
72.29718673711618
 30
0.0
 10
92.62762869510837
 20
72.26742971216382
 30
0.0
 10
92.4681947485431
 20
72.2378443987394
 30
0.0
 10
92.38995652059448
 20
72.22289511973453
 30
0.0
 10
92.39768131093928
 20
72.22436754233574
 30
0.0
 10
92.39891631560874
 20
72.22460294662594
 30
0.0
  0
SPLINE
  5
FA
330
1F
100
AcDbEntity
  8
0
  6
HIDDEN
 62
     7
370
     0
100
AcDbSpline
210
0.0
220
0.0
230
1.0
 70
     8
 71
     3
 72
    32
 73
    28
 74
     0
 42
0.00000001
 43
0.00000001
 40
0.0
 40
0.0
 40
0.0
 40
0.0
 40
0.020356822172105
 40
0.0512207857583794
 40
0.1139954454389432
 40
0.1459779869097674
 40
0.1769364677636727
 40
0.2398766914470389
 40
0.2719275468465721
 40
0.3033698011481659
 40
0.3673099924152954
 40
0.3998847012176188
 40
0.4314690120325909
 40
0.4957360700021212
 40
0.5285028301030422
 40
0.5596434488300034
 40
0.6230067766607702
 40
0.6553079823205556
 40
0.6861132872619372
 40
0.748756262689177
 40
0.7806634244345373
 40
0.8117607067089887
 40
0.8749825776111492
 40
0.9071778073885584
 40
0.9301738434827028
 40
0.9765719131095674
 40
1.0
 40
1.0
 40
1.0
 40
1.0
 10
92.39891631560874
 20
135.2226343231467
 30
0.0
 10
92.3985592637025
 20
135.2227018020736
 30
0.0
 10
92.397660868116
 20
135.2228715890683
 30
0.0
 10
92.46025461466863
 20
135.210977347881
 30
0.0
 10
92.60206579613214
 20
135.1843304709614
 30
0.0
 10
92.82611038800766
 20
135.1439483995487
 30
0.0
 10
93.10065250384187
 20
135.0960791577982
 30
0.0
 10
93.44934379284943
 20
135.0386092725185
 30
0.0
 10
93.86561975522683
 20
134.976114725464
 30
0.0
 10
94.32721380208962
 20
134.9115890438247
 30
0.0
 10
94.85075175118477
 20
134.8470086668414
 30
0.0
 10
95.42294922563951
 20
134.7882533019566
 30
0.0
 10
96.0251555960915
 20
134.7348804455744
 30
0.0
 10
96.66638210287299
 20
134.6920178837422
 30
0.0
 10
97.32746742086914
 20
134.6639538377211
 30
0.0
 10
97.9941783753157
 20
134.6463651801814
 30
0.0
 10
98.66806759592262
 20
134.6449185319407
 30
0.0
 10
99.33241707987042
 20
134.6598440710785
 30
0.0
 10
99.98395135403005
 20
134.6848507963022
 30
0.0
 10
100.6146105666861
 20
134.723954838984
 30
0.0
 10
101.2121495425085
 20
134.7740559967677
 30
0.0
 10
101.7861475104633
 20
134.8302271632509
 30
0.0
 10
102.3170972238566
 20
134.8931411919397
 30
0.0
 10
102.7604781051207
 20
134.9532446939933
 30
0.0
 10
103.1119987526943
 20
135.0041344109785
 30
0.0
 10
103.4016662626712
 20
135.0492568875165
 30
0.0
 10
103.5853290270689
 20
135.0797198994038
 30
0.0
 10
103.6469515968544
 20
135.0899408556334
 30
0.0
  0
SPLINE
  5
FB
330
1F
100
AcDbEntity
  8
0
  6
HIDDEN
 62
     7
370
     0
100
AcDbSpline
210
0.0
220
0.0
230
1.0
 70
     8
 71
     3
 72
    13
 73
     9
 74
     0
 42
0.00000001
 43
0.00000001
 40
0.0
 40
0.0
 40
0.0
 40
0.0
 40
0.1623836687590154
 40
0.3259036967521354
 40
0.4929930053128654
 40
0.6613109974968223
 40
0.8237250587268701
 40
1.0
 40
1.0
 40
1.0
 40
1.0
 10
103.6469515968544
 20
135.0899408556334
 30
0.0
 10
103.7225411073501
 20
135.1023166280903
 30
0.0
 10
103.8742491029538
 20
135.1271547785318
 30
0.0
 10
104.0571479793497
 20
135.1544131234065
 30
0.0
 10
104.206210320134
 20
135.1755329829315
 30
0.0
 10
104.3101605193541
 20
135.1895193663001
 30
0.0
 10
104.3854903576607
 20
135.1993120658926
 30
0.0
 10
104.3772616921748
 20
135.1982408762941
 30
0.0
 10
104.3729789799681
 20
135.1976833622262
 30
0.0
  0
SPLINE
  5
FC
330
1F
100
AcDbEntity
  8
0
  6
HIDDEN
 62
     7
370
     0
100
AcDbSpline
210
0.0
220
0.0
230
1.0
 70
     8
 71
     3
 72
    13
 73
     9
 74
     0
 42
0.00000001
 43
0.00000001
 40
0.0
 40
0.0
 40
0.0
 40
0.0
 40
0.1539979175619511
 40
0.3222783140682305
 40
0.4885514651576366
 40
0.6560338488010076
 40
0.8273499398628251
 40
1.0
 40
1.0
 40
1.0
 40
1.0
 10
104.3729795102533
 20
72.24955383894755
 30
0.0
 10
104.3781638162522
 20
72.24888218636501
 30
0.0
 10
104.3890132447599
 20
72.24747658903377
 30
0.0
 10
104.3196740787125
 20
72.25646318739534
 30
0.0
 10
104.2195571131075
 20
72.26987723891438
 30
0.0
 10
104.073029210613
 20
72.29051780470732
 30
0.0
 10
103.8868153490279
 20
72.31808326091618
 30
0.0
 10
103.7271126338656
 20
72.3441916119407
 30
0.0
 10
103.6469515968544
 20
72.35729641413927
 30
0.0
  0
LINE
  5
FD
330
1F
100
AcDbEntity
  8
0
  6
HIDDEN
 62
     7
370
     0
100
AcDbLine
 10
83.3903702687
 20
77.2236186349
 30
0.0
 11
83.3903702687
 21
130.2236186349
 31
0.0
  0
LINE
  5
FE
330
1F
100
AcDbEntity
  8
0
  6
HIDDEN
 62
     7
370
     0
100
AcDbLine
 10
122.67782356
 20
77.2236186349
 30
0.0
 11
122.67782356
 21
130.2236186349
 31
0.0
  0
LINE
  5
FF
330
1F
100
AcDbEntity
  8
0
  6
HIDDEN
 62
     7
370
     0
100
AcDbLine
 10
125.8437459417
 20
78.8486186349
 30
0.0
 11
125.8437459417
 21
128.598618617
 31
0.0
  0
SPLINE
  5
100
330
1F
100
AcDbEntity
  8
0
  6
HIDDEN
 62
     7
370
     0
100
AcDbSpline
210
0.0
220
0.0
230
1.0
 70
     8
 71
     3
 72
    20
 73
    16
 74
     0
 42
0.00000001
 43
0.00000001
 40
0.0
 40
0.0
 40
0.0
 40
0.0
 40
0.2499999999999978
 40
0.2499999999999978
 40
0.3749999999999982
 40
0.3749999999999982
 40
0.4999999999999986
 40
0.4999999999999986
 40
0.6249999999999989
 40
0.6249999999999989
 40
0.7499999999999992
 40
0.7499999999999992
 40
0.8749999999999997
 40
0.8749999999999997
 40
1.0
 40
1.0
 40
1.0
 40
1.0
 10
73.59374594166341
 20
128.9521322653006
 30
0.0
 10
73.59374594166343
 20
128.8729292787684
 30
0.0
 10
73.54676344645068
 20
128.7918330603654
 30
0.0
 10
73.4089418556731
 20
128.6716363686145
 30
0.0
 10
73.35265957176313
 20
128.6327096646124
 30
0.0
 10
73.2195747202959
 20
128.5575209321881
 30
0.0
 10
73.14173477806285
 20
128.5208787268461
 30
0.0
 10
72.96910242194849
 20
128.4532881940142
 30
0.0
 10
72.87470942485741
 20
128.4223300122386
 30
0.0
 10
72.66927211854227
 20
128.3668055908689
 30
0.0
 10
72.55692587855509
 20
128.3420970770357
 30
0.0
 10
72.32468501465547
 20
128.3023008499275
 30
0.0
 10
72.20397437223275
 20
128.2868810125304
 30
0.0
 10
71.95290351296372
 20
128.2658010376908
 30
0.0
 10
71.82338151654794
 20
128.2603237926699
 30
0.0
 10
71.69374594166342
 20
128.2603237926699
 30
0.0
  0
LINE
  5
101
330
1F
100
AcDbEntity
  8
0
  6
HIDDEN
 62
     7
370
     0
100
AcDbLine
 10
71.6937459417
 20
128.2603237927
 30
0.0
 11
65.1437459417
 21
128.2603237927
 31
0.0
  0
LINE
  5
102
330
1F
100
AcDbEntity
  8
0
  6
HIDDEN
 62
     7
370
     0
100
AcDbLine
 10
65.1437459417
 20
79.1869134771
 30
0.0
 11
76.6937459417
 21
79.1869134771
 31
0.0
  0
SPLINE
  5
103
330
1F
100
AcDbEntity
  8
0
  6
HIDDEN
 62
     7
370
     0
100
AcDbSpline
210
0.0
220
0.0
230
1.0
 70
     8
 71
     3
 72
    18
 73
    14
 74
     0
 42
0.00000001
 43
0.00000001
 40
0.0
 40
0.0
 40
0.0
 40
0.0
 40
0.1249999999999982
 40
0.1249999999999982
 40
0.2499999999999964
 40
0.2499999999999964
 40
0.4999999999999988
 40
0.4999999999999988
 40
0.7500000000000011
 40
0.7500000000000011
 40
0.8750000000000006
 40
0.8750000000000006
 40
1.0
 40
1.0
 40
1.0
 40
1.0
 10
76.69374594166342
 20
79.18691347710282
 30
0.0
 10
76.82321325462063
 20
79.18691347710282
 30
0.0
 10
76.95022400351726
 20
79.18156047851019
 30
0.0
 10
77.19958732471451
 20
79.1608225058214
 30
0.0
 10
77.32321097934296
 20
79.14515060156711
 30
0.0
 10
77.672243316277
 20
79.08545587316503
 30
0.0
 10
77.88275508108379
 20
79.02769069348403
 30
0.0
 10
78.22667175878331
 20
78.89316885220654
 30
0.0
 10
78.36302216030111
 20
78.81549973870113
 30
0.0
 10
78.50006021686364
 20
78.69620860461379
 30
0.0
 10
78.53527923557655
 20
78.65528959547875
 30
0.0
 10
78.58190281251512
 20
78.57463360218873
 30
0.0
 10
78.59374594166343
 20
78.53466508199585
 30
0.0
 10
78.59374594166341
 20
78.49510500447204
 30
0.0
  0
LINE
  5
104
330
1F
100
AcDbEntity
  8
0
  6
HIDDEN
 62
     7
370
     0
100
AcDbLine
 10
65.1437459417
 20
79.1869134771
 30
0.0
 11
65.1437459417
 21
128.2603237927
 31
0.0
  0
LWPOLYLINE
  5
105
330
1F
100
AcDbEntity
  8
0
  6
HIDDEN
 62
     7
370
     0
100
AcDbPolyline
 90
       14
 70
   128
 43
0.0
 10
122.3937459417
 20
143.6673491982
 10
123.4685981427
 20
143.7148955816
 10
124.4931914495
 20
143.8553115159
 10
125.4196170176
 20
144.082031308
 10
126.2045562173
 20
144.3844537923
 10
126.8113061639
 20
144.7484380298
 10
127.2114959043
 20
145.1569645219
 10
127.3864130109
 20
145.5909310239
 10
127.3278785544
 20
146.0300457445
 10
127.0386295407
 20
146.4537761674
 10
126.5321909324
 20
146.8423091291
 10
125.8322432359
 20
147.1774772599
 10
124.9715152275
 20
147.4436084707
 10
124.8397644101
 20
147.4747490142
  0
LWPOLYLINE
  5
106
330
1F
100
AcDbEntity
  8
0
  6
HIDDEN
 62
     7
370
     0
100
AcDbPolyline
 90
       14
 70
   128
 43
0.0
 10
119.9352344354
 20
147.4718892642
 10
119.8159766558
 20
147.4436084707
 10
118.9552486474
 20
147.1774772599
 10
118.2553009509
 20
146.8423091291
 10
117.7488623426
 20
146.4537761674
 10
117.459613329
 20
146.0300457445
 10
117.4010788724
 20
145.5909310239
 10
117.5759959791
 20
145.1569645219
 10
117.9761857194
 20
144.7484380298
 10
118.582935666
 20
144.3844537923
 10
119.3678748657
 20
144.082031308
 10
120.2943004339
 20
143.8553115159
 10
121.3188937406
 20
143.7148955816
 10
122.3937459417
 20
143.6673491982
  0
LINE
  5
107
330
1F
100
AcDbEntity
  8
0
  6
HIDDEN
 62
     7
370
     0
100
AcDbLine
 10
65.1437459417
 20
76.3536186349
 30
0.0
 11
65.1437459417
 21
71.4753334331
 31
0.0
  0
LINE
  5
108
330
1F
100
AcDbEntity
  8
0
  6
HIDDEN
 62
     7
370
     0
100
AcDbLine
 10
78.5937459417
 20
76.3536186349
 30
0.0
 11
78.5937459417
 21
69.8542853695
 31
0.0
  0
LINE
  5
109
330
1F
100
AcDbEntity
  8
0
  6
HIDDEN
 62
     7
370
     0
100
AcDbLine
 10
73.5937459417
 20
131.0936186349
 30
0.0
 11
73.5937459417
 21
137.4682273719
 31
0.0
  0
LINE
  5
10A
330
1F
100
AcDbEntity
  8
0
  6
HIDDEN
 62
     7
370
     0
100
AcDbLine
 10
65.1437459417
 20
131.0936186349
 30
0.0
 11
65.1437459417
 21
135.9719038367
 31
0.0
  0
LINE
  5
10B
330
1F
100
AcDbEntity
  8
0
  6
HIDDEN
 62
     7
370
     0
100
AcDbLine
 10
137.6937459417
 20
90.7236186349
 30
0.0
 11
137.6937459417
 21
116.7236186349
 31
0.0
  0
LINE
  5
10C
330
1F
100
AcDbEntity
  8
0
  6
HIDDEN
 62
     7
370
     0
100
AcDbLine
 10
141.6937459417
 20
90.7236186349
 30
0.0
 11
141.6937459417
 21
116.7236186349
 31
0.0
  0
LINE
  5
10D
330
1F
100
AcDbEntity
  8
0
  6
HIDDEN
 62
     7
370
     0
100
AcDbLine
 10
126.5937459417
 20
92.4736186349
 30
0.0
 11
126.5937459417
 21
114.9736186349
 31
0.0
  0
ELLIPSE
  5
10E
330
1F
100
AcDbEntity
  8
0
  6
HIDDEN
 62
     7
370
     0
100
AcDbEllipse
 10
57.2090727414
 20
103.7236186349
 30
0.0
 11
31.08108570811661
 21
-1.421085471520200E-14
 31
0.0
210
0.0
220
0.0
230
1.0
 40
0.8164965809
 41
4.915995335118103
 42
4.970536038964788
  0
ELLIPSE
  5
10F
330
1F
100
AcDbEntity
  8
0
  6
HIDDEN
 62
     7
370
     0
100
AcDbEllipse
 10
57.2090727414
 20
103.7236186349
 30
0.0
 11
31.08108570811661
 21
1.421085471520200E-14
 31
0.0
210
0.0
220
0.0
230
1.0
 40
0.8164965809
 41
1.312649268214811
 42
1.367189972061495
  0
LINE
  5
110
330
1F
100
AcDbEntity
  8
0
  6
HIDDEN
 62
     7
370
     0
100
AcDbLine
 10
142.3437459417
 20
59.8236186349
 30
0.0
 11
128.3437459417
 21
59.8236186349
 31
0.0
  0
LINE
  5
111
330
1F
100
AcDbEntity
  8
0
  6
HIDDEN
 62
     7
370
     0
100
AcDbLine
 10
118.3437459417
 20
53.7336196351
 30
0.0
 11
118.3437459417
 21
59.8236186349
 31
0.0
  0
LINE
  5
112
330
1F
100
AcDbEntity
  8
0
  6
HIDDEN
 62
     7
370
     0
100
AcDbLine
 10
128.3437459417
 20
59.8236186349
 30
0.0
 11
118.3437459417
 21
59.8236186349
 31
0.0
  0
LINE
  5
113
330
1F
100
AcDbEntity
  8
0
  6
HIDDEN
 62
     7
370
     0
100
AcDbLine
 10
78.5937459417
 20
76.3536186349
 30
0.0
 11
78.5937459417
 21
78.4951050045
 31
0.0
  0
LINE
  5
114
330
1F
100
AcDbEntity
  8
0
  6
HIDDEN
 62
     7
370
     0
100
AcDbLine
 10
65.1437459417
 20
76.3536186349
 30
0.0
 11
65.1437459417
 21
79.1869134771
 31
0.0
  0
LINE
  5
115
330
1F
100
AcDbEntity
  8
0
  6
HIDDEN
 62
     7
370
     0
100
AcDbLine
 10
65.1437459417
 20
131.0936186349
 30
0.0
 11
65.1437459417
 21
128.2603237927
 31
0.0
  0
LINE
  5
116
330
1F
100
AcDbEntity
  8
0
  6
HIDDEN
 62
     7
370
     0
100
AcDbLine
 10
73.5937459417
 20
131.0936186349
 30
0.0
 11
73.5937459417
 21
128.9521322653
 31
0.0
  0
LINE
  5
117
330
1F
100
AcDbEntity
  8
0
  6
HIDDEN
 62
     7
370
     0
100
AcDbLine
 10
128.3437459417
 20
147.6236186349
 30
0.0
 11
118.3437459417
 21
147.6236186349
 31
0.0
  0
LINE
  5
118
330
1F
100
AcDbEntity
  8
0
  6
HIDDEN
 62
     7
370
     0
100
AcDbLine
 10
142.3437459417
 20
147.6236186349
 30
0.0
 11
128.3437459417
 21
147.6236186349
 31
0.0
  0
SPLINE
  5
119
330
1F
100
AcDbEntity
  8
0
  6
HIDDEN
 62
     7
370
     0
100
AcDbSpline
210
0.0
220
0.0
230
1.0
 70
     8
 71
     3
 72
    30
 73
    26
 74
     0
 42
0.00000001
 43
0.00000001
 40
0.0
 40
0.0
 40
0.0
 40
0.0
 40
0.0531447579710286
 40
0.1125253797131272
 40
0.1779224397116067
 40
0.2129463966942924
 40
0.2494993914504459
 40
0.291265086659374
 40
0.3261073096855474
 40
0.3540223481619386
 40
0.3750075548588426
 40
0.4414649788272059
 40
0.5001823658063147
 40
0.5546968713669163
 40
0.6144408573423134
 40
0.6794659595165392
 40
0.71402283460044
 40
0.7499196792688061
 40
0.7913840357566979
 40
0.826050848459345
 40
0.8539163335767396
 40
0.8749776390184348
 40
0.9411638663008652
 40
0.9999141571670602
 40
1.0
 40
1.0
 40
1.0
 40
1.0
 10
104.3932862310445
 20
66.62369174945445
 30
0.0
 10
104.377089287175
 20
66.62859235642142
 30
0.0
 10
104.3427948933593
 20
66.63896859447075
 30
0.0
 10
104.0414755306153
 20
66.71462288209003
 30
0.0
 10
103.5993066101208
 20
66.81090921256855
 30
0.0
 10
103.104473946041
 20
66.91057404050082
 30
0.0
 10
102.6339982564334
 20
67.00285218682761
 30
0.0
 10
102.103076837852
 20
67.09848421957882
 30
0.0
 10
101.5649263342984
 20
67.18413446266325
 30
0.0
 10
101.106879000309
 20
67.25142625567109
 30
0.0
 10
100.4513146790856
 20
67.33977442465277
 30
0.0
 10
99.56800824116152
 20
67.43643250889328
 30
0.0
 10
98.43934650842385
 20
67.52320768565936
 30
0.0
 10
97.34958475868432
 20
67.56128638337152
 30
0.0
 10
96.25355648025206
 20
67.56313681813528
 30
0.0
 10
95.34816523330878
 20
67.53697536255012
 30
0.0
 10
94.65186252289365
 20
67.50036813742122
 30
0.0
 10
94.1251827946186
 20
67.46135126194413
 30
0.0
 10
93.65853667958596
 20
67.41914213447222
 30
0.0
 10
93.28732140386215
 20
67.38213804490285
 30
0.0
 10
93.0332749266201
 20
67.3534372844585
 30
0.0
 10
92.73221977391063
 20
67.31705733386865
 30
0.0
 10
92.47673597910764
 20
67.28427716688188
 30
0.0
 10
92.37751525415983
 20
67.26793928217381
 30
0.0
 10
92.39379581144402
 20
67.27053286834649
 30
0.0
 10
92.39381956502999
 20
67.27053665242899
 30
0.0
  0
SPLINE
  5
11A
330
1F
100
AcDbEntity
  8
0
  6
HIDDEN
 62
     7
370
     0
100
AcDbSpline
210
0.0
220
0.0
230
1.0
 70
     8
 71
     3
 72
    30
 73
    26
 74
     0
 42
0.00000001
 43
0.00000001
 40
0.0
 40
0.0
 40
0.0
 40
0.0
 40
0.0001123288057695
 40
0.0285431152663135
 40
0.0588466796063202
 40
0.091027196450477
 40
0.1250880910051604
 40
0.1546766141497773
 40
0.1963554560485685
 40
0.2501101496291966
 40
0.320525387238388
 40
0.3856104300246703
 40
0.445403860889207
 40
0.4999571692316274
 40
0.5283494388508946
 40
0.558634027028705
 40
0.5908185964995195
 40
0.6249094714581434
 40
0.6541844575853767
 40
0.6958630078636641
 40
0.7499307292180327
 40
0.8215905285694356
 40
0.8871422909715975
 40
0.9466378748868088
 40
1.0
 40
1.0
 40
1.0
 40
1.0
 10
92.3938412737633
 20
140.1766303439147
 30
0.0
 10
92.39380941400516
 20
140.1766372910409
 30
0.0
 10
92.3857137457343
 20
140.1784025784331
 30
0.0
 10
92.4143752234037
 20
140.1729476597082
 30
0.0
 10
92.48776206955792
 20
140.162404812362
 30
0.0
 10
92.63141861310865
 20
140.1427196047086
 30
0.0
 10
92.83245431306615
 20
140.1178803408533
 30
0.0
 10
93.1150848623352
 20
140.0836718757145
 30
0.0
 10
93.52849398790985
 20
140.0399919789545
 30
0.0
 10
94.20478148909207
 20
139.9769489114212
 30
0.0
 10
95.14321239000802
 20
139.9156517409885
 30
0.0
 10
96.25270560350391
 20
139.8843632974881
 30
0.0
 10
97.35018633419266
 20
139.8860184650847
 30
0.0
 10
98.25021757264996
 20
139.917324667182
 30
0.0
 10
98.96155849850088
 20
139.9641578159845
 30
0.0
 10
99.52697539949165
 20
140.0113246778804
 30
0.0
 10
100.11589882232
 20
140.0707636844304
 30
0.0
 10
100.6803084747975
 20
140.1371208910384
 30
0.0
 10
101.2745046687337
 20
140.2190402974699
 30
0.0
 10
101.9411128297042
 20
140.3206882802203
 30
0.0
 10
102.7424455754044
 20
140.4628271908207
 30
0.0
 10
103.4949555599123
 20
140.614071761587
 30
0.0
 10
104.0402420548785
 20
140.7319226348464
 30
0.0
 10
104.3429635863773
 20
140.8081518665957
 30
0.0
 10
104.3772540369904
 20
140.8186041760902
 30
0.0
 10
104.3934674736404
 20
140.8235463058904
 30
0.0
  0
LINE
  5
11B
330
1F
100
AcDbEntity
  8
0
  6
HIDDEN
 62
     7
370
     0
100
AcDbLine
 10
239.8937459417
 20
100.7236186349
 30
0.0
 11
239.8937459417
 21
106.7236186349
 31
0.0
  0
LINE
  5
11C
330
1F
100
AcDbEntity
  8
0
  6
HIDDEN
 62
     7
370
     0
100
AcDbLine
 10
206.8937459417
 20
100.8236186349
 30
0.0
 11
206.8937459417
 21
106.6236186349
 31
0.0
  0
SPLINE
  5
11D
330
1F
100
AcDbEntity
  8
0
  6
HIDDEN
 62
     7
370
     0
100
AcDbSpline
210
0.0
220
0.0
230
1.0
 70
     8
 71
     3
 72
    17
 73
    13
 74
     0
 42
0.00000001
 43
0.00000001
 40
0.0
 40
0.0
 40
0.0
 40
0.0
 40
0.0981014785301767
 40
0.1992795846661702
 40
0.2973237678421141
 40
0.3978821541788453
 40
0.5025454062335847
 40
0.6099352168343501
 40
0.7198212581143579
 40
0.8332924598288107
 40
0.936418860451629
 40
1.0
 40
1.0
 40
1.0
 40
1.0
 10
208.8937459416634
 20
106.6630063262262
 30
0.0
 10
208.9718953987112
 20
106.664830790793
 30
0.0
 10
209.1306452114125
 20
106.6685369382085
 30
0.0
 10
209.3602157074352
 20
106.6972638043248
 30
0.0
 10
209.5779222029342
 20
106.7392533264594
 30
0.0
 10
209.7797007253264
 20
106.791766422527
 30
0.0
 10
209.9641858779944
 20
106.850428672479
 30
0.0
 10
210.125202248853
 20
106.9095865725746
 30
0.0
 10
210.2566750502705
 20
106.9630919083802
 30
0.0
 10
210.3449636391985
 20
107.0015480901838
 30
0.0
 10
210.3905573784317
 20
107.0221648017697
 30
0.0
 10
210.3890988993321
 20
107.0215078277745
 30
0.0
 10
210.3885426451695
 20
107.0212572622919
 30
0.0
  0
LINE
  5
11E
330
1F
100
AcDbEntity
  8
0
  6
HIDDEN
 62
     7
370
     0
100
AcDbLine
 10
208.9264821226
 20
106.6643032346
 30
0.0
 11
208.7354312612
 21
106.6684009772
 31
0.0
  0
SPLINE
  5
11F
330
1F
100
AcDbEntity
  8
0
  6
HIDDEN
 62
     7
370
     0
100
AcDbSpline
210
0.0
220
0.0
230
1.0
 70
     8
 71
     3
 72
    18
 73
    14
 74
     0
 42
0.00000001
 43
0.00000001
 40
0.0
 40
0.0
 40
0.0
 40
0.0
 40
0.0071774877478664
 40
0.1103364093789803
 40
0.2057501067682148
 40
0.3037095577993796
 40
0.4036092773619563
 40
0.5059873463295729
 40
0.6140127317153354
 40
0.725108431893935
 40
0.8334745715595314
 40
0.9456709734740214
 40
1.0
 40
1.0
 40
1.0
 40
1.0
 10
207.3950101328559
 20
107.0230463148109
 30
0.0
 10
207.3945941372833
 20
107.0232346291834
 30
0.0
 10
207.3881992175829
 20
107.0261295044413
 30
0.0
 10
207.412104418471
 20
107.0152467793514
 30
0.0
 10
207.4676485219558
 20
106.9904838907856
 30
0.0
 10
207.5593987746111
 20
106.9512001468091
 30
0.0
 10
207.6836207709562
 20
106.901489257856
 30
0.0
 10
207.8419819797422
 20
106.8440694379275
 30
0.0
 10
208.034275496169
 20
106.7838942521701
 30
0.0
 10
208.2561288311251
 20
106.7284089996775
 30
0.0
 10
208.501943095102
 20
106.6856293068209
 30
0.0
 10
208.7179756777822
 20
106.6653565727135
 30
0.0
 10
208.8505073874294
 20
106.6635844744178
 30
0.0
 10
208.8937459416634
 20
106.6630063262262
 30
0.0
  0
SPLINE
  5
120
330
1F
100
AcDbEntity
  8
0
  6
HIDDEN
 62
     7
370
     0
100
AcDbSpline
210
0.0
220
0.0
230
1.0
 70
     8
 71
     3
 72
    27
 73
    23
 74
     0
 42
0.00000001
 43
0.00000001
 40
0.0
 40
0.0
 40
0.0
 40
0.0
 40
0.0493586139300487
 40
0.100232301876867
 40
0.1495702843187632
 40
0.2002087704685743
 40
0.252167667484528
 40
0.3054638423439676
 40
0.3604228873598391
 40
0.4171466436260224
 40
0.4690138396459264
 40
0.5227149136556979
 40
0.5698398307008398
 40
0.6182817012845859
 40
0.6665902065725963
 40
0.7160567440479424
 40
0.7692498342890088
 40
0.8238840201435473
 40
0.878607879432121
 40
0.9351642300516566
 40
0.985915761687104
 40
1.0
 40
1.0
 40
1.0
 40
1.0
 10
210.3937459416634
 20
100.4236186348863
 30
0.0
 10
210.3901548326714
 20
100.4252588376601
 30
0.0
 10
210.3828623847701
 20
100.4285895896093
 30
0.0
 10
210.324521841277
 20
100.4547329968849
 30
0.0
 10
210.2332180283133
 20
100.4938987591836
 30
0.0
 10
210.1082704647339
 20
100.5440893111389
 30
0.0
 10
209.9499185340776
 20
100.6016691671377
 30
0.0
 10
209.7588476695024
 20
100.6616984033582
 30
0.0
 10
209.5361994904212
 20
100.7178269735397
 30
0.0
 10
209.2938493314107
 20
100.7605814798977
 30
0.0
 10
209.0395256762953
 20
100.7842199803398
 30
0.0
 10
208.7950029686538
 20
100.7858816469735
 30
0.0
 10
208.5596597472165
 20
100.7680579344793
 30
0.0
 10
208.3421238799264
 20
100.7353555425491
 30
0.0
 10
208.1358744353361
 20
100.6901179491073
 30
0.0
 10
207.9424008628507
 20
100.6358057173007
 30
0.0
 10
207.7656315782233
 20
100.5764609493451
 30
0.0
 10
207.6141494675721
 20
100.5185874731899
 30
0.0
 10
207.4949606808676
 20
100.4687622633916
 30
0.0
 10
207.4225658912753
 20
100.4367267207522
 30
0.0
 10
207.3910156119044
 20
100.4223810977659
 30
0.0
 10
207.3966325895364
 20
100.4249278875489
 30
0.0
 10
207.3978527624691
 20
100.4254811252797
 30
0.0
  0
LINE
  5
121
330
1F
100
AcDbEntity
  8
0
  6
HIDDEN
 62
     7
370
     0
100
AcDbLine
 10
221.3937459417
 20
100.7236186349
 30
0.0
 11
221.3937459417
 21
106.7236186349
 31
0.0
  0
LINE
  5
122
330
1F
100
AcDbEntity
  8
0
  6
HIDDEN
 62
     7
370
     0
100
AcDbLine
 10
157.8437459417
 20
89.3009689041
 30
0.0
 11
152.8437459417
 21
89.3009689041
 31
0.0
  0
LINE
  5
123
330
1F
100
AcDbEntity
  8
0
  6
HIDDEN
 62
     7
370
     0
100
AcDbLine
 10
155.3437459417
 20
118.1462683657
 30
0.0
 11
157.8437459417
 21
118.1462683657
 31
0.0
  0
LINE
  5
124
330
1F
100
AcDbEntity
  8
0
  6
HIDDEN
 62
     7
370
     0
100
AcDbLine
 10
152.8437459417
 20
118.1462683657
 30
0.0
 11
155.3437459417
 21
118.1462683657
 31
0.0
  0
LINE
  5
125
330
1F
100
AcDbEntity
  8
0
  6
HIDDEN
 62
     7
370
     0
100
AcDbLine
 10
155.3437459417
 20
109.7236186349
 30
0.0
 11
157.8437459417
 21
109.7236186349
 31
0.0
  0
LINE
  5
126
330
1F
100
AcDbEntity
  8
0
  6
HIDDEN
 62
     7
370
     0
100
AcDbLine
 10
152.8437459417
 20
109.7236186349
 30
0.0
 11
155.3437459417
 21
109.7236186349
 31
0.0
  0
LINE
  5
127
330
1F
100
AcDbEntity
  8
0
  6
HIDDEN
 62
     7
370
     0
100
AcDbLine
 10
190.4934016941
 20
101.2236186349
 30
0.0
 11
190.4934016941
 21
106.2236186349
 31
0.0
  0
LINE
  5
128
330
1F
100
AcDbEntity
  8
0
  6
HIDDEN
 62
     7
370
     0
100
AcDbLine
 10
190.7337459417
 20
101.6236186349
 30
0.0
 11
190.7337459417
 21
105.8236186349
 31
0.0
  0
LINE
  5
129
330
1F
100
AcDbEntity
  8
0
  6
HIDDEN
 62
     7
370
     0
100
AcDbLine
 10
157.8437459417
 20
97.7236186349
 30
0.0
 11
152.8437459417
 21
97.7236186349
 31
0.0
  0
SPLINE
  5
12A
330
1F
100
AcDbEntity
  8
0
  6
HIDDEN
 62
     7
370
     0
100
AcDbSpline
210
0.0
220
0.0
230
1.0
 70
    11
 71
     3
 72
    34
 73
    30
 74
     0
 42
0.00000001
 43
0.00000001
 40
0.0
 40
0.0
 40
0.0
 40
0.0
 40
0.0624999999999992
 40
0.0624999999999992
 40
0.1249999999999984
 40
0.1249999999999984
 40
0.1874999999999977
 40
0.1874999999999977
 40
0.2499999999999969
 40
0.2499999999999969
 40
0.3749999999999949
 40
0.3749999999999949
 40
0.4374999999999956
 40
0.4374999999999956
 40
0.4999999999999961
 40
0.4999999999999961
 40
0.5624999999999967
 40
0.5624999999999967
 40
0.6249999999999972
 40
0.6249999999999972
 40
0.7499999999999983
 40
0.7499999999999983
 40
0.8124999999999988
 40
0.8124999999999988
 40
0.8749999999999992
 40
0.8749999999999992
 40
0.9374999999999997
 40
0.9374999999999997
 40
1.0
 40
1.0
 40
1.0
 40
1.0
 10
207.868082080344
 20
95.22361863488635
 30
0.0
 10
207.9202561694946
 20
95.31437481569995
 30
0.0
 10
207.9691177464847
 20
95.41074183792026
 30
0.0
 10
208.0436716508394
 20
95.6231474476392
 30
0.0
 10
208.066694103647
 20
95.73755243030705
 30
0.0
 10
208.0621597465677
 20
95.966390001073
 30
0.0
 10
208.0344246959743
 20
96.07975925710439
 30
0.0
 10
207.9536025840291
 20
96.28492061453858
 30
0.0
 10
207.9009747750769
 20
96.37994342027034
 30
0.0
 10
207.739912201646
 20
96.63782418130735
 30
0.0
 10
207.6244505454567
 20
96.78234196870744
 30
0.0
 10
207.4950196949168
 20
96.94098732765788
 30
0.0
 10
207.4581746966963
 20
96.98464488669407
 30
0.0
 10
207.4079484172556
 20
97.04372678888434
 30
0.0
 10
207.3940482372119
 20
97.05978807300616
 30
0.0
 10
207.393453828561
 20
97.06047856041914
 30
0.0
 10
207.4067358803763
 20
97.04513632591639
 30
0.0
 10
207.4560498735647
 20
96.98716003489766
 30
0.0
 10
207.4923994095759
 20
96.94413491863912
 30
0.0
 10
207.6218991344138
 20
96.78559190951889
 30
0.0
 10
207.7381450563805
 20
96.6403702619751
 30
0.0
 10
207.900373349339
 20
96.38104610410613
 30
0.0
 10
207.9522303684832
 20
96.28794322744999
 30
0.0
 10
208.0344089733611
 20
96.08025209491508
 30
0.0
 10
208.0620853713145
 20
95.96688753819365
 30
0.0
 10
208.0667497352743
 20
95.73798759651629
 30
0.0
 10
208.0434862451495
 20
95.62285975973607
 30
0.0
 10
207.9698983321061
 20
95.41272714078269
 30
0.0
 10
207.9203294949953
 20
95.31450236449855
 30
0.0
 10
207.868082080344
 20
95.22361863488631
 30
0.0
  0
LINE
  5
12B
330
1F
100
AcDbEntity
  8
0
  6
HIDDEN
 62
     7
370
     0
100
AcDbLine
 10
207.8680820803
 20
95.2236186349
 30
0.0
 11
209.9700540679
 21
95.2236186349
 31
0.0
  0
SPLINE
  5
12C
330
1F
100
AcDbEntity
  8
0
  6
HIDDEN
 62
     7
370
     0
100
AcDbSpline
210
0.0
220
0.0
230
1.0
 70
     8
 71
     3
 72
    18
 73
    14
 74
     0
 42
0.00000001
 43
0.00000001
 40
0.0
 40
0.0
 40
0.0
 40
0.0
 40
0.1281768987757056
 40
0.2233423136737543
 40
0.3193238496732731
 40
0.4278698166000714
 40
0.5146772708417923
 40
0.603848538559569
 40
0.6939207522611108
 40
0.7869580337486938
 40
0.9101878902096529
 40
0.9712859042129345
 40
1.0
 40
1.0
 40
1.0
 40
1.0
 10
209.970054067915
 20
95.22361863488636
 30
0.0
 10
209.9117662256218
 20
95.31826540018767
 30
0.0
 10
209.8102023581765
 20
95.48318300816571
 30
0.0
 10
209.7168326359664
 20
95.77553245338135
 30
0.0
 10
209.7234163445113
 20
96.0703433078896
 30
0.0
 10
209.8182609243844
 20
96.3303865247625
 30
0.0
 10
209.9391499534414
 20
96.55214222029954
 30
0.0
 10
210.0597016984415
 20
96.73716993775597
 30
0.0
 10
210.1782347767458
 20
96.90188703695976
 30
0.0
 10
210.2951695638157
 20
97.05480733359595
 30
0.0
 10
210.3667085591526
 20
97.14444433930348
 30
0.0
 10
210.3935006032067
 20
97.17770691288253
 30
0.0
 10
210.3916123589092
 20
97.17536280677552
 30
0.0
 10
210.3910086627288
 20
97.1746133656651
 30
0.0
  0
LINE
  5
12D
330
1F
100
AcDbEntity
  8
0
  6
HIDDEN
 62
     7
370
     0
100
AcDbLine
 10
210.3530835546
 20
112.7236186349
 30
0.0
 11
207.5243427006
 21
112.7236186349
 31
0.0
  0
SPLINE
  5
12E
330
1F
100
AcDbEntity
  8
0
  6
HIDDEN
 62
     7
370
     0
100
AcDbSpline
210
0.0
220
0.0
230
1.0
 70
    11
 71
     3
 72
    44
 73
    40
 74
     0
 42
0.00000001
 43
0.00000001
 40
0.0
 40
0.0
 40
0.0
 40
0.0
 40
0.0624999999999985
 40
0.0624999999999985
 40
0.124999999999997
 40
0.124999999999997
 40
0.1874999999999955
 40
0.1874999999999955
 40
0.2187499999999951
 40
0.2187499999999951
 40
0.2499999999999947
 40
0.2499999999999947
 40
0.3124999999999957
 40
0.3124999999999957
 40
0.3749999999999968
 40
0.3749999999999968
 40
0.4374999999999979
 40
0.4374999999999979
 40
0.499999999999999
 40
0.499999999999999
 40
0.5625000000000001
 40
0.5625000000000001
 40
0.6250000000000011
 40
0.6250000000000011
 40
0.6875000000000022
 40
0.6875000000000022
 40
0.7500000000000032
 40
0.7500000000000032
 40
0.7812500000000029
 40
0.7812500000000029
 40
0.8125000000000024
 40
0.8125000000000024
 40
0.843750000000002
 40
0.843750000000002
 40
0.8750000000000017
 40
0.8750000000000017
 40
0.9375000000000008
 40
0.9375000000000008
 40
1.0
 40
1.0
 40
1.0
 40
1.0
 10
207.524342700627
 20
112.7236186348863
 30
0.0
 10
207.5771401641161
 20
112.6551524756052
 30
0.0
 10
207.6421371816268
 20
112.5689329935259
 30
0.0
 10
207.7773150338626
 20
112.3741137100143
 30
0.0
 10
207.8488988604356
 20
112.2642549857952
 30
0.0
 10
207.9755254758952
 20
112.0224793082112
 30
0.0
 10
208.0320733164029
 20
111.8874964518895
 30
0.0
 10
208.0656046238881
 20
111.6698782451893
 30
0.0
 10
208.0675993386137
 20
111.5946282372787
 30
0.0
 10
208.0518486749757
 20
111.4491075973264
 30
0.0
 10
208.0340662999712
 20
111.3767803906609
 30
0.0
 10
207.9633984713989
 20
111.1742915079165
 30
0.0
 10
207.8938917945376
 20
111.0527251305841
 30
0.0
 10
207.7546912274179
 20
110.8376250684345
 30
0.0
 10
207.6820527993645
 20
110.7407945682475
 30
0.0
 10
207.5544251176065
 20
110.5777224232815
 30
0.0
 10
207.4976111394202
 20
110.5095052731112
 30
0.0
 10
207.4173137964178
 20
110.4142454197162
 30
0.0
 10
207.3942656284645
 20
110.3877017273354
 30
0.0
 10
207.3932444712609
 20
110.3865155113313
 30
0.0
 10
207.4151931597982
 20
110.4117764211902
 30
0.0
 10
207.4943477527096
 20
110.5055900783079
 30
0.0
 10
207.5507124674284
 20
110.5731310198899
 30
0.0
 10
207.6796183899916
 20
110.7375388736301
 30
0.0
 10
207.7515011984045
 20
110.8330928244469
 30
0.0
 10
207.892064988122
 20
111.0495190620961
 30
0.0
 10
207.9599814649105
 20
111.16696661509
 30
0.0
 10
208.0326214147554
 20
111.3714865810664
 30
0.0
 10
208.0506647962344
 20
111.4427963784071
 30
0.0
 10
208.0675613959723
 20
111.5899831459462
 30
0.0
 10
208.0659455108238
 20
111.6652463264016
 30
0.0
 10
208.0442297388582
 20
111.8108804083267
 30
0.0
 10
208.0242279481585
 20
111.8824014253434
 30
0.0
 10
207.9747736624597
 20
112.0164888601728
 30
0.0
 10
207.9450443852047
 20
112.0805439340859
 30
0.0
 10
207.8491634220621
 20
112.2640138548775
 30
0.0
 10
207.7786835783606
 20
112.3720723397822
 30
0.0
 10
207.6425327617403
 20
112.5684310069782
 30
0.0
 10
207.577739100387
 20
112.6543757931018
 30
0.0
 10
207.524342700627
 20
112.7236186348863
 30
0.0
  0
SPLINE
  5
12F
330
1F
100
AcDbEntity
  8
0
  6
HIDDEN
 62
     7
370
     0
100
AcDbSpline
210
0.0
220
0.0
230
1.0
 70
     8
 71
     3
 72
    30
 73
    26
 74
     0
 42
0.00000001
 43
0.00000001
 40
0.0
 40
0.0
 40
0.0
 40
0.0
 40
0.0625000000000014
 40
0.0625000000000014
 40
0.1250000000000028
 40
0.1250000000000028
 40
0.2500000000000024
 40
0.2500000000000024
 40
0.3750000000000021
 40
0.3750000000000021
 40
0.5000000000000018
 40
0.5000000000000018
 40
0.5625000000000021
 40
0.5625000000000021
 40
0.6250000000000026
 40
0.6250000000000026
 40
0.6875000000000029
 40
0.6875000000000029
 40
0.7500000000000032
 40
0.7500000000000032
 40
0.8750000000000039
 40
0.8750000000000039
 40
0.937500000000002
 40
0.937500000000002
 40
1.0
 40
1.0
 40
1.0
 40
1.0
 10
210.3937459416634
 20
110.2692277178857
 30
0.0
 10
210.3937459416634
 20
110.2692277178857
 30
0.0
 10
210.3872426482799
 20
110.2772725372025
 30
0.0
 10
210.3624891233623
 20
110.3081414831567
 30
0.0
 10
210.3439277909067
 20
110.3313598474328
 30
0.0
 10
210.2752338996276
 20
110.4185195188156
 30
0.0
 10
210.2108603461694
 20
110.5013090743243
 30
0.0
 10
210.0705023838671
 20
110.6948936536299
 30
0.0
 10
209.9922996234554
 20
110.8080632931941
 30
0.0
 10
209.8484555913641
 20
111.057844696704
 30
0.0
 10
209.7795393681254
 20
111.1982564556564
 30
0.0
 10
209.7274956872581
 20
111.4311685012208
 30
0.0
 10
209.7198180422574
 20
111.5116468014086
 30
0.0
 10
209.7283918672975
 20
111.6707822665896
 30
0.0
 10
209.7447893795178
 20
111.7505060946634
 30
0.0
 10
209.7930889589992
 20
111.8996335519131
 30
0.0
 10
209.8249319682032
 20
111.9705811896506
 30
0.0
 10
209.8938043895148
 20
112.1023589467721
 30
0.0
 10
209.9312091967674
 20
112.1641313265116
 30
0.0
 10
210.0461910412196
 20
112.3402161764098
 30
0.0
 10
210.123768635008
 20
112.4418123914908
 30
0.0
 10
210.2261516205328
 20
112.5709453914795
 30
0.0
 10
210.2572422924903
 20
112.6089944903687
 30
0.0
 10
210.3116850740291
 20
112.6747212973761
 30
0.0
 10
210.3352641877499
 20
112.7026479402794
 30
0.0
 10
210.3530835546396
 20
112.7236186348863
 30
0.0
  0
SPLINE
  5
130
330
1F
100
AcDbEntity
  8
0
  6
HIDDEN
 62
     7
370
     0
100
AcDbSpline
210
0.0
220
0.0
230
1.0
 70
    11
 71
     3
 72
    32
 73
    28
 74
     0
 42
0.00000001
 43
0.00000001
 40
0.0
 40
0.0
 40
0.0
 40
0.0
 40
0.1250000000000019
 40
0.1250000000000019
 40
0.1875000000000029
 40
0.1875000000000029
 40
0.2500000000000038
 40
0.2500000000000038
 40
0.3125000000000048
 40
0.3125000000000048
 40
0.3750000000000058
 40
0.3750000000000058
 40
0.4375000000000067
 40
0.4375000000000067
 40
0.5000000000000077
 40
0.5000000000000077
 40
0.6250000000000095
 40
0.6250000000000095
 40
0.6875000000000097
 40
0.6875000000000097
 40
0.7500000000000097
 40
0.7500000000000097
 40
0.8125000000000098
 40
0.8125000000000098
 40
0.8750000000000099
 40
0.8750000000000099
 40
1.0
 40
1.0
 40
1.0
 40
1.0
 10
207.868082080344
 20
95.22361863488635
 30
0.0
 10
207.9788995516647
 20
95.16219316583377
 30
0.0
 10
208.0870684879825
 20
95.10069401495038
 30
0.0
 10
208.2386200969381
 20
95.0059756274906
 30
0.0
 10
208.2867700764774
 20
94.97430653321784
 30
0.0
 10
208.3747276563876
 20
94.90960977646716
 30
0.0
 10
208.4153653738463
 20
94.87593854134295
 30
0.0
 10
208.4758051163086
 20
94.80765124052338
 30
0.0
 10
208.4938160702596
 20
94.77314237873077
 30
0.0
 10
208.5016183648001
 20
94.71237334001275
 30
0.0
 10
208.4930061901877
 20
94.686049076329
 30
0.0
 10
208.4713389211876
 20
94.64397382352804
 30
0.0
 10
208.4584442802654
 20
94.62784180142836
 30
0.0
 10
208.4395977732201
 20
94.6055390040704
 30
0.0
 10
208.4336511509365
 20
94.59952548000946
 30
0.0
 10
208.4323812455187
 20
94.59818415526189
 30
0.0
 10
208.4570580008207
 20
94.61949468456747
 30
0.0
 10
208.4905499842085
 20
94.67995033733722
 30
0.0
 10
208.5003499441793
 20
94.70480990418802
 30
0.0
 10
208.4965482198184
 20
94.76539299843469
 30
0.0
 10
208.4812503589482
 20
94.7993622076036
 30
0.0
 10
208.4231303737361
 20
94.8688797355282
 30
0.0
 10
208.3828868656653
 20
94.90310746514692
 30
0.0
 10
208.2933599173229
 20
94.9698849386119
 30
0.0
 10
208.2444918904812
 20
95.00217590340236
 30
0.0
 10
208.0914419163121
 20
95.0982010823681
 30
0.0
 10
207.9808760010634
 20
95.16109763161946
 30
0.0
 10
207.868082080344
 20
95.22361863488636
 30
0.0
  0
SPLINE
  5
131
330
1F
100
AcDbEntity
  8
0
  6
HIDDEN
 62
     7
370
     0
100
AcDbSpline
210
0.0
220
0.0
230
1.0
 70
     8
 71
     3
 72
    15
 73
    11
 74
     0
 42
0.00000001
 43
0.00000001
 40
0.0
 40
0.0
 40
0.0
 40
0.0
 40
0.1041400310636931
 40
0.221400368010487
 40
0.3410235745949264
 40
0.4616803823316794
 40
0.5823142755568734
 40
0.6934480445687747
 40
0.8070330378917945
 40
1.0
 40
1.0
 40
1.0
 40
1.0
 10
209.4093747085778
 20
94.65039102318809
 30
0.0
 10
209.4117382675524
 20
94.64699816516536
 30
0.0
 10
209.4167631635645
 20
94.6397849926018
 30
0.0
 10
209.3900349571172
 20
94.67817662063385
 30
0.0
 10
209.3704209452117
 20
94.73442530719205
 30
0.0
 10
209.3967071408761
 20
94.82116238540206
 30
0.0
 10
209.4895386970425
 20
94.9137154498175
 30
0.0
 10
209.6074911166562
 20
95.0007811857732
 30
0.0
 10
209.7655355598414
 20
95.10359807699528
 30
0.0
 10
209.8910474200942
 20
95.17725401958639
 30
0.0
 10
209.970054067915
 20
95.22361863488636
 30
0.0
  0
LINE
  5
132
330
1F
100
AcDbEntity
  8
0
  6
HIDDEN
 62
     7
370
     0
100
AcDbLine
 10
207.3724258673
 20
97.0593015629
 30
0.0
 11
207.4705754067
 21
94.5612289723
 31
0.0
  0
SPLINE
  5
133
330
1F
100
AcDbEntity
  8
0
  6
HIDDEN
 62
     7
370
     0
100
AcDbSpline
210
0.0
220
0.0
230
1.0
 70
     8
 71
     3
 72
     9
 73
     5
 74
     0
 42
0.00000001
 43
0.00000001
 40
0.0
 40
0.0
 40
0.0
 40
0.0
 40
0.9121802914535581
 40
1.0
 40
1.0
 40
1.0
 40
1.0
 10
210.3530835546397
 20
112.7236186348863
 30
0.0
 10
210.3772171454479
 20
112.7518272875376
 30
0.0
 10
210.4036741858318
 20
112.7827517143373
 30
0.0
 10
210.3915998727888
 20
112.7686528800195
 30
0.0
 10
210.3905395101365
 20
112.7674147244989
 30
0.0
  0
SPLINE
  5
134
330
1F
100
AcDbEntity
  8
0
  6
HIDDEN
 62
     7
370
     0
100
AcDbSpline
210
0.0
220
0.0
230
1.0
 70
     8
 71
     3
 72
     9
 73
     5
 74
     0
 42
0.00000001
 43
0.00000001
 40
0.0
 40
0.0
 40
0.0
 40
0.0
 40
0.8685159940945277
 40
1.0
 40
1.0
 40
1.0
 40
1.0
 10
207.3993831069088
 20
112.7708102349189
 30
0.0
 10
207.4063185412305
 20
112.7715575229508
 30
0.0
 10
207.4143039259199
 20
112.7724179423754
 30
0.0
 10
207.4609475968115
 20
112.7941936586506
 30
0.0
 10
207.4670804935104
 20
112.7970568170579
 30
0.0
  0
LINE
  5
135
330
1F
100
AcDbEntity
  8
0
  6
HIDDEN
 62
     7
370
     0
100
AcDbLine
 10
207.4670804935
 20
112.7970568171
 30
0.0
 11
207.3724258673
 21
110.3879357069
 31
0.0
  0
SPLINE
  5
136
330
1F
100
AcDbEntity
  8
0
  6
HIDDEN
 62
     7
370
     0
100
AcDbSpline
210
0.0
220
0.0
230
1.0
 70
     8
 71
     3
 72
     8
 73
     4
 74
     0
 42
0.00000001
 43
0.00000001
 40
0.0
 40
0.0
 40
0.0
 40
0.0
 40
1.0
 40
1.0
 40
1.0
 40
1.0
 10
207.4670804935104
 20
112.7970568170579
 30
0.0
 10
207.4841048498457
 20
112.7754514754838
 30
0.0
 10
207.5033435443555
 20
112.7508497078024
 30
0.0
 10
207.524342700627
 20
112.7236186348863
 30
0.0
  0
LINE
  5
137
330
1F
100
AcDbEntity
  8
0
  6
HIDDEN
 62
     7
370
     0
100
AcDbLine
 10
207.5243427006
 20
112.7236186349
 30
0.0
 11
207.3937459417
 21
112.7236186349
 31
0.0
  0
LINE
  5
138
330
1F
100
AcDbEntity
  8
0
  6
HIDDEN
 62
     7
370
     0
100
AcDbLine
 10
210.3937459417
 20
112.7236186349
 30
0.0
 11
210.3530835546
 21
112.7236186349
 31
0.0
  0
LWPOLYLINE
  5
139
330
1F
100
AcDbEntity
  8
0
  6
HIDDEN
 62
     7
370
     0
100
AcDbPolyline
 90
       30
 70
   128
 43
0.0
 10
122.3937459417
 20
149.0363244867
 10
123.4685981427
 20
149.0002012586
 10
124.4931914495
 20
148.8935206566
 10
125.4196170176
 20
148.7212709468
 10
126.2045562173
 20
148.4915063344
 10
126.8113061639
 20
148.2149703572
 10
127.2114959043
 20
147.9045935302
 10
127.3864130109
 20
147.5748887288
 10
127.3278785544
 20
147.2412725832
 10
127.0386295407
 20
146.9193446135
 10
126.5321909324
 20
146.6241578137
 10
125.8322432359
 20
146.3695147906
 10
124.9715152275
 20
146.1673223688
 10
123.9902535923
 20
146.0270348414
 10
122.9343410338
 20
145.9552118972
 10
121.8531508495
 20
145.9552118972
 10
120.797238291
 20
146.0270348414
 10
119.8159766558
 20
146.1673223688
 10
118.9552486474
 20
146.3695147906
 10
118.2553009509
 20
146.6241578137
 10
117.7488623426
 20
146.9193446135
 10
117.459613329
 20
147.2412725832
 10
117.4010788724
 20
147.5748887288
 10
117.5759959791
 20
147.9045935302
 10
117.9761857194
 20
148.2149703572
 10
118.582935666
 20
148.4915063344
 10
119.3678748657
 20
148.7212709468
 10
120.2943004339
 20
148.8935206566
 10
121.3188937406
 20
149.0002012586
 10
122.3937459417
 20
149.0363244867
  0
LINE
  5
13A
330
1F
100
AcDbEntity
  8
0
  6
HIDDEN
 62
     7
370
     0
100
AcDbLine
 10
136.6557749626
 20
142.6745813958
 30
0.0
 11
136.6557749626
 21
135.0736186349
 31
0.0
  0
LINE
  5
13B
330
1F
100
AcDbEntity
  8
0
  6
HIDDEN
 62
     7
370
     0
100
AcDbLine
 10
135.3037459417
 20
138.4378538274
 30
0.0
 11
135.3037459417
 21
135.0736186349
 31
0.0
  0
LINE
  5
13C
330
1F
100
AcDbEntity
  8
0
  6
HIDDEN
 62
     7
370
     0
100
AcDbLine
 10
131.4837459417
 20
138.4378538274
 30
0.0
 11
131.4837459417
 21
135.0736186349
 31
0.0
  0
CIRCLE
  5
13D
330
1F
100
AcDbEntity
  8
0
  6
HIDDEN
 62
     7
370
     0
100
AcDbCircle
 10
120.3937459417
 20
103.7236186349
 30
0.0
 40
5.0
  0
LINE
  5
13E
330
1F
100
AcDbEntity
  8
0
  6
HIDDEN
 62
     7
370
     0
100
AcDbLine
 10
195.2937459417
 20
101.2236186349
 30
0.0
 11
206.4937459417
 21
101.2236186349
 31
0.0
  0
LINE
  5
13F
330
1F
100
AcDbEntity
  8
0
  6
HIDDEN
 62
     7
370
     0
100
AcDbLine
 10
206.4937459417
 20
106.2236186349
 30
0.0
 11
195.2937459417
 21
106.2236186349
 31
0.0
  0
LINE
  5
140
330
1F
100
AcDbEntity
  8
0
  6
HIDDEN
 62
     7
370
     0
100
AcDbLine
 10
206.4937459417
 20
101.2236186349
 30
0.0
 11
206.8937459417
 21
101.6236186349
 31
0.0
  0
LINE
  5
141
330
1F
100
AcDbEntity
  8
0
  6
HIDDEN
 62
     7
370
     0
100
AcDbLine
 10
206.8937459417
 20
105.8236186349
 30
0.0
 11
206.4937459417
 21
106.2236186349
 31
0.0
  0
LINE
  5
142
330
1F
100
AcDbEntity
  8
0
  6
HIDDEN
 62
     7
370
     0
100
AcDbLine
 10
195.2937459417
 20
106.2236186349
 30
0.0
 11
194.8937459417
 21
105.8236186349
 31
0.0
  0
LINE
  5
143
330
1F
100
AcDbEntity
  8
0
  6
HIDDEN
 62
     7
370
     0
100
AcDbLine
 10
194.8937459417
 20
101.6236186349
 30
0.0
 11
195.2937459417
 21
101.2236186349
 31
0.0
  0
LINE
  5
144
330
1F
100
AcDbEntity
  8
0
  6
HIDDEN
 62
     7
370
     0
100
AcDbLine
 10
206.8937459417
 20
101.6236186349
 30
0.0
 11
208.8937459417
 21
101.6236186349
 31
0.0
  0
LINE
  5
145
330
1F
100
AcDbEntity
  8
0
  6
HIDDEN
 62
     7
370
     0
100
AcDbLine
 10
208.8937459417
 20
105.8236186349
 30
0.0
 11
206.8937459417
 21
105.8236186349
 31
0.0
  0
LINE
  5
146
330
1F
100
AcDbEntity
  8
0
  6
HIDDEN
 62
     7
370
     0
100
AcDbLine
 10
198.8937459416
 20
102.4736186349
 30
0.0
 11
204.8937459417
 21
102.4736186349
 31
0.0
  0
LINE
  5
147
330
1F
100
AcDbEntity
  8
0
  6
HIDDEN
 62
     7
370
     0
100
AcDbLine
 10
204.8937459417
 20
104.9736186349
 30
0.0
 11
198.8937459416
 21
104.9736186349
 31
0.0
  0
LINE
  5
148
330
1F
100
AcDbEntity
  8
0
  6
HIDDEN
 62
     7
370
     0
100
AcDbLine
 10
237.9274311042
 20
111.9395480677
 30
0.0
 11
237.4081866782
 21
111.4595634575
 31
0.0
  0
LINE
  5
149
330
1F
100
AcDbEntity
  8
0
  6
HIDDEN
 62
     7
370
     0
100
AcDbLine
 10
237.3296670466
 20
109.461105385
 30
0.0
 11
237.8096516569
 21
108.941860959
 31
0.0
  0
LINE
  5
14A
330
1F
100
AcDbEntity
  8
0
  6
HIDDEN
 62
     7
370
     0
100
AcDbLine
 10
243.2613689081
 20
111.7299770806
 30
0.0
 11
237.9274311042
 21
111.9395480677
 31
0.0
  0
LINE
  5
14B
330
1F
100
AcDbEntity
  8
0
  6
HIDDEN
 62
     7
370
     0
100
AcDbLine
 10
237.8096516569
 20
108.941860959
 30
0.0
 11
243.1435894608
 21
108.7322899719
 31
0.0
  0
LINE
  5
14C
330
1F
100
AcDbEntity
  8
0
  6
HIDDEN
 62
     7
370
     0
100
AcDbLine
 10
243.1435894608
 20
108.7322899719
 30
0.0
 11
243.3164237345
 21
109.006215717
 31
0.0
  0
LINE
  5
14D
330
1F
100
AcDbEntity
  8
0
  6
HIDDEN
 62
     7
370
     0
100
AcDbLine
 10
243.3937459417
 20
111.4783697249
 30
0.0
 11
243.2613689081
 21
111.7299770806
 31
0.0
  0
LINE
  5
14E
330
1F
100
AcDbEntity
  8
0
  6
HIDDEN
 62
     7
370
     0
100
AcDbLine
 10
243.3202586317
 20
95.7195739727
 30
0.0
 11
243.3937459417
 21
95.8592503745
 31
0.0
  0
LINE
  5
14F
330
1F
100
AcDbEntity
  8
0
  6
HIDDEN
 62
     7
370
     0
100
AcDbLine
 10
243.3753134582
 20
98.4433353364
 30
0.0
 11
243.2024791844
 21
98.7172610814
 31
0.0
  0
LINE
  5
150
330
1F
100
AcDbEntity
  8
0
  6
HIDDEN
 62
     7
370
     0
100
AcDbLine
 10
243.2024791844
 20
98.7172610814
 30
0.0
 11
237.8685413805
 21
98.5076900943
 31
0.0
  0
LINE
  5
151
330
1F
100
AcDbEntity
  8
0
  6
HIDDEN
 62
     7
370
     0
100
AcDbLine
 10
237.9863208278
 20
95.5100029856
 30
0.0
 11
243.3202586317
 21
95.7195739727
 31
0.0
  0
LINE
  5
152
330
1F
100
AcDbEntity
  8
0
  6
HIDDEN
 62
     7
370
     0
100
AcDbLine
 10
237.8685413805
 20
98.5076900943
 30
0.0
 11
237.3885567703
 21
97.9884456683
 31
0.0
  0
LINE
  5
153
330
1F
100
AcDbEntity
  8
0
  6
HIDDEN
 62
     7
370
     0
100
AcDbLine
 10
237.4670764018
 20
95.9899875959
 30
0.0
 11
237.9863208278
 21
95.5100029856
 31
0.0
  0
LINE
  5
154
330
1F
100
AcDbEntity
  8
0
  6
HIDDEN
 62
     7
370
     0
100
AcDbLine
 10
113.3937459417
 20
64.3189356783
 30
0.0
 11
113.4833475656
 21
64.9564843602
 31
0.0
  0
LINE
  5
155
330
1F
100
AcDbEntity
  8
0
  6
HIDDEN
 62
     7
370
     0
100
AcDbLine
 10
113.4833475656
 20
142.4907529095
 30
0.0
 11
113.3937459417
 21
143.1283015915
 31
0.0
  0
ARC
  5
156
330
1F
100
AcDbEntity
  8
0
  6
HIDDEN
 62
     7
370
     0
100
AcDbCircle
 10
112.4968090232
 20
65.0951333104
 30
0.0
 40
0.996233821438679
100
AcDbArc
 50
352.0
 51
0.0
  0
ARC
  5
157
330
1F
100
AcDbEntity
  8
0
  6
HIDDEN
 62
     7
370
     0
100
AcDbCircle
 10
112.4968090232
 20
65.0951333104
 30
0.0
 40
0.996233821438679
100
AcDbArc
 50
0.0
 51
25.7988228126
  0
ARC
  5
158
330
1F
100
AcDbEntity
  8
0
  6
HIDDEN
 62
     7
370
     0
100
AcDbCircle
 10
112.4968090232
 20
142.3521039593
 30
0.0
 40
0.9962338214386743
100
AcDbArc
 50
348.75
 51
8.0
  0
LWPOLYLINE
  5
159
330
1F
100
AcDbEntity
  8
0
  6
HIDDEN
 62
     7
370
     0
100
AcDbPolyline
 90
        3
 70
   128
 43
0.0
 10
113.4739004911
 20
142.1577483823
 10
113.4172090604
 20
141.9708617811
 10
113.3937459417
 20
141.9185304462
  0
LINE
  5
15A
330
1F
100
AcDbEntity
  8
0
  6
HIDDEN
 62
     7
370
     0
100
AcDbLine
 10
113.4930428447
 20
65.0951333104
 30
0.0
 11
113.4930428447
 21
142.3521039593
 31
0.0
  0
ARC
  5
15B
330
1F
100
AcDbEntity
  8
0
  6
HIDDEN
 62
     7
370
     0
100
AcDbCircle
 10
86.8544718838
 20
73.2236186349
 30
0.0
 40
1.000000000000008
100
AcDbArc
 50
210.0
 51
270.0
  0
ARC
  5
15C
330
1F
100
AcDbEntity
  8
0
  6
HIDDEN
 62
     7
370
     0
100
AcDbCircle
 10
86.8544718838
 20
134.2236186349
 30
0.0
 40
1.0
100
AcDbArc
 50
90.0
 51
150.0
  0
LINE
  5
15D
330
1F
100
AcDbEntity
  8
0
  6
HIDDEN
 62
     7
370
     0
100
AcDbLine
 10
86.8544718838
 20
72.2236186349
 30
0.0
 11
92.3989163156
 21
72.2236186349
 31
0.0
  0
LINE
  5
15E
330
1F
100
AcDbEntity
  8
0
  6
HIDDEN
 62
     7
370
     0
100
AcDbLine
 10
92.3989163156
 20
135.2236186349
 30
0.0
 11
86.8544718838
 21
135.2236186349
 31
0.0
  0
ARC
  5
15F
330
1F
100
AcDbEntity
  8
0
  6
HIDDEN
 62
     7
370
     0
100
AcDbCircle
 10
103.6469515969
 20
84.2236186349
 30
0.0
 40
11.99999999999999
100
AcDbArc
 50
273.4750678888
 51
324.3146652873
  0
ARC
  5
160
330
1F
100
AcDbEntity
  8
0
  6
HIDDEN
 62
     7
370
     0
100
AcDbCircle
 10
103.6469515969
 20
123.2236186349
 30
0.0
 40
12.0
100
AcDbArc
 50
35.6853347127
 51
86.5284337865
  0
LINE
  5
161
330
1F
100
AcDbEntity
  8
0
  6
HIDDEN
 62
     7
370
     0
100
AcDbLine
 10
85.98844648
 20
134.7236186349
 30
0.0
 11
83.3903702687
 21
130.2236186349
 31
0.0
  0
LINE
  5
162
330
1F
100
AcDbEntity
  8
0
  6
HIDDEN
 62
     7
370
     0
100
AcDbLine
 10
83.3903702687
 20
77.2236186349
 30
0.0
 11
85.98844648
 21
72.7236186349
 31
0.0
  0
ARC
  5
163
330
1F
100
AcDbEntity
  8
0
  6
HIDDEN
 62
     7
370
     0
100
AcDbCircle
 10
123.8437459417
 20
78.8486186349
 30
0.0
 40
2.000000000000007
100
AcDbArc
 50
234.3409123039
 51
0.0
  0
ARC
  5
164
330
1F
100
AcDbEntity
  8
0
  6
HIDDEN
 62
     7
370
     0
100
AcDbCircle
 10
123.8437459417
 20
128.5986186349
 30
0.0
 40
2.0
100
AcDbArc
 50
0.0
 51
125.6590876961
  0
LINE
  5
165
330
1F
100
AcDbEntity
  8
0
  6
HIDDEN
 62
     7
370
     0
100
AcDbLine
 10
78.5937459417
 20
77.2236186349
 30
0.0
 11
83.3903702687
 21
77.2236186349
 31
0.0
  0
LINE
  5
166
330
1F
100
AcDbEntity
  8
0
  6
HIDDEN
 62
     7
370
     0
100
AcDbLine
 10
83.3903702687
 20
130.2236186349
 30
0.0
 11
73.5937459417
 21
130.2236186349
 31
0.0
  0
LINE
  5
167
330
1F
100
AcDbEntity
  8
0
  6
HIDDEN
 62
     7
370
     0
100
AcDbLine
 10
113.3937459417
 20
77.2236186349
 30
0.0
 11
122.67782356
 21
77.2236186349
 31
0.0
  0
LINE
  5
168
330
1F
100
AcDbEntity
  8
0
  6
HIDDEN
 62
     7
370
     0
100
AcDbLine
 10
122.67782356
 20
130.2236186349
 30
0.0
 11
113.3937459417
 21
130.2236186349
 31
0.0
  0
LINE
  5
169
330
1F
100
AcDbEntity
  8
0
  6
HIDDEN
 62
     7
370
     0
100
AcDbLine
 10
117.3937459417
 20
149.400781517
 30
0.0
 11
117.3937459417
 21
145.7010324136
 31
0.0
  0
LINE
  5
16A
330
1F
100
AcDbEntity
  8
0
  6
HIDDEN
 62
     7
370
     0
100
AcDbLine
 10
127.3937459417
 20
145.7010324136
 30
0.0
 11
127.3937459417
 21
149.3994095678
 31
0.0
  0
LINE
  5
16B
330
1F
100
AcDbEntity
  8
0
  6
HIDDEN
 62
     7
370
     0
100
AcDbLine
 10
137.6937459417
 20
90.7236186349
 30
0.0
 11
141.6937459417
 21
90.7236186349
 31
0.0
  0
LINE
  5
16C
330
1F
100
AcDbEntity
  8
0
  6
HIDDEN
 62
     7
370
     0
100
AcDbLine
 10
141.6937459417
 20
116.7236186349
 30
0.0
 11
137.6937459417
 21
116.7236186349
 31
0.0
  0
LINE
  5
16D
330
1F
100
AcDbEntity
  8
0
  6
HIDDEN
 62
     7
370
     0
100
AcDbLine
 10
125.8437459417
 20
91.7236186349
 30
0.0
 11
126.5937459417
 21
92.4736186349
 31
0.0
  0
LINE
  5
16E
330
1F
100
AcDbEntity
  8
0
  6
HIDDEN
 62
     7
370
     0
100
AcDbLine
 10
126.5937459417
 20
114.9736186349
 30
0.0
 11
125.8437459417
 21
115.7236186349
 31
0.0
  0
LINE
  5
16F
330
1F
100
AcDbEntity
  8
0
  6
HIDDEN
 62
     7
370
     0
100
AcDbLine
 10
126.5937459417
 20
92.4736186349
 30
0.0
 11
137.6937459417
 21
92.4736186349
 31
0.0
  0
LINE
  5
170
330
1F
100
AcDbEntity
  8
0
  6
HIDDEN
 62
     7
370
     0
100
AcDbLine
 10
137.6937459417
 20
114.9736186349
 30
0.0
 11
126.5937459417
 21
114.9736186349
 31
0.0
  0
LINE
  5
171
330
1F
100
AcDbEntity
  8
0
  6
HIDDEN
 62
     7
370
     0
100
AcDbLine
 10
118.3437459417
 20
153.7236186349
 30
0.0
 11
118.3437459417
 21
147.6236186349
 31
0.0
  0
LINE
  5
172
330
1F
100
AcDbEntity
  8
0
  6
HIDDEN
 62
     7
370
     0
100
AcDbLine
 10
104.8264585577
 20
66.1453390643
 30
0.0
 11
104.3937492712
 21
66.6235637817
 31
0.0
  0
LINE
  5
173
330
1F
100
AcDbEntity
  8
0
  6
HIDDEN
 62
     7
370
     0
100
AcDbLine
 10
92.3937463997
 20
67.2705251383
 30
0.0
 11
91.9131190945
 21
66.7923004275
 31
0.0
  0
LINE
  5
174
330
1F
100
AcDbEntity
  8
0
  6
HIDDEN
 62
     7
370
     0
100
AcDbLine
 10
91.913000753
 20
140.6549309261
 30
0.0
 11
92.393746217
 21
140.1766512543
 31
0.0
  0
LINE
  5
175
330
1F
100
AcDbEntity
  8
0
  6
HIDDEN
 62
     7
370
     0
100
AcDbLine
 10
104.3937459438
 20
140.8236236416
 30
0.0
 11
104.8265676135
 21
141.3019033145
 31
0.0
  0
LINE
  5
176
330
1F
100
AcDbEntity
  8
0
  6
HIDDEN
 62
     7
370
     0
100
AcDbLine
 10
104.3937459417
 20
66.5234349391
 30
0.0
 11
104.3937459417
 21
72.2495537409
 31
0.0
  0
LINE
  5
177
330
1F
100
AcDbEntity
  8
0
  6
HIDDEN
 62
     7
370
     0
100
AcDbLine
 10
92.3937459417
 20
72.2246028342
 30
0.0
 11
92.3937459417
 21
67.2705635529
 31
0.0
  0
LINE
  5
178
330
1F
100
AcDbEntity
  8
0
  6
HIDDEN
 62
     7
370
     0
100
AcDbLine
 10
104.3937459417
 20
135.1976835289
 30
0.0
 11
104.3937459417
 21
140.9236274676
 31
0.0
  0
LINE
  5
179
330
1F
100
AcDbEntity
  8
0
  6
HIDDEN
 62
     7
370
     0
100
AcDbLine
 10
92.3937459417
 20
140.176640755
 30
0.0
 11
92.3937459417
 21
135.2226344355
 31
0.0
  0
ARC
  5
17A
330
1F
100
AcDbEntity
  8
0
  6
HIDDEN
 62
     7
370
     0
100
AcDbCircle
 10
242.8937459417
 20
99.6869243868
 30
0.0
 40
0.5
100
AcDbArc
 50
0.0
 51
80.0
  0
ARC
  5
17B
330
1F
100
AcDbEntity
  8
0
  6
HIDDEN
 62
     7
370
     0
100
AcDbCircle
 10
242.8937459417
 20
107.760312883
 30
0.0
 40
0.5
100
AcDbArc
 50
280.0
 51
0.0
  0
LINE
  5
17C
330
1F
100
AcDbEntity
  8
0
  6
HIDDEN
 62
     7
370
     0
100
AcDbLine
 10
242.9805700305
 20
107.2679090064
 30
0.0
 11
239.8937459417
 21
106.7236186349
 31
0.0
  0
LINE
  5
17D
330
1F
100
AcDbEntity
  8
0
  6
HIDDEN
 62
     7
370
     0
100
AcDbLine
 10
239.8937459417
 20
100.7236186349
 30
0.0
 11
242.9805700305
 21
100.1793282633
 31
0.0
  0
ARC
  5
17E
330
1F
100
AcDbEntity
  8
0
  6
HIDDEN
 62
     7
370
     0
100
AcDbCircle
 10
207.2937459417
 20
100.8236186349
 30
0.0
 40
0.4000000000000057
100
AcDbArc
 50
180.0
 51
270.0
  0
ARC
  5
17F
330
1F
100
AcDbEntity
  8
0
  6
HIDDEN
 62
     7
370
     0
100
AcDbCircle
 10
207.2937459417
 20
106.6236186349
 30
0.0
 40
0.4000000000000057
100
AcDbArc
 50
90.0
 51
180.0
  0
LINE
  5
180
330
1F
100
AcDbEntity
  8
0
  6
HIDDEN
 62
     7
370
     0
100
AcDbLine
 10
210.3937459417
 20
100.4236186349
 30
0.0
 11
220.4989719235
 21
100.4236186349
 31
0.0
  0
LINE
  5
181
330
1F
100
AcDbEntity
  8
0
  6
HIDDEN
 62
     7
370
     0
100
AcDbLine
 10
207.2937459417
 20
100.4236186349
 30
0.0
 11
207.3978527625
 21
100.4236186349
 31
0.0
  0
LINE
  5
182
330
1F
100
AcDbEntity
  8
0
  6
HIDDEN
 62
     7
370
     0
100
AcDbLine
 10
207.3950101329
 20
107.0236186349
 30
0.0
 11
207.2937459417
 21
107.0236186349
 31
0.0
  0
LINE
  5
183
330
1F
100
AcDbEntity
  8
0
  6
HIDDEN
 62
     7
370
     0
100
AcDbLine
 10
220.4989719235
 20
107.0236186349
 30
0.0
 11
210.3885426452
 21
107.0236186349
 31
0.0
  0
ARC
  5
184
330
1F
100
AcDbEntity
  8
0
  6
HIDDEN
 62
     7
370
     0
100
AcDbCircle
 10
220.4989719235
 20
100.8236186349
 30
0.0
 40
0.4000000000000057
100
AcDbArc
 50
270.0
 51
290.0
  0
ARC
  5
185
330
1F
100
AcDbEntity
  8
0
  6
HIDDEN
 62
     7
370
     0
100
AcDbCircle
 10
220.4989719235
 20
106.6236186349
 30
0.0
 40
0.3999999999999915
100
AcDbArc
 50
70.0
 51
90.0
  0
LINE
  5
186
330
1F
100
AcDbEntity
  8
0
  6
HIDDEN
 62
     7
370
     0
100
AcDbLine
 10
220.6357799809
 20
100.4477415866
 30
0.0
 11
221.3937459417
 21
100.7236186349
 31
0.0
  0
LINE
  5
187
330
1F
100
AcDbEntity
  8
0
  6
HIDDEN
 62
     7
370
     0
100
AcDbLine
 10
221.3937459417
 20
106.7236186349
 30
0.0
 11
220.6357799809
 21
106.9994956832
 31
0.0
  0
LINE
  5
188
330
1F
100
AcDbEntity
  8
0
  6
HIDDEN
 62
     7
370
     0
100
AcDbLine
 10
158.8437459417
 20
88.7236186349
 30
0.0
 11
157.8437459417
 21
89.3009689041
 31
0.0
  0
LINE
  5
189
330
1F
100
AcDbEntity
  8
0
  6
HIDDEN
 62
     7
370
     0
100
AcDbLine
 10
152.8437459417
 20
89.3009689041
 30
0.0
 11
151.8437459417
 21
88.7236186349
 31
0.0
  0
LINE
  5
18A
330
1F
100
AcDbEntity
  8
0
  6
HIDDEN
 62
     7
370
     0
100
AcDbLine
 10
151.8437459417
 20
118.7236186349
 30
0.0
 11
152.8437459417
 21
118.1462683657
 31
0.0
  0
LINE
  5
18B
330
1F
100
AcDbEntity
  8
0
  6
HIDDEN
 62
     7
370
     0
100
AcDbLine
 10
157.8437459417
 20
118.1462683657
 30
0.0
 11
158.8437459417
 21
118.7236186349
 31
0.0
  0
LINE
  5
18C
330
1F
100
AcDbEntity
  8
0
  6
HIDDEN
 62
     7
370
     0
100
AcDbLine
 10
221.3937459417
 20
100.7236186349
 30
0.0
 11
239.8937459417
 21
100.7236186349
 31
0.0
  0
LINE
  5
18D
330
1F
100
AcDbEntity
  8
0
  6
HIDDEN
 62
     7
370
     0
100
AcDbLine
 10
239.8937459417
 20
106.7236186349
 30
0.0
 11
221.3937459417
 21
106.7236186349
 31
0.0
  0
LINE
  5
18E
330
1F
100
AcDbEntity
  8
0
  6
HIDDEN
 62
     7
370
     0
100
AcDbLine
 10
152.8437459417
 20
118.1462683657
 30
0.0
 11
152.8437459417
 21
109.7236186349
 31
0.0
  0
LINE
  5
18F
330
1F
100
AcDbEntity
  8
0
  6
HIDDEN
 62
     7
370
     0
100
AcDbLine
 10
157.8437459417
 20
109.7236186349
 30
0.0
 11
157.8437459417
 21
118.1462683657
 31
0.0
  0
LINE
  5
190
330
1F
100
AcDbEntity
  8
0
  6
HIDDEN
 62
     7
370
     0
100
AcDbLine
 10
190.4934016941
 20
101.2236186349
 30
0.0
 11
190.7337459417
 21
101.6236186349
 31
0.0
  0
LINE
  5
191
330
1F
100
AcDbEntity
  8
0
  6
HIDDEN
 62
     7
370
     0
100
AcDbLine
 10
190.7337459417
 20
105.8236186349
 30
0.0
 11
190.4934016941
 21
106.2236186349
 31
0.0
  0
LINE
  5
192
330
1F
100
AcDbEntity
  8
0
  6
HIDDEN
 62
     7
370
     0
100
AcDbLine
 10
206.8937459417
 20
106.2236186349
 30
0.0
 11
206.4937459417
 21
105.8236186349
 31
0.0
  0
LINE
  5
193
330
1F
100
AcDbEntity
  8
0
  6
HIDDEN
 62
     7
370
     0
100
AcDbLine
 10
206.4937459417
 20
101.6236186349
 30
0.0
 11
206.8937459417
 21
101.2236186349
 31
0.0
  0
LINE
  5
194
330
1F
100
AcDbEntity
  8
0
  6
HIDDEN
 62
     7
370
     0
100
AcDbLine
 10
141.6937459417
 20
101.2236186349
 30
0.0
 11
190.4934016941
 21
101.2236186349
 31
0.0
  0
LINE
  5
195
330
1F
100
AcDbEntity
  8
0
  6
HIDDEN
 62
     7
370
     0
100
AcDbLine
 10
190.4934016941
 20
106.2236186349
 30
0.0
 11
141.6937459417
 21
106.2236186349
 31
0.0
  0
LINE
  5
196
330
1F
100
AcDbEntity
  8
0
  6
HIDDEN
 62
     7
370
     0
100
AcDbLine
 10
152.8437459417
 20
109.7236186349
 30
0.0
 11
155.3437459417
 21
108.2214670873
 31
0.0
  0
LINE
  5
197
330
1F
100
AcDbEntity
  8
0
  6
HIDDEN
 62
     7
370
     0
100
AcDbLine
 10
155.3437459417
 20
108.2214670873
 30
0.0
 11
157.8437459417
 21
109.7236186349
 31
0.0
  0
LINE
  5
198
330
1F
100
AcDbEntity
  8
0
  6
HIDDEN
 62
     7
370
     0
100
AcDbLine
 10
157.8437459417
 20
97.7236186349
 30
0.0
 11
155.3437459417
 21
99.2257701825
 31
0.0
  0
LINE
  5
199
330
1F
100
AcDbEntity
  8
0
  6
HIDDEN
 62
     7
370
     0
100
AcDbLine
 10
155.3437459417
 20
99.2257701825
 30
0.0
 11
152.8437459417
 21
97.7236186349
 31
0.0
  0
LINE
  5
19A
330
1F
100
AcDbEntity
  8
0
  6
HIDDEN
 62
     7
370
     0
100
AcDbLine
 10
157.8437459417
 20
89.3009689041
 30
0.0
 11
157.8437459417
 21
97.7236186349
 31
0.0
  0
LINE
  5
19B
330
1F
100
AcDbEntity
  8
0
  6
HIDDEN
 62
     7
370
     0
100
AcDbLine
 10
152.8437459417
 20
97.7236186349
 30
0.0
 11
152.8437459417
 21
89.3009689041
 31
0.0
  0
LINE
  5
19C
330
1F
100
AcDbEntity
  8
0
  6
HIDDEN
 62
     7
370
     0
100
AcDbLine
 10
190.7337459417
 20
101.6236186349
 30
0.0
 11
206.4937459417
 21
101.6236186349
 31
0.0
  0
LINE
  5
19D
330
1F
100
AcDbEntity
  8
0
  6
HIDDEN
 62
     7
370
     0
100
AcDbLine
 10
206.4937459417
 20
105.8236186349
 30
0.0
 11
190.7337459417
 21
105.8236186349
 31
0.0
  0
LINE
  5
19E
330
1F
100
AcDbEntity
  8
0
  6
HIDDEN
 62
     7
370
     0
100
AcDbLine
 10
207.3937459417
 20
100.4254789139
 30
0.0
 11
207.3937459417
 21
97.0479163579
 31
0.0
  0
LINE
  5
19F
330
1F
100
AcDbEntity
  8
0
  6
HIDDEN
 62
     7
370
     0
100
AcDbLine
 10
210.3937459417
 20
97.1746133657
 30
0.0
 11
210.3937459417
 21
100.4236186349
 31
0.0
  0
LINE
  5
1A0
330
1F
100
AcDbEntity
  8
0
  6
HIDDEN
 62
     7
370
     0
100
AcDbLine
 10
207.3937459417
 20
110.3993464393
 30
0.0
 11
207.3937459417
 21
107.023048426
 31
0.0
  0
LINE
  5
1A1
330
1F
100
AcDbEntity
  8
0
  6
HIDDEN
 62
     7
370
     0
100
AcDbLine
 10
210.3937459417
 20
107.0212577664
 30
0.0
 11
210.3937459417
 21
110.2692277179
 31
0.0
  0
LINE
  5
1A2
330
1F
100
AcDbEntity
  8
0
  6
HIDDEN
 62
     7
370
     0
100
AcDbLine
 10
208.4355501147
 20
94.5976395346
 30
0.0
 11
208.8937459417
 21
94.3223277063
 31
0.0
  0
LINE
  5
1A3
330
1F
100
AcDbEntity
  8
0
  6
HIDDEN
 62
     7
370
     0
100
AcDbLine
 10
208.8937459417
 20
94.3223277063
 30
0.0
 11
209.4174282046
 21
94.636987755
 31
0.0
  0
LINE
  5
1A4
330
1F
100
AcDbEntity
  8
0
  6
HIDDEN
 62
     7
370
     0
100
AcDbLine
 10
207.4705754067
 20
94.5612289723
 30
0.0
 11
208.4429505353
 21
94.5994336951
 31
0.0
  0
LINE
  5
1A5
330
1F
100
AcDbEntity
  8
0
  6
HIDDEN
 62
     7
370
     0
100
AcDbLine
 10
209.3151427904
 20
94.6337022221
 30
0.0
 11
243.3937459417
 21
95.9726541866
 31
0.0
  0
LINE
  5
1A6
330
1F
100
AcDbEntity
  8
0
  6
HIDDEN
 62
     7
370
     0
100
AcDbLine
 10
243.3937459417
 20
98.4745830831
 30
0.0
 11
210.3908796909
 21
97.1778969366
 31
0.0
  0
LINE
  5
1A7
330
1F
100
AcDbEntity
  8
0
  6
HIDDEN
 62
     7
370
     0
100
AcDbLine
 10
210.3937459417
 20
110.2692277179
 30
0.0
 11
243.3937459417
 21
108.9726541866
 31
0.0
  0
LINE
  5
1A8
330
1F
100
AcDbEntity
  8
0
  6
HIDDEN
 62
     7
370
     0
100
AcDbLine
 10
243.3937459417
 20
111.4745830831
 30
0.0
 11
210.390691245
 21
112.7712766338
 31
0.0
  0
LINE
  5
1A9
330
1F
100
AcDbEntity
  8
0
  6
HIDDEN
 62
     7
370
     0
100
AcDbLine
 10
207.3963514165
 20
112.7727978982
 30
0.0
 11
206.6710039154
 21
111.6664590987
 31
0.0
  0
LINE
  5
1AA
330
1F
100
AcDbEntity
  8
0
  6
HIDDEN
 62
     7
370
     0
100
AcDbLine
 10
206.6710039154
 20
111.6664590987
 30
0.0
 11
207.3724258673
 21
110.3879357069
 31
0.0
  0
LINE
  5
1AB
330
1F
100
AcDbEntity
  8
0
  6
HIDDEN
 62
     7
370
     0
100
AcDbLine
 10
207.3724258673
 20
97.0593015629
 30
0.0
 11
206.6710039154
 21
95.7807781711
 31
0.0
  0
LINE
  5
1AC
330
1F
100
AcDbEntity
  8
0
  6
HIDDEN
 62
     7
370
     0
100
AcDbLine
 10
206.6710039154
 20
95.7807781711
 30
0.0
 11
207.4705754067
 21
94.5612289723
 31
0.0
  0
LINE
  5
1AD
330
1F
100
AcDbEntity
  8
0
  6
HIDDEN
 62
     7
370
     0
100
AcDbLine
 10
207.3937459417
 20
112.7707922645
 30
0.0
 11
207.3937459417
 21
112.7236186349
 31
0.0
  0
LINE
  5
1AE
330
1F
100
AcDbEntity
  8
0
  6
HIDDEN
 62
     7
370
     0
100
AcDbLine
 10
117.3937459417
 20
151.2763299329
 30
0.0
 11
117.3937459417
 21
149.400781517
 31
0.0
  0
LINE
  5
1AF
330
1F
100
AcDbEntity
  8
0
  6
HIDDEN
 62
     7
370
     0
100
AcDbLine
 10
127.3937459417
 20
149.3994095678
 30
0.0
 11
127.3937459417
 21
151.2749016501
 31
0.0
  0
DIMENSION
  5
1B0
330
1F
100
AcDbEntity
  8
VERMASSUNG
100
AcDbDimension
  2
*D1
 10
56.8326110509
 20
53.7236186349
 30
0.0
 11
56.8326110509
 21
103.7236186349
 31
0.0
 70
   160
  1
HSK A %%c<>
 71
     2
 42
-1.0
  3
SLDDIMSTYLE0
100
AcDbAlignedDimension
 13
113.8937459417
 23
153.7236186349
 33
0.0
 14
113.8937459417
 24
53.7236186349
 34
0.0
 50
90.0
100
AcDbRotatedDimension
  0
DIMENSION
  5
1BD
330
1F
100
AcDbEntity
  8
VERMASSUNG
100
AcDbDimension
  2
*D2
 10
243.3937459417
 20
151.7236186349
 30
0.0
 11
225.1437459417
 21
151.7236186349
 31
0.0
 70
   160
 71
     2
 42
-1.0
  3
SLDDIMSTYLE1
100
AcDbAlignedDimension
 13
206.8937459417
 23
106.6236186349
 33
0.0
 14
243.3937459417
 24
112.3748376516
 34
0.0
100
AcDbRotatedDimension
  0
DIMENSION
  5
1C8
330
1F
100
AcDbEntity
  8
VERMASSUNG
100
AcDbDimension
  2
*D3
 10
249.9143011918
 20
106.7236186349
 30
0.0
 11
249.9143011918
 21
103.7236186349
 31
0.0
 70
   160
  1
%%c<>
 71
     2
 42
-1.0
  3
SLDDIMSTYLE2
100
AcDbAlignedDimension
 13
239.8937459417
 23
100.7236186349
 33
0.0
 14
239.8937459417
 24
106.7236186349
 34
0.0
 50
90.0
100
AcDbRotatedDimension
  0
DIMENSION
  5
1D6
330
1F
100
AcDbEntity
  8
VERMASSUNG
100
AcDbDimension
  2
*D4
 10
255.9143011918
 20
114.2236186349
 30
0.0
 11
255.9143011918
 21
103.7236186349
 31
0.0
 70
   160
  1
%%c<>
 71
     2
 42
-1.0
  3
SLDDIMSTYLE3
100
AcDbAlignedDimension
 13
243.3937459417
 23
93.2236186349
 33
0.0
 14
243.3937459417
 24
114.2236186349
 34
0.0
 50
90.0
100
AcDbRotatedDimension
  0
DIMENSION
  5
1E2
330
1F
100
AcDbEntity
  8
VERMASSUNG
100
AcDbDimension
  2
*D5
 10
243.3937459417
 20
163.7236186349
 30
0.0
 11
178.3937459417
 21
163.7236186349
 31
0.0
 70
   160
 71
     2
 42
-1.0
  3
SLDDIMSTYLE0
100
AcDbAlignedDimension
 13
113.3937459417
 23
153.2236186349
 33
0.0
 14
243.3937459417
 24
112.3748376516
 34
0.0
100
AcDbRotatedDimension
  0
DIMENSION
  5
1EC
330
1F
100
AcDbEntity
  8
VERMASSUNG
100
AcDbDimension
  2
*D6
 10
243.3937459417
 20
157.7236186349
 30
0.0
 11
192.8687459417
 21
157.7236186349
 31
0.0
 70
   160
 71
     2
 42
-1.0
  3
SLDDIMSTYLE0
100
AcDbAlignedDimension
 13
142.3437459417
 23
151.6923584557
 33
0.0
 14
243.3937459417
 24
112.3748376516
 34
0.0
100
AcDbRotatedDimension
  0
DIMENSION
  5
1F6
330
1F
100
AcDbEntity
  8
VERMASSUNG
100
AcDbDimension
  2
*D7
 10
243.3937459417
 20
169.7236186349
 30
0.0
 11
153.4437459417
 21
169.7236186349
 31
0.0
 70
   160
 71
     2
 42
-1.0
  3
SLDDIMSTYLE0
100
AcDbAlignedDimension
 13
63.4937459417
 23
134.2262883775
 33
0.0
 14
243.3937459417
 24
112.3748376516
 34
0.0
100
AcDbRotatedDimension
  0
DIMENSION
  5
200
330
1F
100
AcDbEntity
  8
VERMASSUNG
100
AcDbDimension
  2
*D8
 10
261.9143011918
 20
88.7236186349
 30
0.0
 11
261.9143011918
 21
103.7236186349
 31
0.0
 70
   160
  1
%%c<>
 71
     2
 42
-1.0
  3
SLDDIMSTYLE0
100
AcDbAlignedDimension
 13
164.3437459417
 23
118.7236186349
 33
0.0
 14
164.3437459417
 24
88.7236186349
 34
0.0
 50
90.0
100
AcDbRotatedDimension
  0
LINE
  5
20B
330
1F
100
AcDbEntity
  8
VERMASSUNG
  6
CENTERX2
370
     0
100
AcDbLine
 10
59.153304442
 20
103.7236186349
 30
0.0
 11
245.3937459417
 21
103.7236186349
 31
0.0
  0
OLE2FRAME
  5
20C
330
1F
100
AcDbEntity
  8
0
100
AcDbOle2Frame
 70
     2
  3
Bitmap Image
 10
13.8511154363
 20
38.264191557
 30
0.0
 11
51.6290888628
 21
31.9806341108
 31
0.0
 71
     2
 72
     0
 73
     1
 90
    12928
310
80552BED0767C5B32B40DDAF6807D121434000000000000000006FFBDDFB85D0
310
4940DDAF6807D121434000000000000000006FFBDDFB85D04940416F4BD60AFB
310
3F4000000000000000002BED0767C5B32B40416F4BD60AFB3F40000000000000
310
0000000000000100000000010000010000000100000000000100000000320000
310
D0CF11E0A1B11AE1000000000000000000000000000000003E000300FEFF0900
310
0600000000000000000000000100000001000000000000000010000002000000
310
01000000FEFFFFFF0000000000000000FFFFFFFFFFFFFFFFFFFFFFFFFFFFFFFF
310
FFFFFFFFFFFFFFFFFFFFFFFFFFFFFFFFFFFFFFFFFFFFFFFFFFFFFFFFFFFFFFFF
310
FFFFFFFFFFFFFFFFFFFFFFFFFFFFFFFFFFFFFFFFFFFFFFFFFFFFFFFFFFFFFFFF
310
FFFFFFFFFFFFFFFFFFFFFFFFFFFFFFFFFFFFFFFFFFFFFFFFFFFFFFFFFFFFFFFF
310
FFFFFFFFFFFFFFFFFFFFFFFFFFFFFFFFFFFFFFFFFFFFFFFFFFFFFFFFFFFFFFFF
310
FFFFFFFFFFFFFFFFFFFFFFFFFFFFFFFFFFFFFFFFFFFFFFFFFFFFFFFFFFFFFFFF
310
FFFFFFFFFFFFFFFFFFFFFFFFFFFFFFFFFFFFFFFFFFFFFFFFFFFFFFFFFFFFFFFF
310
FFFFFFFFFFFFFFFFFFFFFFFFFFFFFFFFFFFFFFFFFFFFFFFFFFFFFFFFFFFFFFFF
310
FFFFFFFFFFFFFFFFFFFFFFFFFFFFFFFFFFFFFFFFFFFFFFFFFFFFFFFFFFFFFFFF
310
FFFFFFFFFFFFFFFFFFFFFFFFFFFFFFFFFFFFFFFFFFFFFFFFFFFFFFFFFFFFFFFF
310
FFFFFFFFFFFFFFFFFFFFFFFFFFFFFFFFFFFFFFFFFFFFFFFFFFFFFFFFFFFFFFFF
310
FFFFFFFFFFFFFFFFFFFFFFFFFFFFFFFFFFFFFFFFFFFFFFFFFFFFFFFFFFFFFFFF
310
FFFFFFFFFFFFFFFFFFFFFFFFFFFFFFFFFFFFFFFFFFFFFFFFFFFFFFFFFFFFFFFF
310
FFFFFFFFFFFFFFFFFFFFFFFFFFFFFFFFFFFFFFFFFFFFFFFFFFFFFFFFFFFFFFFF
310
FDFFFFFFFEFFFFFFFEFFFFFFFEFFFFFF05000000060000000700000008000000
310
090000000A0000000B0000000C0000000D0000000E0000000F00000010000000
310
11000000120000001300000014000000150000001600000017000000FEFFFFFF
310
FFFFFFFFFFFFFFFFFFFFFFFFFFFFFFFFFFFFFFFFFFFFFFFFFFFFFFFFFFFFFFFF
310
FFFFFFFFFFFFFFFFFFFFFFFFFFFFFFFFFFFFFFFFFFFFFFFFFFFFFFFFFFFFFFFF
310
FFFFFFFFFFFFFFFFFFFFFFFFFFFFFFFFFFFFFFFFFFFFFFFFFFFFFFFFFFFFFFFF
310
FFFFFFFFFFFFFFFFFFFFFFFFFFFFFFFFFFFFFFFFFFFFFFFFFFFFFFFFFFFFFFFF
310
FFFFFFFFFFFFFFFFFFFFFFFFFFFFFFFFFFFFFFFFFFFFFFFFFFFFFFFFFFFFFFFF
310
FFFFFFFFFFFFFFFFFFFFFFFFFFFFFFFFFFFFFFFFFFFFFFFFFFFFFFFFFFFFFFFF
310
FFFFFFFFFFFFFFFFFFFFFFFFFFFFFFFFFFFFFFFFFFFFFFFFFFFFFFFFFFFFFFFF
310
FFFFFFFFFFFFFFFFFFFFFFFFFFFFFFFFFFFFFFFFFFFFFFFFFFFFFFFFFFFFFFFF
310
FFFFFFFFFFFFFFFFFFFFFFFFFFFFFFFFFFFFFFFFFFFFFFFFFFFFFFFFFFFFFFFF
310
FFFFFFFFFFFFFFFFFFFFFFFFFFFFFFFFFFFFFFFFFFFFFFFFFFFFFFFFFFFFFFFF
310
FFFFFFFFFFFFFFFFFFFFFFFFFFFFFFFFFFFFFFFFFFFFFFFFFFFFFFFFFFFFFFFF
310
FFFFFFFFFFFFFFFFFFFFFFFFFFFFFFFFFFFFFFFFFFFFFFFFFFFFFFFFFFFFFFFF
310
FFFFFFFFFFFFFFFFFFFFFFFFFFFFFFFFFFFFFFFFFFFFFFFFFFFFFFFFFFFFFFFF
310
52006F006F007400200045006E00740072007900000000000000000000000000
310
0000000000000000000000000000000000000000000000000000000000000000
310
16000500FFFFFFFFFFFFFFFF020000000A00030000000000C000000000000046
310
000000000000000000000000B0C4D68D8A05CC0103000000C000000000000000
310
01004F006C006500000000000000000000000000000000000000000000000000
310
0000000000000000000000000000000000000000000000000000000000000000
310
0A000200FFFFFFFFFFFFFFFFFFFFFFFF00000000000000000000000000000000
310
0000000000000000000000000000000000000000000000001400000000000000
310
010043006F006D0070004F0062006A0000000000000000000000000000000000
310
0000000000000000000000000000000000000000000000000000000000000000
310
120002010100000003000000FFFFFFFF00000000000000000000000000000000
310
0000000000000000000000000000000000000000010000004D00000000000000
310
01004F006C006500310030004E00610074006900760065000000000000000000
310
0000000000000000000000000000000000000000000000000000000000000000
310
1A000200FFFFFFFFFFFFFFFFFFFFFFFF00000000000000000000000000000000
310
0000000000000000000000000000000000000000040000002426000000000000
310
FEFFFFFF02000000FEFFFFFFFFFFFFFFFFFFFFFFFFFFFFFFFFFFFFFFFFFFFFFF
310
FFFFFFFFFFFFFFFFFFFFFFFFFFFFFFFFFFFFFFFFFFFFFFFFFFFFFFFFFFFFFFFF
310
FFFFFFFFFFFFFFFFFFFFFFFFFFFFFFFFFFFFFFFFFFFFFFFFFFFFFFFFFFFFFFFF
310
FFFFFFFFFFFFFFFFFFFFFFFFFFFFFFFFFFFFFFFFFFFFFFFFFFFFFFFFFFFFFFFF
310
FFFFFFFFFFFFFFFFFFFFFFFFFFFFFFFFFFFFFFFFFFFFFFFFFFFFFFFFFFFFFFFF
310
FFFFFFFFFFFFFFFFFFFFFFFFFFFFFFFFFFFFFFFFFFFFFFFFFFFFFFFFFFFFFFFF
310
FFFFFFFFFFFFFFFFFFFFFFFFFFFFFFFFFFFFFFFFFFFFFFFFFFFFFFFFFFFFFFFF
310
FFFFFFFFFFFFFFFFFFFFFFFFFFFFFFFFFFFFFFFFFFFFFFFFFFFFFFFFFFFFFFFF
310
FFFFFFFFFFFFFFFFFFFFFFFFFFFFFFFFFFFFFFFFFFFFFFFFFFFFFFFFFFFFFFFF
310
FFFFFFFFFFFFFFFFFFFFFFFFFFFFFFFFFFFFFFFFFFFFFFFFFFFFFFFFFFFFFFFF
310
FFFFFFFFFFFFFFFFFFFFFFFFFFFFFFFFFFFFFFFFFFFFFFFFFFFFFFFFFFFFFFFF
310
FFFFFFFFFFFFFFFFFFFFFFFFFFFFFFFFFFFFFFFFFFFFFFFFFFFFFFFFFFFFFFFF
310
FFFFFFFFFFFFFFFFFFFFFFFFFFFFFFFFFFFFFFFFFFFFFFFFFFFFFFFFFFFFFFFF
310
FFFFFFFFFFFFFFFFFFFFFFFFFFFFFFFFFFFFFFFFFFFFFFFFFFFFFFFFFFFFFFFF
310
FFFFFFFFFFFFFFFFFFFFFFFFFFFFFFFFFFFFFFFFFFFFFFFFFFFFFFFFFFFFFFFF
310
FFFFFFFFFFFFFFFFFFFFFFFFFFFFFFFFFFFFFFFFFFFFFFFFFFFFFFFFFFFFFFFF
310
0100000200000000000000000000000000000000000000004E00820000000005
310
A807250000000000A807250000000000901FA50000000000C01FA60000000000
310
0100FEFF030A0000FFFFFFFF0A00030000000000C00000000000004607000000
310
5042727573680007000000504272757368000700000050427275736800F439B2
310
7100000000000000000000000000000000000000000000000000C70600000000
310
0000000000000000000000000000000000000000000000003800000041000000
310
901FA50000000000841F9D000000000000000000000000000000000000000000
310
0000C70600000000000000000000000000000000000000000000000000000000
310
3800000041000000901FA50000000000EC1F7500000000000000000000000000
310
00000000000000000000C7060000000000000000000000000000000000000000
310
00000000000000003800000041000000901FA50000000000761FAC0000000000
310
000000000000000000000000000000000000C706000000000000000000000000
310
000000000000000000000000000000003800000041000000901FA50000000000
310
DA1F7D0000000000000000000000000000000000000000000000C70600000000
310
0000000000000000000000000000000000000000000000003800000041000000
310
901FA500000000006C1F7C000000000000000000000000000000000000000000
310
20260000424D0E260000000000003E00000028000000B40200006E0000000100
310
01000000000000000000130B0000130B00000200000002000000000000FFFFFF
310
FFFFFFFFFFFFFFFFFFFFFFFFFFFFFFFFFFFFFFFFFFFFFFFFFFFFFFFFFFFFFFFF
310
FFFFFFFFFFFFFFFFFFFFFFFFFFFFFFFFFFFFFFFFFFFFFFFFFFFFFFFFFFFFFFFF
310
FFFFFFFFFFFFFFFFFFFFFFFFFFFFFFFFFFFFFFFFFFFFFFFFF000FFFFFFFFFFFF
310
FFFFFFFFFFFFFFFFFFFFFFFFFFFFFFFFFFFFFFFFFFFFFFFFFFFFFFFFFFFFFFFF
310
FFFFFFFFFFFFFFFFFFFFFFFFFFFFFFFFFFFFFFFFFFFFFFFFFFFFFFFFFFFFFFFF
310
FFFFFFFFFFFFFFFFFFFFFFFFFFFFFFFFF000FFFFFFFFFFFFFFFFFFFFFFFFFFFF
310
FFFFFFFFFFFFFFFFFFFFFFFFFFFFFFFFFFFFFFFFFFFFFFFFFFFFFFFFFFFFFFFF
310
FFFFFFFFFFFFFFFFFFFFFFFFFFFFFFFFFFFFFFFFFFFFFFFFFFFFFFFFFFFFFFFF
310
FFFFFFFFFFFFFFFFF000FFFFFFFFFFFFFFFFFFFFFFFFFFFFFFFFFFFFFFFFFFFF
310
FFFFFFFFFFFFFFFFFFFFFFFFFFFFFFFFFFFFFFFFFFFFFFFFFFFFFFFFFFFFFFFF
310
FFFFFFFFFFFFFFFFFFFFFFFFFFFFFFFFFFFFFFFFFFFFFFFFFFFFFFFFFFFFFFFF
310
F000FFFFFFFFFFFFFFFFFFFFFFFFFFFFFFFFFFFFFFFFFFFFFFFFFFFFFFFFFFFF
310
FFFFFFFFFFFFFFFFFFFFFFFFFFFFFFFFFFFFFFFFFFFFFFFFFFFFFFFFFFFFFFFF
310
FFFFFFFFFFFFFFFFFFFFFFFFFFFFFFFFFFFFFFFFFFFFFFFFF000FFFFFFFFFFFF
310
FFFFFFFFFFFFFFFFFFFFFFFFFFFFFFFFFFFFFFFFFFFFFFFFFFFFFFFFFFFFFFFF
310
FFFFFFFFFFFFFFFFFFFFFFFFFFFFFFFFFFFFFFFFFFFFFFFFFFFFFFFFFFFFFFFF
310
FFFFFFFFFFFFFFFFFFFFFFFFFFFFFFFFF000FFFFFFFFFFFFFFFFFFFFFFFFFFFF
310
FFFFFFFFFFFFFFFFFFFFFFFFFFFFFFFFFFFFFFFFFFFFFFFFFFFFFFFFFFFFFFFF
310
FFFFFFFFFFFFFFFFFFFFFFFFFFFFFFFFFFFFFFFFFFFFFFFFFFFFFFFFFFFFFFFF
310
FFFFFFFFFFFFFFFFF000FFFFFFFFFFFFFFFFFFFFFFFFFFFFFFFFFFFFFFFFFFFF
310
FFFFFFFFFFFFFFFFFFFFFFFFFFFFFFFFFFFFFFFFFFFFFFFFFFFFFFFFFFFFFFFF
310
FFFFFFFFFFFFFFFFFFFFFFFFFFFFFFFFFFFFFFFFFFFFFFFFFFFFFFFFFFFFFFFF
310
F000FFFFFFFFFFFFFFFFFFFFFFFFFFFFFFFFFFFFFFFFFFFFFFFFFFFFFFFFFFFF
310
FFFFFFFFFFFFFFFFFFFFFFFFFFFFFFFFFFFFFFFFFFFFFFFFFFFFFFFFFFFFFFFF
310
FFFFFFFFFFFFFFFFFFFFFFFFFFFFFFFFFFFFFFFFFFFFFFFFF000FFFFFFFFFFFF
310
FFFFFFFFFFFFFFFFFFFFFFFFFFFFFFFFFFFFFFFFFFFFFFFFFFFFFFFFFFFFFFFF
310
FFFFFFFFFFFFFFFFFFFFFFFFFFFFFFFFFFFFFFFFFFFFFFFFFFFFFFFFFFFFFFFF
310
FFFFFFFFFFFFFFFFFFFFFFFFFFFFFFFFF000FFFFFFFFFFFFFFFFFFFFFFFFFFFF
310
FFFFFFFFFFFFFFFFFFFFFFFFFFFFFFFFFFFFFFFFFFFFFFFFFFFFFFFFFFFFFFFF
310
FFFFFFFFFFFFFFFFFFFFFFFFFFFFFFFFFFFFFFFFFFFFFFFFFFFFFFFFFFFFFFFF
310
FFFFFFFFFFFFFFFFF000FFFFFFFFFFFFFFFFFFFFFFFFFFFFFFFFFFFFFFFFFFFF
310
FFFFFFFFFFFFFFFFFFFFFFFFFFFFFFFFFFFFFFFFFFFFFFFFFFFFFFFFFFFFFFFF
310
FFFFFFFFFFFFFFFFFFFFFFFFFFFFFFFFFFFFFFFFFFFFFFFFFFFFFFFFFFFFFFFF
310
F000FFFFFFFFFFFFFFFFFFFFFFFFFFFFFFFFFFFFFFFFFFFFFFFFFFFFFFFFFFFF
310
FFFFFFFFFFFFFFFFFFFFFFFFFFFFFFFFFFFFFFFFFFFFFFFFFFFFFFFFFFFFFFFF
310
FFFFFFFFFFFFFFFFFFFFFFFFFFFFFFFFFFFFFFFFFFFFFFFFF000FFFFFFFFFFFF
310
FFFFFFFFFFFFFFFFFFFFFFFFFFFFFFFFFFFFFFFFFFFFFFFFFFFFFFFFFFFFFFFF
310
FFFFFFFFFFFFFFFFFFFFFFFFFFFFFFFFFFFFFFFFFFFFFFFFFFFFFFFFFFFFFFFF
310
FFFFFFFFFFFFFFFFFFFFFFFFFFFFFFFFF000FFFFFFFFFFFFFFFFFFFFFFFFFFFF
310
FFFFFFFFFFFFFFFFFFFFFFFFFFFFFFFFFFFFFFFFFFFFFFFFFFFFFFFFFFFFFFFF
310
FFFFFFFFFFFFFFFFFFFFFFFFFFFFFFFFFFFFFFFFFFFFFFFFFFFFFFFFFFFFFFFF
310
FFFFFFFFFFFFFFFFF000FFFFFFFFFFFFFFFFFFFFFFFFFFFFFFFFFFFFFFFFFFFF
310
FFFFFFFFFFFFFFFFFFFFFFFFFFFFFFFFFFFFFFFFFFFFFFFFFFFFFFFFFFFFFFFF
310
FFFFFFFFFFFFFFFFFFFFFFFFFFFFFFFFFFFFFFFFFFFFFFFFFFFFFFFFFFFFFFFF
310
F000FFFFFFFFFFFFFFFFFFFFFFFFFFFFFFFFFFFFFFFFFFFFFFFFFFFFFFFFFFFF
310
FFFFFFFFFFFFFFFFFFFFFFFFFFFFFFFFFFFFFFFFFFFFFFFFFFFFFFFFFFFFFFFF
310
FFFFFFFFFFFFFFFFFFFFFFFFFFFFFFFFFFFFFFFFFFFFFFFFF000FFFFFFFFFFFF
310
FFFFFFFFFFFFFFFFFFFFFFFFFFFFFFFFFFFFFFFFFFFFFFFFFFFFFFFFFFFFFFFF
310
FFFFFFFFFFFFFFFFFFFFFFFFFFFFFFFFFFFFFFFFFFFFFFFFFFFFFFFFFFFFFFFF
310
FFFFFFFFFFFFFFFFFFFFFFFFFFFFFFFFF000FFFFFFFFFFFFFFFFFFFFFFFFFFFF
310
FFFFFFFFFFFFFFFFFFFFFFFFFFFFFFFFFFFFFFFFFFFFFFFFFFFFFFFFFFFFFFFF
310
FFFFFFFFFFFFFFFFFFFFFFFFFFFFFFFFFFFFFFFFFFFFFFFFFFFFFFFFFFFFFFFF
310
FFFFFFFFFFFFFFFFF000FFFFF80003FFFFFFFFFFFFFFFFFFFFFFFFFFFFFFFFFF
310
FFFFF00007FFFFFFFFFF00007FFFFFF800000000000000007FFFFFFFFFFFFFFF
310
FFFFFFFC001FFFFFFFFFFFFFFC001FFFFFFFFFFFFFFFFFFFFFFFFFFE0007FFFF
310
F000FFFF8000007FFFFFFFF8000FFFFFC0007FFFFF80007FFFFF0000007FFFFF
310
FFF8000007FFFFF800000000000000007FFFFFF0001FFFFFFFFFFFC00001FFFF
310
FFFFFFFFC00001FFFFFFFF000000000003FFFFE000007FFFF000FFFE0000000F
310
FFFFFFF0000FFFFF80007FFFFF80007FFFFC0000001FFFFFFFC0000001FFFFF8
310
00000000000000007FFFFFF0001FFFFFFFFFFE0000003FFFFFFFFFFE0000003F
310
FFFFFF000000000003FFFF0000000FFFF000FFF800000003FFFFFFF00007FFFF
310
80007FFFFF80007FFFF000000007FFFFFF000000003FFFF80000000000000000
310
7FFFFFF0001FFFFFFFFFF80000000FFFFFFFFFF80000000FFFFFFF0000000000
310
03FFFC00000003FFF000FFE000000000FFFFFFF00007FFFF80003FFFFF80007F
310
FFC000000001FFFFFC000000001FFFF800000000000000007FFFFFF0001FFFFF
310
FFFFE000000003FFFFFFFFE000000003FFFFFF000000000003FFF000000000FF
310
F000FF80000000007FFFFFF00007FFFF80003FFFFF80007FFF8000000000FFFF
310
F80000000007FFF800000000000000007FFFFFF0001FFFFFFFFFC000000001FF
310
FFFFFFC000000001FFFFFF000000000003FFC0000000007FF000FF0000000000
310
3FFFFFE00007FFFF00003FFFFF80007FFE00000000003FFFF00000000003FFF8
310
00000000000000007FFFFFF0001FFFFFFFFF8000000000FFFFFFFF8000000000
310
FFFFFF000000000003FF80000000003FF000FE00000000001FFFFFE00003FFFF
310
00003FFFFF80007FFC00000000001FFFE00000000001FFF8000001FFFE000000
310
7FFFFFF0001FFFFFFFFE00000000003FFFFFFE00000000003FFFFF0000000000
310
03FF00000000001FF000FC00000000000FFFFFE00003FFFF00001FFFFF80007F
310
F800000000001FFFC00000000000FFF8000001FFFE0000007FFFFFF0001FFFFF
310
FFFC00000000001FFFFFFC00000000001FFFFF000000000003FE00000000000F
310
F000F8000000000007FFFFE00003FFFF00001FFFFF80007FF800000000000FFF
310
800000000000FFF8000001FFFE0000007FFFFFF0001FFFFFFFF800000000000F
310
FFFFF800000000000FFFFF000000000003FC000000000007F000F80000000000
310
03FFFFC00003FFFE00001FFFFF80007FF0000000000007FF0000000000007FF8
310
000001FFFE0000007FFFFFF0001FFFFFFFF0000000000007FFFFF00000000000
310
07FFFF000000000003F8000000000003F000F0000000000003FFFFC00001FFFE
310
00001FFFFF80007FE0000000000007FE0000000000003FF8000001FFFE000000
310
7FFFFFF0001FFFFFFFF0000000000007FFFFF0000000000007FFFF0000000000
310
03F800001F800003F000E00001FFF00001FFFFC00001FFFE00000FFFFF80007F
310
E00001FFE00003FE00001FFF00003FF8000001FFFE0000007FFFFFF0001FFFFF
310
FFE000003E000003FFFFE000003E000003FFFF000000000003F00001FFF80001
310
F000E00007FFFC0001FFFFC00001FFFE00000FFFFF80007FC0000FFFFC0003FC
310
0000FFFFC0001FF8000001FFFE0000007FFFFFF0001FFFFFFFC00003FFE00001
310
FFFFC00003FFE00001FFFF0001FFFFFFFFF00007FFFE0001F000E0000FFFFF00
310
00FFFF800001FFFC00000FFFFF80007FC0001FFFFE0001FC0001FFFFE0001FF8
310
000001FFFE0000007FFFFFF0001FFFFFFF80000FFFF80000FFFF80000FFFF800
310
00FFFF0003FFFFFFFFE0000FFFFF8000F000C0003FFFFF8000FFFF800000FFFC
310
000007FFFF80007F80003FFFFF0001FC0003FFFFF0001FF8000001FFFE000000
310
7FFFFFF0001FFFFFFF80003FFFFE0000FFFF80003FFFFE0000FFFF0003FFFFFF
310
FFE0003FFFFF8000F000C0003FFFFF8000FFFF800000FFFC000007FFFF80007F
310
80007FFFFF8001F80007FFFFF8000FF8000001FFFE0000007FFFFFF0001FFFFF
310
FF00007FFFFF00007FFF00007FFFFF00007FFF0003FFFFFFFFE0003FFFFFC000
310
F000C0007FFFFFC000FFFF000000FFFC000007FFFF80007F8000FFFFFF8000F8
310
000FFFFFF8000FF8000001FFFE0000007FFFFFF0001FFFFFFF0000FFFFFF8000
310
7FFF0000FFFFFF80007FFF0003FFFFFFFFC0007FFFFFC00070008000FFFFFFC0
310
00FFFF000000FFF8000007FFFF80007F8000FFFFFF8000F8000FFFFFF8000FF8
310
000001FFFE0000007FFFFFF0001FFFFFFE0001FFFFFFC0003FFE0001FFFFFFC0
310
003FFF0003FFFFFFFFC0007FFFFFE00070008000FFFFFFC0007FFF0000007FF8
310
000003FFFF80007F0001FFFFFF8000F8000FFFFFF8000FF8000001FFFE000000
310
7FFFFFF0001FFFFFFE0001FFFFFFC0003FFE0001FFFFFFC0003FFF0003FFFFFF
310
FFC000FFFFFFE00070008000FFFFFFC0007FFF0000007FF8000003FFFF80007F
310
0001FFFFFF8000F8001FFFFFF8000FF8000001FFFE0000007FFFFFF0001FFFFF
310
FE0003FFFFFFE0003FFE0003FFFFFFE0003FFF0003FFFFFFFFC000FFFFFFE000
310
70008000FFFFFFC0007FFE0000007FF8000003FFFF80007F0001FFFFFF8000F0
310
001FFFFFF8000FF8000001FFFE0000007FFFFFF0001FFFFFFC0003FFFFFFE000
310
1FFC0003FFFFFFE0001FFF0003FFFFFFFFC000FFFFFFC00070008000FFFFFF80
310
007FFE0000007FF0000003FFFF80007F0001FFFFFF0000F0001FFFFFF8000FF8
310
000001FFFE0000007FFFFFF0001FFFFFFC0007FFFFFFF0001FFC0007FFFFFFF0
310
001FFF0003FFFFFFFFC000FFFFFFC00070008001FFFFFF0000FFFE0000003FF0
310
000001FFFF80007F0001FFFFFF0000F8001FFFFFF0000FF8000001FFFE000000
310
7FFFFFF0001FFFFFFC0007FFFFFFF0001FFC0007FFFFFFF0001FFF0003FFFFFF
310
FFC001FFFFFF80007000FFFFFFFFFE0000FFFE0008003FF0008001FFFF80007F
310
FFFFFFFFFC0000FFFFFFFFFFE0000FF8000001FFFE0000007FFFFFF0001FFFFF
310
F8000FFFFFFFF8000FF8000FFFFFFFF8000FFF0003FFFFFFFFFFFFFFFFFF0000
310
7000FFFFFFFFFC0000FFFC0008003FF0008001FFFF80007FFFFFFFFFF80001FF
310
FFFFFFFF80000FF8000001FFFE0000007FFFFFF0001FFFFFF8000FFFFFFFF800
310
0FF8000FFFFFFFF8000FFF0003FFFFFFFFFFFFFFFFFE0000F000FFFFFFFFE000
310
00FFFC000C003FE000C001FFFF80007FFFFFFFFFC00001FFFFFFFFFE00001FF8
310
000001FFFE0000007FFFFFF0001FFFFFF8000FFFFFFFF8000FF8000FFFFFFFF8
310
000FFF0003FFFFFFFFFFFFFFFFF00000F000FFFFFFFE000001FFFC000C001FE0
310
00C000FFFF80007FFFFFFFFE000001FFFFFFFFE000001FF80FFFFFFFFFFFFFC0
310
7FFFFFF0001FFFFFF8000FFFFFFFF8000FF8000FFFFFFFF8000FFF0003FFFFFF
310
FFFFFFFFFF800000F000FFFFFFC0000001FFFC001C001FE001C000FFFF80007F
310
FFFFFF80000003FFFFFFF80000001FF80FFFFFFFFFFFFFC07FFFFFF0001FFFFF
310
F8001FFFFFFFFC000FF8001FFFFFFFFC000FFF0003FFFFFFFFFFFFFFF0000001
310
F000FFFFF800000001FFF8001C001FE001C000FFFF80007FFFFFF800000003FF
310
FFFF800000003FF80FFFFFFFFFFFFFC07FFFFFF0001FFFFFF8001FFFFFFFFC00
310
0FF8001FFFFFFFFC000FFF0003FFFFFFFFFFFFFE00000001F000FFFFC0000000
310
03FFF8001E001FC001E000FFFF80007FFFFF8000000007FFFFFC000000003FF8
310
0FFFFFFFFFFFFFC07FFFFFF0001FFFFFF8001FFFFFFFFC000FF8001FFFFFFFFC
310
000FFF0003FFFFFFFFFFFFE000000003F000FFFE0000000007FFF8001E000FC0
310
01E0007FFF80007FFFFE0000000007FFFFE0000000007FF80FFFFFFFFFFFFFC0
310
7FFFFFF0001FFFFFF0001FFFFFFFFC0007F0001FFFFFFFFC0007FF0003FFFFFF
310
FFFFFF0000000003F000FFF80000000007FFF8001E000FC003E0007FFF80007F
310
FFF0000000000FFFFF8000000000FFF80FFFFFFFFFFFFFC07FFFFFF0001FFFFF
310
F0001FFFFFFFFC0007F0001FFFFFFFFC0007FF0003FFFFFFFFFFFC0000000007
310
F000FFE0000000000FFFF0003E000FC003E0007FFF80007FFFC0000000001FFF
310
FE0000000001FFF80FFFFFFFFFFFFFC07FFFFFF0001FFFFFF0001FFFFFFFFC00
310
07F0001FFFFFFFFC0007FF0003FFFFFFFFFFF0000000000FF000FFC000000000
310
1FFFF0003F000F8003F0003FFF80007FFF80000000003FFFF80000000003FFF8
310
0FFFFFFFFFFFFFC07FFFFFF0001FFFFFF0001FFFFFFFFC0007F0001FFFFFFFFC
310
0007FF0003FFFFFFFFFFE0000000001FF000FF00000000007FFFF0003F000780
310
03F0003FFF80007FFF00000000007FFFF00000000007FFF80FFFFFFFFFFFFFC0
310
7FFFFFF0001FFFFFF0001FFFFFFFFC0007F0001FFFFFFFFC0007FF0003FFFFFF
310
FFFF80000000007FF000FE0000000000FFFFE0003F00078007F0003FFF80007F
310
FE0000000001FFFFE0000000001FFFF80FFFFFFFFFFFFFC07FFFFFF0001FFFFF
310
F0001FFFFFFFFC0007F0001FFFFFFFFC0007FF0003FFFFFFFFFF0000000000FF
310
F000FC0000000003FFFFE0007F00078007F0003FFF80007FFC0000000007FFFF
310
C0000000007FFFF80FFFFFFFFFFFFFC07FFFFFF0001FFFFFF8001FFFFFFFFC00
310
0FF8001FFFFFFFFC000FFF0003FFFFFFFFFE0000000003FFF000FC000000000F
310
FFFFE0007F80070007F8001FFF80007FF8000000001FFFFF8000000001FFFFF8
310
0FFFFFFFFFFFFFC07FFFFFF0001FFFFFF8001FFFFFFFFC000FF8001FFFFFFFFC
310
000FFF0003FFFFFFFFFC000000000FFFF000F8000000007FFFFFE0007F800700
310
07F8001FFF80007FF000000000FFFFFF800000000FFFFFF80FFFFFFFFFFFFFC0
310
7FFFFFF0001FFFFFF8000FFFFFFFF8000FF8000FFFFFFFF8000FFF0003FFFFFF
310
FFFC000000007FFFF000F800000007FFFFFFC0007F8003000FF8001FFF80007F
310
F000000007FFFFFF000000007FFFFFF80FFFFFFFFFFFFFC07FFFFFF0001FFFFF
310
F8000FFFFFFFF8000FF8000FFFFFFFF8000FFF0003FFFFFFFFF80000000FFFFF
310
F000F0000000FFFFFFFFC000FF8003000FF8001FFF80007FE0000000FFFFFFFF
310
0000000FFFFFFFF8000001FFFE0000007FFFFFF0001FFFFFF8000FFFFFFFF800
310
0FF8000FFFFFFFF8000FFF0003FFFFFFFFF8000000FFFFFFF000F000000FFFFF
310
FFFFC000FFC002000FF8000FFF80007FE000001FFFFFFFFE000001FFFFFFFFF8
310
000001FFFE0000007FFFFFF0001FFFFFF8000FFFFFFFF8000FF8000FFFFFFFF8
310
000FFF0003FFFFFFFFF000001FFFFFFFF000E00000FFFFFFFFFFC000FFC00200
310
0FFC000FFF80007FE00001FFFFFFFFFE00001FFFFFFFFFF8000001FFFE000000
310
7FFFFFF0001FFFFFFC000FFFFFFFF8001FFC000FFFFFFFF8001FFF0003FFFFFF
310
FFF00001FFFFFFFFF000E00007FFFFFFFFFF8000FFC000001FFC000FFF80007F
310
C0000FFFFFFFFFFE0000FFFFFFFFFFF8000001FFFE0000007FFFFFF0001FFFFF
310
FC0007FFFFFFF0001FFC0007FFFFFFF0001FFF0003FFFFFFFFF00007FFFFFFFF
310
F000E0001FFFFFFFFFFF8000FFC000001FFC000FFF80007FC0003FFFFFFFFFFE
310
0001FFFFFFFFFFF8000001FFFE0000007FFFFFF0001FFFFFFC0007FFFFFFF000
310
1FFC0007FFFFFFF0001FFF0003FFFFFFFFF0001FFFFFFFFFF000E0003FFFFF00
310
03FF8001FFE000001FFC0007FF80007FC0007FFFFF0007FC0003FFFFF0003FF8
310
000001FFFE0000007FFFFFF0001FFFFFFC0003FFFFFFE0001FFC0003FFFFFFE0
310
001FFF0003FFFFFFFFF0003FFFFFFFFFF000E0003FFFFF0001FF8001FFE00000
310
1FFE0007FF80007FC0007FFFFE0003FC0007FFFFE0003FF8000001FFFE000000
310
7FFFFFF0001FFFFFFE0003FFFFFFE0003FFE0003FFFFFFE0003FFF0003FFFFFF
310
FFF0003FFFFF8001F000E0003FFFFF0001FF0001FFE000001FFE0007FF80007F
310
C0007FFFFE0003FC0007FFFFE0003FF8000001FFFE0000007FFFFFF0001FFFFF
310
FE0001FFFFFFC0003FFE0001FFFFFFC0003FFF0003FFFFFFFFF0003FFFFF0001
310
F000E0003FFFFF0003FF0001FFE000003FFE0007FF80007FC0007FFFFE0003FC
310
0007FFFFE0003FF8000001FFFE0000007FFFFFF0001FFFFFFF0001FFFFFFC000
310
7FFF0001FFFFFFC0007FFF0003FFFFFFFFF0003FFFFF0001F000E0003FFFFE00
310
03FF0003FFF000003FFE0003FF80007FC0007FFFFC0003FE0007FFFFE0003FF8
310
000001FFFE0000007FFFFFF0001FFFFFFF0000FFFFFF80007FFF0000FFFFFF80
310
007FFF0003FFFFFFFFF0003FFFFF0001F000E0003FFFFE0003FF0003FFF00000
310
3FFF0003FF80007FC0007FFFFC0007FE0007FFFFC0003FF8000001FFFE000000
310
7FFFFFF0001FFFFFFF80007FFFFF0000FFFF80007FFFFF0000FFFF0003FFFFFF
310
FFF0003FFFFF0003F000E0003FFFFC0003FE0003FFF000003FFF0003FF80007F
310
E0003FFFF80007FE0003FFFFC0007FF8000001FFFE0000007FFFFFF0001FFFFF
310
FF80003FFFFE0000FFFF80003FFFFE0000FFFF0003FFFFFFFFF0001FFFFE0003
310
F000F0001FFFF80003FE0003FFF000007FFF0001FF80007FE0003FFFF00007FE
310
0001FFFF80007FF8000001FFFE0000007FFFFFF0001FFFFFFFC0000FFFF80001
310
FFFFC0000FFFF80001FFFF0003FFFFFFFFF0001FFFFC0003F000F0000FFFF000
310
07FE0007FFF800007FFF0001FF80007FE0001FFFE00007FF0000FFFE00007FF8
310
000001FFFE0000007FFFFFF0001FFFFFFFC00003FFE00001FFFFC00003FFE000
310
01FFFF0003FFFFFFFFF8000FFFF80003F000F00003FFC00007FC0007FFF80000
310
7FFF8001FF80007FF00007FF80000FFF00007FF80000FFF8000001FFFE000000
310
7F80000000000001FFE000003E000003FFFFE000003E000003FFFF0003FFFFFF
310
FFF80003FFE00007F000F800000000000FFC0007FFF800007FFF8001FF80007F
310
F000000000000FFF000000000000FFF8000001FFFE0000007F80000000000001
310
FFF0000000000007FFFFF0000000000007FFFF0003FFFFFFFFFC00007E000007
310
F000F800000000000FFC0007FFF80000FFFF8000FF80007FF800000000001FFF
310
800000000001FFF8000001FFFE0000007F80000000000001FFF800000000000F
310
FFFFF800000000000FFFFF0003FFFFFFFFFC00000000000FF000FC0000000000
310
1FFC0007FFFC0000FFFF8000FF80007FF800000000003FFFC00000000001FFF8
310
000001FFFE0000007F80000000000001FFF800000000000FFFFFF80000000000
310
0FFFFF0003FFFFFFFFFE00000000001FF000FE00000000003FF8000FFFFC0000
310
FFFF8000FF80007FFC00000000003FFFC00000000003FFF8000001FFFE000000
310
7F80000000000001FFFC00000000001FFFFFFC00000000001FFFFF0003FFFFFF
310
FFFF00000000001FF000FF00000000003FF8000FFFFC0000FFFFC000FF80007F
310
FE00000000007FFFE00000000007FFF8000001FFFE0000007F80000000000001
310
FFFE00000000003FFFFFFE00000000003FFFFF0003FFFFFFFFFF80000000003F
310
F000FF80000000007FF8000FFFFC0001FFFFC0007F80007FFF0000000000FFFF
310
F0000000000FFFF800000000000000007F80000000000001FFFF8000000000FF
310
FFFFFF8000000000FFFFFF0003FFFFFFFFFFC0000000007FF000FFC000000000
310
FFF8000FFFFE0001FFFFC0007F80007FFF8000000001FFFFF8000000001FFFF8
310
00000000000000007F80000000000001FFFFC000000001FFFFFFFFC000000001
310
FFFFFF0003FFFFFFFFFFE000000000FFF000FFE000000003FFF0001FFFFE0001
310
FFFFC0007F80007FFFC000000007FFFFFE000000003FFFF80000000000000000
310
7F80000000000001FFFFE000000003FFFFFFFFE000000003FFFFFF0003FFFFFF
310
FFFFF000000003FFF000FFF80000000FFFF0001FFFFE0001FFFFE0007F80007F
310
FFF00000000FFFFFFF00000000FFFFF800000000000000007F80000000000001
310
FFFFF80000000FFFFFFFFFF80000000FFFFFFF0003FFFFFFFFFFFC0000000FFF
310
F000FFFE0000003FFFF0001FFFFE0003FFFFE0003F80007FFFFC0000003FFFFF
310
FFC0000003FFFFF800000000000000007F80000000000001FFFFFE0000003FFF
310
FFFFFFFE0000003FFFFFFF0003FFFFFFFFFFFF0000003FFFF000FFFF800000FF
310
FFF0001FFFFF0003FFFFE0003F80007FFFFF000001FFFFFFFFF800001FFFFFF8
310
00000000000000007F80000000000001FFFFFFC00001FFFFFFFFFFFFC00001FF
310
FFFFFF0003FFFFFFFFFFFFC00000FFFFF000FFFFF8000FFFFFFFFFFFFFFFFFFF
310
FFFFFFFFFFFFFFFFFFFFF0001FFFFFFFFFFF0000FFFFFFF80000000000000000
310
7FFFFFFFFFFFFFFFFFFFFFFC001FFFFFFFFFFFFFFC001FFFFFFFFFFFFFFFFFFF
310
FFFFFFFC001FFFFFF000FFFFFFFFFFFFFFFFFFFFFFFFFFFFFFFFFFFFFFFFFFFF
310
FFFFFFFFFFFFFFFFFFFFFFFFFFFFFFFFFFFFFFFFFFFFFFFFFFFFFFFFFFFFFFFF
310
FFFFFFFFFFFFFFFFFFFFFFFFFFFFFFFFFFFFFFFFFFFFFFFFFFFFFFFFFFFFFFFF
310
F000FFFFFFFFFFFFFFFFFFFFFFFFFFFFFFFFFFFFFFFFFFFFFFFFFFFFFFFFFFFF
310
FFFFFFFFFFFFFFFFFFFFFFFFFFFFFFFFFFFFFFFFFFFFFFFFFFFFFFFFFFFFFFFF
310
FFFFFFFFFFFFFFFFFFFFFFFFFFFFFFFFFFFFFFFFFFFFFFFFF000FFFFFFFFFFFF
310
FFFFFFFFFFFFFFFFFFFFFFFFFFFFFFFFFFFFFFFFFFFFFFFFFFFFFFFFFFFFFFFF
310
FFFFFFFFFFFFFFFFFFFFFFFFFFFFFFFFFFFFFFFFFFFFFFFFFFFFFFFFFFFFFFFF
310
FFFFFFFFFFFFFFFFFFFFFFFFFFFFFFFFF000FFFFFFFFFFFFFFFFFFFFFFFFFFFF
310
FFFFFFFFFFFFFFFFFFFFFFFFFFFFFFFFFFFFFFFFFFFFFFFFFFFFFFFFFFFFFFFF
310
FFFFFFFFFFFFFFFFFFFFFFFFFFFFFFFFFFFFFFFFFFFFFFFFFFFFFFFFFFFFFFFF
310
FFFFFFFFFFFFFFFFF000FFFFFFFFFFFFFFFFFFFFFFFFFFFFFFFFFFFFFFFFFFFF
310
FFFFFFFFFFFFFFFFFFFFFFFFFFFFFFFFFFFFFFFFFFFFFFFFFFFFFFFFFFFFFFFF
310
FFFFFFFFFFFFFFFFFFFFFFFFFFFFFFFFFFFFFFFFFFFFFFFFFFFFFFFFFFFFFFFF
310
F000FFFFFFFFFFFFFFFFFFFFFFFFFFFFFFFFFFFFFFFFFFFFFFFFFFFFFFFFFFFF
310
FFFFFFFFFFFFFFFFFFFFFFFFFFFFFFFFFFFFFFFFFFFFFFFFFFFFFFFFFFFFFFFF
310
FFFFFFFFFFFFFFFFFFFFFFFFFFFFFFFFFFFFFFFFFFFFFFFFF000FFFFFFFFFFFF
310
FFFFFFFFFFFFFFFFFFFFFFFFFFFFFFFFFFFFFFFFFFFFFFFFFFFFFFFFFFFFFFFF
310
FFFFFFFFFFFFFFFFFFFFFFFFFFFFFFFFFFFFFFFFFFFFFFFFFFFFFFFFFFFFFFFF
310
FFFFFFFFFFFFFFFFFFFFFFFFFFFFFFFFF000FFFFFFFFFFFFFFFFFFFFFFFFFFFF
310
FFFFFFFFFFFFFFFFFFFFFFFFFFFFFFFFFFFFFFFFFFFFFFFFFFFFFFFFFFFFFFFF
310
FFFFFFFFFFFFFFFFFFFFFFFFFFFFFFFFFFFFFFFFFFFFFFFFFFFFFFFFFFFFFFFF
310
FFFFFFFFFFFFFFFFF000FFFFFFFFFFFFFFFFFFFFFFFFFFFFFFFFFFFFFFFFFFFF
310
FFFFFFFFFFFFFFFFFFFFFFFFFFFFFFFFFFFFFFFFFFFFFFFFFFFFFFFFFFFFFFFF
310
FFFFFFFFFFFFFFFFFFFFFFFFFFFFFFFFFFFFFFFFFFFFFFFFFFFFFFFFFFFFFFFF
310
F000FFFFFFFFFFFFFFFFFFFFFFFFFFFFFFFFFFFFFFFFFFFFFFFFFFFFFFFFFFFF
310
FFFFFFFFFFFFFFFFFFFFFFFFFFFFFFFFFFFFFFFFFFFFFFFFFFFFFFFFFFFFFFFF
310
FFFFFFFFFFFFFFFFFFFFFFFFFFFFFFFFFFFFFFFFFFFFFFFFF000FFFFFFFFFFFF
310
FFFFFFFFFFFFFFFFFFFFFFFFFFFFFFFFFFFFFFFFFFFFFFFFFFFFFFFFFFFFFFFF
310
FFFFFFFFFFFFFFFFFFFFFFFFFFFFFFFFFFFFFFFFFFFFFFFFFFFFFFFFFFFFFFFF
310
FFFFFFFFFFFFFFFFFFFFFFFFFFFFFFFFF000FFFFFFFFFFFFFFFFFFFFFFFFFFFF
310
FFFFFFFFFFFFFFFFFFFFFFFFFFFFFFFFFFFFFFFFFFFFFFFFFFFFFFFFFFFFFFFF
310
FFFFFFFFFFFFFFFFFFFFFFFFFFFFFFFFFFFFFFFFFFFFFFFFFFFFFFFFFFFFFFFF
310
FFFFFFFFFFFFFFFFF000FFFFFFFFFFFFFFFFFFFFFFFFFFFFFFFFFFFFFFFFFFFF
310
FFFFFFFFFFFFFFFFFFFFFFFFFFFFFFFFFFFFFFFFFFFFFFFFFFFFFFFFFFFFFFFF
310
FFFFFFFFFFFFFFFFFFFFFFFFFFFFFFFFFFFFFFFFFFFFFFFFFFFFFFFFFFFFFFFF
310
F000FFFFFFFFFFFFFFFFFFFFFFFFFFFFFFFFFFFFFFFFFFFFFFFFFFFFFFFFFFFF
310
FFFFFFFFFFFFFFFFFFFFFFFFFFFFFFFFFFFFFFFFFFFFFFFFFFFFFFFFFFFFFFFF
310
FFFFFFFFFFFFFFFFFFFFFFFFFFFFFFFFFFFFFFFFFFFFFFFFF000FFFFFFFFFFFF
310
FFFFFFFFFFFFFFFFFFFFFFFFFFFFFFFFFFFFFFFFFFFFFFFFFFFFFFFFFFFFFFFF
310
FFFFFFFFFFFFFFFFFFFFFFFFFFFFFFFFFFFFFFFFFFFFFFFFFFFFFFFFFFFFFFFF
310
FFFFFFFFFFFFFFFFFFFFFFFFFFFFFFFFF000FFFFFFFFFFFFFFFFFFFFFFFFFFFF
310
FFFFFFFFFFFFFFFFFFFFFFFFFFFFFFFFFFFFFFFFFFFFFFFFFFFFFFFFFFFFFFFF
310
FFFFFFFFFFFFFFFFFFFFFFFFFFFFFFFFFFFFFFFFFFFFFFFFFFFFFFFFFFFFFFFF
310
FFFFFFFFFFFFFFFFF000FFFFFFFFFFFFFFFFFFFFFFFFFFFFFFFFFFFFFFFFFFFF
310
FFFFFFFFFFFFFFFFFFFFFFFFFFFFFFFFFFFFFFFFFFFFFFFFFFFFFFFFFFFFFFFF
310
FFFFFFFFFFFFFFFFFFFFFFFFFFFFFFFFFFFFFFFFFFFFFFFFFFFFFFFFFFFFFFFF
310
F000FFFFFFFFFFFFFFFFFFFFFFFFFFFFFFFFFFFFFFFFFFFFFFFFFFFFFFFFFFFF
310
FFFFFFFFFFFFFFFFFFFFFFFFFFFFFFFFFFFFFFFFFFFFFFFFFFFFFFFFFFFFFFFF
310
FFFFFFFFFFFFFFFFFFFFFFFFFFFFFFFFFFFFFFFFFFFFFFFFF000FFFFFFFFFFFF
310
FFFFFFFFFFFFFFFFFFFFFFFFFFFFFFFFFFFFFFFFFFFFFFFFFFFFFFFFFFFFFFFF
310
FFFFFFFFFFFFFFFFFFFFFFFFFFFFFFFFFFFFFFFFFFFFFFFFFFFFFFFFFFFFFFFF
310
FFFFFFFFFFFFFFFFFFFFFFFFFFFFFFFFF000FFFFFFFFFFFFFFFFFFFFFFFFFFFF
310
FFFFFFFFFFFFFFFFFFFFFFFFFFFFFFFFFFFFFFFFFFFFFFFFFFFFFFFFFFFFFFFF
310
FFFFFFFFFFFFFFFFFFFFFFFFFFFFFFFFFFFFFFFFFFFFFFFFFFFFFFFFFFFFFFFF
310
FFFFFFFFFFFFFFFFF000FFFFFFFFFFFFFFFFFFFFFFFFFFFFFFFFFFFFFFFFFFFF
310
FFFFFFFFFFFFFFFFFFFFFFFFFFFFFFFFFFFFFFFFFFFFFFFFFFFFFFFFFFFFFFFF
310
FFFFFFFFFFFFFFFFFFFFFFFFFFFFFFFFFFFFFFFFFFFFFFFFFFFFFFFFFFFFFFFF
310
F000FFFFFFFFFFFFFFFFFFFFFFFFFFFFFFFFFFFFFFFFFFFFFFFFFFFFFFFFFFFF
310
FFFFFFFFFFFFFFFFFFFFFFFFFFFFFFFFFFFFFFFFFFFFFFFFFFFFFFFFFFFFFFFF
310
FFFFFFFFFFFFFFFFFFFFFFFFFFFFFFFFFFFFFFFFFFFFFFFFF000FFFFFFFFFFFF
310
FFFFFFFFFFFFFFFFFFFFFFFFFFFFFFFFFFFFFFFFFFFFFFFFFFFFFFFFFFFFFFFF
310
FFFFFFFFFFFFFFFFFFFFFFFFFFFFFFFFFFFFFFFFFFFFFFFFFFFFFFFFFFFFFFFF
310
FFFFFFFFFFFFFFFFFFFFFFFFFFFFFFFFF0000000000000000000000000000000
310
00000000000000000000000042006C00610063006B0000000000000000000000
310
0000000000000000000000000000000000000000000000000000000000000000
310
0000000000000000000000000000FFFFFFFFFFFFFFFFFFFFFFFFFFFFFFFFFFFF
310
FFFFFFFFFFFFFFFFFFFFFFFFFFFFFFFFFFFFFFFFFFFFFFFFFFFFFFFFFFFFFFFF
310
FFFFFFFFFFFFFFFFFFFFFFFF6476000800000000FFFFFFFF20FF202026000000
310
1E00000008000000060000000000000011000000200000008403000000000000
310
6000000060000000200002FB200020000000002B00FFFFFF40002200E8030000
310
A80400001C020000AF0000804A20004000000000000000000100000000000000
310
616C000800000000E40100007001000002000000270000001100000000000000
310
00000000BC0200000000000003020122420065006C006C00200047006F007400
310
680069006300200053007400640020004C006900670068007400000000000000
310
00000000000000000000000000000000420065006C006C0047006F0074006800
310
690063005300740064002D0042006F006C006400000000000000000000000000
310
0000000000000000000000000000000000000000000000000000000000000000
310
0000000000000000000000000000000000000000000000000000000000000000
  1
OLE
  0
ENDSEC
  0
SECTION
  2
OBJECTS
  0
DICTIONARY
  5
C
330
0
100
AcDbDictionary
281
     1
  3
ACAD_GROUP
350
D
  3
ACAD_LAYOUT
350
1A
  3
ACAD_MLEADERSTYLE
350
20E
  3
ACAD_MLINESTYLE
350
17
  3
ACAD_PLOTSETTINGS
350
19
  3
ACAD_PLOTSTYLENAME
350
E
  3
ACAD_TABLESTYLE
350
20D
  3
ACAD_VISUALSTYLE
350
2A
  3
AcDbVariableDictionary
350
20F
  0
DICTIONARY
  5
D
102
{ACAD_REACTORS
330
C
102
}
330
C
100
AcDbDictionary
281
     1
  0
DICTIONARY
  5
1A
102
{ACAD_REACTORS
330
C
102
}
330
C
100
AcDbDictionary
281
     1
  3
Layout1
350
1E
  3
Layout2
350
26
  3
Model
350
22
  0
DICTIONARY
  5
20E
102
{ACAD_REACTORS
330
C
102
}
330
C
100
AcDbDictionary
281
     1
  0
DICTIONARY
  5
17
102
{ACAD_REACTORS
330
C
102
}
330
C
100
AcDbDictionary
281
     1
  3
Standard
350
18
  0
DICTIONARY
  5
19
102
{ACAD_REACTORS
330
C
102
}
330
C
100
AcDbDictionary
281
     1
  0
ACDBDICTIONARYWDFLT
  5
E
102
{ACAD_REACTORS
330
C
102
}
330
C
100
AcDbDictionary
281
     1
  3
Normal
350
F
100
AcDbDictionaryWithDefault
340
F
  0
DICTIONARY
  5
20D
102
{ACAD_REACTORS
330
C
102
}
330
C
100
AcDbDictionary
281
     1
  0
DICTIONARY
  5
2A
102
{ACAD_REACTORS
330
C
102
}
330
C
100
AcDbDictionary
281
     1
  3
2dWireframe
350
2F
  3
3D Hidden
350
31
  3
3dWireframe
350
30
  3
Basic
350
32
  3
Brighten
350
36
  3
ColorChange
350
3A
  3
Conceptual
350
34
  3
Dim
350
35
  3
Facepattern
350
39
  3
Flat
350
2B
  3
FlatWithEdges
350
2C
  3
Gouraud
350
2D
  3
GouraudWithEdges
350
2E
  3
Linepattern
350
38
  3
Realistic
350
33
  3
Thicken
350
37
  0
DICTIONARY
  5
20F
102
{ACAD_REACTORS
330
C
102
}
330
C
100
AcDbDictionary
281
     1
  3
PSOLHEIGHT
350
211
  3
PSOLWIDTH
350
210
  0
LAYOUT
  5
1E
102
{ACAD_REACTORS
330
1A
102
}
330
1A
100
AcDbPlotSettings
  1

  2
none_device
  4

  6

 40
0.0
 41
0.0
 42
0.0
 43
0.0
 44
0.0
 45
0.0
 46
0.0
 47
0.0
 48
0.0
 49
0.0
140
0.0
141
0.0
142
1.0
143
1.0
 70
   688
 72
     0
 73
     0
 74
     5
  7

 75
    16
147
1.0
148
0.0
149
0.0
100
AcDbLayout
  1
Layout1
 70
     1
 71
     1
 10
0.0
 20
0.0
 11
420.0
 21
297.0
 12
0.0
 22
0.0
 32
0.0
 14
1.0000000000E+20
 24
1.0000000000E+20
 34
1.0000000000E+20
 15
-1.0000000000E+20
 25
-1.0000000000E+20
 35
-1.0000000000E+20
146
0.0
 13
0.0
 23
0.0
 33
0.0
 16
1.0
 26
0.0
 36
0.0
 17
0.0
 27
1.0
 37
0.0
 76
     0
330
1B
  0
LAYOUT
  5
26
102
{ACAD_REACTORS
330
1A
102
}
330
1A
100
AcDbPlotSettings
  1

  2
none_device
  4

  6

 40
0.0
 41
0.0
 42
0.0
 43
0.0
 44
0.0
 45
0.0
 46
0.0
 47
0.0
 48
0.0
 49
0.0
140
0.0
141
0.0
142
1.0
143
1.0
 70
   688
 72
     0
 73
     0
 74
     5
  7

 75
    16
147
1.0
148
0.0
149
0.0
100
AcDbLayout
  1
Layout2
 70
     1
 71
     2
 10
0.0
 20
0.0
 11
0.0
 21
0.0
 12
0.0
 22
0.0
 32
0.0
 14
0.0
 24
0.0
 34
0.0
 15
0.0
 25
0.0
 35
0.0
146
0.0
 13
0.0
 23
0.0
 33
0.0
 16
1.0
 26
0.0
 36
0.0
 17
0.0
 27
1.0
 37
0.0
 76
     0
330
23
  0
LAYOUT
  5
22
102
{ACAD_REACTORS
330
1A
102
}
330
1A
100
AcDbPlotSettings
  1

  2
none_device
  4

  6

 40
0.0
 41
0.0
 42
0.0
 43
0.0
 44
0.0
 45
0.0
 46
0.0
 47
0.0
 48
0.0
 49
0.0
140
0.0
141
0.0
142
1.0
143
1.0
 70
  1712
 72
     0
 73
     0
 74
     0
  7

 75
     0
147
1.0
148
0.0
149
0.0
100
AcDbLayout
  1
Model
 70
     1
 71
     0
 10
0.0
 20
0.0
 11
297.0
 21
210.0
 12
0.0
 22
0.0
 32
0.0
 14
0.0
 24
0.0
 34
0.0
 15
297.0
 25
210.0
 35
0.0
146
0.0
 13
0.0
 23
0.0
 33
0.0
 16
1.0
 26
0.0
 36
0.0
 17
0.0
 27
1.0
 37
0.0
 76
     0
330
1F
331
29
  0
MLINESTYLE
  5
18
102
{ACAD_REACTORS
330
17
102
}
330
17
100
AcDbMlineStyle
  2
Standard
 70
     0
  3

 62
   256
 51
90.0
 52
90.0
 71
     2
 49
0.5
 62
   256
  6
BYLAYER
 49
-0.5
 62
   256
  6
BYLAYER
  0
ACDBPLACEHOLDER
  5
F
102
{ACAD_REACTORS
330
E
102
}
330
E
  0
VISUALSTYLE
  5
2F
102
{ACAD_REACTORS
330
2A
102
}
330
2A
100
AcDbVisualStyle
  2
2dWireframe
 70
     4
 71
     0
 72
     2
 73
     0
 90
        0
 40
-0.6
 41
-30.0
 62
     5
 63
     7
 74
     1
 91
        4
 64
     7
 65
   257
 75
     1
175
     1
 42
1.0
 92
        0
 66
   257
 43
1.0
 76
     1
 77
     6
 78
     2
 67
     7
 79
     5
170
     0
171
     0
290
     0
174
     0
 93
        1
 44
0.0
173
     0
291
     0
 45
0.0
1001
ACAD
1000
AcDbSavedByObjectVersion
1070
     0
  0
VISUALSTYLE
  5
31
102
{ACAD_REACTORS
330
2A
102
}
330
2A
100
AcDbVisualStyle
  2
3D Hidden
 70
     6
 71
     1
 72
     2
 73
     2
 90
        0
 40
-0.6
 41
-30.0
 62
     5
 63
     7
 74
     2
 91
        2
 64
     7
 65
   257
 75
     2
175
     1
 42
40.0
 92
        0
 66
   257
 43
1.0
 76
     1
 77
     6
 78
     2
 67
     7
 79
     3
170
     0
171
     0
290
     0
174
     0
 93
        1
 44
0.0
173
     0
291
     0
 45
0.0
1001
ACAD
1000
AcDbSavedByObjectVersion
1070
     0
  0
VISUALSTYLE
  5
30
102
{ACAD_REACTORS
330
2A
102
}
330
2A
100
AcDbVisualStyle
  2
3dWireframe
 70
     5
 71
     0
 72
     2
 73
     0
 90
        0
 40
-0.6
 41
-30.0
 62
     5
 63
     7
 74
     1
 91
        4
 64
     7
 65
   257
 75
     1
175
     1
 42
1.0
 92
        0
 66
   257
 43
1.0
 76
     1
 77
     6
 78
     2
 67
     7
 79
     5
170
     0
171
     0
290
     0
174
     0
 93
        1
 44
0.0
173
     0
291
     0
 45
0.0
1001
ACAD
1000
AcDbSavedByObjectVersion
1070
     0
  0
VISUALSTYLE
  5
32
102
{ACAD_REACTORS
330
2A
102
}
330
2A
100
AcDbVisualStyle
  2
Basic
 70
     7
 71
     1
 72
     0
 73
     1
 90
        0
 40
-0.6
 41
-30.0
 62
     5
 63
     7
 74
     0
 91
        4
 64
     7
 65
   257
 75
     1
175
     1
 42
1.0
 92
        8
 66
     7
 43
1.0
 76
     1
 77
     6
 78
     2
 67
     7
 79
     5
170
     0
171
     0
290
     0
174
     0
 93
        1
 44
0.0
173
     0
291
     1
 45
0.0
1001
ACAD
1000
AcDbSavedByObjectVersion
1070
     0
  0
VISUALSTYLE
  5
36
102
{ACAD_REACTORS
330
2A
102
}
330
2A
100
AcDbVisualStyle
  2
Brighten
 70
    12
 71
     2
 72
     2
 73
     0
 90
        0
 40
-0.6
 41
-30.0
 62
     5
 63
     7
 74
     1
 91
        4
 64
     7
 65
   257
 75
     1
175
     1
 42
1.0
 92
        8
 66
     7
 43
1.0
 76
     1
 77
     6
 78
     2
 67
     7
 79
     5
170
     0
171
     0
290
     0
174
     0
 93
        1
 44
50.0
173
     0
291
     1
 45
0.0
1001
ACAD
1000
AcDbSavedByObjectVersion
1070
     0
  0
VISUALSTYLE
  5
3A
102
{ACAD_REACTORS
330
2A
102
}
330
2A
100
AcDbVisualStyle
  2
ColorChange
 70
    16
 71
     2
 72
     2
 73
     3
 90
        0
 40
-0.6
 41
-30.0
 62
     5
 63
     8
 74
     1
 91
        4
 64
     7
 65
   257
 75
     1
175
     1
 42
1.0
 92
        8
 66
     8
 43
1.0
 76
     1
 77
     6
 78
     2
 67
     7
 79
     5
170
     0
171
     0
290
     0
174
     0
 93
        1
 44
0.0
173
     0
291
     1
 45
0.0
1001
ACAD
1000
AcDbSavedByObjectVersion
1070
     0
  0
VISUALSTYLE
  5
34
102
{ACAD_REACTORS
330
2A
102
}
330
2A
100
AcDbVisualStyle
  2
Conceptual
 70
     9
 71
     3
 72
     2
 73
     0
 90
        0
 40
-0.6
 41
-30.0
 62
     5
 63
     7
 74
     2
 91
        2
 64
     7
 65
   257
 75
     1
175
     1
 42
40.0
 92
        8
 66
     7
 43
1.0
 76
     1
 77
     6
 78
     2
 67
     7
 79
     3
170
     0
171
     0
290
     0
174
     0
 93
        1
 44
0.0
173
     0
291
     0
 45
0.0
1001
ACAD
1000
AcDbSavedByObjectVersion
1070
     0
  0
VISUALSTYLE
  5
35
102
{ACAD_REACTORS
330
2A
102
}
330
2A
100
AcDbVisualStyle
  2
Dim
 70
    11
 71
     2
 72
     2
 73
     0
 90
        0
 40
-0.6
 41
-30.0
 62
     5
 63
     7
 74
     1
 91
        4
 64
     7
 65
   257
 75
     1
175
     1
 42
1.0
 92
        8
 66
     7
 43
1.0
 76
     1
 77
     6
 78
     2
 67
     7
 79
     5
170
     0
171
     0
290
     0
174
     0
 93
        1
 44
-50.0
173
     0
291
     1
 45
0.0
1001
ACAD
1000
AcDbSavedByObjectVersion
1070
     0
  0
VISUALSTYLE
  5
39
102
{ACAD_REACTORS
330
2A
102
}
330
2A
100
AcDbVisualStyle
  2
Facepattern
 70
    15
 71
     2
 72
     2
 73
     0
 90
        0
 40
-0.6
 41
-30.0
 62
     5
 63
     7
 74
     1
 91
        4
 64
     7
 65
   257
 75
     1
175
     1
 42
1.0
 92
        8
 66
     7
 43
1.0
 76
     1
 77
     6
 78
     2
 67
     7
 79
     5
170
     0
171
     0
290
     0
174
     0
 93
        1
 44
0.0
173
     0
291
     1
 45
0.0
1001
ACAD
1000
AcDbSavedByObjectVersion
1070
     0
  0
VISUALSTYLE
  5
2B
102
{ACAD_REACTORS
330
2A
102
}
330
2A
100
AcDbVisualStyle
  2
Flat
 70
     0
 71
     2
 72
     1
 73
     1
 90
        2
 40
-0.6
 41
30.0
 62
     5
 63
     7
 74
     0
 91
        4
 64
     7
 65
   257
 75
     1
175
     1
 42
1.0
 92
        8
 66
     7
 43
1.0
 76
     1
 77
     6
 78
     2
 67
     7
 79
     5
170
     0
171
     0
290
     0
174
     0
 93
       13
 44
0.0
173
     0
291
     1
 45
0.0
1001
ACAD
1000
AcDbSavedByObjectVersion
1070
     0
  0
VISUALSTYLE
  5
2C
102
{ACAD_REACTORS
330
2A
102
}
330
2A
100
AcDbVisualStyle
  2
FlatWithEdges
 70
     1
 71
     2
 72
     1
 73
     1
 90
        2
 40
-0.6
 41
30.0
 62
     5
 63
     7
 74
     1
 91
        4
 64
     7
 65
   257
 75
     1
175
     1
 42
1.0
 92
        0
 66
   257
 43
1.0
 76
     1
 77
     6
 78
     2
 67
     7
 79
     5
170
     0
171
     0
290
     0
174
     0
 93
       13
 44
0.0
173
     0
291
     1
 45
0.0
1001
ACAD
1000
AcDbSavedByObjectVersion
1070
     0
  0
VISUALSTYLE
  5
2D
102
{ACAD_REACTORS
330
2A
102
}
330
2A
100
AcDbVisualStyle
  2
Gouraud
 70
     2
 71
     2
 72
     2
 73
     1
 90
        2
 40
-0.6
 41
30.0
 62
     5
 63
     7
 74
     0
 91
        4
 64
     7
 65
   257
 75
     1
175
     1
 42
1.0
 92
        0
 66
     7
 43
1.0
 76
     1
 77
     6
 78
     2
 67
     7
 79
     5
170
     0
171
     0
290
     0
174
     0
 93
       13
 44
0.0
173
     0
291
     1
 45
0.0
1001
ACAD
1000
AcDbSavedByObjectVersion
1070
     0
  0
VISUALSTYLE
  5
2E
102
{ACAD_REACTORS
330
2A
102
}
330
2A
100
AcDbVisualStyle
  2
GouraudWithEdges
 70
     3
 71
     2
 72
     2
 73
     1
 90
        2
 40
-0.6
 41
30.0
 62
     5
 63
     7
 74
     1
 91
        4
 64
     7
 65
   257
 75
     1
175
     1
 42
1.0
 92
        0
 66
   257
 43
1.0
 76
     1
 77
     6
 78
     2
 67
     7
 79
     5
170
     0
171
     0
290
     0
174
     0
 93
       13
 44
0.0
173
     0
291
     1
 45
0.0
1001
ACAD
1000
AcDbSavedByObjectVersion
1070
     0
  0
VISUALSTYLE
  5
38
102
{ACAD_REACTORS
330
2A
102
}
330
2A
100
AcDbVisualStyle
  2
Linepattern
 70
    14
 71
     2
 72
     2
 73
     0
 90
        0
 40
-0.6
 41
-30.0
 62
     5
 63
     7
 74
     1
 91
        4
 64
     7
 65
   257
 75
     7
175
     7
 42
1.0
 92
        8
 66
     7
 43
1.0
 76
     1
 77
     6
 78
     2
 67
     7
 79
     5
170
     0
171
     0
290
     0
174
     0
 93
        1
 44
0.0
173
     0
291
     1
 45
0.0
1001
ACAD
1000
AcDbSavedByObjectVersion
1070
     0
  0
VISUALSTYLE
  5
33
102
{ACAD_REACTORS
330
2A
102
}
330
2A
100
AcDbVisualStyle
  2
Realistic
 70
     8
 71
     2
 72
     2
 73
     0
 90
        0
 40
-0.6
 41
-30.0
 62
     5
 63
     7
 74
     1
 91
        0
 64
     7
 65
   257
 75
     1
175
     1
 42
1.0
 92
        8
 66
     8
 43
1.0
 76
     1
 77
     6
 78
     2
 67
     7
 79
     5
170
     0
171
     0
290
     0
174
     0
 93
       13
 44
0.0
173
     0
291
     0
 45
0.0
1001
ACAD
1000
AcDbSavedByObjectVersion
1070
     0
  0
VISUALSTYLE
  5
37
102
{ACAD_REACTORS
330
2A
102
}
330
2A
100
AcDbVisualStyle
  2
Thicken
 70
    13
 71
     2
 72
     2
 73
     0
 90
        0
 40
-0.6
 41
-30.0
 62
     5
 63
     7
 74
     1
 91
        4
 64
     7
 65
   257
 75
     1
175
     1
 42
1.0
 92
       12
 66
     7
 43
1.0
 76
     1
 77
     6
 78
     2
 67
     7
 79
     5
170
     0
171
     0
290
     0
174
     0
 93
        1
 44
0.0
173
     0
291
     1
 45
0.0
1001
ACAD
1000
AcDbSavedByObjectVersion
1070
     0
  0
DICTIONARYVAR
  5
211
102
{ACAD_REACTORS
330
20F
102
}
330
20F
100
DictionaryVariables
280
     0
  1
80.000000
  0
DICTIONARYVAR
  5
210
102
{ACAD_REACTORS
330
20F
102
}
330
20F
100
DictionaryVariables
280
     0
  1
5.000000
  0
ENDSEC
  0
EOF
