  0
SECTION
  2
HEADER
  9
$ACADVER
  1
AC1015
  9
$ACADMAINTVER
 70
     6
  9
$DWGCODEPAGE
  3
ANSI_1252
  9
$INSBASE
 10
0.0
 20
0.0
 30
0.0
  9
$EXTMIN
 10
0.0
 20
0.0
 30
0.0
  9
$EXTMAX
 10
297.0
 20
210.0
 30
0.0
  9
$LIMMIN
 10
0.0
 20
0.0
  9
$LIMMAX
 10
297.0
 20
210.0
  9
$ORTHOMODE
 70
     0
  9
$REGENMODE
 70
     1
  9
$FILLMODE
 70
     1
  9
$QTEXTMODE
 70
     0
  9
$MIRRTEXT
 70
     1
  9
$LTSCALE
 40
1.0
  9
$ATTMODE
 70
     1
  9
$TEXTSIZE
 40
2.0
  9
$TRACEWID
 40
1.0
  9
$TEXTSTYLE
  7
Standard
  9
$CLAYER
  8
0
  9
$CELTYPE
  6
ByLayer
  9
$CECOLOR
 62
   256
  9
$CELTSCALE
 40
1.0
  9
$DISPSILH
 70
     0
  9
$DIMSCALE
 40
1.0
  9
$DIMASZ
 40
3.0
  9
$DIMEXO
 40
0.0
  9
$DIMDLI
 40
3.75
  9
$DIMRND
 40
0.0
  9
$DIMDLE
 40
0.0
  9
$DIMEXE
 40
1.0
  9
$DIMTP
 40
0.0
  9
$DIMTM
 40
0.0
  9
$DIMTXT
 40
2.0
  9
$DIMCEN
 40
2.5
  9
$DIMTSZ
 40
0.0
  9
$DIMTOL
 70
     0
  9
$DIMLIM
 70
     0
  9
$DIMTIH
 70
     1
  9
$DIMTOH
 70
     1
  9
$DIMSE1
 70
     0
  9
$DIMSE2
 70
     0
  9
$DIMTAD
 70
     1
  9
$DIMZIN
 70
     0
  9
$DIMBLK
  1

  9
$DIMASO
 70
     1
  9
$DIMSHO
 70
     1
  9
$DIMPOST
  1

  9
$DIMAPOST
  1

  9
$DIMALT
 70
     0
  9
$DIMALTD
 70
     3
  9
$DIMALTF
 40
0.0393700787
  9
$DIMLFAC
 40
5.0
  9
$DIMTOFL
 70
     1
  9
$DIMTVP
 40
0.0
  9
$DIMTIX
 70
     0
  9
$DIMSOXD
 70
     0
  9
$DIMSAH
 70
     0
  9
$DIMBLK1
  1

  9
$DIMBLK2
  1

  9
$DIMSTYLE
  2
ISO-25
  9
$DIMCLRD
 70
     0
  9
$DIMCLRE
 70
     0
  9
$DIMCLRT
 70
     0
  9
$DIMTFAC
 40
1.0
  9
$DIMGAP
 40
1.524
  9
$DIMJUST
 70
     0
  9
$DIMSD1
 70
     0
  9
$DIMSD2
 70
     0
  9
$DIMTOLJ
 70
     0
  9
$DIMTZIN
 70
     0
  9
$DIMALTZ
 70
     0
  9
$DIMALTTZ
 70
     0
  9
$DIMUPT
 70
     0
  9
$DIMDEC
 70
     2
  9
$DIMTDEC
 70
     3
  9
$DIMALTU
 70
     2
  9
$DIMALTTD
 70
     3
  9
$DIMTXSTY
  7
Standard
  9
$DIMAUNIT
 70
     0
  9
$DIMADEC
 70
     2
  9
$DIMALTRND
 40
0.0
  9
$DIMAZIN
 70
     0
  9
$DIMDSEP
 70
    44
  9
$DIMATFIT
 70
     3
  9
$DIMFRAC
 70
     0
  9
$DIMLDRBLK
  1

  9
$DIMLUNIT
 70
     2
  9
$DIMLWD
 70
    -2
  9
$DIMLWE
 70
    -2
  9
$DIMTMOVE
 70
     0
  9
$LUNITS
 70
     2
  9
$LUPREC
 70
     2
  9
$SKETCHINC
 40
1.0
  9
$FILLETRAD
 40
10.0
  9
$AUNITS
 70
     0
  9
$AUPREC
 70
     2
  9
$MENU
  1
.
  9
$ELEVATION
 40
0.0
  9
$PELEVATION
 40
0.0
  9
$THICKNESS
 40
0.0
  9
$LIMCHECK
 70
     0
  9
$CHAMFERA
 40
0.0
  9
$CHAMFERB
 40
0.0
  9
$CHAMFERC
 40
0.0
  9
$CHAMFERD
 40
0.0
  9
$SKPOLY
 70
     0
  9
$TDCREATE
 40
2458166.552937685
  9
$TDUCREATE
 40
2458166.511271019
  9
$TDUPDATE
 40
2458166.552939387
  9
$TDUUPDATE
 40
2458166.51127272
  9
$TDINDWG
 40
0.0000000116
  9
$TDUSRTIMER
 40
0.0000000116
  9
$USRTIMER
 70
     1
  9
$ANGBASE
 50
0.0
  9
$ANGDIR
 70
     0
  9
$PDMODE
 70
     0
  9
$PDSIZE
 40
-1.0
  9
$PLINEWID
 40
0.0
  9
$SPLFRAME
 70
     0
  9
$SPLINETYPE
 70
     6
  9
$SPLINESEGS
 70
     8
  9
$HANDSEED
  5
273
  9
$SURFTAB1
 70
     6
  9
$SURFTAB2
 70
     6
  9
$SURFTYPE
 70
     6
  9
$SURFU
 70
     6
  9
$SURFV
 70
     6
  9
$UCSBASE
  2

  9
$UCSNAME
  2

  9
$UCSORG
 10
0.0
 20
0.0
 30
0.0
  9
$UCSXDIR
 10
1.0
 20
0.0
 30
0.0
  9
$UCSYDIR
 10
0.0
 20
1.0
 30
0.0
  9
$UCSORTHOREF
  2

  9
$UCSORTHOVIEW
 70
     0
  9
$UCSORGTOP
 10
0.0
 20
0.0
 30
0.0
  9
$UCSORGBOTTOM
 10
0.0
 20
0.0
 30
0.0
  9
$UCSORGLEFT
 10
0.0
 20
0.0
 30
0.0
  9
$UCSORGRIGHT
 10
0.0
 20
0.0
 30
0.0
  9
$UCSORGFRONT
 10
0.0
 20
0.0
 30
0.0
  9
$UCSORGBACK
 10
0.0
 20
0.0
 30
0.0
  9
$PUCSBASE
  2

  9
$PUCSNAME
  2

  9
$PUCSORG
 10
0.0
 20
0.0
 30
0.0
  9
$PUCSXDIR
 10
1.0
 20
0.0
 30
0.0
  9
$PUCSYDIR
 10
0.0
 20
1.0
 30
0.0
  9
$PUCSORTHOREF
  2

  9
$PUCSORTHOVIEW
 70
     0
  9
$PUCSORGTOP
 10
0.0
 20
0.0
 30
0.0
  9
$PUCSORGBOTTOM
 10
0.0
 20
0.0
 30
0.0
  9
$PUCSORGLEFT
 10
0.0
 20
0.0
 30
0.0
  9
$PUCSORGRIGHT
 10
0.0
 20
0.0
 30
0.0
  9
$PUCSORGFRONT
 10
0.0
 20
0.0
 30
0.0
  9
$PUCSORGBACK
 10
0.0
 20
0.0
 30
0.0
  9
$USERI1
 70
     0
  9
$USERI2
 70
     0
  9
$USERI3
 70
     0
  9
$USERI4
 70
     0
  9
$USERI5
 70
     0
  9
$USERR1
 40
0.0
  9
$USERR2
 40
0.0
  9
$USERR3
 40
0.0
  9
$USERR4
 40
0.0
  9
$USERR5
 40
0.0
  9
$WORLDVIEW
 70
     1
  9
$SHADEDGE
 70
     3
  9
$SHADEDIF
 70
    70
  9
$TILEMODE
 70
     1
  9
$MAXACTVP
 70
    64
  9
$PINSBASE
 10
0.0
 20
0.0
 30
0.0
  9
$PLIMCHECK
 70
     0
  9
$PEXTMIN
 10
1.0000000000E+20
 20
1.0000000000E+20
 30
1.0000000000E+20
  9
$PEXTMAX
 10
-1.0000000000E+20
 20
-1.0000000000E+20
 30
-1.0000000000E+20
  9
$PLIMMIN
 10
0.0
 20
0.0
  9
$PLIMMAX
 10
420.0
 20
297.0
  9
$UNITMODE
 70
     0
  9
$VISRETAIN
 70
     1
  9
$PLINEGEN
 70
     0
  9
$PSLTSCALE
 70
     1
  9
$TREEDEPTH
 70
  3020
  9
$CMLSTYLE
  2
Standard
  9
$CMLJUST
 70
     0
  9
$CMLSCALE
 40
20.0
  9
$PROXYGRAPHICS
 70
     1
  9
$MEASUREMENT
 70
     1
  9
$CELWEIGHT
370
    -1
  9
$ENDCAPS
280
     0
  9
$JOINSTYLE
280
     0
  9
$LWDISPLAY
290
     1
  9
$INSUNITS
 70
     4
  9
$HYPERLINKBASE
  1

  9
$STYLESHEET
  1

  9
$XEDIT
290
     1
  9
$CEPSNTYPE
380
     0
  9
$PSTYLEMODE
290
     1
  9
$FINGERPRINTGUID
  2
{D7D6F508-893A-4964-896E-7971E5D0662C}
  9
$VERSIONGUID
  2
{FAEB1C32-E019-11D5-929B-00C0DF256EC4}
  9
$EXTNAMES
290
     1
  9
$PSVPSCALE
 40
0.0
  9
$OLESTARTUP
290
     0
  0
ENDSEC
  0
SECTION
  2
CLASSES
  0
CLASS
  1
ACDBDICTIONARYWDFLT
  2
AcDbDictionaryWithDefault
  3
ObjectDBX Classes
 90
        0
280
     0
281
     0
  0
CLASS
  1
VISUALSTYLE
  2
AcDbVisualStyle
  3
ObjectDBX Classes
 90
     4095
280
     0
281
     0
  0
CLASS
  1
MATERIAL
  2
AcDbMaterial
  3
ObjectDBX Classes
 90
     1153
280
     0
281
     0
  0
CLASS
  1
SCALE
  2
AcDbScale
  3
ObjectDBX Classes
 90
     1153
280
     0
281
     0
  0
CLASS
  1
TABLESTYLE
  2
AcDbTableStyle
  3
ObjectDBX Classes
 90
     4095
280
     0
281
     0
  0
CLASS
  1
MLEADERSTYLE
  2
AcDbMLeaderStyle
  3
ACDB_MLEADERSTYLE_CLASS
 90
     4095
280
     0
281
     0
  0
CLASS
  1
SUN
  2
AcDbSun
  3
SCENEOE
 90
     1153
280
     0
281
     0
  0
CLASS
  1
ACDBPLACEHOLDER
  2
AcDbPlaceHolder
  3
ObjectDBX Classes
 90
        0
280
     0
281
     0
  0
CLASS
  1
LAYOUT
  2
AcDbLayout
  3
ObjectDBX Classes
 90
        0
280
     0
281
     0
  0
ENDSEC
  0
SECTION
  2
TABLES
  0
TABLE
  2
VPORT
  5
8
330
0
100
AcDbSymbolTable
 70
     1
  0
VPORT
  5
29
330
8
100
AcDbSymbolTableRecord
100
AcDbViewportTableRecord
  2
*Active
 70
     0
 10
0.0
 20
0.0
 11
1.0
 21
1.0
 12
148.5
 22
105.0
 13
0.0
 23
0.0
 14
10.0
 24
10.0
 15
10.0
 25
10.0
 16
0.0
 26
0.0
 36
1.0
 17
0.0
 27
0.0
 37
0.0
 40
210.0
 41
1.4142857143
 42
50.0
 43
0.0
 44
0.0
 50
0.0
 51
0.0
 71
     0
 72
  2000
 73
     1
 74
     3
 75
     0
 76
     0
 77
     0
 78
     0
281
     0
 65
     1
110
0.0
120
0.0
130
0.0
111
1.0
121
0.0
131
0.0
112
0.0
122
1.0
132
0.0
 79
     0
146
0.0
  0
ENDTAB
  0
TABLE
  2
LTYPE
  5
5
330
0
100
AcDbSymbolTable
 70
     6
  0
LTYPE
  5
14
330
5
100
AcDbSymbolTableRecord
100
AcDbLinetypeTableRecord
  2
ByBlock
 70
     0
  3

 72
    65
 73
     0
 40
0.0
  0
LTYPE
  5
15
330
5
100
AcDbSymbolTableRecord
100
AcDbLinetypeTableRecord
  2
ByLayer
 70
     0
  3

 72
    65
 73
     0
 40
0.0
  0
LTYPE
  5
16
330
5
100
AcDbSymbolTableRecord
100
AcDbLinetypeTableRecord
  2
Continuous
 70
     0
  3
Solid line
 72
    65
 73
     0
 40
0.0
  0
LTYPE
  5
6E
330
5
100
AcDbSymbolTableRecord
100
AcDbLinetypeTableRecord
  2
HIDDEN
 70
     0
  3
Hidden __ __ __ __ __ __ __ __ __ __ __ __ __ __
 72
    65
 73
     2
 40
1.905
 49
1.27
 74
     0
 49
-0.635
 74
     0
  0
LTYPE
  5
6F
330
5
100
AcDbSymbolTableRecord
100
AcDbLinetypeTableRecord
  2
PHANTOM
 70
     0
  3
Phantom ______  __  __  ______  __  __  ______
 72
    65
 73
     6
 40
12.7
 49
6.35
 74
     0
 49
-1.27
 74
     0
 49
1.27
 74
     0
 49
-1.27
 74
     0
 49
1.27
 74
     0
 49
-1.27
 74
     0
  0
LTYPE
  5
70
330
5
100
AcDbSymbolTableRecord
100
AcDbLinetypeTableRecord
  2
CENTER
 70
     0
  3
Center ____ _ ____ _ ____ _ ____ _ ____ _ ____
 72
    65
 73
     4
 40
10.16
 49
6.35
 74
     0
 49
-1.27
 74
     0
 49
1.27
 74
     0
 49
-1.27
 74
     0
  0
LTYPE
  5
71
330
5
100
AcDbSymbolTableRecord
100
AcDbLinetypeTableRecord
  2
CENTERX2
 70
     0
  3
Center (2x) ________  __  ________  __  _____
 72
    65
 73
     4
 40
20.32
 49
12.7
 74
     0
 49
-2.54
 74
     0
 49
2.54
 74
     0
 49
-2.54
 74
     0
  0
LTYPE
  5
72
330
5
100
AcDbSymbolTableRecord
100
AcDbLinetypeTableRecord
  2
DOT2
 70
     0
  3
Dot (.5x) ........................................
 72
    65
 73
     2
 40
0.635
 49
0.0
 74
     0
 49
-0.635
 74
     0
  0
ENDTAB
  0
TABLE
  2
LAYER
  5
2
330
0
100
AcDbSymbolTable
 70
     5
  0
LAYER
  5
10
330
2
100
AcDbSymbolTableRecord
100
AcDbLayerTableRecord
  2
0
 70
     0
 62
     7
  6
Continuous
370
    -3
390
F
  0
LAYER
  5
73
330
2
100
AcDbSymbolTableRecord
100
AcDbLayerTableRecord
  2
FORMAT
 70
     0
 62
     7
  6
Continuous
370
    -3
390
F
  0
LAYER
  5
74
330
2
100
AcDbSymbolTableRecord
100
AcDbLayerTableRecord
  2
VERMASSUNG
 70
     0
 62
     7
  6
Continuous
370
    -3
390
F
  0
LAYER
  5
75
330
2
100
AcDbSymbolTableRecord
100
AcDbLayerTableRecord
  2
KOPF_DÜNN
 70
     0
 62
     7
  6
Continuous
370
    -3
390
F
  0
LAYER
  5
76
330
2
100
AcDbSymbolTableRecord
100
AcDbLayerTableRecord
  2
KOPF_DICK
 70
     0
 62
     7
  6
Continuous
370
    25
390
F
  0
ENDTAB
  0
TABLE
  2
STYLE
  5
3
330
0
100
AcDbSymbolTable
 70
     3
  0
STYLE
  5
11
330
3
100
AcDbSymbolTableRecord
100
AcDbTextStyleTableRecord
  2
Standard
 70
     0
 40
0.0
 41
1.0
 50
0.0
 71
     0
 42
2.0
  3
txt
  4

  0
STYLE
  5
77
330
3
100
AcDbSymbolTableRecord
100
AcDbTextStyleTableRecord
  2
SLDTEXTSTYLE0
 70
     0
 40
0.0
 41
0.7
 50
0.0
 71
     0
 42
2.0
  3
TXT
  4

  0
STYLE
  5
7B
330
3
100
AcDbSymbolTableRecord
100
AcDbTextStyleTableRecord
  2
SLDTEXTSTYLE1
 70
     0
 40
0.0
 41
0.6466666667
 50
0.0
 71
     0
 42
2.0
  3
TXT
  4

  0
ENDTAB
  0
TABLE
  2
VIEW
  5
6
330
0
100
AcDbSymbolTable
 70
     0
  0
ENDTAB
  0
TABLE
  2
UCS
  5
7
330
0
100
AcDbSymbolTable
 70
     0
  0
ENDTAB
  0
TABLE
  2
APPID
  5
9
330
0
100
AcDbSymbolTable
 70
     1
  0
APPID
  5
12
330
9
100
AcDbSymbolTableRecord
100
AcDbRegAppTableRecord
  2
ACAD
 70
     0
  0
ENDTAB
  0
TABLE
  2
DIMSTYLE
  5
A
330
0
100
AcDbSymbolTable
 70
     2
100
AcDbDimStyleTable
  0
DIMSTYLE
105
27
330
A
100
AcDbSymbolTableRecord
100
AcDbDimStyleTableRecord
  2
ISO-25
 70
     0
 41
2.5
 42
0.625
 43
3.75
 44
1.25
 73
     0
 74
     0
 77
     1
 78
     8
140
2.5
141
2.5
143
0.0393700787
147
0.625
171
     3
172
     1
178
     0
271
     2
272
     2
274
     3
278
    44
283
     0
284
     8
340
11
  0
DIMSTYLE
105
132
102
{ACAD_REACTORS
330
131
330
13D
330
148
330
154
330
15E
102
}
330
A
100
AcDbSymbolTableRecord
100
AcDbDimStyleTableRecord
  2
SLDDIMSTYLE0
 70
     0
 41
3.0
 44
0.0
 45
0.000000001
 73
     0
 74
     0
 77
     1
 78
    12
 79
     3
140
2.0
147
0.5
173
     1
178
     0
271
     2
272
     3
276
     2
284
    12
340
77
  0
ENDTAB
  0
TABLE
  2
BLOCK_RECORD
  5
1
330
0
100
AcDbSymbolTable
 70
     6
  0
BLOCK_RECORD
  5
1F
330
1
100
AcDbSymbolTableRecord
100
AcDbBlockTableRecord
  2
*Model_Space
340
22
  0
BLOCK_RECORD
  5
1B
330
1
100
AcDbSymbolTableRecord
100
AcDbBlockTableRecord
  2
*Paper_Space
340
1E
  0
BLOCK_RECORD
  5
23
330
1
100
AcDbSymbolTableRecord
100
AcDbBlockTableRecord
  2
*Paper_Space0
340
26
  0
BLOCK_RECORD
  5
133
330
1
100
AcDbSymbolTableRecord
100
AcDbBlockTableRecord
  2
_D
340
0
  0
BLOCK_RECORD
  5
13E
330
1
100
AcDbSymbolTableRecord
100
AcDbBlockTableRecord
  2
_D_1
340
0
  0
BLOCK_RECORD
  5
149
330
1
100
AcDbSymbolTableRecord
100
AcDbBlockTableRecord
  2
_D_2
340
0
  0
BLOCK_RECORD
  5
155
330
1
100
AcDbSymbolTableRecord
100
AcDbBlockTableRecord
  2
_D_3
340
0
  0
BLOCK_RECORD
  5
15F
330
1
100
AcDbSymbolTableRecord
100
AcDbBlockTableRecord
  2
_D_4
340
0
  0
ENDTAB
  0
ENDSEC
  0
SECTION
  2
BLOCKS
  0
BLOCK
  5
20
330
1F
100
AcDbEntity
  8
0
100
AcDbBlockBegin
  2
*Model_Space
 70
     0
 10
0.0
 20
0.0
 30
0.0
  3
*Model_Space
  1

  0
ENDBLK
  5
21
330
1F
100
AcDbEntity
  8
0
100
AcDbBlockEnd
  0
BLOCK
  5
1C
330
1B
100
AcDbEntity
 67
     1
  8
0
100
AcDbBlockBegin
  2
*Paper_Space
 70
     0
 10
0.0
 20
0.0
 30
0.0
  3
*Paper_Space
  1

  0
ENDBLK
  5
1D
330
1B
100
AcDbEntity
 67
     1
  8
0
100
AcDbBlockEnd
  0
BLOCK
  5
24
330
23
100
AcDbEntity
  8
0
100
AcDbBlockBegin
  2
*Paper_Space0
 70
     0
 10
0.0
 20
0.0
 30
0.0
  3
*Paper_Space0
  1

  0
ENDBLK
  5
25
330
23
100
AcDbEntity
  8
0
100
AcDbBlockEnd
  0
BLOCK
  5
134
330
133
100
AcDbEntity
  8
0
100
AcDbBlockBegin
  2
_D
 70
     0
 10
0.0
 20
0.0
 30
0.0
  3
_D
  1

  0
SOLID
  5
136
330
133
100
AcDbEntity
  8
VERMASSUNG
100
AcDbTrace
 10
290.1204707103
 20
97.2956111516
 30
0.0
 11
290.5704707103
 21
100.2956111516
 31
0.0
 12
289.6704707103
 22
100.2956111516
 32
0.0
 13
289.6704707103
 23
100.2956111516
 33
0.0
  0
SOLID
  5
137
330
133
100
AcDbEntity
  8
VERMASSUNG
100
AcDbTrace
 10
290.1204707103
 20
159.9956111516
 30
0.0
 11
289.6704707103
 21
156.9956111516
 31
0.0
 12
290.5704707103
 22
156.9956111516
 32
0.0
 13
290.5704707103
 23
156.9956111516
 33
0.0
  0
LINE
  5
138
330
133
100
AcDbEntity
  8
VERMASSUNG
100
AcDbLine
 10
265.5717566184
 20
97.2956111516
 30
0.0
 11
291.1204707103
 21
97.2956111516
 31
0.0
  0
LINE
  5
139
330
133
100
AcDbEntity
  8
VERMASSUNG
100
AcDbLine
 10
265.5717566184
 20
159.9956111516
 30
0.0
 11
291.1204707103
 21
159.9956111516
 31
0.0
  0
LINE
  5
13A
330
133
100
AcDbEntity
  8
VERMASSUNG
100
AcDbLine
 10
290.1204707103
 20
97.2956111516
 30
0.0
 11
290.1204707103
 21
159.9956111516
 31
0.0
  0
MTEXT
  5
13B
330
133
100
AcDbEntity
  8
VERMASSUNG
100
AcDbMText
 10
287.5423354054
 20
124.4406114961
 30
0.0
 40
2.0
 41
0.0
 71
     1
 72
     1
  1
%%c
  7
SLDTEXTSTYLE0
 11
6.123233995736766E-17
 21
1.0
 31
0.0
 73
     1
 44
1.0
  0
MTEXT
  5
13C
330
133
100
AcDbEntity
  8
VERMASSUNG
100
AcDbMText
 10
287.3423354541
 20
128.0506115104
 30
0.0
 40
2.0
 41
0.0
 71
     1
 72
     1
  1
62.7
  7
SLDTEXTSTYLE0
 11
6.123233995736766E-17
 21
1.0
 31
0.0
 73
     1
 44
1.0
  0
ENDBLK
  5
135
330
133
100
AcDbEntity
  8
0
100
AcDbBlockEnd
  0
BLOCK
  5
13F
330
13E
100
AcDbEntity
  8
0
100
AcDbBlockBegin
  2
_D_1
 70
     0
 10
0.0
 20
0.0
 30
0.0
  3
_D_1
  1

  0
SOLID
  5
141
330
13E
100
AcDbEntity
  8
VERMASSUNG
100
AcDbTrace
 10
282.0638788361
 20
100.6456111516
 30
0.0
 11
282.5138788361
 21
103.6456111516
 31
0.0
 12
281.6138788361
 22
103.6456111516
 32
0.0
 13
281.6138788361
 23
103.6456111516
 33
0.0
  0
SOLID
  5
142
330
13E
100
AcDbEntity
  8
VERMASSUNG
100
AcDbTrace
 10
282.0638788361
 20
156.6456111516
 30
0.0
 11
281.6138788361
 21
153.6456111516
 31
0.0
 12
282.5138788361
 22
153.6456111516
 32
0.0
 13
282.5138788361
 23
153.6456111516
 33
0.0
  0
LINE
  5
143
330
13E
100
AcDbEntity
  8
VERMASSUNG
100
AcDbLine
 10
163.7652816186
 20
100.6456111516
 30
0.0
 11
283.0638788361
 21
100.6456111516
 31
0.0
  0
LINE
  5
144
330
13E
100
AcDbEntity
  8
VERMASSUNG
100
AcDbLine
 10
163.7652816186
 20
156.6456111516
 30
0.0
 11
283.0638788361
 21
156.6456111516
 31
0.0
  0
LINE
  5
145
330
13E
100
AcDbEntity
  8
VERMASSUNG
100
AcDbLine
 10
282.0638788361
 20
100.6456111516
 30
0.0
 11
282.0638788361
 21
156.6456111516
 31
0.0
  0
MTEXT
  5
146
330
13E
100
AcDbEntity
  8
VERMASSUNG
100
AcDbMText
 10
279.4857435312
 20
125.4406111944
 30
0.0
 40
2.0
 41
0.0
 71
     1
 72
     1
  1
%%c
  7
SLDTEXTSTYLE0
 11
6.123233995736766E-17
 21
1.0
 31
0.0
 73
     1
 44
1.0
  0
MTEXT
  5
147
330
13E
100
AcDbEntity
  8
VERMASSUNG
100
AcDbMText
 10
279.2857435799
 20
129.0506112087
 30
0.0
 40
2.0
 41
0.0
 71
     1
 72
     1
  1
56
  7
SLDTEXTSTYLE0
 11
6.123233995736766E-17
 21
1.0
 31
0.0
 73
     1
 44
1.0
  0
ENDBLK
  5
140
330
13E
100
AcDbEntity
  8
0
100
AcDbBlockEnd
  0
BLOCK
  5
14A
330
149
100
AcDbEntity
  8
0
100
AcDbBlockBegin
  2
_D_2
 70
     0
 10
0.0
 20
0.0
 30
0.0
  3
_D_2
  1

  0
SOLID
  5
14C
330
149
100
AcDbEntity
  8
VERMASSUNG
100
AcDbTrace
 10
9.6648122577
 20
178.6456111516
 30
0.0
 11
9.2148122577
 21
175.6456111516
 31
0.0
 12
10.1148122577
 22
175.6456111516
 32
0.0
 13
10.1148122577
 23
175.6456111516
 33
0.0
  0
SOLID
  5
14D
330
149
100
AcDbEntity
  8
VERMASSUNG
100
AcDbTrace
 10
9.6648122577
 20
78.6456111516
 30
0.0
 11
10.1148122577
 21
81.6456111516
 31
0.0
 12
9.2148122577
 22
81.6456111516
 32
0.0
 13
9.2148122577
 23
81.6456111516
 33
0.0
  0
LINE
  5
14E
330
149
100
AcDbEntity
  8
VERMASSUNG
100
AcDbLine
 10
70.3152816186
 20
178.6456111516
 30
0.0
 11
8.6648122577
 21
178.6456111516
 31
0.0
  0
LINE
  5
14F
330
149
100
AcDbEntity
  8
VERMASSUNG
100
AcDbLine
 10
70.3152816186
 20
78.6456111516
 30
0.0
 11
8.6648122577
 21
78.6456111516
 31
0.0
  0
LINE
  5
150
330
149
100
AcDbEntity
  8
VERMASSUNG
100
AcDbLine
 10
9.6648122577
 20
178.6456111516
 30
0.0
 11
9.6648122577
 21
78.6456111516
 31
0.0
  0
MTEXT
  5
151
330
149
100
AcDbEntity
  8
VERMASSUNG
100
AcDbMText
 10
6.8866770015
 20
120.4406117718
 30
0.0
 40
2.0
 41
0.0
 71
     1
 72
     1
  1
HSK A
  7
SLDTEXTSTYLE0
 11
-7.044195017643634E-15
 21
1.0
 31
0.0
 73
     1
 44
1.0
  0
MTEXT
  5
152
330
149
100
AcDbEntity
  8
VERMASSUNG
100
AcDbMText
 10
7.0866769527
 20
129.4406113844
 30
0.0
 40
2.0
 41
0.0
 71
     1
 72
     1
  1
%%c
  7
SLDTEXTSTYLE0
 11
-7.044195017643634E-15
 21
1.0
 31
0.0
 73
     1
 44
1.0
  0
MTEXT
  5
153
330
149
100
AcDbEntity
  8
VERMASSUNG
100
AcDbMText
 10
6.8866770015
 20
133.0506113987
 30
0.0
 40
2.0
 41
0.0
 71
     1
 72
     1
  1
100
  7
SLDTEXTSTYLE0
 11
-7.044195017643634E-15
 21
1.0
 31
0.0
 73
     1
 44
1.0
  0
ENDBLK
  5
14B
330
149
100
AcDbEntity
  8
0
100
AcDbBlockEnd
  0
BLOCK
  5
156
330
155
100
AcDbEntity
  8
0
100
AcDbBlockBegin
  2
_D_3
 70
     0
 10
0.0
 20
0.0
 30
0.0
  3
_D_3
  1

  0
SOLID
  5
158
330
155
100
AcDbEntity
  8
VERMASSUNG
100
AcDbTrace
 10
69.8152816186
 20
188.6456111516
 30
0.0
 11
72.8152816186
 21
188.1956111516
 31
0.0
 12
72.8152816186
 22
189.0956111516
 32
0.0
 13
72.8152816186
 23
189.0956111516
 33
0.0
  0
SOLID
  5
159
330
155
100
AcDbEntity
  8
VERMASSUNG
100
AcDbTrace
 10
269.8152816186
 20
188.6456111516
 30
0.0
 11
266.8152816186
 21
189.0956111516
 31
0.0
 12
266.8152816186
 22
188.1956111516
 32
0.0
 13
266.8152816186
 23
188.1956111516
 33
0.0
  0
LINE
  5
15A
330
155
100
AcDbEntity
  8
VERMASSUNG
100
AcDbLine
 10
69.8152816186
 20
178.1456111516
 30
0.0
 11
69.8152816186
 21
189.6456111516
 31
0.0
  0
LINE
  5
15B
330
155
100
AcDbEntity
  8
VERMASSUNG
100
AcDbLine
 10
269.8152816186
 20
152.6456111516
 30
0.0
 11
269.8152816186
 21
189.6456111516
 31
0.0
  0
LINE
  5
15C
330
155
100
AcDbEntity
  8
VERMASSUNG
100
AcDbLine
 10
69.8152816186
 20
188.6456111516
 30
0.0
 11
269.8152816186
 21
188.6456111516
 31
0.0
  0
MTEXT
  5
15D
330
155
100
AcDbEntity
  8
VERMASSUNG
100
AcDbMText
 10
167.7152816935
 20
191.2237467476
 30
0.0
 40
2.0
 41
0.0
 71
     1
 72
     1
  1
200
  7
SLDTEXTSTYLE0
 73
     1
 44
1.0
  0
ENDBLK
  5
157
330
155
100
AcDbEntity
  8
0
100
AcDbBlockEnd
  0
BLOCK
  5
160
330
15F
100
AcDbEntity
  8
0
100
AcDbBlockBegin
  2
_D_4
 70
     0
 10
0.0
 20
0.0
 30
0.0
  3
_D_4
  1

  0
SOLID
  5
162
330
15F
100
AcDbEntity
  8
VERMASSUNG
100
AcDbTrace
 10
19.9152816186
 20
196.4446329434
 30
0.0
 11
22.9152816186
 21
195.9946329434
 31
0.0
 12
22.9152816186
 22
196.8946329434
 32
0.0
 13
22.9152816186
 23
196.8946329434
 33
0.0
  0
SOLID
  5
163
330
15F
100
AcDbEntity
  8
VERMASSUNG
100
AcDbTrace
 10
269.8152816186
 20
196.4446329434
 30
0.0
 11
266.8152816186
 21
196.8946329434
 31
0.0
 12
266.8152816186
 22
195.9946329434
 32
0.0
 13
266.8152816186
 23
195.9946329434
 33
0.0
  0
LINE
  5
164
330
15F
100
AcDbEntity
  8
VERMASSUNG
100
AcDbLine
 10
19.9152816186
 20
159.1482808942
 30
0.0
 11
19.9152816186
 21
197.4446329434
 31
0.0
  0
LINE
  5
165
330
15F
100
AcDbEntity
  8
VERMASSUNG
100
AcDbLine
 10
269.8152816186
 20
152.6456111516
 30
0.0
 11
269.8152816186
 21
197.4446329434
 31
0.0
  0
LINE
  5
166
330
15F
100
AcDbEntity
  8
VERMASSUNG
100
AcDbLine
 10
19.9152816186
 20
196.4446329434
 30
0.0
 11
269.8152816186
 21
196.4446329434
 31
0.0
  0
MTEXT
  5
167
330
15F
100
AcDbEntity
  8
VERMASSUNG
100
AcDbMText
 10
141.6652816995
 20
199.0227685394
 30
0.0
 40
2.0
 41
0.0
 71
     1
 72
     1
  1
249.9
  7
SLDTEXTSTYLE0
 73
     1
 44
1.0
  0
ENDBLK
  5
161
330
15F
100
AcDbEntity
  8
0
100
AcDbBlockEnd
  0
ENDSEC
  0
SECTION
  2
ENTITIES
  0
MTEXT
  5
78
330
1F
100
AcDbEntity
  8
KOPF_DÜNN
100
AcDbMText
 10
13.8892156294
 20
23.8442973028
 30
0.0
 40
3.0
 41
0.0
 71
     1
 72
     1
  1
HA0.E40.K01.200
  7
SLDTEXTSTYLE0
 73
     1
 44
1.0
  0
MTEXT
  5
79
330
1F
100
AcDbEntity
  8
VERMASSUNG
100
AcDbMText
 10
13.9329988022
 20
28.8834360957
 30
0.0
 40
3.0
 41
0.0
 71
     1
 72
     1
  1
Spannzangenfutter ER Typ S_Collet chuck ER type S
  7
SLDTEXTSTYLE0
 73
     1
 44
1.0
  0
MTEXT
  5
7A
330
1F
100
AcDbEntity
  8
VERMASSUNG
100
AcDbMText
 10
98.8601118557
 20
13.8365368761
 30
0.0
 40
2.0
 41
0.0
 71
     1
 72
     1
  1
Datum: 16.02.2018
  7
SLDTEXTSTYLE0
 73
     1
 44
1.0
  0
MTEXT
  5
7C
330
1F
100
AcDbEntity
  8
VERMASSUNG
100
AcDbMText
 10
13.933048693
 20
18.0482802738
 30
0.0
 40
2.0
 41
0.0
 71
     1
 72
     1
  1
HSK A 100 / Ø63
  7
SLDTEXTSTYLE1
 73
     1
 44
1.0
  0
MTEXT
  5
7D
330
1F
100
AcDbEntity
  8
VERMASSUNG
100
AcDbMText
 10
13.9808475933
 20
13.9090974274
 30
0.0
 40
2.0
 41
0.0
 71
     1
 72
     1
  1
Gewicht: 4627g
  7
SLDTEXTSTYLE0
 73
     1
 44
1.0
  0
LINE
  5
7E
330
1F
100
AcDbEntity
  8
0
  6
Continuous
 62
     7
370
    25
100
AcDbLine
 10
245.1152837167
 20
97.2956094588
 30
0.0
 11
265.5717617164
 21
97.2956094588
 31
0.0
  0
LINE
  5
7F
330
1F
100
AcDbEntity
  8
0
  6
Continuous
 62
     7
370
    25
100
AcDbLine
 10
265.5717617164
 20
159.9956128444
 30
0.0
 11
245.1152837167
 21
159.9956128444
 31
0.0
  0
LINE
  5
80
330
1F
100
AcDbEntity
  8
0
  6
Continuous
 62
     7
370
    25
100
AcDbLine
 10
245.1152837167
 20
159.9956128444
 30
0.0
 11
244.3152850757
 21
159.1956104781
 31
0.0
  0
LINE
  5
81
330
1F
100
AcDbEntity
  8
0
  6
Continuous
 62
     7
370
    25
100
AcDbLine
 10
244.3152850757
 20
98.0956118251
 30
0.0
 11
245.1152837167
 21
97.2956094588
 31
0.0
  0
LINE
  5
82
330
1F
100
AcDbEntity
  8
0
  6
Continuous
 62
     7
370
    25
100
AcDbLine
 10
265.5717617164
 20
97.2956094588
 30
0.0
 11
269.8152845989
 21
104.645610943
 31
0.0
  0
LINE
  5
83
330
1F
100
AcDbEntity
  8
0
  6
Continuous
 62
     7
370
    25
100
AcDbLine
 10
269.8152845989
 20
152.6456113602
 30
0.0
 11
265.5717617164
 21
159.9956128444
 31
0.0
  0
LINE
  5
84
330
1F
100
AcDbEntity
  8
0
  6
Continuous
 62
     7
370
    25
100
AcDbLine
 10
70.3152816424
 20
78.6456104066
 30
0.0
 11
74.7652815918
 21
78.6456104066
 31
0.0
  0
LINE
  5
85
330
1F
100
AcDbEntity
  8
0
  6
Continuous
 62
     7
370
    25
100
AcDbLine
 10
74.7993544939
 20
178.6456118967
 30
0.0
 11
70.3152816424
 21
178.6456118967
 31
0.0
  0
ARC
  5
86
330
1F
100
AcDbEntity
  8
0
  6
Continuous
 62
     7
370
    25
100
AcDbCircle
 10
70.3152816186
 20
79.1456111516
 30
0.0
 40
0.5
100
AcDbArc
 50
180.0
 51
270.0
  0
ARC
  5
87
330
1F
100
AcDbEntity
  8
0
  6
Continuous
 62
     7
370
    25
100
AcDbCircle
 10
70.3152816186
 20
178.1456111516
 30
0.0
 40
0.5
100
AcDbArc
 50
90.0
 51
180.0
  0
ARC
  5
88
330
1F
100
AcDbEntity
  8
0
  6
Continuous
 62
     7
370
    25
100
AcDbCircle
 10
68.9183447002
 20
90.0171258272
 30
0.0
 40
0.9962338214386983
100
AcDbArc
 50
25.7988228126
 51
90.0
  0
ARC
  5
89
330
1F
100
AcDbEntity
  8
0
  6
Continuous
 62
     7
370
    25
100
AcDbCircle
 10
68.9183447002
 20
167.2740964761
 30
0.0
 40
0.9962338214386921
100
AcDbArc
 50
270.0
 51
334.2011771874
  0
LINE
  5
8A
330
1F
100
AcDbEntity
  8
0
  6
Continuous
 62
     7
370
    25
100
AcDbLine
 10
48.3347380797
 20
165.5769321765
 30
0.0
 11
30.015282173
 21
164.6591249551
 31
0.0
  0
LINE
  5
8B
330
1F
100
AcDbEntity
  8
0
  6
Continuous
 62
     7
370
    25
100
AcDbLine
 10
67.3152816745
 20
166.527860954
 30
0.0
 11
61.2463558356
 21
166.2238064851
 31
0.0
  0
LINE
  5
8C
330
1F
100
AcDbEntity
  8
0
  6
Continuous
 62
     7
370
    25
100
AcDbLine
 10
61.2467190514
 20
91.0673971917
 30
0.0
 11
67.3152816745
 21
90.7633613493
 31
0.0
  0
LINE
  5
8D
330
1F
100
AcDbEntity
  8
0
  6
Continuous
 62
     7
370
    25
100
AcDbLine
 10
35.0152811299
 20
92.3815976526
 30
0.0
 11
48.3358295898
 21
91.7142342474
 31
0.0
  0
LINE
  5
8E
330
1F
100
AcDbEntity
  8
0
  6
Continuous
 62
     7
370
    25
100
AcDbLine
 10
67.3152816745
 20
90.7633613493
 30
0.0
 11
68.1211277407
 21
90.9792866255
 31
0.0
  0
LINE
  5
8F
330
1F
100
AcDbEntity
  8
0
  6
Continuous
 62
     7
370
    25
100
AcDbLine
 10
68.1211277407
 20
166.3119356777
 30
0.0
 11
67.3152816745
 21
166.527860954
 31
0.0
  0
ARC
  5
90
330
1F
100
AcDbEntity
  8
0
  6
Continuous
 62
     7
370
    25
100
AcDbCircle
 10
68.3799468181
 20
90.0133596486
 30
0.0
 40
1.000000000000013
100
AcDbArc
 50
90.0
 51
105.0
  0
ARC
  5
91
330
1F
100
AcDbEntity
  8
0
  6
Continuous
 62
     7
370
    25
100
AcDbCircle
 10
68.3799468181
 20
167.2778626546
 30
0.0
 40
1.000000000000027
100
AcDbArc
 50
255.0
 51
270.0
  0
LINE
  5
92
330
1F
100
AcDbEntity
  8
0
  6
Continuous
 62
     7
370
    25
100
AcDbLine
 10
68.3799468244
 20
91.0133581306
 30
0.0
 11
68.9183446958
 21
91.0133581306
 31
0.0
  0
LINE
  5
93
330
1F
100
AcDbEntity
  8
0
  6
Continuous
 62
     7
370
    25
100
AcDbLine
 10
68.9183446958
 20
166.2778641726
 30
0.0
 11
68.3799468244
 21
166.2778641726
 31
0.0
  0
ARC
  5
94
330
1F
100
AcDbEntity
  8
0
  6
Continuous
 62
     7
370
    25
100
AcDbCircle
 10
101.7652816186
 20
94.6296523501
 30
0.0
 40
3.00000000000001
100
AcDbArc
 50
104.3250519401
 51
180.0
  0
ARC
  5
95
330
1F
100
AcDbEntity
  8
0
  6
Continuous
 62
     7
370
    25
100
AcDbCircle
 10
101.7652816186
 20
162.6615699531
 30
0.0
 40
3.000000000000024
100
AcDbArc
 50
180.0
 51
255.6749480599
  0
ARC
  5
96
330
1F
100
AcDbEntity
  8
0
  6
Continuous
 62
     7
370
    25
100
AcDbCircle
 10
125.7652816186
 20
0.6456111516
 30
0.0
 40
100.0
100
AcDbArc
 50
90.0
 51
104.3250519401
  0
ARC
  5
97
330
1F
100
AcDbEntity
  8
0
  6
Continuous
 62
     7
370
    25
100
AcDbCircle
 10
125.7652816186
 20
256.6456111516
 30
0.0
 40
100.0
100
AcDbArc
 50
255.6749480599
 51
270.0
  0
LINE
  5
98
330
1F
100
AcDbEntity
  8
0
  6
Continuous
 62
     7
370
    25
100
AcDbLine
 10
148.2316961775
 20
100.6456102873
 30
0.0
 11
163.7652850042
 21
100.6456102873
 31
0.0
  0
LINE
  5
99
330
1F
100
AcDbEntity
  8
0
  6
Continuous
 62
     7
370
    25
100
AcDbLine
 10
125.7652825008
 20
100.6456102873
 30
0.0
 11
141.3088476549
 21
100.6456102873
 31
0.0
  0
LINE
  5
9A
330
1F
100
AcDbEntity
  8
0
  6
Continuous
 62
     7
370
    25
100
AcDbLine
 10
141.2904372702
 20
156.6456120159
 30
0.0
 11
125.7652825008
 21
156.6456120159
 31
0.0
  0
LINE
  5
9B
330
1F
100
AcDbEntity
  8
0
  6
Continuous
 62
     7
370
    25
100
AcDbLine
 10
163.7652850042
 20
156.6456120159
 30
0.0
 11
148.2210269461
 21
156.6456120159
 31
0.0
  0
ARC
  5
9C
330
1F
100
AcDbEntity
  8
0
  6
Continuous
 62
     7
370
    25
100
AcDbCircle
 10
213.2728567966
 20
563.6456111516
 30
0.0
 40
409.9999999999999
100
AcDbArc
 50
263.0646002429
 51
270.0
  0
ARC
  5
9D
330
1F
100
AcDbEntity
  8
0
  6
Continuous
 62
     7
370
    25
100
AcDbCircle
 10
213.2728567966
 20
-306.3543888484
 30
0.0
 40
409.9999999999999
100
AcDbArc
 50
90.0
 51
96.9353997571
  0
LINE
  5
9E
330
1F
100
AcDbEntity
  8
0
  6
Continuous
 62
     7
370
    25
100
AcDbLine
 10
244.3152850757
 20
153.6456115241
 30
0.0
 11
213.2728582511
 21
153.6456115241
 31
0.0
  0
LINE
  5
9F
330
1F
100
AcDbEntity
  8
0
  6
Continuous
 62
     7
370
    25
100
AcDbLine
 10
213.2728582511
 20
103.6456107791
 30
0.0
 11
244.3152850757
 21
103.6456107791
 31
0.0
  0
LINE
  5
A0
330
1F
100
AcDbEntity
  8
0
  6
Continuous
 62
     7
370
    25
100
AcDbLine
 10
21.5652806948
 20
96.3956128503
 30
0.0
 11
33.1152824948
 21
96.3956128503
 31
0.0
  0
ARC
  5
A1
330
1F
100
AcDbEntity
  8
0
  6
Continuous
 62
     7
370
    25
100
AcDbCircle
 10
33.1152816186
 20
94.4956111516
 30
0.0
 40
1.900000000000005
100
AcDbArc
 50
35.6630613694
 51
90.0
  0
ARC
  5
A2
330
1F
100
AcDbEntity
  8
0
  6
Continuous
 62
     7
370
    25
100
AcDbCircle
 10
28.1152816186
 20
162.7956111516
 30
0.0
 40
1.900000000000006
100
AcDbArc
 50
270.0
 51
308.1709917343
  0
LINE
  5
A3
330
1F
100
AcDbEntity
  8
0
  6
Continuous
 62
     7
370
    25
100
AcDbLine
 10
21.5652806948
 20
160.8956094529
 30
0.0
 11
19.9659651409
 21
159.2962957616
 31
0.0
  0
LINE
  5
A4
330
1F
100
AcDbEntity
  8
0
  6
Continuous
 62
     7
370
    25
100
AcDbLine
 10
19.9668033312
 20
97.9940902139
 30
0.0
 11
21.5652806948
 21
96.3956128503
 31
0.0
  0
LINE
  5
A5
330
1F
100
AcDbEntity
  8
0
  6
Continuous
 62
     7
370
    25
100
AcDbLine
 10
28.1152798126
 20
160.8956094529
 30
0.0
 11
21.5652806948
 21
160.8956094529
 31
0.0
  0
LINE
  5
A6
330
1F
100
AcDbEntity
  8
0
  6
Continuous
 62
     7
370
    25
100
AcDbLine
 10
254.6855693946
 20
105.4580799933
 30
0.0
 11
265.5717617164
 21
105.4580799933
 31
0.0
  0
LINE
  5
A7
330
1F
100
AcDbEntity
  8
0
  6
Continuous
 62
     7
370
    25
100
AcDbLine
 10
265.5717617164
 20
97.2956094588
 30
0.0
 11
265.5717617164
 21
105.4580799933
 31
0.0
  0
LINE
  5
A8
330
1F
100
AcDbEntity
  8
0
  6
Continuous
 62
     7
370
    25
100
AcDbLine
 10
265.5717617164
 20
159.8444647785
 30
0.0
 11
265.5717617164
 21
159.9956128444
 31
0.0
  0
LINE
  5
A9
330
1F
100
AcDbEntity
  8
0
  6
Continuous
 62
     7
370
    25
100
AcDbLine
 10
254.6855693946
 20
159.8444647785
 30
0.0
 11
265.5717617164
 21
159.8444647785
 31
0.0
  0
SPLINE
  5
AA
330
1F
100
AcDbEntity
  8
0
  6
Continuous
 62
     7
370
    25
100
AcDbSpline
210
0.0
220
0.0
230
1.0
 70
     8
 71
     3
 72
    18
 73
    14
 74
     0
 42
0.000000001
 43
0.00000001
 40
0.0
 40
0.0
 40
0.0
 40
0.0
 40
0.0823402573352871
 40
0.197129298532251
 40
0.3099453153367939
 40
0.418029425353603
 40
0.5204025358490105
 40
0.5325621107370707
 40
0.6297980508871849
 40
0.7297580205689269
 40
0.8340301563279813
 40
0.9435585115405691
 40
1.0
 40
1.0
 40
1.0
 40
1.0
 10
254.6855693946339
 20
158.5115056182513
 30
0.0
 10
254.3943294892676
 20
158.5178418298364
 30
0.0
 10
253.6970773782413
 20
158.5330112376758
 30
0.0
 10
252.6730831077065
 20
158.6717409287088
 30
0.0
 10
251.7938835748364
 20
158.9013369461713
 30
0.0
 10
251.2766528786494
 20
159.1604130392476
 30
0.0
 10
251.1932032020268
 20
159.3305318216349
 30
0.0
 10
251.2609418759289
 20
159.4744161170395
 30
0.0
 10
251.4666936139552
 20
159.6010372565809
 30
0.0
 10
252.080567730738
 20
159.7288246196469
 30
0.0
 10
252.9787325368029
 20
159.8083688591404
 30
0.0
 10
253.8999733299894
 20
159.840635768725
 30
0.0
 10
254.486208099544
 20
159.843493087824
 30
0.0
 10
254.6855693946339
 20
159.84446477846
 30
0.0
  0
LINE
  5
AB
330
1F
100
AcDbEntity
  8
0
  6
Continuous
 62
     7
370
    25
100
AcDbLine
 10
254.6855693946
 20
158.5115056183
 30
0.0
 11
265.5717617164
 21
158.5115056183
 31
0.0
  0
LINE
  5
AC
330
1F
100
AcDbEntity
  8
0
  6
Continuous
 62
     7
370
    25
100
AcDbLine
 10
265.5717617164
 20
141.5822283994
 30
0.0
 11
265.5717617164
 21
158.5115056183
 31
0.0
  0
LINE
  5
AD
330
1F
100
AcDbEntity
  8
0
  6
Continuous
 62
     7
370
    25
100
AcDbLine
 10
254.6855693946
 20
141.5822283994
 30
0.0
 11
265.5717617164
 21
141.5822283994
 31
0.0
  0
SPLINE
  5
AE
330
1F
100
AcDbEntity
  8
0
  6
Continuous
 62
     7
370
    25
100
AcDbSpline
210
0.0
220
0.0
230
1.0
 70
     8
 71
     3
 72
    18
 73
    14
 74
     0
 42
0.000000001
 43
0.00000001
 40
0.0
 40
0.0
 40
0.0
 40
0.0
 40
0.0823402559468921
 40
0.1971292933113869
 40
0.3099452552826352
 40
0.4180293911229829
 40
0.520402462630885
 40
0.5326712199842482
 40
0.629906649965763
 40
0.7298699128658837
 40
0.8341477529680132
 40
0.9436807784359453
 40
0.9999999999999999
 40
0.9999999999999999
 40
0.9999999999999999
 40
0.9999999999999999
 10
254.6855693946339
 20
135.3239735286006
 30
0.0
 10
254.3943294564803
 20
135.3442606157321
 30
0.0
 10
253.6970772736684
 20
135.3928295581477
 30
0.0
 10
252.6730839465763
 20
135.8449418337761
 30
0.0
 10
251.7938813480588
 20
136.6468342492511
 30
0.0
 10
251.2766595605499
 20
137.6534462447117
 30
0.0
 10
251.1931478577924
 20
138.4158335048708
 30
0.0
 10
251.2610947540772
 20
139.1205544185455
 30
0.0
 10
251.4671971795295
 20
139.8031000153543
 30
0.0
 10
252.0814115897729
 20
140.6315723331138
 30
0.0
 10
252.9798513696687
 20
141.2526038265931
 30
0.0
 10
253.9008242786045
 20
141.5467726256349
 30
0.0
 10
254.4866409078204
 20
141.5732405595325
 30
0.0
 10
254.6855693946339
 20
141.582228399373
 30
0.0
  0
LINE
  5
AF
330
1F
100
AcDbEntity
  8
0
  6
Continuous
 62
     7
370
    25
100
AcDbLine
 10
254.6855693946
 20
135.3239735286
 30
0.0
 11
265.5717617164
 21
135.3239735286
 31
0.0
  0
LINE
  5
B0
330
1F
100
AcDbEntity
  8
0
  6
Continuous
 62
     7
370
    25
100
AcDbLine
 10
265.5717617164
 20
110.3833757038
 30
0.0
 11
265.5717617164
 21
135.3239735286
 31
0.0
  0
LINE
  5
B1
330
1F
100
AcDbEntity
  8
0
  6
Continuous
 62
     7
370
    25
100
AcDbLine
 10
254.6855693946
 20
110.3833757038
 30
0.0
 11
265.5717617164
 21
110.3833757038
 31
0.0
  0
SPLINE
  5
B2
330
1F
100
AcDbEntity
  8
0
  6
Continuous
 62
     7
370
    25
100
AcDbSpline
210
0.0
220
0.0
230
1.0
 70
     8
 71
     3
 72
    18
 73
    14
 74
     0
 42
0.000000001
 43
0.00000001
 40
0.0
 40
0.0
 40
0.0
 40
0.0
 40
0.082339184774037
 40
0.1971266597872142
 40
0.3099410849641202
 40
0.4180238969888748
 40
0.5203956190535362
 40
0.5371610762950522
 40
0.6343757630779374
 40
0.7344802349855739
 40
0.8389931603871092
 40
0.9487431134639407
 40
1.0
 40
1.0
 40
1.0
 40
1.0
 10
254.6855693946339
 20
105.4580799932847
 30
0.0
 10
254.394329591901
 20
105.4720305221855
 30
0.0
 10
253.6970779775282
 20
105.5054292153111
 30
0.0
 10
252.673081930333
 20
105.8188112683975
 30
0.0
 10
251.7938879853659
 20
106.3911039115792
 30
0.0
 10
251.276634682392
 20
107.1386634533482
 30
0.0
 10
251.1915191008881
 20
107.7427371717267
 30
0.0
 10
251.2666665641009
 20
108.3153830113689
 30
0.0
 10
251.4883935205325
 20
108.8816736842714
 30
0.0
 10
252.1163062500442
 20
109.5767985161381
 30
0.0
 10
253.0261451652295
 20
110.1094713142422
 30
0.0
 10
253.935958405008
 20
110.3557274016503
 30
0.0
 10
254.5045553036325
 20
110.3766992645226
 30
0.0
 10
254.6855693946339
 20
110.3833757038483
 30
0.0
  0
LINE
  5
B3
330
1F
100
AcDbEntity
  8
0
  6
Continuous
 62
     7
370
    25
100
AcDbLine
 10
245.1152837167
 20
97.2956094588
 30
0.0
 11
245.1152837167
 21
159.9956128444
 31
0.0
  0
LINE
  5
B4
330
1F
100
AcDbEntity
  8
0
  6
Continuous
 62
     7
370
    25
100
AcDbLine
 10
244.3152850757
 20
98.0956118251
 30
0.0
 11
244.3152850757
 21
159.1956104781
 31
0.0
  0
LINE
  5
B5
330
1F
100
AcDbEntity
  8
0
  6
Continuous
 62
     7
370
    25
100
AcDbLine
 10
265.5717617164
 20
135.3239735286
 30
0.0
 11
265.8409958969
 21
135.5944622006
 31
0.0
  0
LINE
  5
B6
330
1F
100
AcDbEntity
  8
0
  6
Continuous
 62
     7
370
    25
100
AcDbLine
 10
265.8409958969
 20
135.5944622006
 30
0.0
 11
266.89254104
 21
135.3294883552
 31
0.0
  0
LINE
  5
B7
330
1F
100
AcDbEntity
  8
0
  6
Continuous
 62
     7
370
    25
100
AcDbLine
 10
266.89254104
 20
135.3294883552
 30
0.0
 11
267.0795357118
 21
135.5198828201
 31
0.0
  0
SPLINE
  5
B8
330
1F
100
AcDbEntity
  8
0
  6
Continuous
 62
     7
370
    25
100
AcDbSpline
210
0.0
220
0.0
230
1.0
 70
     8
 71
     3
 72
     9
 73
     5
 74
     0
 42
0.000000001
 43
0.00000001
 40
0.0
 40
0.0
 40
0.0
 40
0.0
 40
0.5000512175726414
 40
1.0
 40
1.0
 40
1.0
 40
1.0
 10
267.0795357118108
 20
135.5198828201065
 30
0.0
 10
267.1050705953556
 20
136.2327953166947
 30
0.0
 10
267.1561351316421
 20
137.6584742702404
 30
0.0
 10
267.1050671080344
 20
139.0841536211294
 30
0.0
 10
267.0795357118108
 20
139.7969202767381
 30
0.0
  0
LINE
  5
B9
330
1F
100
AcDbEntity
  8
0
  6
Continuous
 62
     7
370
    25
100
AcDbLine
 10
266.89254104
 20
140.1760635595
 30
0.0
 11
267.0795357118
 21
139.7969202767
 31
0.0
  0
LINE
  5
BA
330
1F
100
AcDbEntity
  8
0
  6
Continuous
 62
     7
370
    25
100
AcDbLine
 10
265.8409958969
 20
141.0435877438
 30
0.0
 11
266.89254104
 21
140.1760635595
 31
0.0
  0
LINE
  5
BB
330
1F
100
AcDbEntity
  8
0
  6
Continuous
 62
     7
370
    25
100
AcDbLine
 10
265.5717617164
 20
141.5822283994
 30
0.0
 11
265.8409958969
 21
141.0435877438
 31
0.0
  0
LINE
  5
BC
330
1F
100
AcDbEntity
  8
0
  6
Continuous
 62
     7
370
    25
100
AcDbLine
 10
265.5717617164
 20
158.5115056183
 30
0.0
 11
265.8409958969
 21
158.180273294
 31
0.0
  0
LINE
  5
BD
330
1F
100
AcDbEntity
  8
0
  6
Continuous
 62
     7
370
    25
100
AcDbLine
 10
265.8409958969
 20
158.180273294
 30
0.0
 11
266.89254104
 21
156.4816135611
 31
0.0
  0
LINE
  5
BE
330
1F
100
AcDbEntity
  8
0
  6
Continuous
 62
     7
370
    25
100
AcDbLine
 10
266.89254104
 20
156.4816135611
 30
0.0
 11
267.0795357118
 21
156.2484625425
 31
0.0
  0
SPLINE
  5
BF
330
1F
100
AcDbEntity
  8
0
  6
Continuous
 62
     7
370
    25
100
AcDbSpline
210
0.0
220
0.0
230
1.0
 70
     8
 71
     3
 72
     9
 73
     5
 74
     0
 42
0.000000001
 43
0.00000001
 40
0.0
 40
0.0
 40
0.0
 40
0.0
 40
0.1255455117364937
 40
1.0
 40
1.0
 40
1.0
 40
1.0
 10
267.0795357118108
 20
156.2484625424513
 30
0.0
 10
267.087537103522
 20
156.2865580039755
 30
0.0
 10
267.1512701004295
 20
156.5899974579014
 30
0.0
 10
267.1130006257274
 20
156.8937872416068
 30
0.0
 10
267.0795357118108
 20
157.1594375814566
 30
0.0
  0
LINE
  5
C0
330
1F
100
AcDbEntity
  8
0
  6
Continuous
 62
     7
370
    25
100
AcDbLine
 10
266.89254104
 20
157.5138970907
 30
0.0
 11
267.0795357118
 21
157.1594375815
 31
0.0
  0
LINE
  5
C1
330
1F
100
AcDbEntity
  8
0
  6
Continuous
 62
     7
370
    25
100
AcDbLine
 10
265.8409958969
 20
159.3408930744
 30
0.0
 11
266.89254104
 21
157.5138970907
 31
0.0
  0
LINE
  5
C2
330
1F
100
AcDbEntity
  8
0
  6
Continuous
 62
     7
370
    25
100
AcDbLine
 10
265.5717617164
 20
159.8444647785
 30
0.0
 11
265.8409958969
 21
159.3408930744
 31
0.0
  0
LINE
  5
C3
330
1F
100
AcDbEntity
  8
0
  6
Continuous
 62
     7
370
    25
100
AcDbLine
 10
265.5717617164
 20
105.4580799933
 30
0.0
 11
265.8409958969
 21
106.0598019208
 31
0.0
  0
LINE
  5
C4
330
1F
100
AcDbEntity
  8
0
  6
Continuous
 62
     7
370
    25
100
AcDbLine
 10
265.8409958969
 20
106.0598019208
 30
0.0
 11
266.89254104
 21
107.4934854801
 31
0.0
  0
LINE
  5
C5
330
1F
100
AcDbEntity
  8
0
  6
Continuous
 62
     7
370
    25
100
AcDbLine
 10
266.89254104
 20
107.4934854801
 30
0.0
 11
267.0795357118
 21
107.9170304979
 31
0.0
  0
SPLINE
  5
C6
330
1F
100
AcDbEntity
  8
0
  6
Continuous
 62
     7
370
    25
100
AcDbSpline
210
0.0
220
0.0
230
1.0
 70
     8
 71
     3
 72
     9
 73
     5
 74
     0
 42
0.000000001
 43
0.00000001
 40
0.0
 40
0.0
 40
0.0
 40
0.0
 40
0.5000512113511664
 40
1.0
 40
1.0
 40
1.0
 40
1.0
 10
267.0795357118108
 20
107.9170304979453
 30
0.0
 10
267.1050705951438
 20
108.4780983181175
 30
0.0
 10
267.156135131642
 20
109.6001190380676
 30
0.0
 10
267.1050671082462
 20
110.7221399298742
 30
0.0
 10
267.0795357118108
 20
111.2830929155716
 30
0.0
  0
LINE
  5
C7
330
1F
100
AcDbEntity
  8
0
  6
Continuous
 62
     7
370
    25
100
AcDbLine
 10
266.89254104
 20
111.3077785517
 30
0.0
 11
267.0795357118
 21
111.2830929156
 31
0.0
  0
LINE
  5
C8
330
1F
100
AcDbEntity
  8
0
  6
Continuous
 62
     7
370
    25
100
AcDbLine
 10
265.8409958969
 20
110.348305821
 30
0.0
 11
266.89254104
 21
111.3077785517
 31
0.0
  0
LINE
  5
C9
330
1F
100
AcDbEntity
  8
0
  6
Continuous
 62
     7
370
    25
100
AcDbLine
 10
265.5717617164
 20
110.3833757038
 30
0.0
 11
265.8409958969
 21
110.348305821
 31
0.0
  0
LINE
  5
CA
330
1F
100
AcDbEntity
  8
0
  6
Continuous
 62
     7
370
    25
100
AcDbLine
 10
269.8152845989
 20
104.645610943
 30
0.0
 11
269.8152845989
 21
152.6456113602
 31
0.0
  0
ARC
  5
CB
330
1F
100
AcDbEntity
  8
0
  6
Continuous
 62
     7
370
    25
100
AcDbCircle
 10
254.5780858841
 20
138.3190249722
 30
0.0
 40
2.726682049950673
100
AcDbArc
 50
87.7408632898
 51
272.2591367102
  0
ARC
  5
CC
330
1F
100
AcDbEntity
  8
0
  6
Continuous
 62
     7
370
    25
100
AcDbCircle
 10
254.5860858252
 20
137.7440379735
 30
0.0
 40
2.43405945523435
100
AcDbArc
 50
87.6575852364
 51
206.2774816948
  0
LINE
  5
CD
330
1F
100
AcDbEntity
  8
0
  6
Continuous
 62
     7
370
    25
100
AcDbLine
 10
254.6855693946
 20
135.5944622006
 30
0.0
 11
265.8409958969
 21
135.5944622006
 31
0.0
  0
ARC
  5
CE
330
1F
100
AcDbEntity
  8
0
  6
Continuous
 62
     7
370
    25
100
AcDbCircle
 10
254.5886725637
 20
137.6699026229
 30
0.0
 40
2.129223589882275
100
AcDbArc
 50
87.3916795083
 51
239.6927898623
  0
LINE
  5
CF
330
1F
100
AcDbEntity
  8
0
  6
Continuous
 62
     7
370
    25
100
AcDbLine
 10
266.1369627605
 20
135.5198828201
 30
0.0
 11
267.0795357118
 21
135.5198828201
 31
0.0
  0
LINE
  5
D0
330
1F
100
AcDbEntity
  8
0
  6
Continuous
 62
     7
370
    25
100
AcDbLine
 10
254.6855693946
 20
139.7969202767
 30
0.0
 11
267.0795357118
 21
139.7969202767
 31
0.0
  0
LINE
  5
D1
330
1F
100
AcDbEntity
  8
0
  6
Continuous
 62
     7
370
    25
100
AcDbLine
 10
254.6855693946
 20
141.0435877438
 30
0.0
 11
265.8409958969
 21
141.0435877438
 31
0.0
  0
LINE
  5
D2
330
1F
100
AcDbEntity
  8
0
  6
Continuous
 62
     7
370
    25
100
AcDbLine
 10
254.6855693946
 20
140.1760635595
 30
0.0
 11
266.89254104
 21
140.1760635595
 31
0.0
  0
LWPOLYLINE
  5
D3
330
1F
100
AcDbEntity
  8
0
  6
Continuous
 62
     7
370
    25
100
AcDbPolyline
 90
       10
 70
   128
 43
0.0
 10
254.6855693946
 20
106.0598019208
 10
253.703865994
 20
106.1891160603
 10
252.8405821214
 20
106.5614606883
 10
252.1998321901
 20
107.1319274302
 10
251.858893622
 20
107.8317083116
 10
251.858893622
 20
108.5763994302
 10
252.1998321901
 20
109.276178449
 10
252.8405821214
 20
109.8466451909
 10
253.703865994
 20
110.2189916815
 10
254.6855693946
 20
110.348305821
  0
LINE
  5
D4
330
1F
100
AcDbEntity
  8
0
  6
Continuous
 62
     7
370
    25
100
AcDbLine
 10
254.6855693946
 20
110.348305821
 30
0.0
 11
265.8409958969
 21
110.348305821
 31
0.0
  0
ARC
  5
D5
330
1F
100
AcDbEntity
  8
0
  6
Continuous
 62
     7
370
    25
100
AcDbCircle
 10
254.3710697798
 20
109.7667227891
 30
0.0
 40
2.294889511658532
100
AcDbArc
 50
194.2007536284
 51
277.8768003261
  0
LINE
  5
D6
330
1F
100
AcDbEntity
  8
0
  6
Continuous
 62
     7
370
    25
100
AcDbLine
 10
266.8654805313
 20
111.2830929156
 30
0.0
 11
267.0795357118
 21
111.2830929156
 31
0.0
  0
ARC
  5
D7
330
1F
100
AcDbEntity
  8
0
  6
Continuous
 62
     7
370
    25
100
AcDbCircle
 10
254.4432602505
 20
109.9551583916
 30
0.0
 40
2.052481189252887
100
AcDbArc
 50
191.8324477092
 51
276.7799621187
  0
LINE
  5
D8
330
1F
100
AcDbEntity
  8
0
  6
Continuous
 62
     7
370
    25
100
AcDbLine
 10
254.6855693946
 20
107.9170304979
 30
0.0
 11
267.0795357118
 21
107.9170304979
 31
0.0
  0
LINE
  5
D9
330
1F
100
AcDbEntity
  8
0
  6
Continuous
 62
     7
370
    25
100
AcDbLine
 10
254.6855693946
 20
106.0598019208
 30
0.0
 11
265.8409958969
 21
106.0598019208
 31
0.0
  0
LINE
  5
DA
330
1F
100
AcDbEntity
  8
0
  6
Continuous
 62
     7
370
    25
100
AcDbLine
 10
254.6855693946
 20
107.4934854801
 30
0.0
 11
266.89254104
 21
107.4934854801
 31
0.0
  0
ARC
  5
DB
330
1F
100
AcDbEntity
  8
0
  6
Continuous
 62
     7
370
    25
100
AcDbCircle
 10
253.960352196
 20
155.6589091149
 30
0.0
 40
3.75272512495752
100
AcDbArc
 50
78.857440692
 51
124.8267000421
  0
LINE
  5
DC
330
1F
100
AcDbEntity
  8
0
  6
Continuous
 62
     7
370
    25
100
AcDbLine
 10
266.4729392419
 20
157.1594375815
 30
0.0
 11
267.0795357118
 21
157.1594375815
 31
0.0
  0
LINE
  5
DD
330
1F
100
AcDbEntity
  8
0
  6
Continuous
 62
     7
370
    25
100
AcDbLine
 10
266.2535047422
 20
157.5138970907
 30
0.0
 11
266.89254104
 21
157.5138970907
 31
0.0
  0
LINE
  5
DE
330
1F
100
AcDbEntity
  8
0
  6
Continuous
 62
     7
370
    25
100
AcDbLine
 10
254.6855693946
 20
159.3408930744
 30
0.0
 11
265.8409958969
 21
159.3408930744
 31
0.0
  0
LINE
  5
DF
330
1F
100
AcDbEntity
  8
0
  6
Continuous
 62
     7
370
    25
100
AcDbLine
 10
97.7652816365
 20
79.8706162418
 30
0.0
 11
93.0773111324
 21
79.8706162418
 31
0.0
  0
LINE
  5
E0
330
1F
100
AcDbEntity
  8
0
  6
Continuous
 62
     7
370
    25
100
AcDbLine
 10
93.0773111324
 20
79.8706162418
 30
0.0
 11
93.0773111324
 21
159.9956128444
 31
0.0
  0
LINE
  5
E1
330
1F
100
AcDbEntity
  8
0
  6
Continuous
 62
     7
370
    25
100
AcDbLine
 10
93.0773111324
 20
159.9956128444
 30
0.0
 11
97.7652816365
 21
159.9956128444
 31
0.0
  0
LINE
  5
E2
330
1F
100
AcDbEntity
  8
0
  6
Continuous
 62
     7
370
    25
100
AcDbLine
 10
87.9052819947
 20
82.2742219712
 30
0.0
 11
87.9052819947
 21
159.9956128444
 31
0.0
  0
SPLINE
  5
E3
330
1F
100
AcDbEntity
  8
0
  6
Continuous
 62
     7
370
    25
100
AcDbSpline
210
0.0
220
0.0
230
1.0
 70
     8
 71
     3
 72
     8
 73
     4
 74
     0
 42
0.000000001
 43
0.00000001
 40
0.0
 40
0.0
 40
0.0
 40
0.0
 40
1.0
 40
1.0
 40
1.0
 40
1.0
 10
87.90528161864057
 20
82.27422286458926
 30
0.0
 10
87.45505515436278
 20
81.4727675019645
 30
0.0
 10
87.0043573271194
 20
80.67157749040382
 30
0.0
 10
86.55325259771917
 20
79.8706175585839
 30
0.0
  0
LINE
  5
E4
330
1F
100
AcDbEntity
  8
0
  6
Continuous
 62
     7
370
    25
100
AcDbLine
 10
86.5532530735
 20
79.8706162418
 30
0.0
 11
86.5532530735
 21
159.9956128444
 31
0.0
  0
SPLINE
  5
E5
330
1F
100
AcDbEntity
  8
0
  6
Continuous
 62
     7
370
    25
100
AcDbSpline
210
0.0
220
0.0
230
1.0
 70
    24
 71
     3
 72
     8
 73
     4
 74
     0
 42
0.000000001
 43
0.00000001
 40
0.0
 40
0.0
 40
0.0
 40
0.0
 40
1.0
 40
1.0
 40
1.0
 40
1.0
 10
86.55325259771917
 20
159.9956111516127
 30
0.0
 10
87.0100541700474
 20
159.9956111516127
 30
0.0
 10
87.46106873628662
 20
159.9956111516127
 30
0.0
 10
87.90528161864057
 20
159.9956111516127
 30
0.0
  0
SPLINE
  5
E6
330
1F
100
AcDbEntity
  8
0
  6
Continuous
 62
     7
370
    25
100
AcDbSpline
210
0.0
220
0.0
230
1.0
 70
    11
 71
     3
 72
    80
 73
    76
 74
     0
 42
0.000000001
 43
0.00000001
 40
0.0
 40
0.0
 40
0.0
 40
0.0
 40
0.0312499999999995
 40
0.0312499999999995
 40
0.0468749999999993
 40
0.0468749999999993
 40
0.0624999999999991
 40
0.0624999999999991
 40
0.0937499999999988
 40
0.0937499999999988
 40
0.1249999999999986
 40
0.1249999999999986
 40
0.1562499999999983
 40
0.1562499999999983
 40
0.1874999999999981
 40
0.1874999999999981
 40
0.2187499999999978
 40
0.2187499999999978
 40
0.2499999999999976
 40
0.2499999999999976
 40
0.2812499999999973
 40
0.2812499999999973
 40
0.3124999999999971
 40
0.3124999999999971
 40
0.3281249999999971
 40
0.3281249999999971
 40
0.3437499999999971
 40
0.3437499999999971
 40
0.3749999999999973
 40
0.3749999999999973
 40
0.4062499999999975
 40
0.4062499999999975
 40
0.4218749999999975
 40
0.4218749999999975
 40
0.4374999999999974
 40
0.4374999999999974
 40
0.4687499999999973
 40
0.4687499999999973
 40
0.4999999999999972
 40
0.4999999999999972
 40
0.531249999999997
 40
0.531249999999997
 40
0.562499999999997
 40
0.562499999999997
 40
0.5937499999999969
 40
0.5937499999999969
 40
0.6249999999999969
 40
0.6249999999999969
 40
0.6562499999999968
 40
0.6562499999999968
 40
0.6874999999999968
 40
0.6874999999999968
 40
0.7031249999999968
 40
0.7031249999999968
 40
0.7187499999999969
 40
0.7187499999999969
 40
0.7499999999999973
 40
0.7499999999999973
 40
0.7812499999999979
 40
0.7812499999999979
 40
0.7968749999999982
 40
0.7968749999999982
 40
0.8124999999999984
 40
0.8124999999999984
 40
0.8437499999999988
 40
0.8437499999999988
 40
0.874999999999999
 40
0.874999999999999
 40
0.9062499999999993
 40
0.9062499999999993
 40
0.9374999999999996
 40
0.9374999999999996
 40
0.9687499999999999
 40
0.9687499999999999
 40
1.0
 40
1.0
 40
1.0
 40
1.0
 10
78.81528161864057
 20
172.060240615244
 30
0.0
 10
79.14582693141688
 20
172.060240615244
 30
0.0
 10
79.4708070606685
 20
172.0764488466262
 30
0.0
 10
79.95028047191492
 20
172.1238134786458
 30
0.0
 10
80.10876228975573
 20
172.1434676905364
 30
0.0
 10
80.42298182226001
 20
172.190578846729
 30
0.0
 10
80.57910210594041
 20
172.2181601662237
 30
0.0
 10
81.033156134897
 20
172.3106959530175
 30
0.0
 10
81.32025951783682
 20
172.385766386614
 30
0.0
 10
81.86361407386383
 20
172.5610046952246
 30
0.0
 10
82.12071768506941
 20
172.6620059930628
 30
0.0
 10
82.5816239400082
 20
172.8793621915237
 30
0.0
 10
82.78852164922318
 20
172.996526523296
 30
0.0
 10
83.15404696321538
 20
173.2465964475246
 30
0.0
 10
83.30925248534133
 20
173.3775425362836
 30
0.0
 10
83.55868287194104
 20
173.6432774799959
 30
0.0
 10
83.6547728277262
 20
173.7800310733069
 30
0.0
 10
83.78329167691977
 20
174.0540966481459
 30
0.0
 10
83.81510254709757
 20
174.1890367386147
 30
0.0
 10
83.81545919687083
 20
174.4545083756835
 30
0.0
 10
83.78296194467377
 20
174.5863328528247
 30
0.0
 10
83.65533647095927
 20
174.8357824524451
 30
0.0
 10
83.5609080699074
 20
174.9542151443731
 30
0.0
 10
83.37304724992184
 20
175.1230843414672
 30
0.0
 10
83.30221925111866
 20
175.1781703365874
 30
0.0
 10
83.14749735915336
 20
175.2834231650758
 30
0.0
 10
83.06352088896998
 20
175.3337583938362
 30
0.0
 10
82.79219721932554
 20
175.4783342263742
 30
0.0
 10
82.58564800072321
 20
175.5661958127912
 30
0.0
 10
82.11903786053419
 20
175.7259169057907
 30
0.0
 10
81.86667229090872
 20
175.7951552022579
 30
0.0
 10
81.46077094923001
 20
175.8849425914877
 30
0.0
 10
81.32087033175253
 20
175.912508553574
 30
0.0
 10
81.03164639650561
 20
175.9629993545003
 30
0.0
 10
80.88180694021634
 20
175.985962793351
 30
0.0
 10
80.42769037060555
 20
176.0465933097698
 30
0.0
 10
80.11603915186869
 20
176.0766673385656
 30
0.0
 10
79.47504268695631
 20
176.1172569258243
 30
0.0
 10
79.14351505900413
 20
176.1275691560403
 30
0.0
 10
78.49072401393266
 20
176.1276447232061
 30
0.0
 10
78.16618780890083
 20
176.1177431177384
 30
0.0
 10
77.52091835948443
 20
176.0772565872131
 30
0.0
 10
77.2051753533217
 20
176.0467952873285
 30
0.0
 10
76.603286058338
 20
175.9666446158919
 30
0.0
 10
76.31253682752653
 20
175.9163623840847
 30
0.0
 10
75.76562503584202
 20
175.7956922013117
 30
0.0
 10
75.51384767200511
 20
175.7264683421417
 30
0.0
 10
75.05245967938399
 20
175.569016614501
 30
0.0
 10
74.84119039978589
 20
175.4796681398273
 30
0.0
 10
74.4778860474097
 20
175.2864202691265
 30
0.0
 10
74.3240793989669
 20
175.1822922772472
 30
0.0
 10
74.1354599293695
 20
175.0136678910637
 30
0.0
 10
74.07942944316038
 20
174.9550394893888
 30
0.0
 10
73.98385568142422
 20
174.8355845745625
 30
0.0
 10
73.94409276439923
 20
174.7746647857243
 30
0.0
 10
73.84832101408709
 20
174.5882600595504
 30
0.0
 10
73.81559817496097
 20
174.4591472417554
 30
0.0
 10
73.81496958863188
 20
174.1904903187995
 30
0.0
 10
73.84715573336668
 20
174.0551195780428
 30
0.0
 10
73.94206643522224
 20
173.8515692698068
 30
0.0
 10
73.98153321862121
 20
173.7835973457434
 30
0.0
 10
74.07646321734208
 20
173.6475051226124
 30
0.0
 10
74.13222004510546
 20
173.579155022403
 30
0.0
 10
74.32016016307534
 20
173.3784520093609
 30
0.0
 10
74.47352163279153
 20
173.2490637355482
 30
0.0
 10
74.83578586767189
 20
173.0003983034984
 30
0.0
 10
75.04663434113779
 20
172.8805886611302
 30
0.0
 10
75.5073043114567
 20
172.6630663735575
 30
0.0
 10
75.75867869104054
 20
172.5639812737216
 30
0.0
 10
76.30458657793866
 20
172.3873087998048
 30
0.0
 10
76.5954091525899
 20
172.3112517116707
 30
0.0
 10
77.19673576736993
 20
172.1884067343177
 30
0.0
 10
77.5112543519823
 20
172.1407006092646
 30
0.0
 10
78.15783580810226
 20
172.076452074145
 30
0.0
 10
78.48473630586425
 20
172.060240615244
 30
0.0
 10
78.81528161864057
 20
172.060240615244
 30
0.0
  0
LINE
  5
E7
330
1F
100
AcDbEntity
  8
0
  6
Continuous
 62
     7
370
    25
100
AcDbLine
 10
74.7652815918
 20
159.9956128444
 30
0.0
 11
86.5532530735
 21
159.9956128444
 31
0.0
  0
LINE
  5
E8
330
1F
100
AcDbEntity
  8
0
  6
Continuous
 62
     7
370
    25
100
AcDbLine
 10
86.5532530735
 20
79.8706162418
 30
0.0
 11
84.7652813683
 21
79.8706162418
 31
0.0
  0
SPLINE
  5
E9
330
1F
100
AcDbEntity
  8
0
  6
Continuous
 62
     7
370
    25
100
AcDbSpline
210
0.0
220
0.0
230
1.0
 70
     8
 71
     3
 72
    30
 73
    26
 74
     0
 42
0.000000001
 43
0.00000001
 40
0.0
 40
0.0
 40
0.0
 40
0.0
 40
0.1250000000000002
 40
0.1250000000000002
 40
0.1875000000000003
 40
0.1875000000000003
 40
0.2500000000000004
 40
0.2500000000000004
 40
0.3750000000000001
 40
0.3750000000000001
 40
0.4374999999999998
 40
0.4374999999999998
 40
0.4999999999999996
 40
0.4999999999999996
 40
0.6249999999999996
 40
0.6249999999999996
 40
0.6874999999999997
 40
0.6874999999999997
 40
0.7499999999999997
 40
0.7499999999999997
 40
0.8124999999999998
 40
0.8124999999999998
 40
0.8749999999999999
 40
0.8749999999999999
 40
1.0
 40
1.0
 40
1.0
 40
1.0
 10
84.76528161864056
 20
79.8706175585839
 30
0.0
 10
84.10253692479553
 20
79.87061755858392
 30
0.0
 10
83.45128106567981
 20
79.8557774819951
 30
0.0
 10
82.49083052742154
 20
79.81340791776547
 30
0.0
 10
82.17343908418857
 20
79.79592981498632
 30
0.0
 10
81.54427558263372
 20
79.754601528434
 30
0.0
 10
81.23212739619198
 20
79.73067625497632
 30
0.0
 10
80.32482009434375
 20
79.6518697385094
 30
0.0
 10
79.75139513670248
 20
79.58956371853293
 30
0.0
 10
78.93751826712781
 20
79.48643439829357
 30
0.0
 10
78.67271207055795
 20
79.45025047924706
 30
0.0
 10
78.16580465974363
 20
79.37645569504656
 30
0.0
 10
77.92441050839014
 20
79.33898183627491
 30
0.0
 10
77.2352690362578
 20
79.22626989293519
 30
0.0
 10
76.82221422139355
 20
79.15073379546139
 30
0.0
 10
76.2740594020185
 20
79.04234053844391
 30
0.0
 10
76.10459679467291
 20
79.00726830678065
 30
0.0
 10
75.79657954665754
 20
78.94103284618079
 30
0.0
 10
75.65719952604917
 20
78.90970614942609
 30
0.0
 10
75.40741401342244
 20
78.85129737784513
 30
0.0
 10
75.29700790076852
 20
78.82421414266229
 30
0.0
 10
75.10575004713078
 20
78.77495438804871
 30
0.0
 10
75.0246305288465
 20
78.75269240824106
 30
0.0
 10
74.8304836087381
 20
78.69512550107278
 30
0.0
 10
74.76528161864056
 20
78.6688658962868
 30
0.0
 10
74.76528161864056
 20
78.65561215181278
 30
0.0
  0
LINE
  5
EA
330
1F
100
AcDbEntity
  8
0
  6
Continuous
 62
     7
370
    25
100
AcDbLine
 10
74.7652815918
 20
78.655612811
 30
0.0
 11
74.7652815918
 21
78.6456104066
 31
0.0
  0
SPLINE
  5
EB
330
1F
100
AcDbEntity
  8
0
  6
Continuous
 62
     7
370
    25
100
AcDbSpline
210
0.0
220
0.0
230
1.0
 70
     8
 71
     3
 72
    16
 73
    12
 74
     0
 42
0.000000001
 43
0.00000001
 40
0.0
 40
0.0
 40
0.0
 40
0.0
 40
0.1044609452868673
 40
0.2119899041733711
 40
0.4231147888925457
 40
0.5288823563416272
 40
0.6376620523556941
 40
0.7442840956959649
 40
0.8540766861705821
 40
0.9592782114992571
 40
1.0
 40
1.0
 40
1.0
 40
1.0
 10
84.76528136830106
 20
177.6354062999854
 30
0.0
 10
84.2172478353302
 20
177.640811063517
 30
0.0
 10
83.10508504741706
 20
177.6517793282593
 30
0.0
 10
80.95047976649462
 20
177.7649079720847
 30
0.0
 10
78.96379335374739
 20
177.9645502793057
 30
0.0
 10
77.332896439841
 20
178.1918691535691
 30
0.0
 10
76.30899722340217
 20
178.3571495776704
 30
0.0
 10
75.50879988791611
 20
178.5008710866935
 30
0.0
 10
74.9984286250619
 20
178.5990303800633
 30
0.0
 10
74.75852887089574
 20
178.6469527608454
 30
0.0
 10
74.79044725567778
 20
178.6405861904246
 30
0.0
 10
74.79935449387207
 20
178.6388095165858
 30
0.0
  0
LINE
  5
EC
330
1F
100
AcDbEntity
  8
0
  6
Continuous
 62
     7
370
    25
100
AcDbLine
 10
86.5532530735
 20
177.6354063
 30
0.0
 11
84.7652813683
 21
177.6354063
 31
0.0
  0
LINE
  5
ED
330
1F
100
AcDbEntity
  8
0
  6
Continuous
 62
     7
370
    25
100
AcDbLine
 10
86.5532530735
 20
167.5965722348
 30
0.0
 11
86.5532530735
 21
177.6354063
 31
0.0
  0
LINE
  5
EE
330
1F
100
AcDbEntity
  8
0
  6
Continuous
 62
     7
370
    25
100
AcDbLine
 10
84.4732484112
 20
167.5965722348
 30
0.0
 11
86.5532530735
 21
167.5965722348
 31
0.0
  0
SPLINE
  5
EF
330
1F
100
AcDbEntity
  8
0
  6
Continuous
 62
     7
370
    25
100
AcDbSpline
210
0.0
220
0.0
230
1.0
 70
     8
 71
     3
 72
    22
 73
    18
 74
     0
 42
0.000000001
 43
0.00000001
 40
0.0
 40
0.0
 40
0.0
 40
0.0
 40
0.2500000000000002
 40
0.2500000000000002
 40
0.3750000000000003
 40
0.3750000000000003
 40
0.5000000000000004
 40
0.5000000000000004
 40
0.6250000000000004
 40
0.6250000000000004
 40
0.7500000000000004
 40
0.7500000000000004
 40
0.8750000000000004
 40
0.8750000000000004
 40
0.9375000000000002
 40
0.9375000000000002
 40
1.0
 40
1.0
 40
1.0
 40
1.0
 10
74.76528161864054
 20
159.9956111516127
 30
0.0
 10
74.96800657455964
 20
161.0148574934773
 30
0.0
 10
75.28275029635502
 20
161.9739656434166
 30
0.0
 10
75.99080576602599
 20
163.3164447209259
 30
0.0
 10
76.26926839624363
 20
163.750653303666
 30
0.0
 10
76.90803580288083
 20
164.562281019168
 30
0.0
 10
77.26844948267103
 20
164.9415613121049
 30
0.0
 10
78.08598171466032
 20
165.6445198911259
 30
0.0
 10
78.54714969794745
 20
165.9695487088265
 30
0.0
 10
79.54513994443124
 20
166.5345640322174
 30
0.0
 10
80.08489913842352
 20
166.7782676264239
 30
0.0
 10
81.25949210245484
 20
167.1824675540688
 30
0.0
 10
81.87122828844672
 20
167.3349047471143
 30
0.0
 10
82.82313751330841
 20
167.490232294723
 30
0.0
 10
83.14637067756908
 20
167.5297370747731
 30
0.0
 10
83.80543384884434
 20
167.5830461954418
 30
0.0
 10
84.13949785941833
 20
167.5965739124997
 30
0.0
 10
84.47324846681987
 20
167.5965739124997
 30
0.0
  0
SPLINE
  5
F0
330
1F
100
AcDbEntity
  8
0
  6
Continuous
 62
     7
370
    25
100
AcDbSpline
210
0.0
220
0.0
230
1.0
 70
     8
 71
     3
 72
     8
 73
     4
 74
     0
 42
0.000000001
 43
0.00000001
 40
0.0
 40
0.0
 40
0.0
 40
0.0
 40
1.0
 40
1.0
 40
1.0
 40
1.0
 10
93.07731063956194
 20
79.8706175585839
 30
0.0
 10
92.62620591016174
 20
80.67157749040382
 30
0.0
 10
92.17550808291834
 20
81.4727675019645
 30
0.0
 10
91.72528161864057
 20
82.27422286458926
 30
0.0
  0
LINE
  5
F1
330
1F
100
AcDbEntity
  8
0
  6
Continuous
 62
     7
370
    25
100
AcDbLine
 10
91.7252822111
 20
82.2742219712
 30
0.0
 11
91.7252822111
 21
159.9956128444
 31
0.0
  0
SPLINE
  5
F2
330
1F
100
AcDbEntity
  8
0
  6
Continuous
 62
     7
370
    25
100
AcDbSpline
210
0.0
220
0.0
230
1.0
 70
    24
 71
     3
 72
     8
 73
     4
 74
     0
 42
0.000000001
 43
0.00000001
 40
0.0
 40
0.0
 40
0.0
 40
0.0
 40
1.0
 40
1.0
 40
1.0
 40
1.0
 10
91.72528161864057
 20
159.9956111516127
 30
0.0
 10
92.1694945009945
 20
159.9956111516127
 30
0.0
 10
92.62050906723371
 20
159.9956111516127
 30
0.0
 10
93.07731063956194
 20
159.9956111516127
 30
0.0
  0
LINE
  5
F3
330
1F
100
AcDbEntity
  8
0
  6
Continuous
 62
     7
370
    25
100
AcDbLine
 10
69.8152816186
 20
79.1456114198
 30
0.0
 11
69.8152816186
 21
178.1456108834
 31
0.0
  0
LINE
  5
F4
330
1F
100
AcDbEntity
  8
0
  6
Continuous
 62
     7
370
    25
100
AcDbLine
 10
98.7652818004
 20
80.8962668921
 30
0.0
 11
98.7652818004
 21
159.9956128444
 31
0.0
  0
SPLINE
  5
F5
330
1F
100
AcDbEntity
  8
0
  6
Continuous
 62
     7
370
    25
100
AcDbSpline
210
0.0
220
0.0
230
1.0
 70
     8
 71
     3
 72
    14
 73
    10
 74
     0
 42
0.000000001
 43
0.00000001
 40
0.0
 40
0.0
 40
0.0
 40
0.0
 40
0.25
 40
0.25
 40
0.5
 40
0.5
 40
0.75
 40
0.75
 40
1.0
 40
1.0
 40
1.0
 40
1.0
 10
98.76528161864057
 20
80.89626560635944
 30
0.0
 10
98.76528161864057
 20
80.76283991030489
 30
0.0
 10
98.73997051872969
 20
80.63099210246052
 30
0.0
 10
98.64163575488494
 20
80.38446955376644
 30
0.0
 10
98.56849175062888
 20
80.27066436552587
 30
0.0
 10
98.3850536895332
 20
80.08020718857861
 30
0.0
 10
98.2733673551946
 20
80.0025723247287
 30
0.0
 10
98.03086392488831
 20
79.89828091461624
 30
0.0
 10
97.89748949619408
 20
79.87061755858387
 30
0.0
 10
97.76528161864057
 20
79.87061755858387
 30
0.0
  0
SPLINE
  5
F6
330
1F
100
AcDbEntity
  8
0
  6
Continuous
 62
     7
370
    25
100
AcDbSpline
210
0.0
220
0.0
230
1.0
 70
    24
 71
     3
 72
    12
 73
     8
 74
     0
 42
0.000000001
 43
0.00000001
 40
0.0
 40
0.0
 40
0.0
 40
0.0
 40
0.2500000000000032
 40
0.2500000000000032
 40
0.5000000000000064
 40
0.5000000000000064
 40
1.0
 40
1.0
 40
1.0
 40
1.0
 10
97.76528161864057
 20
159.9956111516127
 30
0.0
 10
97.91737185558554
 20
159.9956111516127
 30
0.0
 10
98.06583111666096
 20
159.9956111516127
 30
0.0
 10
98.32323474892668
 20
159.9956111516127
 30
0.0
 10
98.43233949676859
 20
159.9956111516127
 30
0.0
 10
98.68639897317613
 20
159.9956111516127
 30
0.0
 10
98.76528161864057
 20
159.9956111516127
 30
0.0
 10
98.76528161864057
 20
159.9956111516127
 30
0.0
  0
SPLINE
  5
F7
330
1F
100
AcDbEntity
  8
0
  6
Continuous
 62
     7
370
    25
100
AcDbSpline
210
0.0
220
0.0
230
1.0
 70
     8
 71
     3
 72
    14
 73
    10
 74
     0
 42
0.000000001
 43
0.00000001
 40
0.0
 40
0.0
 40
0.0
 40
0.0
 40
0.25
 40
0.25
 40
0.5
 40
0.5
 40
0.75
 40
0.75
 40
1.0
 40
1.0
 40
1.0
 40
1.0
 10
91.72528161864058
 20
83.18243236921782
 30
0.0
 10
91.72528161864057
 20
83.28947645021222
 30
0.0
 10
91.70516393148239
 20
83.39471159045466
 30
0.0
 10
91.62667274221677
 20
83.59256207730235
 30
0.0
 10
91.56851611741557
 20
83.68361384086727
 30
0.0
 10
91.42200086179751
 20
83.83677993479205
 30
0.0
 10
91.33335831315642
 20
83.89907438100145
 30
0.0
 10
91.1376349903561
 20
83.98386816653743
 30
0.0
 10
91.03240379928515
 20
84.00593569356307
 30
0.0
 10
90.92528161864057
 20
84.00593569356307
 30
0.0
  0
SPLINE
  5
F8
330
1F
100
AcDbEntity
  8
0
  6
Continuous
 62
     7
370
    25
100
AcDbSpline
210
0.0
220
0.0
230
1.0
 70
    24
 71
     3
 72
    14
 73
    10
 74
     0
 42
0.000000001
 43
0.00000001
 40
0.0
 40
0.0
 40
0.0
 40
0.0
 40
0.25
 40
0.25
 40
0.5
 40
0.5
 40
0.75
 40
0.75
 40
1.0
 40
1.0
 40
1.0
 40
1.0
 10
90.92528161864057
 20
159.9956111516127
 30
0.0
 10
91.04905138340571
 20
159.9956111516127
 30
0.0
 10
91.17341848741259
 20
159.9956111516127
 30
0.0
 10
91.37977495613863
 20
159.9956111516127
 30
0.0
 10
91.465103099557
 20
159.9956111516127
 30
0.0
 10
91.59729515827222
 20
159.9956111516127
 30
0.0
 10
91.64594040202282
 20
159.9956111516127
 30
0.0
 10
91.70947619375156
 20
159.9956111516127
 30
0.0
 10
91.72528161864058
 20
159.9956111516127
 30
0.0
 10
91.72528161864058
 20
159.9956111516127
 30
0.0
  0
SPLINE
  5
F9
330
1F
100
AcDbEntity
  8
0
  6
Continuous
 62
     7
370
    25
100
AcDbSpline
210
0.0
220
0.0
230
1.0
 70
     8
 71
     3
 72
    12
 73
     8
 74
     0
 42
0.000000001
 43
0.00000001
 40
0.0
 40
0.0
 40
0.0
 40
0.0
 40
0.250000000000003
 40
0.250000000000003
 40
0.500000000000006
 40
0.500000000000006
 40
1.0
 40
1.0
 40
1.0
 40
1.0
 10
88.70528161864056
 20
84.00593569356307
 30
0.0
 10
88.59952096529162
 20
84.00593569356307
 30
0.0
 10
88.49153333710866
 20
83.98339618756268
 30
0.0
 10
88.29693867184305
 20
83.89882555556736
 30
0.0
 10
88.2080667590042
 20
83.83634390280854
 30
0.0
 10
87.9888744666783
 20
83.60695495133629
 30
0.0
 10
87.9052816186405
 20
83.39437161381389
 30
0.0
 10
87.90528161864053
 20
83.18243236921768
 30
0.0
  0
SPLINE
  5
FA
330
1F
100
AcDbEntity
  8
0
  6
Continuous
 62
     7
370
    25
100
AcDbSpline
210
0.0
220
0.0
230
1.0
 70
    24
 71
     3
 72
    14
 73
    10
 74
     0
 42
0.000000001
 43
0.00000001
 40
0.0
 40
0.0
 40
0.0
 40
0.0
 40
0.25
 40
0.25
 40
0.5
 40
0.5
 40
0.75
 40
0.75
 40
1.0
 40
1.0
 40
1.0
 40
1.0
 10
87.90528161864054
 20
159.9956111516127
 30
0.0
 10
87.90528161864054
 20
159.9956111516127
 30
0.0
 10
87.92099593910649
 20
159.9956111516127
 30
0.0
 10
87.98467991757488
 20
159.9956111516127
 30
0.0
 10
88.03328311198533
 20
159.9956111516127
 30
0.0
 10
88.1659666344109
 20
159.9956111516127
 30
0.0
 10
88.25106873872159
 20
159.9956111516127
 30
0.0
 10
88.45751097363163
 20
159.9956111516127
 30
0.0
 10
88.58159191525465
 20
159.9956111516127
 30
0.0
 10
88.70528161864056
 20
159.9956111516127
 30
0.0
  0
LINE
  5
FB
330
1F
100
AcDbEntity
  8
0
  6
Continuous
 62
     7
370
    25
100
AcDbLine
 10
90.9252817075
 20
84.0059343423
 30
0.0
 11
88.7052824984
 21
84.0059343423
 31
0.0
  0
LINE
  5
FC
330
1F
100
AcDbEntity
  8
0
  6
Continuous
 62
     7
370
    25
100
AcDbLine
 10
88.7052824984
 20
159.9956128444
 30
0.0
 11
90.9252817075
 21
159.9956128444
 31
0.0
  0
LINE
  5
FD
330
1F
100
AcDbEntity
  8
0
  6
Continuous
 62
     7
370
    25
100
AcDbLine
 10
35.0152811299
 20
92.3815976526
 30
0.0
 11
35.0152811299
 21
94.7762775864
 31
0.0
  0
SPLINE
  5
FE
330
1F
100
AcDbEntity
  8
0
  6
Continuous
 62
     7
370
    25
100
AcDbSpline
210
0.0
220
0.0
230
1.0
 70
     8
 71
     3
 72
    14
 73
    10
 74
     0
 42
0.000000001
 43
0.00000001
 40
0.0
 40
0.0
 40
0.0
 40
0.0
 40
0.25
 40
0.25
 40
0.5
 40
0.5
 40
0.75
 40
0.75
 40
1.0
 40
1.0
 40
1.0
 40
1.0
 10
34.01085914730359
 20
96.47912980786919
 30
0.0
 10
34.09962772524892
 20
96.32059567656123
 30
0.0
 10
34.22134556392783
 20
96.16815299967269
 30
0.0
 10
34.45639517378467
 20
95.87101837584376
 30
0.0
 10
34.57202536000156
 20
95.7263357322264
 30
0.0
 10
34.77243029342939
 20
95.44304652972299
 30
0.0
 10
34.85783058541369
 20
95.30449253668613
 30
0.0
 10
34.97953621913094
 20
95.03310850665261
 30
0.0
 10
35.01528161864358
 20
94.90097263801799
 30
0.0
 10
35.01528161864356
 20
94.77627788624721
 30
0.0
  0
SPLINE
  5
FF
330
1F
100
AcDbEntity
  8
0
  6
Continuous
 62
     7
370
    25
100
AcDbSpline
210
0.0
220
0.0
230
1.0
 70
     8
 71
     3
 72
    14
 73
    10
 74
     0
 42
0.000000001
 43
0.00000001
 40
0.0
 40
0.0
 40
0.0
 40
0.0
 40
0.1249999999999983
 40
0.1249999999999983
 40
0.2499999999999966
 40
0.2499999999999966
 40
0.4999999999999978
 40
0.4999999999999978
 40
1.0
 40
1.0
 40
1.0
 40
1.0
 10
33.11528161864055
 20
97.10795974696929
 30
0.0
 10
33.18286391842505
 20
97.11511563207068
 30
0.0
 10
33.25535149617295
 20
97.1106911620317
 30
0.0
 10
33.38764260543889
 20
97.08098500426135
 30
0.0
 10
33.44491998482907
 20
97.05770072268311
 30
0.0
 10
33.59457041202935
 20
96.98021548283278
 30
0.0
 10
33.66828370755086
 20
96.91836365593143
 30
0.0
 10
33.85609169087708
 20
96.73368620328309
 30
0.0
 10
33.94013199723854
 20
96.60544327999187
 30
0.0
 10
34.01085914730481
 20
96.4791298078693
 30
0.0
  0
SPLINE
  5
100
330
1F
100
AcDbEntity
  8
0
  6
Continuous
 62
     7
370
    25
100
AcDbSpline
210
0.0
220
0.0
230
1.0
 70
     8
 71
     3
 72
     8
 73
     4
 74
     0
 42
0.000000001
 43
0.00000001
 40
0.0
 40
0.0
 40
0.0
 40
0.0
 40
1.0
 40
1.0
 40
1.0
 40
1.0
 10
29.57064123055978
 20
96.68991116217752
 30
0.0
 10
30.73593954126863
 20
96.84509863406414
 30
0.0
 10
31.92055475530847
 20
96.98145727237446
 30
0.0
 10
33.11528161864055
 20
97.10795974696929
 30
0.0
  0
SPLINE
  5
101
330
1F
100
AcDbEntity
  8
0
  6
Continuous
 62
     7
370
    25
100
AcDbSpline
210
0.0
220
0.0
230
1.0
 70
     8
 71
     3
 72
    14
 73
    10
 74
     0
 42
0.000000001
 43
0.00000001
 40
0.0
 40
0.0
 40
0.0
 40
0.0
 40
0.4999999999999989
 40
0.4999999999999989
 40
0.7499999999999983
 40
0.7499999999999983
 40
0.8749999999999991
 40
0.8749999999999991
 40
1.0
 40
1.0
 40
1.0
 40
1.0
 10
21.81520673461021
 20
96.39977898304758
 30
0.0
 10
23.12350829714424
 20
96.4067937067887
 30
0.0
 10
24.42856767180132
 20
96.42220228323318
 30
0.0
 10
26.37444372329004
 20
96.47609883869984
 30
0.0
 10
27.02114122702919
 20
96.49913040330253
 30
0.0
 10
27.98498359088375
 20
96.55007292817332
 30
0.0
 10
28.3052222828179
 20
96.5698078504065
 30
0.0
 10
28.94191750916042
 20
96.61929497887807
 30
0.0
 10
29.25863291744341
 20
96.64835975780731
 30
0.0
 10
29.5706412305598
 20
96.68991116217748
 30
0.0
  0
SPLINE
  5
102
330
1F
100
AcDbEntity
  8
0
  6
Continuous
 62
     7
370
    25
100
AcDbSpline
210
0.0
220
0.0
230
1.0
 70
     8
 71
     3
 72
    12
 73
     8
 74
     0
 42
0.000000001
 43
0.00000001
 40
0.0
 40
0.0
 40
0.0
 40
0.0
 40
0.2500000000000001
 40
0.2500000000000001
 40
0.5000000000000001
 40
0.5000000000000001
 40
1.0
 40
1.0
 40
1.0
 40
1.0
 10
28.11528161864056
 20
160.7321340431091
 30
0.0
 10
27.59658279681237
 20
160.7646568179574
 30
0.0
 10
27.07487122360738
 20
160.7879535591278
 30
0.0
 10
26.0285792071118
 20
160.82579907355
 30
0.0
 10
25.50390758144154
 20
160.8400675480461
 30
0.0
 10
23.92706155890231
 20
160.8742770355044
 30
0.0
 10
22.87210624435543
 20
160.8857765394483
 30
0.0
 10
21.81520673461021
 20
160.8914433201778
 30
0.0
  0
SPLINE
  5
103
330
1F
100
AcDbEntity
  8
0
  6
Continuous
 62
     7
370
    25
100
AcDbSpline
210
0.0
220
0.0
230
1.0
 70
     8
 71
     3
 72
    20
 73
    16
 74
     0
 42
0.000000001
 43
0.00000001
 40
0.0
 40
0.0
 40
0.0
 40
0.0
 40
0.2499999999999982
 40
0.2499999999999982
 40
0.4999999999999964
 40
0.4999999999999964
 40
0.7499999999999947
 40
0.7499999999999947
 40
0.8749999999999962
 40
0.8749999999999962
 40
0.9374999999999978
 40
0.9374999999999978
 40
0.9687499999999989
 40
0.9687499999999989
 40
1.0
 40
1.0
 40
1.0
 40
1.0
 10
30.01528161864056
 20
162.3902198885973
 30
0.0
 10
30.01528161864056
 20
162.2545375688505
 30
0.0
 10
29.96656982942393
 20
162.1134505827104
 30
0.0
 10
29.79740840619874
 20
161.8213788639799
 30
0.0
 10
29.67562799228044
 20
161.6697301218895
 30
0.0
 10
29.37808089753094
 20
161.3673216817364
 30
0.0
 10
29.20416829182815
 20
161.2147330456131
 30
0.0
 10
28.88475345794632
 20
160.9894622817708
 30
0.0
 10
28.76971268249907
 20
160.9147391872601
 30
0.0
 10
28.56262835848267
 20
160.815328778003
 30
0.0
 10
28.48652052367628
 20
160.7837636856585
 30
0.0
 10
28.35512598412293
 20
160.7493203014656
 30
0.0
 10
28.30857276512147
 20
160.7402687296979
 30
0.0
 10
28.21223941404076
 20
160.7300930808594
 30
0.0
 10
28.16297999068532
 20
160.7291433221844
 30
0.0
 10
28.11528161863858
 20
160.732134043099
 30
0.0
  0
LINE
  5
104
330
1F
100
AcDbEntity
  8
0
  6
Continuous
 62
     7
370
    25
100
AcDbLine
 10
30.015282173
 20
162.3902182724
 30
0.0
 11
30.015282173
 21
164.6591249551
 31
0.0
  0
LINE
  5
105
330
1F
100
AcDbEntity
  8
0
  6
Continuous
 62
     7
370
    25
100
AcDbLine
 10
67.3152816745
 20
90.7633613493
 30
0.0
 11
67.3152816745
 21
166.527860954
 31
0.0
  0
SPLINE
  5
106
330
1F
100
AcDbEntity
  8
0
  6
Continuous
 62
     7
370
    25
100
AcDbSpline
210
0.0
220
0.0
230
1.0
 70
     8
 71
     3
 72
    17
 73
    13
 74
     0
 42
0.000000001
 43
0.00000001
 40
0.0
 40
0.0
 40
0.0
 40
0.0
 40
0.0002988343243619
 40
0.1259792851471659
 40
0.2511894857129696
 40
0.3756965961394572
 40
0.4384259638308976
 40
0.5003828778927167
 40
0.6247288856020369
 40
0.7496542424939457
 40
0.8748286136325589
 40
1.0
 40
1.0
 40
1.0
 40
1.0
 10
48.33583890299573
 20
91.71443541303964
 30
0.0
 10
48.33544377351642
 20
91.71438811877769
 30
0.0
 10
48.16886943688707
 20
91.69445032440404
 30
0.0
 10
48.76116999396821
 20
91.76871204888903
 30
0.0
 10
50.08548282498623
 20
91.91430002516499
 30
0.0
 10
51.92323492227528
 20
92.01445100574936
 30
0.0
 10
53.5436090578519
 20
92.018190093591
 30
0.0
 10
55.23473695513474
 20
91.96255689942109
 30
0.0
 10
57.35277834669618
 20
91.77126360396356
 30
0.0
 10
59.47847103090581
 20
91.44276626547213
 30
0.0
 10
60.95097248036917
 20
91.13496241655555
 30
0.0
 10
61.14814509524444
 20
91.0900578323502
 30
0.0
 10
61.24673022727742
 20
91.0676058079371
 30
0.0
  0
SPLINE
  5
107
330
1F
100
AcDbEntity
  8
0
  6
Continuous
 62
     7
370
    25
100
AcDbSpline
210
0.0
220
0.0
230
1.0
 70
     8
 71
     3
 72
    18
 73
    14
 74
     0
 42
0.000000001
 43
0.00000001
 40
0.0
 40
0.0
 40
0.0
 40
0.0
 40
0.1253502868544213
 40
0.2508873389132681
 40
0.375465487557773
 40
0.4995287941058125
 40
0.5615144071079389
 40
0.6243437711804147
 40
0.7490349201471358
 40
0.8743156478033106
 40
0.9999422900516701
 40
0.9999491175645341
 40
0.9999999999999999
 40
0.9999999999999999
 40
0.9999999999999999
 40
0.9999999999999999
 10
61.24637073676362
 20
166.2235196377406
 30
0.0
 10
61.14615459883316
 20
166.2009821074799
 30
0.0
 10
60.94557300630167
 20
166.1558734672471
 30
0.0
 10
59.47345938682138
 20
165.8475569691097
 30
0.0
 10
57.3497886080902
 20
165.5187959245895
 30
0.0
 10
55.23429392544876
 20
165.3287286358657
 30
0.0
 10
53.54524313444245
 20
165.2731150002993
 30
0.0
 10
51.91976526256839
 20
165.2773177883534
 30
0.0
 10
50.10414311011672
 20
165.374410913498
 30
0.0
 10
48.67783285095159
 20
165.5325689910179
 30
0.0
 10
48.34432851192216
 20
165.5756556847953
 30
0.0
 10
48.33453374671866
 20
165.5769253779595
 30
0.0
 10
48.33464332659211
 20
165.5769111731609
 30
0.0
 10
48.33473994235768
 20
165.5768986488947
 30
0.0
  0
SPLINE
  5
108
330
1F
100
AcDbEntity
  8
0
  6
Continuous
 62
     7
370
    25
100
AcDbSpline
210
0.0
220
0.0
230
1.0
 70
     8
 71
     3
 72
    20
 73
    16
 74
     0
 42
0.000000001
 43
0.00000001
 40
0.0
 40
0.0
 40
0.0
 40
0.0
 40
0.249999999999986
 40
0.249999999999986
 40
0.3749999999999789
 40
0.3749999999999789
 40
0.4374999999999789
 40
0.4374999999999789
 40
0.4999999999999789
 40
0.4999999999999789
 40
0.6249999999999835
 40
0.6249999999999835
 40
0.7499999999999879
 40
0.7499999999999879
 40
1.0
 40
1.0
 40
1.0
 40
1.0
 10
20.20609585035657
 20
97.96712799891202
 30
0.0
 10
20.23236806756998
 20
97.98644593999448
 30
0.0
 10
20.26304820982482
 20
98.00083465109626
 30
0.0
 10
20.33451908020674
 20
97.99393028926023
 30
0.0
 10
20.36254611725108
 20
97.98676428591183
 30
0.0
 10
20.41762970674858
 20
97.95706525920824
 30
0.0
 10
20.43852103530101
 20
97.9435916166469
 30
0.0
 10
20.48372968274648
 20
97.90839335113088
 30
0.0
 10
20.50813389514204
 20
97.88648512240363
 30
0.0
 10
20.57946621319348
 20
97.81436026240809
 30
0.0
 10
20.62136299801376
 20
97.76201972145802
 30
0.0
 10
20.69293895686963
 20
97.66453632955728
 30
0.0
 10
20.72376694668693
 20
97.61778255967886
 30
0.0
 10
20.8068668795225
 20
97.48448934383974
 30
0.0
 10
20.85172178489281
 20
97.40185194592453
 30
0.0
 10
20.89183386034538
 20
97.32274505113375
 30
0.0
  0
SPLINE
  5
109
330
1F
100
AcDbEntity
  8
0
  6
Continuous
 62
     7
370
    25
100
AcDbSpline
210
0.0
220
0.0
230
1.0
 70
     8
 71
     3
 72
     8
 73
     4
 74
     0
 42
0.000000001
 43
0.00000001
 40
0.0
 40
0.0
 40
0.0
 40
0.0
 40
1.0
 40
1.0
 40
1.0
 40
1.0
 10
19.91528161864056
 20
98.1429414090448
 30
0.0
 10
19.91528161864056
 20
98.11766135181743
 30
0.0
 10
19.91846842307481
 20
98.09406178257939
 30
0.0
 10
19.92457142002223
 20
98.07248434088736
 30
0.0
  0
SPLINE
  5
10A
330
1F
100
AcDbEntity
  8
0
  6
Continuous
 62
     7
370
    25
100
AcDbSpline
210
0.0
220
0.0
230
1.0
 70
     8
 71
     3
 72
     9
 73
     5
 74
     0
 42
0.000000001
 43
0.00000001
 40
0.0
 40
0.0
 40
0.0
 40
0.0
 40
0.7766522094856231
 40
1.0
 40
1.0
 40
1.0
 40
1.0
 10
20.00061406593098
 20
98.0278990860352
 30
0.0
 10
20.04380073045343
 20
97.97570017597442
 30
0.0
 10
20.09940691298274
 20
97.90849002782412
 30
0.0
 10
20.18661877648415
 20
97.95642275638008
 30
0.0
 10
20.20609735350384
 20
97.9671284253964
 30
0.0
  0
LINE
  5
10B
330
1F
100
AcDbEntity
  8
0
  6
Continuous
 62
     7
370
    25
100
AcDbLine
 10
19.9152825664
 20
98.1429416384
 30
0.0
 11
19.9152825664
 21
159.1482806648
 31
0.0
  0
SPLINE
  5
10C
330
1F
100
AcDbEntity
  8
0
  6
Continuous
 62
     7
370
    25
100
AcDbSpline
210
0.0
220
0.0
230
1.0
 70
     8
 71
     3
 72
     9
 73
     5
 74
     0
 42
0.000000001
 43
0.00000001
 40
0.0
 40
0.0
 40
0.0
 40
0.0
 40
0.0592942499244465
 40
1.0
 40
1.0
 40
1.0
 40
1.0
 10
20.20609735350384
 20
159.324093877829
 30
0.0
 10
20.20121435580507
 20
159.3273870175268
 30
0.0
 10
20.11886239579247
 20
159.3829259559899
 30
0.0
 10
20.05273174137717
 20
159.3256337528771
 30
0.0
 10
19.99052225451245
 20
159.2717386479744
 30
0.0
  0
SPLINE
  5
10D
330
1F
100
AcDbEntity
  8
0
  6
Continuous
 62
     7
370
    25
100
AcDbSpline
210
0.0
220
0.0
230
1.0
 70
     8
 71
     3
 72
     8
 73
     4
 74
     0
 42
0.000000001
 43
0.00000001
 40
0.0
 40
0.0
 40
0.0
 40
0.0
 40
1.0
 40
1.0
 40
1.0
 40
1.0
 10
19.93891528757677
 20
159.2558603952503
 30
0.0
 10
19.92356624894073
 20
159.2253503402544
 30
0.0
 10
19.91528161864056
 20
159.189038784742
 30
0.0
 10
19.91528161864056
 20
159.1482808941806
 30
0.0
  0
SPLINE
  5
10E
330
1F
100
AcDbEntity
  8
0
  6
Continuous
 62
     7
370
    25
100
AcDbSpline
210
0.0
220
0.0
230
1.0
 70
     8
 71
     3
 72
    20
 73
    16
 74
     0
 42
0.000000001
 43
0.00000001
 40
0.0
 40
0.0
 40
0.0
 40
0.0
 40
0.2500000000000037
 40
0.2500000000000037
 40
0.3750000000000055
 40
0.3750000000000055
 40
0.5000000000000073
 40
0.5000000000000073
 40
0.5625000000000057
 40
0.5625000000000057
 40
0.625000000000004
 40
0.625000000000004
 40
0.7500000000000027
 40
0.7500000000000027
 40
1.0
 40
1.0
 40
1.0
 40
1.0
 10
20.89183386034299
 20
159.9684772520909
 30
0.0
 10
20.85183764251916
 20
159.8895988455334
 30
0.0
 10
20.8067240146815
 20
159.8064691988419
 30
0.0
 10
20.72346980031498
 20
159.672980534491
 30
0.0
 10
20.69325047169447
 20
159.627115478609
 30
0.0
 10
20.62116223655305
 20
159.5289239262041
 30
0.0
 10
20.57924491914195
 20
159.4766141066805
 30
0.0
 10
20.50799431459049
 20
159.404608203946
 30
0.0
 10
20.48375850221118
 20
159.3828379916445
 30
0.0
 10
20.43816031202653
 20
159.3473633333155
 30
0.0
 10
20.41735782242682
 20
159.3339931491379
 30
0.0
 10
20.36241682400769
 20
159.3044232370027
 30
0.0
 10
20.33434783592089
 20
159.2972967147007
 30
0.0
 10
20.26384500585805
 20
159.290422343218
 30
0.0
 10
20.23242091806718
 20
159.3047375023052
 30
0.0
 10
20.20609585035858
 20
159.3240943043157
 30
0.0
  0
SPLINE
  5
10F
330
1F
100
AcDbEntity
  8
0
  6
Continuous
 62
     7
370
    25
100
AcDbSpline
210
0.0
220
0.0
230
1.0
 70
     8
 71
     3
 72
    10
 73
     6
 74
     0
 42
0.000000001
 43
0.00000001
 40
0.0
 40
0.0
 40
0.0
 40
0.0
 40
0.4999999999999989
 40
0.4999999999999989
 40
1.0
 40
1.0
 40
1.0
 40
1.0
 10
21.56528161864058
 20
160.8938963534327
 30
0.0
 10
21.44039334789037
 20
160.7629000753612
 30
0.0
 10
21.31894322982993
 20
160.6191872386962
 30
0.0
 10
21.08935925487249
 20
160.308616946007
 30
0.0
 10
20.97908427947651
 20
160.1405478729439
 30
0.0
 10
20.89183386034299
 20
159.9684772520909
 30
0.0
  0
SPLINE
  5
110
330
1F
100
AcDbEntity
  8
0
  6
Continuous
 62
     7
370
    25
100
AcDbSpline
210
0.0
220
0.0
230
1.0
 70
     8
 71
     3
 72
     8
 73
     4
 74
     0
 42
0.000000001
 43
0.00000001
 40
0.0
 40
0.0
 40
0.0
 40
0.0
 40
1.0
 40
1.0
 40
1.0
 40
1.0
 10
21.81520673460634
 20
160.8914433201773
 30
0.0
 10
21.72818870475795
 20
160.8919098849644
 30
0.0
 10
21.64523467837801
 20
160.8929499045405
 30
0.0
 10
21.56528161863826
 20
160.8938963534328
 30
0.0
  0
SPLINE
  5
111
330
1F
100
AcDbEntity
  8
0
  6
Continuous
 62
     7
370
    25
100
AcDbSpline
210
0.0
220
0.0
230
1.0
 70
     8
 71
     3
 72
     8
 73
     4
 74
     0
 42
0.000000001
 43
0.00000001
 40
0.0
 40
0.0
 40
0.0
 40
0.0
 40
1.0
 40
1.0
 40
1.0
 40
1.0
 10
21.56528161863826
 20
96.39732594979264
 30
0.0
 10
21.64523467837802
 20
96.3982723986849
 30
0.0
 10
21.72818870475798
 20
96.39931241826102
 30
0.0
 10
21.81520673460635
 20
96.39977898304811
 30
0.0
  0
SPLINE
  5
112
330
1F
100
AcDbEntity
  8
0
  6
Continuous
 62
     7
370
    25
100
AcDbSpline
210
0.0
220
0.0
230
1.0
 70
     8
 71
     3
 72
    10
 73
     6
 74
     0
 42
0.000000001
 43
0.00000001
 40
0.0
 40
0.0
 40
0.0
 40
0.0
 40
0.4999999999999989
 40
0.4999999999999989
 40
1.0
 40
1.0
 40
1.0
 40
1.0
 10
20.89183386034206
 20
97.32274505113632
 30
0.0
 10
20.97908427947554
 20
97.15067443028295
 30
0.0
 10
21.0893592548717
 20
96.9826053572195
 30
0.0
 10
21.31894322982952
 20
96.67203506452971
 30
0.0
 10
21.44039334789016
 20
96.52832222786442
 30
0.0
 10
21.56528161864058
 20
96.39732594979272
 30
0.0
  0
SPLINE
  5
113
330
1F
100
AcDbEntity
  8
0
  6
Continuous
 62
     7
370
    25
100
AcDbSpline
210
0.0
220
0.0
230
1.0
 70
     8
 71
     3
 72
    14
 73
    10
 74
     0
 42
0.000000001
 43
0.00000001
 40
0.0
 40
0.0
 40
0.0
 40
0.0
 40
0.25
 40
0.25
 40
0.5
 40
0.5
 40
0.75
 40
0.75
 40
1.0
 40
1.0
 40
1.0
 40
1.0
 10
91.72528161864058
 20
174.3391623924607
 30
0.0
 10
91.72528161864058
 20
174.2328056987083
 30
0.0
 10
91.70489406249932
 20
174.1269652109482
 30
0.0
 10
91.62625971703775
 20
173.9304002974117
 30
0.0
 10
91.5675283573991
 20
173.8392295551246
 30
0.0
 10
91.42091945179648
 20
173.687318466093
 30
0.0
 10
91.33151413176991
 20
173.6252496292734
 30
0.0
 10
91.13762339916951
 20
173.5419815815147
 30
0.0
 10
91.03111840927966
 20
173.5198869117851
 30
0.0
 10
90.92528161864028
 20
173.5198869117851
 30
0.0
  0
SPLINE
  5
114
330
1F
100
AcDbEntity
  8
0
  6
Continuous
 62
     7
370
    25
100
AcDbSpline
210
0.0
220
0.0
230
1.0
 70
     8
 71
     3
 72
    12
 73
     8
 74
     0
 42
0.000000001
 43
0.00000001
 40
0.0
 40
0.0
 40
0.0
 40
0.0
 40
0.250000000000002
 40
0.250000000000002
 40
0.500000000000004
 40
0.500000000000004
 40
1.0
 40
1.0
 40
1.0
 40
1.0
 10
90.9252816186426
 20
162.2741425646852
 30
0.0
 10
91.04898256862242
 20
162.2741425646856
 30
0.0
 10
91.17307918089232
 20
162.3161361764185
 30
0.0
 10
91.37973434397874
 20
162.4539315030631
 30
0.0
 10
91.46477511070536
 20
162.5479051015279
 30
0.0
 10
91.66425367917842
 20
162.8626933077487
 30
0.0
 10
91.72528161864058
 20
163.1129322999759
 30
0.0
 10
91.72528161864058
 20
163.3598463441098
 30
0.0
  0
SPLINE
  5
115
330
1F
100
AcDbEntity
  8
0
  6
Continuous
 62
     7
370
    25
100
AcDbSpline
210
0.0
220
0.0
230
1.0
 70
     8
 71
     3
 72
     8
 73
     4
 74
     0
 42
0.000000001
 43
0.00000001
 40
0.0
 40
0.0
 40
0.0
 40
0.0
 40
1.0
 40
1.0
 40
1.0
 40
1.0
 10
86.55325259771917
 20
167.5965739124997
 30
0.0
 10
87.01017895151871
 20
166.5806559428253
 30
0.0
 10
87.46138459332172
 20
165.5618601137342
 30
0.0
 10
87.90528161864057
 20
164.5410586577505
 30
0.0
  0
LINE
  5
116
330
1F
100
AcDbEntity
  8
0
  6
Continuous
 62
     7
370
    25
100
AcDbLine
 10
87.9052819947
 20
164.5410593297
 30
0.0
 11
87.9052819947
 21
163.3598480071
 31
0.0
  0
SPLINE
  5
117
330
1F
100
AcDbEntity
  8
0
  6
Continuous
 62
     7
370
    25
100
AcDbSpline
210
0.0
220
0.0
230
1.0
 70
     8
 71
     3
 72
    14
 73
    10
 74
     0
 42
0.000000001
 43
0.00000001
 40
0.0
 40
0.0
 40
0.0
 40
0.0
 40
0.25
 40
0.25
 40
0.5
 40
0.5
 40
0.75
 40
0.75
 40
1.0
 40
1.0
 40
1.0
 40
1.0
 10
87.90528161864054
 20
163.3598463441097
 30
0.0
 10
87.90528161864054
 20
163.2359794673205
 30
0.0
 10
87.92114074626814
 20
163.1117197904831
 30
0.0
 10
87.98450239178804
 20
162.8741114280772
 30
0.0
 10
88.03309209983739
 20
162.7573310433247
 30
0.0
 10
88.16537770461224
 20
162.5485285147157
 30
0.0
 10
88.25070249587284
 20
162.4540178111231
 30
0.0
 10
88.45759374417902
 20
162.3160610103208
 30
0.0
 10
88.58156169006902
 20
162.2741425646851
 30
0.0
 10
88.70528161864056
 20
162.2741425646851
 30
0.0
  0
LINE
  5
118
330
1F
100
AcDbEntity
  8
0
  6
Continuous
 62
     7
370
    25
100
AcDbLine
 10
88.7052824984
 20
162.274141952
 30
0.0
 11
90.9252817075
 21
162.274141952
 31
0.0
  0
LINE
  5
119
330
1F
100
AcDbEntity
  8
0
  6
Continuous
 62
     7
370
    25
100
AcDbLine
 10
91.7252822111
 20
163.3598480071
 30
0.0
 11
91.7252822111
 21
164.5410593297
 31
0.0
  0
SPLINE
  5
11A
330
1F
100
AcDbEntity
  8
0
  6
Continuous
 62
     7
370
    25
100
AcDbSpline
210
0.0
220
0.0
230
1.0
 70
     8
 71
     3
 72
     8
 73
     4
 74
     0
 42
0.000000001
 43
0.00000001
 40
0.0
 40
0.0
 40
0.0
 40
0.0
 40
1.0
 40
1.0
 40
1.0
 40
1.0
 10
91.72528161864057
 20
164.5410586577505
 30
0.0
 10
92.16943162966606
 20
165.5624418887022
 30
0.0
 10
92.62050593992399
 20
166.5809264254706
 30
0.0
 10
93.07731063956196
 20
167.5965739124997
 30
0.0
  0
LINE
  5
11B
330
1F
100
AcDbEntity
  8
0
  6
Continuous
 62
     7
370
    25
100
AcDbLine
 10
93.0773111324
 20
167.5965722348
 30
0.0
 11
97.7652816365
 21
167.5965722348
 31
0.0
  0
SPLINE
  5
11C
330
1F
100
AcDbEntity
  8
0
  6
Continuous
 62
     7
370
    25
100
AcDbSpline
210
0.0
220
0.0
230
1.0
 70
     8
 71
     3
 72
    16
 73
    12
 74
     0
 42
0.000000001
 43
0.00000001
 40
0.0
 40
0.0
 40
0.0
 40
0.0
 40
0.125
 40
0.125
 40
0.25
 40
0.25
 40
0.5
 40
0.5
 40
0.75
 40
0.75
 40
1.0
 40
1.0
 40
1.0
 40
1.0
 10
97.76528161863958
 20
167.5965739124997
 30
0.0
 10
97.84091932505082
 20
167.5965739124997
 30
0.0
 10
97.91723498946905
 20
167.5852289123649
 30
0.0
 10
98.06164572736117
 20
167.5425763617265
 30
0.0
 10
98.13009217646962
 20
167.5116420370437
 30
0.0
 10
98.325023429083
 20
167.3923856652762
 30
0.0
 10
98.432864602864
 20
167.2822336516556
 30
0.0
 10
98.60157735107623
 20
167.0340975659975
 30
0.0
 10
98.66394176379984
 20
166.8937552419937
 30
0.0
 10
98.74524568830832
 20
166.605483550505
 30
0.0
 10
98.76528161864057
 20
166.454678577525
 30
0.0
 10
98.76528161864057
 20
166.3043086861797
 30
0.0
  0
LINE
  5
11D
330
1F
100
AcDbEntity
  8
0
  6
Continuous
 62
     7
370
    25
100
AcDbLine
 10
98.7652818004
 20
166.3043100084
 30
0.0
 11
98.7652818004
 21
159.9956128444
 31
0.0
  0
SPLINE
  5
11E
330
1F
100
AcDbEntity
  8
0
  6
Continuous
 62
     7
370
    25
100
AcDbSpline
210
0.0
220
0.0
230
1.0
 70
     8
 71
     3
 72
    10
 73
     6
 74
     0
 42
0.000000001
 43
0.00000001
 40
0.0
 40
0.0
 40
0.0
 40
0.0
 40
0.5
 40
0.5
 40
1.0
 40
1.0
 40
1.0
 40
1.0
 10
88.70528161864056
 20
173.5198869117852
 30
0.0
 10
88.49274530478421
 20
173.5198869117852
 30
0.0
 10
88.2828091331302
 20
173.6112994984153
 30
0.0
 10
87.98910199211895
 20
173.9160443643195
 30
0.0
 10
87.90528161864054
 20
174.1281993342282
 30
0.0
 10
87.90528161864054
 20
174.3391623924607
 30
0.0
  0
LINE
  5
11F
330
1F
100
AcDbEntity
  8
0
  6
Continuous
 62
     7
370
    25
100
AcDbLine
 10
97.7652816365
 20
177.6354063
 30
0.0
 11
93.0773111324
 21
177.6354063
 31
0.0
  0
LINE
  5
120
330
1F
100
AcDbEntity
  8
0
  6
Continuous
 62
     7
370
    25
100
AcDbLine
 10
93.0773111324
 20
167.5965722348
 30
0.0
 11
93.0773111324
 21
177.6354063
 31
0.0
  0
SPLINE
  5
121
330
1F
100
AcDbEntity
  8
0
  6
Continuous
 62
     7
370
    25
100
AcDbSpline
210
0.0
220
0.0
230
1.0
 70
     8
 71
     3
 72
     8
 73
     4
 74
     0
 42
0.000000001
 43
0.00000001
 40
0.0
 40
0.0
 40
0.0
 40
0.0
 40
1.0
 40
1.0
 40
1.0
 40
1.0
 10
87.90528161864057
 20
175.2428820123176
 30
0.0
 10
87.45497338295601
 20
176.0405971374312
 30
0.0
 10
87.00427956643242
 20
176.8380954370884
 30
0.0
 10
86.55325259771917
 20
177.6354060072763
 30
0.0
  0
LINE
  5
122
330
1F
100
AcDbEntity
  8
0
  6
Continuous
 62
     7
370
    25
100
AcDbLine
 10
87.9052819947
 20
164.5410593297
 30
0.0
 11
87.9052819947
 21
175.2428833093
 31
0.0
  0
SPLINE
  5
123
330
1F
100
AcDbEntity
  8
0
  6
Continuous
 62
     7
370
    25
100
AcDbSpline
210
0.0
220
0.0
230
1.0
 70
     8
 71
     3
 72
     8
 73
     4
 74
     0
 42
0.000000001
 43
0.00000001
 40
0.0
 40
0.0
 40
0.0
 40
0.0
 40
1.0
 40
1.0
 40
1.0
 40
1.0
 10
93.07731063956194
 20
177.6354060072763
 30
0.0
 10
92.6262836708487
 20
176.8380954370884
 30
0.0
 10
92.17558985432511
 20
176.0405971374312
 30
0.0
 10
91.72528161864057
 20
175.2428820123176
 30
0.0
  0
LINE
  5
124
330
1F
100
AcDbEntity
  8
0
  6
Continuous
 62
     7
370
    25
100
AcDbLine
 10
91.7252822111
 20
164.5410593297
 30
0.0
 11
91.7252822111
 21
175.2428833093
 31
0.0
  0
SPLINE
  5
125
330
1F
100
AcDbEntity
  8
0
  6
Continuous
 62
     7
370
    25
100
AcDbSpline
210
0.0
220
0.0
230
1.0
 70
     8
 71
     3
 72
    12
 73
     8
 74
     0
 42
0.000000001
 43
0.00000001
 40
0.0
 40
0.0
 40
0.0
 40
0.0
 40
0.5
 40
0.5
 40
0.75
 40
0.75
 40
1.0
 40
1.0
 40
1.0
 40
1.0
 10
98.76528161864057
 20
176.6143509724585
 30
0.0
 10
98.76528161864057
 20
176.879620405225
 30
0.0
 10
98.66067487515409
 20
177.1421355108774
 30
0.0
 10
98.38400652340881
 20
177.4276731169146
 30
0.0
 10
98.2736412640568
 20
177.503994733776
 30
0.0
 10
98.02956921544107
 20
177.6083368986162
 30
0.0
 10
97.89781675410933
 20
177.6354060072763
 30
0.0
 10
97.76528161864057
 20
177.6354060072763
 30
0.0
  0
LINE
  5
126
330
1F
100
AcDbEntity
  8
0
  6
Continuous
 62
     7
370
    25
100
AcDbLine
 10
98.7652818004
 20
166.3043100084
 30
0.0
 11
98.7652818004
 21
176.614352658
 31
0.0
  0
LINE
  5
127
330
1F
100
AcDbEntity
  8
0
  6
Continuous
 62
     7
370
    25
100
AcDbLine
 10
90.9252817075
 20
173.5198881175
 30
0.0
 11
88.7052824984
 21
173.5198881175
 31
0.0
  0
LINE
  5
128
330
1F
100
AcDbEntity
  8
0
  6
Continuous
 62
     7
370
    25
100
AcDbLine
 10
163.7652850042
 20
128.6456111516
 30
0.0
 11
163.7652850042
 21
100.6456102873
 31
0.0
  0
LINE
  5
129
330
1F
100
AcDbEntity
  8
0
  6
Continuous
 62
     7
370
    25
100
AcDbLine
 10
163.7652850042
 20
156.6456120159
 30
0.0
 11
163.7652850042
 21
128.6456111516
 31
0.0
  0
SPLINE
  5
12A
330
1F
100
AcDbEntity
  8
0
  6
Continuous
 62
     7
370
    25
100
AcDbSpline
210
0.0
220
0.0
230
1.0
 70
     8
 71
     3
 72
    17
 73
    13
 74
     0
 42
0.000000001
 43
0.00000001
 40
0.0
 40
0.0
 40
0.0
 40
0.0
 40
0.0446776417932006
 40
0.1368298257783708
 40
0.2318835473704798
 40
0.3348124731998648
 40
0.447044525909999
 40
0.5662337411385315
 40
0.6878309203379726
 40
0.806529789108429
 40
0.916652944737003
 40
1.0
 40
1.0
 40
1.0
 40
1.0
 10
148.2210269461133
 20
156.6410913761029
 30
0.0
 10
148.2306775583341
 20
156.6420717003382
 30
0.0
 10
148.2602335406072
 20
156.6450740430971
 30
0.0
 10
147.9474710744254
 20
156.6133031392454
 30
0.0
 10
147.3415437628738
 20
156.5601992482658
 30
0.0
 10
146.4388718839758
 20
156.5005431568151
 30
0.0
 10
145.3092596729701
 20
156.4608682571352
 30
0.0
 10
144.0568486689912
 20
156.4632946651899
 30
0.0
 10
142.8541740702923
 20
156.5125106722671
 30
0.0
 10
141.9115587200071
 20
156.582222700114
 30
0.0
 10
141.3448477933518
 20
156.6372707013939
 30
0.0
 10
141.3068197630443
 20
156.6413209367282
 30
0.0
 10
141.2904372702099
 20
156.6430657799611
 30
0.0
  0
SPLINE
  5
12B
330
1F
100
AcDbEntity
  8
0
  6
Continuous
 62
     7
370
    25
100
AcDbSpline
210
0.0
220
0.0
230
1.0
 70
    11
 71
     3
 72
    66
 73
    62
 74
     0
 42
0.000000001
 43
0.00000001
 40
0.0
 40
0.0
 40
0.0
 40
0.0
 40
0.0312500000000003
 40
0.0312500000000003
 40
0.0625000000000006
 40
0.0625000000000006
 40
0.0937500000000009
 40
0.0937500000000009
 40
0.1250000000000012
 40
0.1250000000000012
 40
0.1562500000000015
 40
0.1562500000000015
 40
0.1875000000000018
 40
0.1875000000000018
 40
0.2187500000000021
 40
0.2187500000000021
 40
0.2500000000000024
 40
0.2500000000000024
 40
0.2812500000000027
 40
0.2812500000000027
 40
0.312500000000003
 40
0.312500000000003
 40
0.3437500000000033
 40
0.3437500000000033
 40
0.3750000000000036
 40
0.3750000000000036
 40
0.4062500000000039
 40
0.4062500000000039
 40
0.4375000000000042
 40
0.4375000000000042
 40
0.4687500000000045
 40
0.4687500000000045
 40
0.5000000000000048
 40
0.5000000000000048
 40
0.5312500000000051
 40
0.5312500000000051
 40
0.5625000000000053
 40
0.5625000000000053
 40
0.625000000000006
 40
0.625000000000006
 40
0.6875000000000066
 40
0.6875000000000066
 40
0.7187500000000059
 40
0.7187500000000059
 40
0.7500000000000051
 40
0.7500000000000051
 40
0.7812500000000044
 40
0.7812500000000044
 40
0.8125000000000038
 40
0.8125000000000038
 40
0.8437500000000031
 40
0.8437500000000031
 40
0.8750000000000023
 40
0.8750000000000023
 40
0.9062500000000018
 40
0.9062500000000018
 40
0.9375000000000012
 40
0.9375000000000012
 40
0.9687500000000006
 40
0.9687500000000006
 40
1.0
 40
1.0
 40
1.0
 40
1.0
 10
142.3900781644786
 20
130.9810049749703
 30
0.0
 10
142.5587265914455
 20
131.1231387200051
 30
0.0
 10
142.7382347214129
 20
131.246820198071
 30
0.0
 10
143.1171519173508
 20
131.4604829539016
 30
0.0
 10
143.3182020670052
 20
131.5509648741128
 30
0.0
 10
143.7330756642117
 20
131.6948380478802
 30
0.0
 10
143.9445201057421
 20
131.7477559829641
 30
0.0
 10
144.3751166490831
 20
131.8170821468644
 30
0.0
 10
144.5963943294936
 20
131.8333332572655
 30
0.0
 10
145.0340288372305
 20
131.827607821976
 30
0.0
 10
145.2505880845533
 20
131.806112836237
 30
0.0
 10
145.6792073233777
 20
131.7259677796672
 30
0.0
 10
145.8932120664892
 20
131.6663933178738
 30
0.0
 10
146.3017806779489
 20
131.5124398984996
 30
0.0
 10
146.4974625317494
 20
131.4182497950252
 30
0.0
 10
146.8711393795107
 20
131.1943746759389
 30
0.0
 10
147.0505819062117
 20
131.0630395142372
 30
0.0
 10
147.3756278368428
 20
130.7730227026594
 30
0.0
 10
147.5229094857051
 20
130.6137985847671
 30
0.0
 10
147.7851085518554
 20
130.2650641834122
 30
0.0
 10
147.8999984554725
 20
130.0741825118027
 30
0.0
 10
148.0828763906807
 20
129.6793828369879
 30
0.0
 10
148.1528051755061
 20
129.4733833914653
 30
0.0
 10
148.2461779650824
 20
129.0427677389932
 30
0.0
 10
148.268041721765
 20
128.8234568632228
 30
0.0
 10
148.2619619780282
 20
128.3875213607604
 30
0.0
 10
148.233482401938
 20
128.1664214854789
 30
0.0
 10
148.1287079479525
 20
127.7409431775571
 30
0.0
 10
148.0532015394966
 20
127.5361169286189
 30
0.0
 10
147.8572181172361
 20
127.1418272974295
 30
0.0
 10
147.7383208043458
 20
126.956274662035
 30
0.0
 10
147.4669773885431
 20
126.6143402973705
 30
0.0
 10
147.3120080064056
 20
126.4552621292386
 30
0.0
 10
146.9777632466375
 20
126.1726026193005
 30
0.0
 10
146.7985632048664
 20
126.0483175866238
 30
0.0
 10
146.4169762414536
 20
125.8323597787285
 30
0.0
 10
146.2149712717352
 20
125.7414333826632
 30
0.0
 10
145.5970629908072
 20
125.5263457779782
 30
0.0
 10
145.1550674311112
 20
125.4554640468319
 30
0.0
 10
144.2837427999494
 20
125.4659377259708
 30
0.0
 10
143.8433239614551
 20
125.5476368262411
 30
0.0
 10
143.2326235662881
 20
125.7771270852217
 30
0.0
 10
143.0348997497246
 20
125.8718724600556
 30
0.0
 10
142.6570950472876
 20
126.098265097128
 30
0.0
 10
142.4815380734839
 20
126.2270179346469
 30
0.0
 10
142.1572566247757
 20
126.5159070690134
 30
0.0
 10
142.007259475128
 20
126.6777223080428
 30
0.0
 10
141.7434589323456
 20
127.0290404116589
 30
0.0
 10
141.6314453100245
 20
127.2154337525046
 30
0.0
 10
141.4482541559215
 20
127.6103222140916
 30
0.0
 10
141.3766813877526
 20
127.8218868587097
 30
0.0
 10
141.2843590423239
 20
128.2495039806833
 30
0.0
 10
141.2624559618271
 20
128.4663509929098
 30
0.0
 10
141.268683674918
 20
128.9063154676077
 30
0.0
 10
141.2973778108436
 20
129.1262472311061
 30
0.0
 10
141.4019276724638
 20
129.5503317884765
 30
0.0
 10
141.4791331907821
 20
129.7592481988816
 30
0.0
 10
141.6747992222738
 20
130.1517319679301
 30
0.0
 10
141.7926037691028
 20
130.3356807159977
 30
0.0
 10
142.0663957677541
 20
130.6801419620644
 30
0.0
 10
142.2214297375116
 20
130.8388712299356
 30
0.0
 10
142.3900781644786
 20
130.9810049749703
 30
0.0
  0
SPLINE
  5
12C
330
1F
100
AcDbEntity
  8
0
  6
Continuous
 62
     7
370
    25
100
AcDbSpline
210
0.0
220
0.0
230
1.0
 70
     8
 71
     3
 72
    17
 73
    13
 74
     0
 42
0.000000001
 43
0.00000001
 40
0.0
 40
0.0
 40
0.0
 40
0.0
 40
0.0521097979557466
 40
0.1442518066686644
 40
0.239806329565503
 40
0.3434964238807138
 40
0.4564309147917771
 40
0.5760071900678646
 40
0.697586483110364
 40
0.8158053776551635
 40
0.92505698368437
 40
1.0
 40
1.0
 40
1.0
 40
1.0
 10
141.3088476548649
 20
100.6500601466069
 30
0.0
 10
141.3019697174039
 20
100.6493677709813
 30
0.0
 10
141.2829300176961
 20
100.647451117323
 30
0.0
 10
141.621105797521
 20
100.6815698362891
 30
0.0
 10
142.252047228372
 20
100.7359622956851
 30
0.0
 10
143.1753027236046
 20
100.7949586983399
 30
0.0
 10
144.3201060990541
 20
100.8319496653065
 30
0.0
 10
145.5751790981143
 20
100.8255576411529
 30
0.0
 10
146.765420075003
 20
100.7732686688356
 30
0.0
 10
147.6789380942774
 20
100.7036382661855
 30
0.0
 10
148.2039015126825
 20
100.6520286347331
 30
0.0
 10
148.2236579163485
 20
100.6498919878712
 30
0.0
 10
148.2316961775281
 20
100.6490226532588
 30
0.0
  0
CIRCLE
  5
12D
330
1F
100
AcDbEntity
  8
0
  6
Continuous
 62
     7
370
    25
100
AcDbCircle
 10
144.7652816186
 20
128.6456111516
 30
0.0
 40
2.5
  0
ARC
  5
12E
330
1F
100
AcDbEntity
  8
0
  6
Continuous
 62
     7
370
    25
100
AcDbCircle
 10
78.8159820717
 20
161.3878694968
 30
0.0
 40
11.27754853338812
100
AcDbArc
 50
77.8654440756
 51
102.4735625565
  0
LINE
  5
12F
330
1F
100
AcDbEntity
  8
0
  6
Continuous
 62
     7
370
    25
100
AcDbLine
 10
21.5652806948
 20
96.3956128503
 30
0.0
 11
21.5652806948
 21
96.3973264839
 31
0.0
  0
LINE
  5
130
330
1F
100
AcDbEntity
  8
0
  6
Continuous
 62
     7
370
    25
100
AcDbLine
 10
21.5652806948
 20
160.8956094529
 30
0.0
 11
21.5652806948
 21
160.8938958193
 31
0.0
  0
DIMENSION
  5
131
330
1F
100
AcDbEntity
  8
VERMASSUNG
100
AcDbDimension
  2
_D
 10
290.1204707103
 20
159.9956111516
 30
0.0
 11
290.1204707103
 21
128.6456111516
 31
0.0
 70
   160
  1
%%c<>
 71
     2
 42
-1.0
  3
SLDDIMSTYLE0
100
AcDbAlignedDimension
 13
265.5717566184
 23
97.2956111516
 33
0.0
 14
265.5717566184
 24
159.9956111516
 34
0.0
 50
90.0
100
AcDbRotatedDimension
  0
DIMENSION
  5
13D
330
1F
100
AcDbEntity
  8
VERMASSUNG
100
AcDbDimension
  2
_D_1
 10
282.0638788361
 20
156.6456111516
 30
0.0
 11
282.0638788361
 21
128.6456111516
 31
0.0
 70
   160
  1
%%c<>
 71
     2
 42
-1.0
  3
SLDDIMSTYLE0
100
AcDbAlignedDimension
 13
163.7652816186
 23
100.6456111516
 33
0.0
 14
163.7652816186
 24
156.6456111516
 34
0.0
 50
90.0
100
AcDbRotatedDimension
  0
DIMENSION
  5
148
330
1F
100
AcDbEntity
  8
VERMASSUNG
100
AcDbDimension
  2
_D_2
 10
9.6648122577
 20
78.6456111516
 30
0.0
 11
9.6648122577
 21
128.6456111516
 31
0.0
 70
   160
  1
HSK A %%c<>
 71
     2
 42
-1.0
  3
SLDDIMSTYLE0
100
AcDbAlignedDimension
 13
70.3152816186
 23
178.6456111516
 33
0.0
 14
70.3152816186
 24
78.6456111516
 34
0.0
 50
90.0
100
AcDbRotatedDimension
  0
DIMENSION
  5
154
330
1F
100
AcDbEntity
  8
VERMASSUNG
100
AcDbDimension
  2
_D_3
 10
269.8152816186
 20
188.6456111516
 30
0.0
 11
169.8152816186
 21
188.6456111516
 31
0.0
 70
   160
  1
<>
 71
     2
 42
-1.0
  3
SLDDIMSTYLE0
100
AcDbAlignedDimension
 13
69.8152816186
 23
178.1456111516
 33
0.0
 14
269.8152816186
 24
152.6456111516
 34
0.0
100
AcDbRotatedDimension
  0
DIMENSION
  5
15E
330
1F
100
AcDbEntity
  8
VERMASSUNG
100
AcDbDimension
  2
_D_4
 10
269.8152816186
 20
196.4446329434
 30
0.0
 11
144.8652816186
 21
196.4446329434
 31
0.0
 70
   160
  1
<>
 71
     2
 42
-1.0
  3
SLDDIMSTYLE0
100
AcDbAlignedDimension
 13
19.9152816186
 23
159.1482808942
 33
0.0
 14
269.8152816186
 24
152.6456111516
 34
0.0
100
AcDbRotatedDimension
  0
LINE
  5
168
330
1F
100
AcDbEntity
  8
VERMASSUNG
  6
CENTERX2
370
    18
100
AcDbLine
 10
276.3135035154
 20
128.6456111516
 30
0.0
 11
13.5676388537
 21
128.6456111516
 31
0.0
  0
LINE
  5
169
330
1F
100
AcDbEntity
  8
0
  6
Continuous
 62
     7
370
    25
100
AcDbLine
 10
236.3670011176
 20
13.045543693
 30
0.0
 11
243.599458274
 21
8.8703350484
 31
0.0
  0
LINE
  5
16A
330
1F
100
AcDbEntity
  8
0
  6
Continuous
 62
     7
370
    25
100
AcDbLine
 10
259.2731850318
 20
36.0209675277
 30
0.0
 11
252.0407278754
 21
40.1961761723
 31
0.0
  0
LINE
  5
16B
330
1F
100
AcDbEntity
  8
0
  6
Continuous
 62
     7
370
    25
100
AcDbLine
 10
244.2020630512
 20
39.4190963769
 30
0.0
 11
243.9192667892
 21
39.2557884899
 31
0.0
  0
LINE
  5
16C
330
1F
100
AcDbEntity
  8
0
  6
Continuous
 62
     7
370
    25
100
AcDbLine
 10
233.11996642
 20
20.5488244611
 30
0.0
 11
233.1199651029
 21
20.2222610107
 31
0.0
  0
LINE
  5
16D
330
1F
100
AcDbEntity
  8
0
  6
Continuous
 62
     7
370
    25
100
AcDbLine
 10
245.7239215396
 20
40.1767153964
 30
0.0
 11
239.1953589002
 21
43.9455743858
 31
0.0
  0
LINE
  5
16E
330
1F
100
AcDbEntity
  8
0
  6
Continuous
 62
     7
370
    25
100
AcDbLine
 10
226.6963751166
 20
22.2943527046
 30
0.0
 11
233.224937756
 21
18.5254937153
 31
0.0
  0
SPLINE
  5
16F
330
1F
100
AcDbEntity
  8
0
  6
Continuous
 62
     7
370
    25
100
AcDbSpline
210
0.0
220
0.0
230
1.0
 70
     8
 71
     3
 72
    12
 73
     8
 74
     0
 42
0.000000001
 43
0.00000001
 40
0.0
 40
0.0
 40
0.0
 40
0.0
 40
0.1427179171303196
 40
0.3757077982223958
 40
0.6089078274553928
 40
0.8421295901322153
 40
1.0
 40
1.0
 40
1.0
 40
1.0
 10
209.0681508208354
 20
30.77833527700863
 30
0.0
 10
209.93037349426
 20
30.44048775915141
 30
0.0
 10
212.2001920897343
 20
29.55109734748269
 30
0.0
 10
215.8303914802437
 20
27.94001311010278
 30
0.0
 10
219.9481840370325
 20
25.96033873378672
 30
0.0
 10
223.5745320063955
 20
24.07577218508202
 30
0.0
 10
225.7924921768727
 20
22.79595963962034
 30
0.0
 10
226.6878061354861
 20
22.27934349312118
 30
0.0
  0
SPLINE
  5
170
330
1F
100
AcDbEntity
  8
0
  6
Continuous
 62
     7
370
    25
100
AcDbSpline
210
0.0
220
0.0
230
1.0
 70
     8
 71
     3
 72
    13
 73
     9
 74
     0
 42
0.000000001
 43
0.00000001
 40
0.0
 40
0.0
 40
0.0
 40
0.0
 40
0.0689317462937085
 40
0.3017368597009168
 40
0.5340235044749924
 40
0.7656203301888989
 40
0.9963640850790092
 40
1.0
 40
1.0
 40
1.0
 40
1.0
 10
239.2030757247733
 20
43.96013720047252
 30
0.0
 10
238.8099485279288
 20
44.18158989145505
 30
0.0
 10
237.0891018612353
 20
45.1509609453186
 30
0.0
 10
234.1245869111982
 20
47.00482628264292
 30
0.0
 10
230.3209086653002
 20
49.51120813115126
 30
0.0
 10
226.6445555266806
 20
52.1563788430676
 30
0.0
 10
224.2127752795996
 20
53.97476508784645
 30
0.0
 10
223.0412865121128
 20
54.93913335551348
 30
0.0
 10
223.0231132913172
 20
54.95409353092702
 30
0.0
  0
LINE
  5
171
330
1F
100
AcDbEntity
  8
0
  6
Continuous
 62
     7
370
    25
100
AcDbLine
 10
195.0078357171
 20
38.8557527413
 30
0.0
 11
208.4428654447
 21
31.099875168
 31
0.0
  0
LINE
  5
172
330
1F
100
AcDbEntity
  8
0
  6
Continuous
 62
     7
370
    25
100
AcDbLine
 10
222.4417278092
 20
55.3492441201
 30
0.0
 11
209.0066980815
 21
63.1051216933
 31
0.0
  0
SPLINE
  5
173
330
1F
100
AcDbEntity
  8
0
  6
Continuous
 62
     7
370
    25
100
AcDbSpline
210
0.0
220
0.0
230
1.0
 70
     8
 71
     3
 72
    12
 73
     8
 74
     0
 42
0.000000001
 43
0.00000001
 40
0.0
 40
0.0
 40
0.0
 40
0.0
 40
0.2133915517556801
 40
0.4497604213487716
 40
0.6897290453001236
 40
0.9314738800872076
 40
1.0
 40
1.0
 40
1.0
 40
1.0
 10
187.0178693011162
 20
41.96444963949916
 30
0.0
 10
187.5911603923113
 20
41.82923365407409
 30
0.0
 10
188.7994727205641
 20
41.54424205962009
 30
0.0
 10
190.6732085860421
 20
40.92114687540153
 30
0.0
 10
192.5952680085283
 20
40.12102251253677
 30
0.0
 10
194.050625721489
 20
39.41965172560209
 30
0.0
 10
194.8275227086813
 20
38.94673568097154
 30
0.0
 10
194.9991073681468
 20
38.8422879358889
 30
0.0
  0
SPLINE
  5
174
330
1F
100
AcDbEntity
  8
0
  6
Continuous
 62
     7
370
    25
100
AcDbSpline
210
0.0
220
0.0
230
1.0
 70
     8
 71
     3
 72
    13
 73
     9
 74
     0
 42
0.000000001
 43
0.00000001
 40
0.0
 40
0.0
 40
0.0
 40
0.0
 40
0.0520654719468098
 40
0.2934559241849137
 40
0.5324584468527856
 40
0.7676112202108699
 40
0.9975939315889586
 40
1.0
 40
1.0
 40
1.0
 40
1.0
 10
209.0121330493529
 20
63.11738457188989
 30
0.0
 10
208.8779836662861
 20
63.19007473396668
 30
0.0
 10
208.1218792901089
 20
63.59977732368266
 30
0.0
 10
206.8280774427597
 20
64.47678554646572
 30
0.0
 10
205.164605312451
 20
65.72607276308534
 30
0.0
 10
203.6718213377362
 20
67.06440638588397
 30
0.0
 10
202.7242510615203
 20
67.98735552451419
 30
0.0
 10
202.3193992669547
 20
68.4627139958218
 30
0.0
 10
202.3152075795809
 20
68.4676356835331
 30
0.0
  0
LINE
  5
175
330
1F
100
AcDbEntity
  8
0
  6
Continuous
 62
     7
370
    25
100
AcDbLine
 10
169.9037473038
 20
40.6466731615
 30
0.0
 11
175.6447371596
 21
37.3324702626
 31
0.0
  0
LINE
  5
176
330
1F
100
AcDbEntity
  8
0
  6
Continuous
 62
     7
370
    25
100
AcDbLine
 10
197.108430037
 20
82.6752069744
 30
0.0
 11
194.901714871
 21
83.9491165238
 31
0.0
  0
SPLINE
  5
177
330
1F
100
AcDbEntity
  8
0
  6
Continuous
 62
     7
370
    25
100
AcDbSpline
210
0.0
220
0.0
230
1.0
 70
     8
 71
     3
 72
    10
 73
     6
 74
     0
 42
0.000000001
 43
0.00000001
 40
0.0
 40
0.0
 40
0.0
 40
0.0
 40
0.2877671293385511
 40
0.7914668933538241
 40
1.0
 40
1.0
 40
1.0
 40
1.0
 10
164.8868437164464
 20
55.54841490199855
 30
0.0
 10
164.8427322444422
 20
55.21717119280604
 30
0.0
 10
164.7214092504344
 20
54.30612749556306
 30
0.0
 10
164.6616260252741
 20
53.19337820877961
 30
0.0
 10
164.6540553027432
 20
52.42099044726533
 30
0.0
 10
164.6518386874282
 20
52.19484472150786
 30
0.0
  0
SPLINE
  5
178
330
1F
100
AcDbEntity
  8
0
  6
Continuous
 62
     7
370
    25
100
AcDbSpline
210
0.0
220
0.0
230
1.0
 70
     8
 71
     3
 72
     9
 73
     5
 74
     0
 42
0.000000001
 43
0.00000001
 40
0.0
 40
0.0
 40
0.0
 40
0.0
 40
0.5696751866024141
 40
1.0
 40
1.0
 40
1.0
 40
1.0
 10
182.5939349578042
 20
82.88681169585662
 30
0.0
 10
182.3649850573789
 20
82.76565539502175
 30
0.0
 10
181.963089546025
 20
82.55297928820826
 30
0.0
 10
181.5627589918371
 20
82.28574395365543
 30
0.0
 10
181.3904868208089
 20
82.17074595818075
 30
0.0
  0
SPLINE
  5
179
330
1F
100
AcDbEntity
  8
0
  6
Continuous
 62
     7
370
    25
100
AcDbSpline
210
0.0
220
0.0
230
1.0
 70
     8
 71
     3
 72
     9
 73
     5
 74
     0
 42
0.000000001
 43
0.00000001
 40
0.0
 40
0.0
 40
0.0
 40
0.0
 40
0.4109279501872297
 40
1.0
 40
1.0
 40
1.0
 40
1.0
 10
164.6518386874282
 20
52.19484472150786
 30
0.0
 10
164.6539422643008
 20
51.9099040330326
 30
0.0
 10
164.6590613535998
 20
51.21649612941972
 30
0.0
 10
164.7192524830764
 20
50.55724811880724
 30
0.0
 10
164.7547093950977
 20
50.16890354186075
 30
0.0
  0
LINE
  5
17A
330
1F
100
AcDbEntity
  8
0
  6
Continuous
 62
     7
370
    25
100
AcDbLine
 10
183.1696927861
 20
83.1349512115
 30
0.0
 11
173.834358136
 21
87.7860716733
 31
0.0
  0
LINE
  5
17B
330
1F
100
AcDbEntity
  8
0
  6
Continuous
 62
     7
370
    25
100
AcDbLine
 10
156.0456353483
 20
56.9717616617
 30
0.0
 11
164.673924346
 21
51.2584672012
 31
0.0
  0
SPLINE
  5
17C
330
1F
100
AcDbEntity
  8
0
  6
Continuous
 62
     7
370
    25
100
AcDbSpline
210
0.0
220
0.0
230
1.0
 70
     8
 71
     3
 72
    17
 73
    13
 74
     0
 42
0.000000001
 43
0.00000001
 40
0.0
 40
0.0
 40
0.0
 40
0.0
 40
0.0934113650398825
 40
0.2049411136275037
 40
0.3169064851594539
 40
0.4292228607092339
 40
0.5417849154235252
 40
0.6544948968767503
 40
0.7672763063376999
 40
0.8800715087983637
 40
0.9928451817267246
 40
1.0
 40
1.0
 40
1.0
 40
1.0
 10
183.415078982153
 20
33.8804664188674
 30
0.0
 10
183.7642526178388
 20
33.85577547293732
 30
0.0
 10
184.5303267857545
 20
33.80160444189348
 30
0.0
 10
185.7700652520064
 20
33.89352511193866
 30
0.0
 10
187.1144849013965
 20
34.12045852904555
 30
0.0
 10
188.4924629527691
 20
34.49545038393298
 30
0.0
 10
189.893178991758
 20
35.01075402043289
 30
0.0
 10
191.3075566718193
 20
35.6654620479
 30
0.0
 10
192.7271116257993
 20
36.45046078368038
 30
0.0
 10
194.1391916894312
 20
37.37637453986059
 30
0.0
 10
195.1082690400692
 20
38.06514615411231
 30
0.0
 10
195.5962347523467
 20
38.47483002693917
 30
0.0
 10
195.625346316746
 20
38.49927137219581
 30
0.0
  0
LINE
  5
17D
330
1F
100
AcDbEntity
  8
0
  6
Continuous
 62
     7
370
    25
100
AcDbLine
 10
177.9513400068
 20
36.0008967822
 30
0.0
 11
179.6087878735
 21
35.0440724954
 31
0.0
  0
SPLINE
  5
17E
330
1F
100
AcDbEntity
  8
0
  6
Continuous
 62
     7
370
    25
100
AcDbSpline
210
0.0
220
0.0
230
1.0
 70
     8
 71
     3
 72
    10
 73
     6
 74
     0
 42
0.000000001
 43
0.00000001
 40
0.0
 40
0.0
 40
0.0
 40
0.0
 40
0.028148475011432
 40
0.6719752357242176
 40
1.0
 40
1.0
 40
1.0
 40
1.0
 10
207.2188004502826
 20
76.04808364791847
 30
0.0
 10
207.2084505154028
 20
76.06307864709991
 30
0.0
 10
206.9613714133275
 20
76.42104717312245
 30
0.0
 10
206.5272943062167
 20
76.87620115295557
 30
0.0
 10
206.0739379255822
 20
77.27008975131986
 30
0.0
 10
205.920918543437
 20
77.40303723486768
 30
0.0
  0
SPLINE
  5
17F
330
1F
100
AcDbEntity
  8
0
  6
Continuous
 62
     7
370
    25
100
AcDbSpline
210
0.0
220
0.0
230
1.0
 70
     8
 71
     3
 72
    12
 73
     8
 74
     0
 42
0.000000001
 43
0.00000001
 40
0.0
 40
0.0
 40
0.0
 40
0.0
 40
0.1180490526010331
 40
0.3415715706442001
 40
0.5648880326714045
 40
0.7876618717436215
 40
0.9999999999999999
 40
0.9999999999999999
 40
0.9999999999999999
 40
0.9999999999999999
 10
209.5829317700031
 20
70.53818615771132
 30
0.0
 10
209.5302601158535
 20
70.79149828659538
 30
0.0
 10
209.3778561851154
 20
71.52444971500354
 30
0.0
 10
209.0402272691995
 20
72.66877293329513
 30
0.0
 10
208.5330918692361
 20
73.92776480187769
 30
0.0
 10
207.9345964946531
 20
75.06887301180242
 30
0.0
 10
207.4535533575899
 20
75.72694113043416
 30
0.0
 10
207.2188004502826
 20
76.04808364791847
 30
0.0
  0
SPLINE
  5
180
330
1F
100
AcDbEntity
  8
0
  6
Continuous
 62
     7
370
    25
100
AcDbSpline
210
0.0
220
0.0
230
1.0
 70
     8
 71
     3
 72
    28
 73
    24
 74
     0
 42
0.000000001
 43
0.00000001
 40
0.0
 40
0.0
 40
0.0
 40
0.0
 40
0.0173646859913571
 40
0.0666529697132405
 40
0.116022427525708
 40
0.1657775298981347
 40
0.2161025423756545
 40
0.2670303082661907
 40
0.3184683026004565
 40
0.3702610478330405
 40
0.4222524658896515
 40
0.4743219123752864
 40
0.5263766481100202
 40
0.5783840758737929
 40
0.6303339792540638
 40
0.6822286908839886
 40
0.734077400466319
 40
0.7858927912084067
 40
0.8376893382521449
 40
0.8894823799690259
 40
0.9412855244705658
 40
0.9931116107064701
 40
1.0
 40
1.0
 40
1.0
 40
1.0
 10
174.000184252888
 20
87.67999340089956
 30
0.0
 10
173.8968821047482
 20
87.74089604996001
 30
0.0
 10
173.5003650036209
 20
87.97466603723785
 30
0.0
 10
172.7332024319843
 20
88.23801541040207
 30
0.0
 10
171.7130185991656
 20
88.46541464082219
 30
0.0
 10
170.6341714681838
 20
88.53909684868927
 30
0.0
 10
169.5098828182883
 20
88.47008528454424
 30
0.0
 10
168.3462600954834
 20
88.25438499240634
 30
0.0
 10
167.1536811419097
 20
87.89345634494813
 30
0.0
 10
165.9433971072155
 20
87.38974173398711
 30
0.0
 10
164.7274485953843
 20
86.74820259284255
 30
0.0
 10
163.5177397502345
 20
85.97561649445585
 30
0.0
 10
162.3255363922983
 20
85.08009841179614
 30
0.0
 10
161.1613542028544
 20
84.07066067011934
 30
0.0
 10
160.0349971505621
 20
82.95687315494298
 30
0.0
 10
158.955797334352
 20
81.748945911987
 30
0.0
 10
157.9327608375126
 20
80.45768479747164
 30
0.0
 10
156.97419921426
 20
79.09446459127773
 30
0.0
 10
156.0889635621208
 20
77.67112507489584
 30
0.0
 10
155.2816381922704
 20
76.20006909955531
 30
0.0
 10
154.5702632300425
 20
74.69358786846014
 30
0.0
 10
154.1079777360846
 20
73.6078272290864
 30
0.0
 10
153.9097056960375
 20
73.02837893750159
 30
0.0
 10
153.8864443965785
 20
72.96039799460948
 30
0.0
  0
LINE
  5
181
330
1F
100
AcDbEntity
  8
0
  6
Continuous
 62
     7
370
    25
100
AcDbLine
 10
154.2703455517
 20
70.6275833415
 30
0.0
 11
158.0502316597
 21
68.4455015382
 31
0.0
  0
LINE
  5
182
330
1F
100
AcDbEntity
  8
0
  6
Continuous
 62
     7
370
    25
100
AcDbLine
 10
153.7649067149
 20
72.3972302231
 30
0.0
 11
153.7649067149
 21
71.74472528
 31
0.0
  0
LINE
  5
183
330
1F
100
AcDbEntity
  8
0
  6
Continuous
 62
     7
370
    25
100
AcDbLine
 10
153.7649067149
 20
60.2389373512
 30
0.0
 11
153.7649067149
 21
59.5864324081
 31
0.0
  0
SPLINE
  5
184
330
1F
100
AcDbEntity
  8
0
  6
Continuous
 62
     7
370
    25
100
AcDbSpline
210
0.0
220
0.0
230
1.0
 70
     8
 71
     3
 72
    10
 73
     6
 74
     0
 42
0.000000001
 43
0.00000001
 40
0.0
 40
0.0
 40
0.0
 40
0.0
 40
0.3295006286484303
 40
0.6892241807213073
 40
1.0
 40
1.0
 40
1.0
 40
1.0
 10
153.8971424521107
 20
59.25088870656793
 30
0.0
 10
154.0798975710427
 20
58.96949523789529
 30
0.0
 10
154.4621707328122
 20
58.38089793020046
 30
0.0
 10
155.1364979836136
 20
57.65220682859685
 30
0.0
 10
155.659279760346
 20
57.26165593390537
 30
0.0
 10
155.9015886153721
 20
57.08063596661872
 30
0.0
  0
SPLINE
  5
185
330
1F
100
AcDbEntity
  8
0
  6
Continuous
 62
     7
370
    25
100
AcDbSpline
210
0.0
220
0.0
230
1.0
 70
     8
 71
     3
 72
     9
 73
     5
 74
     0
 42
0.000000001
 43
0.00000001
 40
0.0
 40
0.0
 40
0.0
 40
0.0
 40
0.3544518289669109
 40
1.0
 40
1.0
 40
1.0
 40
1.0
 10
153.8111734178606
 20
59.38665497963547
 30
0.0
 10
153.8201149133632
 20
59.36942294742661
 30
0.0
 10
153.8453411776165
 20
59.32080694152512
 30
0.0
 10
153.8768208239775
 20
59.27831761414597
 30
0.0
 10
153.8971424521107
 20
59.25088870656793
 30
0.0
  0
LINE
  5
186
330
1F
100
AcDbEntity
  8
0
  6
Continuous
 62
     7
370
    25
100
AcDbLine
 10
253.7974793149
 20
36.3142084022
 30
0.0
 11
253.9883001593
 21
36.0945530271
 31
0.0
  0
LINE
  5
187
330
1F
100
AcDbEntity
  8
0
  6
Continuous
 62
     7
370
    25
100
AcDbLine
 10
253.9883001593
 20
36.0945530271
 30
0.0
 11
254.2663951086
 21
35.0875085665
 31
0.0
  0
LINE
  5
188
330
1F
100
AcDbEntity
  8
0
  6
Continuous
 62
     7
370
    25
100
AcDbLine
 10
254.2663951086
 20
35.0875085665
 30
0.0
 11
254.3998223175
 21
34.9334094892
 31
0.0
  0
SPLINE
  5
189
330
1F
100
AcDbEntity
  8
0
  6
Continuous
 62
     7
370
    25
100
AcDbSpline
210
0.0
220
0.0
230
1.0
 70
     8
 71
     3
 72
     9
 73
     5
 74
     0
 42
0.000000001
 43
0.00000001
 40
0.0
 40
0.0
 40
0.0
 40
0.0
 40
0.5000512175726414
 40
1.0
 40
1.0
 40
1.0
 40
1.0
 10
254.3998223174603
 20
34.93340948920682
 30
0.0
 10
254.6609028924811
 20
34.97724443257626
 30
0.0
 10
255.1830105603479
 20
35.0649053397574
 30
0.0
 10
255.669009055856
 20
35.17341258789426
 30
0.0
 10
255.9119834119469
 20
35.22766065448481
 30
0.0
  0
LINE
  5
18A
330
1F
100
AcDbEntity
  8
0
  6
Continuous
 62
     7
370
    25
100
AcDbLine
 10
255.9799182048
 20
35.4209427945
 30
0.0
 11
255.9119834119
 21
35.2276606545
 31
0.0
  0
LINE
  5
18B
330
1F
100
AcDbEntity
  8
0
  6
Continuous
 62
     7
370
    25
100
AcDbLine
 10
255.9148569709
 20
36.4694412956
 30
0.0
 11
255.9799182048
 21
35.4209427945
 31
0.0
  0
LINE
  5
18C
330
1F
100
AcDbEntity
  8
0
  6
Continuous
 62
     7
370
    25
100
AcDbLine
 10
256.0101065436
 20
36.7447630881
 30
0.0
 11
255.9148569709
 21
36.4694412956
 31
0.0
  0
ARC
  5
18D
330
1F
100
AcDbEntity
  8
0
  6
Continuous
 62
     7
370
    25
100
AcDbCircle
 10
256.4013019039
 20
30.9776502045
 30
0.0
 40
5.780365457443508
100
AcDbArc
 50
14.5805090325
 51
93.8805484379
  0
LINE
  5
18E
330
1F
100
AcDbEntity
  8
0
  6
Continuous
 62
     7
370
    25
100
AcDbLine
 10
261.9955099047
 20
32.4328002536
 30
0.0
 11
261.9735902507
 21
32.1046507785
 31
0.0
  0
LINE
  5
18F
330
1F
100
AcDbEntity
  8
0
  6
Continuous
 62
     7
370
    25
100
AcDbLine
 10
261.9735902507
 20
32.1046507785
 30
0.0
 11
261.7448006934
 21
31.2678457607
 31
0.0
  0
LINE
  5
190
330
1F
100
AcDbEntity
  8
0
  6
Continuous
 62
     7
370
    25
100
AcDbLine
 10
261.7448006934
 20
31.2678457607
 30
0.0
 11
261.7284819605
 21
31.0373782257
 31
0.0
  0
SPLINE
  5
191
330
1F
100
AcDbEntity
  8
0
  6
Continuous
 62
     7
370
    25
100
AcDbSpline
210
0.0
220
0.0
230
1.0
 70
     8
 71
     3
 72
     9
 73
     5
 74
     0
 42
0.000000001
 43
0.00000001
 40
0.0
 40
0.0
 40
0.0
 40
0.0
 40
0.1255455117364937
 40
1.0
 40
1.0
 40
1.0
 40
1.0
 10
261.7284819604783
 20
31.0373782257051
 30
0.0
 10
261.7447796592354
 20
30.96818075207507
 30
0.0
 10
261.87459472416
 20
30.4170063399203
 30
0.0
 10
261.9684703296795
 20
29.8860307380187
 30
0.0
 10
262.0505602742645
 20
29.42171673977743
 30
0.0
  0
LINE
  5
192
330
1F
100
AcDbEntity
  8
0
  6
Continuous
 62
     7
370
    25
100
AcDbLine
 10
262.1097680353
 20
29.4370399752
 30
0.0
 11
262.0505602743
 21
29.4217167398
 31
0.0
  0
LINE
  5
193
330
1F
100
AcDbEntity
  8
0
  6
Continuous
 62
     7
370
    25
100
AcDbLine
 10
262.3839313093
 20
30.0462300096
 30
0.0
 11
262.1097680353
 21
29.4370399752
 31
0.0
  0
LINE
  5
194
330
1F
100
AcDbEntity
  8
0
  6
Continuous
 62
     7
370
    25
100
AcDbLine
 10
262.4667821353
 20
30.0687288073
 30
0.0
 11
262.3839313093
 21
30.0462300096
 31
0.0
  0
ARC
  5
195
330
1F
100
AcDbEntity
  8
0
  6
Continuous
 62
     7
370
    25
100
AcDbCircle
 10
241.2944811886
 20
29.1804788733
 30
0.0
 40
21.19092530598589
100
AcDbArc
 50
329.9351244447
 51
2.4023437648
  0
LINE
  5
196
330
1F
100
AcDbEntity
  8
0
  6
Continuous
 62
     7
370
    25
100
AcDbLine
 10
259.6343519134
 20
18.5642433296
 30
0.0
 11
259.5167997431
 21
18.400797417
 31
0.0
  0
LINE
  5
197
330
1F
100
AcDbEntity
  8
0
  6
Continuous
 62
     7
370
    25
100
AcDbLine
 10
259.5167997431
 20
18.400797417
 30
0.0
 11
259.3816934104
 21
18.3564144586
 31
0.0
  0
LINE
  5
198
330
1F
100
AcDbEntity
  8
0
  6
Continuous
 62
     7
370
    25
100
AcDbLine
 10
259.3816934104
 20
18.3564144586
 30
0.0
 11
259.2980602335
 21
18.2418804845
 31
0.0
  0
SPLINE
  5
199
330
1F
100
AcDbEntity
  8
0
  6
Continuous
 62
     7
370
    25
100
AcDbSpline
210
0.0
220
0.0
230
1.0
 70
     8
 71
     3
 72
     9
 73
     5
 74
     0
 42
0.000000001
 43
0.00000001
 40
0.0
 40
0.0
 40
0.0
 40
0.0
 40
0.5000512113511664
 40
1.0
 40
1.0
 40
1.0
 40
1.0
 10
259.2980602334953
 20
18.24188048449215
 30
0.0
 10
259.1087207479015
 20
17.91831741662082
 30
0.0
 10
258.7300805580653
 20
17.27125755449779
 30
0.0
 10
258.315330994628
 20
16.6450433443659
 30
0.0
 10
258.107977452795
 20
16.33196830857579
 30
0.0
  0
LINE
  5
19A
330
1F
100
AcDbEntity
  8
0
  6
Continuous
 62
     7
370
    25
100
AcDbLine
 10
258.0331371622
 20
16.1921742551
 30
0.0
 11
258.1079774528
 21
16.3319683086
 31
0.0
  0
LINE
  5
19B
330
1F
100
AcDbEntity
  8
0
  6
Continuous
 62
     7
370
    25
100
AcDbLine
 10
258.0005846486
 20
15.9674884747
 30
0.0
 11
258.0331371622
 21
16.1921742551
 31
0.0
  0
LINE
  5
19C
330
1F
100
AcDbEntity
  8
0
  6
Continuous
 62
     7
370
    25
100
AcDbLine
 10
257.8929969153
 20
15.7696166271
 30
0.0
 11
258.0005846486
 21
15.9674884747
 31
0.0
  0
LWPOLYLINE
  5
19D
330
1F
100
AcDbEntity
  8
0
  6
Continuous
 62
     7
370
    25
100
AcDbPolyline
 90
        9
 70
   128
 43
0.0
 10
257.8929969153
 20
15.7696166271
 10
256.9174257884
 20
14.4850563047
 10
255.8819817705
 20
13.2874533075
 10
254.7979756928
 20
12.1898901483
 10
253.6772485148
 20
11.2043553639
 10
252.5320424142
 20
10.3416158651
 10
251.3748673238
 20
9.611094262
 10
250.2183635063
 20
9.0207705185
 10
249.0751639909
 20
8.5770941739
  0
LINE
  5
19E
330
1F
100
AcDbEntity
  8
0
  6
Continuous
 62
     7
370
    25
100
AcDbLine
 10
249.0751639909
 20
8.5770941739
 30
0.0
 11
249.0747204612
 21
8.6868470645
 31
0.0
  0
LINE
  5
19F
330
1F
100
AcDbEntity
  8
0
  6
Continuous
 62
     7
370
    25
100
AcDbLine
 10
249.0747204612
 20
8.6868470645
 30
0.0
 11
249.5401802133
 21
9.2646465328
 31
0.0
  0
LINE
  5
1A0
330
1F
100
AcDbEntity
  8
0
  6
Continuous
 62
     7
370
    25
100
AcDbLine
 10
249.5401802133
 20
9.2646465328
 30
0.0
 11
249.5389782049
 21
9.3424136266
 31
0.0
  0
SPLINE
  5
1A1
330
1F
100
AcDbEntity
  8
0
  6
Continuous
 62
     7
370
    25
100
AcDbSpline
210
0.0
220
0.0
230
1.0
 70
     8
 71
     3
 72
     9
 73
     5
 74
     0
 42
0.000000001
 43
0.00000001
 40
0.0
 40
0.0
 40
0.0
 40
0.0
 40
0.5000512175726414
 40
1.0
 40
1.0
 40
1.0
 40
1.0
 10
249.5389782049498
 20
9.342413626611284
 30
0.0
 10
249.2959535192404
 20
9.288155240211593
 30
0.0
 10
248.8099539312601
 20
9.179649582205046
 30
0.0
 10
248.287844889957
 20
9.091988508432264
 30
0.0
 10
248.0268171104633
 20
9.048162461333275
 30
0.0
  0
LINE
  5
1A2
330
1F
100
AcDbEntity
  8
0
  6
Continuous
 62
     7
370
    25
100
AcDbLine
 10
247.8266571171
 20
8.9312123048
 30
0.0
 11
248.0268171105
 21
9.0481624613
 31
0.0
  0
LINE
  5
1A3
330
1F
100
AcDbEntity
  8
0
  6
Continuous
 62
     7
370
    25
100
AcDbLine
 10
247.1481636496
 20
8.3119587961
 30
0.0
 11
247.8266571171
 21
8.9312123048
 31
0.0
  0
LINE
  5
1A4
330
1F
100
AcDbEntity
  8
0
  6
Continuous
 62
     7
370
    25
100
AcDbLine
 10
246.8625367621
 20
8.1465394881
 30
0.0
 11
247.1481636496
 21
8.3119587961
 31
0.0
  0
ARC
  5
1A5
330
1F
100
AcDbEntity
  8
0
  6
Continuous
 62
     7
370
    25
100
AcDbCircle
 10
246.4713414019
 20
13.9136523716
 30
0.0
 40
5.78036545744352
100
AcDbArc
 50
194.5805090325
 51
273.8805484379
  0
LINE
  5
1A6
330
1F
100
AcDbEntity
  8
0
  6
Continuous
 62
     7
370
    25
100
AcDbLine
 10
240.8771334011
 20
12.4585023225
 30
0.0
 11
241.0894303698
 21
12.6767493132
 31
0.0
  0
LINE
  5
1A7
330
1F
100
AcDbEntity
  8
0
  6
Continuous
 62
     7
370
    25
100
AcDbLine
 10
241.0894303698
 20
12.6767493132
 30
0.0
 11
242.0617746285
 21
13.0843093386
 31
0.0
  0
LINE
  5
1A8
330
1F
100
AcDbEntity
  8
0
  6
Continuous
 62
     7
370
    25
100
AcDbLine
 10
242.0617746285
 20
13.0843093386
 30
0.0
 11
242.2103185619
 21
13.2384448901
 31
0.0
  0
SPLINE
  5
1A9
330
1F
100
AcDbEntity
  8
0
  6
Continuous
 62
     7
370
    25
100
AcDbSpline
210
0.0
220
0.0
230
1.0
 70
     8
 71
     3
 72
     9
 73
     5
 74
     0
 42
0.000000001
 43
0.00000001
 40
0.0
 40
0.0
 40
0.0
 40
0.0
 40
0.1255455623024736
 40
1.0
 40
1.0
 40
1.0
 40
1.0
 10
241.8882402481456
 20
14.85410637604068
 30
0.0
 10
241.9045379465999
 20
14.78490887035613
 30
0.0
 10
242.0343529568277
 20
14.23373442487599
 30
0.0
 10
242.1282285942213
 20
13.70275884353001
 30
0.0
 10
242.2103185619318
 20
13.23844489011301
 30
0.0
  0
LINE
  5
1AA
330
1F
100
AcDbEntity
  8
0
  6
Continuous
 62
     7
370
    25
100
AcDbLine
 10
241.6968072866
 20
14.9151151241
 30
0.0
 11
241.8882402481
 21
14.854106376
 31
0.0
  0
LINE
  5
1AB
330
1F
100
AcDbEntity
  8
0
  6
Continuous
 62
     7
370
    25
100
AcDbLine
 10
240.6790893112
 20
14.7351700821
 30
0.0
 11
241.6968072866
 21
14.9151151241
 31
0.0
  0
LINE
  5
1AC
330
1F
100
AcDbEntity
  8
0
  6
Continuous
 62
     7
370
    25
100
AcDbLine
 10
240.4058611705
 20
14.8225737689
 30
0.0
 11
240.6790893112
 21
14.7351700821
 31
0.0
  0
ARC
  5
1AD
330
1F
100
AcDbEntity
  8
0
  6
Continuous
 62
     7
370
    25
100
AcDbCircle
 10
261.5781621172
 20
15.7108237028
 30
0.0
 40
21.19092530598547
100
AcDbArc
 50
149.9351244447
 51
182.4023437648
  0
LINE
  5
1AE
330
1F
100
AcDbEntity
  8
0
  6
Continuous
 62
     7
370
    25
100
AcDbLine
 10
243.2382913924
 20
26.3270592465
 30
0.0
 11
243.5462208774
 21
26.3806026746
 31
0.0
  0
LINE
  5
1AF
330
1F
100
AcDbEntity
  8
0
  6
Continuous
 62
     7
370
    25
100
AcDbLine
 10
243.5462208774
 20
26.3806026746
 30
0.0
 11
244.4248819115
 21
25.9957406407
 31
0.0
  0
LINE
  5
1B0
330
1F
100
AcDbEntity
  8
0
  6
Continuous
 62
     7
370
    25
100
AcDbLine
 10
244.4248819115
 20
25.9957406407
 30
0.0
 11
244.6407402889
 21
26.0339426313
 31
0.0
  0
SPLINE
  5
1B1
330
1F
100
AcDbEntity
  8
0
  6
Continuous
 62
     7
370
    25
100
AcDbSpline
210
0.0
220
0.0
230
1.0
 70
     8
 71
     3
 72
     9
 73
     5
 74
     0
 42
0.000000001
 43
0.00000001
 40
0.0
 40
0.0
 40
0.0
 40
0.0
 40
0.5000512113511664
 40
1.0
 40
1.0
 40
1.0
 40
1.0
 10
244.6407402889148
 20
26.03394263132596
 30
0.0
 10
244.8481356636702
 20
26.34708225625353
 30
0.0
 10
245.2628839335426
 20
26.97329736746473
 30
0.0
 10
245.6415229513348
 20
27.62035775187417
 30
0.0
 10
245.8308230696152
 20
27.94385480724232
 30
0.0
  0
LINE
  5
1B2
330
1F
100
AcDbEntity
  8
0
  6
Continuous
 62
     7
370
    25
100
AcDbLine
 10
245.7734381597
 20
28.1599808442
 30
0.0
 11
245.8308230696
 21
27.9438548072
 31
0.0
  0
LINE
  5
1B3
330
1F
100
AcDbEntity
  8
0
  6
Continuous
 62
     7
370
    25
100
AcDbLine
 10
245.0624359719
 20
28.813911617
 30
0.0
 11
245.7734381597
 21
28.1599808442
 31
0.0
  0
LINE
  5
1B4
330
1F
100
AcDbEntity
  8
0
  6
Continuous
 62
     7
370
    25
100
AcDbLine
 10
244.9796463905
 20
29.1216859491
 30
0.0
 11
245.0624359719
 21
28.813911617
 31
0.0
  0
LWPOLYLINE
  5
1B5
330
1F
100
AcDbEntity
  8
0
  6
Continuous
 62
     7
370
    25
100
AcDbPolyline
 90
        9
 70
   128
 43
0.0
 10
244.9796463905
 20
29.1216859491
 10
245.9552175174
 20
30.4062462715
 10
246.9906615352
 20
31.6038492686
 10
248.074667613
 20
32.7014124278
 10
249.195394791
 20
33.6869472122
 10
250.3406008916
 20
34.549686711
 10
251.497775982
 20
35.2802083142
 10
252.6542797994
 20
35.8705320576
 10
253.7974793149
 20
36.3142084022
  0
LWPOLYLINE
  5
1B6
330
1F
100
AcDbEntity
  8
0
  6
Continuous
 62
     7
370
    25
100
AcDbPolyline
 90
       52
 70
   128
 43
0.0
 10
254.6521755851
 20
12.9737627379
 10
253.6179649388
 20
12.2060123675
 10
252.5734260096
 20
11.5803556476
 10
251.5343929242
 20
11.106275633
 10
250.5166163384
 20
10.790959264
 10
249.5355247975
 20
10.639187739
 10
248.6059905416
 20
10.6532598727
 10
247.7421046121
 20
10.8329641699
 10
246.9569624957
 20
11.1755752336
 10
246.2624654088
 20
11.6758991262
 10
245.6691424904
 20
12.3263528546
 10
245.1859874827
 20
13.1170754131
 10
244.8203240592
 20
14.0360800786
 10
244.5776958475
 20
15.0694361717
 10
244.4617801603
 20
16.2014784772
 10
244.4743346528
 20
17.4150467473
 10
244.6151696642
 20
18.6917447846
 10
244.8821488761
 20
20.0122186764
 10
245.271226191
 20
21.3564516604
 10
245.7765030259
 20
22.704066166
 10
246.390320508
 20
24.0346342169
 10
247.1033734034
 20
25.3279854082
 10
247.9048523627
 20
26.5645141196
 10
248.7826078981
 20
27.7254753203
 10
249.7233344472
 20
28.7932706762
 10
250.7127712287
 20
29.751713932
 10
251.7359194798
 20
30.5862741918
 10
252.7772693659
 20
31.284301969
 10
253.8210350403
 20
31.8352158345
 10
254.8513941891
 20
32.2306635168
 10
255.8527272478
 20
32.4646508731
 10
256.8098555065
 20
32.5336314356
 10
257.7082699124
 20
32.4365594085
 10
258.5343507774
 20
32.1749062346
 10
259.2755762069
 20
31.7526371917
 10
259.920709456
 20
31.1761549108
 10
260.4599717972
 20
30.454197648
 10
260.8851874006
 20
29.5977096116
 10
261.189911091
 20
28.6196740288
 10
261.3695238372
 20
27.5349176029
 10
261.4213018991
 20
26.3598831991
 10
261.3444616088
 20
25.1123840451
 10
261.140167273
 20
23.8113305811
 10
260.8115153679
 20
22.4764450505
 10
260.3634884414
 20
21.1279639487
 10
259.8028780628
 20
19.7863280713
 10
259.1381827491
 20
18.4718752007
 10
258.3794775727
 20
17.2045315612
 10
257.5382650013
 20
16.0035089784
 10
256.6272961029
 20
14.8870126879
 10
255.6603803911
 20
13.8719684423
 10
254.6521755851
 20
12.9737627379
  0
LINE
  5
1B7
330
1F
100
AcDbEntity
  8
0
  6
Continuous
 62
     7
370
    25
100
AcDbLine
 10
239.3894411864
 20
28.5489531761
 30
0.0
 11
243.2382913924
 21
26.3270592465
 31
0.0
  0
LINE
  5
1B8
330
1F
100
AcDbEntity
  8
0
  6
Continuous
 62
     7
370
    25
100
AcDbLine
 10
236.5570109645
 20
17.0444676985
 30
0.0
 11
240.4058611705
 21
14.8225737689
 31
0.0
  0
SPLINE
  5
1B9
330
1F
100
AcDbEntity
  8
0
  6
Continuous
 62
     7
370
    25
100
AcDbSpline
210
0.0
220
0.0
230
1.0
 70
     8
 71
     3
 72
    18
 73
    14
 74
     0
 42
0.000000001
 43
0.00000001
 40
0.0
 40
0.0
 40
0.0
 40
0.0
 40
0.0823402658381964
 40
0.1971293070014455
 40
0.3099452813159009
 40
0.4180294107932454
 40
0.5204025617767306
 40
0.5325621272878707
 40
0.6297980408749361
 40
0.7297579911190061
 40
0.8340301587105154
 40
0.9435585150249975
 40
1.0
 40
1.0
 40
1.0
 40
1.0
 10
236.5570109644732
 20
17.04446769845967
 30
0.0
 10
236.4547524709745
 20
17.09588538148254
 30
0.0
 10
236.2099373036537
 20
17.21898350508877
 30
0.0
 10
235.8647404072779
 20
17.24958733478509
 30
0.0
 10
235.5904410242823
 20
17.11557383110343
 30
0.0
 10
235.4652579740896
 20
16.83288009192889
 30
0.0
 10
235.4899688570768
 20
16.56065876088186
 30
0.0
 10
235.5694509592075
 20
16.2818534671141
 30
0.0
 10
235.7011525992354
 20
15.98548571985722
 30
0.0
 10
236.0003433170055
 20
15.55589837514773
 30
0.0
 10
236.3860837107763
 20
15.14735036766508
 30
0.0
 10
236.7463345642725
 20
14.85350191802658
 30
0.0
 10
236.9567328847811
 20
14.72432540357903
 30
0.0
 10
237.0282831950874
 20
14.68039625209784
 30
0.0
  0
LINE
  5
1BA
330
1F
100
AcDbEntity
  8
0
  6
Continuous
 62
     7
370
    25
100
AcDbLine
 10
237.0282831951
 20
14.6803962521
 30
0.0
 11
240.8771334011
 21
12.4585023225
 31
0.0
  0
LINE
  5
1BB
330
1F
100
AcDbEntity
  8
0
  6
Continuous
 62
     7
370
    25
100
AcDbLine
 10
248.2047367387
 20
9.0795811309
 30
0.0
 11
249.0751639909
 21
8.5770941739
 31
0.0
  0
LINE
  5
1BC
330
1F
100
AcDbEntity
  8
0
  6
Continuous
 62
     7
370
    25
100
AcDbLine
 10
261.8562955713
 20
30.421155199
 30
0.0
 11
262.4667821353
 21
30.0687288073
 31
0.0
  0
LINE
  5
1BD
330
1F
100
AcDbEntity
  8
0
  6
Continuous
 62
     7
370
    25
100
AcDbLine
 10
252.1612563376
 20
38.9666570177
 30
0.0
 11
256.0101065436
 21
36.7447630881
 31
0.0
  0
SPLINE
  5
1BE
330
1F
100
AcDbEntity
  8
0
  6
Continuous
 62
     7
370
    25
100
AcDbSpline
210
0.0
220
0.0
230
1.0
 70
     8
 71
     3
 72
    18
 73
    14
 74
     0
 42
0.000000001
 43
0.00000001
 40
0.0
 40
0.0
 40
0.0
 40
0.0
 40
0.0823402559468921
 40
0.1971292933113869
 40
0.3099452552826352
 40
0.4180293911229829
 40
0.520402462630885
 40
0.5326712199842482
 40
0.629906649965763
 40
0.7298699128658837
 40
0.8341477529680132
 40
0.9436807784359453
 40
0.9999999999999999
 40
0.9999999999999999
 40
0.9999999999999999
 40
0.9999999999999999
 10
249.948629108863
 20
38.53610233181006
 30
0.0
 10
249.8528328096932
 20
38.59789107611774
 30
0.0
 10
249.6234886506301
 20
38.74581837315976
 30
0.0
 10
249.421298165869
 20
39.00592607215435
 30
0.0
 10
249.393964888527
 20
39.26825966763099
 30
0.0
 10
249.5669904558714
 20
39.46414195777924
 30
0.0
 10
249.8070092109817
 20
39.53732257776969
 30
0.0
 10
250.0801885349951
 20
39.56903448262783
 30
0.0
 10
250.3943730563096
 20
39.56509804160801
 30
0.0
 10
250.9044398405589
 20
39.47376153554544
 30
0.0
 10
251.4416540611697
 20
39.30823132123978
 30
0.0
 10
251.8712715320765
 20
39.12614728212125
 30
0.0
 10
252.0877468153732
 20
39.00708690544062
 30
0.0
 10
252.1612563376214
 20
38.96665701767139
 30
0.0
  0
LINE
  5
1BF
330
1F
100
AcDbEntity
  8
0
  6
Continuous
 62
     7
370
    25
100
AcDbLine
 10
249.9486291089
 20
38.5361023318
 30
0.0
 11
253.7974793149
 21
36.3142084022
 31
0.0
  0
LINE
  5
1C0
330
1F
100
AcDbEntity
  8
0
  6
Continuous
 62
     7
370
    25
100
AcDbLine
 10
241.1307961845
 20
31.3435798787
 30
0.0
 11
244.9796463905
 21
29.1216859491
 31
0.0
  0
SPLINE
  5
1C1
330
1F
100
AcDbEntity
  8
0
  6
Continuous
 62
     7
370
    25
100
AcDbSpline
210
0.0
220
0.0
230
1.0
 70
     8
 71
     3
 72
    18
 73
    14
 74
     0
 42
0.000000001
 43
0.00000001
 40
0.0
 40
0.0
 40
0.0
 40
0.0
 40
0.082339184774037
 40
0.1971266597872142
 40
0.3099410849641202
 40
0.4180238969888748
 40
0.5203956190535362
 40
0.5371610762950522
 40
0.6343757630779374
 40
0.7344802349855739
 40
0.8389931603871092
 40
0.9487431134639407
 40
1.0
 40
1.0
 40
1.0
 40
1.0
 10
239.3894411863543
 20
28.54895317610208
 30
0.0
 10
239.2914046234158
 20
28.6175189566818
 30
0.0
 10
239.0566971722536
 20
28.78167097419903
 30
0.0
 10
238.8054571852335
 20
29.19390351927991
 30
0.0
 10
238.6969511894097
 20
29.73328756450737
 30
0.0
 10
238.7783767410105
 20
30.28979381375386
 30
0.0
 10
238.9618561498785
 20
30.65469033167986
 30
0.0
 10
239.1908856685065
 20
30.96019063550736
 30
0.0
 10
239.4694919732049
 20
31.22423257011885
 30
0.0
 10
239.9372563889124
 20
31.46093327244163
 30
0.0
 10
240.4472612961164
 20
31.54602879925315
 30
0.0
 10
240.8559935265041
 20
31.48284204819793
 30
0.0
 10
241.0644375611192
 20
31.37720854124063
 30
0.0
 10
241.1307961844986
 20
31.34357987867241
 30
0.0
  0
LWPOLYLINE
  5
1C2
330
1F
100
AcDbEntity
  8
0
  6
Continuous
 62
     7
370
    25
100
AcDbPolyline
 90
       31
 70
   128
 43
0.0
 10
236.3670011176
 20
13.045543693
 10
235.7941530064
 20
13.4285543897
 10
235.0743480541
 20
14.0924931074
 10
234.4579839804
 20
14.8983834303
 10
233.9520453084
 20
15.8370942053
 10
233.5622633508
 20
16.8979890606
 10
233.2930549658
 20
18.0690482757
 10
233.1474711899
 20
19.3370031028
 10
233.1271590431
 20
20.687485962
 10
233.2323523086
 20
22.1051974586
 10
233.4618563868
 20
23.5740727361
 10
233.8130713438
 20
25.0774690228
 10
234.2820189123
 20
26.5983530838
 10
234.8633839795
 20
28.1194916176
 10
235.5505811005
 20
29.6236504914
 10
236.3358236449
 20
31.0937869416
 10
237.2102133594
 20
32.5132423426
 10
238.1638444174
 20
33.8659353546
 10
239.1859114207
 20
35.136538341
 10
240.2648338641
 20
36.3106556852
 10
241.3883868566
 20
37.3749836658
 10
242.5438405683
 20
38.3174632011
 10
243.7181028873
 20
39.1274154362
 10
244.8978690744
 20
39.7956631175
 10
246.0697718284
 20
40.3146354754
 10
247.2205334105
 20
40.6784514802
 10
248.3371147215
 20
40.8829899335
 10
249.4068646278
 20
40.9259323256
 10
250.4176626174
 20
40.8067927171
 10
251.3580556137
 20
40.5269206736
 10
252.0407278754
 20
40.1961761723
  0
LWPOLYLINE
  5
1C3
330
1F
100
AcDbEntity
  8
0
  6
Continuous
 62
     7
370
    25
100
AcDbPolyline
 90
       44
 70
   128
 43
0.0
 10
254.1339389236
 20
15.5734246716
 10
253.2767334548
 20
14.9486324748
 10
252.4122793042
 20
14.4651664751
 10
251.5590008391
 20
14.1333312715
 10
250.7350841984
 20
13.9601984722
 10
249.9580897593
 20
13.9494590236
 10
249.2445778583
 20
14.1013413641
 10
248.6097557698
 20
14.4126087726
 10
248.0671536201
 20
14.8766270321
 10
247.6283357799
 20
15.4835058077
 10
247.3026548984
 20
16.2203108395
 10
247.0970533518
 20
17.0713392481
 10
247.0159114488
 20
18.0184514676
 10
247.0609598444
 20
19.0414623451
 10
247.2312377222
 20
20.1185678126
 10
247.5231165019
 20
21.2268114756
 10
247.9303749136
 20
22.3425727046
 10
248.4443330114
 20
23.4420714989
 10
249.0540368953
 20
24.5018738915
 10
249.746491177
 20
25.4993909812
 10
250.5069382036
 20
26.4133640819
 10
251.319169713
 20
27.2243119403
 10
252.1658747103
 20
27.9149517148
 10
253.029007162
 20
28.4705633332
 10
253.8901707715
 20
28.8793040152
 10
254.7310114299
 20
29.1324633467
 10
255.5336079392
 20
29.2246454934
 10
256.2808546057
 20
29.153885123
 10
256.95682486
 20
28.9216907773
 10
257.5471118882
 20
28.5330114748
 10
258.039134527
 20
27.9961307874
 10
258.4224061136
 20
27.3224914337
 10
258.6887577326
 20
26.5264509592
 10
258.8325133888
 20
25.6249761562
 10
258.8506082163
 20
24.6372795517
 10
258.7426569664
 20
23.5844126009
 10
258.5109605936
 20
22.4888153971
 10
258.1604571939
 20
21.3738383931
 10
257.6986166377
 20
20.2632454485
 10
257.1352828484
 20
19.1807073284
 10
256.4824624092
 20
18.1492961107
 10
255.7540683902
 20
17.1909943315
 10
254.965625978
 20
16.3262265673
 10
254.1339389236
 20
15.5734246716
  0
LINE
  5
1C4
330
1F
100
AcDbEntity
  8
0
  6
Continuous
 62
     7
370
    25
100
AcDbLine
 10
239.602182014
 20
28.6574478465
 30
0.0
 11
243.5462208774
 21
26.3806026746
 31
0.0
  0
LINE
  5
1C5
330
1F
100
AcDbEntity
  8
0
  6
Continuous
 62
     7
370
    25
100
AcDbLine
 10
240.1090656975
 20
28.4872083087
 30
0.0
 11
244.4248819115
 21
25.9957406407
 31
0.0
  0
LINE
  5
1C6
330
1F
100
AcDbEntity
  8
0
  6
Continuous
 62
     7
370
    25
100
AcDbLine
 10
240.2588114746
 20
28.5635762911
 30
0.0
 11
244.6407402889
 21
26.0339426313
 31
0.0
  0
LWPOLYLINE
  5
1C7
330
1F
100
AcDbEntity
  8
0
  6
Continuous
 62
     7
370
    25
100
AcDbPolyline
 90
        9
 70
   128
 43
0.0
 10
240.2588114746
 20
28.5635762911
 10
239.9992896207
 20
28.8122345765
 10
239.8698711369
 20
29.1684188161
 10
239.8902511138
 20
29.577906315
 10
240.0573304409
 20
29.9783557472
 10
240.3456761294
 20
30.3087980784
 10
240.7113863095
 20
30.5189306943
 10
241.0987830189
 20
30.5767638735
 10
241.4488942553
 20
30.473488467
  0
LINE
  5
1C8
330
1F
100
AcDbEntity
  8
0
  6
Continuous
 62
     7
370
    25
100
AcDbLine
 10
241.4488942553
 20
30.473488467
 30
0.0
 11
245.8308230696
 21
27.9438548072
 31
0.0
  0
LINE
  5
1C9
330
1F
100
AcDbEntity
  8
0
  6
Continuous
 62
     7
370
    25
100
AcDbLine
 10
241.4576219456
 20
30.6514485122
 30
0.0
 11
245.7734381597
 21
28.1599808442
 31
0.0
  0
LINE
  5
1CA
330
1F
100
AcDbEntity
  8
0
  6
Continuous
 62
     7
370
    25
100
AcDbLine
 10
241.1183971085
 20
31.0907567888
 30
0.0
 11
245.0624359719
 21
28.813911617
 31
0.0
  0
LWPOLYLINE
  5
1CB
330
1F
100
AcDbEntity
  8
0
  6
Continuous
 62
     7
370
    25
100
AcDbPolyline
 90
       12
 70
   128
 43
0.0
 10
257.5541125456
 20
25.4451662888
 10
257.2831899692
 20
24.1698802325
 10
256.8812308652
 20
22.8727849891
 10
256.3559164966
 20
21.5786686467
 10
255.717285716
 20
20.3122624177
 10
254.9775439873
 20
19.0977684093
 10
254.1508276268
 20
17.9583953829
 10
253.2529354467
 20
16.9159179011
 10
252.3010271411
 20
15.9902581013
 10
251.3132936027
 20
15.1991052574
 10
250.3086111763
 20
14.5575800623
 10
249.3833153231
 20
14.1090835205
  0
ARC
  5
1CC
330
1F
100
AcDbEntity
  8
0
  6
Continuous
 62
     7
370
    25
100
AcDbCircle
 10
247.7492560852
 20
27.1687000566
 30
0.0
 40
9.955188539562714
100
AcDbArc
 50
350.0301928922
 51
7.0611201685
  0
LWPOLYLINE
  5
1CD
330
1F
100
AcDbEntity
  8
0
  6
Continuous
 62
     7
370
    25
100
AcDbPolyline
 90
        8
 70
   128
 43
0.0
 10
253.9720634152
 20
15.6668734135
 10
253.1148579464
 20
15.0420812167
 10
252.2504037958
 20
14.558615217
 10
251.3971253307
 20
14.2267800134
 10
250.5732086899
 20
14.0536472141
 10
249.7962142508
 20
14.0429077655
 10
249.0827023499
 20
14.194790106
 10
248.6693168401
 20
14.3744601162
  0
LWPOLYLINE
  5
1CE
330
1F
100
AcDbEntity
  8
0
  6
Continuous
 62
     7
370
    25
100
AcDbPolyline
 90
       16
 70
   128
 43
0.0
 10
257.0420721294
 20
28.8780691307
 10
257.3852363798
 20
28.6264602167
 10
257.8772590186
 20
28.0895795293
 10
258.2605306052
 20
27.4159401756
 10
258.5268822241
 20
26.6198997011
 10
258.6706378804
 20
25.718424898
 10
258.6887327079
 20
24.7307282936
 10
258.5807814579
 20
23.6778613428
 10
258.3490850851
 20
22.582264139
 10
257.9985816855
 20
21.467287135
 10
257.5367411293
 20
20.3566941904
 10
256.9734073399
 20
19.2741560703
 10
256.3205869008
 20
18.2427448526
 10
255.5921928818
 20
17.2844430734
 10
254.8037504696
 20
16.4196753092
 10
253.9720634152
 20
15.6668734135
  0
LINE
  5
1CF
330
1F
100
AcDbEntity
  8
0
  6
Continuous
 62
     7
370
    25
100
AcDbLine
 10
249.9331982586
 20
15.3013347434
 30
0.0
 11
249.7886702942
 21
15.1848797059
 31
0.0
  0
ARC
  5
1D0
330
1F
100
AcDbEntity
  8
0
  6
Continuous
 62
     7
370
    25
100
AcDbCircle
 10
236.7007166307
 20
30.970639988
 30
0.0
 40
20.50916129151074
100
AcDbArc
 50
310.1805655294
 51
347.403624099
  0
LWPOLYLINE
  5
1D1
330
1F
100
AcDbEntity
  8
0
  6
Continuous
 62
     7
370
    25
100
AcDbPolyline
 90
       16
 70
   128
 43
0.0
 10
233.11996642
 20
20.5488244611
 10
233.1443773478
 20
21.4010090538
 10
233.2860203933
 20
22.8233490146
 10
233.5523489632
 20
24.2921255888
 10
233.9402402395
 20
25.7901181969
 10
234.4451476309
 20
27.2997653259
 10
235.0611508222
 20
28.8033669968
 10
235.7810275558
 20
30.283295217
 10
236.5963385839
 20
31.7221992965
 10
237.4975244744
 20
33.1032085025
 10
238.474020527
 20
34.4101326209
 10
239.5143776162
 20
35.6276495889
 10
240.6063985099
 20
36.7414838107
 10
241.7372801149
 20
37.738578009
 10
242.8937643664
 20
38.6072404079
 10
243.9192667892
 20
39.2557884899
  0
LWPOLYLINE
  5
1D2
330
1F
100
AcDbEntity
  8
0
  6
Continuous
 62
     7
370
    25
100
AcDbPolyline
 90
        9
 70
   128
 43
0.0
 10
239.602182014
 20
28.6574478465
 10
239.2715426216
 20
28.9742475323
 10
239.1066549306
 20
29.4280424314
 10
239.1326226577
 20
29.9497454574
 10
239.3454879503
 20
30.4599344377
 10
239.7128530528
 20
30.8809325762
 10
240.1787811947
 20
31.1486518609
 10
240.6723431813
 20
31.2223318522
 10
241.1183971085
 20
31.0907567888
  0
LWPOLYLINE
  5
1D3
330
1F
100
AcDbEntity
  8
0
  6
Continuous
 62
     7
370
    25
100
AcDbPolyline
 90
        9
 70
   128
 43
0.0
 10
240.1090656975
 20
28.4872083087
 10
239.8149880376
 20
28.7689769566
 10
239.6683328099
 20
29.1725925097
 10
239.6914279657
 20
29.6366078527
 10
239.8807588532
 20
30.0903800019
 10
240.2074983451
 20
30.4648263315
 10
240.621905916
 20
30.7029418259
 10
241.060891685
 20
30.7684740278
 10
241.4576219456
 20
30.6514485122
  0
LINE
  5
1D4
330
1F
100
AcDbEntity
  8
0
  6
Continuous
 62
     7
370
    25
100
AcDbLine
 10
237.8283897476
 20
15.7680785499
 30
0.0
 11
242.2103185619
 21
13.2384448901
 31
0.0
  0
ARC
  5
1D5
330
1F
100
AcDbEntity
  8
0
  6
Continuous
 62
     7
370
    25
100
AcDbCircle
 10
239.013083556
 20
17.6772185321
 30
0.0
 40
2.246845542407383
100
AcDbArc
 50
202.226532206
 51
238.1788286054
  0
LWPOLYLINE
  5
1D6
330
1F
100
AcDbEntity
  8
0
  6
Continuous
 62
     7
370
    25
100
AcDbPolyline
 90
        3
 70
   128
 43
0.0
 10
250.848230212
 20
38.0167730003
 10
251.1676848845
 20
37.9220617102
 10
251.5300545976
 20
37.7572943142
  0
LINE
  5
1D7
330
1F
100
AcDbEntity
  8
0
  6
Continuous
 62
     7
370
    25
100
AcDbLine
 10
251.5300545976
 20
37.7572943142
 30
0.0
 11
255.9119834119
 21
35.2276606545
 31
0.0
  0
LINE
  5
1D8
330
1F
100
AcDbEntity
  8
0
  6
Continuous
 62
     7
370
    25
100
AcDbLine
 10
237.1453915064
 20
14.953594485
 30
0.0
 11
241.0894303698
 21
12.6767493132
 31
0.0
  0
LINE
  5
1D9
330
1F
100
AcDbEntity
  8
0
  6
Continuous
 62
     7
370
    25
100
AcDbLine
 10
237.7459584144
 20
15.5757770066
 30
0.0
 11
242.0617746285
 21
13.0843093386
 31
0.0
  0
LINE
  5
1DA
330
1F
100
AcDbEntity
  8
0
  6
Continuous
 62
     7
370
    25
100
AcDbLine
 10
251.6641019908
 20
37.9124104625
 30
0.0
 11
255.9799182048
 21
35.4209427945
 31
0.0
  0
LINE
  5
1DB
330
1F
100
AcDbEntity
  8
0
  6
Continuous
 62
     7
370
    25
100
AcDbLine
 10
251.9708181075
 20
38.7462864674
 30
0.0
 11
255.9148569709
 21
36.4694412956
 31
0.0
  0
LWPOLYLINE
  5
1DC
330
1F
100
AcDbEntity
  8
0
  6
Continuous
 62
     7
370
    25
100
AcDbPolyline
 90
        8
 70
   128
 43
0.0
 10
236.3081924345
 20
17.1649129769
 10
236.0775721234
 20
17.1248114214
 10
235.9241543021
 20
16.9179036465
 10
235.9254200247
 20
16.5686373222
 10
236.0811848986
 20
16.130179966
 10
236.3677274922
 20
15.6692884498
 10
236.7414277929
 20
15.2561264021
 10
237.1453915064
 20
14.953594485
  0
ARC
  5
1DD
330
1F
100
AcDbEntity
  8
0
  6
Continuous
 62
     7
370
    25
100
AcDbCircle
 10
239.0242081101
 20
17.6731664188
 30
0.0
 40
2.456209402892815
100
AcDbArc
 50
196.3777986136
 51
238.6398665955
  0
LWPOLYLINE
  5
1DE
330
1F
100
AcDbEntity
  8
0
  6
Continuous
 62
     7
370
    25
100
AcDbPolyline
 90
        7
 70
   128
 43
0.0
 10
249.6086449699
 20
38.865664003
 10
249.7013574999
 20
39.0283477885
 10
249.99273842
 20
39.1446750236
 10
250.4386188208
 20
39.1718112268
 10
250.9711090196
 20
39.1056302956
 10
251.509146468
 20
38.9562060733
 10
251.9708181075
 20
38.7462864674
  0
ARC
  5
1DF
330
1F
100
AcDbEntity
  8
0
  6
Continuous
 62
     7
370
    25
100
AcDbCircle
 10
250.1512527499
 20
35.1105583381
 30
0.0
 40
3.184193485390741
100
AcDbArc
 50
61.6333429847
 51
85.8606745234
  0
ARC
  5
1E0
330
1F
100
AcDbEntity
  8
0
  6
Continuous
 62
     7
370
    25
100
AcDbCircle
 10
250.2992290803
 20
26.797129788
 30
0.0
 40
7.099615128988165
100
AcDbArc
 50
5.3433182596
 51
11.190144138
  0
SPLINE
  5
1E1
330
1F
100
AcDbEntity
  8
0
  6
Continuous
 62
     7
370
    25
100
AcDbSpline
210
0.0
220
0.0
230
1.0
 70
     8
 71
     3
 72
    24
 73
    20
 74
     0
 42
0.000000001
 43
0.00000001
 40
0.0
 40
0.0
 40
0.0
 40
0.0
 40
0.3313914441560259
 40
0.7329807170949637
 40
0.7989073342697024
 40
0.8308455858341519
 40
0.8420643374057358
 40
0.8496732216587195
 40
0.8549000320899053
 40
0.8603247333721693
 40
0.8623844539650358
 40
0.8644637959007972
 40
0.8658879642378841
 40
0.8673103063470589
 40
0.8694396226837867
 40
0.8735728063016928
 40
0.8889111058331947
 40
0.949721308336758
 40
1.0
 40
1.0
 40
1.0
 40
1.0
 10
257.367993379688
 20
27.45826990933046
 30
0.0
 10
257.3885829889275
 20
27.18314466719601
 30
0.0
 10
257.4341236533327
 20
26.57461508435113
 30
0.0
 10
257.4158482313534
 20
25.84386871454303
 30
0.0
 10
257.4108619578643
 20
25.36445650419319
 30
0.0
 10
257.4137735619532
 20
25.257181685044
 30
0.0
 10
257.4179235213984
 20
25.20639202063609
 30
0.0
 10
257.421065170164
 20
25.18206441288862
 30
0.0
 10
257.4246232859416
 20
25.16355259973683
 30
0.0
 10
257.4282784062048
 20
25.15058937821109
 30
0.0
 10
257.4326140873428
 20
25.1415274753879
 30
0.0
 10
257.4360045257619
 20
25.13690839314064
 30
0.0
 10
257.4396603512425
 20
25.13431311143004
 30
0.0
 10
257.4434665228429
 20
25.13339743434236
 30
0.0
 10
257.4488491353423
 20
25.13466215804857
 30
0.0
 10
257.461007990878
 20
25.14490912787064
 30
0.0
 10
257.4913032816635
 20
25.20331277283113
 30
0.0
 10
257.5223153893119
 20
25.30833507091346
 30
0.0
 10
257.544205231154
 20
25.40253260507339
 30
0.0
 10
257.5541125456231
 20
25.44516628876416
 30
0.0
  0
LWPOLYLINE
  5
1E2
330
1F
100
AcDbEntity
  8
0
  6
Continuous
 62
     7
370
    25
100
AcDbPolyline
 90
       16
 70
   128
 43
0.0
 10
256.5921179724
 20
28.5627152434
 10
256.7174515046
 20
27.5717935294
 10
256.7162391241
 20
26.4980143373
 10
256.5885038801
 20
25.3613804055
 10
256.3366237767
 20
24.1830641287
 10
255.9652922606
 20
22.985016303
 10
255.4814260248
 20
21.7895539641
 10
254.8940388973
 20
20.618946232
 10
254.2140722657
 20
19.4949993038
 10
253.4541925752
 20
18.4386501961
 10
252.6285555692
 20
17.4695770295
 10
251.7525408962
 20
16.6058309893
 10
250.8424669597
 20
15.8635025096
 10
249.9152870004
 20
15.2564203479
 10
248.9882725004
 20
14.7958920126
 10
248.3854940353
 20
14.5766853534
  0
LINE
  5
1E3
330
1F
100
AcDbEntity
  8
0
  6
Continuous
 62
     7
370
    25
100
AcDbLine
 10
257.1358702701
 20
28.8170154076
 30
0.0
 11
257.263870249
 21
28.1749209085
 31
0.0
  0
LINE
  5
1E4
330
1F
100
AcDbEntity
  8
0
  6
Continuous
 62
     7
370
    25
100
AcDbLine
 10
256.4843814079
 20
29.1031605687
 30
0.0
 11
256.5921179724
 21
28.5627152434
 31
0.0
  0
LINE
  5
1E5
330
1F
100
AcDbEntity
  8
0
  6
Continuous
 62
     7
370
    25
100
AcDbLine
 10
249.4415144409
 20
9.3216050708
 30
0.0
 11
249.5401802133
 21
9.2646465328
 31
0.0
  0
LINE
  5
1E6
330
1F
100
AcDbEntity
  8
0
  6
Continuous
 62
     7
370
    25
100
AcDbLine
 10
248.3499843276
 20
9.105228329
 30
0.0
 11
249.0747204612
 21
8.6868470645
 31
0.0
  0
LINE
  5
1E7
330
1F
100
AcDbEntity
  8
0
  6
Continuous
 62
     7
370
    25
100
AcDbLine
 10
261.8716943175
 20
30.3419381306
 30
0.0
 11
262.3839313093
 21
30.0462300096
 31
0.0
  0
ARC
  5
1E8
330
1F
100
AcDbEntity
  8
0
  6
Continuous
 62
     7
370
    25
100
AcDbCircle
 10
237.4678612101
 20
30.5094717734
 30
0.0
 40
18.77939116114561
100
AcDbArc
 50
304.095319784
 51
355.9100570894
  0
LWPOLYLINE
  5
1E9
330
1F
100
AcDbEntity
  8
0
  6
Continuous
 62
     7
370
    25
100
AcDbPolyline
 90
       23
 70
   128
 43
0.0
 10
215.4422966269
 20
54.6561313633
 10
214.333904893
 20
53.9443907222
 10
213.2394517476
 20
53.0978421819
 10
212.172700853
 20
52.1271317394
 10
211.1470668434
 20
51.0444658942
 10
210.1754476422
 20
49.8634608549
 10
209.2700625426
 20
48.5989669351
 10
208.4422964622
 20
47.2668873874
 10
207.7025600019
 20
45.8839729015
 10
207.0601544441
 20
44.4676147713
 10
206.5231601302
 20
43.0356245608
 10
206.0983284583
 20
41.6060101584
 10
205.7910028585
 20
40.1967503064
 10
205.6050476702
 20
38.8255665646
 10
205.5428013847
 20
37.5097026849
 10
205.6050476702
 20
36.2657068366
 10
205.7910028585
 20
35.1092223853
 10
206.0983284583
 20
34.054793118
 10
206.5231601302
 20
33.1156789233
 10
207.0601544441
 20
32.3036891507
 10
207.7025600019
 20
31.6290366898
 10
208.4422964622
 20
31.1002037414
 10
209.0741988936
 20
30.7959212684
  0
LWPOLYLINE
  5
1EA
330
1F
100
AcDbEntity
  8
0
  6
Continuous
 62
     7
370
    25
100
AcDbPolyline
 90
        9
 70
   128
 43
0.0
 10
223.0185107238
 20
54.9562379101
 10
222.4422967916
 20
55.3489155467
 10
221.6145307112
 20
55.7252767211
 10
220.7091456117
 20
55.9444352555
 10
219.7375264104
 20
56.0036326433
 10
218.7118924008
 20
55.9021266669
 10
217.6451415063
 20
55.6411927429
 10
216.5506883608
 20
55.2241125785
 10
215.4422966269
 20
54.6561313633
  0
SPLINE
  5
1EB
330
1F
100
AcDbEntity
  8
0
  6
Continuous
 62
     7
370
    25
100
AcDbSpline
210
0.0
220
0.0
230
1.0
 70
    11
 71
     3
 72
    66
 73
    62
 74
     0
 42
0.000000001
 43
0.00000001
 40
0.0
 40
0.0
 40
0.0
 40
0.0
 40
0.0312500000000003
 40
0.0312500000000003
 40
0.0625000000000006
 40
0.0625000000000006
 40
0.0937500000000009
 40
0.0937500000000009
 40
0.1250000000000012
 40
0.1250000000000012
 40
0.1562500000000015
 40
0.1562500000000015
 40
0.1875000000000018
 40
0.1875000000000018
 40
0.2187500000000021
 40
0.2187500000000021
 40
0.2500000000000024
 40
0.2500000000000024
 40
0.2812500000000027
 40
0.2812500000000027
 40
0.312500000000003
 40
0.312500000000003
 40
0.3437500000000033
 40
0.3437500000000033
 40
0.3750000000000036
 40
0.3750000000000036
 40
0.4062500000000039
 40
0.4062500000000039
 40
0.4375000000000042
 40
0.4375000000000042
 40
0.4687500000000045
 40
0.4687500000000045
 40
0.5000000000000048
 40
0.5000000000000048
 40
0.5312500000000051
 40
0.5312500000000051
 40
0.5625000000000053
 40
0.5625000000000053
 40
0.625000000000006
 40
0.625000000000006
 40
0.6875000000000066
 40
0.6875000000000066
 40
0.7187500000000059
 40
0.7187500000000059
 40
0.7500000000000051
 40
0.7500000000000051
 40
0.7812500000000044
 40
0.7812500000000044
 40
0.8125000000000038
 40
0.8125000000000038
 40
0.8437500000000031
 40
0.8437500000000031
 40
0.8750000000000023
 40
0.8750000000000023
 40
0.9062500000000018
 40
0.9062500000000018
 40
0.9375000000000012
 40
0.9375000000000012
 40
0.9687500000000006
 40
0.9687500000000006
 40
1.0
 40
1.0
 40
1.0
 40
1.0
 10
208.7107061787285
 20
59.455680204384
 30
0.0
 10
208.8205842693756
 20
59.44541155991905
 30
0.0
 10
208.9277779832885
 20
59.42935419941011
 30
0.0
 10
209.1372866344338
 20
59.38714897186502
 30
0.0
 10
209.2403587862015
 20
59.36074245490827
 30
0.0
 10
209.4379056015623
 20
59.29914926717553
 30
0.0
 10
209.5313718161596
 20
59.26437657267802
 30
0.0
 10
209.7081211843393
 20
59.18744962389193
 30
0.0
 10
209.7921002936943
 20
59.14483607863822
 30
0.0
 10
209.944803210686
 20
59.05461303382268
 30
0.0
 10
210.0137688417526
 20
59.00703792245439
 30
0.0
 10
210.1369730704229
 20
58.90686749530812
 30
0.0
 10
210.1915724199932
 20
58.85372721530423
 30
0.0
 10
210.2815924844516
 20
58.74556043427974
 30
0.0
 10
210.3174752368966
 20
58.69033810336354
 30
0.0
 10
210.3704381459864
 20
58.57710145563408
 30
0.0
 10
210.3874466679944
 20
58.51850740200137
 30
0.0
 10
210.3998313318052
 20
58.40261317194012
 30
0.0
 10
210.3956090313876
 20
58.34489016448732
 30
0.0
 10
210.3650141702199
 20
58.22933762495469
 30
0.0
 10
210.338147022989
 20
58.17123913426953
 30
0.0
 10
210.2632213734107
 20
58.06042819567765
 30
0.0
 10
210.2151131299609
 20
58.00696145124476
 30
0.0
 10
210.0958797723307
 20
57.90386083630751
 30
0.0
 10
210.0260716739143
 20
57.85556424262078
 30
0.0
 10
209.8697956849267
 20
57.76757477801962
 30
0.0
 10
209.7815560236718
 20
57.72705583994911
 30
0.0
 10
209.594083361828
 20
57.65730553972459
 30
0.0
 10
209.4949708003123
 20
57.62785526159077
 30
0.0
 10
209.2862777608893
 20
57.57986027806376
 30
0.0
 10
209.1786384494072
 20
57.56185919508621
 30
0.0
 10
208.9618120107475
 20
57.53815584595634
 30
0.0
 10
208.8507794345423
 20
57.53233962973069
 30
0.0
 10
208.6326708383162
 20
57.53322481535361
 30
0.0
 10
208.5253726612507
 20
57.53975885555365
 30
0.0
 10
208.3141086813234
 20
57.56500543086427
 30
0.0
 10
208.2105418037395
 20
57.58381864719868
 30
0.0
 10
207.9160332840308
 20
57.65664903497426
 30
0.0
 10
207.7347037788952
 20
57.72896037229972
 30
0.0
 10
207.4303470060121
 20
57.90942676499782
 30
0.0
 10
207.3035204262902
 20
58.01992839717715
 30
0.0
 10
207.168742290113
 20
58.20132252283466
 30
0.0
 10
207.1323339128815
 20
58.2649847212144
 30
0.0
 10
207.0788016637951
 20
58.39712512629609
 30
0.0
 10
207.0622539027178
 20
58.46397427881002
 30
0.0
 10
207.0497408299814
 20
58.59873482712411
 30
0.0
 10
207.0539191555526
 20
58.66729627303805
 30
0.0
 10
207.0848612859218
 20
58.80204297680221
 30
0.0
 10
207.1111584875975
 20
58.86715373836558
 30
0.0
 10
207.186004788438
 20
58.99224580676952
 30
0.0
 10
207.2354993910121
 20
59.05295232888942
 30
0.0
 10
207.3540439961078
 20
59.16287683013091
 30
0.0
 10
207.4229670841464
 20
59.21253522045478
 30
0.0
 10
207.5807198449954
 20
59.30080053417908
 30
0.0
 10
207.668622374726
 20
59.33861895229607
 30
0.0
 10
207.8555228659445
 20
59.39955206527817
 30
0.0
 10
207.9566822439677
 20
59.42331175244509
 30
0.0
 10
208.1646246001254
 20
59.45597820861769
 30
0.0
 10
208.2713105006588
 20
59.46512081769266
 30
0.0
 10
208.4898960315742
 20
59.47017017245254
 30
0.0
 10
208.6008280880813
 20
59.46594884884894
 30
0.0
 10
208.7107061787285
 20
59.455680204384
 30
0.0
  0
SPLINE
  5
1EC
330
1F
100
AcDbEntity
  8
0
  6
Continuous
 62
     7
370
    25
100
AcDbSpline
210
0.0
220
0.0
230
1.0
 70
    11
 71
     3
 72
    68
 73
    64
 74
     0
 42
0.000000001
 43
0.00000001
 40
0.0
 40
0.0
 40
0.0
 40
0.0
 40
0.0312500000000002
 40
0.0312500000000002
 40
0.0625000000000004
 40
0.0625000000000004
 40
0.0937500000000005
 40
0.0937500000000005
 40
0.1250000000000007
 40
0.1250000000000007
 40
0.1562500000000009
 40
0.1562500000000009
 40
0.1875000000000011
 40
0.1875000000000011
 40
0.2187500000000012
 40
0.2187500000000012
 40
0.2500000000000014
 40
0.2500000000000014
 40
0.2812500000000016
 40
0.2812500000000016
 40
0.3125000000000018
 40
0.3125000000000018
 40
0.343750000000002
 40
0.343750000000002
 40
0.3750000000000022
 40
0.3750000000000022
 40
0.4062500000000024
 40
0.4062500000000024
 40
0.4375000000000026
 40
0.4375000000000026
 40
0.4687500000000028
 40
0.4687500000000028
 40
0.500000000000003
 40
0.500000000000003
 40
0.5312500000000032
 40
0.5312500000000032
 40
0.5625000000000034
 40
0.5625000000000034
 40
0.5937500000000036
 40
0.5937500000000036
 40
0.6250000000000038
 40
0.6250000000000038
 40
0.656250000000004
 40
0.656250000000004
 40
0.6875000000000042
 40
0.6875000000000042
 40
0.7187500000000044
 40
0.7187500000000044
 40
0.7500000000000046
 40
0.7500000000000046
 40
0.8125000000000036
 40
0.8125000000000036
 40
0.843750000000003
 40
0.843750000000003
 40
0.8750000000000024
 40
0.8750000000000024
 40
0.9062500000000019
 40
0.9062500000000019
 40
0.9375000000000012
 40
0.9375000000000012
 40
0.9687500000000007
 40
0.9687500000000007
 40
1.0
 40
1.0
 40
1.0
 40
1.0
 10
198.0200189131947
 20
40.93886674699446
 30
0.0
 10
197.956207386173
 20
41.02885995673041
 30
0.0
 10
197.8981456628918
 20
41.12115108610565
 30
0.0
 10
197.7941686614084
 20
41.31071180005127
 30
0.0
 10
197.7477930211901
 20
41.40925562722435
 30
0.0
 10
197.6720426865195
 20
41.6051037762123
 30
0.0
 10
197.6425239005561
 20
41.70214821410119
 30
0.0
 10
197.6011743659354
 20
41.89460609929908
 30
0.0
 10
197.5896258851382
 20
41.99032794339751
 30
0.0
 10
197.5864615035285
 20
42.16974181544462
 30
0.0
 10
197.594551633183
 20
42.2552624025355
 30
0.0
 10
197.6301245424307
 20
42.41463437866749
 30
0.0
 10
197.6570146610546
 20
42.48643944111079
 30
0.0
 10
197.7275942874073
 20
42.61511145265266
 30
0.0
 10
197.7716517828702
 20
42.67192312708777
 30
0.0
 10
197.8718190271986
 20
42.76596377911407
 30
0.0
 10
197.9285617386535
 20
42.80412791302628
 30
0.0
 10
198.052901681862
 20
42.86195132576354
 30
0.0
 10
198.1191829444513
 20
42.88111395775834
 30
0.0
 10
198.2589521878485
 20
42.90109610295009
 30
0.0
 10
198.3331336876566
 20
42.90173507796564
 30
0.0
 10
198.4834829963057
 20
42.88463709480209
 30
0.0
 10
198.5599618916718
 20
42.86710819471743
 30
0.0
 10
198.7152424544709
 20
42.8142824870593
 30
0.0
 10
198.794232408253
 20
42.77869361865896
 30
0.0
 10
198.9486354917685
 20
42.69221993296792
 30
0.0
 10
199.0247891540851
 20
42.64114585763495
 30
0.0
 10
199.175026433603
 20
42.52303790089853
 30
0.0
 10
199.248870098571
 20
42.45597847751986
 30
0.0
 10
199.3888743784095
 20
42.31085040252892
 30
0.0
 10
199.4557929462757
 20
42.23223155043762
 30
0.0
 10
199.5834852091768
 20
42.06238566940458
 30
0.0
 10
199.6437296898874
 20
41.97161604628625
 30
0.0
 10
199.7529773067627
 20
41.78493431111121
 30
0.0
 10
199.8026585653563
 20
41.68816855050799
 30
0.0
 10
199.8916982785832
 20
41.48738059177562
 30
0.0
 10
199.9300893580688
 20
41.38526382001821
 30
0.0
 10
199.9927256584429
 20
41.18329582015991
 30
0.0
 10
200.0174934938523
 20
41.08181554736672
 30
0.0
 10
200.0518143105849
 20
40.88314090409148
 30
0.0
 10
200.0610590986398
 20
40.7883817517299
 30
0.0
 10
200.063980911895
 20
40.60801459753492
 30
0.0
 10
200.0573578608096
 20
40.52186623492742
 30
0.0
 10
200.0288038958935
 20
40.36746467288993
 30
0.0
 10
200.0069005828038
 20
40.29780745584332
 30
0.0
 10
199.9482138396295
 20
40.1749242610539
 30
0.0
 10
199.9122894885002
 20
40.12329526080355
 30
0.0
 10
199.8278934435527
 20
40.03787038664321
 30
0.0
 10
199.779011624836
 20
40.00413511329317
 30
0.0
 10
199.6192002394285
 20
39.93227405771091
 30
0.0
 10
199.4915362027911
 20
39.92168877788561
 30
0.0
 10
199.2838684439638
 20
39.9569676585713
 30
0.0
 10
199.2110033869452
 20
39.97733979082603
 30
0.0
 10
199.061536418828
 20
40.03410305906925
 30
0.0
 10
198.9856808873544
 20
40.07008403636812
 30
0.0
 10
198.8316992229072
 20
40.15673641455688
 30
0.0
 10
198.7528032579106
 20
40.20800960307268
 30
0.0
 10
198.5970240159405
 20
40.32301674219013
 30
0.0
 10
198.5202635609238
 20
40.3864917814052
 30
0.0
 10
198.3692258815803
 20
40.52556197516894
 30
0.0
 10
198.2942990629057
 20
40.60193261424373
 30
0.0
 10
198.1517169387083
 20
40.76355284341757
 30
0.0
 10
198.0838304402163
 20
40.84887353725851
 30
0.0
 10
198.0200189131947
 20
40.93886674699446
 30
0.0
  0
SPLINE
  5
1ED
330
1F
100
AcDbEntity
  8
0
  6
Continuous
 62
     7
370
    25
100
AcDbSpline
210
0.0
220
0.0
230
1.0
 70
     8
 71
     3
 72
    14
 73
    10
 74
     0
 42
0.000000001
 43
0.00000001
 40
0.0
 40
0.0
 40
0.0
 40
0.0
 40
0.25
 40
0.25
 40
0.5
 40
0.5
 40
0.75
 40
0.75
 40
1.0
 40
1.0
 40
1.0
 40
1.0
 10
175.5793820252529
 20
51.23642835820135
 30
0.0
 10
175.5322089180205
 20
51.20919590305522
 30
0.0
 10
175.4766448533218
 20
51.18745154491427
 30
0.0
 10
175.3547193812028
 20
51.15720611750827
 30
0.0
 10
175.2886228603269
 20
51.14890708739795
 30
0.0
 10
175.1564309311901
 20
51.14747447161819
 30
0.0
 10
175.0894957796594
 20
51.1544244457998
 30
0.0
 10
174.9668852879891
 20
51.18263379940921
 30
0.0
 10
174.9099498331854
 20
51.20420964371687
 30
0.0
 10
174.8632072898132
 20
51.23119353963726
 30
0.0
  0
SPLINE
  5
1EE
330
1F
100
AcDbEntity
  8
0
  6
Continuous
 62
     7
370
    25
100
AcDbSpline
210
0.0
220
0.0
230
1.0
 70
     8
 71
     3
 72
    12
 73
     8
 74
     0
 42
0.000000001
 43
0.00000001
 40
0.0
 40
0.0
 40
0.0
 40
0.0
 40
0.2500000000000032
 40
0.2500000000000032
 40
0.5000000000000064
 40
0.5000000000000064
 40
1.0
 40
1.0
 40
1.0
 40
1.0
 10
203.1916704458929
 20
78.99641813479155
 30
0.0
 10
203.245442464841
 20
78.96537620899882
 30
0.0
 10
203.2979307399592
 20
78.916401579742
 30
0.0
 10
203.3889366668977
 20
78.79967070489248
 30
0.0
 10
203.4275110204271
 20
78.73221923955934
 30
0.0
 10
203.5173346097233
 20
78.52790201255246
 30
0.0
 10
203.5452238364862
 20
78.38753918335505
 30
0.0
 10
203.5452238364862
 20
78.26472245830035
 30
0.0
  0
LINE
  5
1EF
330
1F
100
AcDbEntity
  8
0
  6
Continuous
 62
     7
370
    25
100
AcDbLine
 10
174.8632068306
 20
51.2311932429
 30
0.0
 11
173.2057589639
 21
52.1880175298
 31
0.0
  0
LWPOLYLINE
  5
1F0
330
1F
100
AcDbEntity
  8
0
  6
Continuous
 62
     7
370
    25
100
AcDbPolyline
 90
       25
 70
   128
 43
0.0
 10
173.2057589639
 20
52.1880175298
 10
173.5952314055
 20
54.0764388623
 10
174.1048249996
 20
55.9903426815
 10
174.7309072146
 20
57.9160892855
 10
175.4690183871
 20
59.8399546388
 10
176.3138967465
 20
61.7482288496
 10
177.2595205619
 20
63.6273100832
 10
178.2991516057
 20
65.4638079808
 10
179.4253805939
 20
67.2446345307
 10
180.6301811858
 20
68.9570983603
 10
181.9049666196
 20
70.5889937052
 10
183.2406529325
 20
72.1286931798
 10
184.627720205
 20
73.5652211559
 10
186.056283684
 20
74.8883419701
 10
187.5161622714
 20
76.088625317
 10
188.996951458
 20
77.1575172505
 10
190.4880984796
 20
78.0873987799
 10
191.9789763211
 20
78.8716453221
 10
193.4589597784
 20
79.5046645268
 10
194.9175018498
 20
79.9819495023
 10
196.3442075748
 20
80.3000940651
 10
197.7289093554
 20
80.4568347008
 10
199.0617382436
 20
80.4510521737
 10
200.3331967106
 20
80.2827892003
 10
201.534223184
 20
79.9532420786
  0
LINE
  5
1F1
330
1F
100
AcDbEntity
  8
0
  6
Continuous
 62
     7
370
    25
100
AcDbLine
 10
201.534223184
 20
79.9532420786
 30
0.0
 11
203.1916710507
 21
78.9964177917
 31
0.0
  0
LINE
  5
1F2
330
1F
100
AcDbEntity
  8
0
  6
Continuous
 62
     7
370
    25
100
AcDbLine
 10
207.982319587
 20
69.5339754767
 30
0.0
 11
209.4208363077
 21
70.3644135032
 31
0.0
  0
LINE
  5
1F3
330
1F
100
AcDbEntity
  8
0
  6
Continuous
 62
     7
370
    25
100
AcDbLine
 10
207.982319587
 20
63.7466272072
 30
0.0
 11
207.982319587
 21
69.5339754767
 31
0.0
  0
LINE
  5
1F4
330
1F
100
AcDbEntity
  8
0
  6
Continuous
 62
     7
370
    25
100
AcDbLine
 10
175.5793825441
 20
42.2544796771
 30
0.0
 11
176.9403306243
 21
43.0401382806
 31
0.0
  0
LINE
  5
1F5
330
1F
100
AcDbEntity
  8
0
  6
Continuous
 62
     7
370
    25
100
AcDbLine
 10
176.9403306243
 20
43.0401382806
 30
0.0
 11
176.9403306243
 21
52.0220871627
 31
0.0
  0
LINE
  5
1F6
330
1F
100
AcDbEntity
  8
0
  6
Continuous
 62
     7
370
    25
100
AcDbLine
 10
176.9403306243
 20
52.0220871627
 30
0.0
 11
175.5793825441
 21
51.2364285592
 31
0.0
  0
LINE
  5
1F7
330
1F
100
AcDbEntity
  8
0
  6
Continuous
 62
     7
370
    25
100
AcDbLine
 10
203.5452244992
 20
78.2647233065
 30
0.0
 11
203.5452244992
 21
75.6890689544
 31
0.0
  0
LINE
  5
1F8
330
1F
100
AcDbEntity
  8
0
  6
Continuous
 62
     7
370
    25
100
AcDbLine
 10
205.7756857718
 20
76.9766868393
 30
0.0
 11
203.5452244992
 21
75.6890689544
 31
0.0
  0
LWPOLYLINE
  5
1F9
330
1F
100
AcDbEntity
  8
0
  6
Continuous
 62
     7
370
    25
100
AcDbPolyline
 90
       22
 70
   128
 43
0.0
 10
172.2269734813
 20
53.7342199692
 10
172.639574006
 20
55.6444199295
 10
173.1797727976
 20
57.5790765708
 10
173.8432577064
 20
59.5227437755
 10
174.6247340348
 20
61.4599055556
 10
175.5179587808
 20
63.3750931608
 10
176.5158038585
 20
65.2530181536
 10
177.6102995624
 20
67.0786849534
 10
178.7927102996
 20
68.8375212494
 10
180.0535945174
 20
70.5154817976
 10
181.3828857046
 20
72.099170468
 10
182.7699707578
 20
73.5759432793
 10
184.2037752632
 20
74.9340108641
 10
185.6728527297
 20
76.162529525
 10
187.1654734915
 20
77.2516921026
 10
188.6697207898
 20
78.192801692
 10
190.1735851135
 20
78.9783458773
 10
191.665059514
 20
79.6020517555
 10
193.132236421
 20
80.058940306
 10
194.5634024679
 20
80.3453628814
 10
195.9471302611
 20
80.4590328915
 10
197.1582759294
 20
80.41129944
  0
SPLINE
  5
1FA
330
1F
100
AcDbEntity
  8
0
  6
Continuous
 62
     7
370
    25
100
AcDbSpline
210
0.0
220
0.0
230
1.0
 70
     8
 71
     3
 72
     8
 73
     4
 74
     0
 42
0.000000001
 43
0.00000001
 40
0.0
 40
0.0
 40
0.0
 40
0.0
 40
1.0
 40
1.0
 40
1.0
 40
1.0
 10
172.2269736641497
 20
53.73422025264097
 30
0.0
 10
171.7844373103044
 20
53.66253372221171
 30
0.0
 10
171.3418281202527
 20
53.59099755660993
 30
0.0
 10
170.8991564140363
 20
53.51959140030523
 30
0.0
  0
LWPOLYLINE
  5
1FB
330
1F
100
AcDbEntity
  8
0
  6
Continuous
 62
     7
370
    25
100
AcDbPolyline
 90
       25
 70
   128
 43
0.0
 10
170.8991561167
 20
53.5195910101
 10
171.2886285584
 20
55.4080123427
 10
171.7982221524
 20
57.3219161618
 10
172.4243043674
 20
59.2476627658
 10
173.16241554
 20
61.1715281191
 10
174.0072938994
 20
63.0798023299
 10
174.9529177147
 20
64.9588835635
 10
175.9925487586
 20
66.7953814611
 10
177.1187777467
 20
68.576208011
 10
178.3235783386
 20
70.2886718406
 10
179.5983637725
 20
71.9205671855
 10
180.9340500854
 20
73.4602666601
 10
182.3211173578
 20
74.8967946362
 10
183.7496808368
 20
76.2199154505
 10
185.2095594243
 20
77.4201987973
 10
186.6903486109
 20
78.4890907308
 10
188.1814956324
 20
79.4189722602
 10
189.6723734739
 20
80.2032188024
 10
191.1523569313
 20
80.8362380071
 10
192.6108990027
 20
81.3135229827
 10
194.0376047276
 20
81.6316675454
 10
195.4223065082
 20
81.7884081811
 10
196.7551353965
 20
81.782625654
 10
198.0265938635
 20
81.6143626806
 10
199.2276203368
 20
81.2848155589
  0
LINE
  5
1FC
330
1F
100
AcDbEntity
  8
0
  6
Continuous
 62
     7
370
    25
100
AcDbLine
 10
199.2276203368
 20
81.2848155589
 30
0.0
 11
199.5237954609
 21
80.3409073793
 31
0.0
  0
LWPOLYLINE
  5
1FD
330
1F
100
AcDbEntity
  8
0
  6
Continuous
 62
     7
370
    25
100
AcDbPolyline
 90
       12
 70
   128
 43
0.0
 10
182.7188702352
 20
82.8906532617
 10
182.7729442714
 20
82.9206573605
 10
184.2505506712
 20
83.6663113948
 10
185.7151961331
 20
84.2620804789
 10
187.1566068277
 20
84.7037872846
 10
188.5646727796
 20
84.9883331139
 10
189.9295168091
 20
85.1137209674
 10
191.2415659839
 20
85.0790724583
 10
192.4916171446
 20
84.8846306574
 10
193.670901771
 20
84.5317595174
 10
194.7711478856
 20
84.0229324594
 10
194.901714871
 20
83.9491165238
  0
LWPOLYLINE
  5
1FE
330
1F
100
AcDbEntity
  8
0
  6
Continuous
 62
     7
370
    25
100
AcDbPolyline
 90
       10
 70
   128
 43
0.0
 10
169.9037473038
 20
40.6466731615
 10
169.5162649837
 20
40.8846796518
 10
168.548856516
 20
41.6204102883
 10
167.678624193
 20
42.5011794564
 10
166.9116714052
 20
43.5208078225
 10
166.253375827
 20
44.672143489
 10
165.7083578068
 20
45.9471121878
 10
165.2804382197
 20
47.336769376
 10
164.9726187116
 20
48.8313679192
 10
164.817725092
 20
50.058888192
  0
LINE
  5
1FF
330
1F
100
AcDbEntity
  8
0
  6
Continuous
 62
     7
370
    25
100
AcDbLine
 10
195.0599430512
 20
83.6907644438
 30
0.0
 11
199.2276203368
 21
81.2848155589
 31
0.0
  0
LINE
  5
200
330
1F
100
AcDbEntity
  8
0
  6
Continuous
 62
     7
370
    25
100
AcDbLine
 10
170.8991561167
 20
53.5195910101
 30
0.0
 11
170.2670126581
 21
53.8845196611
 31
0.0
  0
SPLINE
  5
201
330
1F
100
AcDbEntity
  8
0
  6
Continuous
 62
     7
370
    25
100
AcDbSpline
210
0.0
220
0.0
230
1.0
 70
     8
 71
     3
 72
    30
 73
    26
 74
     0
 42
0.000000001
 43
0.00000001
 40
0.0
 40
0.0
 40
0.0
 40
0.0
 40
0.1250000000000002
 40
0.1250000000000002
 40
0.1875000000000003
 40
0.1875000000000003
 40
0.2500000000000004
 40
0.2500000000000004
 40
0.3750000000000001
 40
0.3750000000000001
 40
0.4374999999999998
 40
0.4374999999999998
 40
0.4999999999999996
 40
0.4999999999999996
 40
0.6249999999999996
 40
0.6249999999999996
 40
0.6874999999999997
 40
0.6874999999999997
 40
0.7499999999999997
 40
0.7499999999999997
 40
0.8124999999999998
 40
0.8124999999999998
 40
0.8749999999999999
 40
0.8749999999999999
 40
1.0
 40
1.0
 40
1.0
 40
1.0
 10
170.2670132121007
 20
53.88451990306108
 30
0.0
 10
170.032697578494
 20
54.01978743909171
 30
0.0
 10
169.7971971019653
 20
54.12304996802107
 30
0.0
 10
169.4426466545756
 20
54.23229270578484
 30
0.0
 10
169.3242523911766
 20
54.26104566778154
 30
0.0
 10
169.0871977461264
 20
54.30299883243125
 30
0.0
 10
168.9683778348905
 20
54.31610396733334
 30
0.0
 10
168.6197339509143
 20
54.33135535634766
 30
0.0
 10
168.3949691082724
 20
54.31027659490566
 30
0.0
 10
168.0707584606686
 20
54.23327354302997
 30
0.0
 10
167.9643423847574
 20
54.19976493799675
 30
0.0
 10
167.7590331547849
 20
54.11822659187312
 30
0.0
 10
167.6604384242772
 20
54.0704209867718
 30
0.0
 10
167.3769404304782
 20
53.90675377721889
 30
0.0
 10
167.2041974568081
 20
53.77084168074229
 30
0.0
 10
166.972072658312
 20
53.52647054383722
 30
0.0
 10
166.899758672486
 20
53.43865345862957
 30
0.0
 10
166.7674403584163
 20
53.2532728896893
 30
0.0
 10
166.7070864196956
 20
53.15535188964897
 30
0.0
 10
166.5981232855525
 20
52.94926403894473
 30
0.0
 10
166.5495134604544
 20
52.84109723210047
 30
0.0
 10
166.4644776445597
 20
52.61440751859372
 30
0.0
 10
166.4279267653847
 20
52.49526709087095
 30
0.0
 10
166.3389324882918
 20
52.12728276241683
 30
0.0
 10
166.3065959313117
 20
51.86805763712015
 30
0.0
 10
166.3019100250148
 20
51.59485105569
 30
0.0
  0
ARC
  5
202
330
1F
100
AcDbEntity
  8
0
  6
Continuous
 62
     7
370
    25
100
AcDbCircle
 10
189.8645876457
 20
51.1865807898
 30
0.0
 40
23.56621418174344
100
AcDbArc
 50
179.0073355702
 51
180.9926644298
  0
SPLINE
  5
203
330
1F
100
AcDbEntity
  8
0
  6
Continuous
 62
     7
370
    25
100
AcDbSpline
210
0.0
220
0.0
230
1.0
 70
     8
 71
     3
 72
    30
 73
    26
 74
     0
 42
0.000000001
 43
0.00000001
 40
0.0
 40
0.0
 40
0.0
 40
0.0
 40
0.1249999999999996
 40
0.1249999999999996
 40
0.1874999999999994
 40
0.1874999999999994
 40
0.2499999999999993
 40
0.2499999999999993
 40
0.3749999999999992
 40
0.3749999999999992
 40
0.4374999999999993
 40
0.4374999999999993
 40
0.4999999999999994
 40
0.4999999999999994
 40
0.6249999999999992
 40
0.6249999999999992
 40
0.6874999999999993
 40
0.6874999999999993
 40
0.7499999999999994
 40
0.7499999999999994
 40
0.8124999999999997
 40
0.8124999999999997
 40
0.8749999999999998
 40
0.8749999999999998
 40
1.0
 40
1.0
 40
1.0
 40
1.0
 10
166.3019100250148
 20
50.77831024380425
 30
0.0
 10
166.3065962716736
 20
50.51049444317253
 30
0.0
 10
166.3389057919923
 20
50.23677827818712
 30
0.0
 10
166.4265638473609
 20
49.81753013099171
 30
0.0
 10
166.4623580186744
 20
49.6763197122994
 30
0.0
 10
166.5472186335268
 20
49.39081909730726
 30
0.0
 10
166.5964712814405
 20
49.24623403247623
 30
0.0
 10
166.7606756176099
 20
48.81714176332461
 30
0.0
 10
166.8927280756703
 20
48.53416894784078
 30
0.0
 10
167.1227786431893
 20
48.11316503710363
 30
0.0
 10
167.2052416816831
 20
47.97275996722984
 30
0.0
 10
167.3789934169022
 20
47.69609567313561
 30
0.0
 10
167.4697950087359
 20
47.56051112408923
 30
0.0
 10
167.7531894809672
 20
47.1614140573296
 30
0.0
 10
167.9566693556342
 20
46.90548711432241
 30
0.0
 10
168.282577342883
 20
46.53586113428673
 30
0.0
 10
168.3943179583441
 20
46.41554228710122
 30
0.0
 10
168.6196220624815
 20
46.18470468897041
 30
0.0
 10
168.7337447099606
 20
46.07354209489085
 30
0.0
 10
168.964654496525
 20
45.85946828571588
 30
0.0
 10
169.0814419125337
 20
45.75655715898142
 30
0.0
 10
169.3175248750035
 20
45.55899899206618
 30
0.0
 10
169.4374022493933
 20
45.46392721946081
 30
0.0
 10
169.795885504557
 20
45.19512214085823
 30
0.0
 10
170.0326941711203
 20
45.03784047538345
 30
0.0
 10
170.2670132121007
 20
44.90257097231783
 30
0.0
  0
LINE
  5
204
330
1F
100
AcDbEntity
  8
0
  6
Continuous
 62
     7
370
    25
100
AcDbLine
 10
170.2670126581
 20
44.902570779
 30
0.0
 11
170.8991561167
 21
44.537642128
 31
0.0
  0
LWPOLYLINE
  5
205
330
1F
100
AcDbEntity
  8
0
  6
Continuous
 62
     7
370
    25
100
AcDbPolyline
 90
        9
 70
   128
 43
0.0
 10
176.8513434806
 20
36.7590212554
 10
176.0380752575
 20
37.1192603968
 10
174.9886872182
 20
37.7532168513
 10
174.0341770033
 20
38.5402919715
 10
173.181429037
 20
39.474812058
 10
172.4365914909
 20
40.5500335095
 10
171.8050394052
 20
41.758205184
 10
171.2913259567
 20
43.0906109889
 10
170.8991561167
 20
44.537642128
  0
LINE
  5
206
330
1F
100
AcDbEntity
  8
0
  6
Continuous
 62
     7
370
    25
100
AcDbLine
 10
201.1795726003
 20
80.1574731787
 30
0.0
 11
201.5319834741
 21
79.9540307117
 31
0.0
  0
SPLINE
  5
207
330
1F
100
AcDbEntity
  8
0
  6
Continuous
 62
     7
370
    25
100
AcDbSpline
210
0.0
220
0.0
230
1.0
 70
     8
 71
     3
 72
    22
 73
    18
 74
     0
 42
0.000000001
 43
0.00000001
 40
0.0
 40
0.0
 40
0.0
 40
0.0
 40
0.2500000000000002
 40
0.2500000000000002
 40
0.3750000000000003
 40
0.3750000000000003
 40
0.5000000000000004
 40
0.5000000000000004
 40
0.6250000000000004
 40
0.6250000000000004
 40
0.7500000000000004
 40
0.7500000000000004
 40
0.8750000000000004
 40
0.8750000000000004
 40
0.9375000000000002
 40
0.9375000000000002
 40
1.0
 40
1.0
 40
1.0
 40
1.0
 10
195.0599424622476
 20
83.69076477777213
 30
0.0
 10
195.4919745577867
 20
83.52249433966568
 30
0.0
 10
195.9423492061521
 20
83.31181833478549
 30
0.0
 10
196.6673226478364
 20
82.92672409852884
 30
0.0
 10
196.9192899715557
 20
82.78559856025305
 30
0.0
 10
197.432082084688
 20
82.48658159103587
 30
0.0
 10
197.6936033967471
 20
82.32841575368006
 30
0.0
 10
198.2311780783457
 20
81.99581581234258
 30
0.0
 10
198.5091406230085
 20
81.82011800097655
 30
0.0
 10
199.0617465417538
 20
81.46847508488318
 30
0.0
 10
199.3387424669252
 20
81.29109625576046
 30
0.0
 10
199.8969300468219
 20
80.9367858364479
 30
0.0
 10
200.1671061359817
 20
80.76692799673545
 30
0.0
 10
200.5585734510782
 20
80.52635901176072
 30
0.0
 10
200.686820681186
 20
80.44849112921234
 30
0.0
 10
200.9386823203675
 20
80.2978848337139
 30
0.0
 10
201.0615745542139
 20
80.22559199450296
 30
0.0
 10
201.1795732130733
 20
80.15747281870087
 30
0.0
  0
LINE
  5
208
330
1F
100
AcDbEntity
  8
0
  6
Continuous
 62
     7
370
    25
100
AcDbLine
 10
172.548074515
 20
53.9195876503
 30
0.0
 11
172.2269734813
 21
53.7342199692
 31
0.0
  0
LINE
  5
209
330
1F
100
AcDbEntity
  8
0
  6
Continuous
 62
     7
370
    25
100
AcDbLine
 10
173.5087236818
 20
53.701173342
 30
0.0
 11
173.1220691521
 21
53.9243842508
 31
0.0
  0
SPLINE
  5
20A
330
1F
100
AcDbEntity
  8
0
  6
Continuous
 62
     7
370
    25
100
AcDbSpline
210
0.0
220
0.0
230
1.0
 70
     8
 71
     3
 72
    12
 73
     8
 74
     0
 42
0.000000001
 43
0.00000001
 40
0.0
 40
0.0
 40
0.0
 40
0.0
 40
0.250000000000003
 40
0.250000000000003
 40
0.500000000000006
 40
0.500000000000006
 40
1.0
 40
1.0
 40
1.0
 40
1.0
 10
173.1220693188419
 20
53.92438473050684
 30
0.0
 10
173.084677281259
 20
53.94597069433328
 30
0.0
 10
173.0385289704041
 20
53.96341082935574
 30
0.0
 10
172.9398291330215
 20
53.98586695767007
 30
0.0
 10
172.886317566726
 20
53.99125326327068
 30
0.0
 10
172.7277201470247
 20
53.98917210446054
 30
0.0
 10
172.6230060524069
 20
53.96284488396974
 30
0.0
 10
172.5480742138801
 20
53.91958765434425
 30
0.0
  0
LWPOLYLINE
  5
20B
330
1F
100
AcDbEntity
  8
0
  6
Continuous
 62
     7
370
    25
100
AcDbPolyline
 90
       17
 70
   128
 43
0.0
 10
199.0294109523
 20
40.4848040054
 10
199.3676578508
 20
40.3672325345
 10
199.654409203
 20
40.4229492795
 10
199.8460114105
 20
40.6434707929
 10
199.9132935858
 20
40.9952254142
 10
199.8460114105
 20
41.4246623816
 10
199.654409203
 20
41.866403095
 10
199.3676578508
 20
42.2531959041
 10
199.0294109523
 20
42.5261559895
 10
198.6911614195
 20
42.6437289811
 10
198.4044100673
 20
42.5880122361
 10
198.2128078598
 20
42.3674907227
 10
198.1455256845
 20
42.0157361014
 10
198.2128078598
 20
41.586299134
 10
198.4044100673
 20
41.1445584206
 10
198.6911614195
 20
40.7577656116
 10
199.0294109523
 20
40.4848040054
  0
LWPOLYLINE
  5
20C
330
1F
100
AcDbEntity
  8
0
  6
Continuous
 62
     7
370
    25
100
AcDbPolyline
 90
       17
 70
   128
 43
0.0
 10
207.8408983064
 20
57.7880997323
 10
208.246426804
 20
57.6316747945
 10
208.7247800344
 20
57.5767461724
 10
209.2031346643
 20
57.6316752222
 10
209.6086643967
 20
57.7881002075
 10
209.8796297785
 20
58.0222075389
 10
209.9747799933
 20
58.2983557887
 10
209.8796305193
 20
58.5745032307
 10
209.6086652198
 20
58.8086098493
 10
209.203134088
 20
58.9650363078
 10
208.7247808576
 20
59.0199649299
 10
208.2464262278
 20
58.9650358801
 10
207.8408964954
 20
58.8086108947
 10
207.5699311136
 20
58.5745035634
 10
207.4747808988
 20
58.2983553135
 10
207.5699303727
 20
58.0222078716
 10
207.8408983064
 20
57.7880997323
  0
LWPOLYLINE
  5
20D
330
1F
100
AcDbEntity
  8
0
  6
Continuous
 62
     7
370
    25
100
AcDbPolyline
 90
       18
 70
   128
 43
0.0
 10
164.9457043474
 20
55.6232391356
 10
164.9767955507
 20
55.8576211475
 10
165.2897635598
 20
57.7152125083
 10
165.724757232
 20
59.606558112
 10
166.2786418955
 20
61.518029237
 10
166.9474280877
 20
63.4358554152
 10
167.7262952627
 20
65.346217207
 10
168.6096339385
 20
67.2353515207
 10
169.5910786238
 20
69.089646668
 10
170.6635565506
 20
70.8957419794
 10
171.8193429919
 20
72.6406243784
 10
173.0501086767
 20
74.3117226741
 10
174.3469869617
 20
75.8969980498
 10
175.7006331004
 20
77.3850254275
 10
177.1012943779
 20
78.7650841462
 10
178.5388789288
 20
80.0272326709
 10
180.0030291652
 20
81.1623768371
 10
181.292575051
 20
82.0417401992
  0
LINE
  5
20E
330
1F
100
AcDbEntity
  8
0
  6
Continuous
 62
     7
370
    25
100
AcDbLine
 10
171.9905830032
 20
45.8975667602
 30
0.0
 11
176.9403306243
 21
43.0401382806
 31
0.0
  0
ARC
  5
20F
330
1F
100
AcDbEntity
  8
0
  6
Continuous
 62
     7
370
    25
100
AcDbCircle
 10
176.1311295139
 20
52.3705952144
 30
0.0
 40
7.684023866252933
100
AcDbArc
 50
182.6054781208
 51
237.3945216397
  0
LINE
  5
210
330
1F
100
AcDbEntity
  8
0
  6
Continuous
 62
     7
370
    25
100
AcDbLine
 10
168.4550491763
 20
52.8378318605
 30
0.0
 11
168.4550491763
 21
52.0212910098
 31
0.0
  0
ARC
  5
211
330
1F
100
AcDbEntity
  8
0
  6
Continuous
 62
     7
370
    25
100
AcDbCircle
 10
171.6677921234
 20
52.9509797114
 30
0.0
 40
3.214734776046184
100
AcDbArc
 50
155.343366055
 51
182.0170353142
  0
SPLINE
  5
212
330
1F
100
AcDbEntity
  8
0
  6
Continuous
 62
     7
370
    25
100
AcDbSpline
210
0.0
220
0.0
230
1.0
 70
     8
 71
     3
 72
     8
 73
     4
 74
     0
 42
0.000000001
 43
0.00000001
 40
0.0
 40
0.0
 40
0.0
 40
0.0
 40
1.0
 40
1.0
 40
1.0
 40
1.0
 10
156.6992792412526
 20
57.33116195251672
 30
0.0
 10
157.1661414669194
 20
56.95092036525477
 30
0.0
 10
157.6331762513029
 20
56.58401371671191
 30
0.0
 10
158.1003013634783
 20
56.22408739111993
 30
0.0
  0
SPLINE
  5
213
330
1F
100
AcDbEntity
  8
0
  6
Continuous
 62
     7
370
    25
100
AcDbSpline
210
0.0
220
0.0
230
1.0
 70
     8
 71
     3
 72
    14
 73
    10
 74
     0
 42
0.000000001
 43
0.00000001
 40
0.0
 40
0.0
 40
0.0
 40
0.0
 40
0.1249999999999976
 40
0.1249999999999976
 40
0.2499999999999951
 40
0.2499999999999951
 40
0.4999999999999949
 40
0.4999999999999949
 40
1.0
 40
1.0
 40
1.0
 40
1.0
 10
158.1003013634783
 20
56.22408739111992
 30
0.0
 10
158.1267253021514
 20
56.20372738283431
 30
0.0
 10
158.1507892446563
 20
56.18821507951965
 30
0.0
 10
158.1870585020813
 20
56.17123171096029
 30
0.0
 10
158.1990768770695
 20
56.16935746955436
 30
0.0
 10
158.2245911237399
 20
56.17349831088961
 30
0.0
 10
158.228784786188
 20
56.18844069895263
 30
0.0
 10
158.2298915959235
 20
56.24279203529778
 30
0.0
 10
158.2142636108349
 20
56.29421299597379
 30
0.0
 10
158.1946108782013
 20
56.35056182355974
 30
0.0
  0
SPLINE
  5
214
330
1F
100
AcDbEntity
  8
0
  6
Continuous
 62
     7
370
    25
100
AcDbSpline
210
0.0
220
0.0
230
1.0
 70
     8
 71
     3
 72
    14
 73
    10
 74
     0
 42
0.000000001
 43
0.00000001
 40
0.0
 40
0.0
 40
0.0
 40
0.0
 40
0.25
 40
0.25
 40
0.5
 40
0.5
 40
0.75
 40
0.75
 40
1.0
 40
1.0
 40
1.0
 40
1.0
 10
158.1946108782008
 20
56.35056182356011
 30
0.0
 10
158.1699450302628
 20
56.42128438609792
 30
0.0
 10
158.1590821595384
 20
56.48435068384812
 30
0.0
 10
158.1371317923435
 20
56.61591742480672
 30
0.0
 10
158.1268601975245
 20
56.6838707637984
 30
0.0
 10
158.097556183166
 20
56.83247576764183
 30
0.0
 10
158.0787635119363
 20
56.9129395740727
 30
0.0
 10
158.0258442074201
 20
57.09251044788703
 30
0.0
 10
157.9917650302411
 20
57.1913414938149
 30
0.0
 10
157.9476787779634
 20
57.29894154879417
 30
0.0
  0
LWPOLYLINE
  5
215
330
1F
100
AcDbEntity
  8
0
  6
Continuous
 62
     7
370
    25
100
AcDbPolyline
 90
        9
 70
   128
 43
0.0
 10
157.9476784991
 20
57.2989417013
 10
157.5795982173
 20
58.370087081
 10
157.3144695155
 20
59.5340899583
 10
157.154502469
 20
60.7812412012
 10
157.1010312892
 20
62.1011378371
 10
157.154502469
 20
63.4827709833
 10
157.3144695155
 20
64.9146162466
 10
157.5795982173
 20
66.3847302073
 10
157.9476784991
 20
67.8808520345
  0
SPLINE
  5
216
330
1F
100
AcDbEntity
  8
0
  6
Continuous
 62
     7
370
    25
100
AcDbSpline
210
0.0
220
0.0
230
1.0
 70
     8
 71
     3
 72
    14
 73
    10
 74
     0
 42
0.000000001
 43
0.00000001
 40
0.0
 40
0.0
 40
0.0
 40
0.0
 40
0.25
 40
0.25
 40
0.5
 40
0.5
 40
0.75
 40
0.75
 40
1.0
 40
1.0
 40
1.0
 40
1.0
 10
158.1946108782008
 20
69.93435222286861
 30
0.0
 10
158.1699450302628
 20
69.76267969137575
 30
0.0
 10
158.1590821595384
 20
69.58769995920017
 30
0.0
 10
158.1371317923435
 20
69.23889345555898
 30
0.0
 10
158.1268601975245
 20
69.06467936362317
 30
0.0
 10
158.097556183166
 20
68.71862845167207
 30
0.0
 10
158.0787635119363
 20
68.54674559775684
 30
0.0
 10
158.0258442074201
 20
68.20671392886261
 30
0.0
 10
157.9917650302411
 20
68.0393530683655
 30
0.0
 10
157.9476787779634
 20
67.88085210996255
 30
0.0
  0
SPLINE
  5
217
330
1F
100
AcDbEntity
  8
0
  6
Continuous
 62
     7
370
    25
100
AcDbSpline
210
0.0
220
0.0
230
1.0
 70
     8
 71
     3
 72
    14
 73
    10
 74
     0
 42
0.000000001
 43
0.00000001
 40
0.0
 40
0.0
 40
0.0
 40
0.0
 40
0.1249999999999983
 40
0.1249999999999983
 40
0.2499999999999966
 40
0.2499999999999966
 40
0.4999999999999978
 40
0.4999999999999978
 40
1.0
 40
1.0
 40
1.0
 40
1.0
 10
158.1003013634783
 20
70.68309596651126
 30
0.0
 10
158.1267253021514
 20
70.67878966723906
 30
0.0
 10
158.1507892446563
 20
70.66290616069867
 30
0.0
 10
158.1870585020814
 20
70.61376158780728
 30
0.0
 10
158.1990768770695
 20
70.58275023245491
 30
0.0
 10
158.2245911237399
 20
70.48589169058748
 30
0.0
 10
158.228784786188
 20
70.41561106971133
 30
0.0
 10
158.2298915959235
 20
70.20920966763346
 30
0.0
 10
158.2142636108349
 20
70.07113383161129
 30
0.0
 10
158.1946108782013
 20
69.93435222286854
 30
0.0
  0
SPLINE
  5
218
330
1F
100
AcDbEntity
  8
0
  6
Continuous
 62
     7
370
    25
100
AcDbSpline
210
0.0
220
0.0
230
1.0
 70
     8
 71
     3
 72
     8
 73
     4
 74
     0
 42
0.000000001
 43
0.00000001
 40
0.0
 40
0.0
 40
0.0
 40
0.0
 40
1.0
 40
1.0
 40
1.0
 40
1.0
 10
156.6992792412526
 20
70.85230886039626
 30
0.0
 10
157.1661414669194
 20
70.82021910633095
 30
0.0
 10
157.6331762513029
 20
70.75922316902526
 30
0.0
 10
158.1003013634783
 20
70.68309596651126
 30
0.0
  0
SPLINE
  5
219
330
1F
100
AcDbEntity
  8
0
  6
Continuous
 62
     7
370
    25
100
AcDbSpline
210
0.0
220
0.0
230
1.0
 70
     8
 71
     3
 72
    14
 73
    10
 74
     0
 42
0.000000001
 43
0.00000001
 40
0.0
 40
0.0
 40
0.0
 40
0.0
 40
0.4999999999999989
 40
0.4999999999999989
 40
0.7499999999999983
 40
0.7499999999999983
 40
0.8749999999999991
 40
0.8749999999999991
 40
1.0
 40
1.0
 40
1.0
 40
1.0
 10
153.854741864034
 20
71.7768907365587
 30
0.0
 10
154.3197763967491
 20
71.58054548729781
 30
0.0
 10
154.7866323180308
 20
71.39289297582971
 30
0.0
 10
155.4936587036354
 20
71.14287501888522
 30
0.0
 10
155.7304436865265
 20
71.06471376108637
 30
0.0
 10
156.0892243246582
 20
70.96414649569134
 30
0.0
 10
156.2094231486593
 20
70.93342499943971
 30
0.0
 10
156.4520252467692
 20
70.88215029305515
 30
0.0
 10
156.574277004358
 20
70.86090088352213
 30
0.0
 10
156.6992792412526
 20
70.85230886039619
 30
0.0
  0
SPLINE
  5
21A
330
1F
100
AcDbEntity
  8
0
  6
Continuous
 62
     7
370
    25
100
AcDbSpline
210
0.0
220
0.0
230
1.0
 70
     8
 71
     3
 72
    14
 73
    10
 74
     0
 42
0.000000001
 43
0.00000001
 40
0.0
 40
0.0
 40
0.0
 40
0.0
 40
0.4999999999999989
 40
0.4999999999999989
 40
0.7499999999999983
 40
0.7499999999999983
 40
0.8749999999999991
 40
0.8749999999999991
 40
1.0
 40
1.0
 40
1.0
 40
1.0
 10
153.854741864034
 20
59.45394676068448
 30
0.0
 10
154.3197763967491
 20
59.11910144444604
 30
0.0
 10
154.7866323180308
 20
58.78031326937444
 30
0.0
 10
155.4936587036354
 20
58.25801752234161
 30
0.0
 10
155.7304436865265
 20
58.0815958142512
 30
0.0
 10
156.0892243246582
 20
57.80951366273221
 30
0.0
 10
156.2094231486593
 20
57.71756830137526
 30
0.0
 10
156.4520252467692
 20
57.52914228054492
 30
0.0
 10
156.574277004358
 20
57.43297153649027
 30
0.0
 10
156.6992792412526
 20
57.33116195251675
 30
0.0
  0
SPLINE
  5
21B
330
1F
100
AcDbEntity
  8
0
  6
Continuous
 62
     7
370
    25
100
AcDbSpline
210
0.0
220
0.0
230
1.0
 70
     8
 71
     3
 72
    17
 73
    13
 74
     0
 42
0.000000001
 43
0.00000001
 40
0.0
 40
0.0
 40
0.0
 40
0.0
 40
0.1207961882900952
 40
0.2420175987944839
 40
0.3632153541307872
 40
0.4839596318162575
 40
0.6040258967628624
 40
0.6645178707182005
 40
0.7242649424600393
 40
0.8441758508052679
 40
0.9646454444514005
 40
1.0
 40
1.0
 40
1.0
 40
1.0
 10
162.312984991551
 20
57.0101709233005
 30
0.0
 10
162.1092167005801
 20
57.38406051103888
 30
0.0
 10
161.7009628211381
 20
58.13315583862815
 30
0.0
 10
161.5076954588761
 20
59.28147429468131
 30
0.0
 10
161.7130536319185
 20
60.23381128729147
 30
0.0
 10
162.2723597972947
 20
60.86728453954056
 30
0.0
 10
162.9482014773617
 20
61.00857081321568
 30
0.0
 10
163.5232008097038
 20
60.88242010894593
 30
0.0
 10
164.1029907667993
 20
60.59417087981824
 30
0.0
 10
164.7700414988113
 20
59.93687976544714
 30
0.0
 10
165.3006720408389
 20
59.11145527619381
 30
0.0
 10
165.4597363745835
 20
58.58954331187702
 30
0.0
 10
165.4958260875852
 20
58.47112799801667
 30
0.0
  0
SPLINE
  5
21C
330
1F
100
AcDbEntity
  8
0
  6
Continuous
 62
     7
370
    25
100
AcDbSpline
210
0.0
220
0.0
230
1.0
 70
     8
 71
     3
 72
    12
 73
     8
 74
     0
 42
0.000000001
 43
0.00000001
 40
0.0
 40
0.0
 40
0.0
 40
0.0
 40
0.0353744433893711
 40
0.3560360900717853
 40
0.5160472232178944
 40
0.6782077942890793
 40
1.0
 40
1.0
 40
1.0
 40
1.0
 10
164.816209472436
 20
54.97798034702667
 30
0.0
 10
164.7935031872846
 20
54.97413347388527
 30
0.0
 10
164.5649693586001
 20
54.9354155311832
 30
0.0
 10
164.0911548998907
 20
55.1990021795935
 30
0.0
 10
163.5224545330914
 20
55.60842609032736
 30
0.0
 10
162.9390061757241
 20
56.14465406259672
 30
0.0
 10
162.5630004952821
 20
56.66450748668298
 30
0.0
 10
162.312984991551
 20
57.0101709233005
 30
0.0
  0
ARC
  5
21D
330
1F
100
AcDbEntity
  8
0
  6
Continuous
 62
     7
370
    25
100
AcDbCircle
 10
183.9639579919
 20
42.5881528647
 30
0.0
 40
8.701929273940795
100
AcDbArc
 50
214.5542627763
 51
265.4839169162
  0
SPLINE
  5
21E
330
1F
100
AcDbEntity
  8
0
  6
Continuous
 62
     7
370
    25
100
AcDbSpline
210
0.0
220
0.0
230
1.0
 70
     8
 71
     3
 72
    14
 73
    10
 74
     0
 42
0.000000001
 43
0.00000001
 40
0.0
 40
0.0
 40
0.0
 40
0.0
 40
0.25
 40
0.25
 40
0.5
 40
0.5
 40
0.75
 40
0.75
 40
1.0
 40
1.0
 40
1.0
 40
1.0
 10
174.8632072898132
 20
42.24924460889402
 30
0.0
 10
174.9104284532368
 20
42.2219844114992
 30
0.0
 10
174.9667152126682
 20
42.20070247997505
 30
0.0
 10
175.0901445607414
 20
42.17234785014394
 30
0.0
 10
175.1567978842012
 20
42.16550446780376
 30
0.0
 10
175.2889227611429
 20
42.16698658343292
 30
0.0
 10
175.3552821171275
 20
42.1753771151191
 30
0.0
 10
175.4765363492482
 20
42.20549543859041
 30
0.0
 10
175.5326474517255
 20
42.22750013243119
 30
0.0
 10
175.5793820252529
 20
42.2544794274581
 30
0.0
  0
LINE
  5
21F
330
1F
100
AcDbEntity
  8
0
  6
Continuous
 62
     7
370
    25
100
AcDbLine
 10
173.2057589639
 20
43.2060686477
 30
0.0
 11
174.8632068306
 21
42.2492443608
 31
0.0
  0
SPLINE
  5
220
330
1F
100
AcDbEntity
  8
0
  6
Continuous
 62
     7
370
    25
100
AcDbSpline
210
0.0
220
0.0
230
1.0
 70
     8
 71
     3
 72
     8
 73
     4
 74
     0
 42
0.000000001
 43
0.00000001
 40
0.0
 40
0.0
 40
0.0
 40
0.0
 40
1.0
 40
1.0
 40
1.0
 40
1.0
 10
173.577547616216
 20
43.97260157510703
 30
0.0
 10
173.4533694483311
 20
43.71713077588095
 30
0.0
 10
173.3294517481893
 20
43.46161792920799
 30
0.0
 10
173.2057592551571
 20
43.20606899272133
 30
0.0
  0
LINE
  5
221
330
1F
100
AcDbEntity
  8
0
  6
Continuous
 62
     7
370
    25
100
AcDbLine
 10
173.8986485436
 20
44.1579689773
 30
0.0
 11
173.5775475098
 21
43.9726012962
 31
0.0
  0
SPLINE
  5
222
330
1F
100
AcDbEntity
  8
0
  6
Continuous
 62
     7
370
    25
100
AcDbSpline
210
0.0
220
0.0
230
1.0
 70
     8
 71
     3
 72
    12
 73
     8
 74
     0
 42
0.000000001
 43
0.00000001
 40
0.0
 40
0.0
 40
0.0
 40
0.0
 40
0.2500000000000014
 40
0.2500000000000014
 40
0.5000000000000029
 40
0.5000000000000029
 40
1.0
 40
1.0
 40
1.0
 40
1.0
 10
173.906957845959
 20
44.48932929770199
 30
0.0
 10
173.9443498835419
 20
44.46774333387555
 30
0.0
 10
173.9745603568593
 20
44.44110248108549
 30
0.0
 10
174.0134597268688
 20
44.38412427777969
 30
0.0
 10
174.0227900927987
 20
44.35323270810289
 30
0.0
 10
174.0191850293848
 20
44.26167636654083
 30
0.0
 10
173.9735800044732
 20
44.20122620643581
 30
0.0
 10
173.8986481659465
 20
44.15796897681034
 30
0.0
  0
LINE
  5
223
330
1F
100
AcDbEntity
  8
0
  6
Continuous
 62
     7
370
    25
100
AcDbLine
 10
173.1220691521
 20
44.9424353687
 30
0.0
 11
173.9069573996
 21
44.4893290281
 31
0.0
  0
SPLINE
  5
224
330
1F
100
AcDbEntity
  8
0
  6
Continuous
 62
     7
370
    25
100
AcDbSpline
210
0.0
220
0.0
230
1.0
 70
     8
 71
     3
 72
    14
 73
    10
 74
     0
 42
0.000000001
 43
0.00000001
 40
0.0
 40
0.0
 40
0.0
 40
0.0
 40
0.25
 40
0.25
 40
0.5
 40
0.5
 40
0.75
 40
0.75
 40
1.0
 40
1.0
 40
1.0
 40
1.0
 10
172.5480742138802
 20
44.93763872360103
 30
0.0
 10
172.5859200116587
 20
44.95948663761263
 30
0.0
 10
172.6302389288066
 20
44.97685928240156
 30
0.0
 10
172.7279404653587
 20
45.00122075709342
 30
0.0
 10
172.7806935969705
 20
45.00793472162498
 30
0.0
 10
172.886646954199
 20
45.00929217121099
 30
0.0
 10
172.9400112404943
 20
45.0039144700719
 30
0.0
 10
173.0391890152661
 20
44.98127352655606
 30
0.0
 10
173.0841959086673
 20
44.96429965407219
 30
0.0
 10
173.1220693188419
 20
44.94243579976359
 30
0.0
  0
LINE
  5
225
330
1F
100
AcDbEntity
  8
0
  6
Continuous
 62
     7
370
    25
100
AcDbLine
 10
172.2269734813
 20
44.7522710871
 30
0.0
 11
172.548074515
 21
44.9376387682
 31
0.0
  0
SPLINE
  5
226
330
1F
100
AcDbEntity
  8
0
  6
Continuous
 62
     7
370
    25
100
AcDbSpline
210
0.0
220
0.0
230
1.0
 70
     8
 71
     3
 72
     8
 73
     4
 74
     0
 42
0.000000001
 43
0.00000001
 40
0.0
 40
0.0
 40
0.0
 40
0.0
 40
1.0
 40
1.0
 40
1.0
 40
1.0
 10
170.8991564140363
 20
44.53764246956199
 30
0.0
 10
171.3418281202527
 20
44.60904862586669
 30
0.0
 10
171.7844373103044
 20
44.68058479146846
 30
0.0
 10
172.2269736641497
 20
44.75227132189772
 30
0.0
  0
LWPOLYLINE
  5
227
330
1F
100
AcDbEntity
  8
0
  6
Continuous
 62
     7
370
    25
100
AcDbPolyline
 90
        8
 70
   128
 43
0.0
 10
177.9513400068
 20
36.0008967822
 10
177.2952900654
 20
36.421643371
 10
176.3407798504
 20
37.2087184911
 10
175.4880318841
 20
38.1432385777
 10
174.743194338
 20
39.2184600292
 10
174.1116422523
 20
40.4266317037
 10
173.5979288038
 20
41.7590375086
 10
173.2057589639
 20
43.2060686477
  0
ARC
  5
228
330
1F
100
AcDbEntity
  8
0
  6
Continuous
 62
     7
370
    25
100
AcDbCircle
 10
183.7389530251
 20
47.2144566382
 30
0.0
 40
11.77234176809856
100
AcDbArc
 50
192.0725460793
 51
215.0022747034
  0
SPLINE
  5
229
330
1F
100
AcDbEntity
  8
0
  6
Continuous
 62
     7
370
    25
100
AcDbSpline
210
0.0
220
0.0
230
1.0
 70
     8
 71
     3
 72
    12
 73
     8
 74
     0
 42
0.000000001
 43
0.00000001
 40
0.0
 40
0.0
 40
0.0
 40
0.0
 40
0.1675503883347434
 40
0.4025161747753053
 40
0.6381208840270863
 40
0.8774598722428354
 40
0.9999999999999999
 40
0.9999999999999999
 40
0.9999999999999999
 40
0.9999999999999999
 10
163.7359429397088
 20
60.67037300331846
 30
0.0
 10
163.7014350245573
 20
60.49309370647622
 30
0.0
 10
163.6185346257919
 20
60.06720520128675
 30
0.0
 10
163.8131696664506
 20
59.2562630030655
 30
0.0
 10
164.2466246839086
 20
58.38393559089089
 30
0.0
 10
164.7684710793126
 20
57.68277082807764
 30
0.0
 10
165.1339198457135
 20
57.37217576831616
 30
0.0
 10
165.2576687346293
 20
57.26700153575071
 30
0.0
  0
SPLINE
  5
22A
330
1F
100
AcDbEntity
  8
0
  6
Continuous
 62
     7
370
    25
100
AcDbSpline
210
0.0
220
0.0
230
1.0
 70
     8
 71
     3
 72
    11
 73
     7
 74
     0
 42
0.000000001
 43
0.00000001
 40
0.0
 40
0.0
 40
0.0
 40
0.0
 40
0.1889487415400878
 40
0.3635157627967836
 40
0.6686735586554259
 40
1.0
 40
1.0
 40
1.0
 40
1.0
 10
162.6032984109946
 20
57.19258100834051
 30
0.0
 10
162.7298394883485
 20
57.00939628012831
 30
0.0
 10
162.9732900447505
 20
56.65696981956546
 30
0.0
 10
163.4899865773046
 20
56.09556881405111
 30
0.0
 10
164.1643126528048
 20
55.53754657134458
 30
0.0
 10
164.6191590097549
 20
55.38051954207825
 30
0.0
 10
164.8559325478853
 20
55.29877799411731
 30
0.0
  0
SPLINE
  5
22B
330
1F
100
AcDbEntity
  8
0
  6
Continuous
 62
     7
370
    25
100
AcDbSpline
210
0.0
220
0.0
230
1.0
 70
     8
 71
     3
 72
    15
 73
    11
 74
     0
 42
0.000000001
 43
0.00000001
 40
0.0
 40
0.0
 40
0.0
 40
0.0
 40
0.0285605575140947
 40
0.1766231786262573
 40
0.2612396331333766
 40
0.3527785380977456
 40
0.5145481059714542
 40
0.6763327681591422
 40
0.8381560932852216
 40
1.0
 40
1.0
 40
1.0
 40
1.0
 10
164.2580939897374
 20
60.39388978653864
 30
0.0
 10
164.2152537818189
 20
60.43673586019635
 30
0.0
 10
163.9503228997156
 20
60.70170301699443
 30
0.0
 10
163.4892231924596
 20
60.81423903433249
 30
0.0
 10
162.9791487587314
 20
60.82147907672189
 30
0.0
 10
162.4932904936366
 20
60.64570333326903
 30
0.0
 10
162.0413155189127
 20
60.15752012248984
 30
0.0
 10
161.8518353733332
 20
59.27678024803446
 30
0.0
 10
162.0306547358101
 20
58.22378115446972
 30
0.0
 10
162.4124090941746
 20
57.53632896178787
 30
0.0
 10
162.6032984109946
 20
57.19258100834051
 30
0.0
  0
SPLINE
  5
22C
330
1F
100
AcDbEntity
  8
0
  6
Continuous
 62
     7
370
    25
100
AcDbSpline
210
0.0
220
0.0
230
1.0
 70
     8
 71
     3
 72
     9
 73
     5
 74
     0
 42
0.000000001
 43
0.00000001
 40
0.0
 40
0.0
 40
0.0
 40
0.0
 40
0.1883710221454139
 40
1.0
 40
1.0
 40
1.0
 40
1.0
 10
203.5452238407009
 20
78.25173669574338
 30
0.0
 10
203.5875999814241
 20
78.26126941822588
 30
0.0
 10
203.8125610197011
 20
78.31187551662654
 30
0.0
 10
204.0383286208427
 20
78.36127360705144
 30
0.0
 10
204.2215681481899
 20
78.40136652869097
 30
0.0
  0
LINE
  5
22D
330
1F
100
AcDbEntity
  8
0
  6
Continuous
 62
     7
370
    25
100
AcDbLine
 10
204.2215681482
 20
78.4013665287
 30
0.0
 11
205.8790160149
 21
77.4445422418
 31
0.0
  0
SPLINE
  5
22E
330
1F
100
AcDbEntity
  8
0
  6
Continuous
 62
     7
370
    25
100
AcDbSpline
210
0.0
220
0.0
230
1.0
 70
     8
 71
     3
 72
    16
 73
    12
 74
     0
 42
0.000000001
 43
0.00000001
 40
0.0
 40
0.0
 40
0.0
 40
0.0
 40
0.125
 40
0.125
 40
0.25
 40
0.25
 40
0.5
 40
0.5
 40
0.75
 40
0.75
 40
1.0
 40
1.0
 40
1.0
 40
1.0
 10
205.8790166017774
 20
77.44454189676037
 30
0.0
 10
205.9057585693358
 20
77.42910408749194
 30
0.0
 10
205.9287291679823
 20
77.4112123680847
 30
0.0
 10
205.9647061201065
 20
77.37303237153958
 30
0.0
 10
205.9779686588855
 20
77.35274855406898
 30
0.0
 10
206.0047237695913
 20
77.28862222277428
 30
0.0
 10
206.0039067643309
 20
77.24412937114508
 30
0.0
 10
205.9758263740847
 20
77.1590496788012
 30
0.0
 10
205.9482570191602
 20
77.11767682275486
 30
0.0
 10
205.8750828634008
 20
77.04224569004685
 30
0.0
 10
205.8288490249881
 20
77.00737671522305
 30
0.0
 10
205.7756852400598
 20
76.97668591545597
 30
0.0
  0
LINE
  5
22F
330
1F
100
AcDbEntity
  8
0
  6
Continuous
 62
     7
370
    25
100
AcDbLine
 10
156.4919678399
 20
63.1530908282
 30
0.0
 11
157.1147415273
 21
62.793571231
 31
0.0
  0
SPLINE
  5
230
330
1F
100
AcDbEntity
  8
0
  6
Continuous
 62
     7
370
    25
100
AcDbSpline
210
0.0
220
0.0
230
1.0
 70
     8
 71
     3
 72
    11
 73
     7
 74
     0
 42
0.000000001
 43
0.00000001
 40
0.0
 40
0.0
 40
0.0
 40
0.0
 40
0.0466304722500908
 40
0.4281527877979693
 40
0.8088298298119748
 40
1.0
 40
1.0
 40
1.0
 40
1.0
 10
209.4208363077192
 20
70.36441350316619
 30
0.0
 10
209.4258137490395
 20
70.36736108487874
 30
0.0
 10
209.4715157390591
 20
70.394425261298
 30
0.0
 10
209.5379519633377
 20
70.45566413193596
 30
0.0
 10
209.5805719995477
 20
70.53943795470502
 30
0.0
 10
209.566739441953
 20
70.58959496197245
 30
0.0
 10
209.5621151781057
 20
70.6063625939742
 30
0.0
  0
LINE
  5
231
330
1F
100
AcDbEntity
  8
0
  6
Continuous
 62
     7
370
    25
100
AcDbLine
 10
153.8399774961
 20
72.8345215686
 30
0.0
 11
153.8561513492
 21
72.8831471828
 31
0.0
  0
SPLINE
  5
232
330
1F
100
AcDbEntity
  8
0
  6
Continuous
 62
     7
370
    25
100
AcDbSpline
210
0.0
220
0.0
230
1.0
 70
     8
 71
     3
 72
    16
 73
    12
 74
     0
 42
0.000000001
 43
0.00000001
 40
0.0
 40
0.0
 40
0.0
 40
0.0
 40
0.0332838850724123
 40
0.1625854311030977
 40
0.239429833395794
 40
0.3008069245191573
 40
0.3624173839861106
 40
0.4362069101913193
 40
0.5596777462223994
 40
0.9141728339414532
 40
1.0
 40
1.0
 40
1.0
 40
1.0
 10
153.8823291519482
 20
72.9618408887213
 30
0.0
 10
153.8839724824326
 20
72.96685451134591
 30
0.0
 10
153.8919998384542
 20
72.99134510173339
 30
0.0
 10
153.9026134553784
 20
73.01596778597767
 30
0.0
 10
153.9126699105265
 20
73.03338417670997
 30
0.0
 10
153.9175285143297
 20
73.03275577872286
 30
0.0
 10
153.9187310621351
 20
73.01738739760935
 30
0.0
 10
153.9154525668168
 20
72.98081759916064
 30
0.0
 10
153.899943269686
 20
72.88049256642601
 30
0.0
 10
153.8769486272089
 20
72.76519679022554
 30
0.0
 10
153.8582437737392
 20
72.67615220482035
 30
0.0
 10
153.854597842717
 20
72.65879572475917
 30
0.0
  0
SPLINE
  5
233
330
1F
100
AcDbEntity
  8
0
  6
Continuous
 62
     7
370
    25
100
AcDbSpline
210
0.0
220
0.0
230
1.0
 70
     8
 71
     3
 72
     9
 73
     5
 74
     0
 42
0.000000001
 43
0.00000001
 40
0.0
 40
0.0
 40
0.0
 40
0.0
 40
0.7766522094856231
 40
1.0
 40
1.0
 40
1.0
 40
1.0
 10
153.7888138561811
 20
72.3963260328298
 30
0.0
 10
153.7856275462142
 20
72.50516182252471
 30
0.0
 10
153.7815249248245
 20
72.64529634910642
 30
0.0
 10
153.8293057535667
 20
72.79997453706055
 30
0.0
 10
153.8399774960953
 20
72.83452156858087
 30
0.0
  0
SPLINE
  5
234
330
1F
100
AcDbEntity
  8
0
  6
Continuous
 62
     7
370
    25
100
AcDbSpline
210
0.0
220
0.0
230
1.0
 70
     8
 71
     3
 72
     8
 73
     4
 74
     0
 42
0.000000001
 43
0.00000001
 40
0.0
 40
0.0
 40
0.0
 40
0.0
 40
1.0
 40
1.0
 40
1.0
 40
1.0
 10
153.7655127136632
 20
71.7978876863492
 30
0.0
 10
153.7941150092373
 20
71.79633427121568
 30
0.0
 10
153.8238113889747
 20
71.78995009325298
 30
0.0
 10
153.8547418640328
 20
71.77689073656504
 30
0.0
  0
SPLINE
  5
235
330
1F
100
AcDbEntity
  8
0
  6
Continuous
 62
     7
370
    25
100
AcDbSpline
210
0.0
220
0.0
230
1.0
 70
     8
 71
     3
 72
    10
 73
     6
 74
     0
 42
0.000000001
 43
0.00000001
 40
0.0
 40
0.0
 40
0.0
 40
0.0
 40
0.4999999999999989
 40
0.4999999999999989
 40
1.0
 40
1.0
 40
1.0
 40
1.0
 10
153.8545980363299
 20
72.65879570054356
 30
0.0
 10
153.8246095664211
 20
72.51700484437356
 30
0.0
 10
153.8041762672345
 20
72.37474702833025
 30
0.0
 10
153.7755432800087
 20
72.08793676016049
 30
0.0
 10
153.7676722203622
 20
71.94348022696495
 30
0.0
 10
153.765512713664
 20
71.79788768634549
 30
0.0
  0
ARC
  5
236
330
1F
100
AcDbEntity
  8
0
  6
Continuous
 62
     7
370
    25
100
AcDbCircle
 10
154.9848644667
 20
71.6298414907
 30
0.0
 40
1.230877198383237
100
AcDbArc
 50
172.1531384875
 51
234.5145852444
  0
ARC
  5
237
330
1F
100
AcDbEntity
  8
0
  6
Continuous
 62
     7
370
    25
100
AcDbCircle
 10
157.4980126036
 20
59.4264787477
 30
0.0
 40
3.734047488377254
100
AcDbArc
 50
122.5266350896
 51
178.3504233083
  0
SPLINE
  5
238
330
1F
100
AcDbEntity
  8
0
  6
Continuous
 62
     7
370
    25
100
AcDbSpline
210
0.0
220
0.0
230
1.0
 70
     8
 71
     3
 72
     8
 73
     4
 74
     0
 42
0.000000001
 43
0.00000001
 40
0.0
 40
0.0
 40
0.0
 40
0.0
 40
1.0
 40
1.0
 40
1.0
 40
1.0
 10
153.7655127136638
 20
59.53396891878315
 30
0.0
 10
153.7941150092378
 20
59.50327151492522
 30
0.0
 10
153.823811388975
 20
59.4762180630749
 30
0.0
 10
153.8547418640328
 20
59.45394676067991
 30
0.0
  0
LINE
  5
239
330
1F
100
AcDbEntity
  8
0
  6
Continuous
 62
     7
370
    25
100
AcDbLine
 10
155.4902465692
 20
62.5748094477
 30
0.0
 11
156.4919678399
 21
63.1530908282
 31
0.0
  0
SPLINE
  5
23A
330
1F
100
AcDbEntity
  8
0
  6
Continuous
 62
     7
370
    25
100
AcDbSpline
210
0.0
220
0.0
230
1.0
 70
     8
 71
     3
 72
     9
 73
     5
 74
     0
 42
0.000000001
 43
0.00000001
 40
0.0
 40
0.0
 40
0.0
 40
0.0
 40
0.3901117718169397
 40
1.0
 40
1.0
 40
1.0
 40
1.0
 10
153.7993182996279
 20
60.60111978709528
 30
0.0
 10
153.7902407429855
 20
60.55433373372188
 30
0.0
 10
153.7669716255217
 20
60.43440386553182
 30
0.0
 10
153.780539170322
 20
60.31354883908951
 30
0.0
 10
153.7888138561811
 20
60.2398407811456
 30
0.0
  0
ARC
  5
23B
330
1F
100
AcDbEntity
  8
0
  6
Continuous
 62
     7
370
    25
100
AcDbCircle
 10
156.2829275142
 20
60.1136880814
 30
0.0
 40
2.53098881836214
100
AcDbArc
 50
122.9343808406
 51
168.8962913337
  0
LINE
  5
23C
330
1F
100
AcDbEntity
  8
0
  6
Continuous
 62
     7
370
    25
100
AcDbLine
 10
155.4902465692
 20
62.5748094477
 30
0.0
 11
154.9068841364
 21
62.2379312456
 31
0.0
  0
LINE
  5
23D
330
1F
100
AcDbEntity
  8
0
  6
Continuous
 62
     7
370
    25
100
AcDbLine
 10
153.8250278772
 20
59.39484772
 30
0.0
 11
153.7655125759
 21
59.5339691571
 31
0.0
  0
LINE
  5
23E
330
1F
100
AcDbEntity
  8
0
  6
Continuous
 62
     7
370
    18
100
AcDbLine
 10
240.1090656975
 20
28.4872083087
 30
0.0
 11
239.602182014
 21
28.6574478465
 31
0.0
  0
LINE
  5
23F
330
1F
100
AcDbEntity
  8
0
  6
Continuous
 62
     7
370
    18
100
AcDbLine
 10
239.602182014
 20
28.6574478465
 30
0.0
 11
239.3894411864
 21
28.5489531761
 31
0.0
  0
LINE
  5
240
330
1F
100
AcDbEntity
  8
0
  6
Continuous
 62
     7
370
    18
100
AcDbLine
 10
241.4576219456
 20
30.6514485122
 30
0.0
 11
241.1183971085
 21
31.0907567888
 31
0.0
  0
LINE
  5
241
330
1F
100
AcDbEntity
  8
0
  6
Continuous
 62
     7
370
    18
100
AcDbLine
 10
241.1183971085
 20
31.0907567888
 30
0.0
 11
241.1307961845
 21
31.3435798787
 31
0.0
  0
LINE
  5
242
330
1F
100
AcDbEntity
  8
0
  6
Continuous
 62
     7
370
    18
100
AcDbLine
 10
240.2588114746
 20
28.5635762911
 30
0.0
 11
240.1090656975
 21
28.4872083087
 31
0.0
  0
LINE
  5
243
330
1F
100
AcDbEntity
  8
0
  6
Continuous
 62
     7
370
    18
100
AcDbLine
 10
241.4488942553
 20
30.473488467
 30
0.0
 11
241.4576219456
 21
30.6514485122
 31
0.0
  0
LINE
  5
244
330
1F
100
AcDbEntity
  8
0
  6
Continuous
 62
     7
370
    18
100
AcDbLine
 10
237.7459584144
 20
15.5757770066
 30
0.0
 11
237.1453915064
 21
14.953594485
 31
0.0
  0
LINE
  5
245
330
1F
100
AcDbEntity
  8
0
  6
Continuous
 62
     7
370
    18
100
AcDbLine
 10
237.8283897476
 20
15.7680785499
 30
0.0
 11
237.7459584144
 21
15.5757770066
 31
0.0
  0
LINE
  5
246
330
1F
100
AcDbEntity
  8
0
  6
Continuous
 62
     7
370
    18
100
AcDbLine
 10
237.1453915064
 20
14.953594485
 30
0.0
 11
237.0282831951
 21
14.6803962521
 31
0.0
  0
LINE
  5
247
330
1F
100
AcDbEntity
  8
0
  6
Continuous
 62
     7
370
    18
100
AcDbLine
 10
251.6641019908
 20
37.9124104625
 30
0.0
 11
251.9708181075
 21
38.7462864674
 31
0.0
  0
LINE
  5
248
330
1F
100
AcDbEntity
  8
0
  6
Continuous
 62
     7
370
    18
100
AcDbLine
 10
251.5300545976
 20
37.7572943142
 30
0.0
 11
251.6641019908
 21
37.9124104625
 31
0.0
  0
LINE
  5
249
330
1F
100
AcDbEntity
  8
0
  6
Continuous
 62
     7
370
    18
100
AcDbLine
 10
251.9708181075
 20
38.7462864674
 30
0.0
 11
252.1612563376
 21
38.9666570177
 31
0.0
  0
LINE
  5
24A
330
1F
100
AcDbEntity
  8
0
  6
Continuous
 62
     7
370
    18
100
AcDbLine
 10
257.263870249
 20
28.1749209085
 30
0.0
 11
256.5921179724
 21
28.5627152434
 31
0.0
  0
ARC
  5
24B
330
1F
100
AcDbEntity
  8
0
  6
Continuous
 62
     7
370
    18
100
AcDbCircle
 10
249.3052015955
 20
27.3374235125
 30
0.0
 40
8.063697365798737
100
AcDbArc
 50
0.8586938972
 51
10.0021074619
  0
LWPOLYLINE
  5
24C
330
1F
100
AcDbEntity
  8
0
  6
Continuous
 62
     7
370
    18
100
AcDbPolyline
 90
       21
 70
   128
 43
0.0
 10
232.9458670084
 20
43.3267238459
 10
231.9004699958
 20
42.6515888291
 10
230.869747989
 20
41.8426505105
 10
229.8681704456
 20
40.9112649982
 10
228.9097965501
 20
39.8705059442
 10
228.0080805312
 20
38.7349852359
 10
227.1756802731
 20
37.520641368
 10
226.424280331
 20
36.2445209211
 10
225.7644299293
 20
34.9245397911
 10
225.2053908379
 20
33.5792261677
 10
224.7550109318
 20
32.2274650301
 10
224.4196122382
 20
30.888232376
 10
224.203904009
 20
29.5803287827
 10
224.1109142318
 20
28.3221141307
 10
224.1419468246
 20
27.1312501669
 10
224.2965678067
 20
26.0244550197
 10
224.5726059569
 20
25.017265411
 10
224.9661863992
 20
24.1238195651
 10
225.4717839452
 20
23.3566601248
 10
226.0823008022
 20
22.7265555305
 10
226.6963751166
 20
22.2943527046
  0
LWPOLYLINE
  5
24D
330
1F
100
AcDbEntity
  8
0
  6
Continuous
 62
     7
370
    18
100
AcDbPolyline
 90
        8
 70
   128
 43
0.0
 10
239.1953589002
 20
43.9455743858
 10
238.7160537437
 20
44.1827571654
 10
237.8836534856
 20
44.4360321522
 10
236.9819374668
 20
44.5304537056
 10
236.0235635712
 20
44.4646978127
 10
235.0219860279
 20
44.239686508
 10
233.991264021
 20
43.8585785284
 10
232.9458670084
 20
43.3267238459
  0
LWPOLYLINE
  5
24E
330
1F
100
AcDbEntity
  8
0
  6
Continuous
 62
     7
370
    18
100
AcDbPolyline
 90
       15
 70
   128
 43
0.0
 10
247.3888888528
 20
15.9843205785
 10
247.6333324864
 20
16.1207580377
 10
248.5964078958
 20
16.7496222869
 10
249.5430047107
 20
17.5135110254
 10
250.4569266873
 20
18.3993541762
 10
251.3225360279
 20
19.3919956603
 10
252.125022231
 20
20.4744497425
 10
252.8506543143
 20
21.6281953067
 10
253.4870160799
 20
22.8334922814
 10
254.0232201404
 20
24.0697177447
 10
254.4500919832
 20
25.3157193313
 10
254.760326374
 20
26.5501771991
 10
254.9486161026
 20
27.7519696091
 10
255.0117395694
 20
28.9005339468
 10
255.0076493494
 20
29.1818312414
  0
ARC
  5
24F
330
1F
100
AcDbEntity
  8
0
  6
Continuous
 62
     7
370
    18
100
AcDbCircle
 10
239.2798085461
 20
29.4634562035
 30
0.0
 40
15.08202128645125
100
AcDbArc
 50
301.6215808368
 51
358.3837984819
  0
LWPOLYLINE
  5
250
330
1F
100
AcDbEntity
  8
0
  6
Continuous
 62
     7
370
    18
100
AcDbPolyline
 90
       22
 70
   128
 43
0.0
 10
192.1077716571
 20
45.2655802582
 10
192.1700179426
 20
46.5814441379
 10
192.3559731309
 20
47.9526278797
 10
192.6632987306
 20
49.3618877316
 10
193.0881304025
 20
50.7915021341
 10
193.6251247165
 20
52.2234923445
 10
194.2675302742
 20
53.6398504748
 10
195.0072667346
 20
55.0227649606
 10
195.835032815
 20
56.3548445084
 10
196.7404179145
 20
57.6193384282
 10
197.7120371158
 20
58.8003434674
 10
198.7376711254
 20
59.8830093126
 10
199.8044220199
 20
60.8537197552
 10
200.8988751654
 20
61.7002682955
 10
202.0072668993
 20
62.4120089366
 10
203.1156586332
 20
62.9799901518
 10
204.2101117787
 20
63.3970703161
 10
205.2768626732
 20
63.6580042401
 10
206.3024966828
 20
63.7595102166
 10
207.274115884
 20
63.7003128288
 10
208.1795009836
 20
63.4811542943
 10
209.0066980815
 20
63.1051216933
  0
LWPOLYLINE
  5
251
330
1F
100
AcDbEntity
  8
0
  6
Continuous
 62
     7
370
    18
100
AcDbPolyline
 90
        9
 70
   128
 43
0.0
 10
195.0078357171
 20
38.8557527413
 10
195.0072667346
 20
38.8560813147
 10
194.2675302742
 20
39.384914263
 10
193.6251247165
 20
40.0595667239
 10
193.0881304025
 20
40.8715564966
 10
192.6632987306
 20
41.8106706912
 10
192.3559731309
 20
42.8650999585
 10
192.1700179426
 20
44.0215844099
 10
192.1077716571
 20
45.2655802582
  0
LWPOLYLINE
  5
252
330
1F
100
AcDbEntity
  8
0
  6
Continuous
 62
     7
370
    18
100
AcDbPolyline
 90
       25
 70
   128
 43
0.0
 10
175.5793825441
 20
51.2364285592
 10
175.9701984165
 20
53.0997746425
 10
176.4799289879
 20
54.9875759403
 10
177.1048995798
 20
56.8862205117
 10
177.8406004794
 20
58.7820143639
 10
178.6817304035
 20
60.6612917159
 10
179.62222284
 20
62.5104978859
 10
180.6552947806
 20
64.3163010749
 10
181.7734974282
 20
66.0656771536
 10
182.9687688811
 20
67.7460146016
 10
184.2324887916
 20
69.3451962515
 10
185.5555455379
 20
70.8516882571
 10
186.9283987857
 20
72.254630963
 10
188.3411489647
 20
73.5439048676
 10
189.7836090499
 20
74.7102161692
 10
191.2453775778
 20
75.7451526053
 10
192.715914029
 20
76.6412528255
 10
194.1846147462
 20
77.3920547817
 10
195.640888955
 20
77.9921426546
 10
197.0742361013
 20
78.4371930217
 10
198.4743204938
 20
78.7239936119
 10
199.8310459866
 20
78.8504788147
 10
201.1346295718
 20
78.8157341409
 10
202.3756718436
 20
78.620011045
 10
203.5452244992
 20
78.2647233065
  0
LWPOLYLINE
  5
253
330
1F
100
AcDbEntity
  8
0
  6
Continuous
 62
     7
370
    18
100
AcDbPolyline
 90
       25
 70
   128
 43
0.0
 10
174.8632068306
 20
51.2311932429
 10
175.2526792722
 20
53.1196145755
 10
175.7622728663
 20
55.0335183946
 10
176.3883550813
 20
56.9592649986
 10
177.1264662539
 20
58.8831303519
 10
177.9713446133
 20
60.7914045627
 10
178.9169684286
 20
62.6704857963
 10
179.9565994725
 20
64.5069836939
 10
181.0828284606
 20
66.2878102438
 10
182.2876290525
 20
68.0002740734
 10
183.5624144864
 20
69.6321694183
 10
184.8981007993
 20
71.1718688929
 10
186.2851680717
 20
72.608396869
 10
187.7137315507
 20
73.9315176833
 10
189.1736101382
 20
75.1318010301
 10
190.6543993248
 20
76.2006929636
 10
192.1455463463
 20
77.130574493
 10
193.6364241878
 20
77.9148210352
 10
195.1164076452
 20
78.5478402399
 10
196.5749497166
 20
79.0251252154
 10
198.0016554415
 20
79.3432697782
 10
199.3863572221
 20
79.5000104139
 10
200.7191861104
 20
79.4942278868
 10
201.9906445774
 20
79.3259649134
 10
203.1916710507
 20
78.9964177917
  0
LWPOLYLINE
  5
254
330
1F
100
AcDbEntity
  8
0
  6
Continuous
 62
     7
370
    18
100
AcDbPolyline
 90
       19
 70
   128
 43
0.0
 10
195.5156953634
 20
38.5625723179
 10
194.1067708341
 20
37.5262786777
 10
192.6423062662
 20
36.5915114509
 10
191.1765448595
 20
35.799344351
 10
189.7199898638
 20
35.155449897
 10
188.2830788393
 20
34.6644436659
 10
186.8761083761
 20
34.3298438762
 10
185.5091609555
 20
34.1540489373
 10
184.1920311098
 20
34.1383176369
 10
182.9341577574
 20
34.2827635389
 10
181.7445543971
 20
34.5863511879
 10
180.631745229
 20
35.0469048602
 10
179.6037045685
 20
35.6611252997
 10
178.667799553
 20
36.4246091151
 10
177.8307367997
 20
37.3318871886
 10
177.0985143322
 20
38.3764577601
 10
176.476379433
 20
39.550835101
 10
175.9687891313
 20
40.8466038909
 10
175.5793825441
 20
42.2544796771
  0
ARC
  5
255
330
1F
100
AcDbEntity
  8
0
  6
Continuous
 62
     7
370
    18
100
AcDbCircle
 10
198.434625447
 20
68.6189091556
 30
0.0
 40
11.12401072022566
100
AcDbArc
 50
9.0277736643
 51
48.7055209086
  0
LWPOLYLINE
  5
256
330
1F
100
AcDbEntity
  8
0
  6
Continuous
 62
     7
370
    18
100
AcDbPolyline
 90
       29
 70
   128
 43
0.0
 10
180.43486808
 20
49.5484662542
 10
180.4986086029
 20
51.013210947
 10
180.6891584563
 20
52.5360246646
 10
181.0044959085
 20
54.100763825
 10
181.4412788461
 20
55.6908423807
 10
181.9948763842
 20
57.2894043458
 10
182.6594215498
 20
58.8795056368
 10
183.427868575
 20
60.4442893535
 10
184.2920732401
 20
61.9671701843
 10
185.2428732153
 20
63.432003221
 10
186.2701914525
 20
64.8232630384
 10
187.3631366134
 20
66.12620053
 10
188.5101242415
 20
67.3270048757
 10
189.6989953003
 20
68.4129457366
 10
190.9171477175
 20
69.3725130736
 10
192.1516689169
 20
70.1955362416
 10
193.3894725492
 20
70.8732895389
 10
194.6174375265
 20
71.3985892009
 10
195.8225471404
 20
71.7658661058
 10
196.9920270269
 20
71.9712286902
 10
198.1134802502
 20
72.0124983455
 10
199.1750197528
 20
71.8892387308
 10
200.1653916674
 20
71.6027554763
 10
201.0740987948
 20
71.1560860953
 10
201.8915086042
 20
70.5539649927
 10
202.6089559672
 20
69.8027755469
 10
203.2188360117
 20
68.9104797574
 10
203.7146838062
 20
67.8865361077
 10
204.0791052148
 20
66.7875915899
  0
LWPOLYLINE
  5
257
330
1F
100
AcDbEntity
  8
0
  6
Continuous
 62
     7
370
    18
100
AcDbPolyline
 90
       14
 70
   128
 43
0.0
 10
189.2952110401
 20
41.2656224876
 10
188.5101242415
 20
41.0934199407
 10
187.3631366134
 20
40.9699405592
 10
186.2701914525
 20
41.0109904281
 10
185.2428732153
 20
41.216133856
 10
184.2920732401
 20
41.5831966081
 10
183.427868575
 20
42.1082879711
 10
182.6594215498
 20
42.7858416376
 10
181.9948763842
 20
43.6086754122
 10
181.4412788461
 20
44.5680672649
 10
181.0044959085
 20
45.6538469751
 10
180.6891584563
 20
46.8545052629
 10
180.4986086029
 20
48.1573148027
 10
180.43486808
 20
49.5484662542
  0
LWPOLYLINE
  5
258
330
1F
100
AcDbEntity
  8
0
  6
Continuous
 62
     7
370
    18
100
AcDbPolyline
 90
       25
 70
   128
 43
0.0
 10
182.2607782173
 20
49.680926105
 10
182.3230883816
 20
51.0669285168
 10
182.5093135732
 20
52.5091690303
 10
182.8173424984
 20
53.9913060664
 10
183.2436861885
 20
55.4965468406
 10
183.7835142195
 20
57.0078359543
 10
184.4307087129
 20
58.5080502584
 10
185.1779380927
 20
59.980192194
 10
186.0167347936
 20
61.4075802814
 10
186.9375960183
 20
62.7740434082
 10
187.9300877878
 20
64.0640972477
 10
188.9829641373
 20
65.2631271386
 10
190.0842961918
 20
66.3575454889
 10
191.2216050266
 20
67.3349528862
 10
192.3820046544
 20
68.1842753958
 10
193.552347296
 20
68.8958894885
 10
194.7193724784
 20
69.4617324481
 10
195.8698573071
 20
69.8753921636
 10
196.9907662434
 20
70.1321829469
 10
198.0693992565
 20
70.2291945576
 10
199.0935347481
 20
70.1653275627
 10
200.0515688347
 20
69.9413068214
 10
200.9326467272
 20
69.5596691159
 10
201.7267855494
 20
69.024739755
 10
202.3129869675
 20
68.4690917023
  0
LWPOLYLINE
  5
259
330
1F
100
AcDbEntity
  8
0
  6
Continuous
 62
     7
370
    18
100
AcDbPolyline
 90
       11
 70
   128
 43
0.0
 10
187.0170329496
 20
41.9695739283
 10
186.9375960183
 20
41.9875476982
 10
186.0167347936
 20
42.2908070858
 10
185.1779380927
 20
42.7497411164
 10
184.4307087129
 20
43.359150374
 10
183.7835142195
 20
44.1121298213
 10
183.2436861885
 20
45.0001467572
 10
182.8173424984
 20
46.0131415845
 10
182.5093135732
 20
47.1396359936
 10
182.3230883816
 20
48.3668654775
 10
182.2607782173
 20
49.680926105
  0
LWPOLYLINE
  5
25A
330
1F
100
AcDbEntity
  8
0
  6
Continuous
 62
     7
370
    18
100
AcDbPolyline
 90
       20
 70
   128
 43
0.0
 10
164.7250612943
 20
52.0927932928
 10
164.7870593085
 20
53.8367433354
 10
164.9726187116
 20
55.6400423765
 10
165.2804382197
 20
57.4900417588
 10
165.7083578068
 20
59.3737643858
 10
166.253375827
 20
61.2779974965
 10
166.9116714052
 20
63.1893850594
 10
167.678624193
 20
65.0945182658
 10
168.548856516
 20
66.9800362873
 10
169.5162649837
 20
68.8327129657
 10
170.5740613192
 20
70.6395511061
 10
171.7148276774
 20
72.3878798114
 10
172.9305620837
 20
74.0654339462
 10
174.2127370455
 20
75.6604465278
 10
175.5523588204
 20
77.1617316106
 10
176.9400306367
 20
78.5587557642
 10
178.3660198652
 20
79.8417239991
 10
179.8203235442
 20
81.0016328029
 10
181.292741066
 20
82.0303501247
 10
182.7188702352
 20
82.8906532617
  0
LWPOLYLINE
  5
25B
330
1F
100
AcDbEntity
  8
0
  6
Continuous
 62
     7
370
    18
100
AcDbPolyline
 90
        3
 70
   128
 43
0.0
 10
164.817725092
 20
50.058888192
 10
164.7870593085
 20
50.4204246337
 10
164.7250612943
 20
52.0927932928
  0
LWPOLYLINE
  5
25C
330
1F
100
AcDbEntity
  8
0
  6
Continuous
 62
     7
370
    18
100
AcDbPolyline
 90
       21
 70
   128
 43
0.0
 10
172.548074515
 20
53.9195876503
 10
172.9621936434
 20
55.807104381
 10
173.5028165376
 20
57.7180543123
 10
174.1655744133
 20
59.6369989367
 10
174.9451133038
 20
61.5484359599
 10
175.8351362063
 20
63.4369255344
 10
176.828453132
 20
65.2872104073
 10
177.9170397161
 20
67.0843463346
 10
179.0921024136
 20
68.8138119618
 10
180.3441483056
 20
70.4616373357
 10
181.6630634655
 20
72.0145115024
 10
183.0381926431
 20
73.4598893449
 10
184.4584275098
 20
74.7860957584
 10
185.9122947383
 20
75.9824160416
 10
187.3880496814
 20
77.0391849579
 10
188.8737707695
 20
77.9478670853
 10
190.3574558439
 20
78.7011215541
 10
191.8271190856
 20
79.2928640867
 10
193.2708883573
 20
79.7183125448
 10
194.6771001772
 20
79.9740326319
 10
195.0268821413
 20
80.0116716214
  0
LWPOLYLINE
  5
25D
330
1F
100
AcDbEntity
  8
0
  6
Continuous
 62
     7
370
    18
100
AcDbPolyline
 90
       18
 70
   128
 43
0.0
 10
173.1220691521
 20
53.9243842508
 10
173.5376871278
 20
55.7915409678
 10
174.0788408089
 20
57.6811872419
 10
174.7411100446
 20
59.5778853307
 10
175.5190842333
 20
61.4661413105
 10
176.4064071034
 20
63.330528267
 10
177.395830714
 20
65.1558178504
 10
178.4792734068
 20
66.9270973814
 10
179.6478823682
 20
68.6298957015
 10
180.8921119955
 20
70.2503052205
 10
182.2017969955
 20
71.7750857122
 10
183.5662389836
 20
73.191782749
 10
184.9742914354
 20
74.4888208502
 10
186.41445106
 20
75.6556064213
 10
187.8749534537
 20
76.6826057873
 10
189.3438669837
 20
77.5614298094
 10
190.8091918577
 20
78.2849002023
 10
190.95301946
 20
78.3475831647
  0
LINE
  5
25E
330
1F
100
AcDbEntity
  8
0
  6
Continuous
 62
     7
370
    18
100
AcDbLine
 10
166.3019102486
 20
51.5948512151
 30
0.0
 11
168.4550491763
 21
52.8378318605
 31
0.0
  0
LWPOLYLINE
  5
25F
330
1F
100
AcDbEntity
  8
0
  6
Continuous
 62
     7
370
    18
100
AcDbPolyline
 90
       20
 70
   128
 43
0.0
 10
153.8547414054
 20
71.776890367
 10
154.4638041962
 20
73.4495086086
 10
155.1872653876
 20
75.1088475594
 10
156.0174555703
 20
76.7373169113
 10
156.9455746141
 20
78.3176546022
 10
157.9617832054
 20
79.8331066568
 10
159.0553095318
 20
81.267608927
 10
160.214560905
 20
82.6059549538
 10
161.4272485552
 20
83.833956223
 10
162.6805171997
 20
84.9385968125
 10
163.9610809501
 20
85.9081643213
 10
165.2553651459
 20
86.7323827
 10
166.5496493418
 20
87.4025130458
 10
167.8302130921
 20
87.9114529722
 10
169.0834817367
 20
88.2538055595
 10
170.2961693869
 20
88.4259436484
 10
171.4554207601
 20
88.4260407676
 10
172.5489470865
 20
88.2540971195
 10
173.5651556778
 20
87.9119345303
 10
173.834358136
 20
87.7860716733
  0
ARC
  5
260
330
1F
100
AcDbEntity
  8
0
  6
Continuous
 62
     7
370
    18
100
AcDbCircle
 10
159.7147322789
 20
62.418266112
 30
0.0
 40
6.567090909489714
100
AcDbArc
 50
206.8329030039
 51
236.0333930637
  0
ARC
  5
261
330
1F
100
AcDbEntity
  8
0
  6
Continuous
 62
     7
370
    18
100
AcDbCircle
 10
187.1970284081
 20
44.7331716102
 30
0.0
 40
12.5814565645976
100
AcDbArc
 50
191.3865744508
 51
214.2485105814
  0
LINE
  5
262
330
1F
100
AcDbEntity
  8
0
  6
Continuous
 62
     7
370
    18
100
AcDbLine
 10
170.2670126581
 20
44.902570779
 30
0.0
 11
171.9905830032
 21
45.8975667602
 31
0.0
  0
LINE
  5
263
330
1F
100
AcDbEntity
  8
0
  6
Continuous
 62
     7
370
    18
100
AcDbLine
 10
166.3019102486
 20
50.7783103644
 30
0.0
 11
168.4550491763
 21
52.0212910098
 31
0.0
  0
LINE
  5
264
330
1F
100
AcDbEntity
  8
0
  6
Continuous
 62
     7
370
    18
100
AcDbLine
 10
173.9738457653
 20
44.225350873
 30
0.0
 11
173.9069573996
 21
44.4893290281
 31
0.0
  0
LINE
  5
265
330
1F
100
AcDbEntity
  8
0
  6
Continuous
 62
     7
370
    18
100
AcDbLine
 10
173.4657174327
 20
43.7601715428
 30
0.0
 11
173.1220691521
 21
44.9424353687
 31
0.0
  0
LWPOLYLINE
  5
266
330
1F
100
AcDbEntity
  8
0
  6
Continuous
 62
     7
370
    18
100
AcDbPolyline
 90
        3
 70
   128
 43
0.0
 10
173.3760822812
 20
42.5073231961
 10
172.9453875876
 20
43.5760120722
 10
172.548074515
 20
44.9376387682
  0
LINE
  5
267
330
1F
100
AcDbEntity
  8
0
  6
Continuous
 62
     7
370
    18
100
AcDbLine
 10
201.1795726003
 20
80.1574731787
 30
0.0
 11
201.0792038318
 21
80.099531522
 31
0.0
  0
ARC
  5
268
330
1F
100
AcDbEntity
  8
0
  6
Continuous
 62
     7
370
    18
100
AcDbCircle
 10
159.819419451
 20
69.4610546683
 30
0.0
 40
1.982758115011519
100
AcDbArc
 50
160.3181851691
 51
206.3321513809
  0
ARC
  5
269
330
1F
100
AcDbEntity
  8
0
  6
Continuous
 62
     7
370
    18
100
AcDbCircle
 10
157.5673084841
 20
69.4013868242
 30
0.0
 40
0.8231407192528262
100
AcDbArc
 50
40.3516534992
 51
62.0985447238
  0
LINE
  5
26A
330
1F
100
AcDbEntity
  8
0
  6
Continuous
 62
     7
370
    18
100
AcDbLine
 10
157.9524990449
 20
70.1288405173
 30
0.0
 11
158.1003014572
 21
70.68309535
 31
0.0
  0
LINE
  5
26B
330
1F
100
AcDbEntity
  8
0
  6
Continuous
 62
     7
370
    18
100
AcDbLine
 10
157.9524990449
 20
70.1288405173
 30
0.0
 11
156.6992796266
 21
70.852308688
 31
0.0
  0
LINE
  5
26C
330
1F
100
AcDbEntity
  8
0
  6
Continuous
 62
     7
370
    18
100
AcDbLine
 10
153.8545978427
 20
72.6587957248
 30
0.0
 11
153.8399774961
 21
72.8345215686
 31
0.0
  0
ARC
  5
26D
330
1F
100
AcDbEntity
  8
0
  6
Continuous
 62
     7
370
    18
100
AcDbCircle
 10
157.6708500042
 20
56.0999437693
 30
0.0
 40
0.5806338492587075
100
AcDbArc
 50
25.5709532967
 51
60.9828307538
  0
ARC
  5
26E
330
1F
100
AcDbEntity
  8
0
  6
Continuous
 62
     7
370
    18
100
AcDbCircle
 10
159.9079568554
 20
57.2536854106
 30
0.0
 40
2.059398257776435
100
AcDbArc
 50
172.8727688225
 51
198.2811498095
  0
LINE
  5
26F
330
1F
100
AcDbEntity
  8
0
  6
Continuous
 62
     7
370
    18
100
AcDbLine
 10
157.1073144623
 20
61.6412960233
 30
0.0
 11
155.4902465692
 21
62.5748094477
 31
0.0
  0
LINE
  5
270
330
1F
100
AcDbEntity
  8
0
  6
Continuous
 62
     7
370
    18
100
AcDbLine
 10
157.9524990449
 20
56.6076932004
 30
0.0
 11
156.6992796266
 21
57.3311613711
 31
0.0
  0
LINE
  5
271
330
1F
100
AcDbEntity
  8
0
  6
Continuous
 62
     7
370
    18
100
AcDbLine
 10
157.9524990449
 20
56.6076932004
 30
0.0
 11
158.1003014572
 21
56.2240874005
 31
0.0
  0
OLE2FRAME
  5
272
330
1F
100
AcDbEntity
  8
0
100
AcDbOle2Frame
 70
     2
  3
Paintbrush-Bild
 10
13.8511154363
 20
38.264191557
 30
0.0
 11
51.6290888628
 21
31.9806341108
 31
0.0
 71
     2
 72
     0
 73
     1
 90
    12928
310
80552BED0767C5B32B40DDAF6807D121434000000000000000006FFBDDFB85D0
310
4940DDAF6807D121434000000000000000006FFBDDFB85D04940416F4BD60AFB
310
3F4000000000000000002BED0767C5B32B40416F4BD60AFB3F40000000000000
310
0000000000000100000000010000010000000100000000000100000000320000
310
D0CF11E0A1B11AE1000000000000000000000000000000003E000300FEFF0900
310
0600000000000000000000000100000001000000000000000010000002000000
310
01000000FEFFFFFF0000000000000000FFFFFFFFFFFFFFFFFFFFFFFFFFFFFFFF
310
FFFFFFFFFFFFFFFFFFFFFFFFFFFFFFFFFFFFFFFFFFFFFFFFFFFFFFFFFFFFFFFF
310
FFFFFFFFFFFFFFFFFFFFFFFFFFFFFFFFFFFFFFFFFFFFFFFFFFFFFFFFFFFFFFFF
310
FFFFFFFFFFFFFFFFFFFFFFFFFFFFFFFFFFFFFFFFFFFFFFFFFFFFFFFFFFFFFFFF
310
FFFFFFFFFFFFFFFFFFFFFFFFFFFFFFFFFFFFFFFFFFFFFFFFFFFFFFFFFFFFFFFF
310
FFFFFFFFFFFFFFFFFFFFFFFFFFFFFFFFFFFFFFFFFFFFFFFFFFFFFFFFFFFFFFFF
310
FFFFFFFFFFFFFFFFFFFFFFFFFFFFFFFFFFFFFFFFFFFFFFFFFFFFFFFFFFFFFFFF
310
FFFFFFFFFFFFFFFFFFFFFFFFFFFFFFFFFFFFFFFFFFFFFFFFFFFFFFFFFFFFFFFF
310
FFFFFFFFFFFFFFFFFFFFFFFFFFFFFFFFFFFFFFFFFFFFFFFFFFFFFFFFFFFFFFFF
310
FFFFFFFFFFFFFFFFFFFFFFFFFFFFFFFFFFFFFFFFFFFFFFFFFFFFFFFFFFFFFFFF
310
FFFFFFFFFFFFFFFFFFFFFFFFFFFFFFFFFFFFFFFFFFFFFFFFFFFFFFFFFFFFFFFF
310
FFFFFFFFFFFFFFFFFFFFFFFFFFFFFFFFFFFFFFFFFFFFFFFFFFFFFFFFFFFFFFFF
310
FFFFFFFFFFFFFFFFFFFFFFFFFFFFFFFFFFFFFFFFFFFFFFFFFFFFFFFFFFFFFFFF
310
FFFFFFFFFFFFFFFFFFFFFFFFFFFFFFFFFFFFFFFFFFFFFFFFFFFFFFFFFFFFFFFF
310
FDFFFFFFFEFFFFFFFEFFFFFFFEFFFFFF05000000060000000700000008000000
310
090000000A0000000B0000000C0000000D0000000E0000000F00000010000000
310
11000000120000001300000014000000150000001600000017000000FEFFFFFF
310
FFFFFFFFFFFFFFFFFFFFFFFFFFFFFFFFFFFFFFFFFFFFFFFFFFFFFFFFFFFFFFFF
310
FFFFFFFFFFFFFFFFFFFFFFFFFFFFFFFFFFFFFFFFFFFFFFFFFFFFFFFFFFFFFFFF
310
FFFFFFFFFFFFFFFFFFFFFFFFFFFFFFFFFFFFFFFFFFFFFFFFFFFFFFFFFFFFFFFF
310
FFFFFFFFFFFFFFFFFFFFFFFFFFFFFFFFFFFFFFFFFFFFFFFFFFFFFFFFFFFFFFFF
310
FFFFFFFFFFFFFFFFFFFFFFFFFFFFFFFFFFFFFFFFFFFFFFFFFFFFFFFFFFFFFFFF
310
FFFFFFFFFFFFFFFFFFFFFFFFFFFFFFFFFFFFFFFFFFFFFFFFFFFFFFFFFFFFFFFF
310
FFFFFFFFFFFFFFFFFFFFFFFFFFFFFFFFFFFFFFFFFFFFFFFFFFFFFFFFFFFFFFFF
310
FFFFFFFFFFFFFFFFFFFFFFFFFFFFFFFFFFFFFFFFFFFFFFFFFFFFFFFFFFFFFFFF
310
FFFFFFFFFFFFFFFFFFFFFFFFFFFFFFFFFFFFFFFFFFFFFFFFFFFFFFFFFFFFFFFF
310
FFFFFFFFFFFFFFFFFFFFFFFFFFFFFFFFFFFFFFFFFFFFFFFFFFFFFFFFFFFFFFFF
310
FFFFFFFFFFFFFFFFFFFFFFFFFFFFFFFFFFFFFFFFFFFFFFFFFFFFFFFFFFFFFFFF
310
FFFFFFFFFFFFFFFFFFFFFFFFFFFFFFFFFFFFFFFFFFFFFFFFFFFFFFFFFFFFFFFF
310
FFFFFFFFFFFFFFFFFFFFFFFFFFFFFFFFFFFFFFFFFFFFFFFFFFFFFFFFFFFFFFFF
310
52006F006F007400200045006E00740072007900000000000000000000000000
310
0000000000000000000000000000000000000000000000000000000000000000
310
16000500FFFFFFFFFFFFFFFF020000000A00030000000000C000000000000046
310
000000000000000000000000A0AE33F01FA7D30103000000C000000000000000
310
01004F006C006500000000000000000000000000000000000000000000000000
310
0000000000000000000000000000000000000000000000000000000000000000
310
0A000200FFFFFFFFFFFFFFFFFFFFFFFF00000000000000000000000000000000
310
0000000000000000000000000000000000000000000000001400000000000000
310
010043006F006D0070004F0062006A0000000000000000000000000000000000
310
0000000000000000000000000000000000000000000000000000000000000000
310
120002010100000003000000FFFFFFFF00000000000000000000000000000000
310
0000000000000000000000000000000000000000010000004D00000000000000
310
01004F006C006500310030004E00610074006900760065000000000000000000
310
0000000000000000000000000000000000000000000000000000000000000000
310
1A000200FFFFFFFFFFFFFFFFFFFFFFFF00000000000000000000000000000000
310
0000000000000000000000000000000000000000040000002426000000000000
310
FEFFFFFF02000000FEFFFFFFFFFFFFFFFFFFFFFFFFFFFFFFFFFFFFFFFFFFFFFF
310
FFFFFFFFFFFFFFFFFFFFFFFFFFFFFFFFFFFFFFFFFFFFFFFFFFFFFFFFFFFFFFFF
310
FFFFFFFFFFFFFFFFFFFFFFFFFFFFFFFFFFFFFFFFFFFFFFFFFFFFFFFFFFFFFFFF
310
FFFFFFFFFFFFFFFFFFFFFFFFFFFFFFFFFFFFFFFFFFFFFFFFFFFFFFFFFFFFFFFF
310
FFFFFFFFFFFFFFFFFFFFFFFFFFFFFFFFFFFFFFFFFFFFFFFFFFFFFFFFFFFFFFFF
310
FFFFFFFFFFFFFFFFFFFFFFFFFFFFFFFFFFFFFFFFFFFFFFFFFFFFFFFFFFFFFFFF
310
FFFFFFFFFFFFFFFFFFFFFFFFFFFFFFFFFFFFFFFFFFFFFFFFFFFFFFFFFFFFFFFF
310
FFFFFFFFFFFFFFFFFFFFFFFFFFFFFFFFFFFFFFFFFFFFFFFFFFFFFFFFFFFFFFFF
310
FFFFFFFFFFFFFFFFFFFFFFFFFFFFFFFFFFFFFFFFFFFFFFFFFFFFFFFFFFFFFFFF
310
FFFFFFFFFFFFFFFFFFFFFFFFFFFFFFFFFFFFFFFFFFFFFFFFFFFFFFFFFFFFFFFF
310
FFFFFFFFFFFFFFFFFFFFFFFFFFFFFFFFFFFFFFFFFFFFFFFFFFFFFFFFFFFFFFFF
310
FFFFFFFFFFFFFFFFFFFFFFFFFFFFFFFFFFFFFFFFFFFFFFFFFFFFFFFFFFFFFFFF
310
FFFFFFFFFFFFFFFFFFFFFFFFFFFFFFFFFFFFFFFFFFFFFFFFFFFFFFFFFFFFFFFF
310
FFFFFFFFFFFFFFFFFFFFFFFFFFFFFFFFFFFFFFFFFFFFFFFFFFFFFFFFFFFFFFFF
310
FFFFFFFFFFFFFFFFFFFFFFFFFFFFFFFFFFFFFFFFFFFFFFFFFFFFFFFFFFFFFFFF
310
FFFFFFFFFFFFFFFFFFFFFFFFFFFFFFFFFFFFFFFFFFFFFFFFFFFFFFFFFFFFFFFF
310
0100000200000000000000000000000000000000000000000000000000000000
310
0000000000000000000000000000000000000000000000000000000000000000
310
0100FEFF030A0000FFFFFFFF0A00030000000000C00000000000004607000000
310
5042727573680007000000504272757368000700000050427275736800F439B2
310
7100000000000000000000000000000000000000000000000000000000000000
310
0000000000000000000000000000000000000000000000000000000000000000
310
0000000000000000000000000000000000000000000000000000000000000000
310
0000000000000000000000000000000000000000000000000000000000000000
310
0000000000000000000000000000000000000000000000000000000000000000
310
0000000000000000000000000000000000000000000000000000000000000000
310
0000000000000000000000000000000000000000000000000000000000000000
310
0000000000000000000000000000000000000000000000000000000000000000
310
0000000000000000000000000000000000000000000000000000000000000000
310
0000000000000000000000000000000000000000000000000000000000000000
310
0000000000000000000000000000000000000000000000000000000000000000
310
0000000000000000000000000000000000000000000000000000000000000000
310
20260000424D0E260000000000003E00000028000000B40200006E0000000100
310
01000000000000000000130B0000130B00000200000002000000000000FFFFFF
310
FFFFFFFFFFFFFFFFFFFFFFFFFFFFFFFFFFFFFFFFFFFFFFFFFFFFFFFFFFFFFFFF
310
FFFFFFFFFFFFFFFFFFFFFFFFFFFFFFFFFFFFFFFFFFFFFFFFFFFFFFFFFFFFFFFF
310
FFFFFFFFFFFFFFFFFFFFFFFFFFFFFFFFFFFFFFFFFFFFFFFFF000FFFFFFFFFFFF
310
FFFFFFFFFFFFFFFFFFFFFFFFFFFFFFFFFFFFFFFFFFFFFFFFFFFFFFFFFFFFFFFF
310
FFFFFFFFFFFFFFFFFFFFFFFFFFFFFFFFFFFFFFFFFFFFFFFFFFFFFFFFFFFFFFFF
310
FFFFFFFFFFFFFFFFFFFFFFFFFFFFFFFFF000FFFFFFFFFFFFFFFFFFFFFFFFFFFF
310
FFFFFFFFFFFFFFFFFFFFFFFFFFFFFFFFFFFFFFFFFFFFFFFFFFFFFFFFFFFFFFFF
310
FFFFFFFFFFFFFFFFFFFFFFFFFFFFFFFFFFFFFFFFFFFFFFFFFFFFFFFFFFFFFFFF
310
FFFFFFFFFFFFFFFFF000FFFFFFFFFFFFFFFFFFFFFFFFFFFFFFFFFFFFFFFFFFFF
310
FFFFFFFFFFFFFFFFFFFFFFFFFFFFFFFFFFFFFFFFFFFFFFFFFFFFFFFFFFFFFFFF
310
FFFFFFFFFFFFFFFFFFFFFFFFFFFFFFFFFFFFFFFFFFFFFFFFFFFFFFFFFFFFFFFF
310
F000FFFFFFFFFFFFFFFFFFFFFFFFFFFFFFFFFFFFFFFFFFFFFFFFFFFFFFFFFFFF
310
FFFFFFFFFFFFFFFFFFFFFFFFFFFFFFFFFFFFFFFFFFFFFFFFFFFFFFFFFFFFFFFF
310
FFFFFFFFFFFFFFFFFFFFFFFFFFFFFFFFFFFFFFFFFFFFFFFFF000FFFFFFFFFFFF
310
FFFFFFFFFFFFFFFFFFFFFFFFFFFFFFFFFFFFFFFFFFFFFFFFFFFFFFFFFFFFFFFF
310
FFFFFFFFFFFFFFFFFFFFFFFFFFFFFFFFFFFFFFFFFFFFFFFFFFFFFFFFFFFFFFFF
310
FFFFFFFFFFFFFFFFFFFFFFFFFFFFFFFFF000FFFFFFFFFFFFFFFFFFFFFFFFFFFF
310
FFFFFFFFFFFFFFFFFFFFFFFFFFFFFFFFFFFFFFFFFFFFFFFFFFFFFFFFFFFFFFFF
310
FFFFFFFFFFFFFFFFFFFFFFFFFFFFFFFFFFFFFFFFFFFFFFFFFFFFFFFFFFFFFFFF
310
FFFFFFFFFFFFFFFFF000FFFFFFFFFFFFFFFFFFFFFFFFFFFFFFFFFFFFFFFFFFFF
310
FFFFFFFFFFFFFFFFFFFFFFFFFFFFFFFFFFFFFFFFFFFFFFFFFFFFFFFFFFFFFFFF
310
FFFFFFFFFFFFFFFFFFFFFFFFFFFFFFFFFFFFFFFFFFFFFFFFFFFFFFFFFFFFFFFF
310
F000FFFFFFFFFFFFFFFFFFFFFFFFFFFFFFFFFFFFFFFFFFFFFFFFFFFFFFFFFFFF
310
FFFFFFFFFFFFFFFFFFFFFFFFFFFFFFFFFFFFFFFFFFFFFFFFFFFFFFFFFFFFFFFF
310
FFFFFFFFFFFFFFFFFFFFFFFFFFFFFFFFFFFFFFFFFFFFFFFFF000FFFFFFFFFFFF
310
FFFFFFFFFFFFFFFFFFFFFFFFFFFFFFFFFFFFFFFFFFFFFFFFFFFFFFFFFFFFFFFF
310
FFFFFFFFFFFFFFFFFFFFFFFFFFFFFFFFFFFFFFFFFFFFFFFFFFFFFFFFFFFFFFFF
310
FFFFFFFFFFFFFFFFFFFFFFFFFFFFFFFFF000FFFFFFFFFFFFFFFFFFFFFFFFFFFF
310
FFFFFFFFFFFFFFFFFFFFFFFFFFFFFFFFFFFFFFFFFFFFFFFFFFFFFFFFFFFFFFFF
310
FFFFFFFFFFFFFFFFFFFFFFFFFFFFFFFFFFFFFFFFFFFFFFFFFFFFFFFFFFFFFFFF
310
FFFFFFFFFFFFFFFFF000FFFFFFFFFFFFFFFFFFFFFFFFFFFFFFFFFFFFFFFFFFFF
310
FFFFFFFFFFFFFFFFFFFFFFFFFFFFFFFFFFFFFFFFFFFFFFFFFFFFFFFFFFFFFFFF
310
FFFFFFFFFFFFFFFFFFFFFFFFFFFFFFFFFFFFFFFFFFFFFFFFFFFFFFFFFFFFFFFF
310
F000FFFFFFFFFFFFFFFFFFFFFFFFFFFFFFFFFFFFFFFFFFFFFFFFFFFFFFFFFFFF
310
FFFFFFFFFFFFFFFFFFFFFFFFFFFFFFFFFFFFFFFFFFFFFFFFFFFFFFFFFFFFFFFF
310
FFFFFFFFFFFFFFFFFFFFFFFFFFFFFFFFFFFFFFFFFFFFFFFFF000FFFFFFFFFFFF
310
FFFFFFFFFFFFFFFFFFFFFFFFFFFFFFFFFFFFFFFFFFFFFFFFFFFFFFFFFFFFFFFF
310
FFFFFFFFFFFFFFFFFFFFFFFFFFFFFFFFFFFFFFFFFFFFFFFFFFFFFFFFFFFFFFFF
310
FFFFFFFFFFFFFFFFFFFFFFFFFFFFFFFFF000FFFFFFFFFFFFFFFFFFFFFFFFFFFF
310
FFFFFFFFFFFFFFFFFFFFFFFFFFFFFFFFFFFFFFFFFFFFFFFFFFFFFFFFFFFFFFFF
310
FFFFFFFFFFFFFFFFFFFFFFFFFFFFFFFFFFFFFFFFFFFFFFFFFFFFFFFFFFFFFFFF
310
FFFFFFFFFFFFFFFFF000FFFFFFFFFFFFFFFFFFFFFFFFFFFFFFFFFFFFFFFFFFFF
310
FFFFFFFFFFFFFFFFFFFFFFFFFFFFFFFFFFFFFFFFFFFFFFFFFFFFFFFFFFFFFFFF
310
FFFFFFFFFFFFFFFFFFFFFFFFFFFFFFFFFFFFFFFFFFFFFFFFFFFFFFFFFFFFFFFF
310
F000FFFFFFFFFFFFFFFFFFFFFFFFFFFFFFFFFFFFFFFFFFFFFFFFFFFFFFFFFFFF
310
FFFFFFFFFFFFFFFFFFFFFFFFFFFFFFFFFFFFFFFFFFFFFFFFFFFFFFFFFFFFFFFF
310
FFFFFFFFFFFFFFFFFFFFFFFFFFFFFFFFFFFFFFFFFFFFFFFFF000FFFFFFFFFFFF
310
FFFFFFFFFFFFFFFFFFFFFFFFFFFFFFFFFFFFFFFFFFFFFFFFFFFFFFFFFFFFFFFF
310
FFFFFFFFFFFFFFFFFFFFFFFFFFFFFFFFFFFFFFFFFFFFFFFFFFFFFFFFFFFFFFFF
310
FFFFFFFFFFFFFFFFFFFFFFFFFFFFFFFFF000FFFFFFFFFFFFFFFFFFFFFFFFFFFF
310
FFFFFFFFFFFFFFFFFFFFFFFFFFFFFFFFFFFFFFFFFFFFFFFFFFFFFFFFFFFFFFFF
310
FFFFFFFFFFFFFFFFFFFFFFFFFFFFFFFFFFFFFFFFFFFFFFFFFFFFFFFFFFFFFFFF
310
FFFFFFFFFFFFFFFFF000FFFFF80003FFFFFFFFFFFFFFFFFFFFFFFFFFFFFFFFFF
310
FFFFF00007FFFFFFFFFF00007FFFFFF800000000000000007FFFFFFFFFFFFFFF
310
FFFFFFFC001FFFFFFFFFFFFFFC001FFFFFFFFFFFFFFFFFFFFFFFFFFE0007FFFF
310
F000FFFF8000007FFFFFFFF8000FFFFFC0007FFFFF80007FFFFF0000007FFFFF
310
FFF8000007FFFFF800000000000000007FFFFFF0001FFFFFFFFFFFC00001FFFF
310
FFFFFFFFC00001FFFFFFFF000000000003FFFFE000007FFFF000FFFE0000000F
310
FFFFFFF0000FFFFF80007FFFFF80007FFFFC0000001FFFFFFFC0000001FFFFF8
310
00000000000000007FFFFFF0001FFFFFFFFFFE0000003FFFFFFFFFFE0000003F
310
FFFFFF000000000003FFFF0000000FFFF000FFF800000003FFFFFFF00007FFFF
310
80007FFFFF80007FFFF000000007FFFFFF000000003FFFF80000000000000000
310
7FFFFFF0001FFFFFFFFFF80000000FFFFFFFFFF80000000FFFFFFF0000000000
310
03FFFC00000003FFF000FFE000000000FFFFFFF00007FFFF80003FFFFF80007F
310
FFC000000001FFFFFC000000001FFFF800000000000000007FFFFFF0001FFFFF
310
FFFFE000000003FFFFFFFFE000000003FFFFFF000000000003FFF000000000FF
310
F000FF80000000007FFFFFF00007FFFF80003FFFFF80007FFF8000000000FFFF
310
F80000000007FFF800000000000000007FFFFFF0001FFFFFFFFFC000000001FF
310
FFFFFFC000000001FFFFFF000000000003FFC0000000007FF000FF0000000000
310
3FFFFFE00007FFFF00003FFFFF80007FFE00000000003FFFF00000000003FFF8
310
00000000000000007FFFFFF0001FFFFFFFFF8000000000FFFFFFFF8000000000
310
FFFFFF000000000003FF80000000003FF000FE00000000001FFFFFE00003FFFF
310
00003FFFFF80007FFC00000000001FFFE00000000001FFF8000001FFFE000000
310
7FFFFFF0001FFFFFFFFE00000000003FFFFFFE00000000003FFFFF0000000000
310
03FF00000000001FF000FC00000000000FFFFFE00003FFFF00001FFFFF80007F
310
F800000000001FFFC00000000000FFF8000001FFFE0000007FFFFFF0001FFFFF
310
FFFC00000000001FFFFFFC00000000001FFFFF000000000003FE00000000000F
310
F000F8000000000007FFFFE00003FFFF00001FFFFF80007FF800000000000FFF
310
800000000000FFF8000001FFFE0000007FFFFFF0001FFFFFFFF800000000000F
310
FFFFF800000000000FFFFF000000000003FC000000000007F000F80000000000
310
03FFFFC00003FFFE00001FFFFF80007FF0000000000007FF0000000000007FF8
310
000001FFFE0000007FFFFFF0001FFFFFFFF0000000000007FFFFF00000000000
310
07FFFF000000000003F8000000000003F000F0000000000003FFFFC00001FFFE
310
00001FFFFF80007FE0000000000007FE0000000000003FF8000001FFFE000000
310
7FFFFFF0001FFFFFFFF0000000000007FFFFF0000000000007FFFF0000000000
310
03F800001F800003F000E00001FFF00001FFFFC00001FFFE00000FFFFF80007F
310
E00001FFE00003FE00001FFF00003FF8000001FFFE0000007FFFFFF0001FFFFF
310
FFE000003E000003FFFFE000003E000003FFFF000000000003F00001FFF80001
310
F000E00007FFFC0001FFFFC00001FFFE00000FFFFF80007FC0000FFFFC0003FC
310
0000FFFFC0001FF8000001FFFE0000007FFFFFF0001FFFFFFFC00003FFE00001
310
FFFFC00003FFE00001FFFF0001FFFFFFFFF00007FFFE0001F000E0000FFFFF00
310
00FFFF800001FFFC00000FFFFF80007FC0001FFFFE0001FC0001FFFFE0001FF8
310
000001FFFE0000007FFFFFF0001FFFFFFF80000FFFF80000FFFF80000FFFF800
310
00FFFF0003FFFFFFFFE0000FFFFF8000F000C0003FFFFF8000FFFF800000FFFC
310
000007FFFF80007F80003FFFFF0001FC0003FFFFF0001FF8000001FFFE000000
310
7FFFFFF0001FFFFFFF80003FFFFE0000FFFF80003FFFFE0000FFFF0003FFFFFF
310
FFE0003FFFFF8000F000C0003FFFFF8000FFFF800000FFFC000007FFFF80007F
310
80007FFFFF8001F80007FFFFF8000FF8000001FFFE0000007FFFFFF0001FFFFF
310
FF00007FFFFF00007FFF00007FFFFF00007FFF0003FFFFFFFFE0003FFFFFC000
310
F000C0007FFFFFC000FFFF000000FFFC000007FFFF80007F8000FFFFFF8000F8
310
000FFFFFF8000FF8000001FFFE0000007FFFFFF0001FFFFFFF0000FFFFFF8000
310
7FFF0000FFFFFF80007FFF0003FFFFFFFFC0007FFFFFC00070008000FFFFFFC0
310
00FFFF000000FFF8000007FFFF80007F8000FFFFFF8000F8000FFFFFF8000FF8
310
000001FFFE0000007FFFFFF0001FFFFFFE0001FFFFFFC0003FFE0001FFFFFFC0
310
003FFF0003FFFFFFFFC0007FFFFFE00070008000FFFFFFC0007FFF0000007FF8
310
000003FFFF80007F0001FFFFFF8000F8000FFFFFF8000FF8000001FFFE000000
310
7FFFFFF0001FFFFFFE0001FFFFFFC0003FFE0001FFFFFFC0003FFF0003FFFFFF
310
FFC000FFFFFFE00070008000FFFFFFC0007FFF0000007FF8000003FFFF80007F
310
0001FFFFFF8000F8001FFFFFF8000FF8000001FFFE0000007FFFFFF0001FFFFF
310
FE0003FFFFFFE0003FFE0003FFFFFFE0003FFF0003FFFFFFFFC000FFFFFFE000
310
70008000FFFFFFC0007FFE0000007FF8000003FFFF80007F0001FFFFFF8000F0
310
001FFFFFF8000FF8000001FFFE0000007FFFFFF0001FFFFFFC0003FFFFFFE000
310
1FFC0003FFFFFFE0001FFF0003FFFFFFFFC000FFFFFFC00070008000FFFFFF80
310
007FFE0000007FF0000003FFFF80007F0001FFFFFF0000F0001FFFFFF8000FF8
310
000001FFFE0000007FFFFFF0001FFFFFFC0007FFFFFFF0001FFC0007FFFFFFF0
310
001FFF0003FFFFFFFFC000FFFFFFC00070008001FFFFFF0000FFFE0000003FF0
310
000001FFFF80007F0001FFFFFF0000F8001FFFFFF0000FF8000001FFFE000000
310
7FFFFFF0001FFFFFFC0007FFFFFFF0001FFC0007FFFFFFF0001FFF0003FFFFFF
310
FFC001FFFFFF80007000FFFFFFFFFE0000FFFE0008003FF0008001FFFF80007F
310
FFFFFFFFFC0000FFFFFFFFFFE0000FF8000001FFFE0000007FFFFFF0001FFFFF
310
F8000FFFFFFFF8000FF8000FFFFFFFF8000FFF0003FFFFFFFFFFFFFFFFFF0000
310
7000FFFFFFFFFC0000FFFC0008003FF0008001FFFF80007FFFFFFFFFF80001FF
310
FFFFFFFF80000FF8000001FFFE0000007FFFFFF0001FFFFFF8000FFFFFFFF800
310
0FF8000FFFFFFFF8000FFF0003FFFFFFFFFFFFFFFFFE0000F000FFFFFFFFE000
310
00FFFC000C003FE000C001FFFF80007FFFFFFFFFC00001FFFFFFFFFE00001FF8
310
000001FFFE0000007FFFFFF0001FFFFFF8000FFFFFFFF8000FF8000FFFFFFFF8
310
000FFF0003FFFFFFFFFFFFFFFFF00000F000FFFFFFFE000001FFFC000C001FE0
310
00C000FFFF80007FFFFFFFFE000001FFFFFFFFE000001FF80FFFFFFFFFFFFFC0
310
7FFFFFF0001FFFFFF8000FFFFFFFF8000FF8000FFFFFFFF8000FFF0003FFFFFF
310
FFFFFFFFFF800000F000FFFFFFC0000001FFFC001C001FE001C000FFFF80007F
310
FFFFFF80000003FFFFFFF80000001FF80FFFFFFFFFFFFFC07FFFFFF0001FFFFF
310
F8001FFFFFFFFC000FF8001FFFFFFFFC000FFF0003FFFFFFFFFFFFFFF0000001
310
F000FFFFF800000001FFF8001C001FE001C000FFFF80007FFFFFF800000003FF
310
FFFF800000003FF80FFFFFFFFFFFFFC07FFFFFF0001FFFFFF8001FFFFFFFFC00
310
0FF8001FFFFFFFFC000FFF0003FFFFFFFFFFFFFE00000001F000FFFFC0000000
310
03FFF8001E001FC001E000FFFF80007FFFFF8000000007FFFFFC000000003FF8
310
0FFFFFFFFFFFFFC07FFFFFF0001FFFFFF8001FFFFFFFFC000FF8001FFFFFFFFC
310
000FFF0003FFFFFFFFFFFFE000000003F000FFFE0000000007FFF8001E000FC0
310
01E0007FFF80007FFFFE0000000007FFFFE0000000007FF80FFFFFFFFFFFFFC0
310
7FFFFFF0001FFFFFF0001FFFFFFFFC0007F0001FFFFFFFFC0007FF0003FFFFFF
310
FFFFFF0000000003F000FFF80000000007FFF8001E000FC003E0007FFF80007F
310
FFF0000000000FFFFF8000000000FFF80FFFFFFFFFFFFFC07FFFFFF0001FFFFF
310
F0001FFFFFFFFC0007F0001FFFFFFFFC0007FF0003FFFFFFFFFFFC0000000007
310
F000FFE0000000000FFFF0003E000FC003E0007FFF80007FFFC0000000001FFF
310
FE0000000001FFF80FFFFFFFFFFFFFC07FFFFFF0001FFFFFF0001FFFFFFFFC00
310
07F0001FFFFFFFFC0007FF0003FFFFFFFFFFF0000000000FF000FFC000000000
310
1FFFF0003F000F8003F0003FFF80007FFF80000000003FFFF80000000003FFF8
310
0FFFFFFFFFFFFFC07FFFFFF0001FFFFFF0001FFFFFFFFC0007F0001FFFFFFFFC
310
0007FF0003FFFFFFFFFFE0000000001FF000FF00000000007FFFF0003F000780
310
03F0003FFF80007FFF00000000007FFFF00000000007FFF80FFFFFFFFFFFFFC0
310
7FFFFFF0001FFFFFF0001FFFFFFFFC0007F0001FFFFFFFFC0007FF0003FFFFFF
310
FFFF80000000007FF000FE0000000000FFFFE0003F00078007F0003FFF80007F
310
FE0000000001FFFFE0000000001FFFF80FFFFFFFFFFFFFC07FFFFFF0001FFFFF
310
F0001FFFFFFFFC0007F0001FFFFFFFFC0007FF0003FFFFFFFFFF0000000000FF
310
F000FC0000000003FFFFE0007F00078007F0003FFF80007FFC0000000007FFFF
310
C0000000007FFFF80FFFFFFFFFFFFFC07FFFFFF0001FFFFFF8001FFFFFFFFC00
310
0FF8001FFFFFFFFC000FFF0003FFFFFFFFFE0000000003FFF000FC000000000F
310
FFFFE0007F80070007F8001FFF80007FF8000000001FFFFF8000000001FFFFF8
310
0FFFFFFFFFFFFFC07FFFFFF0001FFFFFF8001FFFFFFFFC000FF8001FFFFFFFFC
310
000FFF0003FFFFFFFFFC000000000FFFF000F8000000007FFFFFE0007F800700
310
07F8001FFF80007FF000000000FFFFFF800000000FFFFFF80FFFFFFFFFFFFFC0
310
7FFFFFF0001FFFFFF8000FFFFFFFF8000FF8000FFFFFFFF8000FFF0003FFFFFF
310
FFFC000000007FFFF000F800000007FFFFFFC0007F8003000FF8001FFF80007F
310
F000000007FFFFFF000000007FFFFFF80FFFFFFFFFFFFFC07FFFFFF0001FFFFF
310
F8000FFFFFFFF8000FF8000FFFFFFFF8000FFF0003FFFFFFFFF80000000FFFFF
310
F000F0000000FFFFFFFFC000FF8003000FF8001FFF80007FE0000000FFFFFFFF
310
0000000FFFFFFFF8000001FFFE0000007FFFFFF0001FFFFFF8000FFFFFFFF800
310
0FF8000FFFFFFFF8000FFF0003FFFFFFFFF8000000FFFFFFF000F000000FFFFF
310
FFFFC000FFC002000FF8000FFF80007FE000001FFFFFFFFE000001FFFFFFFFF8
310
000001FFFE0000007FFFFFF0001FFFFFF8000FFFFFFFF8000FF8000FFFFFFFF8
310
000FFF0003FFFFFFFFF000001FFFFFFFF000E00000FFFFFFFFFFC000FFC00200
310
0FFC000FFF80007FE00001FFFFFFFFFE00001FFFFFFFFFF8000001FFFE000000
310
7FFFFFF0001FFFFFFC000FFFFFFFF8001FFC000FFFFFFFF8001FFF0003FFFFFF
310
FFF00001FFFFFFFFF000E00007FFFFFFFFFF8000FFC000001FFC000FFF80007F
310
C0000FFFFFFFFFFE0000FFFFFFFFFFF8000001FFFE0000007FFFFFF0001FFFFF
310
FC0007FFFFFFF0001FFC0007FFFFFFF0001FFF0003FFFFFFFFF00007FFFFFFFF
310
F000E0001FFFFFFFFFFF8000FFC000001FFC000FFF80007FC0003FFFFFFFFFFE
310
0001FFFFFFFFFFF8000001FFFE0000007FFFFFF0001FFFFFFC0007FFFFFFF000
310
1FFC0007FFFFFFF0001FFF0003FFFFFFFFF0001FFFFFFFFFF000E0003FFFFF00
310
03FF8001FFE000001FFC0007FF80007FC0007FFFFF0007FC0003FFFFF0003FF8
310
000001FFFE0000007FFFFFF0001FFFFFFC0003FFFFFFE0001FFC0003FFFFFFE0
310
001FFF0003FFFFFFFFF0003FFFFFFFFFF000E0003FFFFF0001FF8001FFE00000
310
1FFE0007FF80007FC0007FFFFE0003FC0007FFFFE0003FF8000001FFFE000000
310
7FFFFFF0001FFFFFFE0003FFFFFFE0003FFE0003FFFFFFE0003FFF0003FFFFFF
310
FFF0003FFFFF8001F000E0003FFFFF0001FF0001FFE000001FFE0007FF80007F
310
C0007FFFFE0003FC0007FFFFE0003FF8000001FFFE0000007FFFFFF0001FFFFF
310
FE0001FFFFFFC0003FFE0001FFFFFFC0003FFF0003FFFFFFFFF0003FFFFF0001
310
F000E0003FFFFF0003FF0001FFE000003FFE0007FF80007FC0007FFFFE0003FC
310
0007FFFFE0003FF8000001FFFE0000007FFFFFF0001FFFFFFF0001FFFFFFC000
310
7FFF0001FFFFFFC0007FFF0003FFFFFFFFF0003FFFFF0001F000E0003FFFFE00
310
03FF0003FFF000003FFE0003FF80007FC0007FFFFC0003FE0007FFFFE0003FF8
310
000001FFFE0000007FFFFFF0001FFFFFFF0000FFFFFF80007FFF0000FFFFFF80
310
007FFF0003FFFFFFFFF0003FFFFF0001F000E0003FFFFE0003FF0003FFF00000
310
3FFF0003FF80007FC0007FFFFC0007FE0007FFFFC0003FF8000001FFFE000000
310
7FFFFFF0001FFFFFFF80007FFFFF0000FFFF80007FFFFF0000FFFF0003FFFFFF
310
FFF0003FFFFF0003F000E0003FFFFC0003FE0003FFF000003FFF0003FF80007F
310
E0003FFFF80007FE0003FFFFC0007FF8000001FFFE0000007FFFFFF0001FFFFF
310
FF80003FFFFE0000FFFF80003FFFFE0000FFFF0003FFFFFFFFF0001FFFFE0003
310
F000F0001FFFF80003FE0003FFF000007FFF0001FF80007FE0003FFFF00007FE
310
0001FFFF80007FF8000001FFFE0000007FFFFFF0001FFFFFFFC0000FFFF80001
310
FFFFC0000FFFF80001FFFF0003FFFFFFFFF0001FFFFC0003F000F0000FFFF000
310
07FE0007FFF800007FFF0001FF80007FE0001FFFE00007FF0000FFFE00007FF8
310
000001FFFE0000007FFFFFF0001FFFFFFFC00003FFE00001FFFFC00003FFE000
310
01FFFF0003FFFFFFFFF8000FFFF80003F000F00003FFC00007FC0007FFF80000
310
7FFF8001FF80007FF00007FF80000FFF00007FF80000FFF8000001FFFE000000
310
7F80000000000001FFE000003E000003FFFFE000003E000003FFFF0003FFFFFF
310
FFF80003FFE00007F000F800000000000FFC0007FFF800007FFF8001FF80007F
310
F000000000000FFF000000000000FFF8000001FFFE0000007F80000000000001
310
FFF0000000000007FFFFF0000000000007FFFF0003FFFFFFFFFC00007E000007
310
F000F800000000000FFC0007FFF80000FFFF8000FF80007FF800000000001FFF
310
800000000001FFF8000001FFFE0000007F80000000000001FFF800000000000F
310
FFFFF800000000000FFFFF0003FFFFFFFFFC00000000000FF000FC0000000000
310
1FFC0007FFFC0000FFFF8000FF80007FF800000000003FFFC00000000001FFF8
310
000001FFFE0000007F80000000000001FFF800000000000FFFFFF80000000000
310
0FFFFF0003FFFFFFFFFE00000000001FF000FE00000000003FF8000FFFFC0000
310
FFFF8000FF80007FFC00000000003FFFC00000000003FFF8000001FFFE000000
310
7F80000000000001FFFC00000000001FFFFFFC00000000001FFFFF0003FFFFFF
310
FFFF00000000001FF000FF00000000003FF8000FFFFC0000FFFFC000FF80007F
310
FE00000000007FFFE00000000007FFF8000001FFFE0000007F80000000000001
310
FFFE00000000003FFFFFFE00000000003FFFFF0003FFFFFFFFFF80000000003F
310
F000FF80000000007FF8000FFFFC0001FFFFC0007F80007FFF0000000000FFFF
310
F0000000000FFFF800000000000000007F80000000000001FFFF8000000000FF
310
FFFFFF8000000000FFFFFF0003FFFFFFFFFFC0000000007FF000FFC000000000
310
FFF8000FFFFE0001FFFFC0007F80007FFF8000000001FFFFF8000000001FFFF8
310
00000000000000007F80000000000001FFFFC000000001FFFFFFFFC000000001
310
FFFFFF0003FFFFFFFFFFE000000000FFF000FFE000000003FFF0001FFFFE0001
310
FFFFC0007F80007FFFC000000007FFFFFE000000003FFFF80000000000000000
310
7F80000000000001FFFFE000000003FFFFFFFFE000000003FFFFFF0003FFFFFF
310
FFFFF000000003FFF000FFF80000000FFFF0001FFFFE0001FFFFE0007F80007F
310
FFF00000000FFFFFFF00000000FFFFF800000000000000007F80000000000001
310
FFFFF80000000FFFFFFFFFF80000000FFFFFFF0003FFFFFFFFFFFC0000000FFF
310
F000FFFE0000003FFFF0001FFFFE0003FFFFE0003F80007FFFFC0000003FFFFF
310
FFC0000003FFFFF800000000000000007F80000000000001FFFFFE0000003FFF
310
FFFFFFFE0000003FFFFFFF0003FFFFFFFFFFFF0000003FFFF000FFFF800000FF
310
FFF0001FFFFF0003FFFFE0003F80007FFFFF000001FFFFFFFFF800001FFFFFF8
310
00000000000000007F80000000000001FFFFFFC00001FFFFFFFFFFFFC00001FF
310
FFFFFF0003FFFFFFFFFFFFC00000FFFFF000FFFFF8000FFFFFFFFFFFFFFFFFFF
310
FFFFFFFFFFFFFFFFFFFFF0001FFFFFFFFFFF0000FFFFFFF80000000000000000
310
7FFFFFFFFFFFFFFFFFFFFFFC001FFFFFFFFFFFFFFC001FFFFFFFFFFFFFFFFFFF
310
FFFFFFFC001FFFFFF000FFFFFFFFFFFFFFFFFFFFFFFFFFFFFFFFFFFFFFFFFFFF
310
FFFFFFFFFFFFFFFFFFFFFFFFFFFFFFFFFFFFFFFFFFFFFFFFFFFFFFFFFFFFFFFF
310
FFFFFFFFFFFFFFFFFFFFFFFFFFFFFFFFFFFFFFFFFFFFFFFFFFFFFFFFFFFFFFFF
310
F000FFFFFFFFFFFFFFFFFFFFFFFFFFFFFFFFFFFFFFFFFFFFFFFFFFFFFFFFFFFF
310
FFFFFFFFFFFFFFFFFFFFFFFFFFFFFFFFFFFFFFFFFFFFFFFFFFFFFFFFFFFFFFFF
310
FFFFFFFFFFFFFFFFFFFFFFFFFFFFFFFFFFFFFFFFFFFFFFFFF000FFFFFFFFFFFF
310
FFFFFFFFFFFFFFFFFFFFFFFFFFFFFFFFFFFFFFFFFFFFFFFFFFFFFFFFFFFFFFFF
310
FFFFFFFFFFFFFFFFFFFFFFFFFFFFFFFFFFFFFFFFFFFFFFFFFFFFFFFFFFFFFFFF
310
FFFFFFFFFFFFFFFFFFFFFFFFFFFFFFFFF000FFFFFFFFFFFFFFFFFFFFFFFFFFFF
310
FFFFFFFFFFFFFFFFFFFFFFFFFFFFFFFFFFFFFFFFFFFFFFFFFFFFFFFFFFFFFFFF
310
FFFFFFFFFFFFFFFFFFFFFFFFFFFFFFFFFFFFFFFFFFFFFFFFFFFFFFFFFFFFFFFF
310
FFFFFFFFFFFFFFFFF000FFFFFFFFFFFFFFFFFFFFFFFFFFFFFFFFFFFFFFFFFFFF
310
FFFFFFFFFFFFFFFFFFFFFFFFFFFFFFFFFFFFFFFFFFFFFFFFFFFFFFFFFFFFFFFF
310
FFFFFFFFFFFFFFFFFFFFFFFFFFFFFFFFFFFFFFFFFFFFFFFFFFFFFFFFFFFFFFFF
310
F000FFFFFFFFFFFFFFFFFFFFFFFFFFFFFFFFFFFFFFFFFFFFFFFFFFFFFFFFFFFF
310
FFFFFFFFFFFFFFFFFFFFFFFFFFFFFFFFFFFFFFFFFFFFFFFFFFFFFFFFFFFFFFFF
310
FFFFFFFFFFFFFFFFFFFFFFFFFFFFFFFFFFFFFFFFFFFFFFFFF000FFFFFFFFFFFF
310
FFFFFFFFFFFFFFFFFFFFFFFFFFFFFFFFFFFFFFFFFFFFFFFFFFFFFFFFFFFFFFFF
310
FFFFFFFFFFFFFFFFFFFFFFFFFFFFFFFFFFFFFFFFFFFFFFFFFFFFFFFFFFFFFFFF
310
FFFFFFFFFFFFFFFFFFFFFFFFFFFFFFFFF000FFFFFFFFFFFFFFFFFFFFFFFFFFFF
310
FFFFFFFFFFFFFFFFFFFFFFFFFFFFFFFFFFFFFFFFFFFFFFFFFFFFFFFFFFFFFFFF
310
FFFFFFFFFFFFFFFFFFFFFFFFFFFFFFFFFFFFFFFFFFFFFFFFFFFFFFFFFFFFFFFF
310
FFFFFFFFFFFFFFFFF000FFFFFFFFFFFFFFFFFFFFFFFFFFFFFFFFFFFFFFFFFFFF
310
FFFFFFFFFFFFFFFFFFFFFFFFFFFFFFFFFFFFFFFFFFFFFFFFFFFFFFFFFFFFFFFF
310
FFFFFFFFFFFFFFFFFFFFFFFFFFFFFFFFFFFFFFFFFFFFFFFFFFFFFFFFFFFFFFFF
310
F000FFFFFFFFFFFFFFFFFFFFFFFFFFFFFFFFFFFFFFFFFFFFFFFFFFFFFFFFFFFF
310
FFFFFFFFFFFFFFFFFFFFFFFFFFFFFFFFFFFFFFFFFFFFFFFFFFFFFFFFFFFFFFFF
310
FFFFFFFFFFFFFFFFFFFFFFFFFFFFFFFFFFFFFFFFFFFFFFFFF000FFFFFFFFFFFF
310
FFFFFFFFFFFFFFFFFFFFFFFFFFFFFFFFFFFFFFFFFFFFFFFFFFFFFFFFFFFFFFFF
310
FFFFFFFFFFFFFFFFFFFFFFFFFFFFFFFFFFFFFFFFFFFFFFFFFFFFFFFFFFFFFFFF
310
FFFFFFFFFFFFFFFFFFFFFFFFFFFFFFFFF000FFFFFFFFFFFFFFFFFFFFFFFFFFFF
310
FFFFFFFFFFFFFFFFFFFFFFFFFFFFFFFFFFFFFFFFFFFFFFFFFFFFFFFFFFFFFFFF
310
FFFFFFFFFFFFFFFFFFFFFFFFFFFFFFFFFFFFFFFFFFFFFFFFFFFFFFFFFFFFFFFF
310
FFFFFFFFFFFFFFFFF000FFFFFFFFFFFFFFFFFFFFFFFFFFFFFFFFFFFFFFFFFFFF
310
FFFFFFFFFFFFFFFFFFFFFFFFFFFFFFFFFFFFFFFFFFFFFFFFFFFFFFFFFFFFFFFF
310
FFFFFFFFFFFFFFFFFFFFFFFFFFFFFFFFFFFFFFFFFFFFFFFFFFFFFFFFFFFFFFFF
310
F000FFFFFFFFFFFFFFFFFFFFFFFFFFFFFFFFFFFFFFFFFFFFFFFFFFFFFFFFFFFF
310
FFFFFFFFFFFFFFFFFFFFFFFFFFFFFFFFFFFFFFFFFFFFFFFFFFFFFFFFFFFFFFFF
310
FFFFFFFFFFFFFFFFFFFFFFFFFFFFFFFFFFFFFFFFFFFFFFFFF000FFFFFFFFFFFF
310
FFFFFFFFFFFFFFFFFFFFFFFFFFFFFFFFFFFFFFFFFFFFFFFFFFFFFFFFFFFFFFFF
310
FFFFFFFFFFFFFFFFFFFFFFFFFFFFFFFFFFFFFFFFFFFFFFFFFFFFFFFFFFFFFFFF
310
FFFFFFFFFFFFFFFFFFFFFFFFFFFFFFFFF000FFFFFFFFFFFFFFFFFFFFFFFFFFFF
310
FFFFFFFFFFFFFFFFFFFFFFFFFFFFFFFFFFFFFFFFFFFFFFFFFFFFFFFFFFFFFFFF
310
FFFFFFFFFFFFFFFFFFFFFFFFFFFFFFFFFFFFFFFFFFFFFFFFFFFFFFFFFFFFFFFF
310
FFFFFFFFFFFFFFFFF000FFFFFFFFFFFFFFFFFFFFFFFFFFFFFFFFFFFFFFFFFFFF
310
FFFFFFFFFFFFFFFFFFFFFFFFFFFFFFFFFFFFFFFFFFFFFFFFFFFFFFFFFFFFFFFF
310
FFFFFFFFFFFFFFFFFFFFFFFFFFFFFFFFFFFFFFFFFFFFFFFFFFFFFFFFFFFFFFFF
310
F000FFFFFFFFFFFFFFFFFFFFFFFFFFFFFFFFFFFFFFFFFFFFFFFFFFFFFFFFFFFF
310
FFFFFFFFFFFFFFFFFFFFFFFFFFFFFFFFFFFFFFFFFFFFFFFFFFFFFFFFFFFFFFFF
310
FFFFFFFFFFFFFFFFFFFFFFFFFFFFFFFFFFFFFFFFFFFFFFFFF000FFFFFFFFFFFF
310
FFFFFFFFFFFFFFFFFFFFFFFFFFFFFFFFFFFFFFFFFFFFFFFFFFFFFFFFFFFFFFFF
310
FFFFFFFFFFFFFFFFFFFFFFFFFFFFFFFFFFFFFFFFFFFFFFFFFFFFFFFFFFFFFFFF
310
FFFFFFFFFFFFFFFFFFFFFFFFFFFFFFFFF000FFFFFFFFFFFFFFFFFFFFFFFFFFFF
310
FFFFFFFFFFFFFFFFFFFFFFFFFFFFFFFFFFFFFFFFFFFFFFFFFFFFFFFFFFFFFFFF
310
FFFFFFFFFFFFFFFFFFFFFFFFFFFFFFFFFFFFFFFFFFFFFFFFFFFFFFFFFFFFFFFF
310
FFFFFFFFFFFFFFFFF000FFFFFFFFFFFFFFFFFFFFFFFFFFFFFFFFFFFFFFFFFFFF
310
FFFFFFFFFFFFFFFFFFFFFFFFFFFFFFFFFFFFFFFFFFFFFFFFFFFFFFFFFFFFFFFF
310
FFFFFFFFFFFFFFFFFFFFFFFFFFFFFFFFFFFFFFFFFFFFFFFFFFFFFFFFFFFFFFFF
310
F000FFFFFFFFFFFFFFFFFFFFFFFFFFFFFFFFFFFFFFFFFFFFFFFFFFFFFFFFFFFF
310
FFFFFFFFFFFFFFFFFFFFFFFFFFFFFFFFFFFFFFFFFFFFFFFFFFFFFFFFFFFFFFFF
310
FFFFFFFFFFFFFFFFFFFFFFFFFFFFFFFFFFFFFFFFFFFFFFFFF000FFFFFFFFFFFF
310
FFFFFFFFFFFFFFFFFFFFFFFFFFFFFFFFFFFFFFFFFFFFFFFFFFFFFFFFFFFFFFFF
310
FFFFFFFFFFFFFFFFFFFFFFFFFFFFFFFFFFFFFFFFFFFFFFFFFFFFFFFFFFFFFFFF
310
FFFFFFFFFFFFFFFFFFFFFFFFFFFFFFFFF0000000000000000000000000000000
310
0000000000000000000000000000000000000000000000000000000000000000
310
0000000000000000000000000000000000000000000000000000000000000000
310
0000000000000000000000000000000000000000000000000000000000000000
310
0000000000000000000000000000000000000000000000000000000000000000
310
0000000000000000000000000000000000000000000000000000000000000000
310
0000000000000000000000000000000000000000000000000000000000000000
310
0000000000000000000000000000000000000000000000000000000000000000
310
0000000000000000000000000000000000000000000000000000000000000000
310
0000000000000000000000000000000000000000000000000000000000000000
310
0000000000000000000000000000000000000000000000000000000000000000
310
0000000000000000000000000000000000000000000000000000000000000000
310
0000000000000000000000000000000000000000000000000000000000000000
310
0000000000000000000000000000000000000000000000000000000000000000
310
0000000000000000000000000000000000000000000000000000000000000000
310
0000000000000000000000000000000000000000000000000000000000000000
  1
OLE
  0
ENDSEC
  0
SECTION
  2
OBJECTS
  0
DICTIONARY
  5
C
330
0
100
AcDbDictionary
281
     1
  3
ACAD_GROUP
350
D
  3
ACAD_LAYOUT
350
1A
  3
ACAD_MLINESTYLE
350
17
  3
ACAD_PLOTSETTINGS
350
19
  3
ACAD_PLOTSTYLENAME
350
E
  3
ACAD_SCALELIST
350
47
  0
DICTIONARY
  5
D
102
{ACAD_REACTORS
330
C
102
}
330
C
100
AcDbDictionary
281
     1
  0
DICTIONARY
  5
1A
102
{ACAD_REACTORS
330
C
102
}
330
C
100
AcDbDictionary
281
     1
  3
Layout1
350
1E
  3
Layout2
350
26
  3
Model
350
22
  0
DICTIONARY
  5
17
102
{ACAD_REACTORS
330
C
102
}
330
C
100
AcDbDictionary
281
     1
  3
Standard
350
18
  0
DICTIONARY
  5
19
102
{ACAD_REACTORS
330
C
102
}
330
C
100
AcDbDictionary
281
     1
  0
ACDBDICTIONARYWDFLT
  5
E
102
{ACAD_REACTORS
330
C
102
}
330
C
100
AcDbDictionary
281
     1
  3
Normal
350
F
100
AcDbDictionaryWithDefault
340
F
  0
DICTIONARY
  5
47
102
{ACAD_REACTORS
330
C
102
}
330
C
100
AcDbDictionary
281
     1
  3
A0
350
48
  3
A1
350
49
  3
A2
350
4A
  3
A3
350
4B
  3
A4
350
4C
  3
A5
350
4D
  3
A6
350
4E
  3
A7
350
4F
  3
A8
350
50
  3
A9
350
51
  3
B0
350
52
  3
B1
350
53
  3
B2
350
54
  3
B3
350
55
  3
B4
350
56
  3
B5
350
57
  3
B6
350
58
  3
B7
350
59
  3
B8
350
5A
  3
B9
350
5B
  3
C0
350
5C
  3
C1
350
5D
  3
C2
350
5E
  3
C3
350
5F
  3
C4
350
60
  3
C5
350
61
  3
C6
350
62
  3
C7
350
63
  3
C8
350
64
  3
C9
350
65
  3
D0
350
66
  3
D1
350
67
  3
D2
350
68
  0
LAYOUT
  5
1E
102
{ACAD_REACTORS
330
1A
102
}
330
1A
100
AcDbPlotSettings
  1

  2
none_device
  4

  6

 40
0.0
 41
0.0
 42
0.0
 43
0.0
 44
0.0
 45
0.0
 46
0.0
 47
0.0
 48
0.0
 49
0.0
140
0.0
141
0.0
142
1.0
143
1.0
 70
   688
 72
     1
 73
     0
 74
     5
  7

 75
    16
147
1.0
148
0.0
149
0.0
100
AcDbLayout
  1
Layout1
 70
     1
 71
     1
 10
0.0
 20
0.0
 11
420.0
 21
297.0
 12
0.0
 22
0.0
 32
0.0
 14
1.0000000000E+20
 24
1.0000000000E+20
 34
1.0000000000E+20
 15
-1.0000000000E+20
 25
-1.0000000000E+20
 35
-1.0000000000E+20
146
0.0
 13
0.0
 23
0.0
 33
0.0
 16
1.0
 26
0.0
 36
0.0
 17
0.0
 27
1.0
 37
0.0
 76
     0
330
1B
  0
LAYOUT
  5
26
102
{ACAD_REACTORS
330
1A
102
}
330
1A
100
AcDbPlotSettings
  1

  2
none_device
  4

  6

 40
0.0
 41
0.0
 42
0.0
 43
0.0
 44
0.0
 45
0.0
 46
0.0
 47
0.0
 48
0.0
 49
0.0
140
0.0
141
0.0
142
1.0
143
1.0
 70
   688
 72
     1
 73
     0
 74
     5
  7

 75
    16
147
1.0
148
0.0
149
0.0
100
AcDbLayout
  1
Layout2
 70
     1
 71
     2
 10
0.0
 20
0.0
 11
0.0
 21
0.0
 12
0.0
 22
0.0
 32
0.0
 14
0.0
 24
0.0
 34
0.0
 15
0.0
 25
0.0
 35
0.0
146
0.0
 13
0.0
 23
0.0
 33
0.0
 16
1.0
 26
0.0
 36
0.0
 17
0.0
 27
1.0
 37
0.0
 76
     0
330
23
  0
LAYOUT
  5
22
102
{ACAD_REACTORS
330
1A
102
}
330
1A
100
AcDbPlotSettings
  1

  2
none_device
  4
Letter_(8.50_x_11.00_Inches)
  6

 40
6.35
 41
6.35
 42
6.35000508
 43
6.35000508
 44
215.9
 45
279.4
 46
0.0
 47
0.0
 48
0.0
 49
0.0
140
0.0
141
0.0
142
1.0
143
1.0
 70
  1712
 72
     1
 73
     0
 74
     0
  7

 75
     0
147
1.0
148
0.0
149
0.0
100
AcDbLayout
  1
Model
 70
     1
 71
     0
 10
0.0
 20
0.0
 11
297.0
 21
210.0
 12
0.0
 22
0.0
 32
0.0
 14
0.0
 24
0.0
 34
0.0
 15
297.0
 25
210.0
 35
0.0
146
0.0
 13
0.0
 23
0.0
 33
0.0
 16
1.0
 26
0.0
 36
0.0
 17
0.0
 27
1.0
 37
0.0
 76
     0
330
1F
331
29
  0
MLINESTYLE
  5
18
102
{ACAD_REACTORS
330
17
102
}
330
17
100
AcDbMlineStyle
  2
Standard
 70
     0
  3

 62
   256
 51
90.0
 52
90.0
 71
     2
 49
0.5
 62
   256
  6
BYLAYER
 49
-0.5
 62
   256
  6
BYLAYER
  0
ACDBPLACEHOLDER
  5
F
102
{ACAD_REACTORS
330
E
102
}
330
E
  0
SCALE
  5
48
102
{ACAD_REACTORS
330
47
102
}
330
47
100
AcDbScale
 70
     0
300
1:1
140
1.0
141
1.0
290
     1
  0
SCALE
  5
49
102
{ACAD_REACTORS
330
47
102
}
330
47
100
AcDbScale
 70
     0
300
1:2
140
1.0
141
2.0
290
     0
  0
SCALE
  5
4A
102
{ACAD_REACTORS
330
47
102
}
330
47
100
AcDbScale
 70
     0
300
1:4
140
1.0
141
4.0
290
     0
  0
SCALE
  5
4B
102
{ACAD_REACTORS
330
47
102
}
330
47
100
AcDbScale
 70
     0
300
1:5
140
1.0
141
5.0
290
     0
  0
SCALE
  5
4C
102
{ACAD_REACTORS
330
47
102
}
330
47
100
AcDbScale
 70
     0
300
1:8
140
1.0
141
8.0
290
     0
  0
SCALE
  5
4D
102
{ACAD_REACTORS
330
47
102
}
330
47
100
AcDbScale
 70
     0
300
1:10
140
1.0
141
10.0
290
     0
  0
SCALE
  5
4E
102
{ACAD_REACTORS
330
47
102
}
330
47
100
AcDbScale
 70
     0
300
1:16
140
1.0
141
16.0
290
     0
  0
SCALE
  5
4F
102
{ACAD_REACTORS
330
47
102
}
330
47
100
AcDbScale
 70
     0
300
1:20
140
1.0
141
20.0
290
     0
  0
SCALE
  5
50
102
{ACAD_REACTORS
330
47
102
}
330
47
100
AcDbScale
 70
     0
300
1:30
140
1.0
141
30.0
290
     0
  0
SCALE
  5
51
102
{ACAD_REACTORS
330
47
102
}
330
47
100
AcDbScale
 70
     0
300
1:40
140
1.0
141
40.0
290
     0
  0
SCALE
  5
52
102
{ACAD_REACTORS
330
47
102
}
330
47
100
AcDbScale
 70
     0
300
1:50
140
1.0
141
50.0
290
     0
  0
SCALE
  5
53
102
{ACAD_REACTORS
330
47
102
}
330
47
100
AcDbScale
 70
     0
300
1:100
140
1.0
141
100.0
290
     0
  0
SCALE
  5
54
102
{ACAD_REACTORS
330
47
102
}
330
47
100
AcDbScale
 70
     0
300
2:1
140
2.0
141
1.0
290
     0
  0
SCALE
  5
55
102
{ACAD_REACTORS
330
47
102
}
330
47
100
AcDbScale
 70
     0
300
4:1
140
4.0
141
1.0
290
     0
  0
SCALE
  5
56
102
{ACAD_REACTORS
330
47
102
}
330
47
100
AcDbScale
 70
     0
300
8:1
140
8.0
141
1.0
290
     0
  0
SCALE
  5
57
102
{ACAD_REACTORS
330
47
102
}
330
47
100
AcDbScale
 70
     0
300
10:1
140
10.0
141
1.0
290
     0
  0
SCALE
  5
58
102
{ACAD_REACTORS
330
47
102
}
330
47
100
AcDbScale
 70
     0
300
100:1
140
100.0
141
1.0
290
     0
  0
SCALE
  5
59
102
{ACAD_REACTORS
330
47
102
}
330
47
100
AcDbScale
 70
     0
300
1/128" = 1'-0"
140
0.0078125
141
12.0
290
     0
  0
SCALE
  5
5A
102
{ACAD_REACTORS
330
47
102
}
330
47
100
AcDbScale
 70
     0
300
1/64" = 1'-0"
140
0.015625
141
12.0
290
     0
  0
SCALE
  5
5B
102
{ACAD_REACTORS
330
47
102
}
330
47
100
AcDbScale
 70
     0
300
1/32" = 1'-0"
140
0.03125
141
12.0
290
     0
  0
SCALE
  5
5C
102
{ACAD_REACTORS
330
47
102
}
330
47
100
AcDbScale
 70
     0
300
1/16" = 1'-0"
140
0.0625
141
12.0
290
     0
  0
SCALE
  5
5D
102
{ACAD_REACTORS
330
47
102
}
330
47
100
AcDbScale
 70
     0
300
3/32" = 1'-0"
140
0.09375
141
12.0
290
     0
  0
SCALE
  5
5E
102
{ACAD_REACTORS
330
47
102
}
330
47
100
AcDbScale
 70
     0
300
1/8" = 1'-0"
140
0.125
141
12.0
290
     0
  0
SCALE
  5
5F
102
{ACAD_REACTORS
330
47
102
}
330
47
100
AcDbScale
 70
     0
300
3/16" = 1'-0"
140
0.1875
141
12.0
290
     0
  0
SCALE
  5
60
102
{ACAD_REACTORS
330
47
102
}
330
47
100
AcDbScale
 70
     0
300
1/4" = 1'-0"
140
0.25
141
12.0
290
     0
  0
SCALE
  5
61
102
{ACAD_REACTORS
330
47
102
}
330
47
100
AcDbScale
 70
     0
300
3/8" = 1'-0"
140
0.375
141
12.0
290
     0
  0
SCALE
  5
62
102
{ACAD_REACTORS
330
47
102
}
330
47
100
AcDbScale
 70
     0
300
1/2" = 1'-0"
140
0.5
141
12.0
290
     0
  0
SCALE
  5
63
102
{ACAD_REACTORS
330
47
102
}
330
47
100
AcDbScale
 70
     0
300
3/4" = 1'-0"
140
0.75
141
12.0
290
     0
  0
SCALE
  5
64
102
{ACAD_REACTORS
330
47
102
}
330
47
100
AcDbScale
 70
     0
300
1" = 1'-0"
140
1.0
141
12.0
290
     0
  0
SCALE
  5
65
102
{ACAD_REACTORS
330
47
102
}
330
47
100
AcDbScale
 70
     0
300
1-1/2" = 1'-0"
140
1.5
141
12.0
290
     0
  0
SCALE
  5
66
102
{ACAD_REACTORS
330
47
102
}
330
47
100
AcDbScale
 70
     0
300
3" = 1'-0"
140
3.0
141
12.0
290
     0
  0
SCALE
  5
67
102
{ACAD_REACTORS
330
47
102
}
330
47
100
AcDbScale
 70
     0
300
6" = 1'-0"
140
6.0
141
12.0
290
     0
  0
SCALE
  5
68
102
{ACAD_REACTORS
330
47
102
}
330
47
100
AcDbScale
 70
     0
300
1'-0" = 1'-0"
140
12.0
141
12.0
290
     0
  0
ENDSEC
  0
EOF
