  0
SECTION
  2
HEADER
  9
$ACADVER
  1
AC1015
  9
$ACADMAINTVER
 70
     6
  9
$DWGCODEPAGE
  3
ANSI_1252
  9
$INSBASE
 10
0.0
 20
0.0
 30
0.0
  9
$EXTMIN
 10
0.0
 20
0.0
 30
0.0
  9
$EXTMAX
 10
297.0
 20
210.0
 30
0.0
  9
$LIMMIN
 10
0.0
 20
0.0
  9
$LIMMAX
 10
297.0
 20
210.0
  9
$ORTHOMODE
 70
     0
  9
$REGENMODE
 70
     1
  9
$FILLMODE
 70
     1
  9
$QTEXTMODE
 70
     0
  9
$MIRRTEXT
 70
     1
  9
$LTSCALE
 40
1.0
  9
$ATTMODE
 70
     1
  9
$TEXTSIZE
 40
2.0
  9
$TRACEWID
 40
1.0
  9
$TEXTSTYLE
  7
Standard
  9
$CLAYER
  8
0
  9
$CELTYPE
  6
ByLayer
  9
$CECOLOR
 62
   256
  9
$CELTSCALE
 40
1.0
  9
$DISPSILH
 70
     0
  9
$DIMSCALE
 40
1.0
  9
$DIMASZ
 40
3.0
  9
$DIMEXO
 40
0.0
  9
$DIMDLI
 40
3.75
  9
$DIMRND
 40
0.0
  9
$DIMDLE
 40
0.0
  9
$DIMEXE
 40
1.0
  9
$DIMTP
 40
0.0
  9
$DIMTM
 40
0.0
  9
$DIMTXT
 40
2.0
  9
$DIMCEN
 40
2.5
  9
$DIMTSZ
 40
0.0
  9
$DIMTOL
 70
     0
  9
$DIMLIM
 70
     0
  9
$DIMTIH
 70
     1
  9
$DIMTOH
 70
     1
  9
$DIMSE1
 70
     0
  9
$DIMSE2
 70
     0
  9
$DIMTAD
 70
     1
  9
$DIMZIN
 70
     0
  9
$DIMBLK
  1

  9
$DIMASO
 70
     1
  9
$DIMSHO
 70
     1
  9
$DIMPOST
  1

  9
$DIMAPOST
  1

  9
$DIMALT
 70
     0
  9
$DIMALTD
 70
     3
  9
$DIMALTF
 40
0.0393700787
  9
$DIMLFAC
 40
2.0
  9
$DIMTOFL
 70
     1
  9
$DIMTVP
 40
0.0
  9
$DIMTIX
 70
     0
  9
$DIMSOXD
 70
     0
  9
$DIMSAH
 70
     0
  9
$DIMBLK1
  1

  9
$DIMBLK2
  1

  9
$DIMSTYLE
  2
ISO-25
  9
$DIMCLRD
 70
     0
  9
$DIMCLRE
 70
     0
  9
$DIMCLRT
 70
     0
  9
$DIMTFAC
 40
1.0
  9
$DIMGAP
 40
1.524
  9
$DIMJUST
 70
     0
  9
$DIMSD1
 70
     0
  9
$DIMSD2
 70
     0
  9
$DIMTOLJ
 70
     0
  9
$DIMTZIN
 70
     0
  9
$DIMALTZ
 70
     0
  9
$DIMALTTZ
 70
     0
  9
$DIMUPT
 70
     0
  9
$DIMDEC
 70
     2
  9
$DIMTDEC
 70
     3
  9
$DIMALTU
 70
     2
  9
$DIMALTTD
 70
     3
  9
$DIMTXSTY
  7
Standard
  9
$DIMAUNIT
 70
     0
  9
$DIMADEC
 70
     2
  9
$DIMALTRND
 40
0.0
  9
$DIMAZIN
 70
     0
  9
$DIMDSEP
 70
    44
  9
$DIMATFIT
 70
     3
  9
$DIMFRAC
 70
     0
  9
$DIMLDRBLK
  1

  9
$DIMLUNIT
 70
     2
  9
$DIMLWD
 70
    -2
  9
$DIMLWE
 70
    -2
  9
$DIMTMOVE
 70
     0
  9
$LUNITS
 70
     2
  9
$LUPREC
 70
     2
  9
$SKETCHINC
 40
1.0
  9
$FILLETRAD
 40
10.0
  9
$AUNITS
 70
     0
  9
$AUPREC
 70
     2
  9
$MENU
  1
.
  9
$ELEVATION
 40
0.0
  9
$PELEVATION
 40
0.0
  9
$THICKNESS
 40
0.0
  9
$LIMCHECK
 70
     0
  9
$CHAMFERA
 40
0.0
  9
$CHAMFERB
 40
0.0
  9
$CHAMFERC
 40
0.0
  9
$CHAMFERD
 40
0.0
  9
$SKPOLY
 70
     0
  9
$TDCREATE
 40
2458166.522121296
  9
$TDUCREATE
 40
2458166.48045463
  9
$TDUPDATE
 40
2458166.522123345
  9
$TDUUPDATE
 40
2458166.480456678
  9
$TDINDWG
 40
0.0000000116
  9
$TDUSRTIMER
 40
0.0000000116
  9
$USRTIMER
 70
     1
  9
$ANGBASE
 50
0.0
  9
$ANGDIR
 70
     0
  9
$PDMODE
 70
     0
  9
$PDSIZE
 40
-1.0
  9
$PLINEWID
 40
0.0
  9
$SPLFRAME
 70
     0
  9
$SPLINETYPE
 70
     6
  9
$SPLINESEGS
 70
     8
  9
$HANDSEED
  5
271
  9
$SURFTAB1
 70
     6
  9
$SURFTAB2
 70
     6
  9
$SURFTYPE
 70
     6
  9
$SURFU
 70
     6
  9
$SURFV
 70
     6
  9
$UCSBASE
  2

  9
$UCSNAME
  2

  9
$UCSORG
 10
0.0
 20
0.0
 30
0.0
  9
$UCSXDIR
 10
1.0
 20
0.0
 30
0.0
  9
$UCSYDIR
 10
0.0
 20
1.0
 30
0.0
  9
$UCSORTHOREF
  2

  9
$UCSORTHOVIEW
 70
     0
  9
$UCSORGTOP
 10
0.0
 20
0.0
 30
0.0
  9
$UCSORGBOTTOM
 10
0.0
 20
0.0
 30
0.0
  9
$UCSORGLEFT
 10
0.0
 20
0.0
 30
0.0
  9
$UCSORGRIGHT
 10
0.0
 20
0.0
 30
0.0
  9
$UCSORGFRONT
 10
0.0
 20
0.0
 30
0.0
  9
$UCSORGBACK
 10
0.0
 20
0.0
 30
0.0
  9
$PUCSBASE
  2

  9
$PUCSNAME
  2

  9
$PUCSORG
 10
0.0
 20
0.0
 30
0.0
  9
$PUCSXDIR
 10
1.0
 20
0.0
 30
0.0
  9
$PUCSYDIR
 10
0.0
 20
1.0
 30
0.0
  9
$PUCSORTHOREF
  2

  9
$PUCSORTHOVIEW
 70
     0
  9
$PUCSORGTOP
 10
0.0
 20
0.0
 30
0.0
  9
$PUCSORGBOTTOM
 10
0.0
 20
0.0
 30
0.0
  9
$PUCSORGLEFT
 10
0.0
 20
0.0
 30
0.0
  9
$PUCSORGRIGHT
 10
0.0
 20
0.0
 30
0.0
  9
$PUCSORGFRONT
 10
0.0
 20
0.0
 30
0.0
  9
$PUCSORGBACK
 10
0.0
 20
0.0
 30
0.0
  9
$USERI1
 70
     0
  9
$USERI2
 70
     0
  9
$USERI3
 70
     0
  9
$USERI4
 70
     0
  9
$USERI5
 70
     0
  9
$USERR1
 40
0.0
  9
$USERR2
 40
0.0
  9
$USERR3
 40
0.0
  9
$USERR4
 40
0.0
  9
$USERR5
 40
0.0
  9
$WORLDVIEW
 70
     1
  9
$SHADEDGE
 70
     3
  9
$SHADEDIF
 70
    70
  9
$TILEMODE
 70
     1
  9
$MAXACTVP
 70
    64
  9
$PINSBASE
 10
0.0
 20
0.0
 30
0.0
  9
$PLIMCHECK
 70
     0
  9
$PEXTMIN
 10
1.0000000000E+20
 20
1.0000000000E+20
 30
1.0000000000E+20
  9
$PEXTMAX
 10
-1.0000000000E+20
 20
-1.0000000000E+20
 30
-1.0000000000E+20
  9
$PLIMMIN
 10
0.0
 20
0.0
  9
$PLIMMAX
 10
420.0
 20
297.0
  9
$UNITMODE
 70
     0
  9
$VISRETAIN
 70
     1
  9
$PLINEGEN
 70
     0
  9
$PSLTSCALE
 70
     1
  9
$TREEDEPTH
 70
  3020
  9
$CMLSTYLE
  2
Standard
  9
$CMLJUST
 70
     0
  9
$CMLSCALE
 40
20.0
  9
$PROXYGRAPHICS
 70
     1
  9
$MEASUREMENT
 70
     1
  9
$CELWEIGHT
370
    -1
  9
$ENDCAPS
280
     0
  9
$JOINSTYLE
280
     0
  9
$LWDISPLAY
290
     1
  9
$INSUNITS
 70
     4
  9
$HYPERLINKBASE
  1

  9
$STYLESHEET
  1

  9
$XEDIT
290
     1
  9
$CEPSNTYPE
380
     0
  9
$PSTYLEMODE
290
     1
  9
$FINGERPRINTGUID
  2
{AFB48EA8-0E13-4534-B980-933D4A19F810}
  9
$VERSIONGUID
  2
{FAEB1C32-E019-11D5-929B-00C0DF256EC4}
  9
$EXTNAMES
290
     1
  9
$PSVPSCALE
 40
0.0
  9
$OLESTARTUP
290
     0
  0
ENDSEC
  0
SECTION
  2
CLASSES
  0
CLASS
  1
ACDBDICTIONARYWDFLT
  2
AcDbDictionaryWithDefault
  3
ObjectDBX Classes
 90
        0
280
     0
281
     0
  0
CLASS
  1
VISUALSTYLE
  2
AcDbVisualStyle
  3
ObjectDBX Classes
 90
     4095
280
     0
281
     0
  0
CLASS
  1
MATERIAL
  2
AcDbMaterial
  3
ObjectDBX Classes
 90
     1153
280
     0
281
     0
  0
CLASS
  1
SCALE
  2
AcDbScale
  3
ObjectDBX Classes
 90
     1153
280
     0
281
     0
  0
CLASS
  1
TABLESTYLE
  2
AcDbTableStyle
  3
ObjectDBX Classes
 90
     4095
280
     0
281
     0
  0
CLASS
  1
MLEADERSTYLE
  2
AcDbMLeaderStyle
  3
ACDB_MLEADERSTYLE_CLASS
 90
     4095
280
     0
281
     0
  0
CLASS
  1
SUN
  2
AcDbSun
  3
SCENEOE
 90
     1153
280
     0
281
     0
  0
CLASS
  1
ACDBPLACEHOLDER
  2
AcDbPlaceHolder
  3
ObjectDBX Classes
 90
        0
280
     0
281
     0
  0
CLASS
  1
LAYOUT
  2
AcDbLayout
  3
ObjectDBX Classes
 90
        0
280
     0
281
     0
  0
ENDSEC
  0
SECTION
  2
TABLES
  0
TABLE
  2
VPORT
  5
8
330
0
100
AcDbSymbolTable
 70
     1
  0
VPORT
  5
29
330
8
100
AcDbSymbolTableRecord
100
AcDbViewportTableRecord
  2
*Active
 70
     0
 10
0.0
 20
0.0
 11
1.0
 21
1.0
 12
148.5
 22
105.0
 13
0.0
 23
0.0
 14
10.0
 24
10.0
 15
10.0
 25
10.0
 16
0.0
 26
0.0
 36
1.0
 17
0.0
 27
0.0
 37
0.0
 40
210.0
 41
1.4142857143
 42
50.0
 43
0.0
 44
0.0
 50
0.0
 51
0.0
 71
     0
 72
  2000
 73
     1
 74
     3
 75
     0
 76
     0
 77
     0
 78
     0
281
     0
 65
     1
110
0.0
120
0.0
130
0.0
111
1.0
121
0.0
131
0.0
112
0.0
122
1.0
132
0.0
 79
     0
146
0.0
  0
ENDTAB
  0
TABLE
  2
LTYPE
  5
5
330
0
100
AcDbSymbolTable
 70
     6
  0
LTYPE
  5
14
330
5
100
AcDbSymbolTableRecord
100
AcDbLinetypeTableRecord
  2
ByBlock
 70
     0
  3

 72
    65
 73
     0
 40
0.0
  0
LTYPE
  5
15
330
5
100
AcDbSymbolTableRecord
100
AcDbLinetypeTableRecord
  2
ByLayer
 70
     0
  3

 72
    65
 73
     0
 40
0.0
  0
LTYPE
  5
16
330
5
100
AcDbSymbolTableRecord
100
AcDbLinetypeTableRecord
  2
Continuous
 70
     0
  3
Solid line
 72
    65
 73
     0
 40
0.0
  0
LTYPE
  5
6E
330
5
100
AcDbSymbolTableRecord
100
AcDbLinetypeTableRecord
  2
HIDDEN
 70
     0
  3
Hidden __ __ __ __ __ __ __ __ __ __ __ __ __ __
 72
    65
 73
     2
 40
1.905
 49
1.27
 74
     0
 49
-0.635
 74
     0
  0
LTYPE
  5
6F
330
5
100
AcDbSymbolTableRecord
100
AcDbLinetypeTableRecord
  2
PHANTOM
 70
     0
  3
Phantom ______  __  __  ______  __  __  ______
 72
    65
 73
     6
 40
12.7
 49
6.35
 74
     0
 49
-1.27
 74
     0
 49
1.27
 74
     0
 49
-1.27
 74
     0
 49
1.27
 74
     0
 49
-1.27
 74
     0
  0
LTYPE
  5
70
330
5
100
AcDbSymbolTableRecord
100
AcDbLinetypeTableRecord
  2
CENTER
 70
     0
  3
Center ____ _ ____ _ ____ _ ____ _ ____ _ ____
 72
    65
 73
     4
 40
10.16
 49
6.35
 74
     0
 49
-1.27
 74
     0
 49
1.27
 74
     0
 49
-1.27
 74
     0
  0
LTYPE
  5
71
330
5
100
AcDbSymbolTableRecord
100
AcDbLinetypeTableRecord
  2
CENTERX2
 70
     0
  3
Center (2x) ________  __  ________  __  _____
 72
    65
 73
     4
 40
20.32
 49
12.7
 74
     0
 49
-2.54
 74
     0
 49
2.54
 74
     0
 49
-2.54
 74
     0
  0
LTYPE
  5
72
330
5
100
AcDbSymbolTableRecord
100
AcDbLinetypeTableRecord
  2
DOT2
 70
     0
  3
Dot (.5x) ........................................
 72
    65
 73
     2
 40
0.635
 49
0.0
 74
     0
 49
-0.635
 74
     0
  0
ENDTAB
  0
TABLE
  2
LAYER
  5
2
330
0
100
AcDbSymbolTable
 70
     5
  0
LAYER
  5
10
330
2
100
AcDbSymbolTableRecord
100
AcDbLayerTableRecord
  2
0
 70
     0
 62
     7
  6
Continuous
370
    -3
390
F
  0
LAYER
  5
73
330
2
100
AcDbSymbolTableRecord
100
AcDbLayerTableRecord
  2
FORMAT
 70
     0
 62
     7
  6
Continuous
370
    -3
390
F
  0
LAYER
  5
74
330
2
100
AcDbSymbolTableRecord
100
AcDbLayerTableRecord
  2
VERMASSUNG
 70
     0
 62
     7
  6
Continuous
370
    -3
390
F
  0
LAYER
  5
75
330
2
100
AcDbSymbolTableRecord
100
AcDbLayerTableRecord
  2
KOPF_DÜNN
 70
     0
 62
     7
  6
Continuous
370
    -3
390
F
  0
LAYER
  5
76
330
2
100
AcDbSymbolTableRecord
100
AcDbLayerTableRecord
  2
KOPF_DICK
 70
     0
 62
     7
  6
Continuous
370
    25
390
F
  0
ENDTAB
  0
TABLE
  2
STYLE
  5
3
330
0
100
AcDbSymbolTable
 70
     3
  0
STYLE
  5
11
330
3
100
AcDbSymbolTableRecord
100
AcDbTextStyleTableRecord
  2
Standard
 70
     0
 40
0.0
 41
1.0
 50
0.0
 71
     0
 42
2.0
  3
txt
  4

  0
STYLE
  5
77
330
3
100
AcDbSymbolTableRecord
100
AcDbTextStyleTableRecord
  2
SLDTEXTSTYLE0
 70
     0
 40
0.0
 41
0.7
 50
0.0
 71
     0
 42
2.0
  3
TXT
  4

  0
STYLE
  5
7B
330
3
100
AcDbSymbolTableRecord
100
AcDbTextStyleTableRecord
  2
SLDTEXTSTYLE1
 70
     0
 40
0.0
 41
0.6466666667
 50
0.0
 71
     0
 42
2.0
  3
TXT
  4

  0
ENDTAB
  0
TABLE
  2
VIEW
  5
6
330
0
100
AcDbSymbolTable
 70
     0
  0
ENDTAB
  0
TABLE
  2
UCS
  5
7
330
0
100
AcDbSymbolTable
 70
     0
  0
ENDTAB
  0
TABLE
  2
APPID
  5
9
330
0
100
AcDbSymbolTable
 70
     1
  0
APPID
  5
12
330
9
100
AcDbSymbolTableRecord
100
AcDbRegAppTableRecord
  2
ACAD
 70
     0
  0
ENDTAB
  0
TABLE
  2
DIMSTYLE
  5
A
330
0
100
AcDbSymbolTable
 70
     2
100
AcDbDimStyleTable
  0
DIMSTYLE
105
27
330
A
100
AcDbSymbolTableRecord
100
AcDbDimStyleTableRecord
  2
ISO-25
 70
     0
 41
2.5
 42
0.625
 43
3.75
 44
1.25
 73
     0
 74
     0
 77
     1
 78
     8
140
2.5
141
2.5
143
0.0393700787
147
0.625
171
     3
172
     1
178
     0
271
     2
272
     2
274
     3
278
    44
283
     0
284
     8
340
11
  0
DIMSTYLE
105
12D
102
{ACAD_REACTORS
330
12C
330
138
330
143
330
14E
330
158
102
}
330
A
100
AcDbSymbolTableRecord
100
AcDbDimStyleTableRecord
  2
SLDDIMSTYLE0
 70
     0
 41
3.0
 44
0.0
 45
0.000000001
 73
     0
 74
     0
 77
     1
 78
    12
 79
     3
140
2.0
147
0.5
173
     1
178
     0
271
     2
272
     3
276
     2
284
    12
340
77
  0
ENDTAB
  0
TABLE
  2
BLOCK_RECORD
  5
1
330
0
100
AcDbSymbolTable
 70
     6
  0
BLOCK_RECORD
  5
1F
330
1
100
AcDbSymbolTableRecord
100
AcDbBlockTableRecord
  2
*Model_Space
340
22
  0
BLOCK_RECORD
  5
1B
330
1
100
AcDbSymbolTableRecord
100
AcDbBlockTableRecord
  2
*Paper_Space
340
1E
  0
BLOCK_RECORD
  5
23
330
1
100
AcDbSymbolTableRecord
100
AcDbBlockTableRecord
  2
*Paper_Space0
340
26
  0
BLOCK_RECORD
  5
12E
330
1
100
AcDbSymbolTableRecord
100
AcDbBlockTableRecord
  2
_D
340
0
  0
BLOCK_RECORD
  5
139
330
1
100
AcDbSymbolTableRecord
100
AcDbBlockTableRecord
  2
_D_1
340
0
  0
BLOCK_RECORD
  5
144
330
1
100
AcDbSymbolTableRecord
100
AcDbBlockTableRecord
  2
_D_2
340
0
  0
BLOCK_RECORD
  5
14F
330
1
100
AcDbSymbolTableRecord
100
AcDbBlockTableRecord
  2
_D_3
340
0
  0
BLOCK_RECORD
  5
159
330
1
100
AcDbSymbolTableRecord
100
AcDbBlockTableRecord
  2
_D_4
340
0
  0
ENDTAB
  0
ENDSEC
  0
SECTION
  2
BLOCKS
  0
BLOCK
  5
20
330
1F
100
AcDbEntity
  8
0
100
AcDbBlockBegin
  2
*Model_Space
 70
     0
 10
0.0
 20
0.0
 30
0.0
  3
*Model_Space
  1

  0
ENDBLK
  5
21
330
1F
100
AcDbEntity
  8
0
100
AcDbBlockEnd
  0
BLOCK
  5
1C
330
1B
100
AcDbEntity
 67
     1
  8
0
100
AcDbBlockBegin
  2
*Paper_Space
 70
     0
 10
0.0
 20
0.0
 30
0.0
  3
*Paper_Space
  1

  0
ENDBLK
  5
1D
330
1B
100
AcDbEntity
 67
     1
  8
0
100
AcDbBlockEnd
  0
BLOCK
  5
24
330
23
100
AcDbEntity
  8
0
100
AcDbBlockBegin
  2
*Paper_Space0
 70
     0
 10
0.0
 20
0.0
 30
0.0
  3
*Paper_Space0
  1

  0
ENDBLK
  5
25
330
23
100
AcDbEntity
  8
0
100
AcDbBlockEnd
  0
BLOCK
  5
12F
330
12E
100
AcDbEntity
  8
0
100
AcDbBlockBegin
  2
_D
 70
     0
 10
0.0
 20
0.0
 30
0.0
  3
_D
  1

  0
SOLID
  5
131
330
12E
100
AcDbEntity
  8
VERMASSUNG
100
AcDbTrace
 10
264.0885079672
 20
93.0648513486
 30
0.0
 11
264.5385079672
 21
96.0648513486
 31
0.0
 12
263.6385079672
 22
96.0648513486
 32
0.0
 13
263.6385079672
 23
96.0648513486
 33
0.0
  0
SOLID
  5
132
330
12E
100
AcDbEntity
  8
VERMASSUNG
100
AcDbTrace
 10
264.0885079672
 20
155.7648513486
 30
0.0
 11
263.6385079672
 21
152.7648513486
 31
0.0
 12
264.5385079672
 22
152.7648513486
 32
0.0
 13
264.5385079672
 23
152.7648513486
 33
0.0
  0
LINE
  5
133
330
12E
100
AcDbEntity
  8
VERMASSUNG
100
AcDbLine
 10
217.0119607667
 20
93.0648513486
 30
0.0
 11
265.0885079672
 21
93.0648513486
 31
0.0
  0
LINE
  5
134
330
12E
100
AcDbEntity
  8
VERMASSUNG
100
AcDbLine
 10
217.0119607667
 20
155.7648513486
 30
0.0
 11
265.0885079672
 21
155.7648513486
 31
0.0
  0
LINE
  5
135
330
12E
100
AcDbEntity
  8
VERMASSUNG
100
AcDbLine
 10
264.0885079672
 20
93.0648513486
 30
0.0
 11
264.0885079672
 21
155.7648513486
 31
0.0
  0
MTEXT
  5
136
330
12E
100
AcDbEntity
  8
VERMASSUNG
100
AcDbMText
 10
261.5103726622
 20
120.2098516931
 30
0.0
 40
2.0
 41
0.0
 71
     1
 72
     1
  1
%%c
  7
SLDTEXTSTYLE0
 11
6.123233995736766E-17
 21
1.0
 31
0.0
 73
     1
 44
1.0
  0
MTEXT
  5
137
330
12E
100
AcDbEntity
  8
VERMASSUNG
100
AcDbMText
 10
261.310372711
 20
123.8198517074
 30
0.0
 40
2.0
 41
0.0
 71
     1
 72
     1
  1
62.7
  7
SLDTEXTSTYLE0
 11
6.123233995736766E-17
 21
1.0
 31
0.0
 73
     1
 44
1.0
  0
ENDBLK
  5
130
330
12E
100
AcDbEntity
  8
0
100
AcDbBlockEnd
  0
BLOCK
  5
13A
330
139
100
AcDbEntity
  8
0
100
AcDbBlockBegin
  2
_D_1
 70
     0
 10
0.0
 20
0.0
 30
0.0
  3
_D_1
  1

  0
SOLID
  5
13C
330
139
100
AcDbEntity
  8
VERMASSUNG
100
AcDbTrace
 10
249.2554857669
 20
96.4148513486
 30
0.0
 11
249.7054857669
 21
99.4148513486
 31
0.0
 12
248.8054857669
 22
99.4148513486
 32
0.0
 13
248.8054857669
 23
99.4148513486
 33
0.0
  0
SOLID
  5
13D
330
139
100
AcDbEntity
  8
VERMASSUNG
100
AcDbTrace
 10
249.2554857669
 20
152.4148513486
 30
0.0
 11
248.8054857669
 21
149.4148513486
 31
0.0
 12
249.7054857669
 22
149.4148513486
 32
0.0
 13
249.7054857669
 23
149.4148513486
 33
0.0
  0
LINE
  5
13E
330
139
100
AcDbEntity
  8
VERMASSUNG
100
AcDbLine
 10
170.2054857669
 20
96.4148513486
 30
0.0
 11
250.2554857669
 21
96.4148513486
 31
0.0
  0
LINE
  5
13F
330
139
100
AcDbEntity
  8
VERMASSUNG
100
AcDbLine
 10
170.2054857669
 20
152.4148513486
 30
0.0
 11
250.2554857669
 21
152.4148513486
 31
0.0
  0
LINE
  5
140
330
139
100
AcDbEntity
  8
VERMASSUNG
100
AcDbLine
 10
249.2554857669
 20
96.4148513486
 30
0.0
 11
249.2554857669
 21
152.4148513486
 31
0.0
  0
MTEXT
  5
141
330
139
100
AcDbEntity
  8
VERMASSUNG
100
AcDbMText
 10
246.677350462
 20
121.2098513913
 30
0.0
 40
2.0
 41
0.0
 71
     1
 72
     1
  1
%%c
  7
SLDTEXTSTYLE0
 11
6.123233995736766E-17
 21
1.0
 31
0.0
 73
     1
 44
1.0
  0
MTEXT
  5
142
330
139
100
AcDbEntity
  8
VERMASSUNG
100
AcDbMText
 10
246.4773505107
 20
124.8198514056
 30
0.0
 40
2.0
 41
0.0
 71
     1
 72
     1
  1
56
  7
SLDTEXTSTYLE0
 11
6.123233995736766E-17
 21
1.0
 31
0.0
 73
     1
 44
1.0
  0
ENDBLK
  5
13B
330
139
100
AcDbEntity
  8
0
100
AcDbBlockEnd
  0
BLOCK
  5
145
330
144
100
AcDbEntity
  8
0
100
AcDbBlockBegin
  2
_D_2
 70
     0
 10
0.0
 20
0.0
 30
0.0
  3
_D_2
  1

  0
SOLID
  5
147
330
144
100
AcDbEntity
  8
VERMASSUNG
100
AcDbTrace
 10
55.1050164059
 20
174.4148513486
 30
0.0
 11
54.6550164059
 21
171.4148513486
 31
0.0
 12
55.5550164059
 22
171.4148513486
 32
0.0
 13
55.5550164059
 23
171.4148513486
 33
0.0
  0
SOLID
  5
148
330
144
100
AcDbEntity
  8
VERMASSUNG
100
AcDbTrace
 10
55.1050164059
 20
74.4148513486
 30
0.0
 11
55.5550164059
 21
77.4148513486
 31
0.0
 12
54.6550164059
 22
77.4148513486
 32
0.0
 13
54.6550164059
 23
77.4148513486
 33
0.0
  0
LINE
  5
149
330
144
100
AcDbEntity
  8
VERMASSUNG
100
AcDbLine
 10
121.7554857669
 20
174.4148513486
 30
0.0
 11
54.1050164059
 21
174.4148513486
 31
0.0
  0
LINE
  5
14A
330
144
100
AcDbEntity
  8
VERMASSUNG
100
AcDbLine
 10
121.7554857669
 20
74.4148513486
 30
0.0
 11
54.1050164059
 21
74.4148513486
 31
0.0
  0
LINE
  5
14B
330
144
100
AcDbEntity
  8
VERMASSUNG
100
AcDbLine
 10
55.1050164059
 20
174.4148513486
 30
0.0
 11
55.1050164059
 21
74.4148513486
 31
0.0
  0
MTEXT
  5
14C
330
144
100
AcDbEntity
  8
VERMASSUNG
100
AcDbMText
 10
52.526881101
 20
120.7098513094
 30
0.0
 40
2.0
 41
0.0
 71
     1
 72
     1
  1
%%c
  7
SLDTEXTSTYLE0
 11
-7.044195017643634E-15
 21
1.0
 31
0.0
 73
     1
 44
1.0
  0
MTEXT
  5
14D
330
144
100
AcDbEntity
  8
VERMASSUNG
100
AcDbMText
 10
52.3268811497
 20
124.3198513237
 30
0.0
 40
2.0
 41
0.0
 71
     1
 72
     1
  1
100
  7
SLDTEXTSTYLE0
 11
-7.044195017643634E-15
 21
1.0
 31
0.0
 73
     1
 44
1.0
  0
ENDBLK
  5
146
330
144
100
AcDbEntity
  8
0
100
AcDbBlockEnd
  0
BLOCK
  5
150
330
14F
100
AcDbEntity
  8
0
100
AcDbBlockBegin
  2
_D_3
 70
     0
 10
0.0
 20
0.0
 30
0.0
  3
_D_3
  1

  0
SOLID
  5
152
330
14F
100
AcDbEntity
  8
VERMASSUNG
100
AcDbTrace
 10
121.2554857669
 20
184.4148513486
 30
0.0
 11
124.2554857669
 21
183.9648513486
 31
0.0
 12
124.2554857669
 22
184.8648513486
 32
0.0
 13
124.2554857669
 23
184.8648513486
 33
0.0
  0
SOLID
  5
153
330
14F
100
AcDbEntity
  8
VERMASSUNG
100
AcDbTrace
 10
221.2554857669
 20
184.4148513486
 30
0.0
 11
218.2554857669
 21
184.8648513486
 31
0.0
 12
218.2554857669
 22
183.9648513486
 32
0.0
 13
218.2554857669
 23
183.9648513486
 33
0.0
  0
LINE
  5
154
330
14F
100
AcDbEntity
  8
VERMASSUNG
100
AcDbLine
 10
121.2554857669
 20
173.9148513486
 30
0.0
 11
121.2554857669
 21
185.4148513486
 31
0.0
  0
LINE
  5
155
330
14F
100
AcDbEntity
  8
VERMASSUNG
100
AcDbLine
 10
221.2554857669
 20
148.4148513486
 30
0.0
 11
221.2554857669
 21
185.4148513486
 31
0.0
  0
LINE
  5
156
330
14F
100
AcDbEntity
  8
VERMASSUNG
100
AcDbLine
 10
121.2554857669
 20
184.4148513486
 30
0.0
 11
221.2554857669
 21
184.4148513486
 31
0.0
  0
MTEXT
  5
157
330
14F
100
AcDbEntity
  8
VERMASSUNG
100
AcDbMText
 10
169.3554857349
 20
186.9929869445
 30
0.0
 40
2.0
 41
0.0
 71
     1
 72
     1
  1
100
  7
SLDTEXTSTYLE0
 73
     1
 44
1.0
  0
ENDBLK
  5
151
330
14F
100
AcDbEntity
  8
0
100
AcDbBlockEnd
  0
BLOCK
  5
15A
330
159
100
AcDbEntity
  8
0
100
AcDbBlockBegin
  2
_D_4
 70
     0
 10
0.0
 20
0.0
 30
0.0
  3
_D_4
  1

  0
SOLID
  5
15C
330
159
100
AcDbEntity
  8
VERMASSUNG
100
AcDbTrace
 10
221.2554857669
 20
194.1793156505
 30
0.0
 11
218.2554857669
 21
194.6293156505
 31
0.0
 12
218.2554857669
 22
193.7293156505
 32
0.0
 13
218.2554857669
 23
193.7293156505
 33
0.0
  0
SOLID
  5
15D
330
159
100
AcDbEntity
  8
VERMASSUNG
100
AcDbTrace
 10
71.3554857669
 20
194.1793156505
 30
0.0
 11
74.3554857669
 21
193.7293156505
 31
0.0
 12
74.3554857669
 22
194.6293156505
 32
0.0
 13
74.3554857669
 23
194.6293156505
 33
0.0
  0
LINE
  5
15E
330
159
100
AcDbEntity
  8
VERMASSUNG
100
AcDbLine
 10
221.2554857669
 20
148.4148513486
 30
0.0
 11
221.2554857669
 21
195.1793156505
 31
0.0
  0
LINE
  5
15F
330
159
100
AcDbEntity
  8
VERMASSUNG
100
AcDbLine
 10
71.3554857669
 20
154.9175210911
 30
0.0
 11
71.3554857669
 21
195.1793156505
 31
0.0
  0
LINE
  5
160
330
159
100
AcDbEntity
  8
VERMASSUNG
100
AcDbLine
 10
221.2554857669
 20
194.1793156505
 30
0.0
 11
71.3554857669
 21
194.1793156505
 31
0.0
  0
MTEXT
  5
161
330
159
100
AcDbEntity
  8
VERMASSUNG
100
AcDbMText
 10
143.3054859737
 20
196.7574512464
 30
0.0
 40
2.0
 41
0.0
 71
     1
 72
     1
  1
149.9
  7
SLDTEXTSTYLE0
 73
     1
 44
1.0
  0
ENDBLK
  5
15B
330
159
100
AcDbEntity
  8
0
100
AcDbBlockEnd
  0
ENDSEC
  0
SECTION
  2
ENTITIES
  0
MTEXT
  5
78
330
1F
100
AcDbEntity
  8
KOPF_DÜNN
100
AcDbMText
 10
13.8892156294
 20
23.8442973028
 30
0.0
 40
3.0
 41
0.0
 71
     1
 72
     1
  1
HA0.E40.K01.100
  7
SLDTEXTSTYLE0
 73
     1
 44
1.0
  0
MTEXT
  5
79
330
1F
100
AcDbEntity
  8
VERMASSUNG
100
AcDbMText
 10
13.9329988022
 20
28.8834360957
 30
0.0
 40
3.0
 41
0.0
 71
     1
 72
     1
  1
Spannzangenfutter ER Typ S_Collet chuck ER Type S
  7
SLDTEXTSTYLE0
 73
     1
 44
1.0
  0
MTEXT
  5
7A
330
1F
100
AcDbEntity
  8
VERMASSUNG
100
AcDbMText
 10
98.8601118557
 20
13.8365368761
 30
0.0
 40
2.0
 41
0.0
 71
     1
 72
     1
  1
Datum: 16.02.2018
  7
SLDTEXTSTYLE0
 73
     1
 44
1.0
  0
MTEXT
  5
7C
330
1F
100
AcDbEntity
  8
VERMASSUNG
100
AcDbMText
 10
13.933048693
 20
18.0482802738
 30
0.0
 40
2.0
 41
0.0
 71
     1
 72
     1
  1
HSK A 100 / Ø63
  7
SLDTEXTSTYLE1
 73
     1
 44
1.0
  0
MTEXT
  5
7D
330
1F
100
AcDbEntity
  8
VERMASSUNG
100
AcDbMText
 10
13.9808475933
 20
13.9090974274
 30
0.0
 40
2.0
 41
0.0
 71
     1
 72
     1
  1
Gewicht: 2895g
  7
SLDTEXTSTYLE0
 73
     1
 44
1.0
  0
LINE
  5
7E
330
1F
100
AcDbEntity
  8
0
  6
Continuous
 62
     7
370
    25
100
AcDbLine
 10
196.5554863749
 20
93.0648496558
 30
0.0
 11
217.0119643746
 21
93.0648496558
 31
0.0
  0
LINE
  5
7F
330
1F
100
AcDbEntity
  8
0
  6
Continuous
 62
     7
370
    25
100
AcDbLine
 10
217.0119643746
 20
155.7648530413
 30
0.0
 11
196.5554863749
 21
155.7648530413
 31
0.0
  0
LINE
  5
80
330
1F
100
AcDbEntity
  8
0
  6
Continuous
 62
     7
370
    25
100
AcDbLine
 10
196.5554863749
 20
155.7648530413
 30
0.0
 11
195.7554877339
 21
154.964850675
 31
0.0
  0
LINE
  5
81
330
1F
100
AcDbEntity
  8
0
  6
Continuous
 62
     7
370
    25
100
AcDbLine
 10
195.7554877339
 20
93.8648520221
 30
0.0
 11
196.5554863749
 21
93.0648496558
 31
0.0
  0
LINE
  5
82
330
1F
100
AcDbEntity
  8
0
  6
Continuous
 62
     7
370
    25
100
AcDbLine
 10
217.0119643746
 20
93.0648496558
 30
0.0
 11
221.255487257
 21
100.4148511399
 31
0.0
  0
LINE
  5
83
330
1F
100
AcDbEntity
  8
0
  6
Continuous
 62
     7
370
    25
100
AcDbLine
 10
221.255487257
 20
148.4148515572
 30
0.0
 11
217.0119643746
 21
155.7648530413
 31
0.0
  0
LINE
  5
84
330
1F
100
AcDbEntity
  8
0
  6
Continuous
 62
     7
370
    25
100
AcDbLine
 10
121.7554857907
 20
74.4148506035
 30
0.0
 11
126.2054857401
 21
74.4148506035
 31
0.0
  0
LINE
  5
85
330
1F
100
AcDbEntity
  8
0
  6
Continuous
 62
     7
370
    25
100
AcDbLine
 10
126.2395586421
 20
174.4148520936
 30
0.0
 11
121.7554857907
 21
174.4148520936
 31
0.0
  0
ARC
  5
86
330
1F
100
AcDbEntity
  8
0
  6
Continuous
 62
     7
370
    25
100
AcDbCircle
 10
121.7554857669
 20
74.9148513486
 30
0.0
 40
0.5
100
AcDbArc
 50
180.0
 51
270.0
  0
ARC
  5
87
330
1F
100
AcDbEntity
  8
0
  6
Continuous
 62
     7
370
    25
100
AcDbCircle
 10
121.7554857669
 20
173.9148513486
 30
0.0
 40
0.5
100
AcDbArc
 50
90.0
 51
180.0
  0
ARC
  5
88
330
1F
100
AcDbEntity
  8
0
  6
Continuous
 62
     7
370
    25
100
AcDbCircle
 10
120.3585488485
 20
85.7863660241
 30
0.0
 40
0.9962338214386921
100
AcDbArc
 50
25.7988228126
 51
90.0
  0
ARC
  5
89
330
1F
100
AcDbEntity
  8
0
  6
Continuous
 62
     7
370
    25
100
AcDbCircle
 10
120.3585488485
 20
163.043336673
 30
0.0
 40
0.9962338214386921
100
AcDbArc
 50
270.0
 51
334.2011771874
  0
LINE
  5
8A
330
1F
100
AcDbEntity
  8
0
  6
Continuous
 62
     7
370
    25
100
AcDbLine
 10
99.7748062549
 20
161.3461686482
 30
0.0
 11
81.4554863212
 21
160.428365152
 31
0.0
  0
LINE
  5
8B
330
1F
100
AcDbEntity
  8
0
  6
Continuous
 62
     7
370
    25
100
AcDbLine
 10
118.7554858228
 20
162.2971011509
 30
0.0
 11
112.687446603
 21
161.9930913855
 31
0.0
  0
LINE
  5
8C
330
1F
100
AcDbEntity
  8
0
  6
Continuous
 62
     7
370
    25
100
AcDbLine
 10
112.6875695376
 20
86.836603861
 30
0.0
 11
118.7554858228
 21
86.5326015462
 31
0.0
  0
LINE
  5
8D
330
1F
100
AcDbEntity
  8
0
  6
Continuous
 62
     7
370
    25
100
AcDbLine
 10
86.4554852782
 20
88.1508378495
 30
0.0
 11
99.7754376916
 21
87.4835042466
 31
0.0
  0
LINE
  5
8E
330
1F
100
AcDbEntity
  8
0
  6
Continuous
 62
     7
370
    25
100
AcDbLine
 10
118.7554858228
 20
86.5326015462
 30
0.0
 11
119.561331889
 21
86.7485268225
 31
0.0
  0
LINE
  5
8F
330
1F
100
AcDbEntity
  8
0
  6
Continuous
 62
     7
370
    25
100
AcDbLine
 10
119.561331889
 20
162.0811758746
 30
0.0
 11
118.7554858228
 21
162.2971011509
 31
0.0
  0
ARC
  5
90
330
1F
100
AcDbEntity
  8
0
  6
Continuous
 62
     7
370
    25
100
AcDbCircle
 10
119.8201509664
 20
85.7825998455
 30
0.0
 40
0.9999999999999858
100
AcDbArc
 50
90.0
 51
105.0
  0
ARC
  5
91
330
1F
100
AcDbEntity
  8
0
  6
Continuous
 62
     7
370
    25
100
AcDbCircle
 10
119.8201509664
 20
163.0471028516
 30
0.0
 40
0.9999999999999719
100
AcDbArc
 50
255.0
 51
270.0
  0
LINE
  5
92
330
1F
100
AcDbEntity
  8
0
  6
Continuous
 62
     7
370
    25
100
AcDbLine
 10
119.8201509727
 20
86.7825983276
 30
0.0
 11
120.3585488441
 21
86.7825983276
 31
0.0
  0
LINE
  5
93
330
1F
100
AcDbEntity
  8
0
  6
Continuous
 62
     7
370
    25
100
AcDbLine
 10
120.3585488441
 20
162.0471043696
 30
0.0
 11
119.8201509727
 21
162.0471043696
 31
0.0
  0
ARC
  5
94
330
1F
100
AcDbEntity
  8
0
  6
Continuous
 62
     7
370
    25
100
AcDbCircle
 10
153.2054857669
 20
93.4148513486
 30
0.0
 40
3.000000000000028
100
AcDbArc
 50
90.0
 51
180.0
  0
ARC
  5
95
330
1F
100
AcDbEntity
  8
0
  6
Continuous
 62
     7
370
    25
100
AcDbCircle
 10
153.2054857669
 20
155.4148513486
 30
0.0
 40
3.000000000000028
100
AcDbArc
 50
180.0
 51
270.0
  0
LINE
  5
96
330
1F
100
AcDbEntity
  8
0
  6
Continuous
 62
     7
370
    25
100
AcDbLine
 10
164.6718964515
 20
96.4148504843
 30
0.0
 11
170.2054873643
 21
96.4148504843
 31
0.0
  0
LINE
  5
97
330
1F
100
AcDbEntity
  8
0
  6
Continuous
 62
     7
370
    25
100
AcDbLine
 10
153.2054864404
 20
96.4148504843
 30
0.0
 11
157.7490479288
 21
96.4148504843
 31
0.0
  0
LINE
  5
98
330
1F
100
AcDbEntity
  8
0
  6
Continuous
 62
     7
370
    25
100
AcDbLine
 10
157.7306412695
 20
152.4148522128
 30
0.0
 11
153.2054864404
 21
152.4148522128
 31
0.0
  0
LINE
  5
99
330
1F
100
AcDbEntity
  8
0
  6
Continuous
 62
     7
370
    25
100
AcDbLine
 10
170.2054873643
 20
152.4148522128
 30
0.0
 11
164.6612272201
 21
152.4148522128
 31
0.0
  0
ARC
  5
9A
330
1F
100
AcDbEntity
  8
0
  6
Continuous
 62
     7
370
    25
100
AcDbCircle
 10
185.4041699205
 20
189.4148513486
 30
0.0
 40
39.99999999999997
100
AcDbArc
 50
247.6683549908
 51
270.0
  0
ARC
  5
9B
330
1F
100
AcDbEntity
  8
0
  6
Continuous
 62
     7
370
    25
100
AcDbCircle
 10
185.4041699205
 20
59.4148513486
 30
0.0
 40
39.99999999999998
100
AcDbArc
 50
90.0
 51
112.3316450092
  0
LINE
  5
9C
330
1F
100
AcDbEntity
  8
0
  6
Continuous
 62
     7
370
    25
100
AcDbLine
 10
195.7554877339
 20
149.4148517211
 30
0.0
 11
185.4041725931
 21
149.4148517211
 31
0.0
  0
LINE
  5
9D
330
1F
100
AcDbEntity
  8
0
  6
Continuous
 62
     7
370
    25
100
AcDbLine
 10
185.4041725931
 20
99.414850976
 30
0.0
 11
195.7554877339
 21
99.414850976
 31
0.0
  0
LINE
  5
9E
330
1F
100
AcDbEntity
  8
0
  6
Continuous
 62
     7
370
    25
100
AcDbLine
 10
73.005484843
 20
92.1648530473
 30
0.0
 11
84.5554866431
 21
92.1648530473
 31
0.0
  0
ARC
  5
9F
330
1F
100
AcDbEntity
  8
0
  6
Continuous
 62
     7
370
    25
100
AcDbCircle
 10
84.5554857669
 20
90.2648513486
 30
0.0
 40
1.90000000000002
100
AcDbArc
 50
35.6630613694
 51
90.0
  0
ARC
  5
A0
330
1F
100
AcDbEntity
  8
0
  6
Continuous
 62
     7
370
    25
100
AcDbCircle
 10
79.5554857669
 20
158.5648513486
 30
0.0
 40
1.900000000000008
100
AcDbArc
 50
270.0
 51
310.9212832533
  0
LINE
  5
A1
330
1F
100
AcDbEntity
  8
0
  6
Continuous
 62
     7
370
    25
100
AcDbLine
 10
73.005484843
 20
156.6648496498
 30
0.0
 11
71.4061692891
 21
155.0655359586
 31
0.0
  0
LINE
  5
A2
330
1F
100
AcDbEntity
  8
0
  6
Continuous
 62
     7
370
    25
100
AcDbLine
 10
71.4070074795
 20
93.7633304109
 30
0.0
 11
73.005484843
 21
92.1648530473
 31
0.0
  0
LINE
  5
A3
330
1F
100
AcDbEntity
  8
0
  6
Continuous
 62
     7
370
    25
100
AcDbLine
 10
79.5554839609
 20
156.6648496498
 30
0.0
 11
73.005484843
 21
156.6648496498
 31
0.0
  0
LINE
  5
A4
330
1F
100
AcDbEntity
  8
0
  6
Continuous
 62
     7
370
    25
100
AcDbLine
 10
206.1257720528
 20
128.2184072022
 30
0.0
 11
217.0119643746
 21
128.2184072022
 31
0.0
  0
LINE
  5
A5
330
1F
100
AcDbEntity
  8
0
  6
Continuous
 62
     7
370
    25
100
AcDbLine
 10
217.0119643746
 20
103.8640750755
 30
0.0
 11
217.0119643746
 21
128.2184072022
 31
0.0
  0
LINE
  5
A6
330
1F
100
AcDbEntity
  8
0
  6
Continuous
 62
     7
370
    25
100
AcDbLine
 10
206.1257720528
 20
103.8640750755
 30
0.0
 11
217.0119643746
 21
103.8640750755
 31
0.0
  0
SPLINE
  5
A7
330
1F
100
AcDbEntity
  8
0
  6
Continuous
 62
     7
370
    25
100
AcDbSpline
210
0.0
220
0.0
230
1.0
 70
     8
 71
     3
 72
    18
 73
    14
 74
     0
 42
0.000000001
 43
0.00000001
 40
0.0
 40
0.0
 40
0.0
 40
0.0
 40
0.0823396068724132
 40
0.1971287428646677
 40
0.3099452776374672
 40
0.4180296962349822
 40
0.5204026575025175
 40
0.5325623091264381
 40
0.629797973951511
 40
0.7297584631677764
 40
0.8340300372611107
 40
0.9435577957780635
 40
1.0
 40
1.0
 40
1.0
 40
1.0
 10
206.1257720527946
 20
103.8640750755428
 30
0.0
 10
205.8345346387934
 20
103.8483815286643
 30
0.0
 10
205.1372849496349
 20
103.8108097052765
 30
0.0
 10
204.1132922478171
 20
103.4624492486151
 30
0.0
 10
203.2340895617105
 20
102.8537006129475
 30
0.0
 10
202.7168397354348
 20
102.1056748611125
 30
0.0
 10
202.6334138991744
 20
101.5538075803555
 30
0.0
 10
202.7011515609779
 20
101.0510927676027
 30
0.0
 10
202.9068928473287
 20
100.5712117159533
 30
0.0
 10
203.5207785696597
 20
100.0027721661928
 30
0.0
 10
204.4189338719266
 20
99.58558000806165
 30
0.0
 10
205.3401731510078
 20
99.39077432699594
 30
0.0
 10
205.926408257832
 20
99.37325400348244
 30
0.0
 10
206.1257720527946
 20
99.3672957827209
 30
0.0
  0
LINE
  5
A8
330
1F
100
AcDbEntity
  8
0
  6
Continuous
 62
     7
370
    25
100
AcDbLine
 10
206.1257720528
 20
99.3672957827
 30
0.0
 11
217.0119643746
 21
99.3672957827
 31
0.0
  0
LINE
  5
A9
330
1F
100
AcDbEntity
  8
0
  6
Continuous
 62
     7
370
    25
100
AcDbLine
 10
217.0119643746
 20
93.0648496558
 30
0.0
 11
217.0119643746
 21
99.3672957827
 31
0.0
  0
LINE
  5
AA
330
1F
100
AcDbEntity
  8
0
  6
Continuous
 62
     7
370
    25
100
AcDbLine
 10
217.0119643746
 20
155.1930694093
 30
0.0
 11
217.0119643746
 21
155.7648530413
 31
0.0
  0
LINE
  5
AB
330
1F
100
AcDbEntity
  8
0
  6
Continuous
 62
     7
370
    25
100
AcDbLine
 10
206.1257720528
 20
155.1930694093
 30
0.0
 11
217.0119643746
 21
155.1930694093
 31
0.0
  0
SPLINE
  5
AC
330
1F
100
AcDbEntity
  8
0
  6
Continuous
 62
     7
370
    25
100
AcDbSpline
210
0.0
220
0.0
230
1.0
 70
     8
 71
     3
 72
    18
 73
    14
 74
     0
 42
0.000000001
 43
0.00000001
 40
0.0
 40
0.0
 40
0.0
 40
0.0
 40
0.0823395600064899
 40
0.1971286039255158
 40
0.3099451053252353
 40
0.4180295415797055
 40
0.5204025439718754
 40
0.532671180354036
 40
0.6299066189867363
 40
0.7298698587848035
 40
0.8341477475474943
 40
0.9436807739634576
 40
1.0
 40
1.0
 40
1.0
 40
1.0
 10
206.1257720527946
 20
153.2659636993764
 30
0.0
 10
205.8345346700772
 20
153.2741094041266
 30
0.0
 10
205.1372851503872
 20
153.2936109827754
 30
0.0
 10
204.1132916971902
 20
153.4728030296733
 30
0.0
 10
203.2340902221246
 20
153.775120572372
 30
0.0
 10
202.7168368922564
 20
154.1271698207547
 30
0.0
 10
202.6333792959948
 20
154.3693045102696
 30
0.0
 10
202.7012774384975
 20
154.5805013274884
 30
0.0
 10
202.9074084657182
 20
154.7730408680179
 30
0.0
 10
203.521612126836
 20
154.9822494699371
 30
0.0
 10
204.420054422548
 20
155.1237614478608
 30
0.0
 10
205.3410269078248
 20
155.1856736389152
 30
0.0
 10
205.9268435517052
 20
155.1911946229006
 30
0.0
 10
206.1257720527946
 20
155.1930694092868
 30
0.0
  0
LINE
  5
AD
330
1F
100
AcDbEntity
  8
0
  6
Continuous
 62
     7
370
    25
100
AcDbLine
 10
206.1257720528
 20
153.2659636994
 30
0.0
 11
217.0119643746
 21
153.2659636994
 31
0.0
  0
LINE
  5
AE
330
1F
100
AcDbEntity
  8
0
  6
Continuous
 62
     7
370
    25
100
AcDbLine
 10
217.0119643746
 20
134.6422931363
 30
0.0
 11
217.0119643746
 21
153.2659636994
 31
0.0
  0
LINE
  5
AF
330
1F
100
AcDbEntity
  8
0
  6
Continuous
 62
     7
370
    25
100
AcDbLine
 10
206.1257720528
 20
134.6422931363
 30
0.0
 11
217.0119643746
 21
134.6422931363
 31
0.0
  0
SPLINE
  5
B0
330
1F
100
AcDbEntity
  8
0
  6
Continuous
 62
     7
370
    25
100
AcDbSpline
210
0.0
220
0.0
230
1.0
 70
     8
 71
     3
 72
    18
 73
    14
 74
     0
 42
0.000000001
 43
0.00000001
 40
0.0
 40
0.0
 40
0.0
 40
0.0
 40
0.0823385149744372
 40
0.1971260835099942
 40
0.3099411413986196
 40
0.4180241892039182
 40
0.5203958549219684
 40
0.5371614059033418
 40
0.6343759261867546
 40
0.7344800996625759
 40
0.8389930924973779
 40
0.9487437944098636
 40
1.0
 40
1.0
 40
1.0
 40
1.0
 10
206.1257720527946
 20
128.2184072022198
 30
0.0
 10
205.8345347447951
 20
128.2390150907927
 30
0.0
 10
205.137285469462
 20
128.2883522978707
 30
0.0
 10
204.1132903704011
 20
128.7478810179002
 30
0.0
 10
203.234094798021
 20
129.5646750799451
 30
0.0
 10
202.7168211073496
 20
130.593172232534
 30
0.0
 10
202.6317302744887
 20
131.3905822303527
 30
0.0
 10
202.7068757911611
 20
132.1293037345162
 30
0.0
 10
202.9286060451598
 20
132.8438786679333
 30
0.0
 10
203.5565077034665
 20
133.6914485383019
 30
0.0
 10
204.4663503428324
 20
134.3233601686386
 30
0.0
 10
205.376163624429
 20
134.610134607032
 30
0.0
 10
205.9447604622428
 20
134.634527659917
 30
0.0
 10
206.1257720527946
 20
134.6422931362747
 30
0.0
  0
LINE
  5
B1
330
1F
100
AcDbEntity
  8
0
  6
Continuous
 62
     7
370
    25
100
AcDbLine
 10
196.5554863749
 20
93.0648496558
 30
0.0
 11
196.5554863749
 21
155.7648530413
 31
0.0
  0
LINE
  5
B2
330
1F
100
AcDbEntity
  8
0
  6
Continuous
 62
     7
370
    25
100
AcDbLine
 10
195.7554877339
 20
93.8648520221
 30
0.0
 11
195.7554877339
 21
154.964850675
 31
0.0
  0
LINE
  5
B3
330
1F
100
AcDbEntity
  8
0
  6
Continuous
 62
     7
370
    25
100
AcDbLine
 10
217.0119643746
 20
153.2659636994
 30
0.0
 11
217.281198555
 21
152.9829515328
 31
0.0
  0
LINE
  5
B4
330
1F
100
AcDbEntity
  8
0
  6
Continuous
 62
     7
370
    25
100
AcDbLine
 10
217.281198555
 20
152.9829515328
 30
0.0
 11
218.3327436981
 21
151.3543328454
 31
0.0
  0
LINE
  5
B5
330
1F
100
AcDbEntity
  8
0
  6
Continuous
 62
     7
370
    25
100
AcDbLine
 10
218.3327436981
 20
151.3543328454
 30
0.0
 11
218.5197458206
 21
151.1551229467
 31
0.0
  0
SPLINE
  5
B6
330
1F
100
AcDbEntity
  8
0
  6
Continuous
 62
     7
370
    25
100
AcDbSpline
210
0.0
220
0.0
230
1.0
 70
     8
 71
     3
 72
     9
 73
     5
 74
     0
 42
0.000000001
 43
0.00000001
 40
0.0
 40
0.0
 40
0.0
 40
0.0
 40
0.5000512312644234
 40
1.0
 40
1.0
 40
1.0
 40
1.0
 10
218.5197458205521
 20
151.1551229466556
 30
0.0
 10
218.5452769790184
 20
151.3746506642454
 30
0.0
 10
218.5963340645128
 20
151.8136611173037
 30
0.0
 10
218.5452734912738
 20
152.252670543472
 30
0.0
 10
218.5197458205521
 20
152.4721527655481
 30
0.0
  0
LINE
  5
B7
330
1F
100
AcDbEntity
  8
0
  6
Continuous
 62
     7
370
    25
100
AcDbLine
 10
218.3327436981
 20
152.8467400183
 30
0.0
 11
218.5197458206
 21
152.4721527655
 31
0.0
  0
LINE
  5
B8
330
1F
100
AcDbEntity
  8
0
  6
Continuous
 62
     7
370
    25
100
AcDbLine
 10
217.281198555
 20
154.6609023769
 30
0.0
 11
218.3327436981
 21
152.8467400183
 31
0.0
  0
LINE
  5
B9
330
1F
100
AcDbEntity
  8
0
  6
Continuous
 62
     7
370
    25
100
AcDbLine
 10
217.0119643746
 20
155.1930694093
 30
0.0
 11
217.281198555
 21
154.6609023769
 31
0.0
  0
LINE
  5
BA
330
1F
100
AcDbEntity
  8
0
  6
Continuous
 62
     7
370
    25
100
AcDbLine
 10
217.0119643746
 20
99.3672957827
 30
0.0
 11
217.281198555
 21
99.9696714987
 31
0.0
  0
LINE
  5
BB
330
1F
100
AcDbEntity
  8
0
  6
Continuous
 62
     7
370
    25
100
AcDbLine
 10
217.281198555
 20
99.9696714987
 30
0.0
 11
218.3327436981
 21
101.5024887581
 31
0.0
  0
LINE
  5
BC
330
1F
100
AcDbEntity
  8
0
  6
Continuous
 62
     7
370
    25
100
AcDbLine
 10
218.3327436981
 20
101.5024887581
 30
0.0
 11
218.5197458206
 21
101.926495712
 31
0.0
  0
SPLINE
  5
BD
330
1F
100
AcDbEntity
  8
0
  6
Continuous
 62
     7
370
    25
100
AcDbSpline
210
0.0
220
0.0
230
1.0
 70
     8
 71
     3
 72
     9
 73
     5
 74
     0
 42
0.000000001
 43
0.00000001
 40
0.0
 40
0.0
 40
0.0
 40
0.0
 40
0.1255454967638887
 40
1.0
 40
1.0
 40
1.0
 40
1.0
 10
218.5197458205521
 20
104.9997000207065
 30
0.0
 10
218.5277445503833
 20
104.8711837127983
 30
0.0
 10
218.5914563523789
 20
103.8475204893379
 30
0.0
 10
218.5531996053076
 20
102.822675781684
 30
0.0
 10
218.5197458205521
 20
101.9264957119583
 30
0.0
  0
LINE
  5
BE
330
1F
100
AcDbEntity
  8
0
  6
Continuous
 62
     7
370
    25
100
AcDbLine
 10
218.3327436981
 20
104.984927382
 30
0.0
 11
218.5197458206
 21
104.9997000207
 31
0.0
  0
LINE
  5
BF
330
1F
100
AcDbEntity
  8
0
  6
Continuous
 62
     7
370
    25
100
AcDbLine
 10
217.281198555
 20
103.8850633611
 30
0.0
 11
218.3327436981
 21
104.984927382
 31
0.0
  0
LINE
  5
C0
330
1F
100
AcDbEntity
  8
0
  6
Continuous
 62
     7
370
    25
100
AcDbLine
 10
217.0119643746
 20
103.8640750755
 30
0.0
 11
217.281198555
 21
103.8850633611
 31
0.0
  0
LINE
  5
C1
330
1F
100
AcDbEntity
  8
0
  6
Continuous
 62
     7
370
    25
100
AcDbLine
 10
217.0119643746
 20
128.2184072022
 30
0.0
 11
217.281198555
 21
128.5377721486
 31
0.0
  0
LINE
  5
C2
330
1F
100
AcDbEntity
  8
0
  6
Continuous
 62
     7
370
    25
100
AcDbLine
 10
217.281198555
 20
128.5377721486
 30
0.0
 11
218.3327436981
 21
128.4419711863
 31
0.0
  0
LINE
  5
C3
330
1F
100
AcDbEntity
  8
0
  6
Continuous
 62
     7
370
    25
100
AcDbLine
 10
218.3327436981
 20
128.4419711863
 30
0.0
 11
218.5197458206
 21
128.666768707
 31
0.0
  0
SPLINE
  5
C4
330
1F
100
AcDbEntity
  8
0
  6
Continuous
 62
     7
370
    25
100
AcDbSpline
210
0.0
220
0.0
230
1.0
 70
     8
 71
     3
 72
     9
 73
     5
 74
     0
 42
0.000000001
 43
0.00000001
 40
0.0
 40
0.0
 40
0.0
 40
0.0
 40
0.5000511179859451
 40
1.0
 40
1.0
 40
1.0
 40
1.0
 10
218.5197458205521
 20
128.6667687070428
 30
0.0
 10
218.5452769751617
 20
129.3985492548501
 30
0.0
 10
218.5963340645097
 20
130.8619607371695
 30
0.0
 10
218.545273495129
 20
132.3253716961518
 30
0.0
 10
218.5197458205521
 20
133.0570023690222
 30
0.0
  0
LINE
  5
C5
330
1F
100
AcDbEntity
  8
0
  6
Continuous
 62
     7
370
    25
100
AcDbLine
 10
218.3327436981
 20
133.4168160518
 30
0.0
 11
218.5197458206
 21
133.057002369
 31
0.0
  0
LINE
  5
C6
330
1F
100
AcDbEntity
  8
0
  6
Continuous
 62
     7
370
    25
100
AcDbLine
 10
217.281198555
 20
134.1311134581
 30
0.0
 11
218.3327436981
 21
133.4168160518
 31
0.0
  0
LINE
  5
C7
330
1F
100
AcDbEntity
  8
0
  6
Continuous
 62
     7
370
    25
100
AcDbLine
 10
217.0119643746
 20
134.6422931363
 30
0.0
 11
217.281198555
 21
134.1311134581
 31
0.0
  0
LINE
  5
C8
330
1F
100
AcDbEntity
  8
0
  6
Continuous
 62
     7
370
    25
100
AcDbLine
 10
221.255487257
 20
100.4148511399
 30
0.0
 11
221.255487257
 21
148.4148515572
 31
0.0
  0
ARC
  5
C9
330
1F
100
AcDbEntity
  8
0
  6
Continuous
 62
     7
370
    25
100
AcDbCircle
 10
206.0703930361
 20
131.3344428033
 30
0.0
 40
2.79721890220286
100
AcDbArc
 50
88.8655906621
 51
271.1344093379
  0
ARC
  5
CA
330
1F
100
AcDbEntity
  8
0
  6
Continuous
 62
     7
370
    25
100
AcDbCircle
 10
206.0658979447
 20
130.9357530583
 30
0.0
 40
2.481785342490172
100
AcDbArc
 50
88.6175812595
 51
227.2011221276
  0
LINE
  5
CB
330
1F
100
AcDbEntity
  8
0
  6
Continuous
 62
     7
370
    25
100
AcDbLine
 10
206.1257720528
 20
128.5377721486
 30
0.0
 11
217.281198555
 21
128.5377721486
 31
0.0
  0
ARC
  5
CC
330
1F
100
AcDbEntity
  8
0
  6
Continuous
 62
     7
370
    25
100
AcDbCircle
 10
206.0844058363
 20
130.861885538
 30
0.0
 40
2.195506562405311
100
AcDbArc
 50
88.920408659
 51
271.079591341
  0
LINE
  5
CD
330
1F
100
AcDbEntity
  8
0
  6
Continuous
 62
     7
370
    25
100
AcDbLine
 10
206.1257720528
 20
128.666768707
 30
0.0
 11
218.5197458206
 21
128.666768707
 31
0.0
  0
LINE
  5
CE
330
1F
100
AcDbEntity
  8
0
  6
Continuous
 62
     7
370
    25
100
AcDbLine
 10
206.1257720528
 20
133.057002369
 30
0.0
 11
218.5197458206
 21
133.057002369
 31
0.0
  0
LINE
  5
CF
330
1F
100
AcDbEntity
  8
0
  6
Continuous
 62
     7
370
    25
100
AcDbLine
 10
206.1257720528
 20
134.1311134581
 30
0.0
 11
217.281198555
 21
134.1311134581
 31
0.0
  0
LINE
  5
D0
330
1F
100
AcDbEntity
  8
0
  6
Continuous
 62
     7
370
    25
100
AcDbLine
 10
206.1257720528
 20
133.4168160518
 30
0.0
 11
218.3327436981
 21
133.4168160518
 31
0.0
  0
LWPOLYLINE
  5
D1
330
1F
100
AcDbEntity
  8
0
  6
Continuous
 62
     7
370
    25
100
AcDbPolyline
 90
       11
 70
   128
 43
0.0
 10
205.0903052626
 20
103.7532346506
 10
204.5739800272
 20
103.5742847432
 10
203.9565578637
 20
103.2093851079
 10
203.5148650942
 20
102.7406243791
 10
203.2847017584
 20
102.2059763034
 10
203.2847017584
 20
101.6487585564
 10
203.5148650942
 20
101.1141123433
 10
203.9565578637
 20
100.6453497519
 10
204.5739800272
 20
100.2804501166
 10
205.3171158371
 20
100.0489736159
 10
206.1257720528
 20
99.9696714987
  0
ARC
  5
D2
330
1F
100
AcDbEntity
  8
0
  6
Continuous
 62
     7
370
    25
100
AcDbCircle
 10
205.8814636622
 20
104.0078437091
 30
0.0
 40
2.517238570363415
100
AcDbArc
 50
206.3721203957
 51
275.569559029
  0
ARC
  5
D3
330
1F
100
AcDbEntity
  8
0
  6
Continuous
 62
     7
370
    25
100
AcDbCircle
 10
205.8833137448
 20
104.0823934515
 30
0.0
 40
2.169488671224236
100
AcDbArc
 50
204.7447450169
 51
276.4166822647
  0
LINE
  5
D4
330
1F
100
AcDbEntity
  8
0
  6
Continuous
 62
     7
370
    25
100
AcDbLine
 10
206.1257720528
 20
101.926495712
 30
0.0
 11
218.5197458206
 21
101.926495712
 31
0.0
  0
LINE
  5
D5
330
1F
100
AcDbEntity
  8
0
  6
Continuous
 62
     7
370
    25
100
AcDbLine
 10
206.1257720528
 20
99.9696714987
 30
0.0
 11
217.281198555
 21
99.9696714987
 31
0.0
  0
LINE
  5
D6
330
1F
100
AcDbEntity
  8
0
  6
Continuous
 62
     7
370
    25
100
AcDbLine
 10
206.1257720528
 20
101.5024887581
 30
0.0
 11
218.3327436981
 21
101.5024887581
 31
0.0
  0
LWPOLYLINE
  5
D7
330
1F
100
AcDbEntity
  8
0
  6
Continuous
 62
     7
370
    25
100
AcDbPolyline
 90
        7
 70
   128
 43
0.0
 10
203.259660357
 20
153.7767121752
 10
203.2847017584
 20
153.9413253029
 10
203.5148650942
 20
154.1704492827
 10
203.9565578637
 20
154.3713392873
 10
204.5739800272
 20
154.5277176608
 10
205.3171158371
 20
154.6269184162
 10
206.1257720528
 20
154.6609023769
  0
LINE
  5
D8
330
1F
100
AcDbEntity
  8
0
  6
Continuous
 62
     7
370
    25
100
AcDbLine
 10
217.6109985051
 20
152.4721527655
 30
0.0
 11
218.5197458206
 21
152.4721527655
 31
0.0
  0
LINE
  5
D9
330
1F
100
AcDbEntity
  8
0
  6
Continuous
 62
     7
370
    25
100
AcDbLine
 10
217.3691452084
 20
152.8467400183
 30
0.0
 11
218.3327436981
 21
152.8467400183
 31
0.0
  0
LINE
  5
DA
330
1F
100
AcDbEntity
  8
0
  6
Continuous
 62
     7
370
    25
100
AcDbLine
 10
206.1257720528
 20
154.6609023769
 30
0.0
 11
217.281198555
 21
154.6609023769
 31
0.0
  0
LINE
  5
DB
330
1F
100
AcDbEntity
  8
0
  6
Continuous
 62
     7
370
    25
100
AcDbLine
 10
144.5175152806
 20
75.6398564388
 30
0.0
 11
144.5175152806
 21
155.7648530413
 31
0.0
  0
SPLINE
  5
DC
330
1F
100
AcDbEntity
  8
0
  6
Continuous
 62
     7
370
    25
100
AcDbSpline
210
0.0
220
0.0
230
1.0
 70
     8
 71
     3
 72
     8
 73
     4
 74
     0
 42
0.000000001
 43
0.00000001
 40
0.0
 40
0.0
 40
0.0
 40
0.0
 40
1.0
 40
1.0
 40
1.0
 40
1.0
 10
144.5175147878388
 20
75.63985775552615
 30
0.0
 10
144.0664100584386
 20
76.44081768734607
 30
0.0
 10
143.6157122311952
 20
77.24200769890672
 30
0.0
 10
143.1654857669174
 20
78.04346306153148
 30
0.0
  0
LINE
  5
DD
330
1F
100
AcDbEntity
  8
0
  6
Continuous
 62
     7
370
    25
100
AcDbLine
 10
143.1654863594
 20
78.0434621681
 30
0.0
 11
143.1654863594
 21
155.7648530413
 31
0.0
  0
SPLINE
  5
DE
330
1F
100
AcDbEntity
  8
0
  6
Continuous
 62
     7
370
    25
100
AcDbSpline
210
0.0
220
0.0
230
1.0
 70
    24
 71
     3
 72
     8
 73
     4
 74
     0
 42
0.000000001
 43
0.00000001
 40
0.0
 40
0.0
 40
0.0
 40
0.0
 40
1.0
 40
1.0
 40
1.0
 40
1.0
 10
143.1654857669174
 20
155.7648513485549
 30
0.0
 10
143.6096986492714
 20
155.7648513485549
 30
0.0
 10
144.0607132155106
 20
155.7648513485549
 30
0.0
 10
144.5175147878388
 20
155.7648513485549
 30
0.0
  0
SPLINE
  5
DF
330
1F
100
AcDbEntity
  8
0
  6
Continuous
 62
     7
370
    25
100
AcDbSpline
210
0.0
220
0.0
230
1.0
 70
    11
 71
     3
 72
    80
 73
    76
 74
     0
 42
0.000000001
 43
0.00000001
 40
0.0
 40
0.0
 40
0.0
 40
0.0
 40
0.0312499999999995
 40
0.0312499999999995
 40
0.0468749999999993
 40
0.0468749999999993
 40
0.0624999999999991
 40
0.0624999999999991
 40
0.0937499999999988
 40
0.0937499999999988
 40
0.1249999999999986
 40
0.1249999999999986
 40
0.1562499999999983
 40
0.1562499999999983
 40
0.1874999999999981
 40
0.1874999999999981
 40
0.2187499999999978
 40
0.2187499999999978
 40
0.2499999999999976
 40
0.2499999999999976
 40
0.2812499999999973
 40
0.2812499999999973
 40
0.3124999999999971
 40
0.3124999999999971
 40
0.3281249999999971
 40
0.3281249999999971
 40
0.3437499999999971
 40
0.3437499999999971
 40
0.3749999999999973
 40
0.3749999999999973
 40
0.4062499999999975
 40
0.4062499999999975
 40
0.4218749999999975
 40
0.4218749999999975
 40
0.4374999999999974
 40
0.4374999999999974
 40
0.4687499999999973
 40
0.4687499999999973
 40
0.4999999999999972
 40
0.4999999999999972
 40
0.531249999999997
 40
0.531249999999997
 40
0.562499999999997
 40
0.562499999999997
 40
0.5937499999999969
 40
0.5937499999999969
 40
0.6249999999999969
 40
0.6249999999999969
 40
0.6562499999999968
 40
0.6562499999999968
 40
0.6874999999999968
 40
0.6874999999999968
 40
0.7031249999999968
 40
0.7031249999999968
 40
0.7187499999999969
 40
0.7187499999999969
 40
0.7499999999999973
 40
0.7499999999999973
 40
0.7812499999999979
 40
0.7812499999999979
 40
0.7968749999999982
 40
0.7968749999999982
 40
0.8124999999999984
 40
0.8124999999999984
 40
0.8437499999999988
 40
0.8437499999999988
 40
0.874999999999999
 40
0.874999999999999
 40
0.9062499999999993
 40
0.9062499999999993
 40
0.9374999999999996
 40
0.9374999999999996
 40
0.9687499999999999
 40
0.9687499999999999
 40
1.0
 40
1.0
 40
1.0
 40
1.0
 10
130.2554857669174
 20
167.8294808121863
 30
0.0
 10
130.5860310796937
 20
167.8294808121862
 30
0.0
 10
130.9110112089454
 20
167.8456890435684
 30
0.0
 10
131.3904846201918
 20
167.893053675588
 30
0.0
 10
131.5489664380326
 20
167.9127078874786
 30
0.0
 10
131.8631859705369
 20
167.9598190436712
 30
0.0
 10
132.0193062542173
 20
167.987400363166
 30
0.0
 10
132.4733602831738
 20
168.0799361499597
 30
0.0
 10
132.7604636661137
 20
168.1550065835562
 30
0.0
 10
133.3038182221407
 20
168.3302448921668
 30
0.0
 10
133.5609218333463
 20
168.4312461900051
 30
0.0
 10
134.021828088285
 20
168.648602388466
 30
0.0
 10
134.2287257975
 20
168.7657667202382
 30
0.0
 10
134.5942511114922
 20
169.0158366444668
 30
0.0
 10
134.7494566336182
 20
169.1467827332258
 30
0.0
 10
134.9988870202179
 20
169.4125176769382
 30
0.0
 10
135.0949769760031
 20
169.5492712702491
 30
0.0
 10
135.2234958251966
 20
169.8233368450881
 30
0.0
 10
135.2553066953744
 20
169.9582769355569
 30
0.0
 10
135.2556633451477
 20
170.2237485726257
 30
0.0
 10
135.2231660929506
 20
170.3555730497669
 30
0.0
 10
135.0955406192361
 20
170.6050226493874
 30
0.0
 10
135.0011122181843
 20
170.7234553413154
 30
0.0
 10
134.8132513981987
 20
170.8923245384094
 30
0.0
 10
134.7424233993955
 20
170.9474105335296
 30
0.0
 10
134.5877015074302
 20
171.0526633620181
 30
0.0
 10
134.5037250372468
 20
171.1029985907784
 30
0.0
 10
134.2324013676024
 20
171.2475744233165
 30
0.0
 10
134.0258521490001
 20
171.3354360097335
 30
0.0
 10
133.559242008811
 20
171.495157102733
 30
0.0
 10
133.3068764391856
 20
171.5643953992002
 30
0.0
 10
132.9009750975069
 20
171.65418278843
 30
0.0
 10
132.7610744800294
 20
171.6817487505162
 30
0.0
 10
132.4718505447825
 20
171.7322395514425
 30
0.0
 10
132.3220110884932
 20
171.7552029902932
 30
0.0
 10
131.8678945188824
 20
171.815833506712
 30
0.0
 10
131.5562433001455
 20
171.8459075355078
 30
0.0
 10
130.9152468352332
 20
171.8864971227665
 30
0.0
 10
130.583719207281
 20
171.8968093529825
 30
0.0
 10
129.9309281622095
 20
171.8968849201483
 30
0.0
 10
129.6063919571777
 20
171.8869833146806
 30
0.0
 10
128.9611225077613
 20
171.8464967841553
 30
0.0
 10
128.6453795015985
 20
171.8160354842707
 30
0.0
 10
128.0434902066148
 20
171.7358848128341
 30
0.0
 10
127.7527409758034
 20
171.6856025810269
 30
0.0
 10
127.2058291841189
 20
171.5649323982539
 30
0.0
 10
126.954051820282
 20
171.4957085390839
 30
0.0
 10
126.4926638276608
 20
171.3382568114433
 30
0.0
 10
126.2813945480627
 20
171.2489083367695
 30
0.0
 10
125.9180901956866
 20
171.0556604660687
 30
0.0
 10
125.7642835472437
 20
170.9515324741894
 30
0.0
 10
125.5756640776464
 20
170.7829080880059
 30
0.0
 10
125.5196335914373
 20
170.724279686331
 30
0.0
 10
125.4240598297011
 20
170.6048247715048
 30
0.0
 10
125.3842969126761
 20
170.5439049826666
 30
0.0
 10
125.2885251623639
 20
170.3575002564926
 30
0.0
 10
125.2558023232378
 20
170.2283874386976
 30
0.0
 10
125.2551737369088
 20
169.9597305157418
 30
0.0
 10
125.2873598816435
 20
169.824359774985
 30
0.0
 10
125.3822705834991
 20
169.620809466749
 30
0.0
 10
125.421737366898
 20
169.5528375426856
 30
0.0
 10
125.516667365619
 20
169.4167453195547
 30
0.0
 10
125.5724241933823
 20
169.3483952193453
 30
0.0
 10
125.7603643113522
 20
169.1476922063031
 30
0.0
 10
125.9137257810684
 20
169.0183039324905
 30
0.0
 10
126.2759900159488
 20
168.7696385004406
 30
0.0
 10
126.4868384894146
 20
168.6498288580724
 30
0.0
 10
126.9475084597336
 20
168.4323065704997
 30
0.0
 10
127.1988828393174
 20
168.3332214706638
 30
0.0
 10
127.7447907262155
 20
168.156548996747
 30
0.0
 10
128.0356133008667
 20
168.080491908613
 30
0.0
 10
128.6369399156468
 20
167.95764693126
 30
0.0
 10
128.9514585002592
 20
167.9099408062068
 30
0.0
 10
129.5980399563791
 20
167.8456922710872
 30
0.0
 10
129.9249404541411
 20
167.8294808121862
 30
0.0
 10
130.2554857669174
 20
167.8294808121862
 30
0.0
  0
LINE
  5
E0
330
1F
100
AcDbEntity
  8
0
  6
Continuous
 62
     7
370
    25
100
AcDbLine
 10
126.2054857401
 20
155.7648530413
 30
0.0
 11
137.9934572218
 21
155.7648530413
 31
0.0
  0
LINE
  5
E1
330
1F
100
AcDbEntity
  8
0
  6
Continuous
 62
     7
370
    25
100
AcDbLine
 10
137.9934572218
 20
75.6398564388
 30
0.0
 11
137.9934572218
 21
155.7648530413
 31
0.0
  0
LINE
  5
E2
330
1F
100
AcDbEntity
  8
0
  6
Continuous
 62
     7
370
    25
100
AcDbLine
 10
137.9934572218
 20
75.6398564388
 30
0.0
 11
136.2054855166
 21
75.6398564388
 31
0.0
  0
SPLINE
  5
E3
330
1F
100
AcDbEntity
  8
0
  6
Continuous
 62
     7
370
    25
100
AcDbSpline
210
0.0
220
0.0
230
1.0
 70
     8
 71
     3
 72
    30
 73
    26
 74
     0
 42
0.000000001
 43
0.00000001
 40
0.0
 40
0.0
 40
0.0
 40
0.0
 40
0.1250000000000002
 40
0.1250000000000002
 40
0.1875000000000003
 40
0.1875000000000003
 40
0.2500000000000004
 40
0.2500000000000004
 40
0.3750000000000001
 40
0.3750000000000001
 40
0.4374999999999998
 40
0.4374999999999998
 40
0.4999999999999996
 40
0.4999999999999996
 40
0.6249999999999996
 40
0.6249999999999996
 40
0.6874999999999997
 40
0.6874999999999997
 40
0.7499999999999997
 40
0.7499999999999997
 40
0.8124999999999998
 40
0.8124999999999998
 40
0.8749999999999999
 40
0.8749999999999999
 40
1.0
 40
1.0
 40
1.0
 40
1.0
 10
136.2054857669174
 20
75.63985775552615
 30
0.0
 10
135.5427410730724
 20
75.63985775552615
 30
0.0
 10
134.8914852139567
 20
75.62501767893734
 30
0.0
 10
133.9310346756984
 20
75.58264811470772
 30
0.0
 10
133.6136432324654
 20
75.56517001192854
 30
0.0
 10
132.9844797309106
 20
75.52384172537624
 30
0.0
 10
132.6723315444688
 20
75.49991645191854
 30
0.0
 10
131.7650242426206
 20
75.42110993545163
 30
0.0
 10
131.1915992849793
 20
75.35880391547516
 30
0.0
 10
130.3777224154047
 20
75.2556745952358
 30
0.0
 10
130.1129162188348
 20
75.2194906761893
 30
0.0
 10
129.6060088080205
 20
75.1456958919888
 30
0.0
 10
129.364614656667
 20
75.10822203321715
 30
0.0
 10
128.6754731845346
 20
74.9955100898774
 30
0.0
 10
128.2624183696704
 20
74.91997399240363
 30
0.0
 10
127.7142635502954
 20
74.81158073538613
 30
0.0
 10
127.5448009429498
 20
74.77650850372287
 30
0.0
 10
127.2367836949344
 20
74.71027304312302
 30
0.0
 10
127.097403674326
 20
74.67894634636829
 30
0.0
 10
126.8476181616993
 20
74.62053757478738
 30
0.0
 10
126.7372120490454
 20
74.59345433960452
 30
0.0
 10
126.5459541954076
 20
74.54419458499092
 30
0.0
 10
126.4648346771233
 20
74.52193260518328
 30
0.0
 10
126.2706877570149
 20
74.46436569801502
 30
0.0
 10
126.2054857669174
 20
74.43810609322901
 30
0.0
 10
126.2054857669174
 20
74.42485234875498
 30
0.0
  0
LINE
  5
E4
330
1F
100
AcDbEntity
  8
0
  6
Continuous
 62
     7
370
    25
100
AcDbLine
 10
126.2054857401
 20
74.4248530079
 30
0.0
 11
126.2054857401
 21
74.4148506035
 31
0.0
  0
SPLINE
  5
E5
330
1F
100
AcDbEntity
  8
0
  6
Continuous
 62
     7
370
    25
100
AcDbSpline
210
0.0
220
0.0
230
1.0
 70
     8
 71
     3
 72
    17
 73
    13
 74
     0
 42
0.000000001
 43
0.00000001
 40
0.0
 40
0.0
 40
0.0
 40
0.0
 40
0.1043843958185158
 40
0.2118345569819801
 40
0.3162081801235555
 40
0.4235375330682647
 40
0.5292275935501746
 40
0.6379275752951962
 40
0.7444714855043735
 40
0.8541836194561564
 40
0.959308052615968
 40
1.0
 40
1.0
 40
1.0
 40
1.0
 10
136.2054855165779
 20
173.4046464969276
 30
0.0
 10
135.6575469760643
 20
173.4100139372604
 30
0.0
 10
134.54557696299
 20
173.4209064594244
 30
0.0
 10
132.9327216304675
 20
173.5060886432424
 30
0.0
 10
131.3992084797297
 20
173.6324591465739
 30
0.0
 10
130.0081875913555
 20
173.7893630180827
 30
0.0
 10
128.7726704750574
 20
173.9610584155184
 30
0.0
 10
127.749315329201
 20
174.1264032697284
 30
0.0
 10
126.948972656342
 20
174.2701075675605
 30
0.0
 10
126.438641103582
 20
174.3682715634923
 30
0.0
 10
126.1987323451226
 20
174.416192877965
 30
0.0
 10
126.230651256892
 20
174.4098263699513
 30
0.0
 10
126.2395586421489
 20
174.408049713528
 30
0.0
  0
LINE
  5
E6
330
1F
100
AcDbEntity
  8
0
  6
Continuous
 62
     7
370
    25
100
AcDbLine
 10
137.9934572218
 20
173.4046464969
 30
0.0
 11
136.2054855166
 21
173.4046464969
 31
0.0
  0
LINE
  5
E7
330
1F
100
AcDbEntity
  8
0
  6
Continuous
 62
     7
370
    25
100
AcDbLine
 10
137.9934572218
 20
163.3658124317
 30
0.0
 11
137.9934572218
 21
173.4046464969
 31
0.0
  0
LINE
  5
E8
330
1F
100
AcDbEntity
  8
0
  6
Continuous
 62
     7
370
    25
100
AcDbLine
 10
135.9134525595
 20
163.3658124317
 30
0.0
 11
137.9934572218
 21
163.3658124317
 31
0.0
  0
SPLINE
  5
E9
330
1F
100
AcDbEntity
  8
0
  6
Continuous
 62
     7
370
    25
100
AcDbSpline
210
0.0
220
0.0
230
1.0
 70
     8
 71
     3
 72
    22
 73
    18
 74
     0
 42
0.000000001
 43
0.00000001
 40
0.0
 40
0.0
 40
0.0
 40
0.0
 40
0.2500000000000002
 40
0.2500000000000002
 40
0.3750000000000003
 40
0.3750000000000003
 40
0.5000000000000004
 40
0.5000000000000004
 40
0.6250000000000004
 40
0.6250000000000004
 40
0.7500000000000004
 40
0.7500000000000004
 40
0.8750000000000004
 40
0.8750000000000004
 40
0.9375000000000002
 40
0.9375000000000002
 40
1.0
 40
1.0
 40
1.0
 40
1.0
 10
126.2054857669174
 20
155.7648513485549
 30
0.0
 10
126.4082107228365
 20
156.7840976904196
 30
0.0
 10
126.7229544446319
 20
157.7432058403589
 30
0.0
 10
127.4310099143028
 20
159.0856849178682
 30
0.0
 10
127.7094725445205
 20
159.5198935006082
 30
0.0
 10
128.3482399511577
 20
160.3315212161103
 30
0.0
 10
128.7086536309479
 20
160.7108015090471
 30
0.0
 10
129.5261858629372
 20
161.4137600880681
 30
0.0
 10
129.9873538462243
 20
161.7387889057687
 30
0.0
 10
130.9853440927081
 20
162.3038042291596
 30
0.0
 10
131.5251032867004
 20
162.5475078233661
 30
0.0
 10
132.6996962507317
 20
162.9517077510111
 30
0.0
 10
133.3114324367236
 20
163.1041449440566
 30
0.0
 10
134.2633416615853
 20
163.2594724916653
 30
0.0
 10
134.5865748258459
 20
163.2989772717153
 30
0.0
 10
135.2456379971212
 20
163.352286392384
 30
0.0
 10
135.5797020076952
 20
163.3658141094419
 30
0.0
 10
135.9134526150967
 20
163.3658141094419
 30
0.0
  0
LINE
  5
EA
330
1F
100
AcDbEntity
  8
0
  6
Continuous
 62
     7
370
    25
100
AcDbLine
 10
139.345486143
 20
78.0434621681
 30
0.0
 11
139.345486143
 21
155.7648530413
 31
0.0
  0
SPLINE
  5
EB
330
1F
100
AcDbEntity
  8
0
  6
Continuous
 62
     7
370
    25
100
AcDbSpline
210
0.0
220
0.0
230
1.0
 70
     8
 71
     3
 72
     8
 73
     4
 74
     0
 42
0.000000001
 43
0.00000001
 40
0.0
 40
0.0
 40
0.0
 40
0.0
 40
1.0
 40
1.0
 40
1.0
 40
1.0
 10
139.3454857669174
 20
78.04346306153148
 30
0.0
 10
138.8952593026396
 20
77.24200769890672
 30
0.0
 10
138.4445614753963
 20
76.44081768734607
 30
0.0
 10
137.993456745996
 20
75.63985775552615
 30
0.0
  0
SPLINE
  5
EC
330
1F
100
AcDbEntity
  8
0
  6
Continuous
 62
     7
370
    25
100
AcDbSpline
210
0.0
220
0.0
230
1.0
 70
    24
 71
     3
 72
     8
 73
     4
 74
     0
 42
0.000000001
 43
0.00000001
 40
0.0
 40
0.0
 40
0.0
 40
0.0
 40
1.0
 40
1.0
 40
1.0
 40
1.0
 10
137.993456745996
 20
155.7648513485549
 30
0.0
 10
138.4502583183242
 20
155.7648513485549
 30
0.0
 10
138.9012728845635
 20
155.7648513485549
 30
0.0
 10
139.3454857669174
 20
155.7648513485549
 30
0.0
  0
LINE
  5
ED
330
1F
100
AcDbEntity
  8
0
  6
Continuous
 62
     7
370
    25
100
AcDbLine
 10
121.2554857669
 20
74.9148516168
 30
0.0
 11
121.2554857669
 21
173.9148510803
 31
0.0
  0
LINE
  5
EE
330
1F
100
AcDbEntity
  8
0
  6
Continuous
 62
     7
370
    25
100
AcDbLine
 10
149.2054857848
 20
75.6398564388
 30
0.0
 11
144.5175152806
 21
75.6398564388
 31
0.0
  0
LINE
  5
EF
330
1F
100
AcDbEntity
  8
0
  6
Continuous
 62
     7
370
    25
100
AcDbLine
 10
144.5175152806
 20
155.7648530413
 30
0.0
 11
149.2054857848
 21
155.7648530413
 31
0.0
  0
LINE
  5
F0
330
1F
100
AcDbEntity
  8
0
  6
Continuous
 62
     7
370
    25
100
AcDbLine
 10
150.2054859487
 20
76.6655070891
 30
0.0
 11
150.2054859487
 21
155.7648530413
 31
0.0
  0
SPLINE
  5
F1
330
1F
100
AcDbEntity
  8
0
  6
Continuous
 62
     7
370
    25
100
AcDbSpline
210
0.0
220
0.0
230
1.0
 70
     8
 71
     3
 72
    14
 73
    10
 74
     0
 42
0.000000001
 43
0.00000001
 40
0.0
 40
0.0
 40
0.0
 40
0.0
 40
0.25
 40
0.25
 40
0.5
 40
0.5
 40
0.75
 40
0.75
 40
1.0
 40
1.0
 40
1.0
 40
1.0
 10
150.2054857669174
 20
76.66550580330164
 30
0.0
 10
150.2054857669174
 20
76.5320801072471
 30
0.0
 10
150.1801746670065
 20
76.40023229940276
 30
0.0
 10
150.0818399031618
 20
76.15370975070864
 30
0.0
 10
150.0086958989057
 20
76.03990456246812
 30
0.0
 10
149.82525783781
 20
75.84944738552083
 30
0.0
 10
149.7135715034715
 20
75.77181252167092
 30
0.0
 10
149.4710680731652
 20
75.66752111155844
 30
0.0
 10
149.3376936444709
 20
75.6398577555261
 30
0.0
 10
149.2054857669174
 20
75.63985775552611
 30
0.0
  0
SPLINE
  5
F2
330
1F
100
AcDbEntity
  8
0
  6
Continuous
 62
     7
370
    25
100
AcDbSpline
210
0.0
220
0.0
230
1.0
 70
    24
 71
     3
 72
    12
 73
     8
 74
     0
 42
0.000000001
 43
0.00000001
 40
0.0
 40
0.0
 40
0.0
 40
0.0
 40
0.2500000000000032
 40
0.2500000000000032
 40
0.5000000000000064
 40
0.5000000000000064
 40
1.0
 40
1.0
 40
1.0
 40
1.0
 10
149.2054857669174
 20
155.7648513485549
 30
0.0
 10
149.3575760038624
 20
155.7648513485549
 30
0.0
 10
149.5060352649378
 20
155.7648513485549
 30
0.0
 10
149.7634388972035
 20
155.7648513485549
 30
0.0
 10
149.8725436450455
 20
155.7648513485549
 30
0.0
 10
150.126603121453
 20
155.7648513485549
 30
0.0
 10
150.2054857669174
 20
155.7648513485549
 30
0.0
 10
150.2054857669174
 20
155.7648513485549
 30
0.0
  0
SPLINE
  5
F3
330
1F
100
AcDbEntity
  8
0
  6
Continuous
 62
     7
370
    25
100
AcDbSpline
210
0.0
220
0.0
230
1.0
 70
     8
 71
     3
 72
    14
 73
    10
 74
     0
 42
0.000000001
 43
0.00000001
 40
0.0
 40
0.0
 40
0.0
 40
0.0
 40
0.25
 40
0.25
 40
0.5
 40
0.5
 40
0.75
 40
0.75
 40
1.0
 40
1.0
 40
1.0
 40
1.0
 10
143.1654857669174
 20
78.95167256616007
 30
0.0
 10
143.1654857669174
 20
79.05871664715444
 30
0.0
 10
143.1453680797592
 20
79.16395178739688
 30
0.0
 10
143.0668768904936
 20
79.36180227424458
 30
0.0
 10
143.0087202656924
 20
79.4528540378095
 30
0.0
 10
142.8622050100743
 20
79.60602013173427
 30
0.0
 10
142.7735624614333
 20
79.66831457794369
 30
0.0
 10
142.577839138633
 20
79.75310836347968
 30
0.0
 10
142.472607947562
 20
79.7751758905053
 30
0.0
 10
142.3654857669174
 20
79.77517589050531
 30
0.0
  0
SPLINE
  5
F4
330
1F
100
AcDbEntity
  8
0
  6
Continuous
 62
     7
370
    25
100
AcDbSpline
210
0.0
220
0.0
230
1.0
 70
    24
 71
     3
 72
    14
 73
    10
 74
     0
 42
0.000000001
 43
0.00000001
 40
0.0
 40
0.0
 40
0.0
 40
0.0
 40
0.25
 40
0.25
 40
0.5
 40
0.5
 40
0.75
 40
0.75
 40
1.0
 40
1.0
 40
1.0
 40
1.0
 10
142.3654857669174
 20
155.7648513485549
 30
0.0
 10
142.4892555316825
 20
155.7648513485549
 30
0.0
 10
142.6136226356894
 20
155.7648513485549
 30
0.0
 10
142.8199791044155
 20
155.7648513485549
 30
0.0
 10
142.9053072478338
 20
155.7648513485549
 30
0.0
 10
143.0374993065491
 20
155.7648513485549
 30
0.0
 10
143.0861445502997
 20
155.7648513485549
 30
0.0
 10
143.1496803420284
 20
155.7648513485549
 30
0.0
 10
143.1654857669174
 20
155.7648513485549
 30
0.0
 10
143.1654857669174
 20
155.7648513485549
 30
0.0
  0
SPLINE
  5
F5
330
1F
100
AcDbEntity
  8
0
  6
Continuous
 62
     7
370
    25
100
AcDbSpline
210
0.0
220
0.0
230
1.0
 70
     8
 71
     3
 72
    12
 73
     8
 74
     0
 42
0.000000001
 43
0.00000001
 40
0.0
 40
0.0
 40
0.0
 40
0.0
 40
0.25
 40
0.25
 40
0.5
 40
0.5
 40
1.0
 40
1.0
 40
1.0
 40
1.0
 10
140.1454857669174
 20
79.77517589050531
 30
0.0
 10
140.0397251135685
 20
79.77517589050528
 30
0.0
 10
139.9317374853855
 20
79.75263638450488
 30
0.0
 10
139.7371428201199
 20
79.66806575250959
 30
0.0
 10
139.6482709072811
 20
79.6055840997508
 30
0.0
 10
139.4290786149552
 20
79.37619514827864
 30
0.0
 10
139.3454857669174
 20
79.16361181075625
 30
0.0
 10
139.3454857669174
 20
78.95167256616007
 30
0.0
  0
SPLINE
  5
F6
330
1F
100
AcDbEntity
  8
0
  6
Continuous
 62
     7
370
    25
100
AcDbSpline
210
0.0
220
0.0
230
1.0
 70
    24
 71
     3
 72
    14
 73
    10
 74
     0
 42
0.000000001
 43
0.00000001
 40
0.0
 40
0.0
 40
0.0
 40
0.0
 40
0.25
 40
0.25
 40
0.5
 40
0.5
 40
0.75
 40
0.75
 40
1.0
 40
1.0
 40
1.0
 40
1.0
 10
139.3454857669174
 20
155.7648513485549
 30
0.0
 10
139.3454857669174
 20
155.7648513485549
 30
0.0
 10
139.3612000873833
 20
155.7648513485549
 30
0.0
 10
139.4248840658517
 20
155.7648513485549
 30
0.0
 10
139.4734872602622
 20
155.7648513485549
 30
0.0
 10
139.6061707826878
 20
155.7648513485549
 30
0.0
 10
139.6912728869984
 20
155.7648513485549
 30
0.0
 10
139.8977151219085
 20
155.7648513485549
 30
0.0
 10
140.0217960635315
 20
155.7648513485549
 30
0.0
 10
140.1454857669174
 20
155.7648513485549
 30
0.0
  0
LINE
  5
F7
330
1F
100
AcDbEntity
  8
0
  6
Continuous
 62
     7
370
    25
100
AcDbLine
 10
142.3654858557
 20
79.7751745392
 30
0.0
 11
140.1454866467
 21
79.7751745392
 31
0.0
  0
LINE
  5
F8
330
1F
100
AcDbEntity
  8
0
  6
Continuous
 62
     7
370
    25
100
AcDbLine
 10
140.1454866467
 20
155.7648530413
 30
0.0
 11
142.3654858557
 21
155.7648530413
 31
0.0
  0
LINE
  5
F9
330
1F
100
AcDbEntity
  8
0
  6
Continuous
 62
     7
370
    25
100
AcDbLine
 10
86.4554852782
 20
88.1508378495
 30
0.0
 11
86.4554852782
 21
90.5455177833
 31
0.0
  0
SPLINE
  5
FA
330
1F
100
AcDbEntity
  8
0
  6
Continuous
 62
     7
370
    25
100
AcDbSpline
210
0.0
220
0.0
230
1.0
 70
     8
 71
     3
 72
    14
 73
    10
 74
     0
 42
0.000000001
 43
0.00000001
 40
0.0
 40
0.0
 40
0.0
 40
0.0
 40
0.25
 40
0.25
 40
0.5
 40
0.5
 40
0.75
 40
0.75
 40
1.0
 40
1.0
 40
1.0
 40
1.0
 10
85.45106329558044
 20
92.24837000481142
 30
0.0
 10
85.53983187352577
 20
92.08983587350347
 30
0.0
 10
85.66154971220469
 20
91.9373931966149
 30
0.0
 10
85.89659932206152
 20
91.64025857278598
 30
0.0
 10
86.01222950827841
 20
91.49557592916862
 30
0.0
 10
86.21263444170624
 20
91.21228672666521
 30
0.0
 10
86.29803473369054
 20
91.07373273362838
 30
0.0
 10
86.4197403674078
 20
90.80234870359483
 30
0.0
 10
86.45548576692043
 20
90.67021283496021
 30
0.0
 10
86.45548576692042
 20
90.54551808318945
 30
0.0
  0
SPLINE
  5
FB
330
1F
100
AcDbEntity
  8
0
  6
Continuous
 62
     7
370
    25
100
AcDbSpline
210
0.0
220
0.0
230
1.0
 70
     8
 71
     3
 72
    14
 73
    10
 74
     0
 42
0.000000001
 43
0.00000001
 40
0.0
 40
0.0
 40
0.0
 40
0.0
 40
0.1249999999999983
 40
0.1249999999999983
 40
0.2499999999999966
 40
0.2499999999999966
 40
0.4999999999999978
 40
0.4999999999999978
 40
1.0
 40
1.0
 40
1.0
 40
1.0
 10
84.5554857669174
 20
92.87719994391152
 30
0.0
 10
84.6230680667019
 20
92.88435582901292
 30
0.0
 10
84.69555564444981
 20
92.87993135897393
 30
0.0
 10
84.82784675371575
 20
92.85022520120357
 30
0.0
 10
84.88512413310592
 20
92.82694091962533
 30
0.0
 10
85.0347745603062
 20
92.74945567977502
 30
0.0
 10
85.1084878558277
 20
92.68760385287365
 30
0.0
 10
85.29629583915394
 20
92.5029264002253
 30
0.0
 10
85.38033614551539
 20
92.37468347693411
 30
0.0
 10
85.45106329558166
 20
92.24837000481152
 30
0.0
  0
SPLINE
  5
FC
330
1F
100
AcDbEntity
  8
0
  6
Continuous
 62
     7
370
    25
100
AcDbSpline
210
0.0
220
0.0
230
1.0
 70
     8
 71
     3
 72
     8
 73
     4
 74
     0
 42
0.000000001
 43
0.00000001
 40
0.0
 40
0.0
 40
0.0
 40
0.0
 40
1.0
 40
1.0
 40
1.0
 40
1.0
 10
81.01084537883662
 20
92.45915135911974
 30
0.0
 10
82.17614368954548
 20
92.61433883100636
 30
0.0
 10
83.36075890358532
 20
92.75069746931666
 30
0.0
 10
84.5554857669174
 20
92.87719994391152
 30
0.0
  0
SPLINE
  5
FD
330
1F
100
AcDbEntity
  8
0
  6
Continuous
 62
     7
370
    25
100
AcDbSpline
210
0.0
220
0.0
230
1.0
 70
     8
 71
     3
 72
    14
 73
    10
 74
     0
 42
0.000000001
 43
0.00000001
 40
0.0
 40
0.0
 40
0.0
 40
0.0
 40
0.5000000000000014
 40
0.5000000000000014
 40
0.7500000000000022
 40
0.7500000000000022
 40
0.8750000000000011
 40
0.8750000000000011
 40
1.0
 40
1.0
 40
1.0
 40
1.0
 10
73.25541088288871
 20
92.16901917998982
 30
0.0
 10
74.56371244542245
 20
92.17603390373094
 30
0.0
 10
75.86877182007929
 20
92.19144248017544
 30
0.0
 10
77.81464787156759
 20
92.24533903564208
 30
0.0
 10
78.46134537530658
 20
92.2683706002448
 30
0.0
 10
79.42518773916093
 20
92.31931312511554
 30
0.0
 10
79.745426431095
 20
92.33904804734874
 30
0.0
 10
80.38212165743741
 20
92.38853517582031
 30
0.0
 10
80.69883706572034
 20
92.41759995474952
 30
0.0
 10
81.01084537883665
 20
92.4591513591197
 30
0.0
  0
SPLINE
  5
FE
330
1F
100
AcDbEntity
  8
0
  6
Continuous
 62
     7
370
    25
100
AcDbSpline
210
0.0
220
0.0
230
1.0
 70
     8
 71
     3
 72
    12
 73
     8
 74
     0
 42
0.000000001
 43
0.00000001
 40
0.0
 40
0.0
 40
0.0
 40
0.0
 40
0.2499999999999991
 40
0.2499999999999991
 40
0.4999999999999982
 40
0.4999999999999982
 40
1.0
 40
1.0
 40
1.0
 40
1.0
 10
79.55548576691741
 20
156.5013742400514
 30
0.0
 10
79.03678694508923
 20
156.5338970148996
 30
0.0
 10
78.51507537188422
 20
156.5571937560701
 30
0.0
 10
77.46878335538865
 20
156.5950392704922
 30
0.0
 10
76.94411172971836
 20
156.6093077449883
 30
0.0
 10
75.36726570717917
 20
156.6435172324466
 30
0.0
 10
74.31231039263228
 20
156.6550167363905
 30
0.0
 10
73.25541088288702
 20
156.6606835171201
 30
0.0
  0
SPLINE
  5
FF
330
1F
100
AcDbEntity
  8
0
  6
Continuous
 62
     7
370
    25
100
AcDbSpline
210
0.0
220
0.0
230
1.0
 70
     8
 71
     3
 72
    20
 73
    16
 74
     0
 42
0.000000001
 43
0.00000001
 40
0.0
 40
0.0
 40
0.0
 40
0.0
 40
0.2499999999999982
 40
0.2499999999999982
 40
0.4999999999999964
 40
0.4999999999999964
 40
0.7499999999999947
 40
0.7499999999999947
 40
0.8749999999999962
 40
0.8749999999999962
 40
0.9374999999999978
 40
0.9374999999999978
 40
0.9687499999999989
 40
0.9687499999999989
 40
1.0
 40
1.0
 40
1.0
 40
1.0
 10
81.4554857669174
 20
158.1594600855395
 30
0.0
 10
81.4554857669174
 20
158.0237777657927
 30
0.0
 10
81.40677397770078
 20
157.8826907796527
 30
0.0
 10
81.23761255447559
 20
157.5906190609221
 30
0.0
 10
81.11583214055729
 20
157.4389703188318
 30
0.0
 10
80.8182850458078
 20
157.1365618786786
 30
0.0
 10
80.644372440105
 20
156.9839732425553
 30
0.0
 10
80.32495760622317
 20
156.758702478713
 30
0.0
 10
80.20991683077592
 20
156.6839793842023
 30
0.0
 10
80.00283250675952
 20
156.5845689749453
 30
0.0
 10
79.92672467195314
 20
156.5530038826007
 30
0.0
 10
79.79533013239978
 20
156.5185604984078
 30
0.0
 10
79.74877691339832
 20
156.5095089266401
 30
0.0
 10
79.65244356231761
 20
156.4993332778016
 30
0.0
 10
79.60318413896216
 20
156.4983835191266
 30
0.0
 10
79.55548576691542
 20
156.5013742400412
 30
0.0
  0
LINE
  5
100
330
1F
100
AcDbEntity
  8
0
  6
Continuous
 62
     7
370
    25
100
AcDbLine
 10
81.4554863212
 20
158.1594584693
 30
0.0
 11
81.4554863212
 21
160.428365152
 31
0.0
  0
LINE
  5
101
330
1F
100
AcDbEntity
  8
0
  6
Continuous
 62
     7
370
    25
100
AcDbLine
 10
118.7554858228
 20
86.5326015462
 30
0.0
 11
118.7554858228
 21
162.2971011509
 31
0.0
  0
SPLINE
  5
102
330
1F
100
AcDbEntity
  8
0
  6
Continuous
 62
     7
370
    25
100
AcDbSpline
210
0.0
220
0.0
230
1.0
 70
     8
 71
     3
 72
    24
 73
    20
 74
     0
 42
0.000000001
 43
0.00000001
 40
0.0
 40
0.0
 40
0.0
 40
0.0
 40
0.0002934239329635
 40
0.0628079954843725
 40
0.1260453886222317
 40
0.1890746649056576
 40
0.2513200327496127
 40
0.3133304381321615
 40
0.3759158074016681
 40
0.4383740215105411
 40
0.5000631209931454
 40
0.5616593985498132
 40
0.6245050468179062
 40
0.6872231543007362
 40
0.7494953203649202
 40
0.811758388799549
 40
0.8747365576758938
 40
0.937898032705022
 40
1.0
 40
1.0
 40
1.0
 40
1.0
 10
99.77544141688938
 20
87.4836048294662
 30
0.0
 10
99.7752468731066
 20
87.48358113220559
 30
0.0
 10
99.73360437685092
 20
87.47850868490318
 30
0.0
 10
99.87862758902375
 20
87.49694997504928
 30
0.0
 10
100.2337448160422
 20
87.53955230381608
 30
0.0
 10
100.8383103696782
 20
87.60766263714244
 30
0.0
 10
101.644747528084
 20
87.68092795047038
 30
0.0
 10
102.6302246381052
 20
87.74544355377908
 30
0.0
 10
103.7618937794875
 20
87.78401046905837
 30
0.0
 10
104.9841866931498
 20
87.78769977090519
 30
0.0
 10
106.2515158391101
 20
87.74528134451104
 30
0.0
 10
107.5180010822071
 20
87.65702647825952
 30
0.0
 10
108.7341392130678
 20
87.52864087102851
 30
0.0
 10
109.8595486386835
 20
87.37599314435857
 30
0.0
 10
110.8369668319015
 20
87.21422276299357
 30
0.0
 10
111.6402315124191
 20
87.06169032651714
 30
0.0
 10
112.2287249214506
 20
86.93767668775627
 30
0.0
 10
112.617631657936
 20
86.85275509660565
 30
0.0
 10
112.6643924743063
 20
86.84202938829755
 30
0.0
 10
112.6875751254856
 20
86.83671189442859
 30
0.0
  0
SPLINE
  5
103
330
1F
100
AcDbEntity
  8
0
  6
Continuous
 62
     7
370
    25
100
AcDbSpline
210
0.0
220
0.0
230
1.0
 70
     8
 71
     3
 72
    27
 73
    23
 74
     0
 42
0.000000001
 43
0.00000001
 40
0.0
 40
0.0
 40
0.0
 40
0.0
 40
0.0619954680688691
 40
0.1254397621813206
 40
0.1886583727463893
 40
0.251034619126021
 40
0.3131782550161727
 40
0.3756730771103805
 40
0.4382401025850827
 40
0.4998243385522876
 40
0.5615387009126989
 40
0.6240931220670071
 40
0.6867530144355112
 40
0.7488662870717021
 40
0.8111008374917957
 40
0.8742090103085141
 40
0.9448189516773958
 40
0.9756082665127878
 40
0.9877505319198365
 40
0.9999433694577802
 40
0.9999501670932718
 40
1.0
 40
1.0
 40
1.0
 40
1.0
 10
112.6874540535509
 20
161.9929460991977
 30
0.0
 10
112.6638824625919
 20
161.9876365141543
 30
0.0
 10
112.6161884156521
 20
161.9768932597541
 30
0.0
 10
112.2241453222731
 20
161.8916663745777
 30
0.0
 10
111.6336326770862
 20
161.7670976936217
 30
0.0
 10
110.8295942290194
 20
161.6141487834516
 30
0.0
 10
109.8535194626193
 20
161.4523915808451
 30
0.0
 10
108.7317111497227
 20
161.3001581629098
 30
0.0
 10
107.5181795139467
 20
161.1723828091058
 30
0.0
 10
106.253349083116
 20
161.0845342911
 30
0.0
 10
104.9853057114275
 20
161.042146261404
 30
0.0
 10
103.7617984104935
 20
161.0458852969914
 30
0.0
 10
102.6282990648182
 20
161.0844739105198
 30
0.0
 10
101.6421944421871
 20
161.1489198439612
 30
0.0
 10
100.833564599747
 20
161.2224285776654
 30
0.0
 10
100.2133360649995
 20
161.2923990230008
 30
0.0
 10
99.89518288334418
 20
161.3309504156463
 30
0.0
 10
99.79952143750064
 20
161.3430214679782
 30
0.0
 10
99.77790260865257
 20
161.3457818887323
 30
0.0
 10
99.77506164107824
 20
161.3461102701561
 30
0.0
 10
99.77474126570041
 20
161.34616520737
 30
0.0
 10
99.77477682584697
 20
161.3461591113147
 30
0.0
 10
99.77480811753864
 20
161.3461537469982
 30
0.0
  0
SPLINE
  5
104
330
1F
100
AcDbEntity
  8
0
  6
Continuous
 62
     7
370
    25
100
AcDbSpline
210
0.0
220
0.0
230
1.0
 70
     8
 71
     3
 72
    20
 73
    16
 74
     0
 42
0.000000001
 43
0.00000001
 40
0.0
 40
0.0
 40
0.0
 40
0.0
 40
0.249999999999986
 40
0.249999999999986
 40
0.3749999999999789
 40
0.3749999999999789
 40
0.4374999999999789
 40
0.4374999999999789
 40
0.4999999999999789
 40
0.4999999999999789
 40
0.6249999999999835
 40
0.6249999999999835
 40
0.7499999999999879
 40
0.7499999999999879
 40
1.0
 40
1.0
 40
1.0
 40
1.0
 10
71.64629999863342
 20
93.73636819585424
 30
0.0
 10
71.67257221584683
 20
93.7556861369367
 30
0.0
 10
71.70325235810166
 20
93.77007484803848
 30
0.0
 10
71.7747232284836
 20
93.76317048620247
 30
0.0
 10
71.80275026552793
 20
93.75600448285405
 30
0.0
 10
71.85783385502543
 20
93.72630545615046
 30
0.0
 10
71.87872518357787
 20
93.71283181358912
 30
0.0
 10
71.92393383102333
 20
93.67763354807312
 30
0.0
 10
71.9483380434189
 20
93.65572531934585
 30
0.0
 10
72.01967036147033
 20
93.5836004593503
 30
0.0
 10
72.06156714629061
 20
93.53125991840025
 30
0.0
 10
72.13314310514649
 20
93.4337765264995
 30
0.0
 10
72.16397109496378
 20
93.38702275662108
 30
0.0
 10
72.24707102779935
 20
93.25372954078196
 30
0.0
 10
72.29192593316967
 20
93.17109214286675
 30
0.0
 10
72.33203800862223
 20
93.09198524807597
 30
0.0
  0
SPLINE
  5
105
330
1F
100
AcDbEntity
  8
0
  6
Continuous
 62
     7
370
    25
100
AcDbSpline
210
0.0
220
0.0
230
1.0
 70
     8
 71
     3
 72
    14
 73
    10
 74
     0
 42
0.000000001
 43
0.00000001
 40
0.0
 40
0.0
 40
0.0
 40
0.0
 40
0.25
 40
0.25
 40
0.5
 40
0.5
 40
0.75
 40
0.75
 40
1.0
 40
1.0
 40
1.0
 40
1.0
 10
71.35548576691741
 20
93.91218160598702
 30
0.0
 10
71.35548576691743
 20
93.87093467496267
 30
0.0
 10
71.36409548329867
 20
93.83402770268019
 30
0.0
 10
71.395181662869
 20
93.77312764278078
 30
0.0
 10
71.41757121635307
 20
93.74894672324109
 30
0.0
 10
71.47231514752919
 20
93.71497913235784
 30
0.0
 10
71.50476538711438
 20
93.70505904838964
 30
0.0
 10
71.57476690184245
 20
93.70370783948479
 30
0.0
 10
71.61297740196498
 20
93.71186611618096
 30
0.0
 10
71.64629999863807
 20
93.73636819584904
 30
0.0
  0
LINE
  5
106
330
1F
100
AcDbEntity
  8
0
  6
Continuous
 62
     7
370
    25
100
AcDbLine
 10
71.3554867146
 20
93.9121818353
 30
0.0
 11
71.3554867146
 21
154.9175208618
 31
0.0
  0
SPLINE
  5
107
330
1F
100
AcDbEntity
  8
0
  6
Continuous
 62
     7
370
    25
100
AcDbSpline
210
0.0
220
0.0
230
1.0
 70
     8
 71
     3
 72
     9
 73
     5
 74
     0
 42
0.000000001
 43
0.00000001
 40
0.0
 40
0.0
 40
0.0
 40
0.0
 40
0.0592942499244465
 40
1.0
 40
1.0
 40
1.0
 40
1.0
 10
71.6463015017807
 20
155.0933340747713
 30
0.0
 10
71.64141850408193
 20
155.096627214469
 30
0.0
 10
71.55906654406932
 20
155.1521661529321
 30
0.0
 10
71.49293588965402
 20
155.0948739498193
 30
0.0
 10
71.4307264027893
 20
155.0409788449167
 30
0.0
  0
SPLINE
  5
108
330
1F
100
AcDbEntity
  8
0
  6
Continuous
 62
     7
370
    25
100
AcDbSpline
210
0.0
220
0.0
230
1.0
 70
     8
 71
     3
 72
     8
 73
     4
 74
     0
 42
0.000000001
 43
0.00000001
 40
0.0
 40
0.0
 40
0.0
 40
0.0
 40
1.0
 40
1.0
 40
1.0
 40
1.0
 10
71.37911943585362
 20
155.0251005921925
 30
0.0
 10
71.36377039721758
 20
154.9945905371966
 30
0.0
 10
71.35548576691741
 20
154.9582789816843
 30
0.0
 10
71.35548576691741
 20
154.9175210911229
 30
0.0
  0
SPLINE
  5
109
330
1F
100
AcDbEntity
  8
0
  6
Continuous
 62
     7
370
    25
100
AcDbSpline
210
0.0
220
0.0
230
1.0
 70
     8
 71
     3
 72
    20
 73
    16
 74
     0
 42
0.000000001
 43
0.00000001
 40
0.0
 40
0.0
 40
0.0
 40
0.0
 40
0.2500000000000037
 40
0.2500000000000037
 40
0.3750000000000055
 40
0.3750000000000055
 40
0.5000000000000073
 40
0.5000000000000073
 40
0.5625000000000057
 40
0.5625000000000057
 40
0.625000000000004
 40
0.625000000000004
 40
0.7500000000000027
 40
0.7500000000000027
 40
1.0
 40
1.0
 40
1.0
 40
1.0
 10
72.33203800861985
 20
155.7377174490331
 30
0.0
 10
72.29204179079602
 20
155.6588390424756
 30
0.0
 10
72.24692816295835
 20
155.5757093957842
 30
0.0
 10
72.16367394859182
 20
155.4422207314332
 30
0.0
 10
72.13345461997132
 20
155.3963556755512
 30
0.0
 10
72.06136638482991
 20
155.2981641231463
 30
0.0
 10
72.0194490674188
 20
155.2458543036228
 30
0.0
 10
71.94819846286735
 20
155.1738484008883
 30
0.0
 10
71.92396265048804
 20
155.1520781885867
 30
0.0
 10
71.87836446030337
 20
155.1166035302577
 30
0.0
 10
71.85756197070367
 20
155.1032333460801
 30
0.0
 10
71.80262097228454
 20
155.0736634339449
 30
0.0
 10
71.77455198419774
 20
155.0665369116429
 30
0.0
 10
71.7040491541349
 20
155.0596625401602
 30
0.0
 10
71.67262506634403
 20
155.0739776992474
 30
0.0
 10
71.64629999863544
 20
155.0933345012579
 30
0.0
  0
SPLINE
  5
10A
330
1F
100
AcDbEntity
  8
0
  6
Continuous
 62
     7
370
    25
100
AcDbSpline
210
0.0
220
0.0
230
1.0
 70
     8
 71
     3
 72
    10
 73
     6
 74
     0
 42
0.000000001
 43
0.00000001
 40
0.0
 40
0.0
 40
0.0
 40
0.0
 40
0.4999999999999989
 40
0.4999999999999989
 40
1.0
 40
1.0
 40
1.0
 40
1.0
 10
73.00548576691743
 20
156.663136550375
 30
0.0
 10
72.88059749616723
 20
156.5321402723035
 30
0.0
 10
72.75914737810677
 20
156.3884274356385
 30
0.0
 10
72.52956340314934
 20
156.0778571429493
 30
0.0
 10
72.41928842775336
 20
155.9097880698862
 30
0.0
 10
72.33203800861985
 20
155.7377174490331
 30
0.0
  0
SPLINE
  5
10B
330
1F
100
AcDbEntity
  8
0
  6
Continuous
 62
     7
370
    25
100
AcDbSpline
210
0.0
220
0.0
230
1.0
 70
     8
 71
     3
 72
     8
 73
     4
 74
     0
 42
0.000000001
 43
0.00000001
 40
0.0
 40
0.0
 40
0.0
 40
0.0
 40
1.0
 40
1.0
 40
1.0
 40
1.0
 10
73.25541088288315
 20
156.6606835171195
 30
0.0
 10
73.16839285303479
 20
156.6611500819066
 30
0.0
 10
73.08543882665487
 20
156.6621901014827
 30
0.0
 10
73.00548576691511
 20
156.663136550375
 30
0.0
  0
SPLINE
  5
10C
330
1F
100
AcDbEntity
  8
0
  6
Continuous
 62
     7
370
    25
100
AcDbSpline
210
0.0
220
0.0
230
1.0
 70
     8
 71
     3
 72
     8
 73
     4
 74
     0
 42
0.000000001
 43
0.00000001
 40
0.0
 40
0.0
 40
0.0
 40
0.0
 40
1.0
 40
1.0
 40
1.0
 40
1.0
 10
73.00548576691511
 20
92.16656614673487
 30
0.0
 10
73.08543882665539
 20
92.16751259562714
 30
0.0
 10
73.16839285303587
 20
92.16855261520327
 30
0.0
 10
73.25541088288485
 20
92.16901917999033
 30
0.0
  0
SPLINE
  5
10D
330
1F
100
AcDbEntity
  8
0
  6
Continuous
 62
     7
370
    25
100
AcDbSpline
210
0.0
220
0.0
230
1.0
 70
     8
 71
     3
 72
    10
 73
     6
 74
     0
 42
0.000000001
 43
0.00000001
 40
0.0
 40
0.0
 40
0.0
 40
0.0
 40
0.4999999999999989
 40
0.4999999999999989
 40
1.0
 40
1.0
 40
1.0
 40
1.0
 10
72.33203800861891
 20
93.09198524807854
 30
0.0
 10
72.41928842775239
 20
92.91991462722518
 30
0.0
 10
72.52956340314854
 20
92.75184555416175
 30
0.0
 10
72.75914737810638
 20
92.44127526147192
 30
0.0
 10
72.88059749616701
 20
92.29756242480664
 30
0.0
 10
73.00548576691743
 20
92.16656614673494
 30
0.0
  0
SPLINE
  5
10E
330
1F
100
AcDbEntity
  8
0
  6
Continuous
 62
     7
370
    25
100
AcDbSpline
210
0.0
220
0.0
230
1.0
 70
     8
 71
     3
 72
    14
 73
    10
 74
     0
 42
0.000000001
 43
0.00000001
 40
0.0
 40
0.0
 40
0.0
 40
0.0
 40
0.25
 40
0.25
 40
0.5
 40
0.5
 40
0.75
 40
0.75
 40
1.0
 40
1.0
 40
1.0
 40
1.0
 10
143.1654857669174
 20
170.1084025894029
 30
0.0
 10
143.1654857669174
 20
170.0020458956506
 30
0.0
 10
143.1450982107762
 20
169.8962054078905
 30
0.0
 10
143.0664638653146
 20
169.699640494354
 30
0.0
 10
143.007732505676
 20
169.6084697520669
 30
0.0
 10
142.8611236000735
 20
169.4565586630353
 30
0.0
 10
142.7717182800469
 20
169.3944898262157
 30
0.0
 10
142.5778275474466
 20
169.311221778457
 30
0.0
 10
142.4713225575568
 20
169.2891271087274
 30
0.0
 10
142.3654857669174
 20
169.2891271087273
 30
0.0
  0
SPLINE
  5
10F
330
1F
100
AcDbEntity
  8
0
  6
Continuous
 62
     7
370
    25
100
AcDbSpline
210
0.0
220
0.0
230
1.0
 70
     8
 71
     3
 72
    12
 73
     8
 74
     0
 42
0.000000001
 43
0.00000001
 40
0.0
 40
0.0
 40
0.0
 40
0.0
 40
0.250000000000002
 40
0.250000000000002
 40
0.500000000000004
 40
0.500000000000004
 40
1.0
 40
1.0
 40
1.0
 40
1.0
 10
142.3654857669174
 20
158.0433827616274
 30
0.0
 10
142.4891867168974
 20
158.0433827616274
 30
0.0
 10
142.6132833291676
 20
158.08537637336
 30
0.0
 10
142.8199384922546
 20
158.2231717000043
 30
0.0
 10
142.9049792589815
 20
158.3171452984692
 30
0.0
 10
143.1044578274551
 20
158.6319335046902
 30
0.0
 10
143.1654857669174
 20
158.8821724969177
 30
0.0
 10
143.1654857669174
 20
159.129086541052
 30
0.0
  0
SPLINE
  5
110
330
1F
100
AcDbEntity
  8
0
  6
Continuous
 62
     7
370
    25
100
AcDbSpline
210
0.0
220
0.0
230
1.0
 70
     8
 71
     3
 72
    10
 73
     6
 74
     0
 42
0.000000001
 43
0.00000001
 40
0.0
 40
0.0
 40
0.0
 40
0.0
 40
0.5
 40
0.5
 40
1.0
 40
1.0
 40
1.0
 40
1.0
 10
140.1454857669174
 20
169.2891271087274
 30
0.0
 10
139.9329494530611
 20
169.2891271087274
 30
0.0
 10
139.7230132814071
 20
169.3805396953576
 30
0.0
 10
139.4293061403958
 20
169.6852845612618
 30
0.0
 10
139.3454857669174
 20
169.8974395311704
 30
0.0
 10
139.3454857669174
 20
170.1084025894029
 30
0.0
  0
SPLINE
  5
111
330
1F
100
AcDbEntity
  8
0
  6
Continuous
 62
     7
370
    25
100
AcDbSpline
210
0.0
220
0.0
230
1.0
 70
     8
 71
     3
 72
    14
 73
    10
 74
     0
 42
0.000000001
 43
0.00000001
 40
0.0
 40
0.0
 40
0.0
 40
0.0
 40
0.25
 40
0.25
 40
0.5
 40
0.5
 40
0.75
 40
0.75
 40
1.0
 40
1.0
 40
1.0
 40
1.0
 10
139.3454857669174
 20
159.129086541052
 30
0.0
 10
139.3454857669174
 20
159.0052196642628
 30
0.0
 10
139.361344894545
 20
158.8809599874253
 30
0.0
 10
139.4247065400649
 20
158.6433516250194
 30
0.0
 10
139.4732962481143
 20
158.5265712402669
 30
0.0
 10
139.6055818528891
 20
158.3177687116579
 30
0.0
 10
139.6909066441497
 20
158.2232580080653
 30
0.0
 10
139.8977978924559
 20
158.0853012072631
 30
0.0
 10
140.0217658383459
 20
158.0433827616274
 30
0.0
 10
140.1454857669174
 20
158.0433827616274
 30
0.0
  0
SPLINE
  5
112
330
1F
100
AcDbEntity
  8
0
  6
Continuous
 62
     7
370
    25
100
AcDbSpline
210
0.0
220
0.0
230
1.0
 70
     8
 71
     3
 72
     8
 73
     4
 74
     0
 42
0.000000001
 43
0.00000001
 40
0.0
 40
0.0
 40
0.0
 40
0.0
 40
1.0
 40
1.0
 40
1.0
 40
1.0
 10
139.3454857669174
 20
171.0121222092598
 30
0.0
 10
138.8951775312329
 20
171.8098373343735
 30
0.0
 10
138.4444837147093
 20
172.6073356340306
 30
0.0
 10
137.993456745996
 20
173.4046462042185
 30
0.0
  0
LINE
  5
113
330
1F
100
AcDbEntity
  8
0
  6
Continuous
 62
     7
370
    25
100
AcDbLine
 10
139.345486143
 20
160.3102995266
 30
0.0
 11
139.345486143
 21
171.0121235062
 31
0.0
  0
SPLINE
  5
114
330
1F
100
AcDbEntity
  8
0
  6
Continuous
 62
     7
370
    25
100
AcDbSpline
210
0.0
220
0.0
230
1.0
 70
     8
 71
     3
 72
     8
 73
     4
 74
     0
 42
0.000000001
 43
0.00000001
 40
0.0
 40
0.0
 40
0.0
 40
0.0
 40
1.0
 40
1.0
 40
1.0
 40
1.0
 10
137.993456745996
 20
163.3658141094419
 30
0.0
 10
138.4503830997955
 20
162.3498961397676
 30
0.0
 10
138.9015887415986
 20
161.3311003106764
 30
0.0
 10
139.3454857669174
 20
160.3102988546928
 30
0.0
  0
SPLINE
  5
115
330
1F
100
AcDbEntity
  8
0
  6
Continuous
 62
     7
370
    25
100
AcDbSpline
210
0.0
220
0.0
230
1.0
 70
     8
 71
     3
 72
     8
 73
     4
 74
     0
 42
0.000000001
 43
0.00000001
 40
0.0
 40
0.0
 40
0.0
 40
0.0
 40
1.0
 40
1.0
 40
1.0
 40
1.0
 10
144.5175147878388
 20
173.4046462042185
 30
0.0
 10
144.0664878191256
 20
172.6073356340306
 30
0.0
 10
143.615794002602
 20
171.8098373343735
 30
0.0
 10
143.1654857669174
 20
171.0121222092598
 30
0.0
  0
LINE
  5
116
330
1F
100
AcDbEntity
  8
0
  6
Continuous
 62
     7
370
    25
100
AcDbLine
 10
144.5175152806
 20
163.3658124317
 30
0.0
 11
144.5175152806
 21
173.4046464969
 31
0.0
  0
SPLINE
  5
117
330
1F
100
AcDbEntity
  8
0
  6
Continuous
 62
     7
370
    25
100
AcDbSpline
210
0.0
220
0.0
230
1.0
 70
     8
 71
     3
 72
     8
 73
     4
 74
     0
 42
0.000000001
 43
0.00000001
 40
0.0
 40
0.0
 40
0.0
 40
0.0
 40
1.0
 40
1.0
 40
1.0
 40
1.0
 10
143.1654857669174
 20
160.3102988546928
 30
0.0
 10
143.6096357779429
 20
161.3316820856444
 30
0.0
 10
144.0607100882008
 20
162.3501666224128
 30
0.0
 10
144.5175147878388
 20
163.3658141094419
 30
0.0
  0
LINE
  5
118
330
1F
100
AcDbEntity
  8
0
  6
Continuous
 62
     7
370
    25
100
AcDbLine
 10
143.1654863594
 20
160.3102995266
 30
0.0
 11
143.1654863594
 21
171.0121235062
 31
0.0
  0
LINE
  5
119
330
1F
100
AcDbEntity
  8
0
  6
Continuous
 62
     7
370
    25
100
AcDbLine
 10
139.345486143
 20
160.3102995266
 30
0.0
 11
139.345486143
 21
159.1290882041
 31
0.0
  0
LINE
  5
11A
330
1F
100
AcDbEntity
  8
0
  6
Continuous
 62
     7
370
    25
100
AcDbLine
 10
140.1454866467
 20
158.0433821489
 30
0.0
 11
142.3654858557
 21
158.0433821489
 31
0.0
  0
LINE
  5
11B
330
1F
100
AcDbEntity
  8
0
  6
Continuous
 62
     7
370
    25
100
AcDbLine
 10
143.1654863594
 20
159.1290882041
 30
0.0
 11
143.1654863594
 21
160.3102995266
 31
0.0
  0
LINE
  5
11C
330
1F
100
AcDbEntity
  8
0
  6
Continuous
 62
     7
370
    25
100
AcDbLine
 10
144.5175152806
 20
163.3658124317
 30
0.0
 11
149.2054857848
 21
163.3658124317
 31
0.0
  0
SPLINE
  5
11D
330
1F
100
AcDbEntity
  8
0
  6
Continuous
 62
     7
370
    25
100
AcDbSpline
210
0.0
220
0.0
230
1.0
 70
     8
 71
     3
 72
    16
 73
    12
 74
     0
 42
0.000000001
 43
0.00000001
 40
0.0
 40
0.0
 40
0.0
 40
0.0
 40
0.1249999999999978
 40
0.1249999999999978
 40
0.2499999999999955
 40
0.2499999999999955
 40
0.499999999999997
 40
0.499999999999997
 40
0.7499999999999984
 40
0.7499999999999984
 40
1.0
 40
1.0
 40
1.0
 40
1.0
 10
149.2054857669174
 20
163.3658141094419
 30
0.0
 10
149.2811234733286
 20
163.3658141094419
 30
0.0
 10
149.3574391377468
 20
163.354469109307
 30
0.0
 10
149.5018498756388
 20
163.3118165586684
 30
0.0
 10
149.5702963247472
 20
163.2808822339856
 30
0.0
 10
149.7652275773603
 20
163.161625862218
 30
0.0
 10
149.8730687511412
 20
163.0514738485974
 30
0.0
 10
150.0417814993533
 20
162.8033377629393
 30
0.0
 10
150.1041459120768
 20
162.6629954389356
 30
0.0
 10
150.1854498365852
 20
162.374723747447
 30
0.0
 10
150.2054857669174
 20
162.2239187744672
 30
0.0
 10
150.2054857669174
 20
162.0735488831219
 30
0.0
  0
LINE
  5
11E
330
1F
100
AcDbEntity
  8
0
  6
Continuous
 62
     7
370
    25
100
AcDbLine
 10
150.2054859487
 20
162.0735502054
 30
0.0
 11
150.2054859487
 21
155.7648530413
 31
0.0
  0
SPLINE
  5
11F
330
1F
100
AcDbEntity
  8
0
  6
Continuous
 62
     7
370
    25
100
AcDbSpline
210
0.0
220
0.0
230
1.0
 70
     8
 71
     3
 72
    12
 73
     8
 74
     0
 42
0.000000001
 43
0.00000001
 40
0.0
 40
0.0
 40
0.0
 40
0.0
 40
0.4999999999999953
 40
0.4999999999999953
 40
0.7499999999999977
 40
0.7499999999999977
 40
1.0
 40
1.0
 40
1.0
 40
1.0
 10
150.2054857669174
 20
172.3835911694008
 30
0.0
 10
150.2054857669174
 20
172.6488606021672
 30
0.0
 10
150.1008790234309
 20
172.9113757078196
 30
0.0
 10
149.8242106716857
 20
173.1969133138568
 30
0.0
 10
149.7138454123337
 20
173.2732349307182
 30
0.0
 10
149.4697733637179
 20
173.3775770955584
 30
0.0
 10
149.3380209023862
 20
173.4046462042185
 30
0.0
 10
149.2054857669174
 20
173.4046462042185
 30
0.0
  0
LINE
  5
120
330
1F
100
AcDbEntity
  8
0
  6
Continuous
 62
     7
370
    25
100
AcDbLine
 10
150.2054859487
 20
162.0735502054
 30
0.0
 11
150.2054859487
 21
172.3835928549
 31
0.0
  0
LINE
  5
121
330
1F
100
AcDbEntity
  8
0
  6
Continuous
 62
     7
370
    25
100
AcDbLine
 10
149.2054857848
 20
173.4046464969
 30
0.0
 11
144.5175152806
 21
173.4046464969
 31
0.0
  0
LINE
  5
122
330
1F
100
AcDbEntity
  8
0
  6
Continuous
 62
     7
370
    25
100
AcDbLine
 10
142.3654858557
 20
169.2891283144
 30
0.0
 11
140.1454866467
 21
169.2891283144
 31
0.0
  0
LINE
  5
123
330
1F
100
AcDbEntity
  8
0
  6
Continuous
 62
     7
370
    25
100
AcDbLine
 10
170.2054873643
 20
124.4148513486
 30
0.0
 11
170.2054873643
 21
96.4148504843
 31
0.0
  0
LINE
  5
124
330
1F
100
AcDbEntity
  8
0
  6
Continuous
 62
     7
370
    25
100
AcDbLine
 10
170.2054873643
 20
152.4148522128
 30
0.0
 11
170.2054873643
 21
124.4148513486
 31
0.0
  0
SPLINE
  5
125
330
1F
100
AcDbEntity
  8
0
  6
Continuous
 62
     7
370
    25
100
AcDbSpline
210
0.0
220
0.0
230
1.0
 70
     8
 71
     3
 72
    17
 73
    13
 74
     0
 42
0.000000001
 43
0.00000001
 40
0.0
 40
0.0
 40
0.0
 40
0.0
 40
0.0446776502537881
 40
0.1368297373493108
 40
0.2318832628769464
 40
0.3348127891127929
 40
0.447044863076267
 40
0.5662333885218025
 40
0.6878305907480536
 40
0.8065297524710509
 40
0.9166529289536037
 40
0.9999999999999999
 40
0.9999999999999999
 40
0.9999999999999999
 40
0.9999999999999999
 10
164.6612272200882
 20
152.4103315730451
 30
0.0
 10
164.6708777421626
 20
152.4113118974852
 30
0.0
 10
164.7004334236549
 20
152.4143142383626
 30
0.0
 10
164.3876755344845
 20
152.382543401603
 30
0.0
 10
163.7817509560103
 20
152.3294391531056
 30
0.0
 10
162.8790728041195
 20
152.269783579028
 30
0.0
 10
161.7494628028374
 20
152.230108465784
 30
0.0
 10
160.4970536991145
 20
152.2325349319675
 30
0.0
 10
159.2943815867332
 20
152.2817509701338
 30
0.0
 10
158.3517627356964
 20
152.3514627974515
 30
0.0
 10
157.7850518755098
 20
152.4065109074026
 30
0.0
 10
157.7470237872677
 20
152.4105611364002
 30
0.0
 10
157.7306412694752
 20
152.4123059769033
 30
0.0
  0
SPLINE
  5
126
330
1F
100
AcDbEntity
  8
0
  6
Continuous
 62
     7
370
    25
100
AcDbSpline
210
0.0
220
0.0
230
1.0
 70
    11
 71
     3
 72
    66
 73
    62
 74
     0
 42
0.000000001
 43
0.00000001
 40
0.0
 40
0.0
 40
0.0
 40
0.0
 40
0.0312500000000002
 40
0.0312500000000002
 40
0.0625000000000005
 40
0.0625000000000005
 40
0.0937500000000007
 40
0.0937500000000007
 40
0.125000000000001
 40
0.125000000000001
 40
0.1562500000000012
 40
0.1562500000000012
 40
0.1875000000000015
 40
0.1875000000000015
 40
0.2187500000000017
 40
0.2187500000000017
 40
0.250000000000002
 40
0.250000000000002
 40
0.2812500000000022
 40
0.2812500000000022
 40
0.3125000000000025
 40
0.3125000000000025
 40
0.3437500000000027
 40
0.3437500000000027
 40
0.3750000000000029
 40
0.3750000000000029
 40
0.4062500000000031
 40
0.4062500000000031
 40
0.4375000000000033
 40
0.4375000000000033
 40
0.4687500000000034
 40
0.4687500000000034
 40
0.5000000000000037
 40
0.5000000000000037
 40
0.5312500000000039
 40
0.5312500000000039
 40
0.5625000000000041
 40
0.5625000000000041
 40
0.6250000000000037
 40
0.6250000000000037
 40
0.6875000000000031
 40
0.6875000000000031
 40
0.7187500000000029
 40
0.7187500000000029
 40
0.7500000000000026
 40
0.7500000000000026
 40
0.7812500000000022
 40
0.7812500000000022
 40
0.8125000000000019
 40
0.8125000000000019
 40
0.8437500000000017
 40
0.8437500000000017
 40
0.8750000000000013
 40
0.8750000000000013
 40
0.906250000000001
 40
0.906250000000001
 40
0.9375000000000007
 40
0.9375000000000007
 40
0.9687500000000004
 40
0.9687500000000004
 40
1.0
 40
1.0
 40
1.0
 40
1.0
 10
158.8302823127554
 20
126.7502451719126
 30
0.0
 10
158.9989307397223
 20
126.8923789169473
 30
0.0
 10
159.1784388696898
 20
127.0160603950132
 30
0.0
 10
159.5573560656277
 20
127.2297231508438
 30
0.0
 10
159.758406215282
 20
127.320205071055
 30
0.0
 10
160.1732798124885
 20
127.4640782448224
 30
0.0
 10
160.3847242540189
 20
127.5169961799063
 30
0.0
 10
160.8153207973599
 20
127.5863223438067
 30
0.0
 10
161.0365984777705
 20
127.6025734542077
 30
0.0
 10
161.4742329855073
 20
127.5968480189182
 30
0.0
 10
161.6907922328302
 20
127.5753530331793
 30
0.0
 10
162.1194114716546
 20
127.4952079766094
 30
0.0
 10
162.333416214766
 20
127.435633514816
 30
0.0
 10
162.7419848262257
 20
127.2816800954418
 30
0.0
 10
162.9376666800262
 20
127.1874899919674
 30
0.0
 10
163.3113435277875
 20
126.9636148728811
 30
0.0
 10
163.4907860544886
 20
126.8322797111794
 30
0.0
 10
163.8158319851196
 20
126.5422628996016
 30
0.0
 10
163.9631136339819
 20
126.3830387817093
 30
0.0
 10
164.2253127001322
 20
126.0343043803545
 30
0.0
 10
164.3402026037493
 20
125.8434227087449
 30
0.0
 10
164.5230805389575
 20
125.4486230339302
 30
0.0
 10
164.593009323783
 20
125.2426235884076
 30
0.0
 10
164.6863821133592
 20
124.8120079359355
 30
0.0
 10
164.7082458700418
 20
124.592697060165
 30
0.0
 10
164.7021661263049
 20
124.1567615577027
 30
0.0
 10
164.6736865502148
 20
123.9356616824212
 30
0.0
 10
164.5689120962293
 20
123.5101833744993
 30
0.0
 10
164.4934056877734
 20
123.3053571255611
 30
0.0
 10
164.297422265513
 20
122.9110674943718
 30
0.0
 10
164.1785249526227
 20
122.7255148589772
 30
0.0
 10
163.90718153682
 20
122.3835804943127
 30
0.0
 10
163.7522121546824
 20
122.2245023261808
 30
0.0
 10
163.4179673949143
 20
121.9418428162428
 30
0.0
 10
163.2387673531433
 20
121.8175577835661
 30
0.0
 10
162.8571803897305
 20
121.6015999756707
 30
0.0
 10
162.655175420012
 20
121.5106735796055
 30
0.0
 10
162.0372671390841
 20
121.2955859749204
 30
0.0
 10
161.5952715793881
 20
121.2247042437742
 30
0.0
 10
160.7239469482263
 20
121.235177922913
 30
0.0
 10
160.2835281097321
 20
121.3168770231834
 30
0.0
 10
159.672827714565
 20
121.5463672821639
 30
0.0
 10
159.4751038980014
 20
121.6411126569978
 30
0.0
 10
159.0972991955644
 20
121.8675052940702
 30
0.0
 10
158.9217422217608
 20
121.9962581315892
 30
0.0
 10
158.5974607730525
 20
122.2851472659556
 30
0.0
 10
158.4474636234049
 20
122.4469625049851
 30
0.0
 10
158.1836630806226
 20
122.7982806086011
 30
0.0
 10
158.0716494583014
 20
122.9846739494468
 30
0.0
 10
157.8884583041984
 20
123.3795624110338
 30
0.0
 10
157.8168855360295
 20
123.591127055652
 30
0.0
 10
157.7245631906007
 20
124.0187441776255
 30
0.0
 10
157.7026601101039
 20
124.235591189852
 30
0.0
 10
157.7088878231949
 20
124.6755556645499
 30
0.0
 10
157.7375819591204
 20
124.8954874280484
 30
0.0
 10
157.8421318207407
 20
125.3195719854187
 30
0.0
 10
157.919337339059
 20
125.5284883958238
 30
0.0
 10
158.1150033705507
 20
125.9209721648723
 30
0.0
 10
158.2328079173797
 20
126.1049209129399
 30
0.0
 10
158.506599916031
 20
126.4493821590066
 30
0.0
 10
158.6616338857885
 20
126.6081114268778
 30
0.0
 10
158.8302823127554
 20
126.7502451719126
 30
0.0
  0
SPLINE
  5
127
330
1F
100
AcDbEntity
  8
0
  6
Continuous
 62
     7
370
    25
100
AcDbSpline
210
0.0
220
0.0
230
1.0
 70
     8
 71
     3
 72
    17
 73
    13
 74
     0
 42
0.000000001
 43
0.00000001
 40
0.0
 40
0.0
 40
0.0
 40
0.0
 40
0.0521097960464096
 40
0.1442518013831841
 40
0.2398067631053581
 40
0.343496558084471
 40
0.4564313872502284
 40
0.5760069463177697
 40
0.6975868959249458
 40
0.8158052590060357
 40
0.9250570199688295
 40
1.0
 40
1.0
 40
1.0
 40
1.0
 10
157.7490479288399
 20
96.41930034354911
 30
0.0
 10
157.7421700449303
 20
96.41860796449822
 30
0.0
 10
157.7231304934652
 20
96.41669130135796
 30
0.0
 10
158.0613050968852
 20
96.45081019840015
 30
0.0
 10
158.6922553082395
 20
96.50520220755372
 30
0.0
 10
159.6155075146784
 20
96.56419909762529
 30
0.0
 10
160.7603108826922
 20
96.60118978495962
 30
0.0
 10
162.0153830141045
 20
96.5947976089802
 30
0.0
 10
163.205626523987
 20
96.54250926981571
 30
0.0
 10
164.1191368353994
 20
96.47287819838071
 30
0.0
 10
164.6441077236049
 20
96.42126887695338
 30
0.0
 10
164.6638599137434
 20
96.4191321972107
 30
0.0
 10
164.671896451503
 20
96.41826285020099
 30
0.0
  0
CIRCLE
  5
128
330
1F
100
AcDbEntity
  8
0
  6
Continuous
 62
     7
370
    25
100
AcDbCircle
 10
161.2054857669
 20
124.4148513486
 30
0.0
 40
2.499999999999986
  0
ARC
  5
129
330
1F
100
AcDbEntity
  8
0
  6
Continuous
 62
     7
370
    25
100
AcDbCircle
 10
130.256472388
 20
157.060379006
 30
0.0
 40
11.37207645935731
100
AcDbArc
 50
77.9693001548
 51
102.3697064773
  0
LINE
  5
12A
330
1F
100
AcDbEntity
  8
0
  6
Continuous
 62
     7
370
    25
100
AcDbLine
 10
73.005484843
 20
92.1648530473
 30
0.0
 11
73.005484843
 21
92.1665666808
 31
0.0
  0
LINE
  5
12B
330
1F
100
AcDbEntity
  8
0
  6
Continuous
 62
     7
370
    25
100
AcDbLine
 10
73.005484843
 20
156.6648496498
 30
0.0
 11
73.005484843
 21
156.6631360163
 31
0.0
  0
DIMENSION
  5
12C
330
1F
100
AcDbEntity
  8
VERMASSUNG
100
AcDbDimension
  2
_D
 10
264.0885079672
 20
155.7648513486
 30
0.0
 11
264.0885079672
 21
124.4148513486
 31
0.0
 70
   160
  1
%%c<>
 71
     2
 42
-1.0
  3
SLDDIMSTYLE0
100
AcDbAlignedDimension
 13
217.0119607667
 23
93.0648513486
 33
0.0
 14
217.0119607667
 24
155.7648513486
 34
0.0
 50
90.0
100
AcDbRotatedDimension
  0
DIMENSION
  5
138
330
1F
100
AcDbEntity
  8
VERMASSUNG
100
AcDbDimension
  2
_D_1
 10
249.2554857669
 20
152.4148513486
 30
0.0
 11
249.2554857669
 21
124.4148513486
 31
0.0
 70
   160
  1
%%c<>
 71
     2
 42
-1.0
  3
SLDDIMSTYLE0
100
AcDbAlignedDimension
 13
170.2054857669
 23
96.4148513486
 33
0.0
 14
170.2054857669
 24
152.4148513486
 34
0.0
 50
90.0
100
AcDbRotatedDimension
  0
DIMENSION
  5
143
330
1F
100
AcDbEntity
  8
VERMASSUNG
100
AcDbDimension
  2
_D_2
 10
55.1050164059
 20
74.4148513486
 30
0.0
 11
55.1050164059
 21
124.4148513486
 31
0.0
 70
   160
  1
%%c<>
 71
     2
 42
-1.0
  3
SLDDIMSTYLE0
100
AcDbAlignedDimension
 13
121.7554857669
 23
174.4148513486
 33
0.0
 14
121.7554857669
 24
74.4148513486
 34
0.0
 50
90.0
100
AcDbRotatedDimension
  0
DIMENSION
  5
14E
330
1F
100
AcDbEntity
  8
VERMASSUNG
100
AcDbDimension
  2
_D_3
 10
221.2554857669
 20
184.4148513486
 30
0.0
 11
171.2554857669
 21
184.4148513486
 31
0.0
 70
   160
  1
<>
 71
     2
 42
-1.0
  3
SLDDIMSTYLE0
100
AcDbAlignedDimension
 13
121.2554857669
 23
173.9148513486
 33
0.0
 14
221.2554857669
 24
148.4148513486
 34
0.0
100
AcDbRotatedDimension
  0
DIMENSION
  5
158
330
1F
100
AcDbEntity
  8
VERMASSUNG
100
AcDbDimension
  2
_D_4
 10
71.3554857669
 20
194.1793156505
 30
0.0
 11
146.3054857669
 21
194.1793156505
 31
0.0
 70
   160
  1
<>
 71
     2
 42
-1.0
  3
SLDDIMSTYLE0
100
AcDbAlignedDimension
 13
221.2554857669
 23
148.4148513486
 33
0.0
 14
71.3554857669
 24
154.9175210911
 34
0.0
100
AcDbRotatedDimension
  0
LINE
  5
162
330
1F
100
AcDbEntity
  8
VERMASSUNG
  6
CENTERX2
370
    18
100
AcDbLine
 10
223.2554857669
 20
124.4148513486
 30
0.0
 11
63.8628198938
 21
124.4148513486
 31
0.0
  0
LINE
  5
163
330
1F
100
AcDbEntity
  8
0
  6
Continuous
 62
     7
370
    25
100
AcDbLine
 10
243.4618878182
 20
18.8486408877
 30
0.0
 11
250.6943449746
 21
14.6734322431
 31
0.0
  0
LINE
  5
164
330
1F
100
AcDbEntity
  8
0
  6
Continuous
 62
     7
370
    25
100
AcDbLine
 10
266.3680717324
 20
41.8240647224
 30
0.0
 11
259.1356145761
 21
45.999273367
 31
0.0
  0
LINE
  5
165
330
1F
100
AcDbEntity
  8
0
  6
Continuous
 62
     7
370
    25
100
AcDbLine
 10
251.2969497519
 20
45.2221935716
 30
0.0
 11
251.0141534898
 21
45.0588856846
 31
0.0
  0
LINE
  5
166
330
1F
100
AcDbEntity
  8
0
  6
Continuous
 62
     7
370
    25
100
AcDbLine
 10
240.2148531206
 20
26.3519216558
 30
0.0
 11
240.2148518036
 21
26.0253582055
 31
0.0
  0
SPLINE
  5
167
330
1F
100
AcDbEntity
  8
0
  6
Continuous
 62
     7
370
    25
100
AcDbSpline
210
0.0
220
0.0
230
1.0
 70
     8
 71
     3
 72
    11
 73
     7
 74
     0
 42
0.000000001
 43
0.00000001
 40
0.0
 40
0.0
 40
0.0
 40
0.0
 40
0.2396109408975881
 40
0.502635671183667
 40
0.7853989592232548
 40
1.0
 40
1.0
 40
1.0
 40
1.0
 10
237.3296583371528
 20
25.02513855118157
 30
0.0
 10
237.5366728850036
 20
25.01170272251408
 30
0.0
 10
237.9709305854825
 20
24.98351817161297
 30
0.0
 10
238.77935312312
 20
24.82807599673661
 30
0.0
 10
239.6075235918245
 20
24.59186345009246
 30
0.0
 10
240.1502688672622
 20
24.34259380256237
 30
0.0
 10
240.3844507219658
 20
24.23503979698799
 30
0.0
  0
SPLINE
  5
168
330
1F
100
AcDbEntity
  8
0
  6
Continuous
 62
     7
370
    25
100
AcDbSpline
210
0.0
220
0.0
230
1.0
 70
     8
 71
     3
 72
    12
 73
     8
 74
     0
 42
0.000000001
 43
0.00000001
 40
0.0
 40
0.0
 40
0.0
 40
0.0
 40
0.1419458933182318
 40
0.4484391497666705
 40
0.734373942770465
 40
0.9961703247857826
 40
1.0
 40
1.0
 40
1.0
 40
1.0
 10
252.9472494440275
 20
45.96568989039469
 30
0.0
 10
252.8039289704623
 20
46.06112664935704
 30
0.0
 10
252.3511472111082
 20
46.36263293492189
 30
0.0
 10
251.7254628908576
 20
46.94839814871222
 30
0.0
 10
251.135346212776
 20
47.61504411074595
 30
0.0
 10
250.8150803195299
 20
48.05433890321326
 30
0.0
 10
250.7185078064694
 20
48.22296024820489
 30
0.0
 10
250.7171154680689
 20
48.22539135376825
 30
0.0
  0
LINE
  5
169
330
1F
100
AcDbEntity
  8
0
  6
Continuous
 62
     7
370
    25
100
AcDbLine
 10
212.3539735906
 20
26.0395672566
 30
0.0
 11
218.0949634464
 21
22.7253643576
 31
0.0
  0
LINE
  5
16A
330
1F
100
AcDbEntity
  8
0
  6
Continuous
 62
     7
370
    25
100
AcDbLine
 10
239.5383349574
 20
68.0798323445
 30
0.0
 11
237.3519411578
 21
69.3420106188
 31
0.0
  0
LINE
  5
16B
330
1F
100
AcDbEntity
  8
0
  6
Continuous
 62
     7
370
    25
100
AcDbLine
 10
228.9727805559
 20
29.1470955498
 30
0.0
 11
234.9831885226
 21
25.677360886
 31
0.0
  0
LINE
  5
16C
330
1F
100
AcDbEntity
  8
0
  6
Continuous
 62
     7
370
    25
100
AcDbLine
 10
248.9820508871
 20
49.9267298381
 30
0.0
 11
242.9716429203
 21
53.3964645019
 31
0.0
  0
SPLINE
  5
16D
330
1F
100
AcDbEntity
  8
0
  6
Continuous
 62
     7
370
    25
100
AcDbSpline
210
0.0
220
0.0
230
1.0
 70
     8
 71
     3
 72
    12
 73
     8
 74
     0
 42
0.000000001
 43
0.00000001
 40
0.0
 40
0.0
 40
0.0
 40
0.0
 40
0.1930132621238589
 40
0.4348103944408434
 40
0.6766629322907949
 40
0.9185724678707793
 40
1.0
 40
1.0
 40
1.0
 40
1.0
 10
207.9965496187142
 20
44.48179668581034
 30
0.0
 10
207.8863807549214
 20
44.02089880377729
 30
0.0
 10
207.6381979793249
 20
42.98261165356506
 30
0.0
 10
207.3715581304547
 20
41.39624410258248
 30
0.0
 10
207.1783047859966
 20
39.73054076902166
 30
0.0
 10
207.1081937436148
 20
38.46785423883365
 30
0.0
 10
207.1032979144828
 20
37.76479389213659
 30
0.0
 10
207.1020649742364
 20
37.58773881653064
 30
0.0
  0
SPLINE
  5
16E
330
1F
100
AcDbEntity
  8
0
  6
Continuous
 62
     7
370
    25
100
AcDbSpline
210
0.0
220
0.0
230
1.0
 70
     8
 71
     3
 72
    11
 73
     7
 74
     0
 42
0.000000001
 43
0.00000001
 40
0.0
 40
0.0
 40
0.0
 40
0.0
 40
0.2634345907424299
 40
0.5846177004578929
 40
0.905826363049879
 40
1.0
 40
1.0
 40
1.0
 40
1.0
 10
227.1070752839084
 20
69.29566911266602
 30
0.0
 10
226.7370435200896
 20
69.13604261541609
 30
0.0
 10
225.9158638934867
 20
68.78179727697591
 30
0.0
 10
224.6352338465659
 20
68.07520998055702
 30
0.0
 10
223.5935387840838
 20
67.4438552198082
 30
0.0
 10
223.0123475388308
 20
67.02159285025978
 30
0.0
 10
222.8805824313879
 20
66.92585939428108
 30
0.0
  0
SPLINE
  5
16F
330
1F
100
AcDbEntity
  8
0
  6
Continuous
 62
     7
370
    25
100
AcDbSpline
210
0.0
220
0.0
230
1.0
 70
     8
 71
     3
 72
    10
 73
     6
 74
     0
 42
0.000000001
 43
0.00000001
 40
0.0
 40
0.0
 40
0.0
 40
0.0
 40
0.2398587522190456
 40
0.6955721457266382
 40
0.9999999999999999
 40
0.9999999999999999
 40
0.9999999999999999
 40
0.9999999999999999
 10
207.1020649742364
 20
37.58773881653064
 30
0.0
 10
207.1052713859041
 20
37.31376893466668
 30
0.0
 10
207.1145697359671
 20
36.51927710633196
 30
0.0
 10
207.1871585149099
 20
35.41079426098502
 30
0.0
 10
207.3146754262121
 20
34.62022251793724
 30
0.0
 10
207.3657444871328
 20
34.3036075992129
 30
0.0
  0
LINE
  5
170
330
1F
100
AcDbEntity
  8
0
  6
Continuous
 62
     7
370
    25
100
AcDbLine
 10
225.5566033112
 20
68.5593902225
 30
0.0
 11
216.2845844228
 21
73.1789657683
 31
0.0
  0
LINE
  5
171
330
1F
100
AcDbEntity
  8
0
  6
Continuous
 62
     7
370
    25
100
AcDbLine
 10
198.4958616351
 20
42.3646557567
 30
0.0
 11
207.1249922527
 21
36.6508039619
 31
0.0
  0
SPLINE
  5
172
330
1F
100
AcDbEntity
  8
0
  6
Continuous
 62
     7
370
    25
100
AcDbSpline
210
0.0
220
0.0
230
1.0
 70
     8
 71
     3
 72
    18
 73
    14
 74
     0
 42
0.000000001
 43
0.00000001
 40
0.0
 40
0.0
 40
0.0
 40
0.0
 40
0.0631380134348086
 40
0.1604546644531796
 40
0.2581553686475943
 40
0.3561876157176715
 40
0.4544695273649165
 40
0.552916303546103
 40
0.6514558093678904
 40
0.7500343054723112
 40
0.8486091672635095
 40
0.9471606820925473
 40
1.0
 40
1.0
 40
1.0
 40
1.0
 10
225.6224985917789
 20
19.30355345199861
 30
0.0
 10
225.879017863138
 20
19.27413583964747
 30
0.0
 10
226.5309185386985
 20
19.19937591512613
 30
0.0
 10
227.6315220822378
 20
19.23290287974281
 30
0.0
 10
228.9103293195633
 20
19.38554199530257
 30
0.0
 10
230.2249489783661
 20
19.67813434303147
 30
0.0
 10
231.5648721810206
 20
20.10225863724461
 30
0.0
 10
232.9225095908556
 20
20.65710315244047
 30
0.0
 10
234.2892129415927
 20
21.33912016426008
 30
0.0
 10
235.6571736356104
 20
22.14237124312426
 30
0.0
 10
237.0165654462658
 20
23.06812487156006
 30
0.0
 10
238.1571692918492
 20
23.92937627849656
 30
0.0
 10
238.8319181424534
 20
24.52024254084492
 30
0.0
 10
239.0674229506396
 20
24.72647015524318
 30
0.0
  0
SPLINE
  5
173
330
1F
100
AcDbEntity
  8
0
  6
Continuous
 62
     7
370
    25
100
AcDbSpline
210
0.0
220
0.0
230
1.0
 70
     8
 71
     3
 72
     9
 73
     5
 74
     0
 42
0.000000001
 43
0.00000001
 40
0.0
 40
0.0
 40
0.0
 40
0.0
 40
0.8575153823258469
 40
1.0
 40
1.0
 40
1.0
 40
1.0
 10
251.8471133064055
 20
46.86087274626763
 30
0.0
 10
251.9022395683401
 20
47.123598124052
 30
0.0
 10
251.96652560107
 20
47.42997790825107
 30
0.0
 10
252.01299981399
 20
47.73099863603277
 30
0.0
 10
252.0196216744496
 20
47.77388945934273
 30
0.0
  0
LINE
  5
174
330
1F
100
AcDbEntity
  8
0
  6
Continuous
 62
     7
370
    25
100
AcDbLine
 10
220.4015662936
 20
21.3937908773
 30
0.0
 11
222.0590141603
 21
20.4369665904
 31
0.0
  0
LINE
  5
175
330
1F
100
AcDbEntity
  8
0
  6
Continuous
 62
     7
370
    25
100
AcDbLine
 10
248.6275794275
 20
62.5570288937
 30
0.0
 11
248.3687846067
 21
62.7929064174
 31
0.0
  0
SPLINE
  5
176
330
1F
100
AcDbEntity
  8
0
  6
Continuous
 62
     7
370
    25
100
AcDbSpline
210
0.0
220
0.0
230
1.0
 70
     8
 71
     3
 72
    14
 73
    10
 74
     0
 42
0.000000001
 43
0.00000001
 40
0.0
 40
0.0
 40
0.0
 40
0.0
 40
0.0890271336102062
 40
0.2575884247040096
 40
0.4260022476846342
 40
0.5940317446836391
 40
0.7615162651886958
 40
0.9283290140236868
 40
0.9999999999999999
 40
0.9999999999999999
 40
0.9999999999999999
 40
0.9999999999999999
 10
252.0331580568112
 20
55.9310802527341
 30
0.0
 10
251.9824803776124
 20
56.17545924671539
 30
0.0
 10
251.8358511082751
 20
56.88253806120363
 30
0.0
 10
251.5134041925965
 20
57.9885147309285
 30
0.0
 10
251.0333260265701
 20
59.21133587205392
 30
0.0
 10
250.4536781643628
 20
60.33365461735622
 30
0.0
 10
249.7738390188926
 20
61.34018254203887
 30
0.0
 10
249.1637973158845
 20
62.0842982447332
 30
0.0
 10
248.751489405898
 20
62.44778963518234
 30
0.0
 10
248.6275794274756
 20
62.55702889365003
 30
0.0
  0
SPLINE
  5
177
330
1F
100
AcDbEntity
  8
0
  6
Continuous
 62
     7
370
    25
100
AcDbSpline
210
0.0
220
0.0
230
1.0
 70
     8
 71
     3
 72
    29
 73
    25
 74
     0
 42
0.000000001
 43
0.00000001
 40
0.0
 40
0.0
 40
0.0
 40
0.0
 40
0.0078685620447146
 40
0.0554898889310514
 40
0.10314786901157
 40
0.1511187341437766
 40
0.1995949113732496
 40
0.248638775479894
 40
0.2981933455543291
 40
0.348129316564157
 40
0.3983009051166966
 40
0.4485850857826754
 40
0.4988876959385037
 40
0.5491567664497072
 40
0.5993747882526648
 40
0.6495385942036125
 40
0.6996534720785381
 40
0.7497291222797303
 40
0.7997777583056839
 40
0.8498126581585558
 40
0.8998477269013436
 40
0.9498941214748895
 40
0.9999645663763532
 40
1.0
 40
1.0
 40
1.0
 40
1.0
 10
216.4277928285695
 20
73.09392466145772
 30
0.0
 10
216.3814755280737
 20
73.12213639192234
 30
0.0
 10
216.054841278322
 20
73.32108834542265
 30
0.0
 10
215.3787894054879
 20
73.56664968631513
 30
0.0
 10
214.4085168596648
 20
73.81832271715756
 30
0.0
 10
213.3800278160148
 20
73.92402574593604
 30
0.0
 10
212.3078260145585
 20
73.89805489277566
 30
0.0
 10
211.1963311806608
 20
73.73542979467985
 30
0.0
 10
210.0546298953361
 20
73.43730245718272
 30
0.0
 10
208.8924681499744
 20
73.00511369164946
 30
0.0
 10
207.7205887246876
 20
72.44264520044823
 30
0.0
 10
206.5497701407989
 20
71.75534324452478
 30
0.0
 10
205.3903756177361
 20
70.95002081205779
 30
0.0
 10
204.2521265430477
 20
70.0343881728404
 30
0.0
 10
203.1440936242165
 20
69.01675066087215
 30
0.0
 10
202.0748600537958
 20
67.90594036190667
 30
0.0
 10
201.0526527134217
 20
66.7113082804318
 30
0.0
 10
200.0854084914109
 20
65.4427332174074
 30
0.0
 10
199.1804158505259
 20
64.11055497841616
 30
0.0
 10
198.3456064603962
 20
62.7255158331163
 30
0.0
 10
197.5845068881986
 20
61.29877532593418
 30
0.0
 10
196.9149006672035
 20
59.84160167882947
 30
0.0
 10
196.5041943571873
 20
58.85790431098156
 30
0.0
 10
196.335649933243
 20
58.36451227943844
 30
0.0
 10
196.3355307428433
 20
58.36416336493838
 30
0.0
  0
LINE
  5
178
330
1F
100
AcDbEntity
  8
0
  6
Continuous
 62
     7
370
    25
100
AcDbLine
 10
196.7205718385
 20
56.0204774365
 30
0.0
 11
200.5052508335
 21
53.8356287585
 31
0.0
  0
LINE
  5
179
330
1F
100
AcDbEntity
  8
0
  6
Continuous
 62
     7
370
    25
100
AcDbLine
 10
196.2151330017
 20
57.7901243182
 30
0.0
 11
196.2151330017
 21
57.1376193751
 31
0.0
  0
LINE
  5
17A
330
1F
100
AcDbEntity
  8
0
  6
Continuous
 62
     7
370
    25
100
AcDbLine
 10
196.2151330017
 20
45.6318314462
 30
0.0
 11
196.2151330017
 21
44.9793265031
 31
0.0
  0
SPLINE
  5
17B
330
1F
100
AcDbEntity
  8
0
  6
Continuous
 62
     7
370
    25
100
AcDbSpline
210
0.0
220
0.0
230
1.0
 70
     8
 71
     3
 72
    11
 73
     7
 74
     0
 42
0.000000001
 43
0.00000001
 40
0.0
 40
0.0
 40
0.0
 40
0.0
 40
0.2760851434001986
 40
0.5851448867041533
 40
0.8903960403769988
 40
1.0
 40
1.0
 40
1.0
 40
1.0
 10
196.3470723938902
 20
44.6457904427794
 30
0.0
 10
196.5175387717052
 20
44.37921617158865
 30
0.0
 10
196.8788314081176
 20
43.8142289730995
 30
0.0
 10
197.5563311823344
 20
43.09368512789116
 30
0.0
 10
198.1568123491216
 20
42.56802027391567
 30
0.0
 10
198.5491216788145
 20
42.34339251233545
 30
0.0
 10
198.6527690837839
 20
42.28404626994531
 30
0.0
  0
SPLINE
  5
17C
330
1F
100
AcDbEntity
  8
0
  6
Continuous
 62
     7
370
    25
100
AcDbSpline
210
0.0
220
0.0
230
1.0
 70
     8
 71
     3
 72
     9
 73
     5
 74
     0
 42
0.000000001
 43
0.00000001
 40
0.0
 40
0.0
 40
0.0
 40
0.0
 40
0.2234505935928389
 40
0.9999999999999999
 40
0.9999999999999999
 40
0.9999999999999999
 40
0.9999999999999999
 10
196.2606976962232
 20
44.77932707152396
 30
0.0
 10
196.2663397852326
 20
44.76860750841505
 30
0.0
 10
196.2915896130295
 20
44.72063465259691
 30
0.0
 10
196.3228202563545
 20
44.67850567518285
 30
0.0
 10
196.3470723938902
 20
44.6457904427794
 30
0.0
  0
LINE
  5
17D
330
1F
100
AcDbEntity
  8
0
  6
Continuous
 62
     7
370
    25
100
AcDbLine
 10
268.7316169475
 20
39.1448492892
 30
0.0
 11
268.7267456938
 21
38.8148662593
 31
0.0
  0
LINE
  5
17E
330
1F
100
AcDbEntity
  8
0
  6
Continuous
 62
     7
370
    25
100
AcDbLine
 10
268.7267456938
 20
38.8148662593
 30
0.0
 11
268.5227193856
 21
37.9291128645
 31
0.0
  0
LINE
  5
17F
330
1F
100
AcDbEntity
  8
0
  6
Continuous
 62
     7
370
    25
100
AcDbLine
 10
268.5227193856
 20
37.9291128645
 30
0.0
 11
268.5184032849
 21
37.6973533181
 31
0.0
  0
SPLINE
  5
180
330
1F
100
AcDbEntity
  8
0
  6
Continuous
 62
     7
370
    25
100
AcDbSpline
210
0.0
220
0.0
230
1.0
 70
     8
 71
     3
 72
     9
 73
     5
 74
     0
 42
0.000000001
 43
0.00000001
 40
0.0
 40
0.0
 40
0.0
 40
0.0
 40
0.5000512312644234
 40
1.0
 40
1.0
 40
1.0
 40
1.0
 10
268.5184032849218
 20
37.69735331805224
 30
0.0
 10
268.6050446814464
 20
37.44371100547227
 30
0.0
 10
268.7783097213215
 20
36.93647835265266
 30
0.0
 10
268.9154703536514
 20
36.45008788457531
 30
0.0
 10
268.9840436429037
 20
36.20691756893531
 30
0.0
  0
LINE
  5
181
330
1F
100
AcDbEntity
  8
0
  6
Continuous
 62
     7
370
    25
100
AcDbLine
 10
269.0503650018
 20
36.2402077832
 30
0.0
 11
268.9840436429
 21
36.2069175689
 31
0.0
  0
LINE
  5
182
330
1F
100
AcDbEntity
  8
0
  6
Continuous
 62
     7
370
    25
100
AcDbLine
 10
269.319990904
 20
36.9159881764
 30
0.0
 11
269.0503650018
 21
36.2402077832
 31
0.0
  0
LINE
  5
183
330
1F
100
AcDbEntity
  8
0
  6
Continuous
 62
     7
370
    25
100
AcDbLine
 10
269.4129517053
 20
36.964010297
 30
0.0
 11
269.319990904
 21
36.9159881764
 31
0.0
  0
LWPOLYLINE
  5
184
330
1F
100
AcDbEntity
  8
0
  6
Continuous
 62
     7
370
    25
100
AcDbPolyline
 90
        9
 70
   128
 43
0.0
 10
269.4129517053
 20
36.964010297
 10
269.5734574412
 20
35.7318467766
 10
269.6133428478
 20
34.4179413678
 10
269.5321719689
 20
33.0366464939
 10
269.3308325223
 20
31.6030512
 10
269.0115227296
 20
30.1328149458
 10
268.5777315596
 20
28.6419981898
 10
268.0341972402
 20
27.1468856103
 10
267.3868565499
 20
25.6638091116
  0
LINE
  5
185
330
1F
100
AcDbEntity
  8
0
  6
Continuous
 62
     7
370
    25
100
AcDbLine
 10
267.3868565499
 20
25.6638091116
 30
0.0
 11
267.2690732305
 21
25.4773428683
 31
0.0
  0
LINE
  5
186
330
1F
100
AcDbEntity
  8
0
  6
Continuous
 62
     7
370
    25
100
AcDbLine
 10
267.2690732305
 20
25.4773428683
 30
0.0
 11
267.098917842
 21
25.3563412391
 31
0.0
  0
LINE
  5
187
330
1F
100
AcDbEntity
  8
0
  6
Continuous
 62
     7
370
    25
100
AcDbLine
 10
267.098917842
 20
25.3563412391
 30
0.0
 11
267.0151239802
 21
25.2256010559
 31
0.0
  0
SPLINE
  5
188
330
1F
100
AcDbEntity
  8
0
  6
Continuous
 62
     7
370
    25
100
AcDbSpline
210
0.0
220
0.0
230
1.0
 70
     8
 71
     3
 72
     9
 73
     5
 74
     0
 42
0.000000001
 43
0.00000001
 40
0.0
 40
0.0
 40
0.0
 40
0.0
 40
0.1255454764235616
 40
1.0
 40
1.0
 40
1.0
 40
1.0
 10
267.0151239802144
 20
25.22560105591705
 30
0.0
 10
266.9725143460222
 20
25.14148033600358
 30
0.0
 10
266.6331183326723
 20
24.47143851283461
 30
0.0
 10
266.2572563701972
 20
23.82145078282534
 30
0.0
 10
265.9285821768706
 20
23.25306607204958
 30
0.0
  0
LINE
  5
189
330
1F
100
AcDbEntity
  8
0
  6
Continuous
 62
     7
370
    25
100
AcDbLine
 10
265.8676898589
 20
23.1211399793
 30
0.0
 11
265.9285821769
 21
23.253066072
 31
0.0
  0
LINE
  5
18A
330
1F
100
AcDbEntity
  8
0
  6
Continuous
 62
     7
370
    25
100
AcDbLine
 10
265.884773162
 20
22.9642508918
 30
0.0
 11
265.8676898589
 21
23.1211399793
 31
0.0
  0
LINE
  5
18B
330
1F
100
AcDbEntity
  8
0
  6
Continuous
 62
     7
370
    25
100
AcDbLine
 10
265.7970049842
 20
22.7775529471
 30
0.0
 11
265.884773162
 21
22.9642508918
 31
0.0
  0
ARC
  5
18C
330
1F
100
AcDbEntity
  8
0
  6
Continuous
 62
     7
370
    25
100
AcDbCircle
 10
247.9523682953
 20
33.3273986028
 30
0.0
 40
20.72993733506134
100
AcDbArc
 50
296.4519152908
 51
329.4081911086
  0
LINE
  5
18D
330
1F
100
AcDbEntity
  8
0
  6
Continuous
 62
     7
370
    25
100
AcDbLine
 10
257.1864482852
 20
14.7677092558
 30
0.0
 11
257.1687243829
 21
14.8562741348
 31
0.0
  0
LINE
  5
18E
330
1F
100
AcDbEntity
  8
0
  6
Continuous
 62
     7
370
    25
100
AcDbLine
 10
257.1687243829
 20
14.8562741348
 30
0.0
 11
257.5743724887
 21
15.4064029289
 31
0.0
  0
LINE
  5
18F
330
1F
100
AcDbEntity
  8
0
  6
Continuous
 62
     7
370
    25
100
AcDbLine
 10
257.5743724887
 20
15.4064029289
 30
0.0
 11
257.5610097974
 21
15.4692546847
 31
0.0
  0
SPLINE
  5
190
330
1F
100
AcDbEntity
  8
0
  6
Continuous
 62
     7
370
    25
100
AcDbSpline
210
0.0
220
0.0
230
1.0
 70
     8
 71
     3
 72
     9
 73
     5
 74
     0
 42
0.000000001
 43
0.00000001
 40
0.0
 40
0.0
 40
0.0
 40
0.0
 40
0.5000511179859451
 40
1.0
 40
1.0
 40
1.0
 40
1.0
 10
257.5610097974125
 20
15.46925468469428
 30
0.0
 10
257.311312929843
 20
15.38368562907689
 30
0.0
 10
256.8119702454887
 20
15.21256501252467
 30
0.0
 10
256.276523701679
 20
15.06228741988232
 30
0.0
 10
256.008827800723
 20
14.98715630544903
 30
0.0
  0
LINE
  5
191
330
1F
100
AcDbEntity
  8
0
  6
Continuous
 62
     7
370
    25
100
AcDbLine
 10
255.8154992188
 20
14.8601063701
 30
0.0
 11
256.0088278007
 21
14.9871563054
 31
0.0
  0
LINE
  5
192
330
1F
100
AcDbEntity
  8
0
  6
Continuous
 62
     7
370
    25
100
AcDbLine
 10
255.1911795982
 20
14.2420603362
 30
0.0
 11
255.8154992188
 21
14.8601063701
 31
0.0
  0
LINE
  5
193
330
1F
100
AcDbEntity
  8
0
  6
Continuous
 62
     7
370
    25
100
AcDbLine
 10
254.9152616324
 20
14.0622913231
 30
0.0
 11
255.1911795982
 21
14.2420603362
 31
0.0
  0
ARC
  5
194
330
1F
100
AcDbEntity
  8
0
  6
Continuous
 62
     7
370
    25
100
AcDbCircle
 10
253.5980945838
 20
19.6598477437
 30
0.0
 40
5.750440584541629
100
AcDbArc
 50
203.6545589897
 51
283.2414408181
  0
LINE
  5
195
330
1F
100
AcDbEntity
  8
0
  6
Continuous
 62
     7
370
    25
100
AcDbLine
 10
248.3307997595
 20
17.3526476764
 30
0.0
 11
248.526048328
 21
17.5727282219
 31
0.0
  0
LINE
  5
196
330
1F
100
AcDbEntity
  8
0
  6
Continuous
 62
     7
370
    25
100
AcDbLine
 10
248.526048328
 20
17.5727282219
 30
0.0
 11
249.4736293376
 21
18.0292366242
 31
0.0
  0
LINE
  5
197
330
1F
100
AcDbEntity
  8
0
  6
Continuous
 62
     7
370
    25
100
AcDbLine
 10
249.4736293376
 20
18.0292366242
 30
0.0
 11
249.6101759071
 21
18.1846611459
 31
0.0
  0
SPLINE
  5
198
330
1F
100
AcDbEntity
  8
0
  6
Continuous
 62
     7
370
    25
100
AcDbSpline
210
0.0
220
0.0
230
1.0
 70
     8
 71
     3
 72
     9
 73
     5
 74
     0
 42
0.000000001
 43
0.00000001
 40
0.0
 40
0.0
 40
0.0
 40
0.0
 40
0.5000512312644234
 40
1.0
 40
1.0
 40
1.0
 40
1.0
 10
249.6101759071348
 20
18.18466114586117
 30
0.0
 10
249.5415877658932
 20
18.42788153600307
 30
0.0
 10
249.404425537399
 20
18.91427247944081
 30
0.0
 10
249.2311596274805
 20
19.42150608061149
 30
0.0
 10
249.1445355491529
 20
19.67509689497809
 30
0.0
  0
LINE
  5
199
330
1F
100
AcDbEntity
  8
0
  6
Continuous
 62
     7
370
    25
100
AcDbLine
 10
248.9459837215
 20
19.7181417056
 30
0.0
 11
249.1445355492
 21
19.675096895
 31
0.0
  0
LINE
  5
19A
330
1F
100
AcDbEntity
  8
0
  6
Continuous
 62
     7
370
    25
100
AcDbLine
 10
247.9328031178
 20
19.4716063047
 30
0.0
 11
248.9459837215
 21
19.7181417056
 31
0.0
  0
LINE
  5
19B
330
1F
100
AcDbEntity
  8
0
  6
Continuous
 62
     7
370
    25
100
AcDbLine
 10
247.6494650017
 20
19.5334866686
 30
0.0
 11
247.9328031178
 21
19.4716063047
 31
0.0
  0
LWPOLYLINE
  5
19C
330
1F
100
AcDbEntity
  8
0
  6
Continuous
 62
     7
370
    25
100
AcDbPolyline
 90
        9
 70
   128
 43
0.0
 10
247.6494650017
 20
19.5334866686
 10
247.4889592659
 20
20.765650189
 10
247.4490738592
 20
22.0795555978
 10
247.5302447382
 20
23.4608504717
 10
247.7315841848
 20
24.8944457656
 10
248.0508939775
 20
26.3646820198
 10
248.4846851474
 20
27.8554987758
 10
249.0282194669
 20
29.3506113553
 10
249.6755601572
 20
30.8336878539
  0
LINE
  5
19D
330
1F
100
AcDbEntity
  8
0
  6
Continuous
 62
     7
370
    25
100
AcDbLine
 10
249.6755601572
 20
30.8336878539
 30
0.0
 11
249.9837207913
 21
30.9102516128
 31
0.0
  0
LINE
  5
19E
330
1F
100
AcDbEntity
  8
0
  6
Continuous
 62
     7
370
    25
100
AcDbLine
 10
249.9837207913
 20
30.9102516128
 30
0.0
 11
250.8974308813
 21
30.6020082496
 31
0.0
  0
LINE
  5
19F
330
1F
100
AcDbEntity
  8
0
  6
Continuous
 62
     7
370
    25
100
AcDbLine
 10
250.8974308813
 20
30.6020082496
 30
0.0
 11
251.1134552118
 21
30.656413408
 31
0.0
  0
SPLINE
  5
1A0
330
1F
100
AcDbEntity
  8
0
  6
Continuous
 62
     7
370
    25
100
AcDbSpline
210
0.0
220
0.0
230
1.0
 70
     8
 71
     3
 72
     9
 73
     5
 74
     0
 42
0.000000001
 43
0.00000001
 40
0.0
 40
0.0
 40
0.0
 40
0.0
 40
0.1255454967638887
 40
1.0
 40
1.0
 40
1.0
 40
1.0
 10
252.199997015186
 20
32.62894839186383
 30
0.0
 10
252.1573876168308
 20
32.5448275370267
 30
0.0
 10
251.817993536967
 20
31.87478474771553
 30
0.0
 10
251.4421304131043
 20
31.22479759805907
 30
0.0
 10
251.1134552118421
 20
30.65641340799636
 30
0.0
  0
LINE
  5
1A1
330
1F
100
AcDbEntity
  8
0
  6
Continuous
 62
     7
370
    25
100
AcDbLine
 10
252.1286588643
 20
32.8372095095
 30
0.0
 11
252.1999970152
 21
32.6289483919
 31
0.0
  0
LINE
  5
1A2
330
1F
100
AcDbEntity
  8
0
  6
Continuous
 62
     7
370
    25
100
AcDbLine
 10
251.3680208598
 20
33.4233435893
 30
0.0
 11
252.1286588643
 21
32.8372095095
 31
0.0
  0
LINE
  5
1A3
330
1F
100
AcDbEntity
  8
0
  6
Continuous
 62
     7
370
    25
100
AcDbLine
 10
251.2654117229
 20
33.7199440184
 30
0.0
 11
251.3680208598
 21
33.4233435893
 31
0.0
  0
ARC
  5
1A4
330
1F
100
AcDbEntity
  8
0
  6
Continuous
 62
     7
370
    25
100
AcDbCircle
 10
269.1100484118
 20
23.1700983628
 30
0.0
 40
20.72993733506001
100
AcDbArc
 50
116.4519152908
 51
149.4081911086
  0
LINE
  5
1A5
330
1F
100
AcDbEntity
  8
0
  6
Continuous
 62
     7
370
    25
100
AcDbLine
 10
259.8759684219
 20
41.7297877098
 30
0.0
 11
260.0840696389
 21
41.5313203463
 31
0.0
  0
LINE
  5
1A6
330
1F
100
AcDbEntity
  8
0
  6
Continuous
 62
     7
370
    25
100
AcDbLine
 10
260.0840696389
 20
41.5313203463
 30
0.0
 11
260.4219762345
 21
40.5519465598
 31
0.0
  0
LINE
  5
1A7
330
1F
100
AcDbEntity
  8
0
  6
Continuous
 62
     7
370
    25
100
AcDbLine
 10
260.4219762345
 20
40.5519465598
 30
0.0
 11
260.5675693946
 21
40.4127597792
 31
0.0
  0
SPLINE
  5
1A8
330
1F
100
AcDbEntity
  8
0
  6
Continuous
 62
     7
370
    25
100
AcDbSpline
210
0.0
220
0.0
230
1.0
 70
     8
 71
     3
 72
     9
 73
     5
 74
     0
 42
0.000000001
 43
0.00000001
 40
0.0
 40
0.0
 40
0.0
 40
0.0
 40
0.5000511179859451
 40
1.0
 40
1.0
 40
1.0
 40
1.0
 10
260.5675693946441
 20
40.41275977921914
 30
0.0
 10
260.8353195147695
 20
40.48790691397278
 30
0.0
 10
261.3707650132295
 20
40.63818581957011
 30
0.0
 10
261.8701062821789
 20
40.8093065437308
 30
0.0
 10
262.1197513913336
 20
40.89485815846438
 30
0.0
  0
LINE
  5
1A9
330
1F
100
AcDbEntity
  8
0
  6
Continuous
 62
     7
370
    25
100
AcDbLine
 10
262.1808495044
 20
41.0982431186
 30
0.0
 11
262.1197513913
 21
40.8948581585
 31
0.0
  0
LINE
  5
1AA
330
1F
100
AcDbEntity
  8
0
  6
Continuous
 62
     7
370
    25
100
AcDbLine
 10
262.0616144236
 20
42.145534145
 30
0.0
 11
262.1808495044
 21
41.0982431186
 31
0.0
  0
LINE
  5
1AB
330
1F
100
AcDbEntity
  8
0
  6
Continuous
 62
     7
370
    25
100
AcDbLine
 10
262.1471550747
 20
42.4352056425
 30
0.0
 11
262.0616144236
 21
42.145534145
 31
0.0
  0
ARC
  5
1AC
330
1F
100
AcDbEntity
  8
0
  6
Continuous
 62
     7
370
    25
100
AcDbCircle
 10
263.4643221233
 20
36.8376492219
 30
0.0
 40
5.750440584541788
100
AcDbArc
 50
23.6545589897
 51
103.2414408181
  0
LWPOLYLINE
  5
1AD
330
1F
100
AcDbEntity
  8
0
  6
Continuous
 62
     7
370
    25
100
AcDbPolyline
 90
       54
 70
   128
 43
0.0
 10
254.2440862407
 20
16.8759842951
 10
253.5507883634
 20
17.316479798
 10
252.9484657757
 20
17.8982824427
 10
252.4455741891
 20
18.6132248249
 10
252.0491725422
 20
19.4512704534
 10
251.7648248774
 20
20.4006546353
 10
251.5965239502
 20
21.4480509295
 10
251.5466319598
 20
22.5787557901
 10
251.6158495974
 20
23.7768968529
 10
251.8032041928
 20
25.025654208
 10
252.1060661778
 20
26.3074985411
 10
252.5201846477
 20
27.604435608
 10
253.0397453129
 20
28.8982585713
 10
253.6574554516
 20
30.1708063605
 10
254.3646440082
 20
31.4042138542
 10
255.1513824364
 20
32.5811671945
 10
256.0066272742
 20
33.6851450307
 10
256.9183729259
 20
34.7006485444
 10
257.8738204143
 20
35.6134243449
 10
258.8595573281
 20
36.4106573245
 10
259.8617459082
 20
37.0811568056
 10
260.8663177814
 20
37.6155100233
 10
261.8591709272
 20
38.0062163642
 10
262.826368002
 20
38.2477912101
 10
263.7543313
 20
38.3368427448
 10
264.6300344815
 20
38.2721210389
 10
265.4411848254
 20
38.0545350486
 10
266.1763951094
 20
37.687139291
 10
266.8253452824
 20
37.175091053
 10
267.3789243813
 20
36.5255775639
 10
267.8293622393
 20
35.7477175028
 10
268.1703355121
 20
34.8524299992
 10
268.3970578982
 20
33.8522831021
 10
268.5063466521
 20
32.7613167759
 10
268.4966667063
 20
31.5948451288
 10
268.3681550383
 20
30.369243528
 10
268.1226154014
 20
29.1017165643
 10
267.7634946176
 20
27.8100576528
 10
267.2958331866
 20
26.5123978471
 10
266.7261974555
 20
25.2269553207
 10
266.0625828134
 20
23.9717735869
 10
265.31430536
 20
22.7644722671
 10
264.4918692096
 20
21.6220005232
 10
263.6068196352
 20
20.560395244
 10
262.6715804082
 20
19.594559386
 10
261.6992806012
 20
18.7380509606
 10
260.7035692076
 20
18.0028938868
 10
259.6984236701
 20
17.3994073801
 10
258.6979540455
 20
16.9360632416
 10
257.7162048657
 20
16.6193669116
 10
256.7669574092
 20
16.4537630958
 10
255.8635374065
 20
16.4415764669
 10
255.0186267784
 20
16.58297827
 10
254.2440862407
 20
16.8759842951
  0
LINE
  5
1AE
330
1F
100
AcDbEntity
  8
0
  6
Continuous
 62
     7
370
    25
100
AcDbLine
 10
256.0271182159
 20
43.9516816394
 30
0.0
 11
259.8759684219
 21
41.7297877098
 31
0.0
  0
LINE
  5
1AF
330
1F
100
AcDbEntity
  8
0
  6
Continuous
 62
     7
370
    25
100
AcDbLine
 10
247.4165615169
 20
35.941837948
 30
0.0
 11
251.2654117229
 21
33.7199440184
 31
0.0
  0
SPLINE
  5
1B0
330
1F
100
AcDbEntity
  8
0
  6
Continuous
 62
     7
370
    25
100
AcDbSpline
210
0.0
220
0.0
230
1.0
 70
     8
 71
     3
 72
    18
 73
    14
 74
     0
 42
0.000000001
 43
0.00000001
 40
0.0
 40
0.0
 40
0.0
 40
0.0
 40
0.0823396068724132
 40
0.1971287428646677
 40
0.3099452776374672
 40
0.4180296962349822
 40
0.5204026575025175
 40
0.5325623091264381
 40
0.629797973951511
 40
0.7297584631677764
 40
0.8340300372611107
 40
0.9435577957780635
 40
1.0
 40
1.0
 40
1.0
 40
1.0
 10
247.4165615168663
 20
35.94183794803981
 30
0.0
 10
247.3080450349692
 20
35.99252969300586
 30
0.0
 10
247.0482463977276
 20
36.11389048568319
 30
0.0
 10
246.5630462854559
 20
36.12713521143725
 30
0.0
 10
246.0369760506049
 20
35.95443364109889
 30
0.0
 10
245.589633579929
 20
35.60919750422723
 30
0.0
 10
245.3650235443869
 20
35.27713827712458
 30
0.0
 10
245.2112358978382
 20
34.93661275248072
 30
0.0
 10
245.1143128543204
 20
34.57434535498624
 30
0.0
 10
245.1303805027222
 20
34.05223702345908
 30
0.0
 10
245.3004266530818
 20
33.56651234761478
 30
0.0
 10
245.5572597147011
 20
33.23345398316914
 30
0.0
 10
245.7583307546211
 20
33.10072094635567
 30
0.0
 10
245.8267099511395
 20
33.05558178353854
 30
0.0
  0
LINE
  5
1B1
330
1F
100
AcDbEntity
  8
0
  6
Continuous
 62
     7
370
    25
100
AcDbLine
 10
245.8267099511
 20
33.0555817835
 30
0.0
 11
249.6755601572
 21
30.8336878539
 31
0.0
  0
LINE
  5
1B2
330
1F
100
AcDbEntity
  8
0
  6
Continuous
 62
     7
370
    25
100
AcDbLine
 10
243.8006147957
 20
21.7553805982
 30
0.0
 11
247.6494650017
 21
19.5334866686
 31
0.0
  0
SPLINE
  5
1B3
330
1F
100
AcDbEntity
  8
0
  6
Continuous
 62
     7
370
    25
100
AcDbSpline
210
0.0
220
0.0
230
1.0
 70
     8
 71
     3
 72
    18
 73
    14
 74
     0
 42
0.000000001
 43
0.00000001
 40
0.0
 40
0.0
 40
0.0
 40
0.0
 40
0.0823395600064899
 40
0.1971286039255158
 40
0.3099451053252353
 40
0.4180295415797055
 40
0.5204025439718754
 40
0.532671180354036
 40
0.6299066189867363
 40
0.7298698587848035
 40
0.8341477475474943
 40
0.9436807739634576
 40
1.0
 40
1.0
 40
1.0
 40
1.0
 10
244.4819495534931
 20
19.57454160597519
 30
0.0
 10
244.3761016478327
 20
19.64011624807
 30
0.0
 10
244.1226918668035
 20
19.79710807129628
 30
0.0
 10
243.6973015537324
 20
20.14393005167037
 30
0.0
 10
243.2795714989513
 20
20.57547918487511
 30
0.0
 10
242.9722266249593
 20
21.01105986521971
 30
0.0
 10
242.857112368372
 20
21.29012914634781
 30
0.0
 10
242.8064486360586
 20
21.5247146013892
 30
0.0
 10
242.8112539522614
 20
21.72919555204758
 30
0.0
 10
242.9544413286146
 20
21.91518993107781
 30
0.0
 10
243.2220566089115
 20
21.97276771223018
 30
0.0
 10
243.5257802886579
 20
21.90145544969675
 30
0.0
 10
243.7309457867603
 20
21.79240975528451
 30
0.0
 10
243.8006147957227
 20
21.75538059818172
 30
0.0
  0
LINE
  5
1B4
330
1F
100
AcDbEntity
  8
0
  6
Continuous
 62
     7
370
    25
100
AcDbLine
 10
244.4819495535
 20
19.574541606
 30
0.0
 11
248.3307997595
 21
17.3526476764
 31
0.0
  0
LINE
  5
1B5
330
1F
100
AcDbEntity
  8
0
  6
Continuous
 62
     7
370
    25
100
AcDbLine
 10
256.5394045985
 20
15.1412396253
 30
0.0
 11
257.1864482852
 21
14.7677092558
 31
0.0
  0
LINE
  5
1B6
330
1F
100
AcDbEntity
  8
0
  6
Continuous
 62
     7
370
    25
100
AcDbLine
 10
268.6074990885
 20
37.4289881954
 30
0.0
 11
269.4129517053
 21
36.964010297
 31
0.0
  0
LINE
  5
1B7
330
1F
100
AcDbEntity
  8
0
  6
Continuous
 62
     7
370
    25
100
AcDbLine
 10
258.2983048687
 20
44.6570995721
 30
0.0
 11
262.1471550747
 21
42.4352056425
 31
0.0
  0
SPLINE
  5
1B8
330
1F
100
AcDbEntity
  8
0
  6
Continuous
 62
     7
370
    25
100
AcDbSpline
210
0.0
220
0.0
230
1.0
 70
     8
 71
     3
 72
    18
 73
    14
 74
     0
 42
0.000000001
 43
0.00000001
 40
0.0
 40
0.0
 40
0.0
 40
0.0
 40
0.0823385149744372
 40
0.1971260835099942
 40
0.3099411413986196
 40
0.4180241892039182
 40
0.5203958549219684
 40
0.5371614059033418
 40
0.6343759261867546
 40
0.7344800996625759
 40
0.8389930924973779
 40
0.9487437944098636
 40
1.0
 40
1.0
 40
1.0
 40
1.0
 10
256.0271182158877
 20
43.95168163940109
 30
0.0
 10
255.9314362670551
 20
44.01431264195936
 30
0.0
 10
255.7023647585173
 20
44.16425710287716
 30
0.0
 10
255.5027957563348
 20
44.44320647929968
 30
0.0
 10
255.4807334907776
 20
44.73934956299805
 30
0.0
 10
255.6614782790894
 20
44.97838772195586
 30
0.0
 10
255.9133211350448
 20
45.08697957815946
 30
0.0
 10
256.2010665797533
 20
45.14963094228065
 30
0.0
 10
256.5321004533943
 20
45.17363045751043
 30
0.0
 10
257.0537584150813
 20
45.11588645903877
 30
0.0
 10
257.5988508645963
 20
44.97546817620674
 30
0.0
 10
258.021908510141
 20
44.80806199760702
 30
0.0
 10
258.2315620965851
 20
44.69355320273753
 30
0.0
 10
258.2983048686572
 20
44.65709957212783
 30
0.0
  0
LWPOLYLINE
  5
1B9
330
1F
100
AcDbEntity
  8
0
  6
Continuous
 62
     7
370
    25
100
AcDbPolyline
 90
       32
 70
   128
 43
0.0
 10
243.4618878182
 20
18.8486408877
 10
242.9455520455
 20
19.1888611185
 10
242.2407342491
 20
19.8183760772
 10
241.6319335591
 20
20.5815128468
 10
241.1256037116
 20
21.4701825387
 10
240.7271111858
 20
22.4749647953
 10
240.4406812033
 20
23.5852091275
 10
240.2693496543
 20
24.7891464219
 10
240.214932146
 20
26.0740144911
 10
240.2780062219
 20
27.4261936519
 10
240.4579028008
 20
28.8313503111
 10
240.7527147377
 20
30.2745891994
 10
241.1593178977
 20
31.7406124733
 10
241.6734007896
 20
33.213878957
 10
242.289515275
 20
34.6787722959
 10
243.0011299092
 20
36.1197640703
 10
243.8007017236
 20
37.5215795701
 10
244.6797539332
 20
38.8693578642
 10
245.6289701088
 20
40.1488149117
 10
246.6382863733
 20
41.3463849989
 10
247.6970053298
 20
42.4493762436
 10
248.7939035687
 20
43.4460950152
 10
249.9173538282
 20
44.3259765335
 10
251.0554471542
 20
45.079694173
 10
252.1961195874
 20
45.6992569336
 10
253.3272796745
 20
46.17809902
 10
254.4369370486
 20
46.5111434238
 10
255.5133287055
 20
46.694860372
 10
256.5450447029
 20
46.7273018688
 10
257.5211485923
 20
46.6081240705
 10
258.4312939808
 20
46.3385914572
 10
259.1356145761
 20
45.999273367
  0
LINE
  5
1BA
330
1F
100
AcDbEntity
  8
0
  6
Continuous
 62
     7
370
    25
100
AcDbLine
 10
247.8128426502
 20
35.3286771775
 30
0.0
 11
252.1286588643
 21
32.8372095095
 31
0.0
  0
LINE
  5
1BB
330
1F
100
AcDbEntity
  8
0
  6
Continuous
 62
     7
370
    25
100
AcDbLine
 10
247.4239819964
 20
35.7001887611
 30
0.0
 11
251.3680208598
 21
33.4233435893
 31
0.0
  0
LINE
  5
1BC
330
1F
100
AcDbEntity
  8
0
  6
Continuous
 62
     7
370
    25
100
AcDbLine
 10
246.0396819279
 20
33.1870967846
 30
0.0
 11
249.9837207913
 21
30.9102516128
 31
0.0
  0
LINE
  5
1BD
330
1F
100
AcDbEntity
  8
0
  6
Continuous
 62
     7
370
    25
100
AcDbLine
 10
246.5816146672
 20
33.0934759176
 30
0.0
 11
250.8974308813
 21
30.6020082496
 31
0.0
  0
LINE
  5
1BE
330
1F
100
AcDbEntity
  8
0
  6
Continuous
 62
     7
370
    25
100
AcDbLine
 10
247.8180655667
 20
35.1585835723
 30
0.0
 11
252.1999970152
 21
32.6289483919
 31
0.0
  0
LINE
  5
1BF
330
1F
100
AcDbEntity
  8
0
  6
Continuous
 62
     7
370
    25
100
AcDbLine
 10
246.7315237633
 20
33.1860485884
 30
0.0
 11
251.1134552118
 21
30.656413408
 31
0.0
  0
LWPOLYLINE
  5
1C0
330
1F
100
AcDbEntity
  8
0
  6
Continuous
 62
     7
370
    25
100
AcDbPolyline
 90
        9
 70
   128
 43
0.0
 10
247.8180655667
 20
35.1585835723
 10
247.4718976948
 20
35.2594737976
 10
247.0957212668
 20
35.1948547152
 10
246.7468059472
 20
34.9745634008
 10
246.4782745459
 20
34.6321373576
 10
246.3310048961
 20
34.2197076348
 10
246.3274204383
 20
33.8000618176
 10
246.4680638133
 20
33.4370890136
 10
246.7315237633
 20
33.1860485884
  0
LWPOLYLINE
  5
1C1
330
1F
100
AcDbEntity
  8
0
  6
Continuous
 62
     7
370
    25
100
AcDbPolyline
 90
       46
 70
   128
 43
0.0
 10
255.9923737369
 20
20.0498687805
 10
255.4289549953
 20
20.4224227981
 10
254.9551200387
 20
20.9304494365
 10
254.5800914538
 20
21.5640606722
 10
254.311168877
 20
22.3109239639
 10
254.1535864203
 20
23.1565023821
 10
254.1104109252
 20
24.0843374873
 10
254.1824833533
 20
25.0763703694
 10
254.3684003461
 20
26.1132919856
 10
254.6645441893
 20
27.1749202039
 10
255.0651496551
 20
28.2405913172
 10
255.5624199058
 20
29.2895632909
 10
256.1466759835
 20
30.3014187947
 10
256.8065464708
 20
31.2564642376
 10
257.5291871158
 20
32.1361094084
 10
258.3005328894
 20
32.9232335194
 10
259.1055704585
 20
33.6025166486
 10
259.9286304975
 20
34.1607366244
 10
260.7536931704
 20
34.5870294088
 10
261.5646996223
 20
34.8730955334
 10
262.3458644591
 20
35.0133694631
 10
263.0819833699
 20
35.0051196162
 10
263.7587280725
 20
34.8485064639
 10
264.3629271827
 20
34.5465788922
 10
264.8828204129
 20
34.105213341
 10
265.3082885681
 20
33.5330005683
 10
265.6310504511
 20
32.8410777599
 10
265.8448238765
 20
32.0429127327
 10
265.9454481603
 20
31.1540408983
 10
265.9309641324
 20
30.191762686
 10
265.8016543084
 20
29.1748080803
 10
265.5600356455
 20
28.1229711237
 10
265.2108101515
 20
27.0567240817
 10
264.7607759812
 20
25.9968205844
 10
264.2186924353
 20
24.9638905978
 10
263.5951100553
 20
23.9780386301
 10
262.9021664749
 20
23.0584534432
 10
262.1533491797
 20
22.2230338322
 10
261.3632328297
 20
21.4880392649
 10
260.547196209
 20
20.867776669
 10
259.7211225468
 20
20.374318685
 10
258.9010904131
 20
20.0172697098
 10
258.10306091
 20
19.8035792331
 10
257.3425664682
 20
19.7374059098
 10
256.6344095219
 20
19.8200386662
 10
255.9923737369
 20
20.0498687805
  0
ARC
  5
1C2
330
1F
100
AcDbEntity
  8
0
  6
Continuous
 62
     7
370
    25
100
AcDbCircle
 10
251.9593542623
 20
30.2275141026
 30
0.0
 40
11.26170892826705
100
AcDbArc
 50
293.6568288334
 51
318.8822486018
  0
ARC
  5
1C3
330
1F
100
AcDbEntity
  8
0
  6
Continuous
 62
     7
370
    25
100
AcDbCircle
 10
247.7352121984
 20
34.4721218989
 30
0.0
 40
17.24041203769897
100
AcDbArc
 50
317.4866929503
 51
344.8182662574
  0
ARC
  5
1C4
330
1F
100
AcDbEntity
  8
0
  6
Continuous
 62
     7
370
    25
100
AcDbCircle
 10
253.7583439377
 20
32.9671656886
 30
0.0
 40
11.03407426726093
100
AcDbArc
 50
344.1696234801
 51
6.3918864299
  0
LINE
  5
1C5
330
1F
100
AcDbEntity
  8
0
  6
Continuous
 62
     7
370
    25
100
AcDbLine
 10
255.8305008627
 20
20.1433160018
 30
0.0
 11
255.7642061749
 21
20.1775557903
 31
0.0
  0
LWPOLYLINE
  5
1C6
330
1F
100
AcDbEntity
  8
0
  6
Continuous
 62
     7
370
    25
100
AcDbPolyline
 90
       24
 70
   128
 43
0.0
 10
264.1342660416
 20
34.6828418784
 10
264.2010543085
 20
34.6400261134
 10
264.7209475387
 20
34.1986605622
 10
265.1464156938
 20
33.6264477895
 10
265.4691775768
 20
32.9345249811
 10
265.6829510023
 20
32.1363599539
 10
265.783575286
 20
31.2474881195
 10
265.7690912581
 20
30.2852099072
 10
265.6397814342
 20
29.2682553015
 10
265.3981627713
 20
28.216418345
 10
265.0489372772
 20
27.1501713029
 10
264.598903107
 20
26.0902678056
 10
264.0568195611
 20
25.0573378191
 10
263.433237181
 20
24.0714858513
 10
262.7402936007
 20
23.1519006644
 10
261.9914763054
 20
22.3164810534
 10
261.2013599554
 20
21.5814864861
 10
260.3853233348
 20
20.9612238903
 10
259.5592496726
 20
20.4677659062
 10
258.7392175389
 20
20.110716931
 10
257.9411880358
 20
19.8970264543
 10
257.180693594
 20
19.830853131
 10
256.4725366477
 20
19.9134858874
 10
255.8305008627
 20
20.1433160018
  0
LWPOLYLINE
  5
1C7
330
1F
100
AcDbEntity
  8
0
  6
Continuous
 62
     7
370
    25
100
AcDbPolyline
 90
       10
 70
   128
 43
0.0
 10
247.4239819964
 20
35.7001887611
 10
247.0351582211
 20
35.8247760234
 10
246.6097476885
 20
35.7827780681
 10
246.1990661625
 20
35.5792597714
 10
245.8526388241
 20
35.2387708755
 10
245.6122582248
 20
34.8023774663
 10
245.5069161283
 20
34.3227137832
 10
245.5493132237
 20
33.8576380052
 10
245.7343418399
 20
33.4632417908
 10
246.0396819279
 20
33.1870967846
  0
LWPOLYLINE
  5
1C8
330
1F
100
AcDbEntity
  8
0
  6
Continuous
 62
     7
370
    25
100
AcDbPolyline
 90
        9
 70
   128
 43
0.0
 10
247.8128426502
 20
35.3286771775
 10
247.4205773213
 20
35.4430026309
 10
246.9943087052
 20
35.3697790546
 10
246.5989330706
 20
35.1201529291
 10
246.2946433611
 20
34.732127949
 10
246.1277629144
 20
34.2647790503
 10
246.1236996948
 20
33.789253076
 10
246.2830720755
 20
33.3779461486
 10
246.5816146672
 20
33.0934759176
  0
ARC
  5
1C9
330
1F
100
AcDbEntity
  8
0
  6
Continuous
 62
     7
370
    25
100
AcDbCircle
 10
244.2165251843
 20
36.5180606214
 30
0.0
 40
20.02988627893308
100
AcDbArc
 50
307.3894647023
 51
352.1037974006
  0
ARC
  5
1CA
330
1F
100
AcDbEntity
  8
0
  6
Continuous
 62
     7
370
    25
100
AcDbCircle
 10
256.6283002807
 20
41.3509552048
 30
0.0
 40
2.35172155536294
100
AcDbArc
 50
61.8494215885
 51
93.9100415127
  0
LINE
  5
1CB
330
1F
100
AcDbEntity
  8
0
  6
Continuous
 62
     7
370
    25
100
AcDbLine
 10
257.7378199428
 20
43.4244933389
 30
0.0
 11
262.1197513913
 21
40.8948581585
 31
0.0
  0
LWPOLYLINE
  5
1CC
330
1F
100
AcDbEntity
  8
0
  6
Continuous
 62
     7
370
    25
100
AcDbPolyline
 90
       17
 70
   128
 43
0.0
 10
240.2148531206
 20
26.3519216558
 10
240.2165126528
 20
26.5715343189
 10
240.2954655539
 20
27.9194628083
 10
240.4918738192
 20
29.3185323138
 10
240.8035853253
 20
30.7534142205
 10
241.227185519
 20
32.2083882748
 10
241.75803232
 20
33.6675127583
 10
242.3903114388
 20
35.1148021459
 10
243.1170936702
 20
36.5343983946
 10
243.930417211
 20
37.9107485041
 10
244.8213706369
 20
39.2287733313
 10
245.7801930013
 20
40.4740326019
 10
246.7963788728
 20
41.6328821259
 10
247.8587948981
 20
42.692625499
 10
248.9558006444
 20
43.6416523056
 10
250.0753775922
 20
44.4695650563
 10
251.0141534898
 20
45.0588856846
  0
SPLINE
  5
1CD
330
1F
100
AcDbEntity
  8
0
  6
Continuous
 62
     7
370
    25
100
AcDbSpline
210
0.0
220
0.0
230
1.0
 70
     8
 71
     3
 72
    23
 73
    19
 74
     0
 42
0.000000001
 43
0.00000001
 40
0.0
 40
0.0
 40
0.0
 40
0.0
 40
0.0668770765245454
 40
0.0993347109318145
 40
0.1107235995810294
 40
0.1184459259436061
 40
0.1237468355578588
 40
0.129224398190392
 40
0.1313163057015185
 40
0.1334279792556555
 40
0.134855449969904
 40
0.1362820923124243
 40
0.1383834462371558
 40
0.1424298386760635
 40
0.1572615476089917
 40
0.2160695878363269
 40
0.4504740739536053
 40
1.0
 40
1.0
 40
1.0
 40
1.0
 10
264.3739344249071
 20
29.95717672780311
 30
0.0
 10
264.3871692610413
 20
30.02428254022282
 30
0.0
 10
264.4068273963837
 20
30.12395700006721
 30
0.0
 10
264.4210642251824
 20
30.23713173116334
 30
0.0
 10
264.4243193111245
 20
30.29055152949456
 30
0.0
 10
264.4244984464697
 20
30.31606523756405
 30
0.0
 10
264.4233292294957
 20
30.33541677698155
 30
0.0
 10
264.4212122243789
 20
30.34892899742339
 30
0.0
 10
264.4178140114103
 20
30.35836719134974
 30
0.0
 10
264.4147948066099
 20
30.36317941300929
 30
0.0
 10
264.4111993808756
 20
30.36586588136965
 30
0.0
 10
264.4072369098364
 20
30.36678987446249
 30
0.0
 10
264.4013266188161
 20
30.36545682943817
 30
0.0
 10
264.3871164768652
 20
30.35508475618382
 30
0.0
 10
264.3470004833559
 20
30.29625306038765
 30
0.0
 10
264.2232418282554
 20
30.02846148717469
 30
0.0
 10
263.915636333827
 20
29.24876029862947
 30
0.0
 10
263.5767622089687
 20
28.50708723844937
 30
0.0
 10
263.33921546453
 20
27.98718321521569
 30
0.0
  0
ARC
  5
1CE
330
1F
100
AcDbEntity
  8
0
  6
Continuous
 62
     7
370
    25
100
AcDbCircle
 10
248.4056008748
 20
35.1186116872
 30
0.0
 40
16.54902162565492
100
AcDbArc
 50
331.1483290682
 51
334.473564141
  0
ARC
  5
1CF
330
1F
100
AcDbEntity
  8
0
  6
Continuous
 62
     7
370
    25
100
AcDbCircle
 10
250.8893373686
 20
34.1677858294
 30
0.0
 40
13.14394415863672
100
AcDbArc
 50
329.6215838362
 51
2.493797182
  0
ARC
  5
1D0
330
1F
100
AcDbEntity
  8
0
  6
Continuous
 62
     7
370
    25
100
AcDbCircle
 10
247.4633997185
 20
33.6475848168
 30
0.0
 40
16.66456072544309
100
AcDbArc
 50
327.8429169585
 51
331.1527487006
  0
SPLINE
  5
1D1
330
1F
100
AcDbEntity
  8
0
  6
Continuous
 62
     7
370
    25
100
AcDbSpline
210
0.0
220
0.0
230
1.0
 70
     8
 71
     3
 72
    24
 73
    20
 74
     0
 42
0.000000001
 43
0.00000001
 40
0.0
 40
0.0
 40
0.0
 40
0.0
 40
0.3313912471137748
 40
0.7329805706971484
 40
0.7989071317017715
 40
0.830845145506198
 40
0.8420641724656854
 40
0.8496730701385459
 40
0.8548998674753199
 40
0.8603246540518124
 40
0.8623843188682231
 40
0.8644625810375426
 40
0.8658879277791066
 40
0.8673102797044877
 40
0.8694385166174338
 40
0.8735733519063899
 40
0.8889110625872133
 40
0.9497212781441398
 40
1.0
 40
1.0
 40
1.0
 40
1.0
 10
261.5714847710242
 20
24.7780008173952
 30
0.0
 10
261.3841365512623
 20
24.48576264924996
 30
0.0
 10
260.9697544387708
 20
23.8393819704234
 30
0.0
 10
260.4859905003473
 20
23.1739534520157
 30
0.0
 10
260.2067337583032
 20
22.76401651384448
 30
0.0
 10
260.151002742349
 20
22.67330245088742
 30
0.0
 10
260.1285525728047
 20
22.63034783308694
 30
0.0
 10
260.119368505488
 20
22.60971613229243
 30
0.0
 10
260.1139422344505
 20
22.59393059920829
 30
0.0
 10
260.1116854377901
 20
22.58277665039097
 30
0.0
 10
260.1124543657887
 20
22.57481597730117
 30
0.0
 10
260.114396558444
 20
22.57064181377422
 30
0.0
 10
260.1177883705603
 20
22.56812913197333
 30
0.0
 10
260.122292685472
 20
22.56699743958177
 30
0.0
 10
260.1300521085541
 20
22.56753186631514
 30
0.0
 10
260.1516094261899
 20
22.57487831214521
 30
0.0
 10
260.2233698781014
 20
22.62077627880872
 30
0.0
 10
260.3226218810254
 20
22.70648573553034
 30
0.0
 10
260.405817532326
 20
22.7858130647359
 30
0.0
 10
260.4434717858347
 20
22.82171652023368
 30
0.0
  0
ARC
  5
1D2
330
1F
100
AcDbEntity
  8
0
  6
Continuous
 62
     7
370
    25
100
AcDbCircle
 10
249.7006938818
 20
31.891201543
 30
0.0
 40
13.09059357539004
100
AcDbArc
 50
297.1212415701
 51
333.2302849915
  0
LINE
  5
1D3
330
1F
100
AcDbEntity
  8
0
  6
Continuous
 62
     7
370
    25
100
AcDbLine
 10
245.2282444586
 20
20.7142963263
 30
0.0
 11
249.6101759071
 21
18.1846611459
 31
0.0
  0
ARC
  5
1D4
330
1F
100
AcDbEntity
  8
0
  6
Continuous
 62
     7
370
    25
100
AcDbCircle
 10
246.6294909611
 20
22.9830311703
 30
0.0
 40
2.666580123170684
100
AcDbArc
 50
218.2982041769
 51
238.2991352269
  0
LINE
  5
1D5
330
1F
100
AcDbEntity
  8
0
  6
Continuous
 62
     7
370
    25
100
AcDbLine
 10
257.8650332903
 20
43.5897107866
 30
0.0
 11
262.1808495044
 21
41.0982431186
 31
0.0
  0
LINE
  5
1D6
330
1F
100
AcDbEntity
  8
0
  6
Continuous
 62
     7
370
    25
100
AcDbLine
 10
258.1175755602
 20
44.4223793168
 30
0.0
 11
262.0616144236
 21
42.145534145
 31
0.0
  0
LINE
  5
1D7
330
1F
100
AcDbEntity
  8
0
  6
Continuous
 62
     7
370
    25
100
AcDbLine
 10
244.5820094646
 20
19.8495733937
 30
0.0
 11
248.526048328
 21
17.5727282219
 31
0.0
  0
LINE
  5
1D8
330
1F
100
AcDbEntity
  8
0
  6
Continuous
 62
     7
370
    25
100
AcDbLine
 10
245.1578131235
 20
20.5207042922
 30
0.0
 11
249.4736293376
 21
18.0292366242
 31
0.0
  0
LWPOLYLINE
  5
1D9
330
1F
100
AcDbEntity
  8
0
  6
Continuous
 62
     7
370
    25
100
AcDbPolyline
 90
        9
 70
   128
 43
0.0
 10
255.7821623787
 20
44.1148772294
 10
255.7190580098
 20
44.2565803284
 10
255.7555761137
 20
44.4690627583
 10
255.9577211249
 20
44.6388755935
 10
256.3011183354
 20
44.7455327979
 10
256.7443485884
 20
44.7761700854
 10
257.2339451492
 20
44.7270956995
 10
257.7108634112
 20
44.6042252197
 10
258.1175755602
 20
44.4223793168
  0
ARC
  5
1DA
330
1F
100
AcDbEntity
  8
0
  6
Continuous
 62
     7
370
    25
100
AcDbCircle
 10
256.6330843137
 20
41.3284005497
 30
0.0
 40
2.575115971912973
100
AcDbArc
 50
61.4187025178
 51
100.1313440831
  0
LWPOLYLINE
  5
1DB
330
1F
100
AcDbEntity
  8
0
  6
Continuous
 62
     7
370
    25
100
AcDbPolyline
 90
        8
 70
   128
 43
0.0
 10
244.5820094646
 20
19.8495733937
 10
244.2170394884
 20
20.1071979784
 10
243.8603118554
 20
20.4482657332
 10
243.5548571806
 20
20.8316369664
 10
243.3375118097
 20
21.2110760634
 10
243.2344956923
 20
21.5408125534
 10
243.2582349048
 20
21.7810761028
 10
243.3400188887
 20
21.8744214495
  0
ARC
  5
1DC
330
1F
100
AcDbEntity
  8
0
  6
Continuous
 62
     7
370
    25
100
AcDbCircle
 10
246.7260670999
 20
23.0758341017
 30
0.0
 40
2.99801749120599
100
AcDbArc
 50
210.3803975386
 51
238.4597771783
  0
LINE
  5
1DD
330
1F
100
AcDbEntity
  8
0
  6
Continuous
 62
     7
370
    25
100
AcDbLine
 10
268.9588773645
 20
36.293022472
 30
0.0
 11
269.0503650018
 21
36.2402077832
 31
0.0
  0
LINE
  5
1DE
330
1F
100
AcDbEntity
  8
0
  6
Continuous
 62
     7
370
    25
100
AcDbLine
 10
268.6492659568
 20
37.3031894466
 30
0.0
 11
269.319990904
 21
36.9159881764
 31
0.0
  0
LINE
  5
1DF
330
1F
100
AcDbEntity
  8
0
  6
Continuous
 62
     7
370
    25
100
AcDbLine
 10
257.500352086
 20
15.4491339978
 30
0.0
 11
257.5743724887
 21
15.4064029289
 31
0.0
  0
LINE
  5
1E0
330
1F
100
AcDbEntity
  8
0
  6
Continuous
 62
     7
370
    25
100
AcDbLine
 10
256.6296819955
 20
15.1674566814
 30
0.0
 11
257.1687243829
 21
14.8562741348
 31
0.0
  0
ARC
  5
1E1
330
1F
100
AcDbEntity
  8
0
  6
Continuous
 62
     7
370
    25
100
AcDbCircle
 10
247.3059227101
 20
34.7274302018
 30
0.0
 40
17.39245255821758
100
AcDbArc
 50
325.10638859
 51
337.1985686803
  0
LINE
  5
1E2
330
1F
100
AcDbEntity
  8
0
  6
Continuous
 62
     7
370
    25
100
AcDbLine
 10
262.9004233076
 20
27.1329846356
 30
0.0
 11
262.0600398437
 21
25.6073310132
 31
0.0
  0
LINE
  5
1E3
330
1F
100
AcDbEntity
  8
0
  6
Continuous
 62
     7
370
    25
100
AcDbLine
 10
262.2286736651
 20
27.5207774498
 30
0.0
 11
261.3882902012
 21
25.9951238273
 31
0.0
  0
ARC
  5
1E4
330
1F
100
AcDbEntity
  8
0
  6
Continuous
 62
     7
370
    25
100
AcDbCircle
 10
244.6352660795
 20
36.2707051207
 30
0.0
 40
18.70410762466348
100
AcDbArc
 50
303.983249683
 51
356.0221271905
  0
SPLINE
  5
1E5
330
1F
100
AcDbEntity
  8
0
  6
Continuous
 62
     7
370
    25
100
AcDbSpline
210
0.0
220
0.0
230
1.0
 70
     8
 71
     3
 72
    14
 73
    10
 74
     0
 42
0.000000001
 43
0.00000001
 40
0.0
 40
0.0
 40
0.0
 40
0.0
 40
0.25
 40
0.25
 40
0.5
 40
0.5
 40
0.75
 40
0.75
 40
1.0
 40
1.0
 40
1.0
 40
1.0
 10
218.029608312061
 20
36.62932245322413
 30
0.0
 10
217.9824352048286
 20
36.602089998078
 30
0.0
 10
217.9268711401299
 20
36.58034563993706
 30
0.0
 10
217.8049456680109
 20
36.55010021253104
 30
0.0
 10
217.738849147135
 20
36.54180118242073
 30
0.0
 10
217.6066572179983
 20
36.54036856664096
 30
0.0
 10
217.5397220664675
 20
36.54731854082257
 30
0.0
 10
217.4171115747972
 20
36.57552789443199
 30
0.0
 10
217.3601761199935
 20
36.59710373873965
 30
0.0
 10
217.3134335766213
 20
36.62408763466004
 30
0.0
  0
SPLINE
  5
1E6
330
1F
100
AcDbEntity
  8
0
  6
Continuous
 62
     7
370
    25
100
AcDbSpline
210
0.0
220
0.0
230
1.0
 70
     8
 71
     3
 72
    12
 73
     8
 74
     0
 42
0.000000001
 43
0.00000001
 40
0.0
 40
0.0
 40
0.0
 40
0.0
 40
0.2500000000000032
 40
0.2500000000000032
 40
0.5000000000000064
 40
0.5000000000000064
 40
1.0
 40
1.0
 40
1.0
 40
1.0
 10
245.6418967327011
 20
64.38931222981432
 30
0.0
 10
245.6956687516491
 20
64.3582703040216
 30
0.0
 10
245.7481570267673
 20
64.30929567476478
 30
0.0
 10
245.8391629537058
 20
64.19256479991526
 30
0.0
 10
245.8777373072352
 20
64.12511333458212
 30
0.0
 10
245.9675608965314
 20
63.92079610757523
 30
0.0
 10
245.9954501232943
 20
63.78043327837782
 30
0.0
 10
245.9954501232943
 20
63.65761655332314
 30
0.0
  0
LINE
  5
1E7
330
1F
100
AcDbEntity
  8
0
  6
Continuous
 62
     7
370
    25
100
AcDbLine
 10
217.3134331174
 20
36.6240873379
 30
0.0
 11
215.6559852507
 21
37.5809116248
 31
0.0
  0
LWPOLYLINE
  5
1E8
330
1F
100
AcDbEntity
  8
0
  6
Continuous
 62
     7
370
    25
100
AcDbPolyline
 90
       26
 70
   128
 43
0.0
 10
215.6559852507
 20
37.5809116248
 10
216.02755055
 20
39.3932161046
 10
216.5099436218
 20
41.229507352
 10
217.0999929155
 20
43.0777220616
 10
217.7938261895
 20
44.9257232288
 10
218.5868836816
 20
46.7613697309
 10
219.4739576218
 20
48.5726079592
 10
220.4492212083
 20
50.3475379769
 10
221.5062694374
 20
52.0745032491
 10
222.6381572984
 20
53.7421606026
 10
223.8374517997
 20
55.3395558867
 10
225.0962754318
 20
56.856197734
 10
226.4063595098
 20
58.2821233357
 10
227.759099162
 20
59.6079682085
 10
229.1456093058
 20
60.8250213232
 10
230.5567832585
 20
61.9252908794
 10
231.9833515947
 20
62.9015504499
 10
233.4159443371
 20
63.7473855303
 10
234.8451518315
 20
64.4572423687
 10
236.2615867316
 20
65.0264576655
 10
237.6559450796
 20
65.4512923136
 10
239.0190693201
 20
65.7289571289
 10
240.3420048942
 20
65.8576257495
 10
241.6160626364
 20
65.8364554471
 10
242.8328750802
 20
65.6655861718
 10
243.9844494708
 20
65.3461361736
  0
LINE
  5
1E9
330
1F
100
AcDbEntity
  8
0
  6
Continuous
 62
     7
370
    25
100
AcDbLine
 10
243.9844494708
 20
65.3461361736
 30
0.0
 11
245.6418973375
 21
64.3893118867
 31
0.0
  0
LINE
  5
1EA
330
1F
100
AcDbEntity
  8
0
  6
Continuous
 62
     7
370
    25
100
AcDbLine
 10
250.4325458738
 20
54.9268695717
 30
0.0
 11
251.8710625945
 21
55.7573075982
 31
0.0
  0
LINE
  5
1EB
330
1F
100
AcDbEntity
  8
0
  6
Continuous
 62
     7
370
    25
100
AcDbLine
 10
250.4325458738
 20
48.6356568417
 30
0.0
 11
250.4325458738
 21
54.9268695717
 31
0.0
  0
LINE
  5
1EC
330
1F
100
AcDbEntity
  8
0
  6
Continuous
 62
     7
370
    25
100
AcDbLine
 10
251.8710625945
 20
47.5918996618
 30
0.0
 11
251.4104857853
 21
47.3260143294
 31
0.0
  0
LINE
  5
1ED
330
1F
100
AcDbEntity
  8
0
  6
Continuous
 62
     7
370
    25
100
AcDbLine
 10
218.0296088309
 20
27.6473737721
 30
0.0
 11
219.3905569111
 21
28.4330323756
 31
0.0
  0
LINE
  5
1EE
330
1F
100
AcDbEntity
  8
0
  6
Continuous
 62
     7
370
    25
100
AcDbLine
 10
219.3905569111
 20
28.4330323756
 30
0.0
 11
219.3905569111
 21
37.4149812577
 31
0.0
  0
LINE
  5
1EF
330
1F
100
AcDbEntity
  8
0
  6
Continuous
 62
     7
370
    25
100
AcDbLine
 10
219.3905569111
 20
37.4149812577
 30
0.0
 11
218.0296088309
 21
36.6293226542
 31
0.0
  0
LINE
  5
1F0
330
1F
100
AcDbEntity
  8
0
  6
Continuous
 62
     7
370
    25
100
AcDbLine
 10
245.9954507861
 20
63.6576174016
 30
0.0
 11
245.9954507861
 21
61.0819630494
 31
0.0
  0
LINE
  5
1F1
330
1F
100
AcDbEntity
  8
0
  6
Continuous
 62
     7
370
    25
100
AcDbLine
 10
248.2259120586
 20
62.3695809344
 30
0.0
 11
245.9954507861
 21
61.0819630494
 31
0.0
  0
LWPOLYLINE
  5
1F2
330
1F
100
AcDbEntity
  8
0
  6
Continuous
 62
     7
370
    25
100
AcDbPolyline
 90
       26
 70
   128
 43
0.0
 10
241.9826197048
 20
49.2336170813
 10
240.9122960417
 20
48.5487196322
 10
239.8545209442
 20
47.737827894
 10
238.8216959578
 20
46.8104479152
 10
237.8259295758
 20
45.7774527034
 10
236.8788968045
 20
44.6509524855
 10
235.9917007043
 20
43.4441562204
 10
235.1747426564
 20
42.1712107738
 10
234.4376002028
 20
40.8470406622
 10
233.7889167403
 20
39.4871710651
 10
233.2362964822
 20
38.1075451339
 10
232.7862195066
 20
36.7243373064
 10
232.4439614135
 20
35.3537645289
 10
232.213535373
 20
34.0118953861
 10
232.0976433934
 20
32.7144627937
 10
232.0976433934
 20
31.4766772128
 10
232.213535373
 20
30.3130506518
 10
232.4439614135
 20
29.2372257524
 10
232.7862195066
 20
28.261815758
 10
233.2362964822
 20
27.3982557455
 10
233.7889167403
 20
26.6566715832
 10
234.4376002028
 20
26.04575597
 10
235.1747426564
 20
25.5726724193
 10
235.9917007043
 20
25.2429666575
 10
236.8788968045
 20
25.0605052061
 10
237.3095717418
 20
25.0265960588
  0
LWPOLYLINE
  5
1F3
330
1F
100
AcDbEntity
  8
0
  6
Continuous
 62
     7
370
    25
100
AcDbPolyline
 90
       11
 70
   128
 43
0.0
 10
250.7120242605
 20
48.2327569525
 10
250.1763226694
 20
48.9474191409
 10
249.5276392069
 20
49.5583347541
 10
248.7904967533
 20
50.0314183048
 10
247.9735387054
 20
50.3611240666
 10
247.0863426051
 20
50.543585518
 10
246.1393098338
 20
50.5766649723
 10
245.1435434518
 20
50.4599727911
 10
244.1107184654
 20
50.1948784233
 10
243.0529433679
 20
49.7844890295
 10
241.9826197048
 20
49.2336170813
  0
LWPOLYLINE
  5
1F4
330
1F
100
AcDbEntity
  8
0
  6
Continuous
 62
     7
370
    25
100
AcDbPolyline
 90
       23
 70
   128
 43
0.0
 10
214.6771997681
 20
39.1271140642
 10
215.070034738
 20
40.9571277289
 10
215.5802078512
 20
42.8101914205
 10
216.203978575
 20
44.6727179194
 10
216.9367739763
 20
46.5310493609
 10
217.7732190147
 20
48.3715579939
 10
218.707182641
 20
50.18075074
 10
219.7318133581
 20
51.9453566439
 10
220.8396004658
 20
53.6524413168
 10
222.0224195006
 20
55.2894833587
 10
223.2715961141
 20
56.8444789165
 10
224.577971928
 20
58.3060268491
 10
225.9319670953
 20
59.6634104717
 10
227.3236527404
 20
60.9066743556
 10
228.7428237284
 20
62.026702839
 10
230.1790739859
 20
63.0152832812
 10
231.6218716163
 20
63.8651646351
 10
233.0606368141
 20
64.5701176348
 10
234.4848194904
 20
65.1249720036
 10
235.8839763229
 20
65.5256594133
 10
237.2478480115
 20
65.7692398315
 10
238.566432582
 20
65.8539301506
 10
239.6085022162
 20
65.804193535
  0
SPLINE
  5
1F5
330
1F
100
AcDbEntity
  8
0
  6
Continuous
 62
     7
370
    25
100
AcDbSpline
210
0.0
220
0.0
230
1.0
 70
     8
 71
     3
 72
     8
 73
     4
 74
     0
 42
0.000000001
 43
0.00000001
 40
0.0
 40
0.0
 40
0.0
 40
0.0
 40
1.0
 40
1.0
 40
1.0
 40
1.0
 10
214.6771999509578
 20
39.12711434766374
 30
0.0
 10
214.2346635971125
 20
39.05542781723449
 30
0.0
 10
213.7920544070608
 20
38.98389165163271
 30
0.0
 10
213.3493827008444
 20
38.91248549532801
 30
0.0
  0
LWPOLYLINE
  5
1F6
330
1F
100
AcDbEntity
  8
0
  6
Continuous
 62
     7
370
    25
100
AcDbPolyline
 90
       26
 70
   128
 43
0.0
 10
213.3493824035
 20
38.9124851051
 10
213.7209477029
 20
40.7247895849
 10
214.2033407746
 20
42.5610808323
 10
214.7933900683
 20
44.4092955419
 10
215.4872233423
 20
46.2572967091
 10
216.2802808344
 20
48.0929432112
 10
217.1673547746
 20
49.9041814396
 10
218.1426183612
 20
51.6791114572
 10
219.1996665902
 20
53.4060767294
 10
220.3315544513
 20
55.0737340829
 10
221.5308489526
 20
56.671129367
 10
222.7896725846
 20
58.1877712143
 10
224.0997566627
 20
59.613696816
 10
225.4524963149
 20
60.9395416888
 10
226.8390064587
 20
62.1565948036
 10
228.2501804114
 20
63.2568643597
 10
229.6767487475
 20
64.2331239302
 10
231.1093414899
 20
65.0789590106
 10
232.5385489843
 20
65.788815849
 10
233.9549838845
 20
66.3580311458
 10
235.3493422325
 20
66.7828657939
 10
236.712466473
 20
67.0605306092
 10
238.0354020471
 20
67.1891992298
 10
239.3094597893
 20
67.1680289274
 10
240.526272233
 20
66.9971596521
 10
241.6778466236
 20
66.6777096539
  0
LINE
  5
1F7
330
1F
100
AcDbEntity
  8
0
  6
Continuous
 62
     7
370
    25
100
AcDbLine
 10
241.6778466236
 20
66.6777096539
 30
0.0
 11
241.9726006087
 21
65.7383314184
 31
0.0
  0
LWPOLYLINE
  5
1F8
330
1F
100
AcDbEntity
  8
0
  6
Continuous
 62
     7
370
    25
100
AcDbPolyline
 90
       10
 70
   128
 43
0.0
 10
227.2283746651
 20
69.2904725403
 10
227.368751988
 20
69.3488671009
 10
228.7866090151
 20
69.863348518
 10
230.1782880747
 20
70.2302754991
 10
231.5345275617
 20
70.4472064015
 10
232.846302782
 20
70.5126971925
 10
234.1048834112
 20
70.4263118054
 10
235.3018940801
 20
70.1886236545
 10
236.4293690344
 20
69.8012182921
 10
237.3519411578
 20
69.3420106188
  0
LWPOLYLINE
  5
1F9
330
1F
100
AcDbEntity
  8
0
  6
Continuous
 62
     7
370
    25
100
AcDbPolyline
 90
        9
 70
   128
 43
0.0
 10
212.3539735906
 20
26.0395672566
 10
211.7319875224
 20
26.436283824
 10
210.8100449676
 20
27.1845738016
 10
209.9815551468
 20
28.0693292017
 10
209.2520327117
 20
29.0846620031
 10
208.6263311355
 20
30.2238150375
 10
208.1086150534
 20
31.4792076201
 10
207.7023312876
 20
32.8424868833
 10
207.4272243194
 20
34.1970252446
  0
LINE
  5
1FA
330
1F
100
AcDbEntity
  8
0
  6
Continuous
 62
     7
370
    25
100
AcDbLine
 10
237.5101693381
 20
69.0836585388
 30
0.0
 11
241.6778466236
 21
66.6777096539
 31
0.0
  0
LINE
  5
1FB
330
1F
100
AcDbEntity
  8
0
  6
Continuous
 62
     7
370
    25
100
AcDbLine
 10
213.3493824035
 20
38.9124851051
 30
0.0
 11
212.7172389449
 21
39.2774137561
 31
0.0
  0
SPLINE
  5
1FC
330
1F
100
AcDbEntity
  8
0
  6
Continuous
 62
     7
370
    25
100
AcDbSpline
210
0.0
220
0.0
230
1.0
 70
     8
 71
     3
 72
    30
 73
    26
 74
     0
 42
0.000000001
 43
0.00000001
 40
0.0
 40
0.0
 40
0.0
 40
0.0
 40
0.1250000000000002
 40
0.1250000000000002
 40
0.1875000000000003
 40
0.1875000000000003
 40
0.2500000000000004
 40
0.2500000000000004
 40
0.3750000000000001
 40
0.3750000000000001
 40
0.4374999999999998
 40
0.4374999999999998
 40
0.4999999999999996
 40
0.4999999999999996
 40
0.6249999999999996
 40
0.6249999999999996
 40
0.6874999999999997
 40
0.6874999999999997
 40
0.7499999999999997
 40
0.7499999999999997
 40
0.8124999999999998
 40
0.8124999999999998
 40
0.8749999999999999
 40
0.8749999999999999
 40
1.0
 40
1.0
 40
1.0
 40
1.0
 10
212.7172394989088
 20
39.27741399808386
 30
0.0
 10
212.4829238653022
 20
39.41268153411448
 30
0.0
 10
212.2474233887735
 20
39.51594406304385
 30
0.0
 10
211.8928729413838
 20
39.62518680080762
 30
0.0
 10
211.7744786779847
 20
39.65393976280433
 30
0.0
 10
211.5374240329345
 20
39.69589292745403
 30
0.0
 10
211.4186041216986
 20
39.70899806235612
 30
0.0
 10
211.0699602377225
 20
39.72424945137045
 30
0.0
 10
210.8451953950805
 20
39.70317068992843
 30
0.0
 10
210.5209847474767
 20
39.62616763805275
 30
0.0
 10
210.4145686715655
 20
39.59265903301954
 30
0.0
 10
210.2092594415931
 20
39.51112068689591
 30
0.0
 10
210.1106647110853
 20
39.46331508179458
 30
0.0
 10
209.8271667172864
 20
39.29964787224167
 30
0.0
 10
209.6544237436162
 20
39.16373577576508
 30
0.0
 10
209.4222989451201
 20
38.91936463886
 30
0.0
 10
209.3499849592941
 20
38.83154755365236
 30
0.0
 10
209.2176666452245
 20
38.64616698471208
 30
0.0
 10
209.1573127065037
 20
38.54824598467175
 30
0.0
 10
209.0483495723606
 20
38.3421581339675
 30
0.0
 10
208.9997397472625
 20
38.23399132712326
 30
0.0
 10
208.9147039313678
 20
38.00730161361651
 30
0.0
 10
208.8781530521928
 20
37.88816118589373
 30
0.0
 10
208.7891587750999
 20
37.52017685743961
 30
0.0
 10
208.7568222181198
 20
37.26095173214293
 30
0.0
 10
208.752136311823
 20
36.98774515071278
 30
0.0
  0
ARC
  5
1FD
330
1F
100
AcDbEntity
  8
0
  6
Continuous
 62
     7
370
    25
100
AcDbCircle
 10
232.3148139325
 20
36.5794748848
 30
0.0
 40
23.56621418174432
100
AcDbArc
 50
179.0073355702
 51
180.9926644298
  0
SPLINE
  5
1FE
330
1F
100
AcDbEntity
  8
0
  6
Continuous
 62
     7
370
    25
100
AcDbSpline
210
0.0
220
0.0
230
1.0
 70
     8
 71
     3
 72
    30
 73
    26
 74
     0
 42
0.000000001
 43
0.00000001
 40
0.0
 40
0.0
 40
0.0
 40
0.0
 40
0.1249999999999996
 40
0.1249999999999996
 40
0.1874999999999994
 40
0.1874999999999994
 40
0.2499999999999993
 40
0.2499999999999993
 40
0.3749999999999992
 40
0.3749999999999992
 40
0.4374999999999993
 40
0.4374999999999993
 40
0.4999999999999994
 40
0.4999999999999994
 40
0.6249999999999992
 40
0.6249999999999992
 40
0.6874999999999993
 40
0.6874999999999993
 40
0.7499999999999994
 40
0.7499999999999994
 40
0.8124999999999997
 40
0.8124999999999997
 40
0.8749999999999998
 40
0.8749999999999998
 40
1.0
 40
1.0
 40
1.0
 40
1.0
 10
208.752136311823
 20
36.17120433882702
 30
0.0
 10
208.7568225584817
 20
35.9033885381953
 30
0.0
 10
208.7891320788005
 20
35.62967237320989
 30
0.0
 10
208.8767901341691
 20
35.21042422601449
 30
0.0
 10
208.9125843054825
 20
35.06921380732218
 30
0.0
 10
208.997444920335
 20
34.78371319233003
 30
0.0
 10
209.0466975682487
 20
34.63912812749901
 30
0.0
 10
209.2109019044181
 20
34.2100358583474
 30
0.0
 10
209.3429543624784
 20
33.92706304286355
 30
0.0
 10
209.5730049299974
 20
33.50605913212641
 30
0.0
 10
209.6554679684912
 20
33.36565406225262
 30
0.0
 10
209.8292197037103
 20
33.0889897681584
 30
0.0
 10
209.920021295544
 20
32.95340521911201
 30
0.0
 10
210.2034157677753
 20
32.55430815235238
 30
0.0
 10
210.4068956424424
 20
32.29838120934519
 30
0.0
 10
210.7328036296911
 20
31.92875522930951
 30
0.0
 10
210.8445442451523
 20
31.80843638212399
 30
0.0
 10
211.0698483492896
 20
31.57759878399319
 30
0.0
 10
211.1839709967687
 20
31.46643618991364
 30
0.0
 10
211.4148807833331
 20
31.25236238073866
 30
0.0
 10
211.5316681993418
 20
31.14945125400419
 30
0.0
 10
211.7677511618116
 20
30.95189308708897
 30
0.0
 10
211.8876285362014
 20
30.85682131448359
 30
0.0
 10
212.2461117913652
 20
30.58801623588101
 30
0.0
 10
212.4829204579284
 20
30.43073457040624
 30
0.0
 10
212.7172394989088
 20
30.29546506734061
 30
0.0
  0
LINE
  5
1FF
330
1F
100
AcDbEntity
  8
0
  6
Continuous
 62
     7
370
    25
100
AcDbLine
 10
212.7172389449
 20
30.295464874
 30
0.0
 11
213.3493824035
 21
29.9305362231
 31
0.0
  0
LWPOLYLINE
  5
200
330
1F
100
AcDbEntity
  8
0
  6
Continuous
 62
     7
370
    25
100
AcDbPolyline
 90
        9
 70
   128
 43
0.0
 10
219.3015697674
 20
22.1519153504
 10
218.258142873
 20
22.6335900726
 10
217.2580982566
 20
23.2779784898
 10
216.3484981429
 20
24.065457004
 10
215.5355104598
 20
24.9906873473
 10
214.8246485419
 20
26.0473921418
 10
214.2207355693
 20
27.2284073743
 10
213.7278663715
 20
28.5257215644
 10
213.3493824035
 20
29.9305362231
  0
LINE
  5
201
330
1F
100
AcDbEntity
  8
0
  6
Continuous
 62
     7
370
    25
100
AcDbLine
 10
243.6297988871
 20
65.5503672738
 30
0.0
 11
243.9822097609
 21
65.3469248067
 31
0.0
  0
SPLINE
  5
202
330
1F
100
AcDbEntity
  8
0
  6
Continuous
 62
     7
370
    25
100
AcDbSpline
210
0.0
220
0.0
230
1.0
 70
     8
 71
     3
 72
    22
 73
    18
 74
     0
 42
0.000000001
 43
0.00000001
 40
0.0
 40
0.0
 40
0.0
 40
0.0
 40
0.2500000000000002
 40
0.2500000000000002
 40
0.3750000000000003
 40
0.3750000000000003
 40
0.5000000000000004
 40
0.5000000000000004
 40
0.6250000000000004
 40
0.6250000000000004
 40
0.7500000000000004
 40
0.7500000000000004
 40
0.8750000000000004
 40
0.8750000000000004
 40
0.9375000000000002
 40
0.9375000000000002
 40
1.0
 40
1.0
 40
1.0
 40
1.0
 10
237.5101687490558
 20
69.08365887279491
 30
0.0
 10
237.9422008445949
 20
68.91538843468848
 30
0.0
 10
238.3925754929602
 20
68.70471242980827
 30
0.0
 10
239.1175489346444
 20
68.31961819355162
 30
0.0
 10
239.3695162583639
 20
68.17849265527585
 30
0.0
 10
239.8823083714962
 20
67.87947568605865
 30
0.0
 10
240.1438296835552
 20
67.72130984870284
 30
0.0
 10
240.6814043651538
 20
67.38870990736537
 30
0.0
 10
240.9593669098166
 20
67.21301209599932
 30
0.0
 10
241.511972828562
 20
66.86136917990595
 30
0.0
 10
241.7889687537333
 20
66.68399035078323
 30
0.0
 10
242.34715633363
 20
66.32967993147068
 30
0.0
 10
242.6173324227898
 20
66.15982209175822
 30
0.0
 10
243.0087997378863
 20
65.91925310678351
 30
0.0
 10
243.1370469679942
 20
65.84138522423513
 30
0.0
 10
243.3889086071757
 20
65.69077892873668
 30
0.0
 10
243.5118008410221
 20
65.61848608952575
 30
0.0
 10
243.6297994998814
 20
65.55036691372365
 30
0.0
  0
LINE
  5
203
330
1F
100
AcDbEntity
  8
0
  6
Continuous
 62
     7
370
    25
100
AcDbLine
 10
214.9983008018
 20
39.3124817453
 30
0.0
 11
214.6771997681
 21
39.1271140642
 31
0.0
  0
LINE
  5
204
330
1F
100
AcDbEntity
  8
0
  6
Continuous
 62
     7
370
    25
100
AcDbLine
 10
215.9589499686
 20
39.094067437
 30
0.0
 11
215.572295439
 21
39.3172783458
 31
0.0
  0
SPLINE
  5
205
330
1F
100
AcDbEntity
  8
0
  6
Continuous
 62
     7
370
    25
100
AcDbSpline
210
0.0
220
0.0
230
1.0
 70
     8
 71
     3
 72
    12
 73
     8
 74
     0
 42
0.000000001
 43
0.00000001
 40
0.0
 40
0.0
 40
0.0
 40
0.0
 40
0.25
 40
0.25
 40
0.5
 40
0.5
 40
1.0
 40
1.0
 40
1.0
 40
1.0
 10
215.57229560565
 20
39.31727882552962
 30
0.0
 10
215.5349035680671
 20
39.33886478935605
 30
0.0
 10
215.4887552572122
 20
39.35630492437851
 30
0.0
 10
215.3900554198297
 20
39.37876105269284
 30
0.0
 10
215.3365438535342
 20
39.38414735829346
 30
0.0
 10
215.1779464338328
 20
39.38206619948333
 30
0.0
 10
215.0732323392151
 20
39.35573897899253
 30
0.0
 10
214.9983005006883
 20
39.31248174936706
 30
0.0
  0
SPLINE
  5
206
330
1F
100
AcDbEntity
  8
0
  6
Continuous
 62
     7
370
    25
100
AcDbSpline
210
0.0
220
0.0
230
1.0
 70
    11
 71
     3
 72
    66
 73
    62
 74
     0
 42
0.000000001
 43
0.00000001
 40
0.0
 40
0.0
 40
0.0
 40
0.0
 40
0.0312500000000002
 40
0.0312500000000002
 40
0.0625000000000005
 40
0.0625000000000005
 40
0.0937500000000007
 40
0.0937500000000007
 40
0.125000000000001
 40
0.125000000000001
 40
0.1562500000000012
 40
0.1562500000000012
 40
0.1875000000000015
 40
0.1875000000000015
 40
0.2187500000000017
 40
0.2187500000000017
 40
0.250000000000002
 40
0.250000000000002
 40
0.2812500000000022
 40
0.2812500000000022
 40
0.3125000000000025
 40
0.3125000000000025
 40
0.3437500000000027
 40
0.3437500000000027
 40
0.3750000000000029
 40
0.3750000000000029
 40
0.4062500000000031
 40
0.4062500000000031
 40
0.4375000000000033
 40
0.4375000000000033
 40
0.4687500000000034
 40
0.4687500000000034
 40
0.5000000000000037
 40
0.5000000000000037
 40
0.5312500000000039
 40
0.5312500000000039
 40
0.5625000000000041
 40
0.5625000000000041
 40
0.6250000000000037
 40
0.6250000000000037
 40
0.6875000000000031
 40
0.6875000000000031
 40
0.7187500000000029
 40
0.7187500000000029
 40
0.7500000000000026
 40
0.7500000000000026
 40
0.7812500000000022
 40
0.7812500000000022
 40
0.8125000000000019
 40
0.8125000000000019
 40
0.8437500000000017
 40
0.8437500000000017
 40
0.8750000000000013
 40
0.8750000000000013
 40
0.906250000000001
 40
0.906250000000001
 40
0.9375000000000007
 40
0.9375000000000007
 40
0.9687500000000004
 40
0.9687500000000004
 40
1.0
 40
1.0
 40
1.0
 40
1.0
 10
238.786563794772
 20
51.99214527785549
 30
0.0
 10
238.8964418854192
 20
51.98187663339054
 30
0.0
 10
239.003635599332
 20
51.9658192728816
 30
0.0
 10
239.2131442504773
 20
51.92361404533652
 30
0.0
 10
239.316216402245
 20
51.89720752837978
 30
0.0
 10
239.5137632176058
 20
51.83561434064701
 30
0.0
 10
239.6072294322031
 20
51.80084164614951
 30
0.0
 10
239.7839788003829
 20
51.72391469736343
 30
0.0
 10
239.8679579097378
 20
51.68130115210972
 30
0.0
 10
240.0206608267296
 20
51.59107810729417
 30
0.0
 10
240.0896264577962
 20
51.54350299592591
 30
0.0
 10
240.2128306864664
 20
51.44333256877962
 30
0.0
 10
240.2674300360367
 20
51.39019228877573
 30
0.0
 10
240.3574501004951
 20
51.28202550775123
 30
0.0
 10
240.3933328529401
 20
51.22680317683505
 30
0.0
 10
240.4462957620299
 20
51.11356652910558
 30
0.0
 10
240.463304284038
 20
51.05497247547287
 30
0.0
 10
240.4756889478488
 20
50.93907824541162
 30
0.0
 10
240.4714666474311
 20
50.88135523795884
 30
0.0
 10
240.4408717862634
 20
50.7658026984262
 30
0.0
 10
240.4140046390325
 20
50.70770420774103
 30
0.0
 10
240.3390789894542
 20
50.59689326914916
 30
0.0
 10
240.2909707460045
 20
50.54342652471626
 30
0.0
 10
240.1717373883743
 20
50.44032590977902
 30
0.0
 10
240.1019292899579
 20
50.39202931609228
 30
0.0
 10
239.9456533009702
 20
50.30403985149113
 30
0.0
 10
239.8574136397154
 20
50.26352091342062
 30
0.0
 10
239.6699409778716
 20
50.1937706131961
 30
0.0
 10
239.5708284163559
 20
50.16432033506227
 30
0.0
 10
239.3621353769329
 20
50.11632535153527
 30
0.0
 10
239.2544960654508
 20
50.0983242685577
 30
0.0
 10
239.0376696267911
 20
50.07462091942784
 30
0.0
 10
238.9266370505858
 20
50.06880470320219
 30
0.0
 10
238.7085284543597
 20
50.06968988882511
 30
0.0
 10
238.6012302772943
 20
50.07622392902515
 30
0.0
 10
238.389966297367
 20
50.10147050433578
 30
0.0
 10
238.2863994197831
 20
50.12028372067017
 30
0.0
 10
237.9918909000743
 20
50.19311410844575
 30
0.0
 10
237.8105613949388
 20
50.26542544577121
 30
0.0
 10
237.5062046220556
 20
50.44589183846932
 30
0.0
 10
237.3793780423338
 20
50.55639347064864
 30
0.0
 10
237.2445999061566
 20
50.73778759630615
 30
0.0
 10
237.208191528925
 20
50.8014497946859
 30
0.0
 10
237.1546592798387
 20
50.93359019976759
 30
0.0
 10
237.1381115187614
 20
51.0004393522815
 30
0.0
 10
237.1255984460249
 20
51.13519990059562
 30
0.0
 10
237.1297767715962
 20
51.20376134650955
 30
0.0
 10
237.1607189019654
 20
51.33850805027371
 30
0.0
 10
237.1870161036411
 20
51.40361881183707
 30
0.0
 10
237.2618624044816
 20
51.52871088024102
 30
0.0
 10
237.3113570070557
 20
51.58941740236092
 30
0.0
 10
237.4299016121513
 20
51.69934190360241
 30
0.0
 10
237.49882470019
 20
51.74900029392626
 30
0.0
 10
237.6565774610389
 20
51.83726560765057
 30
0.0
 10
237.7444799907696
 20
51.87508402576756
 30
0.0
 10
237.931380481988
 20
51.93601713874966
 30
0.0
 10
238.0325398600112
 20
51.95977682591657
 30
0.0
 10
238.240482216169
 20
51.99244328208918
 30
0.0
 10
238.3471681167024
 20
52.00158589116416
 30
0.0
 10
238.5657536476177
 20
52.00663524592403
 30
0.0
 10
238.6766857041249
 20
52.00241392232044
 30
0.0
 10
238.786563794772
 20
51.99214527785549
 30
0.0
  0
SPLINE
  5
207
330
1F
100
AcDbEntity
  8
0
  6
Continuous
 62
     7
370
    25
100
AcDbSpline
210
0.0
220
0.0
230
1.0
 70
    11
 71
     3
 72
    68
 73
    64
 74
     0
 42
0.000000001
 43
0.00000001
 40
0.0
 40
0.0
 40
0.0
 40
0.0
 40
0.03125
 40
0.03125
 40
0.0625
 40
0.0625
 40
0.09375
 40
0.09375
 40
0.1250000000000001
 40
0.1250000000000001
 40
0.1562500000000001
 40
0.1562500000000001
 40
0.1875000000000001
 40
0.1875000000000001
 40
0.2187500000000001
 40
0.2187500000000001
 40
0.2500000000000002
 40
0.2500000000000002
 40
0.2812500000000002
 40
0.2812500000000002
 40
0.3125000000000002
 40
0.3125000000000002
 40
0.3437500000000002
 40
0.3437500000000002
 40
0.3750000000000001
 40
0.3750000000000001
 40
0.4062500000000001
 40
0.4062500000000001
 40
0.4375000000000001
 40
0.4375000000000001
 40
0.4687500000000001
 40
0.4687500000000001
 40
0.5000000000000001
 40
0.5000000000000001
 40
0.5312500000000001
 40
0.5312500000000001
 40
0.5625000000000001
 40
0.5625000000000001
 40
0.5937500000000001
 40
0.5937500000000001
 40
0.6250000000000001
 40
0.6250000000000001
 40
0.6562500000000001
 40
0.6562500000000001
 40
0.6875000000000001
 40
0.6875000000000001
 40
0.7187500000000001
 40
0.7187500000000001
 40
0.75
 40
0.75
 40
0.8125
 40
0.8125
 40
0.84375
 40
0.84375
 40
0.875
 40
0.875
 40
0.90625
 40
0.90625
 40
0.9375
 40
0.9375
 40
0.96875
 40
0.96875
 40
1.0
 40
1.0
 40
1.0
 40
1.0
 10
228.0958765292383
 20
33.47533182046597
 30
0.0
 10
228.0320650022166
 20
33.5653250302019
 30
0.0
 10
227.9740032789353
 20
33.65761615957715
 30
0.0
 10
227.870026277452
 20
33.84717687352278
 30
0.0
 10
227.8236506372336
 20
33.94572070069584
 30
0.0
 10
227.7479003025631
 20
34.14156884968379
 30
0.0
 10
227.7183815165997
 20
34.2386132875727
 30
0.0
 10
227.677031981979
 20
34.43107117277059
 30
0.0
 10
227.6654835011818
 20
34.52679301686901
 30
0.0
 10
227.6623191195721
 20
34.70620688891613
 30
0.0
 10
227.6704092492265
 20
34.79172747600699
 30
0.0
 10
227.7059821584743
 20
34.95109945213899
 30
0.0
 10
227.7328722770982
 20
35.02290451458227
 30
0.0
 10
227.8034519034509
 20
35.15157652612415
 30
0.0
 10
227.8475093989138
 20
35.20838820055926
 30
0.0
 10
227.9476766432422
 20
35.30242885258558
 30
0.0
 10
228.0044193546971
 20
35.34059298649778
 30
0.0
 10
228.1287592979056
 20
35.39841639923504
 30
0.0
 10
228.1950405604949
 20
35.41757903122982
 30
0.0
 10
228.3348098038921
 20
35.43756117642157
 30
0.0
 10
228.4089913037002
 20
35.43820015143713
 30
0.0
 10
228.5593406123492
 20
35.42110216827359
 30
0.0
 10
228.6358195077153
 20
35.40357326818891
 30
0.0
 10
228.7911000705145
 20
35.35074756053081
 30
0.0
 10
228.8700900242965
 20
35.31515869213046
 30
0.0
 10
229.0244931078121
 20
35.22868500643941
 30
0.0
 10
229.1006467701287
 20
35.17761093110643
 30
0.0
 10
229.2508840496465
 20
35.05950297437001
 30
0.0
 10
229.3247277146145
 20
34.99244355099135
 30
0.0
 10
229.464731994453
 20
34.84731547600042
 30
0.0
 10
229.5316505623192
 20
34.76869662390912
 30
0.0
 10
229.6593428252204
 20
34.59885074287606
 30
0.0
 10
229.719587305931
 20
34.50808111975774
 30
0.0
 10
229.8288349228062
 20
34.32139938458271
 30
0.0
 10
229.8785161813998
 20
34.22463362397949
 30
0.0
 10
229.9675558946268
 20
34.02384566524712
 30
0.0
 10
230.0059469741124
 20
33.9217288934897
 30
0.0
 10
230.0685832744865
 20
33.7197608936314
 30
0.0
 10
230.0933511098959
 20
33.61828062083823
 30
0.0
 10
230.1276719266284
 20
33.41960597756298
 30
0.0
 10
230.1369167146833
 20
33.32484682520141
 30
0.0
 10
230.1398385279386
 20
33.14447967100642
 30
0.0
 10
230.1332154768532
 20
33.05833130839893
 30
0.0
 10
230.104661511937
 20
32.90392974636143
 30
0.0
 10
230.0827581988474
 20
32.83427252931482
 30
0.0
 10
230.0240714556731
 20
32.71138933452541
 30
0.0
 10
229.9881471045438
 20
32.65976033427504
 30
0.0
 10
229.9037510595963
 20
32.5743354601147
 30
0.0
 10
229.8548692408796
 20
32.54060018676467
 30
0.0
 10
229.6950578554721
 20
32.46873913118241
 30
0.0
 10
229.5673938188347
 20
32.45815385135712
 30
0.0
 10
229.3597260600073
 20
32.49343273204281
 30
0.0
 10
229.2868610029887
 20
32.51380486429754
 30
0.0
 10
229.1373940348716
 20
32.57056813254075
 30
0.0
 10
229.0615385033979
 20
32.60654910983962
 30
0.0
 10
228.9075568389507
 20
32.69320148802839
 30
0.0
 10
228.8286608739541
 20
32.74447467654418
 30
0.0
 10
228.672881631984
 20
32.85948181566163
 30
0.0
 10
228.5961211769673
 20
32.9229568548767
 30
0.0
 10
228.4450834976238
 20
33.06202704864043
 30
0.0
 10
228.3701566789493
 20
33.13839768771523
 30
0.0
 10
228.2275745547518
 20
33.30001791688908
 30
0.0
 10
228.1596880562599
 20
33.38533861073002
 30
0.0
 10
228.0958765292382
 20
33.47533182046596
 30
0.0
  0
ARC
  5
208
330
1F
100
AcDbEntity
  8
0
  6
Continuous
 62
     7
370
    25
100
AcDbCircle
 10
246.5883599553
 20
35.0434489761
 30
0.0
 40
39.68261759874605
100
AcDbArc
 50
126.9392392794
 51
166.1339182149
  0
LINE
  5
209
330
1F
100
AcDbEntity
  8
0
  6
Continuous
 62
     7
370
    25
100
AcDbLine
 10
214.44080929
 20
31.2904608552
 30
0.0
 11
219.3905569111
 21
28.4330323756
 31
0.0
  0
ARC
  5
20A
330
1F
100
AcDbEntity
  8
0
  6
Continuous
 62
     7
370
    25
100
AcDbCircle
 10
218.5813558008
 20
37.7634893095
 30
0.0
 40
7.68402386625314
100
AcDbArc
 50
182.6054781208
 51
237.3945216397
  0
LINE
  5
20B
330
1F
100
AcDbEntity
  8
0
  6
Continuous
 62
     7
370
    25
100
AcDbLine
 10
210.9052754631
 20
38.2307259555
 30
0.0
 11
210.9052754631
 21
37.4141851048
 31
0.0
  0
ARC
  5
20C
330
1F
100
AcDbEntity
  8
0
  6
Continuous
 62
     7
370
    25
100
AcDbCircle
 10
214.1078476489
 20
38.3452695193
 30
0.0
 40
3.20461992022772
100
AcDbArc
 50
154.9672655933
 51
182.0483742774
  0
LWPOLYLINE
  5
20D
330
1F
100
AcDbEntity
  8
0
  6
Continuous
 62
     7
370
    25
100
AcDbPolyline
 90
       18
 70
   128
 43
0.0
 10
229.1052671985
 20
33.0212698697
 10
229.4245638203
 20
32.9058678372
 10
229.7007363135
 20
32.9439001657
 10
229.8964873514
 20
33.1302297556
 10
229.9853803233
 20
33.4396912708
 10
229.9554099628
 20
33.8304901423
 10
229.8106223672
 20
34.2498476962
 10
229.5705723574
 20
34.6411271508
 10
229.2676813964
 20
34.9514831796
 10
228.9428543178
 20
35.1390018606
 10
228.6399633568
 20
35.1783562916
 10
228.3999133469
 20
35.064232679
 10
228.2551257514
 20
34.8120433246
 10
228.2251553908
 20
34.4558474948
 10
228.3140483627
 20
34.043752339
 10
228.5097994006
 20
33.6314134114
 10
228.7859718938
 20
33.2745191094
 10
229.1052671985
 20
33.0212698697
  0
LWPOLYLINE
  5
20E
330
1F
100
AcDbEntity
  8
0
  6
Continuous
 62
     7
370
    25
100
AcDbPolyline
 90
       18
 70
   128
 43
0.0
 10
237.9167545527
 20
50.3245655965
 10
238.295737862
 20
50.1746959716
 10
238.7429093393
 20
50.1139805971
 10
239.1978774073
 20
50.1506187345
 10
239.5991966582
 20
50.279661766
 10
239.8926669702
 20
50.4836816127
 10
240.0386519643
 20
50.7351251555
 10
240.0174360475
 20
51.0000333094
 10
239.831885864
 20
51.2426279282
 10
239.5070587854
 20
51.4301466093
 10
239.0868270469
 20
51.5372624502
 10
238.627942944
 20
51.5495101382
 10
238.1923827588
 20
51.465234795
 10
237.8389717257
 20
51.29581799
 10
237.6154384185
 20
51.0641413178
 10
237.5519724263
 20
50.8014938428
 10
237.6571459355
 20
50.5433472438
 10
237.9167545527
 20
50.3245655965
  0
SPLINE
  5
20F
330
1F
100
AcDbEntity
  8
0
  6
Continuous
 62
     7
370
    25
100
AcDbSpline
210
0.0
220
0.0
230
1.0
 70
     8
 71
     3
 72
     8
 73
     4
 74
     0
 42
0.000000001
 43
0.00000001
 40
0.0
 40
0.0
 40
0.0
 40
0.0
 40
1.0
 40
1.0
 40
1.0
 40
1.0
 10
199.1495055280607
 20
42.72405604753951
 30
0.0
 10
199.6163677537275
 20
42.34381446027754
 30
0.0
 10
200.083402538111
 20
41.97690781173469
 30
0.0
 10
200.5505276502864
 20
41.61698148614271
 30
0.0
  0
SPLINE
  5
210
330
1F
100
AcDbEntity
  8
0
  6
Continuous
 62
     7
370
    25
100
AcDbSpline
210
0.0
220
0.0
230
1.0
 70
     8
 71
     3
 72
    14
 73
    10
 74
     0
 42
0.000000001
 43
0.00000001
 40
0.0
 40
0.0
 40
0.0
 40
0.0
 40
0.1249999999999976
 40
0.1249999999999976
 40
0.2499999999999951
 40
0.2499999999999951
 40
0.4999999999999949
 40
0.4999999999999949
 40
1.0
 40
1.0
 40
1.0
 40
1.0
 10
200.5505276502864
 20
41.6169814861427
 30
0.0
 10
200.5769515889596
 20
41.59662147785708
 30
0.0
 10
200.6010155314644
 20
41.58110917454243
 30
0.0
 10
200.6372847888895
 20
41.56412580598307
 30
0.0
 10
200.6493031638776
 20
41.56225156457715
 30
0.0
 10
200.674817410548
 20
41.56639240591239
 30
0.0
 10
200.6790110729961
 20
41.5813347939754
 30
0.0
 10
200.6801178827316
 20
41.63568613032056
 30
0.0
 10
200.664489897643
 20
41.68710709099656
 30
0.0
 10
200.6448371650094
 20
41.74345591858252
 30
0.0
  0
SPLINE
  5
211
330
1F
100
AcDbEntity
  8
0
  6
Continuous
 62
     7
370
    25
100
AcDbSpline
210
0.0
220
0.0
230
1.0
 70
     8
 71
     3
 72
    14
 73
    10
 74
     0
 42
0.000000001
 43
0.00000001
 40
0.0
 40
0.0
 40
0.0
 40
0.0
 40
0.25
 40
0.25
 40
0.5
 40
0.5
 40
0.75
 40
0.75
 40
1.0
 40
1.0
 40
1.0
 40
1.0
 10
200.6448371650089
 20
41.74345591858289
 30
0.0
 10
200.6201713170709
 20
41.8141784811207
 30
0.0
 10
200.6093084463465
 20
41.8772447788709
 30
0.0
 10
200.5873580791516
 20
42.0088115198295
 30
0.0
 10
200.5770864843327
 20
42.07676485882118
 30
0.0
 10
200.5477824699741
 20
42.22536986266461
 30
0.0
 10
200.5289897987444
 20
42.30583366909548
 30
0.0
 10
200.4760704942282
 20
42.48540454290981
 30
0.0
 10
200.4419913170493
 20
42.58423558883768
 30
0.0
 10
200.3979050647715
 20
42.69183564381695
 30
0.0
  0
LWPOLYLINE
  5
212
330
1F
100
AcDbEntity
  8
0
  6
Continuous
 62
     7
370
    25
100
AcDbPolyline
 90
        9
 70
   128
 43
0.0
 10
200.3979047859
 20
42.6918357963
 10
200.0298245041
 20
43.762981176
 10
199.7646958023
 20
44.9269840534
 10
199.6047287558
 20
46.1741352962
 10
199.551257576
 20
47.4940319322
 10
199.6047287558
 20
48.8756650783
 10
199.7646958023
 20
50.3075103416
 10
200.0298245041
 20
51.7776243023
 10
200.3979047859
 20
53.2737461296
  0
SPLINE
  5
213
330
1F
100
AcDbEntity
  8
0
  6
Continuous
 62
     7
370
    25
100
AcDbSpline
210
0.0
220
0.0
230
1.0
 70
     8
 71
     3
 72
    14
 73
    10
 74
     0
 42
0.000000001
 43
0.00000001
 40
0.0
 40
0.0
 40
0.0
 40
0.0
 40
0.25
 40
0.25
 40
0.5
 40
0.5
 40
0.75
 40
0.75
 40
1.0
 40
1.0
 40
1.0
 40
1.0
 10
200.6448371650089
 20
55.32724631789139
 30
0.0
 10
200.6201713170709
 20
55.15557378639853
 30
0.0
 10
200.6093084463465
 20
54.98059405422294
 30
0.0
 10
200.5873580791516
 20
54.63178755058175
 30
0.0
 10
200.5770864843327
 20
54.45757345864596
 30
0.0
 10
200.5477824699741
 20
54.11152254669486
 30
0.0
 10
200.5289897987444
 20
53.93963969277962
 30
0.0
 10
200.4760704942282
 20
53.5996080238854
 30
0.0
 10
200.4419913170493
 20
53.43224716338828
 30
0.0
 10
200.3979050647715
 20
53.27374620498532
 30
0.0
  0
SPLINE
  5
214
330
1F
100
AcDbEntity
  8
0
  6
Continuous
 62
     7
370
    25
100
AcDbSpline
210
0.0
220
0.0
230
1.0
 70
     8
 71
     3
 72
    14
 73
    10
 74
     0
 42
0.000000001
 43
0.00000001
 40
0.0
 40
0.0
 40
0.0
 40
0.0
 40
0.1249999999999983
 40
0.1249999999999983
 40
0.2499999999999966
 40
0.2499999999999966
 40
0.4999999999999978
 40
0.4999999999999978
 40
1.0
 40
1.0
 40
1.0
 40
1.0
 10
200.5505276502864
 20
56.07599006153405
 30
0.0
 10
200.5769515889596
 20
56.07168376226185
 30
0.0
 10
200.6010155314644
 20
56.05580025572144
 30
0.0
 10
200.6372847888895
 20
56.00665568283004
 30
0.0
 10
200.6493031638776
 20
55.9756443274777
 30
0.0
 10
200.6748174105481
 20
55.87878578561026
 30
0.0
 10
200.6790110729961
 20
55.80850516473411
 30
0.0
 10
200.6801178827316
 20
55.60210376265623
 30
0.0
 10
200.664489897643
 20
55.46402792663406
 30
0.0
 10
200.6448371650094
 20
55.32724631789131
 30
0.0
  0
SPLINE
  5
215
330
1F
100
AcDbEntity
  8
0
  6
Continuous
 62
     7
370
    25
100
AcDbSpline
210
0.0
220
0.0
230
1.0
 70
     8
 71
     3
 72
     8
 73
     4
 74
     0
 42
0.000000001
 43
0.00000001
 40
0.0
 40
0.0
 40
0.0
 40
0.0
 40
1.0
 40
1.0
 40
1.0
 40
1.0
 10
199.1495055280607
 20
56.24520295541903
 30
0.0
 10
199.6163677537275
 20
56.21311320135373
 30
0.0
 10
200.083402538111
 20
56.15211726404804
 30
0.0
 10
200.5505276502864
 20
56.07599006153405
 30
0.0
  0
SPLINE
  5
216
330
1F
100
AcDbEntity
  8
0
  6
Continuous
 62
     7
370
    25
100
AcDbSpline
210
0.0
220
0.0
230
1.0
 70
     8
 71
     3
 72
    14
 73
    10
 74
     0
 42
0.000000001
 43
0.00000001
 40
0.0
 40
0.0
 40
0.0
 40
0.0
 40
0.5000000000000014
 40
0.5000000000000014
 40
0.7500000000000022
 40
0.7500000000000022
 40
0.8750000000000011
 40
0.8750000000000011
 40
1.0
 40
1.0
 40
1.0
 40
1.0
 10
196.3049681508427
 20
57.16978483158123
 30
0.0
 10
196.7700026835577
 20
56.97343958232039
 30
0.0
 10
197.2368586048394
 20
56.78578707085234
 30
0.0
 10
197.9438849904438
 20
56.5357691139079
 30
0.0
 10
198.1806699733349
 20
56.45760785610908
 30
0.0
 10
198.5394506114665
 20
56.35704059071409
 30
0.0
 10
198.6596494354675
 20
56.32631909446246
 30
0.0
 10
198.9022515335773
 20
56.2750443880779
 30
0.0
 10
199.0245032911661
 20
56.25379497854491
 30
0.0
 10
199.1495055280607
 20
56.24520295541897
 30
0.0
  0
SPLINE
  5
217
330
1F
100
AcDbEntity
  8
0
  6
Continuous
 62
     7
370
    25
100
AcDbSpline
210
0.0
220
0.0
230
1.0
 70
     8
 71
     3
 72
    14
 73
    10
 74
     0
 42
0.000000001
 43
0.00000001
 40
0.0
 40
0.0
 40
0.0
 40
0.0
 40
0.5000000000000014
 40
0.5000000000000014
 40
0.7500000000000022
 40
0.7500000000000022
 40
0.8750000000000011
 40
0.8750000000000011
 40
1.0
 40
1.0
 40
1.0
 40
1.0
 10
196.3049681508427
 20
44.84684085570684
 30
0.0
 10
196.7700026835577
 20
44.51199553946847
 30
0.0
 10
197.2368586048394
 20
44.17320736439693
 30
0.0
 10
197.9438849904438
 20
43.6509116173642
 30
0.0
 10
198.1806699733349
 20
43.47448990927384
 30
0.0
 10
198.5394506114665
 20
43.20240775775488
 30
0.0
 10
198.6596494354675
 20
43.11046239639797
 30
0.0
 10
198.9022515335773
 20
42.92203637556767
 30
0.0
 10
199.0245032911661
 20
42.82586563151301
 30
0.0
 10
199.1495055280607
 20
42.72405604753953
 30
0.0
  0
SPLINE
  5
218
330
1F
100
AcDbEntity
  8
0
  6
Continuous
 62
     7
370
    25
100
AcDbSpline
210
0.0
220
0.0
230
1.0
 70
     8
 71
     3
 72
    17
 73
    13
 74
     0
 42
0.000000001
 43
0.00000001
 40
0.0
 40
0.0
 40
0.0
 40
0.0
 40
0.1228061387960293
 40
0.2460445751587854
 40
0.3692589627506633
 40
0.4920123271917499
 40
0.6140763973124345
 40
0.6755749086045674
 40
0.73631612311511
 40
0.8582222516266961
 40
0.98069636150903
 40
1.0
 40
1.0
 40
1.0
 40
1.0
 10
204.7632112783591
 20
42.40306501832328
 30
0.0
 10
204.5594430695554
 20
42.77695463841596
 30
0.0
 10
204.151189354737
 20
43.52605003082771
 30
0.0
 10
203.9579207545465
 20
44.67436799943181
 30
0.0
 10
204.1632836283779
 20
45.62670684303372
 30
0.0
 10
204.7225723251685
 20
46.26017321681873
 30
0.0
 10
205.3984681034801
 20
46.40148079232336
 30
0.0
 10
205.9733569743728
 20
46.27528659253947
 30
0.0
 10
206.5535925777951
 20
45.98721284197198
 30
0.0
 10
207.2172143916916
 20
45.32857155016709
 30
0.0
 10
207.7265970735407
 20
44.55617755238306
 30
0.0
 10
207.8726848065438
 20
44.090553258457
 30
0.0
 10
207.8925752676225
 20
44.02715654673256
 30
0.0
  0
SPLINE
  5
219
330
1F
100
AcDbEntity
  8
0
  6
Continuous
 62
     7
370
    25
100
AcDbSpline
210
0.0
220
0.0
230
1.0
 70
     8
 71
     3
 72
    12
 73
     8
 74
     0
 42
0.000000001
 43
0.00000001
 40
0.0
 40
0.0
 40
0.0
 40
0.0
 40
0.0363264977355057
 40
0.3566716617036994
 40
0.5165248690166211
 40
0.6785253928286369
 40
1.0
 40
1.0
 40
1.0
 40
1.0
 10
207.2683662824693
 20
40.37113647508156
 30
0.0
 10
207.2450336797461
 20
40.36716365554661
 30
0.0
 10
207.0159425560782
 20
40.32815653310123
 30
0.0
 10
206.5414140469515
 20
40.59182416002465
 30
0.0
 10
205.9726746959664
 20
41.00133362483712
 30
0.0
 10
205.3892358521459
 20
41.5375407188268
 30
0.0
 10
205.013228135808
 20
42.05739861085821
 30
0.0
 10
204.7632112783591
 20
42.40306501832328
 30
0.0
  0
SPLINE
  5
21A
330
1F
100
AcDbEntity
  8
0
  6
Continuous
 62
     7
370
    25
100
AcDbSpline
210
0.0
220
0.0
230
1.0
 70
     8
 71
     3
 72
    14
 73
    10
 74
     0
 42
0.000000001
 43
0.00000001
 40
0.0
 40
0.0
 40
0.0
 40
0.0
 40
0.25
 40
0.25
 40
0.5
 40
0.5
 40
0.75
 40
0.75
 40
1.0
 40
1.0
 40
1.0
 40
1.0
 10
251.8785060132907
 20
48.00440069489552
 30
0.0
 10
251.9251880496294
 20
47.97745172894209
 30
0.0
 10
251.9628746642354
 20
47.94434500479097
 30
0.0
 10
252.0117461429898
 20
47.87373643172844
 30
0.0
 10
252.0238473733896
 20
47.83524085733836
 30
0.0
 10
252.0216777618344
 20
47.75928274314298
 30
0.0
 10
252.0074373477525
 20
47.72108903555062
 30
0.0
 10
251.9555859051629
 20
47.65109438662556
 30
0.0
 10
251.9178793650593
 20
47.61892639114377
 30
0.0
 10
251.8710619343418
 20
47.59189926367918
 30
0.0
  0
ARC
  5
21B
330
1F
100
AcDbEntity
  8
0
  6
Continuous
 62
     7
370
    25
100
AcDbCircle
 10
226.3994286095
 20
27.9554905616
 30
0.0
 40
8.67315390331262
100
AcDbArc
 50
216.0492504164
 51
263.9972043983
  0
SPLINE
  5
21C
330
1F
100
AcDbEntity
  8
0
  6
Continuous
 62
     7
370
    25
100
AcDbSpline
210
0.0
220
0.0
230
1.0
 70
     8
 71
     3
 72
    14
 73
    10
 74
     0
 42
0.000000001
 43
0.00000001
 40
0.0
 40
0.0
 40
0.0
 40
0.0
 40
0.25
 40
0.25
 40
0.5
 40
0.5
 40
0.75
 40
0.75
 40
1.0
 40
1.0
 40
1.0
 40
1.0
 10
217.3134335766213
 20
27.6421387039168
 30
0.0
 10
217.360654740045
 20
27.61487850652196
 30
0.0
 10
217.4169414994763
 20
27.59359657499781
 30
0.0
 10
217.5403708475496
 20
27.56524194516669
 30
0.0
 10
217.6070241710096
 20
27.55839856282653
 30
0.0
 10
217.7391490479513
 20
27.55988067845572
 30
0.0
 10
217.805508403936
 20
27.56827121014193
 30
0.0
 10
217.9267626360567
 20
27.5983895336133
 30
0.0
 10
217.982873738534
 20
27.62039422745411
 30
0.0
 10
218.0296083120613
 20
27.64737352248106
 30
0.0
  0
LINE
  5
21D
330
1F
100
AcDbEntity
  8
0
  6
Continuous
 62
     7
370
    25
100
AcDbLine
 10
215.6559852507
 20
28.5989627428
 30
0.0
 11
217.3134331174
 21
27.6421384559
 31
0.0
  0
SPLINE
  5
21E
330
1F
100
AcDbEntity
  8
0
  6
Continuous
 62
     7
370
    25
100
AcDbSpline
210
0.0
220
0.0
230
1.0
 70
     8
 71
     3
 72
     8
 73
     4
 74
     0
 42
0.000000001
 43
0.00000001
 40
0.0
 40
0.0
 40
0.0
 40
0.0
 40
1.0
 40
1.0
 40
1.0
 40
1.0
 10
216.0277739030241
 20
29.36549567012981
 30
0.0
 10
215.9035957351392
 20
29.11002487090373
 30
0.0
 10
215.7796780349974
 20
28.85451202423077
 30
0.0
 10
215.6559855419652
 20
28.59896308774411
 30
0.0
  0
LINE
  5
21F
330
1F
100
AcDbEntity
  8
0
  6
Continuous
 62
     7
370
    25
100
AcDbLine
 10
216.3488748304
 20
29.5508630723
 30
0.0
 11
216.0277737966
 21
29.3654953912
 31
0.0
  0
SPLINE
  5
220
330
1F
100
AcDbEntity
  8
0
  6
Continuous
 62
     7
370
    25
100
AcDbSpline
210
0.0
220
0.0
230
1.0
 70
     8
 71
     3
 72
    12
 73
     8
 74
     0
 42
0.000000001
 43
0.00000001
 40
0.0
 40
0.0
 40
0.0
 40
0.0
 40
0.250000000000003
 40
0.250000000000003
 40
0.500000000000006
 40
0.500000000000006
 40
1.0
 40
1.0
 40
1.0
 40
1.0
 10
216.3571841327671
 20
29.88222339272477
 30
0.0
 10
216.3945761703499
 20
29.86063742889833
 30
0.0
 10
216.4247866436674
 20
29.83399657610827
 30
0.0
 10
216.4636860136769
 20
29.77701837280247
 30
0.0
 10
216.4730163796068
 20
29.74612680312565
 30
0.0
 10
216.4694113161929
 20
29.65457046156357
 30
0.0
 10
216.4238062912813
 20
29.59412030145856
 30
0.0
 10
216.3488744527546
 20
29.55086307183308
 30
0.0
  0
LINE
  5
221
330
1F
100
AcDbEntity
  8
0
  6
Continuous
 62
     7
370
    25
100
AcDbLine
 10
215.572295439
 20
30.3353294638
 30
0.0
 11
216.3571836864
 21
29.8822231231
 31
0.0
  0
SPLINE
  5
222
330
1F
100
AcDbEntity
  8
0
  6
Continuous
 62
     7
370
    25
100
AcDbSpline
210
0.0
220
0.0
230
1.0
 70
     8
 71
     3
 72
    14
 73
    10
 74
     0
 42
0.000000001
 43
0.00000001
 40
0.0
 40
0.0
 40
0.0
 40
0.0
 40
0.25
 40
0.25
 40
0.5
 40
0.5
 40
0.75
 40
0.75
 40
1.0
 40
1.0
 40
1.0
 40
1.0
 10
214.9983005006883
 20
30.33053281862381
 30
0.0
 10
215.0361462984668
 20
30.35238073263542
 30
0.0
 10
215.0804652156147
 20
30.36975337742433
 30
0.0
 10
215.1781667521668
 20
30.3941148521162
 30
0.0
 10
215.2309198837786
 20
30.40082881664776
 30
0.0
 10
215.3368732410071
 20
30.40218626623377
 30
0.0
 10
215.3902375273024
 20
30.39680856509468
 30
0.0
 10
215.4894153020741
 20
30.37416762157884
 30
0.0
 10
215.5344221954754
 20
30.35719374909497
 30
0.0
 10
215.57229560565
 20
30.33532989478638
 30
0.0
  0
LINE
  5
223
330
1F
100
AcDbEntity
  8
0
  6
Continuous
 62
     7
370
    25
100
AcDbLine
 10
214.6771997681
 20
30.1451651821
 30
0.0
 11
214.9983008018
 21
30.3305328633
 31
0.0
  0
SPLINE
  5
224
330
1F
100
AcDbEntity
  8
0
  6
Continuous
 62
     7
370
    25
100
AcDbSpline
210
0.0
220
0.0
230
1.0
 70
     8
 71
     3
 72
     8
 73
     4
 74
     0
 42
0.000000001
 43
0.00000001
 40
0.0
 40
0.0
 40
0.0
 40
0.0
 40
1.0
 40
1.0
 40
1.0
 40
1.0
 10
213.3493827008444
 20
29.93053656458477
 30
0.0
 10
213.7920544070608
 20
30.00194272088947
 30
0.0
 10
214.2346635971125
 20
30.07347888649124
 30
0.0
 10
214.6771999509578
 20
30.14516541692049
 30
0.0
  0
LINE
  5
225
330
1F
100
AcDbEntity
  8
0
  6
Continuous
 62
     7
370
    25
100
AcDbLine
 10
250.4325452153
 20
48.8391363065
 30
0.0
 11
251.8785061231
 21
48.0044008422
 31
0.0
  0
LWPOLYLINE
  5
226
330
1F
100
AcDbEntity
  8
0
  6
Continuous
 62
     7
370
    25
100
AcDbPolyline
 90
        8
 70
   128
 43
0.0
 10
220.4015662936
 20
21.3937908773
 10
219.5647011037
 20
21.9464050095
 10
218.65510099
 20
22.7338835237
 10
217.842113307
 20
23.659113867
 10
217.1312513891
 20
24.7158186615
 10
216.5273384164
 20
25.896833894
 10
216.0344692186
 20
27.1941480841
 10
215.6559852507
 20
28.5989627428
  0
ARC
  5
227
330
1F
100
AcDbEntity
  8
0
  6
Continuous
 62
     7
370
    25
100
AcDbCircle
 10
226.220161551
 20
32.6208462551
 30
0.0
 40
11.80546329026488
100
AcDbArc
 50
192.1051464299
 51
214.9696743527
  0
SPLINE
  5
228
330
1F
100
AcDbEntity
  8
0
  6
Continuous
 62
     7
370
    25
100
AcDbSpline
210
0.0
220
0.0
230
1.0
 70
     8
 71
     3
 72
    12
 73
     8
 74
     0
 42
0.000000001
 43
0.00000001
 40
0.0
 40
0.0
 40
0.0
 40
0.0
 40
0.1727278386441639
 40
0.4149542688576276
 40
0.657839365143663
 40
0.9045741328076718
 40
1.0
 40
1.0
 40
1.0
 40
1.0
 10
206.1861692265169
 20
46.06326709834124
 30
0.0
 10
206.1516688254708
 20
45.88600516019896
 30
0.0
 10
206.0687864782838
 20
45.4601583568377
 30
0.0
 10
206.2632438866482
 20
44.64880580162391
 30
0.0
 10
206.6974203485418
 20
43.77814503328773
 30
0.0
 10
207.1909171737705
 20
43.10714439706445
 30
0.0
 10
207.5252316506433
 20
42.82027987572815
 30
0.0
 10
207.6184692870649
 20
42.7402756527797
 30
0.0
  0
SPLINE
  5
229
330
1F
100
AcDbEntity
  8
0
  6
Continuous
 62
     7
370
    25
100
AcDbSpline
210
0.0
220
0.0
230
1.0
 70
     8
 71
     3
 72
    13
 73
     9
 74
     0
 42
0.000000001
 43
0.00000001
 40
0.0
 40
0.0
 40
0.0
 40
0.0
 40
0.1886977629478746
 40
0.3630329086975691
 40
0.6677853667202288
 40
0.7704319677952388
 40
0.8821109219274306
 40
1.0
 40
1.0
 40
1.0
 40
1.0
 10
205.0535246978027
 20
42.58547510336329
 30
0.0
 10
205.1800222151052
 20
42.40244164259276
 30
0.0
 10
205.4233889669517
 20
42.05030620328254
 30
0.0
 10
205.9408210758076
 20
41.48635082187
 30
0.0
 10
206.4215119686523
 20
41.09813976584007
 30
0.0
 10
206.8212387294995
 20
40.86500792067977
 30
0.0
 10
207.0681304250392
 20
40.75079165102854
 30
0.0
 10
207.2247618069344
 20
40.71142147851492
 30
0.0
 10
207.3051960426227
 20
40.69120388420697
 30
0.0
  0
SPLINE
  5
22A
330
1F
100
AcDbEntity
  8
0
  6
Continuous
 62
     7
370
    25
100
AcDbSpline
210
0.0
220
0.0
230
1.0
 70
     8
 71
     3
 72
    22
 73
    18
 74
     0
 42
0.000000001
 43
0.00000001
 40
0.0
 40
0.0
 40
0.0
 40
0.0
 40
0.0290807300561809
 40
0.1765275156399617
 40
0.2607920256888527
 40
0.3055733914541499
 40
0.3520911702713665
 40
0.4217415342621946
 40
0.4757480712952897
 40
0.514092148760627
 40
0.5998612534651432
 40
0.6759942926343356
 40
0.7257216550693594
 40
0.779747899319941
 40
0.8380840985283191
 40
0.9019042132500179
 40
1.0
 40
1.0
 40
1.0
 40
1.0
 10
206.7161981152223
 20
45.80172217437968
 30
0.0
 10
206.670589613818
 20
45.83909190231743
 30
0.0
 10
206.3937342725178
 20
46.06593576834993
 30
0.0
 10
205.9413300466001
 20
46.21335542204006
 30
0.0
 10
205.5023837481787
 20
46.21320251413827
 30
0.0
 10
205.2430351841601
 20
46.14606174557262
 30
0.0
 10
205.0211231647611
 20
46.04447274392499
 30
0.0
 10
204.8140523111015
 20
45.88551202871977
 30
0.0
 10
204.6522809172608
 20
45.68731731628766
 30
0.0
 10
204.506003315312
 20
45.43432593097318
 30
0.0
 10
204.3939795561681
 20
45.10099562822401
 30
0.0
 10
204.3542393811106
 20
44.69718691749071
 30
0.0
 10
204.375786714671
 20
44.33154076926668
 30
0.0
 10
204.4344726361425
 20
43.98933153728938
 30
0.0
 10
204.5431317800212
 20
43.60901110289765
 30
0.0
 10
204.7323191645181
 20
43.1298023740896
 30
0.0
 10
204.9323420320868
 20
42.79083591708889
 30
0.0
 10
205.0535246978027
 20
42.58547510336329
 30
0.0
  0
SPLINE
  5
22B
330
1F
100
AcDbEntity
  8
0
  6
Continuous
 62
     7
370
    25
100
AcDbSpline
210
0.0
220
0.0
230
1.0
 70
     8
 71
     3
 72
     9
 73
     5
 74
     0
 42
0.000000001
 43
0.00000001
 40
0.0
 40
0.0
 40
0.0
 40
0.0
 40
0.1883710221454139
 40
1.0
 40
1.0
 40
1.0
 40
1.0
 10
245.995450127509
 20
63.64463079076614
 30
0.0
 10
246.0378262682322
 20
63.65416351324867
 30
0.0
 10
246.2627873065092
 20
63.70476961164934
 30
0.0
 10
246.4885549076508
 20
63.75416770207422
 30
0.0
 10
246.671794434998
 20
63.79426062371375
 30
0.0
  0
LINE
  5
22C
330
1F
100
AcDbEntity
  8
0
  6
Continuous
 62
     7
370
    25
100
AcDbLine
 10
246.671794435
 20
63.7942606237
 30
0.0
 11
248.3292423017
 21
62.8374363368
 31
0.0
  0
SPLINE
  5
22D
330
1F
100
AcDbEntity
  8
0
  6
Continuous
 62
     7
370
    25
100
AcDbSpline
210
0.0
220
0.0
230
1.0
 70
     8
 71
     3
 72
    16
 73
    12
 74
     0
 42
0.000000001
 43
0.00000001
 40
0.0
 40
0.0
 40
0.0
 40
0.0
 40
0.1249999999999978
 40
0.1249999999999978
 40
0.2499999999999955
 40
0.2499999999999955
 40
0.499999999999997
 40
0.499999999999997
 40
0.7499999999999984
 40
0.7499999999999984
 40
1.0
 40
1.0
 40
1.0
 40
1.0
 10
248.3292428885858
 20
62.83743599178296
 30
0.0
 10
248.3559848561442
 20
62.82199818251452
 30
0.0
 10
248.3789554547907
 20
62.80410646310727
 30
0.0
 10
248.4149324069147
 20
62.76592646656215
 30
0.0
 10
248.4281949456938
 20
62.74564264909155
 30
0.0
 10
248.4549500563994
 20
62.68151631779686
 30
0.0
 10
248.454133051139
 20
62.6370234661677
 30
0.0
 10
248.4260526608927
 20
62.55194377382385
 30
0.0
 10
248.3984833059683
 20
62.51057091777755
 30
0.0
 10
248.3253091502089
 20
62.43513978506958
 30
0.0
 10
248.2790753117962
 20
62.40027081024581
 30
0.0
 10
248.2259115268679
 20
62.36958001047876
 30
0.0
  0
LINE
  5
22E
330
1F
100
AcDbEntity
  8
0
  6
Continuous
 62
     7
370
    25
100
AcDbLine
 10
198.9421941267
 20
48.5459849232
 30
0.0
 11
199.5649678141
 21
48.1864653261
 31
0.0
  0
SPLINE
  5
22F
330
1F
100
AcDbEntity
  8
0
  6
Continuous
 62
     7
370
    25
100
AcDbSpline
210
0.0
220
0.0
230
1.0
 70
     8
 71
     3
 72
    11
 73
     7
 74
     0
 42
0.000000001
 43
0.00000001
 40
0.0
 40
0.0
 40
0.0
 40
0.0
 40
0.04662603555232
 40
0.4281120508200342
 40
0.8087528729781779
 40
1.0
 40
1.0
 40
1.0
 40
1.0
 10
251.8710625945273
 20
55.75730759818897
 30
0.0
 10
251.8760400334917
 20
55.76025517987496
 30
0.0
 10
251.9217420018799
 20
55.78731935605025
 30
0.0
 10
251.9881793109164
 20
55.84855823892168
 30
0.0
 10
252.0307995779847
 20
55.93234037770976
 30
0.0
 10
252.0169642394698
 20
55.98250578430134
 30
0.0
 10
252.0123375136468
 20
55.99928178019403
 30
0.0
  0
LINE
  5
230
330
1F
100
AcDbEntity
  8
0
  6
Continuous
 62
     7
370
    25
100
AcDbLine
 10
196.2902037829
 20
58.2274156636
 30
0.0
 11
196.3094978199
 21
58.2854187109
 31
0.0
  0
SPLINE
  5
231
330
1F
100
AcDbEntity
  8
0
  6
Continuous
 62
     7
370
    25
100
AcDbSpline
210
0.0
220
0.0
230
1.0
 70
     8
 71
     3
 72
    16
 73
    12
 74
     0
 42
0.000000001
 43
0.00000001
 40
0.0
 40
0.0
 40
0.0
 40
0.0
 40
0.012332241638737
 40
0.1444361407553237
 40
0.2229459921823101
 40
0.2856533093237938
 40
0.3485990526022031
 40
0.4239878195962211
 40
0.5501346397047723
 40
0.9123127013209101
 40
1.0
 40
1.0
 40
1.0
 40
1.0
 10
196.3356756226351
 20
58.36411317735364
 30
0.0
 10
196.3362692081342
 20
58.36590899447695
 30
0.0
 10
196.3432213261037
 20
58.38694173956842
 30
0.0
 10
196.3528258103181
 20
58.40872953530206
 30
0.0
 10
196.3628984405781
 20
58.42629958141038
 30
0.0
 10
196.3677542595106
 20
58.42564472856164
 30
0.0
 10
196.3689575236784
 20
58.41028315252854
 30
0.0
 10
196.3656787666735
 20
58.37371086818872
 30
0.0
 10
196.350169645986
 20
58.27338751157658
 30
0.0
 10
196.3271749078112
 20
58.1580908262961
 30
0.0
 10
196.3084700595351
 20
58.06904629022664
 30
0.0
 10
196.3048241295251
 20
58.05168981978194
 30
0.0
  0
SPLINE
  5
232
330
1F
100
AcDbEntity
  8
0
  6
Continuous
 62
     7
370
    25
100
AcDbSpline
210
0.0
220
0.0
230
1.0
 70
     8
 71
     3
 72
     9
 73
     5
 74
     0
 42
0.000000001
 43
0.00000001
 40
0.0
 40
0.0
 40
0.0
 40
0.0
 40
0.7766522094856231
 40
1.0
 40
1.0
 40
1.0
 40
1.0
 10
196.2390401429892
 20
57.78922012785259
 30
0.0
 10
196.2358538330223
 20
57.8980559175475
 30
0.0
 10
196.2317512116326
 20
58.03819044412919
 30
0.0
 10
196.2795320403748
 20
58.19286863208333
 30
0.0
 10
196.2902037829034
 20
58.22741566360365
 30
0.0
  0
SPLINE
  5
233
330
1F
100
AcDbEntity
  8
0
  6
Continuous
 62
     7
370
    25
100
AcDbSpline
210
0.0
220
0.0
230
1.0
 70
     8
 71
     3
 72
     8
 73
     4
 74
     0
 42
0.000000001
 43
0.00000001
 40
0.0
 40
0.0
 40
0.0
 40
0.0
 40
1.0
 40
1.0
 40
1.0
 40
1.0
 10
196.2157390004713
 20
57.19078178137199
 30
0.0
 10
196.2443412960456
 20
57.18922836623845
 30
0.0
 10
196.2740376757832
 20
57.18284418827568
 30
0.0
 10
196.3049681508415
 20
57.16978483158758
 30
0.0
  0
SPLINE
  5
234
330
1F
100
AcDbEntity
  8
0
  6
Continuous
 62
     7
370
    25
100
AcDbSpline
210
0.0
220
0.0
230
1.0
 70
     8
 71
     3
 72
    10
 73
     6
 74
     0
 42
0.000000001
 43
0.00000001
 40
0.0
 40
0.0
 40
0.0
 40
0.0
 40
0.4999999999999989
 40
0.4999999999999989
 40
1.0
 40
1.0
 40
1.0
 40
1.0
 10
196.3048243231381
 20
58.05168979556634
 30
0.0
 10
196.2748358532292
 20
57.90989893939634
 30
0.0
 10
196.2544025540426
 20
57.76764112335303
 30
0.0
 10
196.2257695668168
 20
57.48083085518326
 30
0.0
 10
196.2178985071703
 20
57.33637432198774
 30
0.0
 10
196.2157390004721
 20
57.19078178136827
 30
0.0
  0
ARC
  5
235
330
1F
100
AcDbEntity
  8
0
  6
Continuous
 62
     7
370
    25
100
AcDbCircle
 10
197.4350907535
 20
57.0227355857
 30
0.0
 40
1.230877198383366
100
AcDbArc
 50
172.1531384875
 51
234.5145852444
  0
SPLINE
  5
236
330
1F
100
AcDbEntity
  8
0
  6
Continuous
 62
     7
370
    25
100
AcDbSpline
210
0.0
220
0.0
230
1.0
 70
     8
 71
     3
 72
     8
 73
     4
 74
     0
 42
0.000000001
 43
0.00000001
 40
0.0
 40
0.0
 40
0.0
 40
0.0
 40
1.0
 40
1.0
 40
1.0
 40
1.0
 10
196.215739000472
 20
44.92686301380593
 30
0.0
 10
196.2443412960461
 20
44.89616560994781
 30
0.0
 10
196.2740376757835
 20
44.86911215809734
 30
0.0
 10
196.3049681508415
 20
44.84684085570227
 30
0.0
  0
ARC
  5
237
330
1F
100
AcDbEntity
  8
0
  6
Continuous
 62
     7
370
    25
100
AcDbCircle
 10
199.9482388904
 20
44.8193728427
 30
0.0
 40
3.734047488377455
100
AcDbArc
 50
122.5266350896
 51
178.3504233083
  0
LINE
  5
238
330
1F
100
AcDbEntity
  8
0
  6
Continuous
 62
     7
370
    25
100
AcDbLine
 10
197.940472856
 20
47.9677035427
 30
0.0
 11
198.9421941267
 21
48.5459849232
 31
0.0
  0
SPLINE
  5
239
330
1F
100
AcDbEntity
  8
0
  6
Continuous
 62
     7
370
    25
100
AcDbSpline
210
0.0
220
0.0
230
1.0
 70
     8
 71
     3
 72
     9
 73
     5
 74
     0
 42
0.000000001
 43
0.00000001
 40
0.0
 40
0.0
 40
0.0
 40
0.0
 40
0.3901117718169397
 40
1.0
 40
1.0
 40
1.0
 40
1.0
 10
196.249544586436
 20
45.99401388211806
 30
0.0
 10
196.2404670297936
 20
45.94722782874467
 30
0.0
 10
196.2171979123298
 20
45.8272979605546
 30
0.0
 10
196.2307654571301
 20
45.7064429341123
 30
0.0
 10
196.2390401429892
 20
45.63273487616839
 30
0.0
  0
ARC
  5
23A
330
1F
100
AcDbEntity
  8
0
  6
Continuous
 62
     7
370
    25
100
AcDbCircle
 10
198.7331538011
 20
45.5065821764
 30
0.0
 40
2.530988818361969
100
AcDbArc
 50
122.9343808406
 51
168.8962913337
  0
LINE
  5
23B
330
1F
100
AcDbEntity
  8
0
  6
Continuous
 62
     7
370
    25
100
AcDbLine
 10
197.940472856
 20
47.9677035427
 30
0.0
 11
197.3571104232
 21
47.6308253407
 31
0.0
  0
LINE
  5
23C
330
1F
100
AcDbEntity
  8
0
  6
Continuous
 62
     7
370
    25
100
AcDbLine
 10
196.2752001634
 20
44.7878673232
 30
0.0
 11
196.2157388627
 21
44.9268632521
 31
0.0
  0
LINE
  5
23D
330
1F
100
AcDbEntity
  8
0
  6
Continuous
 62
     7
370
    18
100
AcDbLine
 10
247.8128426502
 20
35.3286771775
 30
0.0
 11
247.4239819964
 21
35.7001887611
 31
0.0
  0
LINE
  5
23E
330
1F
100
AcDbEntity
  8
0
  6
Continuous
 62
     7
370
    18
100
AcDbLine
 10
246.5816146672
 20
33.0934759176
 30
0.0
 11
246.0396819279
 21
33.1870967846
 31
0.0
  0
LINE
  5
23F
330
1F
100
AcDbEntity
  8
0
  6
Continuous
 62
     7
370
    18
100
AcDbLine
 10
247.4239819964
 20
35.7001887611
 30
0.0
 11
247.4165615169
 21
35.941837948
 31
0.0
  0
LINE
  5
240
330
1F
100
AcDbEntity
  8
0
  6
Continuous
 62
     7
370
    18
100
AcDbLine
 10
246.0396819279
 20
33.1870967846
 30
0.0
 11
245.8267099511
 21
33.0555817835
 31
0.0
  0
LINE
  5
241
330
1F
100
AcDbEntity
  8
0
  6
Continuous
 62
     7
370
    18
100
AcDbLine
 10
247.8180655667
 20
35.1585835723
 30
0.0
 11
247.8128426502
 21
35.3286771775
 31
0.0
  0
LINE
  5
242
330
1F
100
AcDbEntity
  8
0
  6
Continuous
 62
     7
370
    18
100
AcDbLine
 10
246.7315237633
 20
33.1860485884
 30
0.0
 11
246.5816146672
 21
33.0934759176
 31
0.0
  0
LINE
  5
243
330
1F
100
AcDbEntity
  8
0
  6
Continuous
 62
     7
370
    18
100
AcDbLine
 10
262.9004233076
 20
27.1329846356
 30
0.0
 11
262.2286736651
 21
27.5207774498
 31
0.0
  0
LINE
  5
244
330
1F
100
AcDbEntity
  8
0
  6
Continuous
 62
     7
370
    18
100
AcDbLine
 10
262.0600398437
 20
25.6073310132
 30
0.0
 11
261.3882902012
 21
25.9951238273
 31
0.0
  0
LINE
  5
245
330
1F
100
AcDbEntity
  8
0
  6
Continuous
 62
     7
370
    18
100
AcDbLine
 10
257.8650332903
 20
43.5897107866
 30
0.0
 11
258.1175755602
 21
44.4223793168
 31
0.0
  0
LINE
  5
246
330
1F
100
AcDbEntity
  8
0
  6
Continuous
 62
     7
370
    18
100
AcDbLine
 10
257.7378199428
 20
43.4244933389
 30
0.0
 11
257.8650332903
 21
43.5897107866
 31
0.0
  0
LINE
  5
247
330
1F
100
AcDbEntity
  8
0
  6
Continuous
 62
     7
370
    18
100
AcDbLine
 10
258.1175755602
 20
44.4223793168
 30
0.0
 11
258.2983048687
 21
44.6570995721
 31
0.0
  0
LINE
  5
248
330
1F
100
AcDbEntity
  8
0
  6
Continuous
 62
     7
370
    18
100
AcDbLine
 10
245.1578131235
 20
20.5207042922
 30
0.0
 11
244.5820094646
 21
19.8495733937
 31
0.0
  0
LINE
  5
249
330
1F
100
AcDbEntity
  8
0
  6
Continuous
 62
     7
370
    18
100
AcDbLine
 10
245.2282444586
 20
20.7142963263
 30
0.0
 11
245.1578131235
 21
20.5207042922
 31
0.0
  0
LINE
  5
24A
330
1F
100
AcDbEntity
  8
0
  6
Continuous
 62
     7
370
    18
100
AcDbLine
 10
244.5820094646
 20
19.8495733937
 30
0.0
 11
244.4819495535
 21
19.574541606
 31
0.0
  0
LWPOLYLINE
  5
24B
330
1F
100
AcDbEntity
  8
0
  6
Continuous
 62
     7
370
    18
100
AcDbPolyline
 90
       21
 70
   128
 43
0.0
 10
247.3561664
 20
44.9067231852
 10
246.3486151994
 20
44.2585456409
 10
245.3541988337
 20
43.48575789
 10
244.3858814099
 20
42.5984333284
 10
243.4562859094
 20
41.6081404542
 10
242.5775316912
 20
40.527788984
 10
241.7610741371
 20
39.3714627562
 10
241.0175569727
 20
38.1542363787
 10
240.3566733146
 20
36.8919779012
 10
239.7870389007
 20
35.6011436928
 10
239.3160794787
 20
34.2985609598
 10
238.9499353177
 20
33.001211403
 10
238.6933788897
 20
31.7260072694
 10
238.5497549423
 20
30.4895733897
 10
238.5209363761
 20
29.3080284072
 10
238.6072979029
 20
28.196775225
 10
238.8077153872
 20
27.1703015746
 10
239.1195744073
 20
26.2419883786
 10
239.538809768
 20
25.4239373595
 10
240.0599568669
 20
24.7268143319
 10
240.3014918947
 20
24.4781701129
  0
ARC
  5
24C
330
1F
100
AcDbEntity
  8
0
  6
Continuous
 62
     7
370
    18
100
AcDbCircle
 10
251.2065099693
 20
39.1753342143
 30
0.0
 40
6.904633599114529
100
AcDbArc
 50
77.6770520571
 51
123.893181383
  0
LWPOLYLINE
  5
24D
330
1F
100
AcDbEntity
  8
0
  6
Continuous
 62
     7
370
    18
100
AcDbPolyline
 90
       15
 70
   128
 43
0.0
 10
254.4837755534
 20
21.7874177732
 10
254.728219187
 20
21.9238552324
 10
255.6529788307
 20
22.5248929868
 10
256.5631543476
 20
23.2508221699
 10
257.4443919371
 20
24.0901945041
 10
258.2827938406
 20
25.0297732505
 10
259.0651381306
 20
26.0547399392
 10
259.7790863173
 20
27.1489305681
 10
260.4133792653
 20
28.2950890094
 10
260.9580140126
 20
29.4751398087
 10
261.4044018219
 20
30.6704729635
 10
261.7455015353
 20
31.8622370694
 10
261.9759341611
 20
33.03163684
 10
262.0920665095
 20
34.1602311537
 10
262.1025360501
 20
34.9849284361
  0
LWPOLYLINE
  5
24E
330
1F
100
AcDbEntity
  8
0
  6
Continuous
 62
     7
370
    18
100
AcDbPolyline
 90
       26
 70
   128
 43
0.0
 10
218.0296088309
 20
36.6293226542
 10
218.402487268
 20
38.4175754706
 10
218.8850818544
 20
40.2288661014
 10
219.4741854782
 20
42.0511567198
 10
220.1658837509
 20
43.872338082
 10
220.9555773976
 20
45.680304811
 10
221.8380204529
 20
47.4630436061
 10
222.8073466022
 20
49.2087039642
 10
223.8571165973
 20
50.9056879094
 10
224.980350525
 20
52.5427157703
 10
226.1695857589
 20
54.1089090652
 10
227.4169191064
 20
55.5938574183
 10
228.7140594921
 20
56.9876946017
 10
230.0523875563
 20
58.2811542332
 10
231.4230086675
 20
59.4656444871
 10
232.8168136734
 20
60.5332892484
 10
234.2245401045
 20
61.4769969053
 10
235.6368322247
 20
62.2904919742
 10
237.0443042518
 20
62.9683713675
 10
238.4376025077
 20
63.5061281053
 10
239.8074672806
 20
63.9001900691
 10
241.1447950156
 20
64.147936132
 10
242.4406973377
 20
64.2477226272
 10
243.6865627895
 20
64.198884007
 10
244.8741108324
 20
64.0017442452
 10
245.9954507861
 20
63.6576174016
  0
LWPOLYLINE
  5
24F
330
1F
100
AcDbEntity
  8
0
  6
Continuous
 62
     7
370
    18
100
AcDbPolyline
 90
       26
 70
   128
 43
0.0
 10
217.3134331174
 20
36.6240873379
 10
217.6849984168
 20
38.4363918177
 10
218.1673914885
 20
40.2726830651
 10
218.7574407822
 20
42.1208977747
 10
219.4512740562
 20
43.9688989419
 10
220.2443315483
 20
45.804545444
 10
221.1314054885
 20
47.6157836723
 10
222.1066690751
 20
49.39071369
 10
223.1637173041
 20
51.1176789622
 10
224.2956051652
 20
52.7853363157
 10
225.4948996665
 20
54.3827315998
 10
226.7537232985
 20
55.8993734471
 10
228.0638073766
 20
57.3252990488
 10
229.4165470287
 20
58.6511439216
 10
230.8030571726
 20
59.8681970364
 10
232.2142311253
 20
60.9684665925
 10
233.6407994614
 20
61.944726163
 10
235.0733922038
 20
62.7905612434
 10
236.5025996982
 20
63.5004180818
 10
237.9190345984
 20
64.0696333786
 10
239.3133929464
 20
64.4944680267
 10
240.6765171869
 20
64.772132842
 10
241.999452761
 20
64.9008014626
 10
243.2735105032
 20
64.8796311602
 10
244.4903229469
 20
64.7087618849
 10
245.6418973375
 20
64.3893118867
  0
ARC
  5
250
330
1F
100
AcDbEntity
  8
0
  6
Continuous
 62
     7
370
    18
100
AcDbCircle
 10
246.3428182741
 20
35.2849555817
 30
0.0
 40
15.11441472458189
100
AcDbArc
 50
301.687903977
 51
358.3174753417
  0
LINE
  5
251
330
1F
100
AcDbEntity
  8
0
  6
Continuous
 62
     7
370
    18
100
AcDbLine
 10
251.8710625945
 20
47.5918996618
 30
0.0
 11
251.7633273472
 21
46.9728131289
 31
0.0
  0
LWPOLYLINE
  5
252
330
1F
100
AcDbEntity
  8
0
  6
Continuous
 62
     7
370
    18
100
AcDbPolyline
 90
       21
 70
   128
 43
0.0
 10
238.9400907358
 20
24.7528663539
 10
238.6198481149
 20
24.483275616
 10
237.2193934557
 20
23.3894299198
 10
235.8033876796
 20
22.4202079175
 10
234.3813723968
 20
21.5821414464
 10
232.9629297179
 20
20.8808746898
 10
231.5576174698
 20
20.3211359033
 10
230.1749051522
 20
19.9066958802
 10
228.8241101819
 20
19.6403478773
 10
227.5143343027
 20
19.5238861129
 10
226.2544036573
 20
19.5580939864
 10
225.052807543
 20
19.742742182
 10
223.9176440815
 20
20.0765877237
 10
222.8565609503
 20
20.557380825
 10
221.8767086256
 20
21.1818789616
 10
220.9846890161
 20
21.9458757739
 10
220.1865146332
 20
22.8442246454
 10
219.4875618342
 20
23.8708695057
 10
218.8925418466
 20
25.0188950236
 10
218.4054625721
 20
26.2805627328
 10
218.0296088309
 20
27.6473737721
  0
ARC
  5
253
330
1F
100
AcDbEntity
  8
0
  6
Continuous
 62
     7
370
    18
100
AcDbCircle
 10
240.8848517338
 20
54.0118032506
 30
0.0
 40
11.12401072022582
100
AcDbArc
 50
9.0277736643
 51
48.7055209086
  0
LWPOLYLINE
  5
254
330
1F
100
AcDbEntity
  8
0
  6
Continuous
 62
     7
370
    18
100
AcDbPolyline
 90
       29
 70
   128
 43
0.0
 10
223.9513964632
 20
35.5569234469
 10
224.0094866743
 20
36.8918000493
 10
224.1831415683
 20
38.2795963066
 10
224.4705198549
 20
39.7056005714
 10
224.8685757656
 20
41.1546975037
 10
225.3730900059
 20
42.6115263392
 10
225.9787145358
 20
44.0606440993
 10
226.6790292048
 20
45.4866904161
 10
227.4666102408
 20
46.8745472237
 10
228.3331099335
 20
48.2095041506
 10
229.2693422456
 20
49.4774102247
 10
230.2653838992
 20
50.6648250053
 10
231.3106757917
 20
51.7591623014
 10
232.3941380763
 20
52.7488204852
 10
233.5042855721
 20
53.6233107143
 10
234.6293502741
 20
54.3733618757
 10
235.7574064557
 20
54.9910232252
 10
236.8764962451
 20
55.4697482872
 10
237.9747573419
 20
55.8044617407
 10
239.04054742
 20
55.9916152648
 10
240.062569313
 20
56.0292263475
 10
241.0299889759
 20
55.9168946708
 10
241.932551883
 20
55.6558122721
 10
242.7606906996
 20
55.2487458526
 10
243.5056263688
 20
54.7000114827
 10
244.1594622836
 20
54.0154240225
 10
244.7152685799
 20
53.2022415998
 10
245.1671526017
 20
52.2690842342
 10
245.2372862747
 20
52.0885357781
  0
LWPOLYLINE
  5
255
330
1F
100
AcDbEntity
  8
0
  6
Continuous
 62
     7
370
    18
100
AcDbPolyline
 90
       13
 70
   128
 43
0.0
 10
231.2384242395
 20
27.8391677766
 10
230.2653838992
 20
27.7389966106
 10
229.2693422456
 20
27.7764061765
 10
228.3331099335
 20
27.9633614317
 10
227.4666102408
 20
28.2978791083
 10
226.6790292048
 20
28.7764142072
 10
225.9787145358
 20
29.3938944181
 10
225.3730900059
 20
30.1437729797
 10
224.8685757656
 20
31.0181020722
 10
224.4705198549
 20
32.0076134325
 10
224.1831415683
 20
33.1018177902
 10
224.0094866743
 20
34.2891163745
 10
223.9513964632
 20
35.5569234469
  0
LWPOLYLINE
  5
256
330
1F
100
AcDbEntity
  8
0
  6
Continuous
 62
     7
370
    18
100
AcDbPolyline
 90
       22
 70
   128
 43
0.0
 10
207.1752875811
 20
37.4856873878
 10
207.2341087766
 20
39.1835356163
 10
207.4101798704
 20
40.9379976702
 10
207.7023312876
 20
42.7373996033
 10
208.1086150534
 20
44.5697641178
 10
208.6263311355
 20
46.4228989654
 10
209.2520327117
 20
48.2844716627
 10
209.9815551468
 20
50.1420931389
 10
210.8100449676
 20
51.9834025253
 10
211.7319875224
 20
53.7961447193
 10
212.7412491278
 20
55.5682570736
 10
213.831110654
 20
57.2879458195
 10
214.994321526
 20
58.9437659103
 10
216.2231398947
 20
60.5247004862
 10
217.5093879543
 20
62.0202277895
 10
218.8445066018
 20
63.4203953046
 10
220.2196104254
 20
64.7158834422
 10
221.6255482908
 20
65.8980739744
 10
223.052964256
 20
66.9590973684
 10
224.4923587754
 20
67.8918924532
 10
225.9341530309
 20
68.6902542039
 10
227.2283746651
 20
69.2904725403
  0
ARC
  5
257
330
1F
100
AcDbEntity
  8
0
  6
Continuous
 62
     7
370
    18
100
AcDbCircle
 10
227.4062202944
 20
37.3815507536
 30
0.0
 40
20.23120072774388
100
AcDbArc
 50
179.7050785041
 51
189.0564007684
  0
LWPOLYLINE
  5
258
330
1F
100
AcDbEntity
  8
0
  6
Continuous
 62
     7
370
    18
100
AcDbPolyline
 90
       22
 70
   128
 43
0.0
 10
214.9983008018
 20
39.3124817453
 10
215.3926135456
 20
41.1207783523
 10
215.9032594938
 20
42.9511836275
 10
216.5264506984
 20
44.7901175801
 10
217.2575628599
 20
46.6239356582
 10
218.0911708886
 20
48.4390314084
 10
219.0210910516
 20
50.2219391342
 10
220.0404237781
 20
51.9594300901
 10
221.1416050259
 20
53.6386113377
 10
222.3164655503
 20
55.2470253602
 10
223.5562875391
 20
56.7727375105
 10
224.8518724427
 20
58.2044284012
 10
226.1936078162
 20
59.5314765984
 10
227.5715381129
 20
60.7440344715
 10
228.9754400879
 20
61.8331051829
 10
230.3948973781
 20
62.7906100769
 10
231.8193781281
 20
63.6094426179
 10
233.2383132748
 20
64.2835287923
 10
234.6411750787
 20
64.807867881
 10
236.0175551617
 20
65.1785683837
 10
237.3572408153
 20
65.392879904
 10
237.4771084281
 20
65.4045657165
  0
LWPOLYLINE
  5
259
330
1F
100
AcDbEntity
  8
0
  6
Continuous
 62
     7
370
    18
100
AcDbPolyline
 90
       18
 70
   128
 43
0.0
 10
215.572295439
 20
39.3172783458
 10
215.968062249
 20
41.1060811106
 10
216.4792771797
 20
42.9161272199
 10
217.1021048677
 20
44.7338359268
 10
217.8318709642
 20
46.5455680075
 10
218.6631003302
 20
48.3377307015
 10
219.5895578662
 20
50.0968773287
 10
220.6042906593
 20
51.8098084265
 10
221.6996852764
 20
53.4636717458
 10
222.8675230822
 20
55.0460573034
 10
224.0990414833
 20
56.5450943354
 10
225.3850004419
 20
57.9495338009
 10
226.7157519515
 20
59.2488386808
 10
228.0813101725
 20
60.4332609681
 10
229.4714297988
 20
61.4939127634
 10
230.8756806377
 20
62.4228367063
 10
232.2835263065
 20
63.2130605307
 10
233.4032457468
 20
63.7404772597
  0
LWPOLYLINE
  5
25A
330
1F
100
AcDbEntity
  8
0
  6
Continuous
 62
     7
370
    18
100
AcDbPolyline
 90
       23
 70
   128
 43
0.0
 10
226.0727164959
 20
35.5569230667
 10
226.1307480965
 20
36.8263942576
 10
226.3041613047
 20
38.1479832123
 10
226.5909238522
 20
39.5061958804
 10
226.9876732106
 20
40.8851086744
 10
227.4897587388
 20
42.2685549699
 10
228.0912923902
 20
43.6403142658
 10
228.7852231287
 20
44.9843049543
 10
229.5634146371
 20
46.2847702475
 10
230.4167434397
 20
47.5264621994
 10
231.335204599
 20
48.6948240177
 10
232.3080309123
 20
49.7761569737
 10
233.3238162242
 20
50.7577843657
 10
234.3706517449
 20
51.628197135
 10
235.4362638925
 20
52.3771897142
 10
236.5081595837
 20
52.9959819253
 10
237.5737717313
 20
53.4773189435
 10
238.6206072521
 20
53.8155567396
 10
239.6363925639
 20
54.0067301049
 10
240.6092188773
 20
54.0485985023
 10
241.5276800366
 20
53.9406693666
 10
242.3810088391
 20
53.6842098788
 10
242.9716429203
 20
53.3964645019
  0
LWPOLYLINE
  5
25B
330
1F
100
AcDbEntity
  8
0
  6
Continuous
 62
     7
370
    18
100
AcDbPolyline
 90
        9
 70
   128
 43
0.0
 10
228.9727805559
 20
29.1470955498
 10
228.7852231287
 20
29.2613346752
 10
228.0912923902
 20
29.8041299869
 10
227.4897587388
 20
30.4813733121
 10
226.9876732106
 20
31.285123996
 10
226.5909238522
 20
32.2059597312
 10
226.3041613047
 20
33.2330834093
 10
226.1307480965
 20
34.3544537357
 10
226.0727164959
 20
35.5569230667
  0
LINE
  5
25C
330
1F
100
AcDbEntity
  8
0
  6
Continuous
 62
     7
370
    18
100
AcDbLine
 10
208.7521365354
 20
36.9877453101
 30
0.0
 11
210.9052754631
 21
38.2307259555
 31
0.0
  0
LWPOLYLINE
  5
25D
330
1F
100
AcDbEntity
  8
0
  6
Continuous
 62
     7
370
    18
100
AcDbPolyline
 90
       21
 70
   128
 43
0.0
 10
196.3049676922
 20
57.169784462
 10
196.8851197205
 20
58.7698279788
 10
197.5702266212
 20
60.3584250459
 10
198.3536436803
 20
61.9201670273
 10
199.2277719526
 20
63.4399050745
 10
200.184132019
 20
64.90289841
 10
201.2134489388
 20
66.2949561456
 10
202.3057368723
 20
67.6025758689
 10
203.4504021432
 20
68.8130746233
 10
204.6363416911
 20
69.9147103826
 10
205.8520517313
 20
70.8967980117
 10
207.0857407775
 20
71.749809494
 10
208.325442088
 20
72.4654738272
 10
209.5591311342
 20
73.0368493987
 10
210.7748411744
 20
73.458390705
 10
211.9607807223
 20
73.7260116023
 10
213.1054459932
 20
73.8371152386
 10
214.1977339267
 20
73.7906243193
 10
215.2270508465
 20
73.5869906029
 10
216.1834109129
 20
73.2281870968
 10
216.2845844228
 20
73.1789657683
  0
ARC
  5
25E
330
1F
100
AcDbEntity
  8
0
  6
Continuous
 62
     7
370
    18
100
AcDbCircle
 10
202.1772626626
 20
47.8220203853
 30
0.0
 40
6.582973660495342
100
AcDbArc
 50
206.868908893
 51
235.9973871746
  0
ARC
  5
25F
330
1F
100
AcDbEntity
  8
0
  6
Continuous
 62
     7
370
    18
100
AcDbCircle
 10
229.5800546393
 20
30.1077049911
 30
0.0
 40
12.51195515897666
100
AcDbArc
 50
191.3649044585
 51
215.4463939401
  0
LINE
  5
260
330
1F
100
AcDbEntity
  8
0
  6
Continuous
 62
     7
370
    18
100
AcDbLine
 10
212.7172389449
 20
30.295464874
 30
0.0
 11
214.44080929
 21
31.2904608552
 31
0.0
  0
LINE
  5
261
330
1F
100
AcDbEntity
  8
0
  6
Continuous
 62
     7
370
    18
100
AcDbLine
 10
208.7521365354
 20
36.1712044595
 30
0.0
 11
210.9052754631
 21
37.4141851048
 31
0.0
  0
LINE
  5
262
330
1F
100
AcDbEntity
  8
0
  6
Continuous
 62
     7
370
    18
100
AcDbLine
 10
216.4229564777
 20
29.622480851
 30
0.0
 11
216.3571836864
 21
29.8822231231
 31
0.0
  0
LINE
  5
263
330
1F
100
AcDbEntity
  8
0
  6
Continuous
 62
     7
370
    18
100
AcDbLine
 10
215.9092265656
 20
29.1727945766
 30
0.0
 11
215.572295439
 21
30.3353294638
 31
0.0
  0
LWPOLYLINE
  5
264
330
1F
100
AcDbEntity
  8
0
  6
Continuous
 62
     7
370
    18
100
AcDbPolyline
 90
        3
 70
   128
 43
0.0
 10
215.826308568
 20
27.9002172911
 10
215.3813972155
 20
29.0097869444
 10
214.9983008018
 20
30.3305328633
  0
LINE
  5
265
330
1F
100
AcDbEntity
  8
0
  6
Continuous
 62
     7
370
    18
100
AcDbLine
 10
243.6297988871
 20
65.5503672738
 30
0.0
 11
243.5294301186
 21
65.492425617
 31
0.0
  0
ARC
  5
266
330
1F
100
AcDbEntity
  8
0
  6
Continuous
 62
     7
370
    18
100
AcDbCircle
 10
202.2595125706
 20
54.8548899931
 30
0.0
 40
1.972901567909269
100
AcDbArc
 50
160.2448099665
 51
206.8893922509
  0
ARC
  5
267
330
1F
100
AcDbEntity
  8
0
  6
Continuous
 62
     7
370
    18
100
AcDbCircle
 10
200.0175347709
 20
54.7942809193
 30
0.0
 40
0.8231407192539898
100
AcDbArc
 50
40.3516534992
 51
62.0985447238
  0
LINE
  5
268
330
1F
100
AcDbEntity
  8
0
  6
Continuous
 62
     7
370
    18
100
AcDbLine
 10
200.4027253317
 20
55.5217346123
 30
0.0
 11
200.550527744
 21
56.075989445
 31
0.0
  0
LINE
  5
269
330
1F
100
AcDbEntity
  8
0
  6
Continuous
 62
     7
370
    18
100
AcDbLine
 10
200.4027253317
 20
55.5217346123
 30
0.0
 11
199.1495059134
 21
56.2452027831
 31
0.0
  0
LINE
  5
26A
330
1F
100
AcDbEntity
  8
0
  6
Continuous
 62
     7
370
    18
100
AcDbLine
 10
196.3048241295
 20
58.0516898198
 30
0.0
 11
196.2902037829
 21
58.2274156636
 31
0.0
  0
ARC
  5
26B
330
1F
100
AcDbEntity
  8
0
  6
Continuous
 62
     7
370
    18
100
AcDbCircle
 10
200.121076291
 20
41.4928378643
 30
0.0
 40
0.5806338492593023
100
AcDbArc
 50
25.5709532967
 51
60.9828307538
  0
ARC
  5
26C
330
1F
100
AcDbEntity
  8
0
  6
Continuous
 62
     7
370
    18
100
AcDbCircle
 10
202.3581831422
 20
42.6465795057
 30
0.0
 40
2.059398257764264
100
AcDbArc
 50
172.8727688225
 51
198.2811498096
  0
LINE
  5
26D
330
1F
100
AcDbEntity
  8
0
  6
Continuous
 62
     7
370
    18
100
AcDbLine
 10
199.5575407491
 20
47.0341901184
 30
0.0
 11
197.940472856
 21
47.9677035427
 31
0.0
  0
LINE
  5
26E
330
1F
100
AcDbEntity
  8
0
  6
Continuous
 62
     7
370
    18
100
AcDbLine
 10
200.4027253317
 20
42.0005872954
 30
0.0
 11
199.1495059134
 21
42.7240554662
 31
0.0
  0
LINE
  5
26F
330
1F
100
AcDbEntity
  8
0
  6
Continuous
 62
     7
370
    18
100
AcDbLine
 10
200.4027253317
 20
42.0005872954
 30
0.0
 11
200.550527744
 21
41.6169814955
 31
0.0
  0
OLE2FRAME
  5
270
330
1F
100
AcDbEntity
  8
0
100
AcDbOle2Frame
 70
     2
  3
Paintbrush-Bild
 10
13.8511154363
 20
38.264191557
 30
0.0
 11
51.6290888628
 21
31.9806341108
 31
0.0
 71
     2
 72
     0
 73
     1
 90
    12928
310
80552BED0767C5B32B40DDAF6807D121434000000000000000006FFBDDFB85D0
310
4940DDAF6807D121434000000000000000006FFBDDFB85D04940416F4BD60AFB
310
3F4000000000000000002BED0767C5B32B40416F4BD60AFB3F40000000000000
310
0000000000000100000000010000010000000100000000000100000000320000
310
D0CF11E0A1B11AE1000000000000000000000000000000003E000300FEFF0900
310
0600000000000000000000000100000001000000000000000010000002000000
310
01000000FEFFFFFF0000000000000000FFFFFFFFFFFFFFFFFFFFFFFFFFFFFFFF
310
FFFFFFFFFFFFFFFFFFFFFFFFFFFFFFFFFFFFFFFFFFFFFFFFFFFFFFFFFFFFFFFF
310
FFFFFFFFFFFFFFFFFFFFFFFFFFFFFFFFFFFFFFFFFFFFFFFFFFFFFFFFFFFFFFFF
310
FFFFFFFFFFFFFFFFFFFFFFFFFFFFFFFFFFFFFFFFFFFFFFFFFFFFFFFFFFFFFFFF
310
FFFFFFFFFFFFFFFFFFFFFFFFFFFFFFFFFFFFFFFFFFFFFFFFFFFFFFFFFFFFFFFF
310
FFFFFFFFFFFFFFFFFFFFFFFFFFFFFFFFFFFFFFFFFFFFFFFFFFFFFFFFFFFFFFFF
310
FFFFFFFFFFFFFFFFFFFFFFFFFFFFFFFFFFFFFFFFFFFFFFFFFFFFFFFFFFFFFFFF
310
FFFFFFFFFFFFFFFFFFFFFFFFFFFFFFFFFFFFFFFFFFFFFFFFFFFFFFFFFFFFFFFF
310
FFFFFFFFFFFFFFFFFFFFFFFFFFFFFFFFFFFFFFFFFFFFFFFFFFFFFFFFFFFFFFFF
310
FFFFFFFFFFFFFFFFFFFFFFFFFFFFFFFFFFFFFFFFFFFFFFFFFFFFFFFFFFFFFFFF
310
FFFFFFFFFFFFFFFFFFFFFFFFFFFFFFFFFFFFFFFFFFFFFFFFFFFFFFFFFFFFFFFF
310
FFFFFFFFFFFFFFFFFFFFFFFFFFFFFFFFFFFFFFFFFFFFFFFFFFFFFFFFFFFFFFFF
310
FFFFFFFFFFFFFFFFFFFFFFFFFFFFFFFFFFFFFFFFFFFFFFFFFFFFFFFFFFFFFFFF
310
FFFFFFFFFFFFFFFFFFFFFFFFFFFFFFFFFFFFFFFFFFFFFFFFFFFFFFFFFFFFFFFF
310
FDFFFFFFFEFFFFFFFEFFFFFFFEFFFFFF05000000060000000700000008000000
310
090000000A0000000B0000000C0000000D0000000E0000000F00000010000000
310
11000000120000001300000014000000150000001600000017000000FEFFFFFF
310
FFFFFFFFFFFFFFFFFFFFFFFFFFFFFFFFFFFFFFFFFFFFFFFFFFFFFFFFFFFFFFFF
310
FFFFFFFFFFFFFFFFFFFFFFFFFFFFFFFFFFFFFFFFFFFFFFFFFFFFFFFFFFFFFFFF
310
FFFFFFFFFFFFFFFFFFFFFFFFFFFFFFFFFFFFFFFFFFFFFFFFFFFFFFFFFFFFFFFF
310
FFFFFFFFFFFFFFFFFFFFFFFFFFFFFFFFFFFFFFFFFFFFFFFFFFFFFFFFFFFFFFFF
310
FFFFFFFFFFFFFFFFFFFFFFFFFFFFFFFFFFFFFFFFFFFFFFFFFFFFFFFFFFFFFFFF
310
FFFFFFFFFFFFFFFFFFFFFFFFFFFFFFFFFFFFFFFFFFFFFFFFFFFFFFFFFFFFFFFF
310
FFFFFFFFFFFFFFFFFFFFFFFFFFFFFFFFFFFFFFFFFFFFFFFFFFFFFFFFFFFFFFFF
310
FFFFFFFFFFFFFFFFFFFFFFFFFFFFFFFFFFFFFFFFFFFFFFFFFFFFFFFFFFFFFFFF
310
FFFFFFFFFFFFFFFFFFFFFFFFFFFFFFFFFFFFFFFFFFFFFFFFFFFFFFFFFFFFFFFF
310
FFFFFFFFFFFFFFFFFFFFFFFFFFFFFFFFFFFFFFFFFFFFFFFFFFFFFFFFFFFFFFFF
310
FFFFFFFFFFFFFFFFFFFFFFFFFFFFFFFFFFFFFFFFFFFFFFFFFFFFFFFFFFFFFFFF
310
FFFFFFFFFFFFFFFFFFFFFFFFFFFFFFFFFFFFFFFFFFFFFFFFFFFFFFFFFFFFFFFF
310
FFFFFFFFFFFFFFFFFFFFFFFFFFFFFFFFFFFFFFFFFFFFFFFFFFFFFFFFFFFFFFFF
310
52006F006F007400200045006E00740072007900000000000000000000000000
310
0000000000000000000000000000000000000000000000000000000000000000
310
16000500FFFFFFFFFFFFFFFF020000000A00030000000000C000000000000046
310
000000000000000000000000F05A39BD19A7D30103000000C000000000000000
310
01004F006C006500000000000000000000000000000000000000000000000000
310
0000000000000000000000000000000000000000000000000000000000000000
310
0A000200FFFFFFFFFFFFFFFFFFFFFFFF00000000000000000000000000000000
310
0000000000000000000000000000000000000000000000001400000000000000
310
010043006F006D0070004F0062006A0000000000000000000000000000000000
310
0000000000000000000000000000000000000000000000000000000000000000
310
120002010100000003000000FFFFFFFF00000000000000000000000000000000
310
0000000000000000000000000000000000000000010000004D00000000000000
310
01004F006C006500310030004E00610074006900760065000000000000000000
310
0000000000000000000000000000000000000000000000000000000000000000
310
1A000200FFFFFFFFFFFFFFFFFFFFFFFF00000000000000000000000000000000
310
0000000000000000000000000000000000000000040000002426000000000000
310
FEFFFFFF02000000FEFFFFFFFFFFFFFFFFFFFFFFFFFFFFFFFFFFFFFFFFFFFFFF
310
FFFFFFFFFFFFFFFFFFFFFFFFFFFFFFFFFFFFFFFFFFFFFFFFFFFFFFFFFFFFFFFF
310
FFFFFFFFFFFFFFFFFFFFFFFFFFFFFFFFFFFFFFFFFFFFFFFFFFFFFFFFFFFFFFFF
310
FFFFFFFFFFFFFFFFFFFFFFFFFFFFFFFFFFFFFFFFFFFFFFFFFFFFFFFFFFFFFFFF
310
FFFFFFFFFFFFFFFFFFFFFFFFFFFFFFFFFFFFFFFFFFFFFFFFFFFFFFFFFFFFFFFF
310
FFFFFFFFFFFFFFFFFFFFFFFFFFFFFFFFFFFFFFFFFFFFFFFFFFFFFFFFFFFFFFFF
310
FFFFFFFFFFFFFFFFFFFFFFFFFFFFFFFFFFFFFFFFFFFFFFFFFFFFFFFFFFFFFFFF
310
FFFFFFFFFFFFFFFFFFFFFFFFFFFFFFFFFFFFFFFFFFFFFFFFFFFFFFFFFFFFFFFF
310
FFFFFFFFFFFFFFFFFFFFFFFFFFFFFFFFFFFFFFFFFFFFFFFFFFFFFFFFFFFFFFFF
310
FFFFFFFFFFFFFFFFFFFFFFFFFFFFFFFFFFFFFFFFFFFFFFFFFFFFFFFFFFFFFFFF
310
FFFFFFFFFFFFFFFFFFFFFFFFFFFFFFFFFFFFFFFFFFFFFFFFFFFFFFFFFFFFFFFF
310
FFFFFFFFFFFFFFFFFFFFFFFFFFFFFFFFFFFFFFFFFFFFFFFFFFFFFFFFFFFFFFFF
310
FFFFFFFFFFFFFFFFFFFFFFFFFFFFFFFFFFFFFFFFFFFFFFFFFFFFFFFFFFFFFFFF
310
FFFFFFFFFFFFFFFFFFFFFFFFFFFFFFFFFFFFFFFFFFFFFFFFFFFFFFFFFFFFFFFF
310
FFFFFFFFFFFFFFFFFFFFFFFFFFFFFFFFFFFFFFFFFFFFFFFFFFFFFFFFFFFFFFFF
310
FFFFFFFFFFFFFFFFFFFFFFFFFFFFFFFFFFFFFFFFFFFFFFFFFFFFFFFFFFFFFFFF
310
0100000200000000000000000000000000000000000000000000000000000000
310
0000000000000000000000000000000000000000000000000000000000000000
310
0100FEFF030A0000FFFFFFFF0A00030000000000C00000000000004607000000
310
5042727573680007000000504272757368000700000050427275736800F439B2
310
7100000000000000000000000000000000000000000000000000000000000000
310
0000000000000000000000000000000000000000000000000000000000000000
310
0000000000000000000000000000000000000000000000000000000000000000
310
0000000000000000000000000000000000000000000000000000000000000000
310
0000000000000000000000000000000000000000000000000000000000000000
310
0000000000000000000000000000000000000000000000000000000000000000
310
0000000000000000000000000000000000000000000000000000000000000000
310
0000000000000000000000000000000000000000000000000000000000000000
310
0000000000000000000000000000000000000000000000000000000000000000
310
0000000000000000000000000000000000000000000000000000000000000000
310
0000000000000000000000000000000000000000000000000000000000000000
310
0000000000000000000000000000000000000000000000000000000000000000
310
20260000424D0E260000000000003E00000028000000B40200006E0000000100
310
01000000000000000000130B0000130B00000200000002000000000000FFFFFF
310
FFFFFFFFFFFFFFFFFFFFFFFFFFFFFFFFFFFFFFFFFFFFFFFFFFFFFFFFFFFFFFFF
310
FFFFFFFFFFFFFFFFFFFFFFFFFFFFFFFFFFFFFFFFFFFFFFFFFFFFFFFFFFFFFFFF
310
FFFFFFFFFFFFFFFFFFFFFFFFFFFFFFFFFFFFFFFFFFFFFFFFF000FFFFFFFFFFFF
310
FFFFFFFFFFFFFFFFFFFFFFFFFFFFFFFFFFFFFFFFFFFFFFFFFFFFFFFFFFFFFFFF
310
FFFFFFFFFFFFFFFFFFFFFFFFFFFFFFFFFFFFFFFFFFFFFFFFFFFFFFFFFFFFFFFF
310
FFFFFFFFFFFFFFFFFFFFFFFFFFFFFFFFF000FFFFFFFFFFFFFFFFFFFFFFFFFFFF
310
FFFFFFFFFFFFFFFFFFFFFFFFFFFFFFFFFFFFFFFFFFFFFFFFFFFFFFFFFFFFFFFF
310
FFFFFFFFFFFFFFFFFFFFFFFFFFFFFFFFFFFFFFFFFFFFFFFFFFFFFFFFFFFFFFFF
310
FFFFFFFFFFFFFFFFF000FFFFFFFFFFFFFFFFFFFFFFFFFFFFFFFFFFFFFFFFFFFF
310
FFFFFFFFFFFFFFFFFFFFFFFFFFFFFFFFFFFFFFFFFFFFFFFFFFFFFFFFFFFFFFFF
310
FFFFFFFFFFFFFFFFFFFFFFFFFFFFFFFFFFFFFFFFFFFFFFFFFFFFFFFFFFFFFFFF
310
F000FFFFFFFFFFFFFFFFFFFFFFFFFFFFFFFFFFFFFFFFFFFFFFFFFFFFFFFFFFFF
310
FFFFFFFFFFFFFFFFFFFFFFFFFFFFFFFFFFFFFFFFFFFFFFFFFFFFFFFFFFFFFFFF
310
FFFFFFFFFFFFFFFFFFFFFFFFFFFFFFFFFFFFFFFFFFFFFFFFF000FFFFFFFFFFFF
310
FFFFFFFFFFFFFFFFFFFFFFFFFFFFFFFFFFFFFFFFFFFFFFFFFFFFFFFFFFFFFFFF
310
FFFFFFFFFFFFFFFFFFFFFFFFFFFFFFFFFFFFFFFFFFFFFFFFFFFFFFFFFFFFFFFF
310
FFFFFFFFFFFFFFFFFFFFFFFFFFFFFFFFF000FFFFFFFFFFFFFFFFFFFFFFFFFFFF
310
FFFFFFFFFFFFFFFFFFFFFFFFFFFFFFFFFFFFFFFFFFFFFFFFFFFFFFFFFFFFFFFF
310
FFFFFFFFFFFFFFFFFFFFFFFFFFFFFFFFFFFFFFFFFFFFFFFFFFFFFFFFFFFFFFFF
310
FFFFFFFFFFFFFFFFF000FFFFFFFFFFFFFFFFFFFFFFFFFFFFFFFFFFFFFFFFFFFF
310
FFFFFFFFFFFFFFFFFFFFFFFFFFFFFFFFFFFFFFFFFFFFFFFFFFFFFFFFFFFFFFFF
310
FFFFFFFFFFFFFFFFFFFFFFFFFFFFFFFFFFFFFFFFFFFFFFFFFFFFFFFFFFFFFFFF
310
F000FFFFFFFFFFFFFFFFFFFFFFFFFFFFFFFFFFFFFFFFFFFFFFFFFFFFFFFFFFFF
310
FFFFFFFFFFFFFFFFFFFFFFFFFFFFFFFFFFFFFFFFFFFFFFFFFFFFFFFFFFFFFFFF
310
FFFFFFFFFFFFFFFFFFFFFFFFFFFFFFFFFFFFFFFFFFFFFFFFF000FFFFFFFFFFFF
310
FFFFFFFFFFFFFFFFFFFFFFFFFFFFFFFFFFFFFFFFFFFFFFFFFFFFFFFFFFFFFFFF
310
FFFFFFFFFFFFFFFFFFFFFFFFFFFFFFFFFFFFFFFFFFFFFFFFFFFFFFFFFFFFFFFF
310
FFFFFFFFFFFFFFFFFFFFFFFFFFFFFFFFF000FFFFFFFFFFFFFFFFFFFFFFFFFFFF
310
FFFFFFFFFFFFFFFFFFFFFFFFFFFFFFFFFFFFFFFFFFFFFFFFFFFFFFFFFFFFFFFF
310
FFFFFFFFFFFFFFFFFFFFFFFFFFFFFFFFFFFFFFFFFFFFFFFFFFFFFFFFFFFFFFFF
310
FFFFFFFFFFFFFFFFF000FFFFFFFFFFFFFFFFFFFFFFFFFFFFFFFFFFFFFFFFFFFF
310
FFFFFFFFFFFFFFFFFFFFFFFFFFFFFFFFFFFFFFFFFFFFFFFFFFFFFFFFFFFFFFFF
310
FFFFFFFFFFFFFFFFFFFFFFFFFFFFFFFFFFFFFFFFFFFFFFFFFFFFFFFFFFFFFFFF
310
F000FFFFFFFFFFFFFFFFFFFFFFFFFFFFFFFFFFFFFFFFFFFFFFFFFFFFFFFFFFFF
310
FFFFFFFFFFFFFFFFFFFFFFFFFFFFFFFFFFFFFFFFFFFFFFFFFFFFFFFFFFFFFFFF
310
FFFFFFFFFFFFFFFFFFFFFFFFFFFFFFFFFFFFFFFFFFFFFFFFF000FFFFFFFFFFFF
310
FFFFFFFFFFFFFFFFFFFFFFFFFFFFFFFFFFFFFFFFFFFFFFFFFFFFFFFFFFFFFFFF
310
FFFFFFFFFFFFFFFFFFFFFFFFFFFFFFFFFFFFFFFFFFFFFFFFFFFFFFFFFFFFFFFF
310
FFFFFFFFFFFFFFFFFFFFFFFFFFFFFFFFF000FFFFFFFFFFFFFFFFFFFFFFFFFFFF
310
FFFFFFFFFFFFFFFFFFFFFFFFFFFFFFFFFFFFFFFFFFFFFFFFFFFFFFFFFFFFFFFF
310
FFFFFFFFFFFFFFFFFFFFFFFFFFFFFFFFFFFFFFFFFFFFFFFFFFFFFFFFFFFFFFFF
310
FFFFFFFFFFFFFFFFF000FFFFFFFFFFFFFFFFFFFFFFFFFFFFFFFFFFFFFFFFFFFF
310
FFFFFFFFFFFFFFFFFFFFFFFFFFFFFFFFFFFFFFFFFFFFFFFFFFFFFFFFFFFFFFFF
310
FFFFFFFFFFFFFFFFFFFFFFFFFFFFFFFFFFFFFFFFFFFFFFFFFFFFFFFFFFFFFFFF
310
F000FFFFFFFFFFFFFFFFFFFFFFFFFFFFFFFFFFFFFFFFFFFFFFFFFFFFFFFFFFFF
310
FFFFFFFFFFFFFFFFFFFFFFFFFFFFFFFFFFFFFFFFFFFFFFFFFFFFFFFFFFFFFFFF
310
FFFFFFFFFFFFFFFFFFFFFFFFFFFFFFFFFFFFFFFFFFFFFFFFF000FFFFFFFFFFFF
310
FFFFFFFFFFFFFFFFFFFFFFFFFFFFFFFFFFFFFFFFFFFFFFFFFFFFFFFFFFFFFFFF
310
FFFFFFFFFFFFFFFFFFFFFFFFFFFFFFFFFFFFFFFFFFFFFFFFFFFFFFFFFFFFFFFF
310
FFFFFFFFFFFFFFFFFFFFFFFFFFFFFFFFF000FFFFFFFFFFFFFFFFFFFFFFFFFFFF
310
FFFFFFFFFFFFFFFFFFFFFFFFFFFFFFFFFFFFFFFFFFFFFFFFFFFFFFFFFFFFFFFF
310
FFFFFFFFFFFFFFFFFFFFFFFFFFFFFFFFFFFFFFFFFFFFFFFFFFFFFFFFFFFFFFFF
310
FFFFFFFFFFFFFFFFF000FFFFF80003FFFFFFFFFFFFFFFFFFFFFFFFFFFFFFFFFF
310
FFFFF00007FFFFFFFFFF00007FFFFFF800000000000000007FFFFFFFFFFFFFFF
310
FFFFFFFC001FFFFFFFFFFFFFFC001FFFFFFFFFFFFFFFFFFFFFFFFFFE0007FFFF
310
F000FFFF8000007FFFFFFFF8000FFFFFC0007FFFFF80007FFFFF0000007FFFFF
310
FFF8000007FFFFF800000000000000007FFFFFF0001FFFFFFFFFFFC00001FFFF
310
FFFFFFFFC00001FFFFFFFF000000000003FFFFE000007FFFF000FFFE0000000F
310
FFFFFFF0000FFFFF80007FFFFF80007FFFFC0000001FFFFFFFC0000001FFFFF8
310
00000000000000007FFFFFF0001FFFFFFFFFFE0000003FFFFFFFFFFE0000003F
310
FFFFFF000000000003FFFF0000000FFFF000FFF800000003FFFFFFF00007FFFF
310
80007FFFFF80007FFFF000000007FFFFFF000000003FFFF80000000000000000
310
7FFFFFF0001FFFFFFFFFF80000000FFFFFFFFFF80000000FFFFFFF0000000000
310
03FFFC00000003FFF000FFE000000000FFFFFFF00007FFFF80003FFFFF80007F
310
FFC000000001FFFFFC000000001FFFF800000000000000007FFFFFF0001FFFFF
310
FFFFE000000003FFFFFFFFE000000003FFFFFF000000000003FFF000000000FF
310
F000FF80000000007FFFFFF00007FFFF80003FFFFF80007FFF8000000000FFFF
310
F80000000007FFF800000000000000007FFFFFF0001FFFFFFFFFC000000001FF
310
FFFFFFC000000001FFFFFF000000000003FFC0000000007FF000FF0000000000
310
3FFFFFE00007FFFF00003FFFFF80007FFE00000000003FFFF00000000003FFF8
310
00000000000000007FFFFFF0001FFFFFFFFF8000000000FFFFFFFF8000000000
310
FFFFFF000000000003FF80000000003FF000FE00000000001FFFFFE00003FFFF
310
00003FFFFF80007FFC00000000001FFFE00000000001FFF8000001FFFE000000
310
7FFFFFF0001FFFFFFFFE00000000003FFFFFFE00000000003FFFFF0000000000
310
03FF00000000001FF000FC00000000000FFFFFE00003FFFF00001FFFFF80007F
310
F800000000001FFFC00000000000FFF8000001FFFE0000007FFFFFF0001FFFFF
310
FFFC00000000001FFFFFFC00000000001FFFFF000000000003FE00000000000F
310
F000F8000000000007FFFFE00003FFFF00001FFFFF80007FF800000000000FFF
310
800000000000FFF8000001FFFE0000007FFFFFF0001FFFFFFFF800000000000F
310
FFFFF800000000000FFFFF000000000003FC000000000007F000F80000000000
310
03FFFFC00003FFFE00001FFFFF80007FF0000000000007FF0000000000007FF8
310
000001FFFE0000007FFFFFF0001FFFFFFFF0000000000007FFFFF00000000000
310
07FFFF000000000003F8000000000003F000F0000000000003FFFFC00001FFFE
310
00001FFFFF80007FE0000000000007FE0000000000003FF8000001FFFE000000
310
7FFFFFF0001FFFFFFFF0000000000007FFFFF0000000000007FFFF0000000000
310
03F800001F800003F000E00001FFF00001FFFFC00001FFFE00000FFFFF80007F
310
E00001FFE00003FE00001FFF00003FF8000001FFFE0000007FFFFFF0001FFFFF
310
FFE000003E000003FFFFE000003E000003FFFF000000000003F00001FFF80001
310
F000E00007FFFC0001FFFFC00001FFFE00000FFFFF80007FC0000FFFFC0003FC
310
0000FFFFC0001FF8000001FFFE0000007FFFFFF0001FFFFFFFC00003FFE00001
310
FFFFC00003FFE00001FFFF0001FFFFFFFFF00007FFFE0001F000E0000FFFFF00
310
00FFFF800001FFFC00000FFFFF80007FC0001FFFFE0001FC0001FFFFE0001FF8
310
000001FFFE0000007FFFFFF0001FFFFFFF80000FFFF80000FFFF80000FFFF800
310
00FFFF0003FFFFFFFFE0000FFFFF8000F000C0003FFFFF8000FFFF800000FFFC
310
000007FFFF80007F80003FFFFF0001FC0003FFFFF0001FF8000001FFFE000000
310
7FFFFFF0001FFFFFFF80003FFFFE0000FFFF80003FFFFE0000FFFF0003FFFFFF
310
FFE0003FFFFF8000F000C0003FFFFF8000FFFF800000FFFC000007FFFF80007F
310
80007FFFFF8001F80007FFFFF8000FF8000001FFFE0000007FFFFFF0001FFFFF
310
FF00007FFFFF00007FFF00007FFFFF00007FFF0003FFFFFFFFE0003FFFFFC000
310
F000C0007FFFFFC000FFFF000000FFFC000007FFFF80007F8000FFFFFF8000F8
310
000FFFFFF8000FF8000001FFFE0000007FFFFFF0001FFFFFFF0000FFFFFF8000
310
7FFF0000FFFFFF80007FFF0003FFFFFFFFC0007FFFFFC00070008000FFFFFFC0
310
00FFFF000000FFF8000007FFFF80007F8000FFFFFF8000F8000FFFFFF8000FF8
310
000001FFFE0000007FFFFFF0001FFFFFFE0001FFFFFFC0003FFE0001FFFFFFC0
310
003FFF0003FFFFFFFFC0007FFFFFE00070008000FFFFFFC0007FFF0000007FF8
310
000003FFFF80007F0001FFFFFF8000F8000FFFFFF8000FF8000001FFFE000000
310
7FFFFFF0001FFFFFFE0001FFFFFFC0003FFE0001FFFFFFC0003FFF0003FFFFFF
310
FFC000FFFFFFE00070008000FFFFFFC0007FFF0000007FF8000003FFFF80007F
310
0001FFFFFF8000F8001FFFFFF8000FF8000001FFFE0000007FFFFFF0001FFFFF
310
FE0003FFFFFFE0003FFE0003FFFFFFE0003FFF0003FFFFFFFFC000FFFFFFE000
310
70008000FFFFFFC0007FFE0000007FF8000003FFFF80007F0001FFFFFF8000F0
310
001FFFFFF8000FF8000001FFFE0000007FFFFFF0001FFFFFFC0003FFFFFFE000
310
1FFC0003FFFFFFE0001FFF0003FFFFFFFFC000FFFFFFC00070008000FFFFFF80
310
007FFE0000007FF0000003FFFF80007F0001FFFFFF0000F0001FFFFFF8000FF8
310
000001FFFE0000007FFFFFF0001FFFFFFC0007FFFFFFF0001FFC0007FFFFFFF0
310
001FFF0003FFFFFFFFC000FFFFFFC00070008001FFFFFF0000FFFE0000003FF0
310
000001FFFF80007F0001FFFFFF0000F8001FFFFFF0000FF8000001FFFE000000
310
7FFFFFF0001FFFFFFC0007FFFFFFF0001FFC0007FFFFFFF0001FFF0003FFFFFF
310
FFC001FFFFFF80007000FFFFFFFFFE0000FFFE0008003FF0008001FFFF80007F
310
FFFFFFFFFC0000FFFFFFFFFFE0000FF8000001FFFE0000007FFFFFF0001FFFFF
310
F8000FFFFFFFF8000FF8000FFFFFFFF8000FFF0003FFFFFFFFFFFFFFFFFF0000
310
7000FFFFFFFFFC0000FFFC0008003FF0008001FFFF80007FFFFFFFFFF80001FF
310
FFFFFFFF80000FF8000001FFFE0000007FFFFFF0001FFFFFF8000FFFFFFFF800
310
0FF8000FFFFFFFF8000FFF0003FFFFFFFFFFFFFFFFFE0000F000FFFFFFFFE000
310
00FFFC000C003FE000C001FFFF80007FFFFFFFFFC00001FFFFFFFFFE00001FF8
310
000001FFFE0000007FFFFFF0001FFFFFF8000FFFFFFFF8000FF8000FFFFFFFF8
310
000FFF0003FFFFFFFFFFFFFFFFF00000F000FFFFFFFE000001FFFC000C001FE0
310
00C000FFFF80007FFFFFFFFE000001FFFFFFFFE000001FF80FFFFFFFFFFFFFC0
310
7FFFFFF0001FFFFFF8000FFFFFFFF8000FF8000FFFFFFFF8000FFF0003FFFFFF
310
FFFFFFFFFF800000F000FFFFFFC0000001FFFC001C001FE001C000FFFF80007F
310
FFFFFF80000003FFFFFFF80000001FF80FFFFFFFFFFFFFC07FFFFFF0001FFFFF
310
F8001FFFFFFFFC000FF8001FFFFFFFFC000FFF0003FFFFFFFFFFFFFFF0000001
310
F000FFFFF800000001FFF8001C001FE001C000FFFF80007FFFFFF800000003FF
310
FFFF800000003FF80FFFFFFFFFFFFFC07FFFFFF0001FFFFFF8001FFFFFFFFC00
310
0FF8001FFFFFFFFC000FFF0003FFFFFFFFFFFFFE00000001F000FFFFC0000000
310
03FFF8001E001FC001E000FFFF80007FFFFF8000000007FFFFFC000000003FF8
310
0FFFFFFFFFFFFFC07FFFFFF0001FFFFFF8001FFFFFFFFC000FF8001FFFFFFFFC
310
000FFF0003FFFFFFFFFFFFE000000003F000FFFE0000000007FFF8001E000FC0
310
01E0007FFF80007FFFFE0000000007FFFFE0000000007FF80FFFFFFFFFFFFFC0
310
7FFFFFF0001FFFFFF0001FFFFFFFFC0007F0001FFFFFFFFC0007FF0003FFFFFF
310
FFFFFF0000000003F000FFF80000000007FFF8001E000FC003E0007FFF80007F
310
FFF0000000000FFFFF8000000000FFF80FFFFFFFFFFFFFC07FFFFFF0001FFFFF
310
F0001FFFFFFFFC0007F0001FFFFFFFFC0007FF0003FFFFFFFFFFFC0000000007
310
F000FFE0000000000FFFF0003E000FC003E0007FFF80007FFFC0000000001FFF
310
FE0000000001FFF80FFFFFFFFFFFFFC07FFFFFF0001FFFFFF0001FFFFFFFFC00
310
07F0001FFFFFFFFC0007FF0003FFFFFFFFFFF0000000000FF000FFC000000000
310
1FFFF0003F000F8003F0003FFF80007FFF80000000003FFFF80000000003FFF8
310
0FFFFFFFFFFFFFC07FFFFFF0001FFFFFF0001FFFFFFFFC0007F0001FFFFFFFFC
310
0007FF0003FFFFFFFFFFE0000000001FF000FF00000000007FFFF0003F000780
310
03F0003FFF80007FFF00000000007FFFF00000000007FFF80FFFFFFFFFFFFFC0
310
7FFFFFF0001FFFFFF0001FFFFFFFFC0007F0001FFFFFFFFC0007FF0003FFFFFF
310
FFFF80000000007FF000FE0000000000FFFFE0003F00078007F0003FFF80007F
310
FE0000000001FFFFE0000000001FFFF80FFFFFFFFFFFFFC07FFFFFF0001FFFFF
310
F0001FFFFFFFFC0007F0001FFFFFFFFC0007FF0003FFFFFFFFFF0000000000FF
310
F000FC0000000003FFFFE0007F00078007F0003FFF80007FFC0000000007FFFF
310
C0000000007FFFF80FFFFFFFFFFFFFC07FFFFFF0001FFFFFF8001FFFFFFFFC00
310
0FF8001FFFFFFFFC000FFF0003FFFFFFFFFE0000000003FFF000FC000000000F
310
FFFFE0007F80070007F8001FFF80007FF8000000001FFFFF8000000001FFFFF8
310
0FFFFFFFFFFFFFC07FFFFFF0001FFFFFF8001FFFFFFFFC000FF8001FFFFFFFFC
310
000FFF0003FFFFFFFFFC000000000FFFF000F8000000007FFFFFE0007F800700
310
07F8001FFF80007FF000000000FFFFFF800000000FFFFFF80FFFFFFFFFFFFFC0
310
7FFFFFF0001FFFFFF8000FFFFFFFF8000FF8000FFFFFFFF8000FFF0003FFFFFF
310
FFFC000000007FFFF000F800000007FFFFFFC0007F8003000FF8001FFF80007F
310
F000000007FFFFFF000000007FFFFFF80FFFFFFFFFFFFFC07FFFFFF0001FFFFF
310
F8000FFFFFFFF8000FF8000FFFFFFFF8000FFF0003FFFFFFFFF80000000FFFFF
310
F000F0000000FFFFFFFFC000FF8003000FF8001FFF80007FE0000000FFFFFFFF
310
0000000FFFFFFFF8000001FFFE0000007FFFFFF0001FFFFFF8000FFFFFFFF800
310
0FF8000FFFFFFFF8000FFF0003FFFFFFFFF8000000FFFFFFF000F000000FFFFF
310
FFFFC000FFC002000FF8000FFF80007FE000001FFFFFFFFE000001FFFFFFFFF8
310
000001FFFE0000007FFFFFF0001FFFFFF8000FFFFFFFF8000FF8000FFFFFFFF8
310
000FFF0003FFFFFFFFF000001FFFFFFFF000E00000FFFFFFFFFFC000FFC00200
310
0FFC000FFF80007FE00001FFFFFFFFFE00001FFFFFFFFFF8000001FFFE000000
310
7FFFFFF0001FFFFFFC000FFFFFFFF8001FFC000FFFFFFFF8001FFF0003FFFFFF
310
FFF00001FFFFFFFFF000E00007FFFFFFFFFF8000FFC000001FFC000FFF80007F
310
C0000FFFFFFFFFFE0000FFFFFFFFFFF8000001FFFE0000007FFFFFF0001FFFFF
310
FC0007FFFFFFF0001FFC0007FFFFFFF0001FFF0003FFFFFFFFF00007FFFFFFFF
310
F000E0001FFFFFFFFFFF8000FFC000001FFC000FFF80007FC0003FFFFFFFFFFE
310
0001FFFFFFFFFFF8000001FFFE0000007FFFFFF0001FFFFFFC0007FFFFFFF000
310
1FFC0007FFFFFFF0001FFF0003FFFFFFFFF0001FFFFFFFFFF000E0003FFFFF00
310
03FF8001FFE000001FFC0007FF80007FC0007FFFFF0007FC0003FFFFF0003FF8
310
000001FFFE0000007FFFFFF0001FFFFFFC0003FFFFFFE0001FFC0003FFFFFFE0
310
001FFF0003FFFFFFFFF0003FFFFFFFFFF000E0003FFFFF0001FF8001FFE00000
310
1FFE0007FF80007FC0007FFFFE0003FC0007FFFFE0003FF8000001FFFE000000
310
7FFFFFF0001FFFFFFE0003FFFFFFE0003FFE0003FFFFFFE0003FFF0003FFFFFF
310
FFF0003FFFFF8001F000E0003FFFFF0001FF0001FFE000001FFE0007FF80007F
310
C0007FFFFE0003FC0007FFFFE0003FF8000001FFFE0000007FFFFFF0001FFFFF
310
FE0001FFFFFFC0003FFE0001FFFFFFC0003FFF0003FFFFFFFFF0003FFFFF0001
310
F000E0003FFFFF0003FF0001FFE000003FFE0007FF80007FC0007FFFFE0003FC
310
0007FFFFE0003FF8000001FFFE0000007FFFFFF0001FFFFFFF0001FFFFFFC000
310
7FFF0001FFFFFFC0007FFF0003FFFFFFFFF0003FFFFF0001F000E0003FFFFE00
310
03FF0003FFF000003FFE0003FF80007FC0007FFFFC0003FE0007FFFFE0003FF8
310
000001FFFE0000007FFFFFF0001FFFFFFF0000FFFFFF80007FFF0000FFFFFF80
310
007FFF0003FFFFFFFFF0003FFFFF0001F000E0003FFFFE0003FF0003FFF00000
310
3FFF0003FF80007FC0007FFFFC0007FE0007FFFFC0003FF8000001FFFE000000
310
7FFFFFF0001FFFFFFF80007FFFFF0000FFFF80007FFFFF0000FFFF0003FFFFFF
310
FFF0003FFFFF0003F000E0003FFFFC0003FE0003FFF000003FFF0003FF80007F
310
E0003FFFF80007FE0003FFFFC0007FF8000001FFFE0000007FFFFFF0001FFFFF
310
FF80003FFFFE0000FFFF80003FFFFE0000FFFF0003FFFFFFFFF0001FFFFE0003
310
F000F0001FFFF80003FE0003FFF000007FFF0001FF80007FE0003FFFF00007FE
310
0001FFFF80007FF8000001FFFE0000007FFFFFF0001FFFFFFFC0000FFFF80001
310
FFFFC0000FFFF80001FFFF0003FFFFFFFFF0001FFFFC0003F000F0000FFFF000
310
07FE0007FFF800007FFF0001FF80007FE0001FFFE00007FF0000FFFE00007FF8
310
000001FFFE0000007FFFFFF0001FFFFFFFC00003FFE00001FFFFC00003FFE000
310
01FFFF0003FFFFFFFFF8000FFFF80003F000F00003FFC00007FC0007FFF80000
310
7FFF8001FF80007FF00007FF80000FFF00007FF80000FFF8000001FFFE000000
310
7F80000000000001FFE000003E000003FFFFE000003E000003FFFF0003FFFFFF
310
FFF80003FFE00007F000F800000000000FFC0007FFF800007FFF8001FF80007F
310
F000000000000FFF000000000000FFF8000001FFFE0000007F80000000000001
310
FFF0000000000007FFFFF0000000000007FFFF0003FFFFFFFFFC00007E000007
310
F000F800000000000FFC0007FFF80000FFFF8000FF80007FF800000000001FFF
310
800000000001FFF8000001FFFE0000007F80000000000001FFF800000000000F
310
FFFFF800000000000FFFFF0003FFFFFFFFFC00000000000FF000FC0000000000
310
1FFC0007FFFC0000FFFF8000FF80007FF800000000003FFFC00000000001FFF8
310
000001FFFE0000007F80000000000001FFF800000000000FFFFFF80000000000
310
0FFFFF0003FFFFFFFFFE00000000001FF000FE00000000003FF8000FFFFC0000
310
FFFF8000FF80007FFC00000000003FFFC00000000003FFF8000001FFFE000000
310
7F80000000000001FFFC00000000001FFFFFFC00000000001FFFFF0003FFFFFF
310
FFFF00000000001FF000FF00000000003FF8000FFFFC0000FFFFC000FF80007F
310
FE00000000007FFFE00000000007FFF8000001FFFE0000007F80000000000001
310
FFFE00000000003FFFFFFE00000000003FFFFF0003FFFFFFFFFF80000000003F
310
F000FF80000000007FF8000FFFFC0001FFFFC0007F80007FFF0000000000FFFF
310
F0000000000FFFF800000000000000007F80000000000001FFFF8000000000FF
310
FFFFFF8000000000FFFFFF0003FFFFFFFFFFC0000000007FF000FFC000000000
310
FFF8000FFFFE0001FFFFC0007F80007FFF8000000001FFFFF8000000001FFFF8
310
00000000000000007F80000000000001FFFFC000000001FFFFFFFFC000000001
310
FFFFFF0003FFFFFFFFFFE000000000FFF000FFE000000003FFF0001FFFFE0001
310
FFFFC0007F80007FFFC000000007FFFFFE000000003FFFF80000000000000000
310
7F80000000000001FFFFE000000003FFFFFFFFE000000003FFFFFF0003FFFFFF
310
FFFFF000000003FFF000FFF80000000FFFF0001FFFFE0001FFFFE0007F80007F
310
FFF00000000FFFFFFF00000000FFFFF800000000000000007F80000000000001
310
FFFFF80000000FFFFFFFFFF80000000FFFFFFF0003FFFFFFFFFFFC0000000FFF
310
F000FFFE0000003FFFF0001FFFFE0003FFFFE0003F80007FFFFC0000003FFFFF
310
FFC0000003FFFFF800000000000000007F80000000000001FFFFFE0000003FFF
310
FFFFFFFE0000003FFFFFFF0003FFFFFFFFFFFF0000003FFFF000FFFF800000FF
310
FFF0001FFFFF0003FFFFE0003F80007FFFFF000001FFFFFFFFF800001FFFFFF8
310
00000000000000007F80000000000001FFFFFFC00001FFFFFFFFFFFFC00001FF
310
FFFFFF0003FFFFFFFFFFFFC00000FFFFF000FFFFF8000FFFFFFFFFFFFFFFFFFF
310
FFFFFFFFFFFFFFFFFFFFF0001FFFFFFFFFFF0000FFFFFFF80000000000000000
310
7FFFFFFFFFFFFFFFFFFFFFFC001FFFFFFFFFFFFFFC001FFFFFFFFFFFFFFFFFFF
310
FFFFFFFC001FFFFFF000FFFFFFFFFFFFFFFFFFFFFFFFFFFFFFFFFFFFFFFFFFFF
310
FFFFFFFFFFFFFFFFFFFFFFFFFFFFFFFFFFFFFFFFFFFFFFFFFFFFFFFFFFFFFFFF
310
FFFFFFFFFFFFFFFFFFFFFFFFFFFFFFFFFFFFFFFFFFFFFFFFFFFFFFFFFFFFFFFF
310
F000FFFFFFFFFFFFFFFFFFFFFFFFFFFFFFFFFFFFFFFFFFFFFFFFFFFFFFFFFFFF
310
FFFFFFFFFFFFFFFFFFFFFFFFFFFFFFFFFFFFFFFFFFFFFFFFFFFFFFFFFFFFFFFF
310
FFFFFFFFFFFFFFFFFFFFFFFFFFFFFFFFFFFFFFFFFFFFFFFFF000FFFFFFFFFFFF
310
FFFFFFFFFFFFFFFFFFFFFFFFFFFFFFFFFFFFFFFFFFFFFFFFFFFFFFFFFFFFFFFF
310
FFFFFFFFFFFFFFFFFFFFFFFFFFFFFFFFFFFFFFFFFFFFFFFFFFFFFFFFFFFFFFFF
310
FFFFFFFFFFFFFFFFFFFFFFFFFFFFFFFFF000FFFFFFFFFFFFFFFFFFFFFFFFFFFF
310
FFFFFFFFFFFFFFFFFFFFFFFFFFFFFFFFFFFFFFFFFFFFFFFFFFFFFFFFFFFFFFFF
310
FFFFFFFFFFFFFFFFFFFFFFFFFFFFFFFFFFFFFFFFFFFFFFFFFFFFFFFFFFFFFFFF
310
FFFFFFFFFFFFFFFFF000FFFFFFFFFFFFFFFFFFFFFFFFFFFFFFFFFFFFFFFFFFFF
310
FFFFFFFFFFFFFFFFFFFFFFFFFFFFFFFFFFFFFFFFFFFFFFFFFFFFFFFFFFFFFFFF
310
FFFFFFFFFFFFFFFFFFFFFFFFFFFFFFFFFFFFFFFFFFFFFFFFFFFFFFFFFFFFFFFF
310
F000FFFFFFFFFFFFFFFFFFFFFFFFFFFFFFFFFFFFFFFFFFFFFFFFFFFFFFFFFFFF
310
FFFFFFFFFFFFFFFFFFFFFFFFFFFFFFFFFFFFFFFFFFFFFFFFFFFFFFFFFFFFFFFF
310
FFFFFFFFFFFFFFFFFFFFFFFFFFFFFFFFFFFFFFFFFFFFFFFFF000FFFFFFFFFFFF
310
FFFFFFFFFFFFFFFFFFFFFFFFFFFFFFFFFFFFFFFFFFFFFFFFFFFFFFFFFFFFFFFF
310
FFFFFFFFFFFFFFFFFFFFFFFFFFFFFFFFFFFFFFFFFFFFFFFFFFFFFFFFFFFFFFFF
310
FFFFFFFFFFFFFFFFFFFFFFFFFFFFFFFFF000FFFFFFFFFFFFFFFFFFFFFFFFFFFF
310
FFFFFFFFFFFFFFFFFFFFFFFFFFFFFFFFFFFFFFFFFFFFFFFFFFFFFFFFFFFFFFFF
310
FFFFFFFFFFFFFFFFFFFFFFFFFFFFFFFFFFFFFFFFFFFFFFFFFFFFFFFFFFFFFFFF
310
FFFFFFFFFFFFFFFFF000FFFFFFFFFFFFFFFFFFFFFFFFFFFFFFFFFFFFFFFFFFFF
310
FFFFFFFFFFFFFFFFFFFFFFFFFFFFFFFFFFFFFFFFFFFFFFFFFFFFFFFFFFFFFFFF
310
FFFFFFFFFFFFFFFFFFFFFFFFFFFFFFFFFFFFFFFFFFFFFFFFFFFFFFFFFFFFFFFF
310
F000FFFFFFFFFFFFFFFFFFFFFFFFFFFFFFFFFFFFFFFFFFFFFFFFFFFFFFFFFFFF
310
FFFFFFFFFFFFFFFFFFFFFFFFFFFFFFFFFFFFFFFFFFFFFFFFFFFFFFFFFFFFFFFF
310
FFFFFFFFFFFFFFFFFFFFFFFFFFFFFFFFFFFFFFFFFFFFFFFFF000FFFFFFFFFFFF
310
FFFFFFFFFFFFFFFFFFFFFFFFFFFFFFFFFFFFFFFFFFFFFFFFFFFFFFFFFFFFFFFF
310
FFFFFFFFFFFFFFFFFFFFFFFFFFFFFFFFFFFFFFFFFFFFFFFFFFFFFFFFFFFFFFFF
310
FFFFFFFFFFFFFFFFFFFFFFFFFFFFFFFFF000FFFFFFFFFFFFFFFFFFFFFFFFFFFF
310
FFFFFFFFFFFFFFFFFFFFFFFFFFFFFFFFFFFFFFFFFFFFFFFFFFFFFFFFFFFFFFFF
310
FFFFFFFFFFFFFFFFFFFFFFFFFFFFFFFFFFFFFFFFFFFFFFFFFFFFFFFFFFFFFFFF
310
FFFFFFFFFFFFFFFFF000FFFFFFFFFFFFFFFFFFFFFFFFFFFFFFFFFFFFFFFFFFFF
310
FFFFFFFFFFFFFFFFFFFFFFFFFFFFFFFFFFFFFFFFFFFFFFFFFFFFFFFFFFFFFFFF
310
FFFFFFFFFFFFFFFFFFFFFFFFFFFFFFFFFFFFFFFFFFFFFFFFFFFFFFFFFFFFFFFF
310
F000FFFFFFFFFFFFFFFFFFFFFFFFFFFFFFFFFFFFFFFFFFFFFFFFFFFFFFFFFFFF
310
FFFFFFFFFFFFFFFFFFFFFFFFFFFFFFFFFFFFFFFFFFFFFFFFFFFFFFFFFFFFFFFF
310
FFFFFFFFFFFFFFFFFFFFFFFFFFFFFFFFFFFFFFFFFFFFFFFFF000FFFFFFFFFFFF
310
FFFFFFFFFFFFFFFFFFFFFFFFFFFFFFFFFFFFFFFFFFFFFFFFFFFFFFFFFFFFFFFF
310
FFFFFFFFFFFFFFFFFFFFFFFFFFFFFFFFFFFFFFFFFFFFFFFFFFFFFFFFFFFFFFFF
310
FFFFFFFFFFFFFFFFFFFFFFFFFFFFFFFFF000FFFFFFFFFFFFFFFFFFFFFFFFFFFF
310
FFFFFFFFFFFFFFFFFFFFFFFFFFFFFFFFFFFFFFFFFFFFFFFFFFFFFFFFFFFFFFFF
310
FFFFFFFFFFFFFFFFFFFFFFFFFFFFFFFFFFFFFFFFFFFFFFFFFFFFFFFFFFFFFFFF
310
FFFFFFFFFFFFFFFFF000FFFFFFFFFFFFFFFFFFFFFFFFFFFFFFFFFFFFFFFFFFFF
310
FFFFFFFFFFFFFFFFFFFFFFFFFFFFFFFFFFFFFFFFFFFFFFFFFFFFFFFFFFFFFFFF
310
FFFFFFFFFFFFFFFFFFFFFFFFFFFFFFFFFFFFFFFFFFFFFFFFFFFFFFFFFFFFFFFF
310
F000FFFFFFFFFFFFFFFFFFFFFFFFFFFFFFFFFFFFFFFFFFFFFFFFFFFFFFFFFFFF
310
FFFFFFFFFFFFFFFFFFFFFFFFFFFFFFFFFFFFFFFFFFFFFFFFFFFFFFFFFFFFFFFF
310
FFFFFFFFFFFFFFFFFFFFFFFFFFFFFFFFFFFFFFFFFFFFFFFFF000FFFFFFFFFFFF
310
FFFFFFFFFFFFFFFFFFFFFFFFFFFFFFFFFFFFFFFFFFFFFFFFFFFFFFFFFFFFFFFF
310
FFFFFFFFFFFFFFFFFFFFFFFFFFFFFFFFFFFFFFFFFFFFFFFFFFFFFFFFFFFFFFFF
310
FFFFFFFFFFFFFFFFFFFFFFFFFFFFFFFFF000FFFFFFFFFFFFFFFFFFFFFFFFFFFF
310
FFFFFFFFFFFFFFFFFFFFFFFFFFFFFFFFFFFFFFFFFFFFFFFFFFFFFFFFFFFFFFFF
310
FFFFFFFFFFFFFFFFFFFFFFFFFFFFFFFFFFFFFFFFFFFFFFFFFFFFFFFFFFFFFFFF
310
FFFFFFFFFFFFFFFFF000FFFFFFFFFFFFFFFFFFFFFFFFFFFFFFFFFFFFFFFFFFFF
310
FFFFFFFFFFFFFFFFFFFFFFFFFFFFFFFFFFFFFFFFFFFFFFFFFFFFFFFFFFFFFFFF
310
FFFFFFFFFFFFFFFFFFFFFFFFFFFFFFFFFFFFFFFFFFFFFFFFFFFFFFFFFFFFFFFF
310
F000FFFFFFFFFFFFFFFFFFFFFFFFFFFFFFFFFFFFFFFFFFFFFFFFFFFFFFFFFFFF
310
FFFFFFFFFFFFFFFFFFFFFFFFFFFFFFFFFFFFFFFFFFFFFFFFFFFFFFFFFFFFFFFF
310
FFFFFFFFFFFFFFFFFFFFFFFFFFFFFFFFFFFFFFFFFFFFFFFFF000FFFFFFFFFFFF
310
FFFFFFFFFFFFFFFFFFFFFFFFFFFFFFFFFFFFFFFFFFFFFFFFFFFFFFFFFFFFFFFF
310
FFFFFFFFFFFFFFFFFFFFFFFFFFFFFFFFFFFFFFFFFFFFFFFFFFFFFFFFFFFFFFFF
310
FFFFFFFFFFFFFFFFFFFFFFFFFFFFFFFFF0000000000000000000000000000000
310
0000000000000000000000000000000000000000000000000000000000000000
310
0000000000000000000000000000000000000000000000000000000000000000
310
0000000000000000000000000000000000000000000000000000000000000000
310
0000000000000000000000000000000000000000000000000000000000000000
310
0000000000000000000000000000000000000000000000000000000000000000
310
0000000000000000000000000000000000000000000000000000000000000000
310
0000000000000000000000000000000000000000000000000000000000000000
310
0000000000000000000000000000000000000000000000000000000000000000
310
0000000000000000000000000000000000000000000000000000000000000000
310
0000000000000000000000000000000000000000000000000000000000000000
310
0000000000000000000000000000000000000000000000000000000000000000
310
0000000000000000000000000000000000000000000000000000000000000000
310
0000000000000000000000000000000000000000000000000000000000000000
310
0000000000000000000000000000000000000000000000000000000000000000
310
0000000000000000000000000000000000000000000000000000000000000000
  1
OLE
  0
ENDSEC
  0
SECTION
  2
OBJECTS
  0
DICTIONARY
  5
C
330
0
100
AcDbDictionary
281
     1
  3
ACAD_GROUP
350
D
  3
ACAD_LAYOUT
350
1A
  3
ACAD_MLINESTYLE
350
17
  3
ACAD_PLOTSETTINGS
350
19
  3
ACAD_PLOTSTYLENAME
350
E
  3
ACAD_SCALELIST
350
47
  0
DICTIONARY
  5
D
102
{ACAD_REACTORS
330
C
102
}
330
C
100
AcDbDictionary
281
     1
  0
DICTIONARY
  5
1A
102
{ACAD_REACTORS
330
C
102
}
330
C
100
AcDbDictionary
281
     1
  3
Layout1
350
1E
  3
Layout2
350
26
  3
Model
350
22
  0
DICTIONARY
  5
17
102
{ACAD_REACTORS
330
C
102
}
330
C
100
AcDbDictionary
281
     1
  3
Standard
350
18
  0
DICTIONARY
  5
19
102
{ACAD_REACTORS
330
C
102
}
330
C
100
AcDbDictionary
281
     1
  0
ACDBDICTIONARYWDFLT
  5
E
102
{ACAD_REACTORS
330
C
102
}
330
C
100
AcDbDictionary
281
     1
  3
Normal
350
F
100
AcDbDictionaryWithDefault
340
F
  0
DICTIONARY
  5
47
102
{ACAD_REACTORS
330
C
102
}
330
C
100
AcDbDictionary
281
     1
  3
A0
350
48
  3
A1
350
49
  3
A2
350
4A
  3
A3
350
4B
  3
A4
350
4C
  3
A5
350
4D
  3
A6
350
4E
  3
A7
350
4F
  3
A8
350
50
  3
A9
350
51
  3
B0
350
52
  3
B1
350
53
  3
B2
350
54
  3
B3
350
55
  3
B4
350
56
  3
B5
350
57
  3
B6
350
58
  3
B7
350
59
  3
B8
350
5A
  3
B9
350
5B
  3
C0
350
5C
  3
C1
350
5D
  3
C2
350
5E
  3
C3
350
5F
  3
C4
350
60
  3
C5
350
61
  3
C6
350
62
  3
C7
350
63
  3
C8
350
64
  3
C9
350
65
  3
D0
350
66
  3
D1
350
67
  3
D2
350
68
  0
LAYOUT
  5
1E
102
{ACAD_REACTORS
330
1A
102
}
330
1A
100
AcDbPlotSettings
  1

  2
none_device
  4

  6

 40
0.0
 41
0.0
 42
0.0
 43
0.0
 44
0.0
 45
0.0
 46
0.0
 47
0.0
 48
0.0
 49
0.0
140
0.0
141
0.0
142
1.0
143
1.0
 70
   688
 72
     1
 73
     0
 74
     5
  7

 75
    16
147
1.0
148
0.0
149
0.0
100
AcDbLayout
  1
Layout1
 70
     1
 71
     1
 10
0.0
 20
0.0
 11
420.0
 21
297.0
 12
0.0
 22
0.0
 32
0.0
 14
1.0000000000E+20
 24
1.0000000000E+20
 34
1.0000000000E+20
 15
-1.0000000000E+20
 25
-1.0000000000E+20
 35
-1.0000000000E+20
146
0.0
 13
0.0
 23
0.0
 33
0.0
 16
1.0
 26
0.0
 36
0.0
 17
0.0
 27
1.0
 37
0.0
 76
     0
330
1B
  0
LAYOUT
  5
26
102
{ACAD_REACTORS
330
1A
102
}
330
1A
100
AcDbPlotSettings
  1

  2
none_device
  4

  6

 40
0.0
 41
0.0
 42
0.0
 43
0.0
 44
0.0
 45
0.0
 46
0.0
 47
0.0
 48
0.0
 49
0.0
140
0.0
141
0.0
142
1.0
143
1.0
 70
   688
 72
     1
 73
     0
 74
     5
  7

 75
    16
147
1.0
148
0.0
149
0.0
100
AcDbLayout
  1
Layout2
 70
     1
 71
     2
 10
0.0
 20
0.0
 11
0.0
 21
0.0
 12
0.0
 22
0.0
 32
0.0
 14
0.0
 24
0.0
 34
0.0
 15
0.0
 25
0.0
 35
0.0
146
0.0
 13
0.0
 23
0.0
 33
0.0
 16
1.0
 26
0.0
 36
0.0
 17
0.0
 27
1.0
 37
0.0
 76
     0
330
23
  0
LAYOUT
  5
22
102
{ACAD_REACTORS
330
1A
102
}
330
1A
100
AcDbPlotSettings
  1

  2
none_device
  4
Letter_(8.50_x_11.00_Inches)
  6

 40
6.35
 41
6.35
 42
6.35000508
 43
6.35000508
 44
215.9
 45
279.4
 46
0.0
 47
0.0
 48
0.0
 49
0.0
140
0.0
141
0.0
142
1.0
143
1.0
 70
  1712
 72
     1
 73
     0
 74
     0
  7

 75
     0
147
1.0
148
0.0
149
0.0
100
AcDbLayout
  1
Model
 70
     1
 71
     0
 10
0.0
 20
0.0
 11
297.0
 21
210.0
 12
0.0
 22
0.0
 32
0.0
 14
0.0
 24
0.0
 34
0.0
 15
297.0
 25
210.0
 35
0.0
146
0.0
 13
0.0
 23
0.0
 33
0.0
 16
1.0
 26
0.0
 36
0.0
 17
0.0
 27
1.0
 37
0.0
 76
     0
330
1F
331
29
  0
MLINESTYLE
  5
18
102
{ACAD_REACTORS
330
17
102
}
330
17
100
AcDbMlineStyle
  2
Standard
 70
     0
  3

 62
   256
 51
90.0
 52
90.0
 71
     2
 49
0.5
 62
   256
  6
BYLAYER
 49
-0.5
 62
   256
  6
BYLAYER
  0
ACDBPLACEHOLDER
  5
F
102
{ACAD_REACTORS
330
E
102
}
330
E
  0
SCALE
  5
48
102
{ACAD_REACTORS
330
47
102
}
330
47
100
AcDbScale
 70
     0
300
1:1
140
1.0
141
1.0
290
     1
  0
SCALE
  5
49
102
{ACAD_REACTORS
330
47
102
}
330
47
100
AcDbScale
 70
     0
300
1:2
140
1.0
141
2.0
290
     0
  0
SCALE
  5
4A
102
{ACAD_REACTORS
330
47
102
}
330
47
100
AcDbScale
 70
     0
300
1:4
140
1.0
141
4.0
290
     0
  0
SCALE
  5
4B
102
{ACAD_REACTORS
330
47
102
}
330
47
100
AcDbScale
 70
     0
300
1:5
140
1.0
141
5.0
290
     0
  0
SCALE
  5
4C
102
{ACAD_REACTORS
330
47
102
}
330
47
100
AcDbScale
 70
     0
300
1:8
140
1.0
141
8.0
290
     0
  0
SCALE
  5
4D
102
{ACAD_REACTORS
330
47
102
}
330
47
100
AcDbScale
 70
     0
300
1:10
140
1.0
141
10.0
290
     0
  0
SCALE
  5
4E
102
{ACAD_REACTORS
330
47
102
}
330
47
100
AcDbScale
 70
     0
300
1:16
140
1.0
141
16.0
290
     0
  0
SCALE
  5
4F
102
{ACAD_REACTORS
330
47
102
}
330
47
100
AcDbScale
 70
     0
300
1:20
140
1.0
141
20.0
290
     0
  0
SCALE
  5
50
102
{ACAD_REACTORS
330
47
102
}
330
47
100
AcDbScale
 70
     0
300
1:30
140
1.0
141
30.0
290
     0
  0
SCALE
  5
51
102
{ACAD_REACTORS
330
47
102
}
330
47
100
AcDbScale
 70
     0
300
1:40
140
1.0
141
40.0
290
     0
  0
SCALE
  5
52
102
{ACAD_REACTORS
330
47
102
}
330
47
100
AcDbScale
 70
     0
300
1:50
140
1.0
141
50.0
290
     0
  0
SCALE
  5
53
102
{ACAD_REACTORS
330
47
102
}
330
47
100
AcDbScale
 70
     0
300
1:100
140
1.0
141
100.0
290
     0
  0
SCALE
  5
54
102
{ACAD_REACTORS
330
47
102
}
330
47
100
AcDbScale
 70
     0
300
2:1
140
2.0
141
1.0
290
     0
  0
SCALE
  5
55
102
{ACAD_REACTORS
330
47
102
}
330
47
100
AcDbScale
 70
     0
300
4:1
140
4.0
141
1.0
290
     0
  0
SCALE
  5
56
102
{ACAD_REACTORS
330
47
102
}
330
47
100
AcDbScale
 70
     0
300
8:1
140
8.0
141
1.0
290
     0
  0
SCALE
  5
57
102
{ACAD_REACTORS
330
47
102
}
330
47
100
AcDbScale
 70
     0
300
10:1
140
10.0
141
1.0
290
     0
  0
SCALE
  5
58
102
{ACAD_REACTORS
330
47
102
}
330
47
100
AcDbScale
 70
     0
300
100:1
140
100.0
141
1.0
290
     0
  0
SCALE
  5
59
102
{ACAD_REACTORS
330
47
102
}
330
47
100
AcDbScale
 70
     0
300
1/128" = 1'-0"
140
0.0078125
141
12.0
290
     0
  0
SCALE
  5
5A
102
{ACAD_REACTORS
330
47
102
}
330
47
100
AcDbScale
 70
     0
300
1/64" = 1'-0"
140
0.015625
141
12.0
290
     0
  0
SCALE
  5
5B
102
{ACAD_REACTORS
330
47
102
}
330
47
100
AcDbScale
 70
     0
300
1/32" = 1'-0"
140
0.03125
141
12.0
290
     0
  0
SCALE
  5
5C
102
{ACAD_REACTORS
330
47
102
}
330
47
100
AcDbScale
 70
     0
300
1/16" = 1'-0"
140
0.0625
141
12.0
290
     0
  0
SCALE
  5
5D
102
{ACAD_REACTORS
330
47
102
}
330
47
100
AcDbScale
 70
     0
300
3/32" = 1'-0"
140
0.09375
141
12.0
290
     0
  0
SCALE
  5
5E
102
{ACAD_REACTORS
330
47
102
}
330
47
100
AcDbScale
 70
     0
300
1/8" = 1'-0"
140
0.125
141
12.0
290
     0
  0
SCALE
  5
5F
102
{ACAD_REACTORS
330
47
102
}
330
47
100
AcDbScale
 70
     0
300
3/16" = 1'-0"
140
0.1875
141
12.0
290
     0
  0
SCALE
  5
60
102
{ACAD_REACTORS
330
47
102
}
330
47
100
AcDbScale
 70
     0
300
1/4" = 1'-0"
140
0.25
141
12.0
290
     0
  0
SCALE
  5
61
102
{ACAD_REACTORS
330
47
102
}
330
47
100
AcDbScale
 70
     0
300
3/8" = 1'-0"
140
0.375
141
12.0
290
     0
  0
SCALE
  5
62
102
{ACAD_REACTORS
330
47
102
}
330
47
100
AcDbScale
 70
     0
300
1/2" = 1'-0"
140
0.5
141
12.0
290
     0
  0
SCALE
  5
63
102
{ACAD_REACTORS
330
47
102
}
330
47
100
AcDbScale
 70
     0
300
3/4" = 1'-0"
140
0.75
141
12.0
290
     0
  0
SCALE
  5
64
102
{ACAD_REACTORS
330
47
102
}
330
47
100
AcDbScale
 70
     0
300
1" = 1'-0"
140
1.0
141
12.0
290
     0
  0
SCALE
  5
65
102
{ACAD_REACTORS
330
47
102
}
330
47
100
AcDbScale
 70
     0
300
1-1/2" = 1'-0"
140
1.5
141
12.0
290
     0
  0
SCALE
  5
66
102
{ACAD_REACTORS
330
47
102
}
330
47
100
AcDbScale
 70
     0
300
3" = 1'-0"
140
3.0
141
12.0
290
     0
  0
SCALE
  5
67
102
{ACAD_REACTORS
330
47
102
}
330
47
100
AcDbScale
 70
     0
300
6" = 1'-0"
140
6.0
141
12.0
290
     0
  0
SCALE
  5
68
102
{ACAD_REACTORS
330
47
102
}
330
47
100
AcDbScale
 70
     0
300
1'-0" = 1'-0"
140
12.0
141
12.0
290
     0
  0
ENDSEC
  0
EOF
