  0
SECTION
  2
HEADER
  9
$ACADVER
  1
AC1015
  9
$ACADMAINTVER
 70
     6
  9
$DWGCODEPAGE
  3
ANSI_1252
  9
$INSBASE
 10
0.0
 20
0.0
 30
0.0
  9
$EXTMIN
 10
0.0
 20
0.0
 30
0.0
  9
$EXTMAX
 10
297.0
 20
210.0
 30
0.0
  9
$LIMMIN
 10
0.0
 20
0.0
  9
$LIMMAX
 10
297.0
 20
210.0
  9
$ORTHOMODE
 70
     0
  9
$REGENMODE
 70
     1
  9
$FILLMODE
 70
     1
  9
$QTEXTMODE
 70
     0
  9
$MIRRTEXT
 70
     1
  9
$LTSCALE
 40
1.0
  9
$ATTMODE
 70
     1
  9
$TEXTSIZE
 40
2.0
  9
$TRACEWID
 40
1.0
  9
$TEXTSTYLE
  7
Standard
  9
$CLAYER
  8
0
  9
$CELTYPE
  6
ByLayer
  9
$CECOLOR
 62
   256
  9
$CELTSCALE
 40
1.0
  9
$DISPSILH
 70
     0
  9
$DIMSCALE
 40
1.0
  9
$DIMASZ
 40
3.0
  9
$DIMEXO
 40
0.0
  9
$DIMDLI
 40
3.75
  9
$DIMRND
 40
0.0
  9
$DIMDLE
 40
0.0
  9
$DIMEXE
 40
1.0
  9
$DIMTP
 40
0.0
  9
$DIMTM
 40
0.0
  9
$DIMTXT
 40
2.0
  9
$DIMCEN
 40
2.5
  9
$DIMTSZ
 40
0.0
  9
$DIMTOL
 70
     0
  9
$DIMLIM
 70
     0
  9
$DIMTIH
 70
     1
  9
$DIMTOH
 70
     1
  9
$DIMSE1
 70
     0
  9
$DIMSE2
 70
     0
  9
$DIMTAD
 70
     1
  9
$DIMZIN
 70
     0
  9
$DIMBLK
  1

  9
$DIMASO
 70
     1
  9
$DIMSHO
 70
     1
  9
$DIMPOST
  1

  9
$DIMAPOST
  1

  9
$DIMALT
 70
     0
  9
$DIMALTD
 70
     3
  9
$DIMALTF
 40
0.0393700787
  9
$DIMLFAC
 40
5.0
  9
$DIMTOFL
 70
     1
  9
$DIMTVP
 40
0.0
  9
$DIMTIX
 70
     0
  9
$DIMSOXD
 70
     0
  9
$DIMSAH
 70
     0
  9
$DIMBLK1
  1

  9
$DIMBLK2
  1

  9
$DIMSTYLE
  2
ISO-25
  9
$DIMCLRD
 70
     0
  9
$DIMCLRE
 70
     0
  9
$DIMCLRT
 70
     0
  9
$DIMTFAC
 40
1.0
  9
$DIMGAP
 40
1.524
  9
$DIMJUST
 70
     0
  9
$DIMSD1
 70
     0
  9
$DIMSD2
 70
     0
  9
$DIMTOLJ
 70
     0
  9
$DIMTZIN
 70
     0
  9
$DIMALTZ
 70
     0
  9
$DIMALTTZ
 70
     0
  9
$DIMUPT
 70
     0
  9
$DIMDEC
 70
     2
  9
$DIMTDEC
 70
     3
  9
$DIMALTU
 70
     2
  9
$DIMALTTD
 70
     3
  9
$DIMTXSTY
  7
Standard
  9
$DIMAUNIT
 70
     0
  9
$DIMADEC
 70
     2
  9
$DIMALTRND
 40
0.0
  9
$DIMAZIN
 70
     0
  9
$DIMDSEP
 70
    44
  9
$DIMATFIT
 70
     3
  9
$DIMFRAC
 70
     0
  9
$DIMLDRBLK
  1

  9
$DIMLUNIT
 70
     2
  9
$DIMLWD
 70
    -2
  9
$DIMLWE
 70
    -2
  9
$DIMTMOVE
 70
     0
  9
$LUNITS
 70
     2
  9
$LUPREC
 70
     2
  9
$SKETCHINC
 40
1.0
  9
$FILLETRAD
 40
10.0
  9
$AUNITS
 70
     0
  9
$AUPREC
 70
     2
  9
$MENU
  1
.
  9
$ELEVATION
 40
0.0
  9
$PELEVATION
 40
0.0
  9
$THICKNESS
 40
0.0
  9
$LIMCHECK
 70
     0
  9
$CHAMFERA
 40
0.0
  9
$CHAMFERB
 40
0.0
  9
$CHAMFERC
 40
0.0
  9
$CHAMFERD
 40
0.0
  9
$SKPOLY
 70
     0
  9
$TDCREATE
 40
2458166.519027535
  9
$TDUCREATE
 40
2458166.477360868
  9
$TDUPDATE
 40
2458166.519029178
  9
$TDUUPDATE
 40
2458166.477362512
  9
$TDINDWG
 40
0.0000000116
  9
$TDUSRTIMER
 40
0.0000000116
  9
$USRTIMER
 70
     1
  9
$ANGBASE
 50
0.0
  9
$ANGDIR
 70
     0
  9
$PDMODE
 70
     0
  9
$PDSIZE
 40
-1.0
  9
$PLINEWID
 40
0.0
  9
$SPLFRAME
 70
     0
  9
$SPLINETYPE
 70
     6
  9
$SPLINESEGS
 70
     8
  9
$HANDSEED
  5
27B
  9
$SURFTAB1
 70
     6
  9
$SURFTAB2
 70
     6
  9
$SURFTYPE
 70
     6
  9
$SURFU
 70
     6
  9
$SURFV
 70
     6
  9
$UCSBASE
  2

  9
$UCSNAME
  2

  9
$UCSORG
 10
0.0
 20
0.0
 30
0.0
  9
$UCSXDIR
 10
1.0
 20
0.0
 30
0.0
  9
$UCSYDIR
 10
0.0
 20
1.0
 30
0.0
  9
$UCSORTHOREF
  2

  9
$UCSORTHOVIEW
 70
     0
  9
$UCSORGTOP
 10
0.0
 20
0.0
 30
0.0
  9
$UCSORGBOTTOM
 10
0.0
 20
0.0
 30
0.0
  9
$UCSORGLEFT
 10
0.0
 20
0.0
 30
0.0
  9
$UCSORGRIGHT
 10
0.0
 20
0.0
 30
0.0
  9
$UCSORGFRONT
 10
0.0
 20
0.0
 30
0.0
  9
$UCSORGBACK
 10
0.0
 20
0.0
 30
0.0
  9
$PUCSBASE
  2

  9
$PUCSNAME
  2

  9
$PUCSORG
 10
0.0
 20
0.0
 30
0.0
  9
$PUCSXDIR
 10
1.0
 20
0.0
 30
0.0
  9
$PUCSYDIR
 10
0.0
 20
1.0
 30
0.0
  9
$PUCSORTHOREF
  2

  9
$PUCSORTHOVIEW
 70
     0
  9
$PUCSORGTOP
 10
0.0
 20
0.0
 30
0.0
  9
$PUCSORGBOTTOM
 10
0.0
 20
0.0
 30
0.0
  9
$PUCSORGLEFT
 10
0.0
 20
0.0
 30
0.0
  9
$PUCSORGRIGHT
 10
0.0
 20
0.0
 30
0.0
  9
$PUCSORGFRONT
 10
0.0
 20
0.0
 30
0.0
  9
$PUCSORGBACK
 10
0.0
 20
0.0
 30
0.0
  9
$USERI1
 70
     0
  9
$USERI2
 70
     0
  9
$USERI3
 70
     0
  9
$USERI4
 70
     0
  9
$USERI5
 70
     0
  9
$USERR1
 40
0.0
  9
$USERR2
 40
0.0
  9
$USERR3
 40
0.0
  9
$USERR4
 40
0.0
  9
$USERR5
 40
0.0
  9
$WORLDVIEW
 70
     1
  9
$SHADEDGE
 70
     3
  9
$SHADEDIF
 70
    70
  9
$TILEMODE
 70
     1
  9
$MAXACTVP
 70
    64
  9
$PINSBASE
 10
0.0
 20
0.0
 30
0.0
  9
$PLIMCHECK
 70
     0
  9
$PEXTMIN
 10
1.0000000000E+20
 20
1.0000000000E+20
 30
1.0000000000E+20
  9
$PEXTMAX
 10
-1.0000000000E+20
 20
-1.0000000000E+20
 30
-1.0000000000E+20
  9
$PLIMMIN
 10
0.0
 20
0.0
  9
$PLIMMAX
 10
420.0
 20
297.0
  9
$UNITMODE
 70
     0
  9
$VISRETAIN
 70
     1
  9
$PLINEGEN
 70
     0
  9
$PSLTSCALE
 70
     1
  9
$TREEDEPTH
 70
  3020
  9
$CMLSTYLE
  2
Standard
  9
$CMLJUST
 70
     0
  9
$CMLSCALE
 40
20.0
  9
$PROXYGRAPHICS
 70
     1
  9
$MEASUREMENT
 70
     1
  9
$CELWEIGHT
370
    -1
  9
$ENDCAPS
280
     0
  9
$JOINSTYLE
280
     0
  9
$LWDISPLAY
290
     1
  9
$INSUNITS
 70
     4
  9
$HYPERLINKBASE
  1

  9
$STYLESHEET
  1

  9
$XEDIT
290
     1
  9
$CEPSNTYPE
380
     0
  9
$PSTYLEMODE
290
     1
  9
$FINGERPRINTGUID
  2
{5DB00712-B315-42B8-8989-740319CA8259}
  9
$VERSIONGUID
  2
{FAEB1C32-E019-11D5-929B-00C0DF256EC4}
  9
$EXTNAMES
290
     1
  9
$PSVPSCALE
 40
0.0
  9
$OLESTARTUP
290
     0
  0
ENDSEC
  0
SECTION
  2
CLASSES
  0
CLASS
  1
ACDBDICTIONARYWDFLT
  2
AcDbDictionaryWithDefault
  3
ObjectDBX Classes
 90
        0
280
     0
281
     0
  0
CLASS
  1
VISUALSTYLE
  2
AcDbVisualStyle
  3
ObjectDBX Classes
 90
     4095
280
     0
281
     0
  0
CLASS
  1
MATERIAL
  2
AcDbMaterial
  3
ObjectDBX Classes
 90
     1153
280
     0
281
     0
  0
CLASS
  1
SCALE
  2
AcDbScale
  3
ObjectDBX Classes
 90
     1153
280
     0
281
     0
  0
CLASS
  1
TABLESTYLE
  2
AcDbTableStyle
  3
ObjectDBX Classes
 90
     4095
280
     0
281
     0
  0
CLASS
  1
MLEADERSTYLE
  2
AcDbMLeaderStyle
  3
ACDB_MLEADERSTYLE_CLASS
 90
     4095
280
     0
281
     0
  0
CLASS
  1
SUN
  2
AcDbSun
  3
SCENEOE
 90
     1153
280
     0
281
     0
  0
CLASS
  1
ACDBPLACEHOLDER
  2
AcDbPlaceHolder
  3
ObjectDBX Classes
 90
        0
280
     0
281
     0
  0
CLASS
  1
LAYOUT
  2
AcDbLayout
  3
ObjectDBX Classes
 90
        0
280
     0
281
     0
  0
ENDSEC
  0
SECTION
  2
TABLES
  0
TABLE
  2
VPORT
  5
8
330
0
100
AcDbSymbolTable
 70
     1
  0
VPORT
  5
29
330
8
100
AcDbSymbolTableRecord
100
AcDbViewportTableRecord
  2
*Active
 70
     0
 10
0.0
 20
0.0
 11
1.0
 21
1.0
 12
148.5
 22
105.0
 13
0.0
 23
0.0
 14
10.0
 24
10.0
 15
10.0
 25
10.0
 16
0.0
 26
0.0
 36
1.0
 17
0.0
 27
0.0
 37
0.0
 40
210.0
 41
1.4142857143
 42
50.0
 43
0.0
 44
0.0
 50
0.0
 51
0.0
 71
     0
 72
  2000
 73
     1
 74
     3
 75
     0
 76
     0
 77
     0
 78
     0
281
     0
 65
     1
110
0.0
120
0.0
130
0.0
111
1.0
121
0.0
131
0.0
112
0.0
122
1.0
132
0.0
 79
     0
146
0.0
  0
ENDTAB
  0
TABLE
  2
LTYPE
  5
5
330
0
100
AcDbSymbolTable
 70
     6
  0
LTYPE
  5
14
330
5
100
AcDbSymbolTableRecord
100
AcDbLinetypeTableRecord
  2
ByBlock
 70
     0
  3

 72
    65
 73
     0
 40
0.0
  0
LTYPE
  5
15
330
5
100
AcDbSymbolTableRecord
100
AcDbLinetypeTableRecord
  2
ByLayer
 70
     0
  3

 72
    65
 73
     0
 40
0.0
  0
LTYPE
  5
16
330
5
100
AcDbSymbolTableRecord
100
AcDbLinetypeTableRecord
  2
Continuous
 70
     0
  3
Solid line
 72
    65
 73
     0
 40
0.0
  0
LTYPE
  5
6E
330
5
100
AcDbSymbolTableRecord
100
AcDbLinetypeTableRecord
  2
HIDDEN
 70
     0
  3
Hidden __ __ __ __ __ __ __ __ __ __ __ __ __ __
 72
    65
 73
     2
 40
1.905
 49
1.27
 74
     0
 49
-0.635
 74
     0
  0
LTYPE
  5
6F
330
5
100
AcDbSymbolTableRecord
100
AcDbLinetypeTableRecord
  2
PHANTOM
 70
     0
  3
Phantom ______  __  __  ______  __  __  ______
 72
    65
 73
     6
 40
12.7
 49
6.35
 74
     0
 49
-1.27
 74
     0
 49
1.27
 74
     0
 49
-1.27
 74
     0
 49
1.27
 74
     0
 49
-1.27
 74
     0
  0
LTYPE
  5
70
330
5
100
AcDbSymbolTableRecord
100
AcDbLinetypeTableRecord
  2
CENTER
 70
     0
  3
Center ____ _ ____ _ ____ _ ____ _ ____ _ ____
 72
    65
 73
     4
 40
10.16
 49
6.35
 74
     0
 49
-1.27
 74
     0
 49
1.27
 74
     0
 49
-1.27
 74
     0
  0
LTYPE
  5
71
330
5
100
AcDbSymbolTableRecord
100
AcDbLinetypeTableRecord
  2
CENTERX2
 70
     0
  3
Center (2x) ________  __  ________  __  _____
 72
    65
 73
     4
 40
20.32
 49
12.7
 74
     0
 49
-2.54
 74
     0
 49
2.54
 74
     0
 49
-2.54
 74
     0
  0
LTYPE
  5
72
330
5
100
AcDbSymbolTableRecord
100
AcDbLinetypeTableRecord
  2
DOT2
 70
     0
  3
Dot (.5x) ........................................
 72
    65
 73
     2
 40
0.635
 49
0.0
 74
     0
 49
-0.635
 74
     0
  0
ENDTAB
  0
TABLE
  2
LAYER
  5
2
330
0
100
AcDbSymbolTable
 70
     5
  0
LAYER
  5
10
330
2
100
AcDbSymbolTableRecord
100
AcDbLayerTableRecord
  2
0
 70
     0
 62
     7
  6
Continuous
370
    -3
390
F
  0
LAYER
  5
73
330
2
100
AcDbSymbolTableRecord
100
AcDbLayerTableRecord
  2
FORMAT
 70
     0
 62
     7
  6
Continuous
370
    -3
390
F
  0
LAYER
  5
74
330
2
100
AcDbSymbolTableRecord
100
AcDbLayerTableRecord
  2
VERMASSUNG
 70
     0
 62
     7
  6
Continuous
370
    -3
390
F
  0
LAYER
  5
75
330
2
100
AcDbSymbolTableRecord
100
AcDbLayerTableRecord
  2
KOPF_DÜNN
 70
     0
 62
     7
  6
Continuous
370
    -3
390
F
  0
LAYER
  5
76
330
2
100
AcDbSymbolTableRecord
100
AcDbLayerTableRecord
  2
KOPF_DICK
 70
     0
 62
     7
  6
Continuous
370
    25
390
F
  0
ENDTAB
  0
TABLE
  2
STYLE
  5
3
330
0
100
AcDbSymbolTable
 70
     3
  0
STYLE
  5
11
330
3
100
AcDbSymbolTableRecord
100
AcDbTextStyleTableRecord
  2
Standard
 70
     0
 40
0.0
 41
1.0
 50
0.0
 71
     0
 42
2.0
  3
txt
  4

  0
STYLE
  5
77
330
3
100
AcDbSymbolTableRecord
100
AcDbTextStyleTableRecord
  2
SLDTEXTSTYLE0
 70
     0
 40
0.0
 41
0.7
 50
0.0
 71
     0
 42
2.0
  3
TXT
  4

  0
STYLE
  5
7B
330
3
100
AcDbSymbolTableRecord
100
AcDbTextStyleTableRecord
  2
SLDTEXTSTYLE1
 70
     0
 40
0.0
 41
0.6466666667
 50
0.0
 71
     0
 42
2.0
  3
TXT
  4

  0
ENDTAB
  0
TABLE
  2
VIEW
  5
6
330
0
100
AcDbSymbolTable
 70
     0
  0
ENDTAB
  0
TABLE
  2
UCS
  5
7
330
0
100
AcDbSymbolTable
 70
     0
  0
ENDTAB
  0
TABLE
  2
APPID
  5
9
330
0
100
AcDbSymbolTable
 70
     1
  0
APPID
  5
12
330
9
100
AcDbSymbolTableRecord
100
AcDbRegAppTableRecord
  2
ACAD
 70
     0
  0
ENDTAB
  0
TABLE
  2
DIMSTYLE
  5
A
330
0
100
AcDbSymbolTable
 70
     2
100
AcDbDimStyleTable
  0
DIMSTYLE
105
27
330
A
100
AcDbSymbolTableRecord
100
AcDbDimStyleTableRecord
  2
ISO-25
 70
     0
 41
2.5
 42
0.625
 43
3.75
 44
1.25
 73
     0
 74
     0
 77
     1
 78
     8
140
2.5
141
2.5
143
0.0393700787
147
0.625
171
     3
172
     1
178
     0
271
     2
272
     2
274
     3
278
    44
283
     0
284
     8
340
11
  0
DIMSTYLE
105
132
102
{ACAD_REACTORS
330
131
330
13D
330
148
330
153
330
15D
102
}
330
A
100
AcDbSymbolTableRecord
100
AcDbDimStyleTableRecord
  2
SLDDIMSTYLE0
 70
     0
 41
3.0
 44
0.0
 45
0.000000001
 73
     0
 74
     0
 77
     1
 78
    12
 79
     3
140
2.0
147
0.5
173
     1
178
     0
271
     2
272
     3
276
     2
284
    12
340
77
  0
ENDTAB
  0
TABLE
  2
BLOCK_RECORD
  5
1
330
0
100
AcDbSymbolTable
 70
     6
  0
BLOCK_RECORD
  5
1F
330
1
100
AcDbSymbolTableRecord
100
AcDbBlockTableRecord
  2
*Model_Space
340
22
  0
BLOCK_RECORD
  5
1B
330
1
100
AcDbSymbolTableRecord
100
AcDbBlockTableRecord
  2
*Paper_Space
340
1E
  0
BLOCK_RECORD
  5
23
330
1
100
AcDbSymbolTableRecord
100
AcDbBlockTableRecord
  2
*Paper_Space0
340
26
  0
BLOCK_RECORD
  5
133
330
1
100
AcDbSymbolTableRecord
100
AcDbBlockTableRecord
  2
_D
340
0
  0
BLOCK_RECORD
  5
13E
330
1
100
AcDbSymbolTableRecord
100
AcDbBlockTableRecord
  2
_D_1
340
0
  0
BLOCK_RECORD
  5
149
330
1
100
AcDbSymbolTableRecord
100
AcDbBlockTableRecord
  2
_D_2
340
0
  0
BLOCK_RECORD
  5
154
330
1
100
AcDbSymbolTableRecord
100
AcDbBlockTableRecord
  2
_D_3
340
0
  0
BLOCK_RECORD
  5
15E
330
1
100
AcDbSymbolTableRecord
100
AcDbBlockTableRecord
  2
_D_4
340
0
  0
ENDTAB
  0
ENDSEC
  0
SECTION
  2
BLOCKS
  0
BLOCK
  5
20
330
1F
100
AcDbEntity
  8
0
100
AcDbBlockBegin
  2
*Model_Space
 70
     0
 10
0.0
 20
0.0
 30
0.0
  3
*Model_Space
  1

  0
ENDBLK
  5
21
330
1F
100
AcDbEntity
  8
0
100
AcDbBlockEnd
  0
BLOCK
  5
1C
330
1B
100
AcDbEntity
 67
     1
  8
0
100
AcDbBlockBegin
  2
*Paper_Space
 70
     0
 10
0.0
 20
0.0
 30
0.0
  3
*Paper_Space
  1

  0
ENDBLK
  5
1D
330
1B
100
AcDbEntity
 67
     1
  8
0
100
AcDbBlockEnd
  0
BLOCK
  5
24
330
23
100
AcDbEntity
  8
0
100
AcDbBlockBegin
  2
*Paper_Space0
 70
     0
 10
0.0
 20
0.0
 30
0.0
  3
*Paper_Space0
  1

  0
ENDBLK
  5
25
330
23
100
AcDbEntity
  8
0
100
AcDbBlockEnd
  0
BLOCK
  5
134
330
133
100
AcDbEntity
  8
0
100
AcDbBlockBegin
  2
_D
 70
     0
 10
0.0
 20
0.0
 30
0.0
  3
_D
  1

  0
SOLID
  5
136
330
133
100
AcDbEntity
  8
VERMASSUNG
100
AcDbTrace
 10
291.7140623458
 20
95.5986280173
 30
0.0
 11
292.1640623458
 21
98.5986280173
 31
0.0
 12
291.2640623458
 22
98.5986280173
 32
0.0
 13
291.2640623458
 23
98.5986280173
 33
0.0
  0
SOLID
  5
137
330
133
100
AcDbEntity
  8
VERMASSUNG
100
AcDbTrace
 10
291.7140623458
 20
145.2986280173
 30
0.0
 11
291.2640623458
 21
142.2986280173
 31
0.0
 12
292.1640623458
 22
142.2986280173
 32
0.0
 13
292.1640623458
 23
142.2986280173
 33
0.0
  0
LINE
  5
138
330
133
100
AcDbEntity
  8
VERMASSUNG
100
AcDbLine
 10
266.3365628558
 20
95.5986280173
 30
0.0
 11
292.7140623458
 21
95.5986280173
 31
0.0
  0
LINE
  5
139
330
133
100
AcDbEntity
  8
VERMASSUNG
100
AcDbLine
 10
266.3365628558
 20
145.2986280173
 30
0.0
 11
292.7140623458
 21
145.2986280173
 31
0.0
  0
LINE
  5
13A
330
133
100
AcDbEntity
  8
VERMASSUNG
100
AcDbLine
 10
291.7140623458
 20
95.5986280173
 30
0.0
 11
291.7140623458
 21
145.2986280173
 31
0.0
  0
MTEXT
  5
13B
330
133
100
AcDbEntity
  8
VERMASSUNG
100
AcDbMText
 10
289.1359270409
 20
116.143628066
 30
0.0
 40
2.0
 41
0.0
 71
     1
 72
     1
  1
%%c
  7
SLDTEXTSTYLE0
 11
6.123233995736766E-17
 21
1.0
 31
0.0
 73
     1
 44
1.0
  0
MTEXT
  5
13C
330
133
100
AcDbEntity
  8
VERMASSUNG
100
AcDbMText
 10
288.9359270896
 20
119.7536280803
 30
0.0
 40
2.0
 41
0.0
 71
     1
 72
     1
  1
49.7
  7
SLDTEXTSTYLE0
 11
6.123233995736766E-17
 21
1.0
 31
0.0
 73
     1
 44
1.0
  0
ENDBLK
  5
135
330
133
100
AcDbEntity
  8
0
100
AcDbBlockEnd
  0
BLOCK
  5
13F
330
13E
100
AcDbEntity
  8
0
100
AcDbBlockBegin
  2
_D_1
 70
     0
 10
0.0
 20
0.0
 30
0.0
  3
_D_1
  1

  0
SOLID
  5
141
330
13E
100
AcDbEntity
  8
VERMASSUNG
100
AcDbTrace
 10
282.2467745118
 20
97.9486280173
 30
0.0
 11
282.6967745118
 21
100.9486280173
 31
0.0
 12
281.7967745118
 22
100.9486280173
 32
0.0
 13
281.7967745118
 23
100.9486280173
 33
0.0
  0
SOLID
  5
142
330
13E
100
AcDbEntity
  8
VERMASSUNG
100
AcDbTrace
 10
282.2467745118
 20
142.9486280173
 30
0.0
 11
281.7967745118
 21
139.9486280173
 31
0.0
 12
282.6967745118
 22
139.9486280173
 32
0.0
 13
282.6967745118
 23
139.9486280173
 33
0.0
  0
LINE
  5
143
330
13E
100
AcDbEntity
  8
VERMASSUNG
100
AcDbLine
 10
163.6640623458
 20
97.9486280173
 30
0.0
 11
283.2467745118
 21
97.9486280173
 31
0.0
  0
LINE
  5
144
330
13E
100
AcDbEntity
  8
VERMASSUNG
100
AcDbLine
 10
163.6640623458
 20
142.9486280173
 30
0.0
 11
283.2467745118
 21
142.9486280173
 31
0.0
  0
LINE
  5
145
330
13E
100
AcDbEntity
  8
VERMASSUNG
100
AcDbLine
 10
282.2467745118
 20
97.9486280173
 30
0.0
 11
282.2467745118
 21
142.9486280173
 31
0.0
  0
MTEXT
  5
146
330
13E
100
AcDbEntity
  8
VERMASSUNG
100
AcDbMText
 10
279.6686392069
 20
117.1436279971
 30
0.0
 40
2.0
 41
0.0
 71
     1
 72
     1
  1
%%c
  7
SLDTEXTSTYLE0
 11
6.123233995736766E-17
 21
1.0
 31
0.0
 73
     1
 44
1.0
  0
MTEXT
  5
147
330
13E
100
AcDbEntity
  8
VERMASSUNG
100
AcDbMText
 10
279.4686392556
 20
120.7536280114
 30
0.0
 40
2.0
 41
0.0
 71
     1
 72
     1
  1
45
  7
SLDTEXTSTYLE0
 11
6.123233995736766E-17
 21
1.0
 31
0.0
 73
     1
 44
1.0
  0
ENDBLK
  5
140
330
13E
100
AcDbEntity
  8
0
100
AcDbBlockEnd
  0
BLOCK
  5
14A
330
149
100
AcDbEntity
  8
0
100
AcDbBlockBegin
  2
_D_2
 70
     0
 10
0.0
 20
0.0
 30
0.0
  3
_D_2
  1

  0
SOLID
  5
14C
330
149
100
AcDbEntity
  8
VERMASSUNG
100
AcDbTrace
 10
9.5635929848
 20
170.4486280173
 30
0.0
 11
9.1135929848
 21
167.4486280173
 31
0.0
 12
10.0135929848
 22
167.4486280173
 32
0.0
 13
10.0135929848
 23
167.4486280173
 33
0.0
  0
SOLID
  5
14D
330
149
100
AcDbEntity
  8
VERMASSUNG
100
AcDbTrace
 10
9.5635929848
 20
70.4486280173
 30
0.0
 11
10.0135929848
 21
73.4486280173
 31
0.0
 12
9.1135929848
 22
73.4486280173
 32
0.0
 13
9.1135929848
 23
73.4486280173
 33
0.0
  0
LINE
  5
14E
330
149
100
AcDbEntity
  8
VERMASSUNG
100
AcDbLine
 10
70.2140623458
 20
170.4486280173
 30
0.0
 11
8.5635929848
 21
170.4486280173
 31
0.0
  0
LINE
  5
14F
330
149
100
AcDbEntity
  8
VERMASSUNG
100
AcDbLine
 10
70.2140623458
 20
70.4486280173
 30
0.0
 11
8.5635929848
 21
70.4486280173
 31
0.0
  0
LINE
  5
150
330
149
100
AcDbEntity
  8
VERMASSUNG
100
AcDbLine
 10
9.5635929848
 20
170.4486280173
 30
0.0
 11
9.5635929848
 21
70.4486280173
 31
0.0
  0
MTEXT
  5
151
330
149
100
AcDbEntity
  8
VERMASSUNG
100
AcDbMText
 10
6.9854576799
 20
116.7436279781
 30
0.0
 40
2.0
 41
0.0
 71
     1
 72
     1
  1
%%c
  7
SLDTEXTSTYLE0
 11
-7.044195017643634E-15
 21
1.0
 31
0.0
 73
     1
 44
1.0
  0
MTEXT
  5
152
330
149
100
AcDbEntity
  8
VERMASSUNG
100
AcDbMText
 10
6.7854577286
 20
120.3536279924
 30
0.0
 40
2.0
 41
0.0
 71
     1
 72
     1
  1
100
  7
SLDTEXTSTYLE0
 11
-7.044195017643634E-15
 21
1.0
 31
0.0
 73
     1
 44
1.0
  0
ENDBLK
  5
14B
330
149
100
AcDbEntity
  8
0
100
AcDbBlockEnd
  0
BLOCK
  5
155
330
154
100
AcDbEntity
  8
0
100
AcDbBlockBegin
  2
_D_3
 70
     0
 10
0.0
 20
0.0
 30
0.0
  3
_D_3
  1

  0
SOLID
  5
157
330
154
100
AcDbEntity
  8
VERMASSUNG
100
AcDbTrace
 10
69.7140623458
 20
182.767447007
 30
0.0
 11
72.7140623458
 21
182.317447007
 31
0.0
 12
72.7140623458
 22
183.217447007
 32
0.0
 13
72.7140623458
 23
183.217447007
 33
0.0
  0
SOLID
  5
158
330
154
100
AcDbEntity
  8
VERMASSUNG
100
AcDbTrace
 10
269.7140623458
 20
182.767447007
 30
0.0
 11
266.7140623458
 21
183.217447007
 31
0.0
 12
266.7140623458
 22
182.317447007
 32
0.0
 13
266.7140623458
 23
182.317447007
 33
0.0
  0
LINE
  5
159
330
154
100
AcDbEntity
  8
VERMASSUNG
100
AcDbLine
 10
69.7140623458
 20
169.9486280173
 30
0.0
 11
69.7140623458
 21
183.767447007
 31
0.0
  0
LINE
  5
15A
330
154
100
AcDbEntity
  8
VERMASSUNG
100
AcDbLine
 10
269.7140623458
 20
139.4486280173
 30
0.0
 11
269.7140623458
 21
183.767447007
 31
0.0
  0
LINE
  5
15B
330
154
100
AcDbEntity
  8
VERMASSUNG
100
AcDbLine
 10
69.7140623458
 20
182.767447007
 30
0.0
 11
269.7140623458
 21
182.767447007
 31
0.0
  0
MTEXT
  5
15C
330
154
100
AcDbEntity
  8
VERMASSUNG
100
AcDbMText
 10
167.6140624207
 20
185.3455826029
 30
0.0
 40
2.0
 41
0.0
 71
     1
 72
     1
  1
200
  7
SLDTEXTSTYLE0
 73
     1
 44
1.0
  0
ENDBLK
  5
156
330
154
100
AcDbEntity
  8
0
100
AcDbBlockEnd
  0
BLOCK
  5
15F
330
15E
100
AcDbEntity
  8
0
100
AcDbBlockBegin
  2
_D_4
 70
     0
 10
0.0
 20
0.0
 30
0.0
  3
_D_4
  1

  0
SOLID
  5
161
330
15E
100
AcDbEntity
  8
VERMASSUNG
100
AcDbTrace
 10
19.8140623458
 20
194.4093361163
 30
0.0
 11
22.8140623458
 21
193.9593361163
 31
0.0
 12
22.8140623458
 22
194.8593361163
 32
0.0
 13
22.8140623458
 23
194.8593361163
 33
0.0
  0
SOLID
  5
162
330
15E
100
AcDbEntity
  8
VERMASSUNG
100
AcDbTrace
 10
269.7140623458
 20
194.4093361163
 30
0.0
 11
266.7140623458
 21
194.8593361163
 31
0.0
 12
266.7140623458
 22
193.9593361163
 32
0.0
 13
266.7140623458
 23
193.9593361163
 33
0.0
  0
LINE
  5
163
330
15E
100
AcDbEntity
  8
VERMASSUNG
100
AcDbLine
 10
19.8140623458
 20
150.9512977599
 30
0.0
 11
19.8140623458
 21
195.4093361163
 31
0.0
  0
LINE
  5
164
330
15E
100
AcDbEntity
  8
VERMASSUNG
100
AcDbLine
 10
269.7140623458
 20
139.4486280173
 30
0.0
 11
269.7140623458
 21
195.4093361163
 31
0.0
  0
LINE
  5
165
330
15E
100
AcDbEntity
  8
VERMASSUNG
100
AcDbLine
 10
19.8140623458
 20
194.4093361163
 30
0.0
 11
269.7140623458
 21
194.4093361163
 31
0.0
  0
MTEXT
  5
166
330
15E
100
AcDbEntity
  8
VERMASSUNG
100
AcDbMText
 10
141.5640624267
 20
196.9874717123
 30
0.0
 40
2.0
 41
0.0
 71
     1
 72
     1
  1
249.9
  7
SLDTEXTSTYLE0
 73
     1
 44
1.0
  0
ENDBLK
  5
160
330
15E
100
AcDbEntity
  8
0
100
AcDbBlockEnd
  0
ENDSEC
  0
SECTION
  2
ENTITIES
  0
MTEXT
  5
78
330
1F
100
AcDbEntity
  8
KOPF_DÜNN
100
AcDbMText
 10
13.8892156294
 20
23.8442973028
 30
0.0
 40
3.0
 41
0.0
 71
     1
 72
     1
  1
HA0.E32.K01.200
  7
SLDTEXTSTYLE0
 73
     1
 44
1.0
  0
MTEXT
  5
79
330
1F
100
AcDbEntity
  8
VERMASSUNG
100
AcDbMText
 10
13.9329988022
 20
28.8834360957
 30
0.0
 40
3.0
 41
0.0
 71
     1
 72
     1
  1
Spannzangenfutter ER Typ S_Collet chuck ER type S
  7
SLDTEXTSTYLE0
 73
     1
 44
1.0
  0
MTEXT
  5
7A
330
1F
100
AcDbEntity
  8
VERMASSUNG
100
AcDbMText
 10
98.8601118557
 20
13.8365368761
 30
0.0
 40
2.0
 41
0.0
 71
     1
 72
     1
  1
Datum: 16.02.2018
  7
SLDTEXTSTYLE0
 73
     1
 44
1.0
  0
MTEXT
  5
7C
330
1F
100
AcDbEntity
  8
VERMASSUNG
100
AcDbMText
 10
13.933048693
 20
18.0482802738
 30
0.0
 40
2.0
 41
0.0
 71
     1
 72
     1
  1
HSK A 100 / Ø50
  7
SLDTEXTSTYLE1
 73
     1
 44
1.0
  0
MTEXT
  5
7D
330
1F
100
AcDbEntity
  8
VERMASSUNG
100
AcDbMText
 10
13.9808475933
 20
13.9090974274
 30
0.0
 40
2.0
 41
0.0
 71
     1
 72
     1
  1
Gewicht: 3672g
  7
SLDTEXTSTYLE0
 73
     1
 44
1.0
  0
LINE
  5
7E
330
1F
100
AcDbEntity
  8
0
  6
Continuous
 62
     7
370
    25
100
AcDbLine
 10
247.7140654453
 20
95.5986283213
 30
0.0
 11
266.3365681299
 21
95.5986283213
 31
0.0
  0
LINE
  5
7F
330
1F
100
AcDbEntity
  8
0
  6
Continuous
 62
     7
370
    25
100
AcDbLine
 10
266.3365681299
 20
145.2986277133
 30
0.0
 11
247.7140654453
 21
145.2986277133
 31
0.0
  0
LINE
  5
80
330
1F
100
AcDbEntity
  8
0
  6
Continuous
 62
     7
370
    25
100
AcDbLine
 10
247.7140654453
 20
145.2986277133
 30
0.0
 11
247.2140569814
 21
144.7986285627
 31
0.0
  0
LINE
  5
81
330
1F
100
AcDbEntity
  8
0
  6
Continuous
 62
     7
370
    25
100
AcDbLine
 10
247.2140569814
 20
96.0986274719
 30
0.0
 11
247.7140654453
 21
95.5986283213
 31
0.0
  0
LINE
  5
82
330
1F
100
AcDbEntity
  8
0
  6
Continuous
 62
     7
370
    25
100
AcDbLine
 10
266.3365681299
 20
95.5986283213
 30
0.0
 11
269.7140653261
 21
101.4486286283
 31
0.0
  0
LINE
  5
83
330
1F
100
AcDbEntity
  8
0
  6
Continuous
 62
     7
370
    25
100
AcDbLine
 10
269.7140653261
 20
139.4486274064
 30
0.0
 11
266.3365681299
 21
145.2986277133
 31
0.0
  0
LINE
  5
84
330
1F
100
AcDbEntity
  8
0
  6
Continuous
 62
     7
370
    25
100
AcDbLine
 10
70.2140623696
 20
70.4486272723
 30
0.0
 11
74.664062319
 21
70.4486272723
 31
0.0
  0
LINE
  5
85
330
1F
100
AcDbEntity
  8
0
  6
Continuous
 62
     7
370
    25
100
AcDbLine
 10
74.6981352211
 20
170.4486287624
 30
0.0
 11
70.2140623696
 21
170.4486287624
 31
0.0
  0
ARC
  5
86
330
1F
100
AcDbEntity
  8
0
  6
Continuous
 62
     7
370
    25
100
AcDbCircle
 10
70.2140623458
 20
70.9486280173
 30
0.0
 40
0.5
100
AcDbArc
 50
180.0
 51
270.0
  0
ARC
  5
87
330
1F
100
AcDbEntity
  8
0
  6
Continuous
 62
     7
370
    25
100
AcDbCircle
 10
70.2140623458
 20
169.9486280173
 30
0.0
 40
0.5
100
AcDbArc
 50
90.0
 51
180.0
  0
ARC
  5
88
330
1F
100
AcDbEntity
  8
0
  6
Continuous
 62
     7
370
    25
100
AcDbCircle
 10
68.8171254274
 20
81.8201426929
 30
0.0
 40
0.9962338214386983
100
AcDbArc
 50
25.7988228126
 51
90.0
  0
ARC
  5
89
330
1F
100
AcDbEntity
  8
0
  6
Continuous
 62
     7
370
    25
100
AcDbCircle
 10
68.8171254274
 20
159.0771133418
 30
0.0
 40
0.9962338214387044
100
AcDbArc
 50
270.0
 51
334.2011771874
  0
LINE
  5
8A
330
1F
100
AcDbEntity
  8
0
  6
Continuous
 62
     7
370
    25
100
AcDbLine
 10
48.2335188069
 20
157.3799490422
 30
0.0
 11
29.9140629001
 21
156.4621418208
 31
0.0
  0
LINE
  5
8B
330
1F
100
AcDbEntity
  8
0
  6
Continuous
 62
     7
370
    25
100
AcDbLine
 10
67.2140624017
 20
158.3308778197
 30
0.0
 11
61.1451365628
 21
158.0268233508
 31
0.0
  0
LINE
  5
8C
330
1F
100
AcDbEntity
  8
0
  6
Continuous
 62
     7
370
    25
100
AcDbLine
 10
61.1454997786
 20
82.8704140574
 30
0.0
 11
67.2140624017
 21
82.566378215
 31
0.0
  0
LINE
  5
8D
330
1F
100
AcDbEntity
  8
0
  6
Continuous
 62
     7
370
    25
100
AcDbLine
 10
34.9140618571
 20
84.1846145183
 30
0.0
 11
48.2346103169
 21
83.5172511131
 31
0.0
  0
LINE
  5
8E
330
1F
100
AcDbEntity
  8
0
  6
Continuous
 62
     7
370
    25
100
AcDbLine
 10
67.2140624017
 20
82.566378215
 30
0.0
 11
68.0199084679
 21
82.7823034912
 31
0.0
  0
LINE
  5
8F
330
1F
100
AcDbEntity
  8
0
  6
Continuous
 62
     7
370
    25
100
AcDbLine
 10
68.0199084679
 20
158.1149525434
 30
0.0
 11
67.2140624017
 21
158.3308778197
 31
0.0
  0
ARC
  5
90
330
1F
100
AcDbEntity
  8
0
  6
Continuous
 62
     7
370
    25
100
AcDbCircle
 10
68.2787275453
 20
81.8163765143
 30
0.0
 40
1.0
100
AcDbArc
 50
90.0
 51
105.0
  0
ARC
  5
91
330
1F
100
AcDbEntity
  8
0
  6
Continuous
 62
     7
370
    25
100
AcDbCircle
 10
68.2787275453
 20
159.0808795203
 30
0.0
 40
1.000000000000027
100
AcDbArc
 50
255.0
 51
270.0
  0
LINE
  5
92
330
1F
100
AcDbEntity
  8
0
  6
Continuous
 62
     7
370
    25
100
AcDbLine
 10
68.2787275516
 20
82.8163749963
 30
0.0
 11
68.817125423
 21
82.8163749963
 31
0.0
  0
LINE
  5
93
330
1F
100
AcDbEntity
  8
0
  6
Continuous
 62
     7
370
    25
100
AcDbLine
 10
68.817125423
 20
158.0808810383
 30
0.0
 11
68.2787275516
 21
158.0808810383
 31
0.0
  0
ARC
  5
94
330
1F
100
AcDbEntity
  8
0
  6
Continuous
 62
     7
370
    25
100
AcDbCircle
 10
101.6640623458
 20
91.9326692158
 30
0.0
 40
3.000000000000007
100
AcDbArc
 50
104.3250519401
 51
180.0
  0
ARC
  5
95
330
1F
100
AcDbEntity
  8
0
  6
Continuous
 62
     7
370
    25
100
AcDbCircle
 10
101.6640623458
 20
148.9645868188
 30
0.0
 40
3.0
100
AcDbArc
 50
180.0
 51
255.6749480599
  0
ARC
  5
96
330
1F
100
AcDbEntity
  8
0
  6
Continuous
 62
     7
370
    25
100
AcDbCircle
 10
125.6640623458
 20
-2.0513719827
 30
0.0
 40
100.0
100
AcDbArc
 50
90.0
 51
104.3250519401
  0
ARC
  5
97
330
1F
100
AcDbEntity
  8
0
  6
Continuous
 62
     7
370
    25
100
AcDbCircle
 10
125.6640623458
 20
242.9486280173
 30
0.0
 40
100.0
100
AcDbArc
 50
255.6749480599
 51
270.0
  0
LINE
  5
98
330
1F
100
AcDbEntity
  8
0
  6
Continuous
 62
     7
370
    25
100
AcDbLine
 10
148.1316019424
 20
97.9486271232
 30
0.0
 11
163.6640657314
 21
97.9486271232
 31
0.0
  0
LINE
  5
99
330
1F
100
AcDbEntity
  8
0
  6
Continuous
 62
     7
370
    25
100
AcDbLine
 10
125.664063228
 20
97.9486271232
 30
0.0
 11
141.2068162688
 21
97.9486271232
 31
0.0
  0
LINE
  5
9A
330
1F
100
AcDbEntity
  8
0
  6
Continuous
 62
     7
370
    25
100
AcDbLine
 10
141.1984641679
 20
142.9486289114
 30
0.0
 11
125.664063228
 21
142.9486289114
 31
0.0
  0
LINE
  5
9B
330
1F
100
AcDbEntity
  8
0
  6
Continuous
 62
     7
370
    25
100
AcDbLine
 10
163.6640657314
 20
142.9486289114
 30
0.0
 11
148.1218044289
 21
142.9486289114
 31
0.0
  0
ARC
  5
9C
330
1F
100
AcDbEntity
  8
0
  6
Continuous
 62
     7
370
    25
100
AcDbCircle
 10
216.5199986255
 20
700.4486280173
 30
0.0
 40
560.0
100
AcDbArc
 50
264.5840415814
 51
270.0
  0
ARC
  5
9D
330
1F
100
AcDbEntity
  8
0
  6
Continuous
 62
     7
370
    25
100
AcDbCircle
 10
216.5199986255
 20
-459.5513719827
 30
0.0
 40
560.0
100
AcDbArc
 50
90.0
 51
95.4159584186
  0
LINE
  5
9E
330
1F
100
AcDbEntity
  8
0
  6
Continuous
 62
     7
370
    25
100
AcDbLine
 10
247.2140569814
 20
140.4486275703
 30
0.0
 11
216.5200044044
 21
140.4486275703
 31
0.0
  0
LINE
  5
9F
330
1F
100
AcDbEntity
  8
0
  6
Continuous
 62
     7
370
    25
100
AcDbLine
 10
216.5200044044
 20
100.4486284644
 30
0.0
 11
247.2140569814
 21
100.4486284644
 31
0.0
  0
LINE
  5
A0
330
1F
100
AcDbEntity
  8
0
  6
Continuous
 62
     7
370
    25
100
AcDbLine
 10
21.4640614219
 20
88.198629716
 30
0.0
 11
33.014063222
 21
88.198629716
 31
0.0
  0
ARC
  5
A1
330
1F
100
AcDbEntity
  8
0
  6
Continuous
 62
     7
370
    25
100
AcDbCircle
 10
33.0140623458
 20
86.2986280173
 30
0.0
 40
1.900000000000011
100
AcDbArc
 50
35.6630613694
 51
90.0
  0
ARC
  5
A2
330
1F
100
AcDbEntity
  8
0
  6
Continuous
 62
     7
370
    25
100
AcDbCircle
 10
28.0140623458
 20
154.5986280173
 30
0.0
 40
1.899999999999977
100
AcDbArc
 50
270.0
 51
308.1709917343
  0
LINE
  5
A3
330
1F
100
AcDbEntity
  8
0
  6
Continuous
 62
     7
370
    25
100
AcDbLine
 10
21.4640614219
 20
152.6986263186
 30
0.0
 11
19.864745868
 21
151.0993126273
 31
0.0
  0
LINE
  5
A4
330
1F
100
AcDbEntity
  8
0
  6
Continuous
 62
     7
370
    25
100
AcDbLine
 10
19.8655840584
 20
89.7971070796
 30
0.0
 11
21.4640614219
 21
88.198629716
 31
0.0
  0
LINE
  5
A5
330
1F
100
AcDbEntity
  8
0
  6
Continuous
 62
     7
370
    25
100
AcDbLine
 10
28.0140605398
 20
152.6986263186
 30
0.0
 11
21.4640614219
 21
152.6986263186
 31
0.0
  0
LINE
  5
A6
330
1F
100
AcDbEntity
  8
0
  6
Continuous
 62
     7
370
    25
100
AcDbLine
 10
254.6107996829
 20
133.4946458653
 30
0.0
 11
266.3365681299
 21
133.4946458653
 31
0.0
  0
LINE
  5
A7
330
1F
100
AcDbEntity
  8
0
  6
Continuous
 62
     7
370
    25
100
AcDbLine
 10
266.3365681299
 20
114.7885695525
 30
0.0
 11
266.3365681299
 21
133.4946458653
 31
0.0
  0
LINE
  5
A8
330
1F
100
AcDbEntity
  8
0
  6
Continuous
 62
     7
370
    25
100
AcDbLine
 10
254.6107996829
 20
114.7885695525
 30
0.0
 11
266.3365681299
 21
114.7885695525
 31
0.0
  0
SPLINE
  5
A9
330
1F
100
AcDbEntity
  8
0
  6
Continuous
 62
     7
370
    25
100
AcDbSpline
210
0.0
220
0.0
230
1.0
 70
     8
 71
     3
 72
    17
 73
    13
 74
     0
 42
0.000000001
 43
0.00000001
 40
0.0
 40
0.0
 40
0.0
 40
0.0
 40
0.0838157598782665
 40
0.2002642910317094
 40
0.3144081934143376
 40
0.4226827637332826
 40
0.5326536551753062
 40
0.6305352707977258
 40
0.7286814122291978
 40
0.8323787774123366
 40
0.9426002208961264
 40
1.0
 40
1.0
 40
1.0
 40
1.0
 10
254.6107996829329
 20
114.7885695524604
 30
0.0
 10
254.3138712018535
 20
114.7678916013536
 30
0.0
 10
253.6044083056531
 20
114.7184849596383
 30
0.0
 10
252.5643788425323
 20
114.2599042812969
 30
0.0
 10
251.677050332229
 20
113.4517343963347
 30
0.0
 10
251.1509844654674
 20
112.4203361121104
 30
0.0
 10
251.0622172500049
 20
111.3475115888436
 30
0.0
 10
251.3721427647886
 20
110.3725890482883
 30
0.0
 10
251.9910323975769
 20
109.5724175615137
 30
0.0
 10
252.8883385055284
 20
108.975709355998
 30
0.0
 10
253.8147293021356
 20
108.6900513097977
 30
0.0
 10
254.4077330195308
 20
108.6640685238652
 30
0.0
 10
254.6107996829329
 20
108.65517104567
 30
0.0
  0
LINE
  5
AA
330
1F
100
AcDbEntity
  8
0
  6
Continuous
 62
     7
370
    25
100
AcDbLine
 10
254.6107996829
 20
108.6551710457
 30
0.0
 11
266.3365681299
 21
108.6551710457
 31
0.0
  0
LINE
  5
AB
330
1F
100
AcDbEntity
  8
0
  6
Continuous
 62
     7
370
    25
100
AcDbLine
 10
266.3365681299
 20
96.6635360807
 30
0.0
 11
266.3365681299
 21
108.6551710457
 31
0.0
  0
LINE
  5
AC
330
1F
100
AcDbEntity
  8
0
  6
Continuous
 62
     7
370
    25
100
AcDbLine
 10
254.6107996829
 20
96.6635360807
 30
0.0
 11
266.3365681299
 21
96.6635360807
 31
0.0
  0
SPLINE
  5
AD
330
1F
100
AcDbEntity
  8
0
  6
Continuous
 62
     7
370
    25
100
AcDbSpline
210
0.0
220
0.0
230
1.0
 70
     8
 71
     3
 72
    17
 73
    13
 74
     0
 42
0.000000001
 43
0.00000001
 40
0.0
 40
0.0
 40
0.0
 40
0.0
 40
0.0838159124089986
 40
0.2002646693125416
 40
0.3144087941994783
 40
0.4226835366035789
 40
0.5327911403364063
 40
0.6306720777747902
 40
0.728824480726522
 40
0.8325321814896617
 40
0.9427619079965389
 40
1.0
 40
1.0
 40
1.0
 40
1.0
 10
254.6107996829329
 20
95.60915226639219
 30
0.0
 10
254.3138712017085
 20
95.60973459035236
 30
0.0
 10
253.6044082561557
 20
95.61112595998573
 30
0.0
 10
252.5643787068355
 20
95.62775289477207
 30
0.0
 10
251.6770509330656
 20
95.68137713759592
 30
0.0
 10
251.1507667615606
 20
95.79369534643882
 30
0.0
 10
251.0622263996443
 20
95.96633405845523
 30
0.0
 10
251.3727899720416
 20
96.17418531618604
 30
0.0
 10
251.9921242372316
 20
96.3813829215798
 30
0.0
 10
252.8898026488919
 20
96.55913212343047
 30
0.0
 10
253.8158509065028
 20
96.6520969240911
 30
0.0
 10
254.4083067841066
 20
96.6606222477154
 30
0.0
 10
254.6107996829329
 20
96.66353608072706
 30
0.0
  0
LINE
  5
AE
330
1F
100
AcDbEntity
  8
0
  6
Continuous
 62
     7
370
    25
100
AcDbLine
 10
254.6107996829
 20
95.6091522664
 30
0.0
 11
266.3365681299
 21
95.6091522664
 31
0.0
  0
LINE
  5
AF
330
1F
100
AcDbEntity
  8
0
  6
Continuous
 62
     7
370
    25
100
AcDbLine
 10
266.3365681299
 20
95.5986283213
 30
0.0
 11
266.3365681299
 21
95.6091522664
 31
0.0
  0
LINE
  5
B0
330
1F
100
AcDbEntity
  8
0
  6
Continuous
 62
     7
370
    25
100
AcDbLine
 10
266.3365681299
 20
138.573662886
 30
0.0
 11
266.3365681299
 21
145.2986277133
 31
0.0
  0
LINE
  5
B1
330
1F
100
AcDbEntity
  8
0
  6
Continuous
 62
     7
370
    25
100
AcDbLine
 10
254.6107996829
 20
138.573662886
 30
0.0
 11
266.3365681299
 21
138.573662886
 31
0.0
  0
SPLINE
  5
B2
330
1F
100
AcDbEntity
  8
0
  6
Continuous
 62
     7
370
    25
100
AcDbSpline
210
0.0
220
0.0
230
1.0
 70
     8
 71
     3
 72
    18
 73
    14
 74
     0
 42
0.000000001
 43
0.00000001
 40
0.0
 40
0.0
 40
0.0
 40
0.0
 40
0.0838015844061103
 40
0.2002304304513296
 40
0.314354972940203
 40
0.4226112337337775
 40
0.5235778626403405
 40
0.5374368957444169
 40
0.6352754303821344
 40
0.7336000105980413
 40
0.837597958330463
 40
0.9480868781501804
 40
0.9999999999999999
 40
0.9999999999999999
 40
0.9999999999999999
 40
0.9999999999999999
 10
254.6107996829329
 20
133.4946458652706
 30
0.0
 10
254.3138711653395
 20
133.5127328109849
 30
0.0
 10
253.6044081484725
 20
133.5559486636635
 30
0.0
 10
252.5643796848432
 20
133.9558172509434
 30
0.0
 10
251.6770484588216
 20
134.6527696672085
 30
0.0
 10
251.1652138311398
 20
135.5039555067028
 30
0.0
 10
251.090583513825
 20
136.1327118813953
 30
0.0
 10
251.1706154233572
 20
136.7053617369877
 30
0.0
 10
251.3948250014205
 20
137.2490404846608
 30
0.0
 10
252.02829673983
 20
137.8812591584573
 30
0.0
 10
252.9380311333837
 20
138.3422913513341
 30
0.0
 10
253.8526369880977
 20
138.5501629732478
 30
0.0
 10
254.4271514906509
 20
138.5679705504282
 30
0.0
 10
254.6107996829329
 20
138.5736628860325
 30
0.0
  0
LINE
  5
B3
330
1F
100
AcDbEntity
  8
0
  6
Continuous
 62
     7
370
    25
100
AcDbLine
 10
247.7140654453
 20
95.5986283213
 30
0.0
 11
247.7140654453
 21
145.2986277133
 31
0.0
  0
LINE
  5
B4
330
1F
100
AcDbEntity
  8
0
  6
Continuous
 62
     7
370
    25
100
AcDbLine
 10
247.2140569814
 20
96.0986274719
 30
0.0
 11
247.2140569814
 21
144.7986285627
 31
0.0
  0
LINE
  5
B5
330
1F
100
AcDbEntity
  8
0
  6
Continuous
 62
     7
370
    25
100
AcDbLine
 10
266.3365681299
 20
95.6091522664
 30
0.0
 11
266.5834356674
 21
96.0483546794
 31
0.0
  0
LINE
  5
B6
330
1F
100
AcDbEntity
  8
0
  6
Continuous
 62
     7
370
    25
100
AcDbLine
 10
266.5834356674
 20
96.0483546794
 30
0.0
 11
267.7247156032
 21
98.0282663792
 31
0.0
  0
LINE
  5
B7
330
1F
100
AcDbEntity
  8
0
  6
Continuous
 62
     7
370
    25
100
AcDbLine
 10
267.7247156032
 20
98.0282663792
 30
0.0
 11
267.9155845769
 21
98.3725930989
 31
0.0
  0
SPLINE
  5
B8
330
1F
100
AcDbEntity
  8
0
  6
Continuous
 62
     7
370
    25
100
AcDbSpline
210
0.0
220
0.0
230
1.0
 70
     8
 71
     3
 72
     9
 73
     5
 74
     0
 42
0.000000001
 43
0.00000001
 40
0.0
 40
0.0
 40
0.0
 40
0.0
 40
0.5000512023218963
 40
1.0
 40
1.0
 40
1.0
 40
1.0
 10
267.9155845769224
 20
98.37259309888788
 30
0.0
 10
267.9488015330147
 20
98.49332978492237
 30
0.0
 10
268.0152286427546
 20
98.7347784315287
 30
0.0
 10
267.9487969978969
 20
98.9762267486664
 30
0.0
 10
267.9155845769224
 20
99.09693854452081
 30
0.0
  0
LINE
  5
B9
330
1F
100
AcDbEntity
  8
0
  6
Continuous
 62
     7
370
    25
100
AcDbLine
 10
267.7247156032
 20
98.8490670413
 30
0.0
 11
267.9155845769
 21
99.0969385445
 31
0.0
  0
LINE
  5
BA
330
1F
100
AcDbEntity
  8
0
  6
Continuous
 62
     7
370
    25
100
AcDbLine
 10
266.5834356674
 20
96.9797051936
 30
0.0
 11
267.7247156032
 21
98.8490670413
 31
0.0
  0
LINE
  5
BB
330
1F
100
AcDbEntity
  8
0
  6
Continuous
 62
     7
370
    25
100
AcDbLine
 10
266.3365681299
 20
96.6635360807
 30
0.0
 11
266.5834356674
 21
96.9797051936
 31
0.0
  0
LINE
  5
BC
330
1F
100
AcDbEntity
  8
0
  6
Continuous
 62
     7
370
    25
100
AcDbLine
 10
266.3365681299
 20
108.6551710457
 30
0.0
 11
266.5834356674
 21
109.1485820204
 31
0.0
  0
LINE
  5
BD
330
1F
100
AcDbEntity
  8
0
  6
Continuous
 62
     7
370
    25
100
AcDbLine
 10
266.5834356674
 20
109.1485820204
 30
0.0
 11
267.7247156032
 21
110.1609566674
 31
0.0
  0
LINE
  5
BE
330
1F
100
AcDbEntity
  8
0
  6
Continuous
 62
     7
370
    25
100
AcDbLine
 10
267.7247156032
 20
110.1609566674
 30
0.0
 11
267.9155845769
 21
110.5477814987
 31
0.0
  0
SPLINE
  5
BF
330
1F
100
AcDbEntity
  8
0
  6
Continuous
 62
     7
370
    25
100
AcDbSpline
210
0.0
220
0.0
230
1.0
 70
     8
 71
     3
 72
     9
 73
     5
 74
     0
 42
0.000000001
 43
0.00000001
 40
0.0
 40
0.0
 40
0.0
 40
0.0
 40
0.1217960308706633
 40
1.0
 40
1.0
 40
1.0
 40
1.0
 10
267.9155845769225
 20
114.7613362833948
 30
0.0
 10
267.9256923389611
 20
114.590482044259
 30
0.0
 10
268.0086815953959
 20
113.1876921674923
 30
0.0
 10
267.9591145515585
 20
111.782141592505
 30
0.0
 10
267.9155845769224
 20
110.5477814987392
 30
0.0
  0
LINE
  5
C0
330
1F
100
AcDbEntity
  8
0
  6
Continuous
 62
     7
370
    25
100
AcDbLine
 10
267.7247156032
 20
114.9355955847
 30
0.0
 11
267.9155845769
 21
114.7613362834
 31
0.0
  0
LINE
  5
C1
330
1F
100
AcDbEntity
  8
0
  6
Continuous
 62
     7
370
    25
100
AcDbLine
 10
266.5834356674
 20
114.5662945189
 30
0.0
 11
267.7247156032
 21
114.9355955847
 31
0.0
  0
LINE
  5
C2
330
1F
100
AcDbEntity
  8
0
  6
Continuous
 62
     7
370
    25
100
AcDbLine
 10
266.3365681299
 20
114.7885695525
 30
0.0
 11
266.5834356674
 21
114.5662945189
 31
0.0
  0
LINE
  5
C3
330
1F
100
AcDbEntity
  8
0
  6
Continuous
 62
     7
370
    25
100
AcDbLine
 10
266.3365681299
 20
133.4946458653
 30
0.0
 11
266.5834356674
 21
133.5488553584
 31
0.0
  0
LINE
  5
C4
330
1F
100
AcDbEntity
  8
0
  6
Continuous
 62
     7
370
    25
100
AcDbLine
 10
266.5834356674
 20
133.5488553584
 30
0.0
 11
267.7247156032
 21
132.5813173741
 31
0.0
  0
LINE
  5
C5
330
1F
100
AcDbEntity
  8
0
  6
Continuous
 62
     7
370
    25
100
AcDbLine
 10
267.7247156032
 20
132.5813173741
 30
0.0
 11
267.9155845769
 21
132.6238173485
 31
0.0
  0
SPLINE
  5
C6
330
1F
100
AcDbEntity
  8
0
  6
Continuous
 62
     7
370
    25
100
AcDbSpline
210
0.0
220
0.0
230
1.0
 70
     8
 71
     3
 72
     9
 73
     5
 74
     0
 42
0.000000001
 43
0.00000001
 40
0.0
 40
0.0
 40
0.0
 40
0.0
 40
0.5000510887459347
 40
1.0
 40
1.0
 40
1.0
 40
1.0
 10
267.9155845769224
 20
132.6238173484892
 30
0.0
 10
267.9488015279838
 20
133.2054119354242
 30
0.0
 10
268.0152286427505
 20
134.3684822696844
 30
0.0
 10
267.9487970029256
 20
135.5315514947348
 30
0.0
 10
267.9155845769224
 20
136.1130266875119
 30
0.0
  0
LINE
  5
C7
330
1F
100
AcDbEntity
  8
0
  6
Continuous
 62
     7
370
    25
100
AcDbLine
 10
267.7247156032
 20
136.535156095
 30
0.0
 11
267.9155845769
 21
136.1130266875
 31
0.0
  0
LINE
  5
C8
330
1F
100
AcDbEntity
  8
0
  6
Continuous
 62
     7
370
    25
100
AcDbLine
 10
266.5834356674
 20
138.0352187395
 30
0.0
 11
267.7247156032
 21
136.535156095
 31
0.0
  0
LINE
  5
C9
330
1F
100
AcDbEntity
  8
0
  6
Continuous
 62
     7
370
    25
100
AcDbLine
 10
266.3365681299
 20
138.573662886
 30
0.0
 11
266.5834356674
 21
138.0352187395
 31
0.0
  0
LINE
  5
CA
330
1F
100
AcDbEntity
  8
0
  6
Continuous
 62
     7
370
    25
100
AcDbLine
 10
269.7140653261
 20
101.4486286283
 30
0.0
 11
269.7140653261
 21
139.4486274064
 31
0.0
  0
ARC
  5
CB
330
1F
100
AcDbEntity
  8
0
  6
Continuous
 62
     7
370
    25
100
AcDbCircle
 10
254.4732237969
 20
111.8574382696
 30
0.0
 40
2.712347563161207
100
AcDbArc
 50
87.0925918251
 51
272.9074081749
  0
LINE
  5
CC
330
1F
100
AcDbEntity
  8
0
  6
Continuous
 62
     7
370
    25
100
AcDbLine
 10
254.6107996829
 20
114.5662945189
 30
0.0
 11
266.5834356674
 21
114.5662945189
 31
0.0
  0
ARC
  5
CD
330
1F
100
AcDbEntity
  8
0
  6
Continuous
 62
     7
370
    25
100
AcDbCircle
 10
254.4883045058
 20
112.5685995202
 30
0.0
 40
2.41075697141501
100
AcDbArc
 50
160.1090557485
 51
272.9125624683
  0
LWPOLYLINE
  5
CE
330
1F
100
AcDbEntity
  8
0
  6
Continuous
 62
     7
370
    25
100
AcDbPolyline
 90
       10
 70
   128
 43
0.0
 10
254.6107996829
 20
133.5488553584
 10
253.6200512775
 20
133.6841364816
 10
252.7488101848
 20
134.0736602858
 10
252.1021444925
 20
134.6704462037
 10
251.7580766805
 20
135.4025123134
 10
251.7580766805
 20
136.1815608531
 10
252.1021444925
 20
136.9136269629
 10
252.7488101848
 20
137.5104128808
 10
253.6200512775
 20
137.899936685
 10
254.6107996829
 20
138.0352187395
  0
LINE
  5
CF
330
1F
100
AcDbEntity
  8
0
  6
Continuous
 62
     7
370
    25
100
AcDbLine
 10
254.6107996829
 20
109.1485820204
 30
0.0
 11
266.5834356674
 21
109.1485820204
 31
0.0
  0
LINE
  5
D0
330
1F
100
AcDbEntity
  8
0
  6
Continuous
 62
     7
370
    25
100
AcDbLine
 10
254.6107996829
 20
110.1609566674
 30
0.0
 11
267.7247156032
 21
110.1609566674
 31
0.0
  0
ARC
  5
D1
330
1F
100
AcDbEntity
  8
0
  6
Continuous
 62
     7
370
    25
100
AcDbCircle
 10
254.4866800211
 20
112.6452745738
 30
0.0
 40
2.101162271341424
100
AcDbArc
 50
137.1340813791
 51
273.3865424482
  0
LINE
  5
D2
330
1F
100
AcDbEntity
  8
0
  6
Continuous
 62
     7
370
    25
100
AcDbLine
 10
267.1861876376
 20
114.7613362834
 30
0.0
 11
267.9155845769
 21
114.7613362834
 31
0.0
  0
ARC
  5
D3
330
1F
100
AcDbEntity
  8
0
  6
Continuous
 62
     7
370
    25
100
AcDbCircle
 10
254.3616411673
 20
134.193644834
 30
0.0
 40
2.35473033517464
100
AcDbArc
 50
83.9260537929
 51
167.0891167186
  0
LINE
  5
D4
330
1F
100
AcDbEntity
  8
0
  6
Continuous
 62
     7
370
    25
100
AcDbLine
 10
254.6107996829
 20
110.5477814987
 30
0.0
 11
267.9155845769
 21
110.5477814987
 31
0.0
  0
LINE
  5
D5
330
1F
100
AcDbEntity
  8
0
  6
Continuous
 62
     7
370
    25
100
AcDbLine
 10
254.6107996829
 20
133.5488553584
 30
0.0
 11
266.5834356674
 21
133.5488553584
 31
0.0
  0
ARC
  5
D6
330
1F
100
AcDbEntity
  8
0
  6
Continuous
 62
     7
370
    25
100
AcDbCircle
 10
254.3864962524
 20
134.0734778079
 30
0.0
 40
2.05184591555023
100
AcDbArc
 50
83.7240045786
 51
171.3539758831
  0
LINE
  5
D7
330
1F
100
AcDbEntity
  8
0
  6
Continuous
 62
     7
370
    25
100
AcDbLine
 10
267.6745880969
 20
132.6238173485
 30
0.0
 11
267.9155845769
 21
132.6238173485
 31
0.0
  0
LINE
  5
D8
330
1F
100
AcDbEntity
  8
0
  6
Continuous
 62
     7
370
    25
100
AcDbLine
 10
254.6107996829
 20
136.1130266875
 30
0.0
 11
267.9155845769
 21
136.1130266875
 31
0.0
  0
LINE
  5
D9
330
1F
100
AcDbEntity
  8
0
  6
Continuous
 62
     7
370
    25
100
AcDbLine
 10
254.6107996829
 20
138.0352187395
 30
0.0
 11
266.5834356674
 21
138.0352187395
 31
0.0
  0
LINE
  5
DA
330
1F
100
AcDbEntity
  8
0
  6
Continuous
 62
     7
370
    25
100
AcDbLine
 10
254.6107996829
 20
136.535156095
 30
0.0
 11
267.7247156032
 21
136.535156095
 31
0.0
  0
ARC
  5
DB
330
1F
100
AcDbEntity
  8
0
  6
Continuous
 62
     7
370
    25
100
AcDbCircle
 10
254.1639962438
 20
104.4470150919
 30
0.0
 40
8.410536845992523
100
AcDbArc
 50
254.5379809086
 51
273.0452286728
  0
LINE
  5
DC
330
1F
100
AcDbEntity
  8
0
  6
Continuous
 62
     7
370
    25
100
AcDbLine
 10
267.4338151344
 20
98.3725930989
 30
0.0
 11
267.9155845769
 21
98.3725930989
 31
0.0
  0
LINE
  5
DD
330
1F
100
AcDbEntity
  8
0
  6
Continuous
 62
     7
370
    25
100
AcDbLine
 10
254.6107996829
 20
96.0483546794
 30
0.0
 11
266.5834356674
 21
96.0483546794
 31
0.0
  0
LINE
  5
DE
330
1F
100
AcDbEntity
  8
0
  6
Continuous
 62
     7
370
    25
100
AcDbLine
 10
267.2236044534
 20
98.0282663792
 30
0.0
 11
267.7247156032
 21
98.0282663792
 31
0.0
  0
LINE
  5
DF
330
1F
100
AcDbEntity
  8
0
  6
Continuous
 62
     7
370
    25
100
AcDbLine
 10
97.6640623637
 20
71.6736331076
 30
0.0
 11
92.9760918595
 21
71.6736331076
 31
0.0
  0
LINE
  5
E0
330
1F
100
AcDbEntity
  8
0
  6
Continuous
 62
     7
370
    25
100
AcDbLine
 10
92.9760918595
 20
71.6736331076
 30
0.0
 11
92.9760918595
 21
151.7986297101
 31
0.0
  0
LINE
  5
E1
330
1F
100
AcDbEntity
  8
0
  6
Continuous
 62
     7
370
    25
100
AcDbLine
 10
92.9760918595
 20
151.7986297101
 30
0.0
 11
97.6640623637
 21
151.7986297101
 31
0.0
  0
LINE
  5
E2
330
1F
100
AcDbEntity
  8
0
  6
Continuous
 62
     7
370
    25
100
AcDbLine
 10
87.8040627219
 20
74.0772388369
 30
0.0
 11
87.8040627219
 21
151.7986297101
 31
0.0
  0
SPLINE
  5
E3
330
1F
100
AcDbEntity
  8
0
  6
Continuous
 62
     7
370
    25
100
AcDbSpline
210
0.0
220
0.0
230
1.0
 70
     8
 71
     3
 72
     8
 73
     4
 74
     0
 42
0.000000001
 43
0.00000001
 40
0.0
 40
0.0
 40
0.0
 40
0.0
 40
1.0
 40
1.0
 40
1.0
 40
1.0
 10
87.80406234582048
 20
74.07723973029188
 30
0.0
 10
87.3538358815427
 20
73.27578436766713
 30
0.0
 10
86.9031380542993
 20
72.47459435610645
 30
0.0
 10
86.45203332489908
 20
71.67363442428653
 30
0.0
  0
LINE
  5
E4
330
1F
100
AcDbEntity
  8
0
  6
Continuous
 62
     7
370
    25
100
AcDbLine
 10
86.4520338007
 20
71.6736331076
 30
0.0
 11
86.4520338007
 21
151.7986297101
 31
0.0
  0
SPLINE
  5
E5
330
1F
100
AcDbEntity
  8
0
  6
Continuous
 62
     7
370
    25
100
AcDbSpline
210
0.0
220
0.0
230
1.0
 70
    24
 71
     3
 72
     8
 73
     4
 74
     0
 42
0.000000001
 43
0.00000001
 40
0.0
 40
0.0
 40
0.0
 40
0.0
 40
1.0
 40
1.0
 40
1.0
 40
1.0
 10
86.45203332489908
 20
151.7986280173154
 30
0.0
 10
86.90883489722731
 20
151.7986280173154
 30
0.0
 10
87.35984946346653
 20
151.7986280173154
 30
0.0
 10
87.80406234582048
 20
151.7986280173154
 30
0.0
  0
SPLINE
  5
E6
330
1F
100
AcDbEntity
  8
0
  6
Continuous
 62
     7
370
    25
100
AcDbSpline
210
0.0
220
0.0
230
1.0
 70
    11
 71
     3
 72
    80
 73
    76
 74
     0
 42
0.000000001
 43
0.00000001
 40
0.0
 40
0.0
 40
0.0
 40
0.0
 40
0.0312499999999995
 40
0.0312499999999995
 40
0.0468749999999993
 40
0.0468749999999993
 40
0.0624999999999991
 40
0.0624999999999991
 40
0.0937499999999988
 40
0.0937499999999988
 40
0.1249999999999986
 40
0.1249999999999986
 40
0.1562499999999983
 40
0.1562499999999983
 40
0.1874999999999981
 40
0.1874999999999981
 40
0.2187499999999978
 40
0.2187499999999978
 40
0.2499999999999976
 40
0.2499999999999976
 40
0.2812499999999973
 40
0.2812499999999973
 40
0.3124999999999971
 40
0.3124999999999971
 40
0.3281249999999971
 40
0.3281249999999971
 40
0.3437499999999971
 40
0.3437499999999971
 40
0.3749999999999973
 40
0.3749999999999973
 40
0.4062499999999975
 40
0.4062499999999975
 40
0.4218749999999975
 40
0.4218749999999975
 40
0.4374999999999974
 40
0.4374999999999974
 40
0.4687499999999973
 40
0.4687499999999973
 40
0.4999999999999972
 40
0.4999999999999972
 40
0.531249999999997
 40
0.531249999999997
 40
0.562499999999997
 40
0.562499999999997
 40
0.5937499999999969
 40
0.5937499999999969
 40
0.6249999999999969
 40
0.6249999999999969
 40
0.6562499999999968
 40
0.6562499999999968
 40
0.6874999999999968
 40
0.6874999999999968
 40
0.7031249999999968
 40
0.7031249999999968
 40
0.7187499999999969
 40
0.7187499999999969
 40
0.7499999999999973
 40
0.7499999999999973
 40
0.7812499999999979
 40
0.7812499999999979
 40
0.7968749999999982
 40
0.7968749999999982
 40
0.8124999999999984
 40
0.8124999999999984
 40
0.8437499999999988
 40
0.8437499999999988
 40
0.874999999999999
 40
0.874999999999999
 40
0.9062499999999993
 40
0.9062499999999993
 40
0.9374999999999996
 40
0.9374999999999996
 40
0.9687499999999999
 40
0.9687499999999999
 40
1.0
 40
1.0
 40
1.0
 40
1.0
 10
78.7140623458205
 20
163.8632574809467
 30
0.0
 10
79.04460765859679
 20
163.8632574809466
 30
0.0
 10
79.36958778784842
 20
163.8794657123288
 30
0.0
 10
79.84906119909483
 20
163.9268303443484
 30
0.0
 10
80.00754301693564
 20
163.946484556239
 30
0.0
 10
80.32176254943992
 20
163.9935957124317
 30
0.0
 10
80.47788283312032
 20
164.0211770319263
 30
0.0
 10
80.93193686207691
 20
164.1137128187201
 30
0.0
 10
81.21904024501673
 20
164.1887832523166
 30
0.0
 10
81.76239480104374
 20
164.3640215609272
 30
0.0
 10
82.01949841224933
 20
164.4650228587655
 30
0.0
 10
82.48040466718811
 20
164.6823790572264
 30
0.0
 10
82.6873023764031
 20
164.7995433889986
 30
0.0
 10
83.05282769039529
 20
165.0496133132273
 30
0.0
 10
83.20803321252126
 20
165.1805594019862
 30
0.0
 10
83.45746359912096
 20
165.4462943456986
 30
0.0
 10
83.55355355490613
 20
165.5830479390096
 30
0.0
 10
83.6820724040997
 20
165.8571135138485
 30
0.0
 10
83.71388327427748
 20
165.9920536043173
 30
0.0
 10
83.71423992405074
 20
166.2575252413861
 30
0.0
 10
83.68174267185368
 20
166.3893497185274
 30
0.0
 10
83.55411719813918
 20
166.6387993181478
 30
0.0
 10
83.45968879708732
 20
166.7572320100757
 30
0.0
 10
83.27182797710175
 20
166.9261012071698
 30
0.0
 10
83.20099997829857
 20
166.98118720229
 30
0.0
 10
83.04627808633327
 20
167.0864400307784
 30
0.0
 10
82.96230161614989
 20
167.1367752595388
 30
0.0
 10
82.69097794650546
 20
167.2813510920769
 30
0.0
 10
82.48442872790312
 20
167.3692126784939
 30
0.0
 10
82.0178185877141
 20
167.5289337714934
 30
0.0
 10
81.76545301808865
 20
167.5981720679605
 30
0.0
 10
81.35955167640994
 20
167.6879594571904
 30
0.0
 10
81.21965105893244
 20
167.7155254192766
 30
0.0
 10
80.93042712368552
 20
167.7660162202029
 30
0.0
 10
80.78058766739625
 20
167.7889796590536
 30
0.0
 10
80.32647109778546
 20
167.8496101754725
 30
0.0
 10
80.0148198790486
 20
167.8796842042682
 30
0.0
 10
79.37382341413624
 20
167.9202737915269
 30
0.0
 10
79.04229578618404
 20
167.9305860217429
 30
0.0
 10
78.38950474111257
 20
167.9306615889087
 30
0.0
 10
78.06496853608074
 20
167.920759983441
 30
0.0
 10
77.41969908666434
 20
167.8802734529157
 30
0.0
 10
77.10395608050162
 20
167.8498121530311
 30
0.0
 10
76.50206678551791
 20
167.7696614815945
 30
0.0
 10
76.21131755470645
 20
167.7193792497873
 30
0.0
 10
75.66440576302195
 20
167.5987090670143
 30
0.0
 10
75.41262839918502
 20
167.5294852078443
 30
0.0
 10
74.9512404065639
 20
167.3720334802037
 30
0.0
 10
74.7399711269658
 20
167.2826850055299
 30
0.0
 10
74.37666677458961
 20
167.0894371348291
 30
0.0
 10
74.22286012614681
 20
166.9853091429498
 30
0.0
 10
74.03424065654941
 20
166.8166847567663
 30
0.0
 10
73.9782101703403
 20
166.7580563550914
 30
0.0
 10
73.88263640860414
 20
166.6386014402652
 30
0.0
 10
73.84287349157914
 20
166.577681651427
 30
0.0
 10
73.747101741267
 20
166.3912769252531
 30
0.0
 10
73.7143789021409
 20
166.2621641074581
 30
0.0
 10
73.71375031581181
 20
165.9935071845022
 30
0.0
 10
73.74593646054659
 20
165.8581364437454
 30
0.0
 10
73.84084716240216
 20
165.6545861355094
 30
0.0
 10
73.88031394580112
 20
165.586614211446
 30
0.0
 10
73.97524394452199
 20
165.4505219883151
 30
0.0
 10
74.03100077228538
 20
165.3821718881057
 30
0.0
 10
74.21894089025525
 20
165.1814688750636
 30
0.0
 10
74.37230235997144
 20
165.0520806012509
 30
0.0
 10
74.7345665948518
 20
164.803415169201
 30
0.0
 10
74.9454150683177
 20
164.6836055268328
 30
0.0
 10
75.40608503863662
 20
164.4660832392601
 30
0.0
 10
75.65745941822045
 20
164.3669981394242
 30
0.0
 10
76.20336730511858
 20
164.1903256655074
 30
0.0
 10
76.4941898797698
 20
164.1142685773734
 30
0.0
 10
77.09551649454986
 20
163.9914236000204
 30
0.0
 10
77.41003507916221
 20
163.9437174749672
 30
0.0
 10
78.05661653528217
 20
163.8794689398476
 30
0.0
 10
78.38351703304417
 20
163.8632574809466
 30
0.0
 10
78.71406234582048
 20
163.8632574809466
 30
0.0
  0
LINE
  5
E7
330
1F
100
AcDbEntity
  8
0
  6
Continuous
 62
     7
370
    25
100
AcDbLine
 10
74.664062319
 20
151.7986297101
 30
0.0
 11
86.4520338007
 21
151.7986297101
 31
0.0
  0
LINE
  5
E8
330
1F
100
AcDbEntity
  8
0
  6
Continuous
 62
     7
370
    25
100
AcDbLine
 10
86.4520338007
 20
71.6736331076
 30
0.0
 11
84.6640620955
 21
71.6736331076
 31
0.0
  0
SPLINE
  5
E9
330
1F
100
AcDbEntity
  8
0
  6
Continuous
 62
     7
370
    25
100
AcDbSpline
210
0.0
220
0.0
230
1.0
 70
     8
 71
     3
 72
    30
 73
    26
 74
     0
 42
0.000000001
 43
0.00000001
 40
0.0
 40
0.0
 40
0.0
 40
0.0
 40
0.1250000000000002
 40
0.1250000000000002
 40
0.1875000000000003
 40
0.1875000000000003
 40
0.2500000000000004
 40
0.2500000000000004
 40
0.3750000000000001
 40
0.3750000000000001
 40
0.4374999999999998
 40
0.4374999999999998
 40
0.4999999999999996
 40
0.4999999999999996
 40
0.6249999999999996
 40
0.6249999999999996
 40
0.6874999999999997
 40
0.6874999999999997
 40
0.7499999999999997
 40
0.7499999999999997
 40
0.8124999999999998
 40
0.8124999999999998
 40
0.8749999999999999
 40
0.8749999999999999
 40
1.0
 40
1.0
 40
1.0
 40
1.0
 10
84.66406234582047
 20
71.67363442428653
 30
0.0
 10
84.00131765197544
 20
71.67363442428655
 30
0.0
 10
83.35006179285972
 20
71.65879434769774
 30
0.0
 10
82.38961125460145
 20
71.6164247834681
 30
0.0
 10
82.07221981136848
 20
71.59894668068894
 30
0.0
 10
81.44305630981363
 20
71.55761839413663
 30
0.0
 10
81.1309081233719
 20
71.53369312067895
 30
0.0
 10
80.22360082152366
 20
71.45488660421204
 30
0.0
 10
79.6501758638824
 20
71.39258058423556
 30
0.0
 10
78.83629899430774
 20
71.2894512639962
 30
0.0
 10
78.57149279773787
 20
71.25326734494969
 30
0.0
 10
78.06458538692354
 20
71.17947256074919
 30
0.0
 10
77.82319123557005
 20
71.14199870197754
 30
0.0
 10
77.13404976343772
 20
71.02928675863781
 30
0.0
 10
76.72099494857348
 20
70.95375066116402
 30
0.0
 10
76.1728401291984
 20
70.84535740414654
 30
0.0
 10
76.00337752185284
 20
70.81028517248328
 30
0.0
 10
75.69536027383745
 20
70.74404971188342
 30
0.0
 10
75.55598025322908
 20
70.7127230151287
 30
0.0
 10
75.30619474060235
 20
70.65431424354776
 30
0.0
 10
75.19578862794843
 20
70.62723100836492
 30
0.0
 10
75.0045307743107
 20
70.57797125375134
 30
0.0
 10
74.92341125602641
 20
70.55570927394369
 30
0.0
 10
74.72926433591802
 20
70.49814236677541
 30
0.0
 10
74.66406234582047
 20
70.47188276198943
 30
0.0
 10
74.66406234582047
 20
70.4586290175154
 30
0.0
  0
LINE
  5
EA
330
1F
100
AcDbEntity
  8
0
  6
Continuous
 62
     7
370
    25
100
AcDbLine
 10
74.664062319
 20
70.4586296767
 30
0.0
 11
74.664062319
 21
70.4486272723
 31
0.0
  0
SPLINE
  5
EB
330
1F
100
AcDbEntity
  8
0
  6
Continuous
 62
     7
370
    25
100
AcDbSpline
210
0.0
220
0.0
230
1.0
 70
     8
 71
     3
 72
    16
 73
    12
 74
     0
 42
0.000000001
 43
0.00000001
 40
0.0
 40
0.0
 40
0.0
 40
0.0
 40
0.1044609452868673
 40
0.2119899041733711
 40
0.4231147888925457
 40
0.5288823563416272
 40
0.6376620523556941
 40
0.7442840956959649
 40
0.8540766861705821
 40
0.9592782114992571
 40
1.0
 40
1.0
 40
1.0
 40
1.0
 10
84.66406209548097
 20
169.438423165688
 30
0.0
 10
84.11602856251012
 20
169.4438279292196
 30
0.0
 10
83.00386577459697
 20
169.454796193962
 30
0.0
 10
80.84926049367454
 20
169.5679248377873
 30
0.0
 10
78.86257408092732
 20
169.7675671450084
 30
0.0
 10
77.2316771670209
 20
169.9948860192717
 30
0.0
 10
76.20777795058208
 20
170.160166443373
 30
0.0
 10
75.40758061509604
 20
170.3038879523961
 30
0.0
 10
74.89720935224183
 20
170.4020472457659
 30
0.0
 10
74.65730959807567
 20
170.4499696265481
 30
0.0
 10
74.6892279828577
 20
170.4436030561272
 30
0.0
 10
74.69813522105198
 20
170.4418263822884
 30
0.0
  0
LINE
  5
EC
330
1F
100
AcDbEntity
  8
0
  6
Continuous
 62
     7
370
    25
100
AcDbLine
 10
86.4520338007
 20
169.4384231657
 30
0.0
 11
84.6640620955
 21
169.4384231657
 31
0.0
  0
LINE
  5
ED
330
1F
100
AcDbEntity
  8
0
  6
Continuous
 62
     7
370
    25
100
AcDbLine
 10
86.4520338007
 20
159.3995891005
 30
0.0
 11
86.4520338007
 21
169.4384231657
 31
0.0
  0
LINE
  5
EE
330
1F
100
AcDbEntity
  8
0
  6
Continuous
 62
     7
370
    25
100
AcDbLine
 10
84.3720291384
 20
159.3995891005
 30
0.0
 11
86.4520338007
 21
159.3995891005
 31
0.0
  0
SPLINE
  5
EF
330
1F
100
AcDbEntity
  8
0
  6
Continuous
 62
     7
370
    25
100
AcDbSpline
210
0.0
220
0.0
230
1.0
 70
     8
 71
     3
 72
    22
 73
    18
 74
     0
 42
0.000000001
 43
0.00000001
 40
0.0
 40
0.0
 40
0.0
 40
0.0
 40
0.2500000000000002
 40
0.2500000000000002
 40
0.3750000000000003
 40
0.3750000000000003
 40
0.5000000000000004
 40
0.5000000000000004
 40
0.6250000000000004
 40
0.6250000000000004
 40
0.7500000000000004
 40
0.7500000000000004
 40
0.8750000000000004
 40
0.8750000000000004
 40
0.9375000000000002
 40
0.9375000000000002
 40
1.0
 40
1.0
 40
1.0
 40
1.0
 10
74.66406234582045
 20
151.7986280173154
 30
0.0
 10
74.86678730173955
 20
152.81787435918
 30
0.0
 10
75.18153102353493
 20
153.7769825091193
 30
0.0
 10
75.8895864932059
 20
155.1194615866285
 30
0.0
 10
76.16804912342356
 20
155.5536701693686
 30
0.0
 10
76.80681653006074
 20
156.3652978848707
 30
0.0
 10
77.16723020985094
 20
156.7445781778075
 30
0.0
 10
77.98476244184023
 20
157.4475367568285
 30
0.0
 10
78.44593042512736
 20
157.7725655745291
 30
0.0
 10
79.44392067161115
 20
158.33758089792
 30
0.0
 10
79.98367986560343
 20
158.5812844921265
 30
0.0
 10
81.15827282963475
 20
158.9854844197715
 30
0.0
 10
81.77000901562663
 20
159.137921612817
 30
0.0
 10
82.72191824048834
 20
159.2932491604257
 30
0.0
 10
83.04515140474899
 20
159.3327539404758
 30
0.0
 10
83.70421457602426
 20
159.3860630611444
 30
0.0
 10
84.03827858659824
 20
159.3995907782023
 30
0.0
 10
84.37202919399978
 20
159.3995907782023
 30
0.0
  0
SPLINE
  5
F0
330
1F
100
AcDbEntity
  8
0
  6
Continuous
 62
     7
370
    25
100
AcDbSpline
210
0.0
220
0.0
230
1.0
 70
     8
 71
     3
 72
     8
 73
     4
 74
     0
 42
0.000000001
 43
0.00000001
 40
0.0
 40
0.0
 40
0.0
 40
0.0
 40
1.0
 40
1.0
 40
1.0
 40
1.0
 10
92.97609136674185
 20
71.67363442428653
 30
0.0
 10
92.52498663734166
 20
72.47459435610645
 30
0.0
 10
92.07428881009825
 20
73.27578436766713
 30
0.0
 10
91.62406234582048
 20
74.07723973029188
 30
0.0
  0
LINE
  5
F1
330
1F
100
AcDbEntity
  8
0
  6
Continuous
 62
     7
370
    25
100
AcDbLine
 10
91.6240629383
 20
74.0772388369
 30
0.0
 11
91.6240629383
 21
151.7986297101
 31
0.0
  0
SPLINE
  5
F2
330
1F
100
AcDbEntity
  8
0
  6
Continuous
 62
     7
370
    25
100
AcDbSpline
210
0.0
220
0.0
230
1.0
 70
    24
 71
     3
 72
     8
 73
     4
 74
     0
 42
0.000000001
 43
0.00000001
 40
0.0
 40
0.0
 40
0.0
 40
0.0
 40
1.0
 40
1.0
 40
1.0
 40
1.0
 10
91.62406234582048
 20
151.7986280173154
 30
0.0
 10
92.06827522817441
 20
151.7986280173154
 30
0.0
 10
92.51928979441362
 20
151.7986280173154
 30
0.0
 10
92.97609136674185
 20
151.7986280173154
 30
0.0
  0
LINE
  5
F3
330
1F
100
AcDbEntity
  8
0
  6
Continuous
 62
     7
370
    25
100
AcDbLine
 10
69.7140623458
 20
70.9486282855
 30
0.0
 11
69.7140623458
 21
169.9486277491
 31
0.0
  0
LINE
  5
F4
330
1F
100
AcDbEntity
  8
0
  6
Continuous
 62
     7
370
    25
100
AcDbLine
 10
98.6640625276
 20
72.6992837578
 30
0.0
 11
98.6640625276
 21
151.7986297101
 31
0.0
  0
SPLINE
  5
F5
330
1F
100
AcDbEntity
  8
0
  6
Continuous
 62
     7
370
    25
100
AcDbSpline
210
0.0
220
0.0
230
1.0
 70
     8
 71
     3
 72
    14
 73
    10
 74
     0
 42
0.000000001
 43
0.00000001
 40
0.0
 40
0.0
 40
0.0
 40
0.0
 40
0.25
 40
0.25
 40
0.5
 40
0.5
 40
0.75
 40
0.75
 40
1.0
 40
1.0
 40
1.0
 40
1.0
 10
98.66406234582048
 20
72.69928247206207
 30
0.0
 10
98.66406234582048
 20
72.56585677600752
 30
0.0
 10
98.6387512459096
 20
72.43400896816316
 30
0.0
 10
98.54041648206487
 20
72.18748641946907
 30
0.0
 10
98.46727247780879
 20
72.0736812312285
 30
0.0
 10
98.2838344167131
 20
71.88322405428124
 30
0.0
 10
98.1721480823745
 20
71.80558919043132
 30
0.0
 10
97.92964465206823
 20
71.70129778031887
 30
0.0
 10
97.79627022337401
 20
71.6736344242865
 30
0.0
 10
97.66406234582048
 20
71.6736344242865
 30
0.0
  0
SPLINE
  5
F6
330
1F
100
AcDbEntity
  8
0
  6
Continuous
 62
     7
370
    25
100
AcDbSpline
210
0.0
220
0.0
230
1.0
 70
    24
 71
     3
 72
    12
 73
     8
 74
     0
 42
0.000000001
 43
0.00000001
 40
0.0
 40
0.0
 40
0.0
 40
0.0
 40
0.2500000000000032
 40
0.2500000000000032
 40
0.5000000000000064
 40
0.5000000000000064
 40
1.0
 40
1.0
 40
1.0
 40
1.0
 10
97.66406234582048
 20
151.7986280173154
 30
0.0
 10
97.81615258276547
 20
151.7986280173154
 30
0.0
 10
97.96461184384088
 20
151.7986280173154
 30
0.0
 10
98.22201547610659
 20
151.7986280173154
 30
0.0
 10
98.3311202239485
 20
151.7986280173153
 30
0.0
 10
98.58517970035605
 20
151.7986280173154
 30
0.0
 10
98.66406234582048
 20
151.7986280173154
 30
0.0
 10
98.66406234582048
 20
151.7986280173154
 30
0.0
  0
SPLINE
  5
F7
330
1F
100
AcDbEntity
  8
0
  6
Continuous
 62
     7
370
    25
100
AcDbSpline
210
0.0
220
0.0
230
1.0
 70
     8
 71
     3
 72
    14
 73
    10
 74
     0
 42
0.000000001
 43
0.00000001
 40
0.0
 40
0.0
 40
0.0
 40
0.0
 40
0.25
 40
0.25
 40
0.5
 40
0.5
 40
0.75
 40
0.75
 40
1.0
 40
1.0
 40
1.0
 40
1.0
 10
91.62406234582049
 20
74.98544923492045
 30
0.0
 10
91.62406234582048
 20
75.09249331591485
 30
0.0
 10
91.6039446586623
 20
75.1977284561573
 30
0.0
 10
91.52545346939668
 20
75.39557894300498
 30
0.0
 10
91.46729684459548
 20
75.4866307065699
 30
0.0
 10
91.32078158897743
 20
75.63979680049468
 30
0.0
 10
91.23213904033634
 20
75.70209124670409
 30
0.0
 10
91.03641571753602
 20
75.78688503224006
 30
0.0
 10
90.93118452646506
 20
75.8089525592657
 30
0.0
 10
90.82406234582048
 20
75.8089525592657
 30
0.0
  0
SPLINE
  5
F8
330
1F
100
AcDbEntity
  8
0
  6
Continuous
 62
     7
370
    25
100
AcDbSpline
210
0.0
220
0.0
230
1.0
 70
    24
 71
     3
 72
    14
 73
    10
 74
     0
 42
0.000000001
 43
0.00000001
 40
0.0
 40
0.0
 40
0.0
 40
0.0
 40
0.25
 40
0.25
 40
0.5
 40
0.5
 40
0.75
 40
0.75
 40
1.0
 40
1.0
 40
1.0
 40
1.0
 10
90.82406234582048
 20
151.7986280173154
 30
0.0
 10
90.94783211058564
 20
151.7986280173154
 30
0.0
 10
91.0721992145925
 20
151.7986280173154
 30
0.0
 10
91.27855568331856
 20
151.7986280173153
 30
0.0
 10
91.36388382673691
 20
151.7986280173154
 30
0.0
 10
91.49607588545214
 20
151.7986280173154
 30
0.0
 10
91.54472112920273
 20
151.7986280173154
 30
0.0
 10
91.60825692093147
 20
151.7986280173154
 30
0.0
 10
91.62406234582049
 20
151.7986280173154
 30
0.0
 10
91.62406234582049
 20
151.7986280173154
 30
0.0
  0
SPLINE
  5
F9
330
1F
100
AcDbEntity
  8
0
  6
Continuous
 62
     7
370
    25
100
AcDbSpline
210
0.0
220
0.0
230
1.0
 70
     8
 71
     3
 72
    12
 73
     8
 74
     0
 42
0.000000001
 43
0.00000001
 40
0.0
 40
0.0
 40
0.0
 40
0.0
 40
0.250000000000003
 40
0.250000000000003
 40
0.500000000000006
 40
0.500000000000006
 40
1.0
 40
1.0
 40
1.0
 40
1.0
 10
88.60406234582047
 20
75.8089525592657
 30
0.0
 10
88.49830169247153
 20
75.8089525592657
 30
0.0
 10
88.39031406428857
 20
75.7864130532653
 30
0.0
 10
88.19571939902296
 20
75.70184242126999
 30
0.0
 10
88.10684748618411
 20
75.63936076851115
 30
0.0
 10
87.88765519385822
 20
75.40997181703892
 30
0.0
 10
87.80406234582041
 20
75.19738847951652
 30
0.0
 10
87.80406234582044
 20
74.98544923492031
 30
0.0
  0
SPLINE
  5
FA
330
1F
100
AcDbEntity
  8
0
  6
Continuous
 62
     7
370
    25
100
AcDbSpline
210
0.0
220
0.0
230
1.0
 70
    24
 71
     3
 72
    14
 73
    10
 74
     0
 42
0.000000001
 43
0.00000001
 40
0.0
 40
0.0
 40
0.0
 40
0.0
 40
0.25
 40
0.25
 40
0.5
 40
0.5
 40
0.75
 40
0.75
 40
1.0
 40
1.0
 40
1.0
 40
1.0
 10
87.80406234582045
 20
151.7986280173154
 30
0.0
 10
87.80406234582045
 20
151.7986280173154
 30
0.0
 10
87.8197766662864
 20
151.7986280173154
 30
0.0
 10
87.88346064475479
 20
151.7986280173153
 30
0.0
 10
87.93206383916524
 20
151.7986280173154
 30
0.0
 10
88.06474736159083
 20
151.7986280173154
 30
0.0
 10
88.1498494659015
 20
151.7986280173154
 30
0.0
 10
88.35629170081154
 20
151.7986280173154
 30
0.0
 10
88.48037264243456
 20
151.7986280173154
 30
0.0
 10
88.60406234582047
 20
151.7986280173154
 30
0.0
  0
LINE
  5
FB
330
1F
100
AcDbEntity
  8
0
  6
Continuous
 62
     7
370
    25
100
AcDbLine
 10
90.8240624346
 20
75.808951208
 30
0.0
 11
88.6040632256
 21
75.808951208
 31
0.0
  0
LINE
  5
FC
330
1F
100
AcDbEntity
  8
0
  6
Continuous
 62
     7
370
    25
100
AcDbLine
 10
88.6040632256
 20
151.7986297101
 30
0.0
 11
90.8240624346
 21
151.7986297101
 31
0.0
  0
LINE
  5
FD
330
1F
100
AcDbEntity
  8
0
  6
Continuous
 62
     7
370
    25
100
AcDbLine
 10
34.9140618571
 20
84.1846145183
 30
0.0
 11
34.9140618571
 21
86.5792944521
 31
0.0
  0
SPLINE
  5
FE
330
1F
100
AcDbEntity
  8
0
  6
Continuous
 62
     7
370
    25
100
AcDbSpline
210
0.0
220
0.0
230
1.0
 70
     8
 71
     3
 72
    14
 73
    10
 74
     0
 42
0.000000001
 43
0.00000001
 40
0.0
 40
0.0
 40
0.0
 40
0.0
 40
0.25
 40
0.25
 40
0.5
 40
0.5
 40
0.75
 40
0.75
 40
1.0
 40
1.0
 40
1.0
 40
1.0
 10
33.9096398744835
 20
88.28214667357182
 30
0.0
 10
33.99840845242884
 20
88.12361254226386
 30
0.0
 10
34.12012629110775
 20
87.97116986537532
 30
0.0
 10
34.35517590096458
 20
87.67403524154639
 30
0.0
 10
34.47080608718148
 20
87.52935259792903
 30
0.0
 10
34.6712110206093
 20
87.24606339542562
 30
0.0
 10
34.75661131259361
 20
87.10750940238876
 30
0.0
 10
34.87831694631085
 20
86.83612537235524
 30
0.0
 10
34.91406234582349
 20
86.70398950372062
 30
0.0
 10
34.91406234582347
 20
86.57929475194985
 30
0.0
  0
SPLINE
  5
FF
330
1F
100
AcDbEntity
  8
0
  6
Continuous
 62
     7
370
    25
100
AcDbSpline
210
0.0
220
0.0
230
1.0
 70
     8
 71
     3
 72
    14
 73
    10
 74
     0
 42
0.000000001
 43
0.00000001
 40
0.0
 40
0.0
 40
0.0
 40
0.0
 40
0.1249999999999983
 40
0.1249999999999983
 40
0.2499999999999966
 40
0.2499999999999966
 40
0.4999999999999978
 40
0.4999999999999978
 40
1.0
 40
1.0
 40
1.0
 40
1.0
 10
33.01406234582046
 20
88.91097661267192
 30
0.0
 10
33.08164464560497
 20
88.91813249777331
 30
0.0
 10
33.15413222335287
 20
88.91370802773432
 30
0.0
 10
33.2864233326188
 20
88.88400186996398
 30
0.0
 10
33.34370071200898
 20
88.86071758838574
 30
0.0
 10
33.49335113920926
 20
88.7832323485354
 30
0.0
 10
33.56706443473077
 20
88.72138052163406
 30
0.0
 10
33.754872418057
 20
88.53670306898572
 30
0.0
 10
33.83891272441846
 20
88.4084601456945
 30
0.0
 10
33.90963987448472
 20
88.28214667357193
 30
0.0
  0
SPLINE
  5
100
330
1F
100
AcDbEntity
  8
0
  6
Continuous
 62
     7
370
    25
100
AcDbSpline
210
0.0
220
0.0
230
1.0
 70
     8
 71
     3
 72
     8
 73
     4
 74
     0
 42
0.000000001
 43
0.00000001
 40
0.0
 40
0.0
 40
0.0
 40
0.0
 40
1.0
 40
1.0
 40
1.0
 40
1.0
 10
29.46942195773969
 20
88.49292802788015
 30
0.0
 10
30.63472026844855
 20
88.64811549976677
 30
0.0
 10
31.81933548248839
 20
88.78447413807707
 30
0.0
 10
33.01406234582046
 20
88.91097661267192
 30
0.0
  0
SPLINE
  5
101
330
1F
100
AcDbEntity
  8
0
  6
Continuous
 62
     7
370
    25
100
AcDbSpline
210
0.0
220
0.0
230
1.0
 70
     8
 71
     3
 72
    14
 73
    10
 74
     0
 42
0.000000001
 43
0.00000001
 40
0.0
 40
0.0
 40
0.0
 40
0.0
 40
0.4999999999999989
 40
0.4999999999999989
 40
0.7499999999999983
 40
0.7499999999999983
 40
0.8749999999999991
 40
0.8749999999999991
 40
1.0
 40
1.0
 40
1.0
 40
1.0
 10
21.71398746179013
 20
88.20279584875021
 30
0.0
 10
23.02228902432416
 20
88.20981057249134
 30
0.0
 10
24.32734839898124
 20
88.2252191489358
 30
0.0
 10
26.27322445046995
 20
88.27911570440247
 30
0.0
 10
26.9199219542091
 20
88.30214726900516
 30
0.0
 10
27.88376431806367
 20
88.35308979387595
 30
0.0
 10
28.20400300999781
 20
88.37282471610914
 30
0.0
 10
28.84069823634033
 20
88.4223118445807
 30
0.0
 10
29.15741364462332
 20
88.45137662350994
 30
0.0
 10
29.46942195773972
 20
88.49292802788011
 30
0.0
  0
SPLINE
  5
102
330
1F
100
AcDbEntity
  8
0
  6
Continuous
 62
     7
370
    25
100
AcDbSpline
210
0.0
220
0.0
230
1.0
 70
     8
 71
     3
 72
    12
 73
     8
 74
     0
 42
0.000000001
 43
0.00000001
 40
0.0
 40
0.0
 40
0.0
 40
0.0
 40
0.2500000000000001
 40
0.2500000000000001
 40
0.5000000000000001
 40
0.5000000000000001
 40
1.0
 40
1.0
 40
1.0
 40
1.0
 10
28.01406234582048
 20
152.5351509088117
 30
0.0
 10
27.49536352399229
 20
152.56767368366
 30
0.0
 10
26.9736519507873
 20
152.5909704248305
 30
0.0
 10
25.92735993429171
 20
152.6288159392526
 30
0.0
 10
25.40268830862145
 20
152.6430844137487
 30
0.0
 10
23.82584228608223
 20
152.677293901207
 30
0.0
 10
22.77088697153534
 20
152.6887934051509
 30
0.0
 10
21.71398746179013
 20
152.6944601858804
 30
0.0
  0
SPLINE
  5
103
330
1F
100
AcDbEntity
  8
0
  6
Continuous
 62
     7
370
    25
100
AcDbSpline
210
0.0
220
0.0
230
1.0
 70
     8
 71
     3
 72
    20
 73
    16
 74
     0
 42
0.000000001
 43
0.00000001
 40
0.0
 40
0.0
 40
0.0
 40
0.0
 40
0.2499999999999982
 40
0.2499999999999982
 40
0.4999999999999964
 40
0.4999999999999964
 40
0.7499999999999947
 40
0.7499999999999947
 40
0.8749999999999962
 40
0.8749999999999962
 40
0.9374999999999978
 40
0.9374999999999978
 40
0.9687499999999989
 40
0.9687499999999989
 40
1.0
 40
1.0
 40
1.0
 40
1.0
 10
29.91406234582048
 20
154.1932367542999
 30
0.0
 10
29.91406234582048
 20
154.0575544345531
 30
0.0
 10
29.86535055660385
 20
153.9164674484131
 30
0.0
 10
29.69618913337865
 20
153.6243957296825
 30
0.0
 10
29.57440871946035
 20
153.4727469875922
 30
0.0
 10
29.27686162471085
 20
153.170338547439
 30
0.0
 10
29.10294901900806
 20
153.0177499113157
 30
0.0
 10
28.78353418512623
 20
152.7924791474734
 30
0.0
 10
28.66849340967899
 20
152.7177560529627
 30
0.0
 10
28.46140908566258
 20
152.6183456437057
 30
0.0
 10
28.3853012508562
 20
152.5867805513611
 30
0.0
 10
28.25390671130285
 20
152.5523371671682
 30
0.0
 10
28.20735349230138
 20
152.5432855954005
 30
0.0
 10
28.11102014122067
 20
152.533109946562
 30
0.0
 10
28.06176071786523
 20
152.532160187887
 30
0.0
 10
28.01406234581849
 20
152.5351509088016
 30
0.0
  0
LINE
  5
104
330
1F
100
AcDbEntity
  8
0
  6
Continuous
 62
     7
370
    25
100
AcDbLine
 10
29.9140629001
 20
154.1932351381
 30
0.0
 11
29.9140629001
 21
156.4621418208
 31
0.0
  0
LINE
  5
105
330
1F
100
AcDbEntity
  8
0
  6
Continuous
 62
     7
370
    25
100
AcDbLine
 10
67.2140624017
 20
82.566378215
 30
0.0
 11
67.2140624017
 21
158.3308778197
 31
0.0
  0
SPLINE
  5
106
330
1F
100
AcDbEntity
  8
0
  6
Continuous
 62
     7
370
    25
100
AcDbSpline
210
0.0
220
0.0
230
1.0
 70
     8
 71
     3
 72
    17
 73
    13
 74
     0
 42
0.000000001
 43
0.00000001
 40
0.0
 40
0.0
 40
0.0
 40
0.0
 40
0.0002988343243619
 40
0.1259792851471659
 40
0.2511894857129696
 40
0.3756965961394572
 40
0.4384259638308976
 40
0.5003828778927167
 40
0.6247288856020369
 40
0.7496542424939457
 40
0.8748286136325589
 40
1.0
 40
1.0
 40
1.0
 40
1.0
 10
48.23461963017564
 20
83.51745227874227
 30
0.0
 10
48.23422450069634
 20
83.51740498448032
 30
0.0
 10
48.06765016406698
 20
83.49746719010668
 30
0.0
 10
48.65995072114812
 20
83.57172891459166
 30
0.0
 10
49.98426355216615
 20
83.71731689086762
 30
0.0
 10
51.8220156494552
 20
83.817467871452
 30
0.0
 10
53.44238978503181
 20
83.82120695929362
 30
0.0
 10
55.13351768231465
 20
83.76557376512372
 30
0.0
 10
57.25155907387609
 20
83.57428046966619
 30
0.0
 10
59.37725175808573
 20
83.24578313117476
 30
0.0
 10
60.84975320754908
 20
82.93797928225818
 30
0.0
 10
61.04692582242436
 20
82.89307469805281
 30
0.0
 10
61.14551095445734
 20
82.87062267363973
 30
0.0
  0
SPLINE
  5
107
330
1F
100
AcDbEntity
  8
0
  6
Continuous
 62
     7
370
    25
100
AcDbSpline
210
0.0
220
0.0
230
1.0
 70
     8
 71
     3
 72
    18
 73
    14
 74
     0
 42
0.000000001
 43
0.00000001
 40
0.0
 40
0.0
 40
0.0
 40
0.0
 40
0.1253502868544213
 40
0.2508873389132681
 40
0.375465487557773
 40
0.4995287941058125
 40
0.5615144071079389
 40
0.6243437711804147
 40
0.7490349201471358
 40
0.8743156478033106
 40
0.9999422900516701
 40
0.9999491175645341
 40
0.9999999999999999
 40
0.9999999999999999
 40
0.9999999999999999
 40
0.9999999999999999
 10
61.14515146394353
 20
158.0265365034432
 30
0.0
 10
61.04493532601307
 20
158.0039989731825
 30
0.0
 10
60.84435373348158
 20
157.9588903329498
 30
0.0
 10
59.37224011400129
 20
157.6505738348123
 30
0.0
 10
57.24856933527012
 20
157.3218127902921
 30
0.0
 10
55.13307465262868
 20
157.1317455015684
 30
0.0
 10
53.44402386162236
 20
157.076131866002
 30
0.0
 10
51.8185459897483
 20
157.0803346540561
 30
0.0
 10
50.00292383729664
 20
157.1774277792007
 30
0.0
 10
48.57661357813151
 20
157.3355858567205
 30
0.0
 10
48.24310923910208
 20
157.378672550498
 30
0.0
 10
48.23331447389857
 20
157.3799422436622
 30
0.0
 10
48.23342405377203
 20
157.3799280388635
 30
0.0
 10
48.2335206695376
 20
157.3799155145974
 30
0.0
  0
SPLINE
  5
108
330
1F
100
AcDbEntity
  8
0
  6
Continuous
 62
     7
370
    25
100
AcDbSpline
210
0.0
220
0.0
230
1.0
 70
     8
 71
     3
 72
    20
 73
    16
 74
     0
 42
0.000000001
 43
0.00000001
 40
0.0
 40
0.0
 40
0.0
 40
0.0
 40
0.249999999999986
 40
0.249999999999986
 40
0.3749999999999789
 40
0.3749999999999789
 40
0.4374999999999789
 40
0.4374999999999789
 40
0.4999999999999789
 40
0.4999999999999789
 40
0.6249999999999835
 40
0.6249999999999835
 40
0.7499999999999879
 40
0.7499999999999879
 40
1.0
 40
1.0
 40
1.0
 40
1.0
 10
20.10487657753648
 20
89.77014486461465
 30
0.0
 10
20.13114879474989
 20
89.78946280569711
 30
0.0
 10
20.16182893700473
 20
89.80385151679889
 30
0.0
 10
20.23329980738665
 20
89.79694715496287
 30
0.0
 10
20.26132684443099
 20
89.78978115161446
 30
0.0
 10
20.3164104339285
 20
89.76008212491087
 30
0.0
 10
20.33730176248093
 20
89.74660848234953
 30
0.0
 10
20.38251040992639
 20
89.71141021683351
 30
0.0
 10
20.40691462232196
 20
89.68950198810626
 30
0.0
 10
20.4782469403734
 20
89.61737712811072
 30
0.0
 10
20.52014372519367
 20
89.56503658716065
 30
0.0
 10
20.59171968404955
 20
89.46755319525991
 30
0.0
 10
20.62254767386684
 20
89.42079942538149
 30
0.0
 10
20.70564760670242
 20
89.28750620954237
 30
0.0
 10
20.75050251207272
 20
89.20486881162716
 30
0.0
 10
20.79061458752529
 20
89.12576191683638
 30
0.0
  0
SPLINE
  5
109
330
1F
100
AcDbEntity
  8
0
  6
Continuous
 62
     7
370
    25
100
AcDbSpline
210
0.0
220
0.0
230
1.0
 70
     8
 71
     3
 72
     8
 73
     4
 74
     0
 42
0.000000001
 43
0.00000001
 40
0.0
 40
0.0
 40
0.0
 40
0.0
 40
1.0
 40
1.0
 40
1.0
 40
1.0
 10
19.81406234582048
 20
89.94595827474743
 30
0.0
 10
19.81406234582048
 20
89.92067821752006
 30
0.0
 10
19.81724915025472
 20
89.89707864828202
 30
0.0
 10
19.82335214720214
 20
89.87550120658999
 30
0.0
  0
SPLINE
  5
10A
330
1F
100
AcDbEntity
  8
0
  6
Continuous
 62
     7
370
    25
100
AcDbSpline
210
0.0
220
0.0
230
1.0
 70
     8
 71
     3
 72
     9
 73
     5
 74
     0
 42
0.000000001
 43
0.00000001
 40
0.0
 40
0.0
 40
0.0
 40
0.0
 40
0.7766522094856231
 40
1.0
 40
1.0
 40
1.0
 40
1.0
 10
19.8993947931109
 20
89.83091595173784
 30
0.0
 10
19.94258145763335
 20
89.77871704167706
 30
0.0
 10
19.99818764016266
 20
89.71150689352675
 30
0.0
 10
20.08539950366406
 20
89.75943962208271
 30
0.0
 10
20.10487808068376
 20
89.77014529109903
 30
0.0
  0
LINE
  5
10B
330
1F
100
AcDbEntity
  8
0
  6
Continuous
 62
     7
370
    25
100
AcDbLine
 10
19.8140632935
 20
89.9459585041
 30
0.0
 11
19.8140632935
 21
150.9512975305
 31
0.0
  0
SPLINE
  5
10C
330
1F
100
AcDbEntity
  8
0
  6
Continuous
 62
     7
370
    25
100
AcDbSpline
210
0.0
220
0.0
230
1.0
 70
     8
 71
     3
 72
     9
 73
     5
 74
     0
 42
0.000000001
 43
0.00000001
 40
0.0
 40
0.0
 40
0.0
 40
0.0
 40
0.0592942499244465
 40
1.0
 40
1.0
 40
1.0
 40
1.0
 10
20.10487808068376
 20
151.1271107435317
 30
0.0
 10
20.09999508298499
 20
151.1304038832294
 30
0.0
 10
20.01764312297238
 20
151.1859428216925
 30
0.0
 10
19.95151246855709
 20
151.1286506185797
 30
0.0
 10
19.88930298169236
 20
151.0747555136771
 30
0.0
  0
SPLINE
  5
10D
330
1F
100
AcDbEntity
  8
0
  6
Continuous
 62
     7
370
    25
100
AcDbSpline
210
0.0
220
0.0
230
1.0
 70
     8
 71
     3
 72
     8
 73
     4
 74
     0
 42
0.000000001
 43
0.00000001
 40
0.0
 40
0.0
 40
0.0
 40
0.0
 40
1.0
 40
1.0
 40
1.0
 40
1.0
 10
19.83769601475668
 20
151.0588772609529
 30
0.0
 10
19.82234697612065
 20
151.028367205957
 30
0.0
 10
19.81406234582048
 20
150.9920556504447
 30
0.0
 10
19.81406234582048
 20
150.9512977598833
 30
0.0
  0
SPLINE
  5
10E
330
1F
100
AcDbEntity
  8
0
  6
Continuous
 62
     7
370
    25
100
AcDbSpline
210
0.0
220
0.0
230
1.0
 70
     8
 71
     3
 72
    20
 73
    16
 74
     0
 42
0.000000001
 43
0.00000001
 40
0.0
 40
0.0
 40
0.0
 40
0.0
 40
0.2500000000000037
 40
0.2500000000000037
 40
0.3750000000000055
 40
0.3750000000000055
 40
0.5000000000000073
 40
0.5000000000000073
 40
0.5625000000000057
 40
0.5625000000000057
 40
0.625000000000004
 40
0.625000000000004
 40
0.7500000000000027
 40
0.7500000000000027
 40
1.0
 40
1.0
 40
1.0
 40
1.0
 10
20.7906145875229
 20
151.7714941177935
 30
0.0
 10
20.75061836969908
 20
151.6926157112361
 30
0.0
 10
20.70550474186142
 20
151.6094860645445
 30
0.0
 10
20.62225052749489
 20
151.4759974001936
 30
0.0
 10
20.59203119887439
 20
151.4301323443116
 30
0.0
 10
20.51994296373297
 20
151.3319407919068
 30
0.0
 10
20.47802564632187
 20
151.2796309723831
 30
0.0
 10
20.40677504177041
 20
151.2076250696487
 30
0.0
 10
20.3825392293911
 20
151.1858548573471
 30
0.0
 10
20.33694103920644
 20
151.1503801990181
 30
0.0
 10
20.31613854960673
 20
151.1370100148405
 30
0.0
 10
20.2611975511876
 20
151.1074401027053
 30
0.0
 10
20.23312856310081
 20
151.1003135804033
 30
0.0
 10
20.16262573303797
 20
151.0934392089206
 30
0.0
 10
20.13120164524709
 20
151.1077543680078
 30
0.0
 10
20.1048765775385
 20
151.1271111700184
 30
0.0
  0
SPLINE
  5
10F
330
1F
100
AcDbEntity
  8
0
  6
Continuous
 62
     7
370
    25
100
AcDbSpline
210
0.0
220
0.0
230
1.0
 70
     8
 71
     3
 72
    10
 73
     6
 74
     0
 42
0.000000001
 43
0.00000001
 40
0.0
 40
0.0
 40
0.0
 40
0.0
 40
0.4999999999999989
 40
0.4999999999999989
 40
1.0
 40
1.0
 40
1.0
 40
1.0
 10
21.46406234582049
 20
152.6969132191353
 30
0.0
 10
21.33917407507029
 20
152.5659169410639
 30
0.0
 10
21.21772395700984
 20
152.4222041043989
 30
0.0
 10
20.9881399820524
 20
152.1116338117097
 30
0.0
 10
20.87786500665642
 20
151.9435647386466
 30
0.0
 10
20.7906145875229
 20
151.7714941177935
 30
0.0
  0
SPLINE
  5
110
330
1F
100
AcDbEntity
  8
0
  6
Continuous
 62
     7
370
    25
100
AcDbSpline
210
0.0
220
0.0
230
1.0
 70
     8
 71
     3
 72
     8
 73
     4
 74
     0
 42
0.000000001
 43
0.00000001
 40
0.0
 40
0.0
 40
0.0
 40
0.0
 40
1.0
 40
1.0
 40
1.0
 40
1.0
 10
21.71398746178625
 20
152.69446018588
 30
0.0
 10
21.62696943193787
 20
152.694926750667
 30
0.0
 10
21.54401540555792
 20
152.6959667702432
 30
0.0
 10
21.46406234581817
 20
152.6969132191354
 30
0.0
  0
SPLINE
  5
111
330
1F
100
AcDbEntity
  8
0
  6
Continuous
 62
     7
370
    25
100
AcDbSpline
210
0.0
220
0.0
230
1.0
 70
     8
 71
     3
 72
     8
 73
     4
 74
     0
 42
0.000000001
 43
0.00000001
 40
0.0
 40
0.0
 40
0.0
 40
0.0
 40
1.0
 40
1.0
 40
1.0
 40
1.0
 10
21.46406234581817
 20
88.20034281549528
 30
0.0
 10
21.54401540555794
 20
88.20128926438753
 30
0.0
 10
21.6269694319379
 20
88.20232928396365
 30
0.0
 10
21.71398746178627
 20
88.20279584875074
 30
0.0
  0
SPLINE
  5
112
330
1F
100
AcDbEntity
  8
0
  6
Continuous
 62
     7
370
    25
100
AcDbSpline
210
0.0
220
0.0
230
1.0
 70
     8
 71
     3
 72
    10
 73
     6
 74
     0
 42
0.000000001
 43
0.00000001
 40
0.0
 40
0.0
 40
0.0
 40
0.0
 40
0.4999999999999989
 40
0.4999999999999989
 40
1.0
 40
1.0
 40
1.0
 40
1.0
 10
20.79061458752198
 20
89.12576191683895
 30
0.0
 10
20.87786500665545
 20
88.95369129598556
 30
0.0
 10
20.98813998205161
 20
88.78562222292213
 30
0.0
 10
21.21772395700944
 20
88.47505193023234
 30
0.0
 10
21.33917407507008
 20
88.33133909356705
 30
0.0
 10
21.46406234582049
 20
88.20034281549535
 30
0.0
  0
SPLINE
  5
113
330
1F
100
AcDbEntity
  8
0
  6
Continuous
 62
     7
370
    25
100
AcDbSpline
210
0.0
220
0.0
230
1.0
 70
     8
 71
     3
 72
     8
 73
     4
 74
     0
 42
0.000000001
 43
0.00000001
 40
0.0
 40
0.0
 40
0.0
 40
0.0
 40
1.0
 40
1.0
 40
1.0
 40
1.0
 10
86.45203332489908
 20
159.3995907782023
 30
0.0
 10
86.90895967869862
 20
158.383672808528
 30
0.0
 10
87.36016532050164
 20
157.3648769794368
 30
0.0
 10
87.80406234582048
 20
156.3440755234532
 30
0.0
  0
LINE
  5
114
330
1F
100
AcDbEntity
  8
0
  6
Continuous
 62
     7
370
    25
100
AcDbLine
 10
87.8040627219
 20
156.3440761954
 30
0.0
 11
87.8040627219
 21
155.1628648728
 31
0.0
  0
SPLINE
  5
115
330
1F
100
AcDbEntity
  8
0
  6
Continuous
 62
     7
370
    25
100
AcDbSpline
210
0.0
220
0.0
230
1.0
 70
     8
 71
     3
 72
    14
 73
    10
 74
     0
 42
0.000000001
 43
0.00000001
 40
0.0
 40
0.0
 40
0.0
 40
0.0
 40
0.25
 40
0.25
 40
0.5
 40
0.5
 40
0.75
 40
0.75
 40
1.0
 40
1.0
 40
1.0
 40
1.0
 10
87.80406234582045
 20
155.1628632098124
 30
0.0
 10
87.80406234582045
 20
155.0389963330232
 30
0.0
 10
87.81992147344805
 20
154.9147366561857
 30
0.0
 10
87.88328311896795
 20
154.6771282937798
 30
0.0
 10
87.93187282701732
 20
154.5603479090273
 30
0.0
 10
88.06415843179217
 20
154.3515453804183
 30
0.0
 10
88.14948322305275
 20
154.2570346768257
 30
0.0
 10
88.35637447135893
 20
154.1190778760235
 30
0.0
 10
88.48034241724893
 20
154.0771594303878
 30
0.0
 10
88.60406234582047
 20
154.0771594303878
 30
0.0
  0
LINE
  5
116
330
1F
100
AcDbEntity
  8
0
  6
Continuous
 62
     7
370
    25
100
AcDbLine
 10
88.6040632256
 20
154.0771588177
 30
0.0
 11
90.8240624346
 21
154.0771588177
 31
0.0
  0
SPLINE
  5
117
330
1F
100
AcDbEntity
  8
0
  6
Continuous
 62
     7
370
    25
100
AcDbSpline
210
0.0
220
0.0
230
1.0
 70
     8
 71
     3
 72
    12
 73
     8
 74
     0
 42
0.000000001
 43
0.00000001
 40
0.0
 40
0.0
 40
0.0
 40
0.0
 40
0.250000000000002
 40
0.250000000000002
 40
0.500000000000004
 40
0.500000000000004
 40
1.0
 40
1.0
 40
1.0
 40
1.0
 10
90.82406234582253
 20
154.0771594303879
 30
0.0
 10
90.94776329580235
 20
154.0771594303883
 30
0.0
 10
91.07185990807223
 20
154.1191530421211
 30
0.0
 10
91.27851507115865
 20
154.2569483687657
 30
0.0
 10
91.36355583788527
 20
154.3509219672305
 30
0.0
 10
91.56303440635833
 20
154.6657101734513
 30
0.0
 10
91.62406234582049
 20
154.9159491656785
 30
0.0
 10
91.62406234582049
 20
155.1628632098124
 30
0.0
  0
LINE
  5
118
330
1F
100
AcDbEntity
  8
0
  6
Continuous
 62
     7
370
    25
100
AcDbLine
 10
91.6240629383
 20
155.1628648728
 30
0.0
 11
91.6240629383
 21
156.3440761954
 31
0.0
  0
SPLINE
  5
119
330
1F
100
AcDbEntity
  8
0
  6
Continuous
 62
     7
370
    25
100
AcDbSpline
210
0.0
220
0.0
230
1.0
 70
     8
 71
     3
 72
     8
 73
     4
 74
     0
 42
0.000000001
 43
0.00000001
 40
0.0
 40
0.0
 40
0.0
 40
0.0
 40
1.0
 40
1.0
 40
1.0
 40
1.0
 10
91.62406234582048
 20
156.3440755234532
 30
0.0
 10
92.06821235684598
 20
157.3654587544048
 30
0.0
 10
92.51928666710391
 20
158.3839432911732
 30
0.0
 10
92.97609136674187
 20
159.3995907782023
 30
0.0
  0
LINE
  5
11A
330
1F
100
AcDbEntity
  8
0
  6
Continuous
 62
     7
370
    25
100
AcDbLine
 10
92.9760918595
 20
159.3995891005
 30
0.0
 11
97.6640623637
 21
159.3995891005
 31
0.0
  0
SPLINE
  5
11B
330
1F
100
AcDbEntity
  8
0
  6
Continuous
 62
     7
370
    25
100
AcDbSpline
210
0.0
220
0.0
230
1.0
 70
     8
 71
     3
 72
    16
 73
    12
 74
     0
 42
0.000000001
 43
0.00000001
 40
0.0
 40
0.0
 40
0.0
 40
0.0
 40
0.125
 40
0.125
 40
0.25
 40
0.25
 40
0.5
 40
0.5
 40
0.75
 40
0.75
 40
1.0
 40
1.0
 40
1.0
 40
1.0
 10
97.66406234581949
 20
159.3995907782023
 30
0.0
 10
97.73970005223073
 20
159.3995907782024
 30
0.0
 10
97.81601571664896
 20
159.3882457780675
 30
0.0
 10
97.96042645454108
 20
159.3455932274291
 30
0.0
 10
98.02887290364953
 20
159.3146589027463
 30
0.0
 10
98.22380415626291
 20
159.1954025309788
 30
0.0
 10
98.33164533004391
 20
159.0852505173582
 30
0.0
 10
98.50035807825614
 20
158.8371144317001
 30
0.0
 10
98.56272249097975
 20
158.6967721076964
 30
0.0
 10
98.64402641548824
 20
158.4085004162076
 30
0.0
 10
98.66406234582048
 20
158.2576954432277
 30
0.0
 10
98.66406234582048
 20
158.1073255518823
 30
0.0
  0
LINE
  5
11C
330
1F
100
AcDbEntity
  8
0
  6
Continuous
 62
     7
370
    25
100
AcDbLine
 10
98.6640625276
 20
158.1073268741
 30
0.0
 11
98.6640625276
 21
151.7986297101
 31
0.0
  0
SPLINE
  5
11D
330
1F
100
AcDbEntity
  8
0
  6
Continuous
 62
     7
370
    25
100
AcDbSpline
210
0.0
220
0.0
230
1.0
 70
     8
 71
     3
 72
    14
 73
    10
 74
     0
 42
0.000000001
 43
0.00000001
 40
0.0
 40
0.0
 40
0.0
 40
0.0
 40
0.25
 40
0.25
 40
0.5
 40
0.5
 40
0.75
 40
0.75
 40
1.0
 40
1.0
 40
1.0
 40
1.0
 10
91.62406234582049
 20
166.1421792581633
 30
0.0
 10
91.62406234582049
 20
166.0358225644109
 30
0.0
 10
91.60367478967923
 20
165.9299820766508
 30
0.0
 10
91.52504044421767
 20
165.7334171631144
 30
0.0
 10
91.46630908457901
 20
165.6422464208272
 30
0.0
 10
91.31970017897639
 20
165.4903353317956
 30
0.0
 10
91.23029485894982
 20
165.428266494976
 30
0.0
 10
91.03640412634944
 20
165.3449984472173
 30
0.0
 10
90.92989913645957
 20
165.3229037774877
 30
0.0
 10
90.82406234582021
 20
165.3229037774878
 30
0.0
  0
LINE
  5
11E
330
1F
100
AcDbEntity
  8
0
  6
Continuous
 62
     7
370
    25
100
AcDbLine
 10
97.6640623637
 20
169.4384231657
 30
0.0
 11
92.9760918595
 21
169.4384231657
 31
0.0
  0
LINE
  5
11F
330
1F
100
AcDbEntity
  8
0
  6
Continuous
 62
     7
370
    25
100
AcDbLine
 10
92.9760918595
 20
159.3995891005
 30
0.0
 11
92.9760918595
 21
169.4384231657
 31
0.0
  0
SPLINE
  5
120
330
1F
100
AcDbEntity
  8
0
  6
Continuous
 62
     7
370
    25
100
AcDbSpline
210
0.0
220
0.0
230
1.0
 70
     8
 71
     3
 72
    10
 73
     6
 74
     0
 42
0.000000001
 43
0.00000001
 40
0.0
 40
0.0
 40
0.0
 40
0.0
 40
0.5
 40
0.5
 40
1.0
 40
1.0
 40
1.0
 40
1.0
 10
88.60406234582047
 20
165.3229037774878
 30
0.0
 10
88.39152603196412
 20
165.3229037774878
 30
0.0
 10
88.18158986031013
 20
165.414316364118
 30
0.0
 10
87.88788271929886
 20
165.7190612300222
 30
0.0
 10
87.80406234582045
 20
165.9312161999308
 30
0.0
 10
87.80406234582045
 20
166.1421792581633
 30
0.0
  0
SPLINE
  5
121
330
1F
100
AcDbEntity
  8
0
  6
Continuous
 62
     7
370
    25
100
AcDbSpline
210
0.0
220
0.0
230
1.0
 70
     8
 71
     3
 72
     8
 73
     4
 74
     0
 42
0.000000001
 43
0.00000001
 40
0.0
 40
0.0
 40
0.0
 40
0.0
 40
1.0
 40
1.0
 40
1.0
 40
1.0
 10
87.80406234582048
 20
167.0458988780202
 30
0.0
 10
87.35375411013592
 20
167.8436140031339
 30
0.0
 10
86.90306029361233
 20
168.641112302791
 30
0.0
 10
86.45203332489908
 20
169.4384228729789
 30
0.0
  0
LINE
  5
122
330
1F
100
AcDbEntity
  8
0
  6
Continuous
 62
     7
370
    25
100
AcDbLine
 10
87.8040627219
 20
156.3440761954
 30
0.0
 11
87.8040627219
 21
167.045900175
 31
0.0
  0
SPLINE
  5
123
330
1F
100
AcDbEntity
  8
0
  6
Continuous
 62
     7
370
    25
100
AcDbSpline
210
0.0
220
0.0
230
1.0
 70
     8
 71
     3
 72
     8
 73
     4
 74
     0
 42
0.000000001
 43
0.00000001
 40
0.0
 40
0.0
 40
0.0
 40
0.0
 40
1.0
 40
1.0
 40
1.0
 40
1.0
 10
92.97609136674185
 20
169.4384228729789
 30
0.0
 10
92.52506439802862
 20
168.641112302791
 30
0.0
 10
92.07437058150502
 20
167.8436140031339
 30
0.0
 10
91.62406234582048
 20
167.0458988780202
 30
0.0
  0
LINE
  5
124
330
1F
100
AcDbEntity
  8
0
  6
Continuous
 62
     7
370
    25
100
AcDbLine
 10
91.6240629383
 20
156.3440761954
 30
0.0
 11
91.6240629383
 21
167.045900175
 31
0.0
  0
SPLINE
  5
125
330
1F
100
AcDbEntity
  8
0
  6
Continuous
 62
     7
370
    25
100
AcDbSpline
210
0.0
220
0.0
230
1.0
 70
     8
 71
     3
 72
    12
 73
     8
 74
     0
 42
0.000000001
 43
0.00000001
 40
0.0
 40
0.0
 40
0.0
 40
0.0
 40
0.5
 40
0.5
 40
0.75
 40
0.75
 40
1.0
 40
1.0
 40
1.0
 40
1.0
 10
98.66406234582048
 20
168.4173678381612
 30
0.0
 10
98.66406234582048
 20
168.6826372709276
 30
0.0
 10
98.55945560233401
 20
168.94515237658
 30
0.0
 10
98.28278725058873
 20
169.2306899826173
 30
0.0
 10
98.17242199123672
 20
169.3070115994787
 30
0.0
 10
97.928349942621
 20
169.4113537643188
 30
0.0
 10
97.79659748128924
 20
169.4384228729789
 30
0.0
 10
97.66406234582048
 20
169.4384228729789
 30
0.0
  0
LINE
  5
126
330
1F
100
AcDbEntity
  8
0
  6
Continuous
 62
     7
370
    25
100
AcDbLine
 10
98.6640625276
 20
158.1073268741
 30
0.0
 11
98.6640625276
 21
168.4173695237
 31
0.0
  0
LINE
  5
127
330
1F
100
AcDbEntity
  8
0
  6
Continuous
 62
     7
370
    25
100
AcDbLine
 10
90.8240624346
 20
165.3229049832
 30
0.0
 11
88.6040632256
 21
165.3229049832
 31
0.0
  0
ARC
  5
128
330
1F
100
AcDbEntity
  8
0
  6
Continuous
 62
     7
370
    25
100
AcDbCircle
 10
78.7147627988
 20
153.1908863625
 30
0.0
 40
11.27754853338812
100
AcDbArc
 50
77.8654440756
 51
102.4735625565
  0
LINE
  5
129
330
1F
100
AcDbEntity
  8
0
  6
Continuous
 62
     7
370
    25
100
AcDbLine
 10
163.6640657314
 20
120.4486280173
 30
0.0
 11
163.6640657314
 21
97.9486271232
 31
0.0
  0
LINE
  5
12A
330
1F
100
AcDbEntity
  8
0
  6
Continuous
 62
     7
370
    25
100
AcDbLine
 10
163.6640657314
 20
142.9486289114
 30
0.0
 11
163.6640657314
 21
120.4486280173
 31
0.0
  0
SPLINE
  5
12B
330
1F
100
AcDbEntity
  8
0
  6
Continuous
 62
     7
370
    25
100
AcDbSpline
210
0.0
220
0.0
230
1.0
 70
     8
 71
     3
 72
    17
 73
    13
 74
     0
 42
0.000000001
 43
0.00000001
 40
0.0
 40
0.0
 40
0.0
 40
0.0
 40
0.0518565070827755
 40
0.1408207459842976
 40
0.2339267253946055
 40
0.336750745250334
 40
0.4506704644450338
 40
0.5725260893943342
 40
0.6968692681336572
 40
0.8176296557271123
 40
0.9277143407129989
 40
1.0
 40
1.0
 40
1.0
 40
1.0
 10
148.1218044288931
 20
142.9434805601925
 30
0.0
 10
148.1280549917785
 20
142.9442286578853
 30
0.0
 10
148.1450289257717
 20
142.9462601806601
 30
0.0
 10
147.815280275741
 20
142.9066032531291
 30
0.0
 10
147.2041776746191
 20
142.8432835265537
 30
0.0
 10
146.3003073318677
 20
142.7727382394413
 30
0.0
 10
145.1617588311408
 20
142.7261905339012
 30
0.0
 10
143.8963558506408
 20
142.731559892589
 30
0.0
 10
142.6849283501014
 20
142.7941374228897
 30
0.0
 10
141.7527307989739
 20
142.879008161356
 30
0.0
 10
141.2225830754151
 20
142.9413388405004
 30
0.0
 10
141.2053104668624
 20
142.9435715951101
 30
0.0
 10
141.1984641679106
 20
142.9444565862507
 30
0.0
  0
SPLINE
  5
12C
330
1F
100
AcDbEntity
  8
0
  6
Continuous
 62
     7
370
    25
100
AcDbSpline
210
0.0
220
0.0
230
1.0
 70
    11
 71
     3
 72
    70
 73
    66
 74
     0
 42
0.000000001
 43
0.00000001
 40
0.0
 40
0.0
 40
0.0
 40
0.0
 40
0.03125
 40
0.03125
 40
0.0625
 40
0.0625
 40
0.09375
 40
0.09375
 40
0.125
 40
0.125
 40
0.15625
 40
0.15625
 40
0.1875
 40
0.1875
 40
0.21875
 40
0.21875
 40
0.25
 40
0.25
 40
0.28125
 40
0.28125
 40
0.3125
 40
0.3125
 40
0.34375
 40
0.34375
 40
0.375
 40
0.375
 40
0.40625
 40
0.40625
 40
0.4375
 40
0.4375
 40
0.46875
 40
0.46875
 40
0.5
 40
0.5
 40
0.53125
 40
0.53125
 40
0.5625
 40
0.5625
 40
0.59375
 40
0.59375
 40
0.625
 40
0.625
 40
0.65625
 40
0.65625
 40
0.6875
 40
0.6875
 40
0.71875
 40
0.71875
 40
0.75
 40
0.75
 40
0.78125
 40
0.78125
 40
0.8125
 40
0.8125
 40
0.84375
 40
0.84375
 40
0.875
 40
0.875
 40
0.90625
 40
0.90625
 40
0.9375
 40
0.9375
 40
0.96875
 40
0.96875
 40
1.0
 40
1.0
 40
1.0
 40
1.0
 10
142.3054818288228
 20
122.7503154800106
 30
0.0
 10
142.4746335613403
 20
122.8884260155682
 30
0.0
 10
142.6541543230773
 20
123.0082976119293
 30
0.0
 10
143.0320673447392
 20
123.2150114181584
 30
0.0
 10
143.2318730131958
 20
123.3022678109971
 30
0.0
 10
143.6443727576485
 20
123.4411048252122
 30
0.0
 10
143.8542724399245
 20
123.4920315482225
 30
0.0
 10
144.2810630557564
 20
123.5585602090891
 30
0.0
 10
144.4999673634445
 20
123.5740488848159
 30
0.0
 10
144.9340761711633
 20
123.5681242549841
 30
0.0
 10
145.1487093057127
 20
123.5471309044168
 30
0.0
 10
145.573181617206
 20
123.4694026761426
 30
0.0
 10
145.7850649799392
 20
123.411825917284
 30
0.0
 10
146.1917610686796
 20
123.2622470083541
 30
0.0
 10
146.3864757997776
 20
123.1707937594777
 30
0.0
 10
146.7582959751768
 20
122.9537516707879
 30
0.0
 10
146.9372895088559
 20
122.826402539961
 30
0.0
 10
147.2640136600711
 20
122.5429041618318
 30
0.0
 10
147.4120058052906
 20
122.3873389171637
 30
0.0
 10
147.675596930306
 20
122.0469504615622
 30
0.0
 10
147.7922207687453
 20
121.8593624378053
 30
0.0
 10
147.9784392715403
 20
121.4694624671656
 30
0.0
 10
148.0494465978433
 20
121.2663495689614
 30
0.0
 10
148.1442995058995
 20
120.8426620372185
 30
0.0
 10
148.1670023462494
 20
120.6231118166783
 30
0.0
 10
148.1604972408025
 20
120.191115819135
 30
0.0
 10
148.131362213929
 20
119.9730150999523
 30
0.0
 10
148.0237407327567
 20
119.5510896370486
 30
0.0
 10
147.9464536766303
 20
119.3490073610027
 30
0.0
 10
147.74735502666
 20
118.961639472001
 30
0.0
 10
147.6263847964888
 20
118.7790002459548
 30
0.0
 10
147.3522545987725
 20
118.4444509127284
 30
0.0
 10
147.1964032470068
 20
118.2894640196937
 30
0.0
 10
146.8609468746597
 20
118.0142904743503
 30
0.0
 10
146.6816626488899
 20
117.8936722091773
 30
0.0
 10
146.3011286580565
 20
117.6845290467063
 30
0.0
 10
146.0999289189185
 20
117.5965592737829
 30
0.0
 10
145.6903780472934
 20
117.458056289007
 30
0.0
 10
145.4802715762254
 20
117.4064794629703
 30
0.0
 10
145.0493296232171
 20
117.3388001133334
 30
0.0
 10
144.8316063522846
 20
117.3234183302039
 30
0.0
 10
144.399782829974
 20
117.3288007013205
 30
0.0
 10
144.1844198747782
 20
117.3493532932533
 30
0.0
 10
143.7548378378569
 20
117.4277296971064
 30
0.0
 10
143.545010682817
 20
117.4849118254501
 30
0.0
 10
143.1404739445305
 20
117.6333009969017
 30
0.0
 10
142.9448622035454
 20
117.7246434454065
 30
0.0
 10
142.5680094121961
 20
117.9445096815264
 30
0.0
 10
142.3913401174889
 20
118.0705758979169
 30
0.0
 10
142.0664793520591
 20
118.3521377614949
 30
0.0
 10
141.9174455932139
 20
118.5080571358414
 30
0.0
 10
141.6496081022427
 20
118.8542234889636
 30
0.0
 10
141.5359480625707
 20
119.0379365264398
 30
0.0
 10
141.3503296556321
 20
119.4263098350156
 30
0.0
 10
141.2776790102237
 20
119.6339884161386
 30
0.0
 10
141.1831163288594
 20
120.0591661344925
 30
0.0
 10
141.1610264876428
 20
120.2740815050988
 30
0.0
 10
141.1677602029887
 20
120.7086179122749
 30
0.0
 10
141.197497491497
 20
120.9279387468442
 30
0.0
 10
141.3049575853579
 20
121.3475890346735
 30
0.0
 10
141.3837979493727
 20
121.5532317711665
 30
0.0
 10
141.5835400788011
 20
121.9401407719756
 30
0.0
 10
141.7032645755373
 20
122.1205802622806
 30
0.0
 10
141.9798636012233
 20
122.45720570908
 30
0.0
 10
142.1363300963053
 20
122.6122049444529
 30
0.0
 10
142.3054818288228
 20
122.7503154800106
 30
0.0
  0
SPLINE
  5
12D
330
1F
100
AcDbEntity
  8
0
  6
Continuous
 62
     7
370
    25
100
AcDbSpline
210
0.0
220
0.0
230
1.0
 70
     8
 71
     3
 72
    17
 73
    13
 74
     0
 42
0.000000001
 43
0.00000001
 40
0.0
 40
0.0
 40
0.0
 40
0.0
 40
0.0498253114898149
 40
0.1387860572622925
 40
0.2317193688371133
 40
0.3342861567235261
 40
0.4479701011018081
 40
0.5697009555657674
 40
0.6940491652417781
 40
0.8149685094402866
 40
0.9253602814160807
 40
1.0
 40
1.0
 40
1.0
 40
1.0
 10
141.2068162687598
 20
97.95383694172807
 30
0.0
 10
141.1996229449666
 20
97.95297143432849
 30
0.0
 10
141.1795862805083
 20
97.95056060425182
 30
0.0
 10
141.5022194293064
 20
97.98943663467746
 30
0.0
 10
142.1064344616697
 20
98.05232735329702
 30
0.0
 10
143.004316443688
 20
98.12305420470017
 30
0.0
 10
144.1382609993331
 20
98.17049410140682
 30
0.0
 10
145.4026881866207
 20
98.16650822024332
 30
0.0
 10
146.6176349308266
 20
98.10500632201926
 30
0.0
 10
147.558386952739
 20
98.02008056813382
 30
0.0
 10
148.1004787012445
 20
97.95655659215178
 30
0.0
 10
148.1226558987744
 20
97.9537081843215
 30
0.0
 10
148.1316019423781
 20
97.9525591671557
 30
0.0
  0
CIRCLE
  5
12E
330
1F
100
AcDbEntity
  8
0
  6
Continuous
 62
     7
370
    25
100
AcDbCircle
 10
144.6640623458
 20
120.4486280173
 30
0.0
 40
2.5
  0
LINE
  5
12F
330
1F
100
AcDbEntity
  8
0
  6
Continuous
 62
     7
370
    25
100
AcDbLine
 10
21.4640614219
 20
88.198629716
 30
0.0
 11
21.4640614219
 21
88.2003433496
 31
0.0
  0
LINE
  5
130
330
1F
100
AcDbEntity
  8
0
  6
Continuous
 62
     7
370
    25
100
AcDbLine
 10
21.4640614219
 20
152.6986263186
 30
0.0
 11
21.4640614219
 21
152.696912685
 31
0.0
  0
DIMENSION
  5
131
330
1F
100
AcDbEntity
  8
VERMASSUNG
100
AcDbDimension
  2
_D
 10
291.7140623458
 20
145.2986280173
 30
0.0
 11
291.7140623458
 21
120.4486280173
 31
0.0
 70
   160
  1
%%c<>
 71
     2
 42
-1.0
  3
SLDDIMSTYLE0
100
AcDbAlignedDimension
 13
266.3365628558
 23
95.5986280173
 33
0.0
 14
266.3365628558
 24
145.2986280173
 34
0.0
 50
90.0
100
AcDbRotatedDimension
  0
DIMENSION
  5
13D
330
1F
100
AcDbEntity
  8
VERMASSUNG
100
AcDbDimension
  2
_D_1
 10
282.2467745118
 20
142.9486280173
 30
0.0
 11
282.2467745118
 21
120.4486280173
 31
0.0
 70
   160
  1
%%c<>
 71
     2
 42
-1.0
  3
SLDDIMSTYLE0
100
AcDbAlignedDimension
 13
163.6640623458
 23
97.9486280173
 33
0.0
 14
163.6640623458
 24
142.9486280173
 34
0.0
 50
90.0
100
AcDbRotatedDimension
  0
DIMENSION
  5
148
330
1F
100
AcDbEntity
  8
VERMASSUNG
100
AcDbDimension
  2
_D_2
 10
9.5635929848
 20
70.4486280173
 30
0.0
 11
9.5635929848
 21
120.4486280173
 31
0.0
 70
   160
  1
%%c<>
 71
     2
 42
-1.0
  3
SLDDIMSTYLE0
100
AcDbAlignedDimension
 13
70.2140623458
 23
170.4486280173
 33
0.0
 14
70.2140623458
 24
70.4486280173
 34
0.0
 50
90.0
100
AcDbRotatedDimension
  0
DIMENSION
  5
153
330
1F
100
AcDbEntity
  8
VERMASSUNG
100
AcDbDimension
  2
_D_3
 10
269.7140623458
 20
182.767447007
 30
0.0
 11
169.7140623458
 21
182.767447007
 31
0.0
 70
   160
  1
<>
 71
     2
 42
-1.0
  3
SLDDIMSTYLE0
100
AcDbAlignedDimension
 13
69.7140623458
 23
169.9486280173
 33
0.0
 14
269.7140623458
 24
139.4486280173
 34
0.0
100
AcDbRotatedDimension
  0
DIMENSION
  5
15D
330
1F
100
AcDbEntity
  8
VERMASSUNG
100
AcDbDimension
  2
_D_4
 10
269.7140623458
 20
194.4093361163
 30
0.0
 11
144.7640623458
 21
194.4093361163
 31
0.0
 70
   160
  1
<>
 71
     2
 42
-1.0
  3
SLDDIMSTYLE0
100
AcDbAlignedDimension
 13
19.8140623458
 23
150.9512977599
 33
0.0
 14
269.7140623458
 24
139.4486280173
 34
0.0
100
AcDbRotatedDimension
  0
LINE
  5
167
330
1F
100
AcDbEntity
  8
VERMASSUNG
  6
CENTERX2
370
    18
100
AcDbLine
 10
272.8094698672
 20
120.4486280173
 30
0.0
 11
13.6296533534
 21
120.4486280173
 31
0.0
  0
LINE
  5
168
330
1F
100
AcDbEntity
  8
0
  6
Continuous
 62
     7
370
    25
100
AcDbLine
 10
246.8342623383
 20
12.510295137
 30
0.0
 11
248.4912920293
 21
11.5537122579
 31
0.0
  0
LINE
  5
169
330
1F
100
AcDbEntity
  8
0
  6
Continuous
 62
     7
370
    25
100
AcDbLine
 10
260.9152820814
 20
33.0750257769
 30
0.0
 11
259.2582523904
 21
34.0316086561
 31
0.0
  0
LINE
  5
16A
330
1F
100
AcDbEntity
  8
0
  6
Continuous
 62
     7
370
    25
100
AcDbLine
 10
253.0448294244
 20
33.415647028
 30
0.0
 11
252.868078468
 21
33.3135814994
 31
0.0
  0
LINE
  5
16B
330
1F
100
AcDbEntity
  8
0
  6
Continuous
 62
     7
370
    25
100
AcDbLine
 10
244.2604524229
 20
18.403120146
 30
0.0
 11
244.2604557156
 21
18.1990165639
 31
0.0
  0
LINE
  5
16C
330
1F
100
AcDbEntity
  8
0
  6
Continuous
 62
     7
370
    25
100
AcDbLine
 10
254.3583914915
 20
34.0601652574
 30
0.0
 11
247.0170848304
 21
38.2982113834
 31
0.0
  0
LINE
  5
16D
330
1F
100
AcDbEntity
  8
0
  6
Continuous
 62
     7
370
    25
100
AcDbLine
 10
237.0178978036
 20
20.9772346469
 30
0.0
 11
244.3592044646
 21
16.7391885209
 31
0.0
  0
SPLINE
  5
16E
330
1F
100
AcDbEntity
  8
0
  6
Continuous
 62
     7
370
    25
100
AcDbSpline
210
0.0
220
0.0
230
1.0
 70
     8
 71
     3
 72
    12
 73
     8
 74
     0
 42
0.000000001
 43
0.00000001
 40
0.0
 40
0.0
 40
0.0
 40
0.0
 40
0.2196359339729768
 40
0.4734864826374464
 40
0.7273763055178464
 40
0.9811767777617748
 40
0.9999999999999999
 40
0.9999999999999999
 40
0.9999999999999999
 40
0.9999999999999999
 10
218.0967616363218
 20
30.476287803645
 30
0.0
 10
219.5133549836472
 20
29.85586876945717
 30
0.0
 10
222.5672168414033
 20
28.51838258973644
 30
0.0
 10
227.1937347192977
 20
26.2865281142474
 30
0.0
 10
231.969498838096
 20
23.8051005911552
 30
0.0
 10
235.243681950837
 20
22.02710271501809
 30
0.0
 10
236.9004279264376
 20
21.04084318889103
 30
0.0
 10
237.0148174616182
 20
20.97274719202577
 30
0.0
  0
SPLINE
  5
16F
330
1F
100
AcDbEntity
  8
0
  6
Continuous
 62
     7
370
    25
100
AcDbSpline
210
0.0
220
0.0
230
1.0
 70
     8
 71
     3
 72
    12
 73
     8
 74
     0
 42
0.000000001
 43
0.00000001
 40
0.0
 40
0.0
 40
0.0
 40
0.0
 40
0.1270549762442521
 40
0.380462381578096
 40
0.6334301126286882
 40
0.8858393672683936
 40
1.0
 40
1.0
 40
1.0
 40
1.0
 10
247.0270621090062
 20
38.31526669810135
 30
0.0
 10
246.2468828440227
 20
38.76132292690581
 30
0.0
 10
243.9106590298302
 20
40.0970251571155
 30
0.0
 10
240.1074117721581
 20
42.46609410843445
 30
0.0
 10
235.630956729249
 20
45.41388275281788
 30
0.0
 10
232.0390662778638
 20
47.90836439057247
 30
0.0
 10
229.9778801557388
 20
49.45798081047724
 30
0.0
 10
229.3359662397683
 20
49.9405768912852
 30
0.0
  0
LINE
  5
170
330
1F
100
AcDbEntity
  8
0
  6
Continuous
 62
     7
370
    25
100
AcDbLine
 10
204.2705222266
 20
38.4385550666
 30
0.0
 11
217.7055519543
 21
30.6826774933
 31
0.0
  0
LINE
  5
171
330
1F
100
AcDbEntity
  8
0
  6
Continuous
 62
     7
370
    25
100
AcDbLine
 10
228.9546380181
 20
50.1687770823
 30
0.0
 11
215.5196082904
 21
57.9246546556
 31
0.0
  0
LINE
  5
172
330
1F
100
AcDbEntity
  8
0
  6
Continuous
 62
     7
370
    25
100
AcDbLine
 10
177.791545663
 20
37.8478408053
 30
0.0
 11
183.5325355189
 21
34.5336379063
 31
0.0
  0
LINE
  5
173
330
1F
100
AcDbEntity
  8
0
  6
Continuous
 62
     7
370
    25
100
AcDbLine
 10
204.9962283963
 20
79.8763746182
 30
0.0
 11
202.7895132302
 21
81.1502841676
 31
0.0
  0
SPLINE
  5
174
330
1F
100
AcDbEntity
  8
0
  6
Continuous
 62
     7
370
    25
100
AcDbSpline
210
0.0
220
0.0
230
1.0
 70
     8
 71
     3
 72
    12
 73
     8
 74
     0
 42
0.000000001
 43
0.00000001
 40
0.0
 40
0.0
 40
0.0
 40
0.0
 40
0.1452780204869674
 40
0.3788249160842439
 40
0.6157321616594206
 40
0.8543226458422
 40
1.0
 40
1.0
 40
1.0
 40
1.0
 10
196.0208044540531
 20
41.63754533055551
 30
0.0
 10
196.4242081053453
 20
41.54988133338318
 30
0.0
 10
197.4761177736941
 20
41.32128993145533
 30
0.0
 10
199.2066313348462
 20
40.7783468684483
 30
0.0
 10
201.1760087746341
 20
40.01546884954889
 30
0.0
 10
202.8771311968977
 20
39.22818762193249
 30
0.0
 10
203.8805900071046
 20
38.64383669301245
 30
0.0
 10
204.2610049414081
 20
38.42230710158909
 30
0.0
  0
SPLINE
  5
175
330
1F
100
AcDbEntity
  8
0
  6
Continuous
 62
     7
370
    25
100
AcDbSpline
210
0.0
220
0.0
230
1.0
 70
     8
 71
     3
 72
    13
 73
     9
 74
     0
 42
0.000000001
 43
0.00000001
 40
0.0
 40
0.0
 40
0.0
 40
0.0
 40
0.0026804097253632
 40
0.2408585379984334
 40
0.4770648908817715
 40
0.7100171961856473
 40
0.9386084915730148
 40
1.0
 40
1.0
 40
1.0
 40
1.0
 10
215.5187423043982
 20
57.92616816759451
 30
0.0
 10
215.5115925952941
 20
57.9299586590971
 30
0.0
 10
214.869127950569
 20
58.2705678700591
 30
0.0
 10
213.6651222883894
 20
59.07215310662525
 30
0.0
 10
211.9427845943293
 20
60.31715295769294
 30
0.0
 10
210.3778258200671
 20
61.66690298087815
 30
0.0
 10
209.2685336835698
 20
62.72548185162272
 30
0.0
 10
208.7316736537936
 20
63.34062640333011
 30
0.0
 10
208.6180164071963
 20
63.47085706333205
 30
0.0
  0
SPLINE
  5
176
330
1F
100
AcDbEntity
  8
0
  6
Continuous
 62
     7
370
    25
100
AcDbSpline
210
0.0
220
0.0
230
1.0
 70
     8
 71
     3
 72
    10
 73
     6
 74
     0
 42
0.000000001
 43
0.00000001
 40
0.0
 40
0.0
 40
0.0
 40
0.0
 40
0.2877671293385511
 40
0.7914668933538241
 40
1.0
 40
1.0
 40
1.0
 40
1.0
 10
172.7746420756861
 20
52.74958254578398
 30
0.0
 10
172.7305306036819
 20
52.41833883659147
 30
0.0
 10
172.6092076096741
 20
51.50729513934849
 30
0.0
 10
172.5494243845138
 20
50.39454585256505
 30
0.0
 10
172.5418536619829
 20
49.62215809105076
 30
0.0
 10
172.5396370466679
 20
49.39601236529329
 30
0.0
  0
SPLINE
  5
177
330
1F
100
AcDbEntity
  8
0
  6
Continuous
 62
     7
370
    25
100
AcDbSpline
210
0.0
220
0.0
230
1.0
 70
     8
 71
     3
 72
     9
 73
     5
 74
     0
 42
0.000000001
 43
0.00000001
 40
0.0
 40
0.0
 40
0.0
 40
0.0
 40
0.5696751866024141
 40
1.0
 40
1.0
 40
1.0
 40
1.0
 10
190.4817333170439
 20
80.08797933964205
 30
0.0
 10
190.2527834166186
 20
79.9668230388072
 30
0.0
 10
189.8508879052647
 20
79.75414693199369
 30
0.0
 10
189.4505573510768
 20
79.48691159744087
 30
0.0
 10
189.2782851800486
 20
79.37191360196618
 30
0.0
  0
SPLINE
  5
178
330
1F
100
AcDbEntity
  8
0
  6
Continuous
 62
     7
370
    25
100
AcDbSpline
210
0.0
220
0.0
230
1.0
 70
     8
 71
     3
 72
     9
 73
     5
 74
     0
 42
0.000000001
 43
0.00000001
 40
0.0
 40
0.0
 40
0.0
 40
0.0
 40
0.4109279501872297
 40
1.0
 40
1.0
 40
1.0
 40
1.0
 10
172.5396370466679
 20
49.39601236529329
 30
0.0
 10
172.5417406235404
 20
49.11107167681802
 30
0.0
 10
172.5468597128395
 20
48.41766377320515
 30
0.0
 10
172.6070508423161
 20
47.75841576259267
 30
0.0
 10
172.6425077543374
 20
47.37007118564618
 30
0.0
  0
LINE
  5
179
330
1F
100
AcDbEntity
  8
0
  6
Continuous
 62
     7
370
    25
100
AcDbLine
 10
191.0574911454
 20
80.3361188553
 30
0.0
 11
181.7221564952
 21
84.9872393171
 31
0.0
  0
LINE
  5
17A
330
1F
100
AcDbEntity
  8
0
  6
Continuous
 62
     7
370
    25
100
AcDbLine
 10
163.9334337076
 20
54.1729293055
 30
0.0
 11
172.5617227053
 21
48.459634845
 31
0.0
  0
SPLINE
  5
17B
330
1F
100
AcDbEntity
  8
0
  6
Continuous
 62
     7
370
    25
100
AcDbSpline
210
0.0
220
0.0
230
1.0
 70
     8
 71
     3
 72
    18
 73
    14
 74
     0
 42
0.000000001
 43
0.00000001
 40
0.0
 40
0.0
 40
0.0
 40
0.0
 40
0.0791370443528879
 40
0.1736237768492672
 40
0.2684795641416212
 40
0.3636327180393681
 40
0.4589940085265997
 40
0.5544806208619274
 40
0.6500277461917171
 40
0.7455865567937396
 40
0.841127127821252
 40
0.936637768836472
 40
1.0
 40
1.0
 40
1.0
 40
1.0
 10
191.3028773413928
 20
31.08163406265282
 30
0.0
 10
191.6520509317448
 20
31.05694331338452
 30
0.0
 10
192.4181250001999
 20
31.00277271380936
 30
0.0
 10
193.6578643249399
 20
31.0946896596578
 30
0.0
 10
195.0022805849523
 20
31.32163778018148
 30
0.0
 10
196.3802713398117
 20
31.6965745262342
 30
0.0
 10
197.7809398192285
 20
32.2120844803089
 30
0.0
 10
199.1954953326188
 20
32.86602105127378
 30
0.0
 10
200.6143860019827
 20
33.65390151169656
 30
0.0
 10
202.0289456402719
 20
34.5690586566004
 30
0.0
 10
203.4284286032023
 20
35.61044981809178
 30
0.0
 10
204.6557607457388
 20
36.62405471699465
 30
0.0
 10
205.3991918244561
 20
37.33305712966501
 30
0.0
 10
205.6956895916195
 20
37.61582393655309
 30
0.0
  0
SPLINE
  5
17C
330
1F
100
AcDbEntity
  8
0
  6
Continuous
 62
     7
370
    25
100
AcDbSpline
210
0.0
220
0.0
230
1.0
 70
     8
 71
     3
 72
     9
 73
     5
 74
     0
 42
0.000000001
 43
0.00000001
 40
0.0
 40
0.0
 40
0.0
 40
0.0
 40
0.4210755182477437
 40
1.0
 40
1.0
 40
1.0
 40
1.0
 10
216.9439044010242
 20
57.10242589106765
 30
0.0
 10
217.0316207007321
 20
57.45410912173725
 30
0.0
 10
217.2399355894078
 20
58.28931139645768
 30
0.0
 10
217.3717169260586
 20
59.10555958338474
 30
0.0
 10
217.4480083680838
 20
59.57810564198271
 30
0.0
  0
LINE
  5
17D
330
1F
100
AcDbEntity
  8
0
  6
Continuous
 62
     7
370
    25
100
AcDbLine
 10
185.839138366
 20
33.202064426
 30
0.0
 11
187.4965862328
 21
32.2452401391
 31
0.0
  0
SPLINE
  5
17E
330
1F
100
AcDbEntity
  8
0
  6
Continuous
 62
     7
370
    25
100
AcDbSpline
210
0.0
220
0.0
230
1.0
 70
     8
 71
     3
 72
    10
 73
     6
 74
     0
 42
0.000000001
 43
0.00000001
 40
0.0
 40
0.0
 40
0.0
 40
0.0
 40
0.028148475011432
 40
0.6719752357242176
 40
1.0
 40
1.0
 40
1.0
 40
1.0
 10
215.1065988095223
 20
73.2492512917039
 30
0.0
 10
215.0962488746425
 20
73.26424629088532
 30
0.0
 10
214.8491697725672
 20
73.62221481690788
 30
0.0
 10
214.4150926654564
 20
74.07736879674101
 30
0.0
 10
213.9617362848219
 20
74.47125739510527
 30
0.0
 10
213.8087169026767
 20
74.6042048786531
 30
0.0
  0
SPLINE
  5
17F
330
1F
100
AcDbEntity
  8
0
  6
Continuous
 62
     7
370
    25
100
AcDbSpline
210
0.0
220
0.0
230
1.0
 70
     8
 71
     3
 72
    12
 73
     8
 74
     0
 42
0.000000001
 43
0.00000001
 40
0.0
 40
0.0
 40
0.0
 40
0.0
 40
0.1180490526010331
 40
0.3415715706442001
 40
0.5648880326714045
 40
0.7876618717436215
 40
0.9999999999999999
 40
0.9999999999999999
 40
0.9999999999999999
 40
0.9999999999999999
 10
217.4707301292428
 20
67.73935380149675
 30
0.0
 10
217.4180584750932
 20
67.99266593038081
 30
0.0
 10
217.2656545443551
 20
68.72561735878897
 30
0.0
 10
216.9280256284392
 20
69.86994057708054
 30
0.0
 10
216.4208902284758
 20
71.12893244566311
 30
0.0
 10
215.8223948538927
 20
72.27004065558786
 30
0.0
 10
215.3413517168296
 20
72.92810877421958
 30
0.0
 10
215.1065988095223
 20
73.2492512917039
 30
0.0
  0
SPLINE
  5
180
330
1F
100
AcDbEntity
  8
0
  6
Continuous
 62
     7
370
    25
100
AcDbSpline
210
0.0
220
0.0
230
1.0
 70
     8
 71
     3
 72
    28
 73
    24
 74
     0
 42
0.000000001
 43
0.00000001
 40
0.0
 40
0.0
 40
0.0
 40
0.0
 40
0.0173646859913571
 40
0.0666529697132405
 40
0.116022427525708
 40
0.1657775298981347
 40
0.2161025423756545
 40
0.2670303082661907
 40
0.3184683026004565
 40
0.3702610478330405
 40
0.4222524658896515
 40
0.4743219123752864
 40
0.5263766481100202
 40
0.5783840758737929
 40
0.6303339792540638
 40
0.6822286908839886
 40
0.734077400466319
 40
0.7858927912084067
 40
0.8376893382521449
 40
0.8894823799690259
 40
0.9412855244705658
 40
0.9931116107064701
 40
1.0
 40
1.0
 40
1.0
 40
1.0
 10
181.8879826121277
 20
84.88116104468499
 30
0.0
 10
181.7846804639879
 20
84.94206369374547
 30
0.0
 10
181.3881633628606
 20
85.1758336810233
 30
0.0
 10
180.621000791224
 20
85.43918305418751
 30
0.0
 10
179.6008169584053
 20
85.66658228460761
 30
0.0
 10
178.5219698274236
 20
85.74026449247471
 30
0.0
 10
177.397681177528
 20
85.67125292832966
 30
0.0
 10
176.2340584547232
 20
85.45555263619178
 30
0.0
 10
175.0414795011494
 20
85.09462398873357
 30
0.0
 10
173.8311954664552
 20
84.59090937777255
 30
0.0
 10
172.615246954624
 20
83.94937023662798
 30
0.0
 10
171.4055381094742
 20
83.17678413824129
 30
0.0
 10
170.213334751538
 20
82.28126605558157
 30
0.0
 10
169.0491525620941
 20
81.27182831390476
 30
0.0
 10
167.9227955098018
 20
80.15804079872841
 30
0.0
 10
166.8435956935918
 20
78.95011355577242
 30
0.0
 10
165.8205591967523
 20
77.65885244125705
 30
0.0
 10
164.8619975734997
 20
76.29563223506314
 30
0.0
 10
163.9767619213605
 20
74.8722927186813
 30
0.0
 10
163.1694365515101
 20
73.40123674334073
 30
0.0
 10
162.4580615892822
 20
71.89475551224555
 30
0.0
 10
161.9957760953243
 20
70.80899487287184
 30
0.0
 10
161.7975040552772
 20
70.22954658128702
 30
0.0
 10
161.7742427558182
 20
70.1615656383949
 30
0.0
  0
LINE
  5
181
330
1F
100
AcDbEntity
  8
0
  6
Continuous
 62
     7
370
    25
100
AcDbLine
 10
162.1581439109
 20
67.8287509853
 30
0.0
 11
165.938030019
 21
65.646669182
 31
0.0
  0
LINE
  5
182
330
1F
100
AcDbEntity
  8
0
  6
Continuous
 62
     7
370
    25
100
AcDbLine
 10
161.6527050741
 20
69.5983978669
 30
0.0
 11
161.6527050741
 21
68.9458929238
 31
0.0
  0
LINE
  5
183
330
1F
100
AcDbEntity
  8
0
  6
Continuous
 62
     7
370
    25
100
AcDbLine
 10
161.6527050741
 20
57.440104995
 30
0.0
 11
161.6527050741
 21
56.7876000519
 31
0.0
  0
SPLINE
  5
184
330
1F
100
AcDbEntity
  8
0
  6
Continuous
 62
     7
370
    25
100
AcDbSpline
210
0.0
220
0.0
230
1.0
 70
     8
 71
     3
 72
    10
 73
     6
 74
     0
 42
0.000000001
 43
0.00000001
 40
0.0
 40
0.0
 40
0.0
 40
0.0
 40
0.3295006286484303
 40
0.6892241807213073
 40
1.0
 40
1.0
 40
1.0
 40
1.0
 10
161.7849408113504
 20
56.45205635035336
 30
0.0
 10
161.9676959302824
 20
56.17066288168073
 30
0.0
 10
162.3499690920519
 20
55.58206557398589
 30
0.0
 10
163.0242963428533
 20
54.85337447238228
 30
0.0
 10
163.5470781195857
 20
54.46282357769079
 30
0.0
 10
163.7893869746119
 20
54.28180361040415
 30
0.0
  0
SPLINE
  5
185
330
1F
100
AcDbEntity
  8
0
  6
Continuous
 62
     7
370
    25
100
AcDbSpline
210
0.0
220
0.0
230
1.0
 70
     8
 71
     3
 72
     9
 73
     5
 74
     0
 42
0.000000001
 43
0.00000001
 40
0.0
 40
0.0
 40
0.0
 40
0.0
 40
0.3544518289669109
 40
1.0
 40
1.0
 40
1.0
 40
1.0
 10
161.6989717771003
 20
56.58782262342089
 30
0.0
 10
161.7079132726029
 20
56.57059059121204
 30
0.0
 10
161.7331395368562
 20
56.52197458531055
 30
0.0
 10
161.7646191832173
 20
56.47948525793139
 30
0.0
 10
161.7849408113504
 20
56.45205635035336
 30
0.0
  0
LINE
  5
186
330
1F
100
AcDbEntity
  8
0
  6
Continuous
 62
     7
370
    25
100
AcDbLine
 10
268.4123872021
 20
24.2446012948
 30
0.0
 11
268.3443865548
 21
23.9754905583
 31
0.0
  0
LINE
  5
187
330
1F
100
AcDbEntity
  8
0
  6
Continuous
 62
     7
370
    25
100
AcDbLine
 10
268.3443865548
 20
23.9754905583
 30
0.0
 11
268.0478854512
 21
23.3278803877
 31
0.0
  0
LINE
  5
188
330
1F
100
AcDbEntity
  8
0
  6
Continuous
 62
     7
370
    25
100
AcDbLine
 10
268.0478854512
 20
23.3278803877
 30
0.0
 11
267.9936299448
 21
23.1174476423
 31
0.0
  0
SPLINE
  5
189
330
1F
100
AcDbEntity
  8
0
  6
Continuous
 62
     7
370
    25
100
AcDbSpline
210
0.0
220
0.0
230
1.0
 70
     8
 71
     3
 72
     9
 73
     5
 74
     0
 42
0.000000001
 43
0.00000001
 40
0.0
 40
0.0
 40
0.0
 40
0.0
 40
0.5000512023218963
 40
1.0
 40
1.0
 40
1.0
 40
1.0
 10
267.9936299447712
 20
23.1174476423007
 30
0.0
 10
267.9626870475063
 20
22.78338483427735
 30
0.0
 10
267.9008075897203
 20
22.11532763039062
 30
0.0
 10
267.7919555852611
 20
21.47438737902936
 30
0.0
 10
267.7375351565069
 20
21.15395007097779
 30
0.0
  0
LINE
  5
18A
330
1F
100
AcDbEntity
  8
0
  6
Continuous
 62
     7
370
    25
100
AcDbLine
 10
267.7576885941
 20
21.1029198627
 30
0.0
 11
267.7375351565
 21
21.153950071
 31
0.0
  0
LINE
  5
18B
330
1F
100
AcDbEntity
  8
0
  6
Continuous
 62
     7
370
    25
100
AcDbLine
 10
268.0151044226
 20
21.4508608459
 30
0.0
 11
267.7576885941
 21
21.1029198627
 31
0.0
  0
LINE
  5
18C
330
1F
100
AcDbEntity
  8
0
  6
Continuous
 62
     7
370
    25
100
AcDbLine
 10
268.0396062296
 20
21.3864648009
 30
0.0
 11
268.0151044226
 21
21.4508608459
 31
0.0
  0
ARC
  5
18D
330
1F
100
AcDbEntity
  8
0
  6
Continuous
 62
     7
370
    25
100
AcDbCircle
 10
247.927695447
 20
26.2052206232
 30
0.0
 40
20.6811354379103
100
AcDbArc
 50
320.1275683819
 51
346.5260950643
  0
LINE
  5
18E
330
1F
100
AcDbEntity
  8
0
  6
Continuous
 62
     7
370
    25
100
AcDbLine
 10
263.799923029
 20
12.9469494468
 30
0.0
 11
263.7127567608
 21
12.8866054194
 31
0.0
  0
LINE
  5
18F
330
1F
100
AcDbEntity
  8
0
  6
Continuous
 62
     7
370
    25
100
AcDbLine
 10
263.7127567608
 20
12.8866054194
 30
0.0
 11
263.7583316628
 21
13.1417990489
 31
0.0
  0
LINE
  5
190
330
1F
100
AcDbEntity
  8
0
  6
Continuous
 62
     7
370
    25
100
AcDbLine
 10
263.7583316628
 20
13.1417990489
 30
0.0
 11
263.6890508049
 21
13.0950356776
 31
0.0
  0
SPLINE
  5
191
330
1F
100
AcDbEntity
  8
0
  6
Continuous
 62
     7
370
    25
100
AcDbSpline
210
0.0
220
0.0
230
1.0
 70
     8
 71
     3
 72
     9
 73
     5
 74
     0
 42
0.000000001
 43
0.00000001
 40
0.0
 40
0.0
 40
0.0
 40
0.0
 40
0.1217960308706633
 40
1.0
 40
1.0
 40
1.0
 40
1.0
 10
263.6890508048918
 20
13.0950356775554
 30
0.0
 10
263.6322183428882
 20
13.03167445173829
 30
0.0
 10
263.1655983586627
 20
12.51145039054207
 30
0.0
 10
262.6511365908153
 20
12.01729197922544
 30
0.0
 10
262.1993342243263
 20
11.58332010102853
 30
0.0
  0
LINE
  5
192
330
1F
100
AcDbEntity
  8
0
  6
Continuous
 62
     7
370
    25
100
AcDbLine
 10
262.0702418847
 20
11.4287810379
 30
0.0
 11
262.1993342243
 21
11.583320101
 31
0.0
  0
LINE
  5
193
330
1F
100
AcDbEntity
  8
0
  6
Continuous
 62
     7
370
    25
100
AcDbLine
 10
261.7973061377
 20
10.9428700425
 30
0.0
 11
262.0702418847
 21
11.4287810379
 31
0.0
  0
LINE
  5
194
330
1F
100
AcDbEntity
  8
0
  6
Continuous
 62
     7
370
    25
100
AcDbLine
 10
261.631439191
 20
10.7464443235
 30
0.0
 11
261.7973061377
 21
10.9428700425
 31
0.0
  0
LWPOLYLINE
  5
195
330
1F
100
AcDbEntity
  8
0
  6
Continuous
 62
     7
370
    25
100
AcDbPolyline
 90
        9
 70
   128
 43
0.0
 10
261.631439191
 20
10.7464443235
 10
260.7864456686
 20
10.0801920055
 10
259.9304000201
 20
9.5037024729
 10
259.0714857106
 20
9.0224847373
 10
258.2179134112
 20
8.6411395533
 10
257.377842756
 20
8.3633127295
 10
256.5593042012
 20
8.1916599043
 10
255.7701229021
 20
8.1278223729
 10
255.017842486
 20
8.1724096989
  0
LINE
  5
196
330
1F
100
AcDbEntity
  8
0
  6
Continuous
 62
     7
370
    25
100
AcDbLine
 10
255.017842486
 20
8.1724096989
 30
0.0
 11
255.0859573908
 21
8.3307900766
 31
0.0
  0
LINE
  5
197
330
1F
100
AcDbEntity
  8
0
  6
Continuous
 62
     7
370
    25
100
AcDbLine
 10
255.0859573908
 20
8.3307900766
 30
0.0
 11
255.8315371166
 21
9.0006560422
 31
0.0
  0
LINE
  5
198
330
1F
100
AcDbEntity
  8
0
  6
Continuous
 62
     7
370
    25
100
AcDbLine
 10
255.8315371166
 20
9.0006560422
 30
0.0
 11
255.8839934794
 21
9.1253686716
 31
0.0
  0
SPLINE
  5
199
330
1F
100
AcDbEntity
  8
0
  6
Continuous
 62
     7
370
    25
100
AcDbSpline
210
0.0
220
0.0
230
1.0
 70
     8
 71
     3
 72
     9
 73
     5
 74
     0
 42
0.000000001
 43
0.00000001
 40
0.0
 40
0.0
 40
0.0
 40
0.0
 40
0.5000510887459347
 40
1.0
 40
1.0
 40
1.0
 40
1.0
 10
255.883993479354
 20
9.125368671645298
 30
0.0
 10
255.6901127068654
 20
9.193893658064896
 30
0.0
 10
255.3023907783423
 20
9.3309296289123
 30
0.0
 10
254.8676965788283
 20
9.495082863360517
 30
0.0
 10
254.6503716870529
 20
9.577151094201723
 30
0.0
  0
LINE
  5
19A
330
1F
100
AcDbEntity
  8
0
  6
Continuous
 62
     7
370
    25
100
AcDbLine
 10
254.4336440309
 20
9.5125988889
 30
0.0
 11
254.6503716871
 21
9.5771510942
 31
0.0
  0
LINE
  5
19B
330
1F
100
AcDbEntity
  8
0
  6
Continuous
 62
     7
370
    25
100
AcDbLine
 10
253.4997884059
 20
8.9116838893
 30
0.0
 11
254.4336440309
 21
9.5125988889
 31
0.0
  0
LINE
  5
19C
330
1F
100
AcDbEntity
  8
0
  6
Continuous
 62
     7
370
    25
100
AcDbLine
 10
253.2221387974
 20
8.8300400001
 30
0.0
 11
253.4997884059
 21
8.9116838893
 31
0.0
  0
LWPOLYLINE
  5
19D
330
1F
100
AcDbEntity
  8
0
  6
Continuous
 62
     7
370
    25
100
AcDbPolyline
 90
        9
 70
   128
 43
0.0
 10
253.2221387974
 20
8.8300400001
 10
252.6658142265
 20
9.2646967441
 10
252.1760652126
 20
9.7969096871
 10
251.7575753243
 20
10.4215931741
 10
251.4143432438
 20
11.1327741545
 10
251.149651157
 20
11.9236545425
 10
250.9660291919
 20
12.7866743391
 10
250.865233028
 20
13.7135837355
 10
250.8482254575
 20
14.6955213713
  0
LINE
  5
19E
330
1F
100
AcDbEntity
  8
0
  6
Continuous
 62
     7
370
    25
100
AcDbLine
 10
250.8482254575
 20
14.6955213713
 30
0.0
 11
251.0907878147
 21
14.8638597777
 31
0.0
  0
LINE
  5
19F
330
1F
100
AcDbEntity
  8
0
  6
Continuous
 62
     7
370
    25
100
AcDbLine
 10
251.0907878147
 20
14.8638597777
 30
0.0
 11
252.1942957002
 21
15.0455948495
 31
0.0
  0
LINE
  5
1A0
330
1F
100
AcDbEntity
  8
0
  6
Continuous
 62
     7
370
    25
100
AcDbLine
 10
252.1942957002
 20
15.0455948495
 30
0.0
 11
252.3835159522
 21
15.1781141057
 31
0.0
  0
SPLINE
  5
1A1
330
1F
100
AcDbEntity
  8
0
  6
Continuous
 62
     7
370
    25
100
AcDbSpline
210
0.0
220
0.0
230
1.0
 70
     8
 71
     3
 72
     9
 73
     5
 74
     0
 42
0.000000001
 43
0.00000001
 40
0.0
 40
0.0
 40
0.0
 40
0.0
 40
0.5000512023218963
 40
1.0
 40
1.0
 40
1.0
 40
1.0
 10
252.3835159522401
 20
15.178114105708
 30
0.0
 10
252.4379467844081
 20
15.4986176175295
 30
0.0
 10
252.5467973019458
 20
16.13955900579792
 30
0.0
 10
252.6086750398407
 20
16.80761692403097
 30
0.0
 10
252.6396107405044
 20
17.14161167703092
 30
0.0
  0
LINE
  5
1A2
330
1F
100
AcDbEntity
  8
0
  6
Continuous
 62
     7
370
    25
100
AcDbLine
 10
252.4844925573
 20
17.2705553745
 30
0.0
 11
252.6396107405
 21
17.141611677
 31
0.0
  0
LINE
  5
1A3
330
1F
100
AcDbEntity
  8
0
  6
Continuous
 62
     7
370
    25
100
AcDbLine
 10
251.4200699469
 20
17.3884894901
 30
0.0
 11
252.4844925573
 21
17.2705553745
 31
0.0
  0
LINE
  5
1A4
330
1F
100
AcDbEntity
  8
0
  6
Continuous
 62
     7
370
    25
100
AcDbLine
 10
251.2210064301
 20
17.5536578652
 30
0.0
 11
251.4200699469
 21
17.3884894901
 31
0.0
  0
ARC
  5
1A5
330
1F
100
AcDbEntity
  8
0
  6
Continuous
 62
     7
370
    25
100
AcDbCircle
 10
271.3329172126
 20
12.7349020428
 30
0.0
 40
20.68113543791001
100
AcDbArc
 50
140.1275683819
 51
166.5260950643
  0
LINE
  5
1A6
330
1F
100
AcDbEntity
  8
0
  6
Continuous
 62
     7
370
    25
100
AcDbLine
 10
255.4606896307
 20
25.9931732193
 30
0.0
 11
255.7224176087
 21
25.9527449166
 31
0.0
  0
LINE
  5
1A7
330
1F
100
AcDbEntity
  8
0
  6
Continuous
 62
     7
370
    25
100
AcDbLine
 10
255.7224176087
 20
25.9527449166
 30
0.0
 11
256.4838494886
 21
25.2316761883
 31
0.0
  0
LINE
  5
1A8
330
1F
100
AcDbEntity
  8
0
  6
Continuous
 62
     7
370
    25
100
AcDbLine
 10
256.4838494886
 20
25.2316761883
 30
0.0
 11
256.6880950921
 21
25.2005260705
 31
0.0
  0
SPLINE
  5
1A9
330
1F
100
AcDbEntity
  8
0
  6
Continuous
 62
     7
370
    25
100
AcDbSpline
210
0.0
220
0.0
230
1.0
 70
     8
 71
     3
 72
     9
 73
     5
 74
     0
 42
0.000000001
 43
0.00000001
 40
0.0
 40
0.0
 40
0.0
 40
0.0
 40
0.1217960308706633
 40
1.0
 40
1.0
 40
1.0
 40
1.0
 10
258.1778116726849
 20
26.71224164698017
 30
0.0
 10
258.1209792106814
 20
26.64888042116305
 30
0.0
 10
257.6543592264558
 20
26.12865635996683
 30
0.0
 10
257.1398974586083
 20
25.6344979486502
 30
0.0
 10
256.6880950921195
 20
25.2005260704533
 30
0.0
  0
LINE
  5
1AA
330
1F
100
AcDbEntity
  8
0
  6
Continuous
 62
     7
370
    25
100
AcDbLine
 10
258.1719392667
 20
26.9446941993
 30
0.0
 11
258.1778116727
 21
26.712241647
 31
0.0
  0
LINE
  5
1AB
330
1F
100
AcDbEntity
  8
0
  6
Continuous
 62
     7
370
    25
100
AcDbLine
 10
257.6378682318
 20
27.8964802935
 30
0.0
 11
258.1719392667
 21
26.9446941993
 31
0.0
  0
LINE
  5
1AC
330
1F
100
AcDbEntity
  8
0
  6
Continuous
 62
     7
370
    25
100
AcDbLine
 10
257.6291734686
 20
28.1936783426
 30
0.0
 11
257.6378682318
 21
27.8964802935
 31
0.0
  0
LWPOLYLINE
  5
1AD
330
1F
100
AcDbEntity
  8
0
  6
Continuous
 62
     7
370
    25
100
AcDbPolyline
 90
        9
 70
   128
 43
0.0
 10
257.6291734686
 20
28.1936783426
 10
258.474166991
 20
28.8599306605
 10
259.3302126395
 20
29.4364201931
 10
260.1891269491
 20
29.9176379288
 10
261.0426992485
 20
30.2989831127
 10
261.8827699037
 20
30.5768099365
 10
262.7013084584
 20
30.7484627617
 10
263.4904897576
 20
30.8123002932
 10
264.2427701737
 20
30.7677129672
  0
LINE
  5
1AE
330
1F
100
AcDbEntity
  8
0
  6
Continuous
 62
     7
370
    25
100
AcDbLine
 10
264.2427701737
 20
30.7677129672
 30
0.0
 11
264.3492169787
 21
30.5085602593
 31
0.0
  0
LINE
  5
1AF
330
1F
100
AcDbEntity
  8
0
  6
Continuous
 62
     7
370
    25
100
AcDbLine
 10
264.3492169787
 20
30.5085602593
 30
0.0
 11
264.4106440348
 21
29.3728191951
 31
0.0
  0
LINE
  5
1B0
330
1F
100
AcDbEntity
  8
0
  6
Continuous
 62
     7
370
    25
100
AcDbLine
 10
264.4106440348
 20
29.3728191951
 30
0.0
 11
264.4931524177
 21
29.1701930764
 31
0.0
  0
SPLINE
  5
1B1
330
1F
100
AcDbEntity
  8
0
  6
Continuous
 62
     7
370
    25
100
AcDbSpline
210
0.0
220
0.0
230
1.0
 70
     8
 71
     3
 72
     9
 73
     5
 74
     0
 42
0.000000001
 43
0.00000001
 40
0.0
 40
0.0
 40
0.0
 40
0.0
 40
0.5000510887459347
 40
1.0
 40
1.0
 40
1.0
 40
1.0
 10
264.4931524176572
 20
29.17019307636341
 30
0.0
 10
264.7105211214916
 20
29.08810879579558
 30
0.0
 10
265.1452141133209
 20
28.92395700727792
 30
0.0
 10
265.5329340498294
 20
28.78692143764703
 30
0.0
 10
265.7267742099584
 20
28.71841065380698
 30
0.0
  0
LINE
  5
1B2
330
1F
100
AcDbEntity
  8
0
  6
Continuous
 62
     7
370
    25
100
AcDbLine
 10
265.8085371204
 20
28.8608763483
 30
0.0
 11
265.72677421
 21
28.7184106538
 31
0.0
  0
LINE
  5
1B3
330
1F
100
AcDbEntity
  8
0
  6
Continuous
 62
     7
370
    25
100
AcDbLine
 10
265.9353859636
 20
29.9276664466
 30
0.0
 11
265.8085371204
 21
28.8608763483
 31
0.0
  0
LINE
  5
1B4
330
1F
100
AcDbEntity
  8
0
  6
Continuous
 62
     7
370
    25
100
AcDbLine
 10
266.0384738623
 20
30.1100826659
 30
0.0
 11
265.9353859636
 21
29.9276664466
 31
0.0
  0
LWPOLYLINE
  5
1B5
330
1F
100
AcDbEntity
  8
0
  6
Continuous
 62
     7
370
    25
100
AcDbPolyline
 90
        9
 70
   128
 43
0.0
 10
266.0384738623
 20
30.1100826659
 10
266.5947984332
 20
29.6754259219
 10
267.0845474471
 20
29.143212979
 10
267.5030373354
 20
28.5185294919
 10
267.8462694159
 20
27.8073485115
 10
268.1109615027
 20
27.0164681236
 10
268.2945834678
 20
26.153448327
 10
268.3953796317
 20
25.2265389306
 10
268.4123872021
 20
24.2446012948
  0
LWPOLYLINE
  5
1B6
330
1F
100
AcDbEntity
  8
0
  6
Continuous
 62
     7
370
    25
100
AcDbPolyline
 90
       47
 70
   128
 43
0.0
 10
254.5426087809
 20
12.4061213111
 10
254.2770619033
 20
13.2661761455
 10
254.1334794442
 20
14.2289558383
 10
254.11453707
 20
15.2765262372
 10
254.2205871019
 20
16.3893727857
 10
254.449654565
 20
17.5467654507
 10
254.7974714323
 20
18.7271438462
 10
255.2575596016
 20
19.908520461
 10
255.8213484452
 20
21.0688877327
 10
256.4783348369
 20
22.1866308697
 10
257.2162807147
 20
23.2409278351
 10
258.02143995
 20
24.2121392536
 10
258.8788133683
 20
25.0821735045
 10
259.7724301128
 20
25.8348236753
 10
260.6856435779
 20
26.4560684399
 10
261.6014424064
 20
26.9343360048
 10
262.5027670028
 20
27.2607164864
 10
263.3728274457
 20
27.4291309889
 10
264.1954162138
 20
27.4364421752
 10
264.955209635
 20
27.2825123182
 10
265.6380547646
 20
26.9702107368
 10
266.2312311569
 20
26.5053538843
 10
266.7236887643
 20
25.8966012379
 10
267.1062550497
 20
25.1552933007
 10
267.3718019273
 20
24.2952384663
 10
267.5153843864
 20
23.3324587734
 10
267.5343267606
 20
22.2848883745
 10
267.4282767287
 20
21.172041826
 10
267.1992092655
 20
20.014649161
 10
266.8513923982
 20
18.8342707655
 10
266.391304229
 20
17.6528941508
 10
265.8275153853
 20
16.492526879
 10
265.1705289937
 20
15.3747837421
 10
264.4325831158
 20
14.3204867767
 10
263.6274238806
 20
13.3492753581
 10
262.7700504623
 20
12.4792411073
 10
261.8764337177
 20
11.7265909364
 10
260.9632202527
 20
11.1053461718
 10
260.0474214242
 20
10.6270786069
 10
259.1460968277
 20
10.3006981254
 10
258.2760363849
 20
10.1322836228
 10
257.4534476168
 20
10.1249724366
 10
256.6936541956
 20
10.2789022936
 10
256.010809066
 20
10.591203875
 10
255.4176326737
 20
11.0560607275
 10
254.9251750662
 20
11.6648133739
 10
254.5426087809
 20
12.4061213111
  0
LINE
  5
1B7
330
1F
100
AcDbEntity
  8
0
  6
Continuous
 62
     7
370
    25
100
AcDbLine
 10
260.097084982
 20
33.1609660865
 30
0.0
 11
264.2427701737
 21
30.7677129672
 31
0.0
  0
LINE
  5
1B8
330
1F
100
AcDbEntity
  8
0
  6
Continuous
 62
     7
370
    25
100
AcDbLine
 10
253.4834882769
 20
30.5869314619
 30
0.0
 11
257.6291734686
 21
28.1936783426
 31
0.0
  0
SPLINE
  5
1B9
330
1F
100
AcDbEntity
  8
0
  6
Continuous
 62
     7
370
    25
100
AcDbSpline
210
0.0
220
0.0
230
1.0
 70
     8
 71
     3
 72
    17
 73
    13
 74
     0
 42
0.000000001
 43
0.00000001
 40
0.0
 40
0.0
 40
0.0
 40
0.0
 40
0.0838157598782665
 40
0.2002642910317094
 40
0.3144081934143376
 40
0.4226827637332826
 40
0.5326536551753062
 40
0.6305352707977258
 40
0.7286814122291978
 40
0.8323787774123366
 40
0.9426002208961264
 40
1.0
 40
1.0
 40
1.0
 40
1.0
 10
253.4834882769158
 20
30.58693146194569
 30
0.0
 10
253.3711974459422
 20
30.64135488076299
 30
0.0
 10
253.1028965477941
 20
30.77139089547908
 30
0.0
 10
252.5730578511027
 20
30.84505353866322
 30
0.0
 10
251.9736086447111
 20
30.77175170653135
 30
0.0
 10
251.4229619134025
 20
30.53617583920105
 30
0.0
 10
251.0122772156897
 20
30.17435487366127
 30
0.0
 10
250.7771652624937
 20
29.74460548035062
 30
0.0
 10
250.7130724483638
 20
29.30218564217691
 30
0.0
 10
250.8193498559752
 20
28.87361524762046
 30
0.0
 10
251.0458830923457
 20
28.56370623294577
 30
0.0
 10
251.2463552652017
 20
28.43164801435983
 30
0.0
 10
251.3150044389804
 20
28.38642633861577
 30
0.0
  0
LINE
  5
1BA
330
1F
100
AcDbEntity
  8
0
  6
Continuous
 62
     7
370
    25
100
AcDbLine
 10
251.315004439
 20
28.3864263386
 30
0.0
 11
255.4606896307
 21
25.9931732193
 31
0.0
  0
LINE
  5
1BB
330
1F
100
AcDbEntity
  8
0
  6
Continuous
 62
     7
370
    25
100
AcDbLine
 10
247.0753212384
 20
19.9469109845
 30
0.0
 11
251.2210064301
 21
17.5536578652
 31
0.0
  0
SPLINE
  5
1BC
330
1F
100
AcDbEntity
  8
0
  6
Continuous
 62
     7
370
    25
100
AcDbSpline
210
0.0
220
0.0
230
1.0
 70
     8
 71
     3
 72
    17
 73
    13
 74
     0
 42
0.000000001
 43
0.00000001
 40
0.0
 40
0.0
 40
0.0
 40
0.0
 40
0.0838159124089986
 40
0.2002646693125416
 40
0.3144087941994783
 40
0.4226835366035789
 40
0.5327911403364063
 40
0.6306720777747902
 40
0.728824480726522
 40
0.8325321814896617
 40
0.9427619079965389
 40
1.0
 40
1.0
 40
1.0
 40
1.0
 10
246.7025402658231
 20
17.08877449061925
 30
0.0
 10
246.5977660771331
 20
17.15816046492748
 30
0.0
 10
246.347424970684
 20
17.32394711331421
 30
0.0
 10
245.9855975063736
 20
17.73205290570228
 30
0.0
 10
245.690838796258
 20
18.26526630498042
 30
0.0
 10
245.5444797265686
 20
18.83482153596558
 30
0.0
 10
245.5742129833898
 20
19.34966578036073
 30
0.0
 10
245.7575003043154
 20
19.75226665696545
 30
0.0
 10
246.0497234495937
 20
20.01863353023009
 30
0.0
 10
246.4299445286882
 20
20.13492876505851
 30
0.0
 10
246.7902200504989
 20
20.09140322251947
 30
0.0
 10
247.0026989918759
 20
19.98371669201322
 30
0.0
 10
247.0753212383679
 20
19.94691098453177
 30
0.0
  0
LINE
  5
1BD
330
1F
100
AcDbEntity
  8
0
  6
Continuous
 62
     7
370
    25
100
AcDbLine
 10
246.7025402658
 20
17.0887744906
 30
0.0
 11
250.8482254575
 21
14.6955213713
 31
0.0
  0
LINE
  5
1BE
330
1F
100
AcDbEntity
  8
0
  6
Continuous
 62
     7
370
    25
100
AcDbLine
 10
249.0764536057
 20
11.2232931195
 30
0.0
 11
253.2221387974
 21
8.8300400001
 31
0.0
  0
SPLINE
  5
1BF
330
1F
100
AcDbEntity
  8
0
  6
Continuous
 62
     7
370
    25
100
AcDbSpline
210
0.0
220
0.0
230
1.0
 70
     8
 71
     3
 72
    10
 73
     6
 74
     0
 42
0.000000001
 43
0.00000001
 40
0.0
 40
0.0
 40
0.0
 40
0.0
 40
0.2813299281428185
 40
0.770271317856599
 40
1.0
 40
1.0
 40
1.0
 40
1.0
 10
248.4917991085671
 20
11.55458674259911
 30
0.0
 10
248.5184193003425
 20
11.53925586693016
 30
0.0
 10
248.5913044367936
 20
11.49728047567564
 30
0.0
 10
248.8184268862713
 20
11.37173500559536
 30
0.0
 10
249.0139523234206
 20
11.25924989265998
 30
0.0
 10
249.0764536056652
 20
11.22329311949337
 30
0.0
  0
LINE
  5
1C0
330
1F
100
AcDbEntity
  8
0
  6
Continuous
 62
     7
370
    25
100
AcDbLine
 10
253.6120817691
 20
8.9839380869
 30
0.0
 11
255.017842486
 21
8.1724096989
 31
0.0
  0
LINE
  5
1C1
330
1F
100
AcDbEntity
  8
0
  6
Continuous
 62
     7
370
    25
100
AcDbLine
 10
261.8927886706
 20
32.5033357853
 30
0.0
 11
266.0384738623
 21
30.1100826659
 31
0.0
  0
SPLINE
  5
1C2
330
1F
100
AcDbEntity
  8
0
  6
Continuous
 62
     7
370
    25
100
AcDbSpline
210
0.0
220
0.0
230
1.0
 70
     8
 71
     3
 72
    18
 73
    14
 74
     0
 42
0.000000001
 43
0.00000001
 40
0.0
 40
0.0
 40
0.0
 40
0.0
 40
0.0838015844061103
 40
0.2002304304513296
 40
0.314354972940203
 40
0.4226112337337775
 40
0.5235778626403405
 40
0.5374368957444169
 40
0.6352754303821344
 40
0.7336000105980413
 40
0.837597958330463
 40
0.9480868781501804
 40
0.9999999999999999
 40
0.9999999999999999
 40
0.9999999999999999
 40
0.9999999999999999
 10
260.0970849820064
 20
33.16096608652892
 30
0.0
 10
259.9984995988302
 20
33.22072348828549
 30
0.0
 10
259.7629456549583
 20
33.36350420491715
 30
0.0
 10
259.5366149601531
 20
33.55529711133887
 30
0.0
 10
259.4693058864666
 20
33.68908795463665
 30
0.0
 10
259.5892846580048
 20
33.7151607375727
 30
0.0
 10
259.7851978044068
 20
33.65397960857355
 30
0.0
 10
260.015955655445
 20
33.55831034234076
 30
0.0
 10
260.2874451766061
 20
33.42764805881944
 30
0.0
 10
260.7349343132829
 20
33.18096543298628
 30
0.0
 10
261.2195734876274
 20
32.89794722453375
 30
0.0
 10
261.6164292053537
 20
32.66350596068994
 30
0.0
 10
261.8258466849668
 20
32.54213347786784
 30
0.0
 10
261.8927886705778
 20
32.50333578527001
 30
0.0
  0
LWPOLYLINE
  5
1C3
330
1F
100
AcDbEntity
  8
0
  6
Continuous
 62
     7
370
    25
100
AcDbPolyline
 90
       24
 70
   128
 43
0.0
 10
244.8302942784
 20
14.933664718
 10
244.5150154366
 20
15.9214551784
 10
244.3241422379
 20
17.0164186433
 10
244.2604563741
 20
18.2025867373
 10
244.3248870517
 20
19.4626629591
 10
244.5164951861
 20
20.778272588
 10
244.832486573
 20
22.1302313183
 10
245.2682533765
 20
23.4988243919
 10
245.817440642
 20
24.8640942465
 10
246.4720404684
 20
26.206132715
 10
247.222507253
 20
27.5053694202
 10
248.0578976324
 20
28.7428594067
 10
248.9660291918
 20
29.9005561318
 10
249.9336599183
 20
30.9615785621
 10
250.9466790139
 20
31.9104544077
 10
251.9903149139
 20
32.7333459135
 10
253.0493487286
 20
33.4182552062
 10
254.108337532
 20
33.9551942613
 10
255.1518386773
 20
34.3363326486
 10
256.1646358434
 20
34.556112817
 10
257.1319600174
 20
34.6113297556
 10
258.0397053405
 20
34.5011787923
 10
258.874635068
 20
34.227265746
 10
259.2582523904
 20
34.0316086561
  0
ARC
  5
1C4
330
1F
100
AcDbEntity
  8
0
  6
Continuous
 62
     7
370
    25
100
AcDbCircle
 10
249.2828385201
 20
16.5753674205
 30
0.0
 40
4.745559818188652
100
AcDbArc
 50
200.2394928935
 51
238.9375503303
  0
LWPOLYLINE
  5
1C5
330
1F
100
AcDbEntity
  8
0
  6
Continuous
 62
     7
370
    25
100
AcDbPolyline
 90
       40
 70
   128
 43
0.0
 10
256.3445004829
 20
14.2346211886
 10
256.1302624543
 20
14.9661732272
 10
256.0376009615
 20
15.7965198033
 10
256.0689160699
 20
16.7041553239
 10
256.2233964528
 20
17.6655724837
 10
256.4970414522
 20
18.6558710138
 10
256.8827634829
 20
19.6494027818
 10
257.3705724246
 20
20.6204358015
 10
257.9478347596
 20
21.5438208496
 10
258.5995992226
 20
22.3956425807
 10
259.3089858361
 20
23.153839174
 10
260.0576217024
 20
23.7987744449
 10
260.8261175485
 20
24.3137441298
 10
261.5945697536
 20
24.6854109487
 10
262.3430757219
 20
24.9041492721
 10
263.0522496256
 20
24.9642934231
 10
263.7037241643
 20
24.8642862714
 10
264.2806266048
 20
24.6067175406
 10
264.7680157244
 20
24.1982581774
 10
265.1532675543
 20
23.6494868347
 10
265.4264051452
 20
22.9746169299
 10
265.5803540826
 20
22.191126988
 10
265.6111268796
 20
21.3193088145
 10
265.5179270267
 20
20.3817423383
 10
265.3031680894
 20
19.4027097687
 10
264.9724121346
 20
18.4075676961
 10
264.5342255093
 20
17.4220897804
 10
263.9999575696
 20
16.4717993233
 10
263.3834449942
 20
15.5813085486
 10
262.7006553469
 20
14.7736803223
 10
261.9692724413
 20
14.0698317507
 10
261.208238775
 20
13.4879928453
 10
260.4372647498
 20
13.0432323249
 10
259.6763180938
 20
12.7470693287
 10
258.9451070683
 20
12.6071743177
 10
258.2625694789
 20
12.627170665
 10
257.6463827184
 20
12.8065404053
 10
257.1125059541
 20
13.1406378942
 10
256.6747661513
 20
13.6208101429
 10
256.3445004829
 20
14.2346211886
  0
LINE
  5
1C6
330
1F
100
AcDbEntity
  8
0
  6
Continuous
 62
     7
370
    25
100
AcDbLine
 10
251.4894515621
 20
28.396384201
 30
0.0
 11
255.7224176087
 21
25.9527449166
 31
0.0
  0
LWPOLYLINE
  5
1C7
330
1F
100
AcDbEntity
  8
0
  6
Continuous
 62
     7
370
    25
100
AcDbPolyline
 90
       10
 70
   128
 43
0.0
 10
264.0553161381
 20
20.2295001952
 10
263.6123458455
 20
19.0570365005
 10
263.0517759674
 20
17.9069610314
 10
262.3871323495
 20
16.8070231406
 10
261.6344518675
 20
15.7837633791
 10
260.8118955328
 20
14.8618709424
 10
259.9393104772
 20
14.0635901215
 10
259.037750801
 20
13.4081820959
 10
258.1289698961
 20
12.9114599928
 10
257.8639835222
 20
12.7976071078
  0
ARC
  5
1C8
330
1F
100
AcDbEntity
  8
0
  6
Continuous
 62
     7
370
    25
100
AcDbCircle
 10
255.3810788964
 20
23.3022925123
 30
0.0
 40
9.202415136694958
100
AcDbArc
 50
340.4936390876
 51
6.4523313321
  0
LWPOLYLINE
  5
1C9
330
1F
100
AcDbEntity
  8
0
  6
Continuous
 62
     7
370
    25
100
AcDbPolyline
 90
       21
 70
   128
 43
0.0
 10
264.086087618
 20
24.7154929254
 10
264.5213670986
 20
24.3406453983
 10
264.9066189284
 20
23.7918740556
 10
265.1797565193
 20
23.1170041508
 10
265.3337054568
 20
22.3335142089
 10
265.3644782538
 20
21.4616960354
 10
265.2712784008
 20
20.5241295592
 10
265.0565194635
 20
19.5450969896
 10
264.7257635088
 20
18.549954917
 10
264.2875768835
 20
17.5644770013
 10
263.7533089438
 20
16.6141865442
 10
263.1367963683
 20
15.7236957695
 10
262.4540067211
 20
14.9160675432
 10
261.7226238155
 20
14.2122189716
 10
260.9615901492
 20
13.6303800662
 10
260.190616124
 20
13.1856195458
 10
259.4296694679
 20
12.8894565496
 10
258.6984584424
 20
12.7495615386
 10
258.0159208531
 20
12.7695578859
 10
257.3997340925
 20
12.9489276262
 10
257.3161282452
 20
12.9883086275
  0
ARC
  5
1CA
330
1F
100
AcDbEntity
  8
0
  6
Continuous
 62
     7
370
    25
100
AcDbCircle
 10
248.0183109485
 20
26.1735238357
 30
0.0
 40
15.78329023988207
100
AcDbArc
 50
304.8101124308
 51
355.1952630272
  0
LINE
  5
1CB
330
1F
100
AcDbEntity
  8
0
  6
Continuous
 62
     7
370
    25
100
AcDbLine
 10
256.2491778117
 20
25.453907623
 30
0.0
 11
256.6880950921
 21
25.2005260705
 31
0.0
  0
LWPOLYLINE
  5
1CC
330
1F
100
AcDbEntity
  8
0
  6
Continuous
 62
     7
370
    25
100
AcDbPolyline
 90
        8
 70
   128
 43
0.0
 10
253.4738598623
 20
29.4277752254
 10
253.1123442814
 20
29.5462056361
 10
252.6924717789
 20
29.5315315831
 10
252.2781572274
 20
29.3859912573
 10
251.9324788187
 20
29.1317406152
 10
251.7080672653
 20
28.8074831571
 10
251.6390830817
 20
28.4625880434
 10
251.6691186382
 20
28.292664023
  0
LINE
  5
1CD
330
1F
100
AcDbEntity
  8
0
  6
Continuous
 62
     7
370
    25
100
AcDbLine
 10
253.4738598623
 20
29.4277752254
 30
0.0
 11
258.1778116727
 21
26.712241647
 31
0.0
  0
LINE
  5
1CE
330
1F
100
AcDbEntity
  8
0
  6
Continuous
 62
     7
370
    25
100
AcDbLine
 10
247.1871039002
 20
19.8321287745
 30
0.0
 11
251.4200699469
 21
17.3884894901
 31
0.0
  0
LINE
  5
1CF
330
1F
100
AcDbEntity
  8
0
  6
Continuous
 62
     7
370
    25
100
AcDbLine
 10
253.5354698291
 20
29.6212710331
 30
0.0
 11
258.1719392667
 21
26.9446941993
 31
0.0
  0
LINE
  5
1D0
330
1F
100
AcDbEntity
  8
0
  6
Continuous
 62
     7
370
    25
100
AcDbLine
 10
253.4049021851
 20
30.3401195779
 30
0.0
 11
257.6378682318
 21
27.8964802935
 31
0.0
  0
LINE
  5
1D1
330
1F
100
AcDbEntity
  8
0
  6
Continuous
 62
     7
370
    25
100
AcDbLine
 10
247.6795641419
 20
17.8936476841
 30
0.0
 11
252.3835159522
 21
15.1781141057
 31
0.0
  0
ARC
  5
1D2
330
1F
100
AcDbEntity
  8
0
  6
Continuous
 62
     7
370
    25
100
AcDbCircle
 10
248.3219100239
 20
19.0589379187
 30
0.0
 40
1.330604961311438
100
AcDbArc
 50
145.5948699105
 51
241.1350166929
  0
LINE
  5
1D3
330
1F
100
AcDbEntity
  8
0
  6
Continuous
 62
     7
370
    25
100
AcDbLine
 10
252.4000427852
 20
17.2799113138
 30
0.0
 11
252.6396107405
 21
17.141611677
 31
0.0
  0
SPLINE
  5
1D4
330
1F
100
AcDbEntity
  8
0
  6
Continuous
 62
     7
370
    25
100
AcDbSpline
210
0.0
220
0.0
230
1.0
 70
     8
 71
     3
 72
    29
 73
    25
 74
     0
 42
0.000000001
 43
0.00000001
 40
0.0
 40
0.0
 40
0.0
 40
0.0
 40
0.085891792596673
 40
0.3260994589414297
 40
0.413928652386859
 40
0.4549817901311665
 40
0.4753222127341306
 40
0.4821393933263408
 40
0.4867615464962451
 40
0.4898895339537984
 40
0.4920171548844313
 40
0.4934752116853477
 40
0.4948546677249909
 40
0.4955292301473049
 40
0.496044743450192
 40
0.4964023412866514
 40
0.4967597519696664
 40
0.4971809470164725
 40
0.4978968645747996
 40
0.5001343602736479
 40
0.5104338223365524
 40
0.5513064898537794
 40
0.7145621980118694
 40
1.0
 40
1.0
 40
1.0
 40
1.0
 10
264.405688487374
 20
24.41703123550192
 30
0.0
 10
264.4162148627912
 20
24.37583630188293
 30
0.0
 10
264.4561796280427
 20
24.21943433193732
 30
0.0
 10
264.4830639555337
 20
23.99935246991666
 30
0.0
 10
264.5085131989738
 20
23.80195765354948
 30
0.0
 10
264.5189764654528
 20
23.72029799053153
 30
0.0
 10
264.5246098439598
 20
23.68233483652451
 30
0.0
 10
264.5278360918986
 20
23.66434830811686
 30
0.0
 10
264.5295663240761
 20
23.6560014520604
 30
0.0
 10
264.5309353814594
 20
23.65027586379845
 30
0.0
 10
264.5320535537064
 20
23.64633472840769
 30
0.0
 10
264.533036621006
 20
23.64339541284997
 30
0.0
 10
264.5338962065629
 20
23.6412971431867
 30
0.0
 10
264.534721581669
 20
23.63980537932456
 30
0.0
 10
264.5353376988897
 20
23.63897341423196
 30
0.0
 10
264.535907908456
 20
23.63846311012391
 30
0.0
 10
264.5364496610378
 20
23.63820373615739
 30
0.0
 10
264.5370741236464
 20
23.63818995447251
 30
0.0
 10
264.5381547370658
 20
23.63882696795021
 30
0.0
 10
264.5406302090634
 20
23.64365371347119
 30
0.0
 10
264.5446728658196
 20
23.66843254164774
 30
0.0
 10
264.5504944679876
 20
23.77403885409246
 30
0.0
 10
264.5503329115326
 20
24.02185493337754
 30
0.0
 10
264.5165383340492
 20
24.22968864188105
 30
0.0
 10
264.4950398062171
 20
24.36190271583757
 30
0.0
  0
LWPOLYLINE
  5
1D5
330
1F
100
AcDbEntity
  8
0
  6
Continuous
 62
     7
370
    25
100
AcDbPolyline
 90
       15
 70
   128
 43
0.0
 10
244.2604524229
 20
18.403120146
 10
244.2604530814
 20
18.4066184928
 10
244.3235877434
 20
19.6413412514
 10
244.5113407583
 20
20.9304800041
 10
244.8209738979
 20
22.2552360525
 10
245.2479728398
 20
23.5962920666
 10
245.7861103871
 20
24.9340919965
 10
246.4275386647
 20
26.2491276637
 10
247.1629056823
 20
27.5222229728
 10
247.9814873717
 20
28.734813179
 10
248.8713466259
 20
29.8692161689
 10
249.8195078133
 20
30.9088902402
 10
250.8121444625
 20
31.838674011
 10
251.8347815184
 20
32.645008883
 10
252.868078468
 20
33.3135814994
  0
ARC
  5
1D6
330
1F
100
AcDbEntity
  8
0
  6
Continuous
 62
     7
370
    25
100
AcDbCircle
 10
252.897290281
 20
21.9861396571
 30
0.0
 40
10.23122354705798
100
AcDbArc
 50
307.8700796622
 51
315.5406220812
  0
SPLINE
  5
1D7
330
1F
100
AcDbEntity
  8
0
  6
Continuous
 62
     7
370
    25
100
AcDbSpline
210
0.0
220
0.0
230
1.0
 70
     8
 71
     3
 72
    10
 73
     6
 74
     0
 42
0.000000001
 43
0.00000001
 40
0.0
 40
0.0
 40
0.0
 40
0.0
 40
0.215297813726441
 40
0.7629167376271591
 40
1.0
 40
1.0
 40
1.0
 40
1.0
 10
259.1779626851803
 20
13.90956306673099
 30
0.0
 10
259.0590057986693
 20
13.82037433317817
 30
0.0
 10
258.6374771347018
 20
13.50433035457245
 30
0.0
 10
258.0789587003096
 20
13.1450345216204
 30
0.0
 10
257.657886874608
 20
12.97383783701024
 30
0.0
 10
257.5306678049063
 20
12.92211392288744
 30
0.0
  0
ARC
  5
1D8
330
1F
100
AcDbEntity
  8
0
  6
Continuous
 62
     7
370
    25
100
AcDbCircle
 10
253.6663232251
 20
20.768003251
 30
0.0
 40
8.25798090958367
100
AcDbArc
 50
293.9649632878
 51
316.810258966
  0
LINE
  5
1D9
330
1F
100
AcDbEntity
  8
0
  6
Continuous
 62
     7
370
    25
100
AcDbLine
 10
246.8578217681
 20
17.3074990621
 30
0.0
 11
251.0907878147
 21
14.8638597777
 31
0.0
  0
LINE
  5
1DA
330
1F
100
AcDbEntity
  8
0
  6
Continuous
 62
     7
370
    25
100
AcDbLine
 10
247.5578262627
 20
17.7221716833
 30
0.0
 11
252.1942957002
 21
15.0455948495
 31
0.0
  0
LWPOLYLINE
  5
1DB
330
1F
100
AcDbEntity
  8
0
  6
Continuous
 62
     7
370
    25
100
AcDbPolyline
 90
        9
 70
   128
 43
0.0
 10
253.4049021851
 20
30.3401195779
 10
252.9400761174
 20
30.4923934399
 10
252.4002079152
 20
30.4735283476
 10
251.8674910125
 20
30.2863940725
 10
251.4230241775
 20
29.9594825611
 10
251.1344796086
 20
29.5425590415
 10
251.0457799196
 20
29.0990992751
 10
251.1704305411
 20
28.6966156313
 10
251.4894515621
 20
28.396384201
  0
LWPOLYLINE
  5
1DC
330
1F
100
AcDbEntity
  8
0
  6
Continuous
 62
     7
370
    25
100
AcDbPolyline
 90
        9
 70
   128
 43
0.0
 10
246.8578217681
 20
17.3074990621
 10
246.4784303258
 20
17.6298394389
 10
246.1818607335
 20
18.0952842488
 10
246.0132654369
 20
18.6329713541
 10
245.9983098911
 20
19.1610444712
 10
246.1392766114
 20
19.5991054849
 10
246.4146983639
 20
19.880467099
 10
246.7826475954
 20
19.9622933575
 10
247.1871039002
 20
19.8321287745
  0
LWPOLYLINE
  5
1DD
330
1F
100
AcDbEntity
  8
0
  6
Continuous
 62
     7
370
    25
100
AcDbPolyline
 90
        8
 70
   128
 43
0.0
 10
253.5354698291
 20
29.6212710331
 10
253.1258167849
 20
29.7554708194
 10
252.6500303963
 20
29.7388444923
 10
252.1805462787
 20
29.5739227306
 10
251.7888397248
 20
29.2858138567
 10
251.5345421045
 20
28.9183793533
 10
251.4563705665
 20
28.5275578379
 10
251.471351137
 20
28.4070747998
  0
ARC
  5
1DE
330
1F
100
AcDbEntity
  8
0
  6
Continuous
 62
     7
370
    25
100
AcDbCircle
 10
248.2824418819
 20
19.040760809
 30
0.0
 40
1.50457471663585
100
AcDbArc
 50
145.1601998338
 51
241.2095068678
  0
ARC
  5
1DF
330
1F
100
AcDbEntity
  8
0
  6
Continuous
 62
     7
370
    25
100
AcDbCircle
 10
252.2709937591
 20
23.9332229054
 30
0.0
 40
12.04397235311974
100
AcDbArc
 50
315.4978254294
 51
322.3772439357
  0
SPLINE
  5
1E0
330
1F
100
AcDbEntity
  8
0
  6
Continuous
 62
     7
370
    25
100
AcDbSpline
210
0.0
220
0.0
230
1.0
 70
     8
 71
     3
 72
    31
 73
    27
 74
     0
 42
0.000000001
 43
0.00000001
 40
0.0
 40
0.0
 40
0.0
 40
0.0
 40
0.0524418641213862
 40
0.1934244449457914
 40
0.2035858826476195
 40
0.2086292517437177
 40
0.2103238106849432
 40
0.2114717629599833
 40
0.2122492681432683
 40
0.2127781533149058
 40
0.2131414247195586
 40
0.2134974871636325
 40
0.2136519822974399
 40
0.2138087967055911
 40
0.2138971750570514
 40
0.2139873056241975
 40
0.2141113346410343
 40
0.2143445724071952
 40
0.2153599335036175
 40
0.2193680037364289
 40
0.2353300792932177
 40
0.2991419631461618
 40
0.4267430926049142
 40
0.5988596532005359
 40
0.770974319932694
 40
1.0
 40
1.0
 40
1.0
 40
1.0
 10
264.0553161380746
 20
20.22950019522381
 30
0.0
 10
264.091098259894
 20
20.35267492461006
 30
0.0
 10
264.2230755869369
 20
20.80698760136269
 30
0.0
 10
264.3287333525131
 20
21.28200189974124
 30
0.0
 10
264.3743850371012
 20
21.6484639396195
 30
0.0
 10
264.3779834823227
 20
21.68854717934052
 30
0.0
 10
264.3789421395167
 20
21.70748472130049
 30
0.0
 10
264.3791165705783
 20
21.71625762062238
 30
0.0
 10
264.3789971547972
 20
21.72226266115876
 30
0.0
 10
264.3787357169591
 20
21.72638348787148
 30
0.0
 10
264.3783545599134
 20
21.72947589535207
 30
0.0
 10
264.3779024027999
 20
21.73165073533603
 30
0.0
 10
264.3773173540428
 20
21.73323326166522
 30
0.0
 10
264.3767935556239
 20
21.73409110411787
 30
0.0
 10
264.3762135219352
 20
21.7345588384877
 30
0.0
 10
264.3756453029098
 20
21.73472853917776
 30
0.0
 10
264.374850874499
 20
21.73458121486929
 30
0.0
 10
264.3728010399962
 20
21.73308611502013
 30
0.0
 10
264.3674136507021
 20
21.72357336028704
 30
0.0
 10
264.351826082813
 20
21.68084071742093
 30
0.0
 10
264.3001608664628
 20
21.49968282973399
 30
0.0
 10
264.1714711288194
 20
21.04018656953389
 30
0.0
 10
263.895176450134
 20
20.21812896576026
 30
0.0
 10
263.4288762095431
 20
19.14712085303976
 30
0.0
 10
262.739780310186
 20
17.86626836396903
 30
0.0
 10
262.1481642001118
 20
17.04802635408083
 30
0.0
 10
261.8103889475609
 20
16.5808620953134
 30
0.0
  0
LWPOLYLINE
  5
1E1
330
1F
100
AcDbEntity
  8
0
  6
Continuous
 62
     7
370
    25
100
AcDbPolyline
 90
       10
 70
   128
 43
0.0
 10
263.7975344881
 20
24.8348619015
 10
263.8807007569
 20
24.0475366478
 10
263.8544254896
 20
23.0398235477
 10
263.6940159012
 20
21.9716427072
 10
263.4034199662
 20
20.8692949828
 10
262.9897937583
 20
19.7599245209
 10
262.4633226563
 20
18.6708475238
 10
261.8369694503
 20
17.6288810692
 10
261.1261572525
 20
16.6596813477
 10
260.348388859
 20
15.7871134646
  0
LINE
  5
1E2
330
1F
100
AcDbEntity
  8
0
  6
Continuous
 62
     7
370
    25
100
AcDbLine
 10
264.4047592811
 20
29.4815936274
 30
0.0
 11
265.72677421
 21
28.7184106538
 31
0.0
  0
LINE
  5
1E3
330
1F
100
AcDbEntity
  8
0
  6
Continuous
 62
     7
370
    25
100
AcDbLine
 10
264.3941731781
 20
29.6773712727
 30
0.0
 11
265.8085371204
 21
28.8608763483
 31
0.0
  0
LINE
  5
1E4
330
1F
100
AcDbEntity
  8
0
  6
Continuous
 62
     7
370
    25
100
AcDbLine
 10
261.7024199169
 20
32.371305731
 30
0.0
 11
265.9353859636
 21
29.9276664466
 31
0.0
  0
ARC
  5
1E5
330
1F
100
AcDbEntity
  8
0
  6
Continuous
 62
     7
370
    25
100
AcDbCircle
 10
254.2364783595
 20
19.3617662862
 30
0.0
 40
14.99961332520076
100
AcDbArc
 50
60.1492582635
 51
67.1668365657
  0
ARC
  5
1E6
330
1F
100
AcDbEntity
  8
0
  6
Continuous
 62
     7
370
    25
100
AcDbCircle
 10
252.3390501349
 20
23.2816648041
 30
0.0
 40
11.602026368104
100
AcDbArc
 50
306.1185880139
 51
324.7212765864
  0
LINE
  5
1E7
330
1F
100
AcDbEntity
  8
0
  6
Continuous
 62
     7
370
    25
100
AcDbLine
 10
253.7740260954
 20
9.0881518926
 30
0.0
 11
255.0859573908
 21
8.3307900766
 31
0.0
  0
LINE
  5
1E8
330
1F
100
AcDbEntity
  8
0
  6
Continuous
 62
     7
370
    25
100
AcDbLine
 10
255.1686514832
 20
9.3833317728
 30
0.0
 11
255.8315371166
 21
9.0006560422
 31
0.0
  0
LINE
  5
1E9
330
1F
100
AcDbEntity
  8
0
  6
Continuous
 62
     7
370
    25
100
AcDbLine
 10
260.8610420508
 20
15.4911650764
 30
0.0
 11
260.1997975104
 21
14.8201558842
 31
0.0
  0
LINE
  5
1EA
330
1F
100
AcDbEntity
  8
0
  6
Continuous
 62
     7
370
    25
100
AcDbLine
 10
260.348388859
 20
15.7871134646
 30
0.0
 11
259.6871443185
 21
15.1161042724
 31
0.0
  0
LINE
  5
1EB
330
1F
100
AcDbEntity
  8
0
  6
Continuous
 62
     7
370
    25
100
AcDbLine
 10
267.8031584582
 20
21.5732146468
 30
0.0
 11
268.0151044226
 21
21.4508608459
 31
0.0
  0
LINE
  5
1EC
330
1F
100
AcDbEntity
  8
0
  6
Continuous
 62
     7
370
    25
100
AcDbLine
 10
263.5734930366
 20
12.9670006561
 30
0.0
 11
263.7127567608
 21
12.8866054194
 31
0.0
  0
ARC
  5
1ED
330
1F
100
AcDbEntity
  8
0
  6
Continuous
 62
     7
370
    25
100
AcDbCircle
 10
248.1154777984
 20
26.1174302185
 30
0.0
 40
14.95461790952782
100
AcDbArc
 50
304.4252681135
 51
355.5801089932
  0
LWPOLYLINE
  5
1EE
330
1F
100
AcDbEntity
  8
0
  6
Continuous
 62
     7
370
    25
100
AcDbPolyline
 90
       21
 70
   128
 43
0.0
 10
223.3300949862
 20
49.6118117866
 10
222.3330752293
 20
48.9638089209
 10
221.3517790458
 20
48.181156355
 10
220.4016822315
 20
47.2761957098
 10
219.4977679911
 20
46.2631987074
 10
218.6542920022
 20
45.1581418107
 10
217.8845562053
 20
43.9784516801
 10
217.2006998806
 20
42.7427332317
 10
216.613507353
 20
41.4704738363
 10
216.1322397339
 20
40.1817381986
 10
215.7644867486
 20
38.8968506883
 10
215.5160475403
 20
37.6360742455
 10
215.3908411071
 20
36.4192925635
 10
215.3908411071
 20
35.2656945973
 10
215.5160475403
 20
34.1934731858
 10
215.7644867486
 20
33.2195385475
 10
216.1322397339
 20
32.3592495961
 10
216.613507353
 20
31.6261737239
 10
217.2006998806
 20
31.0318723901
 10
217.8845562053
 20
30.5857176479
 10
218.0968261737
 20
30.4862405907
  0
LWPOLYLINE
  5
1EF
330
1F
100
AcDbEntity
  8
0
  6
Continuous
 62
     7
370
    25
100
AcDbPolyline
 90
        8
 70
   128
 43
0.0
 10
229.3191726963
 20
49.9291020083
 10
228.775633767
 20
50.2657369278
 10
228.0058979701
 20
50.5567090243
 10
227.1624219812
 20
50.6879092732
 10
226.2585077408
 20
50.6572691081
 10
225.3084109265
 20
50.465271321
 10
224.327114743
 20
50.1149434296
 10
223.3300949862
 20
49.6118117866
  0
SPLINE
  5
1F0
330
1F
100
AcDbEntity
  8
0
  6
Continuous
 62
     7
370
    25
100
AcDbSpline
210
0.0
220
0.0
230
1.0
 70
    11
 71
     3
 72
    70
 73
    66
 74
     0
 42
0.000000001
 43
0.00000001
 40
0.0
 40
0.0
 40
0.0
 40
0.0
 40
0.03125
 40
0.03125
 40
0.0625
 40
0.0625
 40
0.09375
 40
0.09375
 40
0.125
 40
0.125
 40
0.15625
 40
0.15625
 40
0.1875
 40
0.1875
 40
0.21875
 40
0.21875
 40
0.25
 40
0.25
 40
0.28125
 40
0.28125
 40
0.3125
 40
0.3125
 40
0.34375
 40
0.34375
 40
0.375
 40
0.375
 40
0.40625
 40
0.40625
 40
0.4375
 40
0.4375
 40
0.46875
 40
0.46875
 40
0.5
 40
0.5
 40
0.53125
 40
0.53125
 40
0.5625
 40
0.5625
 40
0.59375
 40
0.59375
 40
0.625
 40
0.625
 40
0.65625
 40
0.65625
 40
0.6875
 40
0.6875
 40
0.71875
 40
0.71875
 40
0.75
 40
0.75
 40
0.78125
 40
0.78125
 40
0.8125
 40
0.8125
 40
0.84375
 40
0.84375
 40
0.875
 40
0.875
 40
0.90625
 40
0.90625
 40
0.9375
 40
0.9375
 40
0.96875
 40
0.96875
 40
1.0
 40
1.0
 40
1.0
 40
1.0
 10
216.5924646356675
 20
54.3927294770415
 30
0.0
 10
216.7010982523468
 20
54.38059530910856
 30
0.0
 10
216.8069494356701
 20
54.36287271667219
 30
0.0
 10
217.0136462329027
 20
54.31787117139081
 30
0.0
 10
217.1151379979844
 20
54.29036121849852
 30
0.0
 10
217.3100649783701
 20
54.2270792559173
 30
0.0
 10
217.4022810383154
 20
54.19178374757416
 30
0.0
 10
217.5766957412372
 20
54.11450422386748
 30
0.0
 10
217.6595661752548
 20
54.07209168353866
 30
0.0
 10
217.8109521431451
 20
53.9826189247056
 30
0.0
 10
217.8794141453257
 20
53.93573688264146
 30
0.0
 10
218.002006691616
 20
53.83759252774956
 30
0.0
 10
218.0565623146068
 20
53.78578702369669
 30
0.0
 10
218.1474669653086
 20
53.68015518377708
 30
0.0
 10
218.1839754124657
 20
53.62643316923972
 30
0.0
 10
218.2386977298113
 20
53.51660867472696
 30
0.0
 10
218.2569567835449
 20
53.45983489921277
 30
0.0
 10
218.2722394021805
 20
53.34684697967469
 30
0.0
 10
218.2695619071931
 20
53.29068596550756
 30
0.0
 10
218.2424099505759
 20
53.17836959442119
 30
0.0
 10
218.2173203222462
 20
53.1214934562957
 30
0.0
 10
218.1453080486886
 20
53.01252061152403
 30
0.0
 10
218.0986016758267
 20
52.96002457943676
 30
0.0
 10
217.9823410796778
 20
52.858849077447
 30
0.0
 10
217.9127450209821
 20
52.81055305634084
 30
0.0
 10
217.7577114692411
 20
52.72338408368274
 30
0.0
 10
217.670300432947
 20
52.68334584988583
 30
0.0
 10
217.4830773153907
 20
52.61393690749616
 30
0.0
 10
217.3843053407734
 20
52.58473806287881
 30
0.0
 10
217.1769581074503
 20
52.53720633169061
 30
0.0
 10
217.0696159547885
 20
52.51929005724709
 30
0.0
 10
216.8544152428389
 20
52.49577009706498
 30
0.0
 10
216.7445173274637
 20
52.48998479502986
 30
0.0
 10
216.5286270496665
 20
52.49076047016751
 30
0.0
 10
216.4225955071464
 20
52.49716717787533
 30
0.0
 10
216.2141131502402
 20
52.52198429671219
 30
0.0
 10
216.1118762887947
 20
52.54052028047046
 30
0.0
 10
215.9181099896364
 20
52.58843720878312
 30
0.0
 10
215.8255909726834
 20
52.61791079715496
 30
0.0
 10
215.6493017205111
 20
52.68824011278734
 30
0.0
 10
215.5668866382831
 20
52.72864920011038
 30
0.0
 10
215.41611692339
 20
52.81819175021818
 30
0.0
 10
215.3472410589356
 20
52.86752774968775
 30
0.0
 10
215.2230711165689
 20
52.97559586909609
 30
0.0
 10
215.1691029498232
 20
53.03326252388018
 30
0.0
 10
215.0785411090766
 20
53.15396103572212
 30
0.0
 10
215.0416763471854
 20
53.2172154835502
 30
0.0
 10
214.9861732183065
 20
53.34950704063917
 30
0.0
 10
214.9682823283931
 20
53.41698396301744
 30
0.0
 10
214.9529738548345
 20
53.55224328624969
 30
0.0
 10
214.9554082875413
 20
53.62031094832705
 30
0.0
 10
214.9831017223361
 20
53.75676693086434
 30
0.0
 10
215.007869197231
 20
53.82255104699257
 30
0.0
 10
215.0795538801642
 20
53.94828939456149
 30
0.0
 10
215.1272934646609
 20
54.00903639587158
 30
0.0
 10
215.2441835319698
 20
54.11976295008901
 30
0.0
 10
215.3123576516784
 20
54.16925393694314
 30
0.0
 10
215.4683701996636
 20
54.25623248063651
 30
0.0
 10
215.5564255435325
 20
54.29342716659567
 30
0.0
 10
215.7427872061959
 20
54.35189579095092
 30
0.0
 10
215.8433671709469
 20
54.37397550748993
 30
0.0
 10
216.0507796671378
 20
54.40304829438677
 30
0.0
 10
216.1569036624902
 20
54.41016669658239
 30
0.0
 10
216.3737112539322
 20
54.41113974114249
 30
0.0
 10
216.4838310189881
 20
54.40486364497443
 30
0.0
 10
216.5924646356675
 20
54.3927294770415
 30
0.0
  0
SPLINE
  5
1F1
330
1F
100
AcDbEntity
  8
0
  6
Continuous
 62
     7
370
    25
100
AcDbSpline
210
0.0
220
0.0
230
1.0
 70
    11
 71
     3
 72
    70
 73
    66
 74
     0
 42
0.000000001
 43
0.00000001
 40
0.0
 40
0.0
 40
0.0
 40
0.0
 40
0.03125
 40
0.03125
 40
0.0625
 40
0.0625
 40
0.09375
 40
0.09375
 40
0.125
 40
0.125
 40
0.15625
 40
0.15625
 40
0.1875
 40
0.1875
 40
0.21875
 40
0.21875
 40
0.25
 40
0.25
 40
0.28125
 40
0.28125
 40
0.3125
 40
0.3125
 40
0.34375
 40
0.34375
 40
0.375
 40
0.375
 40
0.40625
 40
0.40625
 40
0.4375
 40
0.4375
 40
0.46875
 40
0.46875
 40
0.5
 40
0.5
 40
0.53125
 40
0.53125
 40
0.5625
 40
0.5625
 40
0.59375
 40
0.59375
 40
0.625
 40
0.625
 40
0.65625
 40
0.65625
 40
0.6875
 40
0.6875
 40
0.71875
 40
0.71875
 40
0.75
 40
0.75
 40
0.78125
 40
0.78125
 40
0.8125
 40
0.8125
 40
0.84375
 40
0.84375
 40
0.875
 40
0.875
 40
0.90625
 40
0.90625
 40
0.9375
 40
0.9375
 40
0.96875
 40
0.96875
 40
1.0
 40
1.0
 40
1.0
 40
1.0
 10
207.8654765806281
 20
39.27714281302885
 30
0.0
 10
207.8006787113081
 20
39.36511695401454
 30
0.0
 10
207.7414157807295
 20
39.4554719907167
 30
0.0
 10
207.6348215467904
 20
39.64145604977747
 30
0.0
 10
207.586994802623
 20
39.73837329496796
 30
0.0
 10
207.508541609372
 20
39.93143763297122
 30
0.0
 10
207.4777913500008
 20
40.0272723928726
 30
0.0
 10
207.4345016529999
 20
40.21772167703522
 30
0.0
 10
207.4222609078486
 20
40.3127176664174
 30
0.0
 10
207.4186163801139
 20
40.4906403874776
 30
0.0
 10
207.4269165986422
 20
40.57558374531118
 30
0.0
 10
207.4635899716235
 20
40.73317595352115
 30
0.0
 10
207.4913625099443
 20
40.80405829402039
 30
0.0
 10
207.5641930758292
 20
40.93085873016078
 30
0.0
 10
207.6094084821906
 20
40.9864127502963
 30
0.0
 10
207.711890830002
 20
41.07819951022108
 30
0.0
 10
207.7701096611434
 20
41.11542516445515
 30
0.0
 10
207.895946733769
 20
41.17100526334265
 30
0.0
 10
207.9629287642263
 20
41.18930203016422
 30
0.0
 10
208.1039779330151
 20
41.20788569439551
 30
0.0
 10
208.1784404143672
 20
41.20796145840111
 30
0.0
 10
208.3286822639162
 20
41.1902767855732
 30
0.0
 10
208.4050600830584
 20
41.17267462491685
 30
0.0
 10
208.5600272111755
 20
41.1199433371745
 30
0.0
 10
208.6382087860651
 20
41.08477932726433
 30
0.0
 10
208.7911400816375
 20
40.99941219920122
 30
0.0
 10
208.8665667664759
 20
40.94900278791796
 30
0.0
 10
209.0153592272935
 20
40.83231096571971
 30
0.0
 10
209.0879882658621
 20
40.76644833790908
 30
0.0
 10
209.2260508347622
 20
40.6235173857381
 30
0.0
 10
209.2920980505102
 20
40.54599097292913
 30
0.0
 10
209.418265356264
 20
40.37822181724003
 30
0.0
 10
209.4776127123248
 20
40.28880388589728
 30
0.0
 10
209.5856090144722
 20
40.10434982340808
 30
0.0
 10
209.6348417669508
 20
40.00857429476221
 30
0.0
 10
209.7233313822754
 20
39.80942710240085
 30
0.0
 10
209.7615873858174
 20
39.70803615762509
 30
0.0
 10
209.8241962591299
 20
39.50730238583277
 30
0.0
 10
209.8490654900733
 20
39.40639095102419
 30
0.0
 10
209.8837518852945
 20
39.20839741745742
 30
0.0
 10
209.8931801526406
 20
39.114112094974
 30
0.0
 10
209.8964443512757
 20
38.93500942132877
 30
0.0
 10
209.8899676621777
 20
38.84968470922704
 30
0.0
 10
209.8616966109247
 20
38.69757669052947
 30
0.0
 10
209.8398348745132
 20
38.62913804449668
 30
0.0
 10
209.7816775445715
 20
38.50994825124048
 30
0.0
 10
209.7460775433822
 20
38.46025446913701
 30
0.0
 10
209.6623961800789
 20
38.37874258203208
 30
0.0
 10
209.6141694316433
 20
38.34719408406268
 30
0.0
 10
209.5090788565296
 20
38.30319555551233
 30
0.0
 10
209.4515290068904
 20
38.29026105297361
 30
0.0
 10
209.3276909934791
 20
38.28196636928659
 30
0.0
 10
209.2625969867456
 20
38.28660373695954
 30
0.0
 10
209.1260325029788
 20
38.31203402678154
 30
0.0
 10
209.0538654805776
 20
38.33314533502593
 30
0.0
 10
208.9066509451737
 20
38.39029102005028
 30
0.0
 10
208.8316799763891
 20
38.42613337109326
 30
0.0
 10
208.6789525224819
 20
38.5120059123511
 30
0.0
 10
208.6004784629927
 20
38.5626147440428
 30
0.0
 10
208.4457259824796
 20
38.67527955340829
 30
0.0
 10
208.3691481367999
 20
38.73737837915521
 30
0.0
 10
208.2178640436728
 20
38.87342190608846
 30
0.0
 10
208.1425515427555
 20
38.94808638566104
 30
0.0
 10
207.9989892162104
 20
39.10579488281891
 30
0.0
 10
207.930274449948
 20
39.18916867204317
 30
0.0
 10
207.8654765806281
 20
39.27714281302885
 30
0.0
  0
SPLINE
  5
1F2
330
1F
100
AcDbEntity
  8
0
  6
Continuous
 62
     7
370
    25
100
AcDbSpline
210
0.0
220
0.0
230
1.0
 70
     8
 71
     3
 72
    14
 73
    10
 74
     0
 42
0.000000001
 43
0.00000001
 40
0.0
 40
0.0
 40
0.0
 40
0.0
 40
0.25
 40
0.25
 40
0.5
 40
0.5
 40
0.75
 40
0.75
 40
1.0
 40
1.0
 40
1.0
 40
1.0
 10
183.4671803844926
 20
48.43759600198678
 30
0.0
 10
183.4200072772602
 20
48.41036354684065
 30
0.0
 10
183.3644432125615
 20
48.3886191886997
 30
0.0
 10
183.2425177404425
 20
48.35837376129369
 30
0.0
 10
183.1764212195666
 20
48.35007473118338
 30
0.0
 10
183.0442292904299
 20
48.34864211540361
 30
0.0
 10
182.9772941388991
 20
48.35559208958523
 30
0.0
 10
182.8546836472288
 20
48.38380144319463
 30
0.0
 10
182.7977481924251
 20
48.40537728750229
 30
0.0
 10
182.7510056490529
 20
48.43236118342269
 30
0.0
  0
SPLINE
  5
1F3
330
1F
100
AcDbEntity
  8
0
  6
Continuous
 62
     7
370
    25
100
AcDbSpline
210
0.0
220
0.0
230
1.0
 70
     8
 71
     3
 72
    12
 73
     8
 74
     0
 42
0.000000001
 43
0.00000001
 40
0.0
 40
0.0
 40
0.0
 40
0.0
 40
0.2500000000000032
 40
0.2500000000000032
 40
0.5000000000000064
 40
0.5000000000000064
 40
1.0
 40
1.0
 40
1.0
 40
1.0
 10
211.0794688051326
 20
76.19758577857698
 30
0.0
 10
211.1332408240807
 20
76.16654385278424
 30
0.0
 10
211.1857290991989
 20
76.11756922352743
 30
0.0
 10
211.2767350261374
 20
76.0008383486779
 30
0.0
 10
211.3153093796668
 20
75.93338688334478
 30
0.0
 10
211.405132968963
 20
75.72906965633788
 30
0.0
 10
211.4330221957259
 20
75.58870682714047
 30
0.0
 10
211.4330221957259
 20
75.4658901020858
 30
0.0
  0
LINE
  5
1F4
330
1F
100
AcDbEntity
  8
0
  6
Continuous
 62
     7
370
    25
100
AcDbLine
 10
182.7510051898
 20
48.4323608867
 30
0.0
 11
181.0935573231
 21
49.3891851736
 31
0.0
  0
LWPOLYLINE
  5
1F5
330
1F
100
AcDbEntity
  8
0
  6
Continuous
 62
     7
370
    25
100
AcDbPolyline
 90
       25
 70
   128
 43
0.0
 10
181.0935573231
 20
49.3891851736
 10
181.4830297647
 20
51.2776065061
 10
181.9926233588
 20
53.1915103253
 10
182.6187055738
 20
55.1172569293
 10
183.3568167463
 20
57.0411222826
 10
184.2016951058
 20
58.9493964933
 10
185.1473189211
 20
60.8284777269
 10
186.186949965
 20
62.6649756246
 10
187.3131789531
 20
64.4458021745
 10
188.517979545
 20
66.1582660041
 10
189.7927649789
 20
67.790161349
 10
191.1284512917
 20
69.3298608236
 10
192.5155185642
 20
70.7663887997
 10
193.9440820432
 20
72.0895096139
 10
195.4039606307
 20
73.2897929608
 10
196.8847498173
 20
74.3586848942
 10
198.3758968388
 20
75.2885664237
 10
199.8667746803
 20
76.0728129659
 10
201.3467581377
 20
76.7058321706
 10
202.805300209
 20
77.1831171461
 10
204.232005934
 20
77.5012617089
 10
205.6167077146
 20
77.6580023446
 10
206.9495366028
 20
77.6522198174
 10
208.2209950699
 20
77.483956844
 10
209.4220215432
 20
77.1544097224
  0
LINE
  5
1F6
330
1F
100
AcDbEntity
  8
0
  6
Continuous
 62
     7
370
    25
100
AcDbLine
 10
209.4220215432
 20
77.1544097224
 30
0.0
 11
211.0794694099
 21
76.1975854355
 31
0.0
  0
LINE
  5
1F7
330
1F
100
AcDbEntity
  8
0
  6
Continuous
 62
     7
370
    25
100
AcDbLine
 10
215.8701179463
 20
66.7351431205
 30
0.0
 11
217.308634667
 21
67.565581147
 31
0.0
  0
LINE
  5
1F8
330
1F
100
AcDbEntity
  8
0
  6
Continuous
 62
     7
370
    25
100
AcDbLine
 10
215.8701179463
 20
58.5697351841
 30
0.0
 11
215.8701179463
 21
66.7351431205
 31
0.0
  0
LINE
  5
1F9
330
1F
100
AcDbEntity
  8
0
  6
Continuous
 62
     7
370
    25
100
AcDbLine
 10
217.308634667
 20
59.4001732106
 30
0.0
 11
215.8701179463
 21
58.5697351841
 31
0.0
  0
LINE
  5
1FA
330
1F
100
AcDbEntity
  8
0
  6
Continuous
 62
     7
370
    25
100
AcDbLine
 10
183.4671809033
 20
39.4556473209
 30
0.0
 11
184.8281289835
 21
40.2413059244
 31
0.0
  0
LINE
  5
1FB
330
1F
100
AcDbEntity
  8
0
  6
Continuous
 62
     7
370
    25
100
AcDbLine
 10
184.8281289835
 20
40.2413059244
 30
0.0
 11
184.8281289835
 21
49.2232548065
 31
0.0
  0
LINE
  5
1FC
330
1F
100
AcDbEntity
  8
0
  6
Continuous
 62
     7
370
    25
100
AcDbLine
 10
184.8281289835
 20
49.2232548065
 30
0.0
 11
183.4671809033
 21
48.437596203
 31
0.0
  0
LINE
  5
1FD
330
1F
100
AcDbEntity
  8
0
  6
Continuous
 62
     7
370
    25
100
AcDbLine
 10
211.4330228585
 20
75.4658909503
 30
0.0
 11
211.4330228585
 21
72.8902365982
 31
0.0
  0
LINE
  5
1FE
330
1F
100
AcDbEntity
  8
0
  6
Continuous
 62
     7
370
    25
100
AcDbLine
 10
213.6634841311
 20
74.1778544831
 30
0.0
 11
211.4330228585
 21
72.8902365982
 31
0.0
  0
LWPOLYLINE
  5
1FF
330
1F
100
AcDbEntity
  8
0
  6
Continuous
 62
     7
370
    25
100
AcDbPolyline
 90
       22
 70
   128
 43
0.0
 10
180.1147718405
 20
50.935387613
 10
180.5273723653
 20
52.8455875732
 10
181.0675711568
 20
54.7802442146
 10
181.7310560657
 20
56.7239114193
 10
182.5125323941
 20
58.6610731994
 10
183.40575714
 20
60.5762608046
 10
184.4036022177
 20
62.4541857973
 10
185.4980979217
 20
64.2798525972
 10
186.6805086588
 20
66.0386888931
 10
187.9413928767
 20
67.7166494414
 10
189.2706840638
 20
69.3003381118
 10
190.657769117
 20
70.7771109231
 10
192.0915736225
 20
72.1351785078
 10
193.5606510889
 20
73.3636971688
 10
195.0532718507
 20
74.4528597464
 10
196.557519149
 20
75.3939693358
 10
198.0613834727
 20
76.1795135211
 10
199.5528578732
 20
76.8032193993
 10
201.0200347802
 20
77.2601079498
 10
202.4512008271
 20
77.5465305252
 10
203.8349286204
 20
77.6602005353
 10
205.0460742886
 20
77.6124670837
  0
SPLINE
  5
200
330
1F
100
AcDbEntity
  8
0
  6
Continuous
 62
     7
370
    25
100
AcDbSpline
210
0.0
220
0.0
230
1.0
 70
     8
 71
     3
 72
     8
 73
     4
 74
     0
 42
0.000000001
 43
0.00000001
 40
0.0
 40
0.0
 40
0.0
 40
0.0
 40
1.0
 40
1.0
 40
1.0
 40
1.0
 10
180.1147720233894
 20
50.93538789642639
 30
0.0
 10
179.6722356695441
 20
50.86370136599713
 30
0.0
 10
179.2296264794924
 20
50.79216520039537
 30
0.0
 10
178.786954773276
 20
50.72075904409066
 30
0.0
  0
LWPOLYLINE
  5
201
330
1F
100
AcDbEntity
  8
0
  6
Continuous
 62
     7
370
    25
100
AcDbPolyline
 90
       25
 70
   128
 43
0.0
 10
178.786954476
 20
50.7207586539
 10
179.1764269176
 20
52.6091799864
 10
179.6860205117
 20
54.5230838056
 10
180.3121027267
 20
56.4488304096
 10
181.0502138992
 20
58.3726957629
 10
181.8950922586
 20
60.2809699737
 10
182.840716074
 20
62.1600512073
 10
183.8803471178
 20
63.9965491049
 10
185.006576106
 20
65.7773756548
 10
186.2113766979
 20
67.4898394844
 10
187.4861621317
 20
69.1217348293
 10
188.8218484446
 20
70.6614343039
 10
190.2089157171
 20
72.09796228
 10
191.6374791961
 20
73.4210830942
 10
193.0973577835
 20
74.6213664411
 10
194.5781469701
 20
75.6902583746
 10
196.0692939917
 20
76.620139904
 10
197.5601718332
 20
77.4043864462
 10
199.0401552905
 20
78.0374056509
 10
200.4986973619
 20
78.5146906264
 10
201.9254030869
 20
78.8328351892
 10
203.3101048675
 20
78.9895758249
 10
204.6429337557
 20
78.9837932977
 10
205.9143922227
 20
78.8155303244
 10
207.1154186961
 20
78.4859832027
  0
LINE
  5
202
330
1F
100
AcDbEntity
  8
0
  6
Continuous
 62
     7
370
    25
100
AcDbLine
 10
207.1154186961
 20
78.4859832027
 30
0.0
 11
207.4115938202
 21
77.5420750231
 31
0.0
  0
LWPOLYLINE
  5
203
330
1F
100
AcDbEntity
  8
0
  6
Continuous
 62
     7
370
    25
100
AcDbPolyline
 90
       12
 70
   128
 43
0.0
 10
190.6066685945
 20
80.0918209055
 10
190.6607426307
 20
80.1218250043
 10
192.1383490305
 20
80.8674790386
 10
193.6029944924
 20
81.4632481227
 10
195.0444051869
 20
81.9049549284
 10
196.4524711388
 20
82.1895007577
 10
197.8173151683
 20
82.3148886112
 10
199.1293643432
 20
82.2802401021
 10
200.3794155039
 20
82.0857983012
 10
201.5587001303
 20
81.7329271611
 10
202.6589462448
 20
81.2241001031
 10
202.7895132302
 20
81.1502841676
  0
LWPOLYLINE
  5
204
330
1F
100
AcDbEntity
  8
0
  6
Continuous
 62
     7
370
    25
100
AcDbPolyline
 90
       10
 70
   128
 43
0.0
 10
177.791545663
 20
37.8478408053
 10
177.4040633429
 20
38.0858472956
 10
176.4366548752
 20
38.8215779321
 10
175.5664225522
 20
39.7023471002
 10
174.7994697644
 20
40.7219754663
 10
174.1411741863
 20
41.8733111328
 10
173.596156166
 20
43.1482798316
 10
173.1682365789
 20
44.5379370198
 10
172.8604170708
 20
46.032535563
 10
172.7055234513
 20
47.2600558358
  0
LINE
  5
205
330
1F
100
AcDbEntity
  8
0
  6
Continuous
 62
     7
370
    25
100
AcDbLine
 10
202.9477414105
 20
80.8919320876
 30
0.0
 11
207.1154186961
 21
78.4859832027
 31
0.0
  0
LINE
  5
206
330
1F
100
AcDbEntity
  8
0
  6
Continuous
 62
     7
370
    25
100
AcDbLine
 10
178.786954476
 20
50.7207586539
 30
0.0
 11
178.1548110173
 21
51.0856873049
 31
0.0
  0
SPLINE
  5
207
330
1F
100
AcDbEntity
  8
0
  6
Continuous
 62
     7
370
    25
100
AcDbSpline
210
0.0
220
0.0
230
1.0
 70
     8
 71
     3
 72
    30
 73
    26
 74
     0
 42
0.000000001
 43
0.00000001
 40
0.0
 40
0.0
 40
0.0
 40
0.0
 40
0.1250000000000002
 40
0.1250000000000002
 40
0.1875000000000003
 40
0.1875000000000003
 40
0.2500000000000004
 40
0.2500000000000004
 40
0.3750000000000001
 40
0.3750000000000001
 40
0.4374999999999998
 40
0.4374999999999998
 40
0.4999999999999996
 40
0.4999999999999996
 40
0.6249999999999996
 40
0.6249999999999996
 40
0.6874999999999997
 40
0.6874999999999997
 40
0.7499999999999997
 40
0.7499999999999997
 40
0.8124999999999998
 40
0.8124999999999998
 40
0.8749999999999999
 40
0.8749999999999999
 40
1.0
 40
1.0
 40
1.0
 40
1.0
 10
178.1548115713404
 20
51.0856875468465
 30
0.0
 10
177.9204959377338
 20
51.22095508287713
 30
0.0
 10
177.684995461205
 20
51.3242176118065
 30
0.0
 10
177.3304450138153
 20
51.43346034957027
 30
0.0
 10
177.2120507504163
 20
51.46221331156697
 30
0.0
 10
176.9749961053661
 20
51.50416647621667
 30
0.0
 10
176.8561761941302
 20
51.51727161111877
 30
0.0
 10
176.507532310154
 20
51.53252300013309
 30
0.0
 10
176.2827674675121
 20
51.51144423869108
 30
0.0
 10
175.9585568199083
 20
51.43444118681539
 30
0.0
 10
175.8521407439971
 20
51.40093258178218
 30
0.0
 10
175.6468315140247
 20
51.31939423565855
 30
0.0
 10
175.5482367835169
 20
51.27158863055723
 30
0.0
 10
175.264738789718
 20
51.10792142100431
 30
0.0
 10
175.0919958160478
 20
50.97200932452773
 30
0.0
 10
174.8598710175517
 20
50.72763818762265
 30
0.0
 10
174.7875570317257
 20
50.639821102415
 30
0.0
 10
174.6552387176561
 20
50.45444053347472
 30
0.0
 10
174.5948847789353
 20
50.35651953343439
 30
0.0
 10
174.4859216447922
 20
50.15043168273016
 30
0.0
 10
174.4373118196941
 20
50.0422648758859
 30
0.0
 10
174.3522760037994
 20
49.81557516237915
 30
0.0
 10
174.3157251246244
 20
49.69643473465638
 30
0.0
 10
174.2267308475315
 20
49.32845040620226
 30
0.0
 10
174.1943942905514
 20
49.06922528090558
 30
0.0
 10
174.1897083842545
 20
48.79601869947543
 30
0.0
  0
ARC
  5
208
330
1F
100
AcDbEntity
  8
0
  6
Continuous
 62
     7
370
    25
100
AcDbCircle
 10
197.752386005
 20
48.3877484335
 30
0.0
 40
23.56621418180755
100
AcDbArc
 50
179.0073355702
 51
180.9926644298
  0
SPLINE
  5
209
330
1F
100
AcDbEntity
  8
0
  6
Continuous
 62
     7
370
    25
100
AcDbSpline
210
0.0
220
0.0
230
1.0
 70
     8
 71
     3
 72
    30
 73
    26
 74
     0
 42
0.000000001
 43
0.00000001
 40
0.0
 40
0.0
 40
0.0
 40
0.0
 40
0.1249999999999996
 40
0.1249999999999996
 40
0.1874999999999994
 40
0.1874999999999994
 40
0.2499999999999993
 40
0.2499999999999993
 40
0.3749999999999992
 40
0.3749999999999992
 40
0.4374999999999993
 40
0.4374999999999993
 40
0.4999999999999994
 40
0.4999999999999994
 40
0.6249999999999992
 40
0.6249999999999992
 40
0.6874999999999993
 40
0.6874999999999993
 40
0.7499999999999994
 40
0.7499999999999994
 40
0.8124999999999997
 40
0.8124999999999997
 40
0.8749999999999998
 40
0.8749999999999998
 40
1.0
 40
1.0
 40
1.0
 40
1.0
 10
174.1897083842545
 20
47.97947788758967
 30
0.0
 10
174.1943946309133
 20
47.71166208695795
 30
0.0
 10
174.2267041512321
 20
47.43794592197255
 30
0.0
 10
174.3143622066006
 20
47.01869777477714
 30
0.0
 10
174.3501563779141
 20
46.87748735608482
 30
0.0
 10
174.4350169927665
 20
46.59198674109268
 30
0.0
 10
174.4842696406803
 20
46.44740167626166
 30
0.0
 10
174.6484739768496
 20
46.01830940711004
 30
0.0
 10
174.78052643491
 20
45.73533659162621
 30
0.0
 10
175.010577002429
 20
45.31433268088907
 30
0.0
 10
175.0930400409228
 20
45.17392761101527
 30
0.0
 10
175.2667917761419
 20
44.89726331692104
 30
0.0
 10
175.3575933679756
 20
44.76167876787466
 30
0.0
 10
175.6409878402069
 20
44.36258170111503
 30
0.0
 10
175.8444677148739
 20
44.10665475810784
 30
0.0
 10
176.1703757021227
 20
43.73702877807216
 30
0.0
 10
176.2821163175838
 20
43.61670993088664
 30
0.0
 10
176.5074204217212
 20
43.38587233275584
 30
0.0
 10
176.6215430692003
 20
43.27470973867628
 30
0.0
 10
176.8524528557647
 20
43.06063592950131
 30
0.0
 10
176.9692402717734
 20
42.95772480276684
 30
0.0
 10
177.2053232342432
 20
42.76016663585161
 30
0.0
 10
177.325200608633
 20
42.66509486324624
 30
0.0
 10
177.6836838637968
 20
42.39628978464366
 30
0.0
 10
177.92049253036
 20
42.23900811916889
 30
0.0
 10
178.1548115713404
 20
42.10373861610326
 30
0.0
  0
LINE
  5
20A
330
1F
100
AcDbEntity
  8
0
  6
Continuous
 62
     7
370
    25
100
AcDbLine
 10
178.1548110173
 20
42.1037384228
 30
0.0
 11
178.786954476
 21
41.7388097718
 31
0.0
  0
LWPOLYLINE
  5
20B
330
1F
100
AcDbEntity
  8
0
  6
Continuous
 62
     7
370
    25
100
AcDbPolyline
 90
        9
 70
   128
 43
0.0
 10
184.7391418398
 20
33.9601888992
 10
183.9258736168
 20
34.3204280405
 10
182.8764855775
 20
34.9543844951
 10
181.9219753625
 20
35.7414596152
 10
181.0692273962
 20
36.6759797018
 10
180.3243898501
 20
37.7512011533
 10
179.6928377644
 20
38.9593728278
 10
179.1791243159
 20
40.2917786327
 10
178.786954476
 20
41.7388097718
  0
LINE
  5
20C
330
1F
100
AcDbEntity
  8
0
  6
Continuous
 62
     7
370
    25
100
AcDbLine
 10
209.0673709595
 20
77.3586408225
 30
0.0
 11
209.4197818333
 21
77.1551983555
 31
0.0
  0
SPLINE
  5
20D
330
1F
100
AcDbEntity
  8
0
  6
Continuous
 62
     7
370
    25
100
AcDbSpline
210
0.0
220
0.0
230
1.0
 70
     8
 71
     3
 72
    22
 73
    18
 74
     0
 42
0.000000001
 43
0.00000001
 40
0.0
 40
0.0
 40
0.0
 40
0.0
 40
0.2500000000000002
 40
0.2500000000000002
 40
0.3750000000000003
 40
0.3750000000000003
 40
0.5000000000000004
 40
0.5000000000000004
 40
0.6250000000000004
 40
0.6250000000000004
 40
0.7500000000000004
 40
0.7500000000000004
 40
0.8750000000000004
 40
0.8750000000000004
 40
0.9375000000000002
 40
0.9375000000000002
 40
1.0
 40
1.0
 40
1.0
 40
1.0
 10
202.9477408214874
 20
80.89193242155757
 30
0.0
 10
203.3797729170264
 20
80.72366198345112
 30
0.0
 10
203.8301475653918
 20
80.51298597857091
 30
0.0
 10
204.5551210070761
 20
80.12789174231428
 30
0.0
 10
204.8070883307955
 20
79.98676620403847
 30
0.0
 10
205.3198804439277
 20
79.6877492348213
 30
0.0
 10
205.5814017559868
 20
79.52958339746549
 30
0.0
 10
206.1189764375854
 20
79.19698345612801
 30
0.0
 10
206.3969389822482
 20
79.02128564476197
 30
0.0
 10
206.9495449009936
 20
78.6696427286686
 30
0.0
 10
207.2265408261649
 20
78.49226389954589
 30
0.0
 10
207.7847284060616
 20
78.13795348023332
 30
0.0
 10
208.0549044952214
 20
77.96809564052087
 30
0.0
 10
208.4463718103179
 20
77.72752665554617
 30
0.0
 10
208.5746190404258
 20
77.64965877299775
 30
0.0
 10
208.8264806796072
 20
77.49905247749933
 30
0.0
 10
208.9493729134537
 20
77.4267596382884
 30
0.0
 10
209.067371572313
 20
77.3586404624863
 30
0.0
  0
LINE
  5
20E
330
1F
100
AcDbEntity
  8
0
  6
Continuous
 62
     7
370
    25
100
AcDbLine
 10
180.4358728742
 20
51.1207552941
 30
0.0
 11
180.1147718405
 21
50.935387613
 31
0.0
  0
LINE
  5
20F
330
1F
100
AcDbEntity
  8
0
  6
Continuous
 62
     7
370
    25
100
AcDbLine
 10
181.3965220411
 20
50.9023409858
 30
0.0
 11
181.0098675114
 21
51.1255518946
 31
0.0
  0
SPLINE
  5
210
330
1F
100
AcDbEntity
  8
0
  6
Continuous
 62
     7
370
    25
100
AcDbSpline
210
0.0
220
0.0
230
1.0
 70
     8
 71
     3
 72
    12
 73
     8
 74
     0
 42
0.000000001
 43
0.00000001
 40
0.0
 40
0.0
 40
0.0
 40
0.0
 40
0.250000000000003
 40
0.250000000000003
 40
0.500000000000006
 40
0.500000000000006
 40
1.0
 40
1.0
 40
1.0
 40
1.0
 10
181.0098676780816
 20
51.12555237429227
 30
0.0
 10
180.9724756404987
 20
51.1471383381187
 30
0.0
 10
180.9263273296438
 20
51.16457847314117
 30
0.0
 10
180.8276274922612
 20
51.18703460145549
 30
0.0
 10
180.7741159259658
 20
51.19242090705611
 30
0.0
 10
180.6155185062644
 20
51.19033974824598
 30
0.0
 10
180.5108044116466
 20
51.16401252775517
 30
0.0
 10
180.4358725731198
 20
51.12075529812968
 30
0.0
  0
LINE
  5
211
330
1F
100
AcDbEntity
  8
0
  6
Continuous
 62
     7
370
    25
100
AcDbLine
 10
196.0093895728
 20
41.65644435
 30
0.0
 11
195.9272499749
 21
41.6751719921
 31
0.0
  0
LWPOLYLINE
  5
212
330
1F
100
AcDbEntity
  8
0
  6
Continuous
 62
     7
370
    25
100
AcDbPolyline
 90
       17
 70
   128
 43
0.0
 10
208.8617529492
 20
38.8085327969
 10
209.1999998478
 20
38.690961326
 10
209.4867512
 20
38.746678071
 10
209.6783534075
 20
38.9671995844
 10
209.7456355828
 20
39.3189542057
 10
209.6783534075
 20
39.748391173
 10
209.4867512
 20
40.1901318864
 10
209.1999998478
 20
40.5769246955
 10
208.8617529492
 20
40.849884781
 10
208.5235034165
 20
40.9674577726
 10
208.2367520643
 20
40.9117410276
 10
208.0451498568
 20
40.6912195142
 10
207.9778676815
 20
40.3394648929
 10
208.0451498568
 20
39.9100279255
 10
208.2367520643
 20
39.4682872121
 10
208.5235034165
 20
39.081494403
 10
208.8617529492
 20
38.8085327969
  0
LWPOLYLINE
  5
213
330
1F
100
AcDbEntity
  8
0
  6
Continuous
 62
     7
370
    25
100
AcDbPolyline
 90
       17
 70
   128
 43
0.0
 10
215.7286966656
 20
52.7437801556
 10
216.1342251632
 20
52.5873552178
 10
216.6125783937
 20
52.5324265957
 10
217.0909330235
 20
52.5873556455
 10
217.4964627559
 20
52.7437806308
 10
217.7674281377
 20
52.9778879622
 10
217.8625783525
 20
53.254036212
 10
217.7674288786
 20
53.530183654
 10
217.4964635791
 20
53.7642902725
 10
217.0909324473
 20
53.920716731
 10
216.6125792168
 20
53.9756453532
 10
216.134224587
 20
53.9207163033
 10
215.7286948546
 20
53.764291318
 10
215.4577294728
 20
53.5301839866
 10
215.362579258
 20
53.2540357368
 10
215.457728732
 20
52.9778882948
 10
215.7286966656
 20
52.7437801556
  0
LWPOLYLINE
  5
214
330
1F
100
AcDbEntity
  8
0
  6
Continuous
 62
     7
370
    25
100
AcDbPolyline
 90
       18
 70
   128
 43
0.0
 10
172.8335027066
 20
52.8244067794
 10
172.8645939099
 20
53.0587887913
 10
173.177561919
 20
54.916380152
 10
173.6125555912
 20
56.8077257558
 10
174.1664402547
 20
58.7191968807
 10
174.8352264469
 20
60.637023059
 10
175.6140936219
 20
62.5473848507
 10
176.4974322977
 20
64.4365191645
 10
177.478876983
 20
66.2908143117
 10
178.5513549099
 20
68.0969096232
 10
179.7071413511
 20
69.8417920222
 10
180.9379070359
 20
71.5128903178
 10
182.2347853209
 20
73.0981656936
 10
183.5884314596
 20
74.5861930713
 10
184.9890927371
 20
75.96625179
 10
186.426677288
 20
77.2284003146
 10
187.8908275244
 20
78.3635444809
 10
189.1803734103
 20
79.242907843
  0
LINE
  5
215
330
1F
100
AcDbEntity
  8
0
  6
Continuous
 62
     7
370
    25
100
AcDbLine
 10
179.8783813625
 20
43.098734404
 30
0.0
 11
184.8281289835
 21
40.2413059244
 31
0.0
  0
ARC
  5
216
330
1F
100
AcDbEntity
  8
0
  6
Continuous
 62
     7
370
    25
100
AcDbCircle
 10
184.0189278732
 20
49.5717628582
 30
0.0
 40
7.684023866252925
100
AcDbArc
 50
182.6054781208
 51
237.3945216397
  0
LINE
  5
217
330
1F
100
AcDbEntity
  8
0
  6
Continuous
 62
     7
370
    25
100
AcDbLine
 10
176.3428475356
 20
50.0389995043
 30
0.0
 11
176.3428475356
 21
49.2224586536
 31
0.0
  0
ARC
  5
218
330
1F
100
AcDbEntity
  8
0
  6
Continuous
 62
     7
370
    25
100
AcDbCircle
 10
179.5555904827
 20
50.1521473552
 30
0.0
 40
3.214734776046068
100
AcDbArc
 50
155.343366055
 51
182.0170353142
  0
SPLINE
  5
219
330
1F
100
AcDbEntity
  8
0
  6
Continuous
 62
     7
370
    25
100
AcDbSpline
210
0.0
220
0.0
230
1.0
 70
     8
 71
     3
 72
     8
 73
     4
 74
     0
 42
0.000000001
 43
0.00000001
 40
0.0
 40
0.0
 40
0.0
 40
0.0
 40
1.0
 40
1.0
 40
1.0
 40
1.0
 10
164.5870776004923
 20
54.53232959630215
 30
0.0
 10
165.0539398261591
 20
54.15208800904019
 30
0.0
 10
165.5209746105426
 20
53.78518136049733
 30
0.0
 10
165.9880997227179
 20
53.42525503490536
 30
0.0
  0
SPLINE
  5
21A
330
1F
100
AcDbEntity
  8
0
  6
Continuous
 62
     7
370
    25
100
AcDbSpline
210
0.0
220
0.0
230
1.0
 70
     8
 71
     3
 72
    14
 73
    10
 74
     0
 42
0.000000001
 43
0.00000001
 40
0.0
 40
0.0
 40
0.0
 40
0.0
 40
0.1249999999999976
 40
0.1249999999999976
 40
0.2499999999999951
 40
0.2499999999999951
 40
0.4999999999999949
 40
0.4999999999999949
 40
1.0
 40
1.0
 40
1.0
 40
1.0
 10
165.9880997227179
 20
53.42525503490535
 30
0.0
 10
166.0145236613911
 20
53.40489502661973
 30
0.0
 10
166.038587603896
 20
53.38938272330508
 30
0.0
 10
166.0748568613211
 20
53.37239935474572
 30
0.0
 10
166.0868752363093
 20
53.37052511333979
 30
0.0
 10
166.1123894829796
 20
53.37466595467504
 30
0.0
 10
166.1165831454277
 20
53.38960834273805
 30
0.0
 10
166.1176899551632
 20
53.44395967908321
 30
0.0
 10
166.1020619700746
 20
53.49538063975921
 30
0.0
 10
166.082409237441
 20
53.55172946734517
 30
0.0
  0
SPLINE
  5
21B
330
1F
100
AcDbEntity
  8
0
  6
Continuous
 62
     7
370
    25
100
AcDbSpline
210
0.0
220
0.0
230
1.0
 70
     8
 71
     3
 72
    14
 73
    10
 74
     0
 42
0.000000001
 43
0.00000001
 40
0.0
 40
0.0
 40
0.0
 40
0.0
 40
0.25
 40
0.25
 40
0.5
 40
0.5
 40
0.75
 40
0.75
 40
1.0
 40
1.0
 40
1.0
 40
1.0
 10
166.0824092374405
 20
53.55172946734555
 30
0.0
 10
166.0577433895025
 20
53.62245202988335
 30
0.0
 10
166.0468805187781
 20
53.68551832763355
 30
0.0
 10
166.0249301515832
 20
53.81708506859215
 30
0.0
 10
166.0146585567642
 20
53.88503840758382
 30
0.0
 10
165.9853545424057
 20
54.03364341142726
 30
0.0
 10
165.966561871176
 20
54.11410721785813
 30
0.0
 10
165.9136425666598
 20
54.29367809167246
 30
0.0
 10
165.8795633894808
 20
54.39250913760033
 30
0.0
 10
165.8354771372031
 20
54.50010919257959
 30
0.0
  0
LWPOLYLINE
  5
21C
330
1F
100
AcDbEntity
  8
0
  6
Continuous
 62
     7
370
    25
100
AcDbPolyline
 90
        9
 70
   128
 43
0.0
 10
165.8354768584
 20
54.5001093451
 10
165.4673965765
 20
55.5712547248
 10
165.2022678747
 20
56.7352576021
 10
165.0423008283
 20
57.982408845
 10
164.9888296484
 20
59.3023054809
 10
165.0423008283
 20
60.6839386271
 10
165.2022678747
 20
62.1157838904
 10
165.4673965765
 20
63.5858978511
 10
165.8354768584
 20
65.0820196783
  0
SPLINE
  5
21D
330
1F
100
AcDbEntity
  8
0
  6
Continuous
 62
     7
370
    25
100
AcDbSpline
210
0.0
220
0.0
230
1.0
 70
     8
 71
     3
 72
    14
 73
    10
 74
     0
 42
0.000000001
 43
0.00000001
 40
0.0
 40
0.0
 40
0.0
 40
0.0
 40
0.25
 40
0.25
 40
0.5
 40
0.5
 40
0.75
 40
0.75
 40
1.0
 40
1.0
 40
1.0
 40
1.0
 10
166.0824092374405
 20
67.13551986665405
 30
0.0
 10
166.0577433895025
 20
66.96384733516118
 30
0.0
 10
166.0468805187781
 20
66.78886760298558
 30
0.0
 10
166.0249301515832
 20
66.44006109934439
 30
0.0
 10
166.0146585567642
 20
66.26584700740861
 30
0.0
 10
165.9853545424057
 20
65.9197960954575
 30
0.0
 10
165.966561871176
 20
65.74791324154228
 30
0.0
 10
165.9136425666598
 20
65.40788157264804
 30
0.0
 10
165.8795633894808
 20
65.24052071215092
 30
0.0
 10
165.8354771372031
 20
65.08201975374797
 30
0.0
  0
SPLINE
  5
21E
330
1F
100
AcDbEntity
  8
0
  6
Continuous
 62
     7
370
    25
100
AcDbSpline
210
0.0
220
0.0
230
1.0
 70
     8
 71
     3
 72
    14
 73
    10
 74
     0
 42
0.000000001
 43
0.00000001
 40
0.0
 40
0.0
 40
0.0
 40
0.0
 40
0.1249999999999983
 40
0.1249999999999983
 40
0.2499999999999966
 40
0.2499999999999966
 40
0.4999999999999978
 40
0.4999999999999978
 40
1.0
 40
1.0
 40
1.0
 40
1.0
 10
165.9880997227179
 20
67.8842636102967
 30
0.0
 10
166.0145236613911
 20
67.8799573110245
 30
0.0
 10
166.038587603896
 20
67.86407380448411
 30
0.0
 10
166.0748568613211
 20
67.81492923159269
 30
0.0
 10
166.0868752363093
 20
67.78391787624034
 30
0.0
 10
166.1123894829796
 20
67.68705933437292
 30
0.0
 10
166.1165831454277
 20
67.61677871349677
 30
0.0
 10
166.1176899551632
 20
67.41037731141888
 30
0.0
 10
166.1020619700746
 20
67.2723014753967
 30
0.0
 10
166.082409237441
 20
67.13551986665396
 30
0.0
  0
SPLINE
  5
21F
330
1F
100
AcDbEntity
  8
0
  6
Continuous
 62
     7
370
    25
100
AcDbSpline
210
0.0
220
0.0
230
1.0
 70
     8
 71
     3
 72
     8
 73
     4
 74
     0
 42
0.000000001
 43
0.00000001
 40
0.0
 40
0.0
 40
0.0
 40
0.0
 40
1.0
 40
1.0
 40
1.0
 40
1.0
 10
164.5870776004923
 20
68.05347650418167
 30
0.0
 10
165.0539398261591
 20
68.02138675011638
 30
0.0
 10
165.5209746105426
 20
67.96039081281069
 30
0.0
 10
165.9880997227179
 20
67.8842636102967
 30
0.0
  0
SPLINE
  5
220
330
1F
100
AcDbEntity
  8
0
  6
Continuous
 62
     7
370
    25
100
AcDbSpline
210
0.0
220
0.0
230
1.0
 70
     8
 71
     3
 72
    14
 73
    10
 74
     0
 42
0.000000001
 43
0.00000001
 40
0.0
 40
0.0
 40
0.0
 40
0.0
 40
0.4999999999999989
 40
0.4999999999999989
 40
0.7499999999999983
 40
0.7499999999999983
 40
0.8749999999999991
 40
0.8749999999999991
 40
1.0
 40
1.0
 40
1.0
 40
1.0
 10
161.7425402232737
 20
68.97805838034412
 30
0.0
 10
162.2075747559888
 20
68.78171313108324
 30
0.0
 10
162.6744306772705
 20
68.59406061961514
 30
0.0
 10
163.3814570628752
 20
68.34404266267063
 30
0.0
 10
163.6182420457663
 20
68.26588140487178
 30
0.0
 10
163.9770226838979
 20
68.16531413947676
 30
0.0
 10
164.097221507899
 20
68.13459264322513
 30
0.0
 10
164.3398236060088
 20
68.08331793684057
 30
0.0
 10
164.4620753635977
 20
68.06206852730756
 30
0.0
 10
164.5870776004923
 20
68.05347650418162
 30
0.0
  0
SPLINE
  5
221
330
1F
100
AcDbEntity
  8
0
  6
Continuous
 62
     7
370
    25
100
AcDbSpline
210
0.0
220
0.0
230
1.0
 70
     8
 71
     3
 72
    14
 73
    10
 74
     0
 42
0.000000001
 43
0.00000001
 40
0.0
 40
0.0
 40
0.0
 40
0.0
 40
0.4999999999999989
 40
0.4999999999999989
 40
0.7499999999999983
 40
0.7499999999999983
 40
0.8749999999999991
 40
0.8749999999999991
 40
1.0
 40
1.0
 40
1.0
 40
1.0
 10
161.7425402232737
 20
56.65511440446991
 30
0.0
 10
162.2075747559888
 20
56.32026908823147
 30
0.0
 10
162.6744306772705
 20
55.98148091315987
 30
0.0
 10
163.3814570628752
 20
55.45918516612704
 30
0.0
 10
163.6182420457663
 20
55.28276345803663
 30
0.0
 10
163.9770226838979
 20
55.01068130651765
 30
0.0
 10
164.097221507899
 20
54.9187359451607
 30
0.0
 10
164.3398236060088
 20
54.73030992433035
 30
0.0
 10
164.4620753635977
 20
54.6341391802757
 30
0.0
 10
164.5870776004923
 20
54.53232959630218
 30
0.0
  0
SPLINE
  5
222
330
1F
100
AcDbEntity
  8
0
  6
Continuous
 62
     7
370
    25
100
AcDbSpline
210
0.0
220
0.0
230
1.0
 70
     8
 71
     3
 72
    17
 73
    13
 74
     0
 42
0.000000001
 43
0.00000001
 40
0.0
 40
0.0
 40
0.0
 40
0.0
 40
0.1207961882900952
 40
0.2420175987944839
 40
0.3632153541307872
 40
0.4839596318162575
 40
0.6040258967628624
 40
0.6645178707182005
 40
0.7242649424600393
 40
0.8441758508052679
 40
0.9646454444514005
 40
1.0
 40
1.0
 40
1.0
 40
1.0
 10
170.2007833507907
 20
54.21133856708592
 30
0.0
 10
169.9970150598198
 20
54.58522815482431
 30
0.0
 10
169.5887611803778
 20
55.33432348241358
 30
0.0
 10
169.3954938181158
 20
56.48264193846674
 30
0.0
 10
169.6008519911582
 20
57.43497893107689
 30
0.0
 10
170.1601581565344
 20
58.06845218332599
 30
0.0
 10
170.8359998366014
 20
58.2097384570011
 30
0.0
 10
171.4109991689436
 20
58.08358775273136
 30
0.0
 10
171.990789126039
 20
57.79533852360368
 30
0.0
 10
172.6578398580511
 20
57.13804740923256
 30
0.0
 10
173.1884704000787
 20
56.31262291997924
 30
0.0
 10
173.3475347338232
 20
55.79071095566245
 30
0.0
 10
173.3836244468249
 20
55.67229564180209
 30
0.0
  0
SPLINE
  5
223
330
1F
100
AcDbEntity
  8
0
  6
Continuous
 62
     7
370
    25
100
AcDbSpline
210
0.0
220
0.0
230
1.0
 70
     8
 71
     3
 72
    12
 73
     8
 74
     0
 42
0.000000001
 43
0.00000001
 40
0.0
 40
0.0
 40
0.0
 40
0.0
 40
0.0353744433893711
 40
0.3560360900717853
 40
0.5160472232178944
 40
0.6782077942890793
 40
1.0
 40
1.0
 40
1.0
 40
1.0
 10
172.7040078316757
 20
52.1791479908121
 30
0.0
 10
172.6813015465243
 20
52.1753011176707
 30
0.0
 10
172.4527677178398
 20
52.13658317496863
 30
0.0
 10
171.9789532591304
 20
52.40016982337893
 30
0.0
 10
171.4102528923311
 20
52.80959373411279
 30
0.0
 10
170.8268045349638
 20
53.34582170638215
 30
0.0
 10
170.4507988545218
 20
53.86567513046842
 30
0.0
 10
170.2007833507907
 20
54.21133856708592
 30
0.0
  0
SPLINE
  5
224
330
1F
100
AcDbEntity
  8
0
  6
Continuous
 62
     7
370
    25
100
AcDbSpline
210
0.0
220
0.0
230
1.0
 70
     8
 71
     3
 72
    14
 73
    10
 74
     0
 42
0.000000001
 43
0.00000001
 40
0.0
 40
0.0
 40
0.0
 40
0.0
 40
0.25
 40
0.25
 40
0.5
 40
0.5
 40
0.75
 40
0.75
 40
1.0
 40
1.0
 40
1.0
 40
1.0
 10
217.3160780857224
 20
59.81267424365814
 30
0.0
 10
217.362760122061
 20
59.78572527770472
 30
0.0
 10
217.400446736667
 20
59.75261855355359
 30
0.0
 10
217.4493182154214
 20
59.68200998049107
 30
0.0
 10
217.4614194458212
 20
59.64351440610099
 30
0.0
 10
217.459249834266
 20
59.56755629190561
 30
0.0
 10
217.4450094201841
 20
59.52936258431325
 30
0.0
 10
217.3931579775945
 20
59.45936793538819
 30
0.0
 10
217.3554514374908
 20
59.42719993990642
 30
0.0
 10
217.3086340067734
 20
59.40017281244183
 30
0.0
  0
ARC
  5
225
330
1F
100
AcDbEntity
  8
0
  6
Continuous
 62
     7
370
    25
100
AcDbCircle
 10
191.8517563511
 20
39.7893205085
 30
0.0
 40
8.701929273940953
100
AcDbArc
 50
214.5542627763
 51
265.4839169162
  0
SPLINE
  5
226
330
1F
100
AcDbEntity
  8
0
  6
Continuous
 62
     7
370
    25
100
AcDbSpline
210
0.0
220
0.0
230
1.0
 70
     8
 71
     3
 72
    14
 73
    10
 74
     0
 42
0.000000001
 43
0.00000001
 40
0.0
 40
0.0
 40
0.0
 40
0.0
 40
0.25
 40
0.25
 40
0.5
 40
0.5
 40
0.75
 40
0.75
 40
1.0
 40
1.0
 40
1.0
 40
1.0
 10
182.7510056490529
 20
39.45041225267945
 30
0.0
 10
182.7982268124765
 20
39.42315205528462
 30
0.0
 10
182.8545135719079
 20
39.40187012376048
 30
0.0
 10
182.977942919981
 20
39.37351549392936
 30
0.0
 10
183.0445962434409
 20
39.36667211158919
 30
0.0
 10
183.1767211203826
 20
39.36815422721835
 30
0.0
 10
183.2430804763673
 20
39.37654475890453
 30
0.0
 10
183.364334708488
 20
39.40666308237584
 30
0.0
 10
183.4204458109652
 20
39.42866777621661
 30
0.0
 10
183.4671803844926
 20
39.45564707124353
 30
0.0
  0
LINE
  5
227
330
1F
100
AcDbEntity
  8
0
  6
Continuous
 62
     7
370
    25
100
AcDbLine
 10
181.0935573231
 20
40.4072362915
 30
0.0
 11
182.7510051898
 21
39.4504120046
 31
0.0
  0
SPLINE
  5
228
330
1F
100
AcDbEntity
  8
0
  6
Continuous
 62
     7
370
    25
100
AcDbSpline
210
0.0
220
0.0
230
1.0
 70
     8
 71
     3
 72
     8
 73
     4
 74
     0
 42
0.000000001
 43
0.00000001
 40
0.0
 40
0.0
 40
0.0
 40
0.0
 40
1.0
 40
1.0
 40
1.0
 40
1.0
 10
181.4653459754557
 20
41.17376921889246
 30
0.0
 10
181.3411678075708
 20
40.91829841966638
 30
0.0
 10
181.217250107429
 20
40.66278557299342
 30
0.0
 10
181.0935576143968
 20
40.40723663650676
 30
0.0
  0
LINE
  5
229
330
1F
100
AcDbEntity
  8
0
  6
Continuous
 62
     7
370
    25
100
AcDbLine
 10
181.7864469028
 20
41.3591366211
 30
0.0
 11
181.4653458691
 21
41.17376894
 31
0.0
  0
SPLINE
  5
22A
330
1F
100
AcDbEntity
  8
0
  6
Continuous
 62
     7
370
    25
100
AcDbSpline
210
0.0
220
0.0
230
1.0
 70
     8
 71
     3
 72
    12
 73
     8
 74
     0
 42
0.000000001
 43
0.00000001
 40
0.0
 40
0.0
 40
0.0
 40
0.0
 40
0.2500000000000014
 40
0.2500000000000014
 40
0.5000000000000029
 40
0.5000000000000029
 40
1.0
 40
1.0
 40
1.0
 40
1.0
 10
181.7947562051987
 20
41.69049694148742
 30
0.0
 10
181.8321482427816
 20
41.66891097766099
 30
0.0
 10
181.862358716099
 20
41.64227012487092
 30
0.0
 10
181.9012580861085
 20
41.58529192156512
 30
0.0
 10
181.9105884520384
 20
41.55440035188832
 30
0.0
 10
181.9069833886245
 20
41.46284401032625
 30
0.0
 10
181.861378363713
 20
41.40239385022124
 30
0.0
 10
181.7864465251862
 20
41.35913662059577
 30
0.0
  0
LINE
  5
22B
330
1F
100
AcDbEntity
  8
0
  6
Continuous
 62
     7
370
    25
100
AcDbLine
 10
181.0098675114
 20
42.1436030125
 30
0.0
 11
181.7947557589
 21
41.6904966719
 31
0.0
  0
SPLINE
  5
22C
330
1F
100
AcDbEntity
  8
0
  6
Continuous
 62
     7
370
    25
100
AcDbSpline
210
0.0
220
0.0
230
1.0
 70
     8
 71
     3
 72
    14
 73
    10
 74
     0
 42
0.000000001
 43
0.00000001
 40
0.0
 40
0.0
 40
0.0
 40
0.0
 40
0.25
 40
0.25
 40
0.5
 40
0.5
 40
0.75
 40
0.75
 40
1.0
 40
1.0
 40
1.0
 40
1.0
 10
180.4358725731199
 20
42.13880636738646
 30
0.0
 10
180.4737183708984
 20
42.16065428139807
 30
0.0
 10
180.5180372880463
 20
42.17802692618698
 30
0.0
 10
180.6157388245984
 20
42.20238840087885
 30
0.0
 10
180.6684919562102
 20
42.20910236541041
 30
0.0
 10
180.7744453134387
 20
42.21045981499642
 30
0.0
 10
180.827809599734
 20
42.20508211385733
 30
0.0
 10
180.9269873745058
 20
42.18244117034148
 30
0.0
 10
180.971994267907
 20
42.16546729785762
 30
0.0
 10
181.0098676780816
 20
42.14360344354902
 30
0.0
  0
LINE
  5
22D
330
1F
100
AcDbEntity
  8
0
  6
Continuous
 62
     7
370
    25
100
AcDbLine
 10
180.1147718405
 20
41.9534387309
 30
0.0
 11
180.4358728742
 21
42.138806412
 31
0.0
  0
SPLINE
  5
22E
330
1F
100
AcDbEntity
  8
0
  6
Continuous
 62
     7
370
    25
100
AcDbSpline
210
0.0
220
0.0
230
1.0
 70
     8
 71
     3
 72
     8
 73
     4
 74
     0
 42
0.000000001
 43
0.00000001
 40
0.0
 40
0.0
 40
0.0
 40
0.0
 40
1.0
 40
1.0
 40
1.0
 40
1.0
 10
178.786954773276
 20
41.73881011334742
 30
0.0
 10
179.2296264794924
 20
41.81021626965212
 30
0.0
 10
179.6722356695441
 20
41.88175243525389
 30
0.0
 10
180.1147720233894
 20
41.95343896568314
 30
0.0
  0
LINE
  5
22F
330
1F
100
AcDbEntity
  8
0
  6
Continuous
 62
     7
370
    25
100
AcDbLine
 10
215.8701172877
 20
60.6474098552
 30
0.0
 11
217.3160781955
 21
59.812674391
 31
0.0
  0
LWPOLYLINE
  5
230
330
1F
100
AcDbEntity
  8
0
  6
Continuous
 62
     7
370
    25
100
AcDbPolyline
 90
        8
 70
   128
 43
0.0
 10
185.839138366
 20
33.202064426
 10
185.1830884246
 20
33.6228110148
 10
184.2285782097
 20
34.4098861349
 10
183.3758302434
 20
35.3444062215
 10
182.6309926972
 20
36.419627673
 10
181.9994406116
 20
37.6277993475
 10
181.485727163
 20
38.9602051524
 10
181.0935573231
 20
40.4072362915
  0
ARC
  5
231
330
1F
100
AcDbEntity
  8
0
  6
Continuous
 62
     7
370
    25
100
AcDbCircle
 10
191.6267513843
 20
44.415624282
 30
0.0
 40
11.77234176809889
100
AcDbArc
 50
192.0725460793
 51
215.0022747034
  0
SPLINE
  5
232
330
1F
100
AcDbEntity
  8
0
  6
Continuous
 62
     7
370
    25
100
AcDbSpline
210
0.0
220
0.0
230
1.0
 70
     8
 71
     3
 72
    12
 73
     8
 74
     0
 42
0.000000001
 43
0.00000001
 40
0.0
 40
0.0
 40
0.0
 40
0.0
 40
0.1675503883347434
 40
0.4025161747753053
 40
0.6381208840270863
 40
0.8774598722428354
 40
0.9999999999999999
 40
0.9999999999999999
 40
0.9999999999999999
 40
0.9999999999999999
 10
171.6237412989485
 20
57.8715406471039
 30
0.0
 10
171.589233383797
 20
57.69426135026164
 30
0.0
 10
171.5063329850316
 20
57.26837284507219
 30
0.0
 10
171.7009680256903
 20
56.45743064685092
 30
0.0
 10
172.1344230431483
 20
55.58510323467632
 30
0.0
 10
172.6562694385523
 20
54.88393847186307
 30
0.0
 10
173.0217182049532
 20
54.57334341210159
 30
0.0
 10
173.145467093869
 20
54.46816917953613
 30
0.0
  0
SPLINE
  5
233
330
1F
100
AcDbEntity
  8
0
  6
Continuous
 62
     7
370
    25
100
AcDbSpline
210
0.0
220
0.0
230
1.0
 70
     8
 71
     3
 72
    11
 73
     7
 74
     0
 42
0.000000001
 43
0.00000001
 40
0.0
 40
0.0
 40
0.0
 40
0.0
 40
0.1889487415400878
 40
0.3635157627967836
 40
0.6686735586554259
 40
1.0
 40
1.0
 40
1.0
 40
1.0
 10
170.4910967702343
 20
54.39374865212594
 30
0.0
 10
170.6176378475882
 20
54.21056392391374
 30
0.0
 10
170.8610884039902
 20
53.85813746335089
 30
0.0
 10
171.3777849365443
 20
53.29673645783653
 30
0.0
 10
172.0521110120445
 20
52.73871421513001
 30
0.0
 10
172.5069573689946
 20
52.58168718586367
 30
0.0
 10
172.743730907125
 20
52.49994563790273
 30
0.0
  0
SPLINE
  5
234
330
1F
100
AcDbEntity
  8
0
  6
Continuous
 62
     7
370
    25
100
AcDbSpline
210
0.0
220
0.0
230
1.0
 70
     8
 71
     3
 72
    15
 73
    11
 74
     0
 42
0.000000001
 43
0.00000001
 40
0.0
 40
0.0
 40
0.0
 40
0.0
 40
0.0285605575140947
 40
0.1766231786262573
 40
0.2612396331333766
 40
0.3527785380977456
 40
0.5145481059714542
 40
0.6763327681591422
 40
0.8381560932852216
 40
1.0
 40
1.0
 40
1.0
 40
1.0
 10
172.1458923489771
 20
57.59505743032408
 30
0.0
 10
172.1030521410586
 20
57.63790350398178
 30
0.0
 10
171.8381212589553
 20
57.90287066077986
 30
0.0
 10
171.3770215516994
 20
58.01540667811791
 30
0.0
 10
170.8669471179711
 20
58.02264672050732
 30
0.0
 10
170.3810888528763
 20
57.84687097705446
 30
0.0
 10
169.9291138781524
 20
57.35868776627527
 30
0.0
 10
169.7396337325729
 20
56.47794789181988
 30
0.0
 10
169.9184530950498
 20
55.42494879825514
 30
0.0
 10
170.3002074534143
 20
54.73749660557331
 30
0.0
 10
170.4910967702343
 20
54.39374865212594
 30
0.0
  0
SPLINE
  5
235
330
1F
100
AcDbEntity
  8
0
  6
Continuous
 62
     7
370
    25
100
AcDbSpline
210
0.0
220
0.0
230
1.0
 70
     8
 71
     3
 72
     9
 73
     5
 74
     0
 42
0.000000001
 43
0.00000001
 40
0.0
 40
0.0
 40
0.0
 40
0.0
 40
0.1883710221454139
 40
1.0
 40
1.0
 40
1.0
 40
1.0
 10
211.4330221999406
 20
75.45290433952879
 30
0.0
 10
211.4753983406638
 20
75.4624370620113
 30
0.0
 10
211.7003593789408
 20
75.51304316041198
 30
0.0
 10
211.9261269800824
 20
75.56244125083686
 30
0.0
 10
212.1093665074296
 20
75.6025341724764
 30
0.0
  0
LINE
  5
236
330
1F
100
AcDbEntity
  8
0
  6
Continuous
 62
     7
370
    25
100
AcDbLine
 10
212.1093665074
 20
75.6025341725
 30
0.0
 11
213.7668143742
 21
74.6457098856
 31
0.0
  0
SPLINE
  5
237
330
1F
100
AcDbEntity
  8
0
  6
Continuous
 62
     7
370
    25
100
AcDbSpline
210
0.0
220
0.0
230
1.0
 70
     8
 71
     3
 72
    16
 73
    12
 74
     0
 42
0.000000001
 43
0.00000001
 40
0.0
 40
0.0
 40
0.0
 40
0.0
 40
0.125
 40
0.125
 40
0.25
 40
0.25
 40
0.5
 40
0.5
 40
0.75
 40
0.75
 40
1.0
 40
1.0
 40
1.0
 40
1.0
 10
213.7668149610171
 20
74.64570954054581
 30
0.0
 10
213.7935569285755
 20
74.63027173127738
 30
0.0
 10
213.816527527222
 20
74.61238001187014
 30
0.0
 10
213.8525044793462
 20
74.57420001532502
 30
0.0
 10
213.8657670181252
 20
74.55391619785442
 30
0.0
 10
213.892522128831
 20
74.48978986655969
 30
0.0
 10
213.8917051235706
 20
74.44529701493052
 30
0.0
 10
213.8636247333244
 20
74.36021732258662
 30
0.0
 10
213.8360553783999
 20
74.31884446654028
 30
0.0
 10
213.7628812226405
 20
74.24341333383228
 30
0.0
 10
213.7166473842278
 20
74.20854435900847
 30
0.0
 10
213.6634835992995
 20
74.17785355924141
 30
0.0
  0
LINE
  5
238
330
1F
100
AcDbEntity
  8
0
  6
Continuous
 62
     7
370
    25
100
AcDbLine
 10
164.3797661991
 20
60.354258472
 30
0.0
 11
165.0025398865
 21
59.9947388748
 31
0.0
  0
SPLINE
  5
239
330
1F
100
AcDbEntity
  8
0
  6
Continuous
 62
     7
370
    25
100
AcDbSpline
210
0.0
220
0.0
230
1.0
 70
     8
 71
     3
 72
    11
 73
     7
 74
     0
 42
0.000000001
 43
0.00000001
 40
0.0
 40
0.0
 40
0.0
 40
0.0
 40
0.0466304722500908
 40
0.4281527877979693
 40
0.8088298298119748
 40
1.0
 40
1.0
 40
1.0
 40
1.0
 10
217.3086346669589
 20
67.56558114695162
 30
0.0
 10
217.3136121082792
 20
67.56852872866418
 30
0.0
 10
217.3593140982988
 20
67.59559290508342
 30
0.0
 10
217.4257503225774
 20
67.65683177572139
 30
0.0
 10
217.4683703587874
 20
67.74060559849046
 30
0.0
 10
217.4545378011927
 20
67.79076260575786
 30
0.0
 10
217.4499135373455
 20
67.80753023775962
 30
0.0
  0
LINE
  5
23A
330
1F
100
AcDbEntity
  8
0
  6
Continuous
 62
     7
370
    25
100
AcDbLine
 10
161.7277758553
 20
70.0356892124
 30
0.0
 11
161.7439497085
 21
70.0843148265
 31
0.0
  0
SPLINE
  5
23B
330
1F
100
AcDbEntity
  8
0
  6
Continuous
 62
     7
370
    25
100
AcDbSpline
210
0.0
220
0.0
230
1.0
 70
     8
 71
     3
 72
    16
 73
    12
 74
     0
 42
0.000000001
 43
0.00000001
 40
0.0
 40
0.0
 40
0.0
 40
0.0
 40
0.0332838850724123
 40
0.1625854311030977
 40
0.239429833395794
 40
0.3008069245191573
 40
0.3624173839861106
 40
0.4362069101913193
 40
0.5596777462223994
 40
0.9141728339414532
 40
1.0
 40
1.0
 40
1.0
 40
1.0
 10
161.7701275111879
 20
70.16300853250672
 30
0.0
 10
161.7717708416723
 20
70.16802215513134
 30
0.0
 10
161.7797981976939
 20
70.1925127455188
 30
0.0
 10
161.7904118146182
 20
70.2171354297631
 30
0.0
 10
161.8004682697662
 20
70.2345518204954
 30
0.0
 10
161.8053268735694
 20
70.23392342250828
 30
0.0
 10
161.8065294213748
 20
70.21855504139477
 30
0.0
 10
161.8032509260565
 20
70.18198524294608
 30
0.0
 10
161.7877416289257
 20
70.08166021021144
 30
0.0
 10
161.7647469864486
 20
69.96636443401097
 30
0.0
 10
161.746042132979
 20
69.87731984860578
 30
0.0
 10
161.7423962019567
 20
69.8599633685446
 30
0.0
  0
SPLINE
  5
23C
330
1F
100
AcDbEntity
  8
0
  6
Continuous
 62
     7
370
    25
100
AcDbSpline
210
0.0
220
0.0
230
1.0
 70
     8
 71
     3
 72
     9
 73
     5
 74
     0
 42
0.000000001
 43
0.00000001
 40
0.0
 40
0.0
 40
0.0
 40
0.0
 40
0.7766522094856231
 40
1.0
 40
1.0
 40
1.0
 40
1.0
 10
161.6766122154208
 20
69.59749367661524
 30
0.0
 10
161.6734259054539
 20
69.70632946631014
 30
0.0
 10
161.6693232840642
 20
69.84646399289186
 30
0.0
 10
161.7171041128065
 20
70.00114218084597
 30
0.0
 10
161.727775855335
 20
70.03568921236631
 30
0.0
  0
SPLINE
  5
23D
330
1F
100
AcDbEntity
  8
0
  6
Continuous
 62
     7
370
    25
100
AcDbSpline
210
0.0
220
0.0
230
1.0
 70
     8
 71
     3
 72
     8
 73
     4
 74
     0
 42
0.000000001
 43
0.00000001
 40
0.0
 40
0.0
 40
0.0
 40
0.0
 40
1.0
 40
1.0
 40
1.0
 40
1.0
 10
161.6533110729029
 20
68.99905533013464
 30
0.0
 10
161.681913368477
 20
68.99750191500111
 30
0.0
 10
161.7116097482145
 20
68.99111773703841
 30
0.0
 10
161.7425402232725
 20
68.97805838035048
 30
0.0
  0
SPLINE
  5
23E
330
1F
100
AcDbEntity
  8
0
  6
Continuous
 62
     7
370
    25
100
AcDbSpline
210
0.0
220
0.0
230
1.0
 70
     8
 71
     3
 72
    10
 73
     6
 74
     0
 42
0.000000001
 43
0.00000001
 40
0.0
 40
0.0
 40
0.0
 40
0.0
 40
0.4999999999999989
 40
0.4999999999999989
 40
1.0
 40
1.0
 40
1.0
 40
1.0
 10
161.7423963955696
 20
69.85996334432897
 30
0.0
 10
161.7124079256608
 20
69.71817248815898
 30
0.0
 10
161.6919746264742
 20
69.57591467211569
 30
0.0
 10
161.6633416392484
 20
69.28910440394591
 30
0.0
 10
161.6554705796019
 20
69.14464787075039
 30
0.0
 10
161.6533110729037
 20
68.99905533013093
 30
0.0
  0
ARC
  5
23F
330
1F
100
AcDbEntity
  8
0
  6
Continuous
 62
     7
370
    25
100
AcDbCircle
 10
162.8726628259
 20
68.8310091344
 30
0.0
 40
1.230877198383927
100
AcDbArc
 50
172.1531384875
 51
234.5145852444
  0
ARC
  5
240
330
1F
100
AcDbEntity
  8
0
  6
Continuous
 62
     7
370
    25
100
AcDbCircle
 10
165.3858109629
 20
56.6276463915
 30
0.0
 40
3.73404748837747
100
AcDbArc
 50
122.5266350896
 51
178.3504233083
  0
SPLINE
  5
241
330
1F
100
AcDbEntity
  8
0
  6
Continuous
 62
     7
370
    25
100
AcDbSpline
210
0.0
220
0.0
230
1.0
 70
     8
 71
     3
 72
     8
 73
     4
 74
     0
 42
0.000000001
 43
0.00000001
 40
0.0
 40
0.0
 40
0.0
 40
0.0
 40
1.0
 40
1.0
 40
1.0
 40
1.0
 10
161.6533110729035
 20
56.73513656256857
 30
0.0
 10
161.6819133684775
 20
56.70443915871065
 30
0.0
 10
161.7116097482147
 20
56.67738570686033
 30
0.0
 10
161.7425402232725
 20
56.65511440446534
 30
0.0
  0
LINE
  5
242
330
1F
100
AcDbEntity
  8
0
  6
Continuous
 62
     7
370
    25
100
AcDbLine
 10
163.3780449284
 20
59.7759770914
 30
0.0
 11
164.3797661991
 21
60.354258472
 31
0.0
  0
SPLINE
  5
243
330
1F
100
AcDbEntity
  8
0
  6
Continuous
 62
     7
370
    25
100
AcDbSpline
210
0.0
220
0.0
230
1.0
 70
     8
 71
     3
 72
     9
 73
     5
 74
     0
 42
0.000000001
 43
0.00000001
 40
0.0
 40
0.0
 40
0.0
 40
0.0
 40
0.3901117718169397
 40
1.0
 40
1.0
 40
1.0
 40
1.0
 10
161.6871166588676
 20
57.80228743088071
 30
0.0
 10
161.6780391022252
 20
57.75550137750731
 30
0.0
 10
161.6547699847614
 20
57.63557150931724
 30
0.0
 10
161.6683375295617
 20
57.51471648287495
 30
0.0
 10
161.6766122154208
 20
57.44100842493102
 30
0.0
  0
ARC
  5
244
330
1F
100
AcDbEntity
  8
0
  6
Continuous
 62
     7
370
    25
100
AcDbCircle
 10
164.1707258735
 20
57.3148557252
 30
0.0
 40
2.530988818362003
100
AcDbArc
 50
122.9343808406
 51
168.8962913337
  0
LINE
  5
245
330
1F
100
AcDbEntity
  8
0
  6
Continuous
 62
     7
370
    25
100
AcDbLine
 10
163.3780449284
 20
59.7759770914
 30
0.0
 11
162.7946824956
 21
59.4390988894
 31
0.0
  0
LINE
  5
246
330
1F
100
AcDbEntity
  8
0
  6
Continuous
 62
     7
370
    25
100
AcDbLine
 10
161.7128262365
 20
56.5960153638
 30
0.0
 11
161.6533109351
 21
56.7351368008
 31
0.0
  0
LINE
  5
247
330
1F
100
AcDbEntity
  8
0
  6
Continuous
 62
     7
370
    18
100
AcDbLine
 10
251.4894515621
 20
28.396384201
 30
0.0
 11
251.315004439
 21
28.3864263386
 31
0.0
  0
LINE
  5
248
330
1F
100
AcDbEntity
  8
0
  6
Continuous
 62
     7
370
    18
100
AcDbLine
 10
247.1871039002
 20
19.8321287745
 30
0.0
 11
247.0753212384
 21
19.9469109845
 31
0.0
  0
LINE
  5
249
330
1F
100
AcDbEntity
  8
0
  6
Continuous
 62
     7
370
    18
100
AcDbLine
 10
253.5354698291
 20
29.6212710331
 30
0.0
 11
253.4049021851
 21
30.3401195779
 31
0.0
  0
LINE
  5
24A
330
1F
100
AcDbEntity
  8
0
  6
Continuous
 62
     7
370
    18
100
AcDbLine
 10
253.4049021851
 20
30.3401195779
 30
0.0
 11
253.4834882769
 21
30.5869314619
 31
0.0
  0
LINE
  5
24B
330
1F
100
AcDbEntity
  8
0
  6
Continuous
 62
     7
370
    18
100
AcDbLine
 10
253.4738598623
 20
29.4277752254
 30
0.0
 11
253.5354698291
 21
29.6212710331
 31
0.0
  0
LINE
  5
24C
330
1F
100
AcDbEntity
  8
0
  6
Continuous
 62
     7
370
    18
100
AcDbLine
 10
260.1997975104
 20
14.8201558842
 30
0.0
 11
259.6871443185
 21
15.1161042724
 31
0.0
  0
LINE
  5
24D
330
1F
100
AcDbEntity
  8
0
  6
Continuous
 62
     7
370
    18
100
AcDbLine
 10
247.5578262627
 20
17.7221716833
 30
0.0
 11
246.8578217681
 21
17.3074990621
 31
0.0
  0
LINE
  5
24E
330
1F
100
AcDbEntity
  8
0
  6
Continuous
 62
     7
370
    18
100
AcDbLine
 10
246.8578217681
 20
17.3074990621
 30
0.0
 11
246.7025402658
 21
17.0887744906
 31
0.0
  0
LINE
  5
24F
330
1F
100
AcDbEntity
  8
0
  6
Continuous
 62
     7
370
    18
100
AcDbLine
 10
247.6795641419
 20
17.8936476841
 30
0.0
 11
247.5578262627
 21
17.7221716833
 31
0.0
  0
LINE
  5
250
330
1F
100
AcDbEntity
  8
0
  6
Continuous
 62
     7
370
    18
100
AcDbLine
 10
260.8610420508
 20
15.4911650764
 30
0.0
 11
260.348388859
 21
15.7871134646
 31
0.0
  0
LINE
  5
251
330
1F
100
AcDbEntity
  8
0
  6
Continuous
 62
     7
370
    18
100
AcDbLine
 10
261.6386484424
 20
32.2710405002
 30
0.0
 11
261.7024199169
 21
32.371305731
 31
0.0
  0
LINE
  5
252
330
1F
100
AcDbEntity
  8
0
  6
Continuous
 62
     7
370
    18
100
AcDbLine
 10
261.7024199169
 20
32.371305731
 30
0.0
 11
261.8927886706
 21
32.5033357853
 31
0.0
  0
LWPOLYLINE
  5
253
330
1F
100
AcDbEntity
  8
0
  6
Continuous
 62
     7
370
    18
100
AcDbPolyline
 90
       19
 70
   128
 43
0.0
 10
242.017491317
 20
37.8031309515
 10
241.0750102407
 20
37.18619206
 10
240.1493477325
 20
36.4345511787
 10
239.2570222291
 20
35.5616202773
 10
238.4139575013
 20
34.58297756
 10
237.635197669
 20
33.5160858355
 10
236.9346403263
 20
32.3799856006
 10
236.3247862943
 20
31.1949490525
 10
235.8165190089
 20
29.9821242134
 10
235.4189076157
 20
28.763152816
 10
235.1390485903
 20
27.5597887564
 10
234.9819356758
 20
26.393505327
 10
234.9503722961
 20
25.2851151123
 10
235.0449215067
 20
24.2543970575
 10
235.2638967752
 20
23.3197448982
 10
235.60338964
 20
22.4978368793
 10
236.0573428086
 20
21.8033403317
 10
236.6176548665
 20
21.2486487089
 10
237.0178978036
 20
20.9772346469
  0
LWPOLYLINE
  5
254
330
1F
100
AcDbEntity
  8
0
  6
Continuous
 62
     7
370
    18
100
AcDbPolyline
 90
        7
 70
   128
 43
0.0
 10
247.0170848304
 20
38.2982113834
 10
246.399784965
 20
38.575774383
 10
245.6210251327
 20
38.7435291438
 10
244.7779604049
 20
38.7487900453
 10
243.8856349014
 20
38.5914638501
 10
242.9599723933
 20
38.2743575485
 10
242.017491317
 20
37.8031309515
  0
ARC
  5
255
330
1F
100
AcDbEntity
  8
0
  6
Continuous
 62
     7
370
    18
100
AcDbCircle
 10
249.2934966597
 20
25.4373743984
 30
0.0
 40
12.91131212033251
100
AcDbArc
 50
302.5144193895
 51
357.4909577769
  0
ARC
  5
256
330
1F
100
AcDbEntity
  8
0
  6
Continuous
 62
     7
370
    18
100
AcDbCircle
 10
249.3528511825
 20
25.4031097871
 30
0.0
 40
12.20529129302685
100
AcDbArc
 50
303.4863618399
 51
356.5190152511
  0
LWPOLYLINE
  5
257
330
1F
100
AcDbEntity
  8
0
  6
Continuous
 62
     7
370
    18
100
AcDbPolyline
 90
       20
 70
   128
 43
0.0
 10
201.9401136541
 20
43.5893090496
 10
202.0028413356
 20
44.7768425849
 10
202.1900332705
 20
46.0180708023
 10
202.498738521
 20
47.2934192835
 10
202.9240884674
 20
48.5827753826
 10
203.4593745169
 20
49.865804381
 10
204.096155446
 20
51.1222726743
 10
204.8243884509
 20
52.3323646824
 10
205.632589174
 20
53.4769972866
 10
206.5080118155
 20
54.5381181037
 10
207.4368501545
 20
55.498992637
 10
208.4044560209
 20
56.3444680418
 10
209.3955697448
 20
57.0612095836
 10
210.3945607723
 20
57.6379148282
 10
211.3856744962
 20
58.0654888347
 10
212.3532803626
 20
58.3371873835
 10
213.2821187016
 20
58.4487267694
 10
214.1575413431
 20
58.39834742
 10
214.9657420662
 20
58.1868435084
 10
215.5196082904
 20
57.9246546556
  0
LWPOLYLINE
  5
258
330
1F
100
AcDbEntity
  8
0
  6
Continuous
 62
     7
370
    18
100
AcDbPolyline
 90
        8
 70
   128
 43
0.0
 10
204.2705222266
 20
38.4385550666
 10
204.096155446
 20
38.5456582914
 10
203.4593745169
 20
39.0669149734
 10
202.9240884674
 20
39.7319158541
 10
202.498738521
 20
40.5301733584
 10
202.1900332705
 20
41.4490983441
 10
202.0028413356
 20
42.4741993537
 10
201.9401136541
 20
43.5893090496
  0
LWPOLYLINE
  5
259
330
1F
100
AcDbEntity
  8
0
  6
Continuous
 62
     7
370
    18
100
AcDbPolyline
 90
       25
 70
   128
 43
0.0
 10
183.4671809033
 20
48.437596203
 10
183.8579967758
 20
50.3009422863
 10
184.3677273471
 20
52.1887435841
 10
184.992697939
 20
54.0873881554
 10
185.7283988386
 20
55.9831820077
 10
186.5695287627
 20
57.8624593597
 10
187.5100211993
 20
59.7116655297
 10
188.5430931398
 20
61.5174687186
 10
189.6612957875
 20
63.2668447974
 10
190.8565672404
 20
64.9471822454
 10
192.1202871508
 20
66.5463638953
 10
193.4433438971
 20
68.0528559009
 10
194.816197145
 20
69.4557986067
 10
196.228947324
 20
70.7450725114
 10
197.6714074092
 20
71.911383813
 10
199.1331759371
 20
72.946320249
 10
200.6037123882
 20
73.8424204693
 10
202.0724131055
 20
74.5932224255
 10
203.5286873142
 20
75.1933102984
 10
204.9620344605
 20
75.6383606655
 10
206.362118853
 20
75.9251612557
 10
207.7188443458
 20
76.0516464585
 10
209.022427931
 20
76.0169017847
 10
210.2634702028
 20
75.8211786887
 10
211.4330228585
 20
75.4658909503
  0
LWPOLYLINE
  5
25A
330
1F
100
AcDbEntity
  8
0
  6
Continuous
 62
     7
370
    18
100
AcDbPolyline
 90
       25
 70
   128
 43
0.0
 10
182.7510051898
 20
48.4323608867
 10
183.1404776315
 20
50.3207822192
 10
183.6500712256
 20
52.2346860384
 10
184.2761534406
 20
54.1604326424
 10
185.0142646131
 20
56.0842979957
 10
185.8591429725
 20
57.9925722064
 10
186.8047667879
 20
59.87165344
 10
187.8443978317
 20
61.7081513377
 10
188.9706268198
 20
63.4889778876
 10
190.1754274118
 20
65.2014417172
 10
191.4502128456
 20
66.8333370621
 10
192.7858991585
 20
68.3730365367
 10
194.172966431
 20
69.8095645128
 10
195.60152991
 20
71.132685327
 10
197.0614084974
 20
72.3329686739
 10
198.542197684
 20
73.4018606073
 10
200.0333447056
 20
74.3317421368
 10
201.524222547
 20
75.115988679
 10
203.0042060044
 20
75.7490078837
 10
204.4627480758
 20
76.2262928592
 10
205.8894538007
 20
76.544437422
 10
207.2741555813
 20
76.7011780577
 10
208.6069844696
 20
76.6953955305
 10
209.8784429366
 20
76.5271325571
 10
211.0794694099
 20
76.1975854355
  0
LWPOLYLINE
  5
25B
330
1F
100
AcDbEntity
  8
0
  6
Continuous
 62
     7
370
    18
100
AcDbPolyline
 90
        3
 70
   128
 43
0.0
 10
217.308634667
 20
59.4001732106
 10
216.9488507288
 20
57.5507604584
 10
216.856732206
 20
57.1527492888
  0
LWPOLYLINE
  5
25C
330
1F
100
AcDbEntity
  8
0
  6
Continuous
 62
     7
370
    18
100
AcDbPolyline
 90
       21
 70
   128
 43
0.0
 10
205.6076464714
 20
37.6666502701
 10
204.8777157388
 20
36.9970034283
 10
203.44724281
 20
35.7981106804
 10
201.9945691934
 20
34.7274463215
 10
200.5301046254
 20
33.7926790947
 10
199.0643432187
 20
33.0005119948
 10
197.6077882231
 20
32.3566175408
 10
196.1708771985
 20
31.8656113097
 10
194.7639067354
 20
31.53101152
 10
193.3969593147
 20
31.3552165811
 10
192.079829469
 20
31.3394852806
 10
190.8219561166
 20
31.4839311827
 10
189.6323527563
 20
31.7875188317
 10
188.5195435882
 20
32.248072504
 10
187.4915029277
 20
32.8622929434
 10
186.5555979122
 20
33.6257767589
 10
185.718535159
 20
34.5330548324
 10
184.9863126915
 20
35.5776254039
 10
184.3641777922
 20
36.7520027448
 10
183.8565874905
 20
38.0477715347
 10
183.4671809033
 20
39.4556473209
  0
ARC
  5
25D
330
1F
100
AcDbEntity
  8
0
  6
Continuous
 62
     7
370
    18
100
AcDbCircle
 10
206.3224238062
 20
65.8200767994
 30
0.0
 40
11.12401072022553
100
AcDbArc
 50
9.0277736643
 51
48.7055209086
  0
LWPOLYLINE
  5
25E
330
1F
100
AcDbEntity
  8
0
  6
Continuous
 62
     7
370
    18
100
AcDbPolyline
 90
       28
 70
   128
 43
0.0
 10
190.2672094184
 20
47.8721946655
 10
190.3306022298
 20
49.212305892
 10
190.5199844838
 20
50.6087567374
 10
190.8329729077
 20
52.0439851053
 10
191.2656326982
 20
53.4999431089
 10
191.8125229605
 20
54.9583208333
 10
192.4667658557
 20
56.4007784602
 10
193.2201335289
 20
57.8091759192
 10
194.0631528172
 20
59.1658017778
 10
194.9852218126
 20
60.4535964261
 10
195.9747448633
 20
61.6563646135
 10
197.0192784418
 20
62.75898057
 10
198.1056865606
 20
63.747578107
 10
199.22030722
 20
64.6097265542
 10
200.3491234649
 20
65.3345819804
 10
201.4779397098
 20
65.9130300489
 10
202.5925603692
 20
66.3377952224
 10
203.678968488
 20
66.6035378
 10
204.7235020665
 20
66.7069146429
 10
205.7130251172
 20
66.6466254516
 10
206.6350941126
 20
66.4234290047
 10
207.4781134009
 20
66.0401324984
 10
208.2314810741
 20
65.5015548402
 10
208.8857239693
 20
64.8144699817
 10
209.4326142316
 20
63.9875183138
 10
209.8652740221
 20
63.0310986713
 10
210.178262446
 20
61.9572390458
 10
210.1815070948
 20
61.9426426067
  0
LWPOLYLINE
  5
25F
330
1F
100
AcDbEntity
  8
0
  6
Continuous
 62
     7
370
    18
100
AcDbPolyline
 90
       13
 70
   128
 43
0.0
 10
198.0684542651
 20
41.0353294941
 10
197.0192784418
 20
40.7811817177
 10
195.9747448633
 20
40.6778048748
 10
194.9852218126
 20
40.7380940661
 10
194.0631528172
 20
40.961290513
 10
193.2201335289
 20
41.3445870193
 10
192.4667658557
 20
41.8831646775
 10
191.8125229605
 20
42.570249536
 10
191.2656326982
 20
43.3972012039
 10
190.8329729077
 20
44.3536208464
 10
190.5199844838
 20
45.427480472
 10
190.3306022298
 20
46.6052752212
 10
190.2672094184
 20
47.8721946655
  0
LWPOLYLINE
  5
260
330
1F
100
AcDbEntity
  8
0
  6
Continuous
 62
     7
370
    18
100
AcDbPolyline
 90
       20
 70
   128
 43
0.0
 10
172.6128596536
 20
49.2939609366
 10
172.6748576677
 20
51.0379109792
 10
172.8604170708
 20
52.8412100202
 10
173.1682365789
 20
54.6912094026
 10
173.596156166
 20
56.5749320296
 10
174.1411741863
 20
58.4791651403
 10
174.7994697644
 20
60.3905527031
 10
175.5664225522
 20
62.2956859095
 10
176.4366548752
 20
64.1812039311
 10
177.4040633429
 20
66.0338806095
 10
178.4618596785
 20
67.8407187499
 10
179.6026260366
 20
69.5890474552
 10
180.818360443
 20
71.26660159
 10
182.1005354048
 20
72.8616141716
 10
183.4401571796
 20
74.3628992544
 10
184.8278289959
 20
75.759923408
 10
186.2538182245
 20
77.0428916429
 10
187.7081219034
 20
78.2028004467
 10
189.1805394252
 20
79.2315177685
 10
190.6066685945
 20
80.0918209055
  0
LWPOLYLINE
  5
261
330
1F
100
AcDbEntity
  8
0
  6
Continuous
 62
     7
370
    18
100
AcDbPolyline
 90
        3
 70
   128
 43
0.0
 10
172.7055234513
 20
47.2600558358
 10
172.6748576677
 20
47.6215922775
 10
172.6128596536
 20
49.2939609366
  0
LWPOLYLINE
  5
262
330
1F
100
AcDbEntity
  8
0
  6
Continuous
 62
     7
370
    18
100
AcDbPolyline
 90
       21
 70
   128
 43
0.0
 10
180.4358728742
 20
51.1207552941
 10
180.8499920026
 20
53.0082720247
 10
181.3906148968
 20
54.9192219561
 10
182.0533727726
 20
56.8381665804
 10
182.832911663
 20
58.7496036037
 10
183.7229345656
 20
60.6380931782
 10
184.7162514913
 20
62.4883780511
 10
185.8048380753
 20
64.2855139784
 10
186.9799007729
 20
66.0149796056
 10
188.2319466649
 20
67.6628049795
 10
189.5508618248
 20
69.2156791462
 10
190.9259910024
 20
70.6610569887
 10
192.346225869
 20
71.9872634022
 10
193.8000930976
 20
73.1835836854
 10
195.2758480406
 20
74.2403526017
 10
196.7615691288
 20
75.1490347291
 10
198.2452542031
 20
75.9022891979
 10
199.7149174448
 20
76.4940317305
 10
201.1586867165
 20
76.9194801886
 10
202.5648985364
 20
77.1752002756
 10
202.9146805006
 20
77.2128392652
  0
LWPOLYLINE
  5
263
330
1F
100
AcDbEntity
  8
0
  6
Continuous
 62
     7
370
    18
100
AcDbPolyline
 90
       18
 70
   128
 43
0.0
 10
181.0098675114
 20
51.1255518946
 10
181.4254854871
 20
52.9927086116
 10
181.9666391682
 20
54.8823548857
 10
182.6289084039
 20
56.7790529745
 10
183.4068825926
 20
58.6673089543
 10
184.2942054626
 20
60.5316959108
 10
185.2836290732
 20
62.3569854942
 10
186.3670717661
 20
64.1282650252
 10
187.5356807275
 20
65.8310633453
 10
188.7799103547
 20
67.4514728643
 10
190.0895953548
 20
68.976253356
 10
191.4540373428
 20
70.3929503928
 10
192.8620897946
 20
71.689988494
 10
194.3022494192
 20
72.8567740651
 10
195.762751813
 20
73.883773431
 10
197.231665343
 20
74.7625974532
 10
198.696990217
 20
75.4860678461
 10
198.8408178192
 20
75.5487508085
  0
LWPOLYLINE
  5
264
330
1F
100
AcDbEntity
  8
0
  6
Continuous
 62
     7
370
    18
100
AcDbPolyline
 90
       23
 70
   128
 43
0.0
 10
192.0931202143
 20
48.0046548964
 10
192.1566710764
 20
49.2779463251
 10
192.3464313349
 20
50.606737801
 10
192.6597371773
 20
51.9723757997
 10
193.0921908433
 20
53.3556898446
 10
193.6377205527
 20
54.7372609447
 10
194.2886700668
 20
56.0976961135
 10
195.0358994466
 20
57.4178960426
 10
195.8689210415
 20
58.6793290452
 10
196.7760397594
 20
59.8642876996
 10
197.7445223132
 20
60.956136744
 10
198.7607730514
 20
61.9395499444
 10
199.8105262536
 20
62.8007214849
 10
200.8790454842
 20
63.5275631827
 10
201.9513311366
 20
64.109871449
 10
203.0123307973
 20
64.5394715438
 10
204.0471501857
 20
64.8103340257
 10
205.0412626332
 20
64.9186546162
 10
205.9807132523
 20
64.8629150298
 10
206.85231436
 20
64.6438961685
 10
207.6438295409
 20
64.2646725912
 10
208.3441494783
 20
63.730569151
 10
208.6034434758
 20
63.467548996
  0
LWPOLYLINE
  5
265
330
1F
100
AcDbEntity
  8
0
  6
Continuous
 62
     7
370
    18
100
AcDbPolyline
 90
       10
 70
   128
 43
0.0
 10
195.9272499749
 20
41.6751719921
 10
195.8689210415
 20
41.6894275893
 10
195.0358994466
 20
41.9890743307
 10
194.2886700668
 20
42.4465415817
 10
193.6377205527
 20
43.0554064391
 10
193.0921908433
 20
43.8071223436
 10
192.6597371773
 20
44.6911360136
 10
192.3464313349
 20
45.6950387864
 10
192.1566710764
 20
46.8047377313
 10
192.0931202143
 20
48.0046548964
  0
LINE
  5
266
330
1F
100
AcDbEntity
  8
0
  6
Continuous
 62
     7
370
    18
100
AcDbLine
 10
174.1897086078
 20
48.7960188589
 30
0.0
 11
176.3428475356
 21
50.0389995043
 31
0.0
  0
LWPOLYLINE
  5
267
330
1F
100
AcDbEntity
  8
0
  6
Continuous
 62
     7
370
    18
100
AcDbPolyline
 90
       20
 70
   128
 43
0.0
 10
161.7425397647
 20
68.9780580108
 10
162.3516025554
 20
70.6506762524
 10
163.0750637468
 20
72.3100152031
 10
163.9052539295
 20
73.9384845551
 10
164.8333729733
 20
75.518822246
 10
165.8495815647
 20
77.0342743006
 10
166.943107891
 20
78.4687765708
 10
168.1023592642
 20
79.8071225975
 10
169.3150469145
 20
81.0351238668
 10
170.568315559
 20
82.1397644563
 10
171.8488793093
 20
83.1093319651
 10
173.1431635052
 20
83.9335503438
 10
174.4374477011
 20
84.6036806896
 10
175.7180114514
 20
85.112620616
 10
176.9712800959
 20
85.4549732033
 10
178.1839677461
 20
85.6271112922
 10
179.3432191193
 20
85.6272084113
 10
180.4367454457
 20
85.4552647633
 10
181.4529540371
 20
85.1131021741
 10
181.7221564952
 20
84.9872393171
  0
ARC
  5
268
330
1F
100
AcDbEntity
  8
0
  6
Continuous
 62
     7
370
    18
100
AcDbCircle
 10
167.6025306382
 20
59.6194337558
 30
0.0
 40
6.567090909491478
100
AcDbArc
 50
206.8329030039
 51
236.0333930637
  0
ARC
  5
269
330
1F
100
AcDbEntity
  8
0
  6
Continuous
 62
     7
370
    18
100
AcDbCircle
 10
195.0848267674
 20
41.934339254
 30
0.0
 40
12.58145656459703
100
AcDbArc
 50
191.3865744508
 51
214.2485105814
  0
LINE
  5
26A
330
1F
100
AcDbEntity
  8
0
  6
Continuous
 62
     7
370
    18
100
AcDbLine
 10
178.1548110173
 20
42.1037384228
 30
0.0
 11
179.8783813625
 21
43.098734404
 31
0.0
  0
LINE
  5
26B
330
1F
100
AcDbEntity
  8
0
  6
Continuous
 62
     7
370
    18
100
AcDbLine
 10
174.1897086078
 20
47.9794780082
 30
0.0
 11
176.3428475356
 21
49.2224586536
 31
0.0
  0
LINE
  5
26C
330
1F
100
AcDbEntity
  8
0
  6
Continuous
 62
     7
370
    18
100
AcDbLine
 10
181.8616441245
 20
41.4265185168
 30
0.0
 11
181.7947557589
 21
41.6904966719
 31
0.0
  0
LINE
  5
26D
330
1F
100
AcDbEntity
  8
0
  6
Continuous
 62
     7
370
    18
100
AcDbLine
 10
181.353515792
 20
40.9613391866
 30
0.0
 11
181.0098675114
 21
42.1436030125
 31
0.0
  0
LWPOLYLINE
  5
26E
330
1F
100
AcDbEntity
  8
0
  6
Continuous
 62
     7
370
    18
100
AcDbPolyline
 90
        3
 70
   128
 43
0.0
 10
181.2638806405
 20
39.7084908399
 10
180.8331859468
 20
40.777179716
 10
180.4358728742
 20
42.138806412
  0
LINE
  5
26F
330
1F
100
AcDbEntity
  8
0
  6
Continuous
 62
     7
370
    18
100
AcDbLine
 10
209.0673709595
 20
77.3586408225
 30
0.0
 11
208.967002191
 21
77.3006991658
 31
0.0
  0
ARC
  5
270
330
1F
100
AcDbEntity
  8
0
  6
Continuous
 62
     7
370
    18
100
AcDbCircle
 10
167.7072178102
 20
66.6622223121
 30
0.0
 40
1.982758115011264
100
AcDbArc
 50
160.3181851691
 51
206.3321513809
  0
ARC
  5
271
330
1F
100
AcDbEntity
  8
0
  6
Continuous
 62
     7
370
    18
100
AcDbCircle
 10
165.4551068433
 20
66.602554468
 30
0.0
 40
0.8231407192536817
100
AcDbArc
 50
40.3516534992
 51
62.0985447238
  0
LINE
  5
272
330
1F
100
AcDbEntity
  8
0
  6
Continuous
 62
     7
370
    18
100
AcDbLine
 10
165.8402974042
 20
67.3300081611
 30
0.0
 11
165.9880998165
 21
67.8842629938
 31
0.0
  0
LINE
  5
273
330
1F
100
AcDbEntity
  8
0
  6
Continuous
 62
     7
370
    18
100
AcDbLine
 10
165.8402974042
 20
67.3300081611
 30
0.0
 11
164.5870779859
 21
68.0534763318
 31
0.0
  0
LINE
  5
274
330
1F
100
AcDbEntity
  8
0
  6
Continuous
 62
     7
370
    18
100
AcDbLine
 10
161.742396202
 20
69.8599633685
 30
0.0
 11
161.7277758553
 21
70.0356892124
 31
0.0
  0
ARC
  5
275
330
1F
100
AcDbEntity
  8
0
  6
Continuous
 62
     7
370
    18
100
AcDbCircle
 10
165.5586483634
 20
53.3011114131
 30
0.0
 40
0.5806338492591975
100
AcDbArc
 50
25.5709532967
 51
60.9828307538
  0
ARC
  5
276
330
1F
100
AcDbEntity
  8
0
  6
Continuous
 62
     7
370
    18
100
AcDbCircle
 10
167.7957552146
 20
54.4548530544
 30
0.0
 40
2.05939825776376
100
AcDbArc
 50
172.8727688224
 51
198.2811498096
  0
LINE
  5
277
330
1F
100
AcDbEntity
  8
0
  6
Continuous
 62
     7
370
    18
100
AcDbLine
 10
164.9951128216
 20
58.8424636671
 30
0.0
 11
163.3780449284
 21
59.7759770914
 31
0.0
  0
LINE
  5
278
330
1F
100
AcDbEntity
  8
0
  6
Continuous
 62
     7
370
    18
100
AcDbLine
 10
165.8402974042
 20
53.8088608442
 30
0.0
 11
164.5870779859
 21
54.5323290149
 31
0.0
  0
LINE
  5
279
330
1F
100
AcDbEntity
  8
0
  6
Continuous
 62
     7
370
    18
100
AcDbLine
 10
165.8402974042
 20
53.8088608442
 30
0.0
 11
165.9880998165
 21
53.4252550443
 31
0.0
  0
OLE2FRAME
  5
27A
330
1F
100
AcDbEntity
  8
0
100
AcDbOle2Frame
 70
     2
  3
Paintbrush-Bild
 10
13.8511154363
 20
38.264191557
 30
0.0
 11
51.6290888628
 21
31.9806341108
 31
0.0
 71
     2
 72
     0
 73
     1
 90
    12928
310
80552BED0767C5B32B40DDAF6807D121434000000000000000006FFBDDFB85D0
310
4940DDAF6807D121434000000000000000006FFBDDFB85D04940416F4BD60AFB
310
3F4000000000000000002BED0767C5B32B40416F4BD60AFB3F40000000000000
310
0000000000000100000000010000010000000100000000000100000000320000
310
D0CF11E0A1B11AE1000000000000000000000000000000003E000300FEFF0900
310
0600000000000000000000000100000001000000000000000010000002000000
310
01000000FEFFFFFF0000000000000000FFFFFFFFFFFFFFFFFFFFFFFFFFFFFFFF
310
FFFFFFFFFFFFFFFFFFFFFFFFFFFFFFFFFFFFFFFFFFFFFFFFFFFFFFFFFFFFFFFF
310
FFFFFFFFFFFFFFFFFFFFFFFFFFFFFFFFFFFFFFFFFFFFFFFFFFFFFFFFFFFFFFFF
310
FFFFFFFFFFFFFFFFFFFFFFFFFFFFFFFFFFFFFFFFFFFFFFFFFFFFFFFFFFFFFFFF
310
FFFFFFFFFFFFFFFFFFFFFFFFFFFFFFFFFFFFFFFFFFFFFFFFFFFFFFFFFFFFFFFF
310
FFFFFFFFFFFFFFFFFFFFFFFFFFFFFFFFFFFFFFFFFFFFFFFFFFFFFFFFFFFFFFFF
310
FFFFFFFFFFFFFFFFFFFFFFFFFFFFFFFFFFFFFFFFFFFFFFFFFFFFFFFFFFFFFFFF
310
FFFFFFFFFFFFFFFFFFFFFFFFFFFFFFFFFFFFFFFFFFFFFFFFFFFFFFFFFFFFFFFF
310
FFFFFFFFFFFFFFFFFFFFFFFFFFFFFFFFFFFFFFFFFFFFFFFFFFFFFFFFFFFFFFFF
310
FFFFFFFFFFFFFFFFFFFFFFFFFFFFFFFFFFFFFFFFFFFFFFFFFFFFFFFFFFFFFFFF
310
FFFFFFFFFFFFFFFFFFFFFFFFFFFFFFFFFFFFFFFFFFFFFFFFFFFFFFFFFFFFFFFF
310
FFFFFFFFFFFFFFFFFFFFFFFFFFFFFFFFFFFFFFFFFFFFFFFFFFFFFFFFFFFFFFFF
310
FFFFFFFFFFFFFFFFFFFFFFFFFFFFFFFFFFFFFFFFFFFFFFFFFFFFFFFFFFFFFFFF
310
FFFFFFFFFFFFFFFFFFFFFFFFFFFFFFFFFFFFFFFFFFFFFFFFFFFFFFFFFFFFFFFF
310
FDFFFFFFFEFFFFFFFEFFFFFFFEFFFFFF05000000060000000700000008000000
310
090000000A0000000B0000000C0000000D0000000E0000000F00000010000000
310
11000000120000001300000014000000150000001600000017000000FEFFFFFF
310
FFFFFFFFFFFFFFFFFFFFFFFFFFFFFFFFFFFFFFFFFFFFFFFFFFFFFFFFFFFFFFFF
310
FFFFFFFFFFFFFFFFFFFFFFFFFFFFFFFFFFFFFFFFFFFFFFFFFFFFFFFFFFFFFFFF
310
FFFFFFFFFFFFFFFFFFFFFFFFFFFFFFFFFFFFFFFFFFFFFFFFFFFFFFFFFFFFFFFF
310
FFFFFFFFFFFFFFFFFFFFFFFFFFFFFFFFFFFFFFFFFFFFFFFFFFFFFFFFFFFFFFFF
310
FFFFFFFFFFFFFFFFFFFFFFFFFFFFFFFFFFFFFFFFFFFFFFFFFFFFFFFFFFFFFFFF
310
FFFFFFFFFFFFFFFFFFFFFFFFFFFFFFFFFFFFFFFFFFFFFFFFFFFFFFFFFFFFFFFF
310
FFFFFFFFFFFFFFFFFFFFFFFFFFFFFFFFFFFFFFFFFFFFFFFFFFFFFFFFFFFFFFFF
310
FFFFFFFFFFFFFFFFFFFFFFFFFFFFFFFFFFFFFFFFFFFFFFFFFFFFFFFFFFFFFFFF
310
FFFFFFFFFFFFFFFFFFFFFFFFFFFFFFFFFFFFFFFFFFFFFFFFFFFFFFFFFFFFFFFF
310
FFFFFFFFFFFFFFFFFFFFFFFFFFFFFFFFFFFFFFFFFFFFFFFFFFFFFFFFFFFFFFFF
310
FFFFFFFFFFFFFFFFFFFFFFFFFFFFFFFFFFFFFFFFFFFFFFFFFFFFFFFFFFFFFFFF
310
FFFFFFFFFFFFFFFFFFFFFFFFFFFFFFFFFFFFFFFFFFFFFFFFFFFFFFFFFFFFFFFF
310
FFFFFFFFFFFFFFFFFFFFFFFFFFFFFFFFFFFFFFFFFFFFFFFFFFFFFFFFFFFFFFFF
310
52006F006F007400200045006E00740072007900000000000000000000000000
310
0000000000000000000000000000000000000000000000000000000000000000
310
16000500FFFFFFFFFFFFFFFF020000000A00030000000000C000000000000046
310
000000000000000000000000701EE11D19A7D30103000000C000000000000000
310
01004F006C006500000000000000000000000000000000000000000000000000
310
0000000000000000000000000000000000000000000000000000000000000000
310
0A000200FFFFFFFFFFFFFFFFFFFFFFFF00000000000000000000000000000000
310
0000000000000000000000000000000000000000000000001400000000000000
310
010043006F006D0070004F0062006A0000000000000000000000000000000000
310
0000000000000000000000000000000000000000000000000000000000000000
310
120002010100000003000000FFFFFFFF00000000000000000000000000000000
310
0000000000000000000000000000000000000000010000004D00000000000000
310
01004F006C006500310030004E00610074006900760065000000000000000000
310
0000000000000000000000000000000000000000000000000000000000000000
310
1A000200FFFFFFFFFFFFFFFFFFFFFFFF00000000000000000000000000000000
310
0000000000000000000000000000000000000000040000002426000000000000
310
FEFFFFFF02000000FEFFFFFFFFFFFFFFFFFFFFFFFFFFFFFFFFFFFFFFFFFFFFFF
310
FFFFFFFFFFFFFFFFFFFFFFFFFFFFFFFFFFFFFFFFFFFFFFFFFFFFFFFFFFFFFFFF
310
FFFFFFFFFFFFFFFFFFFFFFFFFFFFFFFFFFFFFFFFFFFFFFFFFFFFFFFFFFFFFFFF
310
FFFFFFFFFFFFFFFFFFFFFFFFFFFFFFFFFFFFFFFFFFFFFFFFFFFFFFFFFFFFFFFF
310
FFFFFFFFFFFFFFFFFFFFFFFFFFFFFFFFFFFFFFFFFFFFFFFFFFFFFFFFFFFFFFFF
310
FFFFFFFFFFFFFFFFFFFFFFFFFFFFFFFFFFFFFFFFFFFFFFFFFFFFFFFFFFFFFFFF
310
FFFFFFFFFFFFFFFFFFFFFFFFFFFFFFFFFFFFFFFFFFFFFFFFFFFFFFFFFFFFFFFF
310
FFFFFFFFFFFFFFFFFFFFFFFFFFFFFFFFFFFFFFFFFFFFFFFFFFFFFFFFFFFFFFFF
310
FFFFFFFFFFFFFFFFFFFFFFFFFFFFFFFFFFFFFFFFFFFFFFFFFFFFFFFFFFFFFFFF
310
FFFFFFFFFFFFFFFFFFFFFFFFFFFFFFFFFFFFFFFFFFFFFFFFFFFFFFFFFFFFFFFF
310
FFFFFFFFFFFFFFFFFFFFFFFFFFFFFFFFFFFFFFFFFFFFFFFFFFFFFFFFFFFFFFFF
310
FFFFFFFFFFFFFFFFFFFFFFFFFFFFFFFFFFFFFFFFFFFFFFFFFFFFFFFFFFFFFFFF
310
FFFFFFFFFFFFFFFFFFFFFFFFFFFFFFFFFFFFFFFFFFFFFFFFFFFFFFFFFFFFFFFF
310
FFFFFFFFFFFFFFFFFFFFFFFFFFFFFFFFFFFFFFFFFFFFFFFFFFFFFFFFFFFFFFFF
310
FFFFFFFFFFFFFFFFFFFFFFFFFFFFFFFFFFFFFFFFFFFFFFFFFFFFFFFFFFFFFFFF
310
FFFFFFFFFFFFFFFFFFFFFFFFFFFFFFFFFFFFFFFFFFFFFFFFFFFFFFFFFFFFFFFF
310
0100000200000000000000000000000000000000000000000000000000000000
310
0000000000000000000000000000000000000000000000000000000000000000
310
0100FEFF030A0000FFFFFFFF0A00030000000000C00000000000004607000000
310
5042727573680007000000504272757368000700000050427275736800F439B2
310
7100000000000000000000000000000000000000000000000000000000000000
310
0000000000000000000000000000000000000000000000000000000000000000
310
0000000000000000000000000000000000000000000000000000000000000000
310
0000000000000000000000000000000000000000000000000000000000000000
310
0000000000000000000000000000000000000000000000000000000000000000
310
0000000000000000000000000000000000000000000000000000000000000000
310
0000000000000000000000000000000000000000000000000000000000000000
310
0000000000000000000000000000000000000000000000000000000000000000
310
0000000000000000000000000000000000000000000000000000000000000000
310
0000000000000000000000000000000000000000000000000000000000000000
310
0000000000000000000000000000000000000000000000000000000000000000
310
0000000000000000000000000000000000000000000000000000000000000000
310
20260000424D0E260000000000003E00000028000000B40200006E0000000100
310
01000000000000000000130B0000130B00000200000002000000000000FFFFFF
310
FFFFFFFFFFFFFFFFFFFFFFFFFFFFFFFFFFFFFFFFFFFFFFFFFFFFFFFFFFFFFFFF
310
FFFFFFFFFFFFFFFFFFFFFFFFFFFFFFFFFFFFFFFFFFFFFFFFFFFFFFFFFFFFFFFF
310
FFFFFFFFFFFFFFFFFFFFFFFFFFFFFFFFFFFFFFFFFFFFFFFFF000FFFFFFFFFFFF
310
FFFFFFFFFFFFFFFFFFFFFFFFFFFFFFFFFFFFFFFFFFFFFFFFFFFFFFFFFFFFFFFF
310
FFFFFFFFFFFFFFFFFFFFFFFFFFFFFFFFFFFFFFFFFFFFFFFFFFFFFFFFFFFFFFFF
310
FFFFFFFFFFFFFFFFFFFFFFFFFFFFFFFFF000FFFFFFFFFFFFFFFFFFFFFFFFFFFF
310
FFFFFFFFFFFFFFFFFFFFFFFFFFFFFFFFFFFFFFFFFFFFFFFFFFFFFFFFFFFFFFFF
310
FFFFFFFFFFFFFFFFFFFFFFFFFFFFFFFFFFFFFFFFFFFFFFFFFFFFFFFFFFFFFFFF
310
FFFFFFFFFFFFFFFFF000FFFFFFFFFFFFFFFFFFFFFFFFFFFFFFFFFFFFFFFFFFFF
310
FFFFFFFFFFFFFFFFFFFFFFFFFFFFFFFFFFFFFFFFFFFFFFFFFFFFFFFFFFFFFFFF
310
FFFFFFFFFFFFFFFFFFFFFFFFFFFFFFFFFFFFFFFFFFFFFFFFFFFFFFFFFFFFFFFF
310
F000FFFFFFFFFFFFFFFFFFFFFFFFFFFFFFFFFFFFFFFFFFFFFFFFFFFFFFFFFFFF
310
FFFFFFFFFFFFFFFFFFFFFFFFFFFFFFFFFFFFFFFFFFFFFFFFFFFFFFFFFFFFFFFF
310
FFFFFFFFFFFFFFFFFFFFFFFFFFFFFFFFFFFFFFFFFFFFFFFFF000FFFFFFFFFFFF
310
FFFFFFFFFFFFFFFFFFFFFFFFFFFFFFFFFFFFFFFFFFFFFFFFFFFFFFFFFFFFFFFF
310
FFFFFFFFFFFFFFFFFFFFFFFFFFFFFFFFFFFFFFFFFFFFFFFFFFFFFFFFFFFFFFFF
310
FFFFFFFFFFFFFFFFFFFFFFFFFFFFFFFFF000FFFFFFFFFFFFFFFFFFFFFFFFFFFF
310
FFFFFFFFFFFFFFFFFFFFFFFFFFFFFFFFFFFFFFFFFFFFFFFFFFFFFFFFFFFFFFFF
310
FFFFFFFFFFFFFFFFFFFFFFFFFFFFFFFFFFFFFFFFFFFFFFFFFFFFFFFFFFFFFFFF
310
FFFFFFFFFFFFFFFFF000FFFFFFFFFFFFFFFFFFFFFFFFFFFFFFFFFFFFFFFFFFFF
310
FFFFFFFFFFFFFFFFFFFFFFFFFFFFFFFFFFFFFFFFFFFFFFFFFFFFFFFFFFFFFFFF
310
FFFFFFFFFFFFFFFFFFFFFFFFFFFFFFFFFFFFFFFFFFFFFFFFFFFFFFFFFFFFFFFF
310
F000FFFFFFFFFFFFFFFFFFFFFFFFFFFFFFFFFFFFFFFFFFFFFFFFFFFFFFFFFFFF
310
FFFFFFFFFFFFFFFFFFFFFFFFFFFFFFFFFFFFFFFFFFFFFFFFFFFFFFFFFFFFFFFF
310
FFFFFFFFFFFFFFFFFFFFFFFFFFFFFFFFFFFFFFFFFFFFFFFFF000FFFFFFFFFFFF
310
FFFFFFFFFFFFFFFFFFFFFFFFFFFFFFFFFFFFFFFFFFFFFFFFFFFFFFFFFFFFFFFF
310
FFFFFFFFFFFFFFFFFFFFFFFFFFFFFFFFFFFFFFFFFFFFFFFFFFFFFFFFFFFFFFFF
310
FFFFFFFFFFFFFFFFFFFFFFFFFFFFFFFFF000FFFFFFFFFFFFFFFFFFFFFFFFFFFF
310
FFFFFFFFFFFFFFFFFFFFFFFFFFFFFFFFFFFFFFFFFFFFFFFFFFFFFFFFFFFFFFFF
310
FFFFFFFFFFFFFFFFFFFFFFFFFFFFFFFFFFFFFFFFFFFFFFFFFFFFFFFFFFFFFFFF
310
FFFFFFFFFFFFFFFFF000FFFFFFFFFFFFFFFFFFFFFFFFFFFFFFFFFFFFFFFFFFFF
310
FFFFFFFFFFFFFFFFFFFFFFFFFFFFFFFFFFFFFFFFFFFFFFFFFFFFFFFFFFFFFFFF
310
FFFFFFFFFFFFFFFFFFFFFFFFFFFFFFFFFFFFFFFFFFFFFFFFFFFFFFFFFFFFFFFF
310
F000FFFFFFFFFFFFFFFFFFFFFFFFFFFFFFFFFFFFFFFFFFFFFFFFFFFFFFFFFFFF
310
FFFFFFFFFFFFFFFFFFFFFFFFFFFFFFFFFFFFFFFFFFFFFFFFFFFFFFFFFFFFFFFF
310
FFFFFFFFFFFFFFFFFFFFFFFFFFFFFFFFFFFFFFFFFFFFFFFFF000FFFFFFFFFFFF
310
FFFFFFFFFFFFFFFFFFFFFFFFFFFFFFFFFFFFFFFFFFFFFFFFFFFFFFFFFFFFFFFF
310
FFFFFFFFFFFFFFFFFFFFFFFFFFFFFFFFFFFFFFFFFFFFFFFFFFFFFFFFFFFFFFFF
310
FFFFFFFFFFFFFFFFFFFFFFFFFFFFFFFFF000FFFFFFFFFFFFFFFFFFFFFFFFFFFF
310
FFFFFFFFFFFFFFFFFFFFFFFFFFFFFFFFFFFFFFFFFFFFFFFFFFFFFFFFFFFFFFFF
310
FFFFFFFFFFFFFFFFFFFFFFFFFFFFFFFFFFFFFFFFFFFFFFFFFFFFFFFFFFFFFFFF
310
FFFFFFFFFFFFFFFFF000FFFFFFFFFFFFFFFFFFFFFFFFFFFFFFFFFFFFFFFFFFFF
310
FFFFFFFFFFFFFFFFFFFFFFFFFFFFFFFFFFFFFFFFFFFFFFFFFFFFFFFFFFFFFFFF
310
FFFFFFFFFFFFFFFFFFFFFFFFFFFFFFFFFFFFFFFFFFFFFFFFFFFFFFFFFFFFFFFF
310
F000FFFFFFFFFFFFFFFFFFFFFFFFFFFFFFFFFFFFFFFFFFFFFFFFFFFFFFFFFFFF
310
FFFFFFFFFFFFFFFFFFFFFFFFFFFFFFFFFFFFFFFFFFFFFFFFFFFFFFFFFFFFFFFF
310
FFFFFFFFFFFFFFFFFFFFFFFFFFFFFFFFFFFFFFFFFFFFFFFFF000FFFFFFFFFFFF
310
FFFFFFFFFFFFFFFFFFFFFFFFFFFFFFFFFFFFFFFFFFFFFFFFFFFFFFFFFFFFFFFF
310
FFFFFFFFFFFFFFFFFFFFFFFFFFFFFFFFFFFFFFFFFFFFFFFFFFFFFFFFFFFFFFFF
310
FFFFFFFFFFFFFFFFFFFFFFFFFFFFFFFFF000FFFFFFFFFFFFFFFFFFFFFFFFFFFF
310
FFFFFFFFFFFFFFFFFFFFFFFFFFFFFFFFFFFFFFFFFFFFFFFFFFFFFFFFFFFFFFFF
310
FFFFFFFFFFFFFFFFFFFFFFFFFFFFFFFFFFFFFFFFFFFFFFFFFFFFFFFFFFFFFFFF
310
FFFFFFFFFFFFFFFFF000FFFFF80003FFFFFFFFFFFFFFFFFFFFFFFFFFFFFFFFFF
310
FFFFF00007FFFFFFFFFF00007FFFFFF800000000000000007FFFFFFFFFFFFFFF
310
FFFFFFFC001FFFFFFFFFFFFFFC001FFFFFFFFFFFFFFFFFFFFFFFFFFE0007FFFF
310
F000FFFF8000007FFFFFFFF8000FFFFFC0007FFFFF80007FFFFF0000007FFFFF
310
FFF8000007FFFFF800000000000000007FFFFFF0001FFFFFFFFFFFC00001FFFF
310
FFFFFFFFC00001FFFFFFFF000000000003FFFFE000007FFFF000FFFE0000000F
310
FFFFFFF0000FFFFF80007FFFFF80007FFFFC0000001FFFFFFFC0000001FFFFF8
310
00000000000000007FFFFFF0001FFFFFFFFFFE0000003FFFFFFFFFFE0000003F
310
FFFFFF000000000003FFFF0000000FFFF000FFF800000003FFFFFFF00007FFFF
310
80007FFFFF80007FFFF000000007FFFFFF000000003FFFF80000000000000000
310
7FFFFFF0001FFFFFFFFFF80000000FFFFFFFFFF80000000FFFFFFF0000000000
310
03FFFC00000003FFF000FFE000000000FFFFFFF00007FFFF80003FFFFF80007F
310
FFC000000001FFFFFC000000001FFFF800000000000000007FFFFFF0001FFFFF
310
FFFFE000000003FFFFFFFFE000000003FFFFFF000000000003FFF000000000FF
310
F000FF80000000007FFFFFF00007FFFF80003FFFFF80007FFF8000000000FFFF
310
F80000000007FFF800000000000000007FFFFFF0001FFFFFFFFFC000000001FF
310
FFFFFFC000000001FFFFFF000000000003FFC0000000007FF000FF0000000000
310
3FFFFFE00007FFFF00003FFFFF80007FFE00000000003FFFF00000000003FFF8
310
00000000000000007FFFFFF0001FFFFFFFFF8000000000FFFFFFFF8000000000
310
FFFFFF000000000003FF80000000003FF000FE00000000001FFFFFE00003FFFF
310
00003FFFFF80007FFC00000000001FFFE00000000001FFF8000001FFFE000000
310
7FFFFFF0001FFFFFFFFE00000000003FFFFFFE00000000003FFFFF0000000000
310
03FF00000000001FF000FC00000000000FFFFFE00003FFFF00001FFFFF80007F
310
F800000000001FFFC00000000000FFF8000001FFFE0000007FFFFFF0001FFFFF
310
FFFC00000000001FFFFFFC00000000001FFFFF000000000003FE00000000000F
310
F000F8000000000007FFFFE00003FFFF00001FFFFF80007FF800000000000FFF
310
800000000000FFF8000001FFFE0000007FFFFFF0001FFFFFFFF800000000000F
310
FFFFF800000000000FFFFF000000000003FC000000000007F000F80000000000
310
03FFFFC00003FFFE00001FFFFF80007FF0000000000007FF0000000000007FF8
310
000001FFFE0000007FFFFFF0001FFFFFFFF0000000000007FFFFF00000000000
310
07FFFF000000000003F8000000000003F000F0000000000003FFFFC00001FFFE
310
00001FFFFF80007FE0000000000007FE0000000000003FF8000001FFFE000000
310
7FFFFFF0001FFFFFFFF0000000000007FFFFF0000000000007FFFF0000000000
310
03F800001F800003F000E00001FFF00001FFFFC00001FFFE00000FFFFF80007F
310
E00001FFE00003FE00001FFF00003FF8000001FFFE0000007FFFFFF0001FFFFF
310
FFE000003E000003FFFFE000003E000003FFFF000000000003F00001FFF80001
310
F000E00007FFFC0001FFFFC00001FFFE00000FFFFF80007FC0000FFFFC0003FC
310
0000FFFFC0001FF8000001FFFE0000007FFFFFF0001FFFFFFFC00003FFE00001
310
FFFFC00003FFE00001FFFF0001FFFFFFFFF00007FFFE0001F000E0000FFFFF00
310
00FFFF800001FFFC00000FFFFF80007FC0001FFFFE0001FC0001FFFFE0001FF8
310
000001FFFE0000007FFFFFF0001FFFFFFF80000FFFF80000FFFF80000FFFF800
310
00FFFF0003FFFFFFFFE0000FFFFF8000F000C0003FFFFF8000FFFF800000FFFC
310
000007FFFF80007F80003FFFFF0001FC0003FFFFF0001FF8000001FFFE000000
310
7FFFFFF0001FFFFFFF80003FFFFE0000FFFF80003FFFFE0000FFFF0003FFFFFF
310
FFE0003FFFFF8000F000C0003FFFFF8000FFFF800000FFFC000007FFFF80007F
310
80007FFFFF8001F80007FFFFF8000FF8000001FFFE0000007FFFFFF0001FFFFF
310
FF00007FFFFF00007FFF00007FFFFF00007FFF0003FFFFFFFFE0003FFFFFC000
310
F000C0007FFFFFC000FFFF000000FFFC000007FFFF80007F8000FFFFFF8000F8
310
000FFFFFF8000FF8000001FFFE0000007FFFFFF0001FFFFFFF0000FFFFFF8000
310
7FFF0000FFFFFF80007FFF0003FFFFFFFFC0007FFFFFC00070008000FFFFFFC0
310
00FFFF000000FFF8000007FFFF80007F8000FFFFFF8000F8000FFFFFF8000FF8
310
000001FFFE0000007FFFFFF0001FFFFFFE0001FFFFFFC0003FFE0001FFFFFFC0
310
003FFF0003FFFFFFFFC0007FFFFFE00070008000FFFFFFC0007FFF0000007FF8
310
000003FFFF80007F0001FFFFFF8000F8000FFFFFF8000FF8000001FFFE000000
310
7FFFFFF0001FFFFFFE0001FFFFFFC0003FFE0001FFFFFFC0003FFF0003FFFFFF
310
FFC000FFFFFFE00070008000FFFFFFC0007FFF0000007FF8000003FFFF80007F
310
0001FFFFFF8000F8001FFFFFF8000FF8000001FFFE0000007FFFFFF0001FFFFF
310
FE0003FFFFFFE0003FFE0003FFFFFFE0003FFF0003FFFFFFFFC000FFFFFFE000
310
70008000FFFFFFC0007FFE0000007FF8000003FFFF80007F0001FFFFFF8000F0
310
001FFFFFF8000FF8000001FFFE0000007FFFFFF0001FFFFFFC0003FFFFFFE000
310
1FFC0003FFFFFFE0001FFF0003FFFFFFFFC000FFFFFFC00070008000FFFFFF80
310
007FFE0000007FF0000003FFFF80007F0001FFFFFF0000F0001FFFFFF8000FF8
310
000001FFFE0000007FFFFFF0001FFFFFFC0007FFFFFFF0001FFC0007FFFFFFF0
310
001FFF0003FFFFFFFFC000FFFFFFC00070008001FFFFFF0000FFFE0000003FF0
310
000001FFFF80007F0001FFFFFF0000F8001FFFFFF0000FF8000001FFFE000000
310
7FFFFFF0001FFFFFFC0007FFFFFFF0001FFC0007FFFFFFF0001FFF0003FFFFFF
310
FFC001FFFFFF80007000FFFFFFFFFE0000FFFE0008003FF0008001FFFF80007F
310
FFFFFFFFFC0000FFFFFFFFFFE0000FF8000001FFFE0000007FFFFFF0001FFFFF
310
F8000FFFFFFFF8000FF8000FFFFFFFF8000FFF0003FFFFFFFFFFFFFFFFFF0000
310
7000FFFFFFFFFC0000FFFC0008003FF0008001FFFF80007FFFFFFFFFF80001FF
310
FFFFFFFF80000FF8000001FFFE0000007FFFFFF0001FFFFFF8000FFFFFFFF800
310
0FF8000FFFFFFFF8000FFF0003FFFFFFFFFFFFFFFFFE0000F000FFFFFFFFE000
310
00FFFC000C003FE000C001FFFF80007FFFFFFFFFC00001FFFFFFFFFE00001FF8
310
000001FFFE0000007FFFFFF0001FFFFFF8000FFFFFFFF8000FF8000FFFFFFFF8
310
000FFF0003FFFFFFFFFFFFFFFFF00000F000FFFFFFFE000001FFFC000C001FE0
310
00C000FFFF80007FFFFFFFFE000001FFFFFFFFE000001FF80FFFFFFFFFFFFFC0
310
7FFFFFF0001FFFFFF8000FFFFFFFF8000FF8000FFFFFFFF8000FFF0003FFFFFF
310
FFFFFFFFFF800000F000FFFFFFC0000001FFFC001C001FE001C000FFFF80007F
310
FFFFFF80000003FFFFFFF80000001FF80FFFFFFFFFFFFFC07FFFFFF0001FFFFF
310
F8001FFFFFFFFC000FF8001FFFFFFFFC000FFF0003FFFFFFFFFFFFFFF0000001
310
F000FFFFF800000001FFF8001C001FE001C000FFFF80007FFFFFF800000003FF
310
FFFF800000003FF80FFFFFFFFFFFFFC07FFFFFF0001FFFFFF8001FFFFFFFFC00
310
0FF8001FFFFFFFFC000FFF0003FFFFFFFFFFFFFE00000001F000FFFFC0000000
310
03FFF8001E001FC001E000FFFF80007FFFFF8000000007FFFFFC000000003FF8
310
0FFFFFFFFFFFFFC07FFFFFF0001FFFFFF8001FFFFFFFFC000FF8001FFFFFFFFC
310
000FFF0003FFFFFFFFFFFFE000000003F000FFFE0000000007FFF8001E000FC0
310
01E0007FFF80007FFFFE0000000007FFFFE0000000007FF80FFFFFFFFFFFFFC0
310
7FFFFFF0001FFFFFF0001FFFFFFFFC0007F0001FFFFFFFFC0007FF0003FFFFFF
310
FFFFFF0000000003F000FFF80000000007FFF8001E000FC003E0007FFF80007F
310
FFF0000000000FFFFF8000000000FFF80FFFFFFFFFFFFFC07FFFFFF0001FFFFF
310
F0001FFFFFFFFC0007F0001FFFFFFFFC0007FF0003FFFFFFFFFFFC0000000007
310
F000FFE0000000000FFFF0003E000FC003E0007FFF80007FFFC0000000001FFF
310
FE0000000001FFF80FFFFFFFFFFFFFC07FFFFFF0001FFFFFF0001FFFFFFFFC00
310
07F0001FFFFFFFFC0007FF0003FFFFFFFFFFF0000000000FF000FFC000000000
310
1FFFF0003F000F8003F0003FFF80007FFF80000000003FFFF80000000003FFF8
310
0FFFFFFFFFFFFFC07FFFFFF0001FFFFFF0001FFFFFFFFC0007F0001FFFFFFFFC
310
0007FF0003FFFFFFFFFFE0000000001FF000FF00000000007FFFF0003F000780
310
03F0003FFF80007FFF00000000007FFFF00000000007FFF80FFFFFFFFFFFFFC0
310
7FFFFFF0001FFFFFF0001FFFFFFFFC0007F0001FFFFFFFFC0007FF0003FFFFFF
310
FFFF80000000007FF000FE0000000000FFFFE0003F00078007F0003FFF80007F
310
FE0000000001FFFFE0000000001FFFF80FFFFFFFFFFFFFC07FFFFFF0001FFFFF
310
F0001FFFFFFFFC0007F0001FFFFFFFFC0007FF0003FFFFFFFFFF0000000000FF
310
F000FC0000000003FFFFE0007F00078007F0003FFF80007FFC0000000007FFFF
310
C0000000007FFFF80FFFFFFFFFFFFFC07FFFFFF0001FFFFFF8001FFFFFFFFC00
310
0FF8001FFFFFFFFC000FFF0003FFFFFFFFFE0000000003FFF000FC000000000F
310
FFFFE0007F80070007F8001FFF80007FF8000000001FFFFF8000000001FFFFF8
310
0FFFFFFFFFFFFFC07FFFFFF0001FFFFFF8001FFFFFFFFC000FF8001FFFFFFFFC
310
000FFF0003FFFFFFFFFC000000000FFFF000F8000000007FFFFFE0007F800700
310
07F8001FFF80007FF000000000FFFFFF800000000FFFFFF80FFFFFFFFFFFFFC0
310
7FFFFFF0001FFFFFF8000FFFFFFFF8000FF8000FFFFFFFF8000FFF0003FFFFFF
310
FFFC000000007FFFF000F800000007FFFFFFC0007F8003000FF8001FFF80007F
310
F000000007FFFFFF000000007FFFFFF80FFFFFFFFFFFFFC07FFFFFF0001FFFFF
310
F8000FFFFFFFF8000FF8000FFFFFFFF8000FFF0003FFFFFFFFF80000000FFFFF
310
F000F0000000FFFFFFFFC000FF8003000FF8001FFF80007FE0000000FFFFFFFF
310
0000000FFFFFFFF8000001FFFE0000007FFFFFF0001FFFFFF8000FFFFFFFF800
310
0FF8000FFFFFFFF8000FFF0003FFFFFFFFF8000000FFFFFFF000F000000FFFFF
310
FFFFC000FFC002000FF8000FFF80007FE000001FFFFFFFFE000001FFFFFFFFF8
310
000001FFFE0000007FFFFFF0001FFFFFF8000FFFFFFFF8000FF8000FFFFFFFF8
310
000FFF0003FFFFFFFFF000001FFFFFFFF000E00000FFFFFFFFFFC000FFC00200
310
0FFC000FFF80007FE00001FFFFFFFFFE00001FFFFFFFFFF8000001FFFE000000
310
7FFFFFF0001FFFFFFC000FFFFFFFF8001FFC000FFFFFFFF8001FFF0003FFFFFF
310
FFF00001FFFFFFFFF000E00007FFFFFFFFFF8000FFC000001FFC000FFF80007F
310
C0000FFFFFFFFFFE0000FFFFFFFFFFF8000001FFFE0000007FFFFFF0001FFFFF
310
FC0007FFFFFFF0001FFC0007FFFFFFF0001FFF0003FFFFFFFFF00007FFFFFFFF
310
F000E0001FFFFFFFFFFF8000FFC000001FFC000FFF80007FC0003FFFFFFFFFFE
310
0001FFFFFFFFFFF8000001FFFE0000007FFFFFF0001FFFFFFC0007FFFFFFF000
310
1FFC0007FFFFFFF0001FFF0003FFFFFFFFF0001FFFFFFFFFF000E0003FFFFF00
310
03FF8001FFE000001FFC0007FF80007FC0007FFFFF0007FC0003FFFFF0003FF8
310
000001FFFE0000007FFFFFF0001FFFFFFC0003FFFFFFE0001FFC0003FFFFFFE0
310
001FFF0003FFFFFFFFF0003FFFFFFFFFF000E0003FFFFF0001FF8001FFE00000
310
1FFE0007FF80007FC0007FFFFE0003FC0007FFFFE0003FF8000001FFFE000000
310
7FFFFFF0001FFFFFFE0003FFFFFFE0003FFE0003FFFFFFE0003FFF0003FFFFFF
310
FFF0003FFFFF8001F000E0003FFFFF0001FF0001FFE000001FFE0007FF80007F
310
C0007FFFFE0003FC0007FFFFE0003FF8000001FFFE0000007FFFFFF0001FFFFF
310
FE0001FFFFFFC0003FFE0001FFFFFFC0003FFF0003FFFFFFFFF0003FFFFF0001
310
F000E0003FFFFF0003FF0001FFE000003FFE0007FF80007FC0007FFFFE0003FC
310
0007FFFFE0003FF8000001FFFE0000007FFFFFF0001FFFFFFF0001FFFFFFC000
310
7FFF0001FFFFFFC0007FFF0003FFFFFFFFF0003FFFFF0001F000E0003FFFFE00
310
03FF0003FFF000003FFE0003FF80007FC0007FFFFC0003FE0007FFFFE0003FF8
310
000001FFFE0000007FFFFFF0001FFFFFFF0000FFFFFF80007FFF0000FFFFFF80
310
007FFF0003FFFFFFFFF0003FFFFF0001F000E0003FFFFE0003FF0003FFF00000
310
3FFF0003FF80007FC0007FFFFC0007FE0007FFFFC0003FF8000001FFFE000000
310
7FFFFFF0001FFFFFFF80007FFFFF0000FFFF80007FFFFF0000FFFF0003FFFFFF
310
FFF0003FFFFF0003F000E0003FFFFC0003FE0003FFF000003FFF0003FF80007F
310
E0003FFFF80007FE0003FFFFC0007FF8000001FFFE0000007FFFFFF0001FFFFF
310
FF80003FFFFE0000FFFF80003FFFFE0000FFFF0003FFFFFFFFF0001FFFFE0003
310
F000F0001FFFF80003FE0003FFF000007FFF0001FF80007FE0003FFFF00007FE
310
0001FFFF80007FF8000001FFFE0000007FFFFFF0001FFFFFFFC0000FFFF80001
310
FFFFC0000FFFF80001FFFF0003FFFFFFFFF0001FFFFC0003F000F0000FFFF000
310
07FE0007FFF800007FFF0001FF80007FE0001FFFE00007FF0000FFFE00007FF8
310
000001FFFE0000007FFFFFF0001FFFFFFFC00003FFE00001FFFFC00003FFE000
310
01FFFF0003FFFFFFFFF8000FFFF80003F000F00003FFC00007FC0007FFF80000
310
7FFF8001FF80007FF00007FF80000FFF00007FF80000FFF8000001FFFE000000
310
7F80000000000001FFE000003E000003FFFFE000003E000003FFFF0003FFFFFF
310
FFF80003FFE00007F000F800000000000FFC0007FFF800007FFF8001FF80007F
310
F000000000000FFF000000000000FFF8000001FFFE0000007F80000000000001
310
FFF0000000000007FFFFF0000000000007FFFF0003FFFFFFFFFC00007E000007
310
F000F800000000000FFC0007FFF80000FFFF8000FF80007FF800000000001FFF
310
800000000001FFF8000001FFFE0000007F80000000000001FFF800000000000F
310
FFFFF800000000000FFFFF0003FFFFFFFFFC00000000000FF000FC0000000000
310
1FFC0007FFFC0000FFFF8000FF80007FF800000000003FFFC00000000001FFF8
310
000001FFFE0000007F80000000000001FFF800000000000FFFFFF80000000000
310
0FFFFF0003FFFFFFFFFE00000000001FF000FE00000000003FF8000FFFFC0000
310
FFFF8000FF80007FFC00000000003FFFC00000000003FFF8000001FFFE000000
310
7F80000000000001FFFC00000000001FFFFFFC00000000001FFFFF0003FFFFFF
310
FFFF00000000001FF000FF00000000003FF8000FFFFC0000FFFFC000FF80007F
310
FE00000000007FFFE00000000007FFF8000001FFFE0000007F80000000000001
310
FFFE00000000003FFFFFFE00000000003FFFFF0003FFFFFFFFFF80000000003F
310
F000FF80000000007FF8000FFFFC0001FFFFC0007F80007FFF0000000000FFFF
310
F0000000000FFFF800000000000000007F80000000000001FFFF8000000000FF
310
FFFFFF8000000000FFFFFF0003FFFFFFFFFFC0000000007FF000FFC000000000
310
FFF8000FFFFE0001FFFFC0007F80007FFF8000000001FFFFF8000000001FFFF8
310
00000000000000007F80000000000001FFFFC000000001FFFFFFFFC000000001
310
FFFFFF0003FFFFFFFFFFE000000000FFF000FFE000000003FFF0001FFFFE0001
310
FFFFC0007F80007FFFC000000007FFFFFE000000003FFFF80000000000000000
310
7F80000000000001FFFFE000000003FFFFFFFFE000000003FFFFFF0003FFFFFF
310
FFFFF000000003FFF000FFF80000000FFFF0001FFFFE0001FFFFE0007F80007F
310
FFF00000000FFFFFFF00000000FFFFF800000000000000007F80000000000001
310
FFFFF80000000FFFFFFFFFF80000000FFFFFFF0003FFFFFFFFFFFC0000000FFF
310
F000FFFE0000003FFFF0001FFFFE0003FFFFE0003F80007FFFFC0000003FFFFF
310
FFC0000003FFFFF800000000000000007F80000000000001FFFFFE0000003FFF
310
FFFFFFFE0000003FFFFFFF0003FFFFFFFFFFFF0000003FFFF000FFFF800000FF
310
FFF0001FFFFF0003FFFFE0003F80007FFFFF000001FFFFFFFFF800001FFFFFF8
310
00000000000000007F80000000000001FFFFFFC00001FFFFFFFFFFFFC00001FF
310
FFFFFF0003FFFFFFFFFFFFC00000FFFFF000FFFFF8000FFFFFFFFFFFFFFFFFFF
310
FFFFFFFFFFFFFFFFFFFFF0001FFFFFFFFFFF0000FFFFFFF80000000000000000
310
7FFFFFFFFFFFFFFFFFFFFFFC001FFFFFFFFFFFFFFC001FFFFFFFFFFFFFFFFFFF
310
FFFFFFFC001FFFFFF000FFFFFFFFFFFFFFFFFFFFFFFFFFFFFFFFFFFFFFFFFFFF
310
FFFFFFFFFFFFFFFFFFFFFFFFFFFFFFFFFFFFFFFFFFFFFFFFFFFFFFFFFFFFFFFF
310
FFFFFFFFFFFFFFFFFFFFFFFFFFFFFFFFFFFFFFFFFFFFFFFFFFFFFFFFFFFFFFFF
310
F000FFFFFFFFFFFFFFFFFFFFFFFFFFFFFFFFFFFFFFFFFFFFFFFFFFFFFFFFFFFF
310
FFFFFFFFFFFFFFFFFFFFFFFFFFFFFFFFFFFFFFFFFFFFFFFFFFFFFFFFFFFFFFFF
310
FFFFFFFFFFFFFFFFFFFFFFFFFFFFFFFFFFFFFFFFFFFFFFFFF000FFFFFFFFFFFF
310
FFFFFFFFFFFFFFFFFFFFFFFFFFFFFFFFFFFFFFFFFFFFFFFFFFFFFFFFFFFFFFFF
310
FFFFFFFFFFFFFFFFFFFFFFFFFFFFFFFFFFFFFFFFFFFFFFFFFFFFFFFFFFFFFFFF
310
FFFFFFFFFFFFFFFFFFFFFFFFFFFFFFFFF000FFFFFFFFFFFFFFFFFFFFFFFFFFFF
310
FFFFFFFFFFFFFFFFFFFFFFFFFFFFFFFFFFFFFFFFFFFFFFFFFFFFFFFFFFFFFFFF
310
FFFFFFFFFFFFFFFFFFFFFFFFFFFFFFFFFFFFFFFFFFFFFFFFFFFFFFFFFFFFFFFF
310
FFFFFFFFFFFFFFFFF000FFFFFFFFFFFFFFFFFFFFFFFFFFFFFFFFFFFFFFFFFFFF
310
FFFFFFFFFFFFFFFFFFFFFFFFFFFFFFFFFFFFFFFFFFFFFFFFFFFFFFFFFFFFFFFF
310
FFFFFFFFFFFFFFFFFFFFFFFFFFFFFFFFFFFFFFFFFFFFFFFFFFFFFFFFFFFFFFFF
310
F000FFFFFFFFFFFFFFFFFFFFFFFFFFFFFFFFFFFFFFFFFFFFFFFFFFFFFFFFFFFF
310
FFFFFFFFFFFFFFFFFFFFFFFFFFFFFFFFFFFFFFFFFFFFFFFFFFFFFFFFFFFFFFFF
310
FFFFFFFFFFFFFFFFFFFFFFFFFFFFFFFFFFFFFFFFFFFFFFFFF000FFFFFFFFFFFF
310
FFFFFFFFFFFFFFFFFFFFFFFFFFFFFFFFFFFFFFFFFFFFFFFFFFFFFFFFFFFFFFFF
310
FFFFFFFFFFFFFFFFFFFFFFFFFFFFFFFFFFFFFFFFFFFFFFFFFFFFFFFFFFFFFFFF
310
FFFFFFFFFFFFFFFFFFFFFFFFFFFFFFFFF000FFFFFFFFFFFFFFFFFFFFFFFFFFFF
310
FFFFFFFFFFFFFFFFFFFFFFFFFFFFFFFFFFFFFFFFFFFFFFFFFFFFFFFFFFFFFFFF
310
FFFFFFFFFFFFFFFFFFFFFFFFFFFFFFFFFFFFFFFFFFFFFFFFFFFFFFFFFFFFFFFF
310
FFFFFFFFFFFFFFFFF000FFFFFFFFFFFFFFFFFFFFFFFFFFFFFFFFFFFFFFFFFFFF
310
FFFFFFFFFFFFFFFFFFFFFFFFFFFFFFFFFFFFFFFFFFFFFFFFFFFFFFFFFFFFFFFF
310
FFFFFFFFFFFFFFFFFFFFFFFFFFFFFFFFFFFFFFFFFFFFFFFFFFFFFFFFFFFFFFFF
310
F000FFFFFFFFFFFFFFFFFFFFFFFFFFFFFFFFFFFFFFFFFFFFFFFFFFFFFFFFFFFF
310
FFFFFFFFFFFFFFFFFFFFFFFFFFFFFFFFFFFFFFFFFFFFFFFFFFFFFFFFFFFFFFFF
310
FFFFFFFFFFFFFFFFFFFFFFFFFFFFFFFFFFFFFFFFFFFFFFFFF000FFFFFFFFFFFF
310
FFFFFFFFFFFFFFFFFFFFFFFFFFFFFFFFFFFFFFFFFFFFFFFFFFFFFFFFFFFFFFFF
310
FFFFFFFFFFFFFFFFFFFFFFFFFFFFFFFFFFFFFFFFFFFFFFFFFFFFFFFFFFFFFFFF
310
FFFFFFFFFFFFFFFFFFFFFFFFFFFFFFFFF000FFFFFFFFFFFFFFFFFFFFFFFFFFFF
310
FFFFFFFFFFFFFFFFFFFFFFFFFFFFFFFFFFFFFFFFFFFFFFFFFFFFFFFFFFFFFFFF
310
FFFFFFFFFFFFFFFFFFFFFFFFFFFFFFFFFFFFFFFFFFFFFFFFFFFFFFFFFFFFFFFF
310
FFFFFFFFFFFFFFFFF000FFFFFFFFFFFFFFFFFFFFFFFFFFFFFFFFFFFFFFFFFFFF
310
FFFFFFFFFFFFFFFFFFFFFFFFFFFFFFFFFFFFFFFFFFFFFFFFFFFFFFFFFFFFFFFF
310
FFFFFFFFFFFFFFFFFFFFFFFFFFFFFFFFFFFFFFFFFFFFFFFFFFFFFFFFFFFFFFFF
310
F000FFFFFFFFFFFFFFFFFFFFFFFFFFFFFFFFFFFFFFFFFFFFFFFFFFFFFFFFFFFF
310
FFFFFFFFFFFFFFFFFFFFFFFFFFFFFFFFFFFFFFFFFFFFFFFFFFFFFFFFFFFFFFFF
310
FFFFFFFFFFFFFFFFFFFFFFFFFFFFFFFFFFFFFFFFFFFFFFFFF000FFFFFFFFFFFF
310
FFFFFFFFFFFFFFFFFFFFFFFFFFFFFFFFFFFFFFFFFFFFFFFFFFFFFFFFFFFFFFFF
310
FFFFFFFFFFFFFFFFFFFFFFFFFFFFFFFFFFFFFFFFFFFFFFFFFFFFFFFFFFFFFFFF
310
FFFFFFFFFFFFFFFFFFFFFFFFFFFFFFFFF000FFFFFFFFFFFFFFFFFFFFFFFFFFFF
310
FFFFFFFFFFFFFFFFFFFFFFFFFFFFFFFFFFFFFFFFFFFFFFFFFFFFFFFFFFFFFFFF
310
FFFFFFFFFFFFFFFFFFFFFFFFFFFFFFFFFFFFFFFFFFFFFFFFFFFFFFFFFFFFFFFF
310
FFFFFFFFFFFFFFFFF000FFFFFFFFFFFFFFFFFFFFFFFFFFFFFFFFFFFFFFFFFFFF
310
FFFFFFFFFFFFFFFFFFFFFFFFFFFFFFFFFFFFFFFFFFFFFFFFFFFFFFFFFFFFFFFF
310
FFFFFFFFFFFFFFFFFFFFFFFFFFFFFFFFFFFFFFFFFFFFFFFFFFFFFFFFFFFFFFFF
310
F000FFFFFFFFFFFFFFFFFFFFFFFFFFFFFFFFFFFFFFFFFFFFFFFFFFFFFFFFFFFF
310
FFFFFFFFFFFFFFFFFFFFFFFFFFFFFFFFFFFFFFFFFFFFFFFFFFFFFFFFFFFFFFFF
310
FFFFFFFFFFFFFFFFFFFFFFFFFFFFFFFFFFFFFFFFFFFFFFFFF000FFFFFFFFFFFF
310
FFFFFFFFFFFFFFFFFFFFFFFFFFFFFFFFFFFFFFFFFFFFFFFFFFFFFFFFFFFFFFFF
310
FFFFFFFFFFFFFFFFFFFFFFFFFFFFFFFFFFFFFFFFFFFFFFFFFFFFFFFFFFFFFFFF
310
FFFFFFFFFFFFFFFFFFFFFFFFFFFFFFFFF000FFFFFFFFFFFFFFFFFFFFFFFFFFFF
310
FFFFFFFFFFFFFFFFFFFFFFFFFFFFFFFFFFFFFFFFFFFFFFFFFFFFFFFFFFFFFFFF
310
FFFFFFFFFFFFFFFFFFFFFFFFFFFFFFFFFFFFFFFFFFFFFFFFFFFFFFFFFFFFFFFF
310
FFFFFFFFFFFFFFFFF000FFFFFFFFFFFFFFFFFFFFFFFFFFFFFFFFFFFFFFFFFFFF
310
FFFFFFFFFFFFFFFFFFFFFFFFFFFFFFFFFFFFFFFFFFFFFFFFFFFFFFFFFFFFFFFF
310
FFFFFFFFFFFFFFFFFFFFFFFFFFFFFFFFFFFFFFFFFFFFFFFFFFFFFFFFFFFFFFFF
310
F000FFFFFFFFFFFFFFFFFFFFFFFFFFFFFFFFFFFFFFFFFFFFFFFFFFFFFFFFFFFF
310
FFFFFFFFFFFFFFFFFFFFFFFFFFFFFFFFFFFFFFFFFFFFFFFFFFFFFFFFFFFFFFFF
310
FFFFFFFFFFFFFFFFFFFFFFFFFFFFFFFFFFFFFFFFFFFFFFFFF000FFFFFFFFFFFF
310
FFFFFFFFFFFFFFFFFFFFFFFFFFFFFFFFFFFFFFFFFFFFFFFFFFFFFFFFFFFFFFFF
310
FFFFFFFFFFFFFFFFFFFFFFFFFFFFFFFFFFFFFFFFFFFFFFFFFFFFFFFFFFFFFFFF
310
FFFFFFFFFFFFFFFFFFFFFFFFFFFFFFFFF0000000000000000000000000000000
310
0000000000000000000000000000000000000000000000000000000000000000
310
0000000000000000000000000000000000000000000000000000000000000000
310
0000000000000000000000000000000000000000000000000000000000000000
310
0000000000000000000000000000000000000000000000000000000000000000
310
0000000000000000000000000000000000000000000000000000000000000000
310
0000000000000000000000000000000000000000000000000000000000000000
310
0000000000000000000000000000000000000000000000000000000000000000
310
0000000000000000000000000000000000000000000000000000000000000000
310
0000000000000000000000000000000000000000000000000000000000000000
310
0000000000000000000000000000000000000000000000000000000000000000
310
0000000000000000000000000000000000000000000000000000000000000000
310
0000000000000000000000000000000000000000000000000000000000000000
310
0000000000000000000000000000000000000000000000000000000000000000
310
0000000000000000000000000000000000000000000000000000000000000000
310
0000000000000000000000000000000000000000000000000000000000000000
  1
OLE
  0
ENDSEC
  0
SECTION
  2
OBJECTS
  0
DICTIONARY
  5
C
330
0
100
AcDbDictionary
281
     1
  3
ACAD_GROUP
350
D
  3
ACAD_LAYOUT
350
1A
  3
ACAD_MLINESTYLE
350
17
  3
ACAD_PLOTSETTINGS
350
19
  3
ACAD_PLOTSTYLENAME
350
E
  3
ACAD_SCALELIST
350
47
  0
DICTIONARY
  5
D
102
{ACAD_REACTORS
330
C
102
}
330
C
100
AcDbDictionary
281
     1
  0
DICTIONARY
  5
1A
102
{ACAD_REACTORS
330
C
102
}
330
C
100
AcDbDictionary
281
     1
  3
Layout1
350
1E
  3
Layout2
350
26
  3
Model
350
22
  0
DICTIONARY
  5
17
102
{ACAD_REACTORS
330
C
102
}
330
C
100
AcDbDictionary
281
     1
  3
Standard
350
18
  0
DICTIONARY
  5
19
102
{ACAD_REACTORS
330
C
102
}
330
C
100
AcDbDictionary
281
     1
  0
ACDBDICTIONARYWDFLT
  5
E
102
{ACAD_REACTORS
330
C
102
}
330
C
100
AcDbDictionary
281
     1
  3
Normal
350
F
100
AcDbDictionaryWithDefault
340
F
  0
DICTIONARY
  5
47
102
{ACAD_REACTORS
330
C
102
}
330
C
100
AcDbDictionary
281
     1
  3
A0
350
48
  3
A1
350
49
  3
A2
350
4A
  3
A3
350
4B
  3
A4
350
4C
  3
A5
350
4D
  3
A6
350
4E
  3
A7
350
4F
  3
A8
350
50
  3
A9
350
51
  3
B0
350
52
  3
B1
350
53
  3
B2
350
54
  3
B3
350
55
  3
B4
350
56
  3
B5
350
57
  3
B6
350
58
  3
B7
350
59
  3
B8
350
5A
  3
B9
350
5B
  3
C0
350
5C
  3
C1
350
5D
  3
C2
350
5E
  3
C3
350
5F
  3
C4
350
60
  3
C5
350
61
  3
C6
350
62
  3
C7
350
63
  3
C8
350
64
  3
C9
350
65
  3
D0
350
66
  3
D1
350
67
  3
D2
350
68
  0
LAYOUT
  5
1E
102
{ACAD_REACTORS
330
1A
102
}
330
1A
100
AcDbPlotSettings
  1

  2
none_device
  4

  6

 40
0.0
 41
0.0
 42
0.0
 43
0.0
 44
0.0
 45
0.0
 46
0.0
 47
0.0
 48
0.0
 49
0.0
140
0.0
141
0.0
142
1.0
143
1.0
 70
   688
 72
     1
 73
     0
 74
     5
  7

 75
    16
147
1.0
148
0.0
149
0.0
100
AcDbLayout
  1
Layout1
 70
     1
 71
     1
 10
0.0
 20
0.0
 11
420.0
 21
297.0
 12
0.0
 22
0.0
 32
0.0
 14
1.0000000000E+20
 24
1.0000000000E+20
 34
1.0000000000E+20
 15
-1.0000000000E+20
 25
-1.0000000000E+20
 35
-1.0000000000E+20
146
0.0
 13
0.0
 23
0.0
 33
0.0
 16
1.0
 26
0.0
 36
0.0
 17
0.0
 27
1.0
 37
0.0
 76
     0
330
1B
  0
LAYOUT
  5
26
102
{ACAD_REACTORS
330
1A
102
}
330
1A
100
AcDbPlotSettings
  1

  2
none_device
  4

  6

 40
0.0
 41
0.0
 42
0.0
 43
0.0
 44
0.0
 45
0.0
 46
0.0
 47
0.0
 48
0.0
 49
0.0
140
0.0
141
0.0
142
1.0
143
1.0
 70
   688
 72
     1
 73
     0
 74
     5
  7

 75
    16
147
1.0
148
0.0
149
0.0
100
AcDbLayout
  1
Layout2
 70
     1
 71
     2
 10
0.0
 20
0.0
 11
0.0
 21
0.0
 12
0.0
 22
0.0
 32
0.0
 14
0.0
 24
0.0
 34
0.0
 15
0.0
 25
0.0
 35
0.0
146
0.0
 13
0.0
 23
0.0
 33
0.0
 16
1.0
 26
0.0
 36
0.0
 17
0.0
 27
1.0
 37
0.0
 76
     0
330
23
  0
LAYOUT
  5
22
102
{ACAD_REACTORS
330
1A
102
}
330
1A
100
AcDbPlotSettings
  1

  2
none_device
  4
Letter_(8.50_x_11.00_Inches)
  6

 40
6.35
 41
6.35
 42
6.35000508
 43
6.35000508
 44
215.9
 45
279.4
 46
0.0
 47
0.0
 48
0.0
 49
0.0
140
0.0
141
0.0
142
1.0
143
1.0
 70
  1712
 72
     1
 73
     0
 74
     0
  7

 75
     0
147
1.0
148
0.0
149
0.0
100
AcDbLayout
  1
Model
 70
     1
 71
     0
 10
0.0
 20
0.0
 11
297.0
 21
210.0
 12
0.0
 22
0.0
 32
0.0
 14
0.0
 24
0.0
 34
0.0
 15
297.0
 25
210.0
 35
0.0
146
0.0
 13
0.0
 23
0.0
 33
0.0
 16
1.0
 26
0.0
 36
0.0
 17
0.0
 27
1.0
 37
0.0
 76
     0
330
1F
331
29
  0
MLINESTYLE
  5
18
102
{ACAD_REACTORS
330
17
102
}
330
17
100
AcDbMlineStyle
  2
Standard
 70
     0
  3

 62
   256
 51
90.0
 52
90.0
 71
     2
 49
0.5
 62
   256
  6
BYLAYER
 49
-0.5
 62
   256
  6
BYLAYER
  0
ACDBPLACEHOLDER
  5
F
102
{ACAD_REACTORS
330
E
102
}
330
E
  0
SCALE
  5
48
102
{ACAD_REACTORS
330
47
102
}
330
47
100
AcDbScale
 70
     0
300
1:1
140
1.0
141
1.0
290
     1
  0
SCALE
  5
49
102
{ACAD_REACTORS
330
47
102
}
330
47
100
AcDbScale
 70
     0
300
1:2
140
1.0
141
2.0
290
     0
  0
SCALE
  5
4A
102
{ACAD_REACTORS
330
47
102
}
330
47
100
AcDbScale
 70
     0
300
1:4
140
1.0
141
4.0
290
     0
  0
SCALE
  5
4B
102
{ACAD_REACTORS
330
47
102
}
330
47
100
AcDbScale
 70
     0
300
1:5
140
1.0
141
5.0
290
     0
  0
SCALE
  5
4C
102
{ACAD_REACTORS
330
47
102
}
330
47
100
AcDbScale
 70
     0
300
1:8
140
1.0
141
8.0
290
     0
  0
SCALE
  5
4D
102
{ACAD_REACTORS
330
47
102
}
330
47
100
AcDbScale
 70
     0
300
1:10
140
1.0
141
10.0
290
     0
  0
SCALE
  5
4E
102
{ACAD_REACTORS
330
47
102
}
330
47
100
AcDbScale
 70
     0
300
1:16
140
1.0
141
16.0
290
     0
  0
SCALE
  5
4F
102
{ACAD_REACTORS
330
47
102
}
330
47
100
AcDbScale
 70
     0
300
1:20
140
1.0
141
20.0
290
     0
  0
SCALE
  5
50
102
{ACAD_REACTORS
330
47
102
}
330
47
100
AcDbScale
 70
     0
300
1:30
140
1.0
141
30.0
290
     0
  0
SCALE
  5
51
102
{ACAD_REACTORS
330
47
102
}
330
47
100
AcDbScale
 70
     0
300
1:40
140
1.0
141
40.0
290
     0
  0
SCALE
  5
52
102
{ACAD_REACTORS
330
47
102
}
330
47
100
AcDbScale
 70
     0
300
1:50
140
1.0
141
50.0
290
     0
  0
SCALE
  5
53
102
{ACAD_REACTORS
330
47
102
}
330
47
100
AcDbScale
 70
     0
300
1:100
140
1.0
141
100.0
290
     0
  0
SCALE
  5
54
102
{ACAD_REACTORS
330
47
102
}
330
47
100
AcDbScale
 70
     0
300
2:1
140
2.0
141
1.0
290
     0
  0
SCALE
  5
55
102
{ACAD_REACTORS
330
47
102
}
330
47
100
AcDbScale
 70
     0
300
4:1
140
4.0
141
1.0
290
     0
  0
SCALE
  5
56
102
{ACAD_REACTORS
330
47
102
}
330
47
100
AcDbScale
 70
     0
300
8:1
140
8.0
141
1.0
290
     0
  0
SCALE
  5
57
102
{ACAD_REACTORS
330
47
102
}
330
47
100
AcDbScale
 70
     0
300
10:1
140
10.0
141
1.0
290
     0
  0
SCALE
  5
58
102
{ACAD_REACTORS
330
47
102
}
330
47
100
AcDbScale
 70
     0
300
100:1
140
100.0
141
1.0
290
     0
  0
SCALE
  5
59
102
{ACAD_REACTORS
330
47
102
}
330
47
100
AcDbScale
 70
     0
300
1/128" = 1'-0"
140
0.0078125
141
12.0
290
     0
  0
SCALE
  5
5A
102
{ACAD_REACTORS
330
47
102
}
330
47
100
AcDbScale
 70
     0
300
1/64" = 1'-0"
140
0.015625
141
12.0
290
     0
  0
SCALE
  5
5B
102
{ACAD_REACTORS
330
47
102
}
330
47
100
AcDbScale
 70
     0
300
1/32" = 1'-0"
140
0.03125
141
12.0
290
     0
  0
SCALE
  5
5C
102
{ACAD_REACTORS
330
47
102
}
330
47
100
AcDbScale
 70
     0
300
1/16" = 1'-0"
140
0.0625
141
12.0
290
     0
  0
SCALE
  5
5D
102
{ACAD_REACTORS
330
47
102
}
330
47
100
AcDbScale
 70
     0
300
3/32" = 1'-0"
140
0.09375
141
12.0
290
     0
  0
SCALE
  5
5E
102
{ACAD_REACTORS
330
47
102
}
330
47
100
AcDbScale
 70
     0
300
1/8" = 1'-0"
140
0.125
141
12.0
290
     0
  0
SCALE
  5
5F
102
{ACAD_REACTORS
330
47
102
}
330
47
100
AcDbScale
 70
     0
300
3/16" = 1'-0"
140
0.1875
141
12.0
290
     0
  0
SCALE
  5
60
102
{ACAD_REACTORS
330
47
102
}
330
47
100
AcDbScale
 70
     0
300
1/4" = 1'-0"
140
0.25
141
12.0
290
     0
  0
SCALE
  5
61
102
{ACAD_REACTORS
330
47
102
}
330
47
100
AcDbScale
 70
     0
300
3/8" = 1'-0"
140
0.375
141
12.0
290
     0
  0
SCALE
  5
62
102
{ACAD_REACTORS
330
47
102
}
330
47
100
AcDbScale
 70
     0
300
1/2" = 1'-0"
140
0.5
141
12.0
290
     0
  0
SCALE
  5
63
102
{ACAD_REACTORS
330
47
102
}
330
47
100
AcDbScale
 70
     0
300
3/4" = 1'-0"
140
0.75
141
12.0
290
     0
  0
SCALE
  5
64
102
{ACAD_REACTORS
330
47
102
}
330
47
100
AcDbScale
 70
     0
300
1" = 1'-0"
140
1.0
141
12.0
290
     0
  0
SCALE
  5
65
102
{ACAD_REACTORS
330
47
102
}
330
47
100
AcDbScale
 70
     0
300
1-1/2" = 1'-0"
140
1.5
141
12.0
290
     0
  0
SCALE
  5
66
102
{ACAD_REACTORS
330
47
102
}
330
47
100
AcDbScale
 70
     0
300
3" = 1'-0"
140
3.0
141
12.0
290
     0
  0
SCALE
  5
67
102
{ACAD_REACTORS
330
47
102
}
330
47
100
AcDbScale
 70
     0
300
6" = 1'-0"
140
6.0
141
12.0
290
     0
  0
SCALE
  5
68
102
{ACAD_REACTORS
330
47
102
}
330
47
100
AcDbScale
 70
     0
300
1'-0" = 1'-0"
140
12.0
141
12.0
290
     0
  0
ENDSEC
  0
EOF
