  0
SECTION
  2
HEADER
  9
$ACADVER
  1
AC1015
  9
$ACADMAINTVER
 70
     6
  9
$DWGCODEPAGE
  3
ANSI_1252
  9
$INSBASE
 10
0.0
 20
0.0
 30
0.0
  9
$EXTMIN
 10
0.0
 20
0.0
 30
0.0
  9
$EXTMAX
 10
297.0
 20
210.0
 30
0.0
  9
$LIMMIN
 10
0.0
 20
0.0
  9
$LIMMAX
 10
297.0
 20
210.0
  9
$ORTHOMODE
 70
     0
  9
$REGENMODE
 70
     1
  9
$FILLMODE
 70
     1
  9
$QTEXTMODE
 70
     0
  9
$MIRRTEXT
 70
     1
  9
$LTSCALE
 40
1.0
  9
$ATTMODE
 70
     1
  9
$TEXTSIZE
 40
2.0
  9
$TRACEWID
 40
1.0
  9
$TEXTSTYLE
  7
Standard
  9
$CLAYER
  8
0
  9
$CELTYPE
  6
ByLayer
  9
$CECOLOR
 62
   256
  9
$CELTSCALE
 40
1.0
  9
$DISPSILH
 70
     0
  9
$DIMSCALE
 40
1.0
  9
$DIMASZ
 40
3.0
  9
$DIMEXO
 40
0.0
  9
$DIMDLI
 40
3.75
  9
$DIMRND
 40
0.0
  9
$DIMDLE
 40
0.0
  9
$DIMEXE
 40
1.0
  9
$DIMTP
 40
0.0
  9
$DIMTM
 40
0.0
  9
$DIMTXT
 40
2.0
  9
$DIMCEN
 40
2.5
  9
$DIMTSZ
 40
0.0
  9
$DIMTOL
 70
     0
  9
$DIMLIM
 70
     0
  9
$DIMTIH
 70
     1
  9
$DIMTOH
 70
     1
  9
$DIMSE1
 70
     0
  9
$DIMSE2
 70
     0
  9
$DIMTAD
 70
     1
  9
$DIMZIN
 70
     0
  9
$DIMBLK
  1

  9
$DIMASO
 70
     1
  9
$DIMSHO
 70
     1
  9
$DIMPOST
  1

  9
$DIMAPOST
  1

  9
$DIMALT
 70
     0
  9
$DIMALTD
 70
     3
  9
$DIMALTF
 40
0.0393700787
  9
$DIMLFAC
 40
2.0
  9
$DIMTOFL
 70
     1
  9
$DIMTVP
 40
0.0
  9
$DIMTIX
 70
     0
  9
$DIMSOXD
 70
     0
  9
$DIMSAH
 70
     0
  9
$DIMBLK1
  1

  9
$DIMBLK2
  1

  9
$DIMSTYLE
  2
ISO-25
  9
$DIMCLRD
 70
     0
  9
$DIMCLRE
 70
     0
  9
$DIMCLRT
 70
     0
  9
$DIMTFAC
 40
1.0
  9
$DIMGAP
 40
1.524
  9
$DIMJUST
 70
     0
  9
$DIMSD1
 70
     0
  9
$DIMSD2
 70
     0
  9
$DIMTOLJ
 70
     0
  9
$DIMTZIN
 70
     0
  9
$DIMALTZ
 70
     0
  9
$DIMALTTZ
 70
     0
  9
$DIMUPT
 70
     0
  9
$DIMDEC
 70
     2
  9
$DIMTDEC
 70
     3
  9
$DIMALTU
 70
     2
  9
$DIMALTTD
 70
     3
  9
$DIMTXSTY
  7
Standard
  9
$DIMAUNIT
 70
     0
  9
$DIMADEC
 70
     2
  9
$DIMALTRND
 40
0.0
  9
$DIMAZIN
 70
     0
  9
$DIMDSEP
 70
    44
  9
$DIMATFIT
 70
     3
  9
$DIMFRAC
 70
     0
  9
$DIMLDRBLK
  1

  9
$DIMLUNIT
 70
     2
  9
$DIMLWD
 70
    -2
  9
$DIMLWE
 70
    -2
  9
$DIMTMOVE
 70
     0
  9
$LUNITS
 70
     2
  9
$LUPREC
 70
     2
  9
$SKETCHINC
 40
1.0
  9
$FILLETRAD
 40
10.0
  9
$AUNITS
 70
     0
  9
$AUPREC
 70
     2
  9
$MENU
  1
.
  9
$ELEVATION
 40
0.0
  9
$PELEVATION
 40
0.0
  9
$THICKNESS
 40
0.0
  9
$LIMCHECK
 70
     0
  9
$CHAMFERA
 40
0.0
  9
$CHAMFERB
 40
0.0
  9
$CHAMFERC
 40
0.0
  9
$CHAMFERD
 40
0.0
  9
$SKPOLY
 70
     0
  9
$TDCREATE
 40
2458166.518953565
  9
$TDUCREATE
 40
2458166.477286898
  9
$TDUPDATE
 40
2458166.518955521
  9
$TDUUPDATE
 40
2458166.477288854
  9
$TDINDWG
 40
0.0000000116
  9
$TDUSRTIMER
 40
0.0000000116
  9
$USRTIMER
 70
     1
  9
$ANGBASE
 50
0.0
  9
$ANGDIR
 70
     0
  9
$PDMODE
 70
     0
  9
$PDSIZE
 40
-1.0
  9
$PLINEWID
 40
0.0
  9
$SPLFRAME
 70
     0
  9
$SPLINETYPE
 70
     6
  9
$SPLINESEGS
 70
     8
  9
$HANDSEED
  5
274
  9
$SURFTAB1
 70
     6
  9
$SURFTAB2
 70
     6
  9
$SURFTYPE
 70
     6
  9
$SURFU
 70
     6
  9
$SURFV
 70
     6
  9
$UCSBASE
  2

  9
$UCSNAME
  2

  9
$UCSORG
 10
0.0
 20
0.0
 30
0.0
  9
$UCSXDIR
 10
1.0
 20
0.0
 30
0.0
  9
$UCSYDIR
 10
0.0
 20
1.0
 30
0.0
  9
$UCSORTHOREF
  2

  9
$UCSORTHOVIEW
 70
     0
  9
$UCSORGTOP
 10
0.0
 20
0.0
 30
0.0
  9
$UCSORGBOTTOM
 10
0.0
 20
0.0
 30
0.0
  9
$UCSORGLEFT
 10
0.0
 20
0.0
 30
0.0
  9
$UCSORGRIGHT
 10
0.0
 20
0.0
 30
0.0
  9
$UCSORGFRONT
 10
0.0
 20
0.0
 30
0.0
  9
$UCSORGBACK
 10
0.0
 20
0.0
 30
0.0
  9
$PUCSBASE
  2

  9
$PUCSNAME
  2

  9
$PUCSORG
 10
0.0
 20
0.0
 30
0.0
  9
$PUCSXDIR
 10
1.0
 20
0.0
 30
0.0
  9
$PUCSYDIR
 10
0.0
 20
1.0
 30
0.0
  9
$PUCSORTHOREF
  2

  9
$PUCSORTHOVIEW
 70
     0
  9
$PUCSORGTOP
 10
0.0
 20
0.0
 30
0.0
  9
$PUCSORGBOTTOM
 10
0.0
 20
0.0
 30
0.0
  9
$PUCSORGLEFT
 10
0.0
 20
0.0
 30
0.0
  9
$PUCSORGRIGHT
 10
0.0
 20
0.0
 30
0.0
  9
$PUCSORGFRONT
 10
0.0
 20
0.0
 30
0.0
  9
$PUCSORGBACK
 10
0.0
 20
0.0
 30
0.0
  9
$USERI1
 70
     0
  9
$USERI2
 70
     0
  9
$USERI3
 70
     0
  9
$USERI4
 70
     0
  9
$USERI5
 70
     0
  9
$USERR1
 40
0.0
  9
$USERR2
 40
0.0
  9
$USERR3
 40
0.0
  9
$USERR4
 40
0.0
  9
$USERR5
 40
0.0
  9
$WORLDVIEW
 70
     1
  9
$SHADEDGE
 70
     3
  9
$SHADEDIF
 70
    70
  9
$TILEMODE
 70
     1
  9
$MAXACTVP
 70
    64
  9
$PINSBASE
 10
0.0
 20
0.0
 30
0.0
  9
$PLIMCHECK
 70
     0
  9
$PEXTMIN
 10
1.0000000000E+20
 20
1.0000000000E+20
 30
1.0000000000E+20
  9
$PEXTMAX
 10
-1.0000000000E+20
 20
-1.0000000000E+20
 30
-1.0000000000E+20
  9
$PLIMMIN
 10
0.0
 20
0.0
  9
$PLIMMAX
 10
420.0
 20
297.0
  9
$UNITMODE
 70
     0
  9
$VISRETAIN
 70
     1
  9
$PLINEGEN
 70
     0
  9
$PSLTSCALE
 70
     1
  9
$TREEDEPTH
 70
  3020
  9
$CMLSTYLE
  2
Standard
  9
$CMLJUST
 70
     0
  9
$CMLSCALE
 40
20.0
  9
$PROXYGRAPHICS
 70
     1
  9
$MEASUREMENT
 70
     1
  9
$CELWEIGHT
370
    -1
  9
$ENDCAPS
280
     0
  9
$JOINSTYLE
280
     0
  9
$LWDISPLAY
290
     1
  9
$INSUNITS
 70
     4
  9
$HYPERLINKBASE
  1

  9
$STYLESHEET
  1

  9
$XEDIT
290
     1
  9
$CEPSNTYPE
380
     0
  9
$PSTYLEMODE
290
     1
  9
$FINGERPRINTGUID
  2
{B73023B8-DF85-4323-A2AF-27025896619A}
  9
$VERSIONGUID
  2
{FAEB1C32-E019-11D5-929B-00C0DF256EC4}
  9
$EXTNAMES
290
     1
  9
$PSVPSCALE
 40
0.0
  9
$OLESTARTUP
290
     0
  0
ENDSEC
  0
SECTION
  2
CLASSES
  0
CLASS
  1
ACDBDICTIONARYWDFLT
  2
AcDbDictionaryWithDefault
  3
ObjectDBX Classes
 90
        0
280
     0
281
     0
  0
CLASS
  1
VISUALSTYLE
  2
AcDbVisualStyle
  3
ObjectDBX Classes
 90
     4095
280
     0
281
     0
  0
CLASS
  1
MATERIAL
  2
AcDbMaterial
  3
ObjectDBX Classes
 90
     1153
280
     0
281
     0
  0
CLASS
  1
SCALE
  2
AcDbScale
  3
ObjectDBX Classes
 90
     1153
280
     0
281
     0
  0
CLASS
  1
TABLESTYLE
  2
AcDbTableStyle
  3
ObjectDBX Classes
 90
     4095
280
     0
281
     0
  0
CLASS
  1
MLEADERSTYLE
  2
AcDbMLeaderStyle
  3
ACDB_MLEADERSTYLE_CLASS
 90
     4095
280
     0
281
     0
  0
CLASS
  1
SUN
  2
AcDbSun
  3
SCENEOE
 90
     1153
280
     0
281
     0
  0
CLASS
  1
ACDBPLACEHOLDER
  2
AcDbPlaceHolder
  3
ObjectDBX Classes
 90
        0
280
     0
281
     0
  0
CLASS
  1
LAYOUT
  2
AcDbLayout
  3
ObjectDBX Classes
 90
        0
280
     0
281
     0
  0
ENDSEC
  0
SECTION
  2
TABLES
  0
TABLE
  2
VPORT
  5
8
330
0
100
AcDbSymbolTable
 70
     1
  0
VPORT
  5
29
330
8
100
AcDbSymbolTableRecord
100
AcDbViewportTableRecord
  2
*Active
 70
     0
 10
0.0
 20
0.0
 11
1.0
 21
1.0
 12
148.5
 22
105.0
 13
0.0
 23
0.0
 14
10.0
 24
10.0
 15
10.0
 25
10.0
 16
0.0
 26
0.0
 36
1.0
 17
0.0
 27
0.0
 37
0.0
 40
210.0
 41
1.4142857143
 42
50.0
 43
0.0
 44
0.0
 50
0.0
 51
0.0
 71
     0
 72
  2000
 73
     1
 74
     3
 75
     0
 76
     0
 77
     0
 78
     0
281
     0
 65
     1
110
0.0
120
0.0
130
0.0
111
1.0
121
0.0
131
0.0
112
0.0
122
1.0
132
0.0
 79
     0
146
0.0
  0
ENDTAB
  0
TABLE
  2
LTYPE
  5
5
330
0
100
AcDbSymbolTable
 70
     6
  0
LTYPE
  5
14
330
5
100
AcDbSymbolTableRecord
100
AcDbLinetypeTableRecord
  2
ByBlock
 70
     0
  3

 72
    65
 73
     0
 40
0.0
  0
LTYPE
  5
15
330
5
100
AcDbSymbolTableRecord
100
AcDbLinetypeTableRecord
  2
ByLayer
 70
     0
  3

 72
    65
 73
     0
 40
0.0
  0
LTYPE
  5
16
330
5
100
AcDbSymbolTableRecord
100
AcDbLinetypeTableRecord
  2
Continuous
 70
     0
  3
Solid line
 72
    65
 73
     0
 40
0.0
  0
LTYPE
  5
6E
330
5
100
AcDbSymbolTableRecord
100
AcDbLinetypeTableRecord
  2
HIDDEN
 70
     0
  3
Hidden __ __ __ __ __ __ __ __ __ __ __ __ __ __
 72
    65
 73
     2
 40
1.905
 49
1.27
 74
     0
 49
-0.635
 74
     0
  0
LTYPE
  5
6F
330
5
100
AcDbSymbolTableRecord
100
AcDbLinetypeTableRecord
  2
PHANTOM
 70
     0
  3
Phantom ______  __  __  ______  __  __  ______
 72
    65
 73
     6
 40
12.7
 49
6.35
 74
     0
 49
-1.27
 74
     0
 49
1.27
 74
     0
 49
-1.27
 74
     0
 49
1.27
 74
     0
 49
-1.27
 74
     0
  0
LTYPE
  5
70
330
5
100
AcDbSymbolTableRecord
100
AcDbLinetypeTableRecord
  2
CENTER
 70
     0
  3
Center ____ _ ____ _ ____ _ ____ _ ____ _ ____
 72
    65
 73
     4
 40
10.16
 49
6.35
 74
     0
 49
-1.27
 74
     0
 49
1.27
 74
     0
 49
-1.27
 74
     0
  0
LTYPE
  5
71
330
5
100
AcDbSymbolTableRecord
100
AcDbLinetypeTableRecord
  2
CENTERX2
 70
     0
  3
Center (2x) ________  __  ________  __  _____
 72
    65
 73
     4
 40
20.32
 49
12.7
 74
     0
 49
-2.54
 74
     0
 49
2.54
 74
     0
 49
-2.54
 74
     0
  0
LTYPE
  5
72
330
5
100
AcDbSymbolTableRecord
100
AcDbLinetypeTableRecord
  2
DOT2
 70
     0
  3
Dot (.5x) ........................................
 72
    65
 73
     2
 40
0.635
 49
0.0
 74
     0
 49
-0.635
 74
     0
  0
ENDTAB
  0
TABLE
  2
LAYER
  5
2
330
0
100
AcDbSymbolTable
 70
     5
  0
LAYER
  5
10
330
2
100
AcDbSymbolTableRecord
100
AcDbLayerTableRecord
  2
0
 70
     0
 62
     7
  6
Continuous
370
    -3
390
F
  0
LAYER
  5
73
330
2
100
AcDbSymbolTableRecord
100
AcDbLayerTableRecord
  2
FORMAT
 70
     0
 62
     7
  6
Continuous
370
    -3
390
F
  0
LAYER
  5
74
330
2
100
AcDbSymbolTableRecord
100
AcDbLayerTableRecord
  2
VERMASSUNG
 70
     0
 62
     7
  6
Continuous
370
    -3
390
F
  0
LAYER
  5
75
330
2
100
AcDbSymbolTableRecord
100
AcDbLayerTableRecord
  2
KOPF_DÜNN
 70
     0
 62
     7
  6
Continuous
370
    -3
390
F
  0
LAYER
  5
76
330
2
100
AcDbSymbolTableRecord
100
AcDbLayerTableRecord
  2
KOPF_DICK
 70
     0
 62
     7
  6
Continuous
370
    25
390
F
  0
ENDTAB
  0
TABLE
  2
STYLE
  5
3
330
0
100
AcDbSymbolTable
 70
     3
  0
STYLE
  5
11
330
3
100
AcDbSymbolTableRecord
100
AcDbTextStyleTableRecord
  2
Standard
 70
     0
 40
0.0
 41
1.0
 50
0.0
 71
     0
 42
2.0
  3
txt
  4

  0
STYLE
  5
77
330
3
100
AcDbSymbolTableRecord
100
AcDbTextStyleTableRecord
  2
SLDTEXTSTYLE0
 70
     0
 40
0.0
 41
0.7
 50
0.0
 71
     0
 42
2.0
  3
TXT
  4

  0
STYLE
  5
7B
330
3
100
AcDbSymbolTableRecord
100
AcDbTextStyleTableRecord
  2
SLDTEXTSTYLE1
 70
     0
 40
0.0
 41
0.6466666667
 50
0.0
 71
     0
 42
2.0
  3
TXT
  4

  0
ENDTAB
  0
TABLE
  2
VIEW
  5
6
330
0
100
AcDbSymbolTable
 70
     0
  0
ENDTAB
  0
TABLE
  2
UCS
  5
7
330
0
100
AcDbSymbolTable
 70
     0
  0
ENDTAB
  0
TABLE
  2
APPID
  5
9
330
0
100
AcDbSymbolTable
 70
     1
  0
APPID
  5
12
330
9
100
AcDbSymbolTableRecord
100
AcDbRegAppTableRecord
  2
ACAD
 70
     0
  0
ENDTAB
  0
TABLE
  2
DIMSTYLE
  5
A
330
0
100
AcDbSymbolTable
 70
     2
100
AcDbDimStyleTable
  0
DIMSTYLE
105
27
330
A
100
AcDbSymbolTableRecord
100
AcDbDimStyleTableRecord
  2
ISO-25
 70
     0
 41
2.5
 42
0.625
 43
3.75
 44
1.25
 73
     0
 74
     0
 77
     1
 78
     8
140
2.5
141
2.5
143
0.0393700787
147
0.625
171
     3
172
     1
178
     0
271
     2
272
     2
274
     3
278
    44
283
     0
284
     8
340
11
  0
DIMSTYLE
105
12F
102
{ACAD_REACTORS
330
12E
330
13A
330
145
330
151
330
15B
102
}
330
A
100
AcDbSymbolTableRecord
100
AcDbDimStyleTableRecord
  2
SLDDIMSTYLE0
 70
     0
 41
3.0
 44
0.0
 45
0.000000001
 73
     0
 74
     0
 77
     1
 78
    12
 79
     3
140
2.0
147
0.5
173
     1
178
     0
271
     2
272
     3
276
     2
284
    12
340
77
  0
ENDTAB
  0
TABLE
  2
BLOCK_RECORD
  5
1
330
0
100
AcDbSymbolTable
 70
     6
  0
BLOCK_RECORD
  5
1F
330
1
100
AcDbSymbolTableRecord
100
AcDbBlockTableRecord
  2
*Model_Space
340
22
  0
BLOCK_RECORD
  5
1B
330
1
100
AcDbSymbolTableRecord
100
AcDbBlockTableRecord
  2
*Paper_Space
340
1E
  0
BLOCK_RECORD
  5
23
330
1
100
AcDbSymbolTableRecord
100
AcDbBlockTableRecord
  2
*Paper_Space0
340
26
  0
BLOCK_RECORD
  5
130
330
1
100
AcDbSymbolTableRecord
100
AcDbBlockTableRecord
  2
_D
340
0
  0
BLOCK_RECORD
  5
13B
330
1
100
AcDbSymbolTableRecord
100
AcDbBlockTableRecord
  2
_D_1
340
0
  0
BLOCK_RECORD
  5
146
330
1
100
AcDbSymbolTableRecord
100
AcDbBlockTableRecord
  2
_D_2
340
0
  0
BLOCK_RECORD
  5
152
330
1
100
AcDbSymbolTableRecord
100
AcDbBlockTableRecord
  2
_D_3
340
0
  0
BLOCK_RECORD
  5
15C
330
1
100
AcDbSymbolTableRecord
100
AcDbBlockTableRecord
  2
_D_4
340
0
  0
ENDTAB
  0
ENDSEC
  0
SECTION
  2
BLOCKS
  0
BLOCK
  5
20
330
1F
100
AcDbEntity
  8
0
100
AcDbBlockBegin
  2
*Model_Space
 70
     0
 10
0.0
 20
0.0
 30
0.0
  3
*Model_Space
  1

  0
ENDBLK
  5
21
330
1F
100
AcDbEntity
  8
0
100
AcDbBlockEnd
  0
BLOCK
  5
1C
330
1B
100
AcDbEntity
 67
     1
  8
0
100
AcDbBlockBegin
  2
*Paper_Space
 70
     0
 10
0.0
 20
0.0
 30
0.0
  3
*Paper_Space
  1

  0
ENDBLK
  5
1D
330
1B
100
AcDbEntity
 67
     1
  8
0
100
AcDbBlockEnd
  0
BLOCK
  5
24
330
23
100
AcDbEntity
  8
0
100
AcDbBlockBegin
  2
*Paper_Space0
 70
     0
 10
0.0
 20
0.0
 30
0.0
  3
*Paper_Space0
  1

  0
ENDBLK
  5
25
330
23
100
AcDbEntity
  8
0
100
AcDbBlockEnd
  0
BLOCK
  5
131
330
130
100
AcDbEntity
  8
0
100
AcDbBlockBegin
  2
_D
 70
     0
 10
0.0
 20
0.0
 30
0.0
  3
_D
  1

  0
SOLID
  5
133
330
130
100
AcDbEntity
  8
VERMASSUNG
100
AcDbTrace
 10
239.5707785861
 20
87.0565910188
 30
0.0
 11
240.0207785861
 21
90.0565910188
 31
0.0
 12
239.1207785861
 22
90.0565910188
 32
0.0
 13
239.1207785861
 23
90.0565910188
 33
0.0
  0
SOLID
  5
134
330
130
100
AcDbEntity
  8
VERMASSUNG
100
AcDbTrace
 10
239.5707785861
 20
132.0565910188
 30
0.0
 11
239.1207785861
 21
129.0565910188
 31
0.0
 12
240.0207785861
 22
129.0565910188
 32
0.0
 13
240.0207785861
 23
129.0565910188
 33
0.0
  0
LINE
  5
135
330
130
100
AcDbEntity
  8
VERMASSUNG
100
AcDbLine
 10
172.5207785861
 20
87.0565910188
 30
0.0
 11
240.5707785861
 21
87.0565910188
 31
0.0
  0
LINE
  5
136
330
130
100
AcDbEntity
  8
VERMASSUNG
100
AcDbLine
 10
172.5207785861
 20
132.0565910188
 30
0.0
 11
240.5707785861
 21
132.0565910188
 31
0.0
  0
LINE
  5
137
330
130
100
AcDbEntity
  8
VERMASSUNG
100
AcDbLine
 10
239.5707785861
 20
87.0565910188
 30
0.0
 11
239.5707785861
 21
132.0565910188
 31
0.0
  0
MTEXT
  5
138
330
130
100
AcDbEntity
  8
VERMASSUNG
100
AcDbMText
 10
236.9926432812
 20
106.2515909986
 30
0.0
 40
2.0
 41
0.0
 71
     1
 72
     1
  1
%%c
  7
SLDTEXTSTYLE0
 11
6.123233995736766E-17
 21
1.0
 31
0.0
 73
     1
 44
1.0
  0
MTEXT
  5
139
330
130
100
AcDbEntity
  8
VERMASSUNG
100
AcDbMText
 10
236.7926433299
 20
109.8615910129
 30
0.0
 40
2.0
 41
0.0
 71
     1
 72
     1
  1
45
  7
SLDTEXTSTYLE0
 11
6.123233995736766E-17
 21
1.0
 31
0.0
 73
     1
 44
1.0
  0
ENDBLK
  5
132
330
130
100
AcDbEntity
  8
0
100
AcDbBlockEnd
  0
BLOCK
  5
13C
330
13B
100
AcDbEntity
  8
0
100
AcDbBlockBegin
  2
_D_1
 70
     0
 10
0.0
 20
0.0
 30
0.0
  3
_D_1
  1

  0
SOLID
  5
13E
330
13B
100
AcDbEntity
  8
VERMASSUNG
100
AcDbTrace
 10
251.5707785861
 20
84.7065910188
 30
0.0
 11
252.0207785861
 21
87.7065910188
 31
0.0
 12
251.1207785861
 22
87.7065910188
 32
0.0
 13
251.1207785861
 23
87.7065910188
 33
0.0
  0
SOLID
  5
13F
330
13B
100
AcDbEntity
  8
VERMASSUNG
100
AcDbTrace
 10
251.5707785861
 20
134.4065910188
 30
0.0
 11
251.1207785861
 21
131.4065910188
 31
0.0
 12
252.0207785861
 22
131.4065910188
 32
0.0
 13
252.0207785861
 23
131.4065910188
 33
0.0
  0
LINE
  5
140
330
13B
100
AcDbEntity
  8
VERMASSUNG
100
AcDbLine
 10
220.1932790961
 20
84.7065910188
 30
0.0
 11
252.5707785861
 21
84.7065910188
 31
0.0
  0
LINE
  5
141
330
13B
100
AcDbEntity
  8
VERMASSUNG
100
AcDbLine
 10
220.1932790961
 20
134.4065910188
 30
0.0
 11
252.5707785861
 21
134.4065910188
 31
0.0
  0
LINE
  5
142
330
13B
100
AcDbEntity
  8
VERMASSUNG
100
AcDbLine
 10
251.5707785861
 20
84.7065910188
 30
0.0
 11
251.5707785861
 21
134.4065910188
 31
0.0
  0
MTEXT
  5
143
330
13B
100
AcDbEntity
  8
VERMASSUNG
100
AcDbMText
 10
248.9926432812
 20
105.2515910676
 30
0.0
 40
2.0
 41
0.0
 71
     1
 72
     1
  1
%%c
  7
SLDTEXTSTYLE0
 11
6.123233995736766E-17
 21
1.0
 31
0.0
 73
     1
 44
1.0
  0
MTEXT
  5
144
330
13B
100
AcDbEntity
  8
VERMASSUNG
100
AcDbMText
 10
248.7926433299
 20
108.8615910819
 30
0.0
 40
2.0
 41
0.0
 71
     1
 72
     1
  1
49.7
  7
SLDTEXTSTYLE0
 11
6.123233995736766E-17
 21
1.0
 31
0.0
 73
     1
 44
1.0
  0
ENDBLK
  5
13D
330
13B
100
AcDbEntity
  8
0
100
AcDbBlockEnd
  0
BLOCK
  5
147
330
146
100
AcDbEntity
  8
0
100
AcDbBlockBegin
  2
_D_2
 70
     0
 10
0.0
 20
0.0
 30
0.0
  3
_D_2
  1

  0
SOLID
  5
149
330
146
100
AcDbEntity
  8
VERMASSUNG
100
AcDbTrace
 10
60.5235252428
 20
159.5565910188
 30
0.0
 11
60.0735252428
 21
156.5565910188
 31
0.0
 12
60.9735252428
 22
156.5565910188
 32
0.0
 13
60.9735252428
 23
156.5565910188
 33
0.0
  0
SOLID
  5
14A
330
146
100
AcDbEntity
  8
VERMASSUNG
100
AcDbTrace
 10
60.5235252428
 20
59.5565910188
 30
0.0
 11
60.9735252428
 21
62.5565910188
 31
0.0
 12
60.0735252428
 22
62.5565910188
 32
0.0
 13
60.0735252428
 23
62.5565910188
 33
0.0
  0
LINE
  5
14B
330
146
100
AcDbEntity
  8
VERMASSUNG
100
AcDbLine
 10
124.0707785861
 20
159.5565910188
 30
0.0
 11
59.5235252428
 21
159.5565910188
 31
0.0
  0
LINE
  5
14C
330
146
100
AcDbEntity
  8
VERMASSUNG
100
AcDbLine
 10
124.0707785861
 20
59.5565910188
 30
0.0
 11
59.5235252428
 21
59.5565910188
 31
0.0
  0
LINE
  5
14D
330
146
100
AcDbEntity
  8
VERMASSUNG
100
AcDbLine
 10
60.5235252428
 20
159.5565910188
 30
0.0
 11
60.5235252428
 21
59.5565910188
 31
0.0
  0
MTEXT
  5
14E
330
146
100
AcDbEntity
  8
VERMASSUNG
100
AcDbMText
 10
57.7453899866
 20
101.351591639
 30
0.0
 40
2.0
 41
0.0
 71
     1
 72
     1
  1
HSK A
  7
SLDTEXTSTYLE0
 11
-7.044195017643634E-15
 21
1.0
 31
0.0
 73
     1
 44
1.0
  0
MTEXT
  5
14F
330
146
100
AcDbEntity
  8
VERMASSUNG
100
AcDbMText
 10
57.9453899379
 20
110.3515912516
 30
0.0
 40
2.0
 41
0.0
 71
     1
 72
     1
  1
%%c
  7
SLDTEXTSTYLE0
 11
-7.044195017643634E-15
 21
1.0
 31
0.0
 73
     1
 44
1.0
  0
MTEXT
  5
150
330
146
100
AcDbEntity
  8
VERMASSUNG
100
AcDbMText
 10
57.7453899866
 20
113.9615912659
 30
0.0
 40
2.0
 41
0.0
 71
     1
 72
     1
  1
100
  7
SLDTEXTSTYLE0
 11
-7.044195017643634E-15
 21
1.0
 31
0.0
 73
     1
 44
1.0
  0
ENDBLK
  5
148
330
146
100
AcDbEntity
  8
0
100
AcDbBlockEnd
  0
BLOCK
  5
153
330
152
100
AcDbEntity
  8
0
100
AcDbBlockBegin
  2
_D_3
 70
     0
 10
0.0
 20
0.0
 30
0.0
  3
_D_3
  1

  0
SOLID
  5
155
330
152
100
AcDbEntity
  8
VERMASSUNG
100
AcDbTrace
 10
123.5707785861
 20
167.8074118808
 30
0.0
 11
126.5707785861
 21
167.3574118808
 31
0.0
 12
126.5707785861
 22
168.2574118808
 32
0.0
 13
126.5707785861
 23
168.2574118808
 33
0.0
  0
SOLID
  5
156
330
152
100
AcDbEntity
  8
VERMASSUNG
100
AcDbTrace
 10
223.5707785861
 20
167.8074118808
 30
0.0
 11
220.5707785861
 21
168.2574118808
 31
0.0
 12
220.5707785861
 22
167.3574118808
 32
0.0
 13
220.5707785861
 23
167.3574118808
 33
0.0
  0
LINE
  5
157
330
152
100
AcDbEntity
  8
VERMASSUNG
100
AcDbLine
 10
123.5707785861
 20
159.0565910188
 30
0.0
 11
123.5707785861
 21
168.8074118808
 31
0.0
  0
LINE
  5
158
330
152
100
AcDbEntity
  8
VERMASSUNG
100
AcDbLine
 10
223.5707785861
 20
128.5565910188
 30
0.0
 11
223.5707785861
 21
168.8074118808
 31
0.0
  0
LINE
  5
159
330
152
100
AcDbEntity
  8
VERMASSUNG
100
AcDbLine
 10
123.5707785861
 20
167.8074118808
 30
0.0
 11
223.5707785861
 21
167.8074118808
 31
0.0
  0
MTEXT
  5
15A
330
152
100
AcDbEntity
  8
VERMASSUNG
100
AcDbMText
 10
171.6707785541
 20
170.3855474768
 30
0.0
 40
2.0
 41
0.0
 71
     1
 72
     1
  1
100
  7
SLDTEXTSTYLE0
 73
     1
 44
1.0
  0
ENDBLK
  5
154
330
152
100
AcDbEntity
  8
0
100
AcDbBlockEnd
  0
BLOCK
  5
15D
330
15C
100
AcDbEntity
  8
0
100
AcDbBlockBegin
  2
_D_4
 70
     0
 10
0.0
 20
0.0
 30
0.0
  3
_D_4
  1

  0
SOLID
  5
15F
330
15C
100
AcDbEntity
  8
VERMASSUNG
100
AcDbTrace
 10
73.6707785861
 20
177.1775151647
 30
0.0
 11
76.6707785861
 21
176.7275151647
 31
0.0
 12
76.6707785861
 22
177.6275151647
 32
0.0
 13
76.6707785861
 23
177.6275151647
 33
0.0
  0
SOLID
  5
160
330
15C
100
AcDbEntity
  8
VERMASSUNG
100
AcDbTrace
 10
223.5707785861
 20
177.1775151647
 30
0.0
 11
220.5707785861
 21
177.6275151647
 31
0.0
 12
220.5707785861
 22
176.7275151647
 32
0.0
 13
220.5707785861
 23
176.7275151647
 33
0.0
  0
LINE
  5
161
330
15C
100
AcDbEntity
  8
VERMASSUNG
100
AcDbLine
 10
73.6707785861
 20
140.0592607614
 30
0.0
 11
73.6707785861
 21
178.1775151647
 31
0.0
  0
LINE
  5
162
330
15C
100
AcDbEntity
  8
VERMASSUNG
100
AcDbLine
 10
223.5707785861
 20
128.5565910188
 30
0.0
 11
223.5707785861
 21
178.1775151647
 31
0.0
  0
LINE
  5
163
330
15C
100
AcDbEntity
  8
VERMASSUNG
100
AcDbLine
 10
73.6707785861
 20
177.1775151647
 30
0.0
 11
223.5707785861
 21
177.1775151647
 31
0.0
  0
MTEXT
  5
164
330
15C
100
AcDbEntity
  8
VERMASSUNG
100
AcDbMText
 10
145.6207787929
 20
179.7556507607
 30
0.0
 40
2.0
 41
0.0
 71
     1
 72
     1
  1
149.9
  7
SLDTEXTSTYLE0
 73
     1
 44
1.0
  0
ENDBLK
  5
15E
330
15C
100
AcDbEntity
  8
0
100
AcDbBlockEnd
  0
ENDSEC
  0
SECTION
  2
ENTITIES
  0
MTEXT
  5
78
330
1F
100
AcDbEntity
  8
KOPF_DÜNN
100
AcDbMText
 10
13.8892156294
 20
23.8442973028
 30
0.0
 40
3.0
 41
0.0
 71
     1
 72
     1
  1
HA0.E32.K01.100
  7
SLDTEXTSTYLE0
 73
     1
 44
1.0
  0
MTEXT
  5
79
330
1F
100
AcDbEntity
  8
VERMASSUNG
100
AcDbMText
 10
13.9329988022
 20
28.8834360957
 30
0.0
 40
3.0
 41
0.0
 71
     1
 72
     1
  1
Spannzangenfutter ER Typ S_Collet chuck ER type S
  7
SLDTEXTSTYLE0
 73
     1
 44
1.0
  0
MTEXT
  5
7A
330
1F
100
AcDbEntity
  8
VERMASSUNG
100
AcDbMText
 10
98.8601118557
 20
13.8365368761
 30
0.0
 40
2.0
 41
0.0
 71
     1
 72
     1
  1
Datum: 16.02.2018
  7
SLDTEXTSTYLE0
 73
     1
 44
1.0
  0
MTEXT
  5
7C
330
1F
100
AcDbEntity
  8
VERMASSUNG
100
AcDbMText
 10
13.933048693
 20
18.0482802738
 30
0.0
 40
2.0
 41
0.0
 71
     1
 72
     1
  1
HSK A 100 / Ø50
  7
SLDTEXTSTYLE1
 73
     1
 44
1.0
  0
MTEXT
  5
7D
330
1F
100
AcDbEntity
  8
VERMASSUNG
100
AcDbMText
 10
13.9808475933
 20
13.9090974274
 30
0.0
 40
2.0
 41
0.0
 71
     1
 72
     1
  1
Gewicht: 2588g
  7
SLDTEXTSTYLE0
 73
     1
 44
1.0
  0
LINE
  5
7E
330
1F
100
AcDbEntity
  8
0
  6
Continuous
 62
     7
370
    25
100
AcDbLine
 10
124.0707786099
 20
59.5565902738
 30
0.0
 11
128.5207785593
 21
59.5565902738
 31
0.0
  0
LINE
  5
7F
330
1F
100
AcDbEntity
  8
0
  6
Continuous
 62
     7
370
    25
100
AcDbLine
 10
128.5548514614
 20
159.5565917639
 30
0.0
 11
124.0707786099
 21
159.5565917639
 31
0.0
  0
ARC
  5
80
330
1F
100
AcDbEntity
  8
0
  6
Continuous
 62
     7
370
    25
100
AcDbCircle
 10
124.0707785861
 20
60.0565910188
 30
0.0
 40
0.5
100
AcDbArc
 50
180.0
 51
270.0
  0
ARC
  5
81
330
1F
100
AcDbEntity
  8
0
  6
Continuous
 62
     7
370
    25
100
AcDbCircle
 10
124.0707785861
 20
159.0565910188
 30
0.0
 40
0.5
100
AcDbArc
 50
90.0
 51
180.0
  0
ARC
  5
82
330
1F
100
AcDbEntity
  8
0
  6
Continuous
 62
     7
370
    25
100
AcDbCircle
 10
122.6738416677
 20
70.9281056944
 30
0.0
 40
0.9962338214386983
100
AcDbArc
 50
25.7988228126
 51
90.0
  0
ARC
  5
83
330
1F
100
AcDbEntity
  8
0
  6
Continuous
 62
     7
370
    25
100
AcDbCircle
 10
122.6738416677
 20
148.1850763433
 30
0.0
 40
0.9962338214387216
100
AcDbArc
 50
270.0
 51
334.2011771874
  0
LINE
  5
84
330
1F
100
AcDbEntity
  8
0
  6
Continuous
 62
     7
370
    25
100
AcDbLine
 10
102.0900990741
 20
146.4879083184
 30
0.0
 11
83.7707791404
 21
145.5701048223
 31
0.0
  0
LINE
  5
85
330
1F
100
AcDbEntity
  8
0
  6
Continuous
 62
     7
370
    25
100
AcDbLine
 10
121.070778642
 20
147.4388408212
 30
0.0
 11
115.0027394222
 21
147.1348310558
 31
0.0
  0
LINE
  5
86
330
1F
100
AcDbEntity
  8
0
  6
Continuous
 62
     7
370
    25
100
AcDbLine
 10
115.0028623568
 20
71.9783435313
 30
0.0
 11
121.070778642
 21
71.6743412165
 31
0.0
  0
LINE
  5
87
330
1F
100
AcDbEntity
  8
0
  6
Continuous
 62
     7
370
    25
100
AcDbLine
 10
88.7707780974
 20
73.2925775198
 30
0.0
 11
102.0907305108
 21
72.6252439169
 31
0.0
  0
LINE
  5
88
330
1F
100
AcDbEntity
  8
0
  6
Continuous
 62
     7
370
    25
100
AcDbLine
 10
121.070778642
 20
71.6743412165
 30
0.0
 11
121.8766247082
 21
71.8902664928
 31
0.0
  0
LINE
  5
89
330
1F
100
AcDbEntity
  8
0
  6
Continuous
 62
     7
370
    25
100
AcDbLine
 10
121.8766247082
 20
147.2229155449
 30
0.0
 11
121.070778642
 21
147.4388408212
 31
0.0
  0
ARC
  5
8A
330
1F
100
AcDbEntity
  8
0
  6
Continuous
 62
     7
370
    25
100
AcDbCircle
 10
122.1354437856
 20
70.9243395158
 30
0.0
 40
1.0
100
AcDbArc
 50
90.0
 51
105.0
  0
ARC
  5
8B
330
1F
100
AcDbEntity
  8
0
  6
Continuous
 62
     7
370
    25
100
AcDbCircle
 10
122.1354437856
 20
148.1888425218
 30
0.0
 40
1.0
100
AcDbArc
 50
255.0
 51
270.0
  0
LINE
  5
8C
330
1F
100
AcDbEntity
  8
0
  6
Continuous
 62
     7
370
    25
100
AcDbLine
 10
122.1354437919
 20
71.9243379978
 30
0.0
 11
122.6738416633
 21
71.9243379978
 31
0.0
  0
LINE
  5
8D
330
1F
100
AcDbEntity
  8
0
  6
Continuous
 62
     7
370
    25
100
AcDbLine
 10
122.6738416633
 20
147.1888440398
 30
0.0
 11
122.1354437919
 21
147.1888440398
 31
0.0
  0
ARC
  5
8E
330
1F
100
AcDbEntity
  8
0
  6
Continuous
 62
     7
370
    25
100
AcDbCircle
 10
155.5207785861
 20
84.0565910188
 30
0.0
 40
3.0
100
AcDbArc
 50
90.0
 51
180.0
  0
ARC
  5
8F
330
1F
100
AcDbEntity
  8
0
  6
Continuous
 62
     7
370
    25
100
AcDbCircle
 10
155.5207785861
 20
135.0565910188
 30
0.0
 40
3.0
100
AcDbArc
 50
180.0
 51
270.0
  0
LINE
  5
90
330
1F
100
AcDbEntity
  8
0
  6
Continuous
 62
     7
370
    25
100
AcDbLine
 10
166.9883180337
 20
87.0565901248
 30
0.0
 11
172.5207801835
 21
87.0565901248
 31
0.0
  0
LINE
  5
91
330
1F
100
AcDbEntity
  8
0
  6
Continuous
 62
     7
370
    25
100
AcDbLine
 10
155.5207792597
 20
87.0565901248
 30
0.0
 11
160.06353236
 21
87.0565901248
 31
0.0
  0
LINE
  5
92
330
1F
100
AcDbEntity
  8
0
  6
Continuous
 62
     7
370
    25
100
AcDbLine
 10
160.0551839845
 20
132.0565919129
 30
0.0
 11
155.5207792597
 21
132.0565919129
 31
0.0
  0
LINE
  5
93
330
1F
100
AcDbEntity
  8
0
  6
Continuous
 62
     7
370
    25
100
AcDbLine
 10
172.5207801835
 20
132.0565919129
 30
0.0
 11
166.9785167949
 21
132.0565919129
 31
0.0
  0
ARC
  5
94
330
1F
100
AcDbEntity
  8
0
  6
Continuous
 62
     7
370
    25
100
AcDbCircle
 10
190.3743496575
 20
194.5565910188
 30
0.0
 40
65.0
100
AcDbArc
 50
254.0576313944
 51
270.0
  0
ARC
  5
95
330
1F
100
AcDbEntity
  8
0
  6
Continuous
 62
     7
370
    25
100
AcDbCircle
 10
190.3743496575
 20
24.5565910188
 30
0.0
 40
65.0
100
AcDbArc
 50
90.0
 51
105.9423686056
  0
LINE
  5
96
330
1F
100
AcDbEntity
  8
0
  6
Continuous
 62
     7
370
    25
100
AcDbLine
 10
201.0707791822
 20
129.5565905718
 30
0.0
 11
190.3743531482
 21
129.5565905718
 31
0.0
  0
LINE
  5
97
330
1F
100
AcDbEntity
  8
0
  6
Continuous
 62
     7
370
    25
100
AcDbLine
 10
190.3743531482
 20
89.5565914659
 30
0.0
 11
201.0707791822
 21
89.5565914659
 31
0.0
  0
LINE
  5
98
330
1F
100
AcDbEntity
  8
0
  6
Continuous
 62
     7
370
    25
100
AcDbLine
 10
75.3207776622
 20
77.3065927176
 30
0.0
 11
86.8707794623
 21
77.3065927176
 31
0.0
  0
ARC
  5
99
330
1F
100
AcDbEntity
  8
0
  6
Continuous
 62
     7
370
    25
100
AcDbCircle
 10
86.8707785861
 20
75.4065910188
 30
0.0
 40
1.899999999999991
100
AcDbArc
 50
35.6630613694
 51
90.0
  0
ARC
  5
9A
330
1F
100
AcDbEntity
  8
0
  6
Continuous
 62
     7
370
    25
100
AcDbCircle
 10
81.8707785861
 20
143.7065910188
 30
0.0
 40
1.899999999999986
100
AcDbArc
 50
270.0
 51
310.9212832533
  0
LINE
  5
9B
330
1F
100
AcDbEntity
  8
0
  6
Continuous
 62
     7
370
    25
100
AcDbLine
 10
75.3207776622
 20
141.8065893201
 30
0.0
 11
73.7214621083
 21
140.2072756288
 31
0.0
  0
LINE
  5
9C
330
1F
100
AcDbEntity
  8
0
  6
Continuous
 62
     7
370
    25
100
AcDbLine
 10
73.7223002987
 20
78.9050700812
 30
0.0
 11
75.3207776622
 21
77.3065927176
 31
0.0
  0
LINE
  5
9D
330
1F
100
AcDbEntity
  8
0
  6
Continuous
 62
     7
370
    25
100
AcDbLine
 10
81.8707767801
 20
141.8065893201
 30
0.0
 11
75.3207776622
 21
141.8065893201
 31
0.0
  0
LINE
  5
9E
330
1F
100
AcDbEntity
  8
0
  6
Continuous
 62
     7
370
    25
100
AcDbLine
 10
201.5707801954
 20
84.7065913228
 30
0.0
 11
220.1932754295
 21
84.7065913228
 31
0.0
  0
LINE
  5
9F
330
1F
100
AcDbEntity
  8
0
  6
Continuous
 62
     7
370
    25
100
AcDbLine
 10
220.1932754295
 20
134.4065907148
 30
0.0
 11
201.5707801954
 21
134.4065907148
 31
0.0
  0
LINE
  5
A0
330
1F
100
AcDbEntity
  8
0
  6
Continuous
 62
     7
370
    25
100
AcDbLine
 10
201.5707801954
 20
134.4065907148
 30
0.0
 11
201.0707791822
 21
133.9065915642
 31
0.0
  0
LINE
  5
A1
330
1F
100
AcDbEntity
  8
0
  6
Continuous
 62
     7
370
    25
100
AcDbLine
 10
201.0707791822
 20
85.2065904734
 30
0.0
 11
201.5707801954
 21
84.7065913228
 31
0.0
  0
LINE
  5
A2
330
1F
100
AcDbEntity
  8
0
  6
Continuous
 62
     7
370
    25
100
AcDbLine
 10
220.1932754295
 20
84.7065913228
 30
0.0
 11
223.5707800762
 21
90.5565916298
 31
0.0
  0
LINE
  5
A3
330
1F
100
AcDbEntity
  8
0
  6
Continuous
 62
     7
370
    25
100
AcDbLine
 10
223.5707800762
 20
128.5565904079
 30
0.0
 11
220.1932754295
 21
134.4065907148
 31
0.0
  0
SPLINE
  5
A4
330
1F
100
AcDbEntity
  8
0
  6
Continuous
 62
     7
370
    25
100
AcDbSpline
210
0.0
220
0.0
230
1.0
 70
    11
 71
     3
 72
    80
 73
    76
 74
     0
 42
0.000000001
 43
0.00000001
 40
0.0
 40
0.0
 40
0.0
 40
0.0
 40
0.0312499999999995
 40
0.0312499999999995
 40
0.0468749999999993
 40
0.0468749999999993
 40
0.0624999999999991
 40
0.0624999999999991
 40
0.0937499999999988
 40
0.0937499999999988
 40
0.1249999999999986
 40
0.1249999999999986
 40
0.1562499999999983
 40
0.1562499999999983
 40
0.1874999999999981
 40
0.1874999999999981
 40
0.2187499999999978
 40
0.2187499999999978
 40
0.2499999999999976
 40
0.2499999999999976
 40
0.2812499999999973
 40
0.2812499999999973
 40
0.3124999999999971
 40
0.3124999999999971
 40
0.3281249999999971
 40
0.3281249999999971
 40
0.3437499999999971
 40
0.3437499999999971
 40
0.3749999999999973
 40
0.3749999999999973
 40
0.4062499999999975
 40
0.4062499999999975
 40
0.4218749999999975
 40
0.4218749999999975
 40
0.4374999999999974
 40
0.4374999999999974
 40
0.4687499999999973
 40
0.4687499999999973
 40
0.4999999999999972
 40
0.4999999999999972
 40
0.531249999999997
 40
0.531249999999997
 40
0.562499999999997
 40
0.562499999999997
 40
0.5937499999999969
 40
0.5937499999999969
 40
0.6249999999999969
 40
0.6249999999999969
 40
0.6562499999999968
 40
0.6562499999999968
 40
0.6874999999999968
 40
0.6874999999999968
 40
0.7031249999999968
 40
0.7031249999999968
 40
0.7187499999999969
 40
0.7187499999999969
 40
0.7499999999999973
 40
0.7499999999999973
 40
0.7812499999999979
 40
0.7812499999999979
 40
0.7968749999999982
 40
0.7968749999999982
 40
0.8124999999999984
 40
0.8124999999999984
 40
0.8437499999999988
 40
0.8437499999999988
 40
0.874999999999999
 40
0.874999999999999
 40
0.9062499999999993
 40
0.9062499999999993
 40
0.9374999999999996
 40
0.9374999999999996
 40
0.9687499999999999
 40
0.9687499999999999
 40
1.0
 40
1.0
 40
1.0
 40
1.0
 10
132.5707785861214
 20
152.9712204824628
 30
0.0
 10
132.9013238988977
 20
152.9712204824628
 30
0.0
 10
133.2263040281493
 20
152.9874287138449
 30
0.0
 10
133.7057774393958
 20
153.0347933458645
 30
0.0
 10
133.8642592572366
 20
153.0544475577552
 30
0.0
 10
134.1784787897408
 20
153.1015587139478
 30
0.0
 10
134.3345990734212
 20
153.1291400334425
 30
0.0
 10
134.7886531023778
 20
153.2216758202363
 30
0.0
 10
135.0757564853177
 20
153.2967462538328
 30
0.0
 10
135.6191110413447
 20
153.4719845624434
 30
0.0
 10
135.8762146525503
 20
153.5729858602816
 30
0.0
 10
136.337120907489
 20
153.7903420587425
 30
0.0
 10
136.544018616704
 20
153.9075063905148
 30
0.0
 10
136.9095439306962
 20
154.1575763147434
 30
0.0
 10
137.0647494528222
 20
154.2885224035024
 30
0.0
 10
137.3141798394219
 20
154.5542573472147
 30
0.0
 10
137.410269795207
 20
154.6910109405257
 30
0.0
 10
137.5387886444006
 20
154.9650765153647
 30
0.0
 10
137.5705995145784
 20
155.1000166058335
 30
0.0
 10
137.5709561643517
 20
155.3654882429022
 30
0.0
 10
137.5384589121546
 20
155.4973127200435
 30
0.0
 10
137.4108334384401
 20
155.7467623196639
 30
0.0
 10
137.3164050373882
 20
155.8651950115919
 30
0.0
 10
137.1285442174027
 20
156.034064208686
 30
0.0
 10
137.0577162185995
 20
156.0891502038062
 30
0.0
 10
136.9029943266342
 20
156.1944030322946
 30
0.0
 10
136.8190178564508
 20
156.2447382610549
 30
0.0
 10
136.5476941868064
 20
156.389314093593
 30
0.0
 10
136.341144968204
 20
156.47717568001
 30
0.0
 10
135.874534828015
 20
156.6368967730095
 30
0.0
 10
135.6221692583896
 20
156.7061350694767
 30
0.0
 10
135.2162679167108
 20
156.7959224587065
 30
0.0
 10
135.0763672992334
 20
156.8234884207928
 30
0.0
 10
134.7871433639864
 20
156.8739792217191
 30
0.0
 10
134.6373039076971
 20
156.8969426605697
 30
0.0
 10
134.1831873380864
 20
156.9575731769886
 30
0.0
 10
133.8715361193495
 20
156.9876472057844
 30
0.0
 10
133.2305396544372
 20
157.0282367930431
 30
0.0
 10
132.899012026485
 20
157.0385490232591
 30
0.0
 10
132.2462209814135
 20
157.0386245904249
 30
0.0
 10
131.9216847763817
 20
157.0287229849571
 30
0.0
 10
131.2764153269652
 20
156.9882364544319
 30
0.0
 10
130.9606723208026
 20
156.9577751545472
 30
0.0
 10
130.3587830258188
 20
156.8776244831106
 30
0.0
 10
130.0680337950074
 20
156.8273422513035
 30
0.0
 10
129.5211220033229
 20
156.7066720685305
 30
0.0
 10
129.269344639486
 20
156.6374482093605
 30
0.0
 10
128.8079566468648
 20
156.4799964817198
 30
0.0
 10
128.5966873672667
 20
156.3906480070461
 30
0.0
 10
128.2333830148905
 20
156.1974001363453
 30
0.0
 10
128.0795763664477
 20
156.0932721444659
 30
0.0
 10
127.8909568968503
 20
155.9246477582825
 30
0.0
 10
127.8349264106412
 20
155.8660193566076
 30
0.0
 10
127.7393526489051
 20
155.7465644417813
 30
0.0
 10
127.6995897318801
 20
155.6856446529431
 30
0.0
 10
127.6038179815679
 20
155.4992399267692
 30
0.0
 10
127.5710951424418
 20
155.3701271089742
 30
0.0
 10
127.5704665561127
 20
155.1014701860183
 30
0.0
 10
127.6026527008475
 20
154.9660994452615
 30
0.0
 10
127.6975634027031
 20
154.7625491370256
 30
0.0
 10
127.737030186102
 20
154.6945772129621
 30
0.0
 10
127.8319601848229
 20
154.5584849898312
 30
0.0
 10
127.8877170125863
 20
154.4901348896218
 30
0.0
 10
128.0756571305562
 20
154.2894318765797
 30
0.0
 10
128.2290186002724
 20
154.160043602767
 30
0.0
 10
128.5912828351527
 20
153.9113781707171
 30
0.0
 10
128.8021313086186
 20
153.791568528349
 30
0.0
 10
129.2628012789376
 20
153.5740462407763
 30
0.0
 10
129.5141756585214
 20
153.4749611409404
 30
0.0
 10
130.0600835454195
 20
153.2982886670235
 30
0.0
 10
130.3509061200707
 20
153.2222315788895
 30
0.0
 10
130.9522327348508
 20
153.0993866015365
 30
0.0
 10
131.2667513194631
 20
153.0516804764834
 30
0.0
 10
131.9133327755831
 20
152.9874319413638
 30
0.0
 10
132.2402332733451
 20
152.9712204824628
 30
0.0
 10
132.5707785861214
 20
152.9712204824628
 30
0.0
  0
LINE
  5
A5
330
1F
100
AcDbEntity
  8
0
  6
Continuous
 62
     7
370
    25
100
AcDbLine
 10
128.5207785593
 20
140.9065927116
 30
0.0
 11
140.308750041
 21
140.9065927116
 31
0.0
  0
LINE
  5
A6
330
1F
100
AcDbEntity
  8
0
  6
Continuous
 62
     7
370
    25
100
AcDbLine
 10
140.308750041
 20
60.7815961091
 30
0.0
 11
140.308750041
 21
140.9065927116
 31
0.0
  0
LINE
  5
A7
330
1F
100
AcDbEntity
  8
0
  6
Continuous
 62
     7
370
    25
100
AcDbLine
 10
140.308750041
 20
60.7815961091
 30
0.0
 11
138.5207783358
 21
60.7815961091
 31
0.0
  0
SPLINE
  5
A8
330
1F
100
AcDbEntity
  8
0
  6
Continuous
 62
     7
370
    25
100
AcDbSpline
210
0.0
220
0.0
230
1.0
 70
     8
 71
     3
 72
    30
 73
    26
 74
     0
 42
0.000000001
 43
0.00000001
 40
0.0
 40
0.0
 40
0.0
 40
0.0
 40
0.1249999999999999
 40
0.1249999999999999
 40
0.1874999999999998
 40
0.1874999999999998
 40
0.2499999999999997
 40
0.2499999999999997
 40
0.3749999999999996
 40
0.3749999999999996
 40
0.4374999999999996
 40
0.4374999999999996
 40
0.4999999999999997
 40
0.4999999999999997
 40
0.6249999999999997
 40
0.6249999999999997
 40
0.6874999999999998
 40
0.6874999999999998
 40
0.7499999999999998
 40
0.7499999999999998
 40
0.8124999999999999
 40
0.8124999999999999
 40
0.875
 40
0.875
 40
1.0
 40
1.0
 40
1.0
 40
1.0
 10
138.5207785861214
 20
60.78159742580271
 30
0.0
 10
137.8581852390826
 20
60.78159742580271
 30
0.0
 10
137.2046773234753
 20
60.76670268387588
 30
0.0
 10
136.2434362243376
 20
60.72424111864332
 30
0.0
 10
135.9258702735619
 20
60.70673072410939
 30
0.0
 10
135.2965304311496
 20
60.66534577676089
 30
0.0
 10
134.9840533787067
 20
60.64137287849034
 30
0.0
 10
134.0757203963755
 20
60.56239597837845
 30
0.0
 10
133.5018862751464
 20
60.49997544054781
 30
0.0
 10
132.6877244317741
 20
60.39671029034996
 30
0.0
 10
132.4229183019959
 20
60.36049313279943
 30
0.0
 10
131.9157580953336
 20
60.28659482761486
 30
0.0
 10
131.6742910865487
 20
60.24907572206157
 30
0.0
 10
130.9850699120714
 20
60.13625172011246
 30
0.0
 10
130.5721457380355
 20
60.06067273687363
 30
0.0
 10
130.0244138491364
 20
59.9522730629336
 30
0.0
 10
129.8550147773879
 20
59.91718463589727
 30
0.0
 10
129.5472965176424
 20
59.85095526236612
 30
0.0
 10
129.4081113252947
 20
59.81964294011697
 30
0.0
 10
129.1587943246754
 20
59.76128449156533
 30
0.0
 10
129.0486619446795
 20
59.73423720520287
 30
0.0
 10
128.8580222181531
 20
59.68506947759097
 30
0.0
 10
128.7771962324433
 20
59.66284752446467
 30
0.0
 10
128.5844397213044
 20
59.60555707742577
 30
0.0
 10
128.5207785861214
 20
59.57968745608942
 30
0.0
 10
128.5207785861214
 20
59.56659201903154
 30
0.0
  0
LINE
  5
A9
330
1F
100
AcDbEntity
  8
0
  6
Continuous
 62
     7
370
    25
100
AcDbLine
 10
128.5207785593
 20
59.5665926782
 30
0.0
 11
128.5207785593
 21
59.5565902738
 31
0.0
  0
SPLINE
  5
AA
330
1F
100
AcDbEntity
  8
0
  6
Continuous
 62
     7
370
    25
100
AcDbSpline
210
0.0
220
0.0
230
1.0
 70
     8
 71
     3
 72
    17
 73
    13
 74
     0
 42
0.000000001
 43
0.00000001
 40
0.0
 40
0.0
 40
0.0
 40
0.0
 40
0.1043843958185158
 40
0.2118345569819801
 40
0.3162081801235555
 40
0.4235375330682647
 40
0.5292275935501746
 40
0.6379275752951962
 40
0.7444714855043735
 40
0.8541836194561564
 40
0.959308052615968
 40
1.0
 40
1.0
 40
1.0
 40
1.0
 10
138.5207783357819
 20
158.5463861672042
 30
0.0
 10
137.9728397952682
 20
158.551753607537
 30
0.0
 10
136.860869782194
 20
158.5626461297009
 30
0.0
 10
135.2480144496714
 20
158.6478283135189
 30
0.0
 10
133.7145012989338
 20
158.7741988168504
 30
0.0
 10
132.3234804105595
 20
158.9311026883593
 30
0.0
 10
131.0879632942614
 20
159.102798085795
 30
0.0
 10
130.064608148405
 20
159.268142940005
 30
0.0
 10
129.264265475546
 20
159.411847237837
 30
0.0
 10
128.7539339227859
 20
159.5100112337688
 30
0.0
 10
128.5140251643265
 20
159.5579325482416
 30
0.0
 10
128.545944076096
 20
159.5515660402279
 30
0.0
 10
128.5548514613529
 20
159.5497893838046
 30
0.0
  0
LINE
  5
AB
330
1F
100
AcDbEntity
  8
0
  6
Continuous
 62
     7
370
    25
100
AcDbLine
 10
140.308750041
 20
158.5463861672
 30
0.0
 11
138.5207783358
 21
158.5463861672
 31
0.0
  0
LINE
  5
AC
330
1F
100
AcDbEntity
  8
0
  6
Continuous
 62
     7
370
    25
100
AcDbLine
 10
140.308750041
 20
148.507552102
 30
0.0
 11
140.308750041
 21
158.5463861672
 31
0.0
  0
LINE
  5
AD
330
1F
100
AcDbEntity
  8
0
  6
Continuous
 62
     7
370
    25
100
AcDbLine
 10
138.2287453787
 20
148.507552102
 30
0.0
 11
140.308750041
 21
148.507552102
 31
0.0
  0
SPLINE
  5
AE
330
1F
100
AcDbEntity
  8
0
  6
Continuous
 62
     7
370
    25
100
AcDbSpline
210
0.0
220
0.0
230
1.0
 70
     8
 71
     3
 72
    22
 73
    18
 74
     0
 42
0.000000001
 43
0.00000001
 40
0.0
 40
0.0
 40
0.0
 40
0.0
 40
0.2500000000000002
 40
0.2500000000000002
 40
0.3750000000000003
 40
0.3750000000000003
 40
0.5000000000000004
 40
0.5000000000000004
 40
0.6250000000000004
 40
0.6250000000000004
 40
0.7500000000000004
 40
0.7500000000000004
 40
0.8750000000000004
 40
0.8750000000000004
 40
0.9375000000000002
 40
0.9375000000000002
 40
1.0
 40
1.0
 40
1.0
 40
1.0
 10
128.5207785861214
 20
140.9065910188315
 30
0.0
 10
128.7235035420405
 20
141.9258373606961
 30
0.0
 10
129.0382472638358
 20
142.8849455106354
 30
0.0
 10
129.7463027335068
 20
144.2274245881447
 30
0.0
 10
130.0247653637245
 20
144.6616331708847
 30
0.0
 10
130.6635327703617
 20
145.4732608863868
 30
0.0
 10
131.0239464501519
 20
145.8525411793237
 30
0.0
 10
131.8414786821411
 20
146.5554997583447
 30
0.0
 10
132.3026466654283
 20
146.8805285760453
 30
0.0
 10
133.3006369119121
 20
147.4455438994362
 30
0.0
 10
133.8403961059043
 20
147.6892474936427
 30
0.0
 10
135.0149890699357
 20
148.0934474212876
 30
0.0
 10
135.6267252559276
 20
148.2458846143331
 30
0.0
 10
136.5786344807892
 20
148.4012121619419
 30
0.0
 10
136.9018676450499
 20
148.4407169419919
 30
0.0
 10
137.5609308163252
 20
148.4940260626606
 30
0.0
 10
137.8949948268992
 20
148.5075537797184
 30
0.0
 10
138.2287454343007
 20
148.5075537797184
 30
0.0
  0
LINE
  5
AF
330
1F
100
AcDbEntity
  8
0
  6
Continuous
 62
     7
370
    25
100
AcDbLine
 10
141.6607789622
 20
63.1852018384
 30
0.0
 11
141.6607789622
 21
140.9065927116
 31
0.0
  0
SPLINE
  5
B0
330
1F
100
AcDbEntity
  8
0
  6
Continuous
 62
     7
370
    25
100
AcDbSpline
210
0.0
220
0.0
230
1.0
 70
     8
 71
     3
 72
     8
 73
     4
 74
     0
 42
0.000000001
 43
0.00000001
 40
0.0
 40
0.0
 40
0.0
 40
0.0
 40
1.0
 40
1.0
 40
1.0
 40
1.0
 10
141.6607785861214
 20
63.18520273180804
 30
0.0
 10
141.2105521218436
 20
62.38374736918328
 30
0.0
 10
140.7598542946002
 20
61.58255735762261
 30
0.0
 10
140.3087495652
 20
60.7815974258027
 30
0.0
  0
SPLINE
  5
B1
330
1F
100
AcDbEntity
  8
0
  6
Continuous
 62
     7
370
    25
100
AcDbSpline
210
0.0
220
0.0
230
1.0
 70
    24
 71
     3
 72
     8
 73
     4
 74
     0
 42
0.000000001
 43
0.00000001
 40
0.0
 40
0.0
 40
0.0
 40
0.0
 40
1.0
 40
1.0
 40
1.0
 40
1.0
 10
140.3087495652
 20
140.9065910188315
 30
0.0
 10
140.7655511375282
 20
140.9065910188315
 30
0.0
 10
141.2165657037675
 20
140.9065910188315
 30
0.0
 10
141.6607785861214
 20
140.9065910188315
 30
0.0
  0
LINE
  5
B2
330
1F
100
AcDbEntity
  8
0
  6
Continuous
 62
     7
370
    25
100
AcDbLine
 10
151.520778604
 20
60.7815961091
 30
0.0
 11
146.8328080998
 21
60.7815961091
 31
0.0
  0
LINE
  5
B3
330
1F
100
AcDbEntity
  8
0
  6
Continuous
 62
     7
370
    25
100
AcDbLine
 10
146.8328080998
 20
60.7815961091
 30
0.0
 11
146.8328080998
 21
140.9065927116
 31
0.0
  0
LINE
  5
B4
330
1F
100
AcDbEntity
  8
0
  6
Continuous
 62
     7
370
    25
100
AcDbLine
 10
146.8328080998
 20
140.9065927116
 30
0.0
 11
151.520778604
 21
140.9065927116
 31
0.0
  0
SPLINE
  5
B5
330
1F
100
AcDbEntity
  8
0
  6
Continuous
 62
     7
370
    25
100
AcDbSpline
210
0.0
220
0.0
230
1.0
 70
     8
 71
     3
 72
     8
 73
     4
 74
     0
 42
0.000000001
 43
0.00000001
 40
0.0
 40
0.0
 40
0.0
 40
0.0
 40
1.0
 40
1.0
 40
1.0
 40
1.0
 10
146.8328076070428
 20
60.7815974258027
 30
0.0
 10
146.3817028776426
 20
61.58255735762261
 30
0.0
 10
145.9310050503992
 20
62.38374736918328
 30
0.0
 10
145.4807785861214
 20
63.18520273180804
 30
0.0
  0
LINE
  5
B6
330
1F
100
AcDbEntity
  8
0
  6
Continuous
 62
     7
370
    25
100
AcDbLine
 10
145.4807791786
 20
63.1852018384
 30
0.0
 11
145.4807791786
 21
140.9065927116
 31
0.0
  0
SPLINE
  5
B7
330
1F
100
AcDbEntity
  8
0
  6
Continuous
 62
     7
370
    25
100
AcDbSpline
210
0.0
220
0.0
230
1.0
 70
    24
 71
     3
 72
     8
 73
     4
 74
     0
 42
0.000000001
 43
0.00000001
 40
0.0
 40
0.0
 40
0.0
 40
0.0
 40
1.0
 40
1.0
 40
1.0
 40
1.0
 10
145.4807785861214
 20
140.9065910188315
 30
0.0
 10
145.9249914684754
 20
140.9065910188315
 30
0.0
 10
146.3760060347145
 20
140.9065910188315
 30
0.0
 10
146.8328076070428
 20
140.9065910188315
 30
0.0
  0
LINE
  5
B8
330
1F
100
AcDbEntity
  8
0
  6
Continuous
 62
     7
370
    25
100
AcDbLine
 10
123.5707785861
 20
60.0565912871
 30
0.0
 11
123.5707785861
 21
159.0565907506
 31
0.0
  0
LINE
  5
B9
330
1F
100
AcDbEntity
  8
0
  6
Continuous
 62
     7
370
    25
100
AcDbLine
 10
152.5207787679
 20
61.8072467593
 30
0.0
 11
152.5207787679
 21
140.9065927116
 31
0.0
  0
SPLINE
  5
BA
330
1F
100
AcDbEntity
  8
0
  6
Continuous
 62
     7
370
    25
100
AcDbSpline
210
0.0
220
0.0
230
1.0
 70
     8
 71
     3
 72
    14
 73
    10
 74
     0
 42
0.000000001
 43
0.00000001
 40
0.0
 40
0.0
 40
0.0
 40
0.0
 40
0.25
 40
0.25
 40
0.5
 40
0.5
 40
0.75
 40
0.75
 40
1.0
 40
1.0
 40
1.0
 40
1.0
 10
152.5207785861214
 20
61.80724547357821
 30
0.0
 10
152.5207785861214
 20
61.67381977752367
 30
0.0
 10
152.4954674862105
 20
61.54197196967932
 30
0.0
 10
152.3971327223658
 20
61.29544942098521
 30
0.0
 10
152.3239887181097
 20
61.18164423274467
 30
0.0
 10
152.140550657014
 20
60.9911870557974
 30
0.0
 10
152.0288643226754
 20
60.91355219194748
 30
0.0
 10
151.7863608923691
 20
60.80926078183501
 30
0.0
 10
151.6529864636749
 20
60.78159742580266
 30
0.0
 10
151.5207785861214
 20
60.78159742580267
 30
0.0
  0
SPLINE
  5
BB
330
1F
100
AcDbEntity
  8
0
  6
Continuous
 62
     7
370
    25
100
AcDbSpline
210
0.0
220
0.0
230
1.0
 70
    24
 71
     3
 72
    12
 73
     8
 74
     0
 42
0.000000001
 43
0.00000001
 40
0.0
 40
0.0
 40
0.0
 40
0.0
 40
0.2500000000000032
 40
0.2500000000000032
 40
0.5000000000000064
 40
0.5000000000000064
 40
1.0
 40
1.0
 40
1.0
 40
1.0
 10
151.5207785861214
 20
140.9065910188315
 30
0.0
 10
151.6728688230664
 20
140.9065910188315
 30
0.0
 10
151.8213280841418
 20
140.9065910188315
 30
0.0
 10
152.0787317164075
 20
140.9065910188315
 30
0.0
 10
152.1878364642494
 20
140.9065910188315
 30
0.0
 10
152.441895940657
 20
140.9065910188315
 30
0.0
 10
152.5207785861214
 20
140.9065910188315
 30
0.0
 10
152.5207785861214
 20
140.9065910188315
 30
0.0
  0
SPLINE
  5
BC
330
1F
100
AcDbEntity
  8
0
  6
Continuous
 62
     7
370
    25
100
AcDbSpline
210
0.0
220
0.0
230
1.0
 70
     8
 71
     3
 72
    12
 73
     8
 74
     0
 42
0.000000001
 43
0.00000001
 40
0.0
 40
0.0
 40
0.0
 40
0.0
 40
0.25
 40
0.25
 40
0.5
 40
0.5
 40
1.0
 40
1.0
 40
1.0
 40
1.0
 10
142.4607785861214
 20
64.91691556078186
 30
0.0
 10
142.3550179327725
 20
64.91691556078186
 30
0.0
 10
142.2470303045895
 20
64.89437605478146
 30
0.0
 10
142.0524356393239
 20
64.80980542278614
 30
0.0
 10
141.9635637264851
 20
64.74732377002736
 30
0.0
 10
141.7443714341592
 20
64.51793481855519
 30
0.0
 10
141.6607785861214
 20
64.3053514810328
 30
0.0
 10
141.6607785861214
 20
64.0934122364366
 30
0.0
  0
SPLINE
  5
BD
330
1F
100
AcDbEntity
  8
0
  6
Continuous
 62
     7
370
    25
100
AcDbSpline
210
0.0
220
0.0
230
1.0
 70
    24
 71
     3
 72
    14
 73
    10
 74
     0
 42
0.000000001
 43
0.00000001
 40
0.0
 40
0.0
 40
0.0
 40
0.0
 40
0.25
 40
0.25
 40
0.5
 40
0.5
 40
0.75
 40
0.75
 40
1.0
 40
1.0
 40
1.0
 40
1.0
 10
141.6607785861214
 20
140.9065910188315
 30
0.0
 10
141.6607785861214
 20
140.9065910188315
 30
0.0
 10
141.6764929065873
 20
140.9065910188315
 30
0.0
 10
141.7401768850557
 20
140.9065910188315
 30
0.0
 10
141.7887800794662
 20
140.9065910188315
 30
0.0
 10
141.9214636018918
 20
140.9065910188315
 30
0.0
 10
142.0065657062024
 20
140.9065910188315
 30
0.0
 10
142.2130079411125
 20
140.9065910188315
 30
0.0
 10
142.3370888827355
 20
140.9065910188315
 30
0.0
 10
142.4607785861214
 20
140.9065910188315
 30
0.0
  0
SPLINE
  5
BE
330
1F
100
AcDbEntity
  8
0
  6
Continuous
 62
     7
370
    25
100
AcDbSpline
210
0.0
220
0.0
230
1.0
 70
     8
 71
     3
 72
    14
 73
    10
 74
     0
 42
0.000000001
 43
0.00000001
 40
0.0
 40
0.0
 40
0.0
 40
0.0
 40
0.25
 40
0.25
 40
0.5
 40
0.5
 40
0.75
 40
0.75
 40
1.0
 40
1.0
 40
1.0
 40
1.0
 10
145.4807785861214
 20
64.0934122364366
 30
0.0
 10
145.4807785861214
 20
64.200456317431
 30
0.0
 10
145.4606608989632
 20
64.30569145767345
 30
0.0
 10
145.3821697096976
 20
64.50354194452113
 30
0.0
 10
145.3240130848964
 20
64.59459370808605
 30
0.0
 10
145.1774978292783
 20
64.74775980201083
 30
0.0
 10
145.0888552806373
 20
64.81005424822024
 30
0.0
 10
144.8931319578369
 20
64.89484803375622
 30
0.0
 10
144.787900766766
 20
64.91691556078186
 30
0.0
 10
144.6807785861214
 20
64.91691556078186
 30
0.0
  0
SPLINE
  5
BF
330
1F
100
AcDbEntity
  8
0
  6
Continuous
 62
     7
370
    25
100
AcDbSpline
210
0.0
220
0.0
230
1.0
 70
    24
 71
     3
 72
    14
 73
    10
 74
     0
 42
0.000000001
 43
0.00000001
 40
0.0
 40
0.0
 40
0.0
 40
0.0
 40
0.25
 40
0.25
 40
0.5
 40
0.5
 40
0.75
 40
0.75
 40
1.0
 40
1.0
 40
1.0
 40
1.0
 10
144.6807785861214
 20
140.9065910188315
 30
0.0
 10
144.8045483508865
 20
140.9065910188315
 30
0.0
 10
144.9289154548934
 20
140.9065910188315
 30
0.0
 10
145.1352719236195
 20
140.9065910188315
 30
0.0
 10
145.2206000670378
 20
140.9065910188315
 30
0.0
 10
145.3527921257531
 20
140.9065910188315
 30
0.0
 10
145.4014373695036
 20
140.9065910188315
 30
0.0
 10
145.4649731612324
 20
140.9065910188315
 30
0.0
 10
145.4807785861214
 20
140.9065910188315
 30
0.0
 10
145.4807785861214
 20
140.9065910188315
 30
0.0
  0
LINE
  5
C0
330
1F
100
AcDbEntity
  8
0
  6
Continuous
 62
     7
370
    25
100
AcDbLine
 10
144.6807786749
 20
64.9169142095
 30
0.0
 11
142.4607794659
 21
64.9169142095
 31
0.0
  0
LINE
  5
C1
330
1F
100
AcDbEntity
  8
0
  6
Continuous
 62
     7
370
    25
100
AcDbLine
 10
142.4607794659
 20
140.9065927116
 30
0.0
 11
144.6807786749
 21
140.9065927116
 31
0.0
  0
LINE
  5
C2
330
1F
100
AcDbEntity
  8
0
  6
Continuous
 62
     7
370
    25
100
AcDbLine
 10
88.7707780974
 20
73.2925775198
 30
0.0
 11
88.7707780974
 21
75.6872574536
 31
0.0
  0
SPLINE
  5
C3
330
1F
100
AcDbEntity
  8
0
  6
Continuous
 62
     7
370
    25
100
AcDbSpline
210
0.0
220
0.0
230
1.0
 70
     8
 71
     3
 72
    14
 73
    10
 74
     0
 42
0.000000001
 43
0.00000001
 40
0.0
 40
0.0
 40
0.0
 40
0.0
 40
0.25
 40
0.25
 40
0.5
 40
0.5
 40
0.75
 40
0.75
 40
1.0
 40
1.0
 40
1.0
 40
1.0
 10
87.76635611478441
 20
77.39010967508797
 30
0.0
 10
87.85512469272976
 20
77.23157554378002
 30
0.0
 10
87.97684253140866
 20
77.07913286689147
 30
0.0
 10
88.2118921412655
 20
76.78199824306255
 30
0.0
 10
88.3275223274824
 20
76.63731559944519
 30
0.0
 10
88.52792726091022
 20
76.35402639694178
 30
0.0
 10
88.61332755289453
 20
76.21547240390491
 30
0.0
 10
88.73503318661177
 20
75.9440883738714
 30
0.0
 10
88.77077858612441
 20
75.81195250523677
 30
0.0
 10
88.7707785861244
 20
75.687257753466
 30
0.0
  0
SPLINE
  5
C4
330
1F
100
AcDbEntity
  8
0
  6
Continuous
 62
     7
370
    25
100
AcDbSpline
210
0.0
220
0.0
230
1.0
 70
     8
 71
     3
 72
    14
 73
    10
 74
     0
 42
0.000000001
 43
0.00000001
 40
0.0
 40
0.0
 40
0.0
 40
0.0
 40
0.124999999999999
 40
0.124999999999999
 40
0.2499999999999981
 40
0.2499999999999981
 40
0.4999999999999952
 40
0.4999999999999952
 40
1.0
 40
1.0
 40
1.0
 40
1.0
 10
86.8707785861214
 20
78.01893961418807
 30
0.0
 10
86.93836088590588
 20
78.02609549928945
 30
0.0
 10
87.01084846365379
 20
78.02167102925047
 30
0.0
 10
87.14313957291972
 20
77.99196487148014
 30
0.0
 10
87.2004169523099
 20
77.9686805899019
 30
0.0
 10
87.35006737951018
 20
77.89119535005156
 30
0.0
 10
87.42378067503171
 20
77.8293435231502
 30
0.0
 10
87.61158865835792
 20
77.64466607050186
 30
0.0
 10
87.69562896471936
 20
77.51642314721066
 30
0.0
 10
87.76635611478564
 20
77.39010967508808
 30
0.0
  0
SPLINE
  5
C5
330
1F
100
AcDbEntity
  8
0
  6
Continuous
 62
     7
370
    25
100
AcDbSpline
210
0.0
220
0.0
230
1.0
 70
     8
 71
     3
 72
     8
 73
     4
 74
     0
 42
0.000000001
 43
0.00000001
 40
0.0
 40
0.0
 40
0.0
 40
0.0
 40
1.0
 40
1.0
 40
1.0
 40
1.0
 10
83.3261381980405
 20
77.6008910293963
 30
0.0
 10
84.49143650874939
 20
77.75607850128291
 30
0.0
 10
85.67605172278928
 20
77.89243713959324
 30
0.0
 10
86.8707785861214
 20
78.01893961418808
 30
0.0
  0
SPLINE
  5
C6
330
1F
100
AcDbEntity
  8
0
  6
Continuous
 62
     7
370
    25
100
AcDbSpline
210
0.0
220
0.0
230
1.0
 70
     8
 71
     3
 72
    14
 73
    10
 74
     0
 42
0.000000001
 43
0.00000001
 40
0.0
 40
0.0
 40
0.0
 40
0.0
 40
0.5000000000000002
 40
0.5000000000000002
 40
0.7500000000000003
 40
0.7500000000000003
 40
0.8750000000000001
 40
0.8750000000000001
 40
1.0
 40
1.0
 40
1.0
 40
1.0
 10
75.57070370209269
 20
77.31075885026638
 30
0.0
 10
76.87900526462641
 20
77.3177735740075
 30
0.0
 10
78.1840646392832
 20
77.33318215045199
 30
0.0
 10
80.12994069077148
 20
77.38707870591865
 30
0.0
 10
80.77663819451047
 20
77.41011027052134
 30
0.0
 10
81.74048055836481
 20
77.46105279539209
 30
0.0
 10
82.0607192502989
 20
77.4807877176253
 30
0.0
 10
82.69741447664128
 20
77.53027484609684
 30
0.0
 10
83.0141298849242
 20
77.5593396250261
 30
0.0
 10
83.32613819804052
 20
77.60089102939624
 30
0.0
  0
SPLINE
  5
C7
330
1F
100
AcDbEntity
  8
0
  6
Continuous
 62
     7
370
    25
100
AcDbSpline
210
0.0
220
0.0
230
1.0
 70
     8
 71
     3
 72
    12
 73
     8
 74
     0
 42
0.000000001
 43
0.00000001
 40
0.0
 40
0.0
 40
0.0
 40
0.0
 40
0.2499999999999992
 40
0.2499999999999992
 40
0.4999999999999984
 40
0.4999999999999984
 40
1.0
 40
1.0
 40
1.0
 40
1.0
 10
81.87077858612139
 20
141.6431139103279
 30
0.0
 10
81.35207976429318
 20
141.6756366851762
 30
0.0
 10
80.83036819108818
 20
141.6989334263467
 30
0.0
 10
79.78407617459263
 20
141.7367789407687
 30
0.0
 10
79.25940454892236
 20
141.7510474152649
 30
0.0
 10
77.68255852638313
 20
141.7852569027232
 30
0.0
 10
76.62760321183623
 20
141.7967564066671
 30
0.0
 10
75.570703702091
 20
141.8024231873966
 30
0.0
  0
SPLINE
  5
C8
330
1F
100
AcDbEntity
  8
0
  6
Continuous
 62
     7
370
    25
100
AcDbSpline
210
0.0
220
0.0
230
1.0
 70
     8
 71
     3
 72
    20
 73
    16
 74
     0
 42
0.000000001
 43
0.00000001
 40
0.0
 40
0.0
 40
0.0
 40
0.0
 40
0.2499999999999999
 40
0.2499999999999999
 40
0.4999999999999998
 40
0.4999999999999998
 40
0.7499999999999997
 40
0.7499999999999997
 40
0.8749999999999996
 40
0.8749999999999996
 40
0.9375000000000002
 40
0.9375000000000002
 40
0.9687500000000001
 40
0.9687500000000001
 40
1.0
 40
1.0
 40
1.0
 40
1.0
 10
83.7707785861214
 20
143.3011997558161
 30
0.0
 10
83.7707785861214
 20
143.1655174360693
 30
0.0
 10
83.72206679690476
 20
143.0244304499292
 30
0.0
 10
83.5529053736796
 20
142.7323587311987
 30
0.0
 10
83.43112495976126
 20
142.5807099891083
 30
0.0
 10
83.13357786501177
 20
142.2783015489551
 30
0.0
 10
82.95966525930898
 20
142.1257129128319
 30
0.0
 10
82.64025042542717
 20
141.9004421489896
 30
0.0
 10
82.52520964997991
 20
141.8257190544789
 30
0.0
 10
82.31812532596349
 20
141.7263086452218
 30
0.0
 10
82.2420174911571
 20
141.6947435528772
 30
0.0
 10
82.11062295160373
 20
141.6603001686843
 30
0.0
 10
82.06406973260229
 20
141.6512485969167
 30
0.0
 10
81.96773638152158
 20
141.6410729480782
 30
0.0
 10
81.91847695816612
 20
141.6401231894032
 30
0.0
 10
81.87077858611941
 20
141.6431139103178
 30
0.0
  0
LINE
  5
C9
330
1F
100
AcDbEntity
  8
0
  6
Continuous
 62
     7
370
    25
100
AcDbLine
 10
83.7707791404
 20
143.3011981396
 30
0.0
 11
83.7707791404
 21
145.5701048223
 31
0.0
  0
LINE
  5
CA
330
1F
100
AcDbEntity
  8
0
  6
Continuous
 62
     7
370
    25
100
AcDbLine
 10
121.070778642
 20
71.6743412165
 30
0.0
 11
121.070778642
 21
147.4388408212
 31
0.0
  0
SPLINE
  5
CB
330
1F
100
AcDbEntity
  8
0
  6
Continuous
 62
     7
370
    25
100
AcDbSpline
210
0.0
220
0.0
230
1.0
 70
     8
 71
     3
 72
    24
 73
    20
 74
     0
 42
0.000000001
 43
0.00000001
 40
0.0
 40
0.0
 40
0.0
 40
0.0
 40
0.0002934239329635
 40
0.0628079954843725
 40
0.1260453886222317
 40
0.1890746649056576
 40
0.2513200327496127
 40
0.3133304381321615
 40
0.3759158074016681
 40
0.4383740215105411
 40
0.5000631209931454
 40
0.5616593985498132
 40
0.6245050468179062
 40
0.6872231543007362
 40
0.7494953203649202
 40
0.811758388799549
 40
0.8747365576758938
 40
0.937898032705022
 40
1.0
 40
1.0
 40
1.0
 40
1.0
 10
102.0907342360934
 20
72.62534449974275
 30
0.0
 10
102.0905396923106
 20
72.62532080248215
 30
0.0
 10
102.0488971960549
 20
72.62024835517973
 30
0.0
 10
102.1939204082277
 20
72.63868964532584
 30
0.0
 10
102.5490376352462
 20
72.68129197409263
 30
0.0
 10
103.1536031888822
 20
72.749402307419
 30
0.0
 10
103.9600403472879
 20
72.82266762074693
 30
0.0
 10
104.9455174573092
 20
72.88718322405565
 30
0.0
 10
106.0771865986914
 20
72.92575013933492
 30
0.0
 10
107.2994795123538
 20
72.92943944118176
 30
0.0
 10
108.5668086583141
 20
72.8870210147876
 30
0.0
 10
109.8332939014111
 20
72.79876614853609
 30
0.0
 10
111.0494320322718
 20
72.67038054130508
 30
0.0
 10
112.1748414578875
 20
72.51773281463514
 30
0.0
 10
113.1522596511055
 20
72.35596243327014
 30
0.0
 10
113.9555243316231
 20
72.2034299967937
 30
0.0
 10
114.5440177406546
 20
72.07941635803282
 30
0.0
 10
114.93292447714
 20
71.99449476688218
 30
0.0
 10
114.9796852935103
 20
71.98376905857411
 30
0.0
 10
115.0028679446896
 20
71.97845156470514
 30
0.0
  0
SPLINE
  5
CC
330
1F
100
AcDbEntity
  8
0
  6
Continuous
 62
     7
370
    25
100
AcDbSpline
210
0.0
220
0.0
230
1.0
 70
     8
 71
     3
 72
    27
 73
    23
 74
     0
 42
0.000000001
 43
0.00000001
 40
0.0
 40
0.0
 40
0.0
 40
0.0
 40
0.0619954680688684
 40
0.1254397621813191
 40
0.1886583727463871
 40
0.2510346191260181
 40
0.313178255016169
 40
0.3756730771103761
 40
0.4382401025850776
 40
0.4998243385522818
 40
0.5615387009126923
 40
0.6240931220669997
 40
0.6867530144355031
 40
0.7488662870716932
 40
0.8111008374917862
 40
0.8742090103085037
 40
0.9448189516773847
 40
0.9756082665127763
 40
0.9877505319198249
 40
0.9999433694577685
 40
0.9999501670988248
 40
1.0
 40
1.0
 40
1.0
 40
1.0
 10
115.0027468727549
 20
147.1346857694743
 30
0.0
 10
114.9791752817959
 20
147.1293761844309
 30
0.0
 10
114.9314812348561
 20
147.1186329300307
 30
0.0
 10
114.539438141477
 20
147.0334060448542
 30
0.0
 10
113.9489254962902
 20
146.9088373638982
 30
0.0
 10
113.1448870482234
 20
146.7558884537282
 30
0.0
 10
112.1688122818232
 20
146.5941312511216
 30
0.0
 10
111.0470039689266
 20
146.4418978331863
 30
0.0
 10
109.8334723331507
 20
146.3141224793823
 30
0.0
 10
108.56864190232
 20
146.2262739613766
 30
0.0
 10
107.3005985306314
 20
146.1838859316806
 30
0.0
 10
106.0770912296977
 20
146.1876249672679
 30
0.0
 10
104.9435918840217
 20
146.2262135807964
 30
0.0
 10
103.9574872613929
 20
146.2906595142374
 30
0.0
 10
103.1488574189442
 20
146.3641682479432
 30
0.0
 10
102.5286288842305
 20
146.4341386932726
 30
0.0
 10
102.2104757024615
 20
146.472690085938
 30
0.0
 10
102.1148142568032
 20
146.4847611382375
 30
0.0
 10
102.093195427723
 20
146.4875215590323
 30
0.0
 10
102.0903544605812
 20
146.4878499403802
 30
0.0
 10
102.0900340849027
 20
146.4879048776469
 30
0.0
 10
102.090069645052
 20
146.4878987815911
 30
0.0
 10
102.0901009367426
 20
146.4878934172747
 30
0.0
  0
SPLINE
  5
CD
330
1F
100
AcDbEntity
  8
0
  6
Continuous
 62
     7
370
    25
100
AcDbSpline
210
0.0
220
0.0
230
1.0
 70
     8
 71
     3
 72
    20
 73
    16
 74
     0
 42
0.000000001
 43
0.00000001
 40
0.0
 40
0.0
 40
0.0
 40
0.0
 40
0.249999999999986
 40
0.249999999999986
 40
0.3749999999999789
 40
0.3749999999999789
 40
0.4374999999999789
 40
0.4374999999999789
 40
0.4999999999999789
 40
0.4999999999999789
 40
0.6249999999999835
 40
0.6249999999999835
 40
0.7499999999999879
 40
0.7499999999999879
 40
1.0
 40
1.0
 40
1.0
 40
1.0
 10
73.9615928178374
 20
78.8781078661308
 30
0.0
 10
73.9878650350508
 20
78.89742580721327
 30
0.0
 10
74.01854517730565
 20
78.91181451831504
 30
0.0
 10
74.09001604768757
 20
78.90491015647902
 30
0.0
 10
74.11804308473191
 20
78.89774415313062
 30
0.0
 10
74.17312667422941
 20
78.86804512642702
 30
0.0
 10
74.19401800278185
 20
78.85457148386568
 30
0.0
 10
74.23922665022731
 20
78.81937321834967
 30
0.0
 10
74.26363086262288
 20
78.79746498962241
 30
0.0
 10
74.33496318067431
 20
78.72534012962687
 30
0.0
 10
74.37685996549459
 20
78.6729995886768
 30
0.0
 10
74.44843592435046
 20
78.57551619677606
 30
0.0
 10
74.47926391416776
 20
78.52876242689764
 30
0.0
 10
74.56236384700334
 20
78.39546921105853
 30
0.0
 10
74.60721875237364
 20
78.31283181314332
 30
0.0
 10
74.64733082782621
 20
78.23372491835254
 30
0.0
  0
SPLINE
  5
CE
330
1F
100
AcDbEntity
  8
0
  6
Continuous
 62
     7
370
    25
100
AcDbSpline
210
0.0
220
0.0
230
1.0
 70
     8
 71
     3
 72
    14
 73
    10
 74
     0
 42
0.000000001
 43
0.00000001
 40
0.0
 40
0.0
 40
0.0
 40
0.0
 40
0.25
 40
0.25
 40
0.5
 40
0.5
 40
0.75
 40
0.75
 40
1.0
 40
1.0
 40
1.0
 40
1.0
 10
73.6707785861214
 20
79.05392127626358
 30
0.0
 10
73.6707785861214
 20
79.01267434523923
 30
0.0
 10
73.67938830250264
 20
78.97576737295675
 30
0.0
 10
73.710474482073
 20
78.91486731305734
 30
0.0
 10
73.73286403555706
 20
78.89068639351765
 30
0.0
 10
73.78760796673318
 20
78.85671880263439
 30
0.0
 10
73.82005820631836
 20
78.84679871866621
 30
0.0
 10
73.89005972104643
 20
78.84544750976136
 30
0.0
 10
73.92827022116896
 20
78.85360578645752
 30
0.0
 10
73.96159281784205
 20
78.8781078661256
 30
0.0
  0
LINE
  5
CF
330
1F
100
AcDbEntity
  8
0
  6
Continuous
 62
     7
370
    25
100
AcDbLine
 10
73.6707795338
 20
79.0539215056
 30
0.0
 11
73.6707795338
 21
140.0592605321
 31
0.0
  0
SPLINE
  5
D0
330
1F
100
AcDbEntity
  8
0
  6
Continuous
 62
     7
370
    25
100
AcDbSpline
210
0.0
220
0.0
230
1.0
 70
     8
 71
     3
 72
     9
 73
     5
 74
     0
 42
0.000000001
 43
0.00000001
 40
0.0
 40
0.0
 40
0.0
 40
0.0
 40
0.0592942499244465
 40
1.0
 40
1.0
 40
1.0
 40
1.0
 10
73.96159432098467
 20
140.2350737450478
 30
0.0
 10
73.9567113232859
 20
140.2383668847456
 30
0.0
 10
73.8743593632733
 20
140.2939058232086
 30
0.0
 10
73.80822870885801
 20
140.2366136200959
 30
0.0
 10
73.74601922199328
 20
140.1827185151932
 30
0.0
  0
SPLINE
  5
D1
330
1F
100
AcDbEntity
  8
0
  6
Continuous
 62
     7
370
    25
100
AcDbSpline
210
0.0
220
0.0
230
1.0
 70
     8
 71
     3
 72
     8
 73
     4
 74
     0
 42
0.000000001
 43
0.00000001
 40
0.0
 40
0.0
 40
0.0
 40
0.0
 40
1.0
 40
1.0
 40
1.0
 40
1.0
 10
73.6944122550576
 20
140.1668402624691
 30
0.0
 10
73.67906321642157
 20
140.1363302074732
 30
0.0
 10
73.6707785861214
 20
140.1000186519608
 30
0.0
 10
73.6707785861214
 20
140.0592607613994
 30
0.0
  0
SPLINE
  5
D2
330
1F
100
AcDbEntity
  8
0
  6
Continuous
 62
     7
370
    25
100
AcDbSpline
210
0.0
220
0.0
230
1.0
 70
     8
 71
     3
 72
    20
 73
    16
 74
     0
 42
0.000000001
 43
0.00000001
 40
0.0
 40
0.0
 40
0.0
 40
0.0
 40
0.2500000000000037
 40
0.2500000000000037
 40
0.3750000000000055
 40
0.3750000000000055
 40
0.5000000000000073
 40
0.5000000000000073
 40
0.5625000000000057
 40
0.5625000000000057
 40
0.625000000000004
 40
0.625000000000004
 40
0.7500000000000027
 40
0.7500000000000027
 40
1.0
 40
1.0
 40
1.0
 40
1.0
 10
74.64733082782382
 20
140.8794571193097
 30
0.0
 10
74.60733461
 20
140.8005787127522
 30
0.0
 10
74.56222098216233
 20
140.7174490660607
 30
0.0
 10
74.47896676779581
 20
140.5839604017098
 30
0.0
 10
74.4487474391753
 20
140.5380953458278
 30
0.0
 10
74.37665920403388
 20
140.4399037934229
 30
0.0
 10
74.33474188662278
 20
140.3875939738993
 30
0.0
 10
74.26349128207133
 20
140.3155880711648
 30
0.0
 10
74.23925546969201
 20
140.2938178588632
 30
0.0
 10
74.19365727950736
 20
140.2583432005342
 30
0.0
 10
74.17285478990765
 20
140.2449730163567
 30
0.0
 10
74.11791379148852
 20
140.2154031042215
 30
0.0
 10
74.08984480340172
 20
140.2082765819195
 30
0.0
 10
74.01934197333888
 20
140.2014022104368
 30
0.0
 10
73.98791788554801
 20
140.215717369524
 30
0.0
 10
73.96159281783942
 20
140.2350741715345
 30
0.0
  0
SPLINE
  5
D3
330
1F
100
AcDbEntity
  8
0
  6
Continuous
 62
     7
370
    25
100
AcDbSpline
210
0.0
220
0.0
230
1.0
 70
     8
 71
     3
 72
    10
 73
     6
 74
     0
 42
0.000000001
 43
0.00000001
 40
0.0
 40
0.0
 40
0.0
 40
0.0
 40
0.4999999999999989
 40
0.4999999999999989
 40
1.0
 40
1.0
 40
1.0
 40
1.0
 10
75.3207785861214
 20
141.8048762206515
 30
0.0
 10
75.1958903153712
 20
141.67387994258
 30
0.0
 10
75.07444019731076
 20
141.530167105915
 30
0.0
 10
74.84485622235331
 20
141.2195968132258
 30
0.0
 10
74.73458124695733
 20
141.0515277401627
 30
0.0
 10
74.64733082782382
 20
140.8794571193097
 30
0.0
  0
SPLINE
  5
D4
330
1F
100
AcDbEntity
  8
0
  6
Continuous
 62
     7
370
    25
100
AcDbSpline
210
0.0
220
0.0
230
1.0
 70
     8
 71
     3
 72
     8
 73
     4
 74
     0
 42
0.000000001
 43
0.00000001
 40
0.0
 40
0.0
 40
0.0
 40
0.0
 40
1.0
 40
1.0
 40
1.0
 40
1.0
 10
75.57070370208713
 20
141.8024231873961
 30
0.0
 10
75.48368567223878
 20
141.8028897521832
 30
0.0
 10
75.40073164585884
 20
141.8039297717593
 30
0.0
 10
75.32077858611909
 20
141.8048762206516
 30
0.0
  0
SPLINE
  5
D5
330
1F
100
AcDbEntity
  8
0
  6
Continuous
 62
     7
370
    25
100
AcDbSpline
210
0.0
220
0.0
230
1.0
 70
     8
 71
     3
 72
     8
 73
     4
 74
     0
 42
0.000000001
 43
0.00000001
 40
0.0
 40
0.0
 40
0.0
 40
0.0
 40
1.0
 40
1.0
 40
1.0
 40
1.0
 10
75.32077858611909
 20
77.30830581701143
 30
0.0
 10
75.40073164585937
 20
77.3092522659037
 30
0.0
 10
75.48368567223984
 20
77.31029228547982
 30
0.0
 10
75.57070370208882
 20
77.3107588502669
 30
0.0
  0
SPLINE
  5
D6
330
1F
100
AcDbEntity
  8
0
  6
Continuous
 62
     7
370
    25
100
AcDbSpline
210
0.0
220
0.0
230
1.0
 70
     8
 71
     3
 72
    10
 73
     6
 74
     0
 42
0.000000001
 43
0.00000001
 40
0.0
 40
0.0
 40
0.0
 40
0.0
 40
0.4999999999999989
 40
0.4999999999999989
 40
1.0
 40
1.0
 40
1.0
 40
1.0
 10
74.6473308278229
 20
78.23372491835511
 30
0.0
 10
74.73458124695637
 20
78.06165429750173
 30
0.0
 10
74.84485622235253
 20
77.89358522443828
 30
0.0
 10
75.07444019731035
 20
77.5830149317485
 30
0.0
 10
75.19589031537099
 20
77.4393020950832
 30
0.0
 10
75.3207785861214
 20
77.3083058170115
 30
0.0
  0
SPLINE
  5
D7
330
1F
100
AcDbEntity
  8
0
  6
Continuous
 62
     7
370
    25
100
AcDbSpline
210
0.0
220
0.0
230
1.0
 70
     8
 71
     3
 72
     8
 73
     4
 74
     0
 42
0.000000001
 43
0.00000001
 40
0.0
 40
0.0
 40
0.0
 40
0.0
 40
1.0
 40
1.0
 40
1.0
 40
1.0
 10
141.6607785861214
 20
156.1538618795364
 30
0.0
 10
141.2104703504368
 20
156.95157700465
 30
0.0
 10
140.7597765339133
 20
157.7490753043072
 30
0.0
 10
140.3087495652
 20
158.5463858744951
 30
0.0
  0
LINE
  5
D8
330
1F
100
AcDbEntity
  8
0
  6
Continuous
 62
     7
370
    25
100
AcDbLine
 10
141.6607789622
 20
145.4520391969
 30
0.0
 11
141.6607789622
 21
156.1538631765
 31
0.0
  0
SPLINE
  5
D9
330
1F
100
AcDbEntity
  8
0
  6
Continuous
 62
     7
370
    25
100
AcDbSpline
210
0.0
220
0.0
230
1.0
 70
     8
 71
     3
 72
     8
 73
     4
 74
     0
 42
0.000000001
 43
0.00000001
 40
0.0
 40
0.0
 40
0.0
 40
0.0
 40
1.0
 40
1.0
 40
1.0
 40
1.0
 10
140.3087495652
 20
148.5075537797184
 30
0.0
 10
140.7656759189995
 20
147.4916358100442
 30
0.0
 10
141.2168815608026
 20
146.472839980953
 30
0.0
 10
141.6607785861214
 20
145.4520385249693
 30
0.0
  0
SPLINE
  5
DA
330
1F
100
AcDbEntity
  8
0
  6
Continuous
 62
     7
370
    25
100
AcDbSpline
210
0.0
220
0.0
230
1.0
 70
     8
 71
     3
 72
    12
 73
     8
 74
     0
 42
0.000000001
 43
0.00000001
 40
0.0
 40
0.0
 40
0.0
 40
0.0
 40
0.4999999999999953
 40
0.4999999999999953
 40
0.7499999999999977
 40
0.7499999999999977
 40
1.0
 40
1.0
 40
1.0
 40
1.0
 10
152.5207785861214
 20
157.5253308396773
 30
0.0
 10
152.5207785861214
 20
157.7906002724437
 30
0.0
 10
152.4161718426349
 20
158.0531153780961
 30
0.0
 10
152.1395034908896
 20
158.3386529841334
 30
0.0
 10
152.0291382315376
 20
158.4149746009948
 30
0.0
 10
151.7850661829219
 20
158.519316765835
 30
0.0
 10
151.6533137215902
 20
158.5463858744951
 30
0.0
 10
151.5207785861214
 20
158.5463858744951
 30
0.0
  0
SPLINE
  5
DB
330
1F
100
AcDbEntity
  8
0
  6
Continuous
 62
     7
370
    25
100
AcDbSpline
210
0.0
220
0.0
230
1.0
 70
     8
 71
     3
 72
    16
 73
    12
 74
     0
 42
0.000000001
 43
0.00000001
 40
0.0
 40
0.0
 40
0.0
 40
0.0
 40
0.1249999999999978
 40
0.1249999999999978
 40
0.2499999999999955
 40
0.2499999999999955
 40
0.499999999999997
 40
0.499999999999997
 40
0.7499999999999984
 40
0.7499999999999984
 40
1.0
 40
1.0
 40
1.0
 40
1.0
 10
151.5207785861214
 20
148.5075537797184
 30
0.0
 10
151.5964162925326
 20
148.5075537797184
 30
0.0
 10
151.6727319569508
 20
148.4962087795835
 30
0.0
 10
151.8171426948427
 20
148.453556228945
 30
0.0
 10
151.8855891439512
 20
148.4226219042621
 30
0.0
 10
152.0805203965643
 20
148.3033655324946
 30
0.0
 10
152.1883615703452
 20
148.193213518874
 30
0.0
 10
152.3570743185572
 20
147.9450774332159
 30
0.0
 10
152.4194387312808
 20
147.8047351092122
 30
0.0
 10
152.5007426557892
 20
147.5164634177236
 30
0.0
 10
152.5207785861214
 20
147.3656584447438
 30
0.0
 10
152.5207785861214
 20
147.2152885533985
 30
0.0
  0
LINE
  5
DC
330
1F
100
AcDbEntity
  8
0
  6
Continuous
 62
     7
370
    25
100
AcDbLine
 10
152.5207787679
 20
147.2152898757
 30
0.0
 11
152.5207787679
 21
157.5253325252
 31
0.0
  0
SPLINE
  5
DD
330
1F
100
AcDbEntity
  8
0
  6
Continuous
 62
     7
370
    25
100
AcDbSpline
210
0.0
220
0.0
230
1.0
 70
     8
 71
     3
 72
    14
 73
    10
 74
     0
 42
0.000000001
 43
0.00000001
 40
0.0
 40
0.0
 40
0.0
 40
0.0
 40
0.25
 40
0.25
 40
0.5
 40
0.5
 40
0.75
 40
0.75
 40
1.0
 40
1.0
 40
1.0
 40
1.0
 10
145.4807785861214
 20
155.2501422596795
 30
0.0
 10
145.4807785861214
 20
155.1437855659271
 30
0.0
 10
145.4603910299801
 20
155.037945078167
 30
0.0
 10
145.3817566845186
 20
154.8413801646306
 30
0.0
 10
145.32302532488
 20
154.7502094223435
 30
0.0
 10
145.1764164192774
 20
154.5982983333118
 30
0.0
 10
145.0870110992509
 20
154.5362294964923
 30
0.0
 10
144.8931203666505
 20
154.4529614487336
 30
0.0
 10
144.7866153767607
 20
154.4308667790039
 30
0.0
 10
144.6807785861214
 20
154.4308667790039
 30
0.0
  0
SPLINE
  5
DE
330
1F
100
AcDbEntity
  8
0
  6
Continuous
 62
     7
370
    25
100
AcDbSpline
210
0.0
220
0.0
230
1.0
 70
     8
 71
     3
 72
    12
 73
     8
 74
     0
 42
0.000000001
 43
0.00000001
 40
0.0
 40
0.0
 40
0.0
 40
0.0
 40
0.250000000000002
 40
0.250000000000002
 40
0.500000000000004
 40
0.500000000000004
 40
1.0
 40
1.0
 40
1.0
 40
1.0
 10
144.6807785861214
 20
143.185122431904
 30
0.0
 10
144.8044795361014
 20
143.185122431904
 30
0.0
 10
144.9285761483716
 20
143.2271160436365
 30
0.0
 10
145.1352313114586
 20
143.3649113702809
 30
0.0
 10
145.2202720781854
 20
143.4588849687458
 30
0.0
 10
145.4197506466591
 20
143.7736731749667
 30
0.0
 10
145.4807785861214
 20
144.0239121671943
 30
0.0
 10
145.4807785861214
 20
144.2708262113286
 30
0.0
  0
SPLINE
  5
DF
330
1F
100
AcDbEntity
  8
0
  6
Continuous
 62
     7
370
    25
100
AcDbSpline
210
0.0
220
0.0
230
1.0
 70
     8
 71
     3
 72
     8
 73
     4
 74
     0
 42
0.000000001
 43
0.00000001
 40
0.0
 40
0.0
 40
0.0
 40
0.0
 40
1.0
 40
1.0
 40
1.0
 40
1.0
 10
146.8328076070428
 20
158.5463858744951
 30
0.0
 10
146.3817806383296
 20
157.7490753043072
 30
0.0
 10
145.9310868218059
 20
156.95157700465
 30
0.0
 10
145.4807785861214
 20
156.1538618795364
 30
0.0
  0
LINE
  5
E0
330
1F
100
AcDbEntity
  8
0
  6
Continuous
 62
     7
370
    25
100
AcDbLine
 10
146.8328080998
 20
148.507552102
 30
0.0
 11
146.8328080998
 21
158.5463861672
 31
0.0
  0
SPLINE
  5
E1
330
1F
100
AcDbEntity
  8
0
  6
Continuous
 62
     7
370
    25
100
AcDbSpline
210
0.0
220
0.0
230
1.0
 70
     8
 71
     3
 72
     8
 73
     4
 74
     0
 42
0.000000001
 43
0.00000001
 40
0.0
 40
0.0
 40
0.0
 40
0.0
 40
1.0
 40
1.0
 40
1.0
 40
1.0
 10
145.4807785861214
 20
145.4520385249693
 30
0.0
 10
145.9249285971469
 20
146.473421755921
 30
0.0
 10
146.3760029074048
 20
147.4919062926893
 30
0.0
 10
146.8328076070428
 20
148.5075537797184
 30
0.0
  0
LINE
  5
E2
330
1F
100
AcDbEntity
  8
0
  6
Continuous
 62
     7
370
    25
100
AcDbLine
 10
145.4807791786
 20
145.4520391969
 30
0.0
 11
145.4807791786
 21
156.1538631765
 31
0.0
  0
SPLINE
  5
E3
330
1F
100
AcDbEntity
  8
0
  6
Continuous
 62
     7
370
    25
100
AcDbSpline
210
0.0
220
0.0
230
1.0
 70
     8
 71
     3
 72
    10
 73
     6
 74
     0
 42
0.000000001
 43
0.00000001
 40
0.0
 40
0.0
 40
0.0
 40
0.0
 40
0.5
 40
0.5
 40
1.0
 40
1.0
 40
1.0
 40
1.0
 10
142.4607785861214
 20
154.4308667790039
 30
0.0
 10
142.248242272265
 20
154.4308667790039
 30
0.0
 10
142.038306100611
 20
154.5222793656341
 30
0.0
 10
141.7445989595998
 20
154.8270242315383
 30
0.0
 10
141.6607785861214
 20
155.0391792014469
 30
0.0
 10
141.6607785861214
 20
155.2501422596795
 30
0.0
  0
SPLINE
  5
E4
330
1F
100
AcDbEntity
  8
0
  6
Continuous
 62
     7
370
    25
100
AcDbSpline
210
0.0
220
0.0
230
1.0
 70
     8
 71
     3
 72
    14
 73
    10
 74
     0
 42
0.000000001
 43
0.00000001
 40
0.0
 40
0.0
 40
0.0
 40
0.0
 40
0.25
 40
0.25
 40
0.5
 40
0.5
 40
0.75
 40
0.75
 40
1.0
 40
1.0
 40
1.0
 40
1.0
 10
141.6607785861214
 20
144.2708262113286
 30
0.0
 10
141.6607785861214
 20
144.1469593345394
 30
0.0
 10
141.676637713749
 20
144.0226996577018
 30
0.0
 10
141.7399993592689
 20
143.785091295296
 30
0.0
 10
141.7885890673182
 20
143.6683109105435
 30
0.0
 10
141.9208746720931
 20
143.4595083819345
 30
0.0
 10
142.0061994633537
 20
143.3649976783419
 30
0.0
 10
142.2130907116598
 20
143.2270408775396
 30
0.0
 10
142.3370586575499
 20
143.1851224319039
 30
0.0
 10
142.4607785861214
 20
143.1851224319039
 30
0.0
  0
LINE
  5
E5
330
1F
100
AcDbEntity
  8
0
  6
Continuous
 62
     7
370
    25
100
AcDbLine
 10
141.6607789622
 20
145.4520391969
 30
0.0
 11
141.6607789622
 21
144.2708278743
 31
0.0
  0
LINE
  5
E6
330
1F
100
AcDbEntity
  8
0
  6
Continuous
 62
     7
370
    25
100
AcDbLine
 10
142.4607794659
 20
143.1851218192
 30
0.0
 11
144.6807786749
 21
143.1851218192
 31
0.0
  0
LINE
  5
E7
330
1F
100
AcDbEntity
  8
0
  6
Continuous
 62
     7
370
    25
100
AcDbLine
 10
145.4807791786
 20
144.2708278743
 30
0.0
 11
145.4807791786
 21
145.4520391969
 31
0.0
  0
LINE
  5
E8
330
1F
100
AcDbEntity
  8
0
  6
Continuous
 62
     7
370
    25
100
AcDbLine
 10
146.8328080998
 20
148.507552102
 30
0.0
 11
151.520778604
 21
148.507552102
 31
0.0
  0
LINE
  5
E9
330
1F
100
AcDbEntity
  8
0
  6
Continuous
 62
     7
370
    25
100
AcDbLine
 10
152.5207787679
 20
147.2152898757
 30
0.0
 11
152.5207787679
 21
140.9065927116
 31
0.0
  0
LINE
  5
EA
330
1F
100
AcDbEntity
  8
0
  6
Continuous
 62
     7
370
    25
100
AcDbLine
 10
151.520778604
 20
158.5463861672
 30
0.0
 11
146.8328080998
 21
158.5463861672
 31
0.0
  0
LINE
  5
EB
330
1F
100
AcDbEntity
  8
0
  6
Continuous
 62
     7
370
    25
100
AcDbLine
 10
144.6807786749
 20
154.4308679847
 30
0.0
 11
142.4607794659
 21
154.4308679847
 31
0.0
  0
ARC
  5
EC
330
1F
100
AcDbEntity
  8
0
  6
Continuous
 62
     7
370
    25
100
AcDbCircle
 10
132.5717652072
 20
142.2021186763
 30
0.0
 40
11.37207645935731
100
AcDbArc
 50
77.9693001548
 51
102.3697064773
  0
LINE
  5
ED
330
1F
100
AcDbEntity
  8
0
  6
Continuous
 62
     7
370
    25
100
AcDbLine
 10
172.5207801835
 20
109.5565910188
 30
0.0
 11
172.5207801835
 21
87.0565901248
 31
0.0
  0
LINE
  5
EE
330
1F
100
AcDbEntity
  8
0
  6
Continuous
 62
     7
370
    25
100
AcDbLine
 10
172.5207801835
 20
132.0565919129
 30
0.0
 11
172.5207801835
 21
109.5565910188
 31
0.0
  0
SPLINE
  5
EF
330
1F
100
AcDbEntity
  8
0
  6
Continuous
 62
     7
370
    25
100
AcDbSpline
210
0.0
220
0.0
230
1.0
 70
     8
 71
     3
 72
    17
 73
    13
 74
     0
 42
0.000000001
 43
0.00000001
 40
0.0
 40
0.0
 40
0.0
 40
0.0
 40
0.0518565215743769
 40
0.1408207853374709
 40
0.2339265678570231
 40
0.3367506164475196
 40
0.450670367477745
 40
0.572525667163579
 40
0.6968692160223611
 40
0.8176296373630061
 40
0.9277143531126957
 40
1.0
 40
1.0
 40
1.0
 40
1.0
 10
166.9785167948922
 20
132.0514435617087
 30
0.0
 10
166.9847673839461
 20
132.052191657529
 30
0.0
 10
167.0017413890023
 20
132.054223175219
 30
0.0
 10
166.6719922095349
 20
132.0145663458437
 30
0.0
 10
166.0608941095876
 20
131.9512464176957
 30
0.0
 10
165.1570231248119
 20
131.8807012681153
 30
0.0
 10
164.0184761698045
 20
131.8341535398631
 30
0.0
 10
162.7530735109781
 20
131.8395230209043
 30
0.0
 10
161.5416450612618
 20
131.9021003000764
 30
0.0
 10
160.6094474672084
 20
131.9869711733445
 30
0.0
 10
160.0792976260133
 20
132.0493018343043
 30
0.0
 10
160.0620287873267
 20
132.0515345946097
 30
0.0
 10
160.0551839844902
 20
132.0524195877669
 30
0.0
  0
SPLINE
  5
F0
330
1F
100
AcDbEntity
  8
0
  6
Continuous
 62
     7
370
    25
100
AcDbSpline
210
0.0
220
0.0
230
1.0
 70
    11
 71
     3
 72
    70
 73
    66
 74
     0
 42
0.000000001
 43
0.00000001
 40
0.0
 40
0.0
 40
0.0
 40
0.0
 40
0.03125
 40
0.03125
 40
0.0625
 40
0.0625
 40
0.09375
 40
0.09375
 40
0.125
 40
0.125
 40
0.15625
 40
0.15625
 40
0.1875
 40
0.1875
 40
0.21875
 40
0.21875
 40
0.25
 40
0.25
 40
0.28125
 40
0.28125
 40
0.3125
 40
0.3125
 40
0.34375
 40
0.34375
 40
0.375
 40
0.375
 40
0.40625
 40
0.40625
 40
0.4375
 40
0.4375
 40
0.46875
 40
0.46875
 40
0.5
 40
0.5
 40
0.53125
 40
0.53125
 40
0.5625
 40
0.5625
 40
0.59375
 40
0.59375
 40
0.625
 40
0.625
 40
0.65625
 40
0.65625
 40
0.6875
 40
0.6875
 40
0.71875
 40
0.71875
 40
0.75
 40
0.75
 40
0.78125
 40
0.78125
 40
0.8125
 40
0.8125
 40
0.84375
 40
0.84375
 40
0.875
 40
0.875
 40
0.90625
 40
0.90625
 40
0.9375
 40
0.9375
 40
0.96875
 40
0.96875
 40
1.0
 40
1.0
 40
1.0
 40
1.0
 10
161.1621980691237
 20
111.8582784815267
 30
0.0
 10
161.3313498016412
 20
111.9963890170844
 30
0.0
 10
161.5108705633782
 20
112.1162606134455
 30
0.0
 10
161.8887835850401
 20
112.3229744196745
 30
0.0
 10
162.0885892534967
 20
112.4102308125132
 30
0.0
 10
162.5010889979494
 20
112.5490678267283
 30
0.0
 10
162.7109886802254
 20
112.5999945497387
 30
0.0
 10
163.1377792960574
 20
112.6665232106053
 30
0.0
 10
163.3566836037454
 20
112.682011886332
 30
0.0
 10
163.7907924114643
 20
112.6760872565002
 30
0.0
 10
164.0054255460136
 20
112.655093905933
 30
0.0
 10
164.429897857507
 20
112.5773656776587
 30
0.0
 10
164.6417812202401
 20
112.5197889188001
 30
0.0
 10
165.0484773089805
 20
112.3702100098703
 30
0.0
 10
165.2431920400784
 20
112.2787567609939
 30
0.0
 10
165.6150122154777
 20
112.061714672304
 30
0.0
 10
165.7940057491569
 20
111.9343655414771
 30
0.0
 10
166.120729900372
 20
111.6508671633479
 30
0.0
 10
166.2687220455915
 20
111.4953019186798
 30
0.0
 10
166.5323131706069
 20
111.1549134630783
 30
0.0
 10
166.6489370090462
 20
110.9673254393215
 30
0.0
 10
166.8351555118412
 20
110.5774254686817
 30
0.0
 10
166.9061628381441
 20
110.3743125704776
 30
0.0
 10
167.0010157462004
 20
109.9506250387347
 30
0.0
 10
167.0237185865503
 20
109.7310748181944
 30
0.0
 10
167.0172134811034
 20
109.2990788206512
 30
0.0
 10
166.9880784542299
 20
109.0809781014685
 30
0.0
 10
166.8804569730576
 20
108.6590526385648
 30
0.0
 10
166.8031699169312
 20
108.4569703625189
 30
0.0
 10
166.6040712669609
 20
108.0696024735171
 30
0.0
 10
166.4831010367897
 20
107.886963247471
 30
0.0
 10
166.2089708390734
 20
107.5524139142445
 30
0.0
 10
166.0531194873077
 20
107.3974270212099
 30
0.0
 10
165.7176631149606
 20
107.1222534758665
 30
0.0
 10
165.5383788891908
 20
107.0016352106935
 30
0.0
 10
165.1578448983574
 20
106.7924920482224
 30
0.0
 10
164.9566451592194
 20
106.7045222752991
 30
0.0
 10
164.5470942875944
 20
106.5660192905231
 30
0.0
 10
164.3369878165263
 20
106.5144424644865
 30
0.0
 10
163.906045863518
 20
106.4467631148495
 30
0.0
 10
163.6883225925855
 20
106.43138133172
 30
0.0
 10
163.2564990702749
 20
106.4367637028367
 30
0.0
 10
163.0411361150791
 20
106.4573162947694
 30
0.0
 10
162.6115540781578
 20
106.5356926986225
 30
0.0
 10
162.4017269231179
 20
106.5928748269662
 30
0.0
 10
161.9971901848315
 20
106.7412639984179
 30
0.0
 10
161.8015784438463
 20
106.8326064469226
 30
0.0
 10
161.4247256524971
 20
107.0524726830426
 30
0.0
 10
161.2480563577898
 20
107.1785388994331
 30
0.0
 10
160.9231955923601
 20
107.460100763011
 30
0.0
 10
160.7741618335149
 20
107.6160201373576
 30
0.0
 10
160.5063243425436
 20
107.9621864904798
 30
0.0
 10
160.3926643028716
 20
108.1458995279559
 30
0.0
 10
160.207045895933
 20
108.5342728365318
 30
0.0
 10
160.1343952505246
 20
108.7419514176547
 30
0.0
 10
160.0398325691604
 20
109.1671291360087
 30
0.0
 10
160.0177427279438
 20
109.382044506615
 30
0.0
 10
160.0244764432896
 20
109.816580913791
 30
0.0
 10
160.0542137317979
 20
110.0359017483604
 30
0.0
 10
160.1616738256588
 20
110.4555520361897
 30
0.0
 10
160.2405141896736
 20
110.6611947726827
 30
0.0
 10
160.440256319102
 20
111.0481037734918
 30
0.0
 10
160.5599808158383
 20
111.2285432637967
 30
0.0
 10
160.8365798415242
 20
111.5651687105961
 30
0.0
 10
160.9930463366062
 20
111.7201679459691
 30
0.0
 10
161.1621980691237
 20
111.8582784815267
 30
0.0
  0
SPLINE
  5
F1
330
1F
100
AcDbEntity
  8
0
  6
Continuous
 62
     7
370
    25
100
AcDbSpline
210
0.0
220
0.0
230
1.0
 70
     8
 71
     3
 72
    17
 73
    13
 74
     0
 42
0.000000001
 43
0.00000001
 40
0.0
 40
0.0
 40
0.0
 40
0.0
 40
0.0498253157792073
 40
0.1387859387246883
 40
0.2317192506254195
 40
0.3342857434371323
 40
0.4479703753975414
 40
0.569700511521238
 40
0.6940490580159978
 40
0.8149686734446404
 40
0.9253602811543246
 40
1.0
 40
1.0
 40
1.0
 40
1.0
 10
160.0635323600491
 20
87.06179994324422
 30
0.0
 10
160.0563406662432
 20
87.06093443177829
 30
0.0
 10
160.0363085608716
 20
87.0585235926416
 30
0.0
 10
160.3589336757072
 20
87.09739969866968
 30
0.0
 10
160.9631508960654
 20
87.16029021110545
 30
0.0
 10
161.8610309319275
 20
87.23101754672543
 30
0.0
 10
162.9949764841896
 20
87.27845689718102
 30
0.0
 10
164.2594040714055
 20
87.27447112300466
 30
0.0
 10
165.4743501192744
 20
87.2129693025562
 30
0.0
 10
166.4151075752923
 20
87.12804375180802
 30
0.0
 10
166.9571941668067
 20
87.06451955848102
 30
0.0
 10
166.9793718045325
 20
87.06167117645211
 30
0.0
 10
166.9883180336674
 20
87.06052216867185
 30
0.0
  0
CIRCLE
  5
F2
330
1F
100
AcDbEntity
  8
0
  6
Continuous
 62
     7
370
    25
100
AcDbCircle
 10
163.5207785861
 20
109.5565910188
 30
0.0
 40
2.5
  0
LINE
  5
F3
330
1F
100
AcDbEntity
  8
0
  6
Continuous
 62
     7
370
    25
100
AcDbLine
 10
75.3207776622
 20
77.3065927176
 30
0.0
 11
75.3207776622
 21
77.3083063511
 31
0.0
  0
LINE
  5
F4
330
1F
100
AcDbEntity
  8
0
  6
Continuous
 62
     7
370
    25
100
AcDbLine
 10
75.3207776622
 20
141.8065893201
 30
0.0
 11
75.3207776622
 21
141.8048756866
 31
0.0
  0
LINE
  5
F5
330
1F
100
AcDbEntity
  8
0
  6
Continuous
 62
     7
370
    25
100
AcDbLine
 10
208.4675144331
 20
122.6026088668
 30
0.0
 11
220.1932754295
 21
122.6026088668
 31
0.0
  0
LINE
  5
F6
330
1F
100
AcDbEntity
  8
0
  6
Continuous
 62
     7
370
    25
100
AcDbLine
 10
220.1932754295
 20
103.896532554
 30
0.0
 11
220.1932754295
 21
122.6026088668
 31
0.0
  0
LINE
  5
F7
330
1F
100
AcDbEntity
  8
0
  6
Continuous
 62
     7
370
    25
100
AcDbLine
 10
208.4675144331
 20
103.896532554
 30
0.0
 11
220.1932754295
 21
103.896532554
 31
0.0
  0
SPLINE
  5
F8
330
1F
100
AcDbEntity
  8
0
  6
Continuous
 62
     7
370
    25
100
AcDbSpline
210
0.0
220
0.0
230
1.0
 70
     8
 71
     3
 72
    17
 73
    13
 74
     0
 42
0.000000001
 43
0.00000001
 40
0.0
 40
0.0
 40
0.0
 40
0.0
 40
0.0838164843945181
 40
0.200265053428291
 40
0.3144084853690516
 40
0.4226827858847983
 40
0.5326537670005329
 40
0.6305354144635251
 40
0.7286819892337669
 40
0.832379388149323
 40
0.942600202224164
 40
1.0
 40
1.0
 40
1.0
 40
1.0
 10
208.4675144331177
 20
103.8965325539765
 30
0.0
 10
208.1705834543073
 20
103.8758547921483
 30
0.0
 10
207.4611180219937
 20
103.8264488416696
 30
0.0
 10
206.4210872387775
 20
103.3678691651694
 30
0.0
 10
205.5337629805569
 20
102.5596966522182
 30
0.0
 10
205.0077109107412
 20
101.5282969314952
 30
0.0
 10
204.9189296468201
 20
100.4554754169522
 30
0.0
 10
205.2288569668075
 20
99.48054964843867
 30
0.0
 10
205.847755252679
 20
98.6803825401003
 30
0.0
 10
206.7450584312548
 20
98.08367378936222
 30
0.0
 10
207.6714463240966
 20
97.79801382503555
 30
0.0
 10
208.2644477488581
 20
97.77203142764309
 30
0.0
 10
208.4675144331177
 20
97.76313404718614
 30
0.0
  0
LINE
  5
F9
330
1F
100
AcDbEntity
  8
0
  6
Continuous
 62
     7
370
    25
100
AcDbLine
 10
208.4675144331
 20
97.7631340472
 30
0.0
 11
220.1932754295
 21
97.7631340472
 31
0.0
  0
LINE
  5
FA
330
1F
100
AcDbEntity
  8
0
  6
Continuous
 62
     7
370
    25
100
AcDbLine
 10
220.1932754295
 20
85.7714990822
 30
0.0
 11
220.1932754295
 21
97.7631340472
 31
0.0
  0
LINE
  5
FB
330
1F
100
AcDbEntity
  8
0
  6
Continuous
 62
     7
370
    25
100
AcDbLine
 10
208.4675144331
 20
85.7714990822
 30
0.0
 11
220.1932754295
 21
85.7714990822
 31
0.0
  0
SPLINE
  5
FC
330
1F
100
AcDbEntity
  8
0
  6
Continuous
 62
     7
370
    25
100
AcDbSpline
210
0.0
220
0.0
230
1.0
 70
     8
 71
     3
 72
    17
 73
    13
 74
     0
 42
0.000000001
 43
0.00000001
 40
0.0
 40
0.0
 40
0.0
 40
0.0
 40
0.0838166337913282
 40
0.200265424219347
 40
0.3144090743939034
 40
0.4226835429440645
 40
0.5327912321110432
 40
0.6306723936930707
 40
0.7288248249019341
 40
0.8325314332710717
 40
0.9427611915120259
 40
0.9999999999999999
 40
0.9999999999999999
 40
0.9999999999999999
 40
0.9999999999999999
 10
208.4675144331177
 20
84.71711526790834
 30
0.0
 10
208.170583450689
 20
84.71769758686452
 30
0.0
 10
207.4611179607243
 20
84.71908893781143
 30
0.0
 10
206.4210871716707
 20
84.73571579022995
 30
0.0
 10
205.5337633379534
 20
84.78934018666762
 30
0.0
 10
205.0074940752304
 20
84.90165861317877
 30
0.0
 10
204.9189355916679
 20
85.07429720766804
 30
0.0
 10
205.2295146147039
 20
85.28214820932895
 30
0.0
 10
205.8488447854076
 20
85.48934459298401
 30
0.0
 10
206.7465116721937
 20
85.66709631599845
 30
0.0
 10
207.6725608523731
 20
85.76006008921108
 30
0.0
 10
208.2650190956988
 20
85.76858527342483
 30
0.0
 10
208.4675144331177
 20
85.77149908224321
 30
0.0
  0
LINE
  5
FD
330
1F
100
AcDbEntity
  8
0
  6
Continuous
 62
     7
370
    25
100
AcDbLine
 10
208.4675144331
 20
84.7171152679
 30
0.0
 11
220.1932754295
 21
84.7171152679
 31
0.0
  0
LINE
  5
FE
330
1F
100
AcDbEntity
  8
0
  6
Continuous
 62
     7
370
    25
100
AcDbLine
 10
220.1932754295
 20
84.7065913228
 30
0.0
 11
220.1932754295
 21
84.7171152679
 31
0.0
  0
LINE
  5
FF
330
1F
100
AcDbEntity
  8
0
  6
Continuous
 62
     7
370
    25
100
AcDbLine
 10
220.1932754295
 20
127.6816258875
 30
0.0
 11
220.1932754295
 21
134.4065907148
 31
0.0
  0
LINE
  5
100
330
1F
100
AcDbEntity
  8
0
  6
Continuous
 62
     7
370
    25
100
AcDbLine
 10
208.4675144331
 20
127.6816258875
 30
0.0
 11
220.1932754295
 21
127.6816258875
 31
0.0
  0
SPLINE
  5
101
330
1F
100
AcDbEntity
  8
0
  6
Continuous
 62
     7
370
    25
100
AcDbSpline
210
0.0
220
0.0
230
1.0
 70
     8
 71
     3
 72
    18
 73
    14
 74
     0
 42
0.000000001
 43
0.00000001
 40
0.0
 40
0.0
 40
0.0
 40
0.0
 40
0.0838022771743672
 40
0.2002311171555033
 40
0.3143551462136562
 40
0.422611096395992
 40
0.5235777849837809
 40
0.5374368173660231
 40
0.6352751405558981
 40
0.733600125819227
 40
0.8375986353774558
 40
0.948086880854025
 40
1.0
 40
1.0
 40
1.0
 40
1.0
 10
208.4675144331177
 20
122.6026088667867
 30
0.0
 10
208.1705834125273
 20
122.6206956467062
 30
0.0
 10
207.4611178469648
 20
122.6639108942045
 30
0.0
 10
206.4210881850692
 20
123.0637786262761
 30
0.0
 10
205.533760738118
 20
123.7607333012734
 30
0.0
 10
205.0219411805311
 20
124.6119203304009
 30
0.0
 10
204.9472976900462
 20
125.240674730775
 30
0.0
 10
205.0273306262494
 20
125.8133241275386
 30
0.0
 10
205.2515285272623
 20
126.357006357735
 30
0.0
 10
205.8850136308154
 20
126.9892223132657
 30
0.0
 10
206.7947498865252
 20
127.450251755782
 30
0.0
 10
207.7093539544522
 20
127.6581264179207
 30
0.0
 10
208.2838662047355
 20
127.6759336415315
 30
0.0
 10
208.4675144331177
 20
127.6816258875487
 30
0.0
  0
LINE
  5
102
330
1F
100
AcDbEntity
  8
0
  6
Continuous
 62
     7
370
    25
100
AcDbLine
 10
201.5707801954
 20
84.7065913228
 30
0.0
 11
201.5707801954
 21
134.4065907148
 31
0.0
  0
LINE
  5
103
330
1F
100
AcDbEntity
  8
0
  6
Continuous
 62
     7
370
    25
100
AcDbLine
 10
201.0707791822
 20
85.2065904734
 30
0.0
 11
201.0707791822
 21
133.9065915642
 31
0.0
  0
LINE
  5
104
330
1F
100
AcDbEntity
  8
0
  6
Continuous
 62
     7
370
    25
100
AcDbLine
 10
220.1932754295
 20
84.7171152679
 30
0.0
 11
220.4401578681
 21
85.1563176809
 31
0.0
  0
LINE
  5
105
330
1F
100
AcDbEntity
  8
0
  6
Continuous
 62
     7
370
    25
100
AcDbLine
 10
220.4401578681
 20
85.1563176809
 30
0.0
 11
221.5814303534
 21
87.1362293808
 31
0.0
  0
LINE
  5
106
330
1F
100
AcDbEntity
  8
0
  6
Continuous
 62
     7
370
    25
100
AcDbLine
 10
221.5814303534
 20
87.1362293808
 30
0.0
 11
221.7722993271
 21
87.4805561004
 31
0.0
  0
SPLINE
  5
107
330
1F
100
AcDbEntity
  8
0
  6
Continuous
 62
     7
370
    25
100
AcDbSpline
210
0.0
220
0.0
230
1.0
 70
     8
 71
     3
 72
     9
 73
     5
 74
     0
 42
0.000000001
 43
0.00000001
 40
0.0
 40
0.0
 40
0.0
 40
0.0
 40
0.5000512023218963
 40
1.0
 40
1.0
 40
1.0
 40
1.0
 10
221.7722993271073
 20
87.48055610040403
 30
0.0
 10
221.8055162831994
 20
87.60129278643852
 30
0.0
 10
221.8719433929394
 20
87.84274143304485
 30
0.0
 10
221.8055117480816
 20
88.08418975018256
 30
0.0
 10
221.7722993271073
 20
88.20490154603696
 30
0.0
  0
LINE
  5
108
330
1F
100
AcDbEntity
  8
0
  6
Continuous
 62
     7
370
    25
100
AcDbLine
 10
221.5814303534
 20
87.9570300428
 30
0.0
 11
221.7722993271
 21
88.204901546
 31
0.0
  0
LINE
  5
109
330
1F
100
AcDbEntity
  8
0
  6
Continuous
 62
     7
370
    25
100
AcDbLine
 10
220.4401578681
 20
86.0876681952
 30
0.0
 11
221.5814303534
 21
87.9570300428
 31
0.0
  0
LINE
  5
10A
330
1F
100
AcDbEntity
  8
0
  6
Continuous
 62
     7
370
    25
100
AcDbLine
 10
220.1932754295
 20
85.7714990822
 30
0.0
 11
220.4401578681
 21
86.0876681952
 31
0.0
  0
LINE
  5
10B
330
1F
100
AcDbEntity
  8
0
  6
Continuous
 62
     7
370
    25
100
AcDbLine
 10
220.1932754295
 20
97.7631340472
 30
0.0
 11
220.4401578681
 21
98.2565450219
 31
0.0
  0
LINE
  5
10C
330
1F
100
AcDbEntity
  8
0
  6
Continuous
 62
     7
370
    25
100
AcDbLine
 10
220.4401578681
 20
98.2565450219
 30
0.0
 11
221.5814303534
 21
99.2689196689
 31
0.0
  0
LINE
  5
10D
330
1F
100
AcDbEntity
  8
0
  6
Continuous
 62
     7
370
    25
100
AcDbLine
 10
221.5814303534
 20
99.2689196689
 30
0.0
 11
221.7722993271
 21
99.6557445003
 31
0.0
  0
SPLINE
  5
10E
330
1F
100
AcDbEntity
  8
0
  6
Continuous
 62
     7
370
    25
100
AcDbSpline
210
0.0
220
0.0
230
1.0
 70
     8
 71
     3
 72
     9
 73
     5
 74
     0
 42
0.000000001
 43
0.00000001
 40
0.0
 40
0.0
 40
0.0
 40
0.0
 40
0.1217959573150842
 40
1.0
 40
1.0
 40
1.0
 40
1.0
 10
221.7722993271073
 20
103.8692992849109
 30
0.0
 10
221.7824044329512
 20
103.6984450386019
 30
0.0
 10
221.8653719309429
 20
102.2956542557597
 30
0.0
 10
221.815817887974
 20
100.8901042220527
 30
0.0
 10
221.7722993271073
 20
99.65574450025535
 30
0.0
  0
LINE
  5
10F
330
1F
100
AcDbEntity
  8
0
  6
Continuous
 62
     7
370
    25
100
AcDbLine
 10
221.5814303534
 20
104.0435585862
 30
0.0
 11
221.7722993271
 21
103.8692992849
 31
0.0
  0
LINE
  5
110
330
1F
100
AcDbEntity
  8
0
  6
Continuous
 62
     7
370
    25
100
AcDbLine
 10
220.4401578681
 20
103.6742575204
 30
0.0
 11
221.5814303534
 21
104.0435585862
 31
0.0
  0
LINE
  5
111
330
1F
100
AcDbEntity
  8
0
  6
Continuous
 62
     7
370
    25
100
AcDbLine
 10
220.1932754295
 20
103.896532554
 30
0.0
 11
220.4401578681
 21
103.6742575204
 31
0.0
  0
LINE
  5
112
330
1F
100
AcDbEntity
  8
0
  6
Continuous
 62
     7
370
    25
100
AcDbLine
 10
220.1932754295
 20
122.6026088668
 30
0.0
 11
220.4401578681
 21
122.6568183599
 31
0.0
  0
LINE
  5
113
330
1F
100
AcDbEntity
  8
0
  6
Continuous
 62
     7
370
    25
100
AcDbLine
 10
220.4401578681
 20
122.6568183599
 30
0.0
 11
221.5814303534
 21
121.6892803756
 31
0.0
  0
LINE
  5
114
330
1F
100
AcDbEntity
  8
0
  6
Continuous
 62
     7
370
    25
100
AcDbLine
 10
221.5814303534
 20
121.6892803756
 30
0.0
 11
221.7722993271
 21
121.73178035
 31
0.0
  0
SPLINE
  5
115
330
1F
100
AcDbEntity
  8
0
  6
Continuous
 62
     7
370
    25
100
AcDbSpline
210
0.0
220
0.0
230
1.0
 70
     8
 71
     3
 72
     9
 73
     5
 74
     0
 42
0.000000001
 43
0.00000001
 40
0.0
 40
0.0
 40
0.0
 40
0.0
 40
0.5000510887459347
 40
1.0
 40
1.0
 40
1.0
 40
1.0
 10
221.7722993271073
 20
121.7317803500054
 30
0.0
 10
221.8055162781686
 20
122.3133749369403
 30
0.0
 10
221.8719433929353
 20
123.4764452712005
 30
0.0
 10
221.8055117531105
 20
124.639514496251
 30
0.0
 10
221.7722993271073
 20
125.220989689028
 30
0.0
  0
LINE
  5
116
330
1F
100
AcDbEntity
  8
0
  6
Continuous
 62
     7
370
    25
100
AcDbLine
 10
221.5814303534
 20
125.6431190966
 30
0.0
 11
221.7722993271
 21
125.220989689
 31
0.0
  0
LINE
  5
117
330
1F
100
AcDbEntity
  8
0
  6
Continuous
 62
     7
370
    25
100
AcDbLine
 10
220.4401578681
 20
127.143181741
 30
0.0
 11
221.5814303534
 21
125.6431190966
 31
0.0
  0
LINE
  5
118
330
1F
100
AcDbEntity
  8
0
  6
Continuous
 62
     7
370
    25
100
AcDbLine
 10
220.1932754295
 20
127.6816258875
 30
0.0
 11
220.4401578681
 21
127.143181741
 31
0.0
  0
LINE
  5
119
330
1F
100
AcDbEntity
  8
0
  6
Continuous
 62
     7
370
    25
100
AcDbLine
 10
223.5707800762
 20
90.5565916298
 30
0.0
 11
223.5707800762
 21
128.5565904079
 31
0.0
  0
ARC
  5
11A
330
1F
100
AcDbEntity
  8
0
  6
Continuous
 62
     7
370
    25
100
AcDbCircle
 10
208.3289798142
 20
100.9654012712
 30
0.0
 40
2.712396361085072
100
AcDbArc
 50
87.0723659293
 51
272.9276340707
  0
LINE
  5
11B
330
1F
100
AcDbEntity
  8
0
  6
Continuous
 62
     7
370
    25
100
AcDbLine
 10
208.4675144331
 20
103.6742575204
 30
0.0
 11
220.4401578681
 21
103.6742575204
 31
0.0
  0
ARC
  5
11C
330
1F
100
AcDbEntity
  8
0
  6
Continuous
 62
     7
370
    25
100
AcDbCircle
 10
208.363247739
 20
101.6900562122
 30
0.0
 40
2.423380635532231
100
AcDbArc
 50
160.5556885421
 51
272.4659296748
  0
LWPOLYLINE
  5
11D
330
1F
100
AcDbEntity
  8
0
  6
Continuous
 62
     7
370
    25
100
AcDbPolyline
 90
       12
 70
   128
 43
0.0
 10
208.4675144331
 20
122.6568183599
 10
207.6514076369
 20
122.7476828469
 10
206.9014172928
 20
123.0129160655
 10
206.2783103363
 20
123.4310286788
 10
205.8325495498
 20
123.9681484846
 10
205.6002627985
 20
124.5807622297
 10
205.6002627985
 20
125.2192369399
 10
205.8325495498
 20
125.8318516163
 10
206.2783103363
 20
126.3689714221
 10
206.9014172928
 20
126.787083104
 10
207.6514076369
 20
127.0523163227
 10
208.4675144331
 20
127.143181741
  0
LINE
  5
11E
330
1F
100
AcDbEntity
  8
0
  6
Continuous
 62
     7
370
    25
100
AcDbLine
 10
208.4675144331
 20
98.2565450219
 30
0.0
 11
220.4401578681
 21
98.2565450219
 31
0.0
  0
LINE
  5
11F
330
1F
100
AcDbEntity
  8
0
  6
Continuous
 62
     7
370
    25
100
AcDbLine
 10
208.4675144331
 20
99.2689196689
 30
0.0
 11
221.5814303534
 21
99.2689196689
 31
0.0
  0
ARC
  5
120
330
1F
100
AcDbEntity
  8
0
  6
Continuous
 62
     7
370
    25
100
AcDbCircle
 10
208.3311631418
 20
101.7474628455
 30
0.0
 40
2.09615774945469
100
AcDbArc
 50
136.7908050997
 51
273.7296207334
  0
LINE
  5
121
330
1F
100
AcDbEntity
  8
0
  6
Continuous
 62
     7
370
    25
100
AcDbLine
 10
221.0429023878
 20
103.8692992849
 30
0.0
 11
221.7722993271
 21
103.8692992849
 31
0.0
  0
ARC
  5
122
330
1F
100
AcDbEntity
  8
0
  6
Continuous
 62
     7
370
    25
100
AcDbCircle
 10
208.2033979095
 20
123.322572318
 30
0.0
 40
2.33552882441162
100
AcDbArc
 50
83.5067367669
 51
167.5084337445
  0
LINE
  5
123
330
1F
100
AcDbEntity
  8
0
  6
Continuous
 62
     7
370
    25
100
AcDbLine
 10
208.4675144331
 20
99.6557445003
 30
0.0
 11
221.7722993271
 21
99.6557445003
 31
0.0
  0
LINE
  5
124
330
1F
100
AcDbEntity
  8
0
  6
Continuous
 62
     7
370
    25
100
AcDbLine
 10
208.4675144331
 20
122.6568183599
 30
0.0
 11
220.4401578681
 21
122.6568183599
 31
0.0
  0
ARC
  5
125
330
1F
100
AcDbEntity
  8
0
  6
Continuous
 62
     7
370
    25
100
AcDbCircle
 10
208.2597479277
 20
123.1599198086
 30
0.0
 40
2.07151538080573
100
AcDbArc
 50
84.2437342743
 51
170.8342461873
  0
LINE
  5
126
330
1F
100
AcDbEntity
  8
0
  6
Continuous
 62
     7
370
    25
100
AcDbLine
 10
221.5313028471
 20
121.73178035
 30
0.0
 11
221.7722993271
 21
121.73178035
 31
0.0
  0
LINE
  5
127
330
1F
100
AcDbEntity
  8
0
  6
Continuous
 62
     7
370
    25
100
AcDbLine
 10
208.4675144331
 20
125.220989689
 30
0.0
 11
221.7722993271
 21
125.220989689
 31
0.0
  0
LINE
  5
128
330
1F
100
AcDbEntity
  8
0
  6
Continuous
 62
     7
370
    25
100
AcDbLine
 10
208.4675144331
 20
127.143181741
 30
0.0
 11
220.4401578681
 21
127.143181741
 31
0.0
  0
LINE
  5
129
330
1F
100
AcDbEntity
  8
0
  6
Continuous
 62
     7
370
    25
100
AcDbLine
 10
208.4675144331
 20
125.6431190966
 30
0.0
 11
221.5814303534
 21
125.6431190966
 31
0.0
  0
ARC
  5
12A
330
1F
100
AcDbEntity
  8
0
  6
Continuous
 62
     7
370
    25
100
AcDbCircle
 10
207.968070388
 20
93.0710177041
 30
0.0
 40
7.930442661799573
100
AcDbArc
 50
253.9724077647
 51
273.6107676819
  0
LINE
  5
12B
330
1F
100
AcDbEntity
  8
0
  6
Continuous
 62
     7
370
    25
100
AcDbLine
 10
221.2905373351
 20
87.4805561004
 30
0.0
 11
221.7722993271
 21
87.4805561004
 31
0.0
  0
LINE
  5
12C
330
1F
100
AcDbEntity
  8
0
  6
Continuous
 62
     7
370
    25
100
AcDbLine
 10
208.4675144331
 20
85.1563176809
 30
0.0
 11
220.4401578681
 21
85.1563176809
 31
0.0
  0
LINE
  5
12D
330
1F
100
AcDbEntity
  8
0
  6
Continuous
 62
     7
370
    25
100
AcDbLine
 10
221.0803192036
 20
87.1362293808
 30
0.0
 11
221.5814303534
 21
87.1362293808
 31
0.0
  0
DIMENSION
  5
12E
330
1F
100
AcDbEntity
  8
VERMASSUNG
100
AcDbDimension
  2
_D
 10
239.5707785861
 20
132.0565910188
 30
0.0
 11
239.5707785861
 21
109.5565910188
 31
0.0
 70
   160
  1
%%c<>
 71
     2
 42
-1.0
  3
SLDDIMSTYLE0
100
AcDbAlignedDimension
 13
172.5207785861
 23
87.0565910188
 33
0.0
 14
172.5207785861
 24
132.0565910188
 34
0.0
 50
90.0
100
AcDbRotatedDimension
  0
DIMENSION
  5
13A
330
1F
100
AcDbEntity
  8
VERMASSUNG
100
AcDbDimension
  2
_D_1
 10
251.5707785861
 20
134.4065910188
 30
0.0
 11
251.5707785861
 21
109.5565910188
 31
0.0
 70
   160
  1
%%c<>
 71
     2
 42
-1.0
  3
SLDDIMSTYLE0
100
AcDbAlignedDimension
 13
220.1932790961
 23
84.7065910188
 33
0.0
 14
220.1932790961
 24
134.4065910188
 34
0.0
 50
90.0
100
AcDbRotatedDimension
  0
DIMENSION
  5
145
330
1F
100
AcDbEntity
  8
VERMASSUNG
100
AcDbDimension
  2
_D_2
 10
60.5235252428
 20
59.5565910188
 30
0.0
 11
60.5235252428
 21
109.5565910188
 31
0.0
 70
   160
  1
HSK A %%c<>
 71
     2
 42
-1.0
  3
SLDDIMSTYLE0
100
AcDbAlignedDimension
 13
124.0707785861
 23
159.5565910188
 33
0.0
 14
124.0707785861
 24
59.5565910188
 34
0.0
 50
90.0
100
AcDbRotatedDimension
  0
DIMENSION
  5
151
330
1F
100
AcDbEntity
  8
VERMASSUNG
100
AcDbDimension
  2
_D_3
 10
223.5707785861
 20
167.8074118808
 30
0.0
 11
173.5707785861
 21
167.8074118808
 31
0.0
 70
   160
  1
<>
 71
     2
 42
-1.0
  3
SLDDIMSTYLE0
100
AcDbAlignedDimension
 13
123.5707785861
 23
159.0565910188
 33
0.0
 14
223.5707785861
 24
128.5565910188
 34
0.0
100
AcDbRotatedDimension
  0
DIMENSION
  5
15B
330
1F
100
AcDbEntity
  8
VERMASSUNG
100
AcDbDimension
  2
_D_4
 10
223.5707785861
 20
177.1775151647
 30
0.0
 11
148.6207785861
 21
177.1775151647
 31
0.0
 70
   160
  1
<>
 71
     2
 42
-1.0
  3
SLDDIMSTYLE0
100
AcDbAlignedDimension
 13
73.6707785861
 23
140.0592607614
 33
0.0
 14
223.5707785861
 24
128.5565910188
 34
0.0
100
AcDbRotatedDimension
  0
LINE
  5
165
330
1F
100
AcDbEntity
  8
VERMASSUNG
  6
CENTERX2
370
    18
100
AcDbLine
 10
225.5707785861
 20
109.5565910188
 30
0.0
 11
66.3631578947
 21
109.5565910188
 31
0.0
  0
LINE
  5
166
330
1F
100
AcDbEntity
  8
0
  6
Continuous
 62
     7
370
    25
100
AcDbLine
 10
260.3770612397
 20
42.4910379867
 30
0.0
 11
260.1059885152
 21
42.6475249397
 31
0.0
  0
LINE
  5
167
330
1F
100
AcDbEntity
  8
0
  6
Continuous
 62
     7
370
    25
100
AcDbLine
 10
250.1068014883
 20
25.3265482031
 30
0.0
 11
250.3778742128
 21
25.1700612502
 31
0.0
  0
LINE
  5
168
330
1F
100
AcDbEntity
  8
0
  6
Continuous
 62
     7
370
    25
100
AcDbLine
 10
219.1655576316
 20
25.8685089142
 30
0.0
 11
224.9065474875
 21
22.5543060153
 31
0.0
  0
LINE
  5
169
330
1F
100
AcDbEntity
  8
0
  6
Continuous
 62
     7
370
    25
100
AcDbLine
 10
246.3499189984
 20
67.9087740022
 30
0.0
 11
244.1635251988
 21
69.1709522765
 31
0.0
  0
SPLINE
  5
16A
330
1F
100
AcDbEntity
  8
0
  6
Continuous
 62
     7
370
    25
100
AcDbSpline
210
0.0
220
0.0
230
1.0
 70
     8
 71
     3
 72
    12
 73
     8
 74
     0
 42
0.000000001
 43
0.00000001
 40
0.0
 40
0.0
 40
0.0
 40
0.0
 40
0.1308377656920191
 40
0.3817437491600118
 40
0.6393884980906474
 40
0.900742308493647
 40
1.0
 40
1.0
 40
1.0
 40
1.0
 10
244.4384589904255
 20
27.41528724020331
 30
0.0
 10
244.6823675338364
 20
27.37287186903699
 30
0.0
 10
245.3940165085905
 20
27.24911705921274
 30
0.0
 10
246.630268874759
 20
26.89629263497556
 30
0.0
 10
248.1042089308756
 20
26.34527167286844
 30
0.0
 10
249.2782205903123
 20
25.80882513811594
 30
0.0
 10
249.9213274473762
 20
25.41884190990505
 30
0.0
 10
250.0983414962517
 20
25.31149970159096
 30
0.0
  0
SPLINE
  5
16B
330
1F
100
AcDbEntity
  8
0
  6
Continuous
 62
     7
370
    25
100
AcDbSpline
210
0.0
220
0.0
230
1.0
 70
     8
 71
     3
 72
    12
 73
     8
 74
     0
 42
0.000000001
 43
0.00000001
 40
0.0
 40
0.0
 40
0.0
 40
0.0
 40
0.1153015863204761
 40
0.3756520597604516
 40
0.631581850493302
 40
0.8808826684086856
 40
0.9999999999999999
 40
0.9999999999999999
 40
0.9999999999999999
 40
0.9999999999999999
 10
260.1148442924284
 20
42.66330578172231
 30
0.0
 10
259.9040821977304
 20
42.78020467541468
 30
0.0
 10
259.2174202226502
 20
43.16106075554873
 30
0.0
 10
258.1447173365518
 20
43.93058406014001
 30
0.0
 10
256.9424943129533
 20
44.93350674073017
 30
0.0
 10
256.0432129843542
 20
45.81068118825073
 30
0.0
 10
255.5986801872094
 20
46.34714309701055
 30
0.0
 10
255.4549533901676
 20
46.52059250811426
 30
0.0
  0
SPLINE
  5
16C
330
1F
100
AcDbEntity
  8
0
  6
Continuous
 62
     7
370
    25
100
AcDbSpline
210
0.0
220
0.0
230
1.0
 70
     8
 71
     3
 72
    12
 73
     8
 74
     0
 42
0.000000001
 43
0.00000001
 40
0.0
 40
0.0
 40
0.0
 40
0.0
 40
0.1930132621238589
 40
0.4348103944408434
 40
0.6766629322907949
 40
0.9185724678707793
 40
1.0
 40
1.0
 40
1.0
 40
1.0
 10
214.8081336597383
 20
44.310738343496
 30
0.0
 10
214.6979647959455
 20
43.84984046146294
 30
0.0
 10
214.449782020349
 20
42.81155331125071
 30
0.0
 10
214.1831421714789
 20
41.22518576026813
 30
0.0
 10
213.9898888270207
 20
39.55948242670731
 30
0.0
 10
213.9197777846389
 20
38.29679589651931
 30
0.0
 10
213.9148819555069
 20
37.59373554982224
 30
0.0
 10
213.9136490152605
 20
37.41668047421629
 30
0.0
  0
SPLINE
  5
16D
330
1F
100
AcDbEntity
  8
0
  6
Continuous
 62
     7
370
    25
100
AcDbSpline
210
0.0
220
0.0
230
1.0
 70
     8
 71
     3
 72
    11
 73
     7
 74
     0
 42
0.000000001
 43
0.00000001
 40
0.0
 40
0.0
 40
0.0
 40
0.0
 40
0.2634345907424299
 40
0.5846177004578929
 40
0.905826363049879
 40
1.0
 40
1.0
 40
1.0
 40
1.0
 10
233.9186593249325
 20
69.12461077035168
 30
0.0
 10
233.5486275611137
 20
68.96498427310175
 30
0.0
 10
232.7274479345108
 20
68.61073893466155
 30
0.0
 10
231.44681788759
 20
67.90415163824268
 30
0.0
 10
230.4051228251079
 20
67.27279687749385
 30
0.0
 10
229.8239315798549
 20
66.85053450794544
 30
0.0
 10
229.692166472412
 20
66.75480105196672
 30
0.0
  0
SPLINE
  5
16E
330
1F
100
AcDbEntity
  8
0
  6
Continuous
 62
     7
370
    25
100
AcDbSpline
210
0.0
220
0.0
230
1.0
 70
     8
 71
     3
 72
    10
 73
     6
 74
     0
 42
0.000000001
 43
0.00000001
 40
0.0
 40
0.0
 40
0.0
 40
0.0
 40
0.2398587522190456
 40
0.6955721457266382
 40
0.9999999999999999
 40
0.9999999999999999
 40
0.9999999999999999
 40
0.9999999999999999
 10
213.9136490152605
 20
37.41668047421629
 30
0.0
 10
213.9168554269282
 20
37.14271059235233
 30
0.0
 10
213.9261537769912
 20
36.34821876401761
 30
0.0
 10
213.998742555934
 20
35.23973591867068
 30
0.0
 10
214.1262594672362
 20
34.4491641756229
 30
0.0
 10
214.1773285281569
 20
34.13254925689856
 30
0.0
  0
LINE
  5
16F
330
1F
100
AcDbEntity
  8
0
  6
Continuous
 62
     7
370
    25
100
AcDbLine
 10
237.1592527472
 20
31.357671889
 30
0.0
 11
243.169660714
 21
27.8879372252
 31
0.0
  0
LINE
  5
170
330
1F
100
AcDbEntity
  8
0
  6
Continuous
 62
     7
370
    25
100
AcDbLine
 10
254.4187467777
 20
47.3740368142
 30
0.0
 11
248.408338811
 21
50.843771478
 31
0.0
  0
LINE
  5
171
330
1F
100
AcDbEntity
  8
0
  6
Continuous
 62
     7
370
    25
100
AcDbLine
 10
232.3681873522
 20
68.3883318802
 30
0.0
 11
223.0961684638
 21
73.007907426
 31
0.0
  0
LINE
  5
172
330
1F
100
AcDbEntity
  8
0
  6
Continuous
 62
     7
370
    25
100
AcDbLine
 10
205.3074456762
 20
42.1935974144
 30
0.0
 11
213.9365762938
 21
36.4797456196
 31
0.0
  0
SPLINE
  5
173
330
1F
100
AcDbEntity
  8
0
  6
Continuous
 62
     7
370
    25
100
AcDbSpline
210
0.0
220
0.0
230
1.0
 70
     8
 71
     3
 72
    20
 73
    16
 74
     0
 42
0.000000001
 43
0.00000001
 40
0.0
 40
0.0
 40
0.0
 40
0.0
 40
0.0548513700970824
 40
0.1393955511890141
 40
0.2242733798214705
 40
0.309439237487257
 40
0.3948219921280569
 40
0.4803479734095943
 40
0.565954513890873
 40
0.6515949273166202
 40
0.7372321834200384
 40
0.8228491567683865
 40
0.9084384445323286
 40
0.9939979090457753
 40
1.0
 40
1.0
 40
1.0
 40
1.0
 10
232.434082632803
 20
19.13249510968426
 30
0.0
 10
232.6906019067443
 20
19.10307748602542
 30
0.0
 10
233.3425025888668
 20
19.02831753276742
 30
0.0
 10
234.443106062472
 20
19.0618448036403
 30
0.0
 10
235.7219135866184
 20
19.2144826631507
 30
0.0
 10
237.0365321724259
 20
19.50707970975389
 30
0.0
 10
238.3764593936247
 20
19.93118640590796
 30
0.0
 10
239.7340817697069
 20
20.4860967570998
 30
0.0
 10
241.1008413038988
 20
21.16786772964036
 30
0.0
 10
242.4685922030126
 20
21.9720375449376
 30
0.0
 10
243.8287669463623
 20
22.89436254485408
 30
0.0
 10
245.1748911037205
 20
23.92579589181485
 30
0.0
 10
246.4936250873683
 20
25.07240881387261
 30
0.0
 10
247.3939892577426
 20
25.90668338008031
 30
0.0
 10
247.8404895042813
 20
26.38130009152872
 30
0.0
 10
247.8697587218816
 20
26.41241241433667
 30
0.0
  0
SPLINE
  5
174
330
1F
100
AcDbEntity
  8
0
  6
Continuous
 62
     7
370
    25
100
AcDbSpline
210
0.0
220
0.0
230
1.0
 70
     8
 71
     3
 72
    10
 73
     6
 74
     0
 42
0.000000001
 43
0.00000001
 40
0.0
 40
0.0
 40
0.0
 40
0.0
 40
0.4795431726922767
 40
0.9632477496921221
 40
1.0
 40
1.0
 40
1.0
 40
1.0
 10
258.0481732464245
 20
44.03640805688978
 30
0.0
 10
258.1979029648882
 20
44.61184590929179
 30
0.0
 10
258.498661734036
 20
45.76771517816695
 30
0.0
 10
258.7296207799238
 20
46.95222552003267
 30
0.0
 10
258.8245054029181
 20
47.55991864357262
 30
0.0
 10
258.8312057154737
 20
47.60283111702839
 30
0.0
  0
LINE
  5
175
330
1F
100
AcDbEntity
  8
0
  6
Continuous
 62
     7
370
    25
100
AcDbLine
 10
227.2131503346
 20
21.222732535
 30
0.0
 11
228.8705982013
 21
20.2659082481
 31
0.0
  0
LINE
  5
176
330
1F
100
AcDbEntity
  8
0
  6
Continuous
 62
     7
370
    25
100
AcDbLine
 10
255.4391634685
 20
62.3859705513
 30
0.0
 11
255.1803686478
 21
62.6218480751
 31
0.0
  0
SPLINE
  5
177
330
1F
100
AcDbEntity
  8
0
  6
Continuous
 62
     7
370
    25
100
AcDbSpline
210
0.0
220
0.0
230
1.0
 70
     8
 71
     3
 72
    14
 73
    10
 74
     0
 42
0.000000001
 43
0.00000001
 40
0.0
 40
0.0
 40
0.0
 40
0.0
 40
0.0890271336102062
 40
0.2575884247040096
 40
0.4260022476846342
 40
0.5940317446836391
 40
0.7615162651886958
 40
0.9283290140236868
 40
0.9999999999999999
 40
0.9999999999999999
 40
0.9999999999999999
 40
0.9999999999999999
 10
258.8447420978353
 20
55.76002191041975
 30
0.0
 10
258.7940644186365
 20
56.00440090440105
 30
0.0
 10
258.6474351492992
 20
56.71147971888929
 30
0.0
 10
258.3249882336206
 20
57.81745638861416
 30
0.0
 10
257.8449100675942
 20
59.04027752973958
 30
0.0
 10
257.2652622053869
 20
60.16259627504188
 30
0.0
 10
256.5854230599167
 20
61.16912419972452
 30
0.0
 10
255.9753813569086
 20
61.91323990241886
 30
0.0
 10
255.5630734469221
 20
62.27673129286799
 30
0.0
 10
255.4391634684997
 20
62.38597055133568
 30
0.0
  0
SPLINE
  5
178
330
1F
100
AcDbEntity
  8
0
  6
Continuous
 62
     7
370
    25
100
AcDbSpline
210
0.0
220
0.0
230
1.0
 70
     8
 71
     3
 72
    29
 73
    25
 74
     0
 42
0.000000001
 43
0.00000001
 40
0.0
 40
0.0
 40
0.0
 40
0.0
 40
0.0078685620447146
 40
0.0554898889310514
 40
0.10314786901157
 40
0.1511187341437766
 40
0.1995949113732496
 40
0.248638775479894
 40
0.2981933455543291
 40
0.348129316564157
 40
0.3983009051166966
 40
0.4485850857826754
 40
0.4988876959385037
 40
0.5491567664497072
 40
0.5993747882526648
 40
0.6495385942036125
 40
0.6996534720785381
 40
0.7497291222797303
 40
0.7997777583056839
 40
0.8498126581585558
 40
0.8998477269013436
 40
0.9498941214748895
 40
0.9999645663763532
 40
1.0
 40
1.0
 40
1.0
 40
1.0
 10
223.2393768695936
 20
72.92286631914338
 30
0.0
 10
223.1930595690978
 20
72.951078049608
 30
0.0
 10
222.8664253193462
 20
73.15003000310831
 30
0.0
 10
222.190373446512
 20
73.39559134400078
 30
0.0
 10
221.2201009006889
 20
73.64726437484322
 30
0.0
 10
220.1916118570389
 20
73.7529674036217
 30
0.0
 10
219.1194100555827
 20
73.72699655046132
 30
0.0
 10
218.0079152216849
 20
73.56437145236549
 30
0.0
 10
216.8662139363602
 20
73.26624411486837
 30
0.0
 10
215.7040521909985
 20
72.83405534933512
 30
0.0
 10
214.5321727657117
 20
72.27158685813389
 30
0.0
 10
213.361354181823
 20
71.58428490221043
 30
0.0
 10
212.2019596587602
 20
70.77896246974343
 30
0.0
 10
211.0637105840718
 20
69.86332983052606
 30
0.0
 10
209.9556776652406
 20
68.84569231855781
 30
0.0
 10
208.88644409482
 20
67.73488201959232
 30
0.0
 10
207.8642367544458
 20
66.54024993811746
 30
0.0
 10
206.896992532435
 20
65.27167487509305
 30
0.0
 10
205.99199989155
 20
63.93949663610182
 30
0.0
 10
205.1571905014203
 20
62.55445749080197
 30
0.0
 10
204.3960909292227
 20
61.12771698361983
 30
0.0
 10
203.7264847082276
 20
59.67054333651513
 30
0.0
 10
203.3157783982114
 20
58.68684596866721
 30
0.0
 10
203.1472339742671
 20
58.1934539371241
 30
0.0
 10
203.1471147838674
 20
58.19310502262403
 30
0.0
  0
LINE
  5
179
330
1F
100
AcDbEntity
  8
0
  6
Continuous
 62
     7
370
    25
100
AcDbLine
 10
203.5321558795
 20
55.8494190942
 30
0.0
 11
207.3168348745
 21
53.6645704162
 31
0.0
  0
LINE
  5
17A
330
1F
100
AcDbEntity
  8
0
  6
Continuous
 62
     7
370
    25
100
AcDbLine
 10
203.0267170427
 20
57.6190659759
 30
0.0
 11
203.0267170427
 21
56.9665610328
 31
0.0
  0
LINE
  5
17B
330
1F
100
AcDbEntity
  8
0
  6
Continuous
 62
     7
370
    25
100
AcDbLine
 10
203.0267170427
 20
45.4607731039
 30
0.0
 11
203.0267170427
 21
44.8082681608
 31
0.0
  0
SPLINE
  5
17C
330
1F
100
AcDbEntity
  8
0
  6
Continuous
 62
     7
370
    25
100
AcDbSpline
210
0.0
220
0.0
230
1.0
 70
     8
 71
     3
 72
    11
 73
     7
 74
     0
 42
0.000000001
 43
0.00000001
 40
0.0
 40
0.0
 40
0.0
 40
0.0
 40
0.2398514367719648
 40
0.5643803750611848
 40
0.8849100945063395
 40
1.0
 40
1.0
 40
1.0
 40
1.0
 10
203.2501769993668
 20
44.34017379175915
 30
0.0
 10
203.3916908911046
 20
44.12014597889746
 30
0.0
 10
203.7246789455864
 20
43.60241141279258
 30
0.0
 10
204.3685281089548
 20
42.92329455008947
 30
0.0
 10
204.9683502850927
 20
42.3969116982161
 30
0.0
 10
205.3606960845846
 20
42.17232367200857
 30
0.0
 10
205.464353124808
 20
42.11298792763096
 30
0.0
  0
SPLINE
  5
17D
330
1F
100
AcDbEntity
  8
0
  6
Continuous
 62
     7
370
    25
100
AcDbSpline
210
0.0
220
0.0
230
1.0
 70
     8
 71
     3
 72
     9
 73
     5
 74
     0
 42
0.000000001
 43
0.00000001
 40
0.0
 40
0.0
 40
0.0
 40
0.0
 40
0.2234505935928389
 40
0.9999999999999999
 40
0.9999999999999999
 40
0.9999999999999999
 40
0.9999999999999999
 10
203.0722817372474
 20
44.60826872920961
 30
0.0
 10
203.0779238262567
 20
44.59754916610071
 30
0.0
 10
203.1031736540536
 20
44.54957631028257
 30
0.0
 10
203.1344042973786
 20
44.5074473328685
 30
0.0
 10
203.1586564349143
 20
44.47473210046505
 30
0.0
  0
LINE
  5
17E
330
1F
100
AcDbEntity
  8
0
  6
Continuous
 62
     7
370
    25
100
AcDbLine
 10
252.8529347207
 20
20.9411663456
 30
0.0
 11
254.5099617775
 21
19.9845849872
 31
0.0
  0
LINE
  5
17F
330
1F
100
AcDbEntity
  8
0
  6
Continuous
 62
     7
370
    25
100
AcDbLine
 10
266.9339518297
 20
41.5058985062
 30
0.0
 11
265.2769247729
 21
42.4624798647
 31
0.0
  0
LINE
  5
180
330
1F
100
AcDbEntity
  8
0
  6
Continuous
 62
     7
370
    25
100
AcDbLine
 10
259.0635018069
 20
41.8465182366
 30
0.0
 11
258.8867534846
 21
41.7444511874
 31
0.0
  0
LINE
  5
181
330
1F
100
AcDbEntity
  8
0
  6
Continuous
 62
     7
370
    25
100
AcDbLine
 10
250.2791274395
 20
26.8339898339
 30
0.0
 11
250.279128098
 21
26.6298877725
 31
0.0
  0
SPLINE
  5
182
330
1F
100
AcDbEntity
  8
0
  6
Continuous
 62
     7
370
    25
100
AcDbSpline
210
0.0
220
0.0
230
1.0
 70
     8
 71
     3
 72
    14
 73
    10
 74
     0
 42
0.000000001
 43
0.00000001
 40
0.0
 40
0.0
 40
0.0
 40
0.0
 40
0.25
 40
0.25
 40
0.5
 40
0.5
 40
0.75
 40
0.75
 40
1.0
 40
1.0
 40
1.0
 40
1.0
 10
224.8411923530851
 20
36.45826411090979
 30
0.0
 10
224.7940192458528
 20
36.43103165576365
 30
0.0
 10
224.738455181154
 20
36.40928729762271
 30
0.0
 10
224.616529709035
 20
36.3790418702167
 30
0.0
 10
224.5504331881591
 20
36.37074284010639
 30
0.0
 10
224.4182412590224
 20
36.36931022432662
 30
0.0
 10
224.3513061074916
 20
36.37626019850823
 30
0.0
 10
224.2286956158213
 20
36.40446955211765
 30
0.0
 10
224.1717601610176
 20
36.4260453964253
 30
0.0
 10
224.1250176176454
 20
36.4530292923457
 30
0.0
  0
SPLINE
  5
183
330
1F
100
AcDbEntity
  8
0
  6
Continuous
 62
     7
370
    25
100
AcDbSpline
210
0.0
220
0.0
230
1.0
 70
     8
 71
     3
 72
    12
 73
     8
 74
     0
 42
0.000000001
 43
0.00000001
 40
0.0
 40
0.0
 40
0.0
 40
0.0
 40
0.2500000000000032
 40
0.2500000000000032
 40
0.5000000000000064
 40
0.5000000000000064
 40
1.0
 40
1.0
 40
1.0
 40
1.0
 10
252.4534807737251
 20
64.21825388749998
 30
0.0
 10
252.5072527926732
 20
64.18721196170726
 30
0.0
 10
252.5597410677914
 20
64.13823733245044
 30
0.0
 10
252.65074699473
 20
64.02150645760092
 30
0.0
 10
252.6893213482593
 20
63.95405499226778
 30
0.0
 10
252.7791449375555
 20
63.74973776526088
 30
0.0
 10
252.8070341643184
 20
63.60937493606347
 30
0.0
 10
252.8070341643184
 20
63.48655821100879
 30
0.0
  0
ARC
  5
184
330
1F
100
AcDbEntity
  8
0
  6
Continuous
 62
     7
370
    25
100
AcDbCircle
 10
254.1218323489
 20
34.552290418
 30
0.0
 40
14.96487127960755
100
AcDbArc
 50
304.4555305267
 51
355.8150406556
  0
LINE
  5
185
330
1F
100
AcDbEntity
  8
0
  6
Continuous
 62
     7
370
    25
100
AcDbLine
 10
224.1250171584
 20
36.4530289956
 30
0.0
 11
222.4675692917
 21
37.4098532825
 31
0.0
  0
LWPOLYLINE
  5
186
330
1F
100
AcDbEntity
  8
0
  6
Continuous
 62
     7
370
    25
100
AcDbPolyline
 90
       26
 70
   128
 43
0.0
 10
222.4675692917
 20
37.4098532825
 10
222.8391345911
 20
39.2221577622
 10
223.3215276628
 20
41.0584490097
 10
223.9115769565
 20
42.9066637193
 10
224.6054102305
 20
44.7546648865
 10
225.3984677226
 20
46.5903113886
 10
226.2855416628
 20
48.4015496169
 10
227.2608052494
 20
50.1764796345
 10
228.3178534784
 20
51.9034449067
 10
229.4497413395
 20
53.5711022602
 10
230.6490358407
 20
55.1684975443
 10
231.9078594728
 20
56.6851393917
 10
233.2179435508
 20
58.1110649934
 10
234.570683203
 20
59.4369098662
 10
235.9571933468
 20
60.6539629809
 10
237.3683672996
 20
61.7542325371
 10
238.7949356357
 20
62.7304921076
 10
240.2275283781
 20
63.576327188
 10
241.6567358725
 20
64.2861840264
 10
243.0731707726
 20
64.8553993232
 10
244.4675291206
 20
65.2802339713
 10
245.8306533612
 20
65.5578987866
 10
247.1535889353
 20
65.6865674071
 10
248.4276466775
 20
65.6653971048
 10
249.6444591212
 20
65.4945278295
 10
250.7960335118
 20
65.1750778313
  0
LINE
  5
187
330
1F
100
AcDbEntity
  8
0
  6
Continuous
 62
     7
370
    25
100
AcDbLine
 10
250.7960335118
 20
65.1750778313
 30
0.0
 11
252.4534813785
 21
64.2182535444
 31
0.0
  0
LINE
  5
188
330
1F
100
AcDbEntity
  8
0
  6
Continuous
 62
     7
370
    25
100
AcDbLine
 10
257.2441299148
 20
54.7558112294
 30
0.0
 11
258.6826466356
 21
55.5862492559
 31
0.0
  0
LINE
  5
189
330
1F
100
AcDbEntity
  8
0
  6
Continuous
 62
     7
370
    25
100
AcDbLine
 10
257.2441299148
 20
46.590403293
 30
0.0
 11
257.2441299148
 21
54.7558112294
 31
0.0
  0
LINE
  5
18A
330
1F
100
AcDbEntity
  8
0
  6
Continuous
 62
     7
370
    25
100
AcDbLine
 10
258.6826466356
 20
47.4208413195
 30
0.0
 11
257.2441299148
 21
46.590403293
 31
0.0
  0
LINE
  5
18B
330
1F
100
AcDbEntity
  8
0
  6
Continuous
 62
     7
370
    25
100
AcDbLine
 10
224.8411928719
 20
27.4763154298
 30
0.0
 11
226.2021409521
 21
28.2619740333
 31
0.0
  0
LINE
  5
18C
330
1F
100
AcDbEntity
  8
0
  6
Continuous
 62
     7
370
    25
100
AcDbLine
 10
226.2021409521
 20
28.2619740333
 30
0.0
 11
226.2021409521
 21
37.2439229154
 31
0.0
  0
LINE
  5
18D
330
1F
100
AcDbEntity
  8
0
  6
Continuous
 62
     7
370
    25
100
AcDbLine
 10
226.2021409521
 20
37.2439229154
 30
0.0
 11
224.8411928719
 21
36.4582643119
 31
0.0
  0
LINE
  5
18E
330
1F
100
AcDbEntity
  8
0
  6
Continuous
 62
     7
370
    25
100
AcDbLine
 10
252.8070348271
 20
63.4865590592
 30
0.0
 11
252.8070348271
 21
60.9109047071
 31
0.0
  0
LINE
  5
18F
330
1F
100
AcDbEntity
  8
0
  6
Continuous
 62
     7
370
    25
100
AcDbLine
 10
255.0374960997
 20
62.198522592
 30
0.0
 11
252.8070348271
 21
60.9109047071
 31
0.0
  0
LWPOLYLINE
  5
190
330
1F
100
AcDbEntity
  8
0
  6
Continuous
 62
     7
370
    25
100
AcDbPolyline
 90
       23
 70
   128
 43
0.0
 10
221.4887838091
 20
38.9560557219
 10
221.881618779
 20
40.7860693866
 10
222.3917918922
 20
42.6391330782
 10
223.015562616
 20
44.5016595771
 10
223.7483580173
 20
46.3599910186
 10
224.5848030557
 20
48.2004996515
 10
225.518766682
 20
50.0096923977
 10
226.5433973991
 20
51.7742983016
 10
227.6511845068
 20
53.4813829745
 10
228.8340035416
 20
55.1184250164
 10
230.0831801552
 20
56.6734205742
 10
231.3895559691
 20
58.1349685068
 10
232.7435511364
 20
59.4923521294
 10
234.1352367815
 20
60.7356160132
 10
235.5544077694
 20
61.8556444966
 10
236.9906580269
 20
62.8442249389
 10
238.4334556573
 20
63.6941062928
 10
239.8722208551
 20
64.3990592924
 10
241.2964035314
 20
64.9539136613
 10
242.695560364
 20
65.354601071
 10
244.0594320525
 20
65.5981814892
 10
245.378016623
 20
65.6828718083
 10
246.4200862572
 20
65.6331351927
  0
SPLINE
  5
191
330
1F
100
AcDbEntity
  8
0
  6
Continuous
 62
     7
370
    25
100
AcDbSpline
210
0.0
220
0.0
230
1.0
 70
     8
 71
     3
 72
     8
 73
     4
 74
     0
 42
0.000000001
 43
0.00000001
 40
0.0
 40
0.0
 40
0.0
 40
0.0
 40
1.0
 40
1.0
 40
1.0
 40
1.0
 10
221.4887839919819
 20
38.9560560053494
 30
0.0
 10
221.0462476381366
 20
38.88436947492014
 30
0.0
 10
220.6036384480849
 20
38.81283330931836
 30
0.0
 10
220.1609667418685
 20
38.74142715301367
 30
0.0
  0
LWPOLYLINE
  5
192
330
1F
100
AcDbEntity
  8
0
  6
Continuous
 62
     7
370
    25
100
AcDbPolyline
 90
       26
 70
   128
 43
0.0
 10
220.1609664445
 20
38.7414267628
 10
220.5325317439
 20
40.5537312426
 10
221.0149248156
 20
42.39002249
 10
221.6049741094
 20
44.2382371996
 10
222.2988073833
 20
46.0862383668
 10
223.0918648754
 20
47.9218848689
 10
223.9789388157
 20
49.7331230972
 10
224.9542024022
 20
51.5080531149
 10
226.0112506312
 20
53.2350183871
 10
227.1431384923
 20
54.9026757406
 10
228.3424329936
 20
56.5000710247
 10
229.6012566257
 20
58.016712872
 10
230.9113407037
 20
59.4426384737
 10
232.2640803559
 20
60.7684833465
 10
233.6505904997
 20
61.9855364612
 10
235.0617644524
 20
63.0858060174
 10
236.4883327885
 20
64.0620655879
 10
237.920925531
 20
64.9079006683
 10
239.3501330253
 20
65.6177575067
 10
240.7665679255
 20
66.1869728035
 10
242.1609262735
 20
66.6118074516
 10
243.524050514
 20
66.8894722669
 10
244.8469860881
 20
67.0181408875
 10
246.1210438303
 20
66.9969705851
 10
247.3378562741
 20
66.8261013098
 10
248.4894306646
 20
66.5066513116
  0
LINE
  5
193
330
1F
100
AcDbEntity
  8
0
  6
Continuous
 62
     7
370
    25
100
AcDbLine
 10
248.4894306646
 20
66.5066513116
 30
0.0
 11
248.7841846497
 21
65.5672730761
 31
0.0
  0
LWPOLYLINE
  5
194
330
1F
100
AcDbEntity
  8
0
  6
Continuous
 62
     7
370
    25
100
AcDbPolyline
 90
       10
 70
   128
 43
0.0
 10
234.0399587061
 20
69.119414198
 10
234.1803360291
 20
69.1778087586
 10
235.5981930561
 20
69.6922901757
 10
236.9898721158
 20
70.0592171568
 10
238.3461116027
 20
70.2761480592
 10
239.657886823
 20
70.3416388502
 10
240.9164674522
 20
70.2552534631
 10
242.1134781211
 20
70.0175653122
 10
243.2409530755
 20
69.6301599498
 10
244.1635251988
 20
69.1709522765
  0
LWPOLYLINE
  5
195
330
1F
100
AcDbEntity
  8
0
  6
Continuous
 62
     7
370
    25
100
AcDbPolyline
 90
        9
 70
   128
 43
0.0
 10
219.1655576316
 20
25.8685089142
 10
218.5435715635
 20
26.2652254816
 10
217.6216290086
 20
27.0135154593
 10
216.7931391878
 20
27.8982708594
 10
216.0636167528
 20
28.9136036608
 10
215.4379151765
 20
30.0527566952
 10
214.9201990945
 20
31.3081492778
 10
214.5139153286
 20
32.6714285409
 10
214.2388083604
 20
34.0259669023
  0
LINE
  5
196
330
1F
100
AcDbEntity
  8
0
  6
Continuous
 62
     7
370
    25
100
AcDbLine
 10
244.3217533791
 20
68.9126001965
 30
0.0
 11
248.4894306646
 21
66.5066513116
 31
0.0
  0
LINE
  5
197
330
1F
100
AcDbEntity
  8
0
  6
Continuous
 62
     7
370
    25
100
AcDbLine
 10
220.1609664445
 20
38.7414267628
 30
0.0
 11
219.5288229859
 21
39.1063554138
 31
0.0
  0
SPLINE
  5
198
330
1F
100
AcDbEntity
  8
0
  6
Continuous
 62
     7
370
    25
100
AcDbSpline
210
0.0
220
0.0
230
1.0
 70
     8
 71
     3
 72
    30
 73
    26
 74
     0
 42
0.000000001
 43
0.00000001
 40
0.0
 40
0.0
 40
0.0
 40
0.0
 40
0.1249999999999999
 40
0.1249999999999999
 40
0.1874999999999998
 40
0.1874999999999998
 40
0.2499999999999997
 40
0.2499999999999997
 40
0.3749999999999996
 40
0.3749999999999996
 40
0.4374999999999996
 40
0.4374999999999996
 40
0.4999999999999997
 40
0.4999999999999997
 40
0.6249999999999997
 40
0.6249999999999997
 40
0.6874999999999998
 40
0.6874999999999998
 40
0.7499999999999998
 40
0.7499999999999998
 40
0.8124999999999999
 40
0.8124999999999999
 40
0.875
 40
0.875
 40
1.0
 40
1.0
 40
1.0
 40
1.0
 10
219.5288235399329
 20
39.10635565576951
 30
0.0
 10
219.2945614155028
 20
39.24159230161007
 30
0.0
 10
219.05824538965
 20
39.34520515681714
 30
0.0
 10
218.7033829095144
 20
39.45441681734046
 30
0.0
 10
218.5849155315226
 20
39.48313645566161
 30
0.0
 10
218.3477785079477
 20
39.52499965622091
 30
0.0
 10
218.2288254871081
 20
39.53806627032775
 30
0.0
 10
217.879758730604
 20
39.55313403132694
 30
0.0
 10
217.6548087386127
 20
39.53185174037417
 30
0.0
 10
217.3304493144142
 20
39.45450067872215
 30
0.0
 10
217.2240215105316
 20
39.42087669157773
 30
0.0
 10
217.018586303535
 20
39.33904086034921
 30
0.0
 10
216.9199498168823
 20
39.29107754725733
 30
0.0
 10
216.6363840253478
 20
39.12692163610578
 30
0.0
 10
216.4636720777778
 20
38.99066319129516
 30
0.0
 10
216.2316945390608
 20
38.74577518949282
 30
0.0
 10
216.1593972905314
 20
38.65772842899859
 30
0.0
 10
216.0271868368822
 20
38.47192615561124
 30
0.0
 10
215.9669068625087
 20
38.37379612149267
 30
0.0
 10
215.858127164252
 20
38.16729790326732
 30
0.0
 10
215.8096268280906
 20
38.05892974369655
 30
0.0
 10
215.7248420895904
 20
37.83184865326072
 30
0.0
 10
215.6884091414213
 20
37.7124029767169
 30
0.0
 10
215.60000419155
 20
37.34443582279571
 30
0.0
 10
215.5683502890202
 20
37.08663011369836
 30
0.0
 10
215.563720352847
 20
36.81668680839843
 30
0.0
  0
ARC
  5
199
330
1F
100
AcDbEntity
  8
0
  6
Continuous
 62
     7
370
    25
100
AcDbCircle
 10
239.1263979735
 20
36.4084165425
 30
0.0
 40
23.56621418174449
100
AcDbArc
 50
179.0073355702
 51
180.9926644298
  0
SPLINE
  5
19A
330
1F
100
AcDbEntity
  8
0
  6
Continuous
 62
     7
370
    25
100
AcDbSpline
210
0.0
220
0.0
230
1.0
 70
     8
 71
     3
 72
    28
 73
    24
 74
     0
 42
0.000000001
 43
0.00000001
 40
0.0
 40
0.0
 40
0.0
 40
0.0
 40
0.1250000000000002
 40
0.1250000000000002
 40
0.1875000000000002
 40
0.1875000000000002
 40
0.2500000000000002
 40
0.2500000000000002
 40
0.3750000000000003
 40
0.3750000000000003
 40
0.4375000000000002
 40
0.4375000000000002
 40
0.5000000000000002
 40
0.5000000000000002
 40
0.6250000000000001
 40
0.6250000000000001
 40
0.7500000000000001
 40
0.7500000000000001
 40
0.8125
 40
0.8125
 40
0.8749999999999998
 40
0.8749999999999998
 40
1.0
 40
1.0
 40
1.0
 40
1.0
 10
215.563720352847
 20
36.00014599651269
 30
0.0
 10
215.5683949790272
 20
35.73299429831018
 30
0.0
 10
215.6005721276424
 20
35.45933104711268
 30
0.0
 10
215.6884152462574
 20
35.03915529030222
 30
0.0
 10
215.7243339504183
 20
34.89746692993179
 30
0.0
 10
215.8096668311755
 20
34.61064146365228
 30
0.0
 10
215.8587959676773
 20
34.46663450084574
 30
0.0
 10
216.0229002194967
 20
34.03807852652174
 30
0.0
 10
216.1551024703655
 20
33.75474474623049
 30
0.0
 10
216.3861937219521
 20
33.33217925881107
 30
0.0
 10
216.4691487405204
 20
33.19112458969467
 30
0.0
 10
216.6425901998303
 20
32.91522237389026
 30
0.0
 10
216.7333286051742
 20
32.77982381701857
 30
0.0
 10
217.0168952970544
 20
32.38077563986645
 30
0.0
 10
217.2212916683546
 20
32.12383951022269
 30
0.0
 10
217.6577968484773
 20
31.62937408487759
 30
0.0
 10
217.8832226229351
 20
31.39930237125782
 30
0.0
 10
218.2301928657428
 20
31.0779591046453
 30
0.0
 10
218.3473389182305
 20
30.97483967130064
 30
0.0
 10
218.5844834738709
 20
30.77666532596846
 30
0.0
 10
218.7048144090819
 20
30.68142059920653
 30
0.0
 10
219.0617372112494
 20
30.41422058676339
 30
0.0
 10
219.2968356727388
 20
30.25833047011033
 30
0.0
 10
219.5288235399329
 20
30.12440672502627
 30
0.0
  0
LINE
  5
19B
330
1F
100
AcDbEntity
  8
0
  6
Continuous
 62
     7
370
    25
100
AcDbLine
 10
219.5288229859
 20
30.1244065317
 30
0.0
 11
220.1609664445
 21
29.7594778807
 31
0.0
  0
LWPOLYLINE
  5
19C
330
1F
100
AcDbEntity
  8
0
  6
Continuous
 62
     7
370
    25
100
AcDbPolyline
 90
        9
 70
   128
 43
0.0
 10
226.1131538084
 20
21.9808570081
 10
225.069726914
 20
22.4625317303
 10
224.0696822976
 20
23.1069201475
 10
223.1600821839
 20
23.8943986617
 10
222.3470945008
 20
24.819629005
 10
221.636232583
 20
25.8763337995
 10
221.0323196103
 20
27.057349032
 10
220.5394504125
 20
28.3546632221
 10
220.1609664445
 20
29.7594778807
  0
LINE
  5
19D
330
1F
100
AcDbEntity
  8
0
  6
Continuous
 62
     7
370
    25
100
AcDbLine
 10
250.4413829281
 20
65.3793089314
 30
0.0
 11
250.7937938019
 21
65.1758664644
 31
0.0
  0
SPLINE
  5
19E
330
1F
100
AcDbEntity
  8
0
  6
Continuous
 62
     7
370
    25
100
AcDbSpline
210
0.0
220
0.0
230
1.0
 70
     8
 71
     3
 72
    22
 73
    18
 74
     0
 42
0.000000001
 43
0.00000001
 40
0.0
 40
0.0
 40
0.0
 40
0.0
 40
0.2500000000000002
 40
0.2500000000000002
 40
0.3750000000000003
 40
0.3750000000000003
 40
0.5000000000000004
 40
0.5000000000000004
 40
0.6250000000000004
 40
0.6250000000000004
 40
0.7500000000000004
 40
0.7500000000000004
 40
0.8750000000000004
 40
0.8750000000000004
 40
0.9375000000000002
 40
0.9375000000000002
 40
1.0
 40
1.0
 40
1.0
 40
1.0
 10
244.3217527900799
 20
68.91260053048056
 30
0.0
 10
244.753784885619
 20
68.74433009237413
 30
0.0
 10
245.2041595339844
 20
68.53365408749393
 30
0.0
 10
245.9291329756686
 20
68.14855985123727
 30
0.0
 10
246.181100299388
 20
68.0074343129615
 30
0.0
 10
246.6938924125203
 20
67.7084173437443
 30
0.0
 10
246.9554137245793
 20
67.5502515063885
 30
0.0
 10
247.4929884061779
 20
67.21765156505103
 30
0.0
 10
247.7709509508407
 20
67.04195375368498
 30
0.0
 10
248.3235568695861
 20
66.69031083759161
 30
0.0
 10
248.6005527947574
 20
66.5129320084689
 30
0.0
 10
249.1587403746541
 20
66.15862158915634
 30
0.0
 10
249.4289164638139
 20
65.98876374944388
 30
0.0
 10
249.8203837789104
 20
65.74819476446916
 30
0.0
 10
249.9486310090183
 20
65.67032688192077
 30
0.0
 10
250.2004926481998
 20
65.51972058642234
 30
0.0
 10
250.3233848820462
 20
65.4474277472114
 30
0.0
 10
250.4413835409055
 20
65.37930857140931
 30
0.0
  0
LINE
  5
19F
330
1F
100
AcDbEntity
  8
0
  6
Continuous
 62
     7
370
    25
100
AcDbLine
 10
221.8098848428
 20
39.141423403
 30
0.0
 11
221.4887838091
 21
38.9560557219
 31
0.0
  0
LWPOLYLINE
  5
1A0
330
1F
100
AcDbEntity
  8
0
  6
Continuous
 62
     7
370
    25
100
AcDbPolyline
 90
       23
 70
   128
 43
0.0
 10
248.7942037459
 20
46.8170715185
 10
247.8353403048
 20
46.1965544277
 10
246.8904592453
 20
45.451131611
 10
245.9733392119
 20
44.5916744461
 10
245.0973535148
 20
43.6307146296
 10
244.2752762712
 20
42.5822645827
 10
243.5190952959
 20
41.4616143783
 10
242.8398372582
 20
40.2851049491
 10
242.2474073261
 20
39.0698925491
 10
241.7504439572
 20
37.8336972444
 10
241.3561950922
 20
36.5945462684
 10
241.0704091662
 20
35.370509201
 10
240.8972527904
 20
34.1794343807
 10
240.8392521414
 20
33.0386912082
 10
240.8972527904
 20
31.9649141597
 10
241.0704091662
 20
30.9737614355
 10
241.3561950922
 20
30.0796857748
 10
241.7504439572
 20
29.2957248493
 10
242.2474073261
 20
28.6333112371
 10
242.8398372582
 20
28.1021038773
 10
243.5190952959
 20
27.709849085
 10
244.2752762712
 20
27.4622668509
 10
244.426189977
 20
27.4320176362
  0
LWPOLYLINE
  5
1A1
330
1F
100
AcDbEntity
  8
0
  6
Continuous
 62
     7
370
    25
100
AcDbPolyline
 90
       10
 70
   128
 43
0.0
 10
255.4428829279
 20
46.5127815116
 10
255.3410001656
 20
46.6286628023
 10
254.7485702335
 20
47.1598701622
 10
254.0693121958
 20
47.5521249545
 10
253.3131312205
 20
47.7997071886
 10
252.4910539769
 20
47.8990070532
 10
251.6150682798
 20
47.848575312
 10
250.6979482464
 20
47.6491482252
 10
249.7530671869
 20
47.3036345919
 10
248.7942037459
 20
46.8170715185
  0
LINE
  5
1A2
330
1F
100
AcDbEntity
  8
0
  6
Continuous
 62
     7
370
    25
100
AcDbLine
 10
222.7705340097
 20
38.9230090947
 30
0.0
 11
222.38387948
 21
39.1462200035
 31
0.0
  0
SPLINE
  5
1A3
330
1F
100
AcDbEntity
  8
0
  6
Continuous
 62
     7
370
    25
100
AcDbSpline
210
0.0
220
0.0
230
1.0
 70
     8
 71
     3
 72
    12
 73
     8
 74
     0
 42
0.000000001
 43
0.00000001
 40
0.0
 40
0.0
 40
0.0
 40
0.0
 40
0.25
 40
0.25
 40
0.5
 40
0.5
 40
1.0
 40
1.0
 40
1.0
 40
1.0
 10
222.3838796466741
 20
39.14622048321527
 30
0.0
 10
222.3464876090913
 20
39.16780644704171
 30
0.0
 10
222.3003392982363
 20
39.18524658206417
 30
0.0
 10
222.2016394608538
 20
39.2077027103785
 30
0.0
 10
222.1481278945583
 20
39.21308901597912
 30
0.0
 10
221.989530474857
 20
39.21100785716899
 30
0.0
 10
221.8848163802392
 20
39.18468063667819
 30
0.0
 10
221.8098845417124
 20
39.14142340705271
 30
0.0
  0
ARC
  5
1A4
330
1F
100
AcDbEntity
  8
0
  6
Continuous
 62
     7
370
    25
100
AcDbCircle
 10
253.3999439963
 20
34.8723906338
 30
0.0
 40
39.68261759874596
100
AcDbArc
 50
126.9392392794
 51
166.1339182149
  0
SPLINE
  5
1A5
330
1F
100
AcDbEntity
  8
0
  6
Continuous
 62
     7
370
    25
100
AcDbSpline
210
0.0
220
0.0
230
1.0
 70
    11
 71
     3
 72
    70
 73
    66
 74
     0
 42
0.000000001
 43
0.00000001
 40
0.0
 40
0.0
 40
0.0
 40
0.0
 40
0.03125
 40
0.03125
 40
0.0625
 40
0.0625
 40
0.09375
 40
0.09375
 40
0.125
 40
0.125
 40
0.15625
 40
0.15625
 40
0.1875
 40
0.1875
 40
0.21875
 40
0.21875
 40
0.25
 40
0.25
 40
0.28125
 40
0.28125
 40
0.3125
 40
0.3125
 40
0.34375
 40
0.34375
 40
0.375
 40
0.375
 40
0.40625
 40
0.40625
 40
0.4375
 40
0.4375
 40
0.46875
 40
0.46875
 40
0.5
 40
0.5
 40
0.53125
 40
0.53125
 40
0.5625
 40
0.5625
 40
0.59375
 40
0.59375
 40
0.625
 40
0.625
 40
0.65625
 40
0.65625
 40
0.6875
 40
0.6875
 40
0.71875
 40
0.71875
 40
0.75
 40
0.75
 40
0.78125
 40
0.78125
 40
0.8125
 40
0.8125
 40
0.84375
 40
0.84375
 40
0.875
 40
0.875
 40
0.90625
 40
0.90625
 40
0.9375
 40
0.9375
 40
0.96875
 40
0.96875
 40
1.0
 40
1.0
 40
1.0
 40
1.0
 10
245.5921079334955
 20
49.55696856441321
 30
0.0
 10
245.7007415501748
 20
49.54483439648028
 30
0.0
 10
245.8065927334981
 20
49.52711180404391
 30
0.0
 10
246.0132895307307
 20
49.48211025876252
 30
0.0
 10
246.1147812958124
 20
49.45460030587024
 30
0.0
 10
246.3097082761981
 20
49.39131834328903
 30
0.0
 10
246.4019243361433
 20
49.35602283494588
 30
0.0
 10
246.5763390390651
 20
49.2787433112392
 30
0.0
 10
246.6592094730827
 20
49.23633077091037
 30
0.0
 10
246.8105954409731
 20
49.14685801207732
 30
0.0
 10
246.8790574431537
 20
49.09997597001317
 30
0.0
 10
247.001649989444
 20
49.00183161512127
 30
0.0
 10
247.0562056124348
 20
48.9500261110684
 30
0.0
 10
247.1471102631365
 20
48.8443942711488
 30
0.0
 10
247.1836187102936
 20
48.79067225661144
 30
0.0
 10
247.2383410276393
 20
48.68084776209869
 30
0.0
 10
247.2566000813729
 20
48.62407398658448
 30
0.0
 10
247.2718827000084
 20
48.51108606704641
 30
0.0
 10
247.2692052050211
 20
48.45492505287928
 30
0.0
 10
247.2420532484038
 20
48.34260868179291
 30
0.0
 10
247.2169636200742
 20
48.28573254366743
 30
0.0
 10
247.1449513465166
 20
48.17675969889576
 30
0.0
 10
247.0982449736547
 20
48.12426366680848
 30
0.0
 10
246.9819843775058
 20
48.02308816481873
 30
0.0
 10
246.9123883188101
 20
47.97479214371257
 30
0.0
 10
246.757354767069
 20
47.88762317105446
 30
0.0
 10
246.669943730775
 20
47.84758493725756
 30
0.0
 10
246.4827206132186
 20
47.77817599486789
 30
0.0
 10
246.3839486386013
 20
47.74897715025052
 30
0.0
 10
246.1766014052783
 20
47.70144541906233
 30
0.0
 10
246.0692592526164
 20
47.68352914461883
 30
0.0
 10
245.8540585406669
 20
47.66000918443671
 30
0.0
 10
245.7441606252917
 20
47.6542238824016
 30
0.0
 10
245.5282703474945
 20
47.65499955753923
 30
0.0
 10
245.4222388049743
 20
47.66140626524705
 30
0.0
 10
245.2137564480681
 20
47.68622338408392
 30
0.0
 10
245.1115195866227
 20
47.70475936784217
 30
0.0
 10
244.9177532874644
 20
47.75267629615483
 30
0.0
 10
244.8252342705114
 20
47.78214988452668
 30
0.0
 10
244.6489450183391
 20
47.85247920015907
 30
0.0
 10
244.5665299361111
 20
47.89288828748209
 30
0.0
 10
244.4157602212179
 20
47.9824308375899
 30
0.0
 10
244.3468843567636
 20
48.03176683705948
 30
0.0
 10
244.2227144143968
 20
48.13983495646782
 30
0.0
 10
244.1687462476512
 20
48.19750161125189
 30
0.0
 10
244.0781844069045
 20
48.31820012309385
 30
0.0
 10
244.0413196450133
 20
48.38145457092192
 30
0.0
 10
243.9858165161345
 20
48.51374612801089
 30
0.0
 10
243.9679256262211
 20
48.58122305038916
 30
0.0
 10
243.9526171526624
 20
48.71648237362141
 30
0.0
 10
243.9550515853693
 20
48.78455003569877
 30
0.0
 10
243.9827450201641
 20
48.92100601823606
 30
0.0
 10
244.0075124950589
 20
48.98679013436429
 30
0.0
 10
244.0791971779922
 20
49.11252848193321
 30
0.0
 10
244.1269367624889
 20
49.17327548324332
 30
0.0
 10
244.2438268297977
 20
49.28400203746073
 30
0.0
 10
244.3120009495064
 20
49.33349302431485
 30
0.0
 10
244.4680134974915
 20
49.42047156800823
 30
0.0
 10
244.5560688413604
 20
49.45766625396739
 30
0.0
 10
244.7424305040239
 20
49.51613487832265
 30
0.0
 10
244.8430104687749
 20
49.53821459486164
 30
0.0
 10
245.0504229649658
 20
49.5672873817585
 30
0.0
 10
245.1565469603182
 20
49.57440578395411
 30
0.0
 10
245.3733545517601
 20
49.57537882851421
 30
0.0
 10
245.4834743168161
 20
49.56910273234615
 30
0.0
 10
245.5921079334955
 20
49.55696856441321
 30
0.0
  0
SPLINE
  5
1A6
330
1F
100
AcDbEntity
  8
0
  6
Continuous
 62
     7
370
    25
100
AcDbSpline
210
0.0
220
0.0
230
1.0
 70
    11
 71
     3
 72
    70
 73
    66
 74
     0
 42
0.000000001
 43
0.00000001
 40
0.0
 40
0.0
 40
0.0
 40
0.0
 40
0.03125
 40
0.03125
 40
0.0625
 40
0.0625
 40
0.09375
 40
0.09375
 40
0.125
 40
0.125
 40
0.15625
 40
0.15625
 40
0.1875
 40
0.1875
 40
0.21875
 40
0.21875
 40
0.25
 40
0.25
 40
0.28125
 40
0.28125
 40
0.3125
 40
0.3125
 40
0.34375
 40
0.34375
 40
0.375
 40
0.375
 40
0.40625
 40
0.40625
 40
0.4375
 40
0.4375
 40
0.46875
 40
0.46875
 40
0.5
 40
0.5
 40
0.53125
 40
0.53125
 40
0.5625
 40
0.5625
 40
0.59375
 40
0.59375
 40
0.625
 40
0.625
 40
0.65625
 40
0.65625
 40
0.6875
 40
0.6875
 40
0.71875
 40
0.71875
 40
0.75
 40
0.75
 40
0.78125
 40
0.78125
 40
0.8125
 40
0.8125
 40
0.84375
 40
0.84375
 40
0.875
 40
0.875
 40
0.90625
 40
0.90625
 40
0.9375
 40
0.9375
 40
0.96875
 40
0.96875
 40
1.0
 40
1.0
 40
1.0
 40
1.0
 10
236.865119878456
 20
34.44138190040057
 30
0.0
 10
236.8003220091361
 20
34.52935604138626
 30
0.0
 10
236.7410590785575
 20
34.61971107808841
 30
0.0
 10
236.6344648446184
 20
34.80569513714919
 30
0.0
 10
236.586638100451
 20
34.90261238233968
 30
0.0
 10
236.5081849072
 20
35.09567672034293
 30
0.0
 10
236.4774346478287
 20
35.19151148024432
 30
0.0
 10
236.4341449508279
 20
35.38196076440695
 30
0.0
 10
236.4219042056766
 20
35.47695675378912
 30
0.0
 10
236.4182596779418
 20
35.65487947484932
 30
0.0
 10
236.4265598964701
 20
35.7398228326829
 30
0.0
 10
236.4632332694515
 20
35.89741504089288
 30
0.0
 10
236.4910058077722
 20
35.96829738139211
 30
0.0
 10
236.5638363736572
 20
36.09509781753249
 30
0.0
 10
236.6090517800186
 20
36.15065183766801
 30
0.0
 10
236.71153412783
 20
36.24243859759279
 30
0.0
 10
236.7697529589713
 20
36.27966425182686
 30
0.0
 10
236.895590031597
 20
36.33524435071436
 30
0.0
 10
236.9625720620542
 20
36.35354111753593
 30
0.0
 10
237.103621230843
 20
36.37212478176723
 30
0.0
 10
237.1780837121952
 20
36.37220054577282
 30
0.0
 10
237.3283255617442
 20
36.35451587294492
 30
0.0
 10
237.4047033808863
 20
36.33691371228857
 30
0.0
 10
237.5596705090034
 20
36.28418242454622
 30
0.0
 10
237.6378520838931
 20
36.24901841463605
 30
0.0
 10
237.7907833794655
 20
36.16365128657293
 30
0.0
 10
237.8662100643039
 20
36.1132418752897
 30
0.0
 10
238.0150025251215
 20
35.99655005309143
 30
0.0
 10
238.0876315636901
 20
35.93068742528079
 30
0.0
 10
238.2256941325902
 20
35.78775647310982
 30
0.0
 10
238.2917413483381
 20
35.71023006030084
 30
0.0
 10
238.4179086540919
 20
35.54246090461174
 30
0.0
 10
238.4772560101528
 20
35.45304297326901
 30
0.0
 10
238.5852523123002
 20
35.26858891077979
 30
0.0
 10
238.6344850647787
 20
35.17281338213392
 30
0.0
 10
238.7229746801033
 20
34.97366618977256
 30
0.0
 10
238.7612306836454
 20
34.8722752449968
 30
0.0
 10
238.8238395569579
 20
34.67154147320449
 30
0.0
 10
238.8487087879013
 20
34.57063003839592
 30
0.0
 10
238.8833951831224
 20
34.37263650482914
 30
0.0
 10
238.8928234504686
 20
34.27835118234574
 30
0.0
 10
238.8960876491036
 20
34.09924850870049
 30
0.0
 10
238.8896109600057
 20
34.01392379659877
 30
0.0
 10
238.8613399087526
 20
33.86181577790119
 30
0.0
 10
238.8394781723411
 20
33.7933771318684
 30
0.0
 10
238.7813208423995
 20
33.67418733861221
 30
0.0
 10
238.7457208412102
 20
33.62449355650873
 30
0.0
 10
238.6620394779069
 20
33.54298166940382
 30
0.0
 10
238.6138127294712
 20
33.5114331714344
 30
0.0
 10
238.5087221543576
 20
33.46743464288406
 30
0.0
 10
238.4511723047183
 20
33.45450014034533
 30
0.0
 10
238.3273342913071
 20
33.4462054566583
 30
0.0
 10
238.2622402845736
 20
33.45084282433127
 30
0.0
 10
238.1256758008068
 20
33.47627311415327
 30
0.0
 10
238.0535087784056
 20
33.49738442239765
 30
0.0
 10
237.9062942430017
 20
33.55453010742202
 30
0.0
 10
237.8313232742171
 20
33.59037245846499
 30
0.0
 10
237.6785958203098
 20
33.67624499972283
 30
0.0
 10
237.6001217608207
 20
33.72685383141454
 30
0.0
 10
237.4453692803075
 20
33.83951864078003
 30
0.0
 10
237.3687914346278
 20
33.90161746652693
 30
0.0
 10
237.2175073415008
 20
34.03766099346019
 30
0.0
 10
237.1421948405834
 20
34.11232547303276
 30
0.0
 10
236.9986325140383
 20
34.27003397019064
 30
0.0
 10
236.9299177477759
 20
34.35340775941489
 30
0.0
 10
236.865119878456
 20
34.44138190040057
 30
0.0
  0
LINE
  5
1A7
330
1F
100
AcDbEntity
  8
0
  6
Continuous
 62
     7
370
    25
100
AcDbLine
 10
221.2523933311
 20
31.1194025129
 30
0.0
 11
226.2021409521
 21
28.2619740333
 31
0.0
  0
ARC
  5
1A8
330
1F
100
AcDbEntity
  8
0
  6
Continuous
 62
     7
370
    25
100
AcDbCircle
 10
225.3929398418
 20
37.5924309671
 30
0.0
 40
7.684023866253019
100
AcDbArc
 50
182.6054781208
 51
237.3945216397
  0
LINE
  5
1A9
330
1F
100
AcDbEntity
  8
0
  6
Continuous
 62
     7
370
    25
100
AcDbLine
 10
217.7168595041
 20
38.0596676132
 30
0.0
 11
217.7168595041
 21
37.2431267625
 31
0.0
  0
ARC
  5
1AA
330
1F
100
AcDbEntity
  8
0
  6
Continuous
 62
     7
370
    25
100
AcDbCircle
 10
220.9182037524
 20
38.1743793611
 30
0.0
 40
3.203398785792432
100
AcDbArc
 50
154.9214575404
 51
182.052165507
  0
SPLINE
  5
1AB
330
1F
100
AcDbEntity
  8
0
  6
Continuous
 62
     7
370
    25
100
AcDbSpline
210
0.0
220
0.0
230
1.0
 70
     8
 71
     3
 72
     8
 73
     4
 74
     0
 42
0.000000001
 43
0.00000001
 40
0.0
 40
0.0
 40
0.0
 40
0.0
 40
1.0
 40
1.0
 40
1.0
 40
1.0
 10
205.9610895690848
 20
42.5529977052252
 30
0.0
 10
206.4279517947516
 20
42.17275611796322
 30
0.0
 10
206.8949865791351
 20
41.80584946942035
 30
0.0
 10
207.3621116913105
 20
41.44592314382836
 30
0.0
  0
SPLINE
  5
1AC
330
1F
100
AcDbEntity
  8
0
  6
Continuous
 62
     7
370
    25
100
AcDbSpline
210
0.0
220
0.0
230
1.0
 70
     8
 71
     3
 72
    14
 73
    10
 74
     0
 42
0.000000001
 43
0.00000001
 40
0.0
 40
0.0
 40
0.0
 40
0.0
 40
0.124999999999998
 40
0.124999999999998
 40
0.249999999999996
 40
0.249999999999996
 40
0.4999999999999973
 40
0.4999999999999973
 40
1.0
 40
1.0
 40
1.0
 40
1.0
 10
207.3621116913105
 20
41.44592314382836
 30
0.0
 10
207.3885356299837
 20
41.42556313554275
 30
0.0
 10
207.4125995724885
 20
41.41005083222807
 30
0.0
 10
207.4488688299136
 20
41.39306746366873
 30
0.0
 10
207.4608872049018
 20
41.3911932222628
 30
0.0
 10
207.4864014515721
 20
41.39533406359805
 30
0.0
 10
207.4905951140202
 20
41.41027645166107
 30
0.0
 10
207.4917019237557
 20
41.46462778800622
 30
0.0
 10
207.4760739386671
 20
41.51604874868222
 30
0.0
 10
207.4564212060335
 20
41.57239757626817
 30
0.0
  0
SPLINE
  5
1AD
330
1F
100
AcDbEntity
  8
0
  6
Continuous
 62
     7
370
    25
100
AcDbSpline
210
0.0
220
0.0
230
1.0
 70
     8
 71
     3
 72
    14
 73
    10
 74
     0
 42
0.000000001
 43
0.00000001
 40
0.0
 40
0.0
 40
0.0
 40
0.0
 40
0.25
 40
0.25
 40
0.5
 40
0.5
 40
0.75
 40
0.75
 40
1.0
 40
1.0
 40
1.0
 40
1.0
 10
207.456421206033
 20
41.57239757626854
 30
0.0
 10
207.431755358095
 20
41.64312013880635
 30
0.0
 10
207.4208924873706
 20
41.70618643655656
 30
0.0
 10
207.3989421201757
 20
41.83775317751515
 30
0.0
 10
207.3886705253568
 20
41.90570651650683
 30
0.0
 10
207.3593665109982
 20
42.05431152035026
 30
0.0
 10
207.3405738397685
 20
42.13477532678114
 30
0.0
 10
207.2876545352523
 20
42.31434620059547
 30
0.0
 10
207.2535753580734
 20
42.41317724652333
 30
0.0
 10
207.2094891057956
 20
42.5207773015026
 30
0.0
  0
LWPOLYLINE
  5
1AE
330
1F
100
AcDbEntity
  8
0
  6
Continuous
 62
     7
370
    25
100
AcDbPolyline
 90
        9
 70
   128
 43
0.0
 10
207.209488827
 20
42.520777454
 10
206.8414085451
 20
43.5919228337
 10
206.5762798433
 20
44.7559257111
 10
206.4163127969
 20
46.0030769539
 10
206.362841617
 20
47.3229735898
 10
206.4163127969
 20
48.704606736
 10
206.5762798433
 20
50.1364519993
 10
206.8414085451
 20
51.60656596
 10
207.209488827
 20
53.1026877873
  0
SPLINE
  5
1AF
330
1F
100
AcDbEntity
  8
0
  6
Continuous
 62
     7
370
    25
100
AcDbSpline
210
0.0
220
0.0
230
1.0
 70
     8
 71
     3
 72
    14
 73
    10
 74
     0
 42
0.000000001
 43
0.00000001
 40
0.0
 40
0.0
 40
0.0
 40
0.0
 40
0.25
 40
0.25
 40
0.5
 40
0.5
 40
0.75
 40
0.75
 40
1.0
 40
1.0
 40
1.0
 40
1.0
 10
207.456421206033
 20
55.15618797557705
 30
0.0
 10
207.431755358095
 20
54.98451544408418
 30
0.0
 10
207.4208924873706
 20
54.80953571190859
 30
0.0
 10
207.3989421201757
 20
54.4607292082674
 30
0.0
 10
207.3886705253568
 20
54.28651511633162
 30
0.0
 10
207.3593665109982
 20
53.94046420438052
 30
0.0
 10
207.3405738397685
 20
53.76858135046528
 30
0.0
 10
207.2876545352523
 20
53.42854968157106
 30
0.0
 10
207.2535753580734
 20
53.26118882107393
 30
0.0
 10
207.2094891057956
 20
53.10268786267098
 30
0.0
  0
SPLINE
  5
1B0
330
1F
100
AcDbEntity
  8
0
  6
Continuous
 62
     7
370
    25
100
AcDbSpline
210
0.0
220
0.0
230
1.0
 70
     8
 71
     3
 72
    14
 73
    10
 74
     0
 42
0.000000001
 43
0.00000001
 40
0.0
 40
0.0
 40
0.0
 40
0.0
 40
0.124999999999999
 40
0.124999999999999
 40
0.2499999999999981
 40
0.2499999999999981
 40
0.4999999999999952
 40
0.4999999999999952
 40
1.0
 40
1.0
 40
1.0
 40
1.0
 10
207.3621116913105
 20
55.9049317192197
 30
0.0
 10
207.3885356299837
 20
55.9006254199475
 30
0.0
 10
207.4125995724885
 20
55.8847419134071
 30
0.0
 10
207.4488688299136
 20
55.8355973405157
 30
0.0
 10
207.4608872049018
 20
55.80458598516335
 30
0.0
 10
207.4864014515721
 20
55.70772744329592
 30
0.0
 10
207.4905951140202
 20
55.63744682241976
 30
0.0
 10
207.4917019237557
 20
55.43104542034189
 30
0.0
 10
207.4760739386671
 20
55.29296958431971
 30
0.0
 10
207.4564212060335
 20
55.15618797557696
 30
0.0
  0
SPLINE
  5
1B1
330
1F
100
AcDbEntity
  8
0
  6
Continuous
 62
     7
370
    25
100
AcDbSpline
210
0.0
220
0.0
230
1.0
 70
     8
 71
     3
 72
     8
 73
     4
 74
     0
 42
0.000000001
 43
0.00000001
 40
0.0
 40
0.0
 40
0.0
 40
0.0
 40
1.0
 40
1.0
 40
1.0
 40
1.0
 10
205.9610895690848
 20
56.07414461310469
 30
0.0
 10
206.4279517947516
 20
56.04205485903938
 30
0.0
 10
206.8949865791351
 20
55.98105892173371
 30
0.0
 10
207.3621116913105
 20
55.90493171921972
 30
0.0
  0
SPLINE
  5
1B2
330
1F
100
AcDbEntity
  8
0
  6
Continuous
 62
     7
370
    25
100
AcDbSpline
210
0.0
220
0.0
230
1.0
 70
     8
 71
     3
 72
    14
 73
    10
 74
     0
 42
0.000000001
 43
0.00000001
 40
0.0
 40
0.0
 40
0.0
 40
0.0
 40
0.5000000000000002
 40
0.5000000000000002
 40
0.7500000000000003
 40
0.7500000000000003
 40
0.8750000000000001
 40
0.8750000000000001
 40
1.0
 40
1.0
 40
1.0
 40
1.0
 10
203.1165521918668
 20
56.99872648926689
 30
0.0
 10
203.5815867245818
 20
56.80238124000604
 30
0.0
 10
204.0484426458634
 20
56.614728728538
 30
0.0
 10
204.7554690314679
 20
56.36471077159357
 30
0.0
 10
204.992254014359
 20
56.28654951379474
 30
0.0
 10
205.3510346524905
 20
56.18598224839975
 30
0.0
 10
205.4712334764916
 20
56.15526075214812
 30
0.0
 10
205.7138355746014
 20
56.10398604576356
 30
0.0
 10
205.8360873321902
 20
56.08273663623058
 30
0.0
 10
205.9610895690848
 20
56.07414461310463
 30
0.0
  0
SPLINE
  5
1B3
330
1F
100
AcDbEntity
  8
0
  6
Continuous
 62
     7
370
    25
100
AcDbSpline
210
0.0
220
0.0
230
1.0
 70
     8
 71
     3
 72
    14
 73
    10
 74
     0
 42
0.000000001
 43
0.00000001
 40
0.0
 40
0.0
 40
0.0
 40
0.0
 40
0.5000000000000014
 40
0.5000000000000014
 40
0.7500000000000008
 40
0.7500000000000008
 40
0.8750000000000004
 40
0.8750000000000004
 40
1.0
 40
1.0
 40
1.0
 40
1.0
 10
203.1165521918668
 20
44.67578251339249
 30
0.0
 10
203.5815867245818
 20
44.34093719715413
 30
0.0
 10
204.0484426458634
 20
44.00214902208259
 30
0.0
 10
204.7554690314679
 20
43.47985327504988
 30
0.0
 10
204.992254014359
 20
43.30343156695951
 30
0.0
 10
205.3510346524905
 20
43.03134941544057
 30
0.0
 10
205.4712334764916
 20
42.93940405408365
 30
0.0
 10
205.7138355746014
 20
42.75097803325335
 30
0.0
 10
205.8360873321902
 20
42.65480728919871
 30
0.0
 10
205.9610895690848
 20
42.55299770522522
 30
0.0
  0
SPLINE
  5
1B4
330
1F
100
AcDbEntity
  8
0
  6
Continuous
 62
     7
370
    25
100
AcDbSpline
210
0.0
220
0.0
230
1.0
 70
     8
 71
     3
 72
    17
 73
    13
 74
     0
 42
0.000000001
 43
0.00000001
 40
0.0
 40
0.0
 40
0.0
 40
0.0
 40
0.1228061387960293
 40
0.2460445751587854
 40
0.3692589627506633
 40
0.4920123271917499
 40
0.6140763973124345
 40
0.6755749086045674
 40
0.73631612311511
 40
0.8582222516266961
 40
0.98069636150903
 40
1.0
 40
1.0
 40
1.0
 40
1.0
 10
211.5747953193832
 20
42.23200667600893
 30
0.0
 10
211.3710271105795
 20
42.60589629610161
 30
0.0
 10
210.9627733957611
 20
43.35499168851337
 30
0.0
 10
210.7695047955706
 20
44.50330965711746
 30
0.0
 10
210.974867669402
 20
45.45564850071938
 30
0.0
 10
211.5341563661926
 20
46.08911487450439
 30
0.0
 10
212.2100521445042
 20
46.23042245000902
 30
0.0
 10
212.7849410153969
 20
46.10422825022512
 30
0.0
 10
213.3651766188192
 20
45.81615449965764
 30
0.0
 10
214.0287984327157
 20
45.15751320785274
 30
0.0
 10
214.5381811145648
 20
44.38511921006872
 30
0.0
 10
214.6842688475679
 20
43.91949491614265
 30
0.0
 10
214.7041593086466
 20
43.85609820441822
 30
0.0
  0
SPLINE
  5
1B5
330
1F
100
AcDbEntity
  8
0
  6
Continuous
 62
     7
370
    25
100
AcDbSpline
210
0.0
220
0.0
230
1.0
 70
     8
 71
     3
 72
    12
 73
     8
 74
     0
 42
0.000000001
 43
0.00000001
 40
0.0
 40
0.0
 40
0.0
 40
0.0
 40
0.0363264977355057
 40
0.3566716617036994
 40
0.5165248690166211
 40
0.6785253928286369
 40
1.0
 40
1.0
 40
1.0
 40
1.0
 10
214.0799503234934
 20
40.20007813276722
 30
0.0
 10
214.0566177207702
 20
40.19610531323226
 30
0.0
 10
213.8275265971023
 20
40.15709819078688
 30
0.0
 10
213.3529980879756
 20
40.4207658177103
 30
0.0
 10
212.7842587369905
 20
40.83027528252278
 30
0.0
 10
212.20081989317
 20
41.36648237651245
 30
0.0
 10
211.8248121768321
 20
41.88634026854386
 30
0.0
 10
211.5747953193832
 20
42.23200667600893
 30
0.0
  0
LWPOLYLINE
  5
1B6
330
1F
100
AcDbEntity
  8
0
  6
Continuous
 62
     7
370
    25
100
AcDbPolyline
 90
       18
 70
   128
 43
0.0
 10
237.8613948773
 20
33.972772675
 10
238.1806914991
 20
33.8573706425
 10
238.4568639923
 20
33.895402971
 10
238.6526150302
 20
34.081732561
 10
238.7415080021
 20
34.3911940761
 10
238.7115376415
 20
34.7819929477
 10
238.566750046
 20
35.2013505016
 10
238.3267000361
 20
35.5926299561
 10
238.0238090751
 20
35.9029859849
 10
237.6989819965
 20
36.0905046659
 10
237.3960910355
 20
36.1298590969
 10
237.1560410257
 20
36.0157354843
 10
237.0112534301
 20
35.7635461299
 10
236.9812830696
 20
35.4073503002
 10
237.0701760415
 20
34.9952551443
 10
237.2659270794
 20
34.5829162167
 10
237.5420995726
 20
34.2260219147
 10
237.8613948773
 20
33.972772675
  0
LWPOLYLINE
  5
1B7
330
1F
100
AcDbEntity
  8
0
  6
Continuous
 62
     7
370
    25
100
AcDbPolyline
 90
       18
 70
   128
 43
0.0
 10
244.7283385937
 20
47.9080200337
 10
245.107321903
 20
47.7581504087
 10
245.5544933803
 20
47.6974350343
 10
246.0094614483
 20
47.7340731717
 10
246.4107806992
 20
47.8631162031
 10
246.7042510112
 20
48.0671360499
 10
246.8502360053
 20
48.3185795926
 10
246.8290200885
 20
48.5834877465
 10
246.643469905
 20
48.8260823654
 10
246.3186428264
 20
49.0136010464
 10
245.8984110879
 20
49.1207168873
 10
245.439526985
 20
49.1329645754
 10
245.0039667999
 20
49.0486892322
 10
244.6505557667
 20
48.8792724272
 10
244.4270224595
 20
48.647595755
 10
244.3635564674
 20
48.38494828
 10
244.4687299766
 20
48.1268016809
 10
244.7283385937
 20
47.9080200337
  0
SPLINE
  5
1B8
330
1F
100
AcDbEntity
  8
0
  6
Continuous
 62
     7
370
    25
100
AcDbSpline
210
0.0
220
0.0
230
1.0
 70
     8
 71
     3
 72
    14
 73
    10
 74
     0
 42
0.000000001
 43
0.00000001
 40
0.0
 40
0.0
 40
0.0
 40
0.0
 40
0.25
 40
0.25
 40
0.5
 40
0.5
 40
0.75
 40
0.75
 40
1.0
 40
1.0
 40
1.0
 40
1.0
 10
258.6900900543148
 20
47.83334235258118
 30
0.0
 10
258.7367720906535
 20
47.80639338662774
 30
0.0
 10
258.7744587052596
 20
47.77328666247662
 30
0.0
 10
258.8233301840139
 20
47.70267808941409
 30
0.0
 10
258.8354314144137
 20
47.66418251502402
 30
0.0
 10
258.8332618028585
 20
47.58822440082863
 30
0.0
 10
258.8190213887766
 20
47.55003069323627
 30
0.0
 10
258.767169946187
 20
47.48003604431121
 30
0.0
 10
258.7294634060834
 20
47.44786804882943
 30
0.0
 10
258.682645975366
 20
47.42084092136484
 30
0.0
  0
ARC
  5
1B9
330
1F
100
AcDbEntity
  8
0
  6
Continuous
 62
     7
370
    25
100
AcDbCircle
 10
233.2110126505
 20
27.7844322192
 30
0.0
 40
8.673153903312762
100
AcDbArc
 50
216.0492504164
 51
263.9972043983
  0
SPLINE
  5
1BA
330
1F
100
AcDbEntity
  8
0
  6
Continuous
 62
     7
370
    25
100
AcDbSpline
210
0.0
220
0.0
230
1.0
 70
     8
 71
     3
 72
    14
 73
    10
 74
     0
 42
0.000000001
 43
0.00000001
 40
0.0
 40
0.0
 40
0.0
 40
0.0
 40
0.25
 40
0.25
 40
0.5
 40
0.5
 40
0.75
 40
0.75
 40
1.0
 40
1.0
 40
1.0
 40
1.0
 10
224.1250176176455
 20
27.47108036160245
 30
0.0
 10
224.1722387810691
 20
27.44382016420762
 30
0.0
 10
224.2285255405004
 20
27.42253823268346
 30
0.0
 10
224.3519548885737
 20
27.39418360285234
 30
0.0
 10
224.4186082120337
 20
27.38734022051218
 30
0.0
 10
224.5507330889754
 20
27.38882233614138
 30
0.0
 10
224.6170924449601
 20
27.39721286782758
 30
0.0
 10
224.7383466770808
 20
27.42733119129895
 30
0.0
 10
224.7944577795581
 20
27.44933588513976
 30
0.0
 10
224.8411923530854
 20
27.47631518016671
 30
0.0
  0
LINE
  5
1BB
330
1F
100
AcDbEntity
  8
0
  6
Continuous
 62
     7
370
    25
100
AcDbLine
 10
222.4675692917
 20
28.4279044004
 30
0.0
 11
224.1250171584
 21
27.4710801135
 31
0.0
  0
SPLINE
  5
1BC
330
1F
100
AcDbEntity
  8
0
  6
Continuous
 62
     7
370
    25
100
AcDbSpline
210
0.0
220
0.0
230
1.0
 70
     8
 71
     3
 72
     8
 73
     4
 74
     0
 42
0.000000001
 43
0.00000001
 40
0.0
 40
0.0
 40
0.0
 40
0.0
 40
1.0
 40
1.0
 40
1.0
 40
1.0
 10
222.8393579440482
 20
29.19443732781546
 30
0.0
 10
222.7151797761634
 20
28.93896652858939
 30
0.0
 10
222.5912620760215
 20
28.68345368191643
 30
0.0
 10
222.4675695829893
 20
28.42790474542976
 30
0.0
  0
LINE
  5
1BD
330
1F
100
AcDbEntity
  8
0
  6
Continuous
 62
     7
370
    25
100
AcDbLine
 10
223.1604588714
 20
29.37980473
 30
0.0
 11
222.8393578377
 21
29.1944370489
 31
0.0
  0
SPLINE
  5
1BE
330
1F
100
AcDbEntity
  8
0
  6
Continuous
 62
     7
370
    25
100
AcDbSpline
210
0.0
220
0.0
230
1.0
 70
     8
 71
     3
 72
    12
 73
     8
 74
     0
 42
0.000000001
 43
0.00000001
 40
0.0
 40
0.0
 40
0.0
 40
0.0
 40
0.250000000000003
 40
0.250000000000003
 40
0.500000000000006
 40
0.500000000000006
 40
1.0
 40
1.0
 40
1.0
 40
1.0
 10
223.1687681737912
 20
29.71116505041042
 30
0.0
 10
223.2061602113741
 20
29.68957908658398
 30
0.0
 10
223.2363706846915
 20
29.66293823379392
 30
0.0
 10
223.275270054701
 20
29.60596003048812
 30
0.0
 10
223.2846004206309
 20
29.5750684608113
 30
0.0
 10
223.280995357217
 20
29.48351211924923
 30
0.0
 10
223.2353903323054
 20
29.42306195914422
 30
0.0
 10
223.1604584937787
 20
29.37980472951874
 30
0.0
  0
LINE
  5
1BF
330
1F
100
AcDbEntity
  8
0
  6
Continuous
 62
     7
370
    25
100
AcDbLine
 10
222.38387948
 20
30.1642711214
 30
0.0
 11
223.1687677274
 21
29.7111647808
 31
0.0
  0
SPLINE
  5
1C0
330
1F
100
AcDbEntity
  8
0
  6
Continuous
 62
     7
370
    25
100
AcDbSpline
210
0.0
220
0.0
230
1.0
 70
     8
 71
     3
 72
    14
 73
    10
 74
     0
 42
0.000000001
 43
0.00000001
 40
0.0
 40
0.0
 40
0.0
 40
0.0
 40
0.25
 40
0.25
 40
0.5
 40
0.5
 40
0.75
 40
0.75
 40
1.0
 40
1.0
 40
1.0
 40
1.0
 10
221.8098845417124
 20
30.15947447630947
 30
0.0
 10
221.8477303394909
 20
30.18132239032107
 30
0.0
 10
221.8920492566389
 20
30.19869503510999
 30
0.0
 10
221.989750793191
 20
30.22305650980186
 30
0.0
 10
222.0425039248027
 20
30.22977047433342
 30
0.0
 10
222.1484572820312
 20
30.23112792391942
 30
0.0
 10
222.2018215683266
 20
30.22575022278034
 30
0.0
 10
222.3009993430983
 20
30.20310927926449
 30
0.0
 10
222.3460062364995
 20
30.18613540678063
 30
0.0
 10
222.3838796466741
 20
30.16427155247203
 30
0.0
  0
LINE
  5
1C1
330
1F
100
AcDbEntity
  8
0
  6
Continuous
 62
     7
370
    25
100
AcDbLine
 10
221.4887838091
 20
29.9741068398
 30
0.0
 11
221.8098848428
 21
30.1594745209
 31
0.0
  0
SPLINE
  5
1C2
330
1F
100
AcDbEntity
  8
0
  6
Continuous
 62
     7
370
    25
100
AcDbSpline
210
0.0
220
0.0
230
1.0
 70
     8
 71
     3
 72
     8
 73
     4
 74
     0
 42
0.000000001
 43
0.00000001
 40
0.0
 40
0.0
 40
0.0
 40
0.0
 40
1.0
 40
1.0
 40
1.0
 40
1.0
 10
220.1609667418685
 20
29.75947822227042
 30
0.0
 10
220.6036384480849
 20
29.83088437857512
 30
0.0
 10
221.0462476381366
 20
29.9024205441769
 30
0.0
 10
221.4887839919819
 20
29.97410707460615
 30
0.0
  0
LINE
  5
1C3
330
1F
100
AcDbEntity
  8
0
  6
Continuous
 62
     7
370
    25
100
AcDbLine
 10
257.2441292563
 20
48.6680779642
 30
0.0
 11
258.6900901641
 21
47.8333424999
 31
0.0
  0
LWPOLYLINE
  5
1C4
330
1F
100
AcDbEntity
  8
0
  6
Continuous
 62
     7
370
    25
100
AcDbPolyline
 90
        8
 70
   128
 43
0.0
 10
227.2131503346
 20
21.222732535
 10
226.3762851447
 20
21.7753466672
 10
225.4666850311
 20
22.5628251814
 10
224.653697348
 20
23.4880555247
 10
223.9428354301
 20
24.5447603191
 10
223.3389224574
 20
25.7257755517
 10
222.8460532597
 20
27.0230897418
 10
222.4675692917
 20
28.4279044004
  0
ARC
  5
1C5
330
1F
100
AcDbEntity
  8
0
  6
Continuous
 62
     7
370
    25
100
AcDbCircle
 10
233.0317455921
 20
32.4497879127
 30
0.0
 40
11.8054632902642
100
AcDbArc
 50
192.1051464299
 51
214.9696743527
  0
SPLINE
  5
1C6
330
1F
100
AcDbEntity
  8
0
  6
Continuous
 62
     7
370
    25
100
AcDbSpline
210
0.0
220
0.0
230
1.0
 70
     8
 71
     3
 72
    12
 73
     8
 74
     0
 42
0.000000001
 43
0.00000001
 40
0.0
 40
0.0
 40
0.0
 40
0.0
 40
0.0442613159435421
 40
0.287985434366866
 40
0.5297772381811127
 40
0.7743101052996507
 40
1.0
 40
1.0
 40
1.0
 40
1.0
 10
212.9888201112902
 20
45.89568975536999
 30
0.0
 10
212.973155416694
 20
45.85501742087585
 30
0.0
 10
212.8712333707412
 20
45.59038362799567
 30
0.0
 10
212.9510684663036
 20
44.94230860502334
 30
0.0
 10
213.2458501772107
 20
44.065292373742
 30
0.0
 10
213.7691859614054
 20
43.21706313738878
 30
0.0
 10
214.2138764695934
 20
42.76860851062966
 30
0.0
 10
214.4273118073023
 20
42.5533665323391
 30
0.0
  0
SPLINE
  5
1C7
330
1F
100
AcDbEntity
  8
0
  6
Continuous
 62
     7
370
    25
100
AcDbSpline
210
0.0
220
0.0
230
1.0
 70
     8
 71
     3
 72
    13
 73
     9
 74
     0
 42
0.000000001
 43
0.00000001
 40
0.0
 40
0.0
 40
0.0
 40
0.0
 40
0.1886977629478746
 40
0.3630329086975691
 40
0.6677853667202288
 40
0.7704319677952388
 40
0.8821109219274306
 40
1.0
 40
1.0
 40
1.0
 40
1.0
 10
211.8651087388268
 20
42.41441676104894
 30
0.0
 10
211.9916062561293
 20
42.23138330027842
 30
0.0
 10
212.2349730079758
 20
41.87924786096819
 30
0.0
 10
212.7524051168317
 20
41.31529247955567
 30
0.0
 10
213.2330960096764
 20
40.92708142352573
 30
0.0
 10
213.6328227705236
 20
40.69394957836543
 30
0.0
 10
213.8797144660633
 20
40.5797333087142
 30
0.0
 10
214.0363458479585
 20
40.54036313620058
 30
0.0
 10
214.1167800836468
 20
40.52014554189263
 30
0.0
  0
SPLINE
  5
1C8
330
1F
100
AcDbEntity
  8
0
  6
Continuous
 62
     7
370
    25
100
AcDbSpline
210
0.0
220
0.0
230
1.0
 70
     8
 71
     3
 72
    22
 73
    18
 74
     0
 42
0.000000001
 43
0.00000001
 40
0.0
 40
0.0
 40
0.0
 40
0.0
 40
0.0290807300561809
 40
0.1765275156399617
 40
0.2607920256888527
 40
0.3055733914541499
 40
0.3520911702713665
 40
0.4217415342621946
 40
0.4757480712952897
 40
0.514092148760627
 40
0.5998612534651432
 40
0.6759942926343356
 40
0.7257216550693594
 40
0.779747899319941
 40
0.8380840985283191
 40
0.9019042132500179
 40
1.0
 40
1.0
 40
1.0
 40
1.0
 10
213.5277821562464
 20
45.63066383206534
 30
0.0
 10
213.4821736548421
 20
45.66803356000308
 30
0.0
 10
213.2053183135419
 20
45.89487742603558
 30
0.0
 10
212.7529140876242
 20
46.04229707972571
 30
0.0
 10
212.3139677892028
 20
46.04214417182392
 30
0.0
 10
212.0546192251842
 20
45.97500340325828
 30
0.0
 10
211.8327072057852
 20
45.87341440161065
 30
0.0
 10
211.6256363521256
 20
45.71445368640542
 30
0.0
 10
211.4638649582849
 20
45.51625897397331
 30
0.0
 10
211.3175873563361
 20
45.26326758865883
 30
0.0
 10
211.2055635971923
 20
44.92993728590967
 30
0.0
 10
211.1658234221347
 20
44.52612857517637
 30
0.0
 10
211.1873707556951
 20
44.16048242695233
 30
0.0
 10
211.2460566771666
 20
43.81827319497503
 30
0.0
 10
211.3547158210453
 20
43.4379527605833
 30
0.0
 10
211.5439032055422
 20
42.95874403177525
 30
0.0
 10
211.7439260731109
 20
42.61977757477455
 30
0.0
 10
211.8651087388268
 20
42.41441676104894
 30
0.0
  0
SPLINE
  5
1C9
330
1F
100
AcDbEntity
  8
0
  6
Continuous
 62
     7
370
    25
100
AcDbSpline
210
0.0
220
0.0
230
1.0
 70
     8
 71
     3
 72
     9
 73
     5
 74
     0
 42
0.000000001
 43
0.00000001
 40
0.0
 40
0.0
 40
0.0
 40
0.0
 40
0.1883710221454139
 40
1.0
 40
1.0
 40
1.0
 40
1.0
 10
252.8070341685331
 20
63.4735724484518
 30
0.0
 10
252.8494103092563
 20
63.48310517093432
 30
0.0
 10
253.0743713475333
 20
63.53371126933499
 30
0.0
 10
253.3001389486749
 20
63.58310935975987
 30
0.0
 10
253.4833784760221
 20
63.62320228139941
 30
0.0
  0
LINE
  5
1CA
330
1F
100
AcDbEntity
  8
0
  6
Continuous
 62
     7
370
    25
100
AcDbLine
 10
253.483378476
 20
63.6232022814
 30
0.0
 11
255.1408263428
 21
62.6663779945
 31
0.0
  0
SPLINE
  5
1CB
330
1F
100
AcDbEntity
  8
0
  6
Continuous
 62
     7
370
    25
100
AcDbSpline
210
0.0
220
0.0
230
1.0
 70
     8
 71
     3
 72
    16
 73
    12
 74
     0
 42
0.000000001
 43
0.00000001
 40
0.0
 40
0.0
 40
0.0
 40
0.0
 40
0.1249999999999978
 40
0.1249999999999978
 40
0.2499999999999955
 40
0.2499999999999955
 40
0.499999999999997
 40
0.499999999999997
 40
0.7499999999999984
 40
0.7499999999999984
 40
1.0
 40
1.0
 40
1.0
 40
1.0
 10
255.1408269296099
 20
62.66637764946861
 30
0.0
 10
255.1675688971683
 20
62.65093984020017
 30
0.0
 10
255.1905394958148
 20
62.63304812079293
 30
0.0
 10
255.2265164479389
 20
62.5948681242478
 30
0.0
 10
255.2397789867179
 20
62.5745843067772
 30
0.0
 10
255.2665340974235
 20
62.51045797548252
 30
0.0
 10
255.2657170921631
 20
62.46596512385336
 30
0.0
 10
255.2376367019168
 20
62.3808854315095
 30
0.0
 10
255.2100673469924
 20
62.3395125754632
 30
0.0
 10
255.136893191233
 20
62.26408144275523
 30
0.0
 10
255.0906593528203
 20
62.22921246793146
 30
0.0
 10
255.037495567892
 20
62.19852166816442
 30
0.0
  0
LINE
  5
1CC
330
1F
100
AcDbEntity
  8
0
  6
Continuous
 62
     7
370
    25
100
AcDbLine
 10
205.7537781677
 20
48.3749265809
 30
0.0
 11
206.3765518551
 21
48.0154069837
 31
0.0
  0
SPLINE
  5
1CD
330
1F
100
AcDbEntity
  8
0
  6
Continuous
 62
     7
370
    25
100
AcDbSpline
210
0.0
220
0.0
230
1.0
 70
     8
 71
     3
 72
    11
 73
     7
 74
     0
 42
0.000000001
 43
0.00000001
 40
0.0
 40
0.0
 40
0.0
 40
0.0
 40
0.04662603555232
 40
0.4281120508200342
 40
0.8087528729781779
 40
1.0
 40
1.0
 40
1.0
 40
1.0
 10
258.6826466355514
 20
55.58624925587463
 30
0.0
 10
258.6876240745158
 20
55.58919683756061
 30
0.0
 10
258.7333260429041
 20
55.6162610137359
 30
0.0
 10
258.7997633519405
 20
55.67749989660734
 30
0.0
 10
258.8423836190088
 20
55.76128203539542
 30
0.0
 10
258.828548280494
 20
55.811447441987
 30
0.0
 10
258.823921554671
 20
55.82822343787969
 30
0.0
  0
LINE
  5
1CE
330
1F
100
AcDbEntity
  8
0
  6
Continuous
 62
     7
370
    25
100
AcDbLine
 10
203.1017878239
 20
58.0563573213
 30
0.0
 11
203.1210818609
 21
58.1143603686
 31
0.0
  0
SPLINE
  5
1CF
330
1F
100
AcDbEntity
  8
0
  6
Continuous
 62
     7
370
    25
100
AcDbSpline
210
0.0
220
0.0
230
1.0
 70
     8
 71
     3
 72
    16
 73
    12
 74
     0
 42
0.000000001
 43
0.00000001
 40
0.0
 40
0.0
 40
0.0
 40
0.0
 40
0.012332241638737
 40
0.1444361407553237
 40
0.2229459921823101
 40
0.2856533093237938
 40
0.3485990526022031
 40
0.4239878195962211
 40
0.5501346397047723
 40
0.9123127013209101
 40
1.0
 40
1.0
 40
1.0
 40
1.0
 10
203.1472596636592
 20
58.19305483503929
 30
0.0
 10
203.1478532491583
 20
58.1948506521626
 30
0.0
 10
203.1548053671278
 20
58.21588339725407
 30
0.0
 10
203.1644098513422
 20
58.23767119298771
 30
0.0
 10
203.1744824816022
 20
58.25524123909604
 30
0.0
 10
203.1793383005347
 20
58.2545863862473
 30
0.0
 10
203.1805415647026
 20
58.2392248102142
 30
0.0
 10
203.1772628076976
 20
58.20265252587438
 30
0.0
 10
203.1617536870101
 20
58.10232916926224
 30
0.0
 10
203.1387589488353
 20
57.98703248398175
 30
0.0
 10
203.1200541005592
 20
57.89798794791231
 30
0.0
 10
203.1164081705492
 20
57.8806314774676
 30
0.0
  0
SPLINE
  5
1D0
330
1F
100
AcDbEntity
  8
0
  6
Continuous
 62
     7
370
    25
100
AcDbSpline
210
0.0
220
0.0
230
1.0
 70
     8
 71
     3
 72
     9
 73
     5
 74
     0
 42
0.000000001
 43
0.00000001
 40
0.0
 40
0.0
 40
0.0
 40
0.0
 40
0.7766522094856231
 40
1.0
 40
1.0
 40
1.0
 40
1.0
 10
203.0506241840133
 20
57.61816178553825
 30
0.0
 10
203.0474378740464
 20
57.72699757523316
 30
0.0
 10
203.0433352526568
 20
57.86713210181485
 30
0.0
 10
203.091116081399
 20
58.02181028976899
 30
0.0
 10
203.1017878239275
 20
58.0563573212893
 30
0.0
  0
SPLINE
  5
1D1
330
1F
100
AcDbEntity
  8
0
  6
Continuous
 62
     7
370
    25
100
AcDbSpline
210
0.0
220
0.0
230
1.0
 70
     8
 71
     3
 72
     8
 73
     4
 74
     0
 42
0.000000001
 43
0.00000001
 40
0.0
 40
0.0
 40
0.0
 40
0.0
 40
1.0
 40
1.0
 40
1.0
 40
1.0
 10
203.0273230414954
 20
57.01972343905764
 30
0.0
 10
203.0559253370697
 20
57.01817002392411
 30
0.0
 10
203.0856217168074
 20
57.01178584596134
 30
0.0
 10
203.1165521918656
 20
56.99872648927324
 30
0.0
  0
SPLINE
  5
1D2
330
1F
100
AcDbEntity
  8
0
  6
Continuous
 62
     7
370
    25
100
AcDbSpline
210
0.0
220
0.0
230
1.0
 70
     8
 71
     3
 72
    10
 73
     6
 74
     0
 42
0.000000001
 43
0.00000001
 40
0.0
 40
0.0
 40
0.0
 40
0.0
 40
0.4999999999999989
 40
0.4999999999999989
 40
1.0
 40
1.0
 40
1.0
 40
1.0
 10
203.1164083641622
 20
57.88063145325199
 30
0.0
 10
203.0864198942533
 20
57.738840597082
 30
0.0
 10
203.0659865950668
 20
57.59658278103868
 30
0.0
 10
203.0373536078409
 20
57.30977251286892
 30
0.0
 10
203.0294825481944
 20
57.16531597967339
 30
0.0
 10
203.0273230414962
 20
57.01972343905393
 30
0.0
  0
ARC
  5
1D3
330
1F
100
AcDbEntity
  8
0
  6
Continuous
 62
     7
370
    25
100
AcDbCircle
 10
204.2466747945
 20
56.8516772434
 30
0.0
 40
1.230877198383552
100
AcDbArc
 50
172.1531384875
 51
234.5145852444
  0
SPLINE
  5
1D4
330
1F
100
AcDbEntity
  8
0
  6
Continuous
 62
     7
370
    25
100
AcDbSpline
210
0.0
220
0.0
230
1.0
 70
     8
 71
     3
 72
     8
 73
     4
 74
     0
 42
0.000000001
 43
0.00000001
 40
0.0
 40
0.0
 40
0.0
 40
0.0
 40
1.0
 40
1.0
 40
1.0
 40
1.0
 10
203.0273230414961
 20
44.75580467149158
 30
0.0
 10
203.0559253370702
 20
44.72510726763347
 30
0.0
 10
203.0856217168076
 20
44.69805381578299
 30
0.0
 10
203.1165521918656
 20
44.67578251338793
 30
0.0
  0
ARC
  5
1D5
330
1F
100
AcDbEntity
  8
0
  6
Continuous
 62
     7
370
    25
100
AcDbCircle
 10
206.7598229315
 20
44.6483145004
 30
0.0
 40
3.734047488377398
100
AcDbArc
 50
122.5266350896
 51
178.3504233083
  0
LINE
  5
1D6
330
1F
100
AcDbEntity
  8
0
  6
Continuous
 62
     7
370
    25
100
AcDbLine
 10
204.752056897
 20
47.7966452004
 30
0.0
 11
205.7537781677
 21
48.3749265809
 31
0.0
  0
SPLINE
  5
1D7
330
1F
100
AcDbEntity
  8
0
  6
Continuous
 62
     7
370
    25
100
AcDbSpline
210
0.0
220
0.0
230
1.0
 70
     8
 71
     3
 72
     9
 73
     5
 74
     0
 42
0.000000001
 43
0.00000001
 40
0.0
 40
0.0
 40
0.0
 40
0.0
 40
0.3901117718169397
 40
1.0
 40
1.0
 40
1.0
 40
1.0
 10
203.0611286274601
 20
45.82295553980371
 30
0.0
 10
203.0520510708177
 20
45.77616948643032
 30
0.0
 10
203.028781953354
 20
45.65623961824025
 30
0.0
 10
203.0423494981542
 20
45.53538459179795
 30
0.0
 10
203.0506241840133
 20
45.46167653385404
 30
0.0
  0
ARC
  5
1D8
330
1F
100
AcDbEntity
  8
0
  6
Continuous
 62
     7
370
    25
100
AcDbCircle
 10
205.5447378421
 20
45.3355238341
 30
0.0
 40
2.530988818361912
100
AcDbArc
 50
122.9343808406
 51
168.8962913337
  0
LINE
  5
1D9
330
1F
100
AcDbEntity
  8
0
  6
Continuous
 62
     7
370
    25
100
AcDbLine
 10
204.752056897
 20
47.7966452004
 30
0.0
 11
204.1686944642
 21
47.4597669983
 31
0.0
  0
LINE
  5
1DA
330
1F
100
AcDbEntity
  8
0
  6
Continuous
 62
     7
370
    25
100
AcDbLine
 10
203.0867842044
 20
44.6168089809
 30
0.0
 11
203.0273229037
 21
44.7558049098
 31
0.0
  0
LINE
  5
1DB
330
1F
100
AcDbEntity
  8
0
  6
Continuous
 62
     7
370
    25
100
AcDbLine
 10
274.4310569504
 20
32.6754740241
 30
0.0
 11
274.3630615714
 21
32.4063602462
 31
0.0
  0
LINE
  5
1DC
330
1F
100
AcDbEntity
  8
0
  6
Continuous
 62
     7
370
    25
100
AcDbLine
 10
274.3630615714
 20
32.4063602462
 30
0.0
 11
274.0665578336
 21
31.7587515963
 31
0.0
  0
LINE
  5
1DD
330
1F
100
AcDbEntity
  8
0
  6
Continuous
 62
     7
370
    25
100
AcDbLine
 10
274.0665578336
 20
31.7587515963
 30
0.0
 11
274.0123023272
 21
31.5483188509
 31
0.0
  0
SPLINE
  5
1DE
330
1F
100
AcDbEntity
  8
0
  6
Continuous
 62
     7
370
    25
100
AcDbSpline
210
0.0
220
0.0
230
1.0
 70
     8
 71
     3
 72
     9
 73
     5
 74
     0
 42
0.000000001
 43
0.00000001
 40
0.0
 40
0.0
 40
0.0
 40
0.0
 40
0.5000512023218963
 40
1.0
 40
1.0
 40
1.0
 40
1.0
 10
274.0123023272008
 20
31.5483188509272
 30
0.0
 10
273.9813594299358
 20
31.21425604290384
 30
0.0
 10
273.9194799721499
 20
30.54619883901712
 30
0.0
 10
273.8106279676907
 20
29.90525858765584
 30
0.0
 10
273.7562075389365
 20
29.58482127960427
 30
0.0
  0
LINE
  5
1DF
330
1F
100
AcDbEntity
  8
0
  6
Continuous
 62
     7
370
    25
100
AcDbLine
 10
273.7763609765
 20
29.5337910713
 30
0.0
 11
273.7562075389
 21
29.5848212796
 31
0.0
  0
LINE
  5
1E0
330
1F
100
AcDbEntity
  8
0
  6
Continuous
 62
     7
370
    25
100
AcDbLine
 10
274.0337794392
 20
29.8817305339
 30
0.0
 11
273.7763609765
 21
29.5337910713
 31
0.0
  0
LINE
  5
1E1
330
1F
100
AcDbEntity
  8
0
  6
Continuous
 62
     7
370
    25
100
AcDbLine
 10
274.0582759778
 20
29.8173375302
 30
0.0
 11
274.0337794392
 21
29.8817305339
 31
0.0
  0
ARC
  5
1E2
330
1F
100
AcDbEntity
  8
0
  6
Continuous
 62
     7
370
    25
100
AcDbCircle
 10
253.9463651953
 20
34.6360933525
 30
0.0
 40
20.68113543791171
100
AcDbArc
 50
320.1275683819
 51
346.5260950643
  0
LINE
  5
1E3
330
1F
100
AcDbEntity
  8
0
  6
Continuous
 62
     7
370
    25
100
AcDbLine
 10
269.8185927772
 20
21.3778221761
 30
0.0
 11
269.7314317774
 21
21.3174751073
 31
0.0
  0
LINE
  5
1E4
330
1F
100
AcDbEntity
  8
0
  6
Continuous
 62
     7
370
    25
100
AcDbLine
 10
269.7314317774
 20
21.3174751073
 30
0.0
 11
269.7770040452
 21
21.5726702576
 31
0.0
  0
LINE
  5
1E5
330
1F
100
AcDbEntity
  8
0
  6
Continuous
 62
     7
370
    25
100
AcDbLine
 10
269.7770040452
 20
21.5726702576
 30
0.0
 11
269.7077231873
 21
21.5259068862
 31
0.0
  0
SPLINE
  5
1E6
330
1F
100
AcDbEntity
  8
0
  6
Continuous
 62
     7
370
    25
100
AcDbSpline
210
0.0
220
0.0
230
1.0
 70
     8
 71
     3
 72
     9
 73
     5
 74
     0
 42
0.000000001
 43
0.00000001
 40
0.0
 40
0.0
 40
0.0
 40
0.0
 40
0.1217959573150842
 40
1.0
 40
1.0
 40
1.0
 40
1.0
 10
269.7077231873214
 20
21.52590688618189
 30
0.0
 10
269.650889783675
 20
21.46254619992591
 30
0.0
 10
269.1842617863322
 20
20.94232625459499
 30
0.0
 10
268.6698048063573
 20
20.44816538397244
 30
0.0
 10
268.2180066067559
 20
20.01419130965502
 30
0.0
  0
LINE
  5
1E7
330
1F
100
AcDbEntity
  8
0
  6
Continuous
 62
     7
370
    25
100
AcDbLine
 10
268.0889142671
 20
19.8596522466
 30
0.0
 11
268.2180066068
 21
20.0141913097
 31
0.0
  0
LINE
  5
1E8
330
1F
100
AcDbEntity
  8
0
  6
Continuous
 62
     7
370
    25
100
AcDbLine
 10
267.8159811543
 20
19.3737397304
 30
0.0
 11
268.0889142671
 21
19.8596522466
 31
0.0
  0
LINE
  5
1E9
330
1F
100
AcDbEntity
  8
0
  6
Continuous
 62
     7
370
    25
100
AcDbLine
 10
267.6501089393
 20
19.1773170528
 30
0.0
 11
267.8159811543
 21
19.3737397304
 31
0.0
  0
LWPOLYLINE
  5
1EA
330
1F
100
AcDbEntity
  8
0
  6
Continuous
 62
     7
370
    25
100
AcDbPolyline
 90
        9
 70
   128
 43
0.0
 10
267.6501089393
 20
19.1773170528
 10
266.8051154169
 20
18.5110647348
 10
265.9490697684
 20
17.9345752023
 10
265.0901554589
 20
17.4533574666
 10
264.2365831595
 20
17.0720122826
 10
263.3965125042
 20
16.7941854588
 10
262.5779739495
 20
16.6225326336
 10
261.7887926504
 20
16.5586951022
 10
261.0365122342
 20
16.6032824282
  0
LINE
  5
1EB
330
1F
100
AcDbEntity
  8
0
  6
Continuous
 62
     7
370
    25
100
AcDbLine
 10
261.0365122342
 20
16.6032824282
 30
0.0
 11
261.1046324074
 21
16.7616597646
 31
0.0
  0
LINE
  5
1EC
330
1F
100
AcDbEntity
  8
0
  6
Continuous
 62
     7
370
    25
100
AcDbLine
 10
261.1046324074
 20
16.7616597646
 30
0.0
 11
261.850209499
 21
17.4315272508
 31
0.0
  0
LINE
  5
1ED
330
1F
100
AcDbEntity
  8
0
  6
Continuous
 62
     7
370
    25
100
AcDbLine
 10
261.850209499
 20
17.4315272508
 30
0.0
 11
261.9026658618
 21
17.5562398803
 31
0.0
  0
SPLINE
  5
1EE
330
1F
100
AcDbEntity
  8
0
  6
Continuous
 62
     7
370
    25
100
AcDbSpline
210
0.0
220
0.0
230
1.0
 70
     8
 71
     3
 72
     9
 73
     5
 74
     0
 42
0.000000001
 43
0.00000001
 40
0.0
 40
0.0
 40
0.0
 40
0.0
 40
0.5000510887459347
 40
1.0
 40
1.0
 40
1.0
 40
1.0
 10
261.9026658617836
 20
17.55623988027178
 30
0.0
 10
261.708785089295
 20
17.62476486669138
 30
0.0
 10
261.3210631607719
 20
17.76180083753879
 30
0.0
 10
260.8863689612579
 20
17.925954071987
 30
0.0
 10
260.6690440694824
 20
18.00802230282821
 30
0.0
  0
LINE
  5
1EF
330
1F
100
AcDbEntity
  8
0
  6
Continuous
 62
     7
370
    25
100
AcDbLine
 10
260.4523164134
 20
17.9434700975
 30
0.0
 11
260.6690440695
 21
18.0080223028
 31
0.0
  0
LINE
  5
1F0
330
1F
100
AcDbEntity
  8
0
  6
Continuous
 62
     7
370
    25
100
AcDbLine
 10
259.5184634225
 20
17.3425535773
 30
0.0
 11
260.4523164134
 21
17.9434700975
 31
0.0
  0
LINE
  5
1F1
330
1F
100
AcDbEntity
  8
0
  6
Continuous
 62
     7
370
    25
100
AcDbLine
 10
259.2408085456
 20
17.2609127294
 30
0.0
 11
259.5184634225
 21
17.3425535773
 31
0.0
  0
LWPOLYLINE
  5
1F2
330
1F
100
AcDbEntity
  8
0
  6
Continuous
 62
     7
370
    25
100
AcDbPolyline
 90
        9
 70
   128
 43
0.0
 10
259.2408085456
 20
17.2609127294
 10
258.6844839747
 20
17.6955694734
 10
258.1947349609
 20
18.2277824164
 10
257.7762450726
 20
18.8524659034
 10
257.4330129921
 20
19.5636468838
 10
257.1683209053
 20
20.3545272718
 10
256.9846989401
 20
21.2175470684
 10
256.8839027763
 20
22.1444564648
 10
256.8668952058
 20
23.1263941006
  0
LINE
  5
1F3
330
1F
100
AcDbEntity
  8
0
  6
Continuous
 62
     7
370
    25
100
AcDbLine
 10
256.8668952058
 20
23.1263941006
 30
0.0
 11
257.1094628313
 21
23.2947294657
 31
0.0
  0
LINE
  5
1F4
330
1F
100
AcDbEntity
  8
0
  6
Continuous
 62
     7
370
    25
100
AcDbLine
 10
257.1094628313
 20
23.2947294657
 30
0.0
 11
258.2129680826
 21
23.4764660582
 31
0.0
  0
LINE
  5
1F5
330
1F
100
AcDbEntity
  8
0
  6
Continuous
 62
     7
370
    25
100
AcDbLine
 10
258.2129680826
 20
23.4764660582
 30
0.0
 11
258.4021883347
 21
23.6089853143
 31
0.0
  0
SPLINE
  5
1F6
330
1F
100
AcDbEntity
  8
0
  6
Continuous
 62
     7
370
    25
100
AcDbSpline
210
0.0
220
0.0
230
1.0
 70
     8
 71
     3
 72
     9
 73
     5
 74
     0
 42
0.000000001
 43
0.00000001
 40
0.0
 40
0.0
 40
0.0
 40
0.0
 40
0.5000512023218963
 40
1.0
 40
1.0
 40
1.0
 40
1.0
 10
258.4021883346696
 20
23.60898531433449
 30
0.0
 10
258.4566191668378
 20
23.92948882615598
 30
0.0
 10
258.5654696843754
 20
24.57043021442441
 30
0.0
 10
258.6273474222704
 20
25.23848813265747
 30
0.0
 10
258.658283122934
 20
25.57248288565741
 30
0.0
  0
LINE
  5
1F7
330
1F
100
AcDbEntity
  8
0
  6
Continuous
 62
     7
370
    25
100
AcDbLine
 10
258.5031649397
 20
25.7014265832
 30
0.0
 11
258.6582831229
 21
25.5724828857
 31
0.0
  0
LINE
  5
1F8
330
1F
100
AcDbEntity
  8
0
  6
Continuous
 62
     7
370
    25
100
AcDbLine
 10
257.4387449635
 20
25.819359178
 30
0.0
 11
258.5031649397
 21
25.7014265832
 31
0.0
  0
LINE
  5
1F9
330
1F
100
AcDbEntity
  8
0
  6
Continuous
 62
     7
370
    25
100
AcDbLine
 10
257.2396761783
 20
25.9845305945
 30
0.0
 11
257.4387449635
 21
25.819359178
 31
0.0
  0
ARC
  5
1FA
330
1F
100
AcDbEntity
  8
0
  6
Continuous
 62
     7
370
    25
100
AcDbCircle
 10
277.3515869609
 20
21.1657747721
 30
0.0
 40
20.68113543791133
100
AcDbArc
 50
140.1275683819
 51
166.5260950643
  0
LINE
  5
1FB
330
1F
100
AcDbEntity
  8
0
  6
Continuous
 62
     7
370
    25
100
AcDbLine
 10
261.479359379
 20
34.4240459486
 30
0.0
 11
261.7410926253
 21
34.3836146045
 31
0.0
  0
LINE
  5
1FC
330
1F
100
AcDbEntity
  8
0
  6
Continuous
 62
     7
370
    25
100
AcDbLine
 10
261.7410926253
 20
34.3836146045
 30
0.0
 11
262.502521871
 21
33.6625473969
 31
0.0
  0
LINE
  5
1FD
330
1F
100
AcDbEntity
  8
0
  6
Continuous
 62
     7
370
    25
100
AcDbLine
 10
262.502521871
 20
33.6625473969
 30
0.0
 11
262.7067674745
 21
33.6313972791
 31
0.0
  0
SPLINE
  5
1FE
330
1F
100
AcDbEntity
  8
0
  6
Continuous
 62
     7
370
    25
100
AcDbSpline
210
0.0
220
0.0
230
1.0
 70
     8
 71
     3
 72
     9
 73
     5
 74
     0
 42
0.000000001
 43
0.00000001
 40
0.0
 40
0.0
 40
0.0
 40
0.0
 40
0.1217959573150842
 40
1.0
 40
1.0
 40
1.0
 40
1.0
 10
264.1964840551145
 20
35.14311285560666
 30
0.0
 10
264.1396506514681
 20
35.07975216935068
 30
0.0
 10
263.6730226541253
 20
34.55953222401975
 30
0.0
 10
263.1585656741504
 20
34.0653713533972
 30
0.0
 10
262.706767474549
 20
33.63139727907978
 30
0.0
  0
LINE
  5
1FF
330
1F
100
AcDbEntity
  8
0
  6
Continuous
 62
     7
370
    25
100
AcDbLine
 10
264.1906116491
 20
35.3755654079
 30
0.0
 11
264.1964840551
 21
35.1431128556
 31
0.0
  0
LINE
  5
200
330
1F
100
AcDbEntity
  8
0
  6
Continuous
 62
     7
370
    25
100
AcDbLine
 10
263.6565432484
 20
36.3273499814
 30
0.0
 11
264.1906116491
 21
35.3755654079
 31
0.0
  0
LINE
  5
201
330
1F
100
AcDbEntity
  8
0
  6
Continuous
 62
     7
370
    25
100
AcDbLine
 10
263.6478432169
 20
36.6245510719
 30
0.0
 11
263.6565432484
 21
36.3273499814
 31
0.0
  0
LWPOLYLINE
  5
202
330
1F
100
AcDbEntity
  8
0
  6
Continuous
 62
     7
370
    25
100
AcDbPolyline
 90
        9
 70
   128
 43
0.0
 10
263.6478432169
 20
36.6245510719
 10
264.4928367393
 20
37.2908033898
 10
265.3488823878
 20
37.8672929224
 10
266.2077966973
 20
38.3485106581
 10
267.0613689967
 20
38.729855842
 10
267.901439652
 20
39.0076826658
 10
268.7199782067
 20
39.1793354911
 10
269.5091595058
 20
39.2431730225
 10
270.261439922
 20
39.1985856965
  0
LINE
  5
203
330
1F
100
AcDbEntity
  8
0
  6
Continuous
 62
     7
370
    25
100
AcDbLine
 10
270.261439922
 20
39.1985856965
 30
0.0
 11
270.3678919953
 21
38.9394299473
 31
0.0
  0
LINE
  5
204
330
1F
100
AcDbEntity
  8
0
  6
Continuous
 62
     7
370
    25
100
AcDbLine
 10
270.3678919953
 20
38.9394299473
 30
0.0
 11
270.4293164172
 21
37.8036904037
 31
0.0
  0
LINE
  5
205
330
1F
100
AcDbEntity
  8
0
  6
Continuous
 62
     7
370
    25
100
AcDbLine
 10
270.4293164172
 20
37.8036904037
 30
0.0
 11
270.5118248001
 21
37.601064285
 31
0.0
  0
SPLINE
  5
206
330
1F
100
AcDbEntity
  8
0
  6
Continuous
 62
     7
370
    25
100
AcDbSpline
210
0.0
220
0.0
230
1.0
 70
     8
 71
     3
 72
     9
 73
     5
 74
     0
 42
0.000000001
 43
0.00000001
 40
0.0
 40
0.0
 40
0.0
 40
0.0
 40
0.5000510887459347
 40
1.0
 40
1.0
 40
1.0
 40
1.0
 10
270.5118248000868
 20
37.6010642849899
 30
0.0
 10
270.7291935039212
 20
37.51898000442205
 30
0.0
 10
271.1638864957505
 20
37.35482821590441
 30
0.0
 10
271.551606432259
 20
37.21779264627352
 30
0.0
 10
271.745446592388
 20
37.14928186243347
 30
0.0
  0
LINE
  5
207
330
1F
100
AcDbEntity
  8
0
  6
Continuous
 62
     7
370
    25
100
AcDbLine
 10
271.8272095029
 20
37.291747557
 30
0.0
 11
271.7454465924
 21
37.1492818624
 31
0.0
  0
LINE
  5
208
330
1F
100
AcDbEntity
  8
0
  6
Continuous
 62
     7
370
    25
100
AcDbLine
 10
271.9540609802
 20
38.3585361346
 30
0.0
 11
271.8272095029
 21
37.291747557
 31
0.0
  0
LINE
  5
209
330
1F
100
AcDbEntity
  8
0
  6
Continuous
 62
     7
370
    25
100
AcDbLine
 10
272.0571436106
 20
38.5409553952
 30
0.0
 11
271.9540609802
 21
38.3585361346
 31
0.0
  0
LWPOLYLINE
  5
20A
330
1F
100
AcDbEntity
  8
0
  6
Continuous
 62
     7
370
    25
100
AcDbPolyline
 90
        9
 70
   128
 43
0.0
 10
272.0571436106
 20
38.5409553952
 10
272.6134681815
 20
38.1062986512
 10
273.1032171953
 20
37.5740857083
 10
273.5217070836
 20
36.9494022213
 10
273.8649391641
 20
36.2382212409
 10
274.1296312509
 20
35.4473408529
 10
274.3132532161
 20
34.5843210563
 10
274.4140493799
 20
33.6574116599
 10
274.4310569504
 20
32.6754740241
  0
LWPOLYLINE
  5
20B
330
1F
100
AcDbEntity
  8
0
  6
Continuous
 62
     7
370
    25
100
AcDbPolyline
 90
       48
 70
   128
 43
0.0
 10
260.5612811633
 20
20.8369925197
 10
260.3001274361
 20
21.6776180656
 10
260.1557336502
 20
22.6169974883
 10
260.1306753731
 20
23.6383669023
 10
260.2254010737
 20
24.7235006316
 10
260.4382196096
 20
25.8530340275
 10
260.7653338133
 20
27.0068109021
 10
261.2009056876
 20
28.1642417002
 10
261.7371627609
 20
29.3046722184
 10
262.3645353939
 20
30.4077512764
 10
263.0718283298
 20
31.4537945823
 10
263.8464195754
 20
32.4241360478
 10
264.6744869399
 20
33.3014585683
 10
265.5412533431
 20
34.0701075004
 10
266.431251221
 20
34.7163657352
 10
267.3285986202
 20
35.228700537
 10
268.2172823724
 20
35.5979696026
 10
269.0814439029
 20
35.8175837734
 10
269.9056622394
 20
35.8836232645
 10
270.6752291196
 20
35.794909788
 10
271.3764117503
 20
35.5530270607
 10
271.9966971273
 20
35.1622903627
 10
272.5250164344
 20
34.6296734169
 10
272.9519422779
 20
33.9646804225
 10
273.2698559562
 20
33.1791781673
 10
273.4730834499
 20
32.2871835603
 10
273.5579994715
 20
31.3046151887
 10
273.5230873929
 20
30.2490060944
 10
273.3689708559
 20
29.1391939779
 10
273.0984006008
 20
27.9949839341
 10
272.7162044174
 20
26.8367937484
 10
272.2292021927
 20
25.6852917822
 10
271.6460850678
 20
24.5610262579
 10
270.9772587044
 20
23.484059872
 10
270.2346582339
 20
22.4736112534
 10
269.4315355476
 20
21.5477120153
 10
268.5822220555
 20
20.7228838654
 10
267.7018740773
 20
20.0138475154
 10
266.8062012668
 20
19.433254496
 10
265.9111870162
 20
18.9914656734
 10
265.0328028177
 20
18.6963650605
 10
264.1867234377
 20
18.5532182045
 10
263.3880472439
 20
18.5645806974
 10
262.6510269503
 20
18.7302488239
 10
261.9888140201
 20
19.0472663811
 10
261.4132260346
 20
19.5099763174
 10
260.9345343122
 20
20.1101217037
 10
260.5612811633
 20
20.8369925197
  0
LINE
  5
20C
330
1F
100
AcDbEntity
  8
0
  6
Continuous
 62
     7
370
    25
100
AcDbLine
 10
266.1157573644
 20
41.5918372952
 30
0.0
 11
270.261439922
 21
39.1985856965
 31
0.0
  0
LINE
  5
20D
330
1F
100
AcDbEntity
  8
0
  6
Continuous
 62
     7
370
    25
100
AcDbLine
 10
259.5021606593
 20
39.0178026706
 30
0.0
 11
263.6478432169
 21
36.6245510719
 31
0.0
  0
SPLINE
  5
20E
330
1F
100
AcDbEntity
  8
0
  6
Continuous
 62
     7
370
    25
100
AcDbSpline
210
0.0
220
0.0
230
1.0
 70
     8
 71
     3
 72
    17
 73
    13
 74
     0
 42
0.000000001
 43
0.00000001
 40
0.0
 40
0.0
 40
0.0
 40
0.0
 40
0.0838164843945181
 40
0.200265053428291
 40
0.3144084853690516
 40
0.4226827858847983
 40
0.5326537670005329
 40
0.6305354144635251
 40
0.7286819892337669
 40
0.832379388149323
 40
0.942600202224164
 40
1.0
 40
1.0
 40
1.0
 40
1.0
 10
259.5021606593454
 20
39.01780267057218
 30
0.0
 10
259.3898690122106
 20
39.07222665571352
 30
0.0
 10
259.1215674618001
 20
39.20226339455846
 30
0.0
 10
258.5917286525889
 20
39.27592662696308
 30
0.0
 10
257.9922800204011
 20
39.20262311692075
 30
0.0
 10
257.4416376591706
 20
38.96704390007181
 30
0.0
 10
257.030949058322
 20
38.60522686888725
 30
0.0
 10
256.7958366021064
 20
38.17547587763971
 30
0.0
 10
256.7317483953143
 20
37.73305597737475
 30
0.0
 10
256.8380245744698
 20
37.30448600527237
 30
0.0
 10
257.0645561060442
 20
36.99457677211539
 30
0.0
 10
257.2650276057013
 20
36.86251918591256
 30
0.0
 10
257.3336768214099
 20
36.81729754724225
 30
0.0
  0
LINE
  5
20F
330
1F
100
AcDbEntity
  8
0
  6
Continuous
 62
     7
370
    25
100
AcDbLine
 10
257.3336768214
 20
36.8172975472
 30
0.0
 11
261.479359379
 21
34.4240459486
 31
0.0
  0
LINE
  5
210
330
1F
100
AcDbEntity
  8
0
  6
Continuous
 62
     7
370
    25
100
AcDbLine
 10
253.0939936208
 20
28.3777821932
 30
0.0
 11
257.2396761783
 21
25.9845305945
 31
0.0
  0
SPLINE
  5
211
330
1F
100
AcDbEntity
  8
0
  6
Continuous
 62
     7
370
    25
100
AcDbSpline
210
0.0
220
0.0
230
1.0
 70
     8
 71
     3
 72
    17
 73
    13
 74
     0
 42
0.000000001
 43
0.00000001
 40
0.0
 40
0.0
 40
0.0
 40
0.0
 40
0.0838166337913282
 40
0.200265424219347
 40
0.3144090743939034
 40
0.4226835429440645
 40
0.5327912321110432
 40
0.6306723936930707
 40
0.7288248249019341
 40
0.8325314332710717
 40
0.9427611915120259
 40
0.9999999999999999
 40
0.9999999999999999
 40
0.9999999999999999
 40
0.9999999999999999
 10
252.7212126482528
 20
25.51964569924574
 30
0.0
 10
252.6164375734842
 20
25.58903210418065
 30
0.0
 10
252.3660955608431
 20
25.75481897953934
 30
0.0
 10
252.0042676290993
 20
26.16292457414017
 30
0.0
 10
251.7095103663133
 20
26.69613834618353
 30
0.0
 10
251.5631566446318
 20
27.26569106120752
 30
0.0
 10
251.5928834529313
 20
27.78053847765342
 30
0.0
 10
251.7761761459483
 20
28.18313555402377
 30
0.0
 10
252.0683974116572
 20
28.44950119346477
 30
0.0
 10
252.4486153074593
 20
28.56580314657367
 30
0.0
 10
252.8088907921895
 20
28.52227565024037
 30
0.0
 10
253.0213705206865
 20
28.414588431982
 30
0.0
 10
253.0939936207975
 20
28.37778219315826
 30
0.0
  0
LINE
  5
212
330
1F
100
AcDbEntity
  8
0
  6
Continuous
 62
     7
370
    25
100
AcDbLine
 10
252.7212126483
 20
25.5196456992
 30
0.0
 11
256.8668952058
 21
23.1263941006
 31
0.0
  0
LINE
  5
213
330
1F
100
AcDbEntity
  8
0
  6
Continuous
 62
     7
370
    25
100
AcDbLine
 10
255.0951259881
 20
19.6541643281
 30
0.0
 11
259.2408085456
 21
17.2609127294
 31
0.0
  0
SPLINE
  5
214
330
1F
100
AcDbEntity
  8
0
  6
Continuous
 62
     7
370
    25
100
AcDbSpline
210
0.0
220
0.0
230
1.0
 70
     8
 71
     3
 72
    10
 73
     6
 74
     0
 42
0.000000001
 43
0.00000001
 40
0.0
 40
0.0
 40
0.0
 40
0.0
 40
0.28133436847808
 40
0.7702717914838519
 40
1.0
 40
1.0
 40
1.0
 40
1.0
 10
254.5104688568186
 20
19.9854594719042
 30
0.0
 10
254.5370909451025
 20
19.97012749323191
 30
0.0
 10
254.6099801685073
 20
19.92814971873254
 30
0.0
 10
254.8370996658607
 20
19.80260599201869
 30
0.0
 10
255.0326246070709
 20
19.69012115963541
 30
0.0
 10
255.0951259880948
 20
19.65416432811985
 30
0.0
  0
LINE
  5
215
330
1F
100
AcDbEntity
  8
0
  6
Continuous
 62
     7
370
    25
100
AcDbLine
 10
259.6307515173
 20
17.4148108162
 30
0.0
 11
261.0365122342
 21
16.6032824282
 31
0.0
  0
LINE
  5
216
330
1F
100
AcDbEntity
  8
0
  6
Continuous
 62
     7
370
    25
100
AcDbLine
 10
267.911461053
 20
40.9342069939
 30
0.0
 11
272.0571436106
 21
38.5409553952
 31
0.0
  0
SPLINE
  5
217
330
1F
100
AcDbEntity
  8
0
  6
Continuous
 62
     7
370
    25
100
AcDbSpline
210
0.0
220
0.0
230
1.0
 70
     8
 71
     3
 72
    18
 73
    14
 74
     0
 42
0.000000001
 43
0.00000001
 40
0.0
 40
0.0
 40
0.0
 40
0.0
 40
0.0838022771743672
 40
0.2002311171555033
 40
0.3143551462136562
 40
0.422611096395992
 40
0.5235777849837809
 40
0.5374368173660231
 40
0.6352751405558981
 40
0.733600125819227
 40
0.8375986353774558
 40
0.948086880854025
 40
1.0
 40
1.0
 40
1.0
 40
1.0
 10
266.115757364436
 20
41.5918372951554
 30
0.0
 10
266.0171710376993
 20
41.65159521547675
 30
0.0
 10
265.7816159787639
 20
41.79437648047674
 30
0.0
 10
265.5552845579459
 20
41.98616969506687
 30
0.0
 10
265.487977618945
 20
42.11995963203817
 30
0.0
 10
265.6079621391652
 20
42.14602917289105
 30
0.0
 10
265.8038699301213
 20
42.08485095251783
 30
0.0
 10
266.034627981922
 20
41.98918154640283
 30
0.0
 10
266.3061146058803
 20
41.85852108246294
 30
0.0
 10
266.7536075067968
 20
41.61183614747012
 30
0.0
 10
267.2382463671137
 20
41.3288181870893
 30
0.0
 10
267.6351025279972
 20
41.09437661782003
 30
0.0
 10
267.8445190863068
 20
40.97300467394172
 30
0.0
 10
267.9114610530073
 20
40.9342069938965
 30
0.0
  0
LWPOLYLINE
  5
218
330
1F
100
AcDbEntity
  8
0
  6
Continuous
 62
     7
370
    25
100
AcDbPolyline
 90
       25
 70
   128
 43
0.0
 10
250.8489666608
 20
23.3645359267
 10
250.5431695429
 20
24.3137367585
 10
250.3526144211
 20
25.3628488439
 10
250.2798788388
 20
26.4976849476
 10
250.3259460027
 20
27.7028980399
 10
250.4901922714
 20
28.9621894039
 10
250.7703976912
 20
30.2585299055
 10
251.1627723385
 20
31.5743885689
 10
251.6620103202
 20
32.8919702999
 10
252.2613595794
 20
34.1934577064
 10
252.9527160675
 20
35.4612498746
 10
253.726729111
 20
36.6782019053
 10
254.5729324619
 20
37.8278572231
 10
255.4798825925
 20
38.8946680971
 10
256.4353139466
 20
39.8642084615
 10
257.4263065394
 20
40.7233664868
 10
258.4394586611
 20
41.4605233674
 10
259.4610692519
 20
42.0657110768
 10
260.4773226654
 20
42.5307448849
 10
261.4744759422
 20
42.8493360312
 10
262.4390441074
 20
43.0171758814
 10
263.35798337
 20
43.0319952975
 10
264.2188663366
 20
42.8935935427
 10
265.0100515866
 20
42.6038418776
 10
265.2769247729
 20
42.4624798647
  0
ARC
  5
219
330
1F
100
AcDbEntity
  8
0
  6
Continuous
 62
     7
370
    25
100
AcDbCircle
 10
255.3119189674
 20
25.0148454177
 30
0.0
 40
4.758304814430314
100
AcDbArc
 50
200.2933742465
 51
238.8836689773
  0
LWPOLYLINE
  5
21A
330
1F
100
AcDbEntity
  8
0
  6
Continuous
 62
     7
370
    25
100
AcDbPolyline
 90
       41
 70
   128
 43
0.0
 10
262.3631728653
 20
22.6654923972
 10
262.1528258469
 20
23.3774669993
 10
262.057969096
 20
24.1838503124
 10
262.0809384699
 20
25.0647864312
 10
262.2211679496
 20
25.9985834902
 10
262.4752047863
 20
26.9622485523
 10
262.8367937949
 20
27.9320529106
 10
263.297031783
 20
28.8841170596
 10
263.8445855289
 20
29.794997372
 10
264.4659729801
 20
30.6422658302
 10
265.1458931843
 20
31.4050588595
 10
265.8676042937
 20
32.0645947877
 10
266.613335567
 20
32.6046333631
 10
267.3647244785
 20
33.0118767636
 10
268.1032693026
 20
33.276297788
 10
268.8107847443
 20
33.391385396
 10
269.4698493378
 20
33.3543056462
 10
270.0642348178
 20
33.1659712386
 10
270.5793051973
 20
32.8310201838
 10
271.0023782261
 20
32.3576997511
 10
271.3230357301
 20
31.7576646318
 10
271.5333827485
 20
31.0456900297
 10
271.6282394994
 20
30.2393067166
 10
271.6052701255
 20
29.3583705978
 10
271.4650406458
 20
28.4245735388
 10
271.2110038091
 20
27.4609084767
 10
270.8494148005
 20
26.4911041184
 10
270.3891768124
 20
25.5390399694
 10
269.8416230665
 20
24.628159657
 10
269.2202356153
 20
23.7808911988
 10
268.5403154111
 20
23.0180981694
 10
267.8186043017
 20
22.3585622413
 10
267.0728730284
 20
21.8185236659
 10
266.3214841169
 20
21.4112802654
 10
265.5829392928
 20
21.146859241
 10
264.8754238511
 20
21.031771633
 10
264.2163592576
 20
21.0688513828
 10
263.6219737776
 20
21.2571857904
 10
263.1069033981
 20
21.5921368452
 10
262.6838303693
 20
22.0654572779
 10
262.3631728653
 20
22.6654923972
  0
LINE
  5
21B
330
1F
100
AcDbEntity
  8
0
  6
Continuous
 62
     7
370
    25
100
AcDbLine
 10
257.5081239445
 20
36.8272554096
 30
0.0
 11
261.7410926253
 21
34.3836146045
 31
0.0
  0
LWPOLYLINE
  5
21C
330
1F
100
AcDbEntity
  8
0
  6
Continuous
 62
     7
370
    25
100
AcDbPolyline
 90
       11
 70
   128
 43
0.0
 10
270.0739858863
 20
28.6603729245
 10
269.6763267486
 20
27.5939948747
 10
269.180540528
 20
26.5440100153
 10
268.596516258
 20
25.5313628478
 10
267.9359045788
 20
24.5762537857
 10
267.2118831306
 20
23.6977354653
 10
266.4388946178
 20
22.9133326347
 10
265.6323584483
 20
22.2386916543
 10
264.8083635848
 20
21.6872712431
 10
263.983346866
 20
21.2700697051
 10
263.8826532704
 20
21.2284798371
  0
ARC
  5
21D
330
1F
100
AcDbEntity
  8
0
  6
Continuous
 62
     7
370
    25
100
AcDbCircle
 10
261.3997486447
 20
31.7331652416
 30
0.0
 40
9.202415136695626
100
AcDbArc
 50
340.4936390876
 51
6.4523313321
  0
LWPOLYLINE
  5
21E
330
1F
100
AcDbEntity
  8
0
  6
Continuous
 62
     7
370
    25
100
AcDbPolyline
 90
       22
 70
   128
 43
0.0
 10
270.1047600005
 20
33.1463641341
 10
270.3326565714
 20
32.9734074047
 10
270.7557296002
 20
32.500086972
 10
271.0763871042
 20
31.9000518527
 10
271.2867341226
 20
31.1880772506
 10
271.3815908736
 20
30.3816939375
 10
271.3586214997
 20
29.5007578187
 10
271.21839202
 20
28.5669607597
 10
270.9643551833
 20
27.6032956976
 10
270.6027661746
 20
26.6334913393
 10
270.1425281865
 20
25.6814271903
 10
269.5949744407
 20
24.7705468779
 10
268.9735869894
 20
23.9232784197
 10
268.2936667853
 20
23.1604853903
 10
267.5719556759
 20
22.5009494622
 10
266.8262244026
 20
21.9609108868
 10
266.074835491
 20
21.5536674863
 10
265.3362906669
 20
21.2892464619
 10
264.6287752253
 20
21.1741588539
 10
263.9697106318
 20
21.2112386037
 10
263.3753251518
 20
21.3995730113
 10
263.3348006277
 20
21.4191798361
  0
ARC
  5
21F
330
1F
100
AcDbEntity
  8
0
  6
Continuous
 62
     7
370
    25
100
AcDbCircle
 10
254.1073857277
 20
34.5637526049
 30
0.0
 40
15.70976912992306
100
AcDbArc
 50
304.6839113282
 51
355.3214641298
  0
LINE
  5
220
330
1F
100
AcDbEntity
  8
0
  6
Continuous
 62
     7
370
    25
100
AcDbLine
 10
262.2678501942
 20
33.8847788317
 30
0.0
 11
262.7067674745
 21
33.6313972791
 31
0.0
  0
LWPOLYLINE
  5
221
330
1F
100
AcDbEntity
  8
0
  6
Continuous
 62
     7
370
    25
100
AcDbPolyline
 90
        8
 70
   128
 43
0.0
 10
259.4925322447
 20
37.858646434
 10
259.131019298
 20
37.977075324
 10
258.7111441613
 20
37.9624027918
 10
258.2968296098
 20
37.8168624659
 10
257.9511538353
 20
37.5626103031
 10
257.7267396477
 20
37.2383543658
 10
257.6577554641
 20
36.893459252
 10
257.6877936548
 20
36.723533711
  0
LINE
  5
222
330
1F
100
AcDbEntity
  8
0
  6
Continuous
 62
     7
370
    25
100
AcDbLine
 10
259.4925322447
 20
37.858646434
 30
0.0
 11
264.1964840551
 21
35.1431128556
 31
0.0
  0
LINE
  5
223
330
1F
100
AcDbEntity
  8
0
  6
Continuous
 62
     7
370
    25
100
AcDbLine
 10
253.2057762827
 20
28.2629999831
 30
0.0
 11
257.4387449635
 21
25.819359178
 31
0.0
  0
LINE
  5
224
330
1F
100
AcDbEntity
  8
0
  6
Continuous
 62
     7
370
    25
100
AcDbLine
 10
259.5541422115
 20
38.0521422417
 30
0.0
 11
264.1906116491
 21
35.3755654079
 31
0.0
  0
LINE
  5
225
330
1F
100
AcDbEntity
  8
0
  6
Continuous
 62
     7
370
    25
100
AcDbLine
 10
259.4235745676
 20
38.7709907865
 30
0.0
 11
263.6565432484
 21
36.3273499814
 31
0.0
  0
LINE
  5
226
330
1F
100
AcDbEntity
  8
0
  6
Continuous
 62
     7
370
    25
100
AcDbLine
 10
253.6982365243
 20
26.3245188927
 30
0.0
 11
258.4021883347
 21
23.6089853143
 31
0.0
  0
ARC
  5
227
330
1F
100
AcDbEntity
  8
0
  6
Continuous
 62
     7
370
    25
100
AcDbCircle
 10
254.3405734638
 20
27.4898048979
 30
0.0
 40
1.330596940342758
100
AcDbArc
 50
145.5944920037
 51
241.1352660032
  0
LINE
  5
228
330
1F
100
AcDbEntity
  8
0
  6
Continuous
 62
     7
370
    25
100
AcDbLine
 10
258.4187125335
 20
25.7107840431
 30
0.0
 11
258.6582831229
 21
25.5724828857
 31
0.0
  0
LINE
  5
229
330
1F
100
AcDbEntity
  8
0
  6
Continuous
 62
     7
370
    25
100
AcDbLine
 10
270.4392182924
 20
32.7866821785
 30
0.0
 11
270.5289337864
 21
32.6717937711
 31
0.0
  0
LWPOLYLINE
  5
22A
330
1F
100
AcDbEntity
  8
0
  6
Continuous
 62
     7
370
    25
100
AcDbPolyline
 90
       15
 70
   128
 43
0.0
 10
250.2791274395
 20
26.8339898339
 10
250.3250036255
 20
27.8854105531
 10
250.4859453179
 20
29.119364079
 10
250.7605129381
 20
30.3896212324
 10
251.1449922953
 20
31.6790036002
 10
251.6341854976
 20
32.9700750164
 10
252.2214754898
 20
34.2453751136
 10
252.8989208837
 20
35.4876584792
 10
253.6573606667
 20
36.6801243057
 10
254.4865376787
 20
37.8066477498
 10
255.3752392117
 20
38.85199456
 10
256.3114466637
 20
39.8020264825
 10
257.282499846
 20
40.6438980154
 10
258.2752665577
 20
41.3662227443
 10
258.8867534846
 20
41.7444511874
  0
ARC
  5
22B
330
1F
100
AcDbEntity
  8
0
  6
Continuous
 62
     7
370
    25
100
AcDbCircle
 10
258.9159652976
 20
30.4170093451
 30
0.0
 40
10.23122354706484
100
AcDbArc
 50
307.8700796622
 51
315.5406220812
  0
SPLINE
  5
22C
330
1F
100
AcDbEntity
  8
0
  6
Continuous
 62
     7
370
    25
100
AcDbSpline
210
0.0
220
0.0
230
1.0
 70
     8
 71
     3
 72
    10
 73
     6
 74
     0
 42
0.000000001
 43
0.00000001
 40
0.0
 40
0.0
 40
0.0
 40
0.0
 40
0.2254978270858543
 40
0.7990609082586576
 40
1.0
 40
1.0
 40
1.0
 40
1.0
 10
265.1966377017879
 20
22.34043275467886
 30
0.0
 10
265.0776916804334
 20
22.25131441151257
 30
0.0
 10
264.6562015175989
 20
21.93551986416265
 30
0.0
 10
264.1224826891385
 20
21.58946991900379
 30
0.0
 10
263.7254608296828
 20
21.42673865160243
 30
0.0
 10
263.6224563261056
 20
21.38451917925865
 30
0.0
  0
ARC
  5
22D
330
1F
100
AcDbEntity
  8
0
  6
Continuous
 62
     7
370
    25
100
AcDbCircle
 10
259.6520468381
 20
29.2452613074
 30
0.0
 40
8.31376209277665
100
AcDbArc
 50
294.0426247037
 51
316.7325975501
  0
LINE
  5
22E
330
1F
100
AcDbEntity
  8
0
  6
Continuous
 62
     7
370
    25
100
AcDbLine
 10
252.8764941505
 20
25.7383702707
 30
0.0
 11
257.1094628313
 21
23.2947294657
 31
0.0
  0
LINE
  5
22F
330
1F
100
AcDbEntity
  8
0
  6
Continuous
 62
     7
370
    25
100
AcDbLine
 10
253.5764986451
 20
26.1530428919
 30
0.0
 11
258.2129680826
 21
23.4764660582
 31
0.0
  0
LWPOLYLINE
  5
230
330
1F
100
AcDbEntity
  8
0
  6
Continuous
 62
     7
370
    25
100
AcDbPolyline
 90
       10
 70
   128
 43
0.0
 10
259.4235745676
 20
38.7709907865
 10
259.0155367684
 20
38.9145921546
 10
258.5411967082
 20
38.9236528894
 10
258.0577708741
 20
38.7970769621
 10
257.6235638333
 20
38.550133981
 10
257.2909494659
 20
38.2126082614
 10
257.1000456449
 20
37.8252093212
 10
257.0738764032
 20
37.4346649719
 10
257.215602096
 20
37.0880785176
 10
257.5081239445
 20
36.8272554096
  0
LWPOLYLINE
  5
231
330
1F
100
AcDbEntity
  8
0
  6
Continuous
 62
     7
370
    25
100
AcDbPolyline
 90
       10
 70
   128
 43
0.0
 10
252.8764941505
 20
25.7383702707
 10
252.5361432023
 20
26.0167092833
 10
252.2566997185
 20
26.4137314373
 10
252.0718732754
 20
26.8815474929
 10
252.0039529705
 20
27.3637344718
 10
252.0611324145
 20
27.8021319709
 10
252.2365146708
 20
28.1438626105
 10
252.5089446555
 20
28.347710054
 10
252.8455669248
 20
28.389085114
 10
253.2057762827
 20
28.2629999831
  0
LWPOLYLINE
  5
232
330
1F
100
AcDbEntity
  8
0
  6
Continuous
 62
     7
370
    25
100
AcDbPolyline
 90
        8
 70
   128
 43
0.0
 10
259.5541422115
 20
38.0521422417
 10
259.1444891674
 20
38.1863420281
 10
258.6687027788
 20
38.169715701
 10
258.1992186611
 20
38.0047939393
 10
257.8075121072
 20
37.7166850653
 10
257.5532144869
 20
37.3492505619
 10
257.4750429489
 20
36.9584290465
 10
257.4900261536
 20
36.8379444877
  0
ARC
  5
233
330
1F
100
AcDbEntity
  8
0
  6
Continuous
 62
     7
370
    25
100
AcDbCircle
 10
254.3011142643
 20
27.4716320176
 30
0.0
 40
1.50457471663585
100
AcDbArc
 50
145.1601998338
 51
241.2095068678
  0
ARC
  5
234
330
1F
100
AcDbEntity
  8
0
  6
Continuous
 62
     7
370
    25
100
AcDbCircle
 10
258.2896687757
 20
32.3640925933
 30
0.0
 40
12.04397235310366
100
AcDbArc
 50
315.4978254294
 51
322.3772439357
  0
SPLINE
  5
235
330
1F
100
AcDbEntity
  8
0
  6
Continuous
 62
     7
370
    25
100
AcDbSpline
210
0.0
220
0.0
230
1.0
 70
     8
 71
     3
 72
    31
 73
    27
 74
     0
 42
0.000000001
 43
0.00000001
 40
0.0
 40
0.0
 40
0.0
 40
0.0
 40
0.0524418383173943
 40
0.1934244052688914
 40
0.203585841970818
 40
0.2086292777833396
 40
0.2103238365578178
 40
0.2114717887198976
 40
0.212249031166837
 40
0.2127779162864314
 40
0.2131411876553377
 40
0.2134972500643746
 40
0.2136520830312794
 40
0.2138084728266948
 40
0.2138978234865365
 40
0.2139869902325287
 40
0.214111443699218
 40
0.2143446814424279
 40
0.2153600424389371
 40
0.2193680081309813
 40
0.2353301899857937
 40
0.2991420059767195
 40
0.4267431672796032
 40
0.5988597109386842
 40
0.770974347912722
 40
1.0
 40
1.0
 40
1.0
 40
1.0
 10
270.0739858863262
 20
28.6603729245289
 30
0.0
 10
270.1097695526611
 20
28.78354689594775
 30
0.0
 10
270.2417526143013
 20
29.23785690739517
 30
0.0
 10
270.3473877688966
 20
29.71287918633104
 30
0.0
 10
270.3930607213034
 20
30.07933419712064
 30
0.0
 10
270.396651573561
 20
30.11942016597232
 30
0.0
 10
270.3976132817436
 20
30.13835713025136
 30
0.0
 10
270.3977833462598
 20
30.14713038522883
 30
0.0
 10
270.3976732344472
 20
30.1531326749977
 30
0.0
 10
270.3974107956664
 20
30.15725334967219
 30
0.0
 10
270.3970290237991
 20
30.16034524006146
 30
0.0
 10
270.396578911926
 20
30.16252220852787
 30
0.0
 10
270.3959896175847
 20
30.16410212363332
 30
0.0
 10
270.3954669118299
 20
30.16496361275693
 30
0.0
 10
270.3948865609901
 20
30.16542990692826
 30
0.0
 10
270.3943179604439
 20
30.1655974889139
 30
0.0
 10
270.3935236260538
 20
30.16545414676168
 30
0.0
 10
270.3914738492309
 20
30.16395530644381
 30
0.0
 10
270.3860852475029
 20
30.15444827560392
 30
0.0
 10
270.370506741016
 20
30.11170031058171
 30
0.0
 10
270.3188120818896
 20
29.93057868391733
 30
0.0
 10
270.1901663058444
 20
29.47103412853114
 30
0.0
 10
269.9138344532025
 20
28.64901355605882
 30
0.0
 10
269.4475487290059
 20
27.57799058506951
 30
0.0
 10
268.758452155257
 20
26.29714033075198
 30
0.0
 10
268.1668380687453
 20
25.47889687671434
 30
0.0
 10
267.8290639641685
 20
25.01173178326128
 30
0.0
  0
LWPOLYLINE
  5
236
330
1F
100
AcDbEntity
  8
0
  6
Continuous
 62
     7
370
    25
100
AcDbPolyline
 90
       11
 70
   128
 43
0.0
 10
269.8162095047
 20
33.2657315895
 10
269.8537794688
 20
33.0174642118
 10
269.9052967472
 20
32.1032646118
 10
269.834407065
 20
31.1200774656
 10
269.6426935635
 20
30.089865292
 10
269.3344387575
 20
29.0356411262
 10
268.9165287176
 20
27.9809550022
 10
268.3982989709
 20
26.9493665153
 10
267.7913260711
 20
25.9639204071
 10
267.1091681327
 20
25.0466285246
 10
266.3670638756
 20
24.2179831525
  0
LINE
  5
237
330
1F
100
AcDbEntity
  8
0
  6
Continuous
 62
     7
370
    25
100
AcDbLine
 10
270.4234342977
 20
37.9124633154
 30
0.0
 11
271.7454465924
 21
37.1492818624
 31
0.0
  0
LINE
  5
238
330
1F
100
AcDbEntity
  8
0
  6
Continuous
 62
     7
370
    25
100
AcDbLine
 10
270.4128455605
 20
38.1082424813
 30
0.0
 11
271.8272095029
 21
37.291747557
 31
0.0
  0
LINE
  5
239
330
1F
100
AcDbEntity
  8
0
  6
Continuous
 62
     7
370
    25
100
AcDbLine
 10
267.7210922994
 20
40.8021769397
 30
0.0
 11
271.9540609802
 21
38.3585361346
 31
0.0
  0
ARC
  5
23A
330
1F
100
AcDbEntity
  8
0
  6
Continuous
 62
     7
370
    25
100
AcDbCircle
 10
260.1522401865
 20
27.5847900409
 30
0.0
 40
15.23111416598017
100
AcDbArc
 50
60.2026660952
 51
67.113440837
  0
ARC
  5
23B
330
1F
100
AcDbEntity
  8
0
  6
Continuous
 62
     7
370
    25
100
AcDbCircle
 10
258.3577251515
 20
31.7125344921
 30
0.0
 40
11.60202636810215
100
AcDbArc
 50
306.1185880139
 51
324.7212765864
  0
LINE
  5
23C
330
1F
100
AcDbEntity
  8
0
  6
Continuous
 62
     7
370
    25
100
AcDbLine
 10
259.792701112
 20
17.5190215805
 30
0.0
 11
261.1046324074
 21
16.7616597646
 31
0.0
  0
LINE
  5
23D
330
1F
100
AcDbEntity
  8
0
  6
Continuous
 62
     7
370
    25
100
AcDbLine
 10
261.1873264998
 20
17.8142014608
 30
0.0
 11
261.850209499
 21
17.4315272508
 31
0.0
  0
LINE
  5
23E
330
1F
100
AcDbEntity
  8
0
  6
Continuous
 62
     7
370
    25
100
AcDbLine
 10
266.8797170674
 20
23.9220347643
 30
0.0
 11
266.218472527
 21
23.2510255721
 31
0.0
  0
LINE
  5
23F
330
1F
100
AcDbEntity
  8
0
  6
Continuous
 62
     7
370
    25
100
AcDbLine
 10
266.3670638756
 20
24.2179831525
 30
0.0
 11
265.7058193351
 21
23.5469739604
 31
0.0
  0
LINE
  5
240
330
1F
100
AcDbEntity
  8
0
  6
Continuous
 62
     7
370
    25
100
AcDbLine
 10
273.8218282064
 20
30.0040873761
 30
0.0
 11
274.0337794392
 21
29.8817305339
 31
0.0
  0
LINE
  5
241
330
1F
100
AcDbEntity
  8
0
  6
Continuous
 62
     7
370
    25
100
AcDbLine
 10
269.5921654191
 20
21.3978718647
 30
0.0
 11
269.7314317774
 21
21.3174751073
 31
0.0
  0
LWPOLYLINE
  5
242
330
1F
100
AcDbEntity
  8
0
  6
Continuous
 62
     7
370
    18
100
AcDbPolyline
 90
       26
 70
   128
 43
0.0
 10
224.8411928719
 20
36.4582643119
 10
225.2140713091
 20
38.2465171283
 10
225.6966658954
 20
40.057807759
 10
226.2857695192
 20
41.8800983774
 10
226.9774677919
 20
43.7012797397
 10
227.7671614386
 20
45.5092464687
 10
228.6496044939
 20
47.2919852638
 10
229.6189306432
 20
49.0376456219
 10
230.6687006383
 20
50.734629567
 10
231.791934566
 20
52.371657428
 10
232.9811697999
 20
53.9378507229
 10
234.2285031474
 20
55.422799076
 10
235.5256435331
 20
56.8166362594
 10
236.8639715973
 20
58.1100958909
 10
238.2345927085
 20
59.2945861447
 10
239.6283977145
 20
60.3622309061
 10
241.0361241455
 20
61.305938563
 10
242.4484162657
 20
62.1194336319
 10
243.8558882928
 20
62.7973130252
 10
245.2491865488
 20
63.335069763
 10
246.6190513216
 20
63.7291317267
 10
247.9563790567
 20
63.9768777897
 10
249.2522813787
 20
64.0766642849
 10
250.4981468305
 20
64.0278256647
 10
251.6856948734
 20
63.8306859029
 10
252.8070348271
 20
63.4865590592
  0
LWPOLYLINE
  5
243
330
1F
100
AcDbEntity
  8
0
  6
Continuous
 62
     7
370
    18
100
AcDbPolyline
 90
       26
 70
   128
 43
0.0
 10
224.1250171584
 20
36.4530289956
 10
224.4965824578
 20
38.2653334753
 10
224.9789755295
 20
40.1016247228
 10
225.5690248232
 20
41.9498394324
 10
226.2628580972
 20
43.7978405996
 10
227.0559155893
 20
45.6334871017
 10
227.9429895296
 20
47.44472533
 10
228.9182531161
 20
49.2196553476
 10
229.9753013451
 20
50.9466206198
 10
231.1071892062
 20
52.6142779734
 10
232.3064837075
 20
54.2116732574
 10
233.5653073396
 20
55.7283151048
 10
234.8753914176
 20
57.1542407065
 10
236.2281310698
 20
58.4800855793
 10
237.6146412136
 20
59.697138694
 10
239.0258151663
 20
60.7974082502
 10
240.4523835024
 20
61.7736678207
 10
241.8849762448
 20
62.6195029011
 10
243.3141837392
 20
63.3293597395
 10
244.7306186394
 20
63.8985750363
 10
246.1249769874
 20
64.3234096844
 10
247.4881012279
 20
64.6010744997
 10
248.811036802
 20
64.7297431202
 10
250.0850945442
 20
64.7085728179
 10
251.3019069879
 20
64.5377035426
 10
252.4534813785
 20
64.2182535444
  0
LWPOLYLINE
  5
244
330
1F
100
AcDbEntity
  8
0
  6
Continuous
 62
     7
370
    18
100
AcDbPolyline
 90
       20
 70
   128
 43
0.0
 10
255.1063950017
 20
42.1524445077
 10
254.2021668825
 20
41.5634068799
 10
253.3127863079
 20
40.8499660159
 10
252.4528565844
 20
40.0238351436
 10
251.6364979766
 20
39.0985802139
 10
250.8771148287
 20
38.0893942077
 10
250.1871765162
 20
37.0128478672
 10
249.5780113218
 20
35.8866174696
 10
249.0596222073
 20
34.7291959635
 10
248.6405211897
 20
33.5595882288
 10
248.3275894005
 20
32.3969993003
 10
248.1259654627
 20
31.2605186909
 10
248.0389598794
 20
30.1688073264
 10
248.0680016922
 20
29.1397914169
 10
248.2126134564
 20
28.1903670194
 10
248.4704211189
 20
27.3361237982
 10
248.8371908972
 20
26.5910882234
 10
249.3069010602
 20
25.967493856
 10
249.871839064
 20
25.4755804824
 10
250.1068014883
 20
25.3265482031
  0
LWPOLYLINE
  5
245
330
1F
100
AcDbEntity
  8
0
  6
Continuous
 62
     7
370
    18
100
AcDbPolyline
 90
        8
 70
   128
 43
0.0
 10
260.1059885152
 20
42.6475249397
 10
260.0256134872
 20
42.6924566367
 10
259.3356751747
 20
42.9724171574
 10
258.5762920268
 20
43.1048380434
 10
257.759933419
 20
43.0875453873
 10
256.9000036956
 20
42.9208225344
 10
256.0106231209
 20
42.6074064441
 10
255.1063950017
 20
42.1524445077
  0
LWPOLYLINE
  5
246
330
1F
100
AcDbEntity
  8
0
  6
Continuous
 62
     7
370
    18
100
AcDbPolyline
 90
        3
 70
   128
 43
0.0
 10
258.6826466356
 20
47.4208413195
 10
258.3355278254
 20
45.627944981
 10
257.9635252525
 20
44.1238580532
  0
LWPOLYLINE
  5
247
330
1F
100
AcDbEntity
  8
0
  6
Continuous
 62
     7
370
    18
100
AcDbPolyline
 90
       22
 70
   128
 43
0.0
 10
247.7438180116
 20
26.4304075126
 10
246.8068991669
 20
25.523315099
 10
245.4314321559
 20
24.3122172737
 10
244.0309774968
 20
23.2183715775
 10
242.6149717207
 20
22.2491495752
 10
241.1929564378
 20
21.4110831041
 10
239.7745137589
 20
20.7098163475
 10
238.3692015108
 20
20.150077561
 10
236.9864891932
 20
19.7356375379
 10
235.6356942229
 20
19.4692895349
 10
234.3259183437
 20
19.3528277706
 10
233.0659876983
 20
19.3870356441
 10
231.864391584
 20
19.5716838397
 10
230.7292281226
 20
19.9055293814
 10
229.6681449913
 20
20.3863224827
 10
228.6882926667
 20
21.0108206193
 10
227.7962730572
 20
21.7748174316
 10
226.9980986742
 20
22.6731663031
 10
226.2991458753
 20
23.6998111634
 10
225.7041258876
 20
24.8478366812
 10
225.2170466132
 20
26.1095043905
 10
224.8411928719
 20
27.4763154298
  0
ARC
  5
248
330
1F
100
AcDbEntity
  8
0
  6
Continuous
 62
     7
370
    18
100
AcDbCircle
 10
247.6964357748
 20
53.8407449083
 30
0.0
 40
11.12401072022534
100
AcDbArc
 50
9.0277736643
 51
48.7055209086
  0
LWPOLYLINE
  5
249
330
1F
100
AcDbEntity
  8
0
  6
Continuous
 62
     7
370
    18
100
AcDbPolyline
 90
       26
 70
   128
 43
0.0
 10
232.707524142
 20
36.5084262522
 10
232.7662900197
 20
37.7291036987
 10
232.9418224241
 20
39.001717979
 10
233.2318329131
 20
40.3096781939
 10
233.632540124
 20
41.6359335044
 10
234.1387204819
 20
42.9631933754
 10
234.7437753708
 20
44.2741552338
 10
235.439817403
 20
45.5517299372
 10
236.2177715061
 20
46.7792605876
 10
237.0674964238
 20
47.9407451455
 10
237.9779151083
 20
49.0210413628
 10
238.9371582827
 20
50.0060675309
 10
239.9327210098
 20
50.8829803199
 10
240.9516243652
 20
51.6403494793
 10
241.9805856916
 20
52.2683002308
 10
243.0061907046
 20
52.7586476046
 10
244.0150692017
 20
53.1049978732
 10
244.9940687113
 20
53.3028366304
 10
245.9304268054
 20
53.3495841575
 10
246.8119360445
 20
53.2446313287
 10
247.6271054856
 20
52.9893469146
 10
248.3653075372
 20
52.5870581771
 10
249.0169182301
 20
52.0430097913
 10
249.5734436571
 20
51.3642942507
 10
250.0276286333
 20
50.5597602219
 10
250.3479222915
 20
49.7240738465
  0
LWPOLYLINE
  5
24A
330
1F
100
AcDbEntity
  8
0
  6
Continuous
 62
     7
370
    18
100
AcDbPolyline
 90
       13
 70
   128
 43
0.0
 10
239.0988363924
 20
30.2379739723
 10
238.9371582827
 20
30.203367454
 10
237.9779151083
 20
30.0808750272
 10
237.0674964238
 20
30.1100242057
 10
236.2177715061
 20
30.2904372563
 10
235.439817403
 20
30.6197612181
 10
234.7437753708
 20
31.0937028968
 10
234.1387204819
 20
31.7060832503
 10
233.632540124
 20
32.44891972
 10
233.2318329131
 20
33.3125283323
 10
232.9418224241
 20
34.285649564
 10
232.7662900197
 20
35.355598444
 10
232.707524142
 20
36.5084262522
  0
ARC
  5
24B
330
1F
100
AcDbEntity
  8
0
  6
Continuous
 62
     7
370
    18
100
AcDbCircle
 10
255.2893617902
 20
33.8814119531
 30
0.0
 40
12.93467690330504
100
AcDbArc
 50
302.5682565642
 51
357.437120604
  0
ARC
  5
24C
330
1F
100
AcDbEntity
  8
0
  6
Continuous
 62
     7
370
    18
100
AcDbCircle
 10
255.3370090144
 20
33.8539058214
 30
0.0
 40
12.24096759990471
100
AcDbArc
 50
303.5696485233
 51
356.4357285677
  0
LWPOLYLINE
  5
24D
330
1F
100
AcDbEntity
  8
0
  6
Continuous
 62
     7
370
    18
100
AcDbPolyline
 90
       22
 70
   128
 43
0.0
 10
213.9868716222
 20
37.3146290455
 10
214.0456928176
 20
39.012477274
 10
214.2217639114
 20
40.7669393279
 10
214.5139153286
 20
42.566341261
 10
214.9201990945
 20
44.3987057755
 10
215.4379151765
 20
46.2518406231
 10
216.0636167528
 20
48.1134133203
 10
216.7931391878
 20
49.9710347966
 10
217.6216290086
 20
51.812344183
 10
218.5435715635
 20
53.625086377
 10
219.5528331688
 20
55.3971987313
 10
220.642694695
 20
57.1168874772
 10
221.8059055671
 20
58.772707568
 10
223.0347239357
 20
60.3536421439
 10
224.3209719953
 20
61.8491694472
 10
225.6560906428
 20
63.2493369623
 10
227.0311944665
 20
64.5448250999
 10
228.4371323318
 20
65.727015632
 10
229.864548297
 20
66.7880390261
 10
231.3039428164
 20
67.7208341109
 10
232.7457370719
 20
68.5191958615
 10
234.0399587061
 20
69.119414198
  0
ARC
  5
24E
330
1F
100
AcDbEntity
  8
0
  6
Continuous
 62
     7
370
    18
100
AcDbCircle
 10
234.2178043354
 20
37.2104924113
 30
0.0
 40
20.23120072777533
100
AcDbArc
 50
179.7050785041
 51
189.0564007684
  0
LWPOLYLINE
  5
24F
330
1F
100
AcDbEntity
  8
0
  6
Continuous
 62
     7
370
    18
100
AcDbPolyline
 90
       22
 70
   128
 43
0.0
 10
221.8098848428
 20
39.141423403
 10
222.2041975866
 20
40.94972001
 10
222.7148435348
 20
42.7801252852
 10
223.3380347394
 20
44.6190592377
 10
224.0691469009
 20
46.4528773159
 10
224.9027549296
 20
48.2679730661
 10
225.8326750926
 20
50.0508807919
 10
226.8520078191
 20
51.7883717478
 10
227.9531890669
 20
53.4675529954
 10
229.1280495913
 20
55.0759670179
 10
230.3678715801
 20
56.6016791682
 10
231.6634564837
 20
58.0333700589
 10
233.0051918572
 20
59.3604182561
 10
234.3831221539
 20
60.5729761292
 10
235.7870241289
 20
61.6620468406
 10
237.2064814191
 20
62.6195517345
 10
238.6309621691
 20
63.4383842756
 10
240.0498973158
 20
64.11247045
 10
241.4527591198
 20
64.6368095387
 10
242.8291392027
 20
65.0075100414
 10
244.1688248563
 20
65.2218215617
 10
244.2886924691
 20
65.2335073741
  0
LWPOLYLINE
  5
250
330
1F
100
AcDbEntity
  8
0
  6
Continuous
 62
     7
370
    18
100
AcDbPolyline
 90
       18
 70
   128
 43
0.0
 10
222.38387948
 20
39.1462200035
 10
222.77964629
 20
40.9350227683
 10
223.2908612207
 20
42.7450688776
 10
223.9136889087
 20
44.5627775845
 10
224.6434550053
 20
46.3745096652
 10
225.4746843712
 20
48.1666723592
 10
226.4011419072
 20
49.9258189864
 10
227.4158747003
 20
51.6387500842
 10
228.5112693175
 20
53.2926134035
 10
229.6791071232
 20
54.8749989611
 10
230.9106255244
 20
56.374035993
 10
232.1965844829
 20
57.7784754585
 10
233.5273359925
 20
59.0777803385
 10
234.8928942135
 20
60.2622026258
 10
236.2830138398
 20
61.3228544211
 10
237.6872646787
 20
62.251778364
 10
239.0951103475
 20
63.0420021884
 10
240.2148297878
 20
63.5694189174
  0
LWPOLYLINE
  5
251
330
1F
100
AcDbEntity
  8
0
  6
Continuous
 62
     7
370
    18
100
AcDbPolyline
 90
       21
 70
   128
 43
0.0
 10
234.8288441747
 20
36.5084258721
 10
234.8868448237
 20
37.6491690445
 10
235.0600011995
 20
38.8402438648
 10
235.3457871255
 20
40.0642809322
 10
235.7400359904
 20
41.3034319082
 10
236.2369993594
 20
42.5396272129
 10
236.8294292915
 20
43.7548396129
 10
237.5086873292
 20
44.9313490421
 10
238.2648683044
 20
46.0519992465
 10
239.0869455481
 20
47.1004492934
 10
239.9629312452
 20
48.06140911
 10
240.8800512786
 20
48.9208662748
 10
241.824932338
 20
49.6662890915
 10
242.7837957791
 20
50.2868061823
 10
243.7426592202
 20
50.7733692557
 10
244.6875402797
 20
51.118882889
 10
245.6046603131
 20
51.3183099758
 10
246.4806460102
 20
51.368741717
 10
247.3027232538
 20
51.2694418524
 10
248.0589042291
 20
51.0218596183
 10
248.408338811
 20
50.843771478
  0
LWPOLYLINE
  5
252
330
1F
100
AcDbEntity
  8
0
  6
Continuous
 62
     7
370
    18
100
AcDbPolyline
 90
        8
 70
   128
 43
0.0
 10
237.1592527472
 20
31.357671889
 10
236.8294292915
 20
31.5718385411
 10
236.2369993594
 20
32.1030459009
 10
235.7400359904
 20
32.7654595131
 10
235.3457871255
 20
33.5494204386
 10
235.0600011995
 20
34.4434960993
 10
234.8868448237
 20
35.4346488235
 10
234.8288441747
 20
36.5084258721
  0
LINE
  5
253
330
1F
100
AcDbEntity
  8
0
  6
Continuous
 62
     7
370
    18
100
AcDbLine
 10
215.5637205764
 20
36.8166869678
 30
0.0
 11
217.7168595041
 21
38.0596676132
 31
0.0
  0
LWPOLYLINE
  5
254
330
1F
100
AcDbEntity
  8
0
  6
Continuous
 62
     7
370
    18
100
AcDbPolyline
 90
       21
 70
   128
 43
0.0
 10
203.1165517333
 20
56.9987261197
 10
203.6967037615
 20
58.5987696365
 10
204.3818106623
 20
60.1873667036
 10
205.1652277213
 20
61.749108685
 10
206.0393559936
 20
63.2688467321
 10
206.9957160601
 20
64.7318400676
 10
208.0250329798
 20
66.1238978033
 10
209.1173209133
 20
67.4315175266
 10
210.2619861842
 20
68.642016281
 10
211.4479257321
 20
69.7436520403
 10
212.6636357723
 20
70.7257396693
 10
213.8973248185
 20
71.5787511516
 10
215.1370261291
 20
72.2944154849
 10
216.3707151752
 20
72.8657910563
 10
217.5864252154
 20
73.2873323627
 10
218.7723647634
 20
73.55495326
 10
219.9170300343
 20
73.6660568963
 10
221.0093179677
 20
73.619565977
 10
222.0386348875
 20
73.4159322606
 10
222.9949949539
 20
73.0571287545
 10
223.0961684638
 20
73.007907426
  0
ARC
  5
255
330
1F
100
AcDbEntity
  8
0
  6
Continuous
 62
     7
370
    18
100
AcDbCircle
 10
208.9888467036
 20
47.650962043
 30
0.0
 40
6.582973660495395
100
AcDbArc
 50
206.868908893
 51
235.9973871746
  0
ARC
  5
256
330
1F
100
AcDbEntity
  8
0
  6
Continuous
 62
     7
370
    18
100
AcDbCircle
 10
236.3916386803
 20
29.9366466488
 30
0.0
 40
12.51195515897671
100
AcDbArc
 50
191.3649044585
 51
215.4463939401
  0
LINE
  5
257
330
1F
100
AcDbEntity
  8
0
  6
Continuous
 62
     7
370
    18
100
AcDbLine
 10
219.5288229859
 20
30.1244065317
 30
0.0
 11
221.2523933311
 21
31.1194025129
 31
0.0
  0
LINE
  5
258
330
1F
100
AcDbEntity
  8
0
  6
Continuous
 62
     7
370
    18
100
AcDbLine
 10
215.5637205764
 20
36.0001461171
 30
0.0
 11
217.7168595041
 21
37.2431267625
 31
0.0
  0
LINE
  5
259
330
1F
100
AcDbEntity
  8
0
  6
Continuous
 62
     7
370
    18
100
AcDbLine
 10
223.2345405187
 20
29.4514225087
 30
0.0
 11
223.1687677274
 21
29.7111647808
 31
0.0
  0
LINE
  5
25A
330
1F
100
AcDbEntity
  8
0
  6
Continuous
 62
     7
370
    18
100
AcDbLine
 10
222.7208106066
 20
29.0017362343
 30
0.0
 11
222.38387948
 21
30.1642711214
 31
0.0
  0
LWPOLYLINE
  5
25B
330
1F
100
AcDbEntity
  8
0
  6
Continuous
 62
     7
370
    18
100
AcDbPolyline
 90
        3
 70
   128
 43
0.0
 10
222.637892609
 20
27.7291589488
 10
222.1929812565
 20
28.8387286021
 10
221.8098848428
 20
30.1594745209
  0
LINE
  5
25C
330
1F
100
AcDbEntity
  8
0
  6
Continuous
 62
     7
370
    18
100
AcDbLine
 10
250.4413829281
 20
65.3793089314
 30
0.0
 11
250.3410141596
 21
65.3213672747
 31
0.0
  0
ARC
  5
25D
330
1F
100
AcDbEntity
  8
0
  6
Continuous
 62
     7
370
    18
100
AcDbCircle
 10
209.0710966117
 20
54.6838316508
 30
0.0
 40
1.972901567908942
100
AcDbArc
 50
160.2448099665
 51
206.8893922509
  0
ARC
  5
25E
330
1F
100
AcDbEntity
  8
0
  6
Continuous
 62
     7
370
    18
100
AcDbCircle
 10
206.8291188119
 20
54.623222577
 30
0.0
 40
0.8231407192539788
100
AcDbArc
 50
40.3516534992
 51
62.0985447238
  0
LINE
  5
25F
330
1F
100
AcDbEntity
  8
0
  6
Continuous
 62
     7
370
    18
100
AcDbLine
 10
207.2143093728
 20
55.35067627
 30
0.0
 11
207.3621117851
 21
55.9049311027
 31
0.0
  0
LINE
  5
260
330
1F
100
AcDbEntity
  8
0
  6
Continuous
 62
     7
370
    18
100
AcDbLine
 10
207.2143093728
 20
55.35067627
 30
0.0
 11
205.9610899545
 21
56.0741444407
 31
0.0
  0
LINE
  5
261
330
1F
100
AcDbEntity
  8
0
  6
Continuous
 62
     7
370
    18
100
AcDbLine
 10
203.1164081705
 20
57.8806314775
 30
0.0
 11
203.1017878239
 21
58.0563573213
 31
0.0
  0
ARC
  5
262
330
1F
100
AcDbEntity
  8
0
  6
Continuous
 62
     7
370
    18
100
AcDbCircle
 10
206.932660332
 20
41.321779522
 30
0.0
 40
0.5806338492592709
100
AcDbArc
 50
25.5709532967
 51
60.9828307538
  0
ARC
  5
263
330
1F
100
AcDbEntity
  8
0
  6
Continuous
 62
     7
370
    18
100
AcDbCircle
 10
209.1697671832
 20
42.4755211634
 30
0.0
 40
2.059398257764289
100
AcDbArc
 50
172.8727688225
 51
198.2811498096
  0
LINE
  5
264
330
1F
100
AcDbEntity
  8
0
  6
Continuous
 62
     7
370
    18
100
AcDbLine
 10
206.3691247901
 20
46.863131776
 30
0.0
 11
204.752056897
 21
47.7966452004
 31
0.0
  0
LINE
  5
265
330
1F
100
AcDbEntity
  8
0
  6
Continuous
 62
     7
370
    18
100
AcDbLine
 10
207.2143093728
 20
41.8295289531
 30
0.0
 11
205.9610899545
 21
42.5529971238
 31
0.0
  0
LINE
  5
266
330
1F
100
AcDbEntity
  8
0
  6
Continuous
 62
     7
370
    18
100
AcDbLine
 10
207.2143093728
 20
41.8295289531
 30
0.0
 11
207.3621117851
 21
41.4459231532
 31
0.0
  0
LINE
  5
267
330
1F
100
AcDbEntity
  8
0
  6
Continuous
 62
     7
370
    18
100
AcDbLine
 10
257.5081239445
 20
36.8272554096
 30
0.0
 11
257.3336768214
 21
36.8172975472
 31
0.0
  0
LINE
  5
268
330
1F
100
AcDbEntity
  8
0
  6
Continuous
 62
     7
370
    18
100
AcDbLine
 10
253.2057762827
 20
28.2629999831
 30
0.0
 11
253.0939936208
 21
28.3777821932
 31
0.0
  0
LINE
  5
269
330
1F
100
AcDbEntity
  8
0
  6
Continuous
 62
     7
370
    18
100
AcDbLine
 10
259.5541422115
 20
38.0521422417
 30
0.0
 11
259.4235745676
 21
38.7709907865
 31
0.0
  0
LINE
  5
26A
330
1F
100
AcDbEntity
  8
0
  6
Continuous
 62
     7
370
    18
100
AcDbLine
 10
259.4235745676
 20
38.7709907865
 30
0.0
 11
259.5021606593
 21
39.0178026706
 31
0.0
  0
LINE
  5
26B
330
1F
100
AcDbEntity
  8
0
  6
Continuous
 62
     7
370
    18
100
AcDbLine
 10
259.4925322447
 20
37.858646434
 30
0.0
 11
259.5541422115
 21
38.0521422417
 31
0.0
  0
LINE
  5
26C
330
1F
100
AcDbEntity
  8
0
  6
Continuous
 62
     7
370
    18
100
AcDbLine
 10
266.218472527
 20
23.2510255721
 30
0.0
 11
265.7058193351
 21
23.5469739604
 31
0.0
  0
LINE
  5
26D
330
1F
100
AcDbEntity
  8
0
  6
Continuous
 62
     7
370
    18
100
AcDbLine
 10
253.5764986451
 20
26.1530428919
 30
0.0
 11
252.8764941505
 21
25.7383702707
 31
0.0
  0
LINE
  5
26E
330
1F
100
AcDbEntity
  8
0
  6
Continuous
 62
     7
370
    18
100
AcDbLine
 10
252.8764941505
 20
25.7383702707
 30
0.0
 11
252.7212126483
 21
25.5196456992
 31
0.0
  0
LINE
  5
26F
330
1F
100
AcDbEntity
  8
0
  6
Continuous
 62
     7
370
    18
100
AcDbLine
 10
253.6982365243
 20
26.3245188927
 30
0.0
 11
253.5764986451
 21
26.1530428919
 31
0.0
  0
LINE
  5
270
330
1F
100
AcDbEntity
  8
0
  6
Continuous
 62
     7
370
    18
100
AcDbLine
 10
266.8797170674
 20
23.9220347643
 30
0.0
 11
266.3670638756
 21
24.2179831525
 31
0.0
  0
LINE
  5
271
330
1F
100
AcDbEntity
  8
0
  6
Continuous
 62
     7
370
    18
100
AcDbLine
 10
267.6573208248
 20
40.7019117088
 30
0.0
 11
267.7210922994
 21
40.8021769397
 31
0.0
  0
LINE
  5
272
330
1F
100
AcDbEntity
  8
0
  6
Continuous
 62
     7
370
    18
100
AcDbLine
 10
267.7210922994
 20
40.8021769397
 30
0.0
 11
267.911461053
 21
40.9342069939
 31
0.0
  0
OLE2FRAME
  5
273
330
1F
100
AcDbEntity
  8
0
100
AcDbOle2Frame
 70
     2
  3
Paintbrush-Bild
 10
13.8511154363
 20
38.264191557
 30
0.0
 11
51.6290888628
 21
31.9806341108
 31
0.0
 71
     2
 72
     0
 73
     1
 90
    12928
310
80552BED0767C5B32B40DDAF6807D121434000000000000000006FFBDDFB85D0
310
4940DDAF6807D121434000000000000000006FFBDDFB85D04940416F4BD60AFB
310
3F4000000000000000002BED0767C5B32B40416F4BD60AFB3F40000000000000
310
0000000000000100000000010000010000000100000000000100000000320000
310
D0CF11E0A1B11AE1000000000000000000000000000000003E000300FEFF0900
310
0600000000000000000000000100000001000000000000000010000002000000
310
01000000FEFFFFFF0000000000000000FFFFFFFFFFFFFFFFFFFFFFFFFFFFFFFF
310
FFFFFFFFFFFFFFFFFFFFFFFFFFFFFFFFFFFFFFFFFFFFFFFFFFFFFFFFFFFFFFFF
310
FFFFFFFFFFFFFFFFFFFFFFFFFFFFFFFFFFFFFFFFFFFFFFFFFFFFFFFFFFFFFFFF
310
FFFFFFFFFFFFFFFFFFFFFFFFFFFFFFFFFFFFFFFFFFFFFFFFFFFFFFFFFFFFFFFF
310
FFFFFFFFFFFFFFFFFFFFFFFFFFFFFFFFFFFFFFFFFFFFFFFFFFFFFFFFFFFFFFFF
310
FFFFFFFFFFFFFFFFFFFFFFFFFFFFFFFFFFFFFFFFFFFFFFFFFFFFFFFFFFFFFFFF
310
FFFFFFFFFFFFFFFFFFFFFFFFFFFFFFFFFFFFFFFFFFFFFFFFFFFFFFFFFFFFFFFF
310
FFFFFFFFFFFFFFFFFFFFFFFFFFFFFFFFFFFFFFFFFFFFFFFFFFFFFFFFFFFFFFFF
310
FFFFFFFFFFFFFFFFFFFFFFFFFFFFFFFFFFFFFFFFFFFFFFFFFFFFFFFFFFFFFFFF
310
FFFFFFFFFFFFFFFFFFFFFFFFFFFFFFFFFFFFFFFFFFFFFFFFFFFFFFFFFFFFFFFF
310
FFFFFFFFFFFFFFFFFFFFFFFFFFFFFFFFFFFFFFFFFFFFFFFFFFFFFFFFFFFFFFFF
310
FFFFFFFFFFFFFFFFFFFFFFFFFFFFFFFFFFFFFFFFFFFFFFFFFFFFFFFFFFFFFFFF
310
FFFFFFFFFFFFFFFFFFFFFFFFFFFFFFFFFFFFFFFFFFFFFFFFFFFFFFFFFFFFFFFF
310
FFFFFFFFFFFFFFFFFFFFFFFFFFFFFFFFFFFFFFFFFFFFFFFFFFFFFFFFFFFFFFFF
310
FDFFFFFFFEFFFFFFFEFFFFFFFEFFFFFF05000000060000000700000008000000
310
090000000A0000000B0000000C0000000D0000000E0000000F00000010000000
310
11000000120000001300000014000000150000001600000017000000FEFFFFFF
310
FFFFFFFFFFFFFFFFFFFFFFFFFFFFFFFFFFFFFFFFFFFFFFFFFFFFFFFFFFFFFFFF
310
FFFFFFFFFFFFFFFFFFFFFFFFFFFFFFFFFFFFFFFFFFFFFFFFFFFFFFFFFFFFFFFF
310
FFFFFFFFFFFFFFFFFFFFFFFFFFFFFFFFFFFFFFFFFFFFFFFFFFFFFFFFFFFFFFFF
310
FFFFFFFFFFFFFFFFFFFFFFFFFFFFFFFFFFFFFFFFFFFFFFFFFFFFFFFFFFFFFFFF
310
FFFFFFFFFFFFFFFFFFFFFFFFFFFFFFFFFFFFFFFFFFFFFFFFFFFFFFFFFFFFFFFF
310
FFFFFFFFFFFFFFFFFFFFFFFFFFFFFFFFFFFFFFFFFFFFFFFFFFFFFFFFFFFFFFFF
310
FFFFFFFFFFFFFFFFFFFFFFFFFFFFFFFFFFFFFFFFFFFFFFFFFFFFFFFFFFFFFFFF
310
FFFFFFFFFFFFFFFFFFFFFFFFFFFFFFFFFFFFFFFFFFFFFFFFFFFFFFFFFFFFFFFF
310
FFFFFFFFFFFFFFFFFFFFFFFFFFFFFFFFFFFFFFFFFFFFFFFFFFFFFFFFFFFFFFFF
310
FFFFFFFFFFFFFFFFFFFFFFFFFFFFFFFFFFFFFFFFFFFFFFFFFFFFFFFFFFFFFFFF
310
FFFFFFFFFFFFFFFFFFFFFFFFFFFFFFFFFFFFFFFFFFFFFFFFFFFFFFFFFFFFFFFF
310
FFFFFFFFFFFFFFFFFFFFFFFFFFFFFFFFFFFFFFFFFFFFFFFFFFFFFFFFFFFFFFFF
310
FFFFFFFFFFFFFFFFFFFFFFFFFFFFFFFFFFFFFFFFFFFFFFFFFFFFFFFFFFFFFFFF
310
52006F006F007400200045006E00740072007900000000000000000000000000
310
0000000000000000000000000000000000000000000000000000000000000000
310
16000500FFFFFFFFFFFFFFFF020000000A00030000000000C000000000000046
310
000000000000000000000000C033161A19A7D30103000000C000000000000000
310
01004F006C006500000000000000000000000000000000000000000000000000
310
0000000000000000000000000000000000000000000000000000000000000000
310
0A000200FFFFFFFFFFFFFFFFFFFFFFFF00000000000000000000000000000000
310
0000000000000000000000000000000000000000000000001400000000000000
310
010043006F006D0070004F0062006A0000000000000000000000000000000000
310
0000000000000000000000000000000000000000000000000000000000000000
310
120002010100000003000000FFFFFFFF00000000000000000000000000000000
310
0000000000000000000000000000000000000000010000004D00000000000000
310
01004F006C006500310030004E00610074006900760065000000000000000000
310
0000000000000000000000000000000000000000000000000000000000000000
310
1A000200FFFFFFFFFFFFFFFFFFFFFFFF00000000000000000000000000000000
310
0000000000000000000000000000000000000000040000002426000000000000
310
FEFFFFFF02000000FEFFFFFFFFFFFFFFFFFFFFFFFFFFFFFFFFFFFFFFFFFFFFFF
310
FFFFFFFFFFFFFFFFFFFFFFFFFFFFFFFFFFFFFFFFFFFFFFFFFFFFFFFFFFFFFFFF
310
FFFFFFFFFFFFFFFFFFFFFFFFFFFFFFFFFFFFFFFFFFFFFFFFFFFFFFFFFFFFFFFF
310
FFFFFFFFFFFFFFFFFFFFFFFFFFFFFFFFFFFFFFFFFFFFFFFFFFFFFFFFFFFFFFFF
310
FFFFFFFFFFFFFFFFFFFFFFFFFFFFFFFFFFFFFFFFFFFFFFFFFFFFFFFFFFFFFFFF
310
FFFFFFFFFFFFFFFFFFFFFFFFFFFFFFFFFFFFFFFFFFFFFFFFFFFFFFFFFFFFFFFF
310
FFFFFFFFFFFFFFFFFFFFFFFFFFFFFFFFFFFFFFFFFFFFFFFFFFFFFFFFFFFFFFFF
310
FFFFFFFFFFFFFFFFFFFFFFFFFFFFFFFFFFFFFFFFFFFFFFFFFFFFFFFFFFFFFFFF
310
FFFFFFFFFFFFFFFFFFFFFFFFFFFFFFFFFFFFFFFFFFFFFFFFFFFFFFFFFFFFFFFF
310
FFFFFFFFFFFFFFFFFFFFFFFFFFFFFFFFFFFFFFFFFFFFFFFFFFFFFFFFFFFFFFFF
310
FFFFFFFFFFFFFFFFFFFFFFFFFFFFFFFFFFFFFFFFFFFFFFFFFFFFFFFFFFFFFFFF
310
FFFFFFFFFFFFFFFFFFFFFFFFFFFFFFFFFFFFFFFFFFFFFFFFFFFFFFFFFFFFFFFF
310
FFFFFFFFFFFFFFFFFFFFFFFFFFFFFFFFFFFFFFFFFFFFFFFFFFFFFFFFFFFFFFFF
310
FFFFFFFFFFFFFFFFFFFFFFFFFFFFFFFFFFFFFFFFFFFFFFFFFFFFFFFFFFFFFFFF
310
FFFFFFFFFFFFFFFFFFFFFFFFFFFFFFFFFFFFFFFFFFFFFFFFFFFFFFFFFFFFFFFF
310
FFFFFFFFFFFFFFFFFFFFFFFFFFFFFFFFFFFFFFFFFFFFFFFFFFFFFFFFFFFFFFFF
310
0100000200000000000000000000000000000000000000000000000000000000
310
0000000000000000000000000000000000000000000000000000000000000000
310
0100FEFF030A0000FFFFFFFF0A00030000000000C00000000000004607000000
310
5042727573680007000000504272757368000700000050427275736800F439B2
310
7100000000000000000000000000000000000000000000000000000000000000
310
0000000000000000000000000000000000000000000000000000000000000000
310
0000000000000000000000000000000000000000000000000000000000000000
310
0000000000000000000000000000000000000000000000000000000000000000
310
0000000000000000000000000000000000000000000000000000000000000000
310
0000000000000000000000000000000000000000000000000000000000000000
310
0000000000000000000000000000000000000000000000000000000000000000
310
0000000000000000000000000000000000000000000000000000000000000000
310
0000000000000000000000000000000000000000000000000000000000000000
310
0000000000000000000000000000000000000000000000000000000000000000
310
0000000000000000000000000000000000000000000000000000000000000000
310
0000000000000000000000000000000000000000000000000000000000000000
310
20260000424D0E260000000000003E00000028000000B40200006E0000000100
310
01000000000000000000130B0000130B00000200000002000000000000FFFFFF
310
FFFFFFFFFFFFFFFFFFFFFFFFFFFFFFFFFFFFFFFFFFFFFFFFFFFFFFFFFFFFFFFF
310
FFFFFFFFFFFFFFFFFFFFFFFFFFFFFFFFFFFFFFFFFFFFFFFFFFFFFFFFFFFFFFFF
310
FFFFFFFFFFFFFFFFFFFFFFFFFFFFFFFFFFFFFFFFFFFFFFFFF000FFFFFFFFFFFF
310
FFFFFFFFFFFFFFFFFFFFFFFFFFFFFFFFFFFFFFFFFFFFFFFFFFFFFFFFFFFFFFFF
310
FFFFFFFFFFFFFFFFFFFFFFFFFFFFFFFFFFFFFFFFFFFFFFFFFFFFFFFFFFFFFFFF
310
FFFFFFFFFFFFFFFFFFFFFFFFFFFFFFFFF000FFFFFFFFFFFFFFFFFFFFFFFFFFFF
310
FFFFFFFFFFFFFFFFFFFFFFFFFFFFFFFFFFFFFFFFFFFFFFFFFFFFFFFFFFFFFFFF
310
FFFFFFFFFFFFFFFFFFFFFFFFFFFFFFFFFFFFFFFFFFFFFFFFFFFFFFFFFFFFFFFF
310
FFFFFFFFFFFFFFFFF000FFFFFFFFFFFFFFFFFFFFFFFFFFFFFFFFFFFFFFFFFFFF
310
FFFFFFFFFFFFFFFFFFFFFFFFFFFFFFFFFFFFFFFFFFFFFFFFFFFFFFFFFFFFFFFF
310
FFFFFFFFFFFFFFFFFFFFFFFFFFFFFFFFFFFFFFFFFFFFFFFFFFFFFFFFFFFFFFFF
310
F000FFFFFFFFFFFFFFFFFFFFFFFFFFFFFFFFFFFFFFFFFFFFFFFFFFFFFFFFFFFF
310
FFFFFFFFFFFFFFFFFFFFFFFFFFFFFFFFFFFFFFFFFFFFFFFFFFFFFFFFFFFFFFFF
310
FFFFFFFFFFFFFFFFFFFFFFFFFFFFFFFFFFFFFFFFFFFFFFFFF000FFFFFFFFFFFF
310
FFFFFFFFFFFFFFFFFFFFFFFFFFFFFFFFFFFFFFFFFFFFFFFFFFFFFFFFFFFFFFFF
310
FFFFFFFFFFFFFFFFFFFFFFFFFFFFFFFFFFFFFFFFFFFFFFFFFFFFFFFFFFFFFFFF
310
FFFFFFFFFFFFFFFFFFFFFFFFFFFFFFFFF000FFFFFFFFFFFFFFFFFFFFFFFFFFFF
310
FFFFFFFFFFFFFFFFFFFFFFFFFFFFFFFFFFFFFFFFFFFFFFFFFFFFFFFFFFFFFFFF
310
FFFFFFFFFFFFFFFFFFFFFFFFFFFFFFFFFFFFFFFFFFFFFFFFFFFFFFFFFFFFFFFF
310
FFFFFFFFFFFFFFFFF000FFFFFFFFFFFFFFFFFFFFFFFFFFFFFFFFFFFFFFFFFFFF
310
FFFFFFFFFFFFFFFFFFFFFFFFFFFFFFFFFFFFFFFFFFFFFFFFFFFFFFFFFFFFFFFF
310
FFFFFFFFFFFFFFFFFFFFFFFFFFFFFFFFFFFFFFFFFFFFFFFFFFFFFFFFFFFFFFFF
310
F000FFFFFFFFFFFFFFFFFFFFFFFFFFFFFFFFFFFFFFFFFFFFFFFFFFFFFFFFFFFF
310
FFFFFFFFFFFFFFFFFFFFFFFFFFFFFFFFFFFFFFFFFFFFFFFFFFFFFFFFFFFFFFFF
310
FFFFFFFFFFFFFFFFFFFFFFFFFFFFFFFFFFFFFFFFFFFFFFFFF000FFFFFFFFFFFF
310
FFFFFFFFFFFFFFFFFFFFFFFFFFFFFFFFFFFFFFFFFFFFFFFFFFFFFFFFFFFFFFFF
310
FFFFFFFFFFFFFFFFFFFFFFFFFFFFFFFFFFFFFFFFFFFFFFFFFFFFFFFFFFFFFFFF
310
FFFFFFFFFFFFFFFFFFFFFFFFFFFFFFFFF000FFFFFFFFFFFFFFFFFFFFFFFFFFFF
310
FFFFFFFFFFFFFFFFFFFFFFFFFFFFFFFFFFFFFFFFFFFFFFFFFFFFFFFFFFFFFFFF
310
FFFFFFFFFFFFFFFFFFFFFFFFFFFFFFFFFFFFFFFFFFFFFFFFFFFFFFFFFFFFFFFF
310
FFFFFFFFFFFFFFFFF000FFFFFFFFFFFFFFFFFFFFFFFFFFFFFFFFFFFFFFFFFFFF
310
FFFFFFFFFFFFFFFFFFFFFFFFFFFFFFFFFFFFFFFFFFFFFFFFFFFFFFFFFFFFFFFF
310
FFFFFFFFFFFFFFFFFFFFFFFFFFFFFFFFFFFFFFFFFFFFFFFFFFFFFFFFFFFFFFFF
310
F000FFFFFFFFFFFFFFFFFFFFFFFFFFFFFFFFFFFFFFFFFFFFFFFFFFFFFFFFFFFF
310
FFFFFFFFFFFFFFFFFFFFFFFFFFFFFFFFFFFFFFFFFFFFFFFFFFFFFFFFFFFFFFFF
310
FFFFFFFFFFFFFFFFFFFFFFFFFFFFFFFFFFFFFFFFFFFFFFFFF000FFFFFFFFFFFF
310
FFFFFFFFFFFFFFFFFFFFFFFFFFFFFFFFFFFFFFFFFFFFFFFFFFFFFFFFFFFFFFFF
310
FFFFFFFFFFFFFFFFFFFFFFFFFFFFFFFFFFFFFFFFFFFFFFFFFFFFFFFFFFFFFFFF
310
FFFFFFFFFFFFFFFFFFFFFFFFFFFFFFFFF000FFFFFFFFFFFFFFFFFFFFFFFFFFFF
310
FFFFFFFFFFFFFFFFFFFFFFFFFFFFFFFFFFFFFFFFFFFFFFFFFFFFFFFFFFFFFFFF
310
FFFFFFFFFFFFFFFFFFFFFFFFFFFFFFFFFFFFFFFFFFFFFFFFFFFFFFFFFFFFFFFF
310
FFFFFFFFFFFFFFFFF000FFFFFFFFFFFFFFFFFFFFFFFFFFFFFFFFFFFFFFFFFFFF
310
FFFFFFFFFFFFFFFFFFFFFFFFFFFFFFFFFFFFFFFFFFFFFFFFFFFFFFFFFFFFFFFF
310
FFFFFFFFFFFFFFFFFFFFFFFFFFFFFFFFFFFFFFFFFFFFFFFFFFFFFFFFFFFFFFFF
310
F000FFFFFFFFFFFFFFFFFFFFFFFFFFFFFFFFFFFFFFFFFFFFFFFFFFFFFFFFFFFF
310
FFFFFFFFFFFFFFFFFFFFFFFFFFFFFFFFFFFFFFFFFFFFFFFFFFFFFFFFFFFFFFFF
310
FFFFFFFFFFFFFFFFFFFFFFFFFFFFFFFFFFFFFFFFFFFFFFFFF000FFFFFFFFFFFF
310
FFFFFFFFFFFFFFFFFFFFFFFFFFFFFFFFFFFFFFFFFFFFFFFFFFFFFFFFFFFFFFFF
310
FFFFFFFFFFFFFFFFFFFFFFFFFFFFFFFFFFFFFFFFFFFFFFFFFFFFFFFFFFFFFFFF
310
FFFFFFFFFFFFFFFFFFFFFFFFFFFFFFFFF000FFFFFFFFFFFFFFFFFFFFFFFFFFFF
310
FFFFFFFFFFFFFFFFFFFFFFFFFFFFFFFFFFFFFFFFFFFFFFFFFFFFFFFFFFFFFFFF
310
FFFFFFFFFFFFFFFFFFFFFFFFFFFFFFFFFFFFFFFFFFFFFFFFFFFFFFFFFFFFFFFF
310
FFFFFFFFFFFFFFFFF000FFFFF80003FFFFFFFFFFFFFFFFFFFFFFFFFFFFFFFFFF
310
FFFFF00007FFFFFFFFFF00007FFFFFF800000000000000007FFFFFFFFFFFFFFF
310
FFFFFFFC001FFFFFFFFFFFFFFC001FFFFFFFFFFFFFFFFFFFFFFFFFFE0007FFFF
310
F000FFFF8000007FFFFFFFF8000FFFFFC0007FFFFF80007FFFFF0000007FFFFF
310
FFF8000007FFFFF800000000000000007FFFFFF0001FFFFFFFFFFFC00001FFFF
310
FFFFFFFFC00001FFFFFFFF000000000003FFFFE000007FFFF000FFFE0000000F
310
FFFFFFF0000FFFFF80007FFFFF80007FFFFC0000001FFFFFFFC0000001FFFFF8
310
00000000000000007FFFFFF0001FFFFFFFFFFE0000003FFFFFFFFFFE0000003F
310
FFFFFF000000000003FFFF0000000FFFF000FFF800000003FFFFFFF00007FFFF
310
80007FFFFF80007FFFF000000007FFFFFF000000003FFFF80000000000000000
310
7FFFFFF0001FFFFFFFFFF80000000FFFFFFFFFF80000000FFFFFFF0000000000
310
03FFFC00000003FFF000FFE000000000FFFFFFF00007FFFF80003FFFFF80007F
310
FFC000000001FFFFFC000000001FFFF800000000000000007FFFFFF0001FFFFF
310
FFFFE000000003FFFFFFFFE000000003FFFFFF000000000003FFF000000000FF
310
F000FF80000000007FFFFFF00007FFFF80003FFFFF80007FFF8000000000FFFF
310
F80000000007FFF800000000000000007FFFFFF0001FFFFFFFFFC000000001FF
310
FFFFFFC000000001FFFFFF000000000003FFC0000000007FF000FF0000000000
310
3FFFFFE00007FFFF00003FFFFF80007FFE00000000003FFFF00000000003FFF8
310
00000000000000007FFFFFF0001FFFFFFFFF8000000000FFFFFFFF8000000000
310
FFFFFF000000000003FF80000000003FF000FE00000000001FFFFFE00003FFFF
310
00003FFFFF80007FFC00000000001FFFE00000000001FFF8000001FFFE000000
310
7FFFFFF0001FFFFFFFFE00000000003FFFFFFE00000000003FFFFF0000000000
310
03FF00000000001FF000FC00000000000FFFFFE00003FFFF00001FFFFF80007F
310
F800000000001FFFC00000000000FFF8000001FFFE0000007FFFFFF0001FFFFF
310
FFFC00000000001FFFFFFC00000000001FFFFF000000000003FE00000000000F
310
F000F8000000000007FFFFE00003FFFF00001FFFFF80007FF800000000000FFF
310
800000000000FFF8000001FFFE0000007FFFFFF0001FFFFFFFF800000000000F
310
FFFFF800000000000FFFFF000000000003FC000000000007F000F80000000000
310
03FFFFC00003FFFE00001FFFFF80007FF0000000000007FF0000000000007FF8
310
000001FFFE0000007FFFFFF0001FFFFFFFF0000000000007FFFFF00000000000
310
07FFFF000000000003F8000000000003F000F0000000000003FFFFC00001FFFE
310
00001FFFFF80007FE0000000000007FE0000000000003FF8000001FFFE000000
310
7FFFFFF0001FFFFFFFF0000000000007FFFFF0000000000007FFFF0000000000
310
03F800001F800003F000E00001FFF00001FFFFC00001FFFE00000FFFFF80007F
310
E00001FFE00003FE00001FFF00003FF8000001FFFE0000007FFFFFF0001FFFFF
310
FFE000003E000003FFFFE000003E000003FFFF000000000003F00001FFF80001
310
F000E00007FFFC0001FFFFC00001FFFE00000FFFFF80007FC0000FFFFC0003FC
310
0000FFFFC0001FF8000001FFFE0000007FFFFFF0001FFFFFFFC00003FFE00001
310
FFFFC00003FFE00001FFFF0001FFFFFFFFF00007FFFE0001F000E0000FFFFF00
310
00FFFF800001FFFC00000FFFFF80007FC0001FFFFE0001FC0001FFFFE0001FF8
310
000001FFFE0000007FFFFFF0001FFFFFFF80000FFFF80000FFFF80000FFFF800
310
00FFFF0003FFFFFFFFE0000FFFFF8000F000C0003FFFFF8000FFFF800000FFFC
310
000007FFFF80007F80003FFFFF0001FC0003FFFFF0001FF8000001FFFE000000
310
7FFFFFF0001FFFFFFF80003FFFFE0000FFFF80003FFFFE0000FFFF0003FFFFFF
310
FFE0003FFFFF8000F000C0003FFFFF8000FFFF800000FFFC000007FFFF80007F
310
80007FFFFF8001F80007FFFFF8000FF8000001FFFE0000007FFFFFF0001FFFFF
310
FF00007FFFFF00007FFF00007FFFFF00007FFF0003FFFFFFFFE0003FFFFFC000
310
F000C0007FFFFFC000FFFF000000FFFC000007FFFF80007F8000FFFFFF8000F8
310
000FFFFFF8000FF8000001FFFE0000007FFFFFF0001FFFFFFF0000FFFFFF8000
310
7FFF0000FFFFFF80007FFF0003FFFFFFFFC0007FFFFFC00070008000FFFFFFC0
310
00FFFF000000FFF8000007FFFF80007F8000FFFFFF8000F8000FFFFFF8000FF8
310
000001FFFE0000007FFFFFF0001FFFFFFE0001FFFFFFC0003FFE0001FFFFFFC0
310
003FFF0003FFFFFFFFC0007FFFFFE00070008000FFFFFFC0007FFF0000007FF8
310
000003FFFF80007F0001FFFFFF8000F8000FFFFFF8000FF8000001FFFE000000
310
7FFFFFF0001FFFFFFE0001FFFFFFC0003FFE0001FFFFFFC0003FFF0003FFFFFF
310
FFC000FFFFFFE00070008000FFFFFFC0007FFF0000007FF8000003FFFF80007F
310
0001FFFFFF8000F8001FFFFFF8000FF8000001FFFE0000007FFFFFF0001FFFFF
310
FE0003FFFFFFE0003FFE0003FFFFFFE0003FFF0003FFFFFFFFC000FFFFFFE000
310
70008000FFFFFFC0007FFE0000007FF8000003FFFF80007F0001FFFFFF8000F0
310
001FFFFFF8000FF8000001FFFE0000007FFFFFF0001FFFFFFC0003FFFFFFE000
310
1FFC0003FFFFFFE0001FFF0003FFFFFFFFC000FFFFFFC00070008000FFFFFF80
310
007FFE0000007FF0000003FFFF80007F0001FFFFFF0000F0001FFFFFF8000FF8
310
000001FFFE0000007FFFFFF0001FFFFFFC0007FFFFFFF0001FFC0007FFFFFFF0
310
001FFF0003FFFFFFFFC000FFFFFFC00070008001FFFFFF0000FFFE0000003FF0
310
000001FFFF80007F0001FFFFFF0000F8001FFFFFF0000FF8000001FFFE000000
310
7FFFFFF0001FFFFFFC0007FFFFFFF0001FFC0007FFFFFFF0001FFF0003FFFFFF
310
FFC001FFFFFF80007000FFFFFFFFFE0000FFFE0008003FF0008001FFFF80007F
310
FFFFFFFFFC0000FFFFFFFFFFE0000FF8000001FFFE0000007FFFFFF0001FFFFF
310
F8000FFFFFFFF8000FF8000FFFFFFFF8000FFF0003FFFFFFFFFFFFFFFFFF0000
310
7000FFFFFFFFFC0000FFFC0008003FF0008001FFFF80007FFFFFFFFFF80001FF
310
FFFFFFFF80000FF8000001FFFE0000007FFFFFF0001FFFFFF8000FFFFFFFF800
310
0FF8000FFFFFFFF8000FFF0003FFFFFFFFFFFFFFFFFE0000F000FFFFFFFFE000
310
00FFFC000C003FE000C001FFFF80007FFFFFFFFFC00001FFFFFFFFFE00001FF8
310
000001FFFE0000007FFFFFF0001FFFFFF8000FFFFFFFF8000FF8000FFFFFFFF8
310
000FFF0003FFFFFFFFFFFFFFFFF00000F000FFFFFFFE000001FFFC000C001FE0
310
00C000FFFF80007FFFFFFFFE000001FFFFFFFFE000001FF80FFFFFFFFFFFFFC0
310
7FFFFFF0001FFFFFF8000FFFFFFFF8000FF8000FFFFFFFF8000FFF0003FFFFFF
310
FFFFFFFFFF800000F000FFFFFFC0000001FFFC001C001FE001C000FFFF80007F
310
FFFFFF80000003FFFFFFF80000001FF80FFFFFFFFFFFFFC07FFFFFF0001FFFFF
310
F8001FFFFFFFFC000FF8001FFFFFFFFC000FFF0003FFFFFFFFFFFFFFF0000001
310
F000FFFFF800000001FFF8001C001FE001C000FFFF80007FFFFFF800000003FF
310
FFFF800000003FF80FFFFFFFFFFFFFC07FFFFFF0001FFFFFF8001FFFFFFFFC00
310
0FF8001FFFFFFFFC000FFF0003FFFFFFFFFFFFFE00000001F000FFFFC0000000
310
03FFF8001E001FC001E000FFFF80007FFFFF8000000007FFFFFC000000003FF8
310
0FFFFFFFFFFFFFC07FFFFFF0001FFFFFF8001FFFFFFFFC000FF8001FFFFFFFFC
310
000FFF0003FFFFFFFFFFFFE000000003F000FFFE0000000007FFF8001E000FC0
310
01E0007FFF80007FFFFE0000000007FFFFE0000000007FF80FFFFFFFFFFFFFC0
310
7FFFFFF0001FFFFFF0001FFFFFFFFC0007F0001FFFFFFFFC0007FF0003FFFFFF
310
FFFFFF0000000003F000FFF80000000007FFF8001E000FC003E0007FFF80007F
310
FFF0000000000FFFFF8000000000FFF80FFFFFFFFFFFFFC07FFFFFF0001FFFFF
310
F0001FFFFFFFFC0007F0001FFFFFFFFC0007FF0003FFFFFFFFFFFC0000000007
310
F000FFE0000000000FFFF0003E000FC003E0007FFF80007FFFC0000000001FFF
310
FE0000000001FFF80FFFFFFFFFFFFFC07FFFFFF0001FFFFFF0001FFFFFFFFC00
310
07F0001FFFFFFFFC0007FF0003FFFFFFFFFFF0000000000FF000FFC000000000
310
1FFFF0003F000F8003F0003FFF80007FFF80000000003FFFF80000000003FFF8
310
0FFFFFFFFFFFFFC07FFFFFF0001FFFFFF0001FFFFFFFFC0007F0001FFFFFFFFC
310
0007FF0003FFFFFFFFFFE0000000001FF000FF00000000007FFFF0003F000780
310
03F0003FFF80007FFF00000000007FFFF00000000007FFF80FFFFFFFFFFFFFC0
310
7FFFFFF0001FFFFFF0001FFFFFFFFC0007F0001FFFFFFFFC0007FF0003FFFFFF
310
FFFF80000000007FF000FE0000000000FFFFE0003F00078007F0003FFF80007F
310
FE0000000001FFFFE0000000001FFFF80FFFFFFFFFFFFFC07FFFFFF0001FFFFF
310
F0001FFFFFFFFC0007F0001FFFFFFFFC0007FF0003FFFFFFFFFF0000000000FF
310
F000FC0000000003FFFFE0007F00078007F0003FFF80007FFC0000000007FFFF
310
C0000000007FFFF80FFFFFFFFFFFFFC07FFFFFF0001FFFFFF8001FFFFFFFFC00
310
0FF8001FFFFFFFFC000FFF0003FFFFFFFFFE0000000003FFF000FC000000000F
310
FFFFE0007F80070007F8001FFF80007FF8000000001FFFFF8000000001FFFFF8
310
0FFFFFFFFFFFFFC07FFFFFF0001FFFFFF8001FFFFFFFFC000FF8001FFFFFFFFC
310
000FFF0003FFFFFFFFFC000000000FFFF000F8000000007FFFFFE0007F800700
310
07F8001FFF80007FF000000000FFFFFF800000000FFFFFF80FFFFFFFFFFFFFC0
310
7FFFFFF0001FFFFFF8000FFFFFFFF8000FF8000FFFFFFFF8000FFF0003FFFFFF
310
FFFC000000007FFFF000F800000007FFFFFFC0007F8003000FF8001FFF80007F
310
F000000007FFFFFF000000007FFFFFF80FFFFFFFFFFFFFC07FFFFFF0001FFFFF
310
F8000FFFFFFFF8000FF8000FFFFFFFF8000FFF0003FFFFFFFFF80000000FFFFF
310
F000F0000000FFFFFFFFC000FF8003000FF8001FFF80007FE0000000FFFFFFFF
310
0000000FFFFFFFF8000001FFFE0000007FFFFFF0001FFFFFF8000FFFFFFFF800
310
0FF8000FFFFFFFF8000FFF0003FFFFFFFFF8000000FFFFFFF000F000000FFFFF
310
FFFFC000FFC002000FF8000FFF80007FE000001FFFFFFFFE000001FFFFFFFFF8
310
000001FFFE0000007FFFFFF0001FFFFFF8000FFFFFFFF8000FF8000FFFFFFFF8
310
000FFF0003FFFFFFFFF000001FFFFFFFF000E00000FFFFFFFFFFC000FFC00200
310
0FFC000FFF80007FE00001FFFFFFFFFE00001FFFFFFFFFF8000001FFFE000000
310
7FFFFFF0001FFFFFFC000FFFFFFFF8001FFC000FFFFFFFF8001FFF0003FFFFFF
310
FFF00001FFFFFFFFF000E00007FFFFFFFFFF8000FFC000001FFC000FFF80007F
310
C0000FFFFFFFFFFE0000FFFFFFFFFFF8000001FFFE0000007FFFFFF0001FFFFF
310
FC0007FFFFFFF0001FFC0007FFFFFFF0001FFF0003FFFFFFFFF00007FFFFFFFF
310
F000E0001FFFFFFFFFFF8000FFC000001FFC000FFF80007FC0003FFFFFFFFFFE
310
0001FFFFFFFFFFF8000001FFFE0000007FFFFFF0001FFFFFFC0007FFFFFFF000
310
1FFC0007FFFFFFF0001FFF0003FFFFFFFFF0001FFFFFFFFFF000E0003FFFFF00
310
03FF8001FFE000001FFC0007FF80007FC0007FFFFF0007FC0003FFFFF0003FF8
310
000001FFFE0000007FFFFFF0001FFFFFFC0003FFFFFFE0001FFC0003FFFFFFE0
310
001FFF0003FFFFFFFFF0003FFFFFFFFFF000E0003FFFFF0001FF8001FFE00000
310
1FFE0007FF80007FC0007FFFFE0003FC0007FFFFE0003FF8000001FFFE000000
310
7FFFFFF0001FFFFFFE0003FFFFFFE0003FFE0003FFFFFFE0003FFF0003FFFFFF
310
FFF0003FFFFF8001F000E0003FFFFF0001FF0001FFE000001FFE0007FF80007F
310
C0007FFFFE0003FC0007FFFFE0003FF8000001FFFE0000007FFFFFF0001FFFFF
310
FE0001FFFFFFC0003FFE0001FFFFFFC0003FFF0003FFFFFFFFF0003FFFFF0001
310
F000E0003FFFFF0003FF0001FFE000003FFE0007FF80007FC0007FFFFE0003FC
310
0007FFFFE0003FF8000001FFFE0000007FFFFFF0001FFFFFFF0001FFFFFFC000
310
7FFF0001FFFFFFC0007FFF0003FFFFFFFFF0003FFFFF0001F000E0003FFFFE00
310
03FF0003FFF000003FFE0003FF80007FC0007FFFFC0003FE0007FFFFE0003FF8
310
000001FFFE0000007FFFFFF0001FFFFFFF0000FFFFFF80007FFF0000FFFFFF80
310
007FFF0003FFFFFFFFF0003FFFFF0001F000E0003FFFFE0003FF0003FFF00000
310
3FFF0003FF80007FC0007FFFFC0007FE0007FFFFC0003FF8000001FFFE000000
310
7FFFFFF0001FFFFFFF80007FFFFF0000FFFF80007FFFFF0000FFFF0003FFFFFF
310
FFF0003FFFFF0003F000E0003FFFFC0003FE0003FFF000003FFF0003FF80007F
310
E0003FFFF80007FE0003FFFFC0007FF8000001FFFE0000007FFFFFF0001FFFFF
310
FF80003FFFFE0000FFFF80003FFFFE0000FFFF0003FFFFFFFFF0001FFFFE0003
310
F000F0001FFFF80003FE0003FFF000007FFF0001FF80007FE0003FFFF00007FE
310
0001FFFF80007FF8000001FFFE0000007FFFFFF0001FFFFFFFC0000FFFF80001
310
FFFFC0000FFFF80001FFFF0003FFFFFFFFF0001FFFFC0003F000F0000FFFF000
310
07FE0007FFF800007FFF0001FF80007FE0001FFFE00007FF0000FFFE00007FF8
310
000001FFFE0000007FFFFFF0001FFFFFFFC00003FFE00001FFFFC00003FFE000
310
01FFFF0003FFFFFFFFF8000FFFF80003F000F00003FFC00007FC0007FFF80000
310
7FFF8001FF80007FF00007FF80000FFF00007FF80000FFF8000001FFFE000000
310
7F80000000000001FFE000003E000003FFFFE000003E000003FFFF0003FFFFFF
310
FFF80003FFE00007F000F800000000000FFC0007FFF800007FFF8001FF80007F
310
F000000000000FFF000000000000FFF8000001FFFE0000007F80000000000001
310
FFF0000000000007FFFFF0000000000007FFFF0003FFFFFFFFFC00007E000007
310
F000F800000000000FFC0007FFF80000FFFF8000FF80007FF800000000001FFF
310
800000000001FFF8000001FFFE0000007F80000000000001FFF800000000000F
310
FFFFF800000000000FFFFF0003FFFFFFFFFC00000000000FF000FC0000000000
310
1FFC0007FFFC0000FFFF8000FF80007FF800000000003FFFC00000000001FFF8
310
000001FFFE0000007F80000000000001FFF800000000000FFFFFF80000000000
310
0FFFFF0003FFFFFFFFFE00000000001FF000FE00000000003FF8000FFFFC0000
310
FFFF8000FF80007FFC00000000003FFFC00000000003FFF8000001FFFE000000
310
7F80000000000001FFFC00000000001FFFFFFC00000000001FFFFF0003FFFFFF
310
FFFF00000000001FF000FF00000000003FF8000FFFFC0000FFFFC000FF80007F
310
FE00000000007FFFE00000000007FFF8000001FFFE0000007F80000000000001
310
FFFE00000000003FFFFFFE00000000003FFFFF0003FFFFFFFFFF80000000003F
310
F000FF80000000007FF8000FFFFC0001FFFFC0007F80007FFF0000000000FFFF
310
F0000000000FFFF800000000000000007F80000000000001FFFF8000000000FF
310
FFFFFF8000000000FFFFFF0003FFFFFFFFFFC0000000007FF000FFC000000000
310
FFF8000FFFFE0001FFFFC0007F80007FFF8000000001FFFFF8000000001FFFF8
310
00000000000000007F80000000000001FFFFC000000001FFFFFFFFC000000001
310
FFFFFF0003FFFFFFFFFFE000000000FFF000FFE000000003FFF0001FFFFE0001
310
FFFFC0007F80007FFFC000000007FFFFFE000000003FFFF80000000000000000
310
7F80000000000001FFFFE000000003FFFFFFFFE000000003FFFFFF0003FFFFFF
310
FFFFF000000003FFF000FFF80000000FFFF0001FFFFE0001FFFFE0007F80007F
310
FFF00000000FFFFFFF00000000FFFFF800000000000000007F80000000000001
310
FFFFF80000000FFFFFFFFFF80000000FFFFFFF0003FFFFFFFFFFFC0000000FFF
310
F000FFFE0000003FFFF0001FFFFE0003FFFFE0003F80007FFFFC0000003FFFFF
310
FFC0000003FFFFF800000000000000007F80000000000001FFFFFE0000003FFF
310
FFFFFFFE0000003FFFFFFF0003FFFFFFFFFFFF0000003FFFF000FFFF800000FF
310
FFF0001FFFFF0003FFFFE0003F80007FFFFF000001FFFFFFFFF800001FFFFFF8
310
00000000000000007F80000000000001FFFFFFC00001FFFFFFFFFFFFC00001FF
310
FFFFFF0003FFFFFFFFFFFFC00000FFFFF000FFFFF8000FFFFFFFFFFFFFFFFFFF
310
FFFFFFFFFFFFFFFFFFFFF0001FFFFFFFFFFF0000FFFFFFF80000000000000000
310
7FFFFFFFFFFFFFFFFFFFFFFC001FFFFFFFFFFFFFFC001FFFFFFFFFFFFFFFFFFF
310
FFFFFFFC001FFFFFF000FFFFFFFFFFFFFFFFFFFFFFFFFFFFFFFFFFFFFFFFFFFF
310
FFFFFFFFFFFFFFFFFFFFFFFFFFFFFFFFFFFFFFFFFFFFFFFFFFFFFFFFFFFFFFFF
310
FFFFFFFFFFFFFFFFFFFFFFFFFFFFFFFFFFFFFFFFFFFFFFFFFFFFFFFFFFFFFFFF
310
F000FFFFFFFFFFFFFFFFFFFFFFFFFFFFFFFFFFFFFFFFFFFFFFFFFFFFFFFFFFFF
310
FFFFFFFFFFFFFFFFFFFFFFFFFFFFFFFFFFFFFFFFFFFFFFFFFFFFFFFFFFFFFFFF
310
FFFFFFFFFFFFFFFFFFFFFFFFFFFFFFFFFFFFFFFFFFFFFFFFF000FFFFFFFFFFFF
310
FFFFFFFFFFFFFFFFFFFFFFFFFFFFFFFFFFFFFFFFFFFFFFFFFFFFFFFFFFFFFFFF
310
FFFFFFFFFFFFFFFFFFFFFFFFFFFFFFFFFFFFFFFFFFFFFFFFFFFFFFFFFFFFFFFF
310
FFFFFFFFFFFFFFFFFFFFFFFFFFFFFFFFF000FFFFFFFFFFFFFFFFFFFFFFFFFFFF
310
FFFFFFFFFFFFFFFFFFFFFFFFFFFFFFFFFFFFFFFFFFFFFFFFFFFFFFFFFFFFFFFF
310
FFFFFFFFFFFFFFFFFFFFFFFFFFFFFFFFFFFFFFFFFFFFFFFFFFFFFFFFFFFFFFFF
310
FFFFFFFFFFFFFFFFF000FFFFFFFFFFFFFFFFFFFFFFFFFFFFFFFFFFFFFFFFFFFF
310
FFFFFFFFFFFFFFFFFFFFFFFFFFFFFFFFFFFFFFFFFFFFFFFFFFFFFFFFFFFFFFFF
310
FFFFFFFFFFFFFFFFFFFFFFFFFFFFFFFFFFFFFFFFFFFFFFFFFFFFFFFFFFFFFFFF
310
F000FFFFFFFFFFFFFFFFFFFFFFFFFFFFFFFFFFFFFFFFFFFFFFFFFFFFFFFFFFFF
310
FFFFFFFFFFFFFFFFFFFFFFFFFFFFFFFFFFFFFFFFFFFFFFFFFFFFFFFFFFFFFFFF
310
FFFFFFFFFFFFFFFFFFFFFFFFFFFFFFFFFFFFFFFFFFFFFFFFF000FFFFFFFFFFFF
310
FFFFFFFFFFFFFFFFFFFFFFFFFFFFFFFFFFFFFFFFFFFFFFFFFFFFFFFFFFFFFFFF
310
FFFFFFFFFFFFFFFFFFFFFFFFFFFFFFFFFFFFFFFFFFFFFFFFFFFFFFFFFFFFFFFF
310
FFFFFFFFFFFFFFFFFFFFFFFFFFFFFFFFF000FFFFFFFFFFFFFFFFFFFFFFFFFFFF
310
FFFFFFFFFFFFFFFFFFFFFFFFFFFFFFFFFFFFFFFFFFFFFFFFFFFFFFFFFFFFFFFF
310
FFFFFFFFFFFFFFFFFFFFFFFFFFFFFFFFFFFFFFFFFFFFFFFFFFFFFFFFFFFFFFFF
310
FFFFFFFFFFFFFFFFF000FFFFFFFFFFFFFFFFFFFFFFFFFFFFFFFFFFFFFFFFFFFF
310
FFFFFFFFFFFFFFFFFFFFFFFFFFFFFFFFFFFFFFFFFFFFFFFFFFFFFFFFFFFFFFFF
310
FFFFFFFFFFFFFFFFFFFFFFFFFFFFFFFFFFFFFFFFFFFFFFFFFFFFFFFFFFFFFFFF
310
F000FFFFFFFFFFFFFFFFFFFFFFFFFFFFFFFFFFFFFFFFFFFFFFFFFFFFFFFFFFFF
310
FFFFFFFFFFFFFFFFFFFFFFFFFFFFFFFFFFFFFFFFFFFFFFFFFFFFFFFFFFFFFFFF
310
FFFFFFFFFFFFFFFFFFFFFFFFFFFFFFFFFFFFFFFFFFFFFFFFF000FFFFFFFFFFFF
310
FFFFFFFFFFFFFFFFFFFFFFFFFFFFFFFFFFFFFFFFFFFFFFFFFFFFFFFFFFFFFFFF
310
FFFFFFFFFFFFFFFFFFFFFFFFFFFFFFFFFFFFFFFFFFFFFFFFFFFFFFFFFFFFFFFF
310
FFFFFFFFFFFFFFFFFFFFFFFFFFFFFFFFF000FFFFFFFFFFFFFFFFFFFFFFFFFFFF
310
FFFFFFFFFFFFFFFFFFFFFFFFFFFFFFFFFFFFFFFFFFFFFFFFFFFFFFFFFFFFFFFF
310
FFFFFFFFFFFFFFFFFFFFFFFFFFFFFFFFFFFFFFFFFFFFFFFFFFFFFFFFFFFFFFFF
310
FFFFFFFFFFFFFFFFF000FFFFFFFFFFFFFFFFFFFFFFFFFFFFFFFFFFFFFFFFFFFF
310
FFFFFFFFFFFFFFFFFFFFFFFFFFFFFFFFFFFFFFFFFFFFFFFFFFFFFFFFFFFFFFFF
310
FFFFFFFFFFFFFFFFFFFFFFFFFFFFFFFFFFFFFFFFFFFFFFFFFFFFFFFFFFFFFFFF
310
F000FFFFFFFFFFFFFFFFFFFFFFFFFFFFFFFFFFFFFFFFFFFFFFFFFFFFFFFFFFFF
310
FFFFFFFFFFFFFFFFFFFFFFFFFFFFFFFFFFFFFFFFFFFFFFFFFFFFFFFFFFFFFFFF
310
FFFFFFFFFFFFFFFFFFFFFFFFFFFFFFFFFFFFFFFFFFFFFFFFF000FFFFFFFFFFFF
310
FFFFFFFFFFFFFFFFFFFFFFFFFFFFFFFFFFFFFFFFFFFFFFFFFFFFFFFFFFFFFFFF
310
FFFFFFFFFFFFFFFFFFFFFFFFFFFFFFFFFFFFFFFFFFFFFFFFFFFFFFFFFFFFFFFF
310
FFFFFFFFFFFFFFFFFFFFFFFFFFFFFFFFF000FFFFFFFFFFFFFFFFFFFFFFFFFFFF
310
FFFFFFFFFFFFFFFFFFFFFFFFFFFFFFFFFFFFFFFFFFFFFFFFFFFFFFFFFFFFFFFF
310
FFFFFFFFFFFFFFFFFFFFFFFFFFFFFFFFFFFFFFFFFFFFFFFFFFFFFFFFFFFFFFFF
310
FFFFFFFFFFFFFFFFF000FFFFFFFFFFFFFFFFFFFFFFFFFFFFFFFFFFFFFFFFFFFF
310
FFFFFFFFFFFFFFFFFFFFFFFFFFFFFFFFFFFFFFFFFFFFFFFFFFFFFFFFFFFFFFFF
310
FFFFFFFFFFFFFFFFFFFFFFFFFFFFFFFFFFFFFFFFFFFFFFFFFFFFFFFFFFFFFFFF
310
F000FFFFFFFFFFFFFFFFFFFFFFFFFFFFFFFFFFFFFFFFFFFFFFFFFFFFFFFFFFFF
310
FFFFFFFFFFFFFFFFFFFFFFFFFFFFFFFFFFFFFFFFFFFFFFFFFFFFFFFFFFFFFFFF
310
FFFFFFFFFFFFFFFFFFFFFFFFFFFFFFFFFFFFFFFFFFFFFFFFF000FFFFFFFFFFFF
310
FFFFFFFFFFFFFFFFFFFFFFFFFFFFFFFFFFFFFFFFFFFFFFFFFFFFFFFFFFFFFFFF
310
FFFFFFFFFFFFFFFFFFFFFFFFFFFFFFFFFFFFFFFFFFFFFFFFFFFFFFFFFFFFFFFF
310
FFFFFFFFFFFFFFFFFFFFFFFFFFFFFFFFF000FFFFFFFFFFFFFFFFFFFFFFFFFFFF
310
FFFFFFFFFFFFFFFFFFFFFFFFFFFFFFFFFFFFFFFFFFFFFFFFFFFFFFFFFFFFFFFF
310
FFFFFFFFFFFFFFFFFFFFFFFFFFFFFFFFFFFFFFFFFFFFFFFFFFFFFFFFFFFFFFFF
310
FFFFFFFFFFFFFFFFF000FFFFFFFFFFFFFFFFFFFFFFFFFFFFFFFFFFFFFFFFFFFF
310
FFFFFFFFFFFFFFFFFFFFFFFFFFFFFFFFFFFFFFFFFFFFFFFFFFFFFFFFFFFFFFFF
310
FFFFFFFFFFFFFFFFFFFFFFFFFFFFFFFFFFFFFFFFFFFFFFFFFFFFFFFFFFFFFFFF
310
F000FFFFFFFFFFFFFFFFFFFFFFFFFFFFFFFFFFFFFFFFFFFFFFFFFFFFFFFFFFFF
310
FFFFFFFFFFFFFFFFFFFFFFFFFFFFFFFFFFFFFFFFFFFFFFFFFFFFFFFFFFFFFFFF
310
FFFFFFFFFFFFFFFFFFFFFFFFFFFFFFFFFFFFFFFFFFFFFFFFF000FFFFFFFFFFFF
310
FFFFFFFFFFFFFFFFFFFFFFFFFFFFFFFFFFFFFFFFFFFFFFFFFFFFFFFFFFFFFFFF
310
FFFFFFFFFFFFFFFFFFFFFFFFFFFFFFFFFFFFFFFFFFFFFFFFFFFFFFFFFFFFFFFF
310
FFFFFFFFFFFFFFFFFFFFFFFFFFFFFFFFF0000000000000000000000000000000
310
0000000000000000000000000000000000000000000000000000000000000000
310
0000000000000000000000000000000000000000000000000000000000000000
310
0000000000000000000000000000000000000000000000000000000000000000
310
0000000000000000000000000000000000000000000000000000000000000000
310
0000000000000000000000000000000000000000000000000000000000000000
310
0000000000000000000000000000000000000000000000000000000000000000
310
0000000000000000000000000000000000000000000000000000000000000000
310
0000000000000000000000000000000000000000000000000000000000000000
310
0000000000000000000000000000000000000000000000000000000000000000
310
0000000000000000000000000000000000000000000000000000000000000000
310
0000000000000000000000000000000000000000000000000000000000000000
310
0000000000000000000000000000000000000000000000000000000000000000
310
0000000000000000000000000000000000000000000000000000000000000000
310
0000000000000000000000000000000000000000000000000000000000000000
310
0000000000000000000000000000000000000000000000000000000000000000
  1
OLE
  0
ENDSEC
  0
SECTION
  2
OBJECTS
  0
DICTIONARY
  5
C
330
0
100
AcDbDictionary
281
     1
  3
ACAD_GROUP
350
D
  3
ACAD_LAYOUT
350
1A
  3
ACAD_MLINESTYLE
350
17
  3
ACAD_PLOTSETTINGS
350
19
  3
ACAD_PLOTSTYLENAME
350
E
  3
ACAD_SCALELIST
350
47
  0
DICTIONARY
  5
D
102
{ACAD_REACTORS
330
C
102
}
330
C
100
AcDbDictionary
281
     1
  0
DICTIONARY
  5
1A
102
{ACAD_REACTORS
330
C
102
}
330
C
100
AcDbDictionary
281
     1
  3
Layout1
350
1E
  3
Layout2
350
26
  3
Model
350
22
  0
DICTIONARY
  5
17
102
{ACAD_REACTORS
330
C
102
}
330
C
100
AcDbDictionary
281
     1
  3
Standard
350
18
  0
DICTIONARY
  5
19
102
{ACAD_REACTORS
330
C
102
}
330
C
100
AcDbDictionary
281
     1
  0
ACDBDICTIONARYWDFLT
  5
E
102
{ACAD_REACTORS
330
C
102
}
330
C
100
AcDbDictionary
281
     1
  3
Normal
350
F
100
AcDbDictionaryWithDefault
340
F
  0
DICTIONARY
  5
47
102
{ACAD_REACTORS
330
C
102
}
330
C
100
AcDbDictionary
281
     1
  3
A0
350
48
  3
A1
350
49
  3
A2
350
4A
  3
A3
350
4B
  3
A4
350
4C
  3
A5
350
4D
  3
A6
350
4E
  3
A7
350
4F
  3
A8
350
50
  3
A9
350
51
  3
B0
350
52
  3
B1
350
53
  3
B2
350
54
  3
B3
350
55
  3
B4
350
56
  3
B5
350
57
  3
B6
350
58
  3
B7
350
59
  3
B8
350
5A
  3
B9
350
5B
  3
C0
350
5C
  3
C1
350
5D
  3
C2
350
5E
  3
C3
350
5F
  3
C4
350
60
  3
C5
350
61
  3
C6
350
62
  3
C7
350
63
  3
C8
350
64
  3
C9
350
65
  3
D0
350
66
  3
D1
350
67
  3
D2
350
68
  0
LAYOUT
  5
1E
102
{ACAD_REACTORS
330
1A
102
}
330
1A
100
AcDbPlotSettings
  1

  2
none_device
  4

  6

 40
0.0
 41
0.0
 42
0.0
 43
0.0
 44
0.0
 45
0.0
 46
0.0
 47
0.0
 48
0.0
 49
0.0
140
0.0
141
0.0
142
1.0
143
1.0
 70
   688
 72
     1
 73
     0
 74
     5
  7

 75
    16
147
1.0
148
0.0
149
0.0
100
AcDbLayout
  1
Layout1
 70
     1
 71
     1
 10
0.0
 20
0.0
 11
420.0
 21
297.0
 12
0.0
 22
0.0
 32
0.0
 14
1.0000000000E+20
 24
1.0000000000E+20
 34
1.0000000000E+20
 15
-1.0000000000E+20
 25
-1.0000000000E+20
 35
-1.0000000000E+20
146
0.0
 13
0.0
 23
0.0
 33
0.0
 16
1.0
 26
0.0
 36
0.0
 17
0.0
 27
1.0
 37
0.0
 76
     0
330
1B
  0
LAYOUT
  5
26
102
{ACAD_REACTORS
330
1A
102
}
330
1A
100
AcDbPlotSettings
  1

  2
none_device
  4

  6

 40
0.0
 41
0.0
 42
0.0
 43
0.0
 44
0.0
 45
0.0
 46
0.0
 47
0.0
 48
0.0
 49
0.0
140
0.0
141
0.0
142
1.0
143
1.0
 70
   688
 72
     1
 73
     0
 74
     5
  7

 75
    16
147
1.0
148
0.0
149
0.0
100
AcDbLayout
  1
Layout2
 70
     1
 71
     2
 10
0.0
 20
0.0
 11
0.0
 21
0.0
 12
0.0
 22
0.0
 32
0.0
 14
0.0
 24
0.0
 34
0.0
 15
0.0
 25
0.0
 35
0.0
146
0.0
 13
0.0
 23
0.0
 33
0.0
 16
1.0
 26
0.0
 36
0.0
 17
0.0
 27
1.0
 37
0.0
 76
     0
330
23
  0
LAYOUT
  5
22
102
{ACAD_REACTORS
330
1A
102
}
330
1A
100
AcDbPlotSettings
  1

  2
none_device
  4
Letter_(8.50_x_11.00_Inches)
  6

 40
6.35
 41
6.35
 42
6.35000508
 43
6.35000508
 44
215.9
 45
279.4
 46
0.0
 47
0.0
 48
0.0
 49
0.0
140
0.0
141
0.0
142
1.0
143
1.0
 70
  1712
 72
     1
 73
     0
 74
     0
  7

 75
     0
147
1.0
148
0.0
149
0.0
100
AcDbLayout
  1
Model
 70
     1
 71
     0
 10
0.0
 20
0.0
 11
297.0
 21
210.0
 12
0.0
 22
0.0
 32
0.0
 14
0.0
 24
0.0
 34
0.0
 15
297.0
 25
210.0
 35
0.0
146
0.0
 13
0.0
 23
0.0
 33
0.0
 16
1.0
 26
0.0
 36
0.0
 17
0.0
 27
1.0
 37
0.0
 76
     0
330
1F
331
29
  0
MLINESTYLE
  5
18
102
{ACAD_REACTORS
330
17
102
}
330
17
100
AcDbMlineStyle
  2
Standard
 70
     0
  3

 62
   256
 51
90.0
 52
90.0
 71
     2
 49
0.5
 62
   256
  6
BYLAYER
 49
-0.5
 62
   256
  6
BYLAYER
  0
ACDBPLACEHOLDER
  5
F
102
{ACAD_REACTORS
330
E
102
}
330
E
  0
SCALE
  5
48
102
{ACAD_REACTORS
330
47
102
}
330
47
100
AcDbScale
 70
     0
300
1:1
140
1.0
141
1.0
290
     1
  0
SCALE
  5
49
102
{ACAD_REACTORS
330
47
102
}
330
47
100
AcDbScale
 70
     0
300
1:2
140
1.0
141
2.0
290
     0
  0
SCALE
  5
4A
102
{ACAD_REACTORS
330
47
102
}
330
47
100
AcDbScale
 70
     0
300
1:4
140
1.0
141
4.0
290
     0
  0
SCALE
  5
4B
102
{ACAD_REACTORS
330
47
102
}
330
47
100
AcDbScale
 70
     0
300
1:5
140
1.0
141
5.0
290
     0
  0
SCALE
  5
4C
102
{ACAD_REACTORS
330
47
102
}
330
47
100
AcDbScale
 70
     0
300
1:8
140
1.0
141
8.0
290
     0
  0
SCALE
  5
4D
102
{ACAD_REACTORS
330
47
102
}
330
47
100
AcDbScale
 70
     0
300
1:10
140
1.0
141
10.0
290
     0
  0
SCALE
  5
4E
102
{ACAD_REACTORS
330
47
102
}
330
47
100
AcDbScale
 70
     0
300
1:16
140
1.0
141
16.0
290
     0
  0
SCALE
  5
4F
102
{ACAD_REACTORS
330
47
102
}
330
47
100
AcDbScale
 70
     0
300
1:20
140
1.0
141
20.0
290
     0
  0
SCALE
  5
50
102
{ACAD_REACTORS
330
47
102
}
330
47
100
AcDbScale
 70
     0
300
1:30
140
1.0
141
30.0
290
     0
  0
SCALE
  5
51
102
{ACAD_REACTORS
330
47
102
}
330
47
100
AcDbScale
 70
     0
300
1:40
140
1.0
141
40.0
290
     0
  0
SCALE
  5
52
102
{ACAD_REACTORS
330
47
102
}
330
47
100
AcDbScale
 70
     0
300
1:50
140
1.0
141
50.0
290
     0
  0
SCALE
  5
53
102
{ACAD_REACTORS
330
47
102
}
330
47
100
AcDbScale
 70
     0
300
1:100
140
1.0
141
100.0
290
     0
  0
SCALE
  5
54
102
{ACAD_REACTORS
330
47
102
}
330
47
100
AcDbScale
 70
     0
300
2:1
140
2.0
141
1.0
290
     0
  0
SCALE
  5
55
102
{ACAD_REACTORS
330
47
102
}
330
47
100
AcDbScale
 70
     0
300
4:1
140
4.0
141
1.0
290
     0
  0
SCALE
  5
56
102
{ACAD_REACTORS
330
47
102
}
330
47
100
AcDbScale
 70
     0
300
8:1
140
8.0
141
1.0
290
     0
  0
SCALE
  5
57
102
{ACAD_REACTORS
330
47
102
}
330
47
100
AcDbScale
 70
     0
300
10:1
140
10.0
141
1.0
290
     0
  0
SCALE
  5
58
102
{ACAD_REACTORS
330
47
102
}
330
47
100
AcDbScale
 70
     0
300
100:1
140
100.0
141
1.0
290
     0
  0
SCALE
  5
59
102
{ACAD_REACTORS
330
47
102
}
330
47
100
AcDbScale
 70
     0
300
1/128" = 1'-0"
140
0.0078125
141
12.0
290
     0
  0
SCALE
  5
5A
102
{ACAD_REACTORS
330
47
102
}
330
47
100
AcDbScale
 70
     0
300
1/64" = 1'-0"
140
0.015625
141
12.0
290
     0
  0
SCALE
  5
5B
102
{ACAD_REACTORS
330
47
102
}
330
47
100
AcDbScale
 70
     0
300
1/32" = 1'-0"
140
0.03125
141
12.0
290
     0
  0
SCALE
  5
5C
102
{ACAD_REACTORS
330
47
102
}
330
47
100
AcDbScale
 70
     0
300
1/16" = 1'-0"
140
0.0625
141
12.0
290
     0
  0
SCALE
  5
5D
102
{ACAD_REACTORS
330
47
102
}
330
47
100
AcDbScale
 70
     0
300
3/32" = 1'-0"
140
0.09375
141
12.0
290
     0
  0
SCALE
  5
5E
102
{ACAD_REACTORS
330
47
102
}
330
47
100
AcDbScale
 70
     0
300
1/8" = 1'-0"
140
0.125
141
12.0
290
     0
  0
SCALE
  5
5F
102
{ACAD_REACTORS
330
47
102
}
330
47
100
AcDbScale
 70
     0
300
3/16" = 1'-0"
140
0.1875
141
12.0
290
     0
  0
SCALE
  5
60
102
{ACAD_REACTORS
330
47
102
}
330
47
100
AcDbScale
 70
     0
300
1/4" = 1'-0"
140
0.25
141
12.0
290
     0
  0
SCALE
  5
61
102
{ACAD_REACTORS
330
47
102
}
330
47
100
AcDbScale
 70
     0
300
3/8" = 1'-0"
140
0.375
141
12.0
290
     0
  0
SCALE
  5
62
102
{ACAD_REACTORS
330
47
102
}
330
47
100
AcDbScale
 70
     0
300
1/2" = 1'-0"
140
0.5
141
12.0
290
     0
  0
SCALE
  5
63
102
{ACAD_REACTORS
330
47
102
}
330
47
100
AcDbScale
 70
     0
300
3/4" = 1'-0"
140
0.75
141
12.0
290
     0
  0
SCALE
  5
64
102
{ACAD_REACTORS
330
47
102
}
330
47
100
AcDbScale
 70
     0
300
1" = 1'-0"
140
1.0
141
12.0
290
     0
  0
SCALE
  5
65
102
{ACAD_REACTORS
330
47
102
}
330
47
100
AcDbScale
 70
     0
300
1-1/2" = 1'-0"
140
1.5
141
12.0
290
     0
  0
SCALE
  5
66
102
{ACAD_REACTORS
330
47
102
}
330
47
100
AcDbScale
 70
     0
300
3" = 1'-0"
140
3.0
141
12.0
290
     0
  0
SCALE
  5
67
102
{ACAD_REACTORS
330
47
102
}
330
47
100
AcDbScale
 70
     0
300
6" = 1'-0"
140
6.0
141
12.0
290
     0
  0
SCALE
  5
68
102
{ACAD_REACTORS
330
47
102
}
330
47
100
AcDbScale
 70
     0
300
1'-0" = 1'-0"
140
12.0
141
12.0
290
     0
  0
ENDSEC
  0
EOF
