  0
SECTION
  2
HEADER
  9
$ACADVER
  1
AC1015
  9
$ACADMAINTVER
 70
     6
  9
$DWGCODEPAGE
  3
ANSI_1252
  9
$INSBASE
 10
0.0
 20
0.0
 30
0.0
  9
$EXTMIN
 10
0.0
 20
0.0
 30
0.0
  9
$EXTMAX
 10
297.0
 20
210.0
 30
0.0
  9
$LIMMIN
 10
0.0
 20
0.0
  9
$LIMMAX
 10
297.0
 20
210.0
  9
$ORTHOMODE
 70
     0
  9
$REGENMODE
 70
     1
  9
$FILLMODE
 70
     1
  9
$QTEXTMODE
 70
     0
  9
$MIRRTEXT
 70
     1
  9
$LTSCALE
 40
1.0
  9
$ATTMODE
 70
     1
  9
$TEXTSIZE
 40
2.0
  9
$TRACEWID
 40
1.0
  9
$TEXTSTYLE
  7
Standard
  9
$CLAYER
  8
0
  9
$CELTYPE
  6
ByLayer
  9
$CECOLOR
 62
   256
  9
$CELTSCALE
 40
1.0
  9
$DISPSILH
 70
     0
  9
$DIMSCALE
 40
1.0
  9
$DIMASZ
 40
3.0
  9
$DIMEXO
 40
0.0
  9
$DIMDLI
 40
3.75
  9
$DIMRND
 40
0.0
  9
$DIMDLE
 40
0.0
  9
$DIMEXE
 40
1.0
  9
$DIMTP
 40
0.0
  9
$DIMTM
 40
0.0
  9
$DIMTXT
 40
2.0
  9
$DIMCEN
 40
2.5
  9
$DIMTSZ
 40
0.0
  9
$DIMTOL
 70
     0
  9
$DIMLIM
 70
     0
  9
$DIMTIH
 70
     1
  9
$DIMTOH
 70
     1
  9
$DIMSE1
 70
     0
  9
$DIMSE2
 70
     0
  9
$DIMTAD
 70
     1
  9
$DIMZIN
 70
     0
  9
$DIMBLK
  1

  9
$DIMASO
 70
     1
  9
$DIMSHO
 70
     1
  9
$DIMPOST
  1

  9
$DIMAPOST
  1

  9
$DIMALT
 70
     0
  9
$DIMALTD
 70
     3
  9
$DIMALTF
 40
0.0393700787
  9
$DIMLFAC
 40
2.0
  9
$DIMTOFL
 70
     1
  9
$DIMTVP
 40
0.0
  9
$DIMTIX
 70
     0
  9
$DIMSOXD
 70
     0
  9
$DIMSAH
 70
     0
  9
$DIMBLK1
  1

  9
$DIMBLK2
  1

  9
$DIMSTYLE
  2
ISO-25
  9
$DIMCLRD
 70
     0
  9
$DIMCLRE
 70
     0
  9
$DIMCLRT
 70
     0
  9
$DIMTFAC
 40
1.0
  9
$DIMGAP
 40
1.524
  9
$DIMJUST
 70
     0
  9
$DIMSD1
 70
     0
  9
$DIMSD2
 70
     0
  9
$DIMTOLJ
 70
     0
  9
$DIMTZIN
 70
     0
  9
$DIMALTZ
 70
     0
  9
$DIMALTTZ
 70
     0
  9
$DIMUPT
 70
     0
  9
$DIMDEC
 70
     2
  9
$DIMTDEC
 70
     3
  9
$DIMALTU
 70
     2
  9
$DIMALTTD
 70
     3
  9
$DIMTXSTY
  7
Standard
  9
$DIMAUNIT
 70
     0
  9
$DIMADEC
 70
     2
  9
$DIMALTRND
 40
0.0
  9
$DIMAZIN
 70
     0
  9
$DIMDSEP
 70
    44
  9
$DIMATFIT
 70
     3
  9
$DIMFRAC
 70
     0
  9
$DIMLDRBLK
  1

  9
$DIMLUNIT
 70
     2
  9
$DIMLWD
 70
    -2
  9
$DIMLWE
 70
    -2
  9
$DIMTMOVE
 70
     0
  9
$LUNITS
 70
     2
  9
$LUPREC
 70
     2
  9
$SKETCHINC
 40
1.0
  9
$FILLETRAD
 40
10.0
  9
$AUNITS
 70
     0
  9
$AUPREC
 70
     2
  9
$MENU
  1
.
  9
$ELEVATION
 40
0.0
  9
$PELEVATION
 40
0.0
  9
$THICKNESS
 40
0.0
  9
$LIMCHECK
 70
     0
  9
$CHAMFERA
 40
0.0
  9
$CHAMFERB
 40
0.0
  9
$CHAMFERC
 40
0.0
  9
$CHAMFERD
 40
0.0
  9
$SKPOLY
 70
     0
  9
$TDCREATE
 40
2458166.493106239
  9
$TDUCREATE
 40
2458166.451439572
  9
$TDUPDATE
 40
2458166.493107859
  9
$TDUUPDATE
 40
2458166.451441192
  9
$TDINDWG
 40
0.0000000116
  9
$TDUSRTIMER
 40
0.0000000116
  9
$USRTIMER
 70
     1
  9
$ANGBASE
 50
0.0
  9
$ANGDIR
 70
     0
  9
$PDMODE
 70
     0
  9
$PDSIZE
 40
-1.0
  9
$PLINEWID
 40
0.0
  9
$SPLFRAME
 70
     0
  9
$SPLINETYPE
 70
     6
  9
$SPLINESEGS
 70
     8
  9
$HANDSEED
  5
26B
  9
$SURFTAB1
 70
     6
  9
$SURFTAB2
 70
     6
  9
$SURFTYPE
 70
     6
  9
$SURFU
 70
     6
  9
$SURFV
 70
     6
  9
$UCSBASE
  2

  9
$UCSNAME
  2

  9
$UCSORG
 10
0.0
 20
0.0
 30
0.0
  9
$UCSXDIR
 10
1.0
 20
0.0
 30
0.0
  9
$UCSYDIR
 10
0.0
 20
1.0
 30
0.0
  9
$UCSORTHOREF
  2

  9
$UCSORTHOVIEW
 70
     0
  9
$UCSORGTOP
 10
0.0
 20
0.0
 30
0.0
  9
$UCSORGBOTTOM
 10
0.0
 20
0.0
 30
0.0
  9
$UCSORGLEFT
 10
0.0
 20
0.0
 30
0.0
  9
$UCSORGRIGHT
 10
0.0
 20
0.0
 30
0.0
  9
$UCSORGFRONT
 10
0.0
 20
0.0
 30
0.0
  9
$UCSORGBACK
 10
0.0
 20
0.0
 30
0.0
  9
$PUCSBASE
  2

  9
$PUCSNAME
  2

  9
$PUCSORG
 10
0.0
 20
0.0
 30
0.0
  9
$PUCSXDIR
 10
1.0
 20
0.0
 30
0.0
  9
$PUCSYDIR
 10
0.0
 20
1.0
 30
0.0
  9
$PUCSORTHOREF
  2

  9
$PUCSORTHOVIEW
 70
     0
  9
$PUCSORGTOP
 10
0.0
 20
0.0
 30
0.0
  9
$PUCSORGBOTTOM
 10
0.0
 20
0.0
 30
0.0
  9
$PUCSORGLEFT
 10
0.0
 20
0.0
 30
0.0
  9
$PUCSORGRIGHT
 10
0.0
 20
0.0
 30
0.0
  9
$PUCSORGFRONT
 10
0.0
 20
0.0
 30
0.0
  9
$PUCSORGBACK
 10
0.0
 20
0.0
 30
0.0
  9
$USERI1
 70
     0
  9
$USERI2
 70
     0
  9
$USERI3
 70
     0
  9
$USERI4
 70
     0
  9
$USERI5
 70
     0
  9
$USERR1
 40
0.0
  9
$USERR2
 40
0.0
  9
$USERR3
 40
0.0
  9
$USERR4
 40
0.0
  9
$USERR5
 40
0.0
  9
$WORLDVIEW
 70
     1
  9
$SHADEDGE
 70
     3
  9
$SHADEDIF
 70
    70
  9
$TILEMODE
 70
     1
  9
$MAXACTVP
 70
    64
  9
$PINSBASE
 10
0.0
 20
0.0
 30
0.0
  9
$PLIMCHECK
 70
     0
  9
$PEXTMIN
 10
1.0000000000E+20
 20
1.0000000000E+20
 30
1.0000000000E+20
  9
$PEXTMAX
 10
-1.0000000000E+20
 20
-1.0000000000E+20
 30
-1.0000000000E+20
  9
$PLIMMIN
 10
0.0
 20
0.0
  9
$PLIMMAX
 10
420.0
 20
297.0
  9
$UNITMODE
 70
     0
  9
$VISRETAIN
 70
     1
  9
$PLINEGEN
 70
     0
  9
$PSLTSCALE
 70
     1
  9
$TREEDEPTH
 70
  3020
  9
$CMLSTYLE
  2
Standard
  9
$CMLJUST
 70
     0
  9
$CMLSCALE
 40
20.0
  9
$PROXYGRAPHICS
 70
     1
  9
$MEASUREMENT
 70
     1
  9
$CELWEIGHT
370
    -1
  9
$ENDCAPS
280
     0
  9
$JOINSTYLE
280
     0
  9
$LWDISPLAY
290
     1
  9
$INSUNITS
 70
     4
  9
$HYPERLINKBASE
  1

  9
$STYLESHEET
  1

  9
$XEDIT
290
     1
  9
$CEPSNTYPE
380
     0
  9
$PSTYLEMODE
290
     1
  9
$FINGERPRINTGUID
  2
{3617E817-DB6A-4B9C-A743-F31372C7AEEC}
  9
$VERSIONGUID
  2
{FAEB1C32-E019-11D5-929B-00C0DF256EC4}
  9
$EXTNAMES
290
     1
  9
$PSVPSCALE
 40
0.0
  9
$OLESTARTUP
290
     0
  0
ENDSEC
  0
SECTION
  2
CLASSES
  0
CLASS
  1
ACDBDICTIONARYWDFLT
  2
AcDbDictionaryWithDefault
  3
ObjectDBX Classes
 90
        0
280
     0
281
     0
  0
CLASS
  1
VISUALSTYLE
  2
AcDbVisualStyle
  3
ObjectDBX Classes
 90
     4095
280
     0
281
     0
  0
CLASS
  1
MATERIAL
  2
AcDbMaterial
  3
ObjectDBX Classes
 90
     1153
280
     0
281
     0
  0
CLASS
  1
SCALE
  2
AcDbScale
  3
ObjectDBX Classes
 90
     1153
280
     0
281
     0
  0
CLASS
  1
TABLESTYLE
  2
AcDbTableStyle
  3
ObjectDBX Classes
 90
     4095
280
     0
281
     0
  0
CLASS
  1
MLEADERSTYLE
  2
AcDbMLeaderStyle
  3
ACDB_MLEADERSTYLE_CLASS
 90
     4095
280
     0
281
     0
  0
CLASS
  1
SUN
  2
AcDbSun
  3
SCENEOE
 90
     1153
280
     0
281
     0
  0
CLASS
  1
ACDBPLACEHOLDER
  2
AcDbPlaceHolder
  3
ObjectDBX Classes
 90
        0
280
     0
281
     0
  0
CLASS
  1
LAYOUT
  2
AcDbLayout
  3
ObjectDBX Classes
 90
        0
280
     0
281
     0
  0
ENDSEC
  0
SECTION
  2
TABLES
  0
TABLE
  2
VPORT
  5
8
330
0
100
AcDbSymbolTable
 70
     1
  0
VPORT
  5
29
330
8
100
AcDbSymbolTableRecord
100
AcDbViewportTableRecord
  2
*Active
 70
     0
 10
0.0
 20
0.0
 11
1.0
 21
1.0
 12
148.5
 22
105.0
 13
0.0
 23
0.0
 14
10.0
 24
10.0
 15
10.0
 25
10.0
 16
0.0
 26
0.0
 36
1.0
 17
0.0
 27
0.0
 37
0.0
 40
210.0
 41
1.4142857143
 42
50.0
 43
0.0
 44
0.0
 50
0.0
 51
0.0
 71
     0
 72
  2000
 73
     1
 74
     3
 75
     0
 76
     0
 77
     0
 78
     0
281
     0
 65
     1
110
0.0
120
0.0
130
0.0
111
1.0
121
0.0
131
0.0
112
0.0
122
1.0
132
0.0
 79
     0
146
0.0
  0
ENDTAB
  0
TABLE
  2
LTYPE
  5
5
330
0
100
AcDbSymbolTable
 70
     6
  0
LTYPE
  5
14
330
5
100
AcDbSymbolTableRecord
100
AcDbLinetypeTableRecord
  2
ByBlock
 70
     0
  3

 72
    65
 73
     0
 40
0.0
  0
LTYPE
  5
15
330
5
100
AcDbSymbolTableRecord
100
AcDbLinetypeTableRecord
  2
ByLayer
 70
     0
  3

 72
    65
 73
     0
 40
0.0
  0
LTYPE
  5
16
330
5
100
AcDbSymbolTableRecord
100
AcDbLinetypeTableRecord
  2
Continuous
 70
     0
  3
Solid line
 72
    65
 73
     0
 40
0.0
  0
LTYPE
  5
6E
330
5
100
AcDbSymbolTableRecord
100
AcDbLinetypeTableRecord
  2
HIDDEN
 70
     0
  3
Hidden __ __ __ __ __ __ __ __ __ __ __ __ __ __
 72
    65
 73
     2
 40
1.905
 49
1.27
 74
     0
 49
-0.635
 74
     0
  0
LTYPE
  5
6F
330
5
100
AcDbSymbolTableRecord
100
AcDbLinetypeTableRecord
  2
PHANTOM
 70
     0
  3
Phantom ______  __  __  ______  __  __  ______
 72
    65
 73
     6
 40
12.7
 49
6.35
 74
     0
 49
-1.27
 74
     0
 49
1.27
 74
     0
 49
-1.27
 74
     0
 49
1.27
 74
     0
 49
-1.27
 74
     0
  0
LTYPE
  5
70
330
5
100
AcDbSymbolTableRecord
100
AcDbLinetypeTableRecord
  2
CENTER
 70
     0
  3
Center ____ _ ____ _ ____ _ ____ _ ____ _ ____
 72
    65
 73
     4
 40
10.16
 49
6.35
 74
     0
 49
-1.27
 74
     0
 49
1.27
 74
     0
 49
-1.27
 74
     0
  0
LTYPE
  5
71
330
5
100
AcDbSymbolTableRecord
100
AcDbLinetypeTableRecord
  2
CENTERX2
 70
     0
  3
Center (2x) ________  __  ________  __  _____
 72
    65
 73
     4
 40
20.32
 49
12.7
 74
     0
 49
-2.54
 74
     0
 49
2.54
 74
     0
 49
-2.54
 74
     0
  0
LTYPE
  5
72
330
5
100
AcDbSymbolTableRecord
100
AcDbLinetypeTableRecord
  2
DOT2
 70
     0
  3
Dot (.5x) ........................................
 72
    65
 73
     2
 40
0.635
 49
0.0
 74
     0
 49
-0.635
 74
     0
  0
ENDTAB
  0
TABLE
  2
LAYER
  5
2
330
0
100
AcDbSymbolTable
 70
     5
  0
LAYER
  5
10
330
2
100
AcDbSymbolTableRecord
100
AcDbLayerTableRecord
  2
0
 70
     0
 62
     7
  6
Continuous
370
    -3
390
F
  0
LAYER
  5
73
330
2
100
AcDbSymbolTableRecord
100
AcDbLayerTableRecord
  2
FORMAT
 70
     0
 62
     7
  6
Continuous
370
    -3
390
F
  0
LAYER
  5
74
330
2
100
AcDbSymbolTableRecord
100
AcDbLayerTableRecord
  2
VERMASSUNG
 70
     0
 62
     7
  6
Continuous
370
    -3
390
F
  0
LAYER
  5
75
330
2
100
AcDbSymbolTableRecord
100
AcDbLayerTableRecord
  2
KOPF_DÜNN
 70
     0
 62
     7
  6
Continuous
370
    -3
390
F
  0
LAYER
  5
76
330
2
100
AcDbSymbolTableRecord
100
AcDbLayerTableRecord
  2
KOPF_DICK
 70
     0
 62
     7
  6
Continuous
370
    25
390
F
  0
ENDTAB
  0
TABLE
  2
STYLE
  5
3
330
0
100
AcDbSymbolTable
 70
     3
  0
STYLE
  5
11
330
3
100
AcDbSymbolTableRecord
100
AcDbTextStyleTableRecord
  2
Standard
 70
     0
 40
0.0
 41
1.0
 50
0.0
 71
     0
 42
2.0
  3
txt
  4

  0
STYLE
  5
77
330
3
100
AcDbSymbolTableRecord
100
AcDbTextStyleTableRecord
  2
SLDTEXTSTYLE0
 70
     0
 40
0.0
 41
0.7
 50
0.0
 71
     0
 42
2.0
  3
TXT
  4

  0
STYLE
  5
7B
330
3
100
AcDbSymbolTableRecord
100
AcDbTextStyleTableRecord
  2
SLDTEXTSTYLE1
 70
     0
 40
0.0
 41
0.6466666667
 50
0.0
 71
     0
 42
2.0
  3
TXT
  4

  0
ENDTAB
  0
TABLE
  2
VIEW
  5
6
330
0
100
AcDbSymbolTable
 70
     0
  0
ENDTAB
  0
TABLE
  2
UCS
  5
7
330
0
100
AcDbSymbolTable
 70
     0
  0
ENDTAB
  0
TABLE
  2
APPID
  5
9
330
0
100
AcDbSymbolTable
 70
     1
  0
APPID
  5
12
330
9
100
AcDbSymbolTableRecord
100
AcDbRegAppTableRecord
  2
ACAD
 70
     0
  0
ENDTAB
  0
TABLE
  2
DIMSTYLE
  5
A
330
0
100
AcDbSymbolTable
 70
     3
100
AcDbDimStyleTable
  0
DIMSTYLE
105
27
330
A
100
AcDbSymbolTableRecord
100
AcDbDimStyleTableRecord
  2
ISO-25
 70
     0
 41
2.5
 42
0.625
 43
3.75
 44
1.25
 73
     0
 74
     0
 77
     1
 78
     8
140
2.5
141
2.5
143
0.0393700787
147
0.625
171
     3
172
     1
178
     0
271
     2
272
     2
274
     3
278
    44
283
     0
284
     8
340
11
  0
DIMSTYLE
105
12C
102
{ACAD_REACTORS
330
12B
330
143
330
14F
330
159
102
}
330
A
100
AcDbSymbolTableRecord
100
AcDbDimStyleTableRecord
  2
SLDDIMSTYLE0
 70
     0
 41
3.0
 44
0.0
 45
0.000000001
 73
     0
 74
     0
 77
     1
 78
    12
 79
     3
140
2.0
147
0.5
173
     1
178
     0
271
     2
272
     3
276
     2
284
    12
340
77
  0
DIMSTYLE
105
138
102
{ACAD_REACTORS
330
137
102
}
330
A
100
AcDbSymbolTableRecord
100
AcDbDimStyleTableRecord
  2
SLDDIMSTYLE1
 70
     0
 41
3.0
 44
0.0
 45
0.000000001
 73
     0
 74
     0
 77
     1
 78
    12
 79
     3
140
2.0
147
0.5
173
     1
178
     0
271
     0
272
     3
276
     2
284
    12
340
77
  0
ENDTAB
  0
TABLE
  2
BLOCK_RECORD
  5
1
330
0
100
AcDbSymbolTable
 70
     6
  0
BLOCK_RECORD
  5
1F
330
1
100
AcDbSymbolTableRecord
100
AcDbBlockTableRecord
  2
*Model_Space
340
22
  0
BLOCK_RECORD
  5
1B
330
1
100
AcDbSymbolTableRecord
100
AcDbBlockTableRecord
  2
*Paper_Space
340
1E
  0
BLOCK_RECORD
  5
23
330
1
100
AcDbSymbolTableRecord
100
AcDbBlockTableRecord
  2
*Paper_Space0
340
26
  0
BLOCK_RECORD
  5
12D
330
1
100
AcDbSymbolTableRecord
100
AcDbBlockTableRecord
  2
_D
340
0
  0
BLOCK_RECORD
  5
139
330
1
100
AcDbSymbolTableRecord
100
AcDbBlockTableRecord
  2
_D_1
340
0
  0
BLOCK_RECORD
  5
144
330
1
100
AcDbSymbolTableRecord
100
AcDbBlockTableRecord
  2
_D_2
340
0
  0
BLOCK_RECORD
  5
150
330
1
100
AcDbSymbolTableRecord
100
AcDbBlockTableRecord
  2
_D_3
340
0
  0
BLOCK_RECORD
  5
15A
330
1
100
AcDbSymbolTableRecord
100
AcDbBlockTableRecord
  2
_D_4
340
0
  0
ENDTAB
  0
ENDSEC
  0
SECTION
  2
BLOCKS
  0
BLOCK
  5
20
330
1F
100
AcDbEntity
  8
0
100
AcDbBlockBegin
  2
*Model_Space
 70
     0
 10
0.0
 20
0.0
 30
0.0
  3
*Model_Space
  1

  0
ENDBLK
  5
21
330
1F
100
AcDbEntity
  8
0
100
AcDbBlockEnd
  0
BLOCK
  5
1C
330
1B
100
AcDbEntity
 67
     1
  8
0
100
AcDbBlockBegin
  2
*Paper_Space
 70
     0
 10
0.0
 20
0.0
 30
0.0
  3
*Paper_Space
  1

  0
ENDBLK
  5
1D
330
1B
100
AcDbEntity
 67
     1
  8
0
100
AcDbBlockEnd
  0
BLOCK
  5
24
330
23
100
AcDbEntity
  8
0
100
AcDbBlockBegin
  2
*Paper_Space0
 70
     0
 10
0.0
 20
0.0
 30
0.0
  3
*Paper_Space0
  1

  0
ENDBLK
  5
25
330
23
100
AcDbEntity
  8
0
100
AcDbBlockEnd
  0
BLOCK
  5
12E
330
12D
100
AcDbEntity
  8
0
100
AcDbBlockBegin
  2
_D
 70
     0
 10
0.0
 20
0.0
 30
0.0
  3
_D
  1

  0
SOLID
  5
130
330
12D
100
AcDbEntity
  8
VERMASSUNG
100
AcDbTrace
 10
283.9971414982
 20
89.4502451905
 30
0.0
 11
284.4471414982
 21
92.4502451905
 31
0.0
 12
283.5471414982
 22
92.4502451905
 32
0.0
 13
283.5471414982
 23
92.4502451905
 33
0.0
  0
SOLID
  5
131
330
12D
100
AcDbEntity
  8
VERMASSUNG
100
AcDbTrace
 10
283.9971414982
 20
131.1502451905
 30
0.0
 11
283.5471414982
 21
128.1502451905
 31
0.0
 12
284.4471414982
 22
128.1502451905
 32
0.0
 13
284.4471414982
 23
128.1502451905
 33
0.0
  0
LINE
  5
132
330
12D
100
AcDbEntity
  8
VERMASSUNG
100
AcDbLine
 10
255.5079508554
 20
89.4502451905
 30
0.0
 11
284.9971414982
 21
89.4502451905
 31
0.0
  0
LINE
  5
133
330
12D
100
AcDbEntity
  8
VERMASSUNG
100
AcDbLine
 10
255.5079508554
 20
131.1502451905
 30
0.0
 11
284.9971414982
 21
131.1502451905
 31
0.0
  0
LINE
  5
134
330
12D
100
AcDbEntity
  8
VERMASSUNG
100
AcDbLine
 10
283.9971414982
 20
89.4502451905
 30
0.0
 11
283.9971414982
 21
131.1502451905
 31
0.0
  0
MTEXT
  5
135
330
12D
100
AcDbEntity
  8
VERMASSUNG
100
AcDbMText
 10
281.4190061933
 20
106.1952453651
 30
0.0
 40
2.0
 41
0.0
 71
     1
 72
     1
  1
%%c
  7
SLDTEXTSTYLE0
 11
6.123233995736766E-17
 21
1.0
 31
0.0
 73
     1
 44
1.0
  0
MTEXT
  5
136
330
12D
100
AcDbEntity
  8
VERMASSUNG
100
AcDbMText
 10
281.219006242
 20
109.8052453794
 30
0.0
 40
2.0
 41
0.0
 71
     1
 72
     1
  1
41.7
  7
SLDTEXTSTYLE0
 11
6.123233995736766E-17
 21
1.0
 31
0.0
 73
     1
 44
1.0
  0
ENDBLK
  5
12F
330
12D
100
AcDbEntity
  8
0
100
AcDbBlockEnd
  0
BLOCK
  5
13A
330
139
100
AcDbEntity
  8
0
100
AcDbBlockBegin
  2
_D_1
 70
     0
 10
0.0
 20
0.0
 30
0.0
  3
_D_1
  1

  0
SOLID
  5
13C
330
139
100
AcDbEntity
  8
VERMASSUNG
100
AcDbTrace
 10
274.8854503454
 20
91.6759872332
 30
0.0
 11
275.3354503454
 21
94.6759872332
 31
0.0
 12
274.4354503454
 22
94.6759872332
 32
0.0
 13
274.4354503454
 23
94.6759872332
 33
0.0
  0
SOLID
  5
13D
330
139
100
AcDbEntity
  8
VERMASSUNG
100
AcDbTrace
 10
274.8854503454
 20
128.9245031477
 30
0.0
 11
274.4354503454
 21
125.9245031477
 31
0.0
 12
275.3354503454
 22
125.9245031477
 32
0.0
 13
275.3354503454
 23
125.9245031477
 33
0.0
  0
LINE
  5
13E
330
139
100
AcDbEntity
  8
VERMASSUNG
100
AcDbLine
 10
130.6735137845
 20
91.6759872332
 30
0.0
 11
275.8854503454
 21
91.6759872332
 31
0.0
  0
LINE
  5
13F
330
139
100
AcDbEntity
  8
VERMASSUNG
100
AcDbLine
 10
130.6735137845
 20
128.9245031477
 30
0.0
 11
275.8854503454
 21
128.9245031477
 31
0.0
  0
LINE
  5
140
330
139
100
AcDbEntity
  8
VERMASSUNG
100
AcDbLine
 10
274.8854503454
 20
91.6759872332
 30
0.0
 11
274.8854503454
 21
128.9245031477
 31
0.0
  0
MTEXT
  5
141
330
139
100
AcDbEntity
  8
VERMASSUNG
100
AcDbMText
 10
272.3073150405
 20
107.0952452332
 30
0.0
 40
2.0
 41
0.0
 71
     1
 72
     1
  1
%%c
  7
SLDTEXTSTYLE0
 11
2.048933599306025E-14
 21
1.0
 31
0.0
 73
     1
 44
1.0
  0
MTEXT
  5
142
330
139
100
AcDbEntity
  8
VERMASSUNG
100
AcDbMText
 10
272.1073150892
 20
110.7052452475
 30
0.0
 40
2.0
 41
0.0
 71
     1
 72
     1
  1
37
  7
SLDTEXTSTYLE0
 11
2.048933599306025E-14
 21
1.0
 31
0.0
 73
     1
 44
1.0
  0
ENDBLK
  5
13B
330
139
100
AcDbEntity
  8
0
100
AcDbBlockEnd
  0
BLOCK
  5
145
330
144
100
AcDbEntity
  8
0
100
AcDbBlockBegin
  2
_D_2
 70
     0
 10
0.0
 20
0.0
 30
0.0
  3
_D_2
  1

  0
SOLID
  5
147
330
144
100
AcDbEntity
  8
VERMASSUNG
100
AcDbTrace
 10
38.7349809844
 20
160.3002451905
 30
0.0
 11
38.2849809844
 21
157.3002451905
 31
0.0
 12
39.1849809844
 22
157.3002451905
 32
0.0
 13
39.1849809844
 23
157.3002451905
 33
0.0
  0
SOLID
  5
148
330
144
100
AcDbEntity
  8
VERMASSUNG
100
AcDbTrace
 10
38.7349809844
 20
60.3002451905
 30
0.0
 11
39.1849809844
 21
63.3002451905
 31
0.0
 12
38.2849809844
 22
63.3002451905
 32
0.0
 13
38.2849809844
 23
63.3002451905
 33
0.0
  0
LINE
  5
149
330
144
100
AcDbEntity
  8
VERMASSUNG
100
AcDbLine
 10
99.3854503454
 20
160.3002451905
 30
0.0
 11
37.7349809844
 21
160.3002451905
 31
0.0
  0
LINE
  5
14A
330
144
100
AcDbEntity
  8
VERMASSUNG
100
AcDbLine
 10
99.3854503454
 20
60.3002451905
 30
0.0
 11
37.7349809844
 21
60.3002451905
 31
0.0
  0
LINE
  5
14B
330
144
100
AcDbEntity
  8
VERMASSUNG
100
AcDbLine
 10
38.7349809844
 20
160.3002451905
 30
0.0
 11
38.7349809844
 21
60.3002451905
 31
0.0
  0
MTEXT
  5
14C
330
144
100
AcDbEntity
  8
VERMASSUNG
100
AcDbMText
 10
35.9568457282
 20
102.0952458106
 30
0.0
 40
2.0
 41
0.0
 71
     1
 72
     1
  1
HSK A
  7
SLDTEXTSTYLE0
 11
-7.044195017643634E-15
 21
1.0
 31
0.0
 73
     1
 44
1.0
  0
MTEXT
  5
14D
330
144
100
AcDbEntity
  8
VERMASSUNG
100
AcDbMText
 10
36.1568456795
 20
111.0952454232
 30
0.0
 40
2.0
 41
0.0
 71
     1
 72
     1
  1
%%c
  7
SLDTEXTSTYLE0
 11
-7.044195017643634E-15
 21
1.0
 31
0.0
 73
     1
 44
1.0
  0
MTEXT
  5
14E
330
144
100
AcDbEntity
  8
VERMASSUNG
100
AcDbMText
 10
35.9568457282
 20
114.7052454375
 30
0.0
 40
2.0
 41
0.0
 71
     1
 72
     1
  1
100
  7
SLDTEXTSTYLE0
 11
-7.044195017643634E-15
 21
1.0
 31
0.0
 73
     1
 44
1.0
  0
ENDBLK
  5
146
330
144
100
AcDbEntity
  8
0
100
AcDbBlockEnd
  0
BLOCK
  5
151
330
150
100
AcDbEntity
  8
0
100
AcDbBlockBegin
  2
_D_3
 70
     0
 10
0.0
 20
0.0
 30
0.0
  3
_D_3
  1

  0
SOLID
  5
153
330
150
100
AcDbEntity
  8
VERMASSUNG
100
AcDbTrace
 10
98.8854503454
 20
170.3002451905
 30
0.0
 11
101.8854503454
 21
169.8502451905
 31
0.0
 12
101.8854503454
 22
170.7502451905
 32
0.0
 13
101.8854503454
 23
170.7502451905
 33
0.0
  0
SOLID
  5
154
330
150
100
AcDbEntity
  8
VERMASSUNG
100
AcDbTrace
 10
258.8854503454
 20
170.3002451905
 30
0.0
 11
255.8854503454
 21
170.7502451905
 31
0.0
 12
255.8854503454
 22
169.8502451905
 32
0.0
 13
255.8854503454
 23
169.8502451905
 33
0.0
  0
LINE
  5
155
330
150
100
AcDbEntity
  8
VERMASSUNG
100
AcDbLine
 10
98.8854503454
 20
159.8002451905
 30
0.0
 11
98.8854503454
 21
171.3002451905
 31
0.0
  0
LINE
  5
156
330
150
100
AcDbEntity
  8
VERMASSUNG
100
AcDbLine
 10
258.8854503454
 20
125.3002451905
 30
0.0
 11
258.8854503454
 21
171.3002451905
 31
0.0
  0
LINE
  5
157
330
150
100
AcDbEntity
  8
VERMASSUNG
100
AcDbLine
 10
98.8854503454
 20
170.3002451905
 30
0.0
 11
258.8854503454
 21
170.3002451905
 31
0.0
  0
MTEXT
  5
158
330
150
100
AcDbEntity
  8
VERMASSUNG
100
AcDbMText
 10
176.9854503134
 20
172.8783807864
 30
0.0
 40
2.0
 41
0.0
 71
     1
 72
     1
  1
160
  7
SLDTEXTSTYLE0
 73
     1
 44
1.0
  0
ENDBLK
  5
152
330
150
100
AcDbEntity
  8
0
100
AcDbBlockEnd
  0
BLOCK
  5
15B
330
15A
100
AcDbEntity
  8
0
100
AcDbBlockBegin
  2
_D_4
 70
     0
 10
0.0
 20
0.0
 30
0.0
  3
_D_4
  1

  0
SOLID
  5
15D
330
15A
100
AcDbEntity
  8
VERMASSUNG
100
AcDbTrace
 10
258.8854503454
 20
179.3636867867
 30
0.0
 11
255.8854503454
 21
179.8136867867
 31
0.0
 12
255.8854503454
 22
178.9136867867
 32
0.0
 13
255.8854503454
 23
178.9136867867
 33
0.0
  0
SOLID
  5
15E
330
15A
100
AcDbEntity
  8
VERMASSUNG
100
AcDbTrace
 10
48.9854503454
 20
179.3636867867
 30
0.0
 11
51.9854503454
 21
178.9136867867
 31
0.0
 12
51.9854503454
 22
179.8136867867
 32
0.0
 13
51.9854503454
 23
179.8136867867
 33
0.0
  0
LINE
  5
15F
330
15A
100
AcDbEntity
  8
VERMASSUNG
100
AcDbLine
 10
258.8854503454
 20
125.3002451905
 30
0.0
 11
258.8854503454
 21
180.3636867867
 31
0.0
  0
LINE
  5
160
330
15A
100
AcDbEntity
  8
VERMASSUNG
100
AcDbLine
 10
48.9854503454
 20
140.802914933
 30
0.0
 11
48.9854503454
 21
180.3636867867
 31
0.0
  0
LINE
  5
161
330
15A
100
AcDbEntity
  8
VERMASSUNG
100
AcDbLine
 10
258.8854503454
 20
179.3636867867
 30
0.0
 11
48.9854503454
 21
179.3636867867
 31
0.0
  0
MTEXT
  5
162
330
15A
100
AcDbEntity
  8
VERMASSUNG
100
AcDbMText
 10
150.8354504892
 20
181.9418223827
 30
0.0
 40
2.0
 41
0.0
 71
     1
 72
     1
  1
209.9
  7
SLDTEXTSTYLE0
 73
     1
 44
1.0
  0
ENDBLK
  5
15C
330
15A
100
AcDbEntity
  8
0
100
AcDbBlockEnd
  0
ENDSEC
  0
SECTION
  2
ENTITIES
  0
MTEXT
  5
78
330
1F
100
AcDbEntity
  8
KOPF_DÜNN
100
AcDbMText
 10
13.8892156294
 20
23.8442973028
 30
0.0
 40
3.0
 41
0.0
 71
     1
 72
     1
  1
HA0.E25.K01.160
  7
SLDTEXTSTYLE0
 73
     1
 44
1.0
  0
MTEXT
  5
79
330
1F
100
AcDbEntity
  8
VERMASSUNG
100
AcDbMText
 10
13.9329988022
 20
28.8834360957
 30
0.0
 40
3.0
 41
0.0
 71
     1
 72
     1
  1
Spannzangenfutter ER Typ S_Collet chuck ER type S
  7
SLDTEXTSTYLE0
 73
     1
 44
1.0
  0
MTEXT
  5
7A
330
1F
100
AcDbEntity
  8
VERMASSUNG
100
AcDbMText
 10
98.8601118557
 20
13.8365368761
 30
0.0
 40
2.0
 41
0.0
 71
     1
 72
     1
  1
Datum: 16.02.2018
  7
SLDTEXTSTYLE0
 73
     1
 44
1.0
  0
MTEXT
  5
7C
330
1F
100
AcDbEntity
  8
VERMASSUNG
100
AcDbMText
 10
13.933048693
 20
18.0482802738
 30
0.0
 40
2.0
 41
0.0
 71
     1
 72
     1
  1
HSK A 100 / Ø42
  7
SLDTEXTSTYLE1
 73
     1
 44
1.0
  0
MTEXT
  5
7D
330
1F
100
AcDbEntity
  8
VERMASSUNG
100
AcDbMText
 10
13.9808475933
 20
13.9090974274
 30
0.0
 40
2.0
 41
0.0
 71
     1
 72
     1
  1
Gewicht: 2758g
  7
SLDTEXTSTYLE0
 73
     1
 44
1.0
  0
LINE
  5
7E
330
1F
100
AcDbEntity
  8
0
  6
Continuous
 62
     7
370
    25
100
AcDbLine
 10
247.8349840464
 20
89.4502442874
 30
0.0
 11
255.5079495729
 21
89.4502442874
 31
0.0
  0
LINE
  5
7F
330
1F
100
AcDbEntity
  8
0
  6
Continuous
 62
     7
370
    25
100
AcDbLine
 10
239.6854495825
 20
89.4502442874
 30
0.0
 11
247.8349840464
 21
89.4502442874
 31
0.0
  0
LINE
  5
80
330
1F
100
AcDbEntity
  8
0
  6
Continuous
 62
     7
370
    25
100
AcDbLine
 10
247.8349840464
 20
131.1502460935
 30
0.0
 11
239.6854495825
 21
131.1502460935
 31
0.0
  0
LINE
  5
81
330
1F
100
AcDbEntity
  8
0
  6
Continuous
 62
     7
370
    25
100
AcDbLine
 10
255.5079495729
 20
131.1502460935
 30
0.0
 11
247.8349840464
 21
131.1502460935
 31
0.0
  0
LINE
  5
82
330
1F
100
AcDbEntity
  8
0
  6
Continuous
 62
     7
370
    25
100
AcDbLine
 10
239.6854495825
 20
131.1502460935
 30
0.0
 11
238.8854509415
 21
130.3502455898
 31
0.0
  0
LINE
  5
83
330
1F
100
AcDbEntity
  8
0
  6
Continuous
 62
     7
370
    25
100
AcDbLine
 10
238.8854509415
 20
90.2502447911
 30
0.0
 11
239.6854495825
 21
89.4502442874
 31
0.0
  0
LINE
  5
84
330
1F
100
AcDbEntity
  8
0
  6
Continuous
 62
     7
370
    25
100
AcDbLine
 10
255.5079495729
 20
89.4502442874
 30
0.0
 11
258.8854467691
 21
95.3002455257
 31
0.0
  0
LINE
  5
85
330
1F
100
AcDbEntity
  8
0
  6
Continuous
 62
     7
370
    25
100
AcDbLine
 10
258.8854467691
 20
125.3002448552
 30
0.0
 11
255.5079495729
 21
131.1502460935
 31
0.0
  0
ARC
  5
86
330
1F
100
AcDbEntity
  8
0
  6
Continuous
 62
     7
370
    25
100
AcDbCircle
 10
99.3854503454
 20
60.8002451905
 30
0.0
 40
0.5
100
AcDbArc
 50
180.0
 51
270.0
  0
ARC
  5
87
330
1F
100
AcDbEntity
  8
0
  6
Continuous
 62
     7
370
    25
100
AcDbCircle
 10
99.3854503454
 20
159.8002451905
 30
0.0
 40
0.5
100
AcDbArc
 50
90.0
 51
180.0
  0
LINE
  5
88
330
1F
100
AcDbEntity
  8
0
  6
Continuous
 62
     7
370
    25
100
AcDbLine
 10
99.3854503692
 20
60.3002444454
 30
0.0
 11
103.8354503186
 21
60.3002444454
 31
0.0
  0
LINE
  5
89
330
1F
100
AcDbEntity
  8
0
  6
Continuous
 62
     7
370
    25
100
AcDbLine
 10
103.8695232206
 20
160.3002459355
 30
0.0
 11
99.3854503692
 21
160.3002459355
 31
0.0
  0
ARC
  5
8A
330
1F
100
AcDbEntity
  8
0
  6
Continuous
 62
     7
370
    25
100
AcDbCircle
 10
97.988513427
 20
71.671759866
 30
0.0
 40
0.9962338214386921
100
AcDbArc
 50
25.7988228126
 51
90.0
  0
ARC
  5
8B
330
1F
100
AcDbEntity
  8
0
  6
Continuous
 62
     7
370
    25
100
AcDbCircle
 10
97.988513427
 20
148.9287305149
 30
0.0
 40
0.9962338214386921
100
AcDbArc
 50
270.0
 51
334.2011771874
  0
LINE
  5
8C
330
1F
100
AcDbEntity
  8
0
  6
Continuous
 62
     7
370
    25
100
AcDbLine
 10
96.3854504013
 20
72.4179953881
 30
0.0
 11
97.1912964675
 21
72.6339206644
 31
0.0
  0
LINE
  5
8D
330
1F
100
AcDbEntity
  8
0
  6
Continuous
 62
     7
370
    25
100
AcDbLine
 10
97.1912964675
 20
147.9665697165
 30
0.0
 11
96.3854504013
 21
148.1824949928
 31
0.0
  0
LINE
  5
8E
330
1F
100
AcDbEntity
  8
0
  6
Continuous
 62
     7
370
    25
100
AcDbLine
 10
77.4047708334
 20
147.2315624901
 30
0.0
 11
59.0854508997
 21
146.3137589939
 31
0.0
  0
LINE
  5
8F
330
1F
100
AcDbEntity
  8
0
  6
Continuous
 62
     7
370
    25
100
AcDbLine
 10
96.3854504013
 20
148.1824949928
 30
0.0
 11
90.3174111815
 21
147.8784852274
 31
0.0
  0
LINE
  5
90
330
1F
100
AcDbEntity
  8
0
  6
Continuous
 62
     7
370
    25
100
AcDbLine
 10
90.317534116
 20
72.7219977029
 30
0.0
 11
96.3854504013
 21
72.4179953881
 31
0.0
  0
LINE
  5
91
330
1F
100
AcDbEntity
  8
0
  6
Continuous
 62
     7
370
    25
100
AcDbLine
 10
64.0854498567
 20
74.0362316914
 30
0.0
 11
77.4054022701
 21
73.3688980885
 31
0.0
  0
ARC
  5
92
330
1F
100
AcDbEntity
  8
0
  6
Continuous
 62
     7
370
    25
100
AcDbCircle
 10
97.4501155449
 20
71.6679936874
 30
0.0
 40
0.9999999999999858
100
AcDbArc
 50
90.0
 51
105.0
  0
ARC
  5
93
330
1F
100
AcDbEntity
  8
0
  6
Continuous
 62
     7
370
    25
100
AcDbCircle
 10
97.4501155449
 20
148.9324966935
 30
0.0
 40
1.0
100
AcDbArc
 50
255.0
 51
270.0
  0
LINE
  5
94
330
1F
100
AcDbEntity
  8
0
  6
Continuous
 62
     7
370
    25
100
AcDbLine
 10
97.4501155512
 20
72.6679921695
 30
0.0
 11
97.9885134226
 21
72.6679921695
 31
0.0
  0
LINE
  5
95
330
1F
100
AcDbEntity
  8
0
  6
Continuous
 62
     7
370
    25
100
AcDbLine
 10
97.9885134226
 20
147.9324982115
 30
0.0
 11
97.4501155512
 21
147.9324982115
 31
0.0
  0
ARC
  5
96
330
1F
100
AcDbEntity
  8
0
  6
Continuous
 62
     7
370
    25
100
AcDbCircle
 10
130.8354503454
 20
88.6803609965
 30
0.0
 40
2.999999999999901
100
AcDbArc
 50
93.0942643741
 51
180.0
  0
ARC
  5
97
330
1F
100
AcDbEntity
  8
0
  6
Continuous
 62
     7
370
    25
100
AcDbCircle
 10
130.8354503454
 20
131.9201293844
 30
0.0
 40
2.999999999999901
100
AcDbArc
 50
180.0
 51
266.9057356259
  0
ARC
  5
98
330
1F
100
AcDbEntity
  8
0
  6
Continuous
 62
     7
370
    25
100
AcDbCircle
 10
227.8354503454
 20
-1705.6997548095
 30
0.0
 40
1800.0
100
AcDbArc
 50
90.0
 51
91.9621683194
  0
ARC
  5
99
330
1F
100
AcDbEntity
  8
0
  6
Continuous
 62
     7
370
    25
100
AcDbCircle
 10
227.8354503454
 20
-1705.6997548095
 30
0.0
 40
1800.0
100
AcDbArc
 50
92.1131613168
 51
93.0942643741
  0
ARC
  5
9A
330
1F
100
AcDbEntity
  8
0
  6
Continuous
 62
     7
370
    25
100
AcDbCircle
 10
227.8354503454
 20
1926.3002451905
 30
0.0
 40
1800.0
100
AcDbArc
 50
266.9057356259
 51
267.8865918044
  0
ARC
  5
9B
330
1F
100
AcDbEntity
  8
0
  6
Continuous
 62
     7
370
    25
100
AcDbCircle
 10
227.8354503454
 20
1926.3002451905
 30
0.0
 40
1800.0
100
AcDbArc
 50
268.0382278333
 51
270.0
  0
LINE
  5
9C
330
1F
100
AcDbEntity
  8
0
  6
Continuous
 62
     7
370
    25
100
AcDbLine
 10
50.6354494215
 20
78.0502468892
 30
0.0
 11
62.1854512216
 21
78.0502468892
 31
0.0
  0
ARC
  5
9D
330
1F
100
AcDbEntity
  8
0
  6
Continuous
 62
     7
370
    25
100
AcDbCircle
 10
62.1854503454
 20
76.1502451905
 30
0.0
 40
1.90000000000002
100
AcDbArc
 50
35.6630613694
 51
90.0
  0
ARC
  5
9E
330
1F
100
AcDbEntity
  8
0
  6
Continuous
 62
     7
370
    25
100
AcDbCircle
 10
57.1854503454
 20
144.4502451905
 30
0.0
 40
1.900000000000034
100
AcDbArc
 50
270.0
 51
310.9212832533
  0
LINE
  5
9F
330
1F
100
AcDbEntity
  8
0
  6
Continuous
 62
     7
370
    25
100
AcDbLine
 10
50.6354494215
 20
142.5502434917
 30
0.0
 11
49.0361338676
 21
140.9509298005
 31
0.0
  0
LINE
  5
A0
330
1F
100
AcDbEntity
  8
0
  6
Continuous
 62
     7
370
    25
100
AcDbLine
 10
49.036972058
 20
79.6487242528
 30
0.0
 11
50.6354494215
 21
78.0502468892
 31
0.0
  0
LINE
  5
A1
330
1F
100
AcDbEntity
  8
0
  6
Continuous
 62
     7
370
    25
100
AcDbLine
 10
57.1854485394
 20
142.5502434917
 30
0.0
 11
50.6354494215
 21
142.5502434917
 31
0.0
  0
LINE
  5
A2
330
1F
100
AcDbEntity
  8
0
  6
Continuous
 62
     7
370
    25
100
AcDbLine
 10
238.8854509415
 20
126.3002459504
 30
0.0
 11
227.8354501547
 21
126.3002459504
 31
0.0
  0
LINE
  5
A3
330
1F
100
AcDbEntity
  8
0
  6
Continuous
 62
     7
370
    25
100
AcDbLine
 10
227.8354501547
 20
94.3002444305
 30
0.0
 11
238.8854509415
 21
94.3002444305
 31
0.0
  0
LINE
  5
A4
330
1F
100
AcDbEntity
  8
0
  6
Continuous
 62
     7
370
    25
100
AcDbLine
 10
247.7557396711
 20
120.8405238189
 30
0.0
 11
255.5079495729
 21
120.8405238189
 31
0.0
  0
LINE
  5
A5
330
1F
100
AcDbEntity
  8
0
  6
Continuous
 62
     7
370
    25
100
AcDbLine
 10
255.5079495729
 20
106.0134898484
 30
0.0
 11
255.5079495729
 21
120.8405238189
 31
0.0
  0
LINE
  5
A6
330
1F
100
AcDbEntity
  8
0
  6
Continuous
 62
     7
370
    25
100
AcDbLine
 10
247.7557396711
 20
106.0134898484
 30
0.0
 11
255.5079495729
 21
106.0134898484
 31
0.0
  0
SPLINE
  5
A7
330
1F
100
AcDbEntity
  8
0
  6
Continuous
 62
     7
370
    25
100
AcDbSpline
210
0.0
220
0.0
230
1.0
 70
     8
 71
     3
 72
    17
 73
    13
 74
     0
 42
0.000000001
 43
0.00000001
 40
0.0
 40
0.0
 40
0.0
 40
0.0
 40
0.0849597147500079
 40
0.202699144984862
 40
0.3179169503659203
 40
0.426331363867694
 40
0.5328083392107584
 40
0.6312075617175075
 40
0.7278429586232642
 40
0.8310955206060849
 40
0.9419115845341189
 40
1.0
 40
1.0
 40
1.0
 40
1.0
 10
247.755739671124
 20
106.013489848417
 30
0.0
 10
247.4584457591053
 20
105.9926320359366
 30
0.0
 10
246.7491540441707
 20
105.9428689126907
 30
0.0
 10
245.7106773026273
 20
105.4819189052285
 30
0.0
 10
244.8287476066077
 20
104.6728126178464
 30
0.0
 10
244.317787737589
 20
103.6550546259475
 30
0.0
 10
244.2369412777143
 20
102.6050108331679
 30
0.0
 10
244.5455558663149
 20
101.6596819037986
 30
0.0
 10
245.1601735624072
 20
100.8826062972983
 30
0.0
 10
246.044611763351
 20
100.3042018215145
 30
0.0
 10
246.9625369013987
 20
100.0252856191852
 30
0.0
 10
247.5527558197354
 20
99.99973691858922
 30
0.0
 10
247.755739671124
 20
99.99095039297336
 30
0.0
  0
LINE
  5
A8
330
1F
100
AcDbEntity
  8
0
  6
Continuous
 62
     7
370
    25
100
AcDbLine
 10
247.7557396711
 20
99.990950393
 30
0.0
 11
255.5079495729
 21
99.990950393
 31
0.0
  0
LINE
  5
A9
330
1F
100
AcDbEntity
  8
0
  6
Continuous
 62
     7
370
    25
100
AcDbLine
 10
255.5079495729
 20
90.4859960624
 30
0.0
 11
255.5079495729
 21
99.990950393
 31
0.0
  0
LINE
  5
AA
330
1F
100
AcDbEntity
  8
0
  6
Continuous
 62
     7
370
    25
100
AcDbLine
 10
247.7557396711
 20
90.4859960624
 30
0.0
 11
255.5079495729
 21
90.4859960624
 31
0.0
  0
SPLINE
  5
AB
330
1F
100
AcDbEntity
  8
0
  6
Continuous
 62
     7
370
    25
100
AcDbSpline
210
0.0
220
0.0
230
1.0
 70
     8
 71
     3
 72
    17
 73
    13
 74
     0
 42
0.000000001
 43
0.00000001
 40
0.0
 40
0.0
 40
0.0
 40
0.0
 40
0.08495989217525
 40
0.2026995761303536
 40
0.3179176162743387
 40
0.4263322670044779
 40
0.5329715339815595
 40
0.6313701889416263
 40
0.7280136109055072
 40
0.8312797406484964
 40
0.942108326698638
 40
0.9999999999999999
 40
0.9999999999999999
 40
0.9999999999999999
 40
0.9999999999999999
 10
247.755739671124
 20
89.45067083318227
 30
0.0
 10
247.4584457482471
 20
89.450764136044
 30
0.0
 10
246.7491539799737
 20
89.45098674049935
 30
0.0
 10
245.7106774849859
 20
89.45748408785833
 30
0.0
 10
244.8287471974447
 20
89.49759073383244
 30
0.0
 10
244.3175380629679
 20
89.5991939889083
 30
0.0
 10
244.2369496029897
 20
89.76733487016782
 30
0.0
 10
244.5463489457175
 20
89.97620364849976
 30
0.0
 10
245.1614619980532
 20
90.18969116856209
 30
0.0
 10
246.0463523572567
 20
90.37510793606322
 30
0.0
 10
246.9638762376309
 20
90.47375338844184
 30
0.0
 10
247.5534453847887
 20
90.48286847383383
 30
0.0
 10
247.755739671124
 20
90.48599606235021
 30
0.0
  0
LINE
  5
AC
330
1F
100
AcDbEntity
  8
0
  6
Continuous
 62
     7
370
    25
100
AcDbLine
 10
247.7557396711
 20
89.4506708332
 30
0.0
 11
255.5079495729
 21
89.4506708332
 31
0.0
  0
LINE
  5
AD
330
1F
100
AcDbEntity
  8
0
  6
Continuous
 62
     7
370
    25
100
AcDbLine
 10
255.5079495729
 20
89.4502442874
 30
0.0
 11
255.5079495729
 21
89.4506708332
 31
0.0
  0
LINE
  5
AE
330
1F
100
AcDbEntity
  8
0
  6
Continuous
 62
     7
370
    25
100
AcDbLine
 10
255.5079495729
 20
125.8277385109
 30
0.0
 11
255.5079495729
 21
131.1502460935
 31
0.0
  0
LINE
  5
AF
330
1F
100
AcDbEntity
  8
0
  6
Continuous
 62
     7
370
    25
100
AcDbLine
 10
247.7557396711
 20
125.8277385109
 30
0.0
 11
255.5079495729
 21
125.8277385109
 31
0.0
  0
SPLINE
  5
B0
330
1F
100
AcDbEntity
  8
0
  6
Continuous
 62
     7
370
    25
100
AcDbSpline
210
0.0
220
0.0
230
1.0
 70
     8
 71
     3
 72
    17
 73
    13
 74
     0
 42
0.000000001
 43
0.00000001
 40
0.0
 40
0.0
 40
0.0
 40
0.0
 40
0.0849661510924957
 40
0.202714526992001
 40
0.317941047183111
 40
0.4263637019571284
 40
0.5376354194272268
 40
0.6360086889124539
 40
0.7328947004963147
 40
0.8365475018224251
 40
0.9477174719414376
 40
1.0
 40
1.0
 40
1.0
 40
1.0
 10
247.755739671124
 20
120.840523818922
 30
0.0
 10
247.4584461525445
 20
120.8589272232666
 30
0.0
 10
246.7491552852785
 20
120.9028345599978
 30
0.0
 10
245.7106694481068
 20
121.3080861317099
 30
0.0
 10
244.8287760504033
 20
122.0102170665689
 30
0.0
 10
244.310278303979
 20
122.8891317979786
 30
0.0
 10
244.2378127080441
 20
123.777917070498
 30
0.0
 10
244.5691655596455
 20
124.5524629102558
 30
0.0
 10
245.198696816404
 20
125.1629329884297
 30
0.0
 10
246.0962728427852
 20
125.6050797830889
 30
0.0
 10
247.0021010333668
 20
125.8050509649163
 30
0.0
 10
247.5730983360011
 20
125.8222402740727
 30
0.0
 10
247.755739671124
 20
125.8277385108589
 30
0.0
  0
LINE
  5
B1
330
1F
100
AcDbEntity
  8
0
  6
Continuous
 62
     7
370
    25
100
AcDbLine
 10
239.6854495825
 20
89.4502442874
 30
0.0
 11
239.6854495825
 21
131.1502460935
 31
0.0
  0
LINE
  5
B2
330
1F
100
AcDbEntity
  8
0
  6
Continuous
 62
     7
370
    25
100
AcDbLine
 10
238.8854509415
 20
90.2502447911
 30
0.0
 11
238.8854509415
 21
130.3502455898
 31
0.0
  0
LINE
  5
B3
330
1F
100
AcDbEntity
  8
0
  6
Continuous
 62
     7
370
    25
100
AcDbLine
 10
255.5079495729
 20
89.4506708332
 30
0.0
 11
255.7375019611
 21
89.8521975227
 31
0.0
  0
LINE
  5
B4
330
1F
100
AcDbEntity
  8
0
  6
Continuous
 62
     7
370
    25
100
AcDbLine
 10
255.7375019611
 20
89.8521975227
 30
0.0
 11
256.7921018423
 21
91.679810042
 31
0.0
  0
LINE
  5
B5
330
1F
100
AcDbEntity
  8
0
  6
Continuous
 62
     7
370
    25
100
AcDbLine
 10
256.7921018423
 20
91.679810042
 30
0.0
 11
256.9863831819
 21
92.024134899
 31
0.0
  0
SPLINE
  5
B6
330
1F
100
AcDbEntity
  8
0
  6
Continuous
 62
     7
370
    25
100
AcDbSpline
210
0.0
220
0.0
230
1.0
 70
     8
 71
     3
 72
     9
 73
     5
 74
     0
 42
0.000000001
 43
0.00000001
 40
0.0
 40
0.0
 40
0.0
 40
0.0
 40
0.5000512198476281
 40
1.0
 40
1.0
 40
1.0
 40
1.0
 10
256.9863831819425
 20
92.02413489897245
 30
0.0
 10
257.0265892607363
 20
92.14487158289073
 30
0.0
 10
257.1069931817706
 20
92.3863202168028
 30
0.0
 10
257.0265837695134
 20
92.62776854663562
 30
0.0
 10
256.9863831819425
 20
92.74848034460538
 30
0.0
  0
LINE
  5
B7
330
1F
100
AcDbEntity
  8
0
  6
Continuous
 62
     7
370
    25
100
AcDbLine
 10
256.7921018423
 20
92.500610704
 30
0.0
 11
256.9863831819
 21
92.7484803446
 31
0.0
  0
LINE
  5
B8
330
1F
100
AcDbEntity
  8
0
  6
Continuous
 62
     7
370
    25
100
AcDbLine
 10
255.7375019611
 20
90.7750450619
 30
0.0
 11
256.7921018423
 21
92.500610704
 31
0.0
  0
LINE
  5
B9
330
1F
100
AcDbEntity
  8
0
  6
Continuous
 62
     7
370
    25
100
AcDbLine
 10
255.5079495729
 20
90.4859960624
 30
0.0
 11
255.7375019611
 21
90.7750450619
 31
0.0
  0
LINE
  5
BA
330
1F
100
AcDbEntity
  8
0
  6
Continuous
 62
     7
370
    25
100
AcDbLine
 10
255.5079495729
 20
99.990950393
 30
0.0
 11
255.7375019611
 21
100.442036482
 31
0.0
  0
LINE
  5
BB
330
1F
100
AcDbEntity
  8
0
  6
Continuous
 62
     7
370
    25
100
AcDbLine
 10
255.7375019611
 20
100.442036482
 30
0.0
 11
256.7921018423
 21
101.3765357979
 31
0.0
  0
LINE
  5
BC
330
1F
100
AcDbEntity
  8
0
  6
Continuous
 62
     7
370
    25
100
AcDbLine
 10
256.7921018423
 20
101.3765357979
 30
0.0
 11
256.9863831819
 21
101.7633606293
 31
0.0
  0
SPLINE
  5
BD
330
1F
100
AcDbEntity
  8
0
  6
Continuous
 62
     7
370
    25
100
AcDbSpline
210
0.0
220
0.0
230
1.0
 70
     8
 71
     3
 72
     9
 73
     5
 74
     0
 42
0.000000001
 43
0.00000001
 40
0.0
 40
0.0
 40
0.0
 40
0.0
 40
0.122280263313393
 40
1.0
 40
1.0
 40
1.0
 40
1.0
 10
256.9863831819425
 20
105.976915413928
 30
0.0
 10
256.9986456975697
 20
105.8054788496412
 30
0.0
 10
257.0989277487763
 20
104.4034818335945
 30
0.0
 10
257.0389909197411
 20
102.9974566676766
 30
0.0
 10
256.9863831819425
 20
101.7633606292724
 30
0.0
  0
LINE
  5
BE
330
1F
100
AcDbEntity
  8
0
  6
Continuous
 62
     7
370
    25
100
AcDbLine
 10
256.7921018423
 20
106.1511747152
 30
0.0
 11
256.9863831819
 21
105.9769154139
 31
0.0
  0
LINE
  5
BF
330
1F
100
AcDbEntity
  8
0
  6
Continuous
 62
     7
370
    25
100
AcDbLine
 10
255.7375019611
 20
105.8102813162
 30
0.0
 11
256.7921018423
 21
106.1511747152
 31
0.0
  0
LINE
  5
C0
330
1F
100
AcDbEntity
  8
0
  6
Continuous
 62
     7
370
    25
100
AcDbLine
 10
255.5079495729
 20
106.0134898484
 30
0.0
 11
255.7375019611
 21
105.8102813162
 31
0.0
  0
LINE
  5
C1
330
1F
100
AcDbEntity
  8
0
  6
Continuous
 62
     7
370
    25
100
AcDbLine
 10
255.5079495729
 20
120.8405238189
 30
0.0
 11
255.7375019611
 21
120.8900832184
 31
0.0
  0
LINE
  5
C2
330
1F
100
AcDbEntity
  8
0
  6
Continuous
 62
     7
370
    25
100
AcDbLine
 10
255.7375019611
 20
120.8900832184
 30
0.0
 11
256.7921018423
 21
119.9969709464
 31
0.0
  0
LINE
  5
C3
330
1F
100
AcDbEntity
  8
0
  6
Continuous
 62
     7
370
    25
100
AcDbLine
 10
256.7921018423
 20
119.9969709464
 30
0.0
 11
256.9863831819
 21
120.0394699894
 31
0.0
  0
SPLINE
  5
C4
330
1F
100
AcDbEntity
  8
0
  6
Continuous
 62
     7
370
    25
100
AcDbSpline
210
0.0
220
0.0
230
1.0
 70
     8
 71
     3
 72
     9
 73
     5
 74
     0
 42
0.000000001
 43
0.00000001
 40
0.0
 40
0.0
 40
0.0
 40
0.0
 40
0.5000511334134957
 40
1.0
 40
1.0
 40
1.0
 40
1.0
 10
256.9863831819425
 20
120.0394699894308
 30
0.0
 10
257.0265892561021
 20
120.6210645503847
 30
0.0
 10
257.1069931817668
 20
121.7841347287958
 30
0.0
 10
257.0265837741455
 20
122.947204109706
 30
0.0
 10
256.9863831819425
 20
123.5286793284535
 30
0.0
  0
LINE
  5
C5
330
1F
100
AcDbEntity
  8
0
  6
Continuous
 62
     7
370
    25
100
AcDbLine
 10
256.7921018423
 20
123.9508096673
 30
0.0
 11
256.9863831819
 21
123.5286793285
 31
0.0
  0
LINE
  5
C6
330
1F
100
AcDbEntity
  8
0
  6
Continuous
 62
     7
370
    25
100
AcDbLine
 10
255.7375019611
 20
125.3354814448
 30
0.0
 11
256.7921018423
 21
123.9508096673
 31
0.0
  0
LINE
  5
C7
330
1F
100
AcDbEntity
  8
0
  6
Continuous
 62
     7
370
    25
100
AcDbLine
 10
255.5079495729
 20
125.8277385109
 30
0.0
 11
255.7375019611
 21
125.3354814448
 31
0.0
  0
LINE
  5
C8
330
1F
100
AcDbEntity
  8
0
  6
Continuous
 62
     7
370
    25
100
AcDbLine
 10
258.8854467691
 20
95.3002455257
 30
0.0
 11
258.8854467691
 21
125.3002448552
 31
0.0
  0
ARC
  5
C9
330
1F
100
AcDbEntity
  8
0
  6
Continuous
 62
     7
370
    25
100
AcDbCircle
 10
247.6251133661
 20
103.1261588991
 30
0.0
 40
2.687299086753674
100
AcDbArc
 50
87.2138246559
 51
272.7861753441
  0
LINE
  5
CA
330
1F
100
AcDbEntity
  8
0
  6
Continuous
 62
     7
370
    25
100
AcDbLine
 10
247.7557396711
 20
105.8102813162
 30
0.0
 11
255.7375019611
 21
105.8102813162
 31
0.0
  0
ARC
  5
CB
330
1F
100
AcDbEntity
  8
0
  6
Continuous
 62
     7
370
    25
100
AcDbCircle
 10
247.632859575
 20
103.7833026199
 30
0.0
 40
2.409901668874728
100
AcDbArc
 50
159.5522954135
 51
272.9227604523
  0
LWPOLYLINE
  5
CC
330
1F
100
AcDbEntity
  8
0
  6
Continuous
 62
     7
370
    25
100
AcDbPolyline
 90
       11
 70
   128
 43
0.0
 10
247.7557396711
 20
120.8900832184
 10
246.8687629522
 20
120.998870077
 10
246.0686302008
 20
121.3145809792
 10
245.4336321176
 20
121.8063127794
 10
245.0259363474
 20
122.4259300702
 10
244.8854481996
 20
123.1127823316
 10
245.0259363474
 20
123.799634593
 10
245.4336321176
 20
124.4192528151
 10
246.0686302008
 20
124.910983684
 10
246.8687629522
 20
125.2266955175
 10
247.7557396711
 20
125.3354814448
  0
ARC
  5
CD
330
1F
100
AcDbEntity
  8
0
  6
Continuous
 62
     7
370
    25
100
AcDbCircle
 10
247.5025801326
 20
121.6219258046
 30
0.0
 40
2.342603209668496
100
AcDbArc
 50
83.7960660867
 51
168.4695783178
  0
LINE
  5
CE
330
1F
100
AcDbEntity
  8
0
  6
Continuous
 62
     7
370
    25
100
AcDbLine
 10
247.7557396711
 20
100.442036482
 30
0.0
 11
255.7375019611
 21
100.442036482
 31
0.0
  0
ARC
  5
CF
330
1F
100
AcDbEntity
  8
0
  6
Continuous
 62
     7
370
    25
100
AcDbCircle
 10
247.6386467312
 20
103.8626155991
 30
0.0
 40
2.102518058129232
100
AcDbArc
 50
134.700412765
 51
273.1925548178
  0
LINE
  5
D0
330
1F
100
AcDbEntity
  8
0
  6
Continuous
 62
     7
370
    25
100
AcDbLine
 10
256.2530076326
 20
105.9769154139
 30
0.0
 11
256.9863831819
 21
105.9769154139
 31
0.0
  0
LINE
  5
D1
330
1F
100
AcDbEntity
  8
0
  6
Continuous
 62
     7
370
    25
100
AcDbLine
 10
247.7557396711
 20
101.3765357979
 30
0.0
 11
256.7921018423
 21
101.3765357979
 31
0.0
  0
LINE
  5
D2
330
1F
100
AcDbEntity
  8
0
  6
Continuous
 62
     7
370
    25
100
AcDbLine
 10
247.7557396711
 20
120.8900832184
 30
0.0
 11
255.7375019611
 21
120.8900832184
 31
0.0
  0
LINE
  5
D3
330
1F
100
AcDbEntity
  8
0
  6
Continuous
 62
     7
370
    25
100
AcDbLine
 10
247.7557396711
 20
101.7633606293
 30
0.0
 11
256.9863831819
 21
101.7633606293
 31
0.0
  0
ARC
  5
D4
330
1F
100
AcDbEntity
  8
0
  6
Continuous
 62
     7
370
    25
100
AcDbCircle
 10
247.5193135484
 20
121.5150049454
 30
0.0
 40
2.027506308845112
100
AcDbArc
 50
83.3035433872
 51
173.7801756512
  0
LINE
  5
D5
330
1F
100
AcDbEntity
  8
0
  6
Continuous
 62
     7
370
    25
100
AcDbLine
 10
256.7419147314
 20
120.0394699894
 30
0.0
 11
256.9863831819
 21
120.0394699894
 31
0.0
  0
LINE
  5
D6
330
1F
100
AcDbEntity
  8
0
  6
Continuous
 62
     7
370
    25
100
AcDbLine
 10
247.7557396711
 20
123.5286793285
 30
0.0
 11
256.9863831819
 21
123.5286793285
 31
0.0
  0
LINE
  5
D7
330
1F
100
AcDbEntity
  8
0
  6
Continuous
 62
     7
370
    25
100
AcDbLine
 10
247.7557396711
 20
125.3354814448
 30
0.0
 11
255.7375019611
 21
125.3354814448
 31
0.0
  0
LINE
  5
D8
330
1F
100
AcDbEntity
  8
0
  6
Continuous
 62
     7
370
    25
100
AcDbLine
 10
247.7557396711
 20
123.9508096673
 30
0.0
 11
256.7921018423
 21
123.9508096673
 31
0.0
  0
ARC
  5
D9
330
1F
100
AcDbEntity
  8
0
  6
Continuous
 62
     7
370
    25
100
AcDbCircle
 10
247.3618262792
 20
98.5913301857
 30
0.0
 40
8.748005913475456
100
AcDbArc
 50
254.9028439185
 51
272.5808406018
  0
LINE
  5
DA
330
1F
100
AcDbEntity
  8
0
  6
Continuous
 62
     7
370
    25
100
AcDbLine
 10
256.5009033502
 20
92.024134899
 30
0.0
 11
256.9863831819
 21
92.024134899
 31
0.0
  0
LINE
  5
DB
330
1F
100
AcDbEntity
  8
0
  6
Continuous
 62
     7
370
    25
100
AcDbLine
 10
247.7557396711
 20
89.8521975227
 30
0.0
 11
255.7375019611
 21
89.8521975227
 31
0.0
  0
LINE
  5
DC
330
1F
100
AcDbEntity
  8
0
  6
Continuous
 62
     7
370
    25
100
AcDbLine
 10
256.2904542507
 20
91.679810042
 30
0.0
 11
256.7921018423
 21
91.679810042
 31
0.0
  0
LINE
  5
DD
330
1F
100
AcDbEntity
  8
0
  6
Continuous
 62
     7
370
    25
100
AcDbLine
 10
116.9754507215
 20
63.92885601
 30
0.0
 11
116.9754507215
 21
141.6502468832
 31
0.0
  0
SPLINE
  5
DE
330
1F
100
AcDbEntity
  8
0
  6
Continuous
 62
     7
370
    25
100
AcDbSpline
210
0.0
220
0.0
230
1.0
 70
     8
 71
     3
 72
     8
 73
     4
 74
     0
 42
0.000000001
 43
0.00000001
 40
0.0
 40
0.0
 40
0.0
 40
0.0
 40
1.0
 40
1.0
 40
1.0
 40
1.0
 10
116.9754503454099
 20
63.92885690343
 30
0.0
 10
116.5252238811321
 20
63.12740154080523
 30
0.0
 10
116.0745260538888
 20
62.32621152924458
 30
0.0
 10
115.6234213244885
 20
61.52525159742466
 30
0.0
  0
LINE
  5
DF
330
1F
100
AcDbEntity
  8
0
  6
Continuous
 62
     7
370
    25
100
AcDbLine
 10
115.6234218003
 20
61.5252502807
 30
0.0
 11
115.6234218003
 21
141.6502468832
 31
0.0
  0
SPLINE
  5
E0
330
1F
100
AcDbEntity
  8
0
  6
Continuous
 62
     7
370
    25
100
AcDbSpline
210
0.0
220
0.0
230
1.0
 70
    24
 71
     3
 72
     8
 73
     4
 74
     0
 42
0.000000001
 43
0.00000001
 40
0.0
 40
0.0
 40
0.0
 40
0.0
 40
1.0
 40
1.0
 40
1.0
 40
1.0
 10
115.6234213244885
 20
141.6502451904535
 30
0.0
 10
116.0802228968168
 20
141.6502451904535
 30
0.0
 10
116.531237463056
 20
141.6502451904535
 30
0.0
 10
116.9754503454099
 20
141.6502451904535
 30
0.0
  0
LINE
  5
E1
330
1F
100
AcDbEntity
  8
0
  6
Continuous
 62
     7
370
    25
100
AcDbLine
 10
126.8354503633
 20
61.5252502807
 30
0.0
 11
122.1474798591
 21
61.5252502807
 31
0.0
  0
LINE
  5
E2
330
1F
100
AcDbEntity
  8
0
  6
Continuous
 62
     7
370
    25
100
AcDbLine
 10
122.1474798591
 20
61.5252502807
 30
0.0
 11
122.1474798591
 21
141.6502468832
 31
0.0
  0
LINE
  5
E3
330
1F
100
AcDbEntity
  8
0
  6
Continuous
 62
     7
370
    25
100
AcDbLine
 10
122.1474798591
 20
141.6502468832
 30
0.0
 11
126.8354503633
 21
141.6502468832
 31
0.0
  0
SPLINE
  5
E4
330
1F
100
AcDbEntity
  8
0
  6
Continuous
 62
     7
370
    25
100
AcDbSpline
210
0.0
220
0.0
230
1.0
 70
     8
 71
     3
 72
     8
 73
     4
 74
     0
 42
0.000000001
 43
0.00000001
 40
0.0
 40
0.0
 40
0.0
 40
0.0
 40
1.0
 40
1.0
 40
1.0
 40
1.0
 10
122.1474793663313
 20
61.52525159742466
 30
0.0
 10
121.6963746369311
 20
62.32621152924458
 30
0.0
 10
121.2456768096877
 20
63.12740154080523
 30
0.0
 10
120.7954503454099
 20
63.92885690343
 30
0.0
  0
LINE
  5
E5
330
1F
100
AcDbEntity
  8
0
  6
Continuous
 62
     7
370
    25
100
AcDbLine
 10
120.7954509379
 20
63.92885601
 30
0.0
 11
120.7954509379
 21
141.6502468832
 31
0.0
  0
SPLINE
  5
E6
330
1F
100
AcDbEntity
  8
0
  6
Continuous
 62
     7
370
    25
100
AcDbSpline
210
0.0
220
0.0
230
1.0
 70
    24
 71
     3
 72
     8
 73
     4
 74
     0
 42
0.000000001
 43
0.00000001
 40
0.0
 40
0.0
 40
0.0
 40
0.0
 40
1.0
 40
1.0
 40
1.0
 40
1.0
 10
120.7954503454099
 20
141.6502451904535
 30
0.0
 10
121.2396632277639
 20
141.6502451904535
 30
0.0
 10
121.6906777940031
 20
141.6502451904535
 30
0.0
 10
122.1474793663313
 20
141.6502451904535
 30
0.0
  0
LINE
  5
E7
330
1F
100
AcDbEntity
  8
0
  6
Continuous
 62
     7
370
    25
100
AcDbLine
 10
98.8854503454
 20
60.8002454587
 30
0.0
 11
98.8854503454
 21
159.8002449222
 31
0.0
  0
LINE
  5
E8
330
1F
100
AcDbEntity
  8
0
  6
Continuous
 62
     7
370
    25
100
AcDbLine
 10
127.8354505272
 20
62.550900931
 30
0.0
 11
127.8354505272
 21
141.6502468832
 31
0.0
  0
SPLINE
  5
E9
330
1F
100
AcDbEntity
  8
0
  6
Continuous
 62
     7
370
    25
100
AcDbSpline
210
0.0
220
0.0
230
1.0
 70
     8
 71
     3
 72
    14
 73
    10
 74
     0
 42
0.000000001
 43
0.00000001
 40
0.0
 40
0.0
 40
0.0
 40
0.0
 40
0.25
 40
0.25
 40
0.5
 40
0.5
 40
0.75
 40
0.75
 40
1.0
 40
1.0
 40
1.0
 40
1.0
 10
127.8354503454099
 20
62.55089964520016
 30
0.0
 10
127.8354503454099
 20
62.41747394914563
 30
0.0
 10
127.8101392454991
 20
62.28562614130128
 30
0.0
 10
127.7118044816543
 20
62.03910359260718
 30
0.0
 10
127.6386604773982
 20
61.92529840436664
 30
0.0
 10
127.4552224163026
 20
61.73484122741936
 30
0.0
 10
127.343536081964
 20
61.65720636356944
 30
0.0
 10
127.1010326516577
 20
61.55291495345698
 30
0.0
 10
126.9676582229635
 20
61.52525159742462
 30
0.0
 10
126.8354503454099
 20
61.52525159742463
 30
0.0
  0
SPLINE
  5
EA
330
1F
100
AcDbEntity
  8
0
  6
Continuous
 62
     7
370
    25
100
AcDbSpline
210
0.0
220
0.0
230
1.0
 70
    24
 71
     3
 72
    12
 73
     8
 74
     0
 42
0.000000001
 43
0.00000001
 40
0.0
 40
0.0
 40
0.0
 40
0.0
 40
0.2500000000000032
 40
0.2500000000000032
 40
0.5000000000000064
 40
0.5000000000000064
 40
1.0
 40
1.0
 40
1.0
 40
1.0
 10
126.8354503454099
 20
141.6502451904535
 30
0.0
 10
126.9875405823549
 20
141.6502451904535
 30
0.0
 10
127.1359998434304
 20
141.6502451904535
 30
0.0
 10
127.3934034756961
 20
141.6502451904535
 30
0.0
 10
127.502508223538
 20
141.6502451904535
 30
0.0
 10
127.7565676999455
 20
141.6502451904535
 30
0.0
 10
127.8354503454099
 20
141.6502451904535
 30
0.0
 10
127.8354503454099
 20
141.6502451904535
 30
0.0
  0
SPLINE
  5
EB
330
1F
100
AcDbEntity
  8
0
  6
Continuous
 62
     7
370
    25
100
AcDbSpline
210
0.0
220
0.0
230
1.0
 70
    11
 71
     3
 72
    80
 73
    76
 74
     0
 42
0.000000001
 43
0.00000001
 40
0.0
 40
0.0
 40
0.0
 40
0.0
 40
0.0312499999999995
 40
0.0312499999999995
 40
0.0468749999999993
 40
0.0468749999999993
 40
0.0624999999999991
 40
0.0624999999999991
 40
0.0937499999999988
 40
0.0937499999999988
 40
0.1249999999999986
 40
0.1249999999999986
 40
0.1562499999999983
 40
0.1562499999999983
 40
0.1874999999999981
 40
0.1874999999999981
 40
0.2187499999999978
 40
0.2187499999999978
 40
0.2499999999999976
 40
0.2499999999999976
 40
0.2812499999999973
 40
0.2812499999999973
 40
0.3124999999999971
 40
0.3124999999999971
 40
0.3281249999999971
 40
0.3281249999999971
 40
0.3437499999999971
 40
0.3437499999999971
 40
0.3749999999999973
 40
0.3749999999999973
 40
0.4062499999999975
 40
0.4062499999999975
 40
0.4218749999999975
 40
0.4218749999999975
 40
0.4374999999999974
 40
0.4374999999999974
 40
0.4687499999999973
 40
0.4687499999999973
 40
0.4999999999999972
 40
0.4999999999999972
 40
0.531249999999997
 40
0.531249999999997
 40
0.562499999999997
 40
0.562499999999997
 40
0.5937499999999969
 40
0.5937499999999969
 40
0.6249999999999969
 40
0.6249999999999969
 40
0.6562499999999968
 40
0.6562499999999968
 40
0.6874999999999968
 40
0.6874999999999968
 40
0.7031249999999968
 40
0.7031249999999968
 40
0.7187499999999969
 40
0.7187499999999969
 40
0.7499999999999973
 40
0.7499999999999973
 40
0.7812499999999979
 40
0.7812499999999979
 40
0.7968749999999982
 40
0.7968749999999982
 40
0.8124999999999984
 40
0.8124999999999984
 40
0.8437499999999988
 40
0.8437499999999988
 40
0.874999999999999
 40
0.874999999999999
 40
0.9062499999999993
 40
0.9062499999999993
 40
0.9374999999999996
 40
0.9374999999999996
 40
0.9687499999999999
 40
0.9687499999999999
 40
1.0
 40
1.0
 40
1.0
 40
1.0
 10
107.88545034541
 20
153.7148746540848
 30
0.0
 10
108.2159956581862
 20
153.7148746540848
 30
0.0
 10
108.5409757874379
 20
153.7310828854669
 30
0.0
 10
109.0204491986843
 20
153.7784475174865
 30
0.0
 10
109.1789310165251
 20
153.7981017293771
 30
0.0
 10
109.4931505490294
 20
153.8452128855698
 30
0.0
 10
109.6492708327098
 20
153.8727942050645
 30
0.0
 10
110.1033248616664
 20
153.9653299918583
 30
0.0
 10
110.3904282446062
 20
154.0404004254547
 30
0.0
 10
110.9337828006332
 20
154.2156387340654
 30
0.0
 10
111.1908864118388
 20
154.3166400319036
 30
0.0
 10
111.6517926667776
 20
154.5339962303645
 30
0.0
 10
111.8586903759926
 20
154.6511605621367
 30
0.0
 10
112.2242156899847
 20
154.9012304863654
 30
0.0
 10
112.3794212121107
 20
155.0321765751244
 30
0.0
 10
112.6288515987104
 20
155.2979115188367
 30
0.0
 10
112.7249415544956
 20
155.4346651121477
 30
0.0
 10
112.8534604036892
 20
155.7087306869867
 30
0.0
 10
112.8852712738669
 20
155.8436707774555
 30
0.0
 10
112.8856279236402
 20
156.1091424145242
 30
0.0
 10
112.8531306714432
 20
156.2409668916655
 30
0.0
 10
112.7255051977286
 20
156.4904164912859
 30
0.0
 10
112.6310767966768
 20
156.6088491832139
 30
0.0
 10
112.4432159766912
 20
156.777718380308
 30
0.0
 10
112.372387977888
 20
156.8328043754281
 30
0.0
 10
112.2176660859227
 20
156.9380572039166
 30
0.0
 10
112.1336896157393
 20
156.9883924326769
 30
0.0
 10
111.8623659460949
 20
157.132968265215
 30
0.0
 10
111.6558167274926
 20
157.220829851632
 30
0.0
 10
111.1892065873036
 20
157.3805509446315
 30
0.0
 10
110.9368410176781
 20
157.4497892410987
 30
0.0
 10
110.5309396759994
 20
157.5395766303285
 30
0.0
 10
110.3910390585219
 20
157.5671425924147
 30
0.0
 10
110.101815123275
 20
157.617633393341
 30
0.0
 10
109.9519756669857
 20
157.6405968321917
 30
0.0
 10
109.4978590973749
 20
157.7012273486106
 30
0.0
 10
109.1862078786381
 20
157.7313013774064
 30
0.0
 10
108.5452114137257
 20
157.771890964665
 30
0.0
 10
108.2136837857735
 20
157.7822031948811
 30
0.0
 10
107.560892740702
 20
157.7822787620469
 30
0.0
 10
107.2363565356702
 20
157.7723771565791
 30
0.0
 10
106.5910870862538
 20
157.7318906260539
 30
0.0
 10
106.2753440800911
 20
157.7014293261692
 30
0.0
 10
105.6734547851074
 20
157.6212786547326
 30
0.0
 10
105.3827055542959
 20
157.5709964229254
 30
0.0
 10
104.8357937626114
 20
157.4503262401525
 30
0.0
 10
104.5840163987745
 20
157.3811023809824
 30
0.0
 10
104.1226284061534
 20
157.2236506533418
 30
0.0
 10
103.9113591265553
 20
157.134302178668
 30
0.0
 10
103.5480547741791
 20
156.9410543079672
 30
0.0
 10
103.3942481257363
 20
156.8369263160879
 30
0.0
 10
103.2056286561389
 20
156.6683019299044
 30
0.0
 10
103.1495981699298
 20
156.6096735282295
 30
0.0
 10
103.0540244081936
 20
156.4902186134033
 30
0.0
 10
103.0142614911686
 20
156.4292988245651
 30
0.0
 10
102.9184897408565
 20
156.2428940983912
 30
0.0
 10
102.8857669017303
 20
156.1137812805962
 30
0.0
 10
102.8851383154013
 20
155.8451243576403
 30
0.0
 10
102.917324460136
 20
155.7097536168835
 30
0.0
 10
103.0122351619916
 20
155.5062033086475
 30
0.0
 10
103.0517019453906
 20
155.4382313845841
 30
0.0
 10
103.1466319441115
 20
155.3021391614532
 30
0.0
 10
103.2023887718748
 20
155.2337890612438
 30
0.0
 10
103.3903288898447
 20
155.0330860482017
 30
0.0
 10
103.5436903595609
 20
154.903697774389
 30
0.0
 10
103.9059545944413
 20
154.6550323423391
 30
0.0
 10
104.1168030679072
 20
154.5352226999709
 30
0.0
 10
104.5774730382261
 20
154.3177004123983
 30
0.0
 10
104.8288474178099
 20
154.2186153125624
 30
0.0
 10
105.374755304708
 20
154.0419428386455
 30
0.0
 10
105.6655778793593
 20
153.9658857505115
 30
0.0
 10
106.2669044941393
 20
153.8430407731585
 30
0.0
 10
106.5814230787517
 20
153.7953346481054
 30
0.0
 10
107.2280045348716
 20
153.7310861129857
 30
0.0
 10
107.5549050326336
 20
153.7148746540848
 30
0.0
 10
107.8854503454099
 20
153.7148746540848
 30
0.0
  0
LINE
  5
EC
330
1F
100
AcDbEntity
  8
0
  6
Continuous
 62
     7
370
    25
100
AcDbLine
 10
103.8354503186
 20
141.6502468832
 30
0.0
 11
115.6234218003
 21
141.6502468832
 31
0.0
  0
LINE
  5
ED
330
1F
100
AcDbEntity
  8
0
  6
Continuous
 62
     7
370
    25
100
AcDbLine
 10
115.6234218003
 20
61.5252502807
 30
0.0
 11
113.8354500951
 21
61.5252502807
 31
0.0
  0
SPLINE
  5
EE
330
1F
100
AcDbEntity
  8
0
  6
Continuous
 62
     7
370
    25
100
AcDbSpline
210
0.0
220
0.0
230
1.0
 70
     8
 71
     3
 72
    30
 73
    26
 74
     0
 42
0.000000001
 43
0.00000001
 40
0.0
 40
0.0
 40
0.0
 40
0.0
 40
0.1249999999999999
 40
0.1249999999999999
 40
0.1874999999999998
 40
0.1874999999999998
 40
0.2499999999999997
 40
0.2499999999999997
 40
0.3749999999999996
 40
0.3749999999999996
 40
0.4374999999999996
 40
0.4374999999999996
 40
0.4999999999999997
 40
0.4999999999999997
 40
0.6249999999999997
 40
0.6249999999999997
 40
0.6874999999999998
 40
0.6874999999999998
 40
0.7499999999999998
 40
0.7499999999999998
 40
0.8124999999999999
 40
0.8124999999999999
 40
0.875
 40
0.875
 40
1.0
 40
1.0
 40
1.0
 40
1.0
 10
113.8354503454099
 20
61.52525159742467
 30
0.0
 10
113.1728569983711
 20
61.52525159742467
 30
0.0
 10
112.5193490827638
 20
61.51035685549785
 30
0.0
 10
111.5581079836261
 20
61.46789529026528
 30
0.0
 10
111.2405420328504
 20
61.45038489573135
 30
0.0
 10
110.6112021904381
 20
61.40899994838285
 30
0.0
 10
110.2987251379953
 20
61.38502705011231
 30
0.0
 10
109.390392155664
 20
61.30605015000042
 30
0.0
 10
108.8165580344349
 20
61.24362961216977
 30
0.0
 10
108.0023961910627
 20
61.14036446197192
 30
0.0
 10
107.7375900612845
 20
61.1041473044214
 30
0.0
 10
107.2304298546222
 20
61.03024899923683
 30
0.0
 10
106.9889628458372
 20
60.99272989368353
 30
0.0
 10
106.2997416713599
 20
60.87990589173442
 30
0.0
 10
105.886817497324
 20
60.80432690849559
 30
0.0
 10
105.3390856084249
 20
60.69592723455557
 30
0.0
 10
105.1696865366765
 20
60.66083880751923
 30
0.0
 10
104.861968276931
 20
60.59460943398808
 30
0.0
 10
104.7227830845832
 20
60.56329711173893
 30
0.0
 10
104.4734660839639
 20
60.5049386631873
 30
0.0
 10
104.363333703968
 20
60.47789137682483
 30
0.0
 10
104.1726939774416
 20
60.42872364921293
 30
0.0
 10
104.0918679917319
 20
60.40650169608664
 30
0.0
 10
103.899111480593
 20
60.34921124904773
 30
0.0
 10
103.8354503454099
 20
60.32334162771139
 30
0.0
 10
103.8354503454099
 20
60.3102461906535
 30
0.0
  0
LINE
  5
EF
330
1F
100
AcDbEntity
  8
0
  6
Continuous
 62
     7
370
    25
100
AcDbLine
 10
103.8354503186
 20
60.3102468498
 30
0.0
 11
103.8354503186
 21
60.3002444454
 31
0.0
  0
SPLINE
  5
F0
330
1F
100
AcDbEntity
  8
0
  6
Continuous
 62
     7
370
    25
100
AcDbSpline
210
0.0
220
0.0
230
1.0
 70
     8
 71
     3
 72
    17
 73
    13
 74
     0
 42
0.000000001
 43
0.00000001
 40
0.0
 40
0.0
 40
0.0
 40
0.0
 40
0.1043843958185158
 40
0.2118345569819801
 40
0.3162081801235555
 40
0.4235375330682647
 40
0.5292275935501746
 40
0.6379275752951962
 40
0.7444714855043735
 40
0.8541836194561564
 40
0.959308052615968
 40
1.0
 40
1.0
 40
1.0
 40
1.0
 10
113.8354500950704
 20
159.2900403388261
 30
0.0
 10
113.2875115545568
 20
159.2954077791589
 30
0.0
 10
112.1755415414825
 20
159.3063003013229
 30
0.0
 10
110.56268620896
 20
159.3914824851409
 30
0.0
 10
109.0291730582223
 20
159.5178529884724
 30
0.0
 10
107.638152169848
 20
159.6747568599812
 30
0.0
 10
106.4026350535499
 20
159.8464522574169
 30
0.0
 10
105.3792799076935
 20
160.0117971116269
 30
0.0
 10
104.5789372348345
 20
160.155501409459
 30
0.0
 10
104.0686056820745
 20
160.2536654053908
 30
0.0
 10
103.8286969236151
 20
160.3015867198636
 30
0.0
 10
103.8606158353845
 20
160.2952202118499
 30
0.0
 10
103.8695232206414
 20
160.2934435554265
 30
0.0
  0
LINE
  5
F1
330
1F
100
AcDbEntity
  8
0
  6
Continuous
 62
     7
370
    25
100
AcDbLine
 10
115.6234218003
 20
159.2900403388
 30
0.0
 11
113.8354500951
 21
159.2900403388
 31
0.0
  0
LINE
  5
F2
330
1F
100
AcDbEntity
  8
0
  6
Continuous
 62
     7
370
    25
100
AcDbLine
 10
115.6234218003
 20
149.2512062736
 30
0.0
 11
115.6234218003
 21
159.2900403388
 31
0.0
  0
LINE
  5
F3
330
1F
100
AcDbEntity
  8
0
  6
Continuous
 62
     7
370
    25
100
AcDbLine
 10
113.543417138
 20
149.2512062736
 30
0.0
 11
115.6234218003
 21
149.2512062736
 31
0.0
  0
SPLINE
  5
F4
330
1F
100
AcDbEntity
  8
0
  6
Continuous
 62
     7
370
    25
100
AcDbSpline
210
0.0
220
0.0
230
1.0
 70
     8
 71
     3
 72
    22
 73
    18
 74
     0
 42
0.000000001
 43
0.00000001
 40
0.0
 40
0.0
 40
0.0
 40
0.0
 40
0.2500000000000002
 40
0.2500000000000002
 40
0.3750000000000003
 40
0.3750000000000003
 40
0.5000000000000004
 40
0.5000000000000004
 40
0.6250000000000004
 40
0.6250000000000004
 40
0.7500000000000004
 40
0.7500000000000004
 40
0.8750000000000004
 40
0.8750000000000004
 40
0.9375000000000002
 40
0.9375000000000002
 40
1.0
 40
1.0
 40
1.0
 40
1.0
 10
103.8354503454099
 20
141.6502451904535
 30
0.0
 10
104.038175301329
 20
142.6694915323181
 30
0.0
 10
104.3529190231244
 20
143.6285996822574
 30
0.0
 10
105.0609744927954
 20
144.9710787597667
 30
0.0
 10
105.339437123013
 20
145.4052873425067
 30
0.0
 10
105.9782045296502
 20
146.2169150580088
 30
0.0
 10
106.3386182094404
 20
146.5961953509456
 30
0.0
 10
107.1561504414297
 20
147.2991539299666
 30
0.0
 10
107.6173184247168
 20
147.6241827476672
 30
0.0
 10
108.6153086712006
 20
148.1891980710581
 30
0.0
 10
109.1550678651929
 20
148.4329016652646
 30
0.0
 10
110.3296608292242
 20
148.8371015929096
 30
0.0
 10
110.9413970152161
 20
148.9895387859551
 30
0.0
 10
111.8933062400778
 20
149.1448663335638
 30
0.0
 10
112.2165394043385
 20
149.1843711136138
 30
0.0
 10
112.8756025756137
 20
149.2376802342825
 30
0.0
 10
113.2096665861877
 20
149.2512079513404
 30
0.0
 10
113.5434171935892
 20
149.2512079513404
 30
0.0
  0
SPLINE
  5
F5
330
1F
100
AcDbEntity
  8
0
  6
Continuous
 62
     7
370
    25
100
AcDbSpline
210
0.0
220
0.0
230
1.0
 70
     8
 71
     3
 72
    14
 73
    10
 74
     0
 42
0.000000001
 43
0.00000001
 40
0.0
 40
0.0
 40
0.0
 40
0.0
 40
0.25
 40
0.25
 40
0.5
 40
0.5
 40
0.75
 40
0.75
 40
1.0
 40
1.0
 40
1.0
 40
1.0
 10
120.7954503454099
 20
64.83706640805859
 30
0.0
 10
120.7954503454099
 20
64.94411048905296
 30
0.0
 10
120.7753326582518
 20
65.0493456292954
 30
0.0
 10
120.6968414689861
 20
65.2471961161431
 30
0.0
 10
120.6386848441849
 20
65.33824787970802
 30
0.0
 10
120.4921695885669
 20
65.4914139736328
 30
0.0
 10
120.4035270399258
 20
65.55370841984221
 30
0.0
 10
120.2078037171255
 20
65.6385022053782
 30
0.0
 10
120.1025725260545
 20
65.66056973240381
 30
0.0
 10
119.9954503454099
 20
65.66056973240383
 30
0.0
  0
SPLINE
  5
F6
330
1F
100
AcDbEntity
  8
0
  6
Continuous
 62
     7
370
    25
100
AcDbSpline
210
0.0
220
0.0
230
1.0
 70
    24
 71
     3
 72
    14
 73
    10
 74
     0
 42
0.000000001
 43
0.00000001
 40
0.0
 40
0.0
 40
0.0
 40
0.0
 40
0.25
 40
0.25
 40
0.5
 40
0.5
 40
0.75
 40
0.75
 40
1.0
 40
1.0
 40
1.0
 40
1.0
 10
119.9954503454099
 20
141.6502451904535
 30
0.0
 10
120.1192201101751
 20
141.6502451904535
 30
0.0
 10
120.243587214182
 20
141.6502451904535
 30
0.0
 10
120.449943682908
 20
141.6502451904535
 30
0.0
 10
120.5352718263264
 20
141.6502451904535
 30
0.0
 10
120.6674638850416
 20
141.6502451904535
 30
0.0
 10
120.7161091287922
 20
141.6502451904535
 30
0.0
 10
120.7796449205209
 20
141.6502451904535
 30
0.0
 10
120.7954503454099
 20
141.6502451904535
 30
0.0
 10
120.7954503454099
 20
141.6502451904535
 30
0.0
  0
SPLINE
  5
F7
330
1F
100
AcDbEntity
  8
0
  6
Continuous
 62
     7
370
    25
100
AcDbSpline
210
0.0
220
0.0
230
1.0
 70
     8
 71
     3
 72
    12
 73
     8
 74
     0
 42
0.000000001
 43
0.00000001
 40
0.0
 40
0.0
 40
0.0
 40
0.0
 40
0.250000000000003
 40
0.250000000000003
 40
0.500000000000006
 40
0.500000000000006
 40
1.0
 40
1.0
 40
1.0
 40
1.0
 10
117.7754503454099
 20
65.66056973240383
 30
0.0
 10
117.669689692061
 20
65.66056973240381
 30
0.0
 10
117.561702063878
 20
65.63803022640343
 30
0.0
 10
117.3671073986124
 20
65.55345959440808
 30
0.0
 10
117.2782354857736
 20
65.49097794164926
 30
0.0
 10
117.0590431934477
 20
65.26158899017706
 30
0.0
 10
116.9754503454099
 20
65.04900565265464
 30
0.0
 10
116.9754503454099
 20
64.83706640805842
 30
0.0
  0
SPLINE
  5
F8
330
1F
100
AcDbEntity
  8
0
  6
Continuous
 62
     7
370
    25
100
AcDbSpline
210
0.0
220
0.0
230
1.0
 70
    24
 71
     3
 72
    14
 73
    10
 74
     0
 42
0.000000001
 43
0.00000001
 40
0.0
 40
0.0
 40
0.0
 40
0.0
 40
0.25
 40
0.25
 40
0.5
 40
0.5
 40
0.75
 40
0.75
 40
1.0
 40
1.0
 40
1.0
 40
1.0
 10
116.9754503454099
 20
141.6502451904535
 30
0.0
 10
116.9754503454099
 20
141.6502451904535
 30
0.0
 10
116.9911646658759
 20
141.6502451904535
 30
0.0
 10
117.0548486443442
 20
141.6502451904535
 30
0.0
 10
117.1034518387547
 20
141.6502451904535
 30
0.0
 10
117.2361353611803
 20
141.6502451904535
 30
0.0
 10
117.321237465491
 20
141.6502451904535
 30
0.0
 10
117.527679700401
 20
141.6502451904535
 30
0.0
 10
117.651760642024
 20
141.6502451904535
 30
0.0
 10
117.7754503454099
 20
141.6502451904535
 30
0.0
  0
LINE
  5
F9
330
1F
100
AcDbEntity
  8
0
  6
Continuous
 62
     7
370
    25
100
AcDbLine
 10
119.9954504342
 20
65.6605683811
 30
0.0
 11
117.7754512252
 21
65.6605683811
 31
0.0
  0
LINE
  5
FA
330
1F
100
AcDbEntity
  8
0
  6
Continuous
 62
     7
370
    25
100
AcDbLine
 10
117.7754512252
 20
141.6502468832
 30
0.0
 11
119.9954504342
 21
141.6502468832
 31
0.0
  0
LINE
  5
FB
330
1F
100
AcDbEntity
  8
0
  6
Continuous
 62
     7
370
    25
100
AcDbLine
 10
96.3854504013
 20
72.4179953881
 30
0.0
 11
96.3854504013
 21
148.1824949928
 31
0.0
  0
LINE
  5
FC
330
1F
100
AcDbEntity
  8
0
  6
Continuous
 62
     7
370
    25
100
AcDbLine
 10
64.0854498567
 20
74.0362316914
 30
0.0
 11
64.0854498567
 21
76.4309116252
 31
0.0
  0
SPLINE
  5
FD
330
1F
100
AcDbEntity
  8
0
  6
Continuous
 62
     7
370
    25
100
AcDbSpline
210
0.0
220
0.0
230
1.0
 70
     8
 71
     3
 72
    14
 73
    10
 74
     0
 42
0.000000001
 43
0.00000001
 40
0.0
 40
0.0
 40
0.0
 40
0.0
 40
0.25
 40
0.25
 40
0.5
 40
0.5
 40
0.75
 40
0.75
 40
1.0
 40
1.0
 40
1.0
 40
1.0
 10
63.08102787407297
 20
78.13376384670995
 30
0.0
 10
63.1697964520183
 20
77.975229715402
 30
0.0
 10
63.29151429069721
 20
77.82278703851344
 30
0.0
 10
63.52656390055405
 20
77.52565241468452
 30
0.0
 10
63.64219408677094
 20
77.38096977106714
 30
0.0
 10
63.84259902019876
 20
77.09768056856375
 30
0.0
 10
63.92799931218307
 20
76.9591265755269
 30
0.0
 10
64.04970494590032
 20
76.68774254549335
 30
0.0
 10
64.08545034541295
 20
76.55560667685873
 30
0.0
 10
64.08545034541294
 20
76.43091192508797
 30
0.0
  0
SPLINE
  5
FE
330
1F
100
AcDbEntity
  8
0
  6
Continuous
 62
     7
370
    25
100
AcDbSpline
210
0.0
220
0.0
230
1.0
 70
     8
 71
     3
 72
    14
 73
    10
 74
     0
 42
0.000000001
 43
0.00000001
 40
0.0
 40
0.0
 40
0.0
 40
0.0
 40
0.124999999999999
 40
0.124999999999999
 40
0.2499999999999981
 40
0.2499999999999981
 40
0.4999999999999952
 40
0.4999999999999952
 40
1.0
 40
1.0
 40
1.0
 40
1.0
 10
62.18545034540994
 20
78.76259378581005
 30
0.0
 10
62.25303264519442
 20
78.76974967091144
 30
0.0
 10
62.32552022294232
 20
78.76532520087243
 30
0.0
 10
62.45781133220827
 20
78.7356190431021
 30
0.0
 10
62.51508871159844
 20
78.71233476152386
 30
0.0
 10
62.66473913879872
 20
78.63484952167352
 30
0.0
 10
62.73845243432024
 20
78.57299769477216
 30
0.0
 10
62.92626041764645
 20
78.38832024212383
 30
0.0
 10
63.0103007240079
 20
78.26007731883263
 30
0.0
 10
63.08102787407419
 20
78.13376384671005
 30
0.0
  0
SPLINE
  5
FF
330
1F
100
AcDbEntity
  8
0
  6
Continuous
 62
     7
370
    25
100
AcDbSpline
210
0.0
220
0.0
230
1.0
 70
     8
 71
     3
 72
     8
 73
     4
 74
     0
 42
0.000000001
 43
0.00000001
 40
0.0
 40
0.0
 40
0.0
 40
0.0
 40
1.0
 40
1.0
 40
1.0
 40
1.0
 10
58.64080995732904
 20
78.34454520101825
 30
0.0
 10
59.80610826803794
 20
78.49973267290487
 30
0.0
 10
60.99072348207782
 20
78.63609131121518
 30
0.0
 10
62.18545034540994
 20
78.76259378581005
 30
0.0
  0
SPLINE
  5
100
330
1F
100
AcDbEntity
  8
0
  6
Continuous
 62
     7
370
    25
100
AcDbSpline
210
0.0
220
0.0
230
1.0
 70
     8
 71
     3
 72
    14
 73
    10
 74
     0
 42
0.000000001
 43
0.00000001
 40
0.0
 40
0.0
 40
0.0
 40
0.0
 40
0.5000000000000012
 40
0.5000000000000012
 40
0.7500000000000004
 40
0.7500000000000004
 40
0.8750000000000002
 40
0.8750000000000002
 40
1.0
 40
1.0
 40
1.0
 40
1.0
 10
50.88537546137958
 20
78.05441302188834
 30
0.0
 10
52.19367702391359
 20
78.06142774562946
 30
0.0
 10
53.49873639857067
 20
78.07683632207392
 30
0.0
 10
55.44461245005934
 20
78.13073287754058
 30
0.0
 10
56.09130995379849
 20
78.1537644421433
 30
0.0
 10
57.05515231765301
 20
78.20470696701403
 30
0.0
 10
57.37539100958716
 20
78.22444188924723
 30
0.0
 10
58.01208623592971
 20
78.27392901771881
 30
0.0
 10
58.32880164421267
 20
78.30299379664804
 30
0.0
 10
58.64080995732907
 20
78.34454520101822
 30
0.0
  0
SPLINE
  5
101
330
1F
100
AcDbEntity
  8
0
  6
Continuous
 62
     7
370
    25
100
AcDbSpline
210
0.0
220
0.0
230
1.0
 70
     8
 71
     3
 72
    12
 73
     8
 74
     0
 42
0.000000001
 43
0.00000001
 40
0.0
 40
0.0
 40
0.0
 40
0.0
 40
0.25
 40
0.25
 40
0.5
 40
0.5
 40
1.0
 40
1.0
 40
1.0
 40
1.0
 10
57.18545034540993
 20
142.3867680819499
 30
0.0
 10
56.66675152358175
 20
142.4192908567981
 30
0.0
 10
56.14503995037676
 20
142.4425875979686
 30
0.0
 10
55.09874793388117
 20
142.4804331123907
 30
0.0
 10
54.57407630821091
 20
142.4947015868869
 30
0.0
 10
52.99723028567171
 20
142.5289110743452
 30
0.0
 10
51.94227497112483
 20
142.540410578289
 30
0.0
 10
50.88537546137958
 20
142.5460773590186
 30
0.0
  0
SPLINE
  5
102
330
1F
100
AcDbEntity
  8
0
  6
Continuous
 62
     7
370
    25
100
AcDbSpline
210
0.0
220
0.0
230
1.0
 70
     8
 71
     3
 72
    20
 73
    16
 74
     0
 42
0.000000001
 43
0.00000001
 40
0.0
 40
0.0
 40
0.0
 40
0.0
 40
0.2499999999999999
 40
0.2499999999999999
 40
0.4999999999999998
 40
0.4999999999999998
 40
0.7499999999999997
 40
0.7499999999999997
 40
0.8749999999999996
 40
0.8749999999999996
 40
0.9375000000000002
 40
0.9375000000000002
 40
0.9687500000000001
 40
0.9687500000000001
 40
1.0
 40
1.0
 40
1.0
 40
1.0
 10
59.08545034540993
 20
144.0448539274381
 30
0.0
 10
59.08545034540993
 20
143.9091716076912
 30
0.0
 10
59.03673855619331
 20
143.7680846215512
 30
0.0
 10
58.86757713296814
 20
143.4760129028206
 30
0.0
 10
58.74579671904981
 20
143.3243641607303
 30
0.0
 10
58.44824962430032
 20
143.0219557205771
 30
0.0
 10
58.27433701859752
 20
142.8693670844538
 30
0.0
 10
57.95492218471571
 20
142.6440963206115
 30
0.0
 10
57.83988140926846
 20
142.5693732261008
 30
0.0
 10
57.63279708525204
 20
142.4699628168438
 30
0.0
 10
57.55668925044564
 20
142.4383977244992
 30
0.0
 10
57.42529471089227
 20
142.4039543403063
 30
0.0
 10
57.37874149189083
 20
142.3949027685386
 30
0.0
 10
57.28240814081012
 20
142.3847271197002
 30
0.0
 10
57.23314871745466
 20
142.3837773610251
 30
0.0
 10
57.18545034540795
 20
142.3867680819397
 30
0.0
  0
LINE
  5
103
330
1F
100
AcDbEntity
  8
0
  6
Continuous
 62
     7
370
    25
100
AcDbLine
 10
59.0854508997
 20
144.0448523112
 30
0.0
 11
59.0854508997
 21
146.3137589939
 31
0.0
  0
SPLINE
  5
104
330
1F
100
AcDbEntity
  8
0
  6
Continuous
 62
     7
370
    25
100
AcDbSpline
210
0.0
220
0.0
230
1.0
 70
     8
 71
     3
 72
    22
 73
    18
 74
     0
 42
0.000000001
 43
0.00000001
 40
0.0
 40
0.0
 40
0.0
 40
0.0
 40
0.0002937795809534
 40
0.0628841226670476
 40
0.1261981634441474
 40
0.2510182376743836
 40
0.3131038035109783
 40
0.3757650301263917
 40
0.438298947461237
 40
0.5000628179552256
 40
0.5617337540173512
 40
0.6246555751056264
 40
0.7491916931696805
 40
0.8115302283016316
 40
0.874584730621348
 40
0.9378227612722644
 40
1.0
 40
1.0
 40
1.0
 40
1.0
 10
77.4054059953819
 20
73.36899867136472
 30
0.0
 10
77.40521145107125
 20
73.36897497417183
 30
0.0
 10
77.36356884182325
 20
73.36390254136538
 30
0.0
 10
77.50873744104659
 20
73.38232517964244
 30
0.0
 10
77.97893032803309
 20
73.43895001853288
 30
0.0
 10
78.94736580977988
 20
73.54512988339917
 30
0.0
 10
80.25982921045683
 20
73.63076810357653
 30
0.0
 10
81.39195165368479
 20
73.66942474447913
 30
0.0
 10
82.61413909617632
 20
73.67308144523902
 30
0.0
 10
83.88143786853566
 20
73.6307033084843
 30
0.0
 10
85.14814933481092
 20
73.54231911989079
 30
0.0
 10
86.76380790305613
 20
73.37227776684874
 30
0.0
 10
88.20377058748356
 20
73.15009218866497
 30
0.0
 10
89.26963913099165
 20
72.94709376504329
 30
0.0
 10
89.85883930737978
 20
72.82306794841664
 30
0.0
 10
90.24755947209763
 20
72.73814957196734
 30
0.0
 10
90.29434486731978
 20
72.72742344015644
 30
0.0
 10
90.31753970397813
 20
72.72210573632711
 30
0.0
  0
SPLINE
  5
105
330
1F
100
AcDbEntity
  8
0
  6
Continuous
 62
     7
370
    25
100
AcDbSpline
210
0.0
220
0.0
230
1.0
 70
     8
 71
     3
 72
    27
 73
    23
 74
     0
 42
0.000000001
 43
0.00000001
 40
0.0
 40
0.0
 40
0.0
 40
0.0
 40
0.0619954680688684
 40
0.1254397621813191
 40
0.1886583727463871
 40
0.2510346191260181
 40
0.313178255016169
 40
0.3756730771103761
 40
0.4382401025850776
 40
0.4998243385522818
 40
0.5615387009126923
 40
0.6240931220669997
 40
0.6867530144355031
 40
0.7488662870716932
 40
0.8111008374917862
 40
0.8742090103085037
 40
0.9448189516773847
 40
0.9756082665127763
 40
0.9877505319198249
 40
0.9999433694577685
 40
0.9999501670988248
 40
1.0
 40
1.0
 40
1.0
 40
1.0
 10
90.31741863204343
 20
147.8783399410962
 30
0.0
 10
90.29384704108442
 20
147.8730303560529
 30
0.0
 10
90.2461529941446
 20
147.8622871016527
 30
0.0
 10
89.8541099007656
 20
147.7770602164762
 30
0.0
 10
89.26359725557874
 20
147.6524915355202
 30
0.0
 10
88.45955880751191
 20
147.4995426253501
 30
0.0
 10
87.48348404111177
 20
147.3377854227436
 30
0.0
 10
86.36167572821519
 20
147.1855520048083
 30
0.0
 10
85.14814409243927
 20
147.0577766510043
 30
0.0
 10
83.88331366160855
 20
146.9699281329985
 30
0.0
 10
82.61527028991999
 20
146.9275401033026
 30
0.0
 10
81.3917629889862
 20
146.9312791388899
 30
0.0
 10
80.25826364331019
 20
146.9698677524183
 30
0.0
 10
79.27215902068147
 20
147.0343136858593
 30
0.0
 10
78.46352917823278
 20
147.1078224195651
 30
0.0
 10
77.84330064351904
 20
147.1777928648946
 30
0.0
 10
77.52514746174998
 20
147.21634425756
 30
0.0
 10
77.42948601609176
 20
147.2284153098595
 30
0.0
 10
77.40786718701155
 20
147.2311757306543
 30
0.0
 10
77.40502621986974
 20
147.2315041120022
 30
0.0
 10
77.40470584419124
 20
147.2315590492688
 30
0.0
 10
77.40474140434056
 20
147.2315529532131
 30
0.0
 10
77.40477269603116
 20
147.2315475888967
 30
0.0
  0
SPLINE
  5
106
330
1F
100
AcDbEntity
  8
0
  6
Continuous
 62
     7
370
    25
100
AcDbSpline
210
0.0
220
0.0
230
1.0
 70
     8
 71
     3
 72
    20
 73
    16
 74
     0
 42
0.000000001
 43
0.00000001
 40
0.0
 40
0.0
 40
0.0
 40
0.0
 40
0.249999999999986
 40
0.249999999999986
 40
0.3749999999999789
 40
0.3749999999999789
 40
0.4374999999999789
 40
0.4374999999999789
 40
0.4999999999999789
 40
0.4999999999999789
 40
0.6249999999999835
 40
0.6249999999999835
 40
0.7499999999999879
 40
0.7499999999999879
 40
1.0
 40
1.0
 40
1.0
 40
1.0
 10
49.27626457712594
 20
79.62176203775276
 30
0.0
 10
49.30253679433935
 20
79.64107997883522
 30
0.0
 10
49.33321693659419
 20
79.65546868993701
 30
0.0
 10
49.40468780697611
 20
79.648564328101
 30
0.0
 10
49.43271484402045
 20
79.64139832475257
 30
0.0
 10
49.48779843351796
 20
79.61169929804898
 30
0.0
 10
49.50868976207039
 20
79.59822565548764
 30
0.0
 10
49.55389840951585
 20
79.56302738997164
 30
0.0
 10
49.57830262191142
 20
79.54111916124437
 30
0.0
 10
49.64963493996286
 20
79.46899430124881
 30
0.0
 10
49.69153172478313
 20
79.41665376029877
 30
0.0
 10
49.76310768363901
 20
79.31917036839803
 30
0.0
 10
49.7939356734563
 20
79.27241659851961
 30
0.0
 10
49.87703560629188
 20
79.1391233826805
 30
0.0
 10
49.92189051166218
 20
79.05648598476527
 30
0.0
 10
49.96200258711475
 20
78.9773790899745
 30
0.0
  0
SPLINE
  5
107
330
1F
100
AcDbEntity
  8
0
  6
Continuous
 62
     7
370
    25
100
AcDbSpline
210
0.0
220
0.0
230
1.0
 70
     8
 71
     3
 72
    14
 73
    10
 74
     0
 42
0.000000001
 43
0.00000001
 40
0.0
 40
0.0
 40
0.0
 40
0.0
 40
0.2499999999999994
 40
0.2499999999999994
 40
0.4999999999999988
 40
0.4999999999999988
 40
0.7499999999999982
 40
0.7499999999999982
 40
1.0
 40
1.0
 40
1.0
 40
1.0
 10
48.98545034540994
 20
79.79757544788555
 30
0.0
 10
48.98545034540994
 20
79.7563285168612
 30
0.0
 10
48.99406006179119
 20
79.71942154457872
 30
0.0
 10
49.02514624136153
 20
79.65852148467931
 30
0.0
 10
49.04753579484561
 20
79.63434056513961
 30
0.0
 10
49.10227972602171
 20
79.60037297425635
 30
0.0
 10
49.1347299656069
 20
79.59045289028816
 30
0.0
 10
49.20473148033497
 20
79.58910168138333
 30
0.0
 10
49.24294198045749
 20
79.59725995807946
 30
0.0
 10
49.2762645771306
 20
79.62176203774757
 30
0.0
  0
LINE
  5
108
330
1F
100
AcDbEntity
  8
0
  6
Continuous
 62
     7
370
    25
100
AcDbLine
 10
48.9854512931
 20
79.7975756772
 30
0.0
 11
48.9854512931
 21
140.8029147037
 31
0.0
  0
SPLINE
  5
109
330
1F
100
AcDbEntity
  8
0
  6
Continuous
 62
     7
370
    25
100
AcDbSpline
210
0.0
220
0.0
230
1.0
 70
     8
 71
     3
 72
     9
 73
     5
 74
     0
 42
0.000000001
 43
0.00000001
 40
0.0
 40
0.0
 40
0.0
 40
0.0
 40
0.0592942499244465
 40
1.0
 40
1.0
 40
1.0
 40
1.0
 10
49.27626608027322
 20
140.9787279166698
 30
0.0
 10
49.27138308257445
 20
140.9820210563676
 30
0.0
 10
49.18903112256184
 20
141.0375599948306
 30
0.0
 10
49.12290046814655
 20
140.9802677917179
 30
0.0
 10
49.06069098128182
 20
140.9263726868152
 30
0.0
  0
SPLINE
  5
10A
330
1F
100
AcDbEntity
  8
0
  6
Continuous
 62
     7
370
    25
100
AcDbSpline
210
0.0
220
0.0
230
1.0
 70
     8
 71
     3
 72
     8
 73
     4
 74
     0
 42
0.000000001
 43
0.00000001
 40
0.0
 40
0.0
 40
0.0
 40
0.0
 40
1.0
 40
1.0
 40
1.0
 40
1.0
 10
49.00908401434614
 20
140.9104944340911
 30
0.0
 10
48.9937349757101
 20
140.8799843790951
 30
0.0
 10
48.98545034540994
 20
140.8436728235828
 30
0.0
 10
48.98545034540994
 20
140.8029149330214
 30
0.0
  0
SPLINE
  5
10B
330
1F
100
AcDbEntity
  8
0
  6
Continuous
 62
     7
370
    25
100
AcDbSpline
210
0.0
220
0.0
230
1.0
 70
     8
 71
     3
 72
    20
 73
    16
 74
     0
 42
0.000000001
 43
0.00000001
 40
0.0
 40
0.0
 40
0.0
 40
0.0
 40
0.2500000000000037
 40
0.2500000000000037
 40
0.3750000000000055
 40
0.3750000000000055
 40
0.5000000000000073
 40
0.5000000000000073
 40
0.5625000000000057
 40
0.5625000000000057
 40
0.625000000000004
 40
0.625000000000004
 40
0.7500000000000027
 40
0.7500000000000027
 40
1.0
 40
1.0
 40
1.0
 40
1.0
 10
49.96200258711237
 20
141.6231112909316
 30
0.0
 10
49.92200636928853
 20
141.5442328843742
 30
0.0
 10
49.87689274145088
 20
141.4611032376827
 30
0.0
 10
49.79363852708435
 20
141.3276145733317
 30
0.0
 10
49.76341919846384
 20
141.2817495174498
 30
0.0
 10
49.69133096332243
 20
141.1835579650449
 30
0.0
 10
49.64941364591133
 20
141.1312481455213
 30
0.0
 10
49.57816304135987
 20
141.0592422427868
 30
0.0
 10
49.55392722898056
 20
141.0374720304852
 30
0.0
 10
49.5083290387959
 20
141.0019973721562
 30
0.0
 10
49.48752654919619
 20
140.9886271879787
 30
0.0
 10
49.43258555077706
 20
140.9590572758434
 30
0.0
 10
49.40451656269026
 20
140.9519307535415
 30
0.0
 10
49.33401373262743
 20
140.9450563820588
 30
0.0
 10
49.30258964483655
 20
140.9593715411459
 30
0.0
 10
49.27626457712795
 20
140.9787283431565
 30
0.0
  0
SPLINE
  5
10C
330
1F
100
AcDbEntity
  8
0
  6
Continuous
 62
     7
370
    25
100
AcDbSpline
210
0.0
220
0.0
230
1.0
 70
     8
 71
     3
 72
    10
 73
     6
 74
     0
 42
0.000000001
 43
0.00000001
 40
0.0
 40
0.0
 40
0.0
 40
0.0
 40
0.4999999999999989
 40
0.4999999999999989
 40
1.0
 40
1.0
 40
1.0
 40
1.0
 10
50.63545034540995
 20
142.5485303922734
 30
0.0
 10
50.51056207465975
 20
142.417534114202
 30
0.0
 10
50.3891119565993
 20
142.273821277537
 30
0.0
 10
50.15952798164186
 20
141.9632509848478
 30
0.0
 10
50.04925300624588
 20
141.7951819117847
 30
0.0
 10
49.96200258711237
 20
141.6231112909316
 30
0.0
  0
SPLINE
  5
10D
330
1F
100
AcDbEntity
  8
0
  6
Continuous
 62
     7
370
    25
100
AcDbSpline
210
0.0
220
0.0
230
1.0
 70
     8
 71
     3
 72
     8
 73
     4
 74
     0
 42
0.000000001
 43
0.00000001
 40
0.0
 40
0.0
 40
0.0
 40
0.0
 40
1.0
 40
1.0
 40
1.0
 40
1.0
 10
50.88537546137571
 20
142.5460773590181
 30
0.0
 10
50.79835743152733
 20
142.5465439238051
 30
0.0
 10
50.71540340514738
 20
142.5475839433813
 30
0.0
 10
50.63545034540763
 20
142.5485303922736
 30
0.0
  0
SPLINE
  5
10E
330
1F
100
AcDbEntity
  8
0
  6
Continuous
 62
     7
370
    25
100
AcDbSpline
210
0.0
220
0.0
230
1.0
 70
     8
 71
     3
 72
     8
 73
     4
 74
     0
 42
0.000000001
 43
0.00000001
 40
0.0
 40
0.0
 40
0.0
 40
0.0
 40
1.0
 40
1.0
 40
1.0
 40
1.0
 10
50.63545034540763
 20
78.05195998863339
 30
0.0
 10
50.71540340514739
 20
78.05290643752566
 30
0.0
 10
50.79835743152736
 20
78.05394645710179
 30
0.0
 10
50.88537546137572
 20
78.05441302188883
 30
0.0
  0
SPLINE
  5
10F
330
1F
100
AcDbEntity
  8
0
  6
Continuous
 62
     7
370
    25
100
AcDbSpline
210
0.0
220
0.0
230
1.0
 70
     8
 71
     3
 72
    10
 73
     6
 74
     0
 42
0.000000001
 43
0.00000001
 40
0.0
 40
0.0
 40
0.0
 40
0.0
 40
0.4999999999999989
 40
0.4999999999999989
 40
1.0
 40
1.0
 40
1.0
 40
1.0
 10
49.96200258711144
 20
78.97737908997706
 30
0.0
 10
50.04925300624491
 20
78.8053084691237
 30
0.0
 10
50.15952798164107
 20
78.63723939606027
 30
0.0
 10
50.3891119565989
 20
78.32666910337043
 30
0.0
 10
50.51056207465954
 20
78.18295626670518
 30
0.0
 10
50.63545034540995
 20
78.05195998863346
 30
0.0
  0
SPLINE
  5
110
330
1F
100
AcDbEntity
  8
0
  6
Continuous
 62
     7
370
    25
100
AcDbSpline
210
0.0
220
0.0
230
1.0
 70
     8
 71
     3
 72
    10
 73
     6
 74
     0
 42
0.000000001
 43
0.00000001
 40
0.0
 40
0.0
 40
0.0
 40
0.0
 40
0.5
 40
0.5
 40
1.0
 40
1.0
 40
1.0
 40
1.0
 10
117.7754503454099
 20
155.1745209506259
 30
0.0
 10
117.5629140315536
 20
155.1745209506259
 30
0.0
 10
117.3529778598996
 20
155.2659335372561
 30
0.0
 10
117.0592707188883
 20
155.5706784031603
 30
0.0
 10
116.9754503454099
 20
155.7828333730689
 30
0.0
 10
116.9754503454099
 20
155.9937964313015
 30
0.0
  0
SPLINE
  5
111
330
1F
100
AcDbEntity
  8
0
  6
Continuous
 62
     7
370
    25
100
AcDbSpline
210
0.0
220
0.0
230
1.0
 70
     8
 71
     3
 72
    14
 73
    10
 74
     0
 42
0.000000001
 43
0.00000001
 40
0.0
 40
0.0
 40
0.0
 40
0.0
 40
0.25
 40
0.25
 40
0.5
 40
0.5
 40
0.75
 40
0.75
 40
1.0
 40
1.0
 40
1.0
 40
1.0
 10
116.9754503454099
 20
145.0144803829505
 30
0.0
 10
116.9754503454099
 20
144.8906135061613
 30
0.0
 10
116.9913094730375
 20
144.7663538293238
 30
0.0
 10
117.0546711185574
 20
144.5287454669179
 30
0.0
 10
117.1032608266068
 20
144.4119650821654
 30
0.0
 10
117.2355464313816
 20
144.2031625535564
 30
0.0
 10
117.3208712226422
 20
144.1086518499638
 30
0.0
 10
117.5277624709484
 20
143.9706950491615
 30
0.0
 10
117.6517304168384
 20
143.9287766035259
 30
0.0
 10
117.7754503454099
 20
143.9287766035259
 30
0.0
  0
SPLINE
  5
112
330
1F
100
AcDbEntity
  8
0
  6
Continuous
 62
     7
370
    25
100
AcDbSpline
210
0.0
220
0.0
230
1.0
 70
     8
 71
     3
 72
     8
 73
     4
 74
     0
 42
0.000000001
 43
0.00000001
 40
0.0
 40
0.0
 40
0.0
 40
0.0
 40
1.0
 40
1.0
 40
1.0
 40
1.0
 10
122.1474793663313
 20
159.290040046117
 30
0.0
 10
121.6964523976181
 20
158.4927294759292
 30
0.0
 10
121.2457585810945
 20
157.695231176272
 30
0.0
 10
120.7954503454099
 20
156.8975160511583
 30
0.0
  0
LINE
  5
113
330
1F
100
AcDbEntity
  8
0
  6
Continuous
 62
     7
370
    25
100
AcDbLine
 10
122.1474798591
 20
149.2512062736
 30
0.0
 11
122.1474798591
 21
159.2900403388
 31
0.0
  0
SPLINE
  5
114
330
1F
100
AcDbEntity
  8
0
  6
Continuous
 62
     7
370
    25
100
AcDbSpline
210
0.0
220
0.0
230
1.0
 70
     8
 71
     3
 72
     8
 73
     4
 74
     0
 42
0.000000001
 43
0.00000001
 40
0.0
 40
0.0
 40
0.0
 40
0.0
 40
1.0
 40
1.0
 40
1.0
 40
1.0
 10
120.7954503454099
 20
146.1956926965913
 30
0.0
 10
121.2396003564354
 20
147.217075927543
 30
0.0
 10
121.6906746666934
 20
148.2355604643113
 30
0.0
 10
122.1474793663313
 20
149.2512079513404
 30
0.0
  0
LINE
  5
115
330
1F
100
AcDbEntity
  8
0
  6
Continuous
 62
     7
370
    25
100
AcDbLine
 10
120.7954509379
 20
146.1956933685
 30
0.0
 11
120.7954509379
 21
156.8975173481
 31
0.0
  0
SPLINE
  5
116
330
1F
100
AcDbEntity
  8
0
  6
Continuous
 62
     7
370
    25
100
AcDbSpline
210
0.0
220
0.0
230
1.0
 70
     8
 71
     3
 72
    12
 73
     8
 74
     0
 42
0.000000001
 43
0.00000001
 40
0.0
 40
0.0
 40
0.0
 40
0.0
 40
0.5
 40
0.5
 40
0.75
 40
0.75
 40
1.0
 40
1.0
 40
1.0
 40
1.0
 10
127.8354503454099
 20
158.2689850112993
 30
0.0
 10
127.8354503454099
 20
158.5342544440657
 30
0.0
 10
127.7308436019235
 20
158.7967695497181
 30
0.0
 10
127.4541752501782
 20
159.0823071557554
 30
0.0
 10
127.3438099908262
 20
159.1586287726168
 30
0.0
 10
127.0997379422104
 20
159.2629709374569
 30
0.0
 10
126.9679854808787
 20
159.290040046117
 30
0.0
 10
126.8354503454099
 20
159.290040046117
 30
0.0
  0
SPLINE
  5
117
330
1F
100
AcDbEntity
  8
0
  6
Continuous
 62
     7
370
    25
100
AcDbSpline
210
0.0
220
0.0
230
1.0
 70
     8
 71
     3
 72
    16
 73
    12
 74
     0
 42
0.000000001
 43
0.00000001
 40
0.0
 40
0.0
 40
0.0
 40
0.0
 40
0.125
 40
0.125
 40
0.25
 40
0.25
 40
0.5
 40
0.5
 40
0.75
 40
0.75
 40
1.0
 40
1.0
 40
1.0
 40
1.0
 10
126.8354503454089
 20
149.2512079513404
 30
0.0
 10
126.9110880518202
 20
149.2512079513405
 30
0.0
 10
126.9874037162384
 20
149.2398629512057
 30
0.0
 10
127.1318144541305
 20
149.1972104005672
 30
0.0
 10
127.200260903239
 20
149.1662760758844
 30
0.0
 10
127.3951921558524
 20
149.0470197041169
 30
0.0
 10
127.5030333296334
 20
148.9368676904963
 30
0.0
 10
127.6717460778456
 20
148.6887316048383
 30
0.0
 10
127.7341104905692
 20
148.5483892808345
 30
0.0
 10
127.8154144150777
 20
148.2601175893457
 30
0.0
 10
127.8354503454099
 20
148.1093126163658
 30
0.0
 10
127.8354503454099
 20
147.9589427250204
 30
0.0
  0
LINE
  5
118
330
1F
100
AcDbEntity
  8
0
  6
Continuous
 62
     7
370
    25
100
AcDbLine
 10
127.8354505272
 20
147.9589440473
 30
0.0
 11
127.8354505272
 21
158.2689866968
 31
0.0
  0
LINE
  5
119
330
1F
100
AcDbEntity
  8
0
  6
Continuous
 62
     7
370
    25
100
AcDbLine
 10
126.8354503633
 20
159.2900403388
 30
0.0
 11
122.1474798591
 21
159.2900403388
 31
0.0
  0
LINE
  5
11A
330
1F
100
AcDbEntity
  8
0
  6
Continuous
 62
     7
370
    25
100
AcDbLine
 10
122.1474798591
 20
149.2512062736
 30
0.0
 11
126.8354503633
 21
149.2512062736
 31
0.0
  0
SPLINE
  5
11B
330
1F
100
AcDbEntity
  8
0
  6
Continuous
 62
     7
370
    25
100
AcDbSpline
210
0.0
220
0.0
230
1.0
 70
     8
 71
     3
 72
    14
 73
    10
 74
     0
 42
0.000000001
 43
0.00000001
 40
0.0
 40
0.0
 40
0.0
 40
0.0
 40
0.25
 40
0.25
 40
0.5
 40
0.5
 40
0.75
 40
0.75
 40
1.0
 40
1.0
 40
1.0
 40
1.0
 10
120.7954503454099
 20
155.9937964313015
 30
0.0
 10
120.7954503454099
 20
155.8874397375491
 30
0.0
 10
120.7750627892687
 20
155.781599249789
 30
0.0
 10
120.6964284438071
 20
155.5850343362524
 30
0.0
 10
120.6376970841685
 20
155.4938635939653
 30
0.0
 10
120.4910881785658
 20
155.3419525049337
 30
0.0
 10
120.4016828585393
 20
155.2798836681141
 30
0.0
 10
120.2077921259389
 20
155.1966156203555
 30
0.0
 10
120.101287136049
 20
155.1745209506258
 30
0.0
 10
119.9954503454097
 20
155.1745209506259
 30
0.0
  0
SPLINE
  5
11C
330
1F
100
AcDbEntity
  8
0
  6
Continuous
 62
     7
370
    25
100
AcDbSpline
210
0.0
220
0.0
230
1.0
 70
     8
 71
     3
 72
    12
 73
     8
 74
     0
 42
0.000000001
 43
0.00000001
 40
0.0
 40
0.0
 40
0.0
 40
0.0
 40
0.250000000000002
 40
0.250000000000002
 40
0.500000000000004
 40
0.500000000000004
 40
1.0
 40
1.0
 40
1.0
 40
1.0
 10
119.995450345412
 20
143.928776603526
 30
0.0
 10
120.1191512953918
 20
143.9287766035264
 30
0.0
 10
120.2432479076617
 20
143.9707702152592
 30
0.0
 10
120.4499030707481
 20
144.1085655419039
 30
0.0
 10
120.5349438374747
 20
144.2025391403687
 30
0.0
 10
120.7344224059478
 20
144.5173273465894
 30
0.0
 10
120.7954503454099
 20
144.7675663388166
 30
0.0
 10
120.7954503454099
 20
145.0144803829505
 30
0.0
  0
SPLINE
  5
11D
330
1F
100
AcDbEntity
  8
0
  6
Continuous
 62
     7
370
    25
100
AcDbSpline
210
0.0
220
0.0
230
1.0
 70
     8
 71
     3
 72
     8
 73
     4
 74
     0
 42
0.000000001
 43
0.00000001
 40
0.0
 40
0.0
 40
0.0
 40
0.0
 40
1.0
 40
1.0
 40
1.0
 40
1.0
 10
115.6234213244885
 20
149.2512079513404
 30
0.0
 10
116.0803476782881
 20
148.2352899816661
 30
0.0
 10
116.5315533200911
 20
147.2164941525749
 30
0.0
 10
116.9754503454099
 20
146.1956926965913
 30
0.0
  0
LINE
  5
11E
330
1F
100
AcDbEntity
  8
0
  6
Continuous
 62
     7
370
    25
100
AcDbLine
 10
116.9754507215
 20
146.1956933685
 30
0.0
 11
116.9754507215
 21
145.014482046
 31
0.0
  0
LINE
  5
11F
330
1F
100
AcDbEntity
  8
0
  6
Continuous
 62
     7
370
    25
100
AcDbLine
 10
117.7754512252
 20
143.9287759908
 30
0.0
 11
119.9954504342
 21
143.9287759908
 31
0.0
  0
LINE
  5
120
330
1F
100
AcDbEntity
  8
0
  6
Continuous
 62
     7
370
    25
100
AcDbLine
 10
120.7954509379
 20
145.014482046
 30
0.0
 11
120.7954509379
 21
146.1956933685
 31
0.0
  0
LINE
  5
121
330
1F
100
AcDbEntity
  8
0
  6
Continuous
 62
     7
370
    25
100
AcDbLine
 10
127.8354505272
 20
147.9589440473
 30
0.0
 11
127.8354505272
 21
141.6502468832
 31
0.0
  0
SPLINE
  5
122
330
1F
100
AcDbEntity
  8
0
  6
Continuous
 62
     7
370
    25
100
AcDbSpline
210
0.0
220
0.0
230
1.0
 70
     8
 71
     3
 72
     8
 73
     4
 74
     0
 42
0.000000001
 43
0.00000001
 40
0.0
 40
0.0
 40
0.0
 40
0.0
 40
1.0
 40
1.0
 40
1.0
 40
1.0
 10
116.9754503454099
 20
156.8975160511583
 30
0.0
 10
116.5251421097254
 20
157.695231176272
 30
0.0
 10
116.0744482932018
 20
158.4927294759292
 30
0.0
 10
115.6234213244885
 20
159.290040046117
 30
0.0
  0
LINE
  5
123
330
1F
100
AcDbEntity
  8
0
  6
Continuous
 62
     7
370
    25
100
AcDbLine
 10
116.9754507215
 20
146.1956933685
 30
0.0
 11
116.9754507215
 21
156.8975173481
 31
0.0
  0
LINE
  5
124
330
1F
100
AcDbEntity
  8
0
  6
Continuous
 62
     7
370
    25
100
AcDbLine
 10
119.9954504342
 20
155.1745221563
 30
0.0
 11
117.7754512252
 21
155.1745221563
 31
0.0
  0
ARC
  5
125
330
1F
100
AcDbEntity
  8
0
  6
Continuous
 62
     7
370
    25
100
AcDbCircle
 10
107.8866629608
 20
142.8693820955
 30
0.0
 40
11.44675364824965
100
AcDbArc
 50
78.0501056154
 51
102.2889010167
  0
SPLINE
  5
126
330
1F
100
AcDbEntity
  8
0
  6
Continuous
 62
     7
370
    25
100
AcDbSpline
210
0.0
220
0.0
230
1.0
 70
     8
 71
     3
 72
    17
 73
    13
 74
     0
 42
0.000000001
 43
0.00000001
 40
0.0
 40
0.0
 40
0.0
 40
0.0
 40
0.0671877091676475
 40
0.1738476413283213
 40
0.2809374819530274
 40
0.3883828660156965
 40
0.4952991661321636
 40
0.601548826689401
 40
0.7082308363085201
 40
0.8160822678002626
 40
0.924171508545054
 40
1.0
 40
1.0
 40
1.0
 40
1.0
 10
166.2037929715048
 20
93.24922455329889
 30
0.0
 10
166.2058562813804
 20
93.24903102307196
 30
0.0
 10
166.2111950786049
 20
93.2485302652118
 30
0.0
 10
165.9166646034393
 20
93.27866928215805
 30
0.0
 10
165.3886630503366
 20
93.31882340360546
 30
0.0
 10
164.6737446578867
 20
93.34618766372793
 30
0.0
 10
163.8688601133794
 20
93.33878547863844
 30
0.0
 10
163.0638036766107
 20
93.29152371420592
 30
0.0
 10
162.3419185244684
 20
93.21528943127241
 30
0.0
 10
161.7926403248267
 20
93.1364156161984
 30
0.0
 10
161.4708179677729
 20
93.08143540107366
 30
0.0
 10
161.4654852270241
 20
93.08040682846547
 30
0.0
 10
161.463286560906
 20
93.07998275239461
 30
0.0
  0
SPLINE
  5
127
330
1F
100
AcDbEntity
  8
0
  6
Continuous
 62
     7
370
    25
100
AcDbSpline
210
0.0
220
0.0
230
1.0
 70
     8
 71
     3
 72
    18
 73
    14
 74
     0
 42
0.000000001
 43
0.00000001
 40
0.0
 40
0.0
 40
0.0
 40
0.0
 40
0.0199040357705338
 40
0.1256676562251325
 40
0.2317037299310791
 40
0.3391517404534988
 40
0.4473408771415421
 40
0.5547334104613348
 40
0.6610752994826298
 40
0.7675148562455989
 40
0.8747367642988625
 40
0.9821189253842675
 40
1.0
 40
1.0
 40
1.0
 40
1.0
 10
161.4559328378568
 20
127.5218058921813
 30
0.0
 10
161.4494905146252
 20
127.5229275135236
 30
0.0
 10
161.4088157655188
 20
127.5300090685849
 30
0.0
 10
161.5944905907623
 20
127.4971361880348
 30
0.0
 10
162.0079211748103
 20
127.4312013357827
 30
0.0
 10
162.6508729886631
 20
127.3485245780581
 30
0.0
 10
163.4253567410314
 20
127.2826648638499
 30
0.0
 10
164.2479050932487
 20
127.253244651792
 30
0.0
 10
165.0175980911475
 20
127.2635204289929
 30
0.0
 10
165.6612203319899
 20
127.3003780382931
 30
0.0
 10
166.0783195332464
 20
127.3376210673461
 30
0.0
 10
166.2643406388783
 20
127.3576022758181
 30
0.0
 10
166.2226162033361
 20
127.3532602720248
 30
0.0
 10
166.2166601241956
 20
127.3526404597282
 30
0.0
  0
SPLINE
  5
128
330
1F
100
AcDbEntity
  8
0
  6
Continuous
 62
     7
370
    25
100
AcDbSpline
210
0.0
220
0.0
230
1.0
 70
    11
 71
     3
 72
    66
 73
    62
 74
     0
 42
0.000000001
 43
0.00000001
 40
0.0
 40
0.0
 40
0.0
 40
0.0
 40
0.0312500000000004
 40
0.0312500000000004
 40
0.0625000000000007
 40
0.0625000000000007
 40
0.0937500000000011
 40
0.0937500000000011
 40
0.1250000000000015
 40
0.1250000000000015
 40
0.1562500000000018
 40
0.1562500000000018
 40
0.1875000000000022
 40
0.1875000000000022
 40
0.2187500000000025
 40
0.2187500000000025
 40
0.2500000000000028
 40
0.2500000000000028
 40
0.2812500000000032
 40
0.2812500000000032
 40
0.3125000000000036
 40
0.3125000000000036
 40
0.3437500000000039
 40
0.3437500000000039
 40
0.3750000000000043
 40
0.3750000000000043
 40
0.4062500000000047
 40
0.4062500000000047
 40
0.4375000000000051
 40
0.4375000000000051
 40
0.4687500000000054
 40
0.4687500000000054
 40
0.5000000000000058
 40
0.5000000000000058
 40
0.5625000000000067
 40
0.5625000000000067
 40
0.5937500000000066
 40
0.5937500000000066
 40
0.6250000000000064
 40
0.6250000000000064
 40
0.6562500000000064
 40
0.6562500000000064
 40
0.6875000000000063
 40
0.6875000000000063
 40
0.7187500000000062
 40
0.7187500000000062
 40
0.7500000000000061
 40
0.7500000000000061
 40
0.7812500000000061
 40
0.7812500000000061
 40
0.812500000000006
 40
0.812500000000006
 40
0.8437500000000059
 40
0.8437500000000059
 40
0.8750000000000059
 40
0.8750000000000059
 40
0.9375000000000029
 40
0.9375000000000029
 40
0.9687500000000016
 40
0.9687500000000016
 40
1.0
 40
1.0
 40
1.0
 40
1.0
 10
162.1633211295187
 20
112.02186764772
 30
0.0
 10
162.0499415090132
 20
111.9117474671115
 30
0.0
 10
161.9491773840571
 20
111.7923315263365
 30
0.0
 10
161.7718570051321
 20
111.5355305196066
 30
0.0
 10
161.6946693603317
 20
111.3964977052444
 30
0.0
 10
161.5699622170835
 20
111.1078814592464
 30
0.0
 10
161.5222991984763
 20
110.9590066549784
 30
0.0
 10
161.4562047745247
 20
110.6521335379813
 30
0.0
 10
161.4380783395681
 20
110.4930991658586
 30
0.0
 10
161.4333646353457
 20
110.1795412894024
 30
0.0
 10
161.4462364429785
 20
110.0234124049487
 30
0.0
 10
161.5031731282727
 20
109.7124846566264
 30
0.0
 10
161.5469969909338
 20
109.5603720135159
 30
0.0
 10
161.6622921524621
 20
109.2698013336671
 30
0.0
 10
161.7347128289331
 20
109.1290533418223
 30
0.0
 10
161.9057219466343
 20
108.8646488800681
 30
0.0
 10
162.0029299854993
 20
108.7425986553653
 30
0.0
 10
162.2202645562465
 20
108.518232714559
 30
0.0
 10
162.3417535863009
 20
108.4152256108938
 30
0.0
 10
162.5988525260329
 20
108.2374183299031
 30
0.0
 10
162.7350730990079
 20
108.1615923276523
 30
0.0
 10
163.0231681327399
 20
108.0364289967339
 30
0.0
 10
163.1744555652888
 20
107.9877804544661
 30
0.0
 10
163.4798235620041
 20
107.9216033835693
 30
0.0
 10
163.6355407295212
 20
107.9033289645561
 30
0.0
 10
163.9528027810894
 20
107.8978714363646
 30
0.0
 10
164.1091208284521
 20
107.910762408936
 30
0.0
 10
164.4173054830883
 20
107.9665853833663
 30
0.0
 10
164.5708105260121
 20
108.0102564903396
 30
0.0
 10
164.8637564617457
 20
108.1259891399913
 30
0.0
 10
165.0029952865881
 20
108.1975045327837
 30
0.0
 10
165.2671370600528
 20
108.3676426409873
 30
0.0
 10
165.3923075267363
 20
108.4670180812857
 30
0.0
 10
165.7298545497796
 20
108.7938135199795
 30
0.0
 10
165.9131144798077
 20
109.0587963310963
 30
0.0
 10
166.0997348815906
 20
109.489389826869
 30
0.0
 10
166.1483634177007
 20
109.6404122919945
 30
0.0
 10
166.2148882823187
 20
109.9492160773282
 30
0.0
 10
166.2326178665998
 20
110.1048360134165
 30
0.0
 10
166.2376621101832
 20
110.4184632445017
 30
0.0
 10
166.224488821071
 20
110.5780017285048
 30
0.0
 10
166.1679369384667
 20
110.8868965569646
 30
0.0
 10
166.1248715172998
 20
111.0373875838736
 30
0.0
 10
166.0088420163172
 20
111.3303892848914
 30
0.0
 10
165.9358805881122
 20
111.4718538589166
 30
0.0
 10
165.7660124181964
 20
111.7346106109773
 30
0.0
 10
165.6682690716942
 20
111.857767155614
 30
0.0
 10
165.4476294087297
 20
112.0851759519031
 30
0.0
 10
165.32790783803
 20
112.1862653720096
 30
0.0
 10
165.0702917702558
 20
112.364141541533
 30
0.0
 10
164.9306888274079
 20
112.441558556404
 30
0.0
 10
164.6416683691737
 20
112.5662510955221
 30
0.0
 10
164.4925642357838
 20
112.6138801081656
 30
0.0
 10
164.1852002632586
 20
112.6798208232805
 30
0.0
 10
164.0262491595105
 20
112.6977724336336
 30
0.0
 10
163.5563290801704
 20
112.7044614029234
 30
0.0
 10
163.2396882184145
 20
112.6459872234118
 30
0.0
 10
162.8045258047434
 20
112.4731589348849
 30
0.0
 10
162.6639603509534
 20
112.4008187669441
 30
0.0
 10
162.3995305576411
 20
112.2297354134026
 30
0.0
 10
162.2767007500242
 20
112.1319878283286
 30
0.0
 10
162.1633211295187
 20
112.02186764772
 30
0.0
  0
LINE
  5
129
330
1F
100
AcDbEntity
  8
0
  6
Continuous
 62
     7
370
    25
100
AcDbLine
 10
50.6354494215
 20
78.0502468892
 30
0.0
 11
50.6354494215
 21
78.0519605227
 31
0.0
  0
LINE
  5
12A
330
1F
100
AcDbEntity
  8
0
  6
Continuous
 62
     7
370
    25
100
AcDbLine
 10
50.6354494215
 20
142.5502434917
 30
0.0
 11
50.6354494215
 21
142.5485298582
 31
0.0
  0
DIMENSION
  5
12B
330
1F
100
AcDbEntity
  8
VERMASSUNG
100
AcDbDimension
  2
_D
 10
283.9971414982
 20
131.1502451905
 30
0.0
 11
283.9971414982
 21
110.3002451905
 31
0.0
 70
   160
  1
%%c<>
 71
     2
 42
-1.0
  3
SLDDIMSTYLE0
100
AcDbAlignedDimension
 13
255.5079508554
 23
89.4502451905
 33
0.0
 14
255.5079508554
 24
131.1502451905
 34
0.0
 50
90.0
100
AcDbRotatedDimension
  0
DIMENSION
  5
137
330
1F
100
AcDbEntity
  8
VERMASSUNG
100
AcDbDimension
  2
_D_1
 10
274.8854503454
 20
128.9245031477
 30
0.0
 11
274.8854503454
 21
110.3002451905
 31
0.0
 70
   160
  1
%%c<>
 71
     2
 42
-1.0
  3
SLDDIMSTYLE1
100
AcDbAlignedDimension
 13
130.6735137845
 23
91.6759872332
 33
0.0
 14
130.6735137845
 24
128.9245031477
 34
0.0
 50
90.0
100
AcDbRotatedDimension
  0
DIMENSION
  5
143
330
1F
100
AcDbEntity
  8
VERMASSUNG
100
AcDbDimension
  2
_D_2
 10
38.7349809844
 20
60.3002451905
 30
0.0
 11
38.7349809844
 21
110.3002451905
 31
0.0
 70
   160
  1
HSK A %%c<>
 71
     2
 42
-1.0
  3
SLDDIMSTYLE0
100
AcDbAlignedDimension
 13
99.3854503454
 23
160.3002451905
 33
0.0
 14
99.3854503454
 24
60.3002451905
 34
0.0
 50
90.0
100
AcDbRotatedDimension
  0
DIMENSION
  5
14F
330
1F
100
AcDbEntity
  8
VERMASSUNG
100
AcDbDimension
  2
_D_3
 10
258.8854503454
 20
170.3002451905
 30
0.0
 11
178.8854503454
 21
170.3002451905
 31
0.0
 70
   160
  1
<>
 71
     2
 42
-1.0
  3
SLDDIMSTYLE0
100
AcDbAlignedDimension
 13
98.8854503454
 23
159.8002451905
 33
0.0
 14
258.8854503454
 24
125.3002451905
 34
0.0
100
AcDbRotatedDimension
  0
DIMENSION
  5
159
330
1F
100
AcDbEntity
  8
VERMASSUNG
100
AcDbDimension
  2
_D_4
 10
48.9854503454
 20
179.3636867867
 30
0.0
 11
153.9354503454
 21
179.3636867867
 31
0.0
 70
   160
  1
<>
 71
     2
 42
-1.0
  3
SLDDIMSTYLE0
100
AcDbAlignedDimension
 13
258.8854503454
 23
125.3002451905
 33
0.0
 14
48.9854503454
 24
140.802914933
 34
0.0
100
AcDbRotatedDimension
  0
LINE
  5
163
330
1F
100
AcDbEntity
  8
VERMASSUNG
  6
CENTERX2
370
    18
100
AcDbLine
 10
264.9551815298
 20
110.3002451905
 30
0.0
 11
43.8578933142
 21
110.3002451905
 31
0.0
  0
LINE
  5
164
330
1F
100
AcDbEntity
  8
0
  6
Continuous
 62
     7
370
    25
100
AcDbLine
 10
266.8298547264
 20
13.6779659167
 30
0.0
 11
268.7583733421
 21
12.5646558174
 31
0.0
  0
LINE
  5
165
330
1F
100
AcDbEntity
  8
0
  6
Continuous
 62
     7
370
    25
100
AcDbLine
 10
279.182526384
 20
30.6217743694
 30
0.0
 11
277.2540077683
 21
31.7350844687
 31
0.0
  0
LINE
  5
166
330
1F
100
AcDbEntity
  8
0
  6
Continuous
 62
     7
370
    25
100
AcDbLine
 10
272.040733157
 20
31.218271122
 30
0.0
 11
271.7579368949
 21
31.0549632349
 31
0.0
  0
LINE
  5
167
330
1F
100
AcDbEntity
  8
0
  6
Continuous
 62
     7
370
    25
100
AcDbLine
 10
264.6703433928
 20
18.7775607957
 30
0.0
 11
264.6703427342
 21
18.4509977255
 31
0.0
  0
LINE
  5
168
330
1F
100
AcDbEntity
  8
0
  6
Continuous
 62
     7
370
    25
100
AcDbLine
 10
272.6991557029
 20
31.5644717098
 30
0.0
 11
271.8519987795
 21
32.0535249919
 31
0.0
  0
LINE
  5
169
330
1F
100
AcDbEntity
  8
0
  6
Continuous
 62
     7
370
    25
100
AcDbLine
 10
263.8526487628
 20
18.1967432225
 30
0.0
 11
264.6998056862
 21
17.7076899404
 31
0.0
  0
SPLINE
  5
16A
330
1F
100
AcDbEntity
  8
0
  6
Continuous
 62
     7
370
    25
100
AcDbSpline
210
0.0
220
0.0
230
1.0
 70
     8
 71
     3
 72
    12
 73
     8
 74
     0
 42
0.000000001
 43
0.00000001
 40
0.0
 40
0.0
 40
0.0
 40
0.0
 40
0.2424950729844597
 40
0.4884473418798191
 40
0.7344005032748138
 40
0.9803203907307285
 40
1.0
 40
1.0
 40
1.0
 40
1.0
 10
229.0268000344957
 20
36.79291271621884
 30
0.0
 10
231.8817640365254
 20
35.3714500605785
 30
0.0
 10
237.632394599
 20
32.50825928649854
 30
0.0
 10
246.1970387430313
 20
28.0258000518034
 30
0.0
 10
254.726663137458
 20
23.37745213863829
 30
0.0
 10
260.6098777074849
 20
20.09400379261508
 30
0.0
 10
263.6259338766509
 20
18.32311317661294
 30
0.0
 10
263.849408723837
 20
18.19189893934499
 30
0.0
  0
SPLINE
  5
16B
330
1F
100
AcDbEntity
  8
0
  6
Continuous
 62
     7
370
    25
100
AcDbSpline
210
0.0
220
0.0
230
1.0
 70
     8
 71
     3
 72
    12
 73
     8
 74
     0
 42
0.000000001
 43
0.00000001
 40
0.0
 40
0.0
 40
0.0
 40
0.0
 40
0.1739284802973092
 40
0.4197119115234769
 40
0.6653582061220499
 40
0.9108342519508379
 40
1.0
 40
1.0
 40
1.0
 40
1.0
 10
271.8603725021413
 20
32.06756827638815
 30
0.0
 10
269.8773999965801
 20
33.2137048381388
 30
0.0
 10
265.0922309467218
 20
35.97948055455408
 30
0.0
 10
257.5985979175001
 20
40.51922456978818
 30
0.0
 10
249.3798634736348
 20
45.66989786585852
 30
0.0
 10
242.9617794294258
 20
49.8077858510446
 30
0.0
 10
239.3156141459659
 20
52.26922153039536
 30
0.0
 10
238.3440885895102
 20
52.92507431877797
 30
0.0
  0
LINE
  5
16C
330
1F
100
AcDbEntity
  8
0
  6
Continuous
 62
     7
370
    25
100
AcDbLine
 10
209.9394070417
 20
29.6908178732
 30
0.0
 11
215.6803968975
 21
26.3766149742
 31
0.0
  0
LINE
  5
16D
330
1F
100
AcDbEntity
  8
0
  6
Continuous
 62
     7
370
    25
100
AcDbLine
 10
237.1440897749
 20
71.7193516861
 30
0.0
 11
234.9373746089
 21
72.9932612355
 31
0.0
  0
SPLINE
  5
16E
330
1F
100
AcDbEntity
  8
0
  6
Continuous
 62
     7
370
    25
100
AcDbSpline
210
0.0
220
0.0
230
1.0
 70
     8
 71
     3
 72
    10
 73
     6
 74
     0
 42
0.000000001
 43
0.00000001
 40
0.0
 40
0.0
 40
0.0
 40
0.0
 40
0.2877671293385511
 40
0.7914668933538241
 40
1.0
 40
1.0
 40
1.0
 40
1.0
 10
204.9225034543001
 20
44.59255961367803
 30
0.0
 10
204.878391982296
 20
44.26131590448552
 30
0.0
 10
204.7570689882882
 20
43.35027220724254
 30
0.0
 10
204.6972857631279
 20
42.2375229204591
 30
0.0
 10
204.689715040597
 20
41.46513515894481
 30
0.0
 10
204.687498425282
 20
41.23898943318734
 30
0.0
  0
SPLINE
  5
16F
330
1F
100
AcDbEntity
  8
0
  6
Continuous
 62
     7
370
    25
100
AcDbSpline
210
0.0
220
0.0
230
1.0
 70
     8
 71
     3
 72
     9
 73
     5
 74
     0
 42
0.000000001
 43
0.00000001
 40
0.0
 40
0.0
 40
0.0
 40
0.0
 40
0.5696751866024141
 40
1.0
 40
1.0
 40
1.0
 40
1.0
 10
222.6295946956579
 20
71.9309564075361
 30
0.0
 10
222.4006447952327
 20
71.80980010670123
 30
0.0
 10
221.9987492838787
 20
71.59712399988774
 30
0.0
 10
221.5984187296908
 20
71.32988866533492
 30
0.0
 10
221.4261465586626
 20
71.21489066986022
 30
0.0
  0
SPLINE
  5
170
330
1F
100
AcDbEntity
  8
0
  6
Continuous
 62
     7
370
    25
100
AcDbSpline
210
0.0
220
0.0
230
1.0
 70
     8
 71
     3
 72
     9
 73
     5
 74
     0
 42
0.000000001
 43
0.00000001
 40
0.0
 40
0.0
 40
0.0
 40
0.0
 40
0.4109279501872297
 40
1.0
 40
1.0
 40
1.0
 40
1.0
 10
204.687498425282
 20
41.23898943318734
 30
0.0
 10
204.6896020021545
 20
40.95404874471208
 30
0.0
 10
204.6947210914536
 20
40.2606408410992
 30
0.0
 10
204.7549122209302
 20
39.60139283048672
 30
0.0
 10
204.7903691329515
 20
39.21304825354023
 30
0.0
  0
LINE
  5
171
330
1F
100
AcDbEntity
  8
0
  6
Continuous
 62
     7
370
    25
100
AcDbLine
 10
223.205352524
 20
72.1790959232
 30
0.0
 11
213.8700178738
 21
76.830216385
 31
0.0
  0
LINE
  5
172
330
1F
100
AcDbEntity
  8
0
  6
Continuous
 62
     7
370
    25
100
AcDbLine
 10
196.0812950862
 20
46.0159063734
 30
0.0
 11
204.7095840839
 21
40.3026119129
 31
0.0
  0
SPLINE
  5
173
330
1F
100
AcDbEntity
  8
0
  6
Continuous
 62
     7
370
    25
100
AcDbSpline
210
0.0
220
0.0
230
1.0
 70
     8
 71
     3
 72
    20
 73
    16
 74
     0
 42
0.000000001
 43
0.00000001
 40
0.0
 40
0.0
 40
0.0
 40
0.0
 40
0.0696283253804658
 40
0.1527619956886221
 40
0.2362203769791947
 40
0.3199403947628521
 40
0.4038435404646005
 40
0.4878569499560553
 40
0.5719236014974578
 40
0.6560005342661142
 40
0.7400614190380429
 40
0.8240959700411082
 40
0.9081005665208728
 40
0.9920758188081941
 40
1.0
 40
1.0
 40
1.0
 40
1.0
 10
223.4507387200068
 20
22.92461113054688
 30
0.0
 10
223.7999123142892
 20
22.89992036814761
 30
0.0
 10
224.5659863913676
 20
22.84574973976359
 30
0.0
 10
225.8057256416768
 20
22.93766693427395
 30
0.0
 10
227.1501421955481
 20
23.16461407306116
 30
0.0
 10
228.5281318490153
 20
23.53955449869078
 30
0.0
 10
229.9288044518466
 20
24.05505067709077
 30
0.0
 10
231.3433445470887
 20
24.70903875764627
 30
0.0
 10
232.7622928099236
 20
25.49672680740674
 30
0.0
 10
234.1766374691095
 20
26.4126021634364
 30
0.0
 10
235.5769225282827
 20
27.45131364845367
 30
0.0
 10
236.9561875513105
 20
28.60286097641804
 30
0.0
 10
238.2992923740997
 20
29.8715402093354
 30
0.0
 10
239.2233070037043
 20
30.80284924950717
 30
0.0
 10
239.6821658915555
 20
31.33347193575765
 30
0.0
 10
239.7217317608014
 20
31.37922575763825
 30
0.0
  0
SPLINE
  5
174
330
1F
100
AcDbEntity
  8
0
  6
Continuous
 62
     7
370
    25
100
AcDbSpline
210
0.0
220
0.0
230
1.0
 70
     8
 71
     3
 72
    11
 73
     7
 74
     0
 42
0.000000001
 43
0.00000001
 40
0.0
 40
0.0
 40
0.0
 40
0.0
 40
0.0073774130515321
 40
0.3612151279650601
 40
0.7151828732126793
 40
1.0
 40
1.0
 40
1.0
 40
1.0
 10
248.3696045550954
 20
46.35027805131824
 30
0.0
 10
248.374019776801
 20
46.36290085729051
 30
0.0
 10
248.5901991966403
 20
46.98094249908327
 30
0.0
 10
248.9227408683076
 20
48.20216395765056
 30
0.0
 10
249.3405897797728
 20
49.88677918111801
 30
0.0
 10
249.517147410888
 20
50.94793959927506
 30
0.0
 10
249.5958697466979
 20
51.42108270987676
 30
0.0
  0
LINE
  5
175
330
1F
100
AcDbEntity
  8
0
  6
Continuous
 62
     7
370
    25
100
AcDbLine
 10
217.9869997446
 20
25.0450414939
 30
0.0
 11
219.6444476114
 21
24.088217207
 31
0.0
  0
SPLINE
  5
176
330
1F
100
AcDbEntity
  8
0
  6
Continuous
 62
     7
370
    25
100
AcDbSpline
210
0.0
220
0.0
230
1.0
 70
     8
 71
     3
 72
    10
 73
     6
 74
     0
 42
0.000000001
 43
0.00000001
 40
0.0
 40
0.0
 40
0.0
 40
0.0
 40
0.028148475011432
 40
0.6719752357242176
 40
1.0
 40
1.0
 40
1.0
 40
1.0
 10
247.2544601881364
 20
65.09222835959795
 30
0.0
 10
247.2441102532565
 20
65.1072233587794
 30
0.0
 10
246.9970311511812
 20
65.46519188480192
 30
0.0
 10
246.5629540440704
 20
65.92034586463505
 30
0.0
 10
246.1095976634359
 20
66.31423446299934
 30
0.0
 10
245.9565782812907
 20
66.44718194654716
 30
0.0
  0
SPLINE
  5
177
330
1F
100
AcDbEntity
  8
0
  6
Continuous
 62
     7
370
    25
100
AcDbSpline
210
0.0
220
0.0
230
1.0
 70
     8
 71
     3
 72
    12
 73
     8
 74
     0
 42
0.000000001
 43
0.00000001
 40
0.0
 40
0.0
 40
0.0
 40
0.0
 40
0.1180490526010331
 40
0.3415715706442001
 40
0.5648880326714045
 40
0.7876618717436215
 40
0.9999999999999999
 40
0.9999999999999999
 40
0.9999999999999999
 40
0.9999999999999999
 10
249.6185915078568
 20
59.5823308693908
 30
0.0
 10
249.5659198537072
 20
59.83564299827486
 30
0.0
 10
249.4135159229692
 20
60.56859442668302
 30
0.0
 10
249.0758870070533
 20
61.7129176449746
 30
0.0
 10
248.5687516070898
 20
62.97190951355716
 30
0.0
 10
247.9702562325068
 20
64.1130177234819
 30
0.0
 10
247.4892130954436
 20
64.77108584211364
 30
0.0
 10
247.2544601881364
 20
65.09222835959795
 30
0.0
  0
SPLINE
  5
178
330
1F
100
AcDbEntity
  8
0
  6
Continuous
 62
     7
370
    25
100
AcDbSpline
210
0.0
220
0.0
230
1.0
 70
     8
 71
     3
 72
    28
 73
    24
 74
     0
 42
0.000000001
 43
0.00000001
 40
0.0
 40
0.0
 40
0.0
 40
0.0
 40
0.0173646859913571
 40
0.0666529697132405
 40
0.116022427525708
 40
0.1657775298981347
 40
0.2161025423756545
 40
0.2670303082661907
 40
0.3184683026004565
 40
0.3702610478330405
 40
0.4222524658896515
 40
0.4743219123752864
 40
0.5263766481100202
 40
0.5783840758737929
 40
0.6303339792540638
 40
0.6822286908839886
 40
0.734077400466319
 40
0.7858927912084067
 40
0.8376893382521449
 40
0.8894823799690259
 40
0.9412855244705658
 40
0.9931116107064701
 40
1.0
 40
1.0
 40
1.0
 40
1.0
 10
214.0358439907418
 20
76.72413811257904
 30
0.0
 10
213.9325418426019
 20
76.7850407616395
 30
0.0
 10
213.5360247414746
 20
77.01881074891733
 30
0.0
 10
212.768862169838
 20
77.28216012208155
 30
0.0
 10
211.7486783370194
 20
77.50955935250167
 30
0.0
 10
210.6698312060376
 20
77.58324156036876
 30
0.0
 10
209.545542556142
 20
77.51422999622372
 30
0.0
 10
208.3819198333372
 20
77.29852970408584
 30
0.0
 10
207.1893408797634
 20
76.93760105662763
 30
0.0
 10
205.9790568450692
 20
76.43388644566659
 30
0.0
 10
204.763108333238
 20
75.79234730452204
 30
0.0
 10
203.5533994880882
 20
75.01976120613533
 30
0.0
 10
202.361196130152
 20
74.12424312347562
 30
0.0
 10
201.1970139407081
 20
73.11480538179882
 30
0.0
 10
200.0706568884159
 20
72.00101786662246
 30
0.0
 10
198.9914570722058
 20
70.79309062366647
 30
0.0
 10
197.9684205753663
 20
69.50182950915112
 30
0.0
 10
197.0098589521137
 20
68.1386093029572
 30
0.0
 10
196.1246232999746
 20
66.71526978657533
 30
0.0
 10
195.3172979301241
 20
65.24421381123479
 30
0.0
 10
194.6059229678962
 20
63.73773258013962
 30
0.0
 10
194.1436374739383
 20
62.65197194076588
 30
0.0
 10
193.9453654338913
 20
62.07252364918106
 30
0.0
 10
193.9221041344323
 20
62.00454270628895
 30
0.0
  0
LINE
  5
179
330
1F
100
AcDbEntity
  8
0
  6
Continuous
 62
     7
370
    25
100
AcDbLine
 10
194.3060052895
 20
59.6717280532
 30
0.0
 11
198.0858913976
 21
57.4896462499
 31
0.0
  0
LINE
  5
17A
330
1F
100
AcDbEntity
  8
0
  6
Continuous
 62
     7
370
    25
100
AcDbLine
 10
193.8005664528
 20
61.4413749348
 30
0.0
 11
193.8005664528
 21
60.7888699917
 31
0.0
  0
LINE
  5
17B
330
1F
100
AcDbEntity
  8
0
  6
Continuous
 62
     7
370
    25
100
AcDbLine
 10
193.8005664528
 20
49.2830820628
 30
0.0
 11
193.8005664528
 21
48.6305771198
 31
0.0
  0
SPLINE
  5
17C
330
1F
100
AcDbEntity
  8
0
  6
Continuous
 62
     7
370
    25
100
AcDbSpline
210
0.0
220
0.0
230
1.0
 70
     8
 71
     3
 72
    10
 73
     6
 74
     0
 42
0.000000001
 43
0.00000001
 40
0.0
 40
0.0
 40
0.0
 40
0.0
 40
0.3295006286484303
 40
0.6892241807213073
 40
1.0
 40
1.0
 40
1.0
 40
1.0
 10
193.9328021899644
 20
48.29503341824741
 30
0.0
 10
194.1155573088964
 20
48.01363994957477
 30
0.0
 10
194.497830470666
 20
47.42504264187995
 30
0.0
 10
195.1721577214674
 20
46.69635154027632
 30
0.0
 10
195.6949394981997
 20
46.30580064558485
 30
0.0
 10
195.9372483532259
 20
46.12478067829821
 30
0.0
  0
SPLINE
  5
17D
330
1F
100
AcDbEntity
  8
0
  6
Continuous
 62
     7
370
    25
100
AcDbSpline
210
0.0
220
0.0
230
1.0
 70
     8
 71
     3
 72
     9
 73
     5
 74
     0
 42
0.000000001
 43
0.00000001
 40
0.0
 40
0.0
 40
0.0
 40
0.0
 40
0.3544518289669109
 40
1.0
 40
1.0
 40
1.0
 40
1.0
 10
193.8468331557144
 20
48.43079969131495
 30
0.0
 10
193.855774651217
 20
48.41356765910609
 30
0.0
 10
193.8810009154702
 20
48.3649516532046
 30
0.0
 10
193.9124805618313
 20
48.32246232582545
 30
0.0
 10
193.9328021899644
 20
48.29503341824741
 30
0.0
  0
LINE
  5
17E
330
1F
100
AcDbEntity
  8
0
  6
Continuous
 62
     7
370
    25
100
AcDbLine
 10
285.0074674731
 20
23.6781150932
 30
0.0
 11
284.9466653758
 21
23.4313008372
 31
0.0
  0
LINE
  5
17F
330
1F
100
AcDbEntity
  8
0
  6
Continuous
 62
     7
370
    25
100
AcDbLine
 10
284.9466653758
 20
23.4313008372
 30
0.0
 11
284.6733641366
 21
22.8332797836
 31
0.0
  0
LINE
  5
180
330
1F
100
AcDbEntity
  8
0
  6
Continuous
 62
     7
370
    25
100
AcDbLine
 10
284.6733641366
 20
22.8332797836
 30
0.0
 11
284.6203157423
 21
22.6221509476
 31
0.0
  0
SPLINE
  5
181
330
1F
100
AcDbEntity
  8
0
  6
Continuous
 62
     7
370
    25
100
AcDbSpline
210
0.0
220
0.0
230
1.0
 70
     8
 71
     3
 72
     9
 73
     5
 74
     0
 42
0.000000001
 43
0.00000001
 40
0.0
 40
0.0
 40
0.0
 40
0.0
 40
0.5000512198476281
 40
1.0
 40
1.0
 40
1.0
 40
1.0
 10
284.6203157422908
 20
22.62215094759762
 30
0.0
 10
284.5918438738024
 20
22.28666162346566
 30
0.0
 10
284.5349059695274
 20
21.61575170300954
 30
0.0
 10
284.4211120735227
 20
20.97766439504913
 30
0.0
 10
284.3642209540264
 20
20.65865342380362
 30
0.0
  0
LINE
  5
182
330
1F
100
AcDbEntity
  8
0
  6
Continuous
 62
     7
370
    25
100
AcDbLine
 10
284.3831672795
 20
20.6083193062
 30
0.0
 11
284.364220954
 21
20.6586534238
 31
0.0
  0
LINE
  5
183
330
1F
100
AcDbEntity
  8
0
  6
Continuous
 62
     7
370
    25
100
AcDbLine
 10
284.6203894993
 20
20.9297224573
 30
0.0
 11
284.3831672795
 21
20.6083193062
 31
0.0
  0
LINE
  5
184
330
1F
100
AcDbEntity
  8
0
  6
Continuous
 62
     7
370
    25
100
AcDbLine
 10
284.6414247279
 20
20.8716385877
 30
0.0
 11
284.6203894993
 21
20.9297224573
 31
0.0
  0
ARC
  5
185
330
1F
100
AcDbEntity
  8
0
  6
Continuous
 62
     7
370
    25
100
AcDbCircle
 10
267.767412533
 20
25.1596758288
 30
0.0
 40
17.41032885779608
100
AcDbArc
 50
320.9118997942
 51
345.7417576997
  0
LINE
  5
186
330
1F
100
AcDbEntity
  8
0
  6
Continuous
 62
     7
370
    25
100
AcDbLine
 10
281.2809158969
 20
14.1822090095
 30
0.0
 11
281.2025919059
 21
14.126253536
 31
0.0
  0
LINE
  5
187
330
1F
100
AcDbEntity
  8
0
  6
Continuous
 62
     7
370
    25
100
AcDbLine
 10
281.2025919059
 20
14.126253536
 30
0.0
 11
281.2450538679
 21
14.3615894424
 31
0.0
  0
LINE
  5
188
330
1F
100
AcDbEntity
  8
0
  6
Continuous
 62
     7
370
    25
100
AcDbLine
 10
281.2450538679
 20
14.3615894424
 30
0.0
 11
281.1769794636
 21
14.3141296002
 31
0.0
  0
SPLINE
  5
189
330
1F
100
AcDbEntity
  8
0
  6
Continuous
 62
     7
370
    25
100
AcDbSpline
210
0.0
220
0.0
230
1.0
 70
     8
 71
     3
 72
     9
 73
     5
 74
     0
 42
0.000000001
 43
0.00000001
 40
0.0
 40
0.0
 40
0.0
 40
0.0
 40
0.1222803597655871
 40
1.0
 40
1.0
 40
1.0
 40
1.0
 10
281.1769794635899
 20
14.31412960024546
 30
0.0
 10
281.1207028838868
 20
14.25011969441802
 30
0.0
 10
280.660477056853
 20
13.72665128174608
 30
0.0
 10
280.1421812724477
 20
13.23443909108633
 30
0.0
 10
279.6872628830245
 20
12.80241478418147
 30
0.0
  0
LINE
  5
18A
330
1F
100
AcDbEntity
  8
0
  6
Continuous
 62
     7
370
    25
100
AcDbLine
 10
279.5569640899
 20
12.6485721919
 30
0.0
 11
279.687262883
 21
12.8024147842
 31
0.0
  0
LINE
  5
18B
330
1F
100
AcDbEntity
  8
0
  6
Continuous
 62
     7
370
    25
100
AcDbLine
 10
279.3046307432
 20
12.2002648664
 30
0.0
 11
279.5569640899
 21
12.6485721919
 31
0.0
  0
LINE
  5
18C
330
1F
100
AcDbEntity
  8
0
  6
Continuous
 62
     7
370
    25
100
AcDbLine
 10
279.1516266525
 20
12.0214766002
 30
0.0
 11
279.3046307432
 21
12.2002648664
 31
0.0
  0
ARC
  5
18D
330
1F
100
AcDbEntity
  8
0
  6
Continuous
 62
     7
370
    25
100
AcDbCircle
 10
273.9935307116
 20
17.5198450308
 30
0.0
 40
7.539098695135877
100
AcDbArc
 50
269.3612053888
 51
313.1711048942
  0
LINE
  5
18E
330
1F
100
AcDbEntity
  8
0
  6
Continuous
 62
     7
370
    25
100
AcDbLine
 10
273.9094785198
 20
9.9812148924
 30
0.0
 11
273.9731156512
 21
10.1252212225
 31
0.0
  0
LINE
  5
18F
330
1F
100
AcDbEntity
  8
0
  6
Continuous
 62
     7
370
    25
100
AcDbLine
 10
273.9731156512
 20
10.1252212225
 30
0.0
 11
274.6617358869
 21
10.7433323387
 31
0.0
  0
LINE
  5
190
330
1F
100
AcDbEntity
  8
0
  6
Continuous
 62
     7
370
    25
100
AcDbLine
 10
274.6617358869
 20
10.7433323387
 30
0.0
 11
274.7153990325
 21
10.8673483072
 31
0.0
  0
SPLINE
  5
191
330
1F
100
AcDbEntity
  8
0
  6
Continuous
 62
     7
370
    25
100
AcDbSpline
210
0.0
220
0.0
230
1.0
 70
     8
 71
     3
 72
     9
 73
     5
 74
     0
 42
0.000000001
 43
0.00000001
 40
0.0
 40
0.0
 40
0.0
 40
0.0
 40
0.5000511334134957
 40
1.0
 40
1.0
 40
1.0
 40
1.0
 10
274.7153990324525
 20
10.86734830722276
 30
0.0
 10
274.5239892973182
 20
10.93444695451336
 30
0.0
 10
274.1412089727788
 20
11.0686305265664
 30
0.0
 10
273.7015728309626
 20
11.23563660858994
 30
0.0
 10
273.4817772401512
 20
11.31913111001064
 30
0.0
  0
LINE
  5
192
330
1F
100
AcDbEntity
  8
0
  6
Continuous
 62
     7
370
    25
100
AcDbLine
 10
273.2638428012
 20
11.2552751854
 30
0.0
 11
273.4817772402
 21
11.31913111
 31
0.0
  0
LINE
  5
193
330
1F
100
AcDbEntity
  8
0
  6
Continuous
 62
     7
370
    25
100
AcDbLine
 10
272.4014300357
 20
10.7008113486
 30
0.0
 11
273.2638428012
 21
11.2552751854
 31
0.0
  0
LINE
  5
194
330
1F
100
AcDbEntity
  8
0
  6
Continuous
 62
     7
370
    25
100
AcDbLine
 10
272.1462318558
 20
10.626959155
 30
0.0
 11
272.4014300357
 21
10.7008113486
 31
0.0
  0
ARC
  5
195
330
1F
100
AcDbEntity
  8
0
  6
Continuous
 62
     7
370
    25
100
AcDbCircle
 10
275.715968336
 20
14.7770831472
 30
0.0
 40
5.474170959068028
100
AcDbArc
 50
174.7694657484
 51
229.2994707504
  0
LINE
  5
196
330
1F
100
AcDbEntity
  8
0
  6
Continuous
 62
     7
370
    25
100
AcDbLine
 10
270.2645920602
 20
15.2761266215
 30
0.0
 11
270.4877122079
 21
15.4292366616
 31
0.0
  0
LINE
  5
197
330
1F
100
AcDbEntity
  8
0
  6
Continuous
 62
     7
370
    25
100
AcDbLine
 10
270.4877122079
 20
15.4292366616
 30
0.0
 11
271.5067281745
 21
15.5967657663
 31
0.0
  0
LINE
  5
198
330
1F
100
AcDbEntity
  8
0
  6
Continuous
 62
     7
370
    25
100
AcDbLine
 10
271.5067281745
 20
15.5967657663
 30
0.0
 11
271.6971542215
 21
15.7285881715
 31
0.0
  0
SPLINE
  5
199
330
1F
100
AcDbEntity
  8
0
  6
Continuous
 62
     7
370
    25
100
AcDbSpline
210
0.0
220
0.0
230
1.0
 70
     8
 71
     3
 72
     9
 73
     5
 74
     0
 42
0.000000001
 43
0.00000001
 40
0.0
 40
0.0
 40
0.0
 40
0.0
 40
0.5000512198476281
 40
1.0
 40
1.0
 40
1.0
 40
1.0
 10
271.6971542214712
 20
15.72858817149829
 30
0.0
 10
271.7540560809195
 20
16.04766521119436
 30
0.0
 10
271.8678481429919
 20
16.6857539249731
 30
0.0
 10
271.9247839983183
 20
17.35666468115036
 30
0.0
 10
271.9532490097355
 20
17.69208569529229
 30
0.0
  0
LINE
  5
19A
330
1F
100
AcDbEntity
  8
0
  6
Continuous
 62
     7
370
    25
100
AcDbLine
 10
271.7969250315
 20
17.8217262438
 30
0.0
 11
271.9532490097
 21
17.6920856953
 31
0.0
  0
LINE
  5
19B
330
1F
100
AcDbEntity
  8
0
  6
Continuous
 62
     7
370
    25
100
AcDbLine
 10
270.8139880843
 20
17.9308150415
 30
0.0
 11
271.7969250315
 21
17.8217262438
 31
0.0
  0
LINE
  5
19C
330
1F
100
AcDbEntity
  8
0
  6
Continuous
 62
     7
370
    25
100
AcDbLine
 10
270.6306348053
 20
18.082603127
 30
0.0
 11
270.8139880843
 21
17.9308150415
 31
0.0
  0
ARC
  5
19D
330
1F
100
AcDbEntity
  8
0
  6
Continuous
 62
     7
370
    25
100
AcDbCircle
 10
287.5046470003
 20
13.7945658859
 30
0.0
 40
17.41032885779534
100
AcDbArc
 50
140.9118997942
 51
165.7417576997
  0
LINE
  5
19E
330
1F
100
AcDbEntity
  8
0
  6
Continuous
 62
     7
370
    25
100
AcDbLine
 10
273.9911436364
 20
24.7720327052
 30
0.0
 11
274.2317856778
 21
24.7342839628
 31
0.0
  0
LINE
  5
19F
330
1F
100
AcDbEntity
  8
0
  6
Continuous
 62
     7
370
    25
100
AcDbLine
 10
274.2317856778
 20
24.7342839628
 30
0.0
 11
274.9350384431
 21
24.0684561075
 31
0.0
  0
LINE
  5
1A0
330
1F
100
AcDbEntity
  8
0
  6
Continuous
 62
     7
370
    25
100
AcDbLine
 10
274.9350384431
 20
24.0684561075
 30
0.0
 11
275.1404905002
 21
24.0366095189
 31
0.0
  0
SPLINE
  5
1A1
330
1F
100
AcDbEntity
  8
0
  6
Continuous
 62
     7
370
    25
100
AcDbSpline
210
0.0
220
0.0
230
1.0
 70
     8
 71
     3
 72
     9
 73
     5
 74
     0
 42
0.000000001
 43
0.00000001
 40
0.0
 40
0.0
 40
0.0
 40
0.0
 40
0.122280263313393
 40
1.0
 40
1.0
 40
1.0
 40
1.0
 10
276.6302070807375
 20
25.54832433491443
 30
0.0
 10
276.5739305561394
 20
25.48431445972905
 30
0.0
 10
276.1137048167342
 20
24.9608458847446
 30
0.0
 10
275.5954089829377
 20
24.46863378949069
 30
0.0
 10
275.140490500172
 20
24.03660951885045
 30
0.0
  0
LINE
  5
1A2
330
1F
100
AcDbEntity
  8
0
  6
Continuous
 62
     7
370
    25
100
AcDbLine
 10
276.6231282212
 20
25.781473358
 30
0.0
 11
276.6302070807
 21
25.5483243349
 31
0.0
  0
LINE
  5
1A3
330
1F
100
AcDbEntity
  8
0
  6
Continuous
 62
     7
370
    25
100
AcDbLine
 10
276.1297468404
 20
26.6602726324
 30
0.0
 11
276.6231282212
 21
25.781473358
 31
0.0
  0
LINE
  5
1A4
330
1F
100
AcDbEntity
  8
0
  6
Continuous
 62
     7
370
    25
100
AcDbLine
 10
276.1204328808
 20
26.9327651145
 30
0.0
 11
276.1297468404
 21
26.6602726324
 31
0.0
  0
ARC
  5
1A5
330
1F
100
AcDbEntity
  8
0
  6
Continuous
 62
     7
370
    25
100
AcDbCircle
 10
281.2785288217
 20
21.4343966839
 30
0.0
 40
7.539098695135756
100
AcDbArc
 50
89.3612053888
 51
133.1711048942
  0
LINE
  5
1A6
330
1F
100
AcDbEntity
  8
0
  6
Continuous
 62
     7
370
    25
100
AcDbLine
 10
281.3625810135
 20
28.9730268223
 30
0.0
 11
281.4612619324
 21
28.7353162763
 31
0.0
  0
LINE
  5
1A7
330
1F
100
AcDbEntity
  8
0
  6
Continuous
 62
     7
370
    25
100
AcDbLine
 10
281.4612619324
 20
28.7353162763
 30
0.0
 11
281.5183564242
 21
27.6867132112
 31
0.0
  0
LINE
  5
1A8
330
1F
100
AcDbEntity
  8
0
  6
Continuous
 62
     7
370
    25
100
AcDbLine
 10
281.5183564242
 20
27.6867132112
 30
0.0
 11
281.6020709313
 21
27.4833908119
 31
0.0
  0
SPLINE
  5
1A9
330
1F
100
AcDbEntity
  8
0
  6
Continuous
 62
     7
370
    25
100
AcDbSpline
210
0.0
220
0.0
230
1.0
 70
     8
 71
     3
 72
     9
 73
     5
 74
     0
 42
0.000000001
 43
0.00000001
 40
0.0
 40
0.0
 40
0.0
 40
0.0
 40
0.5000511334134957
 40
1.0
 40
1.0
 40
1.0
 40
1.0
 10
281.6020709313096
 20
27.48339081187315
 30
0.0
 10
281.821910654127
 20
27.39987988203835
 30
0.0
 10
282.2615451397379
 20
27.23287510141776
 30
0.0
 10
282.6443232441538
 20
27.09869246571865
 30
0.0
 10
282.8356927236107
 20
27.03160800908527
 30
0.0
  0
LINE
  5
1AA
330
1F
100
AcDbEntity
  8
0
  6
Continuous
 62
     7
370
    25
100
AcDbLine
 10
282.9162495098
 20
27.1747703645
 30
0.0
 11
282.8356927236
 21
27.0316080091
 31
0.0
  0
LINE
  5
1AB
330
1F
100
AcDbEntity
  8
0
  6
Continuous
 62
     7
370
    25
100
AcDbLine
 10
283.0329475479
 20
28.1597261502
 30
0.0
 11
282.9162495098
 21
27.1747703645
 31
0.0
  0
LINE
  5
1AC
330
1F
100
AcDbEntity
  8
0
  6
Continuous
 62
     7
370
    25
100
AcDbLine
 10
283.1258276775
 20
28.3272825597
 30
0.0
 11
283.0329475479
 21
28.1597261502
 31
0.0
  0
ARC
  5
1AD
330
1F
100
AcDbEntity
  8
0
  6
Continuous
 62
     7
370
    25
100
AcDbCircle
 10
279.5560911973
 20
24.1771585674
 30
0.0
 40
5.474170959068366
100
AcDbArc
 50
354.7694657484
 51
49.2994707504
  0
LWPOLYLINE
  5
1AE
330
1F
100
AcDbEntity
  8
0
  6
Continuous
 62
     7
370
    25
100
AcDbPolyline
 90
       42
 70
   128
 43
0.0
 10
273.8708216279
 20
13.7551990296
 10
273.6421404011
 20
14.5228114825
 10
273.5350620519
 20
15.3903909853
 10
273.5520962934
 20
16.3376021209
 10
273.6928437184
 20
17.3422429512
 10
273.9540053481
 20
18.3807656958
 10
274.3294596821
 20
19.4288279892
 10
274.8104069193
 20
20.4618650441
 10
275.3855731072
 20
21.4556619281
 10
276.0414778395
 20
22.3869257872
 10
276.7627465716
 20
23.2338285013
 10
277.5324735605
 20
23.9765192502
 10
278.3326171972
 20
24.5975899984
 10
279.1444227106
 20
25.082483396
 10
279.9488620332
 20
25.4198341619
 10
280.7270798011
 20
25.6017345384
 10
281.4608353602
 20
25.6239217751
 10
282.1329299154
 20
25.4858749051
 10
282.7276104233
 20
25.1908304157
 10
283.2309376371
 20
24.7457034584
 10
283.6311143905
 20
24.1609271701
 10
283.9187607047
 20
23.4502088239
 10
284.087134401
 20
22.630206802
 10
284.1322888223
 20
21.7201411525
 10
284.0531660168
 20
20.7413432676
 10
283.8516201165
 20
19.7167550693
 10
283.5323751904
 20
18.6703922693
 10
283.1029146092
 20
17.6267805195
 10
282.5733038962
 20
16.6103814455
 10
281.9559569448
 20
15.6450182345
 10
281.2653439535
 20
14.7533186229
 10
280.5176521108
 20
13.9561828896
 10
279.7304068502
 20
13.2722956269
 10
278.9220604036
 20
12.7176859345
 10
278.1115598168
 20
12.3053540844
 10
277.3179025553
 20
12.044964407
 10
276.5596911226
 20
11.9426204977
 10
275.8546974949
 20
12.0007206145
 10
275.2194460354
 20
12.2179035944
 10
274.6688264356
 20
12.5890786423
 10
274.2157451799
 20
13.1055456122
 10
273.8708216279
 20
13.7551990296
  0
LINE
  5
1AF
330
1F
100
AcDbEntity
  8
0
  6
Continuous
 62
     7
370
    25
100
AcDbLine
 10
278.6217609182
 20
30.5552685844
 30
0.0
 11
281.3625810135
 21
28.9730268223
 31
0.0
  0
LINE
  5
1B0
330
1F
100
AcDbEntity
  8
0
  6
Continuous
 62
     7
370
    25
100
AcDbLine
 10
273.3796127855
 20
28.5150068766
 30
0.0
 11
276.1204328808
 21
26.9327651145
 31
0.0
  0
SPLINE
  5
1B1
330
1F
100
AcDbEntity
  8
0
  6
Continuous
 62
     7
370
    25
100
AcDbSpline
210
0.0
220
0.0
230
1.0
 70
     8
 71
     3
 72
    17
 73
    13
 74
     0
 42
0.000000001
 43
0.00000001
 40
0.0
 40
0.0
 40
0.0
 40
0.0
 40
0.0849597147500079
 40
0.202699144984862
 40
0.3179169503659203
 40
0.426331363867694
 40
0.5328083392107584
 40
0.6312075617175075
 40
0.7278429586232642
 40
0.8310955206060849
 40
0.9419115845341189
 40
1.0
 40
1.0
 40
1.0
 40
1.0
 10
273.3796127854525
 20
28.51500687663548
 30
0.0
 10
273.2671291645327
 20
28.56965697666011
 30
0.0
 10
272.9987627528478
 20
28.7000426374515
 30
0.0
 10
272.4686353417906
 20
28.77692834001057
 30
0.0
 10
271.8707638362437
 20
28.70788608833936
 30
0.0
 10
271.3302804532558
 20
28.47761189629309
 30
0.0
 10
270.930450370041
 20
28.12260046693437
 30
0.0
 10
270.7053378560229
 20
27.70120523784327
 30
0.0
 10
270.6479003109694
 20
27.26367349523832
 30
0.0
 10
270.7560995721357
 20
26.83978507629653
 30
0.0
 10
270.9820233479783
 20
26.53115539580011
 30
0.0
 10
271.1816644180275
 20
26.39953902446092
 30
0.0
 10
271.2503235409986
 20
26.35427446731065
 30
0.0
  0
LINE
  5
1B2
330
1F
100
AcDbEntity
  8
0
  6
Continuous
 62
     7
370
    25
100
AcDbLine
 10
271.250323541
 20
26.3542744673
 30
0.0
 11
273.9911436364
 21
24.7720327052
 31
0.0
  0
LINE
  5
1B3
330
1F
100
AcDbEntity
  8
0
  6
Continuous
 62
     7
370
    25
100
AcDbLine
 10
267.88981471
 20
19.6648448891
 30
0.0
 11
270.6306348053
 21
18.082603127
 31
0.0
  0
SPLINE
  5
1B4
330
1F
100
AcDbEntity
  8
0
  6
Continuous
 62
     7
370
    25
100
AcDbSpline
210
0.0
220
0.0
230
1.0
 70
     8
 71
     3
 72
    17
 73
    13
 74
     0
 42
0.000000001
 43
0.00000001
 40
0.0
 40
0.0
 40
0.0
 40
0.0
 40
0.08495989217525
 40
0.2026995761303536
 40
0.3179176162743387
 40
0.4263322670044779
 40
0.5329715339815595
 40
0.6313701889416263
 40
0.7280136109055072
 40
0.8312797406484964
 40
0.942108326698638
 40
0.9999999999999999
 40
0.9999999999999999
 40
0.9999999999999999
 40
0.9999999999999999
 10
267.5237719648335
 20
16.85836838356224
 30
0.0
 10
267.4186956779407
 20
16.92776346872218
 30
0.0
 10
267.1680018709077
 20
17.09332811325394
 30
0.0
 10
266.8031421442419
 20
17.49919516068842
 30
0.0
 10
266.5055125414843
 20
18.02781608599866
 30
0.0
 10
266.3606949940152
 20
18.58556481292643
 30
0.0
 10
266.3916494494139
 20
19.08804245324743
 30
0.0
 10
266.574884900851
 20
19.47885692580929
 30
0.0
 10
266.8678394426698
 20
19.73825639083429
 30
0.0
 10
267.2462501562924
 20
19.85171859119171
 30
0.0
 10
267.605520269304
 20
19.80871377090908
 30
0.0
 10
267.8171871096167
 20
19.70159851546918
 30
0.0
 10
267.8898147099726
 20
19.6648448890976
 30
0.0
  0
LINE
  5
1B5
330
1F
100
AcDbEntity
  8
0
  6
Continuous
 62
     7
370
    25
100
AcDbLine
 10
267.5237719648
 20
16.8583683836
 30
0.0
 11
270.2645920602
 21
15.2761266215
 31
0.0
  0
LINE
  5
1B6
330
1F
100
AcDbEntity
  8
0
  6
Continuous
 62
     7
370
    25
100
AcDbLine
 10
269.4054117604
 20
12.2092009171
 30
0.0
 11
272.1462318558
 21
10.626959155
 31
0.0
  0
SPLINE
  5
1B7
330
1F
100
AcDbEntity
  8
0
  6
Continuous
 62
     7
370
    25
100
AcDbSpline
210
0.0
220
0.0
230
1.0
 70
     8
 71
     3
 72
    11
 73
     7
 74
     0
 42
0.000000001
 43
0.00000001
 40
0.0
 40
0.0
 40
0.0
 40
0.0
 40
0.0464888547175438
 40
0.4165080998910405
 40
0.8133620961470515
 40
1.0
 40
1.0
 40
1.0
 40
1.0
 10
268.7588349817904
 20
12.56547061006019
 30
0.0
 10
268.7586901731088
 20
12.56521266252615
 30
0.0
 10
268.7573927871178
 20
12.56290163038898
 30
0.0
 10
268.9078603569851
 20
12.48755848871742
 30
0.0
 10
269.1458681489247
 20
12.35782027871015
 30
0.0
 10
269.3425123954647
 20
12.24521822997131
 30
0.0
 10
269.4054117604296
 20
12.20920091706219
 30
0.0
  0
LINE
  5
1B8
330
1F
100
AcDbEntity
  8
0
  6
Continuous
 62
     7
370
    25
100
AcDbLine
 10
272.5251652804
 20
10.7803619151
 30
0.0
 11
273.9094785198
 21
9.9812148924
 31
0.0
  0
LINE
  5
1B9
330
1F
100
AcDbEntity
  8
0
  6
Continuous
 62
     7
370
    25
100
AcDbLine
 10
280.3850075821
 20
29.9095243218
 30
0.0
 11
283.1258276775
 21
28.3272825597
 31
0.0
  0
SPLINE
  5
1BA
330
1F
100
AcDbEntity
  8
0
  6
Continuous
 62
     7
370
    25
100
AcDbSpline
210
0.0
220
0.0
230
1.0
 70
     8
 71
     3
 72
    17
 73
    13
 74
     0
 42
0.000000001
 43
0.00000001
 40
0.0
 40
0.0
 40
0.0
 40
0.0
 40
0.0849661510924957
 40
0.202714526992001
 40
0.317941047183111
 40
0.4263637019571284
 40
0.5376354194272268
 40
0.6360086889124539
 40
0.7328947004963147
 40
0.8365475018224251
 40
0.9477174719414376
 40
1.0
 40
1.0
 40
1.0
 40
1.0
 10
278.6217609181662
 20
30.55526858439891
 30
0.0
 10
278.5231583726755
 20
30.61532073284691
 30
0.0
 10
278.28790976941
 20
30.75859476269249
 30
0.0
 10
278.0640276478169
 20
30.95468159924944
 30
0.0
 10
278.0004720195768
 20
31.09356243989378
 30
0.0
 10
278.1278986666458
 20
31.1230755297086
 30
0.0
 10
278.4165112561103
 20
31.02845177513474
 30
0.0
 10
278.807505488093
 20
30.83567489290529
 30
0.0
 10
279.2459121643985
 20
30.58738928063829
 30
0.0
 10
279.7195757102326
 20
30.30386380824924
 30
0.0
 10
280.1105348276637
 20
30.06904511619233
 30
0.0
 10
280.3184901985638
 20
29.94818355371885
 30
0.0
 10
280.3850075821171
 20
29.90952432182166
 30
0.0
  0
LWPOLYLINE
  5
1BB
330
1F
100
AcDbEntity
  8
0
  6
Continuous
 62
     7
370
    25
100
AcDbPolyline
 90
       22
 70
   128
 43
0.0
 10
265.1484572423
 20
15.7112560183
 10
264.8665527777
 20
16.6133477344
 10
264.7074207657
 20
17.6196950924
 10
264.6737849464
 20
18.7130800776
 10
264.7662195706
 20
19.8747936094
 10
264.9831441315
 20
21.0849591658
 10
265.3208457552
 20
22.3228696194
 10
265.7735476893
 20
23.5673451949
 10
266.3335034746
 20
24.797091567
 10
266.9911316179
 20
25.9910678166
 10
267.7351802277
 20
27.1288444034
 10
268.5529189801
 20
28.1909542919
 10
269.4303554508
 20
29.1592239219
 10
270.3524768004
 20
30.0170861168
 10
271.3035050436
 20
30.7498628094
 10
272.2671681011
 20
31.3450150538
 10
273.2269772327
 20
31.792360979
 10
274.1665099229
 20
32.0842451799
 10
275.0696903801
 20
32.215674789
 10
275.9210652811
 20
32.1843995733
 10
276.7060667982
 20
31.99095503
 10
277.2540077683
 20
31.7350844687
  0
ARC
  5
1BC
330
1F
100
AcDbEntity
  8
0
  6
Continuous
 62
     7
370
    25
100
AcDbCircle
 10
268.8655574761
 20
17.0732062442
 30
0.0
 40
3.958755178838153
100
AcDbArc
 50
200.1228979856
 51
239.0541327598
  0
LWPOLYLINE
  5
1BD
330
1F
100
AcDbEntity
  8
0
  6
Continuous
 62
     7
370
    25
100
AcDbPolyline
 90
       35
 70
   128
 43
0.0
 10
275.3751526282
 20
15.2817445425
 10
275.1934674424
 20
15.9357031176
 10
275.1356251733
 20
16.6867852122
 10
275.2035958569
 20
17.5094138653
 10
275.3950643799
 20
18.3755750145
 10
275.7035108224
 20
19.2557730282
 10
276.1184317287
 20
20.1200336311
 10
276.625696874
 20
20.9389255736
 10
277.2080323067
 20
21.6845624011
 10
277.8456071111
 20
22.3315521224
 10
278.5167095484
 20
22.8578626356
 10
279.1984860043
 20
23.2455707511
 10
279.8677193894
 20
23.4814739103
 10
280.5016198448
 20
23.5575382858
 10
281.0786004874
 20
23.4711739842
 10
281.5790131478
 20
23.2253219432
 10
281.9858166699
 20
22.8283541768
 10
282.285158076
 20
22.2937891178
 10
282.4668432618
 20
21.6398305427
 10
282.5246855308
 20
20.8887484482
 10
282.4567148472
 20
20.0661197951
 10
282.2652463243
 20
19.1999586459
 10
281.9567998818
 20
18.3197606322
 10
281.5418789755
 20
17.4555000293
 10
281.0346138301
 20
16.6366080868
 10
280.4522783975
 20
15.8909712593
 10
279.814703593
 20
15.243981538
 10
279.1436011558
 20
14.7176710247
 10
278.4618246998
 20
14.3299629093
 10
277.7925913148
 20
14.0940597501
 10
277.1586908594
 20
14.0179953746
 10
276.5817102168
 20
14.1043596762
 10
276.0812975564
 20
14.3502117172
 10
275.6744940343
 20
14.7471794835
 10
275.3751526282
 20
15.2817445425
  0
LINE
  5
1BE
330
1F
100
AcDbEntity
  8
0
  6
Continuous
 62
     7
370
    25
100
AcDbLine
 10
271.4098065572
 20
26.3633778328
 30
0.0
 11
274.2317856778
 21
24.7342839628
 31
0.0
  0
LINE
  5
1BF
330
1F
100
AcDbEntity
  8
0
  6
Continuous
 62
     7
370
    25
100
AcDbLine
 10
281.5981160423
 20
23.1494234086
 30
0.0
 11
281.6333649663
 21
22.3045016508
 31
0.0
  0
LINE
  5
1C0
330
1F
100
AcDbEntity
  8
0
  6
Continuous
 62
     7
370
    25
100
AcDbLine
 10
276.517590825
 20
14.2448223305
 30
0.0
 11
276.4372599195
 21
14.2095898277
 31
0.0
  0
ARC
  5
1C1
330
1F
100
AcDbEntity
  8
0
  6
Continuous
 62
     7
370
    25
100
AcDbCircle
 10
272.3430294168
 20
22.2852976613
 30
0.0
 40
9.05959196081477
100
AcDbArc
 50
297.4380397108
 51
333.4018285888
  0
ARC
  5
1C2
330
1F
100
AcDbEntity
  8
0
  6
Continuous
 62
     7
370
    25
100
AcDbCircle
 10
272.245300645
 20
22.8333339725
 30
0.0
 40
9.402947161730145
100
AcDbArc
 50
330.6814465905
 51
356.7759197454
  0
LWPOLYLINE
  5
1C3
330
1F
100
AcDbEntity
  8
0
  6
Continuous
 62
     7
370
    25
100
AcDbPolyline
 90
       19
 70
   128
 43
0.0
 10
281.3305056155
 20
23.3721779176
 10
281.3597389001
 20
23.351906272
 10
281.7665424222
 20
22.9549385056
 10
282.0658838283
 20
22.4203734466
 10
282.247569014
 20
21.7664148715
 10
282.3054112831
 20
21.0153327769
 10
282.2374405995
 20
20.1927041239
 10
282.0459720765
 20
19.3265429747
 10
281.7375256341
 20
18.446344961
 10
281.3226047277
 20
17.5820843581
 10
280.8153395824
 20
16.7631924156
 10
280.2330041498
 20
16.0175555881
 10
279.5954293453
 20
15.3705658668
 10
278.924326908
 20
14.8442553535
 10
278.2425504521
 20
14.4565472381
 10
277.5733170671
 20
14.2206440789
 10
276.9394166117
 20
14.1445797034
 10
276.3624359691
 20
14.230944005
 10
276.1105323227
 20
14.3299391305
  0
LINE
  5
1C4
330
1F
100
AcDbEntity
  8
0
  6
Continuous
 62
     7
370
    25
100
AcDbLine
 10
274.7002350573
 20
24.2907635762
 30
0.0
 11
275.1404905002
 21
24.0366095189
 31
0.0
  0
LINE
  5
1C5
330
1F
100
AcDbEntity
  8
0
  6
Continuous
 62
     7
370
    25
100
AcDbLine
 10
267.9920089638
 20
19.5599089116
 30
0.0
 11
270.8139880843
 21
17.9308150415
 31
0.0
  0
LWPOLYLINE
  5
1C6
330
1F
100
AcDbEntity
  8
0
  6
Continuous
 62
     7
370
    25
100
AcDbPolyline
 90
        8
 70
   128
 43
0.0
 10
273.3666817701
 20
27.4323173948
 10
273.0051661892
 20
27.5507478055
 10
272.5852936867
 20
27.5360745131
 10
272.1709791352
 20
27.3905341872
 10
271.8253007266
 20
27.1362827847
 10
271.6008893377
 20
26.8120254216
 10
271.5319049895
 20
26.4671302128
 10
271.5713251345
 20
26.2701350554
  0
LINE
  5
1C7
330
1F
100
AcDbEntity
  8
0
  6
Continuous
 62
     7
370
    25
100
AcDbLine
 10
273.3666817701
 20
27.4323173948
 30
0.0
 11
276.6302070807
 21
25.5483243349
 31
0.0
  0
ARC
  5
1C8
330
1F
100
AcDbEntity
  8
0
  6
Continuous
 62
     7
370
    25
100
AcDbCircle
 10
268.0254727996
 20
25.0251776508
 30
0.0
 40
12.76287746804838
100
AcDbArc
 50
306.6577887939
 51
353.3475858792
  0
LINE
  5
1C9
330
1F
100
AcDbEntity
  8
0
  6
Continuous
 62
     7
370
    25
100
AcDbLine
 10
273.4282917369
 20
27.6258132025
 30
0.0
 11
276.6231282212
 21
25.781473358
 31
0.0
  0
LINE
  5
1CA
330
1F
100
AcDbEntity
  8
0
  6
Continuous
 62
     7
370
    25
100
AcDbLine
 10
273.3077677199
 20
28.2893665024
 30
0.0
 11
276.1297468404
 21
26.6602726324
 31
0.0
  0
LINE
  5
1CB
330
1F
100
AcDbEntity
  8
0
  6
Continuous
 62
     7
370
    25
100
AcDbLine
 10
268.4336289109
 20
17.6125812314
 30
0.0
 11
271.6971542215
 21
15.7285881715
 31
0.0
  0
LWPOLYLINE
  5
1CC
330
1F
100
AcDbEntity
  8
0
  6
Continuous
 62
     7
370
    25
100
AcDbPolyline
 90
        7
 70
   128
 43
0.0
 10
268.4336289109
 20
17.6125812314
 10
268.138559483
 20
17.8632793007
 10
267.9079095374
 20
18.2252714974
 10
267.7767854233
 20
18.6434508069
 10
267.7651535517
 20
19.0541528387
 10
267.8747886999
 20
19.394848815
 10
268.003574981
 20
19.5532318848
  0
LINE
  5
1CD
330
1F
100
AcDbEntity
  8
0
  6
Continuous
 62
     7
370
    25
100
AcDbLine
 10
271.7124377224
 20
17.8311030924
 30
0.0
 11
271.9532490097
 21
17.6920856953
 31
0.0
  0
SPLINE
  5
1CE
330
1F
100
AcDbEntity
  8
0
  6
Continuous
 62
     7
370
    25
100
AcDbSpline
210
0.0
220
0.0
230
1.0
 70
     8
 71
     3
 72
    32
 73
    28
 74
     0
 42
0.000000001
 43
0.00000001
 40
0.0
 40
0.0
 40
0.0
 40
0.0
 40
0.0722961127911315
 40
0.2394787707321543
 40
0.2903103557364243
 40
0.4706448315034602
 40
0.5681380261586887
 40
0.6095605768854503
 40
0.6283292904541568
 40
0.637586238562608
 40
0.6406726188270522
 40
0.642771750667504
 40
0.6441930508393334
 40
0.6451580534798778
 40
0.6458194004091702
 40
0.6464136008401902
 40
0.6467627143835729
 40
0.6469745581950181
 40
0.6471326681331887
 40
0.6472917748729123
 40
0.6474665280998053
 40
0.6477561856226846
 40
0.6486283380445248
 40
0.6525875751111238
 40
0.6682927434570298
 40
0.7310125041249814
 40
1.0
 40
1.0
 40
1.0
 40
1.0
 10
281.3660357380306
 20
23.24516682212512
 30
0.0
 10
281.3967965438038
 20
23.17806249401729
 30
0.0
 10
281.498690818183
 20
22.95578135903431
 30
0.0
 10
281.3188250973221
 20
22.55835382518667
 30
0.0
 10
281.826197386766
 20
22.18339275306558
 30
0.0
 10
281.4248529197493
 20
21.85078046092624
 30
0.0
 10
281.4619645287687
 20
21.42586347524735
 30
0.0
 10
281.4331051597532
 20
21.22026256285981
 30
0.0
 10
281.4234429497237
 20
21.12796562607074
 30
0.0
 10
281.4196280953803
 20
21.08611896259827
 30
0.0
 10
281.4184681107744
 20
21.06642888105054
 30
0.0
 10
281.4181786638238
 20
21.05733514461225
 30
0.0
 10
281.4181970247554
 20
21.05110067541196
 30
0.0
 10
281.4183760210214
 20
21.04682743510083
 30
0.0
 10
281.4186920706387
 20
21.04369254430782
 30
0.0
 10
281.4190852815833
 20
21.04142242654571
 30
0.0
 10
281.419581869647
 20
21.0398243674706
 30
0.0
 10
281.420060067244
 20
21.03892138287353
 30
0.0
 10
281.4205319036681
 20
21.03839538807927
 30
0.0
 10
281.4210504533349
 20
21.03812964413672
 30
0.0
 10
281.4217059459391
 20
21.03813053134109
 30
0.0
 10
281.4229464834421
 20
21.03875599224417
 30
0.0
 10
281.4265316181179
 20
21.04333181173203
 30
0.0
 10
281.4362508957616
 20
21.06657366250167
 30
0.0
 10
281.4665666272745
 20
21.16571581096408
 30
0.0
 10
281.5688765011272
 20
21.59500327288317
 30
0.0
 10
281.6044874196255
 20
21.98679254609188
 30
0.0
 10
281.6333649663289
 20
22.30450165082911
 30
0.0
  0
ARC
  5
1CF
330
1F
100
AcDbEntity
  8
0
  6
Continuous
 62
     7
370
    25
100
AcDbCircle
 10
279.9536446855
 20
18.1391903571
 30
0.0
 40
15.29662757676214
100
AcDbArc
 50
122.3971824154
 51
177.608194554
  0
LINE
  5
1D0
330
1F
100
AcDbEntity
  8
0
  6
Continuous
 62
     7
370
    25
100
AcDbLine
 10
267.6657330873
 20
17.0583305317
 30
0.0
 11
270.4877122079
 21
15.4292366616
 31
0.0
  0
LINE
  5
1D1
330
1F
100
AcDbEntity
  8
0
  6
Continuous
 62
     7
370
    25
100
AcDbLine
 10
268.3118916902
 20
17.4411056108
 30
0.0
 11
271.5067281745
 21
15.5967657663
 31
0.0
  0
LWPOLYLINE
  5
1D2
330
1F
100
AcDbEntity
  8
0
  6
Continuous
 62
     7
370
    25
100
AcDbPolyline
 90
        9
 70
   128
 43
0.0
 10
273.3077677199
 20
28.2893665024
 10
272.8471844898
 20
28.4402500363
 10
272.3122466457
 20
28.4215572006
 10
271.7843949052
 20
28.2361307542
 10
271.3439858568
 20
27.9122044778
 10
271.0580766184
 20
27.4990873596
 10
270.9701852927
 20
27.0596771719
 10
271.0936969616
 20
26.6608693333
 10
271.4098065572
 20
26.3633778328
  0
SPLINE
  5
1D3
330
1F
100
AcDbEntity
  8
0
  6
Continuous
 62
     7
370
    25
100
AcDbSpline
210
0.0
220
0.0
230
1.0
 70
     8
 71
     3
 72
    13
 73
     9
 74
     0
 42
0.000000001
 43
0.00000001
 40
0.0
 40
0.0
 40
0.0
 40
0.0
 40
0.1451062983594259
 40
0.3341590443494639
 40
0.5446445946249547
 40
0.7831730430025874
 40
0.9882068838547703
 40
0.9999999999999999
 40
0.9999999999999999
 40
0.9999999999999999
 40
0.9999999999999999
 10
278.2007891402524
 20
15.75734030492696
 30
0.0
 10
278.1137943464354
 20
15.66836668227718
 30
0.0
 10
277.9134577828685
 20
15.46347315902493
 30
0.0
 10
277.5794545431609
 20
15.15906462322467
 30
0.0
 10
277.1830898860338
 20
14.83498956978106
 30
0.0
 10
276.7754575067178
 20
14.55734308415507
 30
0.0
 10
276.4897824309754
 20
14.37643541315176
 30
0.0
 10
276.3577888931993
 20
14.31788949605572
 30
0.0
 10
276.3506098268001
 20
14.31470521117849
 30
0.0
  0
ARC
  5
1D4
330
1F
100
AcDbEntity
  8
0
  6
Continuous
 62
     7
370
    25
100
AcDbCircle
 10
272.9043618984
 20
20.6376185558
 30
0.0
 40
6.736409941797866
100
AcDbArc
 50
295.717106174
 51
316.4503982331
  0
LWPOLYLINE
  5
1D5
330
1F
100
AcDbEntity
  8
0
  6
Continuous
 62
     7
370
    25
100
AcDbPolyline
 90
        9
 70
   128
 43
0.0
 10
267.6657330873
 20
17.0583305317
 10
267.2898049306
 20
17.3777287743
 10
266.9959439319
 20
17.8389232209
 10
266.8288896294
 20
18.3717003961
 10
266.8140697438
 20
18.894952109
 10
266.9537496682
 20
19.32901279
 10
267.2266557806
 20
19.6078063664
 10
267.5912444595
 20
19.6888857863
 10
267.9920089638
 20
19.5599089116
  0
LWPOLYLINE
  5
1D6
330
1F
100
AcDbEntity
  8
0
  6
Continuous
 62
     7
370
    25
100
AcDbPolyline
 90
        8
 70
   128
 43
0.0
 10
273.4282917369
 20
27.6258132025
 10
273.0186386928
 20
27.7600129889
 10
272.5428523042
 20
27.7433866618
 10
272.0733681865
 20
27.5784656606
 10
271.6816616326
 20
27.2903560262
 10
271.427364177
 20
26.9229216178
 10
271.3491924743
 20
26.5321007678
 10
271.3695813416
 20
26.3878335836
  0
LWPOLYLINE
  5
1D7
330
1F
100
AcDbEntity
  8
0
  6
Continuous
 62
     7
370
    25
100
AcDbPolyline
 90
        7
 70
   128
 43
0.0
 10
268.3118916902
 20
17.4411056108
 10
267.9775328384
 20
17.7251856868
 10
267.7161657428
 20
18.1353827595
 10
267.5675829553
 20
18.609247282
 10
267.5544048212
 20
19.0746372034
 10
267.6786359499
 20
19.4607024458
 10
267.8233030318
 20
19.6390760597
  0
SPLINE
  5
1D8
330
1F
100
AcDbEntity
  8
0
  6
Continuous
 62
     7
370
    25
100
AcDbSpline
210
0.0
220
0.0
230
1.0
 70
     8
 71
     3
 72
    31
 73
    27
 74
     0
 42
0.000000001
 43
0.00000001
 40
0.0
 40
0.0
 40
0.0
 40
0.0
 40
0.0690879908286845
 40
0.2282964051470709
 40
0.2463915961782351
 40
0.2551961557385652
 40
0.2595961705048828
 40
0.2610931051503745
 40
0.2621063202105948
 40
0.2627953963262591
 40
0.2632679925336248
 40
0.2637107434296855
 40
0.2639335890268797
 40
0.2640980244856304
 40
0.264212335945905
 40
0.2643277592038139
 40
0.2644625559524569
 40
0.2646890608856846
 40
0.2653925487097338
 40
0.2686229255002049
 40
0.2814412678823894
 40
0.3326426383251885
 40
0.5265182034912589
 40
0.7045380980624133
 40
0.8825558254871577
 40
1.0
 40
1.0
 40
1.0
 40
1.0
 10
280.4438314117482
 20
18.22904156292834
 30
0.0
 10
280.5027555900181
 20
18.34792314695934
 30
0.0
 10
280.6974663916193
 20
18.74075897771559
 30
0.0
 10
280.8759026171853
 20
19.17884873318537
 30
0.0
 10
280.9840065005093
 20
19.51513896344982
 30
0.0
 10
281.00037428528
 20
19.57233062816117
 30
0.0
 10
281.0071163789945
 20
19.59953370108061
 30
0.0
 10
281.0096865553322
 20
19.61249853889341
 30
0.0
 10
281.0106608207311
 20
19.61855275938807
 30
0.0
 10
281.0111260435405
 20
19.62270615938188
 30
0.0
 10
281.0112757391894
 20
19.62578360540339
 30
0.0
 10
281.0112019784169
 20
19.62797337297956
 30
0.0
 10
281.0108981749356
 20
19.62951309702437
 30
0.0
 10
281.0105405528388
 20
19.63036204278748
 30
0.0
 10
281.0100957329417
 20
19.63086717802801
 30
0.0
 10
281.009570749866
 20
19.63110622441082
 30
0.0
 10
281.0088358758661
 20
19.63108098359101
 30
0.0
 10
281.0072908674326
 20
19.63033922405383
 30
0.0
 10
281.0022583378296
 20
19.62514609356916
 30
0.0
 10
280.9865195824664
 20
19.59905831709173
 30
0.0
 10
280.9308871494418
 20
19.48816225792066
 30
0.0
 10
280.7248859483793
 20
19.05146730274465
 30
0.0
 10
280.3391313767676
 20
18.33741954321738
 30
0.0
 10
279.7467340241176
 20
17.45899806180572
 30
0.0
 10
279.1799254390151
 20
16.75520713005515
 30
0.0
 10
278.8010399376811
 20
16.36766992450138
 30
0.0
 10
278.6504354277689
 20
16.2136264187201
 30
0.0
  0
ARC
  5
1D9
330
1F
100
AcDbEntity
  8
0
  6
Continuous
 62
     7
370
    25
100
AcDbCircle
 10
272.0167448252
 20
22.8981389571
 30
0.0
 40
8.957049582333514
100
AcDbArc
 50
313.9784559546
 51
3.8853661394
  0
LINE
  5
1DA
330
1F
100
AcDbEntity
  8
0
  6
Continuous
 62
     7
370
    25
100
AcDbLine
 10
281.5124344627
 20
27.795508743
 30
0.0
 11
282.8356927236
 21
27.0316080091
 31
0.0
  0
LINE
  5
1DB
330
1F
100
AcDbEntity
  8
0
  6
Continuous
 62
     7
370
    25
100
AcDbLine
 10
281.5017696637
 20
27.9913321987
 30
0.0
 11
282.9162495098
 21
27.1747703645
 31
0.0
  0
LINE
  5
1DC
330
1F
100
AcDbEntity
  8
0
  6
Continuous
 62
     7
370
    25
100
AcDbLine
 10
280.2109684274
 20
29.7888200202
 30
0.0
 11
283.0329475479
 21
28.1597261502
 31
0.0
  0
ARC
  5
1DD
330
1F
100
AcDbEntity
  8
0
  6
Continuous
 62
     7
370
    25
100
AcDbCircle
 10
272.9577230564
 20
17.1751541879
 30
0.0
 40
14.55039979310369
100
AcDbArc
 50
60.0997753101
 51
67.5436409502
  0
LINE
  5
1DE
330
1F
100
AcDbEntity
  8
0
  6
Continuous
 62
     7
370
    25
100
AcDbLine
 10
272.6732910381
 20
10.8755939995
 30
0.0
 11
273.9731156512
 21
10.1252212225
 31
0.0
  0
LINE
  5
1DF
330
1F
100
AcDbEntity
  8
0
  6
Continuous
 62
     7
370
    25
100
AcDbLine
 10
274.0040606576
 20
11.1230001671
 30
0.0
 11
274.6617358869
 21
10.7433323387
 31
0.0
  0
SPLINE
  5
1E0
330
1F
100
AcDbEntity
  8
0
  6
Continuous
 62
     7
370
    25
100
AcDbSpline
210
0.0
220
0.0
230
1.0
 70
     8
 71
     3
 72
     9
 73
     5
 74
     0
 42
0.000000001
 43
0.00000001
 40
0.0
 40
0.0
 40
0.0
 40
0.0
 40
0.4999998787049564
 40
1.0
 40
1.0
 40
1.0
 40
1.0
 10
278.6504354277689
 20
16.2136264187201
 30
0.0
 10
278.5745012858021
 20
16.13815211466453
 30
0.0
 10
278.4226329650267
 20
15.98720346993474
 30
0.0
 10
278.2747370938032
 20
15.83396137232122
 30
0.0
 10
278.2007891402524
 20
15.75734030492696
 30
0.0
  0
LINE
  5
1E1
330
1F
100
AcDbEntity
  8
0
  6
Continuous
 62
     7
370
    25
100
AcDbLine
 10
278.2364111298
 20
16.4526375585
 30
0.0
 11
277.7867648423
 21
15.9963514447
 31
0.0
  0
LINE
  5
1E2
330
1F
100
AcDbEntity
  8
0
  6
Continuous
 62
     7
370
    25
100
AcDbLine
 10
284.426319067
 20
21.0417569331
 30
0.0
 11
284.6203894993
 21
20.9297224573
 31
0.0
  0
LINE
  5
1E3
330
1F
100
AcDbEntity
  8
0
  6
Continuous
 62
     7
370
    25
100
AcDbLine
 10
281.0755296943
 20
14.1996049894
 30
0.0
 11
281.2025919059
 21
14.126253536
 31
0.0
  0
ARC
  5
1E4
330
1F
100
AcDbEntity
  8
0
  6
Continuous
 62
     7
370
    25
100
AcDbCircle
 10
267.9324974295
 20
25.078850711
 30
0.0
 40
12.10299556447085
100
AcDbArc
 50
307.5200098147
 51
352.4853673354
  0
SPLINE
  5
1E5
330
1F
100
AcDbEntity
  8
0
  6
Continuous
 62
     7
370
    25
100
AcDbSpline
210
0.0
220
0.0
230
1.0
 70
    11
 71
     3
 72
    64
 73
    60
 74
     0
 42
0.000000001
 43
0.00000001
 40
0.0
 40
0.0
 40
0.0
 40
0.0
 40
0.0312500000000018
 40
0.0312500000000018
 40
0.0625000000000037
 40
0.0625000000000037
 40
0.0937500000000055
 40
0.0937500000000055
 40
0.1250000000000074
 40
0.1250000000000074
 40
0.1875000000000083
 40
0.1875000000000083
 40
0.2187500000000089
 40
0.2187500000000089
 40
0.2500000000000093
 40
0.2500000000000093
 40
0.2812500000000098
 40
0.2812500000000098
 40
0.3125000000000103
 40
0.3125000000000103
 40
0.3437500000000108
 40
0.3437500000000108
 40
0.3750000000000113
 40
0.3750000000000113
 40
0.4062500000000119
 40
0.4062500000000119
 40
0.4375000000000124
 40
0.4375000000000124
 40
0.4687500000000129
 40
0.4687500000000129
 40
0.5000000000000133
 40
0.5000000000000133
 40
0.562500000000012
 40
0.562500000000012
 40
0.5937500000000113
 40
0.5937500000000113
 40
0.6250000000000105
 40
0.6250000000000105
 40
0.6562500000000099
 40
0.6562500000000099
 40
0.6875000000000091
 40
0.6875000000000091
 40
0.7187500000000084
 40
0.7187500000000084
 40
0.7500000000000077
 40
0.7500000000000077
 40
0.7812500000000071
 40
0.7812500000000071
 40
0.8125000000000066
 40
0.8125000000000066
 40
0.8437500000000059
 40
0.8437500000000059
 40
0.8750000000000053
 40
0.8750000000000053
 40
0.9375000000000034
 40
0.9375000000000034
 40
0.9687500000000017
 40
0.9687500000000017
 40
1.0
 40
1.0
 40
1.0
 40
1.0
 10
238.7321744891778
 20
34.14540831055778
 30
0.0
 10
238.7844744207365
 20
34.08641347991356
 30
0.0
 10
238.8386728747891
 20
34.03185002719496
 30
0.0
 10
238.9503892644947
 20
33.9310142376684
 30
0.0
 10
239.0085625242654
 20
33.8843066617471
 30
0.0
 10
239.1246857072585
 20
33.8021143844275
 30
0.0
 10
239.1824140816385
 20
33.76663813916007
 30
0.0
 10
239.297132136266
 20
33.7068202404487
 30
0.0
 10
239.3544273235936
 20
33.68249972376169
 30
0.0
 10
239.5178807457128
 20
33.62989537475084
 30
0.0
 10
239.6198901156564
 20
33.62060476499727
 30
0.0
 10
239.7500524148956
 20
33.6475281523915
 30
0.0
 10
239.7902965335415
 20
33.66332254758994
 30
0.0
 10
239.8626325087876
 20
33.70833044969017
 30
0.0
 10
239.8942800865049
 20
33.73710542439032
 30
0.0
 10
239.9491853819726
 20
33.80718121978176
 30
0.0
 10
239.9725703450629
 20
33.849030765325
 30
0.0
 10
240.0092610141511
 20
33.94257684449688
 30
0.0
 10
240.0228381847931
 20
33.99439093750524
 30
0.0
 10
240.0405846165909
 20
34.10836259950656
 30
0.0
 10
240.0445866474545
 20
34.17038400039168
 30
0.0
 10
240.0427823056161
 20
34.29951675810273
 30
0.0
 10
240.0370851047214
 20
34.36731769098238
 30
0.0
 10
240.0156425845149
 20
34.50914254972742
 30
0.0
 10
240.000243027453
 20
34.58093211805947
 30
0.0
 10
239.9601990652326
 20
34.72605683128945
 30
0.0
 10
239.9352010018484
 20
34.80020832789025
 30
0.0
 10
239.876824040549
 20
34.94528302138732
 30
0.0
 10
239.8436117534122
 20
35.01611446718669
 30
0.0
 10
239.768722090611
 20
35.1541515575581
 30
0.0
 10
239.7267567553317
 20
35.22156934832766
 30
0.0
 10
239.5926389176462
 20
35.40918336018914
 30
0.0
 10
239.4884706418537
 20
35.51970466511742
 30
0.0
 10
239.3232895479683
 20
35.64680886138839
 30
0.0
 10
239.2660130070805
 20
35.68344434838055
 30
0.0
 10
239.1500591927849
 20
35.74285103278581
 30
0.0
 10
239.0922172271996
 20
35.76532775103616
 30
0.0
 10
238.9769007796655
 20
35.7962615982919
 30
0.0
 10
238.9189099989283
 20
35.80462766419451
 30
0.0
 10
238.8081200251896
 20
35.8065290726945
 30
0.0
 10
238.7548735104004
 20
35.8003103296292
 30
0.0
 10
238.653076421098
 20
35.77361136127484
 30
0.0
 10
238.6049515078176
 20
35.75305878585193
 30
0.0
 10
238.5179144474388
 20
35.69953113739967
 30
0.0
 10
238.4783888981528
 20
35.6663565971156
 30
0.0
 10
238.4085981473706
 20
35.58730259619009
 30
0.0
 10
238.379333938558
 20
35.54260195205406
 30
0.0
 10
238.3320316500913
 20
35.44338367078198
 30
0.0
 10
238.3138922443584
 20
35.388163703412
 30
0.0
 10
238.2906534254899
 20
35.27113139481216
 30
0.0
 10
238.285402031002
 20
35.20955583966658
 30
0.0
 10
238.2876443221886
 20
35.08035465703789
 30
0.0
 10
238.2953520976236
 20
35.0123598447272
 30
0.0
 10
238.3368034823918
 20
34.80798579058579
 30
0.0
 10
238.390089477892
 20
34.66579292351552
 30
0.0
 10
238.4987325769362
 20
34.46257151080923
 30
0.0
 10
238.5401368682547
 20
34.39552108873996
 30
0.0
 10
238.6309414846409
 20
34.26617846636121
 30
0.0
 10
238.679874557619
 20
34.204403141202
 30
0.0
 10
238.7321744891777
 20
34.14540831055778
 30
0.0
  0
SPLINE
  5
1E6
330
1F
100
AcDbEntity
  8
0
  6
Continuous
 62
     7
370
    25
100
AcDbSpline
210
0.0
220
0.0
230
1.0
 70
    11
 71
     3
 72
    66
 73
    62
 74
     0
 42
0.000000001
 43
0.00000001
 40
0.0
 40
0.0
 40
0.0
 40
0.0
 40
0.0312500000000004
 40
0.0312500000000004
 40
0.0625000000000007
 40
0.0625000000000007
 40
0.0937500000000011
 40
0.0937500000000011
 40
0.1250000000000015
 40
0.1250000000000015
 40
0.1562500000000018
 40
0.1562500000000018
 40
0.1875000000000022
 40
0.1875000000000022
 40
0.2187500000000025
 40
0.2187500000000025
 40
0.2500000000000028
 40
0.2500000000000028
 40
0.2812500000000032
 40
0.2812500000000032
 40
0.3125000000000036
 40
0.3125000000000036
 40
0.3437500000000039
 40
0.3437500000000039
 40
0.3750000000000043
 40
0.3750000000000043
 40
0.4062500000000047
 40
0.4062500000000047
 40
0.4375000000000051
 40
0.4375000000000051
 40
0.4687500000000054
 40
0.4687500000000054
 40
0.5000000000000058
 40
0.5000000000000058
 40
0.5625000000000067
 40
0.5625000000000067
 40
0.5937500000000066
 40
0.5937500000000066
 40
0.6250000000000064
 40
0.6250000000000064
 40
0.6562500000000064
 40
0.6562500000000064
 40
0.6875000000000063
 40
0.6875000000000063
 40
0.7187500000000062
 40
0.7187500000000062
 40
0.7500000000000061
 40
0.7500000000000061
 40
0.7812500000000061
 40
0.7812500000000061
 40
0.812500000000006
 40
0.812500000000006
 40
0.8437500000000059
 40
0.8437500000000059
 40
0.8750000000000059
 40
0.8750000000000059
 40
0.9375000000000029
 40
0.9375000000000029
 40
0.9687500000000016
 40
0.9687500000000016
 40
1.0
 40
1.0
 40
1.0
 40
1.0
 10
245.2424053438984
 20
45.86666664749342
 30
0.0
 10
245.1633862314175
 20
45.87355367322374
 30
0.0
 10
245.0855408226373
 20
45.87572601816886
 30
0.0
 10
244.9320557348099
 20
45.87050158506009
 30
0.0
 10
244.8556102583574
 20
45.86294356940315
 30
0.0
 10
244.7094783726779
 20
45.8378909041931
 30
0.0
 10
244.6399917590205
 20
45.82057295107415
 30
0.0
 10
244.5081278203369
 20
45.77610274908507
 30
0.0
 10
244.4454920163138
 20
45.74865516617649
 30
0.0
 10
244.3329660198353
 20
45.68595859277742
 30
0.0
 10
244.2823169945988
 20
45.6505309532775
 30
0.0
 10
244.1925175930848
 20
45.57140409420125
 30
0.0
 10
244.1542317275938
 20
45.52832169600642
 30
0.0
 10
244.0922624738035
 20
45.43764172269567
 30
0.0
 10
244.068105119783
 20
45.38931971062005
 30
0.0
 10
244.0350848792274
 20
45.28968269761415
 30
0.0
 10
244.0263018401948
 20
45.23906363833267
 30
0.0
 10
244.0238158754698
 20
45.13671919557685
 30
0.0
 10
244.0303502232094
 20
45.08451442764903
 30
0.0
 10
244.0583840580032
 20
44.98351676804916
 30
0.0
 10
244.0797367632561
 20
44.93434473209209
 30
0.0
 10
244.1373418192211
 20
44.83911043755488
 30
0.0
 10
244.1736301468866
 20
44.79335360538623
 30
0.0
 10
244.2581969097089
 20
44.70927839199049
 30
0.0
 10
244.3067902594549
 20
44.67040911589288
 30
0.0
 10
244.4170298058971
 20
44.59956911290844
 30
0.0
 10
244.4768542286138
 20
44.56876167902713
 30
0.0
 10
244.605550360072
 20
44.51593828390669
 30
0.0
 10
244.6752626564123
 20
44.49375571054014
 30
0.0
 10
244.8197523559381
 20
44.45957184085629
 30
0.0
 10
244.8942652241647
 20
44.44747386648613
 30
0.0
 10
245.047806348795
 20
44.43275971634927
 30
0.0
 10
245.1271953155523
 20
44.4302634839933
 30
0.0
 10
245.3620758454145
 20
44.43680849384906
 30
0.0
 10
245.5205535863551
 20
44.4600598239296
 30
0.0
 10
245.7387716525572
 20
44.51708320993681
 30
0.0
 10
245.8093589409794
 20
44.53999956423966
 30
0.0
 10
245.9420576577566
 20
44.59225560586811
 30
0.0
 10
246.0033459684409
 20
44.62117829537699
 30
0.0
 10
246.1160133487953
 20
44.68437996677448
 30
0.0
 10
246.1677612597139
 20
44.71904997544367
 30
0.0
 10
246.2569779638134
 20
44.79123293674904
 30
0.0
 10
246.29495865096
 20
44.82892698073815
 30
0.0
 10
246.3575277723232
 20
44.90783547017702
 30
0.0
 10
246.3817472917943
 20
44.94884218611303
 30
0.0
 10
246.414588364959
 20
45.0313247039789
 30
0.0
 10
246.4235732873253
 20
45.07331869810697
 30
0.0
 10
246.4259665373636
 20
45.15877028342109
 30
0.0
 10
246.4193790773473
 20
45.20102372238922
 30
0.0
 10
246.3911867659552
 20
45.28514659054292
 30
0.0
 10
246.3692007202717
 20
45.32748084051724
 30
0.0
 10
246.3111020272991
 20
45.40947710766014
 30
0.0
 10
246.2752251542984
 20
45.44913137516227
 30
0.0
 10
246.1898691430729
 20
45.52607007230241
 30
0.0
 10
246.1400182941111
 20
45.56345309766848
 30
0.0
 10
245.9762413645246
 20
45.66723379481683
 30
0.0
 10
245.8436181698219
 20
45.72810698718955
 30
0.0
 10
245.6286609956107
 20
45.79735804399215
 30
0.0
 10
245.5533874911713
 20
45.81712774652797
 30
0.0
 10
245.3994103414532
 20
45.84837344831683
 30
0.0
 10
245.3214244563791
 20
45.85977962176309
 30
0.0
 10
245.2424053438983
 20
45.86666664749342
 30
0.0
  0
SPLINE
  5
1E7
330
1F
100
AcDbEntity
  8
0
  6
Continuous
 62
     7
370
    25
100
AcDbSpline
210
0.0
220
0.0
230
1.0
 70
     8
 71
     3
 72
    14
 73
    10
 74
     0
 42
0.000000001
 43
0.00000001
 40
0.0
 40
0.0
 40
0.0
 40
0.0
 40
0.25
 40
0.25
 40
0.5
 40
0.5
 40
0.75
 40
0.75
 40
1.0
 40
1.0
 40
1.0
 40
1.0
 10
215.6150417631066
 20
40.28057306988083
 30
0.0
 10
215.5678686558743
 20
40.2533406147347
 30
0.0
 10
215.5123045911755
 20
40.23159625659375
 30
0.0
 10
215.3903791190565
 20
40.20135082918775
 30
0.0
 10
215.3242825981806
 20
40.19305179907744
 30
0.0
 10
215.1920906690439
 20
40.19161918329767
 30
0.0
 10
215.1251555175132
 20
40.19856915747928
 30
0.0
 10
215.0025450258428
 20
40.22677851108869
 30
0.0
 10
214.9456095710391
 20
40.24835435539634
 30
0.0
 10
214.8988670276669
 20
40.27533825131674
 30
0.0
  0
SPLINE
  5
1E8
330
1F
100
AcDbEntity
  8
0
  6
Continuous
 62
     7
370
    25
100
AcDbSpline
210
0.0
220
0.0
230
1.0
 70
     8
 71
     3
 72
    12
 73
     8
 74
     0
 42
0.000000001
 43
0.00000001
 40
0.0
 40
0.0
 40
0.0
 40
0.0
 40
0.2500000000000032
 40
0.2500000000000032
 40
0.5000000000000064
 40
0.5000000000000064
 40
1.0
 40
1.0
 40
1.0
 40
1.0
 10
243.2273301837467
 20
68.04056284647103
 30
0.0
 10
243.2811022026947
 20
68.0095209206783
 30
0.0
 10
243.3335904778129
 20
67.96054629142148
 30
0.0
 10
243.4245964047515
 20
67.84381541657196
 30
0.0
 10
243.4631707582808
 20
67.77636395123884
 30
0.0
 10
243.5529943475771
 20
67.57204672423194
 30
0.0
 10
243.58088357434
 20
67.43168389503452
 30
0.0
 10
243.58088357434
 20
67.30886716997983
 30
0.0
  0
LINE
  5
1E9
330
1F
100
AcDbEntity
  8
0
  6
Continuous
 62
     7
370
    25
100
AcDbLine
 10
214.8988665685
 20
40.2753379546
 30
0.0
 11
213.2414187017
 21
41.2321622415
 31
0.0
  0
LWPOLYLINE
  5
1EA
330
1F
100
AcDbEntity
  8
0
  6
Continuous
 62
     7
370
    25
100
AcDbPolyline
 90
       25
 70
   128
 43
0.0
 10
213.2414187017
 20
41.2321622415
 10
213.6308911433
 20
43.120583574
 10
214.1404847374
 20
45.0344873932
 10
214.7665669524
 20
46.9602339972
 10
215.504678125
 20
48.8840993504
 10
216.3495564844
 20
50.7923735612
 10
217.2951802997
 20
52.6714547948
 10
218.3348113436
 20
54.5079526925
 10
219.4610403317
 20
56.2887792424
 10
220.6658409236
 20
58.001243072
 10
221.9406263575
 20
59.6331384169
 10
223.2763126704
 20
61.1728378915
 10
224.6633799428
 20
62.6093658676
 10
226.0919434218
 20
63.9324866818
 10
227.5518220093
 20
65.1327700287
 10
229.0326111959
 20
66.2016619621
 10
230.5237582174
 20
67.1315434916
 10
232.0146360589
 20
67.9157900338
 10
233.4946195163
 20
68.5488092385
 10
234.9531615877
 20
69.026094214
 10
236.3798673126
 20
69.3442387768
 10
237.7645690932
 20
69.5009794125
 10
239.0973979815
 20
69.4951968853
 10
240.3688564485
 20
69.3269339119
 10
241.5698829218
 20
68.9973867903
  0
LINE
  5
1EB
330
1F
100
AcDbEntity
  8
0
  6
Continuous
 62
     7
370
    25
100
AcDbLine
 10
241.5698829218
 20
68.9973867903
 30
0.0
 11
243.2273307886
 21
68.0405625034
 31
0.0
  0
LINE
  5
1EC
330
1F
100
AcDbEntity
  8
0
  6
Continuous
 62
     7
370
    25
100
AcDbLine
 10
248.0179793249
 20
58.5781201884
 30
0.0
 11
249.4564960456
 21
59.4085582148
 31
0.0
  0
LINE
  5
1ED
330
1F
100
AcDbEntity
  8
0
  6
Continuous
 62
     7
370
    25
100
AcDbLine
 10
248.0179793249
 20
50.412712252
 30
0.0
 11
248.0179793249
 21
58.5781201884
 31
0.0
  0
LINE
  5
1EE
330
1F
100
AcDbEntity
  8
0
  6
Continuous
 62
     7
370
    25
100
AcDbLine
 10
249.4564960456
 20
51.2431502785
 30
0.0
 11
248.0179793249
 21
50.412712252
 31
0.0
  0
LINE
  5
1EF
330
1F
100
AcDbEntity
  8
0
  6
Continuous
 62
     7
370
    25
100
AcDbLine
 10
215.615042282
 20
31.2986243888
 30
0.0
 11
216.9759903622
 21
32.0842829923
 31
0.0
  0
LINE
  5
1F0
330
1F
100
AcDbEntity
  8
0
  6
Continuous
 62
     7
370
    25
100
AcDbLine
 10
216.9759903622
 20
32.0842829923
 30
0.0
 11
216.9759903622
 21
41.0662318744
 31
0.0
  0
LINE
  5
1F1
330
1F
100
AcDbEntity
  8
0
  6
Continuous
 62
     7
370
    25
100
AcDbLine
 10
216.9759903622
 20
41.0662318744
 30
0.0
 11
215.615042282
 21
40.2805732709
 31
0.0
  0
LINE
  5
1F2
330
1F
100
AcDbEntity
  8
0
  6
Continuous
 62
     7
370
    25
100
AcDbLine
 10
243.5808842371
 20
67.3088680182
 30
0.0
 11
243.5808842371
 21
64.7332136661
 31
0.0
  0
LINE
  5
1F3
330
1F
100
AcDbEntity
  8
0
  6
Continuous
 62
     7
370
    25
100
AcDbLine
 10
245.8113455097
 20
66.020831551
 30
0.0
 11
243.5808842371
 21
64.7332136661
 31
0.0
  0
LWPOLYLINE
  5
1F4
330
1F
100
AcDbEntity
  8
0
  6
Continuous
 62
     7
370
    25
100
AcDbPolyline
 90
       22
 70
   128
 43
0.0
 10
212.2626332191
 20
42.7783646809
 10
212.6752337439
 20
44.6885646411
 10
213.2154325354
 20
46.6232212825
 10
213.8789174443
 20
48.5668884872
 10
214.6603937727
 20
50.5040502673
 10
215.5536185186
 20
52.4192378725
 10
216.5514635964
 20
54.2971628652
 10
217.6459593003
 20
56.1228296651
 10
218.8283700374
 20
57.881665961
 10
220.0892542553
 20
59.5596265093
 10
221.4185454424
 20
61.1433151797
 10
222.8056304956
 20
62.620087991
 10
224.2394350011
 20
63.9781555757
 10
225.7085124675
 20
65.2066742367
 10
227.2011332294
 20
66.2958368143
 10
228.7053805276
 20
67.2369464037
 10
230.2092448514
 20
68.022490589
 10
231.7007192518
 20
68.6461964672
 10
233.1678961588
 20
69.1030850177
 10
234.5990622057
 20
69.3895075931
 10
235.982789999
 20
69.5031776032
 10
237.1939356672
 20
69.4554441516
  0
SPLINE
  5
1F5
330
1F
100
AcDbEntity
  8
0
  6
Continuous
 62
     7
370
    25
100
AcDbSpline
210
0.0
220
0.0
230
1.0
 70
     8
 71
     3
 72
     8
 73
     4
 74
     0
 42
0.000000001
 43
0.00000001
 40
0.0
 40
0.0
 40
0.0
 40
0.0
 40
1.0
 40
1.0
 40
1.0
 40
1.0
 10
212.2626334020035
 20
42.77836496432045
 30
0.0
 10
211.8200970481581
 20
42.70667843389118
 30
0.0
 10
211.3774878581064
 20
42.63514226828942
 30
0.0
 10
210.93481615189
 20
42.56373611198471
 30
0.0
  0
LWPOLYLINE
  5
1F6
330
1F
100
AcDbEntity
  8
0
  6
Continuous
 62
     7
370
    25
100
AcDbPolyline
 90
       25
 70
   128
 43
0.0
 10
210.9348158546
 20
42.5637357218
 10
211.3242882962
 20
44.4521570543
 10
211.8338818903
 20
46.3660608735
 10
212.4599641053
 20
48.2918074775
 10
213.1980752778
 20
50.2156728308
 10
214.0429536372
 20
52.1239470415
 10
214.9885774526
 20
54.0030282752
 10
216.0282084965
 20
55.8395261728
 10
217.1544374846
 20
57.6203527227
 10
218.3592380765
 20
59.3328165523
 10
219.6340235103
 20
60.9647118972
 10
220.9697098232
 20
62.5044113718
 10
222.3567770957
 20
63.9409393479
 10
223.7853405747
 20
65.2640601621
 10
225.2452191622
 20
66.464343509
 10
226.7260083487
 20
67.5332354424
 10
228.2171553703
 20
68.4631169719
 10
229.7080332118
 20
69.2473635141
 10
231.1880166691
 20
69.8803827188
 10
232.6465587405
 20
70.3576676943
 10
234.0732644655
 20
70.6758122571
 10
235.4579662461
 20
70.8325528928
 10
236.7907951343
 20
70.8267703656
 10
238.0622536013
 20
70.6585073923
 10
239.2632800747
 20
70.3289602706
  0
LINE
  5
1F7
330
1F
100
AcDbEntity
  8
0
  6
Continuous
 62
     7
370
    25
100
AcDbLine
 10
239.2632800747
 20
70.3289602706
 30
0.0
 11
239.5594551988
 21
69.385052091
 31
0.0
  0
LWPOLYLINE
  5
1F8
330
1F
100
AcDbEntity
  8
0
  6
Continuous
 62
     7
370
    25
100
AcDbPolyline
 90
       12
 70
   128
 43
0.0
 10
222.7545299731
 20
71.9347979734
 10
222.8086040093
 20
71.9648020722
 10
224.2862104091
 20
72.7104561065
 10
225.750855871
 20
73.3062251905
 10
227.1922665655
 20
73.7479319963
 10
228.6003325174
 20
74.0324778256
 10
229.965176547
 20
74.1578656791
 10
231.2772257218
 20
74.12321717
 10
232.5272768825
 20
73.9287753691
 10
233.7065615089
 20
73.575904229
 10
234.8068076234
 20
73.067077171
 10
234.9373746089
 20
72.9932612355
  0
LWPOLYLINE
  5
1F9
330
1F
100
AcDbEntity
  8
0
  6
Continuous
 62
     7
370
    25
100
AcDbPolyline
 90
       10
 70
   128
 43
0.0
 10
209.9394070417
 20
29.6908178732
 10
209.5519247215
 20
29.9288243635
 10
208.5845162538
 20
30.664555
 10
207.7142839309
 20
31.5453241681
 10
206.9473311431
 20
32.5649525342
 10
206.2890355649
 20
33.7162882007
 10
205.7440175446
 20
34.9912568995
 10
205.3160979575
 20
36.3809140877
 10
205.0082784494
 20
37.8755126309
 10
204.8533848299
 20
39.1030329037
  0
LINE
  5
1FA
330
1F
100
AcDbEntity
  8
0
  6
Continuous
 62
     7
370
    25
100
AcDbLine
 10
235.0956027891
 20
72.7349091555
 30
0.0
 11
239.2632800747
 21
70.3289602706
 31
0.0
  0
LINE
  5
1FB
330
1F
100
AcDbEntity
  8
0
  6
Continuous
 62
     7
370
    25
100
AcDbLine
 10
210.9348158546
 20
42.5637357218
 30
0.0
 11
210.3026723959
 21
42.9286643728
 31
0.0
  0
SPLINE
  5
1FC
330
1F
100
AcDbEntity
  8
0
  6
Continuous
 62
     7
370
    25
100
AcDbSpline
210
0.0
220
0.0
230
1.0
 70
     8
 71
     3
 72
    30
 73
    26
 74
     0
 42
0.000000001
 43
0.00000001
 40
0.0
 40
0.0
 40
0.0
 40
0.0
 40
0.1249999999999999
 40
0.1249999999999999
 40
0.1874999999999998
 40
0.1874999999999998
 40
0.2499999999999997
 40
0.2499999999999997
 40
0.3749999999999996
 40
0.3749999999999996
 40
0.4374999999999996
 40
0.4374999999999996
 40
0.4999999999999997
 40
0.4999999999999997
 40
0.6249999999999997
 40
0.6249999999999997
 40
0.6874999999999998
 40
0.6874999999999998
 40
0.7499999999999998
 40
0.7499999999999998
 40
0.8124999999999999
 40
0.8124999999999999
 40
0.875
 40
0.875
 40
1.0
 40
1.0
 40
1.0
 40
1.0
 10
210.3026729499544
 20
42.92866461474055
 30
0.0
 10
210.0684108255243
 20
43.06390126058111
 30
0.0
 10
209.8320947996716
 20
43.16751411578819
 30
0.0
 10
209.477232319536
 20
43.2767257763115
 30
0.0
 10
209.3587649415441
 20
43.30544541463265
 30
0.0
 10
209.1216279179692
 20
43.34730861519196
 30
0.0
 10
209.0026748971296
 20
43.3603752292988
 30
0.0
 10
208.6536081406256
 20
43.37544299029798
 30
0.0
 10
208.4286581486342
 20
43.35416069934521
 30
0.0
 10
208.1042987244357
 20
43.2768096376932
 30
0.0
 10
207.9978709205531
 20
43.24318565054878
 30
0.0
 10
207.7924357135566
 20
43.16134981932026
 30
0.0
 10
207.6937992269038
 20
43.11338650622837
 30
0.0
 10
207.4102334353693
 20
42.94923059507682
 30
0.0
 10
207.2375214877993
 20
42.8129721502662
 30
0.0
 10
207.0055439490823
 20
42.56808414846387
 30
0.0
 10
206.933246700553
 20
42.48003738796963
 30
0.0
 10
206.8010362469037
 20
42.29423511458229
 30
0.0
 10
206.7407562725302
 20
42.19610508046372
 30
0.0
 10
206.6319765742735
 20
41.98960686223836
 30
0.0
 10
206.5834762381121
 20
41.88123870266761
 30
0.0
 10
206.4986914996119
 20
41.65415761223176
 30
0.0
 10
206.4622585514428
 20
41.53471193568794
 30
0.0
 10
206.3738536015715
 20
41.16674478176675
 30
0.0
 10
206.3421996990417
 20
40.9089390726694
 30
0.0
 10
206.3375697628686
 20
40.63899576736948
 30
0.0
  0
ARC
  5
1FD
330
1F
100
AcDbEntity
  8
0
  6
Continuous
 62
     7
370
    25
100
AcDbCircle
 10
229.9002473833
 20
40.2307255014
 30
0.0
 40
23.56621418151257
100
AcDbArc
 50
179.0073355702
 51
180.9926644298
  0
SPLINE
  5
1FE
330
1F
100
AcDbEntity
  8
0
  6
Continuous
 62
     7
370
    25
100
AcDbSpline
210
0.0
220
0.0
230
1.0
 70
     8
 71
     3
 72
    28
 73
    24
 74
     0
 42
0.000000001
 43
0.00000001
 40
0.0
 40
0.0
 40
0.0
 40
0.0
 40
0.1250000000000002
 40
0.1250000000000002
 40
0.1875000000000002
 40
0.1875000000000002
 40
0.2500000000000002
 40
0.2500000000000002
 40
0.3750000000000003
 40
0.3750000000000003
 40
0.4375000000000002
 40
0.4375000000000002
 40
0.5000000000000002
 40
0.5000000000000002
 40
0.6250000000000001
 40
0.6250000000000001
 40
0.7500000000000001
 40
0.7500000000000001
 40
0.8125
 40
0.8125
 40
0.8749999999999998
 40
0.8749999999999998
 40
1.0
 40
1.0
 40
1.0
 40
1.0
 10
206.3375697628686
 20
39.82245495548373
 30
0.0
 10
206.3422443890487
 20
39.55530325728122
 30
0.0
 10
206.3744215376639
 20
39.28164000608373
 30
0.0
 10
206.4622646562789
 20
38.86146424927327
 30
0.0
 10
206.4981833604398
 20
38.71977588890283
 30
0.0
 10
206.583516241197
 20
38.43295042262333
 30
0.0
 10
206.6326453776988
 20
38.28894345981678
 30
0.0
 10
206.7967496295182
 20
37.86038748549279
 30
0.0
 10
206.928951880387
 20
37.57705370520153
 30
0.0
 10
207.1600431319736
 20
37.15448821778212
 30
0.0
 10
207.2429981505419
 20
37.01343354866571
 30
0.0
 10
207.4164396098518
 20
36.73753133286129
 30
0.0
 10
207.5071780151957
 20
36.60213277598962
 30
0.0
 10
207.7907447070759
 20
36.20308459883749
 30
0.0
 10
207.9951410783761
 20
35.94614846919374
 30
0.0
 10
208.4316462584989
 20
35.45168304384863
 30
0.0
 10
208.6570720329566
 20
35.22161133022886
 30
0.0
 10
209.0040422757644
 20
34.90026806361634
 30
0.0
 10
209.121188328252
 20
34.79714863027169
 30
0.0
 10
209.3583328838924
 20
34.5989742849395
 30
0.0
 10
209.4786638191034
 20
34.50372955817758
 30
0.0
 10
209.8355866212709
 20
34.23652954573443
 30
0.0
 10
210.0706850827603
 20
34.08063942908138
 30
0.0
 10
210.3026729499544
 20
33.9467156839973
 30
0.0
  0
LINE
  5
1FF
330
1F
100
AcDbEntity
  8
0
  6
Continuous
 62
     7
370
    25
100
AcDbLine
 10
210.3026723959
 20
33.9467154907
 30
0.0
 11
210.9348158546
 21
33.5817868397
 31
0.0
  0
LWPOLYLINE
  5
200
330
1F
100
AcDbEntity
  8
0
  6
Continuous
 62
     7
370
    25
100
AcDbPolyline
 90
        9
 70
   128
 43
0.0
 10
216.8870032184
 20
25.803165967
 10
216.0737349954
 20
26.1634051084
 10
215.0243469561
 20
26.797361563
 10
214.0698367412
 20
27.5844366831
 10
213.2170887749
 20
28.5189567697
 10
212.4722512287
 20
29.5941782212
 10
211.840699143
 20
30.8023498957
 10
211.3269856945
 20
32.1347557006
 10
210.9348158546
 20
33.5817868397
  0
LINE
  5
201
330
1F
100
AcDbEntity
  8
0
  6
Continuous
 62
     7
370
    25
100
AcDbLine
 10
241.2152323381
 20
69.2016178904
 30
0.0
 11
241.5676432119
 21
68.9981754233
 31
0.0
  0
SPLINE
  5
202
330
1F
100
AcDbEntity
  8
0
  6
Continuous
 62
     7
370
    25
100
AcDbSpline
210
0.0
220
0.0
230
1.0
 70
     8
 71
     3
 72
    22
 73
    18
 74
     0
 42
0.000000001
 43
0.00000001
 40
0.0
 40
0.0
 40
0.0
 40
0.0
 40
0.2500000000000002
 40
0.2500000000000002
 40
0.3750000000000003
 40
0.3750000000000003
 40
0.5000000000000004
 40
0.5000000000000004
 40
0.6250000000000004
 40
0.6250000000000004
 40
0.7500000000000004
 40
0.7500000000000004
 40
0.8750000000000004
 40
0.8750000000000004
 40
0.9375000000000002
 40
0.9375000000000002
 40
1.0
 40
1.0
 40
1.0
 40
1.0
 10
235.0956022001014
 20
72.73490948945162
 30
0.0
 10
235.5276342956405
 20
72.56663905134518
 30
0.0
 10
235.9780089440059
 20
72.35596304646496
 30
0.0
 10
236.7029823856901
 20
71.97086881020832
 30
0.0
 10
236.9549497094095
 20
71.82974327193253
 30
0.0
 10
237.4677418225418
 20
71.53072630271535
 30
0.0
 10
237.7292631346008
 20
71.37256046535954
 30
0.0
 10
238.2668378161995
 20
71.03996052402206
 30
0.0
 10
238.5448003608623
 20
70.86426271265603
 30
0.0
 10
239.0974062796076
 20
70.51261979656266
 30
0.0
 10
239.374402204779
 20
70.33524096743994
 30
0.0
 10
239.9325897846757
 20
69.98093054812738
 30
0.0
 10
240.2027658738355
 20
69.81107270841493
 30
0.0
 10
240.5942331889319
 20
69.5705037234402
 30
0.0
 10
240.7224804190398
 20
69.49263584089182
 30
0.0
 10
240.9743420582213
 20
69.34202954539339
 30
0.0
 10
241.0972342920677
 20
69.26973670618244
 30
0.0
 10
241.2152329509271
 20
69.20161753038035
 30
0.0
  0
LINE
  5
203
330
1F
100
AcDbEntity
  8
0
  6
Continuous
 62
     7
370
    25
100
AcDbLine
 10
212.5837342528
 20
42.963732362
 30
0.0
 11
212.2626332191
 21
42.7783646809
 31
0.0
  0
LINE
  5
204
330
1F
100
AcDbEntity
  8
0
  6
Continuous
 62
     7
370
    25
100
AcDbLine
 10
213.5443834197
 20
42.7453180537
 30
0.0
 11
213.15772889
 21
42.9685289625
 31
0.0
  0
SPLINE
  5
205
330
1F
100
AcDbEntity
  8
0
  6
Continuous
 62
     7
370
    25
100
AcDbSpline
210
0.0
220
0.0
230
1.0
 70
     8
 71
     3
 72
    12
 73
     8
 74
     0
 42
0.000000001
 43
0.00000001
 40
0.0
 40
0.0
 40
0.0
 40
0.0
 40
0.250000000000003
 40
0.250000000000003
 40
0.500000000000006
 40
0.500000000000006
 40
1.0
 40
1.0
 40
1.0
 40
1.0
 10
213.1577290566956
 20
42.96852944218632
 30
0.0
 10
213.1203370191128
 20
42.99011540601276
 30
0.0
 10
213.0741887082578
 20
43.00755554103522
 30
0.0
 10
212.9754888708752
 20
43.03001166934955
 30
0.0
 10
212.9219773045798
 20
43.03539797495016
 30
0.0
 10
212.7633798848784
 20
43.03331681614002
 30
0.0
 10
212.6586657902606
 20
43.00698959564922
 30
0.0
 10
212.5837339517338
 20
42.96373236602373
 30
0.0
  0
LWPOLYLINE
  5
206
330
1F
100
AcDbEntity
  8
0
  6
Continuous
 62
     7
370
    25
100
AcDbPolyline
 90
       18
 70
   128
 43
0.0
 10
204.9813640853
 20
44.6673838473
 10
205.0124552886
 20
44.9017658592
 10
205.3254232976
 20
46.7593572199
 10
205.7604169698
 20
48.6507028237
 10
206.3143016333
 20
50.5621739486
 10
206.9830878255
 20
52.4800001269
 10
207.7619550006
 20
54.3903619186
 10
208.6452936763
 20
56.2794962324
 10
209.6267383616
 20
58.1337913796
 10
210.6992162885
 20
59.9398866911
 10
211.8550027298
 20
61.6847690901
 10
213.0857684145
 20
63.3558673857
 10
214.3826466995
 20
64.9411427615
 10
215.7362928382
 20
66.4291701392
 10
217.1369541157
 20
67.8092288579
 10
218.5745386667
 20
69.0713773825
 10
220.0386889031
 20
70.2065215488
 10
221.3282347889
 20
71.0858849109
  0
LINE
  5
207
330
1F
100
AcDbEntity
  8
0
  6
Continuous
 62
     7
370
    25
100
AcDbLine
 10
212.0262427411
 20
34.9417114719
 30
0.0
 11
216.9759903622
 21
32.0842829923
 31
0.0
  0
ARC
  5
208
330
1F
100
AcDbEntity
  8
0
  6
Continuous
 62
     7
370
    25
100
AcDbCircle
 10
216.1667892518
 20
41.4147399261
 30
0.0
 40
7.684023866252964
100
AcDbArc
 50
182.6054781208
 51
237.3945216397
  0
LINE
  5
209
330
1F
100
AcDbEntity
  8
0
  6
Continuous
 62
     7
370
    25
100
AcDbLine
 10
208.4907089142
 20
41.8819765722
 30
0.0
 11
208.4907089142
 21
41.0654357215
 31
0.0
  0
ARC
  5
20A
330
1F
100
AcDbEntity
  8
0
  6
Continuous
 62
     7
370
    25
100
AcDbCircle
 10
211.7023259863
 20
41.9952789951
 30
0.0
 40
3.213615044985654
100
AcDbArc
 50
155.3018969036
 51
182.0204959951
  0
SPLINE
  5
20B
330
1F
100
AcDbEntity
  8
0
  6
Continuous
 62
     7
370
    25
100
AcDbSpline
210
0.0
220
0.0
230
1.0
 70
     8
 71
     3
 72
     8
 73
     4
 74
     0
 42
0.000000001
 43
0.00000001
 40
0.0
 40
0.0
 40
0.0
 40
0.0
 40
1.0
 40
1.0
 40
1.0
 40
1.0
 10
196.7349389791063
 20
46.37530666419624
 30
0.0
 10
197.2018012047731
 20
45.99506507693427
 30
0.0
 10
197.6688359891566
 20
45.62815842839139
 30
0.0
 10
198.135961101332
 20
45.26823210279941
 30
0.0
  0
SPLINE
  5
20C
330
1F
100
AcDbEntity
  8
0
  6
Continuous
 62
     7
370
    25
100
AcDbSpline
210
0.0
220
0.0
230
1.0
 70
     8
 71
     3
 72
    14
 73
    10
 74
     0
 42
0.000000001
 43
0.00000001
 40
0.0
 40
0.0
 40
0.0
 40
0.0
 40
0.124999999999998
 40
0.124999999999998
 40
0.249999999999996
 40
0.249999999999996
 40
0.4999999999999973
 40
0.4999999999999973
 40
1.0
 40
1.0
 40
1.0
 40
1.0
 10
198.135961101332
 20
45.26823210279941
 30
0.0
 10
198.1623850400052
 20
45.24787209451379
 30
0.0
 10
198.18644898251
 20
45.23235979119912
 30
0.0
 10
198.2227182399351
 20
45.21537642263977
 30
0.0
 10
198.2347366149233
 20
45.21350218123384
 30
0.0
 10
198.2602508615936
 20
45.2176430225691
 30
0.0
 10
198.2644445240417
 20
45.23258541063212
 30
0.0
 10
198.2655513337773
 20
45.28693674697727
 30
0.0
 10
198.2499233486886
 20
45.33835770765326
 30
0.0
 10
198.230270616055
 20
45.39470653523922
 30
0.0
  0
SPLINE
  5
20D
330
1F
100
AcDbEntity
  8
0
  6
Continuous
 62
     7
370
    25
100
AcDbSpline
210
0.0
220
0.0
230
1.0
 70
     8
 71
     3
 72
    14
 73
    10
 74
     0
 42
0.000000001
 43
0.00000001
 40
0.0
 40
0.0
 40
0.0
 40
0.0
 40
0.25
 40
0.25
 40
0.5
 40
0.5
 40
0.75
 40
0.75
 40
1.0
 40
1.0
 40
1.0
 40
1.0
 10
198.2302706160546
 20
45.39470653523959
 30
0.0
 10
198.2056047681166
 20
45.4654290977774
 30
0.0
 10
198.1947418973921
 20
45.52849539552761
 30
0.0
 10
198.1727915301973
 20
45.6600621364862
 30
0.0
 10
198.1625199353783
 20
45.72801547547787
 30
0.0
 10
198.1332159210197
 20
45.87662047932131
 30
0.0
 10
198.1144232497901
 20
45.95708428575218
 30
0.0
 10
198.0615039452739
 20
46.13665515956651
 30
0.0
 10
198.0274247680949
 20
46.23548620549438
 30
0.0
 10
197.9833385158172
 20
46.34308626047365
 30
0.0
  0
LWPOLYLINE
  5
20E
330
1F
100
AcDbEntity
  8
0
  6
Continuous
 62
     7
370
    25
100
AcDbPolyline
 90
        9
 70
   128
 43
0.0
 10
197.983338237
 20
46.343086413
 10
197.6152579551
 20
47.4142317927
 10
197.3501292533
 20
48.57823467
 10
197.1901622069
 20
49.8253859129
 10
197.136691027
 20
51.1452825488
 10
197.1901622069
 20
52.526915695
 10
197.3501292533
 20
53.9587609583
 10
197.6152579551
 20
55.428874919
 10
197.983338237
 20
56.9249967462
  0
SPLINE
  5
20F
330
1F
100
AcDbEntity
  8
0
  6
Continuous
 62
     7
370
    25
100
AcDbSpline
210
0.0
220
0.0
230
1.0
 70
     8
 71
     3
 72
    14
 73
    10
 74
     0
 42
0.000000001
 43
0.00000001
 40
0.0
 40
0.0
 40
0.0
 40
0.0
 40
0.25
 40
0.25
 40
0.5
 40
0.5
 40
0.75
 40
0.75
 40
1.0
 40
1.0
 40
1.0
 40
1.0
 10
198.2302706160546
 20
58.9784969345481
 30
0.0
 10
198.2056047681166
 20
58.80682440305524
 30
0.0
 10
198.1947418973921
 20
58.63184467087964
 30
0.0
 10
198.1727915301973
 20
58.28303816723844
 30
0.0
 10
198.1625199353783
 20
58.10882407530266
 30
0.0
 10
198.1332159210197
 20
57.76277316335157
 30
0.0
 10
198.1144232497901
 20
57.59089030943633
 30
0.0
 10
198.0615039452739
 20
57.2508586405421
 30
0.0
 10
198.0274247680949
 20
57.08349778004499
 30
0.0
 10
197.9833385158172
 20
56.92499682164203
 30
0.0
  0
SPLINE
  5
210
330
1F
100
AcDbEntity
  8
0
  6
Continuous
 62
     7
370
    25
100
AcDbSpline
210
0.0
220
0.0
230
1.0
 70
     8
 71
     3
 72
    14
 73
    10
 74
     0
 42
0.000000001
 43
0.00000001
 40
0.0
 40
0.0
 40
0.0
 40
0.0
 40
0.124999999999999
 40
0.124999999999999
 40
0.2499999999999981
 40
0.2499999999999981
 40
0.4999999999999952
 40
0.4999999999999952
 40
1.0
 40
1.0
 40
1.0
 40
1.0
 10
198.135961101332
 20
59.72724067819075
 30
0.0
 10
198.1623850400052
 20
59.72293437891854
 30
0.0
 10
198.18644898251
 20
59.70705087237815
 30
0.0
 10
198.2227182399351
 20
59.65790629948675
 30
0.0
 10
198.2347366149233
 20
59.62689494413439
 30
0.0
 10
198.2602508615936
 20
59.53003640226697
 30
0.0
 10
198.2644445240417
 20
59.45975578139081
 30
0.0
 10
198.2655513337772
 20
59.25335437931294
 30
0.0
 10
198.2499233486886
 20
59.11527854329076
 30
0.0
 10
198.230270616055
 20
58.97849693454801
 30
0.0
  0
SPLINE
  5
211
330
1F
100
AcDbEntity
  8
0
  6
Continuous
 62
     7
370
    25
100
AcDbSpline
210
0.0
220
0.0
230
1.0
 70
     8
 71
     3
 72
     8
 73
     4
 74
     0
 42
0.000000001
 43
0.00000001
 40
0.0
 40
0.0
 40
0.0
 40
0.0
 40
1.0
 40
1.0
 40
1.0
 40
1.0
 10
196.7349389791063
 20
59.89645357207573
 30
0.0
 10
197.2018012047731
 20
59.86436381801042
 30
0.0
 10
197.6688359891566
 20
59.80336788070475
 30
0.0
 10
198.135961101332
 20
59.72724067819075
 30
0.0
  0
SPLINE
  5
212
330
1F
100
AcDbEntity
  8
0
  6
Continuous
 62
     7
370
    25
100
AcDbSpline
210
0.0
220
0.0
230
1.0
 70
     8
 71
     3
 72
    14
 73
    10
 74
     0
 42
0.000000001
 43
0.00000001
 40
0.0
 40
0.0
 40
0.0
 40
0.0
 40
0.5000000000000012
 40
0.5000000000000012
 40
0.7500000000000004
 40
0.7500000000000004
 40
0.8750000000000002
 40
0.8750000000000002
 40
1.0
 40
1.0
 40
1.0
 40
1.0
 10
193.8904016018877
 20
60.82103544823818
 30
0.0
 10
194.3554361346029
 20
60.62469019897731
 30
0.0
 10
194.8222920558846
 20
60.43703768750919
 30
0.0
 10
195.5293184414892
 20
60.18701973056469
 30
0.0
 10
195.7661034243803
 20
60.10885847276585
 30
0.0
 10
196.1248840625119
 20
60.00829120737083
 30
0.0
 10
196.245082886513
 20
59.97756971111919
 30
0.0
 10
196.4876849846229
 20
59.92629500473461
 30
0.0
 10
196.6099367422117
 20
59.90504559520162
 30
0.0
 10
196.7349389791063
 20
59.89645357207567
 30
0.0
  0
SPLINE
  5
213
330
1F
100
AcDbEntity
  8
0
  6
Continuous
 62
     7
370
    25
100
AcDbSpline
210
0.0
220
0.0
230
1.0
 70
     8
 71
     3
 72
    14
 73
    10
 74
     0
 42
0.000000001
 43
0.00000001
 40
0.0
 40
0.0
 40
0.0
 40
0.0
 40
0.5000000000000012
 40
0.5000000000000012
 40
0.7500000000000004
 40
0.7500000000000004
 40
0.8750000000000002
 40
0.8750000000000002
 40
1.0
 40
1.0
 40
1.0
 40
1.0
 10
193.8904016018877
 20
48.49809147236396
 30
0.0
 10
194.3554361346029
 20
48.16324615612552
 30
0.0
 10
194.8222920558846
 20
47.82445798105393
 30
0.0
 10
195.5293184414892
 20
47.30216223402112
 30
0.0
 10
195.7661034243803
 20
47.12574052593071
 30
0.0
 10
196.1248840625119
 20
46.85365837441172
 30
0.0
 10
196.245082886513
 20
46.76171301305478
 30
0.0
 10
196.4876849846229
 20
46.57328699222445
 30
0.0
 10
196.6099367422117
 20
46.47711624816978
 30
0.0
 10
196.7349389791063
 20
46.37530666419627
 30
0.0
  0
SPLINE
  5
214
330
1F
100
AcDbEntity
  8
0
  6
Continuous
 62
     7
370
    25
100
AcDbSpline
210
0.0
220
0.0
230
1.0
 70
     8
 71
     3
 72
    17
 73
    13
 74
     0
 42
0.000000001
 43
0.00000001
 40
0.0
 40
0.0
 40
0.0
 40
0.0
 40
0.1207961882900952
 40
0.2420175987944839
 40
0.3632153541307872
 40
0.4839596318162575
 40
0.6040258967628624
 40
0.6645178707182005
 40
0.7242649424600393
 40
0.8441758508052679
 40
0.9646454444514005
 40
1.0
 40
1.0
 40
1.0
 40
1.0
 10
202.3486447294048
 20
46.05431563497998
 30
0.0
 10
202.1448764384339
 20
46.42820522271836
 30
0.0
 10
201.7366225589919
 20
47.17730055030763
 30
0.0
 10
201.5433551967298
 20
48.3256190063608
 30
0.0
 10
201.7487133697723
 20
49.27795599897095
 30
0.0
 10
202.3080195351484
 20
49.91142925122004
 30
0.0
 10
202.9838612152154
 20
50.05271552489516
 30
0.0
 10
203.5588605475576
 20
49.92656482062542
 30
0.0
 10
204.1386505046531
 20
49.63831559149773
 30
0.0
 10
204.8057012366651
 20
48.98102447712662
 30
0.0
 10
205.3363317786927
 20
48.15559998787329
 30
0.0
 10
205.4953961124372
 20
47.63368802355649
 30
0.0
 10
205.5314858254389
 20
47.51527270969615
 30
0.0
  0
SPLINE
  5
215
330
1F
100
AcDbEntity
  8
0
  6
Continuous
 62
     7
370
    25
100
AcDbSpline
210
0.0
220
0.0
230
1.0
 70
     8
 71
     3
 72
    12
 73
     8
 74
     0
 42
0.000000001
 43
0.00000001
 40
0.0
 40
0.0
 40
0.0
 40
0.0
 40
0.0353744433893711
 40
0.3560360900717853
 40
0.5160472232178944
 40
0.6782077942890793
 40
1.0
 40
1.0
 40
1.0
 40
1.0
 10
204.8518692102897
 20
44.02212505870615
 30
0.0
 10
204.8291629251384
 20
44.01827818556475
 30
0.0
 10
204.6006290964539
 20
43.97956024286268
 30
0.0
 10
204.1268146377444
 20
44.24314689127298
 30
0.0
 10
203.5581142709452
 20
44.65257080200684
 30
0.0
 10
202.9746659135778
 20
45.1887987742762
 30
0.0
 10
202.5986602331359
 20
45.70865219836246
 30
0.0
 10
202.3486447294048
 20
46.05431563497998
 30
0.0
  0
SPLINE
  5
216
330
1F
100
AcDbEntity
  8
0
  6
Continuous
 62
     7
370
    25
100
AcDbSpline
210
0.0
220
0.0
230
1.0
 70
     8
 71
     3
 72
    14
 73
    10
 74
     0
 42
0.000000001
 43
0.00000001
 40
0.0
 40
0.0
 40
0.0
 40
0.0
 40
0.25
 40
0.25
 40
0.5
 40
0.5
 40
0.75
 40
0.75
 40
1.0
 40
1.0
 40
1.0
 40
1.0
 10
249.4639394643364
 20
51.6556513115522
 30
0.0
 10
249.510621500675
 20
51.62870234559877
 30
0.0
 10
249.5483081152811
 20
51.59559562144764
 30
0.0
 10
249.5971795940355
 20
51.52498704838512
 30
0.0
 10
249.6092808244353
 20
51.48649147399504
 30
0.0
 10
249.6071112128801
 20
51.41053335979966
 30
0.0
 10
249.5928707987981
 20
51.3723396522073
 30
0.0
 10
249.5410193562086
 20
51.30234500328225
 30
0.0
 10
249.5033128161049
 20
51.27017700780047
 30
0.0
 10
249.4564953853875
 20
51.24314988033588
 30
0.0
  0
ARC
  5
217
330
1F
100
AcDbEntity
  8
0
  6
Continuous
 62
     7
370
    25
100
AcDbCircle
 10
223.9996177297
 20
31.6322975764
 30
0.0
 40
8.701929273940797
100
AcDbArc
 50
214.5542627763
 51
265.4839169162
  0
SPLINE
  5
218
330
1F
100
AcDbEntity
  8
0
  6
Continuous
 62
     7
370
    25
100
AcDbSpline
210
0.0
220
0.0
230
1.0
 70
     8
 71
     3
 72
    14
 73
    10
 74
     0
 42
0.000000001
 43
0.00000001
 40
0.0
 40
0.0
 40
0.0
 40
0.0
 40
0.25
 40
0.25
 40
0.5
 40
0.5
 40
0.75
 40
0.75
 40
1.0
 40
1.0
 40
1.0
 40
1.0
 10
214.898867027667
 20
31.2933893205735
 30
0.0
 10
214.9460881910906
 20
31.26612912317868
 30
0.0
 10
215.0023749505219
 20
31.24484719165453
 30
0.0
 10
215.1258042985951
 20
31.21649256182341
 30
0.0
 10
215.192457622055
 20
31.20964917948324
 30
0.0
 10
215.3245824989966
 20
31.2111312951124
 30
0.0
 10
215.3909418549813
 20
31.21952182679858
 30
0.0
 10
215.512196087102
 20
31.24964015026989
 30
0.0
 10
215.5683071895793
 20
31.27164484411066
 30
0.0
 10
215.6150417631066
 20
31.29862413913758
 30
0.0
  0
LINE
  5
219
330
1F
100
AcDbEntity
  8
0
  6
Continuous
 62
     7
370
    25
100
AcDbLine
 10
213.2414187017
 20
32.2502133594
 30
0.0
 11
214.8988665685
 21
31.2933890725
 31
0.0
  0
SPLINE
  5
21A
330
1F
100
AcDbEntity
  8
0
  6
Continuous
 62
     7
370
    25
100
AcDbSpline
210
0.0
220
0.0
230
1.0
 70
     8
 71
     3
 72
     8
 73
     4
 74
     0
 42
0.000000001
 43
0.00000001
 40
0.0
 40
0.0
 40
0.0
 40
0.0
 40
1.0
 40
1.0
 40
1.0
 40
1.0
 10
213.6132073540698
 20
33.01674628678651
 30
0.0
 10
213.4890291861848
 20
32.76127548756043
 30
0.0
 10
213.365111486043
 20
32.50576264088748
 30
0.0
 10
213.2414189930109
 20
32.25021370440081
 30
0.0
  0
LINE
  5
21B
330
1F
100
AcDbEntity
  8
0
  6
Continuous
 62
     7
370
    25
100
AcDbLine
 10
213.9343082814
 20
33.202113689
 30
0.0
 11
213.6132072477
 21
33.0167460079
 31
0.0
  0
SPLINE
  5
21C
330
1F
100
AcDbEntity
  8
0
  6
Continuous
 62
     7
370
    25
100
AcDbSpline
210
0.0
220
0.0
230
1.0
 70
     8
 71
     3
 72
    12
 73
     8
 74
     0
 42
0.000000001
 43
0.00000001
 40
0.0
 40
0.0
 40
0.0
 40
0.0
 40
0.2500000000000014
 40
0.2500000000000014
 40
0.5000000000000029
 40
0.5000000000000029
 40
1.0
 40
1.0
 40
1.0
 40
1.0
 10
213.9426175838127
 20
33.53347400938147
 30
0.0
 10
213.9800096213956
 20
33.51188804555503
 30
0.0
 10
214.010220094713
 20
33.48524719276497
 30
0.0
 10
214.0491194647225
 20
33.42826898945917
 30
0.0
 10
214.0584498306524
 20
33.39737741978237
 30
0.0
 10
214.0548447672386
 20
33.3058210782203
 30
0.0
 10
214.009239742327
 20
33.24537091811529
 30
0.0
 10
213.9343079038003
 20
33.20211368848982
 30
0.0
  0
LINE
  5
21D
330
1F
100
AcDbEntity
  8
0
  6
Continuous
 62
     7
370
    25
100
AcDbLine
 10
213.15772889
 20
33.9865800804
 30
0.0
 11
213.9426171375
 21
33.5334737398
 31
0.0
  0
SPLINE
  5
21E
330
1F
100
AcDbEntity
  8
0
  6
Continuous
 62
     7
370
    25
100
AcDbSpline
210
0.0
220
0.0
230
1.0
 70
     8
 71
     3
 72
    14
 73
    10
 74
     0
 42
0.000000001
 43
0.00000001
 40
0.0
 40
0.0
 40
0.0
 40
0.0
 40
0.25
 40
0.25
 40
0.5
 40
0.5
 40
0.75
 40
0.75
 40
1.0
 40
1.0
 40
1.0
 40
1.0
 10
212.5837339517339
 20
33.98178343528051
 30
0.0
 10
212.6215797495124
 20
34.00363134929211
 30
0.0
 10
212.6658986666604
 20
34.02100399408103
 30
0.0
 10
212.7636002032125
 20
34.0453654687729
 30
0.0
 10
212.8163533348243
 20
34.05207943330446
 30
0.0
 10
212.9223066920527
 20
34.05343688289047
 30
0.0
 10
212.9756709783481
 20
34.04805918175138
 30
0.0
 10
213.0748487531198
 20
34.02541823823554
 30
0.0
 10
213.119855646521
 20
34.00844436575167
 30
0.0
 10
213.1577290566956
 20
33.98658051144307
 30
0.0
  0
LINE
  5
21F
330
1F
100
AcDbEntity
  8
0
  6
Continuous
 62
     7
370
    25
100
AcDbLine
 10
212.2626332191
 20
33.7964157988
 30
0.0
 11
212.5837342528
 21
33.9817834799
 31
0.0
  0
SPLINE
  5
220
330
1F
100
AcDbEntity
  8
0
  6
Continuous
 62
     7
370
    25
100
AcDbSpline
210
0.0
220
0.0
230
1.0
 70
     8
 71
     3
 72
     8
 73
     4
 74
     0
 42
0.000000001
 43
0.00000001
 40
0.0
 40
0.0
 40
0.0
 40
0.0
 40
1.0
 40
1.0
 40
1.0
 40
1.0
 10
210.93481615189
 20
33.58178718124147
 30
0.0
 10
211.3774878581064
 20
33.65319333754617
 30
0.0
 10
211.8200970481581
 20
33.72472950314794
 30
0.0
 10
212.2626334020035
 20
33.7964160335772
 30
0.0
  0
LINE
  5
221
330
1F
100
AcDbEntity
  8
0
  6
Continuous
 62
     7
370
    25
100
AcDbLine
 10
248.0179786663
 20
52.4903869231
 30
0.0
 11
249.4639395741
 21
51.6556514589
 31
0.0
  0
LWPOLYLINE
  5
222
330
1F
100
AcDbEntity
  8
0
  6
Continuous
 62
     7
370
    25
100
AcDbPolyline
 90
        8
 70
   128
 43
0.0
 10
217.9869997446
 20
25.0450414939
 10
217.3309498032
 20
25.4657880827
 10
216.3764395883
 20
26.2528632028
 10
215.523691622
 20
27.1873832894
 10
214.7788540759
 20
28.2626047409
 10
214.1473019902
 20
29.4707764154
 10
213.6335885417
 20
30.8031822203
 10
213.2414187017
 20
32.2502133594
  0
ARC
  5
223
330
1F
100
AcDbEntity
  8
0
  6
Continuous
 62
     7
370
    25
100
AcDbCircle
 10
223.7746127629
 20
36.2586013499
 30
0.0
 40
11.77234176809828
100
AcDbArc
 50
192.0725460793
 51
215.0022747034
  0
SPLINE
  5
224
330
1F
100
AcDbEntity
  8
0
  6
Continuous
 62
     7
370
    25
100
AcDbSpline
210
0.0
220
0.0
230
1.0
 70
     8
 71
     3
 72
    13
 73
     9
 74
     0
 42
0.000000001
 43
0.00000001
 40
0.0
 40
0.0
 40
0.0
 40
0.0
 40
0.0429135562381213
 40
0.2792162607462067
 40
0.5136454897400948
 40
0.7507323164974792
 40
0.991048372983947
 40
1.0
 40
1.0
 40
1.0
 40
1.0
 10
203.7626695213118
 20
49.71799871434103
 30
0.0
 10
203.747003079167
 20
49.67731769341842
 30
0.0
 10
203.6450696628221
 20
49.4126273824519
 30
0.0
 10
203.7252921285511
 20
48.76647783578243
 30
0.0
 10
204.0183660413631
 20
47.88097276089349
 30
0.0
 10
204.5643873413073
 20
47.03807906061186
 30
0.0
 10
205.0273695468841
 20
46.48380731205312
 30
0.0
 10
205.2799490554724
 20
46.29609916326067
 30
0.0
 10
205.2890196157673
 20
46.2893582439716
 30
0.0
  0
SPLINE
  5
225
330
1F
100
AcDbEntity
  8
0
  6
Continuous
 62
     7
370
    25
100
AcDbSpline
210
0.0
220
0.0
230
1.0
 70
     8
 71
     3
 72
    11
 73
     7
 74
     0
 42
0.000000001
 43
0.00000001
 40
0.0
 40
0.0
 40
0.0
 40
0.0
 40
0.1889487415400878
 40
0.3635157627967836
 40
0.6686735586554259
 40
1.0
 40
1.0
 40
1.0
 40
1.0
 10
202.6389581488484
 20
46.23672572001999
 30
0.0
 10
202.7654992262022
 20
46.05354099180779
 30
0.0
 10
203.0089497826042
 20
45.70111453124495
 30
0.0
 10
203.5256463151584
 20
45.13971352573058
 30
0.0
 10
204.1999723906585
 20
44.58169128302406
 30
0.0
 10
204.6548187476087
 20
44.42466425375773
 30
0.0
 10
204.891592285739
 20
44.34292270579679
 30
0.0
  0
SPLINE
  5
226
330
1F
100
AcDbEntity
  8
0
  6
Continuous
 62
     7
370
    25
100
AcDbSpline
210
0.0
220
0.0
230
1.0
 70
     8
 71
     3
 72
    15
 73
    11
 74
     0
 42
0.000000001
 43
0.00000001
 40
0.0
 40
0.0
 40
0.0
 40
0.0
 40
0.0285605575140947
 40
0.1766231786262573
 40
0.2612396331333766
 40
0.3527785380977456
 40
0.5145481059714542
 40
0.6763327681591422
 40
0.8381560932852216
 40
1.0
 40
1.0
 40
1.0
 40
1.0
 10
204.2937537275912
 20
49.43803449821812
 30
0.0
 10
204.2509135196727
 20
49.48088057187583
 30
0.0
 10
203.9859826375694
 20
49.74584772867392
 30
0.0
 10
203.5248829303134
 20
49.85838374601197
 30
0.0
 10
203.0148084965852
 20
49.86562378840137
 30
0.0
 10
202.5289502314903
 20
49.68984804494851
 30
0.0
 10
202.0769752567664
 20
49.20166483416932
 30
0.0
 10
201.8874951111869
 20
48.32092495971393
 30
0.0
 10
202.0663144736638
 20
47.26792586614921
 30
0.0
 10
202.4480688320284
 20
46.58047367346735
 30
0.0
 10
202.6389581488484
 20
46.23672572001999
 30
0.0
  0
SPLINE
  5
227
330
1F
100
AcDbEntity
  8
0
  6
Continuous
 62
     7
370
    25
100
AcDbSpline
210
0.0
220
0.0
230
1.0
 70
     8
 71
     3
 72
     9
 73
     5
 74
     0
 42
0.000000001
 43
0.00000001
 40
0.0
 40
0.0
 40
0.0
 40
0.0
 40
0.1883710221454139
 40
1.0
 40
1.0
 40
1.0
 40
1.0
 10
243.5808835785546
 20
67.29588140742285
 30
0.0
 10
243.6232597192778
 20
67.30541412990536
 30
0.0
 10
243.8482207575549
 20
67.35602022830604
 30
0.0
 10
244.0739883586964
 20
67.40541831873092
 30
0.0
 10
244.2572278860436
 20
67.44551124037045
 30
0.0
  0
LINE
  5
228
330
1F
100
AcDbEntity
  8
0
  6
Continuous
 62
     7
370
    25
100
AcDbLine
 10
244.257227886
 20
67.4455112404
 30
0.0
 11
245.9146757528
 21
66.4886869535
 31
0.0
  0
SPLINE
  5
229
330
1F
100
AcDbEntity
  8
0
  6
Continuous
 62
     7
370
    25
100
AcDbSpline
210
0.0
220
0.0
230
1.0
 70
     8
 71
     3
 72
    16
 73
    12
 74
     0
 42
0.000000001
 43
0.00000001
 40
0.0
 40
0.0
 40
0.0
 40
0.0
 40
0.125
 40
0.125
 40
0.25
 40
0.25
 40
0.5
 40
0.5
 40
0.75
 40
0.75
 40
1.0
 40
1.0
 40
1.0
 40
1.0
 10
245.9146763396311
 20
66.48868660843986
 30
0.0
 10
245.9414183071895
 20
66.47324879917142
 30
0.0
 10
245.964388905836
 20
66.45535707976418
 30
0.0
 10
246.0003658579602
 20
66.41717708321906
 30
0.0
 10
246.0136283967393
 20
66.39689326574846
 30
0.0
 10
246.0403835074451
 20
66.33276693445376
 30
0.0
 10
246.0395665021847
 20
66.28827408282456
 30
0.0
 10
246.0114861119384
 20
66.20319439048068
 30
0.0
 10
245.983916757014
 20
66.16182153443434
 30
0.0
 10
245.9107426012546
 20
66.08639040172633
 30
0.0
 10
245.8645087628418
 20
66.05152142690253
 30
0.0
 10
245.8113449779135
 20
66.02083062713547
 30
0.0
  0
LINE
  5
22A
330
1F
100
AcDbEntity
  8
0
  6
Continuous
 62
     7
370
    25
100
AcDbLine
 10
196.5276275777
 20
52.1972355399
 30
0.0
 11
197.1504012651
 21
51.8377159427
 31
0.0
  0
SPLINE
  5
22B
330
1F
100
AcDbEntity
  8
0
  6
Continuous
 62
     7
370
    25
100
AcDbSpline
210
0.0
220
0.0
230
1.0
 70
     8
 71
     3
 72
    11
 73
     7
 74
     0
 42
0.000000001
 43
0.00000001
 40
0.0
 40
0.0
 40
0.0
 40
0.0
 40
0.0466304722500908
 40
0.4281527877979693
 40
0.8088298298119748
 40
1.0
 40
1.0
 40
1.0
 40
1.0
 10
249.4564960455729
 20
59.40855821484567
 30
0.0
 10
249.4614734868932
 20
59.41150579655822
 30
0.0
 10
249.5071754769128
 20
59.43856997297748
 30
0.0
 10
249.5736117011914
 20
59.49980884361544
 30
0.0
 10
249.6162317374014
 20
59.58358266638451
 30
0.0
 10
249.6023991798067
 20
59.63373967365192
 30
0.0
 10
249.5977749159595
 20
59.65050730565368
 30
0.0
  0
LINE
  5
22C
330
1F
100
AcDbEntity
  8
0
  6
Continuous
 62
     7
370
    25
100
AcDbLine
 10
193.8756372339
 20
61.8786662803
 30
0.0
 11
193.8918110871
 21
61.9272918944
 31
0.0
  0
SPLINE
  5
22D
330
1F
100
AcDbEntity
  8
0
  6
Continuous
 62
     7
370
    25
100
AcDbSpline
210
0.0
220
0.0
230
1.0
 70
     8
 71
     3
 72
    16
 73
    12
 74
     0
 42
0.000000001
 43
0.00000001
 40
0.0
 40
0.0
 40
0.0
 40
0.0
 40
0.0332838850724123
 40
0.1625854311030977
 40
0.239429833395794
 40
0.3008069245191573
 40
0.3624173839861106
 40
0.4362069101913193
 40
0.5596777462223994
 40
0.9141728339414532
 40
1.0
 40
1.0
 40
1.0
 40
1.0
 10
193.9179888898019
 20
62.00598560040077
 30
0.0
 10
193.9196322202864
 20
62.01099922302539
 30
0.0
 10
193.927659576308
 20
62.03548981341286
 30
0.0
 10
193.9382731932322
 20
62.06011249765714
 30
0.0
 10
193.9483296483803
 20
62.07752888838945
 30
0.0
 10
193.9531882521834
 20
62.07690049040234
 30
0.0
 10
193.9543907999888
 20
62.06153210928883
 30
0.0
 10
193.9511123046706
 20
62.02496231084013
 30
0.0
 10
193.9356030075398
 20
61.92463727810549
 30
0.0
 10
193.9126083650626
 20
61.80934150190502
 30
0.0
 10
193.893903511593
 20
61.72029691649983
 30
0.0
 10
193.8902575805708
 20
61.70294043643865
 30
0.0
  0
SPLINE
  5
22E
330
1F
100
AcDbEntity
  8
0
  6
Continuous
 62
     7
370
    25
100
AcDbSpline
210
0.0
220
0.0
230
1.0
 70
     8
 71
     3
 72
     9
 73
     5
 74
     0
 42
0.000000001
 43
0.00000001
 40
0.0
 40
0.0
 40
0.0
 40
0.0
 40
0.7766522094856231
 40
1.0
 40
1.0
 40
1.0
 40
1.0
 10
193.8244735940348
 20
61.4404707445093
 30
0.0
 10
193.8212872840679
 20
61.54930653420419
 30
0.0
 10
193.8171846626783
 20
61.6894410607859
 30
0.0
 10
193.8649654914205
 20
61.84411924874003
 30
0.0
 10
193.875637233949
 20
61.87866628026035
 30
0.0
  0
SPLINE
  5
22F
330
1F
100
AcDbEntity
  8
0
  6
Continuous
 62
     7
370
    25
100
AcDbSpline
210
0.0
220
0.0
230
1.0
 70
     8
 71
     3
 72
     8
 73
     4
 74
     0
 42
0.000000001
 43
0.00000001
 40
0.0
 40
0.0
 40
0.0
 40
0.0
 40
1.0
 40
1.0
 40
1.0
 40
1.0
 10
193.8011724515169
 20
60.84203239802869
 30
0.0
 10
193.8297747470911
 20
60.84047898289516
 30
0.0
 10
193.8594711268285
 20
60.83409480493246
 30
0.0
 10
193.8904016018865
 20
60.82103544824453
 30
0.0
  0
SPLINE
  5
230
330
1F
100
AcDbEntity
  8
0
  6
Continuous
 62
     7
370
    25
100
AcDbSpline
210
0.0
220
0.0
230
1.0
 70
     8
 71
     3
 72
    10
 73
     6
 74
     0
 42
0.000000001
 43
0.00000001
 40
0.0
 40
0.0
 40
0.0
 40
0.0
 40
0.4999999999999989
 40
0.4999999999999989
 40
1.0
 40
1.0
 40
1.0
 40
1.0
 10
193.8902577741837
 20
61.70294041222304
 30
0.0
 10
193.8602693042748
 20
61.56114955605303
 30
0.0
 10
193.8398360050882
 20
61.41889174000973
 30
0.0
 10
193.8112030178625
 20
61.13208147183996
 30
0.0
 10
193.803331958216
 20
60.98762493864444
 30
0.0
 10
193.8011724515177
 20
60.84203239802497
 30
0.0
  0
ARC
  5
231
330
1F
100
AcDbEntity
  8
0
  6
Continuous
 62
     7
370
    25
100
AcDbCircle
 10
195.0205242045
 20
60.6739862023
 30
0.0
 40
1.230877198383848
100
AcDbArc
 50
172.1531384875
 51
234.5145852444
  0
ARC
  5
232
330
1F
100
AcDbEntity
  8
0
  6
Continuous
 62
     7
370
    25
100
AcDbCircle
 10
197.5336723415
 20
48.4706234594
 30
0.0
 40
3.734047488377207
100
AcDbArc
 50
122.5266350896
 51
178.3504233083
  0
SPLINE
  5
233
330
1F
100
AcDbEntity
  8
0
  6
Continuous
 62
     7
370
    25
100
AcDbSpline
210
0.0
220
0.0
230
1.0
 70
     8
 71
     3
 72
     8
 73
     4
 74
     0
 42
0.000000001
 43
0.00000001
 40
0.0
 40
0.0
 40
0.0
 40
0.0
 40
1.0
 40
1.0
 40
1.0
 40
1.0
 10
193.8011724515176
 20
48.57811363046262
 30
0.0
 10
193.8297747470916
 20
48.5474162266047
 30
0.0
 10
193.8594711268287
 20
48.52036277475438
 30
0.0
 10
193.8904016018865
 20
48.49809147235939
 30
0.0
  0
LINE
  5
234
330
1F
100
AcDbEntity
  8
0
  6
Continuous
 62
     7
370
    25
100
AcDbLine
 10
195.525906307
 20
51.6189541593
 30
0.0
 11
196.5276275777
 21
52.1972355399
 31
0.0
  0
SPLINE
  5
235
330
1F
100
AcDbEntity
  8
0
  6
Continuous
 62
     7
370
    25
100
AcDbSpline
210
0.0
220
0.0
230
1.0
 70
     8
 71
     3
 72
     9
 73
     5
 74
     0
 42
0.000000001
 43
0.00000001
 40
0.0
 40
0.0
 40
0.0
 40
0.0
 40
0.3901117718169397
 40
1.0
 40
1.0
 40
1.0
 40
1.0
 10
193.8349780374817
 20
49.64526449877476
 30
0.0
 10
193.8259004808393
 20
49.59847844540136
 30
0.0
 10
193.8026313633754
 20
49.4785485772113
 30
0.0
 10
193.8161989081757
 20
49.35769355076899
 30
0.0
 10
193.8244735940348
 20
49.28398549282507
 30
0.0
  0
ARC
  5
236
330
1F
100
AcDbEntity
  8
0
  6
Continuous
 62
     7
370
    25
100
AcDbCircle
 10
196.3185872521
 20
49.157832793
 30
0.0
 40
2.530988818362123
100
AcDbArc
 50
122.9343808406
 51
168.8962913337
  0
LINE
  5
237
330
1F
100
AcDbEntity
  8
0
  6
Continuous
 62
     7
370
    25
100
AcDbLine
 10
195.525906307
 20
51.6189541593
 30
0.0
 11
194.9425438742
 21
51.2820759573
 31
0.0
  0
LINE
  5
238
330
1F
100
AcDbEntity
  8
0
  6
Continuous
 62
     7
370
    25
100
AcDbLine
 10
193.8606876151
 20
48.4389924317
 30
0.0
 11
193.8011723137
 21
48.5781138687
 31
0.0
  0
LINE
  5
239
330
1F
100
AcDbEntity
  8
0
  6
Continuous
 62
     7
370
    18
100
AcDbLine
 10
271.4098065572
 20
26.3633778328
 30
0.0
 11
271.250323541
 21
26.3542744673
 31
0.0
  0
LINE
  5
23A
330
1F
100
AcDbEntity
  8
0
  6
Continuous
 62
     7
370
    18
100
AcDbLine
 10
267.9920089638
 20
19.5599089116
 30
0.0
 11
267.88981471
 21
19.6648448891
 31
0.0
  0
LINE
  5
23B
330
1F
100
AcDbEntity
  8
0
  6
Continuous
 62
     7
370
    18
100
AcDbLine
 10
273.4282917369
 20
27.6258132025
 30
0.0
 11
273.3077677199
 21
28.2893665024
 31
0.0
  0
LINE
  5
23C
330
1F
100
AcDbEntity
  8
0
  6
Continuous
 62
     7
370
    18
100
AcDbLine
 10
273.3077677199
 20
28.2893665024
 30
0.0
 11
273.3796127855
 21
28.5150068766
 31
0.0
  0
LINE
  5
23D
330
1F
100
AcDbEntity
  8
0
  6
Continuous
 62
     7
370
    18
100
AcDbLine
 10
273.3666817701
 20
27.4323173948
 30
0.0
 11
273.4282917369
 21
27.6258132025
 31
0.0
  0
LINE
  5
23E
330
1F
100
AcDbEntity
  8
0
  6
Continuous
 62
     7
370
    18
100
AcDbLine
 10
268.3118916902
 20
17.4411056108
 30
0.0
 11
267.6657330873
 21
17.0583305317
 31
0.0
  0
LINE
  5
23F
330
1F
100
AcDbEntity
  8
0
  6
Continuous
 62
     7
370
    18
100
AcDbLine
 10
267.6657330873
 20
17.0583305317
 30
0.0
 11
267.5237719648
 21
16.8583683836
 31
0.0
  0
LINE
  5
240
330
1F
100
AcDbEntity
  8
0
  6
Continuous
 62
     7
370
    18
100
AcDbLine
 10
278.2007891403
 20
15.7573403049
 30
0.0
 11
277.7867648423
 21
15.9963514447
 31
0.0
  0
LINE
  5
241
330
1F
100
AcDbEntity
  8
0
  6
Continuous
 62
     7
370
    18
100
AcDbLine
 10
268.4336289109
 20
17.6125812314
 30
0.0
 11
268.3118916902
 21
17.4411056108
 31
0.0
  0
LINE
  5
242
330
1F
100
AcDbEntity
  8
0
  6
Continuous
 62
     7
370
    18
100
AcDbLine
 10
278.6504354278
 20
16.2136264187
 30
0.0
 11
278.2364111298
 21
16.4526375585
 31
0.0
  0
LINE
  5
243
330
1F
100
AcDbEntity
  8
0
  6
Continuous
 62
     7
370
    18
100
AcDbLine
 10
280.1407297165
 20
29.6783862963
 30
0.0
 11
280.2109684274
 21
29.7888200202
 31
0.0
  0
LINE
  5
244
330
1F
100
AcDbEntity
  8
0
  6
Continuous
 62
     7
370
    18
100
AcDbLine
 10
280.2109684274
 20
29.7888200202
 30
0.0
 11
280.3850075821
 21
29.9095243218
 31
0.0
  0
LWPOLYLINE
  5
245
330
1F
100
AcDbEntity
  8
0
  6
Continuous
 62
     7
370
    18
100
AcDbPolyline
 90
        7
 70
   128
 43
0.0
 10
267.8523237711
 20
31.6574609126
 10
268.6954341855
 20
32.0712171035
 10
269.5197108855
 20
32.3298098332
 10
270.3067408844
 20
32.427461644
 10
271.0389432663
 20
32.3619917997
 10
271.699961926
 20
32.1348623991
 10
271.8519987795
 20
32.0535249919
  0
LWPOLYLINE
  5
246
330
1F
100
AcDbEntity
  8
0
  6
Continuous
 62
     7
370
    18
100
AcDbPolyline
 90
       17
 70
   128
 43
0.0
 10
263.8526487628
 20
18.1967432225
 10
263.429616893
 20
18.499120909
 10
262.953344334
 20
19.0308500737
 10
262.5865067256
 20
19.6987157819
 10
262.3372986665
 20
20.4877985036
 10
262.211287492
 20
21.3804718027
 10
262.211287492
 20
22.3567945571
 10
262.3372986665
 20
23.3949572614
 10
262.5865067256
 20
24.4717694836
 10
262.953344334
 20
25.5631768791
 10
263.429616893
 20
26.6447986357
 10
264.0046856163
 20
27.6924739444
 10
264.665704276
 20
28.6827992444
 10
265.3979066579
 20
29.5936519644
 10
266.1849366568
 20
30.4046856484
 10
267.0092133568
 20
31.0977825392
 10
267.8523237711
 20
31.6574609126
  0
ARC
  5
247
330
1F
100
AcDbEntity
  8
0
  6
Continuous
 62
     7
370
    18
100
AcDbCircle
 10
268.8026706671
 20
24.5765105859
 30
0.0
 40
10.5562336124686
100
AcDbArc
 50
307.0504241031
 51
352.9549519751
  0
ARC
  5
248
330
1F
100
AcDbEntity
  8
0
  6
Continuous
 62
     7
370
    18
100
AcDbCircle
 10
268.7314079115
 20
24.6176496938
 30
0.0
 40
9.99236417116485
100
AcDbArc
 50
309.9249743415
 51
350.0804015551
  0
LWPOLYLINE
  5
249
330
1F
100
AcDbEntity
  8
0
  6
Continuous
 62
     7
370
    18
100
AcDbPolyline
 90
       19
 70
   128
 43
0.0
 10
226.9157220152
 20
41.1548339087
 10
226.9798030057
 20
42.2500622363
 10
227.1708006693
 20
43.3979606722
 10
227.4849962053
 20
44.57618593
 10
227.916275028
 20
45.761805589
 10
228.4562416826
 20
46.9317424798
 10
229.0943874452
 20
48.0632257171
 10
229.8182908492
 20
49.1342319402
 10
230.613862335
 20
50.1239151415
 10
231.4656165576
 20
51.0130121578
 10
232.3569754823
 20
51.7842184054
 10
233.2705896717
 20
52.422522026
 10
234.1886767366
 20
52.9155007923
 10
235.0933670305
 20
53.2535581747
 10
235.9670519377
 20
53.4301145183
 10
236.7927259868
 20
53.441733057
 10
237.5543185516
 20
53.2881885859
 10
238.2370062891
 20
52.9724691188
 10
238.3326006098
 20
52.9108995372
  0
LWPOLYLINE
  5
24A
330
1F
100
AcDbEntity
  8
0
  6
Continuous
 62
     7
370
    18
100
AcDbPolyline
 90
        7
 70
   128
 43
0.0
 10
229.0254776771
 20
36.794771579
 10
228.4562416826
 20
37.1565714861
 10
227.916275028
 20
37.7030761475
 10
227.4849962053
 20
38.390751877
 10
227.1708006693
 20
39.2062146905
 10
226.9798030057
 20
40.1335919179
 10
226.9157220152
 20
41.1548339087
  0
LWPOLYLINE
  5
24B
330
1F
100
AcDbEntity
  8
0
  6
Continuous
 62
     7
370
    18
100
AcDbPolyline
 90
       25
 70
   128
 43
0.0
 10
215.615042282
 20
40.2805732709
 10
216.0058581544
 20
42.1439193542
 10
216.5155887257
 20
44.031720652
 10
217.1405593176
 20
45.9303652233
 10
217.8762602172
 20
47.8261590756
 10
218.7173901413
 20
49.7054364276
 10
219.6578825779
 20
51.5546425976
 10
220.6909545184
 20
53.3604457865
 10
221.8091571661
 20
55.1098218653
 10
223.004428619
 20
56.7901593133
 10
224.2681485295
 20
58.3893409632
 10
225.5912052758
 20
59.8958329688
 10
226.9640585236
 20
61.2987756746
 10
228.3768087026
 20
62.5880495793
 10
229.8192687878
 20
63.7543608809
 10
231.2810373157
 20
64.7892973169
 10
232.7515737669
 20
65.6853975372
 10
234.2202744841
 20
66.4361994933
 10
235.6765486928
 20
67.0362873662
 10
237.1098958391
 20
67.4813377333
 10
238.5099802316
 20
67.7681383236
 10
239.8667057244
 20
67.8946235264
 10
241.1702893096
 20
67.8598788526
 10
242.4113315814
 20
67.6641557566
 10
243.5808842371
 20
67.3088680182
  0
LWPOLYLINE
  5
24C
330
1F
100
AcDbEntity
  8
0
  6
Continuous
 62
     7
370
    18
100
AcDbPolyline
 90
       25
 70
   128
 43
0.0
 10
214.8988665685
 20
40.2753379546
 10
215.2883390101
 20
42.1637592871
 10
215.7979326042
 20
44.0776631063
 10
216.4240148192
 20
46.0034097103
 10
217.1621259917
 20
47.9272750636
 10
218.0070043511
 20
49.8355492743
 10
218.9526281665
 20
51.7146305079
 10
219.9922592103
 20
53.5511284056
 10
221.1184881985
 20
55.3319549555
 10
222.3232887904
 20
57.0444187851
 10
223.5980742242
 20
58.67631413
 10
224.9337605371
 20
60.2160136046
 10
226.3208278096
 20
61.6525415807
 10
227.7493912886
 20
62.9756623949
 10
229.209269876
 20
64.1759457418
 10
230.6900590626
 20
65.2448376752
 10
232.1812060842
 20
66.1747192047
 10
233.6720839257
 20
66.9589657469
 10
235.152067383
 20
67.5919849516
 10
236.6106094544
 20
68.0692699271
 10
238.0373151794
 20
68.3874144899
 10
239.42201696
 20
68.5441551256
 10
240.7548458482
 20
68.5383725984
 10
242.0263043152
 20
68.370109625
 10
243.2273307886
 20
68.0405625034
  0
ARC
  5
24D
330
1F
100
AcDbEntity
  8
0
  6
Continuous
 62
     7
370
    18
100
AcDbCircle
 10
215.7945603439
 20
56.8526147765
 30
0.0
 40
34.12611913387997
100
AcDbArc
 50
342.2208272869
 51
350.5390989213
  0
LWPOLYLINE
  5
24E
330
1F
100
AcDbEntity
  8
0
  6
Continuous
 62
     7
370
    18
100
AcDbPolyline
 90
       22
 70
   128
 43
0.0
 10
239.6109632575
 20
31.4014124741
 10
238.4235989485
 20
30.1585088891
 10
237.0255771174
 20
28.8399804962
 10
235.5951041886
 20
27.6410877483
 10
234.142430572
 20
26.5704233894
 10
232.677966004
 20
25.6356561626
 10
231.2122045973
 20
24.8434890627
 10
229.7556496017
 20
24.1995946087
 10
228.3187385771
 20
23.7085883776
 10
226.911768114
 20
23.3739885879
 10
225.5448206933
 20
23.198193649
 10
224.2276908476
 20
23.1824623485
 10
222.9698174953
 20
23.3269082506
 10
221.780214135
 20
23.6304958996
 10
220.6674049668
 20
24.0910495719
 10
219.6393643063
 20
24.7052700113
 10
218.7034592908
 20
25.4687538268
 10
217.8663965376
 20
26.3760319003
 10
217.1341740701
 20
27.4206024718
 10
216.5120391708
 20
28.5949798127
 10
216.0044488692
 20
29.8907486025
 10
215.615042282
 20
31.2986243888
  0
ARC
  5
24F
330
1F
100
AcDbEntity
  8
0
  6
Continuous
 62
     7
370
    18
100
AcDbCircle
 10
238.4702851848
 20
57.6630538673
 30
0.0
 40
11.12401072022569
100
AcDbArc
 50
9.0277736643
 51
48.7055209086
  0
LWPOLYLINE
  5
250
330
1F
100
AcDbEntity
  8
0
  6
Continuous
 62
     7
370
    18
100
AcDbPolyline
 90
       24
 70
   128
 43
0.0
 10
224.853201446
 20
41.1226745975
 10
224.9159567863
 20
42.2876433902
 10
225.1031921852
 20
43.5059389894
 10
225.4118342154
 20
44.7575579925
 10
225.8368134013
 20
46.0219473692
 10
226.3711524638
 20
47.278346567
 10
227.0060779437
 20
48.5061260014
 10
227.7311637644
 20
49.6851248784
 10
228.534504429
 20
50.7959842607
 10
229.4029086324
 20
51.8204645429
 10
230.322117569
 20
52.741742582
 10
231.2770378102
 20
53.5446921436
 10
232.2519895348
 20
54.2161275833
 10
233.2309640608
 20
54.7450255211
 10
234.197886605
 20
55.1227001038
 10
235.1368805235
 20
55.3429509846
 10
236.0325272315
 20
55.4021601399
 10
236.8701207716
 20
55.2993574581
 10
237.6359072771
 20
55.0362289402
 10
238.3173124991
 20
54.6170963362
 10
238.9031490836
 20
54.0488417441
 10
239.3837956953
 20
53.3407954256
 10
239.7513616538
 20
52.5045836974
 10
239.9128130596
 20
51.9559649148
  0
LWPOLYLINE
  5
251
330
1F
100
AcDbEntity
  8
0
  6
Continuous
 62
     7
370
    18
100
AcDbPolyline
 90
       12
 70
   128
 43
0.0
 10
230.635504577
 20
35.8997089196
 10
230.322117569
 20
35.8178827655
 10
229.4029086324
 20
35.6778647567
 10
228.534504429
 20
35.6997068874
 10
227.7311637644
 20
35.8830488812
 10
227.0060779437
 20
36.2248814892
 10
226.3711524638
 20
36.7195915683
 10
225.8368134013
 20
37.3590560163
 10
225.4118342154
 20
38.1327748693
 10
225.1031921852
 20
39.0280433694
 10
224.9159567863
 20
40.0301615786
 10
224.853201446
 20
41.1226745975
  0
LWPOLYLINE
  5
252
330
1F
100
AcDbEntity
  8
0
  6
Continuous
 62
     7
370
    18
100
AcDbPolyline
 90
       20
 70
   128
 43
0.0
 10
204.7607210322
 20
41.1369380045
 10
204.8227190463
 20
42.8808880471
 10
205.0082784494
 20
44.6841870881
 10
205.3160979575
 20
46.5341864705
 10
205.7440175446
 20
48.4179090975
 10
206.2890355649
 20
50.3221422082
 10
206.9473311431
 20
52.233529771
 10
207.7142839309
 20
54.1386629774
 10
208.5845162538
 20
56.024180999
 10
209.5519247215
 20
57.8768576774
 10
210.6097210571
 20
59.6836958178
 10
211.7504874152
 20
61.4320245231
 10
212.9662218216
 20
63.1095786579
 10
214.2483967834
 20
64.7045912395
 10
215.5880185582
 20
66.2058763223
 10
216.9756903746
 20
67.6029004759
 10
218.4016796031
 20
68.8858687108
 10
219.855983282
 20
70.0457775146
 10
221.3284008038
 20
71.0744948364
 10
222.7545299731
 20
71.9347979734
  0
LWPOLYLINE
  5
253
330
1F
100
AcDbEntity
  8
0
  6
Continuous
 62
     7
370
    18
100
AcDbPolyline
 90
        3
 70
   128
 43
0.0
 10
204.8533848299
 20
39.1030329037
 10
204.8227190463
 20
39.4645693454
 10
204.7607210322
 20
41.1369380045
  0
LWPOLYLINE
  5
254
330
1F
100
AcDbEntity
  8
0
  6
Continuous
 62
     7
370
    18
100
AcDbPolyline
 90
       21
 70
   128
 43
0.0
 10
212.5837342528
 20
42.963732362
 10
212.9978533812
 20
44.8512490926
 10
213.5384762755
 20
46.762199024
 10
214.2012341512
 20
48.6811436483
 10
214.9807730416
 20
50.5925806716
 10
215.8707959442
 20
52.4810702461
 10
216.8641128699
 20
54.3313551189
 10
217.9526994539
 20
56.1284910462
 10
219.1277621515
 20
57.8579566735
 10
220.3798080435
 20
59.5057820474
 10
221.6987232034
 20
61.0586562141
 10
223.073852381
 20
62.5040340566
 10
224.4940872476
 20
63.83024047
 10
225.9479544762
 20
65.0265607533
 10
227.4237094193
 20
66.0833296696
 10
228.9094305074
 20
66.992011797
 10
230.3931155817
 20
67.7452662658
 10
231.8627788235
 20
68.3370087984
 10
233.3065480952
 20
68.7624572565
 10
234.712759915
 20
69.0181773435
 10
235.0625418792
 20
69.0558163331
  0
LWPOLYLINE
  5
255
330
1F
100
AcDbEntity
  8
0
  6
Continuous
 62
     7
370
    18
100
AcDbPolyline
 90
       18
 70
   128
 43
0.0
 10
213.15772889
 20
42.9685289625
 10
213.5733468657
 20
44.8356856795
 10
214.1145005468
 20
46.7253319536
 10
214.7767697825
 20
48.6220300424
 10
215.5547439712
 20
50.5102860222
 10
216.4420668412
 20
52.3746729786
 10
217.4314904518
 20
54.1999625621
 10
218.5149331447
 20
55.9712420931
 10
219.6835421061
 20
57.6740404132
 10
220.9277717333
 20
59.2944499322
 10
222.2374567334
 20
60.8192304239
 10
223.6018987215
 20
62.2359274607
 10
225.0099511732
 20
63.5329655619
 10
226.4501107978
 20
64.699751133
 10
227.9106131916
 20
65.7267504989
 10
229.3795267216
 20
66.6055745211
 10
230.8448515956
 20
67.329044914
 10
230.9886791979
 20
67.3917278764
  0
LINE
  5
256
330
1F
100
AcDbEntity
  8
0
  6
Continuous
 62
     7
370
    18
100
AcDbLine
 10
206.3375699864
 20
40.6389959268
 30
0.0
 11
208.4907089142
 21
41.8819765722
 31
0.0
  0
LWPOLYLINE
  5
257
330
1F
100
AcDbEntity
  8
0
  6
Continuous
 62
     7
370
    18
100
AcDbPolyline
 90
       20
 70
   128
 43
0.0
 10
193.8904011433
 20
60.8210350787
 10
194.499463934
 20
62.4936533203
 10
195.2229251254
 20
64.152992271
 10
196.0531153081
 20
65.7814616229
 10
196.9812343519
 20
67.3617993139
 10
197.9974429433
 20
68.8772513685
 10
199.0909692697
 20
70.3117536387
 10
200.2502206429
 20
71.6500996654
 10
201.4629082931
 20
72.8781009347
 10
202.7161769376
 20
73.9827415242
 10
203.9967406879
 20
74.952309033
 10
205.2910248838
 20
75.7765274117
 10
206.5853090797
 20
76.4466577575
 10
207.86587283
 20
76.9555976838
 10
209.1191414745
 20
77.2979502712
 10
210.3318291247
 20
77.4700883601
 10
211.4910804979
 20
77.4701854792
 10
212.5846068243
 20
77.2982418312
 10
213.6008154157
 20
76.956079242
 10
213.8700178738
 20
76.830216385
  0
ARC
  5
258
330
1F
100
AcDbEntity
  8
0
  6
Continuous
 62
     7
370
    18
100
AcDbCircle
 10
199.7503920168
 20
51.4624108237
 30
0.0
 40
6.567090909489512
100
AcDbArc
 50
206.8329030039
 51
236.0333930637
  0
ARC
  5
259
330
1F
100
AcDbEntity
  8
0
  6
Continuous
 62
     7
370
    18
100
AcDbCircle
 10
227.232688146
 20
33.7773163219
 30
0.0
 40
12.58145656459708
100
AcDbArc
 50
191.3865744508
 51
214.2485105814
  0
LINE
  5
25A
330
1F
100
AcDbEntity
  8
0
  6
Continuous
 62
     7
370
    18
100
AcDbLine
 10
210.3026723959
 20
33.9467154907
 30
0.0
 11
212.0262427411
 21
34.9417114719
 31
0.0
  0
LINE
  5
25B
330
1F
100
AcDbEntity
  8
0
  6
Continuous
 62
     7
370
    18
100
AcDbLine
 10
206.3375699864
 20
39.8224550761
 30
0.0
 11
208.4907089142
 21
41.0654357215
 31
0.0
  0
LINE
  5
25C
330
1F
100
AcDbEntity
  8
0
  6
Continuous
 62
     7
370
    18
100
AcDbLine
 10
214.0095055031
 20
33.2694955847
 30
0.0
 11
213.9426171375
 21
33.5334737398
 31
0.0
  0
LINE
  5
25D
330
1F
100
AcDbEntity
  8
0
  6
Continuous
 62
     7
370
    18
100
AcDbLine
 10
213.5013771706
 20
32.8043162544
 30
0.0
 11
213.15772889
 21
33.9865800804
 31
0.0
  0
LWPOLYLINE
  5
25E
330
1F
100
AcDbEntity
  8
0
  6
Continuous
 62
     7
370
    18
100
AcDbPolyline
 90
        3
 70
   128
 43
0.0
 10
213.4117420191
 20
31.5514679077
 10
212.9810473254
 20
32.6201567839
 10
212.5837342528
 20
33.9817834799
  0
LINE
  5
25F
330
1F
100
AcDbEntity
  8
0
  6
Continuous
 62
     7
370
    18
100
AcDbLine
 10
241.2152323381
 20
69.2016178904
 30
0.0
 11
241.1148635696
 21
69.1436762337
 31
0.0
  0
ARC
  5
260
330
1F
100
AcDbEntity
  8
0
  6
Continuous
 62
     7
370
    18
100
AcDbCircle
 10
199.8550791889
 20
58.50519938
 30
0.0
 40
1.982758115011526
100
AcDbArc
 50
160.3181851691
 51
206.3321513809
  0
ARC
  5
261
330
1F
100
AcDbEntity
  8
0
  6
Continuous
 62
     7
370
    18
100
AcDbCircle
 10
197.6029682219
 20
58.4455315359
 30
0.0
 40
0.8231407192537193
100
AcDbArc
 50
40.3516534992
 51
62.0985447238
  0
LINE
  5
262
330
1F
100
AcDbEntity
  8
0
  6
Continuous
 62
     7
370
    18
100
AcDbLine
 10
197.9881587828
 20
59.172985229
 30
0.0
 11
198.1359611951
 21
59.7272400617
 31
0.0
  0
LINE
  5
263
330
1F
100
AcDbEntity
  8
0
  6
Continuous
 62
     7
370
    18
100
AcDbLine
 10
197.9881587828
 20
59.172985229
 30
0.0
 11
196.7349393645
 21
59.8964533997
 31
0.0
  0
LINE
  5
264
330
1F
100
AcDbEntity
  8
0
  6
Continuous
 62
     7
370
    18
100
AcDbLine
 10
193.8902575806
 20
61.7029404364
 30
0.0
 11
193.8756372339
 21
61.8786662803
 31
0.0
  0
ARC
  5
265
330
1F
100
AcDbEntity
  8
0
  6
Continuous
 62
     7
370
    18
100
AcDbCircle
 10
197.7065097421
 20
45.144088481
 30
0.0
 40
0.580633849258986
100
AcDbArc
 50
25.5709532967
 51
60.9828307538
  0
ARC
  5
266
330
1F
100
AcDbEntity
  8
0
  6
Continuous
 62
     7
370
    18
100
AcDbCircle
 10
199.9436165932
 20
46.2978301223
 30
0.0
 40
2.059398257777696
100
AcDbArc
 50
172.8727688225
 51
198.2811498095
  0
LINE
  5
267
330
1F
100
AcDbEntity
  8
0
  6
Continuous
 62
     7
370
    18
100
AcDbLine
 10
197.1429742002
 20
50.685440735
 30
0.0
 11
195.525906307
 21
51.6189541593
 31
0.0
  0
LINE
  5
268
330
1F
100
AcDbEntity
  8
0
  6
Continuous
 62
     7
370
    18
100
AcDbLine
 10
197.9881587828
 20
45.6518379121
 30
0.0
 11
196.7349393645
 21
46.3753060828
 31
0.0
  0
LINE
  5
269
330
1F
100
AcDbEntity
  8
0
  6
Continuous
 62
     7
370
    18
100
AcDbLine
 10
197.9881587828
 20
45.6518379121
 30
0.0
 11
198.1359611951
 21
45.2682321122
 31
0.0
  0
OLE2FRAME
  5
26A
330
1F
100
AcDbEntity
  8
0
100
AcDbOle2Frame
 70
     2
  3
Paintbrush-Bild
 10
13.8511154363
 20
38.264191557
 30
0.0
 11
51.6290888628
 21
31.9806341108
 31
0.0
 71
     2
 72
     0
 73
     1
 90
    12928
310
80552BED0767C5B32B40DDAF6807D121434000000000000000006FFBDDFB85D0
310
4940DDAF6807D121434000000000000000006FFBDDFB85D04940416F4BD60AFB
310
3F4000000000000000002BED0767C5B32B40416F4BD60AFB3F40000000000000
310
0000000000000100000000010000010000000100000000000100000000320000
310
D0CF11E0A1B11AE1000000000000000000000000000000003E000300FEFF0900
310
0600000000000000000000000100000001000000000000000010000002000000
310
01000000FEFFFFFF0000000000000000FFFFFFFFFFFFFFFFFFFFFFFFFFFFFFFF
310
FFFFFFFFFFFFFFFFFFFFFFFFFFFFFFFFFFFFFFFFFFFFFFFFFFFFFFFFFFFFFFFF
310
FFFFFFFFFFFFFFFFFFFFFFFFFFFFFFFFFFFFFFFFFFFFFFFFFFFFFFFFFFFFFFFF
310
FFFFFFFFFFFFFFFFFFFFFFFFFFFFFFFFFFFFFFFFFFFFFFFFFFFFFFFFFFFFFFFF
310
FFFFFFFFFFFFFFFFFFFFFFFFFFFFFFFFFFFFFFFFFFFFFFFFFFFFFFFFFFFFFFFF
310
FFFFFFFFFFFFFFFFFFFFFFFFFFFFFFFFFFFFFFFFFFFFFFFFFFFFFFFFFFFFFFFF
310
FFFFFFFFFFFFFFFFFFFFFFFFFFFFFFFFFFFFFFFFFFFFFFFFFFFFFFFFFFFFFFFF
310
FFFFFFFFFFFFFFFFFFFFFFFFFFFFFFFFFFFFFFFFFFFFFFFFFFFFFFFFFFFFFFFF
310
FFFFFFFFFFFFFFFFFFFFFFFFFFFFFFFFFFFFFFFFFFFFFFFFFFFFFFFFFFFFFFFF
310
FFFFFFFFFFFFFFFFFFFFFFFFFFFFFFFFFFFFFFFFFFFFFFFFFFFFFFFFFFFFFFFF
310
FFFFFFFFFFFFFFFFFFFFFFFFFFFFFFFFFFFFFFFFFFFFFFFFFFFFFFFFFFFFFFFF
310
FFFFFFFFFFFFFFFFFFFFFFFFFFFFFFFFFFFFFFFFFFFFFFFFFFFFFFFFFFFFFFFF
310
FFFFFFFFFFFFFFFFFFFFFFFFFFFFFFFFFFFFFFFFFFFFFFFFFFFFFFFFFFFFFFFF
310
FFFFFFFFFFFFFFFFFFFFFFFFFFFFFFFFFFFFFFFFFFFFFFFFFFFFFFFFFFFFFFFF
310
FDFFFFFFFEFFFFFFFEFFFFFFFEFFFFFF05000000060000000700000008000000
310
090000000A0000000B0000000C0000000D0000000E0000000F00000010000000
310
11000000120000001300000014000000150000001600000017000000FEFFFFFF
310
FFFFFFFFFFFFFFFFFFFFFFFFFFFFFFFFFFFFFFFFFFFFFFFFFFFFFFFFFFFFFFFF
310
FFFFFFFFFFFFFFFFFFFFFFFFFFFFFFFFFFFFFFFFFFFFFFFFFFFFFFFFFFFFFFFF
310
FFFFFFFFFFFFFFFFFFFFFFFFFFFFFFFFFFFFFFFFFFFFFFFFFFFFFFFFFFFFFFFF
310
FFFFFFFFFFFFFFFFFFFFFFFFFFFFFFFFFFFFFFFFFFFFFFFFFFFFFFFFFFFFFFFF
310
FFFFFFFFFFFFFFFFFFFFFFFFFFFFFFFFFFFFFFFFFFFFFFFFFFFFFFFFFFFFFFFF
310
FFFFFFFFFFFFFFFFFFFFFFFFFFFFFFFFFFFFFFFFFFFFFFFFFFFFFFFFFFFFFFFF
310
FFFFFFFFFFFFFFFFFFFFFFFFFFFFFFFFFFFFFFFFFFFFFFFFFFFFFFFFFFFFFFFF
310
FFFFFFFFFFFFFFFFFFFFFFFFFFFFFFFFFFFFFFFFFFFFFFFFFFFFFFFFFFFFFFFF
310
FFFFFFFFFFFFFFFFFFFFFFFFFFFFFFFFFFFFFFFFFFFFFFFFFFFFFFFFFFFFFFFF
310
FFFFFFFFFFFFFFFFFFFFFFFFFFFFFFFFFFFFFFFFFFFFFFFFFFFFFFFFFFFFFFFF
310
FFFFFFFFFFFFFFFFFFFFFFFFFFFFFFFFFFFFFFFFFFFFFFFFFFFFFFFFFFFFFFFF
310
FFFFFFFFFFFFFFFFFFFFFFFFFFFFFFFFFFFFFFFFFFFFFFFFFFFFFFFFFFFFFFFF
310
FFFFFFFFFFFFFFFFFFFFFFFFFFFFFFFFFFFFFFFFFFFFFFFFFFFFFFFFFFFFFFFF
310
52006F006F007400200045006E00740072007900000000000000000000000000
310
0000000000000000000000000000000000000000000000000000000000000000
310
16000500FFFFFFFFFFFFFFFF020000000A00030000000000C000000000000046
310
00000000000000000000000050F9F8E613A7D30103000000C000000000000000
310
01004F006C006500000000000000000000000000000000000000000000000000
310
0000000000000000000000000000000000000000000000000000000000000000
310
0A000200FFFFFFFFFFFFFFFFFFFFFFFF00000000000000000000000000000000
310
0000000000000000000000000000000000000000000000001400000000000000
310
010043006F006D0070004F0062006A0000000000000000000000000000000000
310
0000000000000000000000000000000000000000000000000000000000000000
310
120002010100000003000000FFFFFFFF00000000000000000000000000000000
310
0000000000000000000000000000000000000000010000004D00000000000000
310
01004F006C006500310030004E00610074006900760065000000000000000000
310
0000000000000000000000000000000000000000000000000000000000000000
310
1A000200FFFFFFFFFFFFFFFFFFFFFFFF00000000000000000000000000000000
310
0000000000000000000000000000000000000000040000002426000000000000
310
FEFFFFFF02000000FEFFFFFFFFFFFFFFFFFFFFFFFFFFFFFFFFFFFFFFFFFFFFFF
310
FFFFFFFFFFFFFFFFFFFFFFFFFFFFFFFFFFFFFFFFFFFFFFFFFFFFFFFFFFFFFFFF
310
FFFFFFFFFFFFFFFFFFFFFFFFFFFFFFFFFFFFFFFFFFFFFFFFFFFFFFFFFFFFFFFF
310
FFFFFFFFFFFFFFFFFFFFFFFFFFFFFFFFFFFFFFFFFFFFFFFFFFFFFFFFFFFFFFFF
310
FFFFFFFFFFFFFFFFFFFFFFFFFFFFFFFFFFFFFFFFFFFFFFFFFFFFFFFFFFFFFFFF
310
FFFFFFFFFFFFFFFFFFFFFFFFFFFFFFFFFFFFFFFFFFFFFFFFFFFFFFFFFFFFFFFF
310
FFFFFFFFFFFFFFFFFFFFFFFFFFFFFFFFFFFFFFFFFFFFFFFFFFFFFFFFFFFFFFFF
310
FFFFFFFFFFFFFFFFFFFFFFFFFFFFFFFFFFFFFFFFFFFFFFFFFFFFFFFFFFFFFFFF
310
FFFFFFFFFFFFFFFFFFFFFFFFFFFFFFFFFFFFFFFFFFFFFFFFFFFFFFFFFFFFFFFF
310
FFFFFFFFFFFFFFFFFFFFFFFFFFFFFFFFFFFFFFFFFFFFFFFFFFFFFFFFFFFFFFFF
310
FFFFFFFFFFFFFFFFFFFFFFFFFFFFFFFFFFFFFFFFFFFFFFFFFFFFFFFFFFFFFFFF
310
FFFFFFFFFFFFFFFFFFFFFFFFFFFFFFFFFFFFFFFFFFFFFFFFFFFFFFFFFFFFFFFF
310
FFFFFFFFFFFFFFFFFFFFFFFFFFFFFFFFFFFFFFFFFFFFFFFFFFFFFFFFFFFFFFFF
310
FFFFFFFFFFFFFFFFFFFFFFFFFFFFFFFFFFFFFFFFFFFFFFFFFFFFFFFFFFFFFFFF
310
FFFFFFFFFFFFFFFFFFFFFFFFFFFFFFFFFFFFFFFFFFFFFFFFFFFFFFFFFFFFFFFF
310
FFFFFFFFFFFFFFFFFFFFFFFFFFFFFFFFFFFFFFFFFFFFFFFFFFFFFFFFFFFFFFFF
310
0100000200000000000000000000000000000000000000000000000000000000
310
0000000000000000000000000000000000000000000000000000000000000000
310
0100FEFF030A0000FFFFFFFF0A00030000000000C00000000000004607000000
310
5042727573680007000000504272757368000700000050427275736800F439B2
310
7100000000000000000000000000000000000000000000000000000000000000
310
0000000000000000000000000000000000000000000000000000000000000000
310
0000000000000000000000000000000000000000000000000000000000000000
310
0000000000000000000000000000000000000000000000000000000000000000
310
0000000000000000000000000000000000000000000000000000000000000000
310
0000000000000000000000000000000000000000000000000000000000000000
310
0000000000000000000000000000000000000000000000000000000000000000
310
0000000000000000000000000000000000000000000000000000000000000000
310
0000000000000000000000000000000000000000000000000000000000000000
310
0000000000000000000000000000000000000000000000000000000000000000
310
0000000000000000000000000000000000000000000000000000000000000000
310
0000000000000000000000000000000000000000000000000000000000000000
310
20260000424D0E260000000000003E00000028000000B40200006E0000000100
310
01000000000000000000130B0000130B00000200000002000000000000FFFFFF
310
FFFFFFFFFFFFFFFFFFFFFFFFFFFFFFFFFFFFFFFFFFFFFFFFFFFFFFFFFFFFFFFF
310
FFFFFFFFFFFFFFFFFFFFFFFFFFFFFFFFFFFFFFFFFFFFFFFFFFFFFFFFFFFFFFFF
310
FFFFFFFFFFFFFFFFFFFFFFFFFFFFFFFFFFFFFFFFFFFFFFFFF000FFFFFFFFFFFF
310
FFFFFFFFFFFFFFFFFFFFFFFFFFFFFFFFFFFFFFFFFFFFFFFFFFFFFFFFFFFFFFFF
310
FFFFFFFFFFFFFFFFFFFFFFFFFFFFFFFFFFFFFFFFFFFFFFFFFFFFFFFFFFFFFFFF
310
FFFFFFFFFFFFFFFFFFFFFFFFFFFFFFFFF000FFFFFFFFFFFFFFFFFFFFFFFFFFFF
310
FFFFFFFFFFFFFFFFFFFFFFFFFFFFFFFFFFFFFFFFFFFFFFFFFFFFFFFFFFFFFFFF
310
FFFFFFFFFFFFFFFFFFFFFFFFFFFFFFFFFFFFFFFFFFFFFFFFFFFFFFFFFFFFFFFF
310
FFFFFFFFFFFFFFFFF000FFFFFFFFFFFFFFFFFFFFFFFFFFFFFFFFFFFFFFFFFFFF
310
FFFFFFFFFFFFFFFFFFFFFFFFFFFFFFFFFFFFFFFFFFFFFFFFFFFFFFFFFFFFFFFF
310
FFFFFFFFFFFFFFFFFFFFFFFFFFFFFFFFFFFFFFFFFFFFFFFFFFFFFFFFFFFFFFFF
310
F000FFFFFFFFFFFFFFFFFFFFFFFFFFFFFFFFFFFFFFFFFFFFFFFFFFFFFFFFFFFF
310
FFFFFFFFFFFFFFFFFFFFFFFFFFFFFFFFFFFFFFFFFFFFFFFFFFFFFFFFFFFFFFFF
310
FFFFFFFFFFFFFFFFFFFFFFFFFFFFFFFFFFFFFFFFFFFFFFFFF000FFFFFFFFFFFF
310
FFFFFFFFFFFFFFFFFFFFFFFFFFFFFFFFFFFFFFFFFFFFFFFFFFFFFFFFFFFFFFFF
310
FFFFFFFFFFFFFFFFFFFFFFFFFFFFFFFFFFFFFFFFFFFFFFFFFFFFFFFFFFFFFFFF
310
FFFFFFFFFFFFFFFFFFFFFFFFFFFFFFFFF000FFFFFFFFFFFFFFFFFFFFFFFFFFFF
310
FFFFFFFFFFFFFFFFFFFFFFFFFFFFFFFFFFFFFFFFFFFFFFFFFFFFFFFFFFFFFFFF
310
FFFFFFFFFFFFFFFFFFFFFFFFFFFFFFFFFFFFFFFFFFFFFFFFFFFFFFFFFFFFFFFF
310
FFFFFFFFFFFFFFFFF000FFFFFFFFFFFFFFFFFFFFFFFFFFFFFFFFFFFFFFFFFFFF
310
FFFFFFFFFFFFFFFFFFFFFFFFFFFFFFFFFFFFFFFFFFFFFFFFFFFFFFFFFFFFFFFF
310
FFFFFFFFFFFFFFFFFFFFFFFFFFFFFFFFFFFFFFFFFFFFFFFFFFFFFFFFFFFFFFFF
310
F000FFFFFFFFFFFFFFFFFFFFFFFFFFFFFFFFFFFFFFFFFFFFFFFFFFFFFFFFFFFF
310
FFFFFFFFFFFFFFFFFFFFFFFFFFFFFFFFFFFFFFFFFFFFFFFFFFFFFFFFFFFFFFFF
310
FFFFFFFFFFFFFFFFFFFFFFFFFFFFFFFFFFFFFFFFFFFFFFFFF000FFFFFFFFFFFF
310
FFFFFFFFFFFFFFFFFFFFFFFFFFFFFFFFFFFFFFFFFFFFFFFFFFFFFFFFFFFFFFFF
310
FFFFFFFFFFFFFFFFFFFFFFFFFFFFFFFFFFFFFFFFFFFFFFFFFFFFFFFFFFFFFFFF
310
FFFFFFFFFFFFFFFFFFFFFFFFFFFFFFFFF000FFFFFFFFFFFFFFFFFFFFFFFFFFFF
310
FFFFFFFFFFFFFFFFFFFFFFFFFFFFFFFFFFFFFFFFFFFFFFFFFFFFFFFFFFFFFFFF
310
FFFFFFFFFFFFFFFFFFFFFFFFFFFFFFFFFFFFFFFFFFFFFFFFFFFFFFFFFFFFFFFF
310
FFFFFFFFFFFFFFFFF000FFFFFFFFFFFFFFFFFFFFFFFFFFFFFFFFFFFFFFFFFFFF
310
FFFFFFFFFFFFFFFFFFFFFFFFFFFFFFFFFFFFFFFFFFFFFFFFFFFFFFFFFFFFFFFF
310
FFFFFFFFFFFFFFFFFFFFFFFFFFFFFFFFFFFFFFFFFFFFFFFFFFFFFFFFFFFFFFFF
310
F000FFFFFFFFFFFFFFFFFFFFFFFFFFFFFFFFFFFFFFFFFFFFFFFFFFFFFFFFFFFF
310
FFFFFFFFFFFFFFFFFFFFFFFFFFFFFFFFFFFFFFFFFFFFFFFFFFFFFFFFFFFFFFFF
310
FFFFFFFFFFFFFFFFFFFFFFFFFFFFFFFFFFFFFFFFFFFFFFFFF000FFFFFFFFFFFF
310
FFFFFFFFFFFFFFFFFFFFFFFFFFFFFFFFFFFFFFFFFFFFFFFFFFFFFFFFFFFFFFFF
310
FFFFFFFFFFFFFFFFFFFFFFFFFFFFFFFFFFFFFFFFFFFFFFFFFFFFFFFFFFFFFFFF
310
FFFFFFFFFFFFFFFFFFFFFFFFFFFFFFFFF000FFFFFFFFFFFFFFFFFFFFFFFFFFFF
310
FFFFFFFFFFFFFFFFFFFFFFFFFFFFFFFFFFFFFFFFFFFFFFFFFFFFFFFFFFFFFFFF
310
FFFFFFFFFFFFFFFFFFFFFFFFFFFFFFFFFFFFFFFFFFFFFFFFFFFFFFFFFFFFFFFF
310
FFFFFFFFFFFFFFFFF000FFFFFFFFFFFFFFFFFFFFFFFFFFFFFFFFFFFFFFFFFFFF
310
FFFFFFFFFFFFFFFFFFFFFFFFFFFFFFFFFFFFFFFFFFFFFFFFFFFFFFFFFFFFFFFF
310
FFFFFFFFFFFFFFFFFFFFFFFFFFFFFFFFFFFFFFFFFFFFFFFFFFFFFFFFFFFFFFFF
310
F000FFFFFFFFFFFFFFFFFFFFFFFFFFFFFFFFFFFFFFFFFFFFFFFFFFFFFFFFFFFF
310
FFFFFFFFFFFFFFFFFFFFFFFFFFFFFFFFFFFFFFFFFFFFFFFFFFFFFFFFFFFFFFFF
310
FFFFFFFFFFFFFFFFFFFFFFFFFFFFFFFFFFFFFFFFFFFFFFFFF000FFFFFFFFFFFF
310
FFFFFFFFFFFFFFFFFFFFFFFFFFFFFFFFFFFFFFFFFFFFFFFFFFFFFFFFFFFFFFFF
310
FFFFFFFFFFFFFFFFFFFFFFFFFFFFFFFFFFFFFFFFFFFFFFFFFFFFFFFFFFFFFFFF
310
FFFFFFFFFFFFFFFFFFFFFFFFFFFFFFFFF000FFFFFFFFFFFFFFFFFFFFFFFFFFFF
310
FFFFFFFFFFFFFFFFFFFFFFFFFFFFFFFFFFFFFFFFFFFFFFFFFFFFFFFFFFFFFFFF
310
FFFFFFFFFFFFFFFFFFFFFFFFFFFFFFFFFFFFFFFFFFFFFFFFFFFFFFFFFFFFFFFF
310
FFFFFFFFFFFFFFFFF000FFFFF80003FFFFFFFFFFFFFFFFFFFFFFFFFFFFFFFFFF
310
FFFFF00007FFFFFFFFFF00007FFFFFF800000000000000007FFFFFFFFFFFFFFF
310
FFFFFFFC001FFFFFFFFFFFFFFC001FFFFFFFFFFFFFFFFFFFFFFFFFFE0007FFFF
310
F000FFFF8000007FFFFFFFF8000FFFFFC0007FFFFF80007FFFFF0000007FFFFF
310
FFF8000007FFFFF800000000000000007FFFFFF0001FFFFFFFFFFFC00001FFFF
310
FFFFFFFFC00001FFFFFFFF000000000003FFFFE000007FFFF000FFFE0000000F
310
FFFFFFF0000FFFFF80007FFFFF80007FFFFC0000001FFFFFFFC0000001FFFFF8
310
00000000000000007FFFFFF0001FFFFFFFFFFE0000003FFFFFFFFFFE0000003F
310
FFFFFF000000000003FFFF0000000FFFF000FFF800000003FFFFFFF00007FFFF
310
80007FFFFF80007FFFF000000007FFFFFF000000003FFFF80000000000000000
310
7FFFFFF0001FFFFFFFFFF80000000FFFFFFFFFF80000000FFFFFFF0000000000
310
03FFFC00000003FFF000FFE000000000FFFFFFF00007FFFF80003FFFFF80007F
310
FFC000000001FFFFFC000000001FFFF800000000000000007FFFFFF0001FFFFF
310
FFFFE000000003FFFFFFFFE000000003FFFFFF000000000003FFF000000000FF
310
F000FF80000000007FFFFFF00007FFFF80003FFFFF80007FFF8000000000FFFF
310
F80000000007FFF800000000000000007FFFFFF0001FFFFFFFFFC000000001FF
310
FFFFFFC000000001FFFFFF000000000003FFC0000000007FF000FF0000000000
310
3FFFFFE00007FFFF00003FFFFF80007FFE00000000003FFFF00000000003FFF8
310
00000000000000007FFFFFF0001FFFFFFFFF8000000000FFFFFFFF8000000000
310
FFFFFF000000000003FF80000000003FF000FE00000000001FFFFFE00003FFFF
310
00003FFFFF80007FFC00000000001FFFE00000000001FFF8000001FFFE000000
310
7FFFFFF0001FFFFFFFFE00000000003FFFFFFE00000000003FFFFF0000000000
310
03FF00000000001FF000FC00000000000FFFFFE00003FFFF00001FFFFF80007F
310
F800000000001FFFC00000000000FFF8000001FFFE0000007FFFFFF0001FFFFF
310
FFFC00000000001FFFFFFC00000000001FFFFF000000000003FE00000000000F
310
F000F8000000000007FFFFE00003FFFF00001FFFFF80007FF800000000000FFF
310
800000000000FFF8000001FFFE0000007FFFFFF0001FFFFFFFF800000000000F
310
FFFFF800000000000FFFFF000000000003FC000000000007F000F80000000000
310
03FFFFC00003FFFE00001FFFFF80007FF0000000000007FF0000000000007FF8
310
000001FFFE0000007FFFFFF0001FFFFFFFF0000000000007FFFFF00000000000
310
07FFFF000000000003F8000000000003F000F0000000000003FFFFC00001FFFE
310
00001FFFFF80007FE0000000000007FE0000000000003FF8000001FFFE000000
310
7FFFFFF0001FFFFFFFF0000000000007FFFFF0000000000007FFFF0000000000
310
03F800001F800003F000E00001FFF00001FFFFC00001FFFE00000FFFFF80007F
310
E00001FFE00003FE00001FFF00003FF8000001FFFE0000007FFFFFF0001FFFFF
310
FFE000003E000003FFFFE000003E000003FFFF000000000003F00001FFF80001
310
F000E00007FFFC0001FFFFC00001FFFE00000FFFFF80007FC0000FFFFC0003FC
310
0000FFFFC0001FF8000001FFFE0000007FFFFFF0001FFFFFFFC00003FFE00001
310
FFFFC00003FFE00001FFFF0001FFFFFFFFF00007FFFE0001F000E0000FFFFF00
310
00FFFF800001FFFC00000FFFFF80007FC0001FFFFE0001FC0001FFFFE0001FF8
310
000001FFFE0000007FFFFFF0001FFFFFFF80000FFFF80000FFFF80000FFFF800
310
00FFFF0003FFFFFFFFE0000FFFFF8000F000C0003FFFFF8000FFFF800000FFFC
310
000007FFFF80007F80003FFFFF0001FC0003FFFFF0001FF8000001FFFE000000
310
7FFFFFF0001FFFFFFF80003FFFFE0000FFFF80003FFFFE0000FFFF0003FFFFFF
310
FFE0003FFFFF8000F000C0003FFFFF8000FFFF800000FFFC000007FFFF80007F
310
80007FFFFF8001F80007FFFFF8000FF8000001FFFE0000007FFFFFF0001FFFFF
310
FF00007FFFFF00007FFF00007FFFFF00007FFF0003FFFFFFFFE0003FFFFFC000
310
F000C0007FFFFFC000FFFF000000FFFC000007FFFF80007F8000FFFFFF8000F8
310
000FFFFFF8000FF8000001FFFE0000007FFFFFF0001FFFFFFF0000FFFFFF8000
310
7FFF0000FFFFFF80007FFF0003FFFFFFFFC0007FFFFFC00070008000FFFFFFC0
310
00FFFF000000FFF8000007FFFF80007F8000FFFFFF8000F8000FFFFFF8000FF8
310
000001FFFE0000007FFFFFF0001FFFFFFE0001FFFFFFC0003FFE0001FFFFFFC0
310
003FFF0003FFFFFFFFC0007FFFFFE00070008000FFFFFFC0007FFF0000007FF8
310
000003FFFF80007F0001FFFFFF8000F8000FFFFFF8000FF8000001FFFE000000
310
7FFFFFF0001FFFFFFE0001FFFFFFC0003FFE0001FFFFFFC0003FFF0003FFFFFF
310
FFC000FFFFFFE00070008000FFFFFFC0007FFF0000007FF8000003FFFF80007F
310
0001FFFFFF8000F8001FFFFFF8000FF8000001FFFE0000007FFFFFF0001FFFFF
310
FE0003FFFFFFE0003FFE0003FFFFFFE0003FFF0003FFFFFFFFC000FFFFFFE000
310
70008000FFFFFFC0007FFE0000007FF8000003FFFF80007F0001FFFFFF8000F0
310
001FFFFFF8000FF8000001FFFE0000007FFFFFF0001FFFFFFC0003FFFFFFE000
310
1FFC0003FFFFFFE0001FFF0003FFFFFFFFC000FFFFFFC00070008000FFFFFF80
310
007FFE0000007FF0000003FFFF80007F0001FFFFFF0000F0001FFFFFF8000FF8
310
000001FFFE0000007FFFFFF0001FFFFFFC0007FFFFFFF0001FFC0007FFFFFFF0
310
001FFF0003FFFFFFFFC000FFFFFFC00070008001FFFFFF0000FFFE0000003FF0
310
000001FFFF80007F0001FFFFFF0000F8001FFFFFF0000FF8000001FFFE000000
310
7FFFFFF0001FFFFFFC0007FFFFFFF0001FFC0007FFFFFFF0001FFF0003FFFFFF
310
FFC001FFFFFF80007000FFFFFFFFFE0000FFFE0008003FF0008001FFFF80007F
310
FFFFFFFFFC0000FFFFFFFFFFE0000FF8000001FFFE0000007FFFFFF0001FFFFF
310
F8000FFFFFFFF8000FF8000FFFFFFFF8000FFF0003FFFFFFFFFFFFFFFFFF0000
310
7000FFFFFFFFFC0000FFFC0008003FF0008001FFFF80007FFFFFFFFFF80001FF
310
FFFFFFFF80000FF8000001FFFE0000007FFFFFF0001FFFFFF8000FFFFFFFF800
310
0FF8000FFFFFFFF8000FFF0003FFFFFFFFFFFFFFFFFE0000F000FFFFFFFFE000
310
00FFFC000C003FE000C001FFFF80007FFFFFFFFFC00001FFFFFFFFFE00001FF8
310
000001FFFE0000007FFFFFF0001FFFFFF8000FFFFFFFF8000FF8000FFFFFFFF8
310
000FFF0003FFFFFFFFFFFFFFFFF00000F000FFFFFFFE000001FFFC000C001FE0
310
00C000FFFF80007FFFFFFFFE000001FFFFFFFFE000001FF80FFFFFFFFFFFFFC0
310
7FFFFFF0001FFFFFF8000FFFFFFFF8000FF8000FFFFFFFF8000FFF0003FFFFFF
310
FFFFFFFFFF800000F000FFFFFFC0000001FFFC001C001FE001C000FFFF80007F
310
FFFFFF80000003FFFFFFF80000001FF80FFFFFFFFFFFFFC07FFFFFF0001FFFFF
310
F8001FFFFFFFFC000FF8001FFFFFFFFC000FFF0003FFFFFFFFFFFFFFF0000001
310
F000FFFFF800000001FFF8001C001FE001C000FFFF80007FFFFFF800000003FF
310
FFFF800000003FF80FFFFFFFFFFFFFC07FFFFFF0001FFFFFF8001FFFFFFFFC00
310
0FF8001FFFFFFFFC000FFF0003FFFFFFFFFFFFFE00000001F000FFFFC0000000
310
03FFF8001E001FC001E000FFFF80007FFFFF8000000007FFFFFC000000003FF8
310
0FFFFFFFFFFFFFC07FFFFFF0001FFFFFF8001FFFFFFFFC000FF8001FFFFFFFFC
310
000FFF0003FFFFFFFFFFFFE000000003F000FFFE0000000007FFF8001E000FC0
310
01E0007FFF80007FFFFE0000000007FFFFE0000000007FF80FFFFFFFFFFFFFC0
310
7FFFFFF0001FFFFFF0001FFFFFFFFC0007F0001FFFFFFFFC0007FF0003FFFFFF
310
FFFFFF0000000003F000FFF80000000007FFF8001E000FC003E0007FFF80007F
310
FFF0000000000FFFFF8000000000FFF80FFFFFFFFFFFFFC07FFFFFF0001FFFFF
310
F0001FFFFFFFFC0007F0001FFFFFFFFC0007FF0003FFFFFFFFFFFC0000000007
310
F000FFE0000000000FFFF0003E000FC003E0007FFF80007FFFC0000000001FFF
310
FE0000000001FFF80FFFFFFFFFFFFFC07FFFFFF0001FFFFFF0001FFFFFFFFC00
310
07F0001FFFFFFFFC0007FF0003FFFFFFFFFFF0000000000FF000FFC000000000
310
1FFFF0003F000F8003F0003FFF80007FFF80000000003FFFF80000000003FFF8
310
0FFFFFFFFFFFFFC07FFFFFF0001FFFFFF0001FFFFFFFFC0007F0001FFFFFFFFC
310
0007FF0003FFFFFFFFFFE0000000001FF000FF00000000007FFFF0003F000780
310
03F0003FFF80007FFF00000000007FFFF00000000007FFF80FFFFFFFFFFFFFC0
310
7FFFFFF0001FFFFFF0001FFFFFFFFC0007F0001FFFFFFFFC0007FF0003FFFFFF
310
FFFF80000000007FF000FE0000000000FFFFE0003F00078007F0003FFF80007F
310
FE0000000001FFFFE0000000001FFFF80FFFFFFFFFFFFFC07FFFFFF0001FFFFF
310
F0001FFFFFFFFC0007F0001FFFFFFFFC0007FF0003FFFFFFFFFF0000000000FF
310
F000FC0000000003FFFFE0007F00078007F0003FFF80007FFC0000000007FFFF
310
C0000000007FFFF80FFFFFFFFFFFFFC07FFFFFF0001FFFFFF8001FFFFFFFFC00
310
0FF8001FFFFFFFFC000FFF0003FFFFFFFFFE0000000003FFF000FC000000000F
310
FFFFE0007F80070007F8001FFF80007FF8000000001FFFFF8000000001FFFFF8
310
0FFFFFFFFFFFFFC07FFFFFF0001FFFFFF8001FFFFFFFFC000FF8001FFFFFFFFC
310
000FFF0003FFFFFFFFFC000000000FFFF000F8000000007FFFFFE0007F800700
310
07F8001FFF80007FF000000000FFFFFF800000000FFFFFF80FFFFFFFFFFFFFC0
310
7FFFFFF0001FFFFFF8000FFFFFFFF8000FF8000FFFFFFFF8000FFF0003FFFFFF
310
FFFC000000007FFFF000F800000007FFFFFFC0007F8003000FF8001FFF80007F
310
F000000007FFFFFF000000007FFFFFF80FFFFFFFFFFFFFC07FFFFFF0001FFFFF
310
F8000FFFFFFFF8000FF8000FFFFFFFF8000FFF0003FFFFFFFFF80000000FFFFF
310
F000F0000000FFFFFFFFC000FF8003000FF8001FFF80007FE0000000FFFFFFFF
310
0000000FFFFFFFF8000001FFFE0000007FFFFFF0001FFFFFF8000FFFFFFFF800
310
0FF8000FFFFFFFF8000FFF0003FFFFFFFFF8000000FFFFFFF000F000000FFFFF
310
FFFFC000FFC002000FF8000FFF80007FE000001FFFFFFFFE000001FFFFFFFFF8
310
000001FFFE0000007FFFFFF0001FFFFFF8000FFFFFFFF8000FF8000FFFFFFFF8
310
000FFF0003FFFFFFFFF000001FFFFFFFF000E00000FFFFFFFFFFC000FFC00200
310
0FFC000FFF80007FE00001FFFFFFFFFE00001FFFFFFFFFF8000001FFFE000000
310
7FFFFFF0001FFFFFFC000FFFFFFFF8001FFC000FFFFFFFF8001FFF0003FFFFFF
310
FFF00001FFFFFFFFF000E00007FFFFFFFFFF8000FFC000001FFC000FFF80007F
310
C0000FFFFFFFFFFE0000FFFFFFFFFFF8000001FFFE0000007FFFFFF0001FFFFF
310
FC0007FFFFFFF0001FFC0007FFFFFFF0001FFF0003FFFFFFFFF00007FFFFFFFF
310
F000E0001FFFFFFFFFFF8000FFC000001FFC000FFF80007FC0003FFFFFFFFFFE
310
0001FFFFFFFFFFF8000001FFFE0000007FFFFFF0001FFFFFFC0007FFFFFFF000
310
1FFC0007FFFFFFF0001FFF0003FFFFFFFFF0001FFFFFFFFFF000E0003FFFFF00
310
03FF8001FFE000001FFC0007FF80007FC0007FFFFF0007FC0003FFFFF0003FF8
310
000001FFFE0000007FFFFFF0001FFFFFFC0003FFFFFFE0001FFC0003FFFFFFE0
310
001FFF0003FFFFFFFFF0003FFFFFFFFFF000E0003FFFFF0001FF8001FFE00000
310
1FFE0007FF80007FC0007FFFFE0003FC0007FFFFE0003FF8000001FFFE000000
310
7FFFFFF0001FFFFFFE0003FFFFFFE0003FFE0003FFFFFFE0003FFF0003FFFFFF
310
FFF0003FFFFF8001F000E0003FFFFF0001FF0001FFE000001FFE0007FF80007F
310
C0007FFFFE0003FC0007FFFFE0003FF8000001FFFE0000007FFFFFF0001FFFFF
310
FE0001FFFFFFC0003FFE0001FFFFFFC0003FFF0003FFFFFFFFF0003FFFFF0001
310
F000E0003FFFFF0003FF0001FFE000003FFE0007FF80007FC0007FFFFE0003FC
310
0007FFFFE0003FF8000001FFFE0000007FFFFFF0001FFFFFFF0001FFFFFFC000
310
7FFF0001FFFFFFC0007FFF0003FFFFFFFFF0003FFFFF0001F000E0003FFFFE00
310
03FF0003FFF000003FFE0003FF80007FC0007FFFFC0003FE0007FFFFE0003FF8
310
000001FFFE0000007FFFFFF0001FFFFFFF0000FFFFFF80007FFF0000FFFFFF80
310
007FFF0003FFFFFFFFF0003FFFFF0001F000E0003FFFFE0003FF0003FFF00000
310
3FFF0003FF80007FC0007FFFFC0007FE0007FFFFC0003FF8000001FFFE000000
310
7FFFFFF0001FFFFFFF80007FFFFF0000FFFF80007FFFFF0000FFFF0003FFFFFF
310
FFF0003FFFFF0003F000E0003FFFFC0003FE0003FFF000003FFF0003FF80007F
310
E0003FFFF80007FE0003FFFFC0007FF8000001FFFE0000007FFFFFF0001FFFFF
310
FF80003FFFFE0000FFFF80003FFFFE0000FFFF0003FFFFFFFFF0001FFFFE0003
310
F000F0001FFFF80003FE0003FFF000007FFF0001FF80007FE0003FFFF00007FE
310
0001FFFF80007FF8000001FFFE0000007FFFFFF0001FFFFFFFC0000FFFF80001
310
FFFFC0000FFFF80001FFFF0003FFFFFFFFF0001FFFFC0003F000F0000FFFF000
310
07FE0007FFF800007FFF0001FF80007FE0001FFFE00007FF0000FFFE00007FF8
310
000001FFFE0000007FFFFFF0001FFFFFFFC00003FFE00001FFFFC00003FFE000
310
01FFFF0003FFFFFFFFF8000FFFF80003F000F00003FFC00007FC0007FFF80000
310
7FFF8001FF80007FF00007FF80000FFF00007FF80000FFF8000001FFFE000000
310
7F80000000000001FFE000003E000003FFFFE000003E000003FFFF0003FFFFFF
310
FFF80003FFE00007F000F800000000000FFC0007FFF800007FFF8001FF80007F
310
F000000000000FFF000000000000FFF8000001FFFE0000007F80000000000001
310
FFF0000000000007FFFFF0000000000007FFFF0003FFFFFFFFFC00007E000007
310
F000F800000000000FFC0007FFF80000FFFF8000FF80007FF800000000001FFF
310
800000000001FFF8000001FFFE0000007F80000000000001FFF800000000000F
310
FFFFF800000000000FFFFF0003FFFFFFFFFC00000000000FF000FC0000000000
310
1FFC0007FFFC0000FFFF8000FF80007FF800000000003FFFC00000000001FFF8
310
000001FFFE0000007F80000000000001FFF800000000000FFFFFF80000000000
310
0FFFFF0003FFFFFFFFFE00000000001FF000FE00000000003FF8000FFFFC0000
310
FFFF8000FF80007FFC00000000003FFFC00000000003FFF8000001FFFE000000
310
7F80000000000001FFFC00000000001FFFFFFC00000000001FFFFF0003FFFFFF
310
FFFF00000000001FF000FF00000000003FF8000FFFFC0000FFFFC000FF80007F
310
FE00000000007FFFE00000000007FFF8000001FFFE0000007F80000000000001
310
FFFE00000000003FFFFFFE00000000003FFFFF0003FFFFFFFFFF80000000003F
310
F000FF80000000007FF8000FFFFC0001FFFFC0007F80007FFF0000000000FFFF
310
F0000000000FFFF800000000000000007F80000000000001FFFF8000000000FF
310
FFFFFF8000000000FFFFFF0003FFFFFFFFFFC0000000007FF000FFC000000000
310
FFF8000FFFFE0001FFFFC0007F80007FFF8000000001FFFFF8000000001FFFF8
310
00000000000000007F80000000000001FFFFC000000001FFFFFFFFC000000001
310
FFFFFF0003FFFFFFFFFFE000000000FFF000FFE000000003FFF0001FFFFE0001
310
FFFFC0007F80007FFFC000000007FFFFFE000000003FFFF80000000000000000
310
7F80000000000001FFFFE000000003FFFFFFFFE000000003FFFFFF0003FFFFFF
310
FFFFF000000003FFF000FFF80000000FFFF0001FFFFE0001FFFFE0007F80007F
310
FFF00000000FFFFFFF00000000FFFFF800000000000000007F80000000000001
310
FFFFF80000000FFFFFFFFFF80000000FFFFFFF0003FFFFFFFFFFFC0000000FFF
310
F000FFFE0000003FFFF0001FFFFE0003FFFFE0003F80007FFFFC0000003FFFFF
310
FFC0000003FFFFF800000000000000007F80000000000001FFFFFE0000003FFF
310
FFFFFFFE0000003FFFFFFF0003FFFFFFFFFFFF0000003FFFF000FFFF800000FF
310
FFF0001FFFFF0003FFFFE0003F80007FFFFF000001FFFFFFFFF800001FFFFFF8
310
00000000000000007F80000000000001FFFFFFC00001FFFFFFFFFFFFC00001FF
310
FFFFFF0003FFFFFFFFFFFFC00000FFFFF000FFFFF8000FFFFFFFFFFFFFFFFFFF
310
FFFFFFFFFFFFFFFFFFFFF0001FFFFFFFFFFF0000FFFFFFF80000000000000000
310
7FFFFFFFFFFFFFFFFFFFFFFC001FFFFFFFFFFFFFFC001FFFFFFFFFFFFFFFFFFF
310
FFFFFFFC001FFFFFF000FFFFFFFFFFFFFFFFFFFFFFFFFFFFFFFFFFFFFFFFFFFF
310
FFFFFFFFFFFFFFFFFFFFFFFFFFFFFFFFFFFFFFFFFFFFFFFFFFFFFFFFFFFFFFFF
310
FFFFFFFFFFFFFFFFFFFFFFFFFFFFFFFFFFFFFFFFFFFFFFFFFFFFFFFFFFFFFFFF
310
F000FFFFFFFFFFFFFFFFFFFFFFFFFFFFFFFFFFFFFFFFFFFFFFFFFFFFFFFFFFFF
310
FFFFFFFFFFFFFFFFFFFFFFFFFFFFFFFFFFFFFFFFFFFFFFFFFFFFFFFFFFFFFFFF
310
FFFFFFFFFFFFFFFFFFFFFFFFFFFFFFFFFFFFFFFFFFFFFFFFF000FFFFFFFFFFFF
310
FFFFFFFFFFFFFFFFFFFFFFFFFFFFFFFFFFFFFFFFFFFFFFFFFFFFFFFFFFFFFFFF
310
FFFFFFFFFFFFFFFFFFFFFFFFFFFFFFFFFFFFFFFFFFFFFFFFFFFFFFFFFFFFFFFF
310
FFFFFFFFFFFFFFFFFFFFFFFFFFFFFFFFF000FFFFFFFFFFFFFFFFFFFFFFFFFFFF
310
FFFFFFFFFFFFFFFFFFFFFFFFFFFFFFFFFFFFFFFFFFFFFFFFFFFFFFFFFFFFFFFF
310
FFFFFFFFFFFFFFFFFFFFFFFFFFFFFFFFFFFFFFFFFFFFFFFFFFFFFFFFFFFFFFFF
310
FFFFFFFFFFFFFFFFF000FFFFFFFFFFFFFFFFFFFFFFFFFFFFFFFFFFFFFFFFFFFF
310
FFFFFFFFFFFFFFFFFFFFFFFFFFFFFFFFFFFFFFFFFFFFFFFFFFFFFFFFFFFFFFFF
310
FFFFFFFFFFFFFFFFFFFFFFFFFFFFFFFFFFFFFFFFFFFFFFFFFFFFFFFFFFFFFFFF
310
F000FFFFFFFFFFFFFFFFFFFFFFFFFFFFFFFFFFFFFFFFFFFFFFFFFFFFFFFFFFFF
310
FFFFFFFFFFFFFFFFFFFFFFFFFFFFFFFFFFFFFFFFFFFFFFFFFFFFFFFFFFFFFFFF
310
FFFFFFFFFFFFFFFFFFFFFFFFFFFFFFFFFFFFFFFFFFFFFFFFF000FFFFFFFFFFFF
310
FFFFFFFFFFFFFFFFFFFFFFFFFFFFFFFFFFFFFFFFFFFFFFFFFFFFFFFFFFFFFFFF
310
FFFFFFFFFFFFFFFFFFFFFFFFFFFFFFFFFFFFFFFFFFFFFFFFFFFFFFFFFFFFFFFF
310
FFFFFFFFFFFFFFFFFFFFFFFFFFFFFFFFF000FFFFFFFFFFFFFFFFFFFFFFFFFFFF
310
FFFFFFFFFFFFFFFFFFFFFFFFFFFFFFFFFFFFFFFFFFFFFFFFFFFFFFFFFFFFFFFF
310
FFFFFFFFFFFFFFFFFFFFFFFFFFFFFFFFFFFFFFFFFFFFFFFFFFFFFFFFFFFFFFFF
310
FFFFFFFFFFFFFFFFF000FFFFFFFFFFFFFFFFFFFFFFFFFFFFFFFFFFFFFFFFFFFF
310
FFFFFFFFFFFFFFFFFFFFFFFFFFFFFFFFFFFFFFFFFFFFFFFFFFFFFFFFFFFFFFFF
310
FFFFFFFFFFFFFFFFFFFFFFFFFFFFFFFFFFFFFFFFFFFFFFFFFFFFFFFFFFFFFFFF
310
F000FFFFFFFFFFFFFFFFFFFFFFFFFFFFFFFFFFFFFFFFFFFFFFFFFFFFFFFFFFFF
310
FFFFFFFFFFFFFFFFFFFFFFFFFFFFFFFFFFFFFFFFFFFFFFFFFFFFFFFFFFFFFFFF
310
FFFFFFFFFFFFFFFFFFFFFFFFFFFFFFFFFFFFFFFFFFFFFFFFF000FFFFFFFFFFFF
310
FFFFFFFFFFFFFFFFFFFFFFFFFFFFFFFFFFFFFFFFFFFFFFFFFFFFFFFFFFFFFFFF
310
FFFFFFFFFFFFFFFFFFFFFFFFFFFFFFFFFFFFFFFFFFFFFFFFFFFFFFFFFFFFFFFF
310
FFFFFFFFFFFFFFFFFFFFFFFFFFFFFFFFF000FFFFFFFFFFFFFFFFFFFFFFFFFFFF
310
FFFFFFFFFFFFFFFFFFFFFFFFFFFFFFFFFFFFFFFFFFFFFFFFFFFFFFFFFFFFFFFF
310
FFFFFFFFFFFFFFFFFFFFFFFFFFFFFFFFFFFFFFFFFFFFFFFFFFFFFFFFFFFFFFFF
310
FFFFFFFFFFFFFFFFF000FFFFFFFFFFFFFFFFFFFFFFFFFFFFFFFFFFFFFFFFFFFF
310
FFFFFFFFFFFFFFFFFFFFFFFFFFFFFFFFFFFFFFFFFFFFFFFFFFFFFFFFFFFFFFFF
310
FFFFFFFFFFFFFFFFFFFFFFFFFFFFFFFFFFFFFFFFFFFFFFFFFFFFFFFFFFFFFFFF
310
F000FFFFFFFFFFFFFFFFFFFFFFFFFFFFFFFFFFFFFFFFFFFFFFFFFFFFFFFFFFFF
310
FFFFFFFFFFFFFFFFFFFFFFFFFFFFFFFFFFFFFFFFFFFFFFFFFFFFFFFFFFFFFFFF
310
FFFFFFFFFFFFFFFFFFFFFFFFFFFFFFFFFFFFFFFFFFFFFFFFF000FFFFFFFFFFFF
310
FFFFFFFFFFFFFFFFFFFFFFFFFFFFFFFFFFFFFFFFFFFFFFFFFFFFFFFFFFFFFFFF
310
FFFFFFFFFFFFFFFFFFFFFFFFFFFFFFFFFFFFFFFFFFFFFFFFFFFFFFFFFFFFFFFF
310
FFFFFFFFFFFFFFFFFFFFFFFFFFFFFFFFF000FFFFFFFFFFFFFFFFFFFFFFFFFFFF
310
FFFFFFFFFFFFFFFFFFFFFFFFFFFFFFFFFFFFFFFFFFFFFFFFFFFFFFFFFFFFFFFF
310
FFFFFFFFFFFFFFFFFFFFFFFFFFFFFFFFFFFFFFFFFFFFFFFFFFFFFFFFFFFFFFFF
310
FFFFFFFFFFFFFFFFF000FFFFFFFFFFFFFFFFFFFFFFFFFFFFFFFFFFFFFFFFFFFF
310
FFFFFFFFFFFFFFFFFFFFFFFFFFFFFFFFFFFFFFFFFFFFFFFFFFFFFFFFFFFFFFFF
310
FFFFFFFFFFFFFFFFFFFFFFFFFFFFFFFFFFFFFFFFFFFFFFFFFFFFFFFFFFFFFFFF
310
F000FFFFFFFFFFFFFFFFFFFFFFFFFFFFFFFFFFFFFFFFFFFFFFFFFFFFFFFFFFFF
310
FFFFFFFFFFFFFFFFFFFFFFFFFFFFFFFFFFFFFFFFFFFFFFFFFFFFFFFFFFFFFFFF
310
FFFFFFFFFFFFFFFFFFFFFFFFFFFFFFFFFFFFFFFFFFFFFFFFF000FFFFFFFFFFFF
310
FFFFFFFFFFFFFFFFFFFFFFFFFFFFFFFFFFFFFFFFFFFFFFFFFFFFFFFFFFFFFFFF
310
FFFFFFFFFFFFFFFFFFFFFFFFFFFFFFFFFFFFFFFFFFFFFFFFFFFFFFFFFFFFFFFF
310
FFFFFFFFFFFFFFFFFFFFFFFFFFFFFFFFF000FFFFFFFFFFFFFFFFFFFFFFFFFFFF
310
FFFFFFFFFFFFFFFFFFFFFFFFFFFFFFFFFFFFFFFFFFFFFFFFFFFFFFFFFFFFFFFF
310
FFFFFFFFFFFFFFFFFFFFFFFFFFFFFFFFFFFFFFFFFFFFFFFFFFFFFFFFFFFFFFFF
310
FFFFFFFFFFFFFFFFF000FFFFFFFFFFFFFFFFFFFFFFFFFFFFFFFFFFFFFFFFFFFF
310
FFFFFFFFFFFFFFFFFFFFFFFFFFFFFFFFFFFFFFFFFFFFFFFFFFFFFFFFFFFFFFFF
310
FFFFFFFFFFFFFFFFFFFFFFFFFFFFFFFFFFFFFFFFFFFFFFFFFFFFFFFFFFFFFFFF
310
F000FFFFFFFFFFFFFFFFFFFFFFFFFFFFFFFFFFFFFFFFFFFFFFFFFFFFFFFFFFFF
310
FFFFFFFFFFFFFFFFFFFFFFFFFFFFFFFFFFFFFFFFFFFFFFFFFFFFFFFFFFFFFFFF
310
FFFFFFFFFFFFFFFFFFFFFFFFFFFFFFFFFFFFFFFFFFFFFFFFF000FFFFFFFFFFFF
310
FFFFFFFFFFFFFFFFFFFFFFFFFFFFFFFFFFFFFFFFFFFFFFFFFFFFFFFFFFFFFFFF
310
FFFFFFFFFFFFFFFFFFFFFFFFFFFFFFFFFFFFFFFFFFFFFFFFFFFFFFFFFFFFFFFF
310
FFFFFFFFFFFFFFFFFFFFFFFFFFFFFFFFF0000000000000000000000000000000
310
0000000000000000000000000000000000000000000000000000000000000000
310
0000000000000000000000000000000000000000000000000000000000000000
310
0000000000000000000000000000000000000000000000000000000000000000
310
0000000000000000000000000000000000000000000000000000000000000000
310
0000000000000000000000000000000000000000000000000000000000000000
310
0000000000000000000000000000000000000000000000000000000000000000
310
0000000000000000000000000000000000000000000000000000000000000000
310
0000000000000000000000000000000000000000000000000000000000000000
310
0000000000000000000000000000000000000000000000000000000000000000
310
0000000000000000000000000000000000000000000000000000000000000000
310
0000000000000000000000000000000000000000000000000000000000000000
310
0000000000000000000000000000000000000000000000000000000000000000
310
0000000000000000000000000000000000000000000000000000000000000000
310
0000000000000000000000000000000000000000000000000000000000000000
310
0000000000000000000000000000000000000000000000000000000000000000
  1
OLE
  0
ENDSEC
  0
SECTION
  2
OBJECTS
  0
DICTIONARY
  5
C
330
0
100
AcDbDictionary
281
     1
  3
ACAD_GROUP
350
D
  3
ACAD_LAYOUT
350
1A
  3
ACAD_MLINESTYLE
350
17
  3
ACAD_PLOTSETTINGS
350
19
  3
ACAD_PLOTSTYLENAME
350
E
  3
ACAD_SCALELIST
350
47
  0
DICTIONARY
  5
D
102
{ACAD_REACTORS
330
C
102
}
330
C
100
AcDbDictionary
281
     1
  0
DICTIONARY
  5
1A
102
{ACAD_REACTORS
330
C
102
}
330
C
100
AcDbDictionary
281
     1
  3
Layout1
350
1E
  3
Layout2
350
26
  3
Model
350
22
  0
DICTIONARY
  5
17
102
{ACAD_REACTORS
330
C
102
}
330
C
100
AcDbDictionary
281
     1
  3
Standard
350
18
  0
DICTIONARY
  5
19
102
{ACAD_REACTORS
330
C
102
}
330
C
100
AcDbDictionary
281
     1
  0
ACDBDICTIONARYWDFLT
  5
E
102
{ACAD_REACTORS
330
C
102
}
330
C
100
AcDbDictionary
281
     1
  3
Normal
350
F
100
AcDbDictionaryWithDefault
340
F
  0
DICTIONARY
  5
47
102
{ACAD_REACTORS
330
C
102
}
330
C
100
AcDbDictionary
281
     1
  3
A0
350
48
  3
A1
350
49
  3
A2
350
4A
  3
A3
350
4B
  3
A4
350
4C
  3
A5
350
4D
  3
A6
350
4E
  3
A7
350
4F
  3
A8
350
50
  3
A9
350
51
  3
B0
350
52
  3
B1
350
53
  3
B2
350
54
  3
B3
350
55
  3
B4
350
56
  3
B5
350
57
  3
B6
350
58
  3
B7
350
59
  3
B8
350
5A
  3
B9
350
5B
  3
C0
350
5C
  3
C1
350
5D
  3
C2
350
5E
  3
C3
350
5F
  3
C4
350
60
  3
C5
350
61
  3
C6
350
62
  3
C7
350
63
  3
C8
350
64
  3
C9
350
65
  3
D0
350
66
  3
D1
350
67
  3
D2
350
68
  0
LAYOUT
  5
1E
102
{ACAD_REACTORS
330
1A
102
}
330
1A
100
AcDbPlotSettings
  1

  2
none_device
  4

  6

 40
0.0
 41
0.0
 42
0.0
 43
0.0
 44
0.0
 45
0.0
 46
0.0
 47
0.0
 48
0.0
 49
0.0
140
0.0
141
0.0
142
1.0
143
1.0
 70
   688
 72
     1
 73
     0
 74
     5
  7

 75
    16
147
1.0
148
0.0
149
0.0
100
AcDbLayout
  1
Layout1
 70
     1
 71
     1
 10
0.0
 20
0.0
 11
420.0
 21
297.0
 12
0.0
 22
0.0
 32
0.0
 14
1.0000000000E+20
 24
1.0000000000E+20
 34
1.0000000000E+20
 15
-1.0000000000E+20
 25
-1.0000000000E+20
 35
-1.0000000000E+20
146
0.0
 13
0.0
 23
0.0
 33
0.0
 16
1.0
 26
0.0
 36
0.0
 17
0.0
 27
1.0
 37
0.0
 76
     0
330
1B
  0
LAYOUT
  5
26
102
{ACAD_REACTORS
330
1A
102
}
330
1A
100
AcDbPlotSettings
  1

  2
none_device
  4

  6

 40
0.0
 41
0.0
 42
0.0
 43
0.0
 44
0.0
 45
0.0
 46
0.0
 47
0.0
 48
0.0
 49
0.0
140
0.0
141
0.0
142
1.0
143
1.0
 70
   688
 72
     1
 73
     0
 74
     5
  7

 75
    16
147
1.0
148
0.0
149
0.0
100
AcDbLayout
  1
Layout2
 70
     1
 71
     2
 10
0.0
 20
0.0
 11
0.0
 21
0.0
 12
0.0
 22
0.0
 32
0.0
 14
0.0
 24
0.0
 34
0.0
 15
0.0
 25
0.0
 35
0.0
146
0.0
 13
0.0
 23
0.0
 33
0.0
 16
1.0
 26
0.0
 36
0.0
 17
0.0
 27
1.0
 37
0.0
 76
     0
330
23
  0
LAYOUT
  5
22
102
{ACAD_REACTORS
330
1A
102
}
330
1A
100
AcDbPlotSettings
  1

  2
none_device
  4
Letter_(8.50_x_11.00_Inches)
  6

 40
6.35
 41
6.35
 42
6.35000508
 43
6.35000508
 44
215.9
 45
279.4
 46
0.0
 47
0.0
 48
0.0
 49
0.0
140
0.0
141
0.0
142
1.0
143
1.0
 70
  1712
 72
     1
 73
     0
 74
     0
  7

 75
     0
147
1.0
148
0.0
149
0.0
100
AcDbLayout
  1
Model
 70
     1
 71
     0
 10
0.0
 20
0.0
 11
297.0
 21
210.0
 12
0.0
 22
0.0
 32
0.0
 14
0.0
 24
0.0
 34
0.0
 15
297.0
 25
210.0
 35
0.0
146
0.0
 13
0.0
 23
0.0
 33
0.0
 16
1.0
 26
0.0
 36
0.0
 17
0.0
 27
1.0
 37
0.0
 76
     0
330
1F
331
29
  0
MLINESTYLE
  5
18
102
{ACAD_REACTORS
330
17
102
}
330
17
100
AcDbMlineStyle
  2
Standard
 70
     0
  3

 62
   256
 51
90.0
 52
90.0
 71
     2
 49
0.5
 62
   256
  6
BYLAYER
 49
-0.5
 62
   256
  6
BYLAYER
  0
ACDBPLACEHOLDER
  5
F
102
{ACAD_REACTORS
330
E
102
}
330
E
  0
SCALE
  5
48
102
{ACAD_REACTORS
330
47
102
}
330
47
100
AcDbScale
 70
     0
300
1:1
140
1.0
141
1.0
290
     1
  0
SCALE
  5
49
102
{ACAD_REACTORS
330
47
102
}
330
47
100
AcDbScale
 70
     0
300
1:2
140
1.0
141
2.0
290
     0
  0
SCALE
  5
4A
102
{ACAD_REACTORS
330
47
102
}
330
47
100
AcDbScale
 70
     0
300
1:4
140
1.0
141
4.0
290
     0
  0
SCALE
  5
4B
102
{ACAD_REACTORS
330
47
102
}
330
47
100
AcDbScale
 70
     0
300
1:5
140
1.0
141
5.0
290
     0
  0
SCALE
  5
4C
102
{ACAD_REACTORS
330
47
102
}
330
47
100
AcDbScale
 70
     0
300
1:8
140
1.0
141
8.0
290
     0
  0
SCALE
  5
4D
102
{ACAD_REACTORS
330
47
102
}
330
47
100
AcDbScale
 70
     0
300
1:10
140
1.0
141
10.0
290
     0
  0
SCALE
  5
4E
102
{ACAD_REACTORS
330
47
102
}
330
47
100
AcDbScale
 70
     0
300
1:16
140
1.0
141
16.0
290
     0
  0
SCALE
  5
4F
102
{ACAD_REACTORS
330
47
102
}
330
47
100
AcDbScale
 70
     0
300
1:20
140
1.0
141
20.0
290
     0
  0
SCALE
  5
50
102
{ACAD_REACTORS
330
47
102
}
330
47
100
AcDbScale
 70
     0
300
1:30
140
1.0
141
30.0
290
     0
  0
SCALE
  5
51
102
{ACAD_REACTORS
330
47
102
}
330
47
100
AcDbScale
 70
     0
300
1:40
140
1.0
141
40.0
290
     0
  0
SCALE
  5
52
102
{ACAD_REACTORS
330
47
102
}
330
47
100
AcDbScale
 70
     0
300
1:50
140
1.0
141
50.0
290
     0
  0
SCALE
  5
53
102
{ACAD_REACTORS
330
47
102
}
330
47
100
AcDbScale
 70
     0
300
1:100
140
1.0
141
100.0
290
     0
  0
SCALE
  5
54
102
{ACAD_REACTORS
330
47
102
}
330
47
100
AcDbScale
 70
     0
300
2:1
140
2.0
141
1.0
290
     0
  0
SCALE
  5
55
102
{ACAD_REACTORS
330
47
102
}
330
47
100
AcDbScale
 70
     0
300
4:1
140
4.0
141
1.0
290
     0
  0
SCALE
  5
56
102
{ACAD_REACTORS
330
47
102
}
330
47
100
AcDbScale
 70
     0
300
8:1
140
8.0
141
1.0
290
     0
  0
SCALE
  5
57
102
{ACAD_REACTORS
330
47
102
}
330
47
100
AcDbScale
 70
     0
300
10:1
140
10.0
141
1.0
290
     0
  0
SCALE
  5
58
102
{ACAD_REACTORS
330
47
102
}
330
47
100
AcDbScale
 70
     0
300
100:1
140
100.0
141
1.0
290
     0
  0
SCALE
  5
59
102
{ACAD_REACTORS
330
47
102
}
330
47
100
AcDbScale
 70
     0
300
1/128" = 1'-0"
140
0.0078125
141
12.0
290
     0
  0
SCALE
  5
5A
102
{ACAD_REACTORS
330
47
102
}
330
47
100
AcDbScale
 70
     0
300
1/64" = 1'-0"
140
0.015625
141
12.0
290
     0
  0
SCALE
  5
5B
102
{ACAD_REACTORS
330
47
102
}
330
47
100
AcDbScale
 70
     0
300
1/32" = 1'-0"
140
0.03125
141
12.0
290
     0
  0
SCALE
  5
5C
102
{ACAD_REACTORS
330
47
102
}
330
47
100
AcDbScale
 70
     0
300
1/16" = 1'-0"
140
0.0625
141
12.0
290
     0
  0
SCALE
  5
5D
102
{ACAD_REACTORS
330
47
102
}
330
47
100
AcDbScale
 70
     0
300
3/32" = 1'-0"
140
0.09375
141
12.0
290
     0
  0
SCALE
  5
5E
102
{ACAD_REACTORS
330
47
102
}
330
47
100
AcDbScale
 70
     0
300
1/8" = 1'-0"
140
0.125
141
12.0
290
     0
  0
SCALE
  5
5F
102
{ACAD_REACTORS
330
47
102
}
330
47
100
AcDbScale
 70
     0
300
3/16" = 1'-0"
140
0.1875
141
12.0
290
     0
  0
SCALE
  5
60
102
{ACAD_REACTORS
330
47
102
}
330
47
100
AcDbScale
 70
     0
300
1/4" = 1'-0"
140
0.25
141
12.0
290
     0
  0
SCALE
  5
61
102
{ACAD_REACTORS
330
47
102
}
330
47
100
AcDbScale
 70
     0
300
3/8" = 1'-0"
140
0.375
141
12.0
290
     0
  0
SCALE
  5
62
102
{ACAD_REACTORS
330
47
102
}
330
47
100
AcDbScale
 70
     0
300
1/2" = 1'-0"
140
0.5
141
12.0
290
     0
  0
SCALE
  5
63
102
{ACAD_REACTORS
330
47
102
}
330
47
100
AcDbScale
 70
     0
300
3/4" = 1'-0"
140
0.75
141
12.0
290
     0
  0
SCALE
  5
64
102
{ACAD_REACTORS
330
47
102
}
330
47
100
AcDbScale
 70
     0
300
1" = 1'-0"
140
1.0
141
12.0
290
     0
  0
SCALE
  5
65
102
{ACAD_REACTORS
330
47
102
}
330
47
100
AcDbScale
 70
     0
300
1-1/2" = 1'-0"
140
1.5
141
12.0
290
     0
  0
SCALE
  5
66
102
{ACAD_REACTORS
330
47
102
}
330
47
100
AcDbScale
 70
     0
300
3" = 1'-0"
140
3.0
141
12.0
290
     0
  0
SCALE
  5
67
102
{ACAD_REACTORS
330
47
102
}
330
47
100
AcDbScale
 70
     0
300
6" = 1'-0"
140
6.0
141
12.0
290
     0
  0
SCALE
  5
68
102
{ACAD_REACTORS
330
47
102
}
330
47
100
AcDbScale
 70
     0
300
1'-0" = 1'-0"
140
12.0
141
12.0
290
     0
  0
ENDSEC
  0
EOF
