  0
SECTION
  2
HEADER
  9
$ACADVER
  1
AC1015
  9
$ACADMAINTVER
 70
     6
  9
$DWGCODEPAGE
  3
ANSI_1252
  9
$INSBASE
 10
0.0
 20
0.0
 30
0.0
  9
$EXTMIN
 10
0.0
 20
0.0
 30
0.0
  9
$EXTMAX
 10
297.0
 20
210.0
 30
0.0
  9
$LIMMIN
 10
0.0
 20
0.0
  9
$LIMMAX
 10
297.0
 20
210.0
  9
$ORTHOMODE
 70
     0
  9
$REGENMODE
 70
     1
  9
$FILLMODE
 70
     1
  9
$QTEXTMODE
 70
     0
  9
$MIRRTEXT
 70
     1
  9
$LTSCALE
 40
1.0
  9
$ATTMODE
 70
     1
  9
$TEXTSIZE
 40
2.0
  9
$TRACEWID
 40
1.0
  9
$TEXTSTYLE
  7
Standard
  9
$CLAYER
  8
0
  9
$CELTYPE
  6
ByLayer
  9
$CECOLOR
 62
   256
  9
$CELTSCALE
 40
1.0
  9
$DISPSILH
 70
     0
  9
$DIMSCALE
 40
1.0
  9
$DIMASZ
 40
3.0
  9
$DIMEXO
 40
0.0
  9
$DIMDLI
 40
3.75
  9
$DIMRND
 40
0.0
  9
$DIMDLE
 40
0.0
  9
$DIMEXE
 40
1.0
  9
$DIMTP
 40
0.0
  9
$DIMTM
 40
0.0
  9
$DIMTXT
 40
2.0
  9
$DIMCEN
 40
2.5
  9
$DIMTSZ
 40
0.0
  9
$DIMTOL
 70
     0
  9
$DIMLIM
 70
     0
  9
$DIMTIH
 70
     1
  9
$DIMTOH
 70
     1
  9
$DIMSE1
 70
     0
  9
$DIMSE2
 70
     0
  9
$DIMTAD
 70
     1
  9
$DIMZIN
 70
     0
  9
$DIMBLK
  1

  9
$DIMASO
 70
     1
  9
$DIMSHO
 70
     1
  9
$DIMPOST
  1

  9
$DIMAPOST
  1

  9
$DIMALT
 70
     0
  9
$DIMALTD
 70
     3
  9
$DIMALTF
 40
0.0393700787
  9
$DIMLFAC
 40
2.0
  9
$DIMTOFL
 70
     1
  9
$DIMTVP
 40
0.0
  9
$DIMTIX
 70
     0
  9
$DIMSOXD
 70
     0
  9
$DIMSAH
 70
     0
  9
$DIMBLK1
  1

  9
$DIMBLK2
  1

  9
$DIMSTYLE
  2
ISO-25
  9
$DIMCLRD
 70
     0
  9
$DIMCLRE
 70
     0
  9
$DIMCLRT
 70
     0
  9
$DIMTFAC
 40
1.0
  9
$DIMGAP
 40
1.524
  9
$DIMJUST
 70
     0
  9
$DIMSD1
 70
     0
  9
$DIMSD2
 70
     0
  9
$DIMTOLJ
 70
     0
  9
$DIMTZIN
 70
     0
  9
$DIMALTZ
 70
     0
  9
$DIMALTTZ
 70
     0
  9
$DIMUPT
 70
     0
  9
$DIMDEC
 70
     2
  9
$DIMTDEC
 70
     3
  9
$DIMALTU
 70
     2
  9
$DIMALTTD
 70
     3
  9
$DIMTXSTY
  7
Standard
  9
$DIMAUNIT
 70
     0
  9
$DIMADEC
 70
     2
  9
$DIMALTRND
 40
0.0
  9
$DIMAZIN
 70
     0
  9
$DIMDSEP
 70
    44
  9
$DIMATFIT
 70
     3
  9
$DIMFRAC
 70
     0
  9
$DIMLDRBLK
  1

  9
$DIMLUNIT
 70
     2
  9
$DIMLWD
 70
    -2
  9
$DIMLWE
 70
    -2
  9
$DIMTMOVE
 70
     0
  9
$LUNITS
 70
     2
  9
$LUPREC
 70
     2
  9
$SKETCHINC
 40
1.0
  9
$FILLETRAD
 40
10.0
  9
$AUNITS
 70
     0
  9
$AUPREC
 70
     2
  9
$MENU
  1
.
  9
$ELEVATION
 40
0.0
  9
$PELEVATION
 40
0.0
  9
$THICKNESS
 40
0.0
  9
$LIMCHECK
 70
     0
  9
$CHAMFERA
 40
0.0
  9
$CHAMFERB
 40
0.0
  9
$CHAMFERC
 40
0.0
  9
$CHAMFERD
 40
0.0
  9
$SKPOLY
 70
     0
  9
$TDCREATE
 40
2458166.480565752
  9
$TDUCREATE
 40
2458166.438899086
  9
$TDUPDATE
 40
2458166.480567674
  9
$TDUUPDATE
 40
2458166.438901007
  9
$TDINDWG
 40
0.0000000116
  9
$TDUSRTIMER
 40
0.0000000116
  9
$USRTIMER
 70
     1
  9
$ANGBASE
 50
0.0
  9
$ANGDIR
 70
     0
  9
$PDMODE
 70
     0
  9
$PDSIZE
 40
-1.0
  9
$PLINEWID
 40
0.0
  9
$SPLFRAME
 70
     0
  9
$SPLINETYPE
 70
     6
  9
$SPLINESEGS
 70
     8
  9
$HANDSEED
  5
236
  9
$SURFTAB1
 70
     6
  9
$SURFTAB2
 70
     6
  9
$SURFTYPE
 70
     6
  9
$SURFU
 70
     6
  9
$SURFV
 70
     6
  9
$UCSBASE
  2

  9
$UCSNAME
  2

  9
$UCSORG
 10
0.0
 20
0.0
 30
0.0
  9
$UCSXDIR
 10
1.0
 20
0.0
 30
0.0
  9
$UCSYDIR
 10
0.0
 20
1.0
 30
0.0
  9
$UCSORTHOREF
  2

  9
$UCSORTHOVIEW
 70
     0
  9
$UCSORGTOP
 10
0.0
 20
0.0
 30
0.0
  9
$UCSORGBOTTOM
 10
0.0
 20
0.0
 30
0.0
  9
$UCSORGLEFT
 10
0.0
 20
0.0
 30
0.0
  9
$UCSORGRIGHT
 10
0.0
 20
0.0
 30
0.0
  9
$UCSORGFRONT
 10
0.0
 20
0.0
 30
0.0
  9
$UCSORGBACK
 10
0.0
 20
0.0
 30
0.0
  9
$PUCSBASE
  2

  9
$PUCSNAME
  2

  9
$PUCSORG
 10
0.0
 20
0.0
 30
0.0
  9
$PUCSXDIR
 10
1.0
 20
0.0
 30
0.0
  9
$PUCSYDIR
 10
0.0
 20
1.0
 30
0.0
  9
$PUCSORTHOREF
  2

  9
$PUCSORTHOVIEW
 70
     0
  9
$PUCSORGTOP
 10
0.0
 20
0.0
 30
0.0
  9
$PUCSORGBOTTOM
 10
0.0
 20
0.0
 30
0.0
  9
$PUCSORGLEFT
 10
0.0
 20
0.0
 30
0.0
  9
$PUCSORGRIGHT
 10
0.0
 20
0.0
 30
0.0
  9
$PUCSORGFRONT
 10
0.0
 20
0.0
 30
0.0
  9
$PUCSORGBACK
 10
0.0
 20
0.0
 30
0.0
  9
$USERI1
 70
     0
  9
$USERI2
 70
     0
  9
$USERI3
 70
     0
  9
$USERI4
 70
     0
  9
$USERI5
 70
     0
  9
$USERR1
 40
0.0
  9
$USERR2
 40
0.0
  9
$USERR3
 40
0.0
  9
$USERR4
 40
0.0
  9
$USERR5
 40
0.0
  9
$WORLDVIEW
 70
     1
  9
$SHADEDGE
 70
     3
  9
$SHADEDIF
 70
    70
  9
$TILEMODE
 70
     1
  9
$MAXACTVP
 70
    64
  9
$PINSBASE
 10
0.0
 20
0.0
 30
0.0
  9
$PLIMCHECK
 70
     0
  9
$PEXTMIN
 10
1.0000000000E+20
 20
1.0000000000E+20
 30
1.0000000000E+20
  9
$PEXTMAX
 10
-1.0000000000E+20
 20
-1.0000000000E+20
 30
-1.0000000000E+20
  9
$PLIMMIN
 10
0.0
 20
0.0
  9
$PLIMMAX
 10
420.0
 20
297.0
  9
$UNITMODE
 70
     0
  9
$VISRETAIN
 70
     1
  9
$PLINEGEN
 70
     0
  9
$PSLTSCALE
 70
     1
  9
$TREEDEPTH
 70
  3020
  9
$CMLSTYLE
  2
Standard
  9
$CMLJUST
 70
     0
  9
$CMLSCALE
 40
20.0
  9
$PROXYGRAPHICS
 70
     1
  9
$MEASUREMENT
 70
     1
  9
$CELWEIGHT
370
    -1
  9
$ENDCAPS
280
     0
  9
$JOINSTYLE
280
     0
  9
$LWDISPLAY
290
     1
  9
$INSUNITS
 70
     4
  9
$HYPERLINKBASE
  1

  9
$STYLESHEET
  1

  9
$XEDIT
290
     1
  9
$CEPSNTYPE
380
     0
  9
$PSTYLEMODE
290
     1
  9
$FINGERPRINTGUID
  2
{0EAF6D7C-8049-4355-8397-D54DBA44481E}
  9
$VERSIONGUID
  2
{FAEB1C32-E019-11D5-929B-00C0DF256EC4}
  9
$EXTNAMES
290
     1
  9
$PSVPSCALE
 40
0.0
  9
$OLESTARTUP
290
     0
  0
ENDSEC
  0
SECTION
  2
CLASSES
  0
CLASS
  1
ACDBDICTIONARYWDFLT
  2
AcDbDictionaryWithDefault
  3
ObjectDBX Classes
 90
        0
280
     0
281
     0
  0
CLASS
  1
VISUALSTYLE
  2
AcDbVisualStyle
  3
ObjectDBX Classes
 90
     4095
280
     0
281
     0
  0
CLASS
  1
MATERIAL
  2
AcDbMaterial
  3
ObjectDBX Classes
 90
     1153
280
     0
281
     0
  0
CLASS
  1
SCALE
  2
AcDbScale
  3
ObjectDBX Classes
 90
     1153
280
     0
281
     0
  0
CLASS
  1
TABLESTYLE
  2
AcDbTableStyle
  3
ObjectDBX Classes
 90
     4095
280
     0
281
     0
  0
CLASS
  1
MLEADERSTYLE
  2
AcDbMLeaderStyle
  3
ACDB_MLEADERSTYLE_CLASS
 90
     4095
280
     0
281
     0
  0
CLASS
  1
SUN
  2
AcDbSun
  3
SCENEOE
 90
     1153
280
     0
281
     0
  0
CLASS
  1
ACDBPLACEHOLDER
  2
AcDbPlaceHolder
  3
ObjectDBX Classes
 90
        0
280
     0
281
     0
  0
CLASS
  1
LAYOUT
  2
AcDbLayout
  3
ObjectDBX Classes
 90
        0
280
     0
281
     0
  0
ENDSEC
  0
SECTION
  2
TABLES
  0
TABLE
  2
VPORT
  5
8
330
0
100
AcDbSymbolTable
 70
     1
  0
VPORT
  5
29
330
8
100
AcDbSymbolTableRecord
100
AcDbViewportTableRecord
  2
*Active
 70
     0
 10
0.0
 20
0.0
 11
1.0
 21
1.0
 12
148.5
 22
105.0
 13
0.0
 23
0.0
 14
10.0
 24
10.0
 15
10.0
 25
10.0
 16
0.0
 26
0.0
 36
1.0
 17
0.0
 27
0.0
 37
0.0
 40
210.0
 41
1.4142857143
 42
50.0
 43
0.0
 44
0.0
 50
0.0
 51
0.0
 71
     0
 72
  2000
 73
     1
 74
     3
 75
     0
 76
     0
 77
     0
 78
     0
281
     0
 65
     1
110
0.0
120
0.0
130
0.0
111
1.0
121
0.0
131
0.0
112
0.0
122
1.0
132
0.0
 79
     0
146
0.0
  0
ENDTAB
  0
TABLE
  2
LTYPE
  5
5
330
0
100
AcDbSymbolTable
 70
     6
  0
LTYPE
  5
14
330
5
100
AcDbSymbolTableRecord
100
AcDbLinetypeTableRecord
  2
ByBlock
 70
     0
  3

 72
    65
 73
     0
 40
0.0
  0
LTYPE
  5
15
330
5
100
AcDbSymbolTableRecord
100
AcDbLinetypeTableRecord
  2
ByLayer
 70
     0
  3

 72
    65
 73
     0
 40
0.0
  0
LTYPE
  5
16
330
5
100
AcDbSymbolTableRecord
100
AcDbLinetypeTableRecord
  2
Continuous
 70
     0
  3
Solid line
 72
    65
 73
     0
 40
0.0
  0
LTYPE
  5
6E
330
5
100
AcDbSymbolTableRecord
100
AcDbLinetypeTableRecord
  2
HIDDEN
 70
     0
  3
Hidden __ __ __ __ __ __ __ __ __ __ __ __ __ __
 72
    65
 73
     2
 40
1.905
 49
1.27
 74
     0
 49
-0.635
 74
     0
  0
LTYPE
  5
6F
330
5
100
AcDbSymbolTableRecord
100
AcDbLinetypeTableRecord
  2
PHANTOM
 70
     0
  3
Phantom ______  __  __  ______  __  __  ______
 72
    65
 73
     6
 40
12.7
 49
6.35
 74
     0
 49
-1.27
 74
     0
 49
1.27
 74
     0
 49
-1.27
 74
     0
 49
1.27
 74
     0
 49
-1.27
 74
     0
  0
LTYPE
  5
70
330
5
100
AcDbSymbolTableRecord
100
AcDbLinetypeTableRecord
  2
CENTER
 70
     0
  3
Center ____ _ ____ _ ____ _ ____ _ ____ _ ____
 72
    65
 73
     4
 40
10.16
 49
6.35
 74
     0
 49
-1.27
 74
     0
 49
1.27
 74
     0
 49
-1.27
 74
     0
  0
LTYPE
  5
71
330
5
100
AcDbSymbolTableRecord
100
AcDbLinetypeTableRecord
  2
CENTERX2
 70
     0
  3
Center (2x) ________  __  ________  __  _____
 72
    65
 73
     4
 40
20.32
 49
12.7
 74
     0
 49
-2.54
 74
     0
 49
2.54
 74
     0
 49
-2.54
 74
     0
  0
LTYPE
  5
72
330
5
100
AcDbSymbolTableRecord
100
AcDbLinetypeTableRecord
  2
DOT2
 70
     0
  3
Dot (.5x) ........................................
 72
    65
 73
     2
 40
0.635
 49
0.0
 74
     0
 49
-0.635
 74
     0
  0
ENDTAB
  0
TABLE
  2
LAYER
  5
2
330
0
100
AcDbSymbolTable
 70
     5
  0
LAYER
  5
10
330
2
100
AcDbSymbolTableRecord
100
AcDbLayerTableRecord
  2
0
 70
     0
 62
     7
  6
Continuous
370
    -3
390
F
  0
LAYER
  5
73
330
2
100
AcDbSymbolTableRecord
100
AcDbLayerTableRecord
  2
FORMAT
 70
     0
 62
     7
  6
Continuous
370
    -3
390
F
  0
LAYER
  5
74
330
2
100
AcDbSymbolTableRecord
100
AcDbLayerTableRecord
  2
VERMASSUNG
 70
     0
 62
     7
  6
Continuous
370
    -3
390
F
  0
LAYER
  5
75
330
2
100
AcDbSymbolTableRecord
100
AcDbLayerTableRecord
  2
KOPF_DÜNN
 70
     0
 62
     7
  6
Continuous
370
    -3
390
F
  0
LAYER
  5
76
330
2
100
AcDbSymbolTableRecord
100
AcDbLayerTableRecord
  2
KOPF_DICK
 70
     0
 62
     7
  6
Continuous
370
    25
390
F
  0
ENDTAB
  0
TABLE
  2
STYLE
  5
3
330
0
100
AcDbSymbolTable
 70
     3
  0
STYLE
  5
11
330
3
100
AcDbSymbolTableRecord
100
AcDbTextStyleTableRecord
  2
Standard
 70
     0
 40
0.0
 41
1.0
 50
0.0
 71
     0
 42
2.0
  3
txt
  4

  0
STYLE
  5
77
330
3
100
AcDbSymbolTableRecord
100
AcDbTextStyleTableRecord
  2
SLDTEXTSTYLE0
 70
     0
 40
0.0
 41
0.7
 50
0.0
 71
     0
 42
2.0
  3
TXT
  4

  0
STYLE
  5
7B
330
3
100
AcDbSymbolTableRecord
100
AcDbTextStyleTableRecord
  2
SLDTEXTSTYLE1
 70
     0
 40
0.0
 41
0.6466666667
 50
0.0
 71
     0
 42
2.0
  3
TXT
  4

  0
ENDTAB
  0
TABLE
  2
VIEW
  5
6
330
0
100
AcDbSymbolTable
 70
     0
  0
ENDTAB
  0
TABLE
  2
UCS
  5
7
330
0
100
AcDbSymbolTable
 70
     0
  0
ENDTAB
  0
TABLE
  2
APPID
  5
9
330
0
100
AcDbSymbolTable
 70
     1
  0
APPID
  5
12
330
9
100
AcDbSymbolTableRecord
100
AcDbRegAppTableRecord
  2
ACAD
 70
     0
  0
ENDTAB
  0
TABLE
  2
DIMSTYLE
  5
A
330
0
100
AcDbSymbolTable
 70
     2
100
AcDbDimStyleTable
  0
DIMSTYLE
105
27
330
A
100
AcDbSymbolTableRecord
100
AcDbDimStyleTableRecord
  2
ISO-25
 70
     0
 41
2.5
 42
0.625
 43
3.75
 44
1.25
 73
     0
 74
     0
 77
     1
 78
     8
140
2.5
141
2.5
143
0.0393700787
147
0.625
171
     3
172
     1
178
     0
271
     2
272
     2
274
     3
278
    44
283
     0
284
     8
340
11
  0
DIMSTYLE
105
118
102
{ACAD_REACTORS
330
117
330
123
330
12E
330
13A
330
144
102
}
330
A
100
AcDbSymbolTableRecord
100
AcDbDimStyleTableRecord
  2
SLDDIMSTYLE0
 70
     0
 41
3.0
 44
0.0
 45
0.000000001
 73
     0
 74
     0
 77
     1
 78
    12
 79
     3
140
2.0
147
0.5
173
     1
178
     0
271
     2
272
     3
276
     2
284
    12
340
77
  0
ENDTAB
  0
TABLE
  2
BLOCK_RECORD
  5
1
330
0
100
AcDbSymbolTable
 70
     6
  0
BLOCK_RECORD
  5
1F
330
1
100
AcDbSymbolTableRecord
100
AcDbBlockTableRecord
  2
*Model_Space
340
22
  0
BLOCK_RECORD
  5
1B
330
1
100
AcDbSymbolTableRecord
100
AcDbBlockTableRecord
  2
*Paper_Space
340
1E
  0
BLOCK_RECORD
  5
23
330
1
100
AcDbSymbolTableRecord
100
AcDbBlockTableRecord
  2
*Paper_Space0
340
26
  0
BLOCK_RECORD
  5
119
330
1
100
AcDbSymbolTableRecord
100
AcDbBlockTableRecord
  2
_D
340
0
  0
BLOCK_RECORD
  5
124
330
1
100
AcDbSymbolTableRecord
100
AcDbBlockTableRecord
  2
_D_1
340
0
  0
BLOCK_RECORD
  5
12F
330
1
100
AcDbSymbolTableRecord
100
AcDbBlockTableRecord
  2
_D_2
340
0
  0
BLOCK_RECORD
  5
13B
330
1
100
AcDbSymbolTableRecord
100
AcDbBlockTableRecord
  2
_D_3
340
0
  0
BLOCK_RECORD
  5
145
330
1
100
AcDbSymbolTableRecord
100
AcDbBlockTableRecord
  2
_D_4
340
0
  0
ENDTAB
  0
ENDSEC
  0
SECTION
  2
BLOCKS
  0
BLOCK
  5
20
330
1F
100
AcDbEntity
  8
0
100
AcDbBlockBegin
  2
*Model_Space
 70
     0
 10
0.0
 20
0.0
 30
0.0
  3
*Model_Space
  1

  0
ENDBLK
  5
21
330
1F
100
AcDbEntity
  8
0
100
AcDbBlockEnd
  0
BLOCK
  5
1C
330
1B
100
AcDbEntity
 67
     1
  8
0
100
AcDbBlockBegin
  2
*Paper_Space
 70
     0
 10
0.0
 20
0.0
 30
0.0
  3
*Paper_Space
  1

  0
ENDBLK
  5
1D
330
1B
100
AcDbEntity
 67
     1
  8
0
100
AcDbBlockEnd
  0
BLOCK
  5
24
330
23
100
AcDbEntity
  8
0
100
AcDbBlockBegin
  2
*Paper_Space0
 70
     0
 10
0.0
 20
0.0
 30
0.0
  3
*Paper_Space0
  1

  0
ENDBLK
  5
25
330
23
100
AcDbEntity
  8
0
100
AcDbBlockEnd
  0
BLOCK
  5
11A
330
119
100
AcDbEntity
  8
0
100
AcDbBlockBegin
  2
_D
 70
     0
 10
0.0
 20
0.0
 30
0.0
  3
_D
  1

  0
SOLID
  5
11C
330
119
100
AcDbEntity
  8
VERMASSUNG
100
AcDbTrace
 10
269.7668550215
 20
100.7787311138
 30
0.0
 11
270.2168550215
 21
103.7787311138
 31
0.0
 12
269.3168550215
 22
103.7787311138
 32
0.0
 13
269.3168550215
 23
103.7787311138
 33
0.0
  0
SOLID
  5
11D
330
119
100
AcDbEntity
  8
VERMASSUNG
100
AcDbTrace
 10
269.7668550215
 20
122.7787311138
 30
0.0
 11
269.3168550215
 21
119.7787311138
 31
0.0
 12
270.2168550215
 22
119.7787311138
 32
0.0
 13
270.2168550215
 23
119.7787311138
 33
0.0
  0
LINE
  5
11E
330
119
100
AcDbEntity
  8
VERMASSUNG
100
AcDbLine
 10
250.4925134607
 20
100.7787311138
 30
0.0
 11
270.7668550215
 21
100.7787311138
 31
0.0
  0
LINE
  5
11F
330
119
100
AcDbEntity
  8
VERMASSUNG
100
AcDbLine
 10
250.4925134607
 20
122.7787311138
 30
0.0
 11
270.7668550215
 21
122.7787311138
 31
0.0
  0
LINE
  5
120
330
119
100
AcDbEntity
  8
VERMASSUNG
100
AcDbLine
 10
269.7668550215
 20
100.7787311138
 30
0.0
 11
269.7668550215
 21
122.7787311138
 31
0.0
  0
MTEXT
  5
121
330
119
100
AcDbEntity
  8
VERMASSUNG
100
AcDbMText
 10
267.1887197166
 20
108.5737311566
 30
0.0
 40
2.0
 41
0.0
 71
     1
 72
     1
  1
%%c
  7
SLDTEXTSTYLE0
 11
6.123233995736766E-17
 21
1.0
 31
0.0
 73
     1
 44
1.0
  0
MTEXT
  5
122
330
119
100
AcDbEntity
  8
VERMASSUNG
100
AcDbMText
 10
266.9887197653
 20
112.1837311709
 30
0.0
 40
2.0
 41
0.0
 71
     1
 72
     1
  1
22
  7
SLDTEXTSTYLE0
 11
6.123233995736766E-17
 21
1.0
 31
0.0
 73
     1
 44
1.0
  0
ENDBLK
  5
11B
330
119
100
AcDbEntity
  8
0
100
AcDbBlockEnd
  0
BLOCK
  5
125
330
124
100
AcDbEntity
  8
0
100
AcDbBlockBegin
  2
_D_1
 70
     0
 10
0.0
 20
0.0
 30
0.0
  3
_D_1
  1

  0
SOLID
  5
127
330
124
100
AcDbEntity
  8
VERMASSUNG
100
AcDbTrace
 10
281.1241963721
 20
98.2787311138
 30
0.0
 11
281.5741963721
 21
101.2787311138
 31
0.0
 12
280.6741963721
 22
101.2787311138
 32
0.0
 13
280.6741963721
 23
101.2787311138
 33
0.0
  0
SOLID
  5
128
330
124
100
AcDbEntity
  8
VERMASSUNG
100
AcDbTrace
 10
281.1241963721
 20
125.2787311138
 30
0.0
 11
280.6741963721
 21
122.2787311138
 31
0.0
 12
281.5741963721
 22
122.2787311138
 32
0.0
 13
281.5741963721
 23
122.2787311138
 33
0.0
  0
LINE
  5
129
330
124
100
AcDbEntity
  8
VERMASSUNG
100
AcDbLine
 10
171.0419212493
 20
98.2787311138
 30
0.0
 11
282.1241963721
 21
98.2787311138
 31
0.0
  0
LINE
  5
12A
330
124
100
AcDbEntity
  8
VERMASSUNG
100
AcDbLine
 10
171.0419212493
 20
125.2787311138
 30
0.0
 11
282.1241963721
 21
125.2787311138
 31
0.0
  0
LINE
  5
12B
330
124
100
AcDbEntity
  8
VERMASSUNG
100
AcDbLine
 10
281.1241963721
 20
98.2787311138
 30
0.0
 11
281.1241963721
 21
125.2787311138
 31
0.0
  0
MTEXT
  5
12C
330
124
100
AcDbEntity
  8
VERMASSUNG
100
AcDbMText
 10
278.5460610672
 20
108.5737311566
 30
0.0
 40
2.0
 41
0.0
 71
     1
 72
     1
  1
%%c
  7
SLDTEXTSTYLE0
 11
6.123233995736766E-17
 21
1.0
 31
0.0
 73
     1
 44
1.0
  0
MTEXT
  5
12D
330
124
100
AcDbEntity
  8
VERMASSUNG
100
AcDbMText
 10
278.3460611159
 20
112.1837311709
 30
0.0
 40
2.0
 41
0.0
 71
     1
 72
     1
  1
27
  7
SLDTEXTSTYLE0
 11
6.123233995736766E-17
 21
1.0
 31
0.0
 73
     1
 44
1.0
  0
ENDBLK
  5
126
330
124
100
AcDbEntity
  8
0
100
AcDbBlockEnd
  0
BLOCK
  5
130
330
12F
100
AcDbEntity
  8
0
100
AcDbBlockBegin
  2
_D_2
 70
     0
 10
0.0
 20
0.0
 30
0.0
  3
_D_2
  1

  0
SOLID
  5
132
330
12F
100
AcDbEntity
  8
VERMASSUNG
100
AcDbTrace
 10
30.9414518883
 20
61.7787311138
 30
0.0
 11
31.3914518883
 21
64.7787311138
 31
0.0
 12
30.4914518883
 22
64.7787311138
 32
0.0
 13
30.4914518883
 23
64.7787311138
 33
0.0
  0
SOLID
  5
133
330
12F
100
AcDbEntity
  8
VERMASSUNG
100
AcDbTrace
 10
30.9414518883
 20
161.7787311138
 30
0.0
 11
30.4914518883
 21
158.7787311138
 31
0.0
 12
31.3914518883
 22
158.7787311138
 32
0.0
 13
31.3914518883
 23
158.7787311138
 33
0.0
  0
LINE
  5
134
330
12F
100
AcDbEntity
  8
VERMASSUNG
100
AcDbLine
 10
97.5919212493
 20
61.7787311138
 30
0.0
 11
29.9414518883
 21
61.7787311138
 31
0.0
  0
LINE
  5
135
330
12F
100
AcDbEntity
  8
VERMASSUNG
100
AcDbLine
 10
97.5919212493
 20
161.7787311138
 30
0.0
 11
29.9414518883
 21
161.7787311138
 31
0.0
  0
LINE
  5
136
330
12F
100
AcDbEntity
  8
VERMASSUNG
100
AcDbLine
 10
30.9414518883
 20
61.7787311138
 30
0.0
 11
30.9414518883
 21
161.7787311138
 31
0.0
  0
MTEXT
  5
137
330
12F
100
AcDbEntity
  8
VERMASSUNG
100
AcDbMText
 10
28.1633166321
 20
103.573731734
 30
0.0
 40
2.0
 41
0.0
 71
     1
 72
     1
  1
HSK A
  7
SLDTEXTSTYLE0
 11
6.123233995736766E-17
 21
1.0
 31
0.0
 73
     1
 44
1.0
  0
MTEXT
  5
138
330
12F
100
AcDbEntity
  8
VERMASSUNG
100
AcDbMText
 10
28.3633165834
 20
112.5737313466
 30
0.0
 40
2.0
 41
0.0
 71
     1
 72
     1
  1
%%c
  7
SLDTEXTSTYLE0
 11
6.123233995736766E-17
 21
1.0
 31
0.0
 73
     1
 44
1.0
  0
MTEXT
  5
139
330
12F
100
AcDbEntity
  8
VERMASSUNG
100
AcDbMText
 10
28.1633166321
 20
116.1837313609
 30
0.0
 40
2.0
 41
0.0
 71
     1
 72
     1
  1
100
  7
SLDTEXTSTYLE0
 11
6.123233995736766E-17
 21
1.0
 31
0.0
 73
     1
 44
1.0
  0
ENDBLK
  5
131
330
12F
100
AcDbEntity
  8
0
100
AcDbBlockEnd
  0
BLOCK
  5
13C
330
13B
100
AcDbEntity
  8
0
100
AcDbBlockBegin
  2
_D_3
 70
     0
 10
0.0
 20
0.0
 30
0.0
  3
_D_3
  1

  0
SOLID
  5
13E
330
13B
100
AcDbEntity
  8
VERMASSUNG
100
AcDbTrace
 10
97.0919212493
 20
171.7787311138
 30
0.0
 11
100.0919212493
 21
171.3287311138
 31
0.0
 12
100.0919212493
 22
172.2287311138
 32
0.0
 13
100.0919212493
 23
172.2287311138
 33
0.0
  0
SOLID
  5
13F
330
13B
100
AcDbEntity
  8
VERMASSUNG
100
AcDbTrace
 10
257.0919212493
 20
171.7787311138
 30
0.0
 11
254.0919212493
 21
172.2287311138
 31
0.0
 12
254.0919212493
 22
171.3287311138
 32
0.0
 13
254.0919212493
 23
171.3287311138
 33
0.0
  0
LINE
  5
140
330
13B
100
AcDbEntity
  8
VERMASSUNG
100
AcDbLine
 10
97.0919212493
 20
161.2787311138
 30
0.0
 11
97.0919212493
 21
172.7787311138
 31
0.0
  0
LINE
  5
141
330
13B
100
AcDbEntity
  8
VERMASSUNG
100
AcDbLine
 10
257.0919212493
 20
118.7055979284
 30
0.0
 11
257.0919212493
 21
172.7787311138
 31
0.0
  0
LINE
  5
142
330
13B
100
AcDbEntity
  8
VERMASSUNG
100
AcDbLine
 10
97.0919212493
 20
171.7787311138
 30
0.0
 11
257.0919212493
 21
171.7787311138
 31
0.0
  0
MTEXT
  5
143
330
13B
100
AcDbEntity
  8
VERMASSUNG
100
AcDbMText
 10
175.1919212172
 20
174.3568667098
 30
0.0
 40
2.0
 41
0.0
 71
     1
 72
     1
  1
160
  7
SLDTEXTSTYLE0
 73
     1
 44
1.0
  0
ENDBLK
  5
13D
330
13B
100
AcDbEntity
  8
0
100
AcDbBlockEnd
  0
BLOCK
  5
146
330
145
100
AcDbEntity
  8
0
100
AcDbBlockBegin
  2
_D_4
 70
     0
 10
0.0
 20
0.0
 30
0.0
  3
_D_4
  1

  0
SOLID
  5
148
330
145
100
AcDbEntity
  8
VERMASSUNG
100
AcDbTrace
 10
47.1919212493
 20
183.7787311138
 30
0.0
 11
50.1919212493
 21
183.3287311138
 31
0.0
 12
50.1919212493
 22
184.2287311138
 32
0.0
 13
50.1919212493
 23
184.2287311138
 33
0.0
  0
SOLID
  5
149
330
145
100
AcDbEntity
  8
VERMASSUNG
100
AcDbTrace
 10
257.0919212493
 20
183.7787311138
 30
0.0
 11
254.0919212493
 21
184.2287311138
 31
0.0
 12
254.0919212493
 22
183.3287311138
 32
0.0
 13
254.0919212493
 23
183.3287311138
 33
0.0
  0
LINE
  5
14A
330
145
100
AcDbEntity
  8
VERMASSUNG
100
AcDbLine
 10
47.1919212493
 20
142.2814008564
 30
0.0
 11
47.1919212493
 21
184.7787311138
 31
0.0
  0
LINE
  5
14B
330
145
100
AcDbEntity
  8
VERMASSUNG
100
AcDbLine
 10
257.0919212493
 20
118.1287311138
 30
0.0
 11
257.0919212493
 21
184.7787311138
 31
0.0
  0
LINE
  5
14C
330
145
100
AcDbEntity
  8
VERMASSUNG
100
AcDbLine
 10
47.1919212493
 20
183.7787311138
 30
0.0
 11
257.0919212493
 21
183.7787311138
 31
0.0
  0
MTEXT
  5
14D
330
145
100
AcDbEntity
  8
VERMASSUNG
100
AcDbMText
 10
149.0419213931
 20
186.3568667098
 30
0.0
 40
2.0
 41
0.0
 71
     1
 72
     1
  1
209.9
  7
SLDTEXTSTYLE0
 73
     1
 44
1.0
  0
ENDBLK
  5
147
330
145
100
AcDbEntity
  8
0
100
AcDbBlockEnd
  0
ENDSEC
  0
SECTION
  2
ENTITIES
  0
MTEXT
  5
78
330
1F
100
AcDbEntity
  8
KOPF_DÜNN
100
AcDbMText
 10
13.8892156294
 20
23.8442973028
 30
0.0
 40
3.0
 41
0.0
 71
     1
 72
     1
  1
HA0.E17.K01.160
  7
SLDTEXTSTYLE0
 73
     1
 44
1.0
  0
MTEXT
  5
79
330
1F
100
AcDbEntity
  8
VERMASSUNG
100
AcDbMText
 10
13.9329988022
 20
28.8834360957
 30
0.0
 40
3.0
 41
0.0
 71
     1
 72
     1
  1
Spannzangenfutter ER Typ S_Collet chuck ER type S
  7
SLDTEXTSTYLE0
 73
     1
 44
1.0
  0
MTEXT
  5
7A
330
1F
100
AcDbEntity
  8
VERMASSUNG
100
AcDbMText
 10
98.8601118557
 20
13.8365368761
 30
0.0
 40
2.0
 41
0.0
 71
     1
 72
     1
  1
Datum: 16.02.2018
  7
SLDTEXTSTYLE0
 73
     1
 44
1.0
  0
MTEXT
  5
7C
330
1F
100
AcDbEntity
  8
VERMASSUNG
100
AcDbMText
 10
13.933048693
 20
18.0482802738
 30
0.0
 40
2.0
 41
0.0
 71
     1
 72
     1
  1
HSK A 100 / Ø22
  7
SLDTEXTSTYLE1
 73
     1
 44
1.0
  0
MTEXT
  5
7D
330
1F
100
AcDbEntity
  8
VERMASSUNG
100
AcDbMText
 10
13.9808475933
 20
13.9090974274
 30
0.0
 40
2.0
 41
0.0
 71
     1
 72
     1
  1
Gewicht: 2381g
  7
SLDTEXTSTYLE0
 73
     1
 44
1.0
  0
LINE
  5
7E
330
1F
100
AcDbEntity
  8
0
  6
Continuous
 62
     7
370
    25
100
AcDbLine
 10
239.4919177683
 20
100.7787311734
 30
0.0
 11
250.4925063046
 21
100.7787311734
 31
0.0
  0
LINE
  5
7F
330
1F
100
AcDbEntity
  8
0
  6
Continuous
 62
     7
370
    25
100
AcDbLine
 10
250.4925063046
 20
122.7787310542
 30
0.0
 11
239.4919177683
 21
122.7787310542
 31
0.0
  0
LINE
  5
80
330
1F
100
AcDbEntity
  8
0
  6
Continuous
 62
     7
370
    25
100
AcDbLine
 10
239.4919177683
 20
122.7787310542
 30
0.0
 11
238.6919191273
 21
121.9787314819
 31
0.0
  0
LINE
  5
81
330
1F
100
AcDbEntity
  8
0
  6
Continuous
 62
     7
370
    25
100
AcDbLine
 10
238.6919191273
 20
101.5787307457
 30
0.0
 11
239.4919177683
 21
100.7787311734
 31
0.0
  0
LINE
  5
82
330
1F
100
AcDbEntity
  8
0
  6
Continuous
 62
     7
370
    25
100
AcDbLine
 10
97.591921273
 20
61.7787303687
 30
0.0
 11
102.0419212224
 21
61.7787303687
 31
0.0
  0
LINE
  5
83
330
1F
100
AcDbEntity
  8
0
  6
Continuous
 62
     7
370
    25
100
AcDbLine
 10
102.0759941245
 20
161.7787318589
 30
0.0
 11
97.591921273
 21
161.7787318589
 31
0.0
  0
ARC
  5
84
330
1F
100
AcDbEntity
  8
0
  6
Continuous
 62
     7
370
    25
100
AcDbCircle
 10
97.5919212493
 20
62.2787311138
 30
0.0
 40
0.5
100
AcDbArc
 50
180.0
 51
270.0
  0
ARC
  5
85
330
1F
100
AcDbEntity
  8
0
  6
Continuous
 62
     7
370
    25
100
AcDbCircle
 10
97.5919212493
 20
161.2787311138
 30
0.0
 40
0.5
100
AcDbArc
 50
90.0
 51
180.0
  0
ARC
  5
86
330
1F
100
AcDbEntity
  8
0
  6
Continuous
 62
     7
370
    25
100
AcDbCircle
 10
96.1949843308
 20
73.1502457894
 30
0.0
 40
0.9962338214386793
100
AcDbArc
 50
25.7988228126
 51
90.0
  0
ARC
  5
87
330
1F
100
AcDbEntity
  8
0
  6
Continuous
 62
     7
370
    25
100
AcDbCircle
 10
96.1949843308
 20
150.4072164383
 30
0.0
 40
0.9962338214386932
100
AcDbArc
 50
270.0
 51
334.2011771874
  0
LINE
  5
88
330
1F
100
AcDbEntity
  8
0
  6
Continuous
 62
     7
370
    25
100
AcDbLine
 10
94.5919213051
 20
73.8964813115
 30
0.0
 11
95.3977673713
 21
74.1124065877
 31
0.0
  0
LINE
  5
89
330
1F
100
AcDbEntity
  8
0
  6
Continuous
 62
     7
370
    25
100
AcDbLine
 10
95.3977673713
 20
149.4450556399
 30
0.0
 11
94.5919213051
 21
149.6609809162
 31
0.0
  0
LINE
  5
8A
330
1F
100
AcDbEntity
  8
0
  6
Continuous
 62
     7
370
    25
100
AcDbLine
 10
75.6112417372
 20
148.7100484134
 30
0.0
 11
57.2919218036
 21
147.7922449173
 31
0.0
  0
LINE
  5
8B
330
1F
100
AcDbEntity
  8
0
  6
Continuous
 62
     7
370
    25
100
AcDbLine
 10
94.5919213051
 20
149.6609809162
 30
0.0
 11
88.5238820853
 21
149.3569711508
 31
0.0
  0
LINE
  5
8C
330
1F
100
AcDbEntity
  8
0
  6
Continuous
 62
     7
370
    25
100
AcDbLine
 10
88.5240050199
 20
74.2004836263
 30
0.0
 11
94.5919213051
 21
73.8964813115
 31
0.0
  0
LINE
  5
8D
330
1F
100
AcDbEntity
  8
0
  6
Continuous
 62
     7
370
    25
100
AcDbLine
 10
62.2919207605
 20
75.5147176148
 30
0.0
 11
75.6118731739
 21
74.8473840119
 31
0.0
  0
ARC
  5
8E
330
1F
100
AcDbEntity
  8
0
  6
Continuous
 62
     7
370
    25
100
AcDbCircle
 10
95.6565864487
 20
73.1464796108
 30
0.0
 40
0.9999999999999858
100
AcDbArc
 50
90.0
 51
105.0
  0
ARC
  5
8F
330
1F
100
AcDbEntity
  8
0
  6
Continuous
 62
     7
370
    25
100
AcDbCircle
 10
95.6565864487
 20
150.4109826168
 30
0.0
 40
1.0
100
AcDbArc
 50
255.0
 51
270.0
  0
LINE
  5
90
330
1F
100
AcDbEntity
  8
0
  6
Continuous
 62
     7
370
    25
100
AcDbLine
 10
95.656586455
 20
74.1464780928
 30
0.0
 11
96.1949843265
 21
74.1464780928
 31
0.0
  0
LINE
  5
91
330
1F
100
AcDbEntity
  8
0
  6
Continuous
 62
     7
370
    25
100
AcDbLine
 10
96.1949843265
 20
149.4109841348
 30
0.0
 11
95.656586455
 21
149.4109841348
 31
0.0
  0
ARC
  5
92
330
1F
100
AcDbEntity
  8
0
  6
Continuous
 62
     7
370
    25
100
AcDbCircle
 10
129.0419212493
 20
92.2627723123
 30
0.0
 40
3.00000000000001
100
AcDbArc
 50
104.3250519401
 51
180.0
  0
ARC
  5
93
330
1F
100
AcDbEntity
  8
0
  6
Continuous
 62
     7
370
    25
100
AcDbCircle
 10
129.0419212493
 20
131.2946899153
 30
0.0
 40
3.0
100
AcDbArc
 50
180.0
 51
255.6749480599
  0
LINE
  5
94
330
1F
100
AcDbEntity
  8
0
  6
Continuous
 62
     7
370
    25
100
AcDbLine
 10
48.8419203254
 20
79.5287328125
 30
0.0
 11
60.3919221254
 21
79.5287328125
 31
0.0
  0
ARC
  5
95
330
1F
100
AcDbEntity
  8
0
  6
Continuous
 62
     7
370
    25
100
AcDbCircle
 10
60.3919212493
 20
77.6287311138
 30
0.0
 40
1.90000000000002
100
AcDbArc
 50
35.6630613694
 51
90.0
  0
ARC
  5
96
330
1F
100
AcDbEntity
  8
0
  6
Continuous
 62
     7
370
    25
100
AcDbCircle
 10
153.0419212493
 20
-1.7212688862
 30
0.0
 40
100.0
100
AcDbArc
 50
90.0
 51
104.3250519401
  0
ARC
  5
97
330
1F
100
AcDbEntity
  8
0
  6
Continuous
 62
     7
370
    25
100
AcDbCircle
 10
153.0419212493
 20
225.2787311138
 30
0.0
 40
100.0
100
AcDbArc
 50
255.6749480599
 51
270.0
  0
ARC
  5
98
330
1F
100
AcDbEntity
  8
0
  6
Continuous
 62
     7
370
    25
100
AcDbCircle
 10
55.3919212493
 20
145.9287311138
 30
0.0
 40
1.900000000000006
100
AcDbArc
 50
270.0
 51
310.9212832533
  0
LINE
  5
99
330
1F
100
AcDbEntity
  8
0
  6
Continuous
 62
     7
370
    25
100
AcDbLine
 10
48.8419203254
 20
144.0287294151
 30
0.0
 11
47.2426047715
 21
142.4294157238
 31
0.0
  0
LINE
  5
9A
330
1F
100
AcDbEntity
  8
0
  6
Continuous
 62
     7
370
    25
100
AcDbLine
 10
47.2434429618
 20
81.1272101761
 30
0.0
 11
48.8419203254
 21
79.5287328125
 31
0.0
  0
LINE
  5
9B
330
1F
100
AcDbEntity
  8
0
  6
Continuous
 62
     7
370
    25
100
AcDbLine
 10
55.3919194432
 20
144.0287294151
 30
0.0
 11
48.8419203254
 21
144.0287294151
 31
0.0
  0
LINE
  5
9C
330
1F
100
AcDbEntity
  8
0
  6
Continuous
 62
     7
370
    25
100
AcDbLine
 10
165.512838045
 20
98.2787307636
 30
0.0
 11
171.0419213565
 21
98.2787307636
 31
0.0
  0
LINE
  5
9D
330
1F
100
AcDbEntity
  8
0
  6
Continuous
 62
     7
370
    25
100
AcDbLine
 10
153.0419221314
 20
98.2787307636
 30
0.0
 11
158.5757812651
 21
98.2787307636
 31
0.0
  0
LINE
  5
9E
330
1F
100
AcDbEntity
  8
0
  6
Continuous
 62
     7
370
    25
100
AcDbLine
 10
158.5475212129
 20
125.278731464
 30
0.0
 11
153.0419221314
 21
125.278731464
 31
0.0
  0
LINE
  5
9F
330
1F
100
AcDbEntity
  8
0
  6
Continuous
 62
     7
370
    25
100
AcDbLine
 10
171.0419213565
 20
125.278731464
 30
0.0
 11
165.5039271506
 21
125.278731464
 31
0.0
  0
ARC
  5
A0
330
1F
100
AcDbEntity
  8
0
  6
Continuous
 62
     7
370
    25
100
AcDbCircle
 10
228.1733486776
 20
531.2787311138
 30
0.0
 40
410.0000000000001
100
AcDbArc
 50
261.9900571819
 51
270.0
  0
ARC
  5
A1
330
1F
100
AcDbEntity
  8
0
  6
Continuous
 62
     7
370
    25
100
AcDbCircle
 10
228.1733486776
 20
-307.7212688862
 30
0.0
 40
410.0
100
AcDbArc
 50
90.0
 51
98.0099428181
  0
LINE
  5
A2
330
1F
100
AcDbEntity
  8
0
  6
Continuous
 62
     7
370
    25
100
AcDbLine
 10
238.6919191273
 20
121.2787308083
 30
0.0
 11
228.1733533534
 21
121.2787308083
 31
0.0
  0
LINE
  5
A3
330
1F
100
AcDbEntity
  8
0
  6
Continuous
 62
     7
370
    25
100
AcDbLine
 10
228.1733533534
 20
102.2787314193
 30
0.0
 11
238.6919191273
 21
102.2787314193
 31
0.0
  0
ELLIPSE
  5
A4
330
1F
100
AcDbEntity
  8
0
  6
Continuous
 62
     7
370
    25
100
AcDbEllipse
 10
280.8919212493
 20
111.7787311138
 30
0.0
 11
30.73737990538438
 21
-7.488651405136422
 31
0.0
210
0.0
220
0.0
230
1.0
 40
0.2621336324
 41
3.022535400824397
 42
3.388205674810261
  0
LINE
  5
A5
330
1F
100
AcDbEntity
  8
0
  6
Continuous
 62
     7
370
    25
100
AcDbLine
 10
256.5919241103
 20
117.0738568814
 30
0.0
 11
250.6052931937
 21
117.0738568814
 31
0.0
  0
LINE
  5
A6
330
1F
100
AcDbEntity
  8
0
  6
Continuous
 62
     7
370
    25
100
AcDbLine
 10
256.5919241103
 20
109.816933638
 30
0.0
 11
256.5919241103
 21
117.0738568814
 31
0.0
  0
LINE
  5
A7
330
1F
100
AcDbEntity
  8
0
  6
Continuous
 62
     7
370
    25
100
AcDbLine
 10
256.5919241103
 20
109.816933638
 30
0.0
 11
250.6052931937
 21
109.816933638
 31
0.0
  0
ELLIPSE
  5
A8
330
1F
100
AcDbEntity
  8
0
  6
Continuous
 62
     7
370
    25
100
AcDbEllipse
 10
280.8919212493
 20
111.7787311138
 30
0.0
 11
30.7665848619103
 21
4.371837208810534
 31
0.0
210
0.0
220
0.0
230
1.0
 40
0.32808032
 41
2.912172040144015
 42
3.277842314129871
  0
LINE
  5
A9
330
1F
100
AcDbEntity
  8
0
  6
Continuous
 62
     7
370
    25
100
AcDbLine
 10
256.5919241103
 20
106.0763696493
 30
0.0
 11
250.6052931937
 21
106.0763696493
 31
0.0
  0
LINE
  5
AA
330
1F
100
AcDbEntity
  8
0
  6
Continuous
 62
     7
370
    25
100
AcDbLine
 10
256.5919241103
 20
101.4242783473
 30
0.0
 11
256.5919241103
 21
106.0763696493
 31
0.0
  0
LINE
  5
AB
330
1F
100
AcDbEntity
  8
0
  6
Continuous
 62
     7
370
    25
100
AcDbLine
 10
256.5919241103
 20
101.4242783473
 30
0.0
 11
250.6052931937
 21
101.4242783473
 31
0.0
  0
ELLIPSE
  5
AC
330
1F
100
AcDbEntity
  8
0
  6
Continuous
 62
     7
370
    25
100
AcDbEllipse
 10
280.8919212493
 20
111.7787311138
 30
0.0
 11
30.79498469119687
 21
10.88707426314031
 31
0.0
210
0.0
220
0.0
230
1.0
 40
0.0510517143
 41
2.940710958987313
 42
3.306381232973387
  0
LINE
  5
AD
330
1F
100
AcDbEntity
  8
0
  6
Continuous
 62
     7
370
    25
100
AcDbLine
 10
256.5919241103
 20
100.7812438817
 30
0.0
 11
250.6052931937
 21
100.7812438817
 31
0.0
  0
ELLIPSE
  5
AE
330
1F
100
AcDbEntity
  8
0
  6
Continuous
 62
     7
370
    25
100
AcDbEllipse
 10
280.8919212493
 20
111.7787311138
 30
0.0
 11
30.7949846911971
 21
-10.88707426314038
 31
0.0
210
0.0
220
0.0
230
1.0
 40
0.0510517143
 41
2.976804074206456
 42
2.998180036519369
  0
LINE
  5
AF
330
1F
100
AcDbEntity
  8
0
  6
Continuous
 62
     7
370
    25
100
AcDbLine
 10
256.5919241103
 20
122.7762183459
 30
0.0
 11
250.6052931937
 21
122.7762183459
 31
0.0
  0
LINE
  5
B0
330
1F
100
AcDbEntity
  8
0
  6
Continuous
 62
     7
370
    25
100
AcDbLine
 10
256.5919241103
 20
120.1713864045
 30
0.0
 11
256.5919241103
 21
122.7762183459
 31
0.0
  0
LINE
  5
B1
330
1F
100
AcDbEntity
  8
0
  6
Continuous
 62
     7
370
    25
100
AcDbLine
 10
256.5919241103
 20
120.1713864045
 30
0.0
 11
250.6052931937
 21
120.1713864045
 31
0.0
  0
LINE
  5
B2
330
1F
100
AcDbEntity
  8
0
  6
Continuous
 62
     7
370
    25
100
AcDbLine
 10
239.4919177683
 20
100.7787311734
 30
0.0
 11
239.4919177683
 21
122.7787310542
 31
0.0
  0
LINE
  5
B3
330
1F
100
AcDbEntity
  8
0
  6
Continuous
 62
     7
370
    25
100
AcDbLine
 10
238.6919191273
 20
101.5787307457
 30
0.0
 11
238.6919191273
 21
121.9787314819
 31
0.0
  0
LINE
  5
B4
330
1F
100
AcDbEntity
  8
0
  6
Continuous
 62
     7
370
    25
100
AcDbLine
 10
257.091917673
 20
109.9972209246
 30
0.0
 11
256.5919241103
 21
109.816933638
 31
0.0
  0
LINE
  5
B5
330
1F
100
AcDbEntity
  8
0
  6
Continuous
 62
     7
370
    25
100
AcDbLine
 10
257.091917673
 20
116.751873056
 30
0.0
 11
256.5919241103
 21
117.0738568814
 31
0.0
  0
LINE
  5
B6
330
1F
100
AcDbEntity
  8
0
  6
Continuous
 62
     7
370
    25
100
AcDbLine
 10
257.091917673
 20
109.9972209246
 30
0.0
 11
257.091917673
 21
116.751873056
 31
0.0
  0
LINE
  5
B7
330
1F
100
AcDbEntity
  8
0
  6
Continuous
 62
     7
370
    25
100
AcDbLine
 10
250.6052931937
 20
106.0763696493
 30
0.0
 11
257.091917673
 21
106.8971041874
 31
0.0
  0
LINE
  5
B8
330
1F
100
AcDbEntity
  8
0
  6
Continuous
 62
     7
370
    25
100
AcDbLine
 10
257.091917673
 20
109.9972209246
 30
0.0
 11
257.091917673
 21
106.8971041874
 31
0.0
  0
LINE
  5
B9
330
1F
100
AcDbEntity
  8
0
  6
Continuous
 62
     7
370
    25
100
AcDbLine
 10
250.6052931937
 20
120.1713864045
 30
0.0
 11
257.091917673
 21
118.7055978277
 31
0.0
  0
LINE
  5
BA
330
1F
100
AcDbEntity
  8
0
  6
Continuous
 62
     7
370
    25
100
AcDbLine
 10
257.091917673
 20
118.7055978277
 30
0.0
 11
257.091917673
 21
116.751873056
 31
0.0
  0
LINE
  5
BB
330
1F
100
AcDbEntity
  8
0
  6
Continuous
 62
     7
370
    25
100
AcDbLine
 10
257.091917673
 20
106.2566569359
 30
0.0
 11
256.5919241103
 21
106.0763696493
 31
0.0
  0
LINE
  5
BC
330
1F
100
AcDbEntity
  8
0
  6
Continuous
 62
     7
370
    25
100
AcDbLine
 10
257.091917673
 20
101.9265489937
 30
0.0
 11
256.5919241103
 21
101.4242783473
 31
0.0
  0
LINE
  5
BD
330
1F
100
AcDbEntity
  8
0
  6
Continuous
 62
     7
370
    25
100
AcDbLine
 10
257.091917673
 20
101.9265489937
 30
0.0
 11
257.091917673
 21
106.2566569359
 31
0.0
  0
LINE
  5
BE
330
1F
100
AcDbEntity
  8
0
  6
Continuous
 62
     7
370
    25
100
AcDbLine
 10
257.091917673
 20
106.8971041874
 30
0.0
 11
257.091917673
 21
106.2566569359
 31
0.0
  0
LINE
  5
BF
330
1F
100
AcDbEntity
  8
0
  6
Continuous
 62
     7
370
    25
100
AcDbLine
 10
257.091917673
 20
122.2739467682
 30
0.0
 11
256.5919241103
 21
122.7762183459
 31
0.0
  0
LINE
  5
C0
330
1F
100
AcDbEntity
  8
0
  6
Continuous
 62
     7
370
    25
100
AcDbLine
 10
257.091917673
 20
119.8494030447
 30
0.0
 11
256.5919241103
 21
120.1713864045
 31
0.0
  0
LINE
  5
C1
330
1F
100
AcDbEntity
  8
0
  6
Continuous
 62
     7
370
    25
100
AcDbLine
 10
257.091917673
 20
119.8494030447
 30
0.0
 11
257.091917673
 21
122.2739467682
 31
0.0
  0
LINE
  5
C2
330
1F
100
AcDbEntity
  8
0
  6
Continuous
 62
     7
370
    25
100
AcDbLine
 10
257.091917673
 20
118.7055978277
 30
0.0
 11
257.091917673
 21
119.8494030447
 31
0.0
  0
LINE
  5
C3
330
1F
100
AcDbEntity
  8
0
  6
Continuous
 62
     7
370
    25
100
AcDbLine
 10
250.6052931937
 20
100.7812438817
 30
0.0
 11
252.4295082482
 21
101.4242783473
 31
0.0
  0
LINE
  5
C4
330
1F
100
AcDbEntity
  8
0
  6
Continuous
 62
     7
370
    25
100
AcDbLine
 10
257.091917673
 20
101.2835154594
 30
0.0
 11
256.5919241103
 21
100.7812438817
 31
0.0
  0
LINE
  5
C5
330
1F
100
AcDbEntity
  8
0
  6
Continuous
 62
     7
370
    25
100
AcDbLine
 10
257.091917673
 20
101.9265489937
 30
0.0
 11
257.091917673
 21
101.2835154594
 31
0.0
  0
LINE
  5
C6
330
1F
100
AcDbEntity
  8
0
  6
Continuous
 62
     7
370
    25
100
AcDbLine
 10
125.0419212671
 20
63.003736204
 30
0.0
 11
120.353950763
 21
63.003736204
 31
0.0
  0
LINE
  5
C7
330
1F
100
AcDbEntity
  8
0
  6
Continuous
 62
     7
370
    25
100
AcDbLine
 10
120.353950763
 20
63.003736204
 30
0.0
 11
120.353950763
 21
143.1287328066
 31
0.0
  0
LINE
  5
C8
330
1F
100
AcDbEntity
  8
0
  6
Continuous
 62
     7
370
    25
100
AcDbLine
 10
120.353950763
 20
143.1287328066
 30
0.0
 11
125.0419212671
 21
143.1287328066
 31
0.0
  0
LINE
  5
C9
330
1F
100
AcDbEntity
  8
0
  6
Continuous
 62
     7
370
    25
100
AcDbLine
 10
126.041921431
 20
64.0293868543
 30
0.0
 11
126.041921431
 21
143.1287328066
 31
0.0
  0
SPLINE
  5
CA
330
1F
100
AcDbEntity
  8
0
  6
Continuous
 62
     7
370
    25
100
AcDbSpline
210
0.0
220
0.0
230
1.0
 70
     8
 71
     3
 72
    14
 73
    10
 74
     0
 42
0.000000001
 43
0.00000001
 40
0.0
 40
0.0
 40
0.0
 40
0.0
 40
0.25
 40
0.25
 40
0.5
 40
0.5
 40
0.75
 40
0.75
 40
1.0
 40
1.0
 40
1.0
 40
1.0
 10
126.041921249255
 20
64.0293855685543
 30
0.0
 10
126.041921249255
 20
63.8974006763641
 30
0.0
 10
126.0164587051019
 20
63.7638931220761
 30
0.0
 10
125.9187739500426
 20
63.51867924938558
 30
0.0
 10
125.845572761607
 20
63.40437312338096
 30
0.0
 10
125.6622115617688
 20
63.21373537738448
 30
0.0
 10
125.5514114365608
 20
63.13638209402689
 30
0.0
 10
125.307171089274
 20
63.03117246481341
 30
0.0
 10
125.1755282858843
 20
63.00373752077881
 30
0.0
 10
125.041921249255
 20
63.00373752077881
 30
0.0
  0
SPLINE
  5
CB
330
1F
100
AcDbEntity
  8
0
  6
Continuous
 62
     7
370
    25
100
AcDbSpline
210
0.0
220
0.0
230
1.0
 70
    24
 71
     3
 72
    14
 73
    10
 74
     0
 42
0.000000001
 43
0.00000001
 40
0.0
 40
0.0
 40
0.0
 40
0.0
 40
0.25
 40
0.25
 40
0.5
 40
0.5
 40
0.75
 40
0.75
 40
1.0
 40
1.0
 40
1.0
 40
1.0
 10
125.041921249255
 20
143.1287311138076
 30
0.0
 10
125.1926658031859
 20
143.1287311138076
 30
0.0
 10
125.3432618223566
 20
143.1287311138076
 30
0.0
 10
125.6000917090807
 20
143.1287311138076
 30
0.0
 10
125.7084999091817
 20
143.1287311138076
 30
0.0
 10
125.8792136339952
 20
143.1287311138076
 30
0.0
 10
125.9399385756417
 20
143.1287311138076
 30
0.0
 10
126.0222445451957
 20
143.1287311138076
 30
0.0
 10
126.041921249255
 20
143.1287311138076
 30
0.0
 10
126.041921249255
 20
143.1287311138076
 30
0.0
  0
SPLINE
  5
CC
330
1F
100
AcDbEntity
  8
0
  6
Continuous
 62
     7
370
    25
100
AcDbSpline
210
0.0
220
0.0
230
1.0
 70
    11
 71
     3
 72
    80
 73
    76
 74
     0
 42
0.000000001
 43
0.00000001
 40
0.0
 40
0.0
 40
0.0
 40
0.0
 40
0.0312500000000001
 40
0.0312500000000001
 40
0.046875
 40
0.046875
 40
0.0624999999999999
 40
0.0624999999999999
 40
0.0937499999999998
 40
0.0937499999999998
 40
0.1249999999999996
 40
0.1249999999999996
 40
0.1562499999999994
 40
0.1562499999999994
 40
0.1874999999999992
 40
0.1874999999999992
 40
0.2187499999999991
 40
0.2187499999999991
 40
0.2499999999999989
 40
0.2499999999999989
 40
0.2812499999999987
 40
0.2812499999999987
 40
0.3124999999999986
 40
0.3124999999999986
 40
0.3281249999999986
 40
0.3281249999999986
 40
0.3437499999999986
 40
0.3437499999999986
 40
0.3749999999999988
 40
0.3749999999999988
 40
0.406249999999999
 40
0.406249999999999
 40
0.4218749999999991
 40
0.4218749999999991
 40
0.4374999999999992
 40
0.4374999999999992
 40
0.4687499999999992
 40
0.4687499999999992
 40
0.4999999999999992
 40
0.4999999999999992
 40
0.5312499999999992
 40
0.5312499999999992
 40
0.5624999999999993
 40
0.5624999999999993
 40
0.5937499999999994
 40
0.5937499999999994
 40
0.6249999999999996
 40
0.6249999999999996
 40
0.6562499999999997
 40
0.6562499999999997
 40
0.6874999999999998
 40
0.6874999999999998
 40
0.7031249999999999
 40
0.7031249999999999
 40
0.7187500000000001
 40
0.7187500000000001
 40
0.7500000000000007
 40
0.7500000000000007
 40
0.7812500000000013
 40
0.7812500000000013
 40
0.7968750000000014
 40
0.7968750000000014
 40
0.8125000000000014
 40
0.8125000000000014
 40
0.8437500000000012
 40
0.8437500000000012
 40
0.875000000000001
 40
0.875000000000001
 40
0.9062500000000008
 40
0.9062500000000008
 40
0.9375000000000006
 40
0.9375000000000006
 40
0.9687500000000003
 40
0.9687500000000003
 40
1.0
 40
1.0
 40
1.0
 40
1.0
 10
106.091921249255
 20
155.1933605774389
 30
0.0
 10
106.4224665620313
 20
155.1933605774389
 30
0.0
 10
106.747446691283
 20
155.209568808821
 30
0.0
 10
107.2269201025294
 20
155.2569334408406
 30
0.0
 10
107.3854019203702
 20
155.2765876527313
 30
0.0
 10
107.6996214528745
 20
155.3236988089239
 30
0.0
 10
107.8557417365549
 20
155.3512801284186
 30
0.0
 10
108.3097957655115
 20
155.4438159152124
 30
0.0
 10
108.5968991484513
 20
155.5188863488089
 30
0.0
 10
109.1402537044783
 20
155.6941246574195
 30
0.0
 10
109.3973573156839
 20
155.7951259552577
 30
0.0
 10
109.8582635706227
 20
156.0124821537187
 30
0.0
 10
110.0651612798376
 20
156.1296464854909
 30
0.0
 10
110.4306865938298
 20
156.3797164097195
 30
0.0
 10
110.5858921159558
 20
156.5106624984785
 30
0.0
 10
110.8353225025555
 20
156.7763974421908
 30
0.0
 10
110.9314124583407
 20
156.9131510355018
 30
0.0
 10
111.0599313075342
 20
157.1872166103408
 30
0.0
 10
111.091742177712
 20
157.3221567008096
 30
0.0
 10
111.0920988274853
 20
157.5876283378784
 30
0.0
 10
111.0596015752882
 20
157.7194528150197
 30
0.0
 10
110.9319761015737
 20
157.96890241464
 30
0.0
 10
110.8375477005219
 20
158.087335106568
 30
0.0
 10
110.6496868805363
 20
158.2562043036621
 30
0.0
 10
110.5788588817331
 20
158.3112902987823
 30
0.0
 10
110.4241369897678
 20
158.4165431272707
 30
0.0
 10
110.3401605195844
 20
158.466878356031
 30
0.0
 10
110.06883684994
 20
158.6114541885691
 30
0.0
 10
109.8622876313377
 20
158.6993157749861
 30
0.0
 10
109.3956774911486
 20
158.8590368679857
 30
0.0
 10
109.1433119215232
 20
158.9282751644528
 30
0.0
 10
108.7374105798445
 20
159.0180625536826
 30
0.0
 10
108.597509962367
 20
159.0456285157689
 30
0.0
 10
108.3082860271201
 20
159.0961193166952
 30
0.0
 10
108.1584465708308
 20
159.1190827555458
 30
0.0
 10
107.70433000122
 20
159.1797132719647
 30
0.0
 10
107.3926787824832
 20
159.2097873007605
 30
0.0
 10
106.7516823175708
 20
159.2503768880192
 30
0.0
 10
106.4201546896186
 20
159.2606891182352
 30
0.0
 10
105.7673636445471
 20
159.260764685401
 30
0.0
 10
105.4428274395153
 20
159.2508630799333
 30
0.0
 10
104.7975579900989
 20
159.210376549408
 30
0.0
 10
104.4818149839362
 20
159.1799152495234
 30
0.0
 10
103.8799256889525
 20
159.0997645780868
 30
0.0
 10
103.589176458141
 20
159.0494823462796
 30
0.0
 10
103.0422646664565
 20
158.9288121635066
 30
0.0
 10
102.7904873026196
 20
158.8595883043366
 30
0.0
 10
102.3290993099984
 20
158.7021365766959
 30
0.0
 10
102.1178300304003
 20
158.6127881020221
 30
0.0
 10
101.7545256780242
 20
158.4195402313213
 30
0.0
 10
101.6007190295814
 20
158.315412239442
 30
0.0
 10
101.412099559984
 20
158.1467878532586
 30
0.0
 10
101.3560690737748
 20
158.0881594515836
 30
0.0
 10
101.2604953120387
 20
157.9687045367574
 30
0.0
 10
101.2207323950137
 20
157.9077847479192
 30
0.0
 10
101.1249606447016
 20
157.7213800217453
 30
0.0
 10
101.0922378055754
 20
157.5922672039503
 30
0.0
 10
101.0916092192463
 20
157.3236102809944
 30
0.0
 10
101.1237953639811
 20
157.1882395402376
 30
0.0
 10
101.2187060658367
 20
156.9846892320017
 30
0.0
 10
101.2581728492357
 20
156.9167173079383
 30
0.0
 10
101.3531028479565
 20
156.7806250848073
 30
0.0
 10
101.4088596757199
 20
156.7122749845979
 30
0.0
 10
101.5967997936898
 20
156.5115719715558
 30
0.0
 10
101.750161263406
 20
156.3821836977431
 30
0.0
 10
102.1124254982863
 20
156.1335182656933
 30
0.0
 10
102.3232739717523
 20
156.0137086233251
 30
0.0
 10
102.7839439420712
 20
155.7961863357524
 30
0.0
 10
103.035318321655
 20
155.6971012359164
 30
0.0
 10
103.5812262085531
 20
155.5204287619997
 30
0.0
 10
103.8720487832043
 20
155.4443716738656
 30
0.0
 10
104.4733753979844
 20
155.3215266965126
 30
0.0
 10
104.7878939825968
 20
155.2738205714595
 30
0.0
 10
105.4344754387167
 20
155.2095720363399
 30
0.0
 10
105.7613759364787
 20
155.1933605774389
 30
0.0
 10
106.091921249255
 20
155.1933605774389
 30
0.0
  0
LINE
  5
CD
330
1F
100
AcDbEntity
  8
0
  6
Continuous
 62
     7
370
    25
100
AcDbLine
 10
102.0419212224
 20
143.1287328066
 30
0.0
 11
113.8298927041
 21
143.1287328066
 31
0.0
  0
LINE
  5
CE
330
1F
100
AcDbEntity
  8
0
  6
Continuous
 62
     7
370
    25
100
AcDbLine
 10
113.8298927041
 20
63.003736204
 30
0.0
 11
113.8298927041
 21
143.1287328066
 31
0.0
  0
LINE
  5
CF
330
1F
100
AcDbEntity
  8
0
  6
Continuous
 62
     7
370
    25
100
AcDbLine
 10
113.8298927041
 20
63.003736204
 30
0.0
 11
112.0419209989
 21
63.003736204
 31
0.0
  0
SPLINE
  5
D0
330
1F
100
AcDbEntity
  8
0
  6
Continuous
 62
     7
370
    25
100
AcDbSpline
210
0.0
220
0.0
230
1.0
 70
     8
 71
     3
 72
    30
 73
    26
 74
     0
 42
0.000000001
 43
0.00000001
 40
0.0
 40
0.0
 40
0.0
 40
0.0
 40
0.1250000000000006
 40
0.1250000000000006
 40
0.187500000000001
 40
0.187500000000001
 40
0.2500000000000013
 40
0.2500000000000013
 40
0.3750000000000014
 40
0.3750000000000014
 40
0.4375000000000014
 40
0.4375000000000014
 40
0.5000000000000013
 40
0.5000000000000013
 40
0.625000000000001
 40
0.625000000000001
 40
0.6875000000000009
 40
0.6875000000000009
 40
0.7500000000000007
 40
0.7500000000000007
 40
0.8125000000000006
 40
0.8125000000000006
 40
0.8750000000000004
 40
0.8750000000000004
 40
1.0
 40
1.0
 40
1.0
 40
1.0
 10
112.041921249255
 20
63.00373752077881
 30
0.0
 10
111.37917655541
 20
63.00373752077881
 30
0.0
 10
110.7279206962943
 20
62.98889744419001
 30
0.0
 10
109.767470158036
 20
62.94652787996039
 30
0.0
 10
109.450078714803
 20
62.9290497771812
 30
0.0
 10
108.8209152132482
 20
62.88772149062891
 30
0.0
 10
108.5087670268065
 20
62.8637962171712
 30
0.0
 10
107.6014597249582
 20
62.78498970070429
 30
0.0
 10
107.0280347673169
 20
62.72268368072783
 30
0.0
 10
106.2141578977423
 20
62.61955436048846
 30
0.0
 10
105.9493517011724
 20
62.58337044144194
 30
0.0
 10
105.4424442903581
 20
62.50957565724144
 30
0.0
 10
105.2010501390046
 20
62.4721017984698
 30
0.0
 10
104.5119086668722
 20
62.35938985513007
 30
0.0
 10
104.098853852008
 20
62.2838537576563
 30
0.0
 10
103.5506990326329
 20
62.17546050063881
 30
0.0
 10
103.3812364252874
 20
62.14038826897553
 30
0.0
 10
103.073219177272
 20
62.07415280837569
 30
0.0
 10
102.9338391566636
 20
62.04282611162097
 30
0.0
 10
102.6840536440369
 20
61.98441734004003
 30
0.0
 10
102.573647531383
 20
61.9573341048572
 30
0.0
 10
102.3823896777452
 20
61.9080743502436
 30
0.0
 10
102.3012701594609
 20
61.88581237043596
 30
0.0
 10
102.1071232393526
 20
61.82824546326764
 30
0.0
 10
102.041921249255
 20
61.80198585848167
 30
0.0
 10
102.041921249255
 20
61.78873211400766
 30
0.0
  0
LINE
  5
D1
330
1F
100
AcDbEntity
  8
0
  6
Continuous
 62
     7
370
    25
100
AcDbLine
 10
102.0419212224
 20
61.7887327732
 30
0.0
 11
102.0419212224
 21
61.7787303687
 31
0.0
  0
SPLINE
  5
D2
330
1F
100
AcDbEntity
  8
0
  6
Continuous
 62
     7
370
    25
100
AcDbSpline
210
0.0
220
0.0
230
1.0
 70
     8
 71
     3
 72
    17
 73
    13
 74
     0
 42
0.000000001
 43
0.00000001
 40
0.0
 40
0.0
 40
0.0
 40
0.0
 40
0.1043843958185158
 40
0.2118345569819801
 40
0.3162081801235555
 40
0.4235375330682647
 40
0.5292275935501746
 40
0.6379275752951962
 40
0.7444714855043735
 40
0.8541836194561564
 40
0.959308052615968
 40
1.0
 40
1.0
 40
1.0
 40
1.0
 10
112.0419209989155
 20
160.7685262621802
 30
0.0
 10
111.4939824584018
 20
160.773893702513
 30
0.0
 10
110.3820124453276
 20
160.7847862246771
 30
0.0
 10
108.7691571128051
 20
160.869968408495
 30
0.0
 10
107.2356439620674
 20
160.9963389118265
 30
0.0
 10
105.8446230736931
 20
161.1532427833354
 30
0.0
 10
104.609105957395
 20
161.3249381807711
 30
0.0
 10
103.5857508115386
 20
161.4902830349811
 30
0.0
 10
102.7854081386796
 20
161.6339873328131
 30
0.0
 10
102.2750765859195
 20
161.732151328745
 30
0.0
 10
102.0351678274601
 20
161.7800726432177
 30
0.0
 10
102.0670867392296
 20
161.773706135204
 30
0.0
 10
102.0759941244865
 20
161.7719294787807
 30
0.0
  0
LINE
  5
D3
330
1F
100
AcDbEntity
  8
0
  6
Continuous
 62
     7
370
    25
100
AcDbLine
 10
113.8298927041
 20
160.7685262622
 30
0.0
 11
112.0419209989
 21
160.7685262622
 31
0.0
  0
LINE
  5
D4
330
1F
100
AcDbEntity
  8
0
  6
Continuous
 62
     7
370
    25
100
AcDbLine
 10
113.8298927041
 20
150.729692197
 30
0.0
 11
113.8298927041
 21
160.7685262622
 31
0.0
  0
LINE
  5
D5
330
1F
100
AcDbEntity
  8
0
  6
Continuous
 62
     7
370
    25
100
AcDbLine
 10
111.7498880418
 20
150.729692197
 30
0.0
 11
113.8298927041
 21
150.729692197
 31
0.0
  0
SPLINE
  5
D6
330
1F
100
AcDbEntity
  8
0
  6
Continuous
 62
     7
370
    25
100
AcDbSpline
210
0.0
220
0.0
230
1.0
 70
     8
 71
     3
 72
    22
 73
    18
 74
     0
 42
0.000000001
 43
0.00000001
 40
0.0
 40
0.0
 40
0.0
 40
0.0
 40
0.2500000000000001
 40
0.2500000000000001
 40
0.3750000000000002
 40
0.3750000000000002
 40
0.5000000000000002
 40
0.5000000000000002
 40
0.6250000000000001
 40
0.6250000000000001
 40
0.7500000000000001
 40
0.7500000000000001
 40
0.875
 40
0.875
 40
0.9375
 40
0.9375
 40
1.0
 40
1.0
 40
1.0
 40
1.0
 10
102.041921249255
 20
143.1287311138076
 30
0.0
 10
102.2446462051741
 20
144.1479774556722
 30
0.0
 10
102.5593899269695
 20
145.1070856056115
 30
0.0
 10
103.2674453966405
 20
146.4495646831208
 30
0.0
 10
103.5459080268581
 20
146.8837732658608
 30
0.0
 10
104.1846754334953
 20
147.695400981363
 30
0.0
 10
104.5450891132855
 20
148.0746812742998
 30
0.0
 10
105.3626213452748
 20
148.7776398533208
 30
0.0
 10
105.8237893285619
 20
149.1026686710214
 30
0.0
 10
106.8217795750457
 20
149.6676839944123
 30
0.0
 10
107.361538769038
 20
149.9113875886188
 30
0.0
 10
108.5361317330693
 20
150.3155875162637
 30
0.0
 10
109.1478679190612
 20
150.4680247093092
 30
0.0
 10
110.0997771439229
 20
150.6233522569179
 30
0.0
 10
110.4230103081835
 20
150.662857036968
 30
0.0
 10
111.0820734794588
 20
150.7161661576367
 30
0.0
 10
111.4161374900328
 20
150.7296938746945
 30
0.0
 10
111.7498880974343
 20
150.7296938746945
 30
0.0
  0
SPLINE
  5
D7
330
1F
100
AcDbEntity
  8
0
  6
Continuous
 62
     7
370
    25
100
AcDbSpline
210
0.0
220
0.0
230
1.0
 70
     8
 71
     3
 72
     8
 73
     4
 74
     0
 42
0.000000001
 43
0.00000001
 40
0.0
 40
0.0
 40
0.0
 40
0.0
 40
1.0
 40
1.0
 40
1.0
 40
1.0
 10
120.3539502701764
 20
63.00373752077881
 30
0.0
 10
119.9028455407762
 20
63.80469745259873
 30
0.0
 10
119.4521477135328
 20
64.60588746415938
 30
0.0
 10
119.001921249255
 20
65.40734282678415
 30
0.0
  0
LINE
  5
D8
330
1F
100
AcDbEntity
  8
0
  6
Continuous
 62
     7
370
    25
100
AcDbLine
 10
119.0019218417
 20
65.4073419334
 30
0.0
 11
119.0019218417
 21
143.1287328066
 31
0.0
  0
SPLINE
  5
D9
330
1F
100
AcDbEntity
  8
0
  6
Continuous
 62
     7
370
    25
100
AcDbSpline
210
0.0
220
0.0
230
1.0
 70
    24
 71
     3
 72
     8
 73
     4
 74
     0
 42
0.000000001
 43
0.00000001
 40
0.0
 40
0.0
 40
0.0
 40
0.0
 40
1.0
 40
1.0
 40
1.0
 40
1.0
 10
119.001921249255
 20
143.1287311138076
 30
0.0
 10
119.446134131609
 20
143.1287311138076
 30
0.0
 10
119.8971486978482
 20
143.1287311138076
 30
0.0
 10
120.3539502701764
 20
143.1287311138076
 30
0.0
  0
LINE
  5
DA
330
1F
100
AcDbEntity
  8
0
  6
Continuous
 62
     7
370
    25
100
AcDbLine
 10
115.1819216254
 20
65.4073419334
 30
0.0
 11
115.1819216254
 21
143.1287328066
 31
0.0
  0
SPLINE
  5
DB
330
1F
100
AcDbEntity
  8
0
  6
Continuous
 62
     7
370
    25
100
AcDbSpline
210
0.0
220
0.0
230
1.0
 70
     8
 71
     3
 72
     8
 73
     4
 74
     0
 42
0.000000001
 43
0.00000001
 40
0.0
 40
0.0
 40
0.0
 40
0.0
 40
1.0
 40
1.0
 40
1.0
 40
1.0
 10
115.181921249255
 20
65.40734282678415
 30
0.0
 10
114.7316947849773
 20
64.60588746415938
 30
0.0
 10
114.2809969577338
 20
63.80469745259872
 30
0.0
 10
113.8298922283336
 20
63.00373752077881
 30
0.0
  0
SPLINE
  5
DC
330
1F
100
AcDbEntity
  8
0
  6
Continuous
 62
     7
370
    25
100
AcDbSpline
210
0.0
220
0.0
230
1.0
 70
    24
 71
     3
 72
     8
 73
     4
 74
     0
 42
0.000000001
 43
0.00000001
 40
0.0
 40
0.0
 40
0.0
 40
0.0
 40
1.0
 40
1.0
 40
1.0
 40
1.0
 10
113.8298922283336
 20
143.1287311138076
 30
0.0
 10
114.2866938006619
 20
143.1287311138076
 30
0.0
 10
114.7377083669011
 20
143.1287311138076
 30
0.0
 10
115.181921249255
 20
143.1287311138076
 30
0.0
  0
LINE
  5
DD
330
1F
100
AcDbEntity
  8
0
  6
Continuous
 62
     7
370
    25
100
AcDbLine
 10
97.0919212493
 20
62.278731382
 30
0.0
 11
97.0919212493
 21
161.2787308456
 31
0.0
  0
SPLINE
  5
DE
330
1F
100
AcDbEntity
  8
0
  6
Continuous
 62
     7
370
    25
100
AcDbSpline
210
0.0
220
0.0
230
1.0
 70
     8
 71
     3
 72
    14
 73
    10
 74
     0
 42
0.000000001
 43
0.00000001
 40
0.0
 40
0.0
 40
0.0
 40
0.0
 40
0.25
 40
0.25
 40
0.5
 40
0.5
 40
0.75
 40
0.75
 40
1.0
 40
1.0
 40
1.0
 40
1.0
 10
119.001921249255
 20
66.31555233141273
 30
0.0
 10
119.001921249255
 20
66.4225964124071
 30
0.0
 10
118.9818035620968
 20
66.52783155264954
 30
0.0
 10
118.9033123728312
 20
66.72568203949724
 30
0.0
 10
118.84515574803
 20
66.81673380306216
 30
0.0
 10
118.698640492412
 20
66.96989989698695
 30
0.0
 10
118.6099979437709
 20
67.03219434319635
 30
0.0
 10
118.4142746209706
 20
67.11698812873234
 30
0.0
 10
118.3090434298996
 20
67.13905565575797
 30
0.0
 10
118.201921249255
 20
67.13905565575799
 30
0.0
  0
SPLINE
  5
DF
330
1F
100
AcDbEntity
  8
0
  6
Continuous
 62
     7
370
    25
100
AcDbSpline
210
0.0
220
0.0
230
1.0
 70
    24
 71
     3
 72
    14
 73
    10
 74
     0
 42
0.000000001
 43
0.00000001
 40
0.0
 40
0.0
 40
0.0
 40
0.0
 40
0.25
 40
0.25
 40
0.5
 40
0.5
 40
0.75
 40
0.75
 40
1.0
 40
1.0
 40
1.0
 40
1.0
 10
118.201921249255
 20
143.1287311138076
 30
0.0
 10
118.3256910140202
 20
143.1287311138076
 30
0.0
 10
118.4500581180271
 20
143.1287311138076
 30
0.0
 10
118.6564145867531
 20
143.1287311138076
 30
0.0
 10
118.7417427301715
 20
143.1287311138076
 30
0.0
 10
118.8739347888867
 20
143.1287311138076
 30
0.0
 10
118.9225800326373
 20
143.1287311138076
 30
0.0
 10
118.986115824366
 20
143.1287311138076
 30
0.0
 10
119.001921249255
 20
143.1287311138076
 30
0.0
 10
119.001921249255
 20
143.1287311138076
 30
0.0
  0
SPLINE
  5
E0
330
1F
100
AcDbEntity
  8
0
  6
Continuous
 62
     7
370
    25
100
AcDbSpline
210
0.0
220
0.0
230
1.0
 70
     8
 71
     3
 72
    12
 73
     8
 74
     0
 42
0.000000001
 43
0.00000001
 40
0.0
 40
0.0
 40
0.0
 40
0.0
 40
0.250000000000003
 40
0.250000000000003
 40
0.500000000000006
 40
0.500000000000006
 40
1.0
 40
1.0
 40
1.0
 40
1.0
 10
115.981921249255
 20
67.13905565575799
 30
0.0
 10
115.8761605959061
 20
67.13905565575797
 30
0.0
 10
115.7681729677231
 20
67.11651614975757
 30
0.0
 10
115.5735783024575
 20
67.03194551776222
 30
0.0
 10
115.4847063896187
 20
66.9694638650034
 30
0.0
 10
115.2655140972927
 20
66.7400749135312
 30
0.0
 10
115.1819212492549
 20
66.52749157600879
 30
0.0
 10
115.181921249255
 20
66.31555233141256
 30
0.0
  0
SPLINE
  5
E1
330
1F
100
AcDbEntity
  8
0
  6
Continuous
 62
     7
370
    25
100
AcDbSpline
210
0.0
220
0.0
230
1.0
 70
    24
 71
     3
 72
    14
 73
    10
 74
     0
 42
0.000000001
 43
0.00000001
 40
0.0
 40
0.0
 40
0.0
 40
0.0
 40
0.25
 40
0.25
 40
0.5
 40
0.5
 40
0.75
 40
0.75
 40
1.0
 40
1.0
 40
1.0
 40
1.0
 10
115.181921249255
 20
143.1287311138076
 30
0.0
 10
115.181921249255
 20
143.1287311138076
 30
0.0
 10
115.197635569721
 20
143.1287311138076
 30
0.0
 10
115.2613195481893
 20
143.1287311138076
 30
0.0
 10
115.3099227425998
 20
143.1287311138076
 30
0.0
 10
115.4426062650254
 20
143.1287311138076
 30
0.0
 10
115.527708369336
 20
143.1287311138076
 30
0.0
 10
115.7341506042461
 20
143.1287311138076
 30
0.0
 10
115.8582315458691
 20
143.1287311138076
 30
0.0
 10
115.981921249255
 20
143.1287311138076
 30
0.0
  0
LINE
  5
E2
330
1F
100
AcDbEntity
  8
0
  6
Continuous
 62
     7
370
    25
100
AcDbLine
 10
118.2019213381
 20
67.1390543045
 30
0.0
 11
115.981922129
 21
67.1390543045
 31
0.0
  0
LINE
  5
E3
330
1F
100
AcDbEntity
  8
0
  6
Continuous
 62
     7
370
    25
100
AcDbLine
 10
115.981922129
 20
143.1287328066
 30
0.0
 11
118.2019213381
 21
143.1287328066
 31
0.0
  0
LINE
  5
E4
330
1F
100
AcDbEntity
  8
0
  6
Continuous
 62
     7
370
    25
100
AcDbLine
 10
94.5919213051
 20
73.8964813115
 30
0.0
 11
94.5919213051
 21
149.6609809162
 31
0.0
  0
LINE
  5
E5
330
1F
100
AcDbEntity
  8
0
  6
Continuous
 62
     7
370
    25
100
AcDbLine
 10
62.2919207605
 20
75.5147176148
 30
0.0
 11
62.2919207605
 21
77.9093975486
 31
0.0
  0
SPLINE
  5
E6
330
1F
100
AcDbEntity
  8
0
  6
Continuous
 62
     7
370
    25
100
AcDbSpline
210
0.0
220
0.0
230
1.0
 70
     8
 71
     3
 72
    14
 73
    10
 74
     0
 42
0.000000001
 43
0.00000001
 40
0.0
 40
0.0
 40
0.0
 40
0.0
 40
0.25
 40
0.25
 40
0.5
 40
0.5
 40
0.75
 40
0.75
 40
1.0
 40
1.0
 40
1.0
 40
1.0
 10
61.28749877791805
 20
79.6122497700641
 30
0.0
 10
61.37626735586338
 20
79.45371563875614
 30
0.0
 10
61.4979851945423
 20
79.30127296186758
 30
0.0
 10
61.73303480439913
 20
79.00413833803866
 30
0.0
 10
61.84866499061602
 20
78.8594556944213
 30
0.0
 10
62.04906992404383
 20
78.57616649191789
 30
0.0
 10
62.13447021602816
 20
78.43761249888104
 30
0.0
 10
62.25617584974538
 20
78.16622846884749
 30
0.0
 10
62.29192124925803
 20
78.03409260021287
 30
0.0
 10
62.29192124925802
 20
77.90939784844211
 30
0.0
  0
SPLINE
  5
E7
330
1F
100
AcDbEntity
  8
0
  6
Continuous
 62
     7
370
    25
100
AcDbSpline
210
0.0
220
0.0
230
1.0
 70
     8
 71
     3
 72
    14
 73
    10
 74
     0
 42
0.000000001
 43
0.00000001
 40
0.0
 40
0.0
 40
0.0
 40
0.0
 40
0.124999999999999
 40
0.124999999999999
 40
0.2499999999999981
 40
0.2499999999999981
 40
0.4999999999999952
 40
0.4999999999999952
 40
1.0
 40
1.0
 40
1.0
 40
1.0
 10
60.39192124925502
 20
80.2410797091642
 30
0.0
 10
60.4595035490395
 20
80.24823559426558
 30
0.0
 10
60.53199112678742
 20
80.24381112422657
 30
0.0
 10
60.66428223605335
 20
80.21410496645625
 30
0.0
 10
60.72155961544354
 20
80.190820684878
 30
0.0
 10
60.8712100426438
 20
80.11333544502766
 30
0.0
 10
60.94492333816531
 20
80.05148361812631
 30
0.0
 10
61.13273132149154
 20
79.86680616547797
 30
0.0
 10
61.21677162785296
 20
79.73856324218677
 30
0.0
 10
61.28749877791927
 20
79.61224977006421
 30
0.0
  0
SPLINE
  5
E8
330
1F
100
AcDbEntity
  8
0
  6
Continuous
 62
     7
370
    25
100
AcDbSpline
210
0.0
220
0.0
230
1.0
 70
     8
 71
     3
 72
     8
 73
     4
 74
     0
 42
0.000000001
 43
0.00000001
 40
0.0
 40
0.0
 40
0.0
 40
0.0
 40
1.0
 40
1.0
 40
1.0
 40
1.0
 10
56.84728086117411
 20
79.82303112437239
 30
0.0
 10
58.01257917188302
 20
79.97821859625901
 30
0.0
 10
59.19719438592288
 20
80.11457723456934
 30
0.0
 10
60.39192124925501
 20
80.2410797091642
 30
0.0
  0
SPLINE
  5
E9
330
1F
100
AcDbEntity
  8
0
  6
Continuous
 62
     7
370
    25
100
AcDbSpline
210
0.0
220
0.0
230
1.0
 70
     8
 71
     3
 72
    14
 73
    10
 74
     0
 42
0.000000001
 43
0.00000001
 40
0.0
 40
0.0
 40
0.0
 40
0.0
 40
0.5000000000000012
 40
0.5000000000000012
 40
0.7500000000000004
 40
0.7500000000000004
 40
0.8750000000000002
 40
0.8750000000000002
 40
1.0
 40
1.0
 40
1.0
 40
1.0
 10
49.09184636522468
 20
79.53289894524248
 30
0.0
 10
50.40014792775867
 20
79.53991366898362
 30
0.0
 10
51.70520730241574
 20
79.55532224542806
 30
0.0
 10
53.65108335390442
 20
79.60921880089472
 30
0.0
 10
54.29778085764356
 20
79.63225036549744
 30
0.0
 10
55.26162322149809
 20
79.68319289036818
 30
0.0
 10
55.58186191343226
 20
79.70292781260139
 30
0.0
 10
56.21855713977478
 20
79.75241494107296
 30
0.0
 10
56.53527254805776
 20
79.78147972000218
 30
0.0
 10
56.84728086117415
 20
79.82303112437236
 30
0.0
  0
SPLINE
  5
EA
330
1F
100
AcDbEntity
  8
0
  6
Continuous
 62
     7
370
    25
100
AcDbSpline
210
0.0
220
0.0
230
1.0
 70
     8
 71
     3
 72
    12
 73
     8
 74
     0
 42
0.000000001
 43
0.00000001
 40
0.0
 40
0.0
 40
0.0
 40
0.0
 40
0.2500000000000001
 40
0.2500000000000001
 40
0.5000000000000002
 40
0.5000000000000002
 40
1.0
 40
1.0
 40
1.0
 40
1.0
 10
55.39192124925501
 20
143.865254005304
 30
0.0
 10
54.87322242742682
 20
143.8977767801522
 30
0.0
 10
54.35151085422185
 20
143.9210735213227
 30
0.0
 10
53.30521883772624
 20
143.9589190357449
 30
0.0
 10
52.78054721205599
 20
143.973187510241
 30
0.0
 10
51.20370118951678
 20
144.0073969976993
 30
0.0
 10
50.14874587496991
 20
144.0188965016432
 30
0.0
 10
49.09184636522465
 20
144.0245632823727
 30
0.0
  0
SPLINE
  5
EB
330
1F
100
AcDbEntity
  8
0
  6
Continuous
 62
     7
370
    25
100
AcDbSpline
210
0.0
220
0.0
230
1.0
 70
     8
 71
     3
 72
    20
 73
    16
 74
     0
 42
0.000000001
 43
0.00000001
 40
0.0
 40
0.0
 40
0.0
 40
0.0
 40
0.2500000000000012
 40
0.2500000000000012
 40
0.5000000000000024
 40
0.5000000000000024
 40
0.7500000000000037
 40
0.7500000000000037
 40
0.8750000000000013
 40
0.8750000000000013
 40
0.9375000000000011
 40
0.9375000000000011
 40
0.9687500000000007
 40
0.9687500000000007
 40
1.0
 40
1.0
 40
1.0
 40
1.0
 10
57.29192124925501
 20
145.5233398507922
 30
0.0
 10
57.291921249255
 20
145.3876575310454
 30
0.0
 10
57.24320946003839
 20
145.2465705449053
 30
0.0
 10
57.0740480368132
 20
144.9544988261748
 30
0.0
 10
56.95226762289487
 20
144.8028500840844
 30
0.0
 10
56.65472052814538
 20
144.5004416439313
 30
0.0
 10
56.48080792244262
 20
144.3478530078079
 30
0.0
 10
56.16139308856077
 20
144.1225822439657
 30
0.0
 10
56.04635231311353
 20
144.047859149455
 30
0.0
 10
55.83926798909708
 20
143.948448740198
 30
0.0
 10
55.76316015429072
 20
143.9168836478534
 30
0.0
 10
55.63176561473736
 20
143.8824402636604
 30
0.0
 10
55.58521239573591
 20
143.8733886918928
 30
0.0
 10
55.4888790446552
 20
143.8632130430543
 30
0.0
 10
55.43961962129976
 20
143.8622632843793
 30
0.0
 10
55.39192124925302
 20
143.8652540052938
 30
0.0
  0
LINE
  5
EC
330
1F
100
AcDbEntity
  8
0
  6
Continuous
 62
     7
370
    25
100
AcDbLine
 10
57.2919218036
 20
145.5233382346
 30
0.0
 11
57.2919218036
 21
147.7922449173
 31
0.0
  0
SPLINE
  5
ED
330
1F
100
AcDbEntity
  8
0
  6
Continuous
 62
     7
370
    25
100
AcDbSpline
210
0.0
220
0.0
230
1.0
 70
     8
 71
     3
 72
    22
 73
    18
 74
     0
 42
0.000000001
 43
0.00000001
 40
0.0
 40
0.0
 40
0.0
 40
0.0
 40
0.0002937795809534
 40
0.0628841226670476
 40
0.1261981634441474
 40
0.2510182376743836
 40
0.3131038035109783
 40
0.3757650301263917
 40
0.438298947461237
 40
0.5000628179552256
 40
0.5617337540173512
 40
0.6246555751056264
 40
0.7491916931696805
 40
0.8115302283016316
 40
0.874584730621348
 40
0.9378227612722644
 40
1.0
 40
1.0
 40
1.0
 40
1.0
 10
75.61187689922698
 20
74.84748459471886
 30
0.0
 10
75.61168235491633
 20
74.84746089752598
 30
0.0
 10
75.57003974566834
 20
74.84238846471952
 30
0.0
 10
75.71520834489168
 20
74.86081110299658
 30
0.0
 10
76.18540123187817
 20
74.91743594188702
 30
0.0
 10
77.15383671362497
 20
75.02361580675331
 30
0.0
 10
78.4663001143019
 20
75.10925402693067
 30
0.0
 10
79.59842255752987
 20
75.14791066783327
 30
0.0
 10
80.8206100000214
 20
75.15156736859316
 30
0.0
 10
82.08790877238073
 20
75.10918923183844
 30
0.0
 10
83.354620238656
 20
75.02080504324493
 30
0.0
 10
84.9702788069012
 20
74.85076369020288
 30
0.0
 10
86.41024149132865
 20
74.62857811201911
 30
0.0
 10
87.47611003483672
 20
74.42557968839745
 30
0.0
 10
88.06531021122487
 20
74.30155387177079
 30
0.0
 10
88.45403037594271
 20
74.21663549532148
 30
0.0
 10
88.50081577116487
 20
74.20590936351059
 30
0.0
 10
88.52401060782321
 20
74.20059165968125
 30
0.0
  0
SPLINE
  5
EE
330
1F
100
AcDbEntity
  8
0
  6
Continuous
 62
     7
370
    25
100
AcDbSpline
210
0.0
220
0.0
230
1.0
 70
     8
 71
     3
 72
    27
 73
    23
 74
     0
 42
0.000000001
 43
0.00000001
 40
0.0
 40
0.0
 40
0.0
 40
0.0
 40
0.0619954680688691
 40
0.1254397621813206
 40
0.1886583727463894
 40
0.2510346191260212
 40
0.3131782550161729
 40
0.3756730771103807
 40
0.438240102585083
 40
0.499824338552288
 40
0.5615387009126992
 40
0.6240931220670074
 40
0.6867530144355115
 40
0.7488662870717026
 40
0.8111008374917962
 40
0.8742090103085145
 40
0.9448189516773964
 40
0.9756082665127883
 40
0.9877505319198371
 40
0.9999433694577808
 40
0.9999501670932723
 40
1.0
 40
1.0
 40
1.0
 40
1.0
 10
88.52388953588851
 20
149.3568258644504
 30
0.0
 10
88.5003179449295
 20
149.351516279407
 30
0.0
 10
88.4526238979897
 20
149.3407730250068
 30
0.0
 10
88.06058080461065
 20
149.2555461398304
 30
0.0
 10
87.47006815942382
 20
149.1309774588743
 30
0.0
 10
86.66602971135698
 20
148.9780285487043
 30
0.0
 10
85.68995494495685
 20
148.8162713460977
 30
0.0
 10
84.56814663206028
 20
148.6640379281624
 30
0.0
 10
83.35461499628435
 20
148.5362625743584
 30
0.0
 10
82.08978456545363
 20
148.4484140563527
 30
0.0
 10
80.82174119376512
 20
148.4060260266567
 30
0.0
 10
79.59823389283115
 20
148.4097650622441
 30
0.0
 10
78.46473454715576
 20
148.4483536757724
 30
0.0
 10
77.47862992452475
 20
148.5127996092138
 30
0.0
 10
76.67000008208461
 20
148.5863083429181
 30
0.0
 10
76.04977154733726
 20
148.6562787882531
 30
0.0
 10
75.73161836568124
 20
148.6948301809
 30
0.0
 10
75.63595691983886
 20
148.7069012332297
 30
0.0
 10
75.61433809098935
 20
148.7096616539866
 30
0.0
 10
75.61149712341769
 20
148.7099900354052
 30
0.0
 10
75.611176748038
 20
148.7100449726227
 30
0.0
 10
75.61121230818456
 20
148.7100388765674
 30
0.0
 10
75.61124359987625
 20
148.7100335122508
 30
0.0
  0
SPLINE
  5
EF
330
1F
100
AcDbEntity
  8
0
  6
Continuous
 62
     7
370
    25
100
AcDbSpline
210
0.0
220
0.0
230
1.0
 70
     8
 71
     3
 72
    20
 73
    16
 74
     0
 42
0.000000001
 43
0.00000001
 40
0.0
 40
0.0
 40
0.0
 40
0.0
 40
0.2500000000000023
 40
0.2500000000000023
 40
0.3750000000000036
 40
0.3750000000000036
 40
0.4375000000000042
 40
0.4375000000000042
 40
0.5000000000000048
 40
0.5000000000000048
 40
0.6250000000000022
 40
0.6250000000000022
 40
0.7499999999999997
 40
0.7499999999999997
 40
1.0
 40
1.0
 40
1.0
 40
1.0
 10
47.48273548097102
 20
81.1002479611069
 30
0.0
 10
47.50900769818443
 20
81.11956590218936
 30
0.0
 10
47.53968784043924
 20
81.13395461329115
 30
0.0
 10
47.61115871082119
 20
81.12705025145515
 30
0.0
 10
47.6391857478655
 20
81.11988424810671
 30
0.0
 10
47.69426933736301
 20
81.09018522140313
 30
0.0
 10
47.71516066591543
 20
81.07671157884184
 30
0.0
 10
47.76036931336086
 20
81.04151331332584
 30
0.0
 10
47.78477352575644
 20
81.01960508459857
 30
0.0
 10
47.85610584380788
 20
80.94748022460305
 30
0.0
 10
47.89800262862816
 20
80.89513968365299
 30
0.0
 10
47.96957858748402
 20
80.79765629175225
 30
0.0
 10
48.00040657730134
 20
80.75090252187383
 30
0.0
 10
48.08350651013693
 20
80.61760930603472
 30
0.0
 10
48.12836141550719
 20
80.5349719081195
 30
0.0
 10
48.16847349095979
 20
80.45586501332875
 30
0.0
  0
SPLINE
  5
F0
330
1F
100
AcDbEntity
  8
0
  6
Continuous
 62
     7
370
    25
100
AcDbSpline
210
0.0
220
0.0
230
1.0
 70
     8
 71
     3
 72
    14
 73
    10
 74
     0
 42
0.000000001
 43
0.00000001
 40
0.0
 40
0.0
 40
0.0
 40
0.0
 40
0.2499999999999994
 40
0.2499999999999994
 40
0.4999999999999988
 40
0.4999999999999988
 40
0.7499999999999982
 40
0.7499999999999982
 40
1.0
 40
1.0
 40
1.0
 40
1.0
 10
47.19192124925503
 20
81.27606137123969
 30
0.0
 10
47.19192124925502
 20
81.23481444021535
 30
0.0
 10
47.20053096563627
 20
81.19790746793286
 30
0.0
 10
47.23161714520663
 20
81.13700740803345
 30
0.0
 10
47.25400669869067
 20
81.11282648849375
 30
0.0
 10
47.30875062986678
 20
81.07885889761049
 30
0.0
 10
47.34120086945198
 20
81.0689388136423
 30
0.0
 10
47.41120238418006
 20
81.06758760473747
 30
0.0
 10
47.44941288430259
 20
81.0757458814336
 30
0.0
 10
47.48273548097568
 20
81.10024796110172
 30
0.0
  0
LINE
  5
F1
330
1F
100
AcDbEntity
  8
0
  6
Continuous
 62
     7
370
    25
100
AcDbLine
 10
47.191922197
 20
81.2760616006
 30
0.0
 11
47.191922197
 21
142.281400627
 31
0.0
  0
SPLINE
  5
F2
330
1F
100
AcDbEntity
  8
0
  6
Continuous
 62
     7
370
    25
100
AcDbSpline
210
0.0
220
0.0
230
1.0
 70
     8
 71
     3
 72
     9
 73
     5
 74
     0
 42
0.000000001
 43
0.00000001
 40
0.0
 40
0.0
 40
0.0
 40
0.0
 40
0.0592942499244465
 40
1.0
 40
1.0
 40
1.0
 40
1.0
 10
47.48273698411828
 20
142.4572138400239
 30
0.0
 10
47.47785398641955
 20
142.4605069797217
 30
0.0
 10
47.39550202640692
 20
142.5160459181847
 30
0.0
 10
47.32937137199163
 20
142.458753715072
 30
0.0
 10
47.2671618851269
 20
142.4048586101693
 30
0.0
  0
SPLINE
  5
F3
330
1F
100
AcDbEntity
  8
0
  6
Continuous
 62
     7
370
    25
100
AcDbSpline
210
0.0
220
0.0
230
1.0
 70
     8
 71
     3
 72
     8
 73
     4
 74
     0
 42
0.000000001
 43
0.00000001
 40
0.0
 40
0.0
 40
0.0
 40
0.0
 40
1.0
 40
1.0
 40
1.0
 40
1.0
 10
47.21555491819122
 20
142.3889803574452
 30
0.0
 10
47.20020587955518
 20
142.3584703024492
 30
0.0
 10
47.19192124925503
 20
142.3221587469369
 30
0.0
 10
47.19192124925503
 20
142.2814008563755
 30
0.0
  0
SPLINE
  5
F4
330
1F
100
AcDbEntity
  8
0
  6
Continuous
 62
     7
370
    25
100
AcDbSpline
210
0.0
220
0.0
230
1.0
 70
     8
 71
     3
 72
    20
 73
    16
 74
     0
 42
0.000000001
 43
0.00000001
 40
0.0
 40
0.0
 40
0.0
 40
0.0
 40
0.2500000000000047
 40
0.2500000000000047
 40
0.3750000000000051
 40
0.3750000000000051
 40
0.5000000000000054
 40
0.5000000000000054
 40
0.562500000000006
 40
0.562500000000006
 40
0.6250000000000064
 40
0.6250000000000064
 40
0.7500000000000042
 40
0.7500000000000042
 40
1.0
 40
1.0
 40
1.0
 40
1.0
 10
48.16847349095743
 20
143.1015972142858
 30
0.0
 10
48.12847727313359
 20
143.0227188077283
 30
0.0
 10
48.08336364529595
 20
142.9395891610368
 30
0.0
 10
48.00010943092941
 20
142.8061004966859
 30
0.0
 10
47.9698901023089
 20
142.7602354408039
 30
0.0
 10
47.89780186716745
 20
142.662043888399
 30
0.0
 10
47.8558845497564
 20
142.6097340688754
 30
0.0
 10
47.78463394520494
 20
142.5377281661409
 30
0.0
 10
47.76039813282562
 20
142.5159579538393
 30
0.0
 10
47.71479994264097
 20
142.4804832955103
 30
0.0
 10
47.69399745304126
 20
142.4671131113328
 30
0.0
 10
47.63905645462219
 20
142.4375431991975
 30
0.0
 10
47.61098746653536
 20
142.4304166768956
 30
0.0
 10
47.54048463647249
 20
142.4235423054129
 30
0.0
 10
47.50906054868165
 20
142.4378574645001
 30
0.0
 10
47.48273548097303
 20
142.4572142665106
 30
0.0
  0
SPLINE
  5
F5
330
1F
100
AcDbEntity
  8
0
  6
Continuous
 62
     7
370
    25
100
AcDbSpline
210
0.0
220
0.0
230
1.0
 70
     8
 71
     3
 72
    10
 73
     6
 74
     0
 42
0.000000001
 43
0.00000001
 40
0.0
 40
0.0
 40
0.0
 40
0.0
 40
0.5
 40
0.5
 40
1.0
 40
1.0
 40
1.0
 40
1.0
 10
48.84192124925502
 20
144.0270163156276
 30
0.0
 10
48.71703297850484
 20
143.8960200375561
 30
0.0
 10
48.59558286044438
 20
143.7523072008911
 30
0.0
 10
48.36599888548695
 20
143.4417369082019
 30
0.0
 10
48.25572391009094
 20
143.2736678351388
 30
0.0
 10
48.16847349095743
 20
143.1015972142858
 30
0.0
  0
SPLINE
  5
F6
330
1F
100
AcDbEntity
  8
0
  6
Continuous
 62
     7
370
    25
100
AcDbSpline
210
0.0
220
0.0
230
1.0
 70
     8
 71
     3
 72
     8
 73
     4
 74
     0
 42
0.000000001
 43
0.00000001
 40
0.0
 40
0.0
 40
0.0
 40
0.0
 40
1.0
 40
1.0
 40
1.0
 40
1.0
 10
49.09184636522079
 20
144.0245632823722
 30
0.0
 10
49.00482833537242
 20
144.0250298471593
 30
0.0
 10
48.92187430899247
 20
144.0260698667354
 30
0.0
 10
48.84192124925271
 20
144.0270163156277
 30
0.0
  0
SPLINE
  5
F7
330
1F
100
AcDbEntity
  8
0
  6
Continuous
 62
     7
370
    25
100
AcDbSpline
210
0.0
220
0.0
230
1.0
 70
     8
 71
     3
 72
     8
 73
     4
 74
     0
 42
0.000000001
 43
0.00000001
 40
0.0
 40
0.0
 40
0.0
 40
0.0
 40
1.0
 40
1.0
 40
1.0
 40
1.0
 10
48.84192124925271
 20
79.53044591198753
 30
0.0
 10
48.92187430899247
 20
79.5313923608798
 30
0.0
 10
49.00482833537242
 20
79.53243238045593
 30
0.0
 10
49.0918463652208
 20
79.53289894524299
 30
0.0
  0
SPLINE
  5
F8
330
1F
100
AcDbEntity
  8
0
  6
Continuous
 62
     7
370
    25
100
AcDbSpline
210
0.0
220
0.0
230
1.0
 70
     8
 71
     3
 72
    10
 73
     6
 74
     0
 42
0.000000001
 43
0.00000001
 40
0.0
 40
0.0
 40
0.0
 40
0.0
 40
0.4999999999999989
 40
0.4999999999999989
 40
1.0
 40
1.0
 40
1.0
 40
1.0
 10
48.16847349095646
 20
80.45586501333132
 30
0.0
 10
48.25572391008992
 20
80.28379439247793
 30
0.0
 10
48.36599888548612
 20
80.11572531941447
 30
0.0
 10
48.59558286044396
 20
79.8051550267246
 30
0.0
 10
48.71703297850461
 20
79.66144219005933
 30
0.0
 10
48.84192124925502
 20
79.5304459119876
 30
0.0
  0
SPLINE
  5
F9
330
1F
100
AcDbEntity
  8
0
  6
Continuous
 62
     7
370
    25
100
AcDbSpline
210
0.0
220
0.0
230
1.0
 70
     8
 71
     3
 72
    14
 73
    10
 74
     0
 42
0.000000001
 43
0.00000001
 40
0.0
 40
0.0
 40
0.0
 40
0.0
 40
0.25
 40
0.25
 40
0.5
 40
0.5
 40
0.75
 40
0.75
 40
1.0
 40
1.0
 40
1.0
 40
1.0
 10
126.041921249255
 20
159.7474709346534
 30
0.0
 10
126.041921249255
 20
159.8791048561215
 30
0.0
 10
126.0164916779395
 20
160.0118514895887
 30
0.0
 10
125.9183517561923
 20
160.2567394123968
 30
0.0
 10
125.8455417633011
 20
160.3698237924556
 30
0.0
 10
125.6612741559659
 20
160.5602905053784
 30
0.0
 10
125.5487499498886
 20
160.6378693012396
 30
0.0
 10
125.3064652865333
 20
160.7412465851345
 30
0.0
 10
125.1735439783483
 20
160.7685259694712
 30
0.0
 10
125.041921249255
 20
160.7685259694712
 30
0.0
  0
SPLINE
  5
FA
330
1F
100
AcDbEntity
  8
0
  6
Continuous
 62
     7
370
    25
100
AcDbSpline
210
0.0
220
0.0
230
1.0
 70
     8
 71
     3
 72
    12
 73
     8
 74
     0
 42
0.000000001
 43
0.00000001
 40
0.0
 40
0.0
 40
0.0
 40
0.0
 40
0.2499999999999992
 40
0.2499999999999992
 40
0.4999999999999983
 40
0.4999999999999983
 40
1.0
 40
1.0
 40
1.0
 40
1.0
 10
125.041921249255
 20
150.7296938746945
 30
0.0
 10
125.1941736632801
 20
150.7296938746945
 30
0.0
 10
125.3441101241985
 20
150.6831228964883
 30
0.0
 10
125.5997530799024
 20
150.5266242643254
 30
0.0
 10
125.7085273483664
 20
150.4167178202884
 30
0.0
 10
125.9639622637811
 20
150.0412516092383
 30
0.0
 10
126.041921249255
 20
149.7386532444829
 30
0.0
 10
126.041921249255
 20
149.4374286483745
 30
0.0
  0
LINE
  5
FB
330
1F
100
AcDbEntity
  8
0
  6
Continuous
 62
     7
370
    25
100
AcDbLine
 10
126.041921431
 20
149.4374299706
 30
0.0
 11
126.041921431
 21
159.7474726201
 31
0.0
  0
SPLINE
  5
FC
330
1F
100
AcDbEntity
  8
0
  6
Continuous
 62
     7
370
    25
100
AcDbSpline
210
0.0
220
0.0
230
1.0
 70
     8
 71
     3
 72
    14
 73
    10
 74
     0
 42
0.000000001
 43
0.00000001
 40
0.0
 40
0.0
 40
0.0
 40
0.0
 40
0.25
 40
0.25
 40
0.5
 40
0.5
 40
0.75
 40
0.75
 40
1.0
 40
1.0
 40
1.0
 40
1.0
 10
119.001921249255
 20
157.4722823546556
 30
0.0
 10
119.001921249255
 20
157.3659256609032
 30
0.0
 10
118.9815336931138
 20
157.2600851731431
 30
0.0
 10
118.9028993476522
 20
157.0635202596066
 30
0.0
 10
118.8441679880136
 20
156.9723495173195
 30
0.0
 10
118.6975590824109
 20
156.8204384282878
 30
0.0
 10
118.6081537623844
 20
156.7583695914683
 30
0.0
 10
118.414263029784
 20
156.6751015437096
 30
0.0
 10
118.3077580398941
 20
156.65300687398
 30
0.0
 10
118.2019212492547
 20
156.65300687398
 30
0.0
  0
SPLINE
  5
FD
330
1F
100
AcDbEntity
  8
0
  6
Continuous
 62
     7
370
    25
100
AcDbSpline
210
0.0
220
0.0
230
1.0
 70
     8
 71
     3
 72
    12
 73
     8
 74
     0
 42
0.000000001
 43
0.00000001
 40
0.0
 40
0.0
 40
0.0
 40
0.0
 40
0.2499999999999991
 40
0.2499999999999991
 40
0.4999999999999982
 40
0.4999999999999982
 40
1.0
 40
1.0
 40
1.0
 40
1.0
 10
118.2019212492571
 20
145.4072625268801
 30
0.0
 10
118.3256221992369
 20
145.4072625268806
 30
0.0
 10
118.4497188115068
 20
145.4492561386134
 30
0.0
 10
118.6563739745932
 20
145.587051465258
 30
0.0
 10
118.7414147413198
 20
145.6810250637228
 30
0.0
 10
118.9408933097929
 20
145.9958132699435
 30
0.0
 10
119.001921249255
 20
146.2460522621707
 30
0.0
 10
119.001921249255
 20
146.4929663063047
 30
0.0
  0
SPLINE
  5
FE
330
1F
100
AcDbEntity
  8
0
  6
Continuous
 62
     7
370
    25
100
AcDbSpline
210
0.0
220
0.0
230
1.0
 70
     8
 71
     3
 72
    10
 73
     6
 74
     0
 42
0.000000001
 43
0.00000001
 40
0.0
 40
0.0
 40
0.0
 40
0.0
 40
0.5
 40
0.5
 40
1.0
 40
1.0
 40
1.0
 40
1.0
 10
115.981921249255
 20
156.65300687398
 30
0.0
 10
115.7693849353987
 20
156.65300687398
 30
0.0
 10
115.5594487637447
 20
156.7444194606102
 30
0.0
 10
115.2657416227334
 20
157.0491643265144
 30
0.0
 10
115.181921249255
 20
157.2613192964231
 30
0.0
 10
115.181921249255
 20
157.4722823546556
 30
0.0
  0
SPLINE
  5
FF
330
1F
100
AcDbEntity
  8
0
  6
Continuous
 62
     7
370
    25
100
AcDbSpline
210
0.0
220
0.0
230
1.0
 70
     8
 71
     3
 72
    14
 73
    10
 74
     0
 42
0.000000001
 43
0.00000001
 40
0.0
 40
0.0
 40
0.0
 40
0.0
 40
0.25
 40
0.25
 40
0.5
 40
0.5
 40
0.75
 40
0.75
 40
1.0
 40
1.0
 40
1.0
 40
1.0
 10
115.181921249255
 20
146.4929663063047
 30
0.0
 10
115.181921249255
 20
146.3690994295154
 30
0.0
 10
115.1977803768826
 20
146.2448397526779
 30
0.0
 10
115.2611420224025
 20
146.0072313902721
 30
0.0
 10
115.3097317304518
 20
145.8904510055196
 30
0.0
 10
115.4420173352267
 20
145.6816484769106
 30
0.0
 10
115.5273421264873
 20
145.587137773318
 30
0.0
 10
115.7342333747935
 20
145.4491809725157
 30
0.0
 10
115.8582013206835
 20
145.40726252688
 30
0.0
 10
115.981921249255
 20
145.40726252688
 30
0.0
  0
SPLINE
  5
100
330
1F
100
AcDbEntity
  8
0
  6
Continuous
 62
     7
370
    25
100
AcDbSpline
210
0.0
220
0.0
230
1.0
 70
     8
 71
     3
 72
     8
 73
     4
 74
     0
 42
0.000000001
 43
0.00000001
 40
0.0
 40
0.0
 40
0.0
 40
0.0
 40
1.0
 40
1.0
 40
1.0
 40
1.0
 10
113.8298922283336
 20
150.7296938746945
 30
0.0
 10
114.2868185821332
 20
149.7137759050202
 30
0.0
 10
114.7380242239362
 20
148.6949800759291
 30
0.0
 10
115.181921249255
 20
147.6741786199455
 30
0.0
  0
LINE
  5
101
330
1F
100
AcDbEntity
  8
0
  6
Continuous
 62
     7
370
    25
100
AcDbLine
 10
115.1819216254
 20
147.6741792919
 30
0.0
 11
115.1819216254
 21
146.4929679693
 31
0.0
  0
LINE
  5
102
330
1F
100
AcDbEntity
  8
0
  6
Continuous
 62
     7
370
    25
100
AcDbLine
 10
115.981922129
 20
145.4072619142
 30
0.0
 11
118.2019213381
 21
145.4072619142
 31
0.0
  0
LINE
  5
103
330
1F
100
AcDbEntity
  8
0
  6
Continuous
 62
     7
370
    25
100
AcDbLine
 10
119.0019218417
 20
146.4929679693
 30
0.0
 11
119.0019218417
 21
147.6741792919
 31
0.0
  0
SPLINE
  5
104
330
1F
100
AcDbEntity
  8
0
  6
Continuous
 62
     7
370
    25
100
AcDbSpline
210
0.0
220
0.0
230
1.0
 70
     8
 71
     3
 72
     8
 73
     4
 74
     0
 42
0.000000001
 43
0.00000001
 40
0.0
 40
0.0
 40
0.0
 40
0.0
 40
1.0
 40
1.0
 40
1.0
 40
1.0
 10
119.001921249255
 20
147.6741786199455
 30
0.0
 10
119.4460712602805
 20
148.6955618508971
 30
0.0
 10
119.8971455705384
 20
149.7140463876654
 30
0.0
 10
120.3539502701764
 20
150.7296938746945
 30
0.0
  0
LINE
  5
105
330
1F
100
AcDbEntity
  8
0
  6
Continuous
 62
     7
370
    25
100
AcDbLine
 10
120.353950763
 20
150.729692197
 30
0.0
 11
125.0419212671
 21
150.729692197
 31
0.0
  0
LINE
  5
106
330
1F
100
AcDbEntity
  8
0
  6
Continuous
 62
     7
370
    25
100
AcDbLine
 10
126.041921431
 20
149.4374299706
 30
0.0
 11
126.041921431
 21
143.1287328066
 31
0.0
  0
LINE
  5
107
330
1F
100
AcDbEntity
  8
0
  6
Continuous
 62
     7
370
    25
100
AcDbLine
 10
125.0419212671
 20
160.7685262622
 30
0.0
 11
120.353950763
 21
160.7685262622
 31
0.0
  0
LINE
  5
108
330
1F
100
AcDbEntity
  8
0
  6
Continuous
 62
     7
370
    25
100
AcDbLine
 10
120.353950763
 20
150.729692197
 30
0.0
 11
120.353950763
 21
160.7685262622
 31
0.0
  0
SPLINE
  5
109
330
1F
100
AcDbEntity
  8
0
  6
Continuous
 62
     7
370
    25
100
AcDbSpline
210
0.0
220
0.0
230
1.0
 70
     8
 71
     3
 72
     8
 73
     4
 74
     0
 42
0.000000001
 43
0.00000001
 40
0.0
 40
0.0
 40
0.0
 40
0.0
 40
1.0
 40
1.0
 40
1.0
 40
1.0
 10
115.181921249255
 20
158.3760019745125
 30
0.0
 10
114.7316130135705
 20
159.1737170996261
 30
0.0
 10
114.2809191970469
 20
159.9712153992833
 30
0.0
 10
113.8298922283336
 20
160.7685259694712
 30
0.0
  0
LINE
  5
10A
330
1F
100
AcDbEntity
  8
0
  6
Continuous
 62
     7
370
    25
100
AcDbLine
 10
115.1819216254
 20
147.6741792919
 30
0.0
 11
115.1819216254
 21
158.3760032715
 31
0.0
  0
SPLINE
  5
10B
330
1F
100
AcDbEntity
  8
0
  6
Continuous
 62
     7
370
    25
100
AcDbSpline
210
0.0
220
0.0
230
1.0
 70
     8
 71
     3
 72
     8
 73
     4
 74
     0
 42
0.000000001
 43
0.00000001
 40
0.0
 40
0.0
 40
0.0
 40
0.0
 40
1.0
 40
1.0
 40
1.0
 40
1.0
 10
120.3539502701764
 20
160.7685259694712
 30
0.0
 10
119.9029233014632
 20
159.9712153992833
 30
0.0
 10
119.4522294849396
 20
159.1737170996261
 30
0.0
 10
119.001921249255
 20
158.3760019745125
 30
0.0
  0
LINE
  5
10C
330
1F
100
AcDbEntity
  8
0
  6
Continuous
 62
     7
370
    25
100
AcDbLine
 10
119.0019218417
 20
147.6741792919
 30
0.0
 11
119.0019218417
 21
158.3760032715
 31
0.0
  0
LINE
  5
10D
330
1F
100
AcDbEntity
  8
0
  6
Continuous
 62
     7
370
    25
100
AcDbLine
 10
118.2019213381
 20
156.6530080797
 30
0.0
 11
115.981922129
 21
156.6530080797
 31
0.0
  0
ARC
  5
10E
330
1F
100
AcDbEntity
  8
0
  6
Continuous
 62
     7
370
    25
100
AcDbCircle
 10
106.0931338647
 20
144.3478680189
 30
0.0
 40
11.44675364824962
100
AcDbArc
 50
78.0501056154
 51
102.2889010167
  0
LINE
  5
10F
330
1F
100
AcDbEntity
  8
0
  6
Continuous
 62
     7
370
    25
100
AcDbLine
 10
48.8419203254
 20
79.5287328125
 30
0.0
 11
48.8419203254
 21
79.5304464461
 31
0.0
  0
LINE
  5
110
330
1F
100
AcDbEntity
  8
0
  6
Continuous
 62
     7
370
    25
100
AcDbLine
 10
48.8419203254
 20
144.0287294151
 30
0.0
 11
48.8419203254
 21
144.0270157815
 31
0.0
  0
SPLINE
  5
111
330
1F
100
AcDbEntity
  8
0
  6
Continuous
 62
     7
370
    25
100
AcDbSpline
210
0.0
220
0.0
230
1.0
 70
    11
 71
     3
 72
    58
 73
    54
 74
     0
 42
0.000000001
 43
0.00000001
 40
0.0
 40
0.0
 40
0.0
 40
0.0
 40
0.0625000000000007
 40
0.0625000000000007
 40
0.1250000000000014
 40
0.1250000000000014
 40
0.1875000000000021
 40
0.1875000000000021
 40
0.2500000000000028
 40
0.2500000000000028
 40
0.2812500000000023
 40
0.2812500000000023
 40
0.3125000000000019
 40
0.3125000000000019
 40
0.3437500000000015
 40
0.3437500000000015
 40
0.3750000000000011
 40
0.3750000000000011
 40
0.4062500000000006
 40
0.4062500000000006
 40
0.4375000000000002
 40
0.4375000000000002
 40
0.4687499999999998
 40
0.4687499999999998
 40
0.4999999999999993
 40
0.4999999999999993
 40
0.5624999999999969
 40
0.5624999999999969
 40
0.5937499999999967
 40
0.5937499999999967
 40
0.6249999999999964
 40
0.6249999999999964
 40
0.6562499999999963
 40
0.6562499999999963
 40
0.6874999999999961
 40
0.6874999999999961
 40
0.7499999999999956
 40
0.7499999999999956
 40
0.7812499999999961
 40
0.7812499999999961
 40
0.8124999999999967
 40
0.8124999999999967
 40
0.8437499999999972
 40
0.8437499999999972
 40
0.8749999999999978
 40
0.8749999999999978
 40
0.9062499999999984
 40
0.9062499999999984
 40
0.937499999999999
 40
0.937499999999999
 40
0.9687499999999996
 40
0.9687499999999996
 40
1.0
 40
1.0
 40
1.0
 40
1.0
 10
159.7235047182039
 20
113.9698158574113
 30
0.0
 10
160.0629413462501
 20
114.2236817168177
 30
0.0
 10
160.4384785328797
 20
114.4102417725481
 30
0.0
 10
161.2482345526689
 20
114.6626882630221
 30
0.0
 10
161.6655777874702
 20
114.7225796576454
 30
0.0
 10
162.514527159449
 20
114.7125507245845
 30
0.0
 10
162.9278902629072
 20
114.6433938341506
 30
0.0
 10
163.7317089163132
 20
114.371492341138
 30
0.0
 10
164.1009817572721
 20
114.1762612817623
 30
0.0
 10
164.5978510817105
 20
113.783697280518
 30
0.0
 10
164.7509775903169
 20
113.6375473998836
 30
0.0
 10
165.0228351378032
 20
113.3189942884451
 30
0.0
 10
165.1440870278659
 20
113.143150088558
 30
0.0
 10
165.3414035441886
 20
112.7707048297203
 30
0.0
 10
165.4172911200896
 20
112.5759279043361
 30
0.0
 10
165.519512871685
 20
112.167657605491
 30
0.0
 10
165.5447947067514
 20
111.952984538643
 30
0.0
 10
165.5385085361585
 20
111.5322985077093
 30
0.0
 10
165.5072342804754
 20
111.3199412449966
 30
0.0
 10
165.392539816181
 20
110.9120546323263
 30
0.0
 10
165.3104669123359
 20
110.7178922504435
 30
0.0
 10
165.1006812901254
 20
110.3475156411046
 30
0.0
 10
164.9763761112024
 20
110.177330803592
 30
0.0
 10
164.6947452936418
 20
109.8637703420616
 30
0.0
 10
164.5365914863111
 20
109.7202813527325
 30
0.0
 10
164.0328377270545
 20
109.3411385740647
 30
0.0
 10
163.6482742436079
 20
109.1488961693737
 30
0.0
 10
163.0463232747685
 20
108.9600908134842
 30
0.0
 10
162.8388163637158
 20
108.912816385669
 30
0.0
 10
162.4190768533882
 20
108.8515396587993
 30
0.0
 10
162.2089967636042
 20
108.8376118157396
 30
0.0
 10
161.7884289714292
 20
108.8420718958082
 30
0.0
 10
161.5768197969211
 20
108.8606554565638
 30
0.0
 10
161.158144728996
 20
108.9311827596969
 30
0.0
 10
160.954265950006
 20
108.9823947509987
 30
0.0
 10
160.3587686375964
 20
109.1835198322869
 30
0.0
 10
159.9776695032111
 20
109.3850886346023
 30
0.0
 10
159.4869760165019
 20
109.7730944558688
 30
0.0
 10
159.3353225543912
 20
109.9171340460902
 30
0.0
 10
159.0597490317365
 20
110.2398438330836
 30
0.0
 10
158.9398160761771
 20
110.4142373056136
 30
0.0
 10
158.742602901765
 20
110.7864084208599
 30
0.0
 10
158.6644244612114
 20
110.9877354645344
 30
0.0
 10
158.5632171533085
 20
111.39661569175
 30
0.0
 10
158.5385923572863
 20
111.6062208978179
 30
0.0
 10
158.5459663333669
 20
112.0344228542481
 30
0.0
 10
158.5777062300509
 20
112.2432276690992
 30
0.0
 10
158.6933966115932
 20
112.6510017473505
 30
0.0
 10
158.7778018799973
 20
112.8486353897139
 30
0.0
 10
158.9868825984143
 20
113.2152160577175
 30
0.0
 10
159.1138057689582
 20
113.3882293468237
 30
0.0
 10
159.3967842557805
 20
113.7011576605533
 30
0.0
 10
159.5537864041809
 20
113.8428829277081
 30
0.0
 10
159.7235047182039
 20
113.9698158574113
 30
0.0
  0
CIRCLE
  5
112
330
1F
100
AcDbEntity
  8
0
  6
Continuous
 62
     7
370
    25
100
AcDbCircle
 10
162.0419212493
 20
111.7787311138
 30
0.0
 40
2.500000000000014
  0
LINE
  5
113
330
1F
100
AcDbEntity
  8
0
  6
Continuous
 62
     7
370
    25
100
AcDbLine
 10
171.0419213565
 20
111.7787311138
 30
0.0
 11
171.0419213565
 21
98.2787307636
 31
0.0
  0
LINE
  5
114
330
1F
100
AcDbEntity
  8
0
  6
Continuous
 62
     7
370
    25
100
AcDbLine
 10
171.0419213565
 20
125.278731464
 30
0.0
 11
171.0419213565
 21
111.7787311138
 31
0.0
  0
SPLINE
  5
115
330
1F
100
AcDbEntity
  8
0
  6
Continuous
 62
     7
370
    25
100
AcDbSpline
210
0.0
220
0.0
230
1.0
 70
     8
 71
     3
 72
    17
 73
    13
 74
     0
 42
0.000000001
 43
0.00000001
 40
0.0
 40
0.0
 40
0.0
 40
0.0
 40
0.0502056573806336
 40
0.1297170549965851
 40
0.2153478317390067
 40
0.3149990100669318
 40
0.4313620008422138
 40
0.5596688885639233
 40
0.6917450819627089
 40
0.8206228266282177
 40
0.9116107341125615
 40
1.0
 40
1.0
 40
1.0
 40
1.0
 10
165.5039271505917
 20
125.2719691307706
 30
0.0
 10
165.5084155118243
 20
125.2727483373439
 30
0.0
 10
165.520012153144
 20
125.2747615842008
 30
0.0
 10
165.2181284547138
 20
125.2217498072858
 30
0.0
 10
164.6673265782771
 20
125.1362172011942
 30
0.0
 10
163.8236918848256
 20
125.03263884051
 30
0.0
 10
162.709644817144
 20
124.9531858424101
 30
0.0
 10
161.4192953050884
 20
124.9493042884781
 30
0.0
 10
160.1489857291931
 20
125.0400417500448
 30
0.0
 10
159.2077338004788
 20
125.1655308269841
 30
0.0
 10
158.6410429809289
 20
125.2606405687701
 30
0.0
 10
158.5783925963603
 20
125.272101480206
 30
0.0
 10
158.54752121292
 20
125.2777489186687
 30
0.0
  0
SPLINE
  5
116
330
1F
100
AcDbEntity
  8
0
  6
Continuous
 62
     7
370
    25
100
AcDbSpline
210
0.0
220
0.0
230
1.0
 70
     8
 71
     3
 72
    18
 73
    14
 74
     0
 42
0.000000001
 43
0.00000001
 40
0.0
 40
0.0
 40
0.0
 40
0.0
 40
0.0263994628593808
 40
0.1061801196868557
 40
0.1889387004509779
 40
0.2838269962594199
 40
0.395331232417294
 40
0.5209106287523968
 40
0.6525299586459936
 40
0.7832064167078038
 40
0.8801565673102666
 40
0.977674797076358
 40
1.0
 40
1.0
 40
1.0
 40
1.0
 10
158.5757812651242
 20
98.28474431349461
 30
0.0
 10
158.5659526772791
 20
98.28300117936398
 30
0.0
 10
158.5264215459335
 20
98.27599019616301
 30
0.0
 10
158.7526921120653
 20
98.31640884796848
 30
0.0
 10
159.2209287905835
 20
98.39238367647039
 30
0.0
 10
159.9815017193447
 20
98.49456822327011
 30
0.0
 10
161.0183089530892
 20
98.58633841835544
 30
0.0
 10
162.2752580705519
 20
98.61713146648924
 30
0.0
 10
163.5712338693369
 20
98.55298002925282
 30
0.0
 10
164.6254515102762
 20
98.42883617096486
 30
0.0
 10
165.2847517675415
 20
98.32496417668281
 30
0.0
 10
165.5672066954371
 20
98.27424290449419
 30
0.0
 10
165.5213757308738
 20
98.28237847057892
 30
0.0
 10
165.5128380449856
 20
98.28389401598399
 30
0.0
  0
DIMENSION
  5
117
330
1F
100
AcDbEntity
  8
VERMASSUNG
100
AcDbDimension
  2
_D
 10
269.7668550215
 20
122.7787311138
 30
0.0
 11
269.7668550215
 21
111.7787311138
 31
0.0
 70
   160
  1
%%c<>
 71
     2
 42
-1.0
  3
SLDDIMSTYLE0
100
AcDbAlignedDimension
 13
250.4925134607
 23
100.7787311138
 33
0.0
 14
250.4925134607
 24
122.7787311138
 34
0.0
 50
90.0
100
AcDbRotatedDimension
  0
DIMENSION
  5
123
330
1F
100
AcDbEntity
  8
VERMASSUNG
100
AcDbDimension
  2
_D_1
 10
281.1241963721
 20
125.2787311138
 30
0.0
 11
281.1241963721
 21
111.7787311138
 31
0.0
 70
   160
  1
%%c<>
 71
     2
 42
-1.0
  3
SLDDIMSTYLE0
100
AcDbAlignedDimension
 13
171.0419212493
 23
98.2787311138
 33
0.0
 14
171.0419212493
 24
125.2787311138
 34
0.0
 50
90.0
100
AcDbRotatedDimension
  0
DIMENSION
  5
12E
330
1F
100
AcDbEntity
  8
VERMASSUNG
100
AcDbDimension
  2
_D_2
 10
30.9414518883
 20
161.7787311138
 30
0.0
 11
30.9414518883
 21
111.7787311138
 31
0.0
 70
   160
  1
HSK A %%c<>
 71
     2
 42
-1.0
  3
SLDDIMSTYLE0
100
AcDbAlignedDimension
 13
97.5919212493
 23
61.7787311138
 33
0.0
 14
97.5919212493
 24
161.7787311138
 34
0.0
 50
90.0
100
AcDbRotatedDimension
  0
DIMENSION
  5
13A
330
1F
100
AcDbEntity
  8
VERMASSUNG
100
AcDbDimension
  2
_D_3
 10
257.0919212493
 20
171.7787311138
 30
0.0
 11
177.0919212493
 21
171.7787311138
 31
0.0
 70
   160
  1
<>
 71
     2
 42
-1.0
  3
SLDDIMSTYLE0
100
AcDbAlignedDimension
 13
97.0919212493
 23
161.2787311138
 33
0.0
 14
257.0919212493
 24
118.7055979284
 34
0.0
100
AcDbRotatedDimension
  0
DIMENSION
  5
144
330
1F
100
AcDbEntity
  8
VERMASSUNG
100
AcDbDimension
  2
_D_4
 10
257.0919212493
 20
183.7787311138
 30
0.0
 11
152.1419212493
 21
183.7787311138
 31
0.0
 70
   160
  1
<>
 71
     2
 42
-1.0
  3
SLDDIMSTYLE0
100
AcDbAlignedDimension
 13
47.1919212493
 23
142.2814008564
 33
0.0
 14
257.0919212493
 24
118.1287311138
 34
0.0
100
AcDbRotatedDimension
  0
LINE
  5
14E
330
1F
100
AcDbEntity
  8
VERMASSUNG
  6
CENTERX2
370
    18
100
AcDbLine
 10
259.8976353617
 20
111.7787311138
 30
0.0
 11
39.283733476
 21
111.7787311138
 31
0.0
  0
LINE
  5
14F
330
1F
100
AcDbEntity
  8
0
  6
Continuous
 62
     7
370
    25
100
AcDbLine
 10
270.7781399979
 20
24.5189494442
 30
0.0
 11
274.5804916933
 21
22.3238985335
 31
0.0
  0
LINE
  5
150
330
1F
100
AcDbEntity
  8
0
  6
Continuous
 62
     7
370
    25
100
AcDbLine
 10
280.080044624
 20
31.8504359287
 30
0.0
 11
276.2776929286
 21
34.0454868394
 31
0.0
  0
LINE
  5
151
330
1F
100
AcDbEntity
  8
0
  6
Continuous
 62
     7
370
    25
100
AcDbLine
 10
273.5272843772
 20
33.7728276874
 30
0.0
 11
273.2444881151
 21
33.6095190398
 31
0.0
  0
LINE
  5
152
330
1F
100
AcDbEntity
  8
0
  6
Continuous
 62
     7
370
    25
100
AcDbLine
 10
269.6388295171
 20
27.3636587266
 30
0.0
 11
269.6388291878
 21
27.0370958465
 31
0.0
  0
LINE
  5
153
330
1F
100
AcDbEntity
  8
0
  6
Continuous
 62
     7
370
    25
100
AcDbLine
 10
279.5743137706
 20
21.3014626239
 30
0.0
 11
279.7510594588
 21
21.403531574
 31
0.0
  0
LINE
  5
154
330
1F
100
AcDbEntity
  8
0
  6
Continuous
 62
     7
370
    25
100
AcDbLine
 10
274.5162923295
 20
34.1963199552
 30
0.0
 11
271.9010066224
 21
35.7060922575
 31
0.0
  0
LINE
  5
155
330
1F
100
AcDbEntity
  8
0
  6
Continuous
 62
     7
370
    25
100
AcDbLine
 10
267.1513926529
 20
27.4786279274
 30
0.0
 11
269.76667836
 21
25.9688556252
 31
0.0
  0
SPLINE
  5
156
330
1F
100
AcDbEntity
  8
0
  6
Continuous
 62
     7
370
    25
100
AcDbSpline
210
0.0
220
0.0
230
1.0
 70
     8
 71
     3
 72
    13
 73
     9
 74
     0
 42
0.000000001
 43
0.00000001
 40
0.0
 40
0.0
 40
0.0
 40
0.0
 40
0.1979420522827819
 40
0.3978635118151755
 40
0.5979553995063391
 40
0.7980702681893151
 40
0.9980719330854257
 40
1.0
 40
1.0
 40
1.0
 40
1.0
 10
246.3126687210503
 20
37.23882075821876
 30
0.0
 10
247.7260682567908
 20
36.7040560519973
 30
0.0
 10
250.5670012288523
 20
35.62917902835137
 30
0.0
 10
254.7821985770614
 20
33.81988361298272
 30
0.0
 10
258.9642257650078
 20
31.87065649701185
 30
0.0
 10
263.0736034125095
 20
29.75589387547205
 30
0.0
 10
265.8037706850296
 20
28.28639311790231
 30
0.0
 10
267.13796155644
 20
27.48580057545291
 30
0.0
 10
267.1507006872943
 20
27.47815635199305
 30
0.0
  0
SPLINE
  5
157
330
1F
100
AcDbEntity
  8
0
  6
Continuous
 62
     7
370
    25
100
AcDbSpline
210
0.0
220
0.0
230
1.0
 70
     8
 71
     3
 72
    13
 73
     9
 74
     0
 42
0.000000001
 43
0.00000001
 40
0.0
 40
0.0
 40
0.0
 40
0.0
 40
0.1047869911098425
 40
0.3043564675848704
 40
0.5034549750510425
 40
0.7019598678986442
 40
0.8997452237049527
 40
1.0
 40
1.0
 40
1.0
 40
1.0
 10
271.9108326003822
 20
35.72318681857509
 30
0.0
 10
271.2096622450302
 20
36.12397997997058
 30
0.0
 10
269.1730952029779
 20
37.28809386035329
 30
0.0
 10
265.8933779953727
 20
39.36148644032504
 30
0.0
 10
262.0770749396743
 20
41.92224213480016
 30
0.0
 10
258.3792945978986
 20
44.60999767734256
 30
0.0
 10
255.3629694381536
 20
46.92972399135676
 30
0.0
 10
253.6253411389336
 20
48.39226585114439
 30
0.0
 10
253.0408375179145
 20
48.8842358618317
 30
0.0
  0
LINE
  5
158
330
1F
100
AcDbEntity
  8
0
  6
Continuous
 62
     7
370
    25
100
AcDbLine
 10
210.8597077935
 20
36.5930735123
 30
0.0
 11
216.6006976494
 21
33.2788706133
 31
0.0
  0
LINE
  5
159
330
1F
100
AcDbEntity
  8
0
  6
Continuous
 62
     7
370
    25
100
AcDbLine
 10
238.0643905268
 20
78.6216073252
 30
0.0
 11
235.8576753607
 21
79.8955168746
 31
0.0
  0
LINE
  5
15A
330
1F
100
AcDbEntity
  8
0
  6
Continuous
 62
     7
370
    25
100
AcDbLine
 10
239.5885015699
 20
41.0810075393
 30
0.0
 11
245.9524623266
 21
37.4071711943
 31
0.0
  0
LINE
  5
15B
330
1F
100
AcDbEntity
  8
0
  6
Continuous
 62
     7
370
    25
100
AcDbLine
 10
252.7019139649
 20
49.0988312518
 30
0.0
 11
246.3379532082
 21
52.7726675969
 31
0.0
  0
SPLINE
  5
15C
330
1F
100
AcDbEntity
  8
0
  6
Continuous
 62
     7
370
    25
100
AcDbSpline
210
0.0
220
0.0
230
1.0
 70
     8
 71
     3
 72
    10
 73
     6
 74
     0
 42
0.000000001
 43
0.00000001
 40
0.0
 40
0.0
 40
0.0
 40
0.0
 40
0.2877671293385511
 40
0.7914668933538241
 40
1.0
 40
1.0
 40
1.0
 40
1.0
 10
205.8428042061797
 20
51.49481525277582
 30
0.0
 10
205.7986927341755
 20
51.1635715435833
 30
0.0
 10
205.6773697401677
 20
50.25252784634031
 30
0.0
 10
205.6175865150074
 20
49.13977855955687
 30
0.0
 10
205.6100157924765
 20
48.36739079804259
 30
0.0
 10
205.6077991771616
 20
48.14124507228512
 30
0.0
  0
SPLINE
  5
15D
330
1F
100
AcDbEntity
  8
0
  6
Continuous
 62
     7
370
    25
100
AcDbSpline
210
0.0
220
0.0
230
1.0
 70
     8
 71
     3
 72
     9
 73
     5
 74
     0
 42
0.000000001
 43
0.00000001
 40
0.0
 40
0.0
 40
0.0
 40
0.0
 40
0.5696751866024141
 40
1.0
 40
1.0
 40
1.0
 40
1.0
 10
223.5498954475374
 20
78.83321204663388
 30
0.0
 10
223.3209455471122
 20
78.71205574579902
 30
0.0
 10
222.9190500357583
 20
78.49937963898553
 30
0.0
 10
222.5187194815704
 20
78.23214430443271
 30
0.0
 10
222.3464473105421
 20
78.11714630895801
 30
0.0
  0
SPLINE
  5
15E
330
1F
100
AcDbEntity
  8
0
  6
Continuous
 62
     7
370
    25
100
AcDbSpline
210
0.0
220
0.0
230
1.0
 70
     8
 71
     3
 72
     9
 73
     5
 74
     0
 42
0.000000001
 43
0.00000001
 40
0.0
 40
0.0
 40
0.0
 40
0.0
 40
0.4109279501872297
 40
1.0
 40
1.0
 40
1.0
 40
1.0
 10
205.6077991771616
 20
48.14124507228512
 30
0.0
 10
205.609902754034
 20
47.85630438380986
 30
0.0
 10
205.6150218433331
 20
47.16289648019698
 30
0.0
 10
205.6752129728097
 20
46.5036484695845
 30
0.0
 10
205.710669884831
 20
46.11530389263802
 30
0.0
  0
SPLINE
  5
15F
330
1F
100
AcDbEntity
  8
0
  6
Continuous
 62
     7
370
    25
100
AcDbSpline
210
0.0
220
0.0
230
1.0
 70
     8
 71
     3
 72
    12
 73
     8
 74
     0
 42
0.000000001
 43
0.00000001
 40
0.0
 40
0.0
 40
0.0
 40
0.0
 40
0.1296635442034469
 40
0.3600208763791972
 40
0.5927238695283068
 40
0.8263887715644286
 40
0.9999999999999999
 40
0.9999999999999999
 40
0.9999999999999999
 40
0.9999999999999999
 10
230.8950598005482
 20
44.44891501323549
 30
0.0
 10
231.2772422125257
 20
44.36736211630082
 30
0.0
 10
232.3384012895982
 20
44.14092417951564
 30
0.0
 10
234.0966657772819
 20
43.59688913938732
 30
0.0
 10
236.1370260446452
 20
42.82321121609575
 30
0.0
 10
237.9809786004151
 20
41.98195285688621
 30
0.0
 10
239.102873007056
 20
41.34101866161855
 30
0.0
 10
239.5811074321531
 20
41.0678050734372
 30
0.0
  0
SPLINE
  5
160
330
1F
100
AcDbEntity
  8
0
  6
Continuous
 62
     7
370
    25
100
AcDbSpline
210
0.0
220
0.0
230
1.0
 70
     8
 71
     3
 72
    13
 73
     9
 74
     0
 42
0.000000001
 43
0.00000001
 40
0.0
 40
0.0
 40
0.0
 40
0.0
 40
0.0868378441795541
 40
0.3190473184440235
 40
0.5489718584633076
 40
0.7757798541434862
 40
0.998617774432467
 40
1.0
 40
1.0
 40
1.0
 40
1.0
 10
246.3470335491103
 20
52.78881991438854
 30
0.0
 10
246.1061594525095
 20
52.92225706331602
 30
0.0
 10
245.2211739334744
 20
53.41251295288074
 30
0.0
 10
243.7838975707102
 20
54.39558197925199
 30
0.0
 10
242.058139534766
 20
55.71145148001285
 30
0.0
 10
240.4926268210758
 20
57.12353979863367
 30
0.0
 10
239.4945798449044
 20
58.09703985825173
 30
0.0
 10
239.0609731505915
 20
58.60526448800395
 30
0.0
 10
239.0583001425223
 20
58.60839748515106
 30
0.0
  0
LINE
  5
161
330
1F
100
AcDbEntity
  8
0
  6
Continuous
 62
     7
370
    25
100
AcDbLine
 10
224.1256532759
 20
79.0813515623
 30
0.0
 11
214.7903186257
 21
83.7324720241
 31
0.0
  0
LINE
  5
162
330
1F
100
AcDbEntity
  8
0
  6
Continuous
 62
     7
370
    25
100
AcDbLine
 10
197.0015958381
 20
52.9181620125
 30
0.0
 11
205.6298848358
 21
47.204867552
 31
0.0
  0
SPLINE
  5
163
330
1F
100
AcDbEntity
  8
0
  6
Continuous
 62
     7
370
    25
100
AcDbSpline
210
0.0
220
0.0
230
1.0
 70
     8
 71
     3
 72
    21
 73
    17
 74
     0
 42
0.000000001
 43
0.00000001
 40
0.0
 40
0.0
 40
0.0
 40
0.0
 40
0.0642160196124556
 40
0.1408875950638696
 40
0.2178586412651727
 40
0.2950709865940862
 40
0.3724522250554348
 40
0.4499351563500326
 40
0.5274671911166003
 40
0.605008707936447
 40
0.6825354241924864
 40
0.7600378536398372
 40
0.837512656970299
 40
0.9149603970728694
 40
0.9923839122314029
 40
0.9999999999999999
 40
0.9999999999999999
 40
0.9999999999999999
 40
0.9999999999999999
 10
224.3710394718863
 20
29.82686676964465
 30
0.0
 10
224.7202130680668
 20
29.80217600405456
 30
0.0
 10
225.4862871493093
 20
29.74800536866999
 30
0.0
 10
226.7260263636757
 20
29.83992262360527
 30
0.0
 10
228.0704430594519
 20
30.06686952383016
 30
0.0
 10
229.4484321810556
 20
30.44181084359832
 30
0.0
 10
230.8491067750882
 20
30.95730367450427
 30
0.0
 10
232.2636394248903
 20
31.61130427190937
 30
0.0
 10
233.6826154996727
 20
32.39894556580758
 30
0.0
 10
235.0968563452244
 20
33.31499544740702
 30
0.0
 10
236.4975287375136
 20
34.35305577004782
 30
0.0
 10
237.8753488833052
 20
35.50703214333682
 30
0.0
 10
239.2238432301081
 20
36.76665081541275
 30
0.0
 10
240.5271085186461
 20
38.13426386941884
 30
0.0
 10
241.4213784851855
 20
39.13322728658447
 30
0.0
 10
241.8616037330916
 20
39.69564410894349
 30
0.0
 10
241.9010300005082
 20
39.7460137688923
 30
0.0
  0
SPLINE
  5
164
330
1F
100
AcDbEntity
  8
0
  6
Continuous
 62
     7
370
    25
100
AcDbSpline
210
0.0
220
0.0
230
1.0
 70
     8
 71
     3
 72
    12
 73
     8
 74
     0
 42
0.000000001
 43
0.00000001
 40
0.0
 40
0.0
 40
0.0
 40
0.0
 40
0.0055859848738693
 40
0.2668529937182272
 40
0.5281977642629746
 40
0.7896385752985872
 40
0.9999999999999999
 40
0.9999999999999999
 40
0.9999999999999999
 40
0.9999999999999999
 10
248.653289014019
 20
51.43605264134343
 30
0.0
 10
248.6585151816188
 20
51.4489410801685
 30
0.0
 10
248.9081790280433
 20
52.06464602074439
 30
0.0
 10
249.3136739850776
 20
53.29230943839131
 30
0.0
 10
249.8526573567989
 20
55.10427578657375
 30
0.0
 10
250.2590232383807
 20
56.78905192041947
 30
0.0
 10
250.4368693678188
 20
57.85018273075232
 30
0.0
 10
250.5161652302214
 20
58.3233067902589
 30
0.0
  0
LINE
  5
165
330
1F
100
AcDbEntity
  8
0
  6
Continuous
 62
     7
370
    25
100
AcDbLine
 10
218.9073004965
 20
31.947297133
 30
0.0
 11
220.5647483632
 21
30.9904728461
 31
0.0
  0
SPLINE
  5
166
330
1F
100
AcDbEntity
  8
0
  6
Continuous
 62
     7
370
    25
100
AcDbSpline
210
0.0
220
0.0
230
1.0
 70
     8
 71
     3
 72
    10
 73
     6
 74
     0
 42
0.000000001
 43
0.00000001
 40
0.0
 40
0.0
 40
0.0
 40
0.0
 40
0.0281220410484858
 40
0.6713441902244295
 40
1.0
 40
1.0
 40
1.0
 40
1.0
 10
248.1747609400159
 20
71.99448399869574
 30
0.0
 10
248.1644110101216
 20
72.0094790054985
 30
0.0
 10
247.9173320270629
 20
72.36744771346204
 30
0.0
 10
247.4828343799598
 20
72.8230103877345
 30
0.0
 10
247.0290341410449
 20
73.21727144811263
 30
0.0
 10
246.8755744565
 20
73.35059702347739
 30
0.0
  0
SPLINE
  5
167
330
1F
100
AcDbEntity
  8
0
  6
Continuous
 62
     7
370
    25
100
AcDbSpline
210
0.0
220
0.0
230
1.0
 70
     8
 71
     3
 72
    12
 73
     8
 74
     0
 42
0.000000001
 43
0.00000001
 40
0.0
 40
0.0
 40
0.0
 40
0.0
 40
0.1180490526010331
 40
0.3415715706442001
 40
0.5648880326714045
 40
0.7876618717436215
 40
0.9999999999999999
 40
0.9999999999999999
 40
0.9999999999999999
 40
0.9999999999999999
 10
250.5388922597363
 20
66.48458650848858
 30
0.0
 10
250.4862206055867
 20
66.73789863737264
 30
0.0
 10
250.3338166748487
 20
67.4708500657808
 30
0.0
 10
249.9961877589328
 20
68.61517328407238
 30
0.0
 10
249.4890523589693
 20
69.87416515265495
 30
0.0
 10
248.8905569843863
 20
71.01527336257969
 30
0.0
 10
248.4095138473232
 20
71.67334148121142
 30
0.0
 10
248.1747609400159
 20
71.99448399869574
 30
0.0
  0
SPLINE
  5
168
330
1F
100
AcDbEntity
  8
0
  6
Continuous
 62
     7
370
    25
100
AcDbSpline
210
0.0
220
0.0
230
1.0
 70
     8
 71
     3
 72
    28
 73
    24
 74
     0
 42
0.000000001
 43
0.00000001
 40
0.0
 40
0.0
 40
0.0
 40
0.0
 40
0.0173646859913571
 40
0.0666529697132405
 40
0.116022427525708
 40
0.1657775298981347
 40
0.2161025423756545
 40
0.2670303082661907
 40
0.3184683026004565
 40
0.3702610478330405
 40
0.4222524658896515
 40
0.4743219123752864
 40
0.5263766481100202
 40
0.5783840758737929
 40
0.6303339792540638
 40
0.6822286908839886
 40
0.734077400466319
 40
0.7858927912084067
 40
0.8376893382521449
 40
0.8894823799690259
 40
0.9412855244705658
 40
0.9931116107064701
 40
1.0
 40
1.0
 40
1.0
 40
1.0
 10
214.9561447426213
 20
83.62639375167683
 30
0.0
 10
214.8528425944814
 20
83.68729640073728
 30
0.0
 10
214.4563254933542
 20
83.92106638801512
 30
0.0
 10
213.6891629217175
 20
84.18441576117932
 30
0.0
 10
212.6689790888989
 20
84.41181499159944
 30
0.0
 10
211.5901319579171
 20
84.48549719946655
 30
0.0
 10
210.4658433080216
 20
84.41648563532151
 30
0.0
 10
209.3022205852168
 20
84.20078534318363
 30
0.0
 10
208.1096416316429
 20
83.83985669572542
 30
0.0
 10
206.8993575969488
 20
83.33614208476436
 30
0.0
 10
205.6834090851176
 20
82.69460294361983
 30
0.0
 10
204.4737002399677
 20
81.92201684523312
 30
0.0
 10
203.2814968820316
 20
81.0264987625734
 30
0.0
 10
202.1173146925877
 20
80.01706102089659
 30
0.0
 10
200.9909576402954
 20
78.90327350572024
 30
0.0
 10
199.9117578240854
 20
77.69534626276425
 30
0.0
 10
198.8887213272458
 20
76.4040851482489
 30
0.0
 10
197.9301597039932
 20
75.04086494205498
 30
0.0
 10
197.0449240518541
 20
73.61752542567312
 30
0.0
 10
196.2375986820037
 20
72.14646945033257
 30
0.0
 10
195.5262237197758
 20
70.6399882192374
 30
0.0
 10
195.0639382258179
 20
69.55422757986365
 30
0.0
 10
194.8656661857708
 20
68.97477928827884
 30
0.0
 10
194.8424048863118
 20
68.90679834538673
 30
0.0
  0
LINE
  5
169
330
1F
100
AcDbEntity
  8
0
  6
Continuous
 62
     7
370
    25
100
AcDbLine
 10
195.2263060414
 20
66.5739836923
 30
0.0
 11
199.0061921495
 21
64.391901889
 31
0.0
  0
LINE
  5
16A
330
1F
100
AcDbEntity
  8
0
  6
Continuous
 62
     7
370
    25
100
AcDbLine
 10
194.7208672046
 20
68.3436305739
 30
0.0
 11
194.7208672046
 21
67.6911256308
 31
0.0
  0
LINE
  5
16B
330
1F
100
AcDbEntity
  8
0
  6
Continuous
 62
     7
370
    25
100
AcDbLine
 10
194.7208672046
 20
56.1853377019
 30
0.0
 11
194.7208672046
 21
55.5328327588
 31
0.0
  0
SPLINE
  5
16C
330
1F
100
AcDbEntity
  8
0
  6
Continuous
 62
     7
370
    25
100
AcDbSpline
210
0.0
220
0.0
230
1.0
 70
     8
 71
     3
 72
    10
 73
     6
 74
     0
 42
0.000000001
 43
0.00000001
 40
0.0
 40
0.0
 40
0.0
 40
0.0
 40
0.3295006286484303
 40
0.6892241807213073
 40
1.0
 40
1.0
 40
1.0
 40
1.0
 10
194.853102941844
 20
55.19728905734519
 30
0.0
 10
195.035858060776
 20
54.91589558867256
 30
0.0
 10
195.4181312225455
 20
54.32729828097772
 30
0.0
 10
196.0924584733469
 20
53.59860717937411
 30
0.0
 10
196.6152402500793
 20
53.20805628468263
 30
0.0
 10
196.8575491051054
 20
53.02703631739598
 30
0.0
  0
SPLINE
  5
16D
330
1F
100
AcDbEntity
  8
0
  6
Continuous
 62
     7
370
    25
100
AcDbSpline
210
0.0
220
0.0
230
1.0
 70
     8
 71
     3
 72
     9
 73
     5
 74
     0
 42
0.000000001
 43
0.00000001
 40
0.0
 40
0.0
 40
0.0
 40
0.0
 40
0.3544518289669109
 40
1.0
 40
1.0
 40
1.0
 40
1.0
 10
194.7671339075939
 20
55.33305533041273
 30
0.0
 10
194.7760754030965
 20
55.31582329820388
 30
0.0
 10
194.8013016673498
 20
55.26720729230237
 30
0.0
 10
194.8327813137109
 20
55.22471796492322
 30
0.0
 10
194.853102941844
 20
55.19728905734519
 30
0.0
  0
ELLIPSE
  5
16E
330
1F
100
AcDbEntity
  8
0
  6
Continuous
 62
     7
370
    25
100
AcDbEllipse
 10
288.1650280645
 20
20.832393474
 30
0.0
 11
-8.849628824518392
 21
11.18870349161691
 31
0.0
210
0.0
220
0.0
230
1.0
 40
0.1198391494
 41
5.907552290695132
 42
6.273222564680963
  0
LINE
  5
16F
330
1F
100
AcDbEntity
  8
0
  6
Continuous
 62
     7
370
    25
100
AcDbLine
 10
281.4457913533
 20
30.8092234335
 30
0.0
 11
279.3291976946
 21
32.0311069442
 31
0.0
  0
ARC
  5
170
330
1F
100
AcDbEntity
  8
0
  6
Continuous
 62
     7
370
    25
100
AcDbCircle
 10
281.5176019492
 20
26.8293217768
 30
0.0
 40
3.980549454369431
100
AcDbArc
 50
91.0336932941
 51
131.4986266953
  0
LINE
  5
171
330
1F
100
AcDbEntity
  8
0
  6
Continuous
 62
     7
370
    25
100
AcDbLine
 10
278.8800815354
 20
29.8106402813
 30
0.0
 11
276.7634878766
 21
31.032523792
 31
0.0
  0
ELLIPSE
  5
172
330
1F
100
AcDbEntity
  8
0
  6
Continuous
 62
     7
370
    25
100
AcDbEllipse
 10
288.1650280645
 20
20.832393474
 30
0.0
 11
12.40473778773969
 21
-9.53289264046149
 31
0.0
210
0.0
220
0.0
230
1.0
 40
0.3289687764
 41
2.91816476574263
 42
3.283835039728486
  0
LINE
  5
173
330
1F
100
AcDbEntity
  8
0
  6
Continuous
 62
     7
370
    25
100
AcDbLine
 10
277.5575924544
 20
28.4686222772
 30
0.0
 11
275.4409987956
 21
29.6905057879
 31
0.0
  0
ARC
  5
174
330
1F
100
AcDbEntity
  8
0
  6
Continuous
 62
     7
370
    25
100
AcDbCircle
 10
284.8101680535
 20
22.7750462244
 30
0.0
 40
9.220447987479659
100
AcDbArc
 50
141.8665993976
 51
164.7870615863
  0
LINE
  5
175
330
1F
100
AcDbEntity
  8
0
  6
Continuous
 62
     7
370
    25
100
AcDbLine
 10
275.9128298013
 20
25.1945571491
 30
0.0
 11
273.7962361425
 21
26.4164406598
 31
0.0
  0
ELLIPSE
  5
176
330
1F
100
AcDbEntity
  8
0
  6
Continuous
 62
     7
370
    25
100
AcDbEllipse
 10
288.1650280645
 20
20.832393474
 30
0.0
 11
14.6590066723258
 21
-5.085713263810327
 31
0.0
210
0.0
220
0.0
230
1.0
 40
0.3056870233
 41
3.021991198080111
 42
3.387661472065974
  0
LINE
  5
177
330
1F
100
AcDbEntity
  8
0
  6
Continuous
 62
     7
370
    25
100
AcDbLine
 10
275.6854827857
 20
23.4514711319
 30
0.0
 11
273.5688891269
 21
24.6733546426
 31
0.0
  0
ARC
  5
178
330
1F
100
AcDbEntity
  8
0
  6
Continuous
 62
     7
370
    25
100
AcDbCircle
 10
278.5614078611
 20
23.2913264402
 30
0.0
 40
2.880380419657711
100
AcDbArc
 50
176.8127998885
 51
227.2561343249
  0
LINE
  5
179
330
1F
100
AcDbEntity
  8
0
  6
Continuous
 62
     7
370
    25
100
AcDbLine
 10
276.6064299505
 20
21.1759889421
 30
0.0
 11
274.4898362917
 21
22.3978724528
 31
0.0
  0
ELLIPSE
  5
17A
330
1F
100
AcDbEntity
  8
0
  6
Continuous
 62
     7
370
    25
100
AcDbEllipse
 10
288.1650280645
 20
20.832393474
 30
0.0
 11
13.68533126853896
 21
-1.601740329830584
 31
0.0
210
0.0
220
0.0
230
1.0
 40
0.0555372164
 41
3.187132247347917
 42
3.352284623219631
  0
LINE
  5
17B
330
1F
100
AcDbEntity
  8
0
  6
Continuous
 62
     7
370
    25
100
AcDbLine
 10
277.7015720158
 20
20.7749209052
 30
0.0
 11
276.8362234589
 21
21.2744759938
 31
0.0
  0
ARC
  5
17C
330
1F
100
AcDbEntity
  8
0
  6
Continuous
 62
     7
370
    25
100
AcDbCircle
 10
277.742484176
 20
24.2230541793
 30
0.0
 40
3.448375977239778
100
AcDbArc
 50
269.320216496
 51
302.0875950771
  0
LINE
  5
17D
330
1F
100
AcDbEntity
  8
0
  6
Continuous
 62
     7
370
    25
100
AcDbLine
 10
281.5897709148
 20
23.1155220616
 30
0.0
 11
281.1312553498
 21
23.380217463
 31
0.0
  0
LINE
  5
17E
330
1F
100
AcDbEntity
  8
0
  6
Continuous
 62
     7
370
    25
100
AcDbLine
 10
283.2345335679
 20
26.3895871897
 30
0.0
 11
282.6976722799
 21
26.6995106144
 31
0.0
  0
ARC
  5
17F
330
1F
100
AcDbEntity
  8
0
  6
Continuous
 62
     7
370
    25
100
AcDbCircle
 10
280.585955508
 20
28.2928178986
 30
0.0
 40
2.880380419658041
100
AcDbArc
 50
356.8127998885
 51
47.2561343249
  0
LINE
  5
180
330
1F
100
AcDbEntity
  8
0
  6
Continuous
 62
     7
370
    25
100
AcDbLine
 10
282.5409334187
 20
30.4081553967
 30
0.0
 11
280.4243397599
 21
31.6300389074
 31
0.0
  0
LWPOLYLINE
  5
181
330
1F
100
AcDbEntity
  8
0
  6
Continuous
 62
     7
370
    25
100
AcDbPolyline
 90
       17
 70
   128
 43
0.0
 10
269.8910714907
 20
25.5916683454
 10
269.7034999048
 20
26.2588386144
 10
269.6388479563
 20
27.0231827038
 10
269.6991936823
 20
27.8601338937
 10
269.8825979985
 20
28.7427922835
 10
270.1831656145
 20
29.6427879768
 10
270.5912366701
 20
30.53119506
 10
271.0936946052
 20
31.3794585266
 10
271.6743905912
 20
32.1603153962
 10
272.3146604891
 20
32.848667772
 10
272.9939253592
 20
33.4223911092
 10
273.6903531442
 20
33.8630462373
 10
274.3815601324
 20
34.1564698587
 10
275.0453302734
 20
34.2932308664
 10
275.6603295136
 20
34.2689339748
 10
276.206791228
 20
34.084359515
 10
276.2776929286
 20
34.0454868394
  0
ARC
  5
182
330
1F
100
AcDbEntity
  8
0
  6
Continuous
 62
     7
370
    25
100
AcDbCircle
 10
271.8458642262
 20
26.3050210088
 30
0.0
 40
2.080886027957954
100
AcDbArc
 50
200.0482881039
 51
239.1287661563
  0
ARC
  5
183
330
1F
100
AcDbEntity
  8
0
  6
Continuous
 62
     7
370
    25
100
AcDbCircle
 10
280.7165114586
 20
28.0831743688
 30
0.0
 40
2.747259097716888
100
AcDbArc
 50
357.4617596289
 51
46.6071567544
  0
LINE
  5
184
330
1F
100
AcDbEntity
  8
0
  6
Continuous
 62
     7
370
    25
100
AcDbLine
 10
282.8302468383
 20
27.7159882824
 30
0.0
 11
283.4610751836
 21
27.9615088052
 31
0.0
  0
LINE
  5
185
330
1F
100
AcDbEntity
  8
0
  6
Continuous
 62
     7
370
    25
100
AcDbLine
 10
282.602900152
 20
25.9729024316
 30
0.0
 11
282.8302468383
 21
27.7159882824
 31
0.0
  0
LINE
  5
186
330
1F
100
AcDbEntity
  8
0
  6
Continuous
 62
     7
370
    25
100
AcDbLine
 10
282.602900152
 20
25.9729024316
 30
0.0
 11
283.2337284973
 21
26.2184229425
 31
0.0
  0
ARC
  5
187
330
1F
100
AcDbEntity
  8
0
  6
Continuous
 62
     7
370
    25
100
AcDbCircle
 10
274.7433475055
 20
28.5753918585
 30
0.0
 40
8.811462526466736
100
AcDbArc
 50
322.168558909
 51
344.4851003926
  0
LINE
  5
188
330
1F
100
AcDbEntity
  8
0
  6
Continuous
 62
     7
370
    25
100
AcDbLine
 10
281.4763718554
 20
23.7304349155
 30
0.0
 11
281.7028041527
 21
23.1709645038
 31
0.0
  0
LINE
  5
189
330
1F
100
AcDbEntity
  8
0
  6
Continuous
 62
     7
370
    25
100
AcDbLine
 10
280.1538827745
 20
22.3884169113
 30
0.0
 11
281.4763718554
 21
23.7304349155
 31
0.0
  0
LINE
  5
18A
330
1F
100
AcDbEntity
  8
0
  6
Continuous
 62
     7
370
    25
100
AcDbLine
 10
280.1538827745
 20
22.3884169113
 30
0.0
 11
280.3803150717
 21
21.8289464997
 31
0.0
  0
ARC
  5
18B
330
1F
100
AcDbEntity
  8
0
  6
Continuous
 62
     7
370
    25
100
AcDbCircle
 10
277.8884991074
 20
24.6985888198
 30
0.0
 40
3.800525469612912
100
AcDbArc
 50
271.5633353972
 51
310.9689835432
  0
LINE
  5
18C
330
1F
100
AcDbEntity
  8
0
  6
Continuous
 62
     7
370
    25
100
AcDbLine
 10
278.3965809564
 20
21.7044689122
 30
0.0
 11
277.9921849084
 21
20.8994779896
 31
0.0
  0
LINE
  5
18D
330
1F
100
AcDbEntity
  8
0
  6
Continuous
 62
     7
370
    25
100
AcDbLine
 10
277.3014388911
 20
22.105536949
 30
0.0
 11
278.3965809564
 21
21.7044689122
 31
0.0
  0
LINE
  5
18E
330
1F
100
AcDbEntity
  8
0
  6
Continuous
 62
     7
370
    25
100
AcDbLine
 10
277.3014388911
 20
22.105536949
 30
0.0
 11
276.8970426784
 21
21.3005459314
 31
0.0
  0
ARC
  5
18F
330
1F
100
AcDbEntity
  8
0
  6
Continuous
 62
     7
370
    25
100
AcDbCircle
 10
278.7844007494
 20
23.2968705698
 30
0.0
 40
2.747259097716717
100
AcDbArc
 50
177.4617596289
 51
226.6071567544
  0
LINE
  5
190
330
1F
100
AcDbEntity
  8
0
  6
Continuous
 62
     7
370
    25
100
AcDbLine
 10
276.6706653696
 20
23.6640566562
 30
0.0
 11
276.0398370244
 21
23.4185361333
 31
0.0
  0
LINE
  5
191
330
1F
100
AcDbEntity
  8
0
  6
Continuous
 62
     7
370
    25
100
AcDbLine
 10
276.8980120559
 20
25.407142507
 30
0.0
 11
276.6706653696
 21
23.6640566562
 31
0.0
  0
LINE
  5
192
330
1F
100
AcDbEntity
  8
0
  6
Continuous
 62
     7
370
    25
100
AcDbLine
 10
276.8980120559
 20
25.407142507
 30
0.0
 11
276.2671837107
 21
25.161621996
 31
0.0
  0
ARC
  5
193
330
1F
100
AcDbEntity
  8
0
  6
Continuous
 62
     7
370
    25
100
AcDbCircle
 10
284.7575647024
 20
22.8046530801
 30
0.0
 40
8.811462526466965
100
AcDbArc
 50
142.168558909
 51
164.4851003926
  0
LINE
  5
194
330
1F
100
AcDbEntity
  8
0
  6
Continuous
 62
     7
370
    25
100
AcDbLine
 10
278.0245403525
 20
27.6496100231
 30
0.0
 11
277.7981080553
 21
28.2090804348
 31
0.0
  0
LINE
  5
195
330
1F
100
AcDbEntity
  8
0
  6
Continuous
 62
     7
370
    25
100
AcDbLine
 10
279.3470294335
 20
28.9916280272
 30
0.0
 11
278.0245403525
 21
27.6496100231
 31
0.0
  0
LINE
  5
196
330
1F
100
AcDbEntity
  8
0
  6
Continuous
 62
     7
370
    25
100
AcDbLine
 10
279.3470294335
 20
28.9916280272
 30
0.0
 11
279.1205971362
 21
29.5510984389
 31
0.0
  0
ARC
  5
197
330
1F
100
AcDbEntity
  8
0
  6
Continuous
 62
     7
370
    25
100
AcDbCircle
 10
281.6124131005
 20
26.6814561188
 30
0.0
 40
3.80052546961242
100
AcDbArc
 50
91.5633353972
 51
130.9689835432
  0
LINE
  5
198
330
1F
100
AcDbEntity
  8
0
  6
Continuous
 62
     7
370
    25
100
AcDbLine
 10
281.1043312515
 20
29.6755760263
 30
0.0
 11
281.5087272995
 21
30.480566949
 31
0.0
  0
LINE
  5
199
330
1F
100
AcDbEntity
  8
0
  6
Continuous
 62
     7
370
    25
100
AcDbLine
 10
282.1994733169
 20
29.2745079895
 30
0.0
 11
281.1043312515
 21
29.6755760263
 31
0.0
  0
LINE
  5
19A
330
1F
100
AcDbEntity
  8
0
  6
Continuous
 62
     7
370
    25
100
AcDbLine
 10
282.1994733169
 20
29.2745079895
 30
0.0
 11
282.6038695295
 21
30.0794990072
 31
0.0
  0
LWPOLYLINE
  5
19B
330
1F
100
AcDbEntity
  8
0
  6
Continuous
 62
     7
370
    25
100
AcDbPolyline
 90
       27
 70
   128
 43
0.0
 10
277.6510048526
 20
23.5595687974
 10
277.5216660527
 20
24.0917815249
 10
277.5218565367
 20
24.7168782488
 10
277.6515649447
 20
25.3985304697
 10
277.9032534117
 20
26.0971231984
 10
278.2622946763
 20
26.7720568838
 10
278.7078223441
 20
27.384106479
 10
279.2139441327
 20
27.8977020746
 10
279.7512460502
 20
28.2829953518
 10
280.2885020723
 20
28.5175946634
 10
280.794488777
 20
28.5878654539
 10
281.239800113
 20
28.4897242886
 10
281.5985562278
 20
28.2288746676
 10
281.8499073553
 20
27.8204761411
 10
281.9792461552
 20
27.2882634137
 10
281.9790556712
 20
26.6631666897
 10
281.8493472632
 20
25.9815144689
 10
281.5976587962
 20
25.2829217402
 10
281.2386175317
 20
24.6079880548
 10
280.7930898638
 20
23.9959384595
 10
280.2869680752
 20
23.4823428639
 10
279.7496661577
 20
23.0970495867
 10
279.2124101356
 20
22.8624502751
 10
278.7064234309
 20
22.7921794847
 10
278.261112095
 20
22.8903206499
 10
277.9023559802
 20
23.1511702709
 10
277.6510048526
 20
23.5595687974
  0
LINE
  5
19C
330
1F
100
AcDbEntity
  8
0
  6
Continuous
 62
     7
370
    25
100
AcDbLine
 10
277.7981080553
 20
28.2090804348
 30
0.0
 11
277.5575924544
 21
28.4686222772
 31
0.0
  0
LINE
  5
19D
330
1F
100
AcDbEntity
  8
0
  6
Continuous
 62
     7
370
    25
100
AcDbLine
 10
276.2671837107
 20
25.161621996
 30
0.0
 11
275.9128298013
 21
25.1945571491
 31
0.0
  0
LINE
  5
19E
330
1F
100
AcDbEntity
  8
0
  6
Continuous
 62
     7
370
    25
100
AcDbLine
 10
276.7634878766
 20
31.032523792
 30
0.0
 11
279.3470294335
 21
28.9916280272
 31
0.0
  0
LINE
  5
19F
330
1F
100
AcDbEntity
  8
0
  6
Continuous
 62
     7
370
    25
100
AcDbLine
 10
273.5688891269
 20
24.6733546426
 30
0.0
 11
276.6706653696
 21
23.6640566562
 31
0.0
  0
ARC
  5
1A0
330
1F
100
AcDbEntity
  8
0
  6
Continuous
 62
     7
370
    25
100
AcDbCircle
 10
274.6293786186
 20
28.6428981768
 30
0.0
 40
6.376559226163622
100
AcDbArc
 50
300.7649811046
 51
359.8356454144
  0
LWPOLYLINE
  5
1A1
330
1F
100
AcDbEntity
  8
0
  6
Continuous
 62
     7
370
    25
100
AcDbPolyline
 90
       14
 70
   128
 43
0.0
 10
281.1109489653
 20
28.5376881864
 10
281.1733893567
 20
28.4743182779
 10
281.4247404842
 20
28.0659197514
 10
281.5540792842
 20
27.5337070239
 10
281.5538888002
 20
26.9086103
 10
281.4241803921
 20
26.2269580791
 10
281.1724919252
 20
25.5283653504
 10
280.8134506606
 20
24.853431665
 10
280.3679229928
 20
24.2413820698
 10
279.8618012042
 20
23.7277864742
 10
279.3244992867
 20
23.342493197
 10
278.7872432645
 20
23.1078938854
 10
278.2812565599
 20
23.037623095
 10
277.9647958777
 20
23.0878007068
  0
LINE
  5
1A2
330
1F
100
AcDbEntity
  8
0
  6
Continuous
 62
     7
370
    25
100
AcDbLine
 10
279.1205971362
 20
29.5510984389
 30
0.0
 11
278.8800815354
 21
29.8106402813
 31
0.0
  0
LINE
  5
1A3
330
1F
100
AcDbEntity
  8
0
  6
Continuous
 62
     7
370
    25
100
AcDbLine
 10
281.5087272995
 20
30.480566949
 30
0.0
 11
281.4457913533
 21
30.8092234335
 31
0.0
  0
ARC
  5
1A4
330
1F
100
AcDbEntity
  8
0
  6
Continuous
 62
     7
370
    25
100
AcDbCircle
 10
271.8337291543
 20
30.2602514538
 30
0.0
 40
8.19650313269054
100
AcDbArc
 50
313.7897692568
 51
346.2156091227
  0
SPLINE
  5
1A5
330
1F
100
AcDbEntity
  8
0
  6
Continuous
 62
     7
370
    25
100
AcDbSpline
210
0.0
220
0.0
230
1.0
 70
     8
 71
     3
 72
    11
 73
     7
 74
     0
 42
0.000000001
 43
0.00000001
 40
0.0
 40
0.0
 40
0.0
 40
0.0
 40
0.1817241414847899
 40
0.4456929222526409
 40
0.7081340636743743
 40
1.0
 40
1.0
 40
1.0
 40
1.0
 10
280.7640920911896
 20
28.61702313201675
 30
0.0
 10
280.7844154068763
 20
28.37741570677933
 30
0.0
 10
280.8342599563359
 20
27.78975942360773
 30
0.0
 10
280.5309106614166
 20
26.70827138025473
 30
0.0
 10
279.91790688555
 20
25.50084415027435
 30
0.0
 10
279.3264588558413
 20
24.83576270877692
 30
0.0
 10
279.0150366497954
 20
24.48556942161143
 30
0.0
  0
SPLINE
  5
1A6
330
1F
100
AcDbEntity
  8
0
  6
Continuous
 62
     7
370
    25
100
AcDbSpline
210
0.0
220
0.0
230
1.0
 70
     8
 71
     3
 72
     9
 73
     5
 74
     0
 42
0.000000001
 43
0.00000001
 40
0.0
 40
0.0
 40
0.0
 40
0.0
 40
0.3234169583565414
 40
1.0
 40
1.0
 40
1.0
 40
1.0
 10
278.6182899255162
 20
24.08296398235495
 30
0.0
 10
278.5302732023921
 20
23.99371425472986
 30
0.0
 10
278.2581269192432
 20
23.71775554162265
 30
0.0
 10
277.972450288148
 20
23.5366978019324
 30
0.0
 10
277.7791663241551
 20
23.41419720569971
 30
0.0
  0
SPLINE
  5
1A7
330
1F
100
AcDbEntity
  8
0
  6
Continuous
 62
     7
370
    25
100
AcDbSpline
210
0.0
220
0.0
230
1.0
 70
     8
 71
     3
 72
     9
 73
     5
 74
     0
 42
0.000000001
 43
0.00000001
 40
0.0
 40
0.0
 40
0.0
 40
0.0
 40
0.4999999999999999
 40
0.9999999999999999
 40
0.9999999999999999
 40
0.9999999999999999
 40
0.9999999999999999
 10
279.0150366497954
 20
24.48556942161143
 30
0.0
 10
278.9484854589077
 20
24.41871486500339
 30
0.0
 10
278.8153830771323
 20
24.28500575178731
 30
0.0
 10
278.6839876427215
 20
24.1503112388324
 30
0.0
 10
278.6182899255162
 20
24.08296398235495
 30
0.0
  0
LINE
  5
1A8
330
1F
100
AcDbEntity
  8
0
  6
Continuous
 62
     7
370
    25
100
AcDbLine
 10
276.0398370244
 20
23.4185361333
 30
0.0
 11
275.6854827857
 21
23.4514711319
 31
0.0
  0
LINE
  5
1A9
330
1F
100
AcDbEntity
  8
0
  6
Continuous
 62
     7
370
    25
100
AcDbLine
 10
276.8970426784
 20
21.3005459314
 30
0.0
 11
276.6064299505
 21
21.1759889421
 31
0.0
  0
LWPOLYLINE
  5
1AA
330
1F
100
AcDbEntity
  8
0
  6
Continuous
 62
     7
370
    25
100
AcDbPolyline
 90
        3
 70
   128
 43
0.0
 10
278.3164394648
 20
24.2572185442
 10
277.7257663854
 20
23.7421081861
 10
277.6133723061
 20
23.6619756633
  0
LINE
  5
1AB
330
1F
100
AcDbEntity
  8
0
  6
Continuous
 62
     7
370
    25
100
AcDbLine
 10
280.4243397599
 20
31.6300389074
 30
0.0
 11
280.7326666765
 21
31.2209013226
 31
0.0
  0
LINE
  5
1AC
330
1F
100
AcDbEntity
  8
0
  6
Continuous
 62
     7
370
    25
100
AcDbLine
 10
281.4214744328
 20
30.3068808151
 30
0.0
 11
282.1994733169
 21
29.2745079895
 31
0.0
  0
ARC
  5
1AD
330
1F
100
AcDbEntity
  8
0
  6
Continuous
 62
     7
370
    25
100
AcDbCircle
 10
274.5612710342
 20
28.8767421088
 30
0.0
 40
5.917837267927185
100
AcDbArc
 50
314.554977278
 51
356.9443868367
  0
ARC
  5
1AE
330
1F
100
AcDbEntity
  8
0
  6
Continuous
 62
     7
370
    25
100
AcDbCircle
 10
277.328112372
 20
27.0884114006
 30
0.0
 40
7.694207685864873
100
AcDbArc
 50
122.0554714176
 51
177.9499025311
  0
LINE
  5
1AF
330
1F
100
AcDbEntity
  8
0
  6
Continuous
 62
     7
370
    25
100
AcDbLine
 10
277.1643226805
 20
21.8325930333
 30
0.0
 11
278.3965809564
 21
21.7044689122
 31
0.0
  0
LINE
  5
1B0
330
1F
100
AcDbEntity
  8
0
  6
Continuous
 62
     7
370
    25
100
AcDbLine
 10
282.6038695295
 20
30.0794990072
 30
0.0
 11
282.5409334187
 21
30.4081553967
 31
0.0
  0
LINE
  5
1B1
330
1F
100
AcDbEntity
  8
0
  6
Continuous
 62
     7
370
    25
100
AcDbLine
 10
283.4610751836
 20
27.9615088052
 30
0.0
 11
283.4618805835
 21
28.1326732069
 31
0.0
  0
LINE
  5
1B2
330
1F
100
AcDbEntity
  8
0
  6
Continuous
 62
     7
370
    25
100
AcDbLine
 10
277.9921849084
 20
20.8994779896
 30
0.0
 11
277.7015720158
 21
20.7749209052
 31
0.0
  0
LINE
  5
1B3
330
1F
100
AcDbEntity
  8
0
  6
Continuous
 62
     7
370
    25
100
AcDbLine
 10
283.2337284973
 20
26.2184229425
 30
0.0
 11
283.2345335679
 21
26.3895871897
 31
0.0
  0
SPLINE
  5
1B4
330
1F
100
AcDbEntity
  8
0
  6
Continuous
 62
     7
370
    25
100
AcDbSpline
210
0.0
220
0.0
230
1.0
 70
     8
 71
     3
 72
     9
 73
     5
 74
     0
 42
0.000000001
 43
0.00000001
 40
0.0
 40
0.0
 40
0.0
 40
0.0
 40
0.6252429018141944
 40
1.0
 40
1.0
 40
1.0
 40
1.0
 10
281.7028041526537
 20
23.17096450378525
 30
0.0
 10
281.679261233157
 20
23.15939382135484
 30
0.0
 10
281.6416071959364
 20
23.14088792165277
 30
0.0
 10
281.6039014214067
 20
23.12243676390301
 30
0.0
 10
281.5897709147591
 20
23.11552206156652
 30
0.0
  0
LINE
  5
1B5
330
1F
100
AcDbEntity
  8
0
  6
Continuous
 62
     7
370
    25
100
AcDbLine
 10
278.7131861891
 20
24.6598239834
 30
0.0
 11
278.3164394648
 21
24.2572185442
 31
0.0
  0
LWPOLYLINE
  5
1B6
330
1F
100
AcDbEntity
  8
0
  6
Continuous
 62
     7
370
    25
100
AcDbPolyline
 90
       16
 70
   128
 43
0.0
 10
249.3271881457
 20
48.7646518462
 10
248.5415829903
 20
48.2359598866
 10
247.7774070377
 20
47.5713458171
 10
247.0555051151
 20
46.7889385906
 10
246.3955689379
 20
45.9100802236
 10
245.8155993264
 20
44.9587434754
 10
245.3314169893
 20
43.9608787031
 10
244.9562287073
 20
42.9437048665
 10
244.7002689206
 20
41.9349678245
 10
244.5705195182
 20
40.9621833688
 10
244.5705195182
 20
40.0518863791
 10
244.7002689206
 20
39.2289073946
 10
244.9562287073
 20
38.5156952319
 10
245.3314169893
 20
37.9317045651
 10
245.8155993264
 20
37.4928648201
 10
246.3055814651
 20
37.2421094376
  0
LWPOLYLINE
  5
1B7
330
1F
100
AcDbEntity
  8
0
  6
Continuous
 62
     7
370
    25
100
AcDbPolyline
 90
        7
 70
   128
 43
0.0
 10
253.0213544786
 20
48.8756554196
 10
252.8387769651
 20
49.013137626
 10
252.2588073536
 20
49.294855714
 10
251.5988711764
 20
49.4117679893
 10
250.8769692538
 20
49.3606849973
 10
250.1127933012
 20
49.1430002923
 10
249.3271881457
 20
48.7646518462
  0
SPLINE
  5
1B8
330
1F
100
AcDbEntity
  8
0
  6
Continuous
 62
     7
370
    25
100
AcDbSpline
210
0.0
220
0.0
230
1.0
 70
     8
 71
     3
 72
    14
 73
    10
 74
     0
 42
0.000000001
 43
0.00000001
 40
0.0
 40
0.0
 40
0.0
 40
0.0
 40
0.25
 40
0.25
 40
0.5
 40
0.5
 40
0.75
 40
0.75
 40
1.0
 40
1.0
 40
1.0
 40
1.0
 10
216.5353425149862
 20
47.1828287089786
 30
0.0
 10
216.4886788088452
 20
47.15589032482308
 30
0.0
 10
216.4324743915384
 20
47.13383811914406
 30
0.0
 10
216.3112414190677
 20
47.10372712705301
 30
0.0
 10
216.2449475722863
 20
47.09533752593618
 30
0.0
 10
216.1127189769082
 20
47.09385236810878
 30
0.0
 10
216.0461967013581
 20
47.10067893635914
 30
0.0
 10
215.9226474773237
 20
47.12905538786605
 30
0.0
 10
215.8664050003539
 20
47.15032442328935
 30
0.0
 10
215.8191677795465
 20
47.17759389041452
 30
0.0
  0
SPLINE
  5
1B9
330
1F
100
AcDbEntity
  8
0
  6
Continuous
 62
     7
370
    25
100
AcDbSpline
210
0.0
220
0.0
230
1.0
 70
     8
 71
     3
 72
    14
 73
    10
 74
     0
 42
0.000000001
 43
0.00000001
 40
0.0
 40
0.0
 40
0.0
 40
0.0
 40
0.25
 40
0.25
 40
0.5
 40
0.5
 40
0.75
 40
0.75
 40
1.0
 40
1.0
 40
1.0
 40
1.0
 10
244.1476309356262
 20
74.94281848556884
 30
0.0
 10
244.2009271837819
 20
74.91205121640827
 30
0.0
 10
244.2541709169696
 20
74.86248932563275
 30
0.0
 10
244.3449739942266
 20
74.74592617410866
 30
0.0
 10
244.3833020809404
 20
74.67903506341764
 30
0.0
 10
244.443658497169
 20
74.54168511226024
 30
0.0
 10
244.4651280061817
 20
74.47344505853697
 30
0.0
 10
244.4942275607836
 20
74.33765610886731
 30
0.0
 10
244.5011843262195
 20
74.27283010112765
 30
0.0
 10
244.5011843262195
 20
74.21112280907761
 30
0.0
  0
LINE
  5
1BA
330
1F
100
AcDbEntity
  8
0
  6
Continuous
 62
     7
370
    25
100
AcDbLine
 10
215.8191673203
 20
47.1775935937
 30
0.0
 11
214.1617194536
 21
48.1344178806
 31
0.0
  0
LWPOLYLINE
  5
1BB
330
1F
100
AcDbEntity
  8
0
  6
Continuous
 62
     7
370
    25
100
AcDbPolyline
 90
       25
 70
   128
 43
0.0
 10
214.1617194536
 20
48.1344178806
 10
214.5511918952
 20
50.0228392131
 10
215.0607854893
 20
51.9367430323
 10
215.6868677043
 20
53.8624896363
 10
216.4249788768
 20
55.7863549895
 10
217.2698572363
 20
57.6946292003
 10
218.2154810516
 20
59.5737104339
 10
219.2551120955
 20
61.4102083316
 10
220.3813410836
 20
63.1910348815
 10
221.5861416755
 20
64.9034987111
 10
222.8609271094
 20
66.535394056
 10
224.1966134222
 20
68.0750935306
 10
225.5836806947
 20
69.5116215067
 10
227.0122441737
 20
70.8347423209
 10
228.4721227612
 20
72.0350256678
 10
229.9529119477
 20
73.1039176012
 10
231.4440589693
 20
74.0337991307
 10
232.9349368108
 20
74.8180456729
 10
234.4149202682
 20
75.4510648776
 10
235.8734623395
 20
75.9283498531
 10
237.3001680645
 20
76.2464944159
 10
238.6848698451
 20
76.4032350516
 10
240.0176987333
 20
76.3974525244
 10
241.2891572004
 20
76.229189551
 10
242.4901836737
 20
75.8996424294
  0
LINE
  5
1BC
330
1F
100
AcDbEntity
  8
0
  6
Continuous
 62
     7
370
    25
100
AcDbLine
 10
242.4901836737
 20
75.8996424294
 30
0.0
 11
244.1476315404
 21
74.9428181425
 31
0.0
  0
LINE
  5
1BD
330
1F
100
AcDbEntity
  8
0
  6
Continuous
 62
     7
370
    25
100
AcDbLine
 10
248.9382800767
 20
65.4803758275
 30
0.0
 11
250.3767967975
 21
66.3108138539
 31
0.0
  0
LINE
  5
1BE
330
1F
100
AcDbEntity
  8
0
  6
Continuous
 62
     7
370
    25
100
AcDbLine
 10
248.9382800767
 20
57.3149678911
 30
0.0
 11
248.9382800767
 21
65.4803758275
 31
0.0
  0
LINE
  5
1BF
330
1F
100
AcDbEntity
  8
0
  6
Continuous
 62
     7
370
    25
100
AcDbLine
 10
250.3767967975
 20
58.1454059176
 30
0.0
 11
248.9382800767
 21
57.3149678911
 31
0.0
  0
LINE
  5
1C0
330
1F
100
AcDbEntity
  8
0
  6
Continuous
 62
     7
370
    25
100
AcDbLine
 10
216.5353430338
 20
38.2008800279
 30
0.0
 11
217.896291114
 21
38.9865386314
 31
0.0
  0
LINE
  5
1C1
330
1F
100
AcDbEntity
  8
0
  6
Continuous
 62
     7
370
    25
100
AcDbLine
 10
217.896291114
 20
38.9865386314
 30
0.0
 11
217.896291114
 21
47.9684875134
 31
0.0
  0
LINE
  5
1C2
330
1F
100
AcDbEntity
  8
0
  6
Continuous
 62
     7
370
    25
100
AcDbLine
 10
217.896291114
 20
47.9684875134
 30
0.0
 11
216.5353430338
 21
47.18282891
 31
0.0
  0
LINE
  5
1C3
330
1F
100
AcDbEntity
  8
0
  6
Continuous
 62
     7
370
    25
100
AcDbLine
 10
244.501184989
 20
74.2111236573
 30
0.0
 11
244.501184989
 21
71.6354693052
 31
0.0
  0
LINE
  5
1C4
330
1F
100
AcDbEntity
  8
0
  6
Continuous
 62
     7
370
    25
100
AcDbLine
 10
246.7316462616
 20
72.9230871901
 30
0.0
 11
244.501184989
 21
71.6354693052
 31
0.0
  0
LWPOLYLINE
  5
1C5
330
1F
100
AcDbEntity
  8
0
  6
Continuous
 62
     7
370
    25
100
AcDbPolyline
 90
       22
 70
   128
 43
0.0
 10
213.182933971
 20
49.68062032
 10
213.5955344958
 20
51.5908202802
 10
214.1357332873
 20
53.5254769215
 10
214.7992181962
 20
55.4691441263
 10
215.5806945246
 20
57.4063059064
 10
216.4739192705
 20
59.3214935116
 10
217.4717643482
 20
61.1994185043
 10
218.5662600521
 20
63.0250853041
 10
219.7486707893
 20
64.7839216001
 10
221.0095550072
 20
66.4618821484
 10
222.3388461943
 20
68.0455708188
 10
223.7259312475
 20
69.5223436301
 10
225.159735753
 20
70.8804112148
 10
226.6288132194
 20
72.1089298758
 10
228.1214339812
 20
73.1980924534
 10
229.6256812795
 20
74.1392020428
 10
231.1295456032
 20
74.9247462281
 10
232.6210200037
 20
75.5484521062
 10
234.0881969107
 20
76.0053406568
 10
235.5193629576
 20
76.2917632322
 10
236.9030907509
 20
76.4054332423
 10
238.1142364191
 20
76.3576997907
  0
SPLINE
  5
1C6
330
1F
100
AcDbEntity
  8
0
  6
Continuous
 62
     7
370
    25
100
AcDbSpline
210
0.0
220
0.0
230
1.0
 70
     8
 71
     3
 72
     8
 73
     4
 74
     0
 42
0.000000001
 43
0.00000001
 40
0.0
 40
0.0
 40
0.0
 40
0.0
 40
1.0
 40
1.0
 40
1.0
 40
1.0
 10
213.182934153883
 20
49.68062060341822
 30
0.0
 10
212.7403978000376
 20
49.60893407298897
 30
0.0
 10
212.297788609986
 20
49.53739790738719
 30
0.0
 10
211.8551169037696
 20
49.46599175108249
 30
0.0
  0
LWPOLYLINE
  5
1C7
330
1F
100
AcDbEntity
  8
0
  6
Continuous
 62
     7
370
    25
100
AcDbPolyline
 90
       25
 70
   128
 43
0.0
 10
211.8551166064
 20
49.4659913609
 10
212.2445890481
 20
51.3544126934
 10
212.7541826422
 20
53.2683165126
 10
213.3802648572
 20
55.1940631166
 10
214.1183760297
 20
57.1179284699
 10
214.9632543891
 20
59.0262026806
 10
215.9088782045
 20
60.9052839143
 10
216.9485092483
 20
62.7417818119
 10
218.0747382365
 20
64.5226083618
 10
219.2795388284
 20
66.2350721914
 10
220.5543242622
 20
67.8669675363
 10
221.8900105751
 20
69.4066670109
 10
223.2770778476
 20
70.843194987
 10
224.7056413266
 20
72.1663158012
 10
226.165519914
 20
73.3665991481
 10
227.6463091006
 20
74.4354910815
 10
229.1374561222
 20
75.365372611
 10
230.6283339637
 20
76.1496191532
 10
232.108317421
 20
76.7826383579
 10
233.5668594924
 20
77.2599233334
 10
234.9935652174
 20
77.5780678962
 10
236.378266998
 20
77.7348085319
 10
237.7110958862
 20
77.7290260047
 10
238.9825543532
 20
77.5607630313
 10
240.1835808265
 20
77.2312159097
  0
LINE
  5
1C8
330
1F
100
AcDbEntity
  8
0
  6
Continuous
 62
     7
370
    25
100
AcDbLine
 10
240.1835808265
 20
77.2312159097
 30
0.0
 11
240.4797559507
 21
76.2873077301
 31
0.0
  0
LWPOLYLINE
  5
1C9
330
1F
100
AcDbEntity
  8
0
  6
Continuous
 62
     7
370
    25
100
AcDbPolyline
 90
       12
 70
   128
 43
0.0
 10
223.674830725
 20
78.8370536125
 10
223.7289047612
 20
78.8670577113
 10
225.206511161
 20
79.6127117456
 10
226.6711566229
 20
80.2084808296
 10
228.1125673174
 20
80.6501876354
 10
229.5206332693
 20
80.9347334647
 10
230.8854772988
 20
81.0601213182
 10
232.1975264737
 20
81.0254728091
 10
233.4475776344
 20
80.8310310082
 10
234.6268622608
 20
80.4781598681
 10
235.7271083753
 20
79.9693328101
 10
235.8576753607
 20
79.8955168746
  0
LWPOLYLINE
  5
1CA
330
1F
100
AcDbEntity
  8
0
  6
Continuous
 62
     7
370
    25
100
AcDbPolyline
 90
       10
 70
   128
 43
0.0
 10
210.8597077935
 20
36.5930735123
 10
210.4722254734
 20
36.8310800026
 10
209.5048170057
 20
37.5668106391
 10
208.6345846827
 20
38.4475798072
 10
207.8676318949
 20
39.4672081733
 10
207.2093363168
 20
40.6185438398
 10
206.6643182965
 20
41.8935125386
 10
206.2363987094
 20
43.2831697268
 10
205.9285792013
 20
44.77776827
 10
205.7736855818
 20
46.0052885428
  0
LINE
  5
1CB
330
1F
100
AcDbEntity
  8
0
  6
Continuous
 62
     7
370
    25
100
AcDbLine
 10
236.015903541
 20
79.6371647946
 30
0.0
 11
240.1835808265
 21
77.2312159097
 31
0.0
  0
LINE
  5
1CC
330
1F
100
AcDbEntity
  8
0
  6
Continuous
 62
     7
370
    25
100
AcDbLine
 10
211.8551166064
 20
49.4659913609
 30
0.0
 11
211.2229731478
 21
49.8309200119
 31
0.0
  0
SPLINE
  5
1CD
330
1F
100
AcDbEntity
  8
0
  6
Continuous
 62
     7
370
    25
100
AcDbSpline
210
0.0
220
0.0
230
1.0
 70
     8
 71
     3
 72
    30
 73
    26
 74
     0
 42
0.000000001
 43
0.00000001
 40
0.0
 40
0.0
 40
0.0
 40
0.0
 40
0.1250000000000006
 40
0.1250000000000006
 40
0.187500000000001
 40
0.187500000000001
 40
0.2500000000000013
 40
0.2500000000000013
 40
0.3750000000000014
 40
0.3750000000000014
 40
0.4375000000000014
 40
0.4375000000000014
 40
0.5000000000000013
 40
0.5000000000000013
 40
0.625000000000001
 40
0.625000000000001
 40
0.6875000000000009
 40
0.6875000000000009
 40
0.7500000000000007
 40
0.7500000000000007
 40
0.8125000000000006
 40
0.8125000000000006
 40
0.8750000000000004
 40
0.8750000000000004
 40
1.0
 40
1.0
 40
1.0
 40
1.0
 10
211.2229737018339
 20
49.83092025383834
 30
0.0
 10
210.9886580682273
 20
49.96618778986897
 30
0.0
 10
210.7531575916986
 20
50.06945031879833
 30
0.0
 10
210.3986071443089
 20
50.1786930565621
 30
0.0
 10
210.2802128809099
 20
50.20744601855881
 30
0.0
 10
210.0431582358597
 20
50.2493991832085
 30
0.0
 10
209.9243383246238
 20
50.26250431811061
 30
0.0
 10
209.5756944406476
 20
50.27775570712492
 30
0.0
 10
209.3509295980057
 20
50.25667694568292
 30
0.0
 10
209.0267189504019
 20
50.17967389380723
 30
0.0
 10
208.9203028744907
 20
50.14616528877401
 30
0.0
 10
208.7149936445182
 20
50.06462694265038
 30
0.0
 10
208.6163989140105
 20
50.01682133754905
 30
0.0
 10
208.3329009202115
 20
49.85315412799614
 30
0.0
 10
208.1601579465413
 20
49.71724203151956
 30
0.0
 10
207.9280331480453
 20
49.47287089461448
 30
0.0
 10
207.8557191622193
 20
49.38505380940683
 30
0.0
 10
207.7234008481496
 20
49.19967324046655
 30
0.0
 10
207.6630469094289
 20
49.10175224042624
 30
0.0
 10
207.5540837752858
 20
48.89566438972199
 30
0.0
 10
207.5054739501876
 20
48.78749758287773
 30
0.0
 10
207.420438134293
 20
48.56080786937098
 30
0.0
 10
207.383887255118
 20
48.44166744164821
 30
0.0
 10
207.2948929780251
 20
48.07368311319409
 30
0.0
 10
207.262556421045
 20
47.81445798789741
 30
0.0
 10
207.2578705147481
 20
47.54125140646725
 30
0.0
  0
ARC
  5
1CE
330
1F
100
AcDbEntity
  8
0
  6
Continuous
 62
     7
370
    25
100
AcDbCircle
 10
230.8205481355
 20
47.1329811405
 30
0.0
 40
23.56621418180772
100
AcDbArc
 50
179.0073355702
 51
180.9926644298
  0
SPLINE
  5
1CF
330
1F
100
AcDbEntity
  8
0
  6
Continuous
 62
     7
370
    25
100
AcDbSpline
210
0.0
220
0.0
230
1.0
 70
     8
 71
     3
 72
    30
 73
    26
 74
     0
 42
0.000000001
 43
0.00000001
 40
0.0
 40
0.0
 40
0.0
 40
0.0
 40
0.1249999999999998
 40
0.1249999999999998
 40
0.1874999999999997
 40
0.1874999999999997
 40
0.2499999999999996
 40
0.2499999999999996
 40
0.3749999999999996
 40
0.3749999999999996
 40
0.4374999999999998
 40
0.4374999999999998
 40
0.5
 40
0.5
 40
0.6250000000000002
 40
0.6250000000000002
 40
0.6875000000000002
 40
0.6875000000000002
 40
0.7500000000000001
 40
0.7500000000000001
 40
0.8125000000000001
 40
0.8125000000000001
 40
0.8750000000000001
 40
0.8750000000000001
 40
1.0
 40
1.0
 40
1.0
 40
1.0
 10
207.2578705147481
 20
46.72471059458151
 30
0.0
 10
207.2625567614069
 20
46.45689479394979
 30
0.0
 10
207.2948662817256
 20
46.18317862896438
 30
0.0
 10
207.3825243370942
 20
45.76393048176897
 30
0.0
 10
207.4183185084077
 20
45.62272006307666
 30
0.0
 10
207.5031791232601
 20
45.33721944808451
 30
0.0
 10
207.5524317711738
 20
45.19263438325348
 30
0.0
 10
207.7166361073432
 20
44.76354211410187
 30
0.0
 10
207.8486885654036
 20
44.48056929861804
 30
0.0
 10
208.0787391329225
 20
44.0595653878809
 30
0.0
 10
208.1612021714164
 20
43.91916031800711
 30
0.0
 10
208.3349539066355
 20
43.64249602391287
 30
0.0
 10
208.4257554984692
 20
43.5069114748665
 30
0.0
 10
208.7091499707005
 20
43.10781440810685
 30
0.0
 10
208.9126298453675
 20
42.85188746509967
 30
0.0
 10
209.2385378326163
 20
42.48226148506399
 30
0.0
 10
209.3502784480774
 20
42.36194263787847
 30
0.0
 10
209.5755825522148
 20
42.13110503974767
 30
0.0
 10
209.6897051996939
 20
42.01994244566812
 30
0.0
 10
209.9206149862582
 20
41.80586863649314
 30
0.0
 10
210.037402402267
 20
41.70295750975867
 30
0.0
 10
210.2734853647368
 20
41.50539934284345
 30
0.0
 10
210.3933627391266
 20
41.41032757023807
 30
0.0
 10
210.7518459942903
 20
41.14152249163549
 30
0.0
 10
210.9886546608536
 20
40.98424082616072
 30
0.0
 10
211.222973701834
 20
40.84897132309509
 30
0.0
  0
LINE
  5
1D0
330
1F
100
AcDbEntity
  8
0
  6
Continuous
 62
     7
370
    25
100
AcDbLine
 10
211.2229731478
 20
40.8489711298
 30
0.0
 11
211.8551166064
 21
40.4840424788
 31
0.0
  0
LWPOLYLINE
  5
1D1
330
1F
100
AcDbEntity
  8
0
  6
Continuous
 62
     7
370
    25
100
AcDbPolyline
 90
        9
 70
   128
 43
0.0
 10
217.8073039703
 20
32.7054216061
 10
216.9940357473
 20
33.0656607475
 10
215.944647708
 20
33.6996172021
 10
214.990137493
 20
34.4866923222
 10
214.1373895267
 20
35.4212124088
 10
213.3925519806
 20
36.4964338603
 10
212.7609998949
 20
37.7046055348
 10
212.2472864464
 20
39.0370113397
 10
211.8551166064
 20
40.4840424788
  0
LINE
  5
1D2
330
1F
100
AcDbEntity
  8
0
  6
Continuous
 62
     7
370
    25
100
AcDbLine
 10
242.13553309
 20
76.1038735295
 30
0.0
 11
242.4879439638
 21
75.9004310624
 31
0.0
  0
SPLINE
  5
1D3
330
1F
100
AcDbEntity
  8
0
  6
Continuous
 62
     7
370
    25
100
AcDbSpline
210
0.0
220
0.0
230
1.0
 70
     8
 71
     3
 72
    22
 73
    18
 74
     0
 42
0.000000001
 43
0.00000001
 40
0.0
 40
0.0
 40
0.0
 40
0.0
 40
0.2500000000000001
 40
0.2500000000000001
 40
0.3750000000000002
 40
0.3750000000000002
 40
0.5000000000000002
 40
0.5000000000000002
 40
0.6250000000000001
 40
0.6250000000000001
 40
0.7500000000000001
 40
0.7500000000000001
 40
0.875
 40
0.875
 40
0.9375
 40
0.9375
 40
1.0
 40
1.0
 40
1.0
 40
1.0
 10
236.0159029519809
 20
79.6371651285494
 30
0.0
 10
236.44793504752
 20
79.46889469044297
 30
0.0
 10
236.8983096958854
 20
79.25821868556274
 30
0.0
 10
237.6232831375696
 20
78.8731244493061
 30
0.0
 10
237.8752504612891
 20
78.73199891103033
 30
0.0
 10
238.3880425744213
 20
78.43298194181314
 30
0.0
 10
238.6495638864804
 20
78.27481610445733
 30
0.0
 10
239.187138568079
 20
77.94221616311984
 30
0.0
 10
239.4651011127418
 20
77.7665183517538
 30
0.0
 10
240.0177070314871
 20
77.41487543566045
 30
0.0
 10
240.2947029566585
 20
77.23749660653773
 30
0.0
 10
240.8528905365552
 20
76.88318618722515
 30
0.0
 10
241.123066625715
 20
76.71332834751271
 30
0.0
 10
241.5145339408114
 20
76.47275936253797
 30
0.0
 10
241.6427811709193
 20
76.3948914799896
 30
0.0
 10
241.8946428101008
 20
76.24428518449116
 30
0.0
 10
242.0175350439472
 20
76.17199234528022
 30
0.0
 10
242.1355337028066
 20
76.10387316947813
 30
0.0
  0
LINE
  5
1D4
330
1F
100
AcDbEntity
  8
0
  6
Continuous
 62
     7
370
    25
100
AcDbLine
 10
213.5040350047
 20
49.8659880011
 30
0.0
 11
213.182933971
 21
49.68062032
 31
0.0
  0
LINE
  5
1D5
330
1F
100
AcDbEntity
  8
0
  6
Continuous
 62
     7
370
    25
100
AcDbLine
 10
214.4646841716
 20
49.6475736928
 30
0.0
 11
214.0780296419
 21
49.8707846016
 31
0.0
  0
SPLINE
  5
1D6
330
1F
100
AcDbEntity
  8
0
  6
Continuous
 62
     7
370
    25
100
AcDbSpline
210
0.0
220
0.0
230
1.0
 70
     8
 71
     3
 72
    12
 73
     8
 74
     0
 42
0.000000001
 43
0.00000001
 40
0.0
 40
0.0
 40
0.0
 40
0.0
 40
0.250000000000003
 40
0.250000000000003
 40
0.500000000000006
 40
0.500000000000006
 40
1.0
 40
1.0
 40
1.0
 40
1.0
 10
214.0780298085752
 20
49.8707850812841
 30
0.0
 10
214.0406377709923
 20
49.89237104511053
 30
0.0
 10
213.9944894601373
 20
49.909811180133
 30
0.0
 10
213.8957896227548
 20
49.93226730844732
 30
0.0
 10
213.8422780564593
 20
49.93765361404795
 30
0.0
 10
213.683680636758
 20
49.9355724552378
 30
0.0
 10
213.5789665421401
 20
49.909245234747
 30
0.0
 10
213.5040347036134
 20
49.86598800512151
 30
0.0
  0
SPLINE
  5
1D7
330
1F
100
AcDbEntity
  8
0
  6
Continuous
 62
     7
370
    25
100
AcDbSpline
210
0.0
220
0.0
230
1.0
 70
    11
 71
     3
 72
    58
 73
    54
 74
     0
 42
0.000000001
 43
0.00000001
 40
0.0
 40
0.0
 40
0.0
 40
0.0
 40
0.0625000000000007
 40
0.0625000000000007
 40
0.1250000000000014
 40
0.1250000000000014
 40
0.1875000000000021
 40
0.1875000000000021
 40
0.2500000000000028
 40
0.2500000000000028
 40
0.2812500000000023
 40
0.2812500000000023
 40
0.3125000000000019
 40
0.3125000000000019
 40
0.3437500000000015
 40
0.3437500000000015
 40
0.3750000000000011
 40
0.3750000000000011
 40
0.4062500000000006
 40
0.4062500000000006
 40
0.4375000000000002
 40
0.4375000000000002
 40
0.4687499999999998
 40
0.4687499999999998
 40
0.4999999999999993
 40
0.4999999999999993
 40
0.5624999999999969
 40
0.5624999999999969
 40
0.5937499999999967
 40
0.5937499999999967
 40
0.6249999999999964
 40
0.6249999999999964
 40
0.6562499999999963
 40
0.6562499999999963
 40
0.6874999999999961
 40
0.6874999999999961
 40
0.7499999999999956
 40
0.7499999999999956
 40
0.7812499999999961
 40
0.7812499999999961
 40
0.8124999999999967
 40
0.8124999999999967
 40
0.8437499999999972
 40
0.8437499999999972
 40
0.8749999999999978
 40
0.8749999999999978
 40
0.9062499999999984
 40
0.9062499999999984
 40
0.937499999999999
 40
0.937499999999999
 40
0.9687499999999996
 40
0.9687499999999996
 40
1.0
 40
1.0
 40
1.0
 40
1.0
 10
246.1001890072958
 20
51.44888956546595
 30
0.0
 10
246.3099531133821
 20
51.41437635960254
 30
0.0
 10
246.5086844992616
 20
51.36046333596986
 30
0.0
 10
246.8842297982619
 20
51.22520774633085
 30
0.0
 10
247.0529577196035
 20
51.1465889334211
 30
0.0
 10
247.3495608852209
 20
50.97218296220201
 30
0.0
 10
247.4712561588989
 20
50.88020594023327
 30
0.0
 10
247.6593172744707
 20
50.6835601343149
 30
0.0
 10
247.7208503364544
 20
50.58411674183676
 30
0.0
 10
247.7577278371266
 20
50.42826152493782
 30
0.0
 10
247.760194447601
 20
50.37593128748408
 30
0.0
 10
247.74368507264
 20
50.27193154701897
 30
0.0
 10
247.7243837764013
 20
50.21920109590391
 30
0.0
 10
247.6624664156947
 20
50.11623310522175
 30
0.0
 10
247.6204326830796
 20
50.06637381174009
 30
0.0
 10
247.5122281815133
 20
49.96951096509362
 30
0.0
 10
247.4452682693683
 20
49.92240175874264
 30
0.0
 10
247.2943107998294
 20
49.83736275565467
 30
0.0
 10
247.2081740504452
 20
49.79809965836866
 30
0.0
 10
247.0234137388244
 20
49.73007359231353
 30
0.0
 10
246.9257498169538
 20
49.70141509241098
 30
0.0
 10
246.7206314928954
 20
49.654621536177
 30
0.0
 10
246.6165135490887
 20
49.63725825203143
 30
0.0
 10
246.4060816543145
 20
49.61392569959938
 30
0.0
 10
246.2994348208074
 20
49.60807162404114
 30
0.0
 10
245.9872837562812
 20
49.60811875840763
 30
0.0
 10
245.783352078816
 20
49.63162068151701
 30
0.0
 10
245.503777499075
 20
49.69987131123212
 30
0.0
 10
245.4136986928584
 20
49.72836966774563
 30
0.0
 10
245.2436337712668
 20
49.79603692193469
 30
0.0
 10
245.1644350070902
 20
49.83479067066515
 30
0.0
 10
245.0173187146229
 20
49.92194586785513
 30
0.0
 10
244.9490738544094
 20
49.97063407544206
 30
0.0
 10
244.8259850317397
 20
50.07677521035448
 30
0.0
 10
244.7720091713216
 20
50.13336129748767
 30
0.0
 10
244.6325775318528
 20
50.31290443978247
 30
0.0
 10
244.5691039742351
 20
50.44806628459752
 30
0.0
 10
244.5327984019457
 20
50.65278199941488
 30
0.0
 10
244.5301064917237
 20
50.72178596152411
 30
0.0
 10
244.5467716778006
 20
50.86062345030522
 30
0.0
 10
244.566026378229
 20
50.92852486241755
 30
0.0
 10
244.6278833514222
 20
51.05805150076446
 30
0.0
 10
244.6714229576024
 20
51.12064532077953
 30
0.0
 10
244.7802017614191
 20
51.23201510531201
 30
0.0
 10
244.8456022125841
 20
51.28163996396594
 30
0.0
 10
244.9996015603841
 20
51.36699321391659
 30
0.0
 10
245.0846469587367
 20
51.40079498657177
 30
0.0
 10
245.2697195933517
 20
51.45215722978275
 30
0.0
 10
245.3694354065328
 20
51.46933065506691
 30
0.0
 10
245.5729624415355
 20
51.48752326634202
 30
0.0
 10
245.6790059938073
 20
51.48877422029111
 30
0.0
 10
245.88969086362
 20
51.47802972661894
 30
0.0
 10
245.9953069542527
 20
51.46614616839766
 30
0.0
 10
246.1001890072958
 20
51.44888956546595
 30
0.0
  0
SPLINE
  5
1D8
330
1F
100
AcDbEntity
  8
0
  6
Continuous
 62
     7
370
    25
100
AcDbSpline
210
0.0
220
0.0
230
1.0
 70
    11
 71
     3
 72
    70
 73
    66
 74
     0
 42
0.000000001
 43
0.00000001
 40
0.0
 40
0.0
 40
0.0
 40
0.0
 40
0.0312500000000006
 40
0.0312500000000006
 40
0.0625000000000013
 40
0.0625000000000013
 40
0.0937500000000019
 40
0.0937500000000019
 40
0.1250000000000026
 40
0.1250000000000026
 40
0.1562500000000032
 40
0.1562500000000032
 40
0.1875000000000039
 40
0.1875000000000039
 40
0.2500000000000052
 40
0.2500000000000052
 40
0.281250000000005
 40
0.281250000000005
 40
0.3125000000000048
 40
0.3125000000000048
 40
0.3437500000000046
 40
0.3437500000000046
 40
0.3750000000000044
 40
0.3750000000000044
 40
0.4062500000000042
 40
0.4062500000000042
 40
0.4375000000000041
 40
0.4375000000000041
 40
0.4687500000000038
 40
0.4687500000000038
 40
0.5000000000000037
 40
0.5000000000000037
 40
0.5312500000000036
 40
0.5312500000000036
 40
0.5625000000000034
 40
0.5625000000000034
 40
0.5937500000000031
 40
0.5937500000000031
 40
0.609375000000003
 40
0.609375000000003
 40
0.6250000000000029
 40
0.6250000000000029
 40
0.6562500000000027
 40
0.6562500000000027
 40
0.6875000000000024
 40
0.6875000000000024
 40
0.7187500000000022
 40
0.7187500000000022
 40
0.7500000000000019
 40
0.7500000000000019
 40
0.7812500000000017
 40
0.7812500000000017
 40
0.8125000000000014
 40
0.8125000000000014
 40
0.8437500000000012
 40
0.8437500000000012
 40
0.875000000000001
 40
0.875000000000001
 40
0.9062500000000008
 40
0.9062500000000008
 40
0.9375000000000004
 40
0.9375000000000004
 40
0.9687500000000002
 40
0.9687500000000002
 40
1.0
 40
1.0
 40
1.0
 40
1.0
 10
240.6158374341712
 20
41.94971402212263
 30
0.0
 10
240.548494521409
 20
42.03186283037616
 30
0.0
 10
240.4860408200804
 20
42.11653767426096
 30
0.0
 10
240.3723328407801
 20
42.29185727885241
 30
0.0
 10
240.3205324081387
 20
42.38367212430052
 30
0.0
 10
240.2341932044241
 20
42.56881197890716
 30
0.0
 10
240.1996764189541
 20
42.66158076964783
 30
0.0
 10
240.1507048888327
 20
42.84798533255244
 30
0.0
 10
240.1371195208355
 20
42.93914051379618
 30
0.0
 10
240.1330290385285
 20
43.11239739480329
 30
0.0
 10
240.1427982843857
 20
43.19613432249384
 30
0.0
 10
240.1839511493413
 20
43.34669623152487
 30
0.0
 10
240.2155321971559
 20
43.41531052808799
 30
0.0
 10
240.3366341266439
 20
43.59477178473394
 30
0.0
 10
240.451774917711
 20
43.67903649501763
 30
0.0
 10
240.6480321656168
 20
43.7515919694855
 30
0.0
 10
240.7183497049495
 20
43.76712587759663
 30
0.0
 10
240.862512084228
 20
43.78065744611911
 30
0.0
 10
240.9364842830092
 20
43.77887158027924
 30
0.0
 10
241.0874521541353
 20
43.7587132806124
 30
0.0
 10
241.1647023963959
 20
43.74010282929378
 30
0.0
 10
241.3168019992881
 20
43.68750730299983
 30
0.0
 10
241.3922738464974
 20
43.65349465684016
 30
0.0
 10
241.5419105193518
 20
43.56997869714842
 30
0.0
 10
241.616331798129
 20
43.52012313223968
 30
0.0
 10
241.7588607731339
 20
43.40809739249751
 30
0.0
 10
241.8276181683452
 20
43.34563851549434
 30
0.0
 10
241.9603765410764
 20
43.20769456742863
 30
0.0
 10
242.0248492397876
 20
43.13146409902441
 30
0.0
 10
242.144748181591
 20
42.9708387405725
 30
0.0
 10
242.2006662127174
 20
42.88608781879312
 30
0.0
 10
242.3047052243487
 20
42.70745690592387
 30
0.0
 10
242.3533060352697
 20
42.61241306814448
 30
0.0
 10
242.4388945266295
 20
42.41922504413159
 30
0.0
 10
242.4761327080257
 20
42.32098413275003
 30
0.0
 10
242.5388201863948
 20
42.12113211078429
 30
0.0
 10
242.5636159105206
 20
42.02107452930706
 30
0.0
 10
242.5893558292838
 20
41.87683099102834
 30
0.0
 10
242.5961033125759
 20
41.82944430850801
 30
0.0
 10
242.6057520190572
 20
41.73616919767379
 30
0.0
 10
242.6086325933047
 20
41.69001681275498
 30
0.0
 10
242.6110397700068
 20
41.55830375780511
 30
0.0
 10
242.6046376845993
 20
41.47811947630684
 30
0.0
 10
242.5758805642736
 20
41.33267750030802
 30
0.0
 10
242.5538488559251
 20
41.26963630921276
 30
0.0
 10
242.4964375058914
 20
41.16294837207177
 30
0.0
 10
242.4607300060283
 20
41.11904515522854
 30
0.0
 10
242.3792053325282
 20
41.05121487349486
 30
0.0
 10
242.3326267501517
 20
41.02651984727503
 30
0.0
 10
242.2308116344052
 20
40.99485876773443
 30
0.0
 10
242.1758927699008
 20
40.98778504960806
 30
0.0
 10
242.0578947526583
 20
40.98925170520055
 30
0.0
 10
241.9946179927123
 20
40.99798515082941
 30
0.0
 10
241.8636466174308
 20
41.02954617223399
 30
0.0
 10
241.7954678154299
 20
41.05234568668198
 30
0.0
 10
241.6533596521161
 20
41.11156927172892
 30
0.0
 10
241.5796474302083
 20
41.14801637306466
 30
0.0
 10
241.4312319624081
 20
41.23195724751333
 30
0.0
 10
241.3559401338407
 20
41.27967991918949
 30
0.0
 10
241.2032541176618
 20
41.38694396562791
 30
0.0
 10
241.125828905216
 20
41.44663501168899
 30
0.0
 10
240.9747885057276
 20
41.57411409859076
 30
0.0
 10
240.9004586988522
 20
41.64236369734219
 30
0.0
 10
240.754880221459
 20
41.78878479740113
 30
0.0
 10
240.6831803469333
 20
41.86756521386911
 30
0.0
 10
240.6158374341712
 20
41.94971402212263
 30
0.0
  0
LWPOLYLINE
  5
1D9
330
1F
100
AcDbEntity
  8
0
  6
Continuous
 62
     7
370
    25
100
AcDbPolyline
 90
       18
 70
   128
 43
0.0
 10
205.9016648371
 20
51.5696394864
 10
205.9327560404
 20
51.8040214983
 10
206.2457240495
 20
53.661612859
 10
206.6807177217
 20
55.5529584628
 10
207.2346023852
 20
57.4644295877
 10
207.9033885774
 20
59.382255766
 10
208.6822557524
 20
61.2926175577
 10
209.5655944282
 20
63.1817518715
 10
210.5470391135
 20
65.0360470187
 10
211.6195170404
 20
66.8421423302
 10
212.7753034816
 20
68.5870247292
 10
214.0060691664
 20
70.2581230248
 10
215.3029474514
 20
71.8433984006
 10
216.6565935901
 20
73.3314257783
 10
218.0572548676
 20
74.711484497
 10
219.4948394185
 20
75.9736330216
 10
220.9589896549
 20
77.1087771879
 10
222.2485355408
 20
77.98814055
  0
LWPOLYLINE
  5
1DA
330
1F
100
AcDbEntity
  8
0
  6
Continuous
 62
     7
370
    25
100
AcDbPolyline
 90
       17
 70
   128
 43
0.0
 10
241.5763599848
 20
41.4317052409
 10
241.9146095175
 20
41.3141322493
 10
242.2013608697
 20
41.3698489943
 10
242.3929630772
 20
41.5903705077
 10
242.4602452525
 20
41.942125129
 10
242.3929630772
 20
42.3715620964
 10
242.2013608697
 20
42.8133028098
 10
241.9146095175
 20
43.2000956189
 10
241.5763599848
 20
43.473057225
 10
241.2381130863
 20
43.5906286959
 10
240.9513617341
 20
43.534911951
 10
240.7597595266
 20
43.3143904376
 10
240.6924773513
 20
42.9626358163
 10
240.7597595266
 20
42.5331988489
 10
240.9513617341
 20
42.0914581355
 10
241.2381130863
 20
41.7046653264
 10
241.5763599848
 20
41.4317052409
  0
LWPOLYLINE
  5
1DB
330
1F
100
AcDbEntity
  8
0
  6
Continuous
 62
     7
370
    25
100
AcDbPolyline
 90
       17
 70
   128
 43
0.0
 10
245.2613229936
 20
49.8556003615
 10
245.6668541254
 20
49.699173903
 10
246.1452073558
 20
49.6442452809
 10
246.6235619856
 20
49.6991743307
 10
247.029091718
 20
49.855599316
 10
247.3000570998
 20
50.0897066474
 10
247.3952073146
 20
50.3658548972
 10
247.3000578407
 20
50.6420023392
 10
247.029089907
 20
50.8761104784
 10
246.6235614094
 20
51.0325354162
 10
246.145208179
 20
51.0874640384
 10
245.6668535491
 20
51.0325349885
 10
245.2613238168
 20
50.8761100032
 10
244.990358435
 20
50.6420026718
 10
244.8952082201
 20
50.365854422
 10
244.9903576941
 20
50.08970698
 10
245.2613229936
 20
49.8556003615
  0
LINE
  5
1DC
330
1F
100
AcDbEntity
  8
0
  6
Continuous
 62
     7
370
    25
100
AcDbLine
 10
212.946543493
 20
41.843967111
 30
0.0
 11
217.896291114
 21
38.9865386314
 31
0.0
  0
ARC
  5
1DD
330
1F
100
AcDbEntity
  8
0
  6
Continuous
 62
     7
370
    25
100
AcDbCircle
 10
217.0870900037
 20
48.3169955652
 30
0.0
 40
7.684023866253074
100
AcDbArc
 50
182.6054781208
 51
237.3945216397
  0
LINE
  5
1DE
330
1F
100
AcDbEntity
  8
0
  6
Continuous
 62
     7
370
    25
100
AcDbLine
 10
209.411009666
 20
48.7842322113
 30
0.0
 11
209.411009666
 21
47.9676913606
 31
0.0
  0
ARC
  5
1DF
330
1F
100
AcDbEntity
  8
0
  6
Continuous
 62
     7
370
    25
100
AcDbCircle
 10
212.6237526131
 20
48.8973800622
 30
0.0
 40
3.214734776046069
100
AcDbArc
 50
155.343366055
 51
182.0170353142
  0
SPLINE
  5
1E0
330
1F
100
AcDbEntity
  8
0
  6
Continuous
 62
     7
370
    25
100
AcDbSpline
210
0.0
220
0.0
230
1.0
 70
     8
 71
     3
 72
     8
 73
     4
 74
     0
 42
0.000000001
 43
0.00000001
 40
0.0
 40
0.0
 40
0.0
 40
0.0
 40
1.0
 40
1.0
 40
1.0
 40
1.0
 10
197.6552397309858
 20
53.27756230329402
 30
0.0
 10
198.1221019566527
 20
52.89732071603205
 30
0.0
 10
198.5891367410362
 20
52.53041406748917
 30
0.0
 10
199.0562618532115
 20
52.17048774189718
 30
0.0
  0
SPLINE
  5
1E1
330
1F
100
AcDbEntity
  8
0
  6
Continuous
 62
     7
370
    25
100
AcDbSpline
210
0.0
220
0.0
230
1.0
 70
     8
 71
     3
 72
    14
 73
    10
 74
     0
 42
0.000000001
 43
0.00000001
 40
0.0
 40
0.0
 40
0.0
 40
0.0
 40
0.1250000000000002
 40
0.1250000000000002
 40
0.2500000000000005
 40
0.2500000000000005
 40
0.5000000000000019
 40
0.5000000000000019
 40
1.0
 40
1.0
 40
1.0
 40
1.0
 10
199.0562618532115
 20
52.17048774189718
 30
0.0
 10
199.0826857918847
 20
52.15012773361157
 30
0.0
 10
199.1067497343895
 20
52.13461543029691
 30
0.0
 10
199.1430189918146
 20
52.11763206173755
 30
0.0
 10
199.1550373668028
 20
52.11575782033163
 30
0.0
 10
199.1805516134732
 20
52.11989866166688
 30
0.0
 10
199.1847452759212
 20
52.13484104972989
 30
0.0
 10
199.1858520856568
 20
52.18919238607504
 30
0.0
 10
199.1702241005682
 20
52.24061334675105
 30
0.0
 10
199.1505713679346
 20
52.296962174337
 30
0.0
  0
SPLINE
  5
1E2
330
1F
100
AcDbEntity
  8
0
  6
Continuous
 62
     7
370
    25
100
AcDbSpline
210
0.0
220
0.0
230
1.0
 70
     8
 71
     3
 72
    14
 73
    10
 74
     0
 42
0.000000001
 43
0.00000001
 40
0.0
 40
0.0
 40
0.0
 40
0.0
 40
0.25
 40
0.25
 40
0.5
 40
0.5
 40
0.75
 40
0.75
 40
1.0
 40
1.0
 40
1.0
 40
1.0
 10
199.1505713679341
 20
52.29696217433737
 30
0.0
 10
199.1259055199961
 20
52.36768473687518
 30
0.0
 10
199.1150426492717
 20
52.43075103462538
 30
0.0
 10
199.0930922820768
 20
52.56231777558398
 30
0.0
 10
199.0828206872578
 20
52.63027111457566
 30
0.0
 10
199.0535166728993
 20
52.77887611841909
 30
0.0
 10
199.0347240016696
 20
52.85933992484996
 30
0.0
 10
198.9818046971534
 20
53.03891079866429
 30
0.0
 10
198.9477255199744
 20
53.13774184459216
 30
0.0
 10
198.9036392676967
 20
53.24534189957143
 30
0.0
  0
LWPOLYLINE
  5
1E3
330
1F
100
AcDbEntity
  8
0
  6
Continuous
 62
     7
370
    25
100
AcDbPolyline
 90
        9
 70
   128
 43
0.0
 10
198.9036389889
 20
53.2453420521
 10
198.535558707
 20
54.3164874318
 10
198.2704300052
 20
55.4804903091
 10
198.1104629588
 20
56.727641552
 10
198.0569917789
 20
58.0475381879
 10
198.1104629588
 20
59.4291713341
 10
198.2704300052
 20
60.8610165974
 10
198.535558707
 20
62.3311305581
 10
198.9036389889
 20
63.8272523853
  0
SPLINE
  5
1E4
330
1F
100
AcDbEntity
  8
0
  6
Continuous
 62
     7
370
    25
100
AcDbSpline
210
0.0
220
0.0
230
1.0
 70
     8
 71
     3
 72
    14
 73
    10
 74
     0
 42
0.000000001
 43
0.00000001
 40
0.0
 40
0.0
 40
0.0
 40
0.0
 40
0.25
 40
0.25
 40
0.5
 40
0.5
 40
0.75
 40
0.75
 40
1.0
 40
1.0
 40
1.0
 40
1.0
 10
199.1505713679341
 20
65.88075257364588
 30
0.0
 10
199.1259055199961
 20
65.709080042153
 30
0.0
 10
199.1150426492717
 20
65.53410030997742
 30
0.0
 10
199.0930922820768
 20
65.18529380633622
 30
0.0
 10
199.0828206872578
 20
65.01107971440044
 30
0.0
 10
199.0535166728993
 20
64.66502880244934
 30
0.0
 10
199.0347240016696
 20
64.4931459485341
 30
0.0
 10
198.9818046971534
 20
64.15311427963988
 30
0.0
 10
198.9477255199744
 20
63.98575341914275
 30
0.0
 10
198.9036392676967
 20
63.82725246073981
 30
0.0
  0
SPLINE
  5
1E5
330
1F
100
AcDbEntity
  8
0
  6
Continuous
 62
     7
370
    25
100
AcDbSpline
210
0.0
220
0.0
230
1.0
 70
     8
 71
     3
 72
    14
 73
    10
 74
     0
 42
0.000000001
 43
0.00000001
 40
0.0
 40
0.0
 40
0.0
 40
0.0
 40
0.124999999999999
 40
0.124999999999999
 40
0.2499999999999981
 40
0.2499999999999981
 40
0.4999999999999952
 40
0.4999999999999952
 40
1.0
 40
1.0
 40
1.0
 40
1.0
 10
199.0562618532115
 20
66.62949631728854
 30
0.0
 10
199.0826857918847
 20
66.62519001801633
 30
0.0
 10
199.1067497343895
 20
66.60930651147592
 30
0.0
 10
199.1430189918146
 20
66.56016193858453
 30
0.0
 10
199.1550373668028
 20
66.52915058323218
 30
0.0
 10
199.1805516134732
 20
66.43229204136475
 30
0.0
 10
199.1847452759212
 20
66.36201142048859
 30
0.0
 10
199.1858520856568
 20
66.15561001841073
 30
0.0
 10
199.1702241005682
 20
66.01753418238854
 30
0.0
 10
199.1505713679346
 20
65.88075257364578
 30
0.0
  0
SPLINE
  5
1E6
330
1F
100
AcDbEntity
  8
0
  6
Continuous
 62
     7
370
    25
100
AcDbSpline
210
0.0
220
0.0
230
1.0
 70
     8
 71
     3
 72
     8
 73
     4
 74
     0
 42
0.000000001
 43
0.00000001
 40
0.0
 40
0.0
 40
0.0
 40
0.0
 40
1.0
 40
1.0
 40
1.0
 40
1.0
 10
197.6552397309858
 20
66.7987092111735
 30
0.0
 10
198.1221019566527
 20
66.7666194571082
 30
0.0
 10
198.5891367410361
 20
66.70562351980254
 30
0.0
 10
199.0562618532115
 20
66.62949631728854
 30
0.0
  0
SPLINE
  5
1E7
330
1F
100
AcDbEntity
  8
0
  6
Continuous
 62
     7
370
    25
100
AcDbSpline
210
0.0
220
0.0
230
1.0
 70
     8
 71
     3
 72
    14
 73
    10
 74
     0
 42
0.000000001
 43
0.00000001
 40
0.0
 40
0.0
 40
0.0
 40
0.0
 40
0.5000000000000012
 40
0.5000000000000012
 40
0.7500000000000004
 40
0.7500000000000004
 40
0.8750000000000002
 40
0.8750000000000002
 40
1.0
 40
1.0
 40
1.0
 40
1.0
 10
194.8107023537672
 20
67.72329108733597
 30
0.0
 10
195.2757368864824
 20
67.5269458380751
 30
0.0
 10
195.7425928077641
 20
67.33929332660698
 30
0.0
 10
196.4496191933687
 20
67.08927536966247
 30
0.0
 10
196.6864041762598
 20
67.01111411186362
 30
0.0
 10
197.0451848143915
 20
66.9105468464686
 30
0.0
 10
197.1653836383926
 20
66.87982535021698
 30
0.0
 10
197.4079857365024
 20
66.82855064383239
 30
0.0
 10
197.5302374940912
 20
66.8073012342994
 30
0.0
 10
197.6552397309858
 20
66.79870921117345
 30
0.0
  0
SPLINE
  5
1E8
330
1F
100
AcDbEntity
  8
0
  6
Continuous
 62
     7
370
    25
100
AcDbSpline
210
0.0
220
0.0
230
1.0
 70
     8
 71
     3
 72
    14
 73
    10
 74
     0
 42
0.000000001
 43
0.00000001
 40
0.0
 40
0.0
 40
0.0
 40
0.0
 40
0.5000000000000012
 40
0.5000000000000012
 40
0.7500000000000004
 40
0.7500000000000004
 40
0.8750000000000002
 40
0.8750000000000002
 40
1.0
 40
1.0
 40
1.0
 40
1.0
 10
194.8107023537672
 20
55.40034711146174
 30
0.0
 10
195.2757368864824
 20
55.06550179522331
 30
0.0
 10
195.7425928077641
 20
54.72671362015171
 30
0.0
 10
196.4496191933687
 20
54.20441787311889
 30
0.0
 10
196.6864041762598
 20
54.02799616502848
 30
0.0
 10
197.0451848143915
 20
53.7559140135095
 30
0.0
 10
197.1653836383926
 20
53.66396865215256
 30
0.0
 10
197.4079857365024
 20
53.47554263132223
 30
0.0
 10
197.5302374940912
 20
53.37937188726756
 30
0.0
 10
197.6552397309858
 20
53.27756230329405
 30
0.0
  0
SPLINE
  5
1E9
330
1F
100
AcDbEntity
  8
0
  6
Continuous
 62
     7
370
    25
100
AcDbSpline
210
0.0
220
0.0
230
1.0
 70
     8
 71
     3
 72
    17
 73
    13
 74
     0
 42
0.000000001
 43
0.00000001
 40
0.0
 40
0.0
 40
0.0
 40
0.0
 40
0.1207961882900952
 40
0.2420175987944839
 40
0.3632153541307872
 40
0.4839596318162575
 40
0.6040258967628624
 40
0.6645178707182005
 40
0.7242649424600393
 40
0.8441758508052679
 40
0.9646454444514005
 40
1.0
 40
1.0
 40
1.0
 40
1.0
 10
203.2689454812843
 20
52.95657127407775
 30
0.0
 10
203.0651771903134
 20
53.33046086181614
 30
0.0
 10
202.6569233108714
 20
54.07955618940541
 30
0.0
 10
202.4636559486094
 20
55.22787464545857
 30
0.0
 10
202.6690141216518
 20
56.18021163806873
 30
0.0
 10
203.228320287028
 20
56.81368489031782
 30
0.0
 10
203.9041619670949
 20
56.95497116399293
 30
0.0
 10
204.4791612994371
 20
56.82882045972319
 30
0.0
 10
205.0589512565326
 20
56.5405712305955
 30
0.0
 10
205.7260019885446
 20
55.88328011622439
 30
0.0
 10
206.2566325305723
 20
55.05785562697107
 30
0.0
 10
206.4156968643168
 20
54.53594366265428
 30
0.0
 10
206.4517865773184
 20
54.41752834879392
 30
0.0
  0
SPLINE
  5
1EA
330
1F
100
AcDbEntity
  8
0
  6
Continuous
 62
     7
370
    25
100
AcDbSpline
210
0.0
220
0.0
230
1.0
 70
     8
 71
     3
 72
    12
 73
     8
 74
     0
 42
0.000000001
 43
0.00000001
 40
0.0
 40
0.0
 40
0.0
 40
0.0
 40
0.0353744433893711
 40
0.3560360900717853
 40
0.5160472232178944
 40
0.6782077942890793
 40
1.0
 40
1.0
 40
1.0
 40
1.0
 10
205.7721699621693
 20
50.92438069780393
 30
0.0
 10
205.7494636770179
 20
50.92053382466253
 30
0.0
 10
205.5209298483334
 20
50.88181588196046
 30
0.0
 10
205.047115389624
 20
51.14540253037076
 30
0.0
 10
204.4784150228247
 20
51.55482644110462
 30
0.0
 10
203.8949666654574
 20
52.09105441337398
 30
0.0
 10
203.5189609850154
 20
52.61090783746025
 30
0.0
 10
203.2689454812843
 20
52.95657127407775
 30
0.0
  0
SPLINE
  5
1EB
330
1F
100
AcDbEntity
  8
0
  6
Continuous
 62
     7
370
    25
100
AcDbSpline
210
0.0
220
0.0
230
1.0
 70
     8
 71
     3
 72
    12
 73
     8
 74
     0
 42
0.000000001
 43
0.00000001
 40
0.0
 40
0.0
 40
0.0
 40
0.0
 40
0.2499999999999989
 40
0.2499999999999989
 40
0.4999999999999978
 40
0.4999999999999978
 40
1.0
 40
1.0
 40
1.0
 40
1.0
 10
250.3842402162159
 20
58.55790695064999
 30
0.0
 10
250.4313899741935
 20
58.53068797474173
 30
0.0
 10
250.4680730823425
 20
58.49848814814821
 30
0.0
 10
250.5175306285746
 20
58.4273059015874
 30
0.0
 10
250.5295468818425
 20
58.38911271448086
 30
0.0
 10
250.5264132225258
 20
58.27467483178198
 30
0.0
 10
250.4705946524569
 20
58.19955424966468
 30
0.0
 10
250.376796137267
 20
58.14540551943366
 30
0.0
  0
ARC
  5
1EC
330
1F
100
AcDbEntity
  8
0
  6
Continuous
 62
     7
370
    25
100
AcDbCircle
 10
224.9199184816
 20
38.5345532155
 30
0.0
 40
8.701929273940989
100
AcDbArc
 50
214.5542627763
 51
265.4839169162
  0
SPLINE
  5
1ED
330
1F
100
AcDbEntity
  8
0
  6
Continuous
 62
     7
370
    25
100
AcDbSpline
210
0.0
220
0.0
230
1.0
 70
     8
 71
     3
 72
    14
 73
    10
 74
     0
 42
0.000000001
 43
0.00000001
 40
0.0
 40
0.0
 40
0.0
 40
0.0
 40
0.25
 40
0.25
 40
0.5
 40
0.5
 40
0.75
 40
0.75
 40
1.0
 40
1.0
 40
1.0
 40
1.0
 10
215.8191677795465
 20
38.19564495967128
 30
0.0
 10
215.8658081354959
 20
38.1687200552944
 30
0.0
 10
215.9225435492951
 20
38.14716461795938
 30
0.0
 10
216.0455390146144
 20
38.11884698204469
 30
0.0
 10
216.1117947663581
 20
38.11191777826139
 30
0.0
 10
216.2452233238548
 20
38.11336709082513
 30
0.0
 10
216.3107601520176
 20
38.12166188315891
 30
0.0
 10
216.432881979422
 20
38.15198720358155
 30
0.0
 10
216.4885807464828
 20
38.17388478388295
 30
0.0
 10
216.5353425149862
 20
38.20087977823536
 30
0.0
  0
LINE
  5
1EE
330
1F
100
AcDbEntity
  8
0
  6
Continuous
 62
     7
370
    25
100
AcDbLine
 10
214.1617194536
 20
39.1524689985
 30
0.0
 11
215.8191673203
 21
38.1956447116
 31
0.0
  0
SPLINE
  5
1EF
330
1F
100
AcDbEntity
  8
0
  6
Continuous
 62
     7
370
    25
100
AcDbSpline
210
0.0
220
0.0
230
1.0
 70
     8
 71
     3
 72
     8
 73
     4
 74
     0
 42
0.000000001
 43
0.00000001
 40
0.0
 40
0.0
 40
0.0
 40
0.0
 40
1.0
 40
1.0
 40
1.0
 40
1.0
 10
214.5335081059493
 20
39.91900192588429
 30
0.0
 10
214.4093299380644
 20
39.66353112665821
 30
0.0
 10
214.2854122379226
 20
39.40801827998526
 30
0.0
 10
214.1617197448904
 20
39.15246934349859
 30
0.0
  0
LINE
  5
1F0
330
1F
100
AcDbEntity
  8
0
  6
Continuous
 62
     7
370
    25
100
AcDbLine
 10
214.8546090333
 20
40.1043693281
 30
0.0
 11
214.5335079996
 21
39.919001647
 31
0.0
  0
SPLINE
  5
1F1
330
1F
100
AcDbEntity
  8
0
  6
Continuous
 62
     7
370
    25
100
AcDbSpline
210
0.0
220
0.0
230
1.0
 70
     8
 71
     3
 72
    12
 73
     8
 74
     0
 42
0.000000001
 43
0.00000001
 40
0.0
 40
0.0
 40
0.0
 40
0.0
 40
0.2500000000000014
 40
0.2500000000000014
 40
0.5000000000000029
 40
0.5000000000000029
 40
1.0
 40
1.0
 40
1.0
 40
1.0
 10
214.8629183356922
 20
40.43572964847925
 30
0.0
 10
214.9003103732751
 20
40.41414368465281
 30
0.0
 10
214.9305208465926
 20
40.38750283186275
 30
0.0
 10
214.969420216602
 20
40.33052462855695
 30
0.0
 10
214.978750582532
 20
40.29963305888015
 30
0.0
 10
214.9751455191181
 20
40.20807671731809
 30
0.0
 10
214.9295404942065
 20
40.14762655721307
 30
0.0
 10
214.8546086556798
 20
40.1043693275876
 30
0.0
  0
LINE
  5
1F2
330
1F
100
AcDbEntity
  8
0
  6
Continuous
 62
     7
370
    25
100
AcDbLine
 10
214.0780296419
 20
40.8888357195
 30
0.0
 11
214.8629178893
 21
40.4357293789
 31
0.0
  0
SPLINE
  5
1F3
330
1F
100
AcDbEntity
  8
0
  6
Continuous
 62
     7
370
    25
100
AcDbSpline
210
0.0
220
0.0
230
1.0
 70
     8
 71
     3
 72
    14
 73
    10
 74
     0
 42
0.000000001
 43
0.00000001
 40
0.0
 40
0.0
 40
0.0
 40
0.0
 40
0.25
 40
0.25
 40
0.5
 40
0.5
 40
0.75
 40
0.75
 40
1.0
 40
1.0
 40
1.0
 40
1.0
 10
213.5040347036135
 20
40.88403907437829
 30
0.0
 10
213.541880501392
 20
40.9058869883899
 30
0.0
 10
213.5861994185399
 20
40.92325963317881
 30
0.0
 10
213.683900955092
 20
40.94762110787068
 30
0.0
 10
213.7366540867038
 20
40.95433507240224
 30
0.0
 10
213.8426074439323
 20
40.95569252198825
 30
0.0
 10
213.8959717302276
 20
40.95031482084916
 30
0.0
 10
213.9951495049993
 20
40.92767387733331
 30
0.0
 10
214.0401563984005
 20
40.91070000484945
 30
0.0
 10
214.0780298085752
 20
40.88883615054085
 30
0.0
  0
LINE
  5
1F4
330
1F
100
AcDbEntity
  8
0
  6
Continuous
 62
     7
370
    25
100
AcDbLine
 10
213.182933971
 20
40.6986714379
 30
0.0
 11
213.5040350047
 21
40.884039119
 31
0.0
  0
SPLINE
  5
1F5
330
1F
100
AcDbEntity
  8
0
  6
Continuous
 62
     7
370
    25
100
AcDbSpline
210
0.0
220
0.0
230
1.0
 70
     8
 71
     3
 72
     8
 73
     4
 74
     0
 42
0.000000001
 43
0.00000001
 40
0.0
 40
0.0
 40
0.0
 40
0.0
 40
1.0
 40
1.0
 40
1.0
 40
1.0
 10
211.8551169037696
 20
40.48404282033924
 30
0.0
 10
212.297788609986
 20
40.55544897664394
 30
0.0
 10
212.7403978000376
 20
40.62698514224572
 30
0.0
 10
213.182934153883
 20
40.69867167267497
 30
0.0
  0
LINE
  5
1F6
330
1F
100
AcDbEntity
  8
0
  6
Continuous
 62
     7
370
    25
100
AcDbLine
 10
248.9382794182
 20
59.3926425622
 30
0.0
 11
250.384240326
 21
58.557907098
 31
0.0
  0
LWPOLYLINE
  5
1F7
330
1F
100
AcDbEntity
  8
0
  6
Continuous
 62
     7
370
    25
100
AcDbPolyline
 90
        8
 70
   128
 43
0.0
 10
218.9073004965
 20
31.947297133
 10
218.2512505551
 20
32.3680437218
 10
217.2967403402
 20
33.1551188419
 10
216.4439923739
 20
34.0896389284
 10
215.6991548277
 20
35.16486038
 10
215.0676027421
 20
36.3730320545
 10
214.5538892935
 20
37.7054378594
 10
214.1617194536
 20
39.1524689985
  0
ARC
  5
1F8
330
1F
100
AcDbEntity
  8
0
  6
Continuous
 62
     7
370
    25
100
AcDbCircle
 10
224.6949135148
 20
43.160856989
 30
0.0
 40
11.77234176809886
100
AcDbArc
 50
192.0725460793
 51
215.0022747034
  0
SPLINE
  5
1F9
330
1F
100
AcDbEntity
  8
0
  6
Continuous
 62
     7
370
    25
100
AcDbSpline
210
0.0
220
0.0
230
1.0
 70
     8
 71
     3
 72
    12
 73
     8
 74
     0
 42
0.000000001
 43
0.00000001
 40
0.0
 40
0.0
 40
0.0
 40
0.0
 40
0.1675503883347434
 40
0.4025161747753053
 40
0.6381208840270863
 40
0.8774598722428354
 40
0.9999999999999999
 40
0.9999999999999999
 40
0.9999999999999999
 40
0.9999999999999999
 10
204.6919034294421
 20
56.61677335409572
 30
0.0
 10
204.6573955142906
 20
56.43949405725347
 30
0.0
 10
204.5744951155252
 20
56.01360555206401
 30
0.0
 10
204.7691301561839
 20
55.20266335384276
 30
0.0
 10
205.2025851736419
 20
54.33033594166815
 30
0.0
 10
205.7244315690459
 20
53.6291711788549
 30
0.0
 10
206.0898803354468
 20
53.31857611909342
 30
0.0
 10
206.2136292243626
 20
53.21340188652797
 30
0.0
  0
SPLINE
  5
1FA
330
1F
100
AcDbEntity
  8
0
  6
Continuous
 62
     7
370
    25
100
AcDbSpline
210
0.0
220
0.0
230
1.0
 70
     8
 71
     3
 72
    11
 73
     7
 74
     0
 42
0.000000001
 43
0.00000001
 40
0.0
 40
0.0
 40
0.0
 40
0.0
 40
0.1889487415400878
 40
0.3635157627967836
 40
0.6686735586554259
 40
1.0
 40
1.0
 40
1.0
 40
1.0
 10
203.5592589007279
 20
53.13898135911776
 30
0.0
 10
203.6857999780817
 20
52.95579663090557
 30
0.0
 10
203.9292505344837
 20
52.60337017034272
 30
0.0
 10
204.4459470670379
 20
52.04196916482837
 30
0.0
 10
205.1202731425381
 20
51.48394692212184
 30
0.0
 10
205.5751194994882
 20
51.3269198928555
 30
0.0
 10
205.8118930376185
 20
51.24517834489458
 30
0.0
  0
SPLINE
  5
1FB
330
1F
100
AcDbEntity
  8
0
  6
Continuous
 62
     7
370
    25
100
AcDbSpline
210
0.0
220
0.0
230
1.0
 70
     8
 71
     3
 72
    15
 73
    11
 74
     0
 42
0.000000001
 43
0.00000001
 40
0.0
 40
0.0
 40
0.0
 40
0.0
 40
0.0285605575140947
 40
0.1766231786262573
 40
0.2612396331333766
 40
0.3527785380977456
 40
0.5145481059714542
 40
0.6763327681591422
 40
0.8381560932852216
 40
1.0
 40
1.0
 40
1.0
 40
1.0
 10
205.2140544794707
 20
56.34029013731591
 30
0.0
 10
205.1712142715522
 20
56.38313621097361
 30
0.0
 10
204.9062833894489
 20
56.6481033677717
 30
0.0
 10
204.4451836821929
 20
56.76063938510974
 30
0.0
 10
203.9351092484647
 20
56.76787942749914
 30
0.0
 10
203.4492509833699
 20
56.59210368404629
 30
0.0
 10
202.9972760086459
 20
56.1039204732671
 30
0.0
 10
202.8077958630665
 20
55.22318059881171
 30
0.0
 10
202.9866152255433
 20
54.17018150524698
 30
0.0
 10
203.3683695839079
 20
53.48272931256514
 30
0.0
 10
203.5592589007279
 20
53.13898135911776
 30
0.0
  0
SPLINE
  5
1FC
330
1F
100
AcDbEntity
  8
0
  6
Continuous
 62
     7
370
    25
100
AcDbSpline
210
0.0
220
0.0
230
1.0
 70
     8
 71
     3
 72
     9
 73
     5
 74
     0
 42
0.000000001
 43
0.00000001
 40
0.0
 40
0.0
 40
0.0
 40
0.0
 40
0.1883710221454139
 40
1.0
 40
1.0
 40
1.0
 40
1.0
 10
244.5011843304342
 20
74.19813704652061
 30
0.0
 10
244.5435604711573
 20
74.20766976900315
 30
0.0
 10
244.7685215094344
 20
74.2582758674038
 30
0.0
 10
244.994289110576
 20
74.3076739578287
 30
0.0
 10
245.1775286379232
 20
74.34776687946822
 30
0.0
  0
LINE
  5
1FD
330
1F
100
AcDbEntity
  8
0
  6
Continuous
 62
     7
370
    25
100
AcDbLine
 10
245.1775286379
 20
74.3477668795
 30
0.0
 11
246.8349765047
 21
73.3909425926
 31
0.0
  0
SPLINE
  5
1FE
330
1F
100
AcDbEntity
  8
0
  6
Continuous
 62
     7
370
    25
100
AcDbSpline
210
0.0
220
0.0
230
1.0
 70
     8
 71
     3
 72
    12
 73
     8
 74
     0
 42
0.000000001
 43
0.00000001
 40
0.0
 40
0.0
 40
0.0
 40
0.0
 40
0.2499999999999992
 40
0.2499999999999992
 40
0.4999999999999983
 40
0.4999999999999983
 40
1.0
 40
1.0
 40
1.0
 40
1.0
 10
246.834977091511
 20
73.39094224753744
 30
0.0
 10
246.8888064487156
 20
73.35986722107377
 30
0.0
 10
246.9253516655988
 20
73.31975965424006
 30
0.0
 10
246.9604044773448
 20
73.23564072035155
 30
0.0
 10
246.9600041928322
 20
73.19100754345531
 30
0.0
 10
246.917566721283
 20
73.06223934410433
 30
0.0
 10
246.8381447070773
 20
72.9845668171691
 30
0.0
 10
246.7316457297931
 20
72.92308626623326
 30
0.0
  0
LINE
  5
1FF
330
1F
100
AcDbEntity
  8
0
  6
Continuous
 62
     7
370
    25
100
AcDbLine
 10
197.4479283296
 20
59.099491179
 30
0.0
 11
198.070702017
 21
58.7399715818
 31
0.0
  0
SPLINE
  5
200
330
1F
100
AcDbEntity
  8
0
  6
Continuous
 62
     7
370
    25
100
AcDbSpline
210
0.0
220
0.0
230
1.0
 70
     8
 71
     3
 72
    11
 73
     7
 74
     0
 42
0.000000001
 43
0.00000001
 40
0.0
 40
0.0
 40
0.0
 40
0.0
 40
0.152529650862262
 40
0.5340263988090497
 40
0.9132190425601301
 40
1.0
 40
1.0
 40
1.0
 40
1.0
 10
250.3767967974524
 20
66.31081385394346
 30
0.0
 10
250.3926593280219
 20
66.32073491032914
 30
0.0
 10
250.4481961369512
 20
66.3554698355327
 30
0.0
 10
250.5113518796321
 20
66.42887694379378
 30
0.0
 10
250.5365701220488
 20
66.5048362782435
 30
0.0
 10
250.5248170319364
 20
66.54550362919693
 30
0.0
 10
250.5226281860227
 20
66.55307734505392
 30
0.0
  0
LINE
  5
201
330
1F
100
AcDbEntity
  8
0
  6
Continuous
 62
     7
370
    25
100
AcDbLine
 10
194.7959379858
 20
68.7809219194
 30
0.0
 11
194.8121118389
 21
68.8295475335
 31
0.0
  0
SPLINE
  5
202
330
1F
100
AcDbEntity
  8
0
  6
Continuous
 62
     7
370
    25
100
AcDbSpline
210
0.0
220
0.0
230
1.0
 70
     8
 71
     3
 72
    16
 73
    12
 74
     0
 42
0.000000001
 43
0.00000001
 40
0.0
 40
0.0
 40
0.0
 40
0.0
 40
0.0332838850724123
 40
0.1625854311030977
 40
0.239429833395794
 40
0.3008069245191573
 40
0.3624173839861106
 40
0.4362069101913193
 40
0.5596777462223994
 40
0.9141728339414532
 40
1.0
 40
1.0
 40
1.0
 40
1.0
 10
194.8382896416814
 20
68.90824123949854
 30
0.0
 10
194.8399329721659
 20
68.91325486212315
 30
0.0
 10
194.8479603281875
 20
68.93774545251064
 30
0.0
 10
194.8585739451117
 20
68.96236813675492
 30
0.0
 10
194.8686304002597
 20
68.97978452748724
 30
0.0
 10
194.8734890040629
 20
68.97915612950013
 30
0.0
 10
194.8746915518684
 20
68.96378774838661
 30
0.0
 10
194.8714130565501
 20
68.92721794993791
 30
0.0
 10
194.8559037594193
 20
68.82689291720325
 30
0.0
 10
194.8329091169421
 20
68.71159714100281
 30
0.0
 10
194.8142042634725
 20
68.6225525555976
 30
0.0
 10
194.8105583324503
 20
68.60519607553641
 30
0.0
  0
SPLINE
  5
203
330
1F
100
AcDbEntity
  8
0
  6
Continuous
 62
     7
370
    25
100
AcDbSpline
210
0.0
220
0.0
230
1.0
 70
     8
 71
     3
 72
     9
 73
     5
 74
     0
 42
0.000000001
 43
0.00000001
 40
0.0
 40
0.0
 40
0.0
 40
0.0
 40
0.7766522094856231
 40
1.0
 40
1.0
 40
1.0
 40
1.0
 10
194.7447743459144
 20
68.34272638360709
 30
0.0
 10
194.7415880359474
 20
68.45156217330198
 30
0.0
 10
194.7374854145578
 20
68.59169669988368
 30
0.0
 10
194.7852662433
 20
68.74637488783782
 30
0.0
 10
194.7959379858286
 20
68.78092191935814
 30
0.0
  0
SPLINE
  5
204
330
1F
100
AcDbEntity
  8
0
  6
Continuous
 62
     7
370
    25
100
AcDbSpline
210
0.0
220
0.0
230
1.0
 70
     8
 71
     3
 72
     8
 73
     4
 74
     0
 42
0.000000001
 43
0.00000001
 40
0.0
 40
0.0
 40
0.0
 40
0.0
 40
1.0
 40
1.0
 40
1.0
 40
1.0
 10
194.7214732033964
 20
67.74428803712647
 30
0.0
 10
194.7500754989706
 20
67.74273462199292
 30
0.0
 10
194.779771878708
 20
67.73635044403024
 30
0.0
 10
194.8107023537661
 20
67.7232910873423
 30
0.0
  0
SPLINE
  5
205
330
1F
100
AcDbEntity
  8
0
  6
Continuous
 62
     7
370
    25
100
AcDbSpline
210
0.0
220
0.0
230
1.0
 70
     8
 71
     3
 72
    10
 73
     6
 74
     0
 42
0.000000001
 43
0.00000001
 40
0.0
 40
0.0
 40
0.0
 40
0.0
 40
0.4999999999999989
 40
0.4999999999999989
 40
1.0
 40
1.0
 40
1.0
 40
1.0
 10
194.8105585260632
 20
68.60519605132092
 30
0.0
 10
194.7805700561543
 20
68.4634051951509
 30
0.0
 10
194.7601367569678
 20
68.32114737910757
 30
0.0
 10
194.731503769742
 20
68.03433711093778
 30
0.0
 10
194.7236327100955
 20
67.88988057774223
 30
0.0
 10
194.7214732033973
 20
67.74428803712274
 30
0.0
  0
ARC
  5
206
330
1F
100
AcDbEntity
  8
0
  6
Continuous
 62
     7
370
    25
100
AcDbCircle
 10
195.9408249564
 20
67.5762418414
 30
0.0
 40
1.230877198383703
100
AcDbArc
 50
172.1531384875
 51
234.5145852444
  0
ARC
  5
207
330
1F
100
AcDbEntity
  8
0
  6
Continuous
 62
     7
370
    25
100
AcDbCircle
 10
198.4539730934
 20
55.3728790985
 30
0.0
 40
3.734047488377458
100
AcDbArc
 50
122.5266350896
 51
178.3504233083
  0
SPLINE
  5
208
330
1F
100
AcDbEntity
  8
0
  6
Continuous
 62
     7
370
    25
100
AcDbSpline
210
0.0
220
0.0
230
1.0
 70
     8
 71
     3
 72
     8
 73
     4
 74
     0
 42
0.000000001
 43
0.00000001
 40
0.0
 40
0.0
 40
0.0
 40
0.0
 40
1.0
 40
1.0
 40
1.0
 40
1.0
 10
194.7214732033971
 20
55.48036926956041
 30
0.0
 10
194.7500754989711
 20
55.44967186570248
 30
0.0
 10
194.7797718787083
 20
55.42261841385217
 30
0.0
 10
194.8107023537661
 20
55.40034711145718
 30
0.0
  0
LINE
  5
209
330
1F
100
AcDbEntity
  8
0
  6
Continuous
 62
     7
370
    25
100
AcDbLine
 10
196.4462070589
 20
58.5212097984
 30
0.0
 11
197.4479283296
 21
59.099491179
 31
0.0
  0
SPLINE
  5
20A
330
1F
100
AcDbEntity
  8
0
  6
Continuous
 62
     7
370
    25
100
AcDbSpline
210
0.0
220
0.0
230
1.0
 70
     8
 71
     3
 72
     9
 73
     5
 74
     0
 42
0.000000001
 43
0.00000001
 40
0.0
 40
0.0
 40
0.0
 40
0.0
 40
0.3901117718169397
 40
1.0
 40
1.0
 40
1.0
 40
1.0
 10
194.7552787893612
 20
56.54752013787254
 30
0.0
 10
194.7462012327188
 20
56.50073408449914
 30
0.0
 10
194.722932115255
 20
56.38080421630907
 30
0.0
 10
194.7364996600553
 20
56.25994918986677
 30
0.0
 10
194.7447743459144
 20
56.18624113192286
 30
0.0
  0
ARC
  5
20B
330
1F
100
AcDbEntity
  8
0
  6
Continuous
 62
     7
370
    25
100
AcDbCircle
 10
197.238888004
 20
56.0600884321
 30
0.0
 40
2.530988818362095
100
AcDbArc
 50
122.9343808406
 51
168.8962913337
  0
LINE
  5
20C
330
1F
100
AcDbEntity
  8
0
  6
Continuous
 62
     7
370
    25
100
AcDbLine
 10
196.4462070589
 20
58.5212097984
 30
0.0
 11
195.8628446261
 21
58.1843315964
 31
0.0
  0
LINE
  5
20D
330
1F
100
AcDbEntity
  8
0
  6
Continuous
 62
     7
370
    25
100
AcDbLine
 10
194.780988367
 20
55.3412480708
 30
0.0
 11
194.7214730656
 21
55.4803695078
 31
0.0
  0
LINE
  5
20E
330
1F
100
AcDbEntity
  8
0
  6
Continuous
 62
     7
370
    18
100
AcDbLine
 10
278.6182899255
 20
24.0829639824
 30
0.0
 11
278.3164394648
 21
24.2572185442
 31
0.0
  0
LINE
  5
20F
330
1F
100
AcDbEntity
  8
0
  6
Continuous
 62
     7
370
    18
100
AcDbLine
 10
279.0150366498
 20
24.4855694216
 30
0.0
 11
278.7131861891
 21
24.6598239834
 31
0.0
  0
LWPOLYLINE
  5
210
330
1F
100
AcDbEntity
  8
0
  6
Continuous
 62
     7
370
    18
100
AcDbPolyline
 90
       14
 70
   128
 43
0.0
 10
269.5261996377
 20
35.4709288242
 10
268.8709385915
 20
35.0181293107
 10
268.2408588878
 20
34.4336790929
 10
267.660174097
 20
33.7400385706
 10
267.1511996994
 20
32.9638640803
 10
266.7334951254
 20
32.1349835142
 10
266.4231125621
 20
31.2852501108
 10
266.2319798968
 20
30.4473187859
 10
266.167442535
 20
29.6533908893
 10
266.2319798968
 20
28.9339762444
 10
266.4231125621
 20
28.3167219977
 10
266.7334951254
 20
27.825348674
 10
267.1511996994
 20
27.4787395435
 10
267.1513926529
 20
27.4786279274
  0
ARC
  5
211
330
1F
100
AcDbEntity
  8
0
  6
Continuous
 62
     7
370
    18
100
AcDbCircle
 10
270.917569999
 20
33.5287432619
 30
0.0
 40
2.389141318759551
100
AcDbArc
 50
65.6928777687
 51
125.6175899289
  0
LWPOLYLINE
  5
212
330
1F
100
AcDbEntity
  8
0
  6
Continuous
 62
     7
370
    18
100
AcDbPolyline
 90
       25
 70
   128
 43
0.0
 10
216.5353430338
 20
47.18282891
 10
216.9261589063
 20
49.0461749933
 10
217.4358894776
 20
50.9339762911
 10
218.0608600695
 20
52.8326208624
 10
218.7965609691
 20
54.7284147147
 10
219.6376908932
 20
56.6076920667
 10
220.5781833298
 20
58.4568982367
 10
221.6112552703
 20
60.2627014256
 10
222.729457918
 20
62.0120775044
 10
223.9247293708
 20
63.6924149524
 10
225.1884492813
 20
65.2915966023
 10
226.5115060276
 20
66.7980886079
 10
227.8843592755
 20
68.2010313137
 10
229.2971094545
 20
69.4903052184
 10
230.7395695397
 20
70.65661652
 10
232.2013380676
 20
71.691552956
 10
233.6718745187
 20
72.5876531763
 10
235.140575236
 20
73.3384551324
 10
236.5968494447
 20
73.9385430053
 10
238.030196591
 20
74.3835933724
 10
239.4302809835
 20
74.6703939627
 10
240.7870064763
 20
74.7968791655
 10
242.0905900615
 20
74.7621344917
 10
243.3316323333
 20
74.5664113957
 10
244.501184989
 20
74.2111236573
  0
LWPOLYLINE
  5
213
330
1F
100
AcDbEntity
  8
0
  6
Continuous
 62
     7
370
    18
100
AcDbPolyline
 90
       25
 70
   128
 43
0.0
 10
215.8191673203
 20
47.1775935937
 10
216.208639762
 20
49.0660149262
 10
216.7182333561
 20
50.9799187454
 10
217.3443155711
 20
52.9056653494
 10
218.0824267436
 20
54.8295307027
 10
218.927305103
 20
56.7378049134
 10
219.8729289184
 20
58.616886147
 10
220.9125599622
 20
60.4533840447
 10
222.0387889503
 20
62.2342105946
 10
223.2435895423
 20
63.9466744242
 10
224.5183749761
 20
65.5785697691
 10
225.854061289
 20
67.1182692437
 10
227.2411285615
 20
68.5547972198
 10
228.6696920405
 20
69.877918034
 10
230.1295706279
 20
71.0782013809
 10
231.6103598145
 20
72.1470933143
 10
233.1015068361
 20
73.0769748438
 10
234.5923846775
 20
73.861221386
 10
236.0723681349
 20
74.4942405907
 10
237.5309102063
 20
74.9715255662
 10
238.9576159312
 20
75.289670129
 10
240.3423177118
 20
75.4464107647
 10
241.6751466001
 20
75.4406282375
 10
242.9466050671
 20
75.2723652641
 10
244.1476315404
 20
74.9428181425
  0
ARC
  5
214
330
1F
100
AcDbEntity
  8
0
  6
Continuous
 62
     7
370
    18
100
AcDbCircle
 10
215.5383048547
 20
64.0261178515
 30
0.0
 40
35.33133586061169
100
AcDbArc
 50
339.208797505
 51
350.4188324204
  0
LWPOLYLINE
  5
215
330
1F
100
AcDbEntity
  8
0
  6
Continuous
 62
     7
370
    18
100
AcDbPolyline
 90
       23
 70
   128
 43
0.0
 10
241.8194192138
 20
39.7931267436
 10
240.699452984
 20
38.4894801843
 10
239.3438997004
 20
37.0607645282
 10
237.9458778693
 20
35.7422361353
 10
236.5154049405
 20
34.5433433874
 10
235.0627313238
 20
33.4726790285
 10
233.5982667559
 20
32.5379118017
 10
232.1325053492
 20
31.7457447018
 10
230.6759503536
 20
31.1018502478
 10
229.239039329
 20
30.6108440167
 10
227.8320688659
 20
30.276244227
 10
226.4651214452
 20
30.1004492881
 10
225.1479915995
 20
30.0847179876
 10
223.8901182471
 20
30.2291638897
 10
222.7005148868
 20
30.5327515387
 10
221.5877057187
 20
30.993305211
 10
220.5596650582
 20
31.6075256504
 10
219.6237600427
 20
32.3710094659
 10
218.7866972895
 20
33.2782875394
 10
218.0544748219
 20
34.3228581109
 10
217.4323399227
 20
35.4972354518
 10
216.924749621
 20
36.7930042416
 10
216.5353430338
 20
38.2008800279
  0
ARC
  5
216
330
1F
100
AcDbEntity
  8
0
  6
Continuous
 62
     7
370
    18
100
AcDbCircle
 10
239.3905859367
 20
64.5653095064
 30
0.0
 40
11.12401072022553
100
AcDbArc
 50
9.0277736643
 51
48.7055209086
  0
LWPOLYLINE
  5
217
330
1F
100
AcDbEntity
  8
0
  6
Continuous
 62
     7
370
    18
100
AcDbPolyline
 90
       24
 70
   128
 43
0.0
 10
226.5173519272
 20
48.454345545
 10
226.5816186272
 20
49.5763930049
 10
226.7732201762
 20
50.7517386762
 10
227.08858858
 20
51.958488977
 10
227.5218483045
 20
53.1741638449
 10
228.0649292161
 20
54.3761182125
 10
228.7077144247
 20
55.5419613895
 10
229.4382296156
 20
56.6499752991
 10
230.2428676129
 20
57.6795213045
 10
231.1066386264
 20
58.6114196569
 10
232.0134526029
 20
59.428311734
 10
232.9464175053
 20
60.114979763
 10
233.8881536855
 20
60.6586324879
 10
234.8211185879
 20
61.0491428067
 10
235.7279325644
 20
61.2792358612
 10
236.5917035779
 20
61.3446262932
 10
237.3963415752
 20
61.2440955447
 10
238.1268567661
 20
60.9795165215
 10
238.7696419747
 20
60.5558173495
 10
239.3127228863
 20
59.9808908557
 10
239.7459826108
 20
59.2654470181
 10
240.0613510146
 20
58.4228133258
 10
240.2529525636
 20
57.4686860941
 10
240.2544836795
 20
57.4566287163
  0
LWPOLYLINE
  5
218
330
1F
100
AcDbEntity
  8
0
  6
Continuous
 62
     7
370
    18
100
AcDbPolyline
 90
       12
 70
   128
 43
0.0
 10
232.5328458332
 20
44.0249558615
 10
232.0134526029
 20
43.826042125
 10
231.1066386264
 20
43.5959490705
 10
230.2428676129
 20
43.5305586385
 10
229.4382296156
 20
43.631089387
 10
228.7077144247
 20
43.8956684101
 10
228.0649292161
 20
44.3193675822
 10
227.5218483045
 20
44.894294076
 10
227.08858858
 20
45.6097379136
 10
226.7732201762
 20
46.4523716059
 10
226.5816186272
 20
47.4064988376
 10
226.5173519272
 20
48.454345545
  0
LWPOLYLINE
  5
219
330
1F
100
AcDbEntity
  8
0
  6
Continuous
 62
     7
370
    18
100
AcDbPolyline
 90
       20
 70
   128
 43
0.0
 10
205.6810217841
 20
48.0391936436
 10
205.7430197982
 20
49.7831436862
 10
205.9285792013
 20
51.5864427272
 10
206.2363987094
 20
53.4364421096
 10
206.6643182965
 20
55.3201647366
 10
207.2093363168
 20
57.2243978473
 10
207.8676318949
 20
59.1357854101
 10
208.6345846827
 20
61.0409186165
 10
209.5048170057
 20
62.9264366381
 10
210.4722254734
 20
64.7791133165
 10
211.530021809
 20
66.5859514569
 10
212.6707881671
 20
68.3342801622
 10
213.8865225735
 20
70.011834297
 10
215.1686975353
 20
71.6068468786
 10
216.5083193101
 20
73.1081319614
 10
217.8959911264
 20
74.505156115
 10
219.321980355
 20
75.7881243499
 10
220.7762840339
 20
76.9480331537
 10
222.2487015557
 20
77.9767504755
 10
223.674830725
 20
78.8370536125
  0
LWPOLYLINE
  5
21A
330
1F
100
AcDbEntity
  8
0
  6
Continuous
 62
     7
370
    18
100
AcDbPolyline
 90
        3
 70
   128
 43
0.0
 10
205.7736855818
 20
46.0052885428
 10
205.7430197982
 20
46.3668249845
 10
205.6810217841
 20
48.0391936436
  0
LWPOLYLINE
  5
21B
330
1F
100
AcDbEntity
  8
0
  6
Continuous
 62
     7
370
    18
100
AcDbPolyline
 90
       21
 70
   128
 43
0.0
 10
213.5040350047
 20
49.8659880011
 10
213.9181541331
 20
51.7535047317
 10
214.4587770273
 20
53.6644546631
 10
215.1215349031
 20
55.5833992874
 10
215.9010737935
 20
57.4948363107
 10
216.7910966961
 20
59.3833258852
 10
217.7844136218
 20
61.233610758
 10
218.8730002058
 20
63.0307466853
 10
220.0480629034
 20
64.7602123126
 10
221.3001087954
 20
66.4080376865
 10
222.6190239552
 20
67.9609118532
 10
223.9941531329
 20
69.4062896957
 10
225.4143879995
 20
70.7324961091
 10
226.868255228
 20
71.9288163924
 10
228.3440101711
 20
72.9855853087
 10
229.8297312593
 20
73.8942674361
 10
231.3134163336
 20
74.6475219049
 10
232.7830795753
 20
75.2392644375
 10
234.226848847
 20
75.6647128956
 10
235.6330606669
 20
75.9204329826
 10
235.982842631
 20
75.9580719722
  0
LWPOLYLINE
  5
21C
330
1F
100
AcDbEntity
  8
0
  6
Continuous
 62
     7
370
    18
100
AcDbPolyline
 90
       18
 70
   128
 43
0.0
 10
214.0780296419
 20
49.8707846016
 10
214.4936476176
 20
51.7379413186
 10
215.0348012987
 20
53.6275875927
 10
215.6970705344
 20
55.5242856815
 10
216.4750447231
 20
57.4125416613
 10
217.3623675931
 20
59.2769286177
 10
218.3517912037
 20
61.1022182012
 10
219.4352338966
 20
62.8734977322
 10
220.603842858
 20
64.5762960523
 10
221.8480724852
 20
66.1967055712
 10
223.1577574853
 20
67.721486063
 10
224.5221994733
 20
69.1381830998
 10
225.9302519251
 20
70.435221201
 10
227.3704115497
 20
71.602006772
 10
228.8309139435
 20
72.629006138
 10
230.2998274734
 20
73.5078301602
 10
231.7651523475
 20
74.2313005531
 10
231.9089799497
 20
74.2939835155
  0
LWPOLYLINE
  5
21D
330
1F
100
AcDbEntity
  8
0
  6
Continuous
 62
     7
370
    18
100
AcDbPolyline
 90
       16
 70
   128
 43
0.0
 10
238.1902564922
 20
44.1714601192
 10
238.2553536168
 20
45.1162277265
 10
238.4488692254
 20
46.1103840941
 10
238.7655247544
 20
47.1268111351
 10
239.1966827342
 20
48.1377832782
 10
239.7305822182
 20
49.1157243907
 10
240.3526598241
 20
50.0339580405
 10
241.0459468354
 20
50.867437693
 10
241.7915323234
 20
51.5934279478
 10
242.5690785817
 20
52.1921256692
 10
243.3573761964
 20
52.6472001956
 10
244.1349224546
 20
52.9462382752
 10
244.8805079427
 20
53.0810827015
 10
245.573794954
 20
53.0480551941
 10
246.1958725598
 20
52.84805706
 10
246.3379532082
 20
52.7726675969
  0
ARC
  5
21E
330
1F
100
AcDbEntity
  8
0
  6
Continuous
 62
     7
370
    18
100
AcDbCircle
 10
241.5954043402
 20
43.8505485439
 30
0.0
 40
3.42023626459335
100
AcDbArc
 50
174.6161717427
 51
234.0716468074
  0
LWPOLYLINE
  5
21F
330
1F
100
AcDbEntity
  8
0
  6
Continuous
 62
     7
370
    18
100
AcDbPolyline
 90
       19
 70
   128
 43
0.0
 10
228.3432627231
 20
48.586805776
 10
228.4058415735
 20
49.6102619469
 10
228.5922425965
 20
50.6841559876
 10
228.8984947687
 20
51.7856005241
 10
229.3180696091
 20
52.8911196338
 10
229.842025071
 20
53.9771515934
 10
230.4591935569
 20
55.02054858
 10
231.1564219571
 20
55.9990736116
 10
231.918849227
 20
56.8918702966
 10
232.7302261102
 20
57.6799101461
 10
233.5732593926
 20
58.3463981538
 10
234.4299811399
 20
58.8771292994
 10
235.2821319298
 20
59.2607907728
 10
236.1115495575
 20
59.4892065218
 10
236.9005566716
 20
59.557508557
 10
237.6323365972
 20
59.4642402215
 10
238.2912930248
 20
59.211389688
 10
238.8633811756
 20
58.8043461538
 10
239.0488203943
 20
58.6181740917
  0
LWPOLYLINE
  5
220
330
1F
100
AcDbEntity
  8
0
  6
Continuous
 62
     7
370
    18
100
AcDbPolyline
 90
        8
 70
   128
 43
0.0
 10
230.8869228246
 20
44.4687751803
 10
230.4591935569
 20
44.5960647118
 10
229.842025071
 20
44.9268941321
 10
229.3180696091
 20
45.4079799919
 10
228.8984947687
 20
46.0290683023
 10
228.5922425965
 20
46.7769216072
 10
228.4058415735
 20
47.6356016078
 10
228.3432627231
 20
48.586805776
  0
LINE
  5
221
330
1F
100
AcDbEntity
  8
0
  6
Continuous
 62
     7
370
    18
100
AcDbLine
 10
207.2578707383
 20
47.5412515659
 30
0.0
 11
209.411009666
 21
48.7842322113
 31
0.0
  0
LWPOLYLINE
  5
222
330
1F
100
AcDbEntity
  8
0
  6
Continuous
 62
     7
370
    18
100
AcDbPolyline
 90
       20
 70
   128
 43
0.0
 10
194.8107018952
 20
67.7232907178
 10
195.4197646859
 20
69.3959089594
 10
196.1432258773
 20
71.0552479101
 10
196.97341606
 20
72.683717262
 10
197.9015351038
 20
74.264054953
 10
198.9177436951
 20
75.7795070076
 10
200.0112700215
 20
77.2140092778
 10
201.1705213947
 20
78.5523553045
 10
202.3832090449
 20
79.7803565738
 10
203.6364776895
 20
80.8849971633
 10
204.9170414398
 20
81.8545646721
 10
206.2113256357
 20
82.6787830508
 10
207.5056098316
 20
83.3489133966
 10
208.7861735819
 20
83.8578533229
 10
210.0394422264
 20
84.2002059103
 10
211.2521298766
 20
84.3723439992
 10
212.4113812498
 20
84.3724411183
 10
213.5049075762
 20
84.2004974703
 10
214.5211161675
 20
83.8583348811
 10
214.7903186257
 20
83.7324720241
  0
ARC
  5
223
330
1F
100
AcDbEntity
  8
0
  6
Continuous
 62
     7
370
    18
100
AcDbCircle
 10
200.6706927686
 20
58.3646664628
 30
0.0
 40
6.567090909489398
100
AcDbArc
 50
206.8329030039
 51
236.0333930637
  0
ARC
  5
224
330
1F
100
AcDbEntity
  8
0
  6
Continuous
 62
     7
370
    18
100
AcDbCircle
 10
228.1529888979
 20
40.679571961
 30
0.0
 40
12.58145656459729
100
AcDbArc
 50
191.3865744508
 51
214.2485105814
  0
LINE
  5
225
330
1F
100
AcDbEntity
  8
0
  6
Continuous
 62
     7
370
    18
100
AcDbLine
 10
211.2229731478
 20
40.8489711298
 30
0.0
 11
212.946543493
 21
41.843967111
 31
0.0
  0
LINE
  5
226
330
1F
100
AcDbEntity
  8
0
  6
Continuous
 62
     7
370
    18
100
AcDbLine
 10
207.2578707383
 20
46.7247107152
 30
0.0
 11
209.411009666
 21
47.9676913606
 31
0.0
  0
LINE
  5
227
330
1F
100
AcDbEntity
  8
0
  6
Continuous
 62
     7
370
    18
100
AcDbLine
 10
214.929806255
 20
40.1717512238
 30
0.0
 11
214.8629178893
 21
40.4357293789
 31
0.0
  0
LINE
  5
228
330
1F
100
AcDbEntity
  8
0
  6
Continuous
 62
     7
370
    18
100
AcDbLine
 10
214.4216779225
 20
39.7065718935
 30
0.0
 11
214.0780296419
 21
40.8888357195
 31
0.0
  0
LWPOLYLINE
  5
229
330
1F
100
AcDbEntity
  8
0
  6
Continuous
 62
     7
370
    18
100
AcDbPolyline
 90
        3
 70
   128
 43
0.0
 10
214.332042771
 20
38.4537235468
 10
213.9013480773
 20
39.522412423
 10
213.5040350047
 20
40.884039119
  0
LINE
  5
22A
330
1F
100
AcDbEntity
  8
0
  6
Continuous
 62
     7
370
    18
100
AcDbLine
 10
242.13553309
 20
76.1038735295
 30
0.0
 11
242.0351643215
 21
76.0459318728
 31
0.0
  0
ARC
  5
22B
330
1F
100
AcDbEntity
  8
0
  6
Continuous
 62
     7
370
    18
100
AcDbCircle
 10
200.7753799407
 20
65.4074550191
 30
0.0
 40
1.982758115011271
100
AcDbArc
 50
160.3181851691
 51
206.3321513809
  0
ARC
  5
22C
330
1F
100
AcDbEntity
  8
0
  6
Continuous
 62
     7
370
    18
100
AcDbCircle
 10
198.5232689738
 20
65.347787175
 30
0.0
 40
0.823140719254459
100
AcDbArc
 50
40.3516534992
 51
62.0985447238
  0
LINE
  5
22D
330
1F
100
AcDbEntity
  8
0
  6
Continuous
 62
     7
370
    18
100
AcDbLine
 10
198.9084595347
 20
66.0752408681
 30
0.0
 11
199.056261947
 21
66.6294957008
 31
0.0
  0
LINE
  5
22E
330
1F
100
AcDbEntity
  8
0
  6
Continuous
 62
     7
370
    18
100
AcDbLine
 10
198.9084595347
 20
66.0752408681
 30
0.0
 11
197.6552401164
 21
66.7987090388
 31
0.0
  0
LINE
  5
22F
330
1F
100
AcDbEntity
  8
0
  6
Continuous
 62
     7
370
    18
100
AcDbLine
 10
194.8105583325
 20
68.6051960755
 30
0.0
 11
194.7959379858
 21
68.7809219194
 31
0.0
  0
ARC
  5
230
330
1F
100
AcDbEntity
  8
0
  6
Continuous
 62
     7
370
    18
100
AcDbCircle
 10
198.6268104939
 20
52.0463441201
 30
0.0
 40
0.5806338492592451
100
AcDbArc
 50
25.5709532967
 51
60.9828307538
  0
ARC
  5
231
330
1F
100
AcDbEntity
  8
0
  6
Continuous
 62
     7
370
    18
100
AcDbCircle
 10
200.8639173451
 20
53.2000857614
 30
0.0
 40
2.059398257777577
100
AcDbArc
 50
172.8727688225
 51
198.2811498095
  0
LINE
  5
232
330
1F
100
AcDbEntity
  8
0
  6
Continuous
 62
     7
370
    18
100
AcDbLine
 10
198.063274952
 20
57.5876963741
 30
0.0
 11
196.4462070589
 21
58.5212097984
 31
0.0
  0
LINE
  5
233
330
1F
100
AcDbEntity
  8
0
  6
Continuous
 62
     7
370
    18
100
AcDbLine
 10
198.9084595347
 20
52.5540935512
 30
0.0
 11
197.6552401164
 21
53.2775617219
 31
0.0
  0
LINE
  5
234
330
1F
100
AcDbEntity
  8
0
  6
Continuous
 62
     7
370
    18
100
AcDbLine
 10
198.9084595347
 20
52.5540935512
 30
0.0
 11
199.056261947
 21
52.1704877513
 31
0.0
  0
OLE2FRAME
  5
235
330
1F
100
AcDbEntity
  8
0
100
AcDbOle2Frame
 70
     2
  3
Paintbrush-Bild
 10
13.8511154363
 20
38.264191557
 30
0.0
 11
51.6290888628
 21
31.9806341108
 31
0.0
 71
     2
 72
     0
 73
     1
 90
    12928
310
80552BED0767C5B32B40DDAF6807D121434000000000000000006FFBDDFB85D0
310
4940DDAF6807D121434000000000000000006FFBDDFB85D04940416F4BD60AFB
310
3F4000000000000000002BED0767C5B32B40416F4BD60AFB3F40000000000000
310
0000000000000100000000010000010000000100000000000100000000320000
310
D0CF11E0A1B11AE1000000000000000000000000000000003E000300FEFF0900
310
0600000000000000000000000100000001000000000000000010000002000000
310
01000000FEFFFFFF0000000000000000FFFFFFFFFFFFFFFFFFFFFFFFFFFFFFFF
310
FFFFFFFFFFFFFFFFFFFFFFFFFFFFFFFFFFFFFFFFFFFFFFFFFFFFFFFFFFFFFFFF
310
FFFFFFFFFFFFFFFFFFFFFFFFFFFFFFFFFFFFFFFFFFFFFFFFFFFFFFFFFFFFFFFF
310
FFFFFFFFFFFFFFFFFFFFFFFFFFFFFFFFFFFFFFFFFFFFFFFFFFFFFFFFFFFFFFFF
310
FFFFFFFFFFFFFFFFFFFFFFFFFFFFFFFFFFFFFFFFFFFFFFFFFFFFFFFFFFFFFFFF
310
FFFFFFFFFFFFFFFFFFFFFFFFFFFFFFFFFFFFFFFFFFFFFFFFFFFFFFFFFFFFFFFF
310
FFFFFFFFFFFFFFFFFFFFFFFFFFFFFFFFFFFFFFFFFFFFFFFFFFFFFFFFFFFFFFFF
310
FFFFFFFFFFFFFFFFFFFFFFFFFFFFFFFFFFFFFFFFFFFFFFFFFFFFFFFFFFFFFFFF
310
FFFFFFFFFFFFFFFFFFFFFFFFFFFFFFFFFFFFFFFFFFFFFFFFFFFFFFFFFFFFFFFF
310
FFFFFFFFFFFFFFFFFFFFFFFFFFFFFFFFFFFFFFFFFFFFFFFFFFFFFFFFFFFFFFFF
310
FFFFFFFFFFFFFFFFFFFFFFFFFFFFFFFFFFFFFFFFFFFFFFFFFFFFFFFFFFFFFFFF
310
FFFFFFFFFFFFFFFFFFFFFFFFFFFFFFFFFFFFFFFFFFFFFFFFFFFFFFFFFFFFFFFF
310
FFFFFFFFFFFFFFFFFFFFFFFFFFFFFFFFFFFFFFFFFFFFFFFFFFFFFFFFFFFFFFFF
310
FFFFFFFFFFFFFFFFFFFFFFFFFFFFFFFFFFFFFFFFFFFFFFFFFFFFFFFFFFFFFFFF
310
FDFFFFFFFEFFFFFFFEFFFFFFFEFFFFFF05000000060000000700000008000000
310
090000000A0000000B0000000C0000000D0000000E0000000F00000010000000
310
11000000120000001300000014000000150000001600000017000000FEFFFFFF
310
FFFFFFFFFFFFFFFFFFFFFFFFFFFFFFFFFFFFFFFFFFFFFFFFFFFFFFFFFFFFFFFF
310
FFFFFFFFFFFFFFFFFFFFFFFFFFFFFFFFFFFFFFFFFFFFFFFFFFFFFFFFFFFFFFFF
310
FFFFFFFFFFFFFFFFFFFFFFFFFFFFFFFFFFFFFFFFFFFFFFFFFFFFFFFFFFFFFFFF
310
FFFFFFFFFFFFFFFFFFFFFFFFFFFFFFFFFFFFFFFFFFFFFFFFFFFFFFFFFFFFFFFF
310
FFFFFFFFFFFFFFFFFFFFFFFFFFFFFFFFFFFFFFFFFFFFFFFFFFFFFFFFFFFFFFFF
310
FFFFFFFFFFFFFFFFFFFFFFFFFFFFFFFFFFFFFFFFFFFFFFFFFFFFFFFFFFFFFFFF
310
FFFFFFFFFFFFFFFFFFFFFFFFFFFFFFFFFFFFFFFFFFFFFFFFFFFFFFFFFFFFFFFF
310
FFFFFFFFFFFFFFFFFFFFFFFFFFFFFFFFFFFFFFFFFFFFFFFFFFFFFFFFFFFFFFFF
310
FFFFFFFFFFFFFFFFFFFFFFFFFFFFFFFFFFFFFFFFFFFFFFFFFFFFFFFFFFFFFFFF
310
FFFFFFFFFFFFFFFFFFFFFFFFFFFFFFFFFFFFFFFFFFFFFFFFFFFFFFFFFFFFFFFF
310
FFFFFFFFFFFFFFFFFFFFFFFFFFFFFFFFFFFFFFFFFFFFFFFFFFFFFFFFFFFFFFFF
310
FFFFFFFFFFFFFFFFFFFFFFFFFFFFFFFFFFFFFFFFFFFFFFFFFFFFFFFFFFFFFFFF
310
FFFFFFFFFFFFFFFFFFFFFFFFFFFFFFFFFFFFFFFFFFFFFFFFFFFFFFFFFFFFFFFF
310
52006F006F007400200045006E00740072007900000000000000000000000000
310
0000000000000000000000000000000000000000000000000000000000000000
310
16000500FFFFFFFFFFFFFFFF020000000A00030000000000C000000000000046
310
000000000000000000000000606B2C6111A7D30103000000C000000000000000
310
01004F006C006500000000000000000000000000000000000000000000000000
310
0000000000000000000000000000000000000000000000000000000000000000
310
0A000200FFFFFFFFFFFFFFFFFFFFFFFF00000000000000000000000000000000
310
0000000000000000000000000000000000000000000000001400000000000000
310
010043006F006D0070004F0062006A0000000000000000000000000000000000
310
0000000000000000000000000000000000000000000000000000000000000000
310
120002010100000003000000FFFFFFFF00000000000000000000000000000000
310
0000000000000000000000000000000000000000010000004D00000000000000
310
01004F006C006500310030004E00610074006900760065000000000000000000
310
0000000000000000000000000000000000000000000000000000000000000000
310
1A000200FFFFFFFFFFFFFFFFFFFFFFFF00000000000000000000000000000000
310
0000000000000000000000000000000000000000040000002426000000000000
310
FEFFFFFF02000000FEFFFFFFFFFFFFFFFFFFFFFFFFFFFFFFFFFFFFFFFFFFFFFF
310
FFFFFFFFFFFFFFFFFFFFFFFFFFFFFFFFFFFFFFFFFFFFFFFFFFFFFFFFFFFFFFFF
310
FFFFFFFFFFFFFFFFFFFFFFFFFFFFFFFFFFFFFFFFFFFFFFFFFFFFFFFFFFFFFFFF
310
FFFFFFFFFFFFFFFFFFFFFFFFFFFFFFFFFFFFFFFFFFFFFFFFFFFFFFFFFFFFFFFF
310
FFFFFFFFFFFFFFFFFFFFFFFFFFFFFFFFFFFFFFFFFFFFFFFFFFFFFFFFFFFFFFFF
310
FFFFFFFFFFFFFFFFFFFFFFFFFFFFFFFFFFFFFFFFFFFFFFFFFFFFFFFFFFFFFFFF
310
FFFFFFFFFFFFFFFFFFFFFFFFFFFFFFFFFFFFFFFFFFFFFFFFFFFFFFFFFFFFFFFF
310
FFFFFFFFFFFFFFFFFFFFFFFFFFFFFFFFFFFFFFFFFFFFFFFFFFFFFFFFFFFFFFFF
310
FFFFFFFFFFFFFFFFFFFFFFFFFFFFFFFFFFFFFFFFFFFFFFFFFFFFFFFFFFFFFFFF
310
FFFFFFFFFFFFFFFFFFFFFFFFFFFFFFFFFFFFFFFFFFFFFFFFFFFFFFFFFFFFFFFF
310
FFFFFFFFFFFFFFFFFFFFFFFFFFFFFFFFFFFFFFFFFFFFFFFFFFFFFFFFFFFFFFFF
310
FFFFFFFFFFFFFFFFFFFFFFFFFFFFFFFFFFFFFFFFFFFFFFFFFFFFFFFFFFFFFFFF
310
FFFFFFFFFFFFFFFFFFFFFFFFFFFFFFFFFFFFFFFFFFFFFFFFFFFFFFFFFFFFFFFF
310
FFFFFFFFFFFFFFFFFFFFFFFFFFFFFFFFFFFFFFFFFFFFFFFFFFFFFFFFFFFFFFFF
310
FFFFFFFFFFFFFFFFFFFFFFFFFFFFFFFFFFFFFFFFFFFFFFFFFFFFFFFFFFFFFFFF
310
FFFFFFFFFFFFFFFFFFFFFFFFFFFFFFFFFFFFFFFFFFFFFFFFFFFFFFFFFFFFFFFF
310
0100000200000000000000000000000000000000000000000000000000000000
310
0000000000000000000000000000000000000000000000000000000000000000
310
0100FEFF030A0000FFFFFFFF0A00030000000000C00000000000004607000000
310
5042727573680007000000504272757368000700000050427275736800F439B2
310
7100000000000000000000000000000000000000000000000000000000000000
310
0000000000000000000000000000000000000000000000000000000000000000
310
0000000000000000000000000000000000000000000000000000000000000000
310
0000000000000000000000000000000000000000000000000000000000000000
310
0000000000000000000000000000000000000000000000000000000000000000
310
0000000000000000000000000000000000000000000000000000000000000000
310
0000000000000000000000000000000000000000000000000000000000000000
310
0000000000000000000000000000000000000000000000000000000000000000
310
0000000000000000000000000000000000000000000000000000000000000000
310
0000000000000000000000000000000000000000000000000000000000000000
310
0000000000000000000000000000000000000000000000000000000000000000
310
0000000000000000000000000000000000000000000000000000000000000000
310
20260000424D0E260000000000003E00000028000000B40200006E0000000100
310
01000000000000000000130B0000130B00000200000002000000000000FFFFFF
310
FFFFFFFFFFFFFFFFFFFFFFFFFFFFFFFFFFFFFFFFFFFFFFFFFFFFFFFFFFFFFFFF
310
FFFFFFFFFFFFFFFFFFFFFFFFFFFFFFFFFFFFFFFFFFFFFFFFFFFFFFFFFFFFFFFF
310
FFFFFFFFFFFFFFFFFFFFFFFFFFFFFFFFFFFFFFFFFFFFFFFFF000FFFFFFFFFFFF
310
FFFFFFFFFFFFFFFFFFFFFFFFFFFFFFFFFFFFFFFFFFFFFFFFFFFFFFFFFFFFFFFF
310
FFFFFFFFFFFFFFFFFFFFFFFFFFFFFFFFFFFFFFFFFFFFFFFFFFFFFFFFFFFFFFFF
310
FFFFFFFFFFFFFFFFFFFFFFFFFFFFFFFFF000FFFFFFFFFFFFFFFFFFFFFFFFFFFF
310
FFFFFFFFFFFFFFFFFFFFFFFFFFFFFFFFFFFFFFFFFFFFFFFFFFFFFFFFFFFFFFFF
310
FFFFFFFFFFFFFFFFFFFFFFFFFFFFFFFFFFFFFFFFFFFFFFFFFFFFFFFFFFFFFFFF
310
FFFFFFFFFFFFFFFFF000FFFFFFFFFFFFFFFFFFFFFFFFFFFFFFFFFFFFFFFFFFFF
310
FFFFFFFFFFFFFFFFFFFFFFFFFFFFFFFFFFFFFFFFFFFFFFFFFFFFFFFFFFFFFFFF
310
FFFFFFFFFFFFFFFFFFFFFFFFFFFFFFFFFFFFFFFFFFFFFFFFFFFFFFFFFFFFFFFF
310
F000FFFFFFFFFFFFFFFFFFFFFFFFFFFFFFFFFFFFFFFFFFFFFFFFFFFFFFFFFFFF
310
FFFFFFFFFFFFFFFFFFFFFFFFFFFFFFFFFFFFFFFFFFFFFFFFFFFFFFFFFFFFFFFF
310
FFFFFFFFFFFFFFFFFFFFFFFFFFFFFFFFFFFFFFFFFFFFFFFFF000FFFFFFFFFFFF
310
FFFFFFFFFFFFFFFFFFFFFFFFFFFFFFFFFFFFFFFFFFFFFFFFFFFFFFFFFFFFFFFF
310
FFFFFFFFFFFFFFFFFFFFFFFFFFFFFFFFFFFFFFFFFFFFFFFFFFFFFFFFFFFFFFFF
310
FFFFFFFFFFFFFFFFFFFFFFFFFFFFFFFFF000FFFFFFFFFFFFFFFFFFFFFFFFFFFF
310
FFFFFFFFFFFFFFFFFFFFFFFFFFFFFFFFFFFFFFFFFFFFFFFFFFFFFFFFFFFFFFFF
310
FFFFFFFFFFFFFFFFFFFFFFFFFFFFFFFFFFFFFFFFFFFFFFFFFFFFFFFFFFFFFFFF
310
FFFFFFFFFFFFFFFFF000FFFFFFFFFFFFFFFFFFFFFFFFFFFFFFFFFFFFFFFFFFFF
310
FFFFFFFFFFFFFFFFFFFFFFFFFFFFFFFFFFFFFFFFFFFFFFFFFFFFFFFFFFFFFFFF
310
FFFFFFFFFFFFFFFFFFFFFFFFFFFFFFFFFFFFFFFFFFFFFFFFFFFFFFFFFFFFFFFF
310
F000FFFFFFFFFFFFFFFFFFFFFFFFFFFFFFFFFFFFFFFFFFFFFFFFFFFFFFFFFFFF
310
FFFFFFFFFFFFFFFFFFFFFFFFFFFFFFFFFFFFFFFFFFFFFFFFFFFFFFFFFFFFFFFF
310
FFFFFFFFFFFFFFFFFFFFFFFFFFFFFFFFFFFFFFFFFFFFFFFFF000FFFFFFFFFFFF
310
FFFFFFFFFFFFFFFFFFFFFFFFFFFFFFFFFFFFFFFFFFFFFFFFFFFFFFFFFFFFFFFF
310
FFFFFFFFFFFFFFFFFFFFFFFFFFFFFFFFFFFFFFFFFFFFFFFFFFFFFFFFFFFFFFFF
310
FFFFFFFFFFFFFFFFFFFFFFFFFFFFFFFFF000FFFFFFFFFFFFFFFFFFFFFFFFFFFF
310
FFFFFFFFFFFFFFFFFFFFFFFFFFFFFFFFFFFFFFFFFFFFFFFFFFFFFFFFFFFFFFFF
310
FFFFFFFFFFFFFFFFFFFFFFFFFFFFFFFFFFFFFFFFFFFFFFFFFFFFFFFFFFFFFFFF
310
FFFFFFFFFFFFFFFFF000FFFFFFFFFFFFFFFFFFFFFFFFFFFFFFFFFFFFFFFFFFFF
310
FFFFFFFFFFFFFFFFFFFFFFFFFFFFFFFFFFFFFFFFFFFFFFFFFFFFFFFFFFFFFFFF
310
FFFFFFFFFFFFFFFFFFFFFFFFFFFFFFFFFFFFFFFFFFFFFFFFFFFFFFFFFFFFFFFF
310
F000FFFFFFFFFFFFFFFFFFFFFFFFFFFFFFFFFFFFFFFFFFFFFFFFFFFFFFFFFFFF
310
FFFFFFFFFFFFFFFFFFFFFFFFFFFFFFFFFFFFFFFFFFFFFFFFFFFFFFFFFFFFFFFF
310
FFFFFFFFFFFFFFFFFFFFFFFFFFFFFFFFFFFFFFFFFFFFFFFFF000FFFFFFFFFFFF
310
FFFFFFFFFFFFFFFFFFFFFFFFFFFFFFFFFFFFFFFFFFFFFFFFFFFFFFFFFFFFFFFF
310
FFFFFFFFFFFFFFFFFFFFFFFFFFFFFFFFFFFFFFFFFFFFFFFFFFFFFFFFFFFFFFFF
310
FFFFFFFFFFFFFFFFFFFFFFFFFFFFFFFFF000FFFFFFFFFFFFFFFFFFFFFFFFFFFF
310
FFFFFFFFFFFFFFFFFFFFFFFFFFFFFFFFFFFFFFFFFFFFFFFFFFFFFFFFFFFFFFFF
310
FFFFFFFFFFFFFFFFFFFFFFFFFFFFFFFFFFFFFFFFFFFFFFFFFFFFFFFFFFFFFFFF
310
FFFFFFFFFFFFFFFFF000FFFFFFFFFFFFFFFFFFFFFFFFFFFFFFFFFFFFFFFFFFFF
310
FFFFFFFFFFFFFFFFFFFFFFFFFFFFFFFFFFFFFFFFFFFFFFFFFFFFFFFFFFFFFFFF
310
FFFFFFFFFFFFFFFFFFFFFFFFFFFFFFFFFFFFFFFFFFFFFFFFFFFFFFFFFFFFFFFF
310
F000FFFFFFFFFFFFFFFFFFFFFFFFFFFFFFFFFFFFFFFFFFFFFFFFFFFFFFFFFFFF
310
FFFFFFFFFFFFFFFFFFFFFFFFFFFFFFFFFFFFFFFFFFFFFFFFFFFFFFFFFFFFFFFF
310
FFFFFFFFFFFFFFFFFFFFFFFFFFFFFFFFFFFFFFFFFFFFFFFFF000FFFFFFFFFFFF
310
FFFFFFFFFFFFFFFFFFFFFFFFFFFFFFFFFFFFFFFFFFFFFFFFFFFFFFFFFFFFFFFF
310
FFFFFFFFFFFFFFFFFFFFFFFFFFFFFFFFFFFFFFFFFFFFFFFFFFFFFFFFFFFFFFFF
310
FFFFFFFFFFFFFFFFFFFFFFFFFFFFFFFFF000FFFFFFFFFFFFFFFFFFFFFFFFFFFF
310
FFFFFFFFFFFFFFFFFFFFFFFFFFFFFFFFFFFFFFFFFFFFFFFFFFFFFFFFFFFFFFFF
310
FFFFFFFFFFFFFFFFFFFFFFFFFFFFFFFFFFFFFFFFFFFFFFFFFFFFFFFFFFFFFFFF
310
FFFFFFFFFFFFFFFFF000FFFFF80003FFFFFFFFFFFFFFFFFFFFFFFFFFFFFFFFFF
310
FFFFF00007FFFFFFFFFF00007FFFFFF800000000000000007FFFFFFFFFFFFFFF
310
FFFFFFFC001FFFFFFFFFFFFFFC001FFFFFFFFFFFFFFFFFFFFFFFFFFE0007FFFF
310
F000FFFF8000007FFFFFFFF8000FFFFFC0007FFFFF80007FFFFF0000007FFFFF
310
FFF8000007FFFFF800000000000000007FFFFFF0001FFFFFFFFFFFC00001FFFF
310
FFFFFFFFC00001FFFFFFFF000000000003FFFFE000007FFFF000FFFE0000000F
310
FFFFFFF0000FFFFF80007FFFFF80007FFFFC0000001FFFFFFFC0000001FFFFF8
310
00000000000000007FFFFFF0001FFFFFFFFFFE0000003FFFFFFFFFFE0000003F
310
FFFFFF000000000003FFFF0000000FFFF000FFF800000003FFFFFFF00007FFFF
310
80007FFFFF80007FFFF000000007FFFFFF000000003FFFF80000000000000000
310
7FFFFFF0001FFFFFFFFFF80000000FFFFFFFFFF80000000FFFFFFF0000000000
310
03FFFC00000003FFF000FFE000000000FFFFFFF00007FFFF80003FFFFF80007F
310
FFC000000001FFFFFC000000001FFFF800000000000000007FFFFFF0001FFFFF
310
FFFFE000000003FFFFFFFFE000000003FFFFFF000000000003FFF000000000FF
310
F000FF80000000007FFFFFF00007FFFF80003FFFFF80007FFF8000000000FFFF
310
F80000000007FFF800000000000000007FFFFFF0001FFFFFFFFFC000000001FF
310
FFFFFFC000000001FFFFFF000000000003FFC0000000007FF000FF0000000000
310
3FFFFFE00007FFFF00003FFFFF80007FFE00000000003FFFF00000000003FFF8
310
00000000000000007FFFFFF0001FFFFFFFFF8000000000FFFFFFFF8000000000
310
FFFFFF000000000003FF80000000003FF000FE00000000001FFFFFE00003FFFF
310
00003FFFFF80007FFC00000000001FFFE00000000001FFF8000001FFFE000000
310
7FFFFFF0001FFFFFFFFE00000000003FFFFFFE00000000003FFFFF0000000000
310
03FF00000000001FF000FC00000000000FFFFFE00003FFFF00001FFFFF80007F
310
F800000000001FFFC00000000000FFF8000001FFFE0000007FFFFFF0001FFFFF
310
FFFC00000000001FFFFFFC00000000001FFFFF000000000003FE00000000000F
310
F000F8000000000007FFFFE00003FFFF00001FFFFF80007FF800000000000FFF
310
800000000000FFF8000001FFFE0000007FFFFFF0001FFFFFFFF800000000000F
310
FFFFF800000000000FFFFF000000000003FC000000000007F000F80000000000
310
03FFFFC00003FFFE00001FFFFF80007FF0000000000007FF0000000000007FF8
310
000001FFFE0000007FFFFFF0001FFFFFFFF0000000000007FFFFF00000000000
310
07FFFF000000000003F8000000000003F000F0000000000003FFFFC00001FFFE
310
00001FFFFF80007FE0000000000007FE0000000000003FF8000001FFFE000000
310
7FFFFFF0001FFFFFFFF0000000000007FFFFF0000000000007FFFF0000000000
310
03F800001F800003F000E00001FFF00001FFFFC00001FFFE00000FFFFF80007F
310
E00001FFE00003FE00001FFF00003FF8000001FFFE0000007FFFFFF0001FFFFF
310
FFE000003E000003FFFFE000003E000003FFFF000000000003F00001FFF80001
310
F000E00007FFFC0001FFFFC00001FFFE00000FFFFF80007FC0000FFFFC0003FC
310
0000FFFFC0001FF8000001FFFE0000007FFFFFF0001FFFFFFFC00003FFE00001
310
FFFFC00003FFE00001FFFF0001FFFFFFFFF00007FFFE0001F000E0000FFFFF00
310
00FFFF800001FFFC00000FFFFF80007FC0001FFFFE0001FC0001FFFFE0001FF8
310
000001FFFE0000007FFFFFF0001FFFFFFF80000FFFF80000FFFF80000FFFF800
310
00FFFF0003FFFFFFFFE0000FFFFF8000F000C0003FFFFF8000FFFF800000FFFC
310
000007FFFF80007F80003FFFFF0001FC0003FFFFF0001FF8000001FFFE000000
310
7FFFFFF0001FFFFFFF80003FFFFE0000FFFF80003FFFFE0000FFFF0003FFFFFF
310
FFE0003FFFFF8000F000C0003FFFFF8000FFFF800000FFFC000007FFFF80007F
310
80007FFFFF8001F80007FFFFF8000FF8000001FFFE0000007FFFFFF0001FFFFF
310
FF00007FFFFF00007FFF00007FFFFF00007FFF0003FFFFFFFFE0003FFFFFC000
310
F000C0007FFFFFC000FFFF000000FFFC000007FFFF80007F8000FFFFFF8000F8
310
000FFFFFF8000FF8000001FFFE0000007FFFFFF0001FFFFFFF0000FFFFFF8000
310
7FFF0000FFFFFF80007FFF0003FFFFFFFFC0007FFFFFC00070008000FFFFFFC0
310
00FFFF000000FFF8000007FFFF80007F8000FFFFFF8000F8000FFFFFF8000FF8
310
000001FFFE0000007FFFFFF0001FFFFFFE0001FFFFFFC0003FFE0001FFFFFFC0
310
003FFF0003FFFFFFFFC0007FFFFFE00070008000FFFFFFC0007FFF0000007FF8
310
000003FFFF80007F0001FFFFFF8000F8000FFFFFF8000FF8000001FFFE000000
310
7FFFFFF0001FFFFFFE0001FFFFFFC0003FFE0001FFFFFFC0003FFF0003FFFFFF
310
FFC000FFFFFFE00070008000FFFFFFC0007FFF0000007FF8000003FFFF80007F
310
0001FFFFFF8000F8001FFFFFF8000FF8000001FFFE0000007FFFFFF0001FFFFF
310
FE0003FFFFFFE0003FFE0003FFFFFFE0003FFF0003FFFFFFFFC000FFFFFFE000
310
70008000FFFFFFC0007FFE0000007FF8000003FFFF80007F0001FFFFFF8000F0
310
001FFFFFF8000FF8000001FFFE0000007FFFFFF0001FFFFFFC0003FFFFFFE000
310
1FFC0003FFFFFFE0001FFF0003FFFFFFFFC000FFFFFFC00070008000FFFFFF80
310
007FFE0000007FF0000003FFFF80007F0001FFFFFF0000F0001FFFFFF8000FF8
310
000001FFFE0000007FFFFFF0001FFFFFFC0007FFFFFFF0001FFC0007FFFFFFF0
310
001FFF0003FFFFFFFFC000FFFFFFC00070008001FFFFFF0000FFFE0000003FF0
310
000001FFFF80007F0001FFFFFF0000F8001FFFFFF0000FF8000001FFFE000000
310
7FFFFFF0001FFFFFFC0007FFFFFFF0001FFC0007FFFFFFF0001FFF0003FFFFFF
310
FFC001FFFFFF80007000FFFFFFFFFE0000FFFE0008003FF0008001FFFF80007F
310
FFFFFFFFFC0000FFFFFFFFFFE0000FF8000001FFFE0000007FFFFFF0001FFFFF
310
F8000FFFFFFFF8000FF8000FFFFFFFF8000FFF0003FFFFFFFFFFFFFFFFFF0000
310
7000FFFFFFFFFC0000FFFC0008003FF0008001FFFF80007FFFFFFFFFF80001FF
310
FFFFFFFF80000FF8000001FFFE0000007FFFFFF0001FFFFFF8000FFFFFFFF800
310
0FF8000FFFFFFFF8000FFF0003FFFFFFFFFFFFFFFFFE0000F000FFFFFFFFE000
310
00FFFC000C003FE000C001FFFF80007FFFFFFFFFC00001FFFFFFFFFE00001FF8
310
000001FFFE0000007FFFFFF0001FFFFFF8000FFFFFFFF8000FF8000FFFFFFFF8
310
000FFF0003FFFFFFFFFFFFFFFFF00000F000FFFFFFFE000001FFFC000C001FE0
310
00C000FFFF80007FFFFFFFFE000001FFFFFFFFE000001FF80FFFFFFFFFFFFFC0
310
7FFFFFF0001FFFFFF8000FFFFFFFF8000FF8000FFFFFFFF8000FFF0003FFFFFF
310
FFFFFFFFFF800000F000FFFFFFC0000001FFFC001C001FE001C000FFFF80007F
310
FFFFFF80000003FFFFFFF80000001FF80FFFFFFFFFFFFFC07FFFFFF0001FFFFF
310
F8001FFFFFFFFC000FF8001FFFFFFFFC000FFF0003FFFFFFFFFFFFFFF0000001
310
F000FFFFF800000001FFF8001C001FE001C000FFFF80007FFFFFF800000003FF
310
FFFF800000003FF80FFFFFFFFFFFFFC07FFFFFF0001FFFFFF8001FFFFFFFFC00
310
0FF8001FFFFFFFFC000FFF0003FFFFFFFFFFFFFE00000001F000FFFFC0000000
310
03FFF8001E001FC001E000FFFF80007FFFFF8000000007FFFFFC000000003FF8
310
0FFFFFFFFFFFFFC07FFFFFF0001FFFFFF8001FFFFFFFFC000FF8001FFFFFFFFC
310
000FFF0003FFFFFFFFFFFFE000000003F000FFFE0000000007FFF8001E000FC0
310
01E0007FFF80007FFFFE0000000007FFFFE0000000007FF80FFFFFFFFFFFFFC0
310
7FFFFFF0001FFFFFF0001FFFFFFFFC0007F0001FFFFFFFFC0007FF0003FFFFFF
310
FFFFFF0000000003F000FFF80000000007FFF8001E000FC003E0007FFF80007F
310
FFF0000000000FFFFF8000000000FFF80FFFFFFFFFFFFFC07FFFFFF0001FFFFF
310
F0001FFFFFFFFC0007F0001FFFFFFFFC0007FF0003FFFFFFFFFFFC0000000007
310
F000FFE0000000000FFFF0003E000FC003E0007FFF80007FFFC0000000001FFF
310
FE0000000001FFF80FFFFFFFFFFFFFC07FFFFFF0001FFFFFF0001FFFFFFFFC00
310
07F0001FFFFFFFFC0007FF0003FFFFFFFFFFF0000000000FF000FFC000000000
310
1FFFF0003F000F8003F0003FFF80007FFF80000000003FFFF80000000003FFF8
310
0FFFFFFFFFFFFFC07FFFFFF0001FFFFFF0001FFFFFFFFC0007F0001FFFFFFFFC
310
0007FF0003FFFFFFFFFFE0000000001FF000FF00000000007FFFF0003F000780
310
03F0003FFF80007FFF00000000007FFFF00000000007FFF80FFFFFFFFFFFFFC0
310
7FFFFFF0001FFFFFF0001FFFFFFFFC0007F0001FFFFFFFFC0007FF0003FFFFFF
310
FFFF80000000007FF000FE0000000000FFFFE0003F00078007F0003FFF80007F
310
FE0000000001FFFFE0000000001FFFF80FFFFFFFFFFFFFC07FFFFFF0001FFFFF
310
F0001FFFFFFFFC0007F0001FFFFFFFFC0007FF0003FFFFFFFFFF0000000000FF
310
F000FC0000000003FFFFE0007F00078007F0003FFF80007FFC0000000007FFFF
310
C0000000007FFFF80FFFFFFFFFFFFFC07FFFFFF0001FFFFFF8001FFFFFFFFC00
310
0FF8001FFFFFFFFC000FFF0003FFFFFFFFFE0000000003FFF000FC000000000F
310
FFFFE0007F80070007F8001FFF80007FF8000000001FFFFF8000000001FFFFF8
310
0FFFFFFFFFFFFFC07FFFFFF0001FFFFFF8001FFFFFFFFC000FF8001FFFFFFFFC
310
000FFF0003FFFFFFFFFC000000000FFFF000F8000000007FFFFFE0007F800700
310
07F8001FFF80007FF000000000FFFFFF800000000FFFFFF80FFFFFFFFFFFFFC0
310
7FFFFFF0001FFFFFF8000FFFFFFFF8000FF8000FFFFFFFF8000FFF0003FFFFFF
310
FFFC000000007FFFF000F800000007FFFFFFC0007F8003000FF8001FFF80007F
310
F000000007FFFFFF000000007FFFFFF80FFFFFFFFFFFFFC07FFFFFF0001FFFFF
310
F8000FFFFFFFF8000FF8000FFFFFFFF8000FFF0003FFFFFFFFF80000000FFFFF
310
F000F0000000FFFFFFFFC000FF8003000FF8001FFF80007FE0000000FFFFFFFF
310
0000000FFFFFFFF8000001FFFE0000007FFFFFF0001FFFFFF8000FFFFFFFF800
310
0FF8000FFFFFFFF8000FFF0003FFFFFFFFF8000000FFFFFFF000F000000FFFFF
310
FFFFC000FFC002000FF8000FFF80007FE000001FFFFFFFFE000001FFFFFFFFF8
310
000001FFFE0000007FFFFFF0001FFFFFF8000FFFFFFFF8000FF8000FFFFFFFF8
310
000FFF0003FFFFFFFFF000001FFFFFFFF000E00000FFFFFFFFFFC000FFC00200
310
0FFC000FFF80007FE00001FFFFFFFFFE00001FFFFFFFFFF8000001FFFE000000
310
7FFFFFF0001FFFFFFC000FFFFFFFF8001FFC000FFFFFFFF8001FFF0003FFFFFF
310
FFF00001FFFFFFFFF000E00007FFFFFFFFFF8000FFC000001FFC000FFF80007F
310
C0000FFFFFFFFFFE0000FFFFFFFFFFF8000001FFFE0000007FFFFFF0001FFFFF
310
FC0007FFFFFFF0001FFC0007FFFFFFF0001FFF0003FFFFFFFFF00007FFFFFFFF
310
F000E0001FFFFFFFFFFF8000FFC000001FFC000FFF80007FC0003FFFFFFFFFFE
310
0001FFFFFFFFFFF8000001FFFE0000007FFFFFF0001FFFFFFC0007FFFFFFF000
310
1FFC0007FFFFFFF0001FFF0003FFFFFFFFF0001FFFFFFFFFF000E0003FFFFF00
310
03FF8001FFE000001FFC0007FF80007FC0007FFFFF0007FC0003FFFFF0003FF8
310
000001FFFE0000007FFFFFF0001FFFFFFC0003FFFFFFE0001FFC0003FFFFFFE0
310
001FFF0003FFFFFFFFF0003FFFFFFFFFF000E0003FFFFF0001FF8001FFE00000
310
1FFE0007FF80007FC0007FFFFE0003FC0007FFFFE0003FF8000001FFFE000000
310
7FFFFFF0001FFFFFFE0003FFFFFFE0003FFE0003FFFFFFE0003FFF0003FFFFFF
310
FFF0003FFFFF8001F000E0003FFFFF0001FF0001FFE000001FFE0007FF80007F
310
C0007FFFFE0003FC0007FFFFE0003FF8000001FFFE0000007FFFFFF0001FFFFF
310
FE0001FFFFFFC0003FFE0001FFFFFFC0003FFF0003FFFFFFFFF0003FFFFF0001
310
F000E0003FFFFF0003FF0001FFE000003FFE0007FF80007FC0007FFFFE0003FC
310
0007FFFFE0003FF8000001FFFE0000007FFFFFF0001FFFFFFF0001FFFFFFC000
310
7FFF0001FFFFFFC0007FFF0003FFFFFFFFF0003FFFFF0001F000E0003FFFFE00
310
03FF0003FFF000003FFE0003FF80007FC0007FFFFC0003FE0007FFFFE0003FF8
310
000001FFFE0000007FFFFFF0001FFFFFFF0000FFFFFF80007FFF0000FFFFFF80
310
007FFF0003FFFFFFFFF0003FFFFF0001F000E0003FFFFE0003FF0003FFF00000
310
3FFF0003FF80007FC0007FFFFC0007FE0007FFFFC0003FF8000001FFFE000000
310
7FFFFFF0001FFFFFFF80007FFFFF0000FFFF80007FFFFF0000FFFF0003FFFFFF
310
FFF0003FFFFF0003F000E0003FFFFC0003FE0003FFF000003FFF0003FF80007F
310
E0003FFFF80007FE0003FFFFC0007FF8000001FFFE0000007FFFFFF0001FFFFF
310
FF80003FFFFE0000FFFF80003FFFFE0000FFFF0003FFFFFFFFF0001FFFFE0003
310
F000F0001FFFF80003FE0003FFF000007FFF0001FF80007FE0003FFFF00007FE
310
0001FFFF80007FF8000001FFFE0000007FFFFFF0001FFFFFFFC0000FFFF80001
310
FFFFC0000FFFF80001FFFF0003FFFFFFFFF0001FFFFC0003F000F0000FFFF000
310
07FE0007FFF800007FFF0001FF80007FE0001FFFE00007FF0000FFFE00007FF8
310
000001FFFE0000007FFFFFF0001FFFFFFFC00003FFE00001FFFFC00003FFE000
310
01FFFF0003FFFFFFFFF8000FFFF80003F000F00003FFC00007FC0007FFF80000
310
7FFF8001FF80007FF00007FF80000FFF00007FF80000FFF8000001FFFE000000
310
7F80000000000001FFE000003E000003FFFFE000003E000003FFFF0003FFFFFF
310
FFF80003FFE00007F000F800000000000FFC0007FFF800007FFF8001FF80007F
310
F000000000000FFF000000000000FFF8000001FFFE0000007F80000000000001
310
FFF0000000000007FFFFF0000000000007FFFF0003FFFFFFFFFC00007E000007
310
F000F800000000000FFC0007FFF80000FFFF8000FF80007FF800000000001FFF
310
800000000001FFF8000001FFFE0000007F80000000000001FFF800000000000F
310
FFFFF800000000000FFFFF0003FFFFFFFFFC00000000000FF000FC0000000000
310
1FFC0007FFFC0000FFFF8000FF80007FF800000000003FFFC00000000001FFF8
310
000001FFFE0000007F80000000000001FFF800000000000FFFFFF80000000000
310
0FFFFF0003FFFFFFFFFE00000000001FF000FE00000000003FF8000FFFFC0000
310
FFFF8000FF80007FFC00000000003FFFC00000000003FFF8000001FFFE000000
310
7F80000000000001FFFC00000000001FFFFFFC00000000001FFFFF0003FFFFFF
310
FFFF00000000001FF000FF00000000003FF8000FFFFC0000FFFFC000FF80007F
310
FE00000000007FFFE00000000007FFF8000001FFFE0000007F80000000000001
310
FFFE00000000003FFFFFFE00000000003FFFFF0003FFFFFFFFFF80000000003F
310
F000FF80000000007FF8000FFFFC0001FFFFC0007F80007FFF0000000000FFFF
310
F0000000000FFFF800000000000000007F80000000000001FFFF8000000000FF
310
FFFFFF8000000000FFFFFF0003FFFFFFFFFFC0000000007FF000FFC000000000
310
FFF8000FFFFE0001FFFFC0007F80007FFF8000000001FFFFF8000000001FFFF8
310
00000000000000007F80000000000001FFFFC000000001FFFFFFFFC000000001
310
FFFFFF0003FFFFFFFFFFE000000000FFF000FFE000000003FFF0001FFFFE0001
310
FFFFC0007F80007FFFC000000007FFFFFE000000003FFFF80000000000000000
310
7F80000000000001FFFFE000000003FFFFFFFFE000000003FFFFFF0003FFFFFF
310
FFFFF000000003FFF000FFF80000000FFFF0001FFFFE0001FFFFE0007F80007F
310
FFF00000000FFFFFFF00000000FFFFF800000000000000007F80000000000001
310
FFFFF80000000FFFFFFFFFF80000000FFFFFFF0003FFFFFFFFFFFC0000000FFF
310
F000FFFE0000003FFFF0001FFFFE0003FFFFE0003F80007FFFFC0000003FFFFF
310
FFC0000003FFFFF800000000000000007F80000000000001FFFFFE0000003FFF
310
FFFFFFFE0000003FFFFFFF0003FFFFFFFFFFFF0000003FFFF000FFFF800000FF
310
FFF0001FFFFF0003FFFFE0003F80007FFFFF000001FFFFFFFFF800001FFFFFF8
310
00000000000000007F80000000000001FFFFFFC00001FFFFFFFFFFFFC00001FF
310
FFFFFF0003FFFFFFFFFFFFC00000FFFFF000FFFFF8000FFFFFFFFFFFFFFFFFFF
310
FFFFFFFFFFFFFFFFFFFFF0001FFFFFFFFFFF0000FFFFFFF80000000000000000
310
7FFFFFFFFFFFFFFFFFFFFFFC001FFFFFFFFFFFFFFC001FFFFFFFFFFFFFFFFFFF
310
FFFFFFFC001FFFFFF000FFFFFFFFFFFFFFFFFFFFFFFFFFFFFFFFFFFFFFFFFFFF
310
FFFFFFFFFFFFFFFFFFFFFFFFFFFFFFFFFFFFFFFFFFFFFFFFFFFFFFFFFFFFFFFF
310
FFFFFFFFFFFFFFFFFFFFFFFFFFFFFFFFFFFFFFFFFFFFFFFFFFFFFFFFFFFFFFFF
310
F000FFFFFFFFFFFFFFFFFFFFFFFFFFFFFFFFFFFFFFFFFFFFFFFFFFFFFFFFFFFF
310
FFFFFFFFFFFFFFFFFFFFFFFFFFFFFFFFFFFFFFFFFFFFFFFFFFFFFFFFFFFFFFFF
310
FFFFFFFFFFFFFFFFFFFFFFFFFFFFFFFFFFFFFFFFFFFFFFFFF000FFFFFFFFFFFF
310
FFFFFFFFFFFFFFFFFFFFFFFFFFFFFFFFFFFFFFFFFFFFFFFFFFFFFFFFFFFFFFFF
310
FFFFFFFFFFFFFFFFFFFFFFFFFFFFFFFFFFFFFFFFFFFFFFFFFFFFFFFFFFFFFFFF
310
FFFFFFFFFFFFFFFFFFFFFFFFFFFFFFFFF000FFFFFFFFFFFFFFFFFFFFFFFFFFFF
310
FFFFFFFFFFFFFFFFFFFFFFFFFFFFFFFFFFFFFFFFFFFFFFFFFFFFFFFFFFFFFFFF
310
FFFFFFFFFFFFFFFFFFFFFFFFFFFFFFFFFFFFFFFFFFFFFFFFFFFFFFFFFFFFFFFF
310
FFFFFFFFFFFFFFFFF000FFFFFFFFFFFFFFFFFFFFFFFFFFFFFFFFFFFFFFFFFFFF
310
FFFFFFFFFFFFFFFFFFFFFFFFFFFFFFFFFFFFFFFFFFFFFFFFFFFFFFFFFFFFFFFF
310
FFFFFFFFFFFFFFFFFFFFFFFFFFFFFFFFFFFFFFFFFFFFFFFFFFFFFFFFFFFFFFFF
310
F000FFFFFFFFFFFFFFFFFFFFFFFFFFFFFFFFFFFFFFFFFFFFFFFFFFFFFFFFFFFF
310
FFFFFFFFFFFFFFFFFFFFFFFFFFFFFFFFFFFFFFFFFFFFFFFFFFFFFFFFFFFFFFFF
310
FFFFFFFFFFFFFFFFFFFFFFFFFFFFFFFFFFFFFFFFFFFFFFFFF000FFFFFFFFFFFF
310
FFFFFFFFFFFFFFFFFFFFFFFFFFFFFFFFFFFFFFFFFFFFFFFFFFFFFFFFFFFFFFFF
310
FFFFFFFFFFFFFFFFFFFFFFFFFFFFFFFFFFFFFFFFFFFFFFFFFFFFFFFFFFFFFFFF
310
FFFFFFFFFFFFFFFFFFFFFFFFFFFFFFFFF000FFFFFFFFFFFFFFFFFFFFFFFFFFFF
310
FFFFFFFFFFFFFFFFFFFFFFFFFFFFFFFFFFFFFFFFFFFFFFFFFFFFFFFFFFFFFFFF
310
FFFFFFFFFFFFFFFFFFFFFFFFFFFFFFFFFFFFFFFFFFFFFFFFFFFFFFFFFFFFFFFF
310
FFFFFFFFFFFFFFFFF000FFFFFFFFFFFFFFFFFFFFFFFFFFFFFFFFFFFFFFFFFFFF
310
FFFFFFFFFFFFFFFFFFFFFFFFFFFFFFFFFFFFFFFFFFFFFFFFFFFFFFFFFFFFFFFF
310
FFFFFFFFFFFFFFFFFFFFFFFFFFFFFFFFFFFFFFFFFFFFFFFFFFFFFFFFFFFFFFFF
310
F000FFFFFFFFFFFFFFFFFFFFFFFFFFFFFFFFFFFFFFFFFFFFFFFFFFFFFFFFFFFF
310
FFFFFFFFFFFFFFFFFFFFFFFFFFFFFFFFFFFFFFFFFFFFFFFFFFFFFFFFFFFFFFFF
310
FFFFFFFFFFFFFFFFFFFFFFFFFFFFFFFFFFFFFFFFFFFFFFFFF000FFFFFFFFFFFF
310
FFFFFFFFFFFFFFFFFFFFFFFFFFFFFFFFFFFFFFFFFFFFFFFFFFFFFFFFFFFFFFFF
310
FFFFFFFFFFFFFFFFFFFFFFFFFFFFFFFFFFFFFFFFFFFFFFFFFFFFFFFFFFFFFFFF
310
FFFFFFFFFFFFFFFFFFFFFFFFFFFFFFFFF000FFFFFFFFFFFFFFFFFFFFFFFFFFFF
310
FFFFFFFFFFFFFFFFFFFFFFFFFFFFFFFFFFFFFFFFFFFFFFFFFFFFFFFFFFFFFFFF
310
FFFFFFFFFFFFFFFFFFFFFFFFFFFFFFFFFFFFFFFFFFFFFFFFFFFFFFFFFFFFFFFF
310
FFFFFFFFFFFFFFFFF000FFFFFFFFFFFFFFFFFFFFFFFFFFFFFFFFFFFFFFFFFFFF
310
FFFFFFFFFFFFFFFFFFFFFFFFFFFFFFFFFFFFFFFFFFFFFFFFFFFFFFFFFFFFFFFF
310
FFFFFFFFFFFFFFFFFFFFFFFFFFFFFFFFFFFFFFFFFFFFFFFFFFFFFFFFFFFFFFFF
310
F000FFFFFFFFFFFFFFFFFFFFFFFFFFFFFFFFFFFFFFFFFFFFFFFFFFFFFFFFFFFF
310
FFFFFFFFFFFFFFFFFFFFFFFFFFFFFFFFFFFFFFFFFFFFFFFFFFFFFFFFFFFFFFFF
310
FFFFFFFFFFFFFFFFFFFFFFFFFFFFFFFFFFFFFFFFFFFFFFFFF000FFFFFFFFFFFF
310
FFFFFFFFFFFFFFFFFFFFFFFFFFFFFFFFFFFFFFFFFFFFFFFFFFFFFFFFFFFFFFFF
310
FFFFFFFFFFFFFFFFFFFFFFFFFFFFFFFFFFFFFFFFFFFFFFFFFFFFFFFFFFFFFFFF
310
FFFFFFFFFFFFFFFFFFFFFFFFFFFFFFFFF000FFFFFFFFFFFFFFFFFFFFFFFFFFFF
310
FFFFFFFFFFFFFFFFFFFFFFFFFFFFFFFFFFFFFFFFFFFFFFFFFFFFFFFFFFFFFFFF
310
FFFFFFFFFFFFFFFFFFFFFFFFFFFFFFFFFFFFFFFFFFFFFFFFFFFFFFFFFFFFFFFF
310
FFFFFFFFFFFFFFFFF000FFFFFFFFFFFFFFFFFFFFFFFFFFFFFFFFFFFFFFFFFFFF
310
FFFFFFFFFFFFFFFFFFFFFFFFFFFFFFFFFFFFFFFFFFFFFFFFFFFFFFFFFFFFFFFF
310
FFFFFFFFFFFFFFFFFFFFFFFFFFFFFFFFFFFFFFFFFFFFFFFFFFFFFFFFFFFFFFFF
310
F000FFFFFFFFFFFFFFFFFFFFFFFFFFFFFFFFFFFFFFFFFFFFFFFFFFFFFFFFFFFF
310
FFFFFFFFFFFFFFFFFFFFFFFFFFFFFFFFFFFFFFFFFFFFFFFFFFFFFFFFFFFFFFFF
310
FFFFFFFFFFFFFFFFFFFFFFFFFFFFFFFFFFFFFFFFFFFFFFFFF000FFFFFFFFFFFF
310
FFFFFFFFFFFFFFFFFFFFFFFFFFFFFFFFFFFFFFFFFFFFFFFFFFFFFFFFFFFFFFFF
310
FFFFFFFFFFFFFFFFFFFFFFFFFFFFFFFFFFFFFFFFFFFFFFFFFFFFFFFFFFFFFFFF
310
FFFFFFFFFFFFFFFFFFFFFFFFFFFFFFFFF000FFFFFFFFFFFFFFFFFFFFFFFFFFFF
310
FFFFFFFFFFFFFFFFFFFFFFFFFFFFFFFFFFFFFFFFFFFFFFFFFFFFFFFFFFFFFFFF
310
FFFFFFFFFFFFFFFFFFFFFFFFFFFFFFFFFFFFFFFFFFFFFFFFFFFFFFFFFFFFFFFF
310
FFFFFFFFFFFFFFFFF000FFFFFFFFFFFFFFFFFFFFFFFFFFFFFFFFFFFFFFFFFFFF
310
FFFFFFFFFFFFFFFFFFFFFFFFFFFFFFFFFFFFFFFFFFFFFFFFFFFFFFFFFFFFFFFF
310
FFFFFFFFFFFFFFFFFFFFFFFFFFFFFFFFFFFFFFFFFFFFFFFFFFFFFFFFFFFFFFFF
310
F000FFFFFFFFFFFFFFFFFFFFFFFFFFFFFFFFFFFFFFFFFFFFFFFFFFFFFFFFFFFF
310
FFFFFFFFFFFFFFFFFFFFFFFFFFFFFFFFFFFFFFFFFFFFFFFFFFFFFFFFFFFFFFFF
310
FFFFFFFFFFFFFFFFFFFFFFFFFFFFFFFFFFFFFFFFFFFFFFFFF000FFFFFFFFFFFF
310
FFFFFFFFFFFFFFFFFFFFFFFFFFFFFFFFFFFFFFFFFFFFFFFFFFFFFFFFFFFFFFFF
310
FFFFFFFFFFFFFFFFFFFFFFFFFFFFFFFFFFFFFFFFFFFFFFFFFFFFFFFFFFFFFFFF
310
FFFFFFFFFFFFFFFFFFFFFFFFFFFFFFFFF0000000000000000000000000000000
310
0000000000000000000000000000000000000000000000000000000000000000
310
0000000000000000000000000000000000000000000000000000000000000000
310
0000000000000000000000000000000000000000000000000000000000000000
310
0000000000000000000000000000000000000000000000000000000000000000
310
0000000000000000000000000000000000000000000000000000000000000000
310
0000000000000000000000000000000000000000000000000000000000000000
310
0000000000000000000000000000000000000000000000000000000000000000
310
0000000000000000000000000000000000000000000000000000000000000000
310
0000000000000000000000000000000000000000000000000000000000000000
310
0000000000000000000000000000000000000000000000000000000000000000
310
0000000000000000000000000000000000000000000000000000000000000000
310
0000000000000000000000000000000000000000000000000000000000000000
310
0000000000000000000000000000000000000000000000000000000000000000
310
0000000000000000000000000000000000000000000000000000000000000000
310
0000000000000000000000000000000000000000000000000000000000000000
  1
OLE
  0
ENDSEC
  0
SECTION
  2
OBJECTS
  0
DICTIONARY
  5
C
330
0
100
AcDbDictionary
281
     1
  3
ACAD_GROUP
350
D
  3
ACAD_LAYOUT
350
1A
  3
ACAD_MLINESTYLE
350
17
  3
ACAD_PLOTSETTINGS
350
19
  3
ACAD_PLOTSTYLENAME
350
E
  3
ACAD_SCALELIST
350
47
  0
DICTIONARY
  5
D
102
{ACAD_REACTORS
330
C
102
}
330
C
100
AcDbDictionary
281
     1
  0
DICTIONARY
  5
1A
102
{ACAD_REACTORS
330
C
102
}
330
C
100
AcDbDictionary
281
     1
  3
Layout1
350
1E
  3
Layout2
350
26
  3
Model
350
22
  0
DICTIONARY
  5
17
102
{ACAD_REACTORS
330
C
102
}
330
C
100
AcDbDictionary
281
     1
  3
Standard
350
18
  0
DICTIONARY
  5
19
102
{ACAD_REACTORS
330
C
102
}
330
C
100
AcDbDictionary
281
     1
  0
ACDBDICTIONARYWDFLT
  5
E
102
{ACAD_REACTORS
330
C
102
}
330
C
100
AcDbDictionary
281
     1
  3
Normal
350
F
100
AcDbDictionaryWithDefault
340
F
  0
DICTIONARY
  5
47
102
{ACAD_REACTORS
330
C
102
}
330
C
100
AcDbDictionary
281
     1
  3
A0
350
48
  3
A1
350
49
  3
A2
350
4A
  3
A3
350
4B
  3
A4
350
4C
  3
A5
350
4D
  3
A6
350
4E
  3
A7
350
4F
  3
A8
350
50
  3
A9
350
51
  3
B0
350
52
  3
B1
350
53
  3
B2
350
54
  3
B3
350
55
  3
B4
350
56
  3
B5
350
57
  3
B6
350
58
  3
B7
350
59
  3
B8
350
5A
  3
B9
350
5B
  3
C0
350
5C
  3
C1
350
5D
  3
C2
350
5E
  3
C3
350
5F
  3
C4
350
60
  3
C5
350
61
  3
C6
350
62
  3
C7
350
63
  3
C8
350
64
  3
C9
350
65
  3
D0
350
66
  3
D1
350
67
  3
D2
350
68
  0
LAYOUT
  5
1E
102
{ACAD_REACTORS
330
1A
102
}
330
1A
100
AcDbPlotSettings
  1

  2
none_device
  4

  6

 40
0.0
 41
0.0
 42
0.0
 43
0.0
 44
0.0
 45
0.0
 46
0.0
 47
0.0
 48
0.0
 49
0.0
140
0.0
141
0.0
142
1.0
143
1.0
 70
   688
 72
     1
 73
     0
 74
     5
  7

 75
    16
147
1.0
148
0.0
149
0.0
100
AcDbLayout
  1
Layout1
 70
     1
 71
     1
 10
0.0
 20
0.0
 11
420.0
 21
297.0
 12
0.0
 22
0.0
 32
0.0
 14
1.0000000000E+20
 24
1.0000000000E+20
 34
1.0000000000E+20
 15
-1.0000000000E+20
 25
-1.0000000000E+20
 35
-1.0000000000E+20
146
0.0
 13
0.0
 23
0.0
 33
0.0
 16
1.0
 26
0.0
 36
0.0
 17
0.0
 27
1.0
 37
0.0
 76
     0
330
1B
  0
LAYOUT
  5
26
102
{ACAD_REACTORS
330
1A
102
}
330
1A
100
AcDbPlotSettings
  1

  2
none_device
  4

  6

 40
0.0
 41
0.0
 42
0.0
 43
0.0
 44
0.0
 45
0.0
 46
0.0
 47
0.0
 48
0.0
 49
0.0
140
0.0
141
0.0
142
1.0
143
1.0
 70
   688
 72
     1
 73
     0
 74
     5
  7

 75
    16
147
1.0
148
0.0
149
0.0
100
AcDbLayout
  1
Layout2
 70
     1
 71
     2
 10
0.0
 20
0.0
 11
0.0
 21
0.0
 12
0.0
 22
0.0
 32
0.0
 14
0.0
 24
0.0
 34
0.0
 15
0.0
 25
0.0
 35
0.0
146
0.0
 13
0.0
 23
0.0
 33
0.0
 16
1.0
 26
0.0
 36
0.0
 17
0.0
 27
1.0
 37
0.0
 76
     0
330
23
  0
LAYOUT
  5
22
102
{ACAD_REACTORS
330
1A
102
}
330
1A
100
AcDbPlotSettings
  1

  2
none_device
  4
Letter_(8.50_x_11.00_Inches)
  6

 40
6.35
 41
6.35
 42
6.35000508
 43
6.35000508
 44
215.9
 45
279.4
 46
0.0
 47
0.0
 48
0.0
 49
0.0
140
0.0
141
0.0
142
1.0
143
1.0
 70
  1712
 72
     1
 73
     0
 74
     0
  7

 75
     0
147
1.0
148
0.0
149
0.0
100
AcDbLayout
  1
Model
 70
     1
 71
     0
 10
0.0
 20
0.0
 11
297.0
 21
210.0
 12
0.0
 22
0.0
 32
0.0
 14
0.0
 24
0.0
 34
0.0
 15
297.0
 25
210.0
 35
0.0
146
0.0
 13
0.0
 23
0.0
 33
0.0
 16
1.0
 26
0.0
 36
0.0
 17
0.0
 27
1.0
 37
0.0
 76
     0
330
1F
331
29
  0
MLINESTYLE
  5
18
102
{ACAD_REACTORS
330
17
102
}
330
17
100
AcDbMlineStyle
  2
Standard
 70
     0
  3

 62
   256
 51
90.0
 52
90.0
 71
     2
 49
0.5
 62
   256
  6
BYLAYER
 49
-0.5
 62
   256
  6
BYLAYER
  0
ACDBPLACEHOLDER
  5
F
102
{ACAD_REACTORS
330
E
102
}
330
E
  0
SCALE
  5
48
102
{ACAD_REACTORS
330
47
102
}
330
47
100
AcDbScale
 70
     0
300
1:1
140
1.0
141
1.0
290
     1
  0
SCALE
  5
49
102
{ACAD_REACTORS
330
47
102
}
330
47
100
AcDbScale
 70
     0
300
1:2
140
1.0
141
2.0
290
     0
  0
SCALE
  5
4A
102
{ACAD_REACTORS
330
47
102
}
330
47
100
AcDbScale
 70
     0
300
1:4
140
1.0
141
4.0
290
     0
  0
SCALE
  5
4B
102
{ACAD_REACTORS
330
47
102
}
330
47
100
AcDbScale
 70
     0
300
1:5
140
1.0
141
5.0
290
     0
  0
SCALE
  5
4C
102
{ACAD_REACTORS
330
47
102
}
330
47
100
AcDbScale
 70
     0
300
1:8
140
1.0
141
8.0
290
     0
  0
SCALE
  5
4D
102
{ACAD_REACTORS
330
47
102
}
330
47
100
AcDbScale
 70
     0
300
1:10
140
1.0
141
10.0
290
     0
  0
SCALE
  5
4E
102
{ACAD_REACTORS
330
47
102
}
330
47
100
AcDbScale
 70
     0
300
1:16
140
1.0
141
16.0
290
     0
  0
SCALE
  5
4F
102
{ACAD_REACTORS
330
47
102
}
330
47
100
AcDbScale
 70
     0
300
1:20
140
1.0
141
20.0
290
     0
  0
SCALE
  5
50
102
{ACAD_REACTORS
330
47
102
}
330
47
100
AcDbScale
 70
     0
300
1:30
140
1.0
141
30.0
290
     0
  0
SCALE
  5
51
102
{ACAD_REACTORS
330
47
102
}
330
47
100
AcDbScale
 70
     0
300
1:40
140
1.0
141
40.0
290
     0
  0
SCALE
  5
52
102
{ACAD_REACTORS
330
47
102
}
330
47
100
AcDbScale
 70
     0
300
1:50
140
1.0
141
50.0
290
     0
  0
SCALE
  5
53
102
{ACAD_REACTORS
330
47
102
}
330
47
100
AcDbScale
 70
     0
300
1:100
140
1.0
141
100.0
290
     0
  0
SCALE
  5
54
102
{ACAD_REACTORS
330
47
102
}
330
47
100
AcDbScale
 70
     0
300
2:1
140
2.0
141
1.0
290
     0
  0
SCALE
  5
55
102
{ACAD_REACTORS
330
47
102
}
330
47
100
AcDbScale
 70
     0
300
4:1
140
4.0
141
1.0
290
     0
  0
SCALE
  5
56
102
{ACAD_REACTORS
330
47
102
}
330
47
100
AcDbScale
 70
     0
300
8:1
140
8.0
141
1.0
290
     0
  0
SCALE
  5
57
102
{ACAD_REACTORS
330
47
102
}
330
47
100
AcDbScale
 70
     0
300
10:1
140
10.0
141
1.0
290
     0
  0
SCALE
  5
58
102
{ACAD_REACTORS
330
47
102
}
330
47
100
AcDbScale
 70
     0
300
100:1
140
100.0
141
1.0
290
     0
  0
SCALE
  5
59
102
{ACAD_REACTORS
330
47
102
}
330
47
100
AcDbScale
 70
     0
300
1/128" = 1'-0"
140
0.0078125
141
12.0
290
     0
  0
SCALE
  5
5A
102
{ACAD_REACTORS
330
47
102
}
330
47
100
AcDbScale
 70
     0
300
1/64" = 1'-0"
140
0.015625
141
12.0
290
     0
  0
SCALE
  5
5B
102
{ACAD_REACTORS
330
47
102
}
330
47
100
AcDbScale
 70
     0
300
1/32" = 1'-0"
140
0.03125
141
12.0
290
     0
  0
SCALE
  5
5C
102
{ACAD_REACTORS
330
47
102
}
330
47
100
AcDbScale
 70
     0
300
1/16" = 1'-0"
140
0.0625
141
12.0
290
     0
  0
SCALE
  5
5D
102
{ACAD_REACTORS
330
47
102
}
330
47
100
AcDbScale
 70
     0
300
3/32" = 1'-0"
140
0.09375
141
12.0
290
     0
  0
SCALE
  5
5E
102
{ACAD_REACTORS
330
47
102
}
330
47
100
AcDbScale
 70
     0
300
1/8" = 1'-0"
140
0.125
141
12.0
290
     0
  0
SCALE
  5
5F
102
{ACAD_REACTORS
330
47
102
}
330
47
100
AcDbScale
 70
     0
300
3/16" = 1'-0"
140
0.1875
141
12.0
290
     0
  0
SCALE
  5
60
102
{ACAD_REACTORS
330
47
102
}
330
47
100
AcDbScale
 70
     0
300
1/4" = 1'-0"
140
0.25
141
12.0
290
     0
  0
SCALE
  5
61
102
{ACAD_REACTORS
330
47
102
}
330
47
100
AcDbScale
 70
     0
300
3/8" = 1'-0"
140
0.375
141
12.0
290
     0
  0
SCALE
  5
62
102
{ACAD_REACTORS
330
47
102
}
330
47
100
AcDbScale
 70
     0
300
1/2" = 1'-0"
140
0.5
141
12.0
290
     0
  0
SCALE
  5
63
102
{ACAD_REACTORS
330
47
102
}
330
47
100
AcDbScale
 70
     0
300
3/4" = 1'-0"
140
0.75
141
12.0
290
     0
  0
SCALE
  5
64
102
{ACAD_REACTORS
330
47
102
}
330
47
100
AcDbScale
 70
     0
300
1" = 1'-0"
140
1.0
141
12.0
290
     0
  0
SCALE
  5
65
102
{ACAD_REACTORS
330
47
102
}
330
47
100
AcDbScale
 70
     0
300
1-1/2" = 1'-0"
140
1.5
141
12.0
290
     0
  0
SCALE
  5
66
102
{ACAD_REACTORS
330
47
102
}
330
47
100
AcDbScale
 70
     0
300
3" = 1'-0"
140
3.0
141
12.0
290
     0
  0
SCALE
  5
67
102
{ACAD_REACTORS
330
47
102
}
330
47
100
AcDbScale
 70
     0
300
6" = 1'-0"
140
6.0
141
12.0
290
     0
  0
SCALE
  5
68
102
{ACAD_REACTORS
330
47
102
}
330
47
100
AcDbScale
 70
     0
300
1'-0" = 1'-0"
140
12.0
141
12.0
290
     0
  0
ENDSEC
  0
EOF
