  0
SECTION
  2
HEADER
  9
$ACADVER
  1
AC1015
  9
$ACADMAINTVER
 70
     6
  9
$DWGCODEPAGE
  3
ANSI_1252
  9
$INSBASE
 10
0.0
 20
0.0
 30
0.0
  9
$EXTMIN
 10
0.0
 20
0.0
 30
0.0
  9
$EXTMAX
 10
297.0
 20
210.0
 30
0.0
  9
$LIMMIN
 10
0.0
 20
0.0
  9
$LIMMAX
 10
297.0
 20
210.0
  9
$ORTHOMODE
 70
     0
  9
$REGENMODE
 70
     1
  9
$FILLMODE
 70
     1
  9
$QTEXTMODE
 70
     0
  9
$MIRRTEXT
 70
     1
  9
$LTSCALE
 40
1.0
  9
$ATTMODE
 70
     1
  9
$TEXTSIZE
 40
2.0
  9
$TRACEWID
 40
1.0
  9
$TEXTSTYLE
  7
Standard
  9
$CLAYER
  8
0
  9
$CELTYPE
  6
ByLayer
  9
$CECOLOR
 62
   256
  9
$CELTSCALE
 40
1.0
  9
$DISPSILH
 70
     0
  9
$DIMSCALE
 40
1.0
  9
$DIMASZ
 40
3.0
  9
$DIMEXO
 40
0.0
  9
$DIMDLI
 40
3.75
  9
$DIMRND
 40
0.0
  9
$DIMDLE
 40
0.0
  9
$DIMEXE
 40
1.0
  9
$DIMTP
 40
0.0
  9
$DIMTM
 40
0.0
  9
$DIMTXT
 40
2.0
  9
$DIMCEN
 40
2.5
  9
$DIMTSZ
 40
0.0
  9
$DIMTOL
 70
     0
  9
$DIMLIM
 70
     0
  9
$DIMTIH
 70
     1
  9
$DIMTOH
 70
     1
  9
$DIMSE1
 70
     0
  9
$DIMSE2
 70
     0
  9
$DIMTAD
 70
     1
  9
$DIMZIN
 70
     0
  9
$DIMBLK
  1

  9
$DIMASO
 70
     1
  9
$DIMSHO
 70
     1
  9
$DIMPOST
  1

  9
$DIMAPOST
  1

  9
$DIMALT
 70
     0
  9
$DIMALTD
 70
     3
  9
$DIMALTF
 40
0.0393700787
  9
$DIMLFAC
 40
2.0
  9
$DIMTOFL
 70
     1
  9
$DIMTVP
 40
0.0
  9
$DIMTIX
 70
     0
  9
$DIMSOXD
 70
     0
  9
$DIMSAH
 70
     0
  9
$DIMBLK1
  1

  9
$DIMBLK2
  1

  9
$DIMSTYLE
  2
ISO-25
  9
$DIMCLRD
 70
     0
  9
$DIMCLRE
 70
     0
  9
$DIMCLRT
 70
     0
  9
$DIMTFAC
 40
1.0
  9
$DIMGAP
 40
1.524
  9
$DIMJUST
 70
     0
  9
$DIMSD1
 70
     0
  9
$DIMSD2
 70
     0
  9
$DIMTOLJ
 70
     0
  9
$DIMTZIN
 70
     0
  9
$DIMALTZ
 70
     0
  9
$DIMALTTZ
 70
     0
  9
$DIMUPT
 70
     0
  9
$DIMDEC
 70
     2
  9
$DIMTDEC
 70
     3
  9
$DIMALTU
 70
     2
  9
$DIMALTTD
 70
     3
  9
$DIMTXSTY
  7
Standard
  9
$DIMAUNIT
 70
     0
  9
$DIMADEC
 70
     2
  9
$DIMALTRND
 40
0.0
  9
$DIMAZIN
 70
     0
  9
$DIMDSEP
 70
    44
  9
$DIMATFIT
 70
     3
  9
$DIMFRAC
 70
     0
  9
$DIMLDRBLK
  1

  9
$DIMLUNIT
 70
     2
  9
$DIMLWD
 70
    -2
  9
$DIMLWE
 70
    -2
  9
$DIMTMOVE
 70
     0
  9
$LUNITS
 70
     2
  9
$LUPREC
 70
     2
  9
$SKETCHINC
 40
1.0
  9
$FILLETRAD
 40
10.0
  9
$AUNITS
 70
     0
  9
$AUPREC
 70
     2
  9
$MENU
  1
.
  9
$ELEVATION
 40
0.0
  9
$PELEVATION
 40
0.0
  9
$THICKNESS
 40
0.0
  9
$LIMCHECK
 70
     0
  9
$CHAMFERA
 40
0.0
  9
$CHAMFERB
 40
0.0
  9
$CHAMFERC
 40
0.0
  9
$CHAMFERD
 40
0.0
  9
$SKPOLY
 70
     0
  9
$TDCREATE
 40
2458169.478867569
  9
$TDUCREATE
 40
2458169.437200903
  9
$TDUPDATE
 40
2458169.478869549
  9
$TDUUPDATE
 40
2458169.437202882
  9
$TDINDWG
 40
0.0000000116
  9
$TDUSRTIMER
 40
0.0000000116
  9
$USRTIMER
 70
     1
  9
$ANGBASE
 50
0.0
  9
$ANGDIR
 70
     0
  9
$PDMODE
 70
     0
  9
$PDSIZE
 40
-1.0
  9
$PLINEWID
 40
0.0
  9
$SPLFRAME
 70
     0
  9
$SPLINETYPE
 70
     6
  9
$SPLINESEGS
 70
     8
  9
$HANDSEED
  5
269
  9
$SURFTAB1
 70
     6
  9
$SURFTAB2
 70
     6
  9
$SURFTYPE
 70
     6
  9
$SURFU
 70
     6
  9
$SURFV
 70
     6
  9
$UCSBASE
  2

  9
$UCSNAME
  2

  9
$UCSORG
 10
0.0
 20
0.0
 30
0.0
  9
$UCSXDIR
 10
1.0
 20
0.0
 30
0.0
  9
$UCSYDIR
 10
0.0
 20
1.0
 30
0.0
  9
$UCSORTHOREF
  2

  9
$UCSORTHOVIEW
 70
     0
  9
$UCSORGTOP
 10
0.0
 20
0.0
 30
0.0
  9
$UCSORGBOTTOM
 10
0.0
 20
0.0
 30
0.0
  9
$UCSORGLEFT
 10
0.0
 20
0.0
 30
0.0
  9
$UCSORGRIGHT
 10
0.0
 20
0.0
 30
0.0
  9
$UCSORGFRONT
 10
0.0
 20
0.0
 30
0.0
  9
$UCSORGBACK
 10
0.0
 20
0.0
 30
0.0
  9
$PUCSBASE
  2

  9
$PUCSNAME
  2

  9
$PUCSORG
 10
0.0
 20
0.0
 30
0.0
  9
$PUCSXDIR
 10
1.0
 20
0.0
 30
0.0
  9
$PUCSYDIR
 10
0.0
 20
1.0
 30
0.0
  9
$PUCSORTHOREF
  2

  9
$PUCSORTHOVIEW
 70
     0
  9
$PUCSORGTOP
 10
0.0
 20
0.0
 30
0.0
  9
$PUCSORGBOTTOM
 10
0.0
 20
0.0
 30
0.0
  9
$PUCSORGLEFT
 10
0.0
 20
0.0
 30
0.0
  9
$PUCSORGRIGHT
 10
0.0
 20
0.0
 30
0.0
  9
$PUCSORGFRONT
 10
0.0
 20
0.0
 30
0.0
  9
$PUCSORGBACK
 10
0.0
 20
0.0
 30
0.0
  9
$USERI1
 70
     0
  9
$USERI2
 70
     0
  9
$USERI3
 70
     0
  9
$USERI4
 70
     0
  9
$USERI5
 70
     0
  9
$USERR1
 40
0.0
  9
$USERR2
 40
0.0
  9
$USERR3
 40
0.0
  9
$USERR4
 40
0.0
  9
$USERR5
 40
0.0
  9
$WORLDVIEW
 70
     1
  9
$SHADEDGE
 70
     3
  9
$SHADEDIF
 70
    70
  9
$TILEMODE
 70
     1
  9
$MAXACTVP
 70
    64
  9
$PINSBASE
 10
0.0
 20
0.0
 30
0.0
  9
$PLIMCHECK
 70
     0
  9
$PEXTMIN
 10
1.0000000000E+20
 20
1.0000000000E+20
 30
1.0000000000E+20
  9
$PEXTMAX
 10
-1.0000000000E+20
 20
-1.0000000000E+20
 30
-1.0000000000E+20
  9
$PLIMMIN
 10
0.0
 20
0.0
  9
$PLIMMAX
 10
420.0
 20
297.0
  9
$UNITMODE
 70
     0
  9
$VISRETAIN
 70
     1
  9
$PLINEGEN
 70
     0
  9
$PSLTSCALE
 70
     1
  9
$TREEDEPTH
 70
  3020
  9
$CMLSTYLE
  2
Standard
  9
$CMLJUST
 70
     0
  9
$CMLSCALE
 40
20.0
  9
$PROXYGRAPHICS
 70
     1
  9
$MEASUREMENT
 70
     1
  9
$CELWEIGHT
370
    -1
  9
$ENDCAPS
280
     0
  9
$JOINSTYLE
280
     0
  9
$LWDISPLAY
290
     1
  9
$INSUNITS
 70
     4
  9
$HYPERLINKBASE
  1

  9
$STYLESHEET
  1

  9
$XEDIT
290
     1
  9
$CEPSNTYPE
380
     0
  9
$PSTYLEMODE
290
     1
  9
$FINGERPRINTGUID
  2
{E2C3392C-50D3-439E-BA80-206828A6FC1C}
  9
$VERSIONGUID
  2
{FAEB1C32-E019-11D5-929B-00C0DF256EC4}
  9
$EXTNAMES
290
     1
  9
$PSVPSCALE
 40
0.0
  9
$OLESTARTUP
290
     0
  0
ENDSEC
  0
SECTION
  2
CLASSES
  0
CLASS
  1
ACDBDICTIONARYWDFLT
  2
AcDbDictionaryWithDefault
  3
ObjectDBX Classes
 90
        0
280
     0
281
     0
  0
CLASS
  1
VISUALSTYLE
  2
AcDbVisualStyle
  3
ObjectDBX Classes
 90
     4095
280
     0
281
     0
  0
CLASS
  1
MATERIAL
  2
AcDbMaterial
  3
ObjectDBX Classes
 90
     1153
280
     0
281
     0
  0
CLASS
  1
SCALE
  2
AcDbScale
  3
ObjectDBX Classes
 90
     1153
280
     0
281
     0
  0
CLASS
  1
TABLESTYLE
  2
AcDbTableStyle
  3
ObjectDBX Classes
 90
     4095
280
     0
281
     0
  0
CLASS
  1
MLEADERSTYLE
  2
AcDbMLeaderStyle
  3
ACDB_MLEADERSTYLE_CLASS
 90
     4095
280
     0
281
     0
  0
CLASS
  1
SUN
  2
AcDbSun
  3
SCENEOE
 90
     1153
280
     0
281
     0
  0
CLASS
  1
ACDBPLACEHOLDER
  2
AcDbPlaceHolder
  3
ObjectDBX Classes
 90
        0
280
     0
281
     0
  0
CLASS
  1
LAYOUT
  2
AcDbLayout
  3
ObjectDBX Classes
 90
        0
280
     0
281
     0
  0
ENDSEC
  0
SECTION
  2
TABLES
  0
TABLE
  2
VPORT
  5
8
330
0
100
AcDbSymbolTable
 70
     1
  0
VPORT
  5
29
330
8
100
AcDbSymbolTableRecord
100
AcDbViewportTableRecord
  2
*Active
 70
     0
 10
0.0
 20
0.0
 11
1.0
 21
1.0
 12
148.5
 22
105.0
 13
0.0
 23
0.0
 14
10.0
 24
10.0
 15
10.0
 25
10.0
 16
0.0
 26
0.0
 36
1.0
 17
0.0
 27
0.0
 37
0.0
 40
210.0
 41
1.4142857143
 42
50.0
 43
0.0
 44
0.0
 50
0.0
 51
0.0
 71
     0
 72
  2000
 73
     1
 74
     3
 75
     0
 76
     0
 77
     0
 78
     0
281
     0
 65
     1
110
0.0
120
0.0
130
0.0
111
1.0
121
0.0
131
0.0
112
0.0
122
1.0
132
0.0
 79
     0
146
0.0
  0
ENDTAB
  0
TABLE
  2
LTYPE
  5
5
330
0
100
AcDbSymbolTable
 70
     6
  0
LTYPE
  5
14
330
5
100
AcDbSymbolTableRecord
100
AcDbLinetypeTableRecord
  2
ByBlock
 70
     0
  3

 72
    65
 73
     0
 40
0.0
  0
LTYPE
  5
15
330
5
100
AcDbSymbolTableRecord
100
AcDbLinetypeTableRecord
  2
ByLayer
 70
     0
  3

 72
    65
 73
     0
 40
0.0
  0
LTYPE
  5
16
330
5
100
AcDbSymbolTableRecord
100
AcDbLinetypeTableRecord
  2
Continuous
 70
     0
  3
Solid line
 72
    65
 73
     0
 40
0.0
  0
LTYPE
  5
6E
330
5
100
AcDbSymbolTableRecord
100
AcDbLinetypeTableRecord
  2
HIDDEN
 70
     0
  3
Hidden __ __ __ __ __ __ __ __ __ __ __ __ __ __
 72
    65
 73
     2
 40
1.905
 49
1.27
 74
     0
 49
-0.635
 74
     0
  0
LTYPE
  5
6F
330
5
100
AcDbSymbolTableRecord
100
AcDbLinetypeTableRecord
  2
PHANTOM
 70
     0
  3
Phantom ______  __  __  ______  __  __  ______
 72
    65
 73
     6
 40
12.7
 49
6.35
 74
     0
 49
-1.27
 74
     0
 49
1.27
 74
     0
 49
-1.27
 74
     0
 49
1.27
 74
     0
 49
-1.27
 74
     0
  0
LTYPE
  5
70
330
5
100
AcDbSymbolTableRecord
100
AcDbLinetypeTableRecord
  2
CENTER
 70
     0
  3
Center ____ _ ____ _ ____ _ ____ _ ____ _ ____
 72
    65
 73
     4
 40
10.16
 49
6.35
 74
     0
 49
-1.27
 74
     0
 49
1.27
 74
     0
 49
-1.27
 74
     0
  0
LTYPE
  5
71
330
5
100
AcDbSymbolTableRecord
100
AcDbLinetypeTableRecord
  2
CENTERX2
 70
     0
  3
Center (2x) ________  __  ________  __  _____
 72
    65
 73
     4
 40
20.32
 49
12.7
 74
     0
 49
-2.54
 74
     0
 49
2.54
 74
     0
 49
-2.54
 74
     0
  0
LTYPE
  5
72
330
5
100
AcDbSymbolTableRecord
100
AcDbLinetypeTableRecord
  2
DOT2
 70
     0
  3
Dot (.5x) ........................................
 72
    65
 73
     2
 40
0.635
 49
0.0
 74
     0
 49
-0.635
 74
     0
  0
ENDTAB
  0
TABLE
  2
LAYER
  5
2
330
0
100
AcDbSymbolTable
 70
     5
  0
LAYER
  5
10
330
2
100
AcDbSymbolTableRecord
100
AcDbLayerTableRecord
  2
0
 70
     0
 62
     7
  6
Continuous
370
    -3
390
F
  0
LAYER
  5
73
330
2
100
AcDbSymbolTableRecord
100
AcDbLayerTableRecord
  2
FORMAT
 70
     0
 62
     7
  6
Continuous
370
    -3
390
F
  0
LAYER
  5
74
330
2
100
AcDbSymbolTableRecord
100
AcDbLayerTableRecord
  2
VERMASSUNG
 70
     0
 62
     7
  6
Continuous
370
    -3
390
F
  0
LAYER
  5
75
330
2
100
AcDbSymbolTableRecord
100
AcDbLayerTableRecord
  2
KOPF_DÜNN
 70
     0
 62
     7
  6
Continuous
370
    -3
390
F
  0
LAYER
  5
76
330
2
100
AcDbSymbolTableRecord
100
AcDbLayerTableRecord
  2
KOPF_DICK
 70
     0
 62
     7
  6
Continuous
370
    25
390
F
  0
ENDTAB
  0
TABLE
  2
STYLE
  5
3
330
0
100
AcDbSymbolTable
 70
     3
  0
STYLE
  5
11
330
3
100
AcDbSymbolTableRecord
100
AcDbTextStyleTableRecord
  2
Standard
 70
     0
 40
0.0
 41
1.0
 50
0.0
 71
     0
 42
2.0
  3
txt
  4

  0
STYLE
  5
77
330
3
100
AcDbSymbolTableRecord
100
AcDbTextStyleTableRecord
  2
SLDTEXTSTYLE0
 70
     0
 40
0.0
 41
0.7
 50
0.0
 71
     0
 42
2.0
  3
TXT
  4

  0
STYLE
  5
7B
330
3
100
AcDbSymbolTableRecord
100
AcDbTextStyleTableRecord
  2
SLDTEXTSTYLE1
 70
     0
 40
0.0
 41
0.6466666667
 50
0.0
 71
     0
 42
2.0
  3
TXT
  4

  0
ENDTAB
  0
TABLE
  2
VIEW
  5
6
330
0
100
AcDbSymbolTable
 70
     0
  0
ENDTAB
  0
TABLE
  2
UCS
  5
7
330
0
100
AcDbSymbolTable
 70
     0
  0
ENDTAB
  0
TABLE
  2
APPID
  5
9
330
0
100
AcDbSymbolTable
 70
     1
  0
APPID
  5
12
330
9
100
AcDbSymbolTableRecord
100
AcDbRegAppTableRecord
  2
ACAD
 70
     0
  0
ENDTAB
  0
TABLE
  2
DIMSTYLE
  5
A
330
0
100
AcDbSymbolTable
 70
     3
100
AcDbDimStyleTable
  0
DIMSTYLE
105
27
330
A
100
AcDbSymbolTableRecord
100
AcDbDimStyleTableRecord
  2
ISO-25
 70
     0
 41
2.5
 42
0.625
 43
3.75
 44
1.25
 73
     0
 74
     0
 77
     1
 78
     8
140
2.5
141
2.5
143
0.0393700787
147
0.625
171
     3
172
     1
178
     0
271
     2
272
     2
274
     3
278
    44
283
     0
284
     8
340
11
  0
DIMSTYLE
105
12B
102
{ACAD_REACTORS
330
12A
330
136
330
141
330
158
330
162
330
16C
330
176
102
}
330
A
100
AcDbSymbolTableRecord
100
AcDbDimStyleTableRecord
  2
SLDDIMSTYLE0
 70
     0
 41
3.0
 44
0.0
 45
0.000000001
 73
     0
 74
     0
 77
     1
 78
    12
 79
     3
140
2.0
147
0.5
173
     1
178
     0
271
     2
272
     3
276
     2
284
    12
340
77
  0
DIMSTYLE
105
14D
102
{ACAD_REACTORS
330
14C
102
}
330
A
100
AcDbSymbolTableRecord
100
AcDbDimStyleTableRecord
  2
SLDDIMSTYLE1
 70
     0
 41
3.0
 44
0.0
 45
0.000000001
 73
     0
 74
     0
 77
     1
 78
    12
 79
     3
140
2.0
147
0.5
173
     1
178
     0
271
     0
272
     3
276
     2
284
    12
340
77
  0
ENDTAB
  0
TABLE
  2
BLOCK_RECORD
  5
1
330
0
100
AcDbSymbolTable
 70
     9
  0
BLOCK_RECORD
  5
1F
330
1
100
AcDbSymbolTableRecord
100
AcDbBlockTableRecord
  2
*Model_Space
340
22
  0
BLOCK_RECORD
  5
1B
330
1
100
AcDbSymbolTableRecord
100
AcDbBlockTableRecord
  2
*Paper_Space
340
1E
  0
BLOCK_RECORD
  5
23
330
1
100
AcDbSymbolTableRecord
100
AcDbBlockTableRecord
  2
*Paper_Space0
340
26
  0
BLOCK_RECORD
  5
12C
330
1
100
AcDbSymbolTableRecord
100
AcDbBlockTableRecord
  2
_D
340
0
  0
BLOCK_RECORD
  5
137
330
1
100
AcDbSymbolTableRecord
100
AcDbBlockTableRecord
  2
_D_1
340
0
  0
BLOCK_RECORD
  5
142
330
1
100
AcDbSymbolTableRecord
100
AcDbBlockTableRecord
  2
_D_2
340
0
  0
BLOCK_RECORD
  5
14E
330
1
100
AcDbSymbolTableRecord
100
AcDbBlockTableRecord
  2
_D_3
340
0
  0
BLOCK_RECORD
  5
159
330
1
100
AcDbSymbolTableRecord
100
AcDbBlockTableRecord
  2
_D_4
340
0
  0
BLOCK_RECORD
  5
163
330
1
100
AcDbSymbolTableRecord
100
AcDbBlockTableRecord
  2
_D_5
340
0
  0
BLOCK_RECORD
  5
16D
330
1
100
AcDbSymbolTableRecord
100
AcDbBlockTableRecord
  2
_D_6
340
0
  0
BLOCK_RECORD
  5
177
330
1
100
AcDbSymbolTableRecord
100
AcDbBlockTableRecord
  2
_D_7
340
0
  0
ENDTAB
  0
ENDSEC
  0
SECTION
  2
BLOCKS
  0
BLOCK
  5
20
330
1F
100
AcDbEntity
  8
0
100
AcDbBlockBegin
  2
*Model_Space
 70
     0
 10
0.0
 20
0.0
 30
0.0
  3
*Model_Space
  1

  0
ENDBLK
  5
21
330
1F
100
AcDbEntity
  8
0
100
AcDbBlockEnd
  0
BLOCK
  5
1C
330
1B
100
AcDbEntity
 67
     1
  8
0
100
AcDbBlockBegin
  2
*Paper_Space
 70
     0
 10
0.0
 20
0.0
 30
0.0
  3
*Paper_Space
  1

  0
ENDBLK
  5
1D
330
1B
100
AcDbEntity
 67
     1
  8
0
100
AcDbBlockEnd
  0
BLOCK
  5
24
330
23
100
AcDbEntity
  8
0
100
AcDbBlockBegin
  2
*Paper_Space0
 70
     0
 10
0.0
 20
0.0
 30
0.0
  3
*Paper_Space0
  1

  0
ENDBLK
  5
25
330
23
100
AcDbEntity
  8
0
100
AcDbBlockEnd
  0
BLOCK
  5
12D
330
12C
100
AcDbEntity
  8
0
100
AcDbBlockBegin
  2
_D
 70
     0
 10
0.0
 20
0.0
 30
0.0
  3
_D
  1

  0
SOLID
  5
12F
330
12C
100
AcDbEntity
  8
VERMASSUNG
100
AcDbTrace
 10
271.5565036024
 20
85.4974947476
 30
0.0
 11
272.0065036024
 21
88.4974947476
 31
0.0
 12
271.1065036024
 22
88.4974947476
 32
0.0
 13
271.1065036024
 23
88.4974947476
 33
0.0
  0
SOLID
  5
130
330
12C
100
AcDbEntity
  8
VERMASSUNG
100
AcDbTrace
 10
271.5565036024
 20
165.4974947476
 30
0.0
 11
271.1065036024
 21
162.4974947476
 31
0.0
 12
272.0065036024
 22
162.4974947476
 32
0.0
 13
272.0065036024
 23
162.4974947476
 33
0.0
  0
LINE
  5
131
330
12C
100
AcDbEntity
  8
VERMASSUNG
100
AcDbLine
 10
183.2191590406
 20
85.4974947476
 30
0.0
 11
272.5565036024
 21
85.4974947476
 31
0.0
  0
LINE
  5
132
330
12C
100
AcDbEntity
  8
VERMASSUNG
100
AcDbLine
 10
183.2191590406
 20
165.4974947476
 30
0.0
 11
272.5565036024
 21
165.4974947476
 31
0.0
  0
LINE
  5
133
330
12C
100
AcDbEntity
  8
VERMASSUNG
100
AcDbLine
 10
271.5565036024
 20
85.4974947476
 30
0.0
 11
271.5565036024
 21
165.4974947476
 31
0.0
  0
MTEXT
  5
134
330
12C
100
AcDbEntity
  8
VERMASSUNG
100
AcDbMText
 10
268.9783682975
 20
122.2924947904
 30
0.0
 40
2.0
 41
0.0
 71
     1
 72
     1
  1
%%c
  7
SLDTEXTSTYLE0
 11
6.123233995736766E-17
 21
1.0
 31
0.0
 73
     1
 44
1.0
  0
MTEXT
  5
135
330
12C
100
AcDbEntity
  8
VERMASSUNG
100
AcDbMText
 10
268.7783683462
 20
125.9024948047
 30
0.0
 40
2.0
 41
0.0
 71
     1
 72
     1
  1
80
  7
SLDTEXTSTYLE0
 11
6.123233995736766E-17
 21
1.0
 31
0.0
 73
     1
 44
1.0
  0
ENDBLK
  5
12E
330
12C
100
AcDbEntity
  8
0
100
AcDbBlockEnd
  0
BLOCK
  5
138
330
137
100
AcDbEntity
  8
0
100
AcDbBlockBegin
  2
_D_1
 70
     0
 10
0.0
 20
0.0
 30
0.0
  3
_D_1
  1

  0
SOLID
  5
13A
330
137
100
AcDbEntity
  8
VERMASSUNG
100
AcDbTrace
 10
260.8236333903
 20
105.4974947476
 30
0.0
 11
261.2736333903
 21
108.4974947476
 31
0.0
 12
260.3736333903
 22
108.4974947476
 32
0.0
 13
260.3736333903
 23
108.4974947476
 33
0.0
  0
SOLID
  5
13B
330
137
100
AcDbEntity
  8
VERMASSUNG
100
AcDbTrace
 10
260.8236333903
 20
145.4974947476
 30
0.0
 11
260.3736333903
 21
142.4974947476
 31
0.0
 12
261.2736333903
 22
142.4974947476
 32
0.0
 13
261.2736333903
 23
142.4974947476
 33
0.0
  0
LINE
  5
13C
330
137
100
AcDbEntity
  8
VERMASSUNG
100
AcDbLine
 10
210.2191590406
 20
105.4974947476
 30
0.0
 11
261.8236333903
 21
105.4974947476
 31
0.0
  0
LINE
  5
13D
330
137
100
AcDbEntity
  8
VERMASSUNG
100
AcDbLine
 10
210.2191590406
 20
145.4974947476
 30
0.0
 11
261.8236333903
 21
145.4974947476
 31
0.0
  0
LINE
  5
13E
330
137
100
AcDbEntity
  8
VERMASSUNG
100
AcDbLine
 10
260.8236333903
 20
105.4974947476
 30
0.0
 11
260.8236333903
 21
145.4974947476
 31
0.0
  0
MTEXT
  5
13F
330
137
100
AcDbEntity
  8
VERMASSUNG
100
AcDbMText
 10
258.2454980854
 20
122.1924947274
 30
0.0
 40
2.0
 41
0.0
 71
     1
 72
     1
  1
%%c
  7
SLDTEXTSTYLE0
 11
6.123233995736766E-17
 21
1.0
 31
0.0
 73
     1
 44
1.0
  0
MTEXT
  5
140
330
137
100
AcDbEntity
  8
VERMASSUNG
100
AcDbMText
 10
258.0454981341
 20
125.8024947417
 30
0.0
 40
2.0
 41
0.0
 71
     1
 72
     1
  1
40
  7
SLDTEXTSTYLE0
 11
6.123233995736766E-17
 21
1.0
 31
0.0
 73
     1
 44
1.0
  0
ENDBLK
  5
139
330
137
100
AcDbEntity
  8
0
100
AcDbBlockEnd
  0
BLOCK
  5
143
330
142
100
AcDbEntity
  8
0
100
AcDbBlockBegin
  2
_D_2
 70
     0
 10
0.0
 20
0.0
 30
0.0
  3
_D_2
  1

  0
SOLID
  5
145
330
142
100
AcDbEntity
  8
VERMASSUNG
100
AcDbTrace
 10
24.0686896796
 20
175.4974947476
 30
0.0
 11
23.6186896796
 21
172.4974947476
 31
0.0
 12
24.5186896796
 22
172.4974947476
 32
0.0
 13
24.5186896796
 23
172.4974947476
 33
0.0
  0
SOLID
  5
146
330
142
100
AcDbEntity
  8
VERMASSUNG
100
AcDbTrace
 10
24.0686896796
 20
75.4974947476
 30
0.0
 11
24.5186896796
 21
78.4974947476
 31
0.0
 12
23.6186896796
 22
78.4974947476
 32
0.0
 13
23.6186896796
 23
78.4974947476
 33
0.0
  0
LINE
  5
147
330
142
100
AcDbEntity
  8
VERMASSUNG
100
AcDbLine
 10
84.7191590406
 20
175.4974947476
 30
0.0
 11
23.0686896796
 21
175.4974947476
 31
0.0
  0
LINE
  5
148
330
142
100
AcDbEntity
  8
VERMASSUNG
100
AcDbLine
 10
84.7191590406
 20
75.4974947476
 30
0.0
 11
23.0686896796
 21
75.4974947476
 31
0.0
  0
LINE
  5
149
330
142
100
AcDbEntity
  8
VERMASSUNG
100
AcDbLine
 10
24.0686896796
 20
175.4974947476
 30
0.0
 11
24.0686896796
 21
75.4974947476
 31
0.0
  0
MTEXT
  5
14A
330
142
100
AcDbEntity
  8
VERMASSUNG
100
AcDbMText
 10
21.4905543747
 20
121.7924947084
 30
0.0
 40
2.0
 41
0.0
 71
     1
 72
     1
  1
%%c
  7
SLDTEXTSTYLE0
 11
-7.044195017643634E-15
 21
1.0
 31
0.0
 73
     1
 44
1.0
  0
MTEXT
  5
14B
330
142
100
AcDbEntity
  8
VERMASSUNG
100
AcDbMText
 10
21.2905544234
 20
125.4024947227
 30
0.0
 40
2.0
 41
0.0
 71
     1
 72
     1
  1
100
  7
SLDTEXTSTYLE0
 11
-7.044195017643634E-15
 21
1.0
 31
0.0
 73
     1
 44
1.0
  0
ENDBLK
  5
144
330
142
100
AcDbEntity
  8
0
100
AcDbBlockEnd
  0
BLOCK
  5
14F
330
14E
100
AcDbEntity
  8
0
100
AcDbBlockBegin
  2
_D_3
 70
     0
 10
0.0
 20
0.0
 30
0.0
  3
_D_3
  1

  0
SOLID
  5
151
330
14E
100
AcDbEntity
  8
VERMASSUNG
100
AcDbTrace
 10
250.577513436
 20
134.1124947476
 30
0.0
 11
250.127513436
 21
131.1124947476
 31
0.0
 12
251.027513436
 22
131.1124947476
 32
0.0
 13
251.027513436
 23
131.1124947476
 33
0.0
  0
SOLID
  5
152
330
14E
100
AcDbEntity
  8
VERMASSUNG
100
AcDbTrace
 10
250.577513436
 20
116.8824947476
 30
0.0
 11
251.027513436
 21
119.8824947476
 31
0.0
 12
250.127513436
 22
119.8824947476
 32
0.0
 13
250.127513436
 23
119.8824947476
 33
0.0
  0
LINE
  5
153
330
14E
100
AcDbEntity
  8
VERMASSUNG
100
AcDbLine
 10
236.2191590406
 20
134.1124947476
 30
0.0
 11
251.577513436
 21
134.1124947476
 31
0.0
  0
LINE
  5
154
330
14E
100
AcDbEntity
  8
VERMASSUNG
100
AcDbLine
 10
236.2191590406
 20
116.8824947476
 30
0.0
 11
251.577513436
 21
116.8824947476
 31
0.0
  0
LINE
  5
155
330
14E
100
AcDbEntity
  8
VERMASSUNG
100
AcDbLine
 10
250.577513436
 20
134.1124947476
 30
0.0
 11
250.577513436
 21
116.8824947476
 31
0.0
  0
MTEXT
  5
156
330
14E
100
AcDbEntity
  8
VERMASSUNG
100
AcDbMText
 10
247.99937784
 20
122.3974946586
 30
0.0
 40
2.0
 41
0.0
 71
     1
 72
     1
  1
SW
  7
SLDTEXTSTYLE0
 11
-7.044195017643634E-15
 21
1.0
 31
0.0
 73
     1
 44
1.0
  0
MTEXT
  5
157
330
14E
100
AcDbEntity
  8
VERMASSUNG
100
AcDbMText
 10
247.99937784
 20
126.1974947227
 30
0.0
 40
2.0
 41
0.0
 71
     1
 72
     1
  1
17
  7
SLDTEXTSTYLE0
 11
-7.044195017643634E-15
 21
1.0
 31
0.0
 73
     1
 44
1.0
  0
ENDBLK
  5
150
330
14E
100
AcDbEntity
  8
0
100
AcDbBlockEnd
  0
BLOCK
  5
15A
330
159
100
AcDbEntity
  8
0
100
AcDbBlockBegin
  2
_D_4
 70
     0
 10
0.0
 20
0.0
 30
0.0
  3
_D_4
  1

  0
SOLID
  5
15C
330
159
100
AcDbEntity
  8
VERMASSUNG
100
AcDbTrace
 10
211.2191590406
 20
180.6531207709
 30
0.0
 11
208.2191590406
 21
181.1031207709
 31
0.0
 12
208.2191590406
 22
180.2031207709
 32
0.0
 13
208.2191590406
 23
180.2031207709
 33
0.0
  0
SOLID
  5
15D
330
159
100
AcDbEntity
  8
VERMASSUNG
100
AcDbTrace
 10
184.2191590406
 20
180.6531207709
 30
0.0
 11
187.2191590406
 21
180.2031207709
 31
0.0
 12
187.2191590406
 22
181.1031207709
 32
0.0
 13
187.2191590406
 23
181.1031207709
 33
0.0
  0
LINE
  5
15E
330
159
100
AcDbEntity
  8
VERMASSUNG
100
AcDbLine
 10
211.2191590406
 20
144.4974947476
 30
0.0
 11
211.2191590406
 21
181.6531207709
 31
0.0
  0
LINE
  5
15F
330
159
100
AcDbEntity
  8
VERMASSUNG
100
AcDbLine
 10
184.2191590406
 20
164.4974947476
 30
0.0
 11
184.2191590406
 21
181.6531207709
 31
0.0
  0
LINE
  5
160
330
159
100
AcDbEntity
  8
VERMASSUNG
100
AcDbLine
 10
211.2191590406
 20
180.6531207709
 30
0.0
 11
184.2191590406
 21
180.6531207709
 31
0.0
  0
MTEXT
  5
161
330
159
100
AcDbEntity
  8
VERMASSUNG
100
AcDbMText
 10
196.3191590905
 20
183.2312563669
 30
0.0
 40
2.0
 41
0.0
 71
     1
 72
     1
  1
27
  7
SLDTEXTSTYLE0
 73
     1
 44
1.0
  0
ENDBLK
  5
15B
330
159
100
AcDbEntity
  8
0
100
AcDbBlockEnd
  0
BLOCK
  5
164
330
163
100
AcDbEntity
  8
0
100
AcDbBlockBegin
  2
_D_5
 70
     0
 10
0.0
 20
0.0
 30
0.0
  3
_D_5
  1

  0
SOLID
  5
166
330
163
100
AcDbEntity
  8
VERMASSUNG
100
AcDbTrace
 10
184.2191590406
 20
180.6531207709
 30
0.0
 11
181.2191590406
 21
181.1031207709
 31
0.0
 12
181.2191590406
 22
180.2031207709
 32
0.0
 13
181.2191590406
 23
180.2031207709
 33
0.0
  0
SOLID
  5
167
330
163
100
AcDbEntity
  8
VERMASSUNG
100
AcDbTrace
 10
113.1691590406
 20
180.6531207709
 30
0.0
 11
116.1691590406
 21
180.2031207709
 31
0.0
 12
116.1691590406
 22
181.1031207709
 32
0.0
 13
116.1691590406
 23
181.1031207709
 33
0.0
  0
LINE
  5
168
330
163
100
AcDbEntity
  8
VERMASSUNG
100
AcDbLine
 10
184.2191590406
 20
164.4974947476
 30
0.0
 11
184.2191590406
 21
181.6531207709
 31
0.0
  0
LINE
  5
169
330
163
100
AcDbEntity
  8
VERMASSUNG
100
AcDbLine
 10
113.1691590406
 20
173.4662345685
 30
0.0
 11
113.1691590406
 21
181.6531207709
 31
0.0
  0
LINE
  5
16A
330
163
100
AcDbEntity
  8
VERMASSUNG
100
AcDbLine
 10
184.2191590406
 20
180.6531207709
 30
0.0
 11
113.1691590406
 21
180.6531207709
 31
0.0
  0
MTEXT
  5
16B
330
163
100
AcDbEntity
  8
VERMASSUNG
100
AcDbMText
 10
145.7941590775
 20
183.2312563669
 30
0.0
 40
2.0
 41
0.0
 71
     1
 72
     1
  1
71.05
  7
SLDTEXTSTYLE0
 73
     1
 44
1.0
  0
ENDBLK
  5
165
330
163
100
AcDbEntity
  8
0
100
AcDbBlockEnd
  0
BLOCK
  5
16E
330
16D
100
AcDbEntity
  8
0
100
AcDbBlockBegin
  2
_D_6
 70
     0
 10
0.0
 20
0.0
 30
0.0
  3
_D_6
  1

  0
SOLID
  5
170
330
16D
100
AcDbEntity
  8
VERMASSUNG
100
AcDbTrace
 10
184.2191590406
 20
189.200726262
 30
0.0
 11
181.2191590406
 21
189.650726262
 31
0.0
 12
181.2191590406
 22
188.750726262
 32
0.0
 13
181.2191590406
 23
188.750726262
 33
0.0
  0
SOLID
  5
171
330
16D
100
AcDbEntity
  8
VERMASSUNG
100
AcDbTrace
 10
84.2191590406
 20
189.200726262
 30
0.0
 11
87.2191590406
 21
188.750726262
 31
0.0
 12
87.2191590406
 22
189.650726262
 32
0.0
 13
87.2191590406
 23
189.650726262
 33
0.0
  0
LINE
  5
172
330
16D
100
AcDbEntity
  8
VERMASSUNG
100
AcDbLine
 10
184.2191590406
 20
164.4974947476
 30
0.0
 11
184.2191590406
 21
190.200726262
 31
0.0
  0
LINE
  5
173
330
16D
100
AcDbEntity
  8
VERMASSUNG
100
AcDbLine
 10
84.2191590406
 20
174.9974947476
 30
0.0
 11
84.2191590406
 21
190.200726262
 31
0.0
  0
LINE
  5
174
330
16D
100
AcDbEntity
  8
VERMASSUNG
100
AcDbLine
 10
184.2191590406
 20
189.200726262
 30
0.0
 11
84.2191590406
 21
189.200726262
 31
0.0
  0
MTEXT
  5
175
330
16D
100
AcDbEntity
  8
VERMASSUNG
100
AcDbMText
 10
132.3191590086
 20
191.778861858
 30
0.0
 40
2.0
 41
0.0
 71
     1
 72
     1
  1
100
  7
SLDTEXTSTYLE0
 73
     1
 44
1.0
  0
ENDBLK
  5
16F
330
16D
100
AcDbEntity
  8
0
100
AcDbBlockEnd
  0
BLOCK
  5
178
330
177
100
AcDbEntity
  8
0
100
AcDbBlockBegin
  2
_D_7
 70
     0
 10
0.0
 20
0.0
 30
0.0
  3
_D_7
  1

  0
SOLID
  5
17A
330
177
100
AcDbEntity
  8
VERMASSUNG
100
AcDbTrace
 10
34.3191590406
 20
197.4974947476
 30
0.0
 11
37.3191590406
 21
197.0474947476
 31
0.0
 12
37.3191590406
 22
197.9474947476
 32
0.0
 13
37.3191590406
 23
197.9474947476
 33
0.0
  0
SOLID
  5
17B
330
177
100
AcDbEntity
  8
VERMASSUNG
100
AcDbTrace
 10
211.2191590406
 20
197.4974947476
 30
0.0
 11
208.2191590406
 21
197.9474947476
 31
0.0
 12
208.2191590406
 22
197.0474947476
 32
0.0
 13
208.2191590406
 23
197.0474947476
 33
0.0
  0
LINE
  5
17C
330
177
100
AcDbEntity
  8
VERMASSUNG
100
AcDbLine
 10
34.3191590406
 20
156.0001644902
 30
0.0
 11
34.3191590406
 21
198.4974947476
 31
0.0
  0
LINE
  5
17D
330
177
100
AcDbEntity
  8
VERMASSUNG
100
AcDbLine
 10
211.2191590406
 20
144.4974947476
 30
0.0
 11
211.2191590406
 21
198.4974947476
 31
0.0
  0
LINE
  5
17E
330
177
100
AcDbEntity
  8
VERMASSUNG
100
AcDbLine
 10
34.3191590406
 20
197.4974947476
 30
0.0
 11
211.2191590406
 21
197.4974947476
 31
0.0
  0
MTEXT
  5
17F
330
177
100
AcDbEntity
  8
VERMASSUNG
100
AcDbMText
 10
119.8691590775
 20
200.0756303436
 30
0.0
 40
2.0
 41
0.0
 71
     1
 72
     1
  1
176.9
  7
SLDTEXTSTYLE0
 73
     1
 44
1.0
  0
ENDBLK
  5
179
330
177
100
AcDbEntity
  8
0
100
AcDbBlockEnd
  0
ENDSEC
  0
SECTION
  2
ENTITIES
  0
MTEXT
  5
78
330
1F
100
AcDbEntity
  8
KOPF_DÜNN
100
AcDbMText
 10
13.8892156294
 20
23.8442973028
 30
0.0
 40
3.0
 41
0.0
 71
     1
 72
     1
  1
HA0.D40.K01.100
  7
SLDTEXTSTYLE0
 73
     1
 44
1.0
  0
MTEXT
  5
79
330
1F
100
AcDbEntity
  8
VERMASSUNG
100
AcDbMText
 10
13.9329988022
 20
28.8834360957
 30
0.0
 40
3.0
 41
0.0
 71
     1
 72
     1
  1
Fräsdorn Typ S_Milling arbor type S
  7
SLDTEXTSTYLE0
 73
     1
 44
1.0
  0
MTEXT
  5
7A
330
1F
100
AcDbEntity
  8
VERMASSUNG
100
AcDbMText
 10
98.8601118557
 20
13.8365368761
 30
0.0
 40
2.0
 41
0.0
 71
     1
 72
     1
  1
Datum: 19.02.2018
  7
SLDTEXTSTYLE0
 73
     1
 44
1.0
  0
MTEXT
  5
7C
330
1F
100
AcDbEntity
  8
VERMASSUNG
100
AcDbMText
 10
13.933048693
 20
18.0482802738
 30
0.0
 40
2.0
 41
0.0
 71
     1
 72
     1
  1
HSK A 100 / Ø40
  7
SLDTEXTSTYLE1
 73
     1
 44
1.0
  0
MTEXT
  5
7D
330
1F
100
AcDbEntity
  8
VERMASSUNG
100
AcDbMText
 10
13.9808475933
 20
13.9090974274
 30
0.0
 40
2.0
 41
0.0
 71
     1
 72
     1
  1
Gewicht: 5087g
  7
SLDTEXTSTYLE0
 73
     1
 44
1.0
  0
LINE
  5
7E
330
1F
100
AcDbEntity
  8
0
  6
Continuous
 62
     7
370
    25
100
AcDbLine
 10
184.2191605307
 20
87.4974959695
 30
0.0
 11
190.7191588022
 21
87.4974959695
 31
0.0
  0
LINE
  5
7F
330
1F
100
AcDbEntity
  8
0
  6
Continuous
 62
     7
370
    25
100
AcDbLine
 10
190.7191588022
 20
103.4974948668
 30
0.0
 11
184.2191605307
 21
103.4974948668
 31
0.0
  0
ARC
  5
80
330
1F
100
AcDbEntity
  8
0
  6
Continuous
 62
     7
370
    25
100
AcDbCircle
 10
190.7191590406
 20
87.9974947476
 30
0.0
 40
0.5
100
AcDbArc
 50
270.0
 51
0.0
  0
ARC
  5
81
330
1F
100
AcDbEntity
  8
0
  6
Continuous
 62
     7
370
    25
100
AcDbCircle
 10
190.7191590406
 20
102.9974947476
 30
0.0
 40
0.5
100
AcDbArc
 50
0.0
 51
90.0
  0
LINE
  5
82
330
1F
100
AcDbEntity
  8
0
  6
Continuous
 62
     7
370
    25
100
AcDbLine
 10
184.2191605307
 20
147.4974946284
 30
0.0
 11
190.7191588022
 21
147.4974946284
 31
0.0
  0
LINE
  5
83
330
1F
100
AcDbEntity
  8
0
  6
Continuous
 62
     7
370
    25
100
AcDbLine
 10
190.7191588022
 20
163.4974935257
 30
0.0
 11
184.2191605307
 21
163.4974935257
 31
0.0
  0
ARC
  5
84
330
1F
100
AcDbEntity
  8
0
  6
Continuous
 62
     7
370
    25
100
AcDbCircle
 10
190.7191590406
 20
147.9974947476
 30
0.0
 40
0.5
100
AcDbArc
 50
270.0
 51
0.0
  0
ARC
  5
85
330
1F
100
AcDbEntity
  8
0
  6
Continuous
 62
     7
370
    25
100
AcDbCircle
 10
190.7191590406
 20
162.9974947476
 30
0.0
 40
0.5
100
AcDbArc
 50
0.0
 51
90.0
  0
ARC
  5
86
330
1F
100
AcDbEntity
  8
0
  6
Continuous
 62
     7
370
    25
100
AcDbCircle
 10
235.2191590406
 20
139.4974947476
 30
0.0
 40
1.0
100
AcDbArc
 50
0.0
 51
90.0
  0
ARC
  5
87
330
1F
100
AcDbEntity
  8
0
  6
Continuous
 62
     7
370
    25
100
AcDbCircle
 10
235.2191590406
 20
111.4974947476
 30
0.0
 40
1.0
100
AcDbArc
 50
270.0
 51
0.0
  0
LINE
  5
88
330
1F
100
AcDbEntity
  8
0
  6
Continuous
 62
     7
370
    25
100
AcDbLine
 10
235.2191521265
 20
140.4974944123
 30
0.0
 11
216.2191583253
 21
140.4974944123
 31
0.0
  0
LINE
  5
89
330
1F
100
AcDbEntity
  8
0
  6
Continuous
 62
     7
370
    25
100
AcDbLine
 10
216.2191583253
 20
110.4974950829
 30
0.0
 11
235.2191521265
 21
110.4974950829
 31
0.0
  0
ARC
  5
8A
330
1F
100
AcDbEntity
  8
0
  6
Continuous
 62
     7
370
    25
100
AcDbCircle
 10
215.4191590406
 20
114.6974947476
 30
0.0
 40
0.7999999999999972
100
AcDbArc
 50
0.0
 51
90.0
  0
ARC
  5
8B
330
1F
100
AcDbEntity
  8
0
  6
Continuous
 62
     7
370
    25
100
AcDbCircle
 10
215.4191590406
 20
136.2974947476
 30
0.0
 40
0.8000000000000114
100
AcDbArc
 50
270.0
 51
0.0
  0
LINE
  5
8C
330
1F
100
AcDbEntity
  8
0
  6
Continuous
 62
     7
370
    25
100
AcDbLine
 10
215.4191596843
 20
135.4974945241
 30
0.0
 11
211.2191630937
 21
135.4974945241
 31
0.0
  0
LINE
  5
8D
330
1F
100
AcDbEntity
  8
0
  6
Continuous
 62
     7
370
    25
100
AcDbLine
 10
211.2191630937
 20
115.4974949711
 30
0.0
 11
215.4191596843
 21
115.4974949711
 31
0.0
  0
ARC
  5
8E
330
1F
100
AcDbEntity
  8
0
  6
Continuous
 62
     7
370
    25
100
AcDbCircle
 10
84.7191590406
 20
75.9974947476
 30
0.0
 40
0.5
100
AcDbArc
 50
180.0
 51
270.0
  0
ARC
  5
8F
330
1F
100
AcDbEntity
  8
0
  6
Continuous
 62
     7
370
    25
100
AcDbCircle
 10
84.7191590406
 20
174.9974947476
 30
0.0
 40
0.5
100
AcDbArc
 50
90.0
 51
180.0
  0
LINE
  5
90
330
1F
100
AcDbEntity
  8
0
  6
Continuous
 62
     7
370
    25
100
AcDbLine
 10
84.7191590643
 20
75.4974940026
 30
0.0
 11
89.1691590138
 21
75.4974940026
 31
0.0
  0
LINE
  5
91
330
1F
100
AcDbEntity
  8
0
  6
Continuous
 62
     7
370
    25
100
AcDbLine
 10
89.2032319158
 20
175.4974954927
 30
0.0
 11
84.7191590643
 21
175.4974954927
 31
0.0
  0
ARC
  5
92
330
1F
100
AcDbEntity
  8
0
  6
Continuous
 62
     7
370
    25
100
AcDbCircle
 10
116.1691590406
 20
82.4974947476
 30
0.0
 40
3.0
100
AcDbArc
 50
90.0
 51
180.0
  0
ARC
  5
93
330
1F
100
AcDbEntity
  8
0
  6
Continuous
 62
     7
370
    25
100
AcDbCircle
 10
116.1691590406
 20
168.4974947476
 30
0.0
 40
3.0
100
AcDbArc
 50
180.0
 51
270.0
  0
ARC
  5
94
330
1F
100
AcDbEntity
  8
0
  6
Continuous
 62
     7
370
    25
100
AcDbCircle
 10
183.2191590406
 20
86.4974947476
 30
0.0
 40
1.0
100
AcDbArc
 50
270.0
 51
0.0
  0
ARC
  5
95
330
1F
100
AcDbEntity
  8
0
  6
Continuous
 62
     7
370
    25
100
AcDbCircle
 10
183.2191590406
 20
164.4974947476
 30
0.0
 40
1.0
100
AcDbArc
 50
0.0
 51
90.0
  0
LINE
  5
96
330
1F
100
AcDbEntity
  8
0
  6
Continuous
 62
     7
370
    25
100
AcDbLine
 10
116.1691597141
 20
85.4974956417
 30
0.0
 11
183.2191585042
 21
85.4974956417
 31
0.0
  0
LINE
  5
97
330
1F
100
AcDbEntity
  8
0
  6
Continuous
 62
     7
370
    25
100
AcDbLine
 10
183.2191585042
 20
165.4974938535
 30
0.0
 11
116.1691597141
 21
165.4974938535
 31
0.0
  0
ARC
  5
98
330
1F
100
AcDbEntity
  8
0
  6
Continuous
 62
     7
370
    25
100
AcDbCircle
 10
83.3222221221
 20
86.8690094232
 30
0.0
 40
0.9962338214386932
100
AcDbArc
 50
25.7988228126
 51
90.0
  0
ARC
  5
99
330
1F
100
AcDbEntity
  8
0
  6
Continuous
 62
     7
370
    25
100
AcDbCircle
 10
83.3222221221
 20
164.1259800721
 30
0.0
 40
0.9962338214386932
100
AcDbArc
 50
270.0
 51
334.2011771874
  0
LINE
  5
9A
330
1F
100
AcDbEntity
  8
0
  6
Continuous
 62
     7
370
    25
100
AcDbLine
 10
81.7191590965
 20
87.6152449453
 30
0.0
 11
82.5250051627
 21
87.8311702215
 31
0.0
  0
LINE
  5
9B
330
1F
100
AcDbEntity
  8
0
  6
Continuous
 62
     7
370
    25
100
AcDbLine
 10
82.5250051627
 20
163.1638192737
 30
0.0
 11
81.7191590965
 21
163.37974455
 31
0.0
  0
LINE
  5
9C
330
1F
100
AcDbEntity
  8
0
  6
Continuous
 62
     7
370
    25
100
AcDbLine
 10
62.7384795286
 20
162.4288120472
 30
0.0
 11
44.4191595949
 21
161.5110085511
 31
0.0
  0
LINE
  5
9D
330
1F
100
AcDbEntity
  8
0
  6
Continuous
 62
     7
370
    25
100
AcDbLine
 10
81.7191590965
 20
163.37974455
 30
0.0
 11
75.6511198767
 21
163.0757347846
 31
0.0
  0
LINE
  5
9E
330
1F
100
AcDbEntity
  8
0
  6
Continuous
 62
     7
370
    25
100
AcDbLine
 10
75.6512428112
 20
87.9192472601
 30
0.0
 11
81.7191590965
 21
87.6152449453
 31
0.0
  0
LINE
  5
9F
330
1F
100
AcDbEntity
  8
0
  6
Continuous
 62
     7
370
    25
100
AcDbLine
 10
49.4191585518
 20
89.2334812486
 30
0.0
 11
62.7391109653
 21
88.5661476457
 31
0.0
  0
ARC
  5
A0
330
1F
100
AcDbEntity
  8
0
  6
Continuous
 62
     7
370
    25
100
AcDbCircle
 10
82.7838242401
 20
86.8652432446
 30
0.0
 40
1.0
100
AcDbArc
 50
90.0
 51
105.0
  0
ARC
  5
A1
330
1F
100
AcDbEntity
  8
0
  6
Continuous
 62
     7
370
    25
100
AcDbCircle
 10
82.7838242401
 20
164.1297462506
 30
0.0
 40
1.0
100
AcDbArc
 50
255.0
 51
270.0
  0
LINE
  5
A2
330
1F
100
AcDbEntity
  8
0
  6
Continuous
 62
     7
370
    25
100
AcDbLine
 10
82.7838242464
 20
87.8652417266
 30
0.0
 11
83.3222221178
 21
87.8652417266
 31
0.0
  0
LINE
  5
A3
330
1F
100
AcDbEntity
  8
0
  6
Continuous
 62
     7
370
    25
100
AcDbLine
 10
83.3222221178
 20
163.1297477686
 30
0.0
 11
82.7838242464
 21
163.1297477686
 31
0.0
  0
ARC
  5
A4
330
1F
100
AcDbEntity
  8
0
  6
Continuous
 62
     7
370
    25
100
AcDbCircle
 10
184.6191590406
 20
105.2474947476
 30
0.0
 40
0.5999999999999948
100
AcDbArc
 50
90.0
 51
131.8103148958
  0
ARC
  5
A5
330
1F
100
AcDbEntity
  8
0
  6
Continuous
 62
     7
370
    25
100
AcDbCircle
 10
184.6191590406
 20
145.7474947476
 30
0.0
 40
0.6000000000000054
100
AcDbArc
 50
228.1896851042
 51
270.0
  0
LINE
  5
A6
330
1F
100
AcDbEntity
  8
0
  6
Continuous
 62
     7
370
    25
100
AcDbLine
 10
186.7191581465
 20
105.4974951946
 30
0.0
 11
210.2191610672
 21
105.4974951946
 31
0.0
  0
LINE
  5
A7
330
1F
100
AcDbEntity
  8
0
  6
Continuous
 62
     7
370
    25
100
AcDbLine
 10
210.2191610672
 20
145.4974943006
 30
0.0
 11
186.7191581465
 21
145.4974943006
 31
0.0
  0
ARC
  5
A8
330
1F
100
AcDbEntity
  8
0
  6
Continuous
 62
     7
370
    25
100
AcDbCircle
 10
210.2191590406
 20
106.4974947476
 30
0.0
 40
1.0
100
AcDbArc
 50
270.0
 51
0.0
  0
ARC
  5
A9
330
1F
100
AcDbEntity
  8
0
  6
Continuous
 62
     7
370
    25
100
AcDbCircle
 10
210.2191590406
 20
144.4974947476
 30
0.0
 40
1.000000000000028
100
AcDbArc
 50
0.0
 51
90.0
  0
LINE
  5
AA
330
1F
100
AcDbEntity
  8
0
  6
Continuous
 62
     7
370
    25
100
AcDbLine
 10
186.7191581465
 20
145.4974943006
 30
0.0
 11
185.4892386533
 21
145.167938357
 31
0.0
  0
LINE
  5
AB
330
1F
100
AcDbEntity
  8
0
  6
Continuous
 62
     7
370
    25
100
AcDbLine
 10
185.4892386533
 20
105.8270511383
 30
0.0
 11
186.7191581465
 21
105.4974951946
 31
0.0
  0
ARC
  5
AC
330
1F
100
AcDbEntity
  8
0
  6
Continuous
 62
     7
370
    25
100
AcDbCircle
 10
185.3339497594
 20
105.2474947476
 30
0.0
 40
0.599999999999986
100
AcDbArc
 50
75.0
 51
90.0
  0
ARC
  5
AD
330
1F
100
AcDbEntity
  8
0
  6
Continuous
 62
     7
370
    25
100
AcDbCircle
 10
185.3339497594
 20
145.7474947476
 30
0.0
 40
0.5999999999999943
100
AcDbArc
 50
270.0
 51
285.0
  0
LINE
  5
AE
330
1F
100
AcDbEntity
  8
0
  6
Continuous
 62
     7
370
    25
100
AcDbLine
 10
184.6191598512
 20
105.8474955314
 30
0.0
 11
185.3339462019
 21
105.8474955314
 31
0.0
  0
LINE
  5
AF
330
1F
100
AcDbEntity
  8
0
  6
Continuous
 62
     7
370
    25
100
AcDbLine
 10
185.3339462019
 20
145.1474939638
 30
0.0
 11
184.6191598512
 21
145.1474939638
 31
0.0
  0
LINE
  5
B0
330
1F
100
AcDbEntity
  8
0
  6
Continuous
 62
     7
370
    25
100
AcDbLine
 10
35.9691581167
 20
93.2474964463
 30
0.0
 11
47.5191599168
 21
93.2474964463
 31
0.0
  0
ARC
  5
B1
330
1F
100
AcDbEntity
  8
0
  6
Continuous
 62
     7
370
    25
100
AcDbCircle
 10
47.5191590406
 20
91.3474947476
 30
0.0
 40
1.900000000000006
100
AcDbArc
 50
35.6630613694
 51
90.0
  0
ARC
  5
B2
330
1F
100
AcDbEntity
  8
0
  6
Continuous
 62
     7
370
    25
100
AcDbCircle
 10
42.5191590406
 20
159.6474947476
 30
0.0
 40
1.900000000000013
100
AcDbArc
 50
270.0
 51
310.9212832533
  0
LINE
  5
B3
330
1F
100
AcDbEntity
  8
0
  6
Continuous
 62
     7
370
    25
100
AcDbLine
 10
35.9691581167
 20
157.7474930489
 30
0.0
 11
34.3698425628
 21
156.1481793576
 31
0.0
  0
LINE
  5
B4
330
1F
100
AcDbEntity
  8
0
  6
Continuous
 62
     7
370
    25
100
AcDbLine
 10
34.3706807531
 20
94.8459738099
 30
0.0
 11
35.9691581167
 21
93.2474964463
 31
0.0
  0
LINE
  5
B5
330
1F
100
AcDbEntity
  8
0
  6
Continuous
 62
     7
370
    25
100
AcDbLine
 10
42.5191572346
 20
157.7474930489
 30
0.0
 11
35.9691581167
 21
157.7474930489
 31
0.0
  0
LINE
  5
B6
330
1F
100
AcDbEntity
  8
0
  6
Continuous
 62
     7
370
    25
100
AcDbLine
 10
191.2191598155
 20
88.227164855
 30
0.0
 11
191.2191598155
 21
102.9974938535
 31
0.0
  0
LINE
  5
B7
330
1F
100
AcDbEntity
  8
0
  6
Continuous
 62
     7
370
    25
100
AcDbLine
 10
191.2191598155
 20
87.9974932575
 30
0.0
 11
191.2191598155
 21
88.227164855
 31
0.0
  0
LINE
  5
B8
330
1F
100
AcDbEntity
  8
0
  6
Continuous
 62
     7
370
    25
100
AcDbLine
 10
191.2191598155
 20
147.9974956417
 30
0.0
 11
191.2191598155
 21
162.9974962377
 31
0.0
  0
LINE
  5
B9
330
1F
100
AcDbEntity
  8
0
  6
Continuous
 62
     7
370
    25
100
AcDbLine
 10
236.219154153
 20
139.4974951797
 30
0.0
 11
236.219154153
 21
111.4974943155
 31
0.0
  0
LINE
  5
BA
330
1F
100
AcDbEntity
  8
0
  6
Continuous
 62
     7
370
    25
100
AcDbLine
 10
216.2191583253
 20
140.4974944123
 30
0.0
 11
216.2191583253
 21
110.4974950829
 31
0.0
  0
LINE
  5
BB
330
1F
100
AcDbEntity
  8
0
  6
Continuous
 62
     7
370
    25
100
AcDbLine
 10
84.2191590406
 20
75.9974950158
 30
0.0
 11
84.2191590406
 21
174.9974944794
 31
0.0
  0
LINE
  5
BC
330
1F
100
AcDbEntity
  8
0
  6
Continuous
 62
     7
370
    25
100
AcDbLine
 10
102.3091594167
 20
79.1261055672
 30
0.0
 11
102.3091594167
 21
156.8474964404
 31
0.0
  0
SPLINE
  5
BD
330
1F
100
AcDbEntity
  8
0
  6
Continuous
 62
     7
370
    25
100
AcDbSpline
210
0.0
220
0.0
230
1.0
 70
     8
 71
     3
 72
     8
 73
     4
 74
     0
 42
0.000000001
 43
0.00000001
 40
0.0
 40
0.0
 40
0.0
 40
0.0
 40
1.0
 40
1.0
 40
1.0
 40
1.0
 10
102.3091590405978
 20
79.12610646059125
 30
0.0
 10
101.85893257632
 20
78.3246510979665
 30
0.0
 10
101.4082347490766
 20
77.52346108640582
 30
0.0
 10
100.9571300196764
 20
76.7225011545859
 30
0.0
  0
LINE
  5
BE
330
1F
100
AcDbEntity
  8
0
  6
Continuous
 62
     7
370
    25
100
AcDbLine
 10
100.9571304955
 20
76.7224998379
 30
0.0
 11
100.9571304955
 21
156.8474964404
 31
0.0
  0
SPLINE
  5
BF
330
1F
100
AcDbEntity
  8
0
  6
Continuous
 62
     7
370
    25
100
AcDbSpline
210
0.0
220
0.0
230
1.0
 70
    24
 71
     3
 72
     8
 73
     4
 74
     0
 42
0.000000001
 43
0.00000001
 40
0.0
 40
0.0
 40
0.0
 40
0.0
 40
1.0
 40
1.0
 40
1.0
 40
1.0
 10
100.9571300196764
 20
156.8474947476147
 30
0.0
 10
101.4139315920046
 20
156.8474947476147
 30
0.0
 10
101.8649461582439
 20
156.8474947476147
 30
0.0
 10
102.3091590405978
 20
156.8474947476147
 30
0.0
  0
LINE
  5
C0
330
1F
100
AcDbEntity
  8
0
  6
Continuous
 62
     7
370
    25
100
AcDbLine
 10
113.1691592224
 20
77.7481504881
 30
0.0
 11
113.1691592224
 21
156.8474964404
 31
0.0
  0
SPLINE
  5
C1
330
1F
100
AcDbEntity
  8
0
  6
Continuous
 62
     7
370
    25
100
AcDbSpline
210
0.0
220
0.0
230
1.0
 70
     8
 71
     3
 72
    14
 73
    10
 74
     0
 42
0.000000001
 43
0.00000001
 40
0.0
 40
0.0
 40
0.0
 40
0.0
 40
0.25
 40
0.25
 40
0.5
 40
0.5
 40
0.75
 40
0.75
 40
1.0
 40
1.0
 40
1.0
 40
1.0
 10
113.1691590405978
 20
77.74814920236142
 30
0.0
 10
113.1691590405978
 20
77.61472350630689
 30
0.0
 10
113.1438479406869
 20
77.48287569846252
 30
0.0
 10
113.0455131768422
 20
77.23635314976843
 30
0.0
 10
112.9723691725861
 20
77.12254796152787
 30
0.0
 10
112.7889311114904
 20
76.93209078458061
 30
0.0
 10
112.6772447771518
 20
76.85445592073069
 30
0.0
 10
112.4347413468455
 20
76.75016451061822
 30
0.0
 10
112.3013669181513
 20
76.72250115458587
 30
0.0
 10
112.1691590405978
 20
76.72250115458587
 30
0.0
  0
SPLINE
  5
C2
330
1F
100
AcDbEntity
  8
0
  6
Continuous
 62
     7
370
    25
100
AcDbSpline
210
0.0
220
0.0
230
1.0
 70
    24
 71
     3
 72
    12
 73
     8
 74
     0
 42
0.000000001
 43
0.00000001
 40
0.0
 40
0.0
 40
0.0
 40
0.0
 40
0.2500000000000032
 40
0.2500000000000032
 40
0.5000000000000064
 40
0.5000000000000064
 40
1.0
 40
1.0
 40
1.0
 40
1.0
 10
112.1691590405978
 20
156.8474947476147
 30
0.0
 10
112.3212492775428
 20
156.8474947476147
 30
0.0
 10
112.4697085386182
 20
156.8474947476147
 30
0.0
 10
112.7271121708839
 20
156.8474947476147
 30
0.0
 10
112.8362169187258
 20
156.8474947476147
 30
0.0
 10
113.0902763951334
 20
156.8474947476147
 30
0.0
 10
113.1691590405978
 20
156.8474947476147
 30
0.0
 10
113.1691590405978
 20
156.8474947476147
 30
0.0
  0
LINE
  5
C3
330
1F
100
AcDbEntity
  8
0
  6
Continuous
 62
     7
370
    25
100
AcDbLine
 10
89.1691590138
 20
156.8474964404
 30
0.0
 11
100.9571304955
 21
156.8474964404
 31
0.0
  0
LINE
  5
C4
330
1F
100
AcDbEntity
  8
0
  6
Continuous
 62
     7
370
    25
100
AcDbLine
 10
100.9571304955
 20
76.7224998379
 30
0.0
 11
99.1691587903
 21
76.7224998379
 31
0.0
  0
SPLINE
  5
C5
330
1F
100
AcDbEntity
  8
0
  6
Continuous
 62
     7
370
    25
100
AcDbSpline
210
0.0
220
0.0
230
1.0
 70
     8
 71
     3
 72
    30
 73
    26
 74
     0
 42
0.000000001
 43
0.00000001
 40
0.0
 40
0.0
 40
0.0
 40
0.0
 40
0.1250000000000002
 40
0.1250000000000002
 40
0.1875000000000003
 40
0.1875000000000003
 40
0.2500000000000004
 40
0.2500000000000004
 40
0.3750000000000001
 40
0.3750000000000001
 40
0.4374999999999998
 40
0.4374999999999998
 40
0.4999999999999996
 40
0.4999999999999996
 40
0.6249999999999996
 40
0.6249999999999996
 40
0.6874999999999997
 40
0.6874999999999997
 40
0.7499999999999997
 40
0.7499999999999997
 40
0.8124999999999998
 40
0.8124999999999998
 40
0.8749999999999999
 40
0.8749999999999999
 40
1.0
 40
1.0
 40
1.0
 40
1.0
 10
99.16915904059778
 20
76.7225011545859
 30
0.0
 10
98.50641434675275
 20
76.72250115458591
 30
0.0
 10
97.85515848763704
 20
76.70766107799709
 30
0.0
 10
96.89470794937877
 20
76.66529151376747
 30
0.0
 10
96.5773165061458
 20
76.6478134109883
 30
0.0
 10
95.94815300459095
 20
76.60648512443599
 30
0.0
 10
95.63600481814922
 20
76.58255985097831
 30
0.0
 10
94.72869751630097
 20
76.5037533345114
 30
0.0
 10
94.15527255865972
 20
76.44144731453493
 30
0.0
 10
93.34139568908505
 20
76.33831799429556
 30
0.0
 10
93.07658949251518
 20
76.30213407524906
 30
0.0
 10
92.56968208170086
 20
76.22833929104856
 30
0.0
 10
92.32828793034736
 20
76.19086543227691
 30
0.0
 10
91.63914645821502
 20
76.07815348893718
 30
0.0
 10
91.22609164335078
 20
76.00261739146339
 30
0.0
 10
90.67793682397573
 20
75.89422413444589
 30
0.0
 10
90.50847421663013
 20
75.85915190278264
 30
0.0
 10
90.20045696861476
 20
75.79291644218277
 30
0.0
 10
90.0610769480064
 20
75.76158974542807
 30
0.0
 10
89.81129143537966
 20
75.70318097384713
 30
0.0
 10
89.70088532272574
 20
75.67609773866428
 30
0.0
 10
89.50962746908802
 20
75.62683798405071
 30
0.0
 10
89.42850795080373
 20
75.60457600424306
 30
0.0
 10
89.23436103069533
 20
75.54700909707478
 30
0.0
 10
89.16915904059778
 20
75.52074949228879
 30
0.0
 10
89.16915904059779
 20
75.50749574781476
 30
0.0
  0
LINE
  5
C6
330
1F
100
AcDbEntity
  8
0
  6
Continuous
 62
     7
370
    25
100
AcDbLine
 10
89.1691590138
 20
75.507496407
 30
0.0
 11
89.1691590138
 21
75.4974940026
 31
0.0
  0
SPLINE
  5
C7
330
1F
100
AcDbEntity
  8
0
  6
Continuous
 62
     7
370
    25
100
AcDbSpline
210
0.0
220
0.0
230
1.0
 70
     8
 71
     3
 72
    17
 73
    13
 74
     0
 42
0.000000001
 43
0.00000001
 40
0.0
 40
0.0
 40
0.0
 40
0.0
 40
0.1043843958185158
 40
0.2118345569819801
 40
0.3162081801235555
 40
0.4235375330682647
 40
0.5292275935501746
 40
0.6379275752951962
 40
0.7444714855043735
 40
0.8541836194561564
 40
0.959308052615968
 40
1.0
 40
1.0
 40
1.0
 40
1.0
 10
99.16915879025828
 20
174.4872898959873
 30
0.0
 10
98.62122024974462
 20
174.4926573363201
 30
0.0
 10
97.50925023667037
 20
174.5035498584841
 30
0.0
 10
95.89639490414784
 20
174.5887320423021
 30
0.0
 10
94.36288175341014
 20
174.7151025456336
 30
0.0
 10
92.97186086503586
 20
174.8720064171425
 30
0.0
 10
91.73634374873777
 20
175.0437018145782
 30
0.0
 10
90.71298860288137
 20
175.2090466687882
 30
0.0
 10
89.91264593002239
 20
175.3527509666202
 30
0.0
 10
89.40231437726234
 20
175.450914962552
 30
0.0
 10
89.16240561880291
 20
175.4988362770249
 30
0.0
 10
89.19432453057236
 20
175.4924697690111
 30
0.0
 10
89.20323191582929
 20
175.4906931125878
 30
0.0
  0
LINE
  5
C8
330
1F
100
AcDbEntity
  8
0
  6
Continuous
 62
     7
370
    25
100
AcDbLine
 10
100.9571304955
 20
174.487289896
 30
0.0
 11
99.1691587903
 21
174.487289896
 31
0.0
  0
LINE
  5
C9
330
1F
100
AcDbEntity
  8
0
  6
Continuous
 62
     7
370
    25
100
AcDbLine
 10
100.9571304955
 20
164.4484558308
 30
0.0
 11
100.9571304955
 21
174.487289896
 31
0.0
  0
LINE
  5
CA
330
1F
100
AcDbEntity
  8
0
  6
Continuous
 62
     7
370
    25
100
AcDbLine
 10
98.8771258332
 20
164.4484558308
 30
0.0
 11
100.9571304955
 21
164.4484558308
 31
0.0
  0
SPLINE
  5
CB
330
1F
100
AcDbEntity
  8
0
  6
Continuous
 62
     7
370
    25
100
AcDbSpline
210
0.0
220
0.0
230
1.0
 70
     8
 71
     3
 72
    22
 73
    18
 74
     0
 42
0.000000001
 43
0.00000001
 40
0.0
 40
0.0
 40
0.0
 40
0.0
 40
0.2500000000000002
 40
0.2500000000000002
 40
0.3750000000000003
 40
0.3750000000000003
 40
0.5000000000000004
 40
0.5000000000000004
 40
0.6250000000000004
 40
0.6250000000000004
 40
0.7500000000000004
 40
0.7500000000000004
 40
0.8750000000000004
 40
0.8750000000000004
 40
0.9375000000000002
 40
0.9375000000000002
 40
1.0
 40
1.0
 40
1.0
 40
1.0
 10
89.16915904059778
 20
156.8474947476147
 30
0.0
 10
89.37188399651687
 20
157.8667410894793
 30
0.0
 10
89.68662771831225
 20
158.8258492394186
 30
0.0
 10
90.39468318798322
 20
160.1683283169279
 30
0.0
 10
90.67314581820087
 20
160.6025368996679
 30
0.0
 10
91.31191322483807
 20
161.41416461517
 30
0.0
 10
91.67232690462826
 20
161.7934449081069
 30
0.0
 10
92.48985913661754
 20
162.4964034871279
 30
0.0
 10
92.95102711990468
 20
162.8214323048285
 30
0.0
 10
93.94901736638847
 20
163.3864476282193
 30
0.0
 10
94.48877656038076
 20
163.6301512224259
 30
0.0
 10
95.66336952441206
 20
164.0343511500708
 30
0.0
 10
96.27510571040395
 20
164.1867883431163
 30
0.0
 10
97.22701493526564
 20
164.3421158907251
 30
0.0
 10
97.55024809952631
 20
164.3816206707751
 30
0.0
 10
98.20931127080156
 20
164.4349297914438
 30
0.0
 10
98.54337528137555
 20
164.4484575085017
 30
0.0
 10
98.87712588877709
 20
164.4484575085016
 30
0.0
  0
SPLINE
  5
CC
330
1F
100
AcDbEntity
  8
0
  6
Continuous
 62
     7
370
    25
100
AcDbSpline
210
0.0
220
0.0
230
1.0
 70
    11
 71
     3
 72
    80
 73
    76
 74
     0
 42
0.000000001
 43
0.00000001
 40
0.0
 40
0.0
 40
0.0
 40
0.0
 40
0.03125
 40
0.03125
 40
0.0468749999999999
 40
0.0468749999999999
 40
0.0624999999999998
 40
0.0624999999999998
 40
0.0937499999999996
 40
0.0937499999999996
 40
0.1249999999999994
 40
0.1249999999999994
 40
0.1562499999999992
 40
0.1562499999999992
 40
0.187499999999999
 40
0.187499999999999
 40
0.2187499999999988
 40
0.2187499999999988
 40
0.2499999999999986
 40
0.2499999999999986
 40
0.2812499999999983
 40
0.2812499999999983
 40
0.3124999999999981
 40
0.3124999999999981
 40
0.3281249999999982
 40
0.3281249999999982
 40
0.3437499999999982
 40
0.3437499999999982
 40
0.3749999999999984
 40
0.3749999999999984
 40
0.4062499999999986
 40
0.4062499999999986
 40
0.4218749999999987
 40
0.4218749999999987
 40
0.4374999999999987
 40
0.4374999999999987
 40
0.4687499999999989
 40
0.4687499999999989
 40
0.499999999999999
 40
0.499999999999999
 40
0.5312499999999991
 40
0.5312499999999991
 40
0.5624999999999992
 40
0.5624999999999992
 40
0.5937499999999993
 40
0.5937499999999993
 40
0.6249999999999994
 40
0.6249999999999994
 40
0.6562499999999997
 40
0.6562499999999997
 40
0.6874999999999998
 40
0.6874999999999998
 40
0.703125
 40
0.703125
 40
0.7187500000000002
 40
0.7187500000000002
 40
0.7500000000000003
 40
0.7500000000000003
 40
0.7812500000000004
 40
0.7812500000000004
 40
0.7968750000000006
 40
0.7968750000000006
 40
0.8125000000000007
 40
0.8125000000000007
 40
0.8437500000000006
 40
0.8437500000000006
 40
0.8750000000000006
 40
0.8750000000000006
 40
0.9062500000000004
 40
0.9062500000000004
 40
0.9375000000000003
 40
0.9375000000000003
 40
0.9687500000000002
 40
0.9687500000000002
 40
1.0
 40
1.0
 40
1.0
 40
1.0
 10
93.21915904059779
 20
168.912124211246
 30
0.0
 10
92.88861372782148
 20
168.912124211246
 30
0.0
 10
92.56363359856985
 20
168.9283324426281
 30
0.0
 10
92.08416018732343
 20
168.9756970746477
 30
0.0
 10
91.92567836948263
 20
168.9953512865384
 30
0.0
 10
91.61145883697834
 20
169.0424624427311
 30
0.0
 10
91.45533855329793
 20
169.0700437622257
 30
0.0
 10
91.00128452434136
 20
169.1625795490195
 30
0.0
 10
90.71418114140154
 20
169.237649982616
 30
0.0
 10
90.17082658537451
 20
169.4128882912266
 30
0.0
 10
89.91372297416895
 20
169.5138895890648
 30
0.0
 10
89.45281671923014
 20
169.7312457875257
 30
0.0
 10
89.24591901001517
 20
169.8484101192979
 30
0.0
 10
88.88039369602298
 20
170.0984800435266
 30
0.0
 10
88.72518817389702
 20
170.2294261322856
 30
0.0
 10
88.4757577872973
 20
170.4951610759979
 30
0.0
 10
88.37966783151214
 20
170.6319146693089
 30
0.0
 10
88.25114898231857
 20
170.9059802441479
 30
0.0
 10
88.21933811214078
 20
171.0409203346167
 30
0.0
 10
88.21898146236751
 20
171.3063919716855
 30
0.0
 10
88.25147871456458
 20
171.4382164488267
 30
0.0
 10
88.37910418827907
 20
171.6876660484471
 30
0.0
 10
88.47353258933096
 20
171.8060987403751
 30
0.0
 10
88.66139340931652
 20
171.9749679374692
 30
0.0
 10
88.7322214081197
 20
172.0300539325894
 30
0.0
 10
88.88694330008498
 20
172.1353067610778
 30
0.0
 10
88.97091977026838
 20
172.1856419898381
 30
0.0
 10
89.2422434399128
 20
172.3302178223762
 30
0.0
 10
89.44879265851515
 20
172.4180794087932
 30
0.0
 10
89.91540279870416
 20
172.5778005017927
 30
0.0
 10
90.16776836832963
 20
172.6470387982599
 30
0.0
 10
90.57366971000835
 20
172.7368261874897
 30
0.0
 10
90.71357032748584
 20
172.764392149576
 30
0.0
 10
91.00279426273275
 20
172.8148829505023
 30
0.0
 10
91.15263371902203
 20
172.837846389353
 30
0.0
 10
91.60675028863282
 20
172.8984769057718
 30
0.0
 10
91.91840150736968
 20
172.9285509345676
 30
0.0
 10
92.55939797228204
 20
172.9691405218263
 30
0.0
 10
92.89092560023423
 20
172.9794527520423
 30
0.0
 10
93.5437166453057
 20
172.9795283192081
 30
0.0
 10
93.86825285033753
 20
172.9696267137403
 30
0.0
 10
94.51352229975393
 20
172.9291401832151
 30
0.0
 10
94.82926530591665
 20
172.8986788833304
 30
0.0
 10
95.43115460090034
 20
172.8185282118938
 30
0.0
 10
95.72190383171184
 20
172.7682459800867
 30
0.0
 10
96.26881562339632
 20
172.6475757973137
 30
0.0
 10
96.52059298723326
 20
172.5783519381437
 30
0.0
 10
96.98198097985437
 20
172.420900210503
 30
0.0
 10
97.19325025945245
 20
172.3315517358292
 30
0.0
 10
97.55655461182866
 20
172.1383038651284
 30
0.0
 10
97.71036126027145
 20
172.0341758732491
 30
0.0
 10
97.89898072986885
 20
171.8655514870657
 30
0.0
 10
97.95501121607796
 20
171.8069230853907
 30
0.0
 10
98.05058497781413
 20
171.6874681705645
 30
0.0
 10
98.09034789483914
 20
171.6265483817263
 30
0.0
 10
98.18611964515125
 20
171.4401436555524
 30
0.0
 10
98.21884248427737
 20
171.3110308377574
 30
0.0
 10
98.21947107060646
 20
171.0423739148015
 30
0.0
 10
98.1872849258717
 20
170.9070031740448
 30
0.0
 10
98.09237422401613
 20
170.7034528658088
 30
0.0
 10
98.05290744061715
 20
170.6354809417454
 30
0.0
 10
97.95797744189628
 20
170.4993887186145
 30
0.0
 10
97.9022206141329
 20
170.431038618405
 30
0.0
 10
97.71428049616301
 20
170.2303356053629
 30
0.0
 10
97.56091902644683
 20
170.1009473315502
 30
0.0
 10
97.19865479156647
 20
169.8522818995004
 30
0.0
 10
96.98780631810055
 20
169.7324722571322
 30
0.0
 10
96.52713634778165
 20
169.5149499695596
 30
0.0
 10
96.27576196819781
 20
169.4158648697236
 30
0.0
 10
95.72985408129969
 20
169.2391923958068
 30
0.0
 10
95.43903150664845
 20
169.1631353076727
 30
0.0
 10
94.83770489186843
 20
169.0402903303197
 30
0.0
 10
94.52318630725604
 20
168.9925842052666
 30
0.0
 10
93.8766048511361
 20
168.928335670147
 30
0.0
 10
93.5497043533741
 20
168.912124211246
 30
0.0
 10
93.21915904059779
 20
168.912124211246
 30
0.0
  0
LINE
  5
CD
330
1F
100
AcDbEntity
  8
0
  6
Continuous
 62
     7
370
    25
100
AcDbLine
 10
107.4811885543
 20
76.7224998379
 30
0.0
 11
107.4811885543
 21
156.8474964404
 31
0.0
  0
SPLINE
  5
CE
330
1F
100
AcDbEntity
  8
0
  6
Continuous
 62
     7
370
    25
100
AcDbSpline
210
0.0
220
0.0
230
1.0
 70
     8
 71
     3
 72
     8
 73
     4
 74
     0
 42
0.000000001
 43
0.00000001
 40
0.0
 40
0.0
 40
0.0
 40
0.0
 40
1.0
 40
1.0
 40
1.0
 40
1.0
 10
107.4811880615192
 20
76.7225011545859
 30
0.0
 10
107.030083332119
 20
77.52346108640582
 30
0.0
 10
106.5793855048756
 20
78.3246510979665
 30
0.0
 10
106.1291590405978
 20
79.12610646059125
 30
0.0
  0
LINE
  5
CF
330
1F
100
AcDbEntity
  8
0
  6
Continuous
 62
     7
370
    25
100
AcDbLine
 10
106.1291596331
 20
79.1261055672
 30
0.0
 11
106.1291596331
 21
156.8474964404
 31
0.0
  0
SPLINE
  5
D0
330
1F
100
AcDbEntity
  8
0
  6
Continuous
 62
     7
370
    25
100
AcDbSpline
210
0.0
220
0.0
230
1.0
 70
    24
 71
     3
 72
     8
 73
     4
 74
     0
 42
0.000000001
 43
0.00000001
 40
0.0
 40
0.0
 40
0.0
 40
0.0
 40
1.0
 40
1.0
 40
1.0
 40
1.0
 10
106.1291590405978
 20
156.8474947476147
 30
0.0
 10
106.5733719229517
 20
156.8474947476147
 30
0.0
 10
107.0243864891909
 20
156.8474947476147
 30
0.0
 10
107.4811880615192
 20
156.8474947476147
 30
0.0
  0
LINE
  5
D1
330
1F
100
AcDbEntity
  8
0
  6
Continuous
 62
     7
370
    25
100
AcDbLine
 10
112.1691590585
 20
76.7224998379
 30
0.0
 11
107.4811885543
 21
76.7224998379
 31
0.0
  0
LINE
  5
D2
330
1F
100
AcDbEntity
  8
0
  6
Continuous
 62
     7
370
    25
100
AcDbLine
 10
107.4811885543
 20
156.8474964404
 30
0.0
 11
112.1691590585
 21
156.8474964404
 31
0.0
  0
SPLINE
  5
D3
330
1F
100
AcDbEntity
  8
0
  6
Continuous
 62
     7
370
    25
100
AcDbSpline
210
0.0
220
0.0
230
1.0
 70
     8
 71
     3
 72
    14
 73
    10
 74
     0
 42
0.000000001
 43
0.00000001
 40
0.0
 40
0.0
 40
0.0
 40
0.0
 40
0.25
 40
0.25
 40
0.5
 40
0.5
 40
0.75
 40
0.75
 40
1.0
 40
1.0
 40
1.0
 40
1.0
 10
106.1291590405978
 20
80.03431596521982
 30
0.0
 10
106.1291590405978
 20
80.1413600462142
 30
0.0
 10
106.1090413534396
 20
80.24659518645666
 30
0.0
 10
106.030550164174
 20
80.44444567330433
 30
0.0
 10
105.9723935393728
 20
80.53549743686926
 30
0.0
 10
105.8258782837547
 20
80.68866353079405
 30
0.0
 10
105.7372357351136
 20
80.75095797700345
 30
0.0
 10
105.5415124123133
 20
80.83575176253943
 30
0.0
 10
105.4362812212424
 20
80.85781928956506
 30
0.0
 10
105.3291590405978
 20
80.85781928956506
 30
0.0
  0
SPLINE
  5
D4
330
1F
100
AcDbEntity
  8
0
  6
Continuous
 62
     7
370
    25
100
AcDbSpline
210
0.0
220
0.0
230
1.0
 70
    24
 71
     3
 72
    14
 73
    10
 74
     0
 42
0.000000001
 43
0.00000001
 40
0.0
 40
0.0
 40
0.0
 40
0.0
 40
0.25
 40
0.25
 40
0.5
 40
0.5
 40
0.75
 40
0.75
 40
1.0
 40
1.0
 40
1.0
 40
1.0
 10
105.3291590405978
 20
156.8474947476147
 30
0.0
 10
105.4529288053629
 20
156.8474947476147
 30
0.0
 10
105.5772959093698
 20
156.8474947476147
 30
0.0
 10
105.7836523780959
 20
156.8474947476147
 30
0.0
 10
105.8689805215142
 20
156.8474947476147
 30
0.0
 10
106.0011725802295
 20
156.8474947476147
 30
0.0
 10
106.04981782398
 20
156.8474947476147
 30
0.0
 10
106.1133536157088
 20
156.8474947476147
 30
0.0
 10
106.1291590405978
 20
156.8474947476147
 30
0.0
 10
106.1291590405978
 20
156.8474947476147
 30
0.0
  0
SPLINE
  5
D5
330
1F
100
AcDbEntity
  8
0
  6
Continuous
 62
     7
370
    25
100
AcDbSpline
210
0.0
220
0.0
230
1.0
 70
     8
 71
     3
 72
    12
 73
     8
 74
     0
 42
0.000000001
 43
0.00000001
 40
0.0
 40
0.0
 40
0.0
 40
0.0
 40
0.250000000000003
 40
0.250000000000003
 40
0.500000000000006
 40
0.500000000000006
 40
1.0
 40
1.0
 40
1.0
 40
1.0
 10
103.1091590405978
 20
80.85781928956506
 30
0.0
 10
103.0033983872488
 20
80.85781928956506
 30
0.0
 10
102.8954107590659
 20
80.83527978356467
 30
0.0
 10
102.7008160938003
 20
80.75070915156934
 30
0.0
 10
102.6119441809614
 20
80.68822749881052
 30
0.0
 10
102.3927518886355
 20
80.45883854733829
 30
0.0
 10
102.3091590405977
 20
80.24625520981587
 30
0.0
 10
102.3091590405978
 20
80.03431596521968
 30
0.0
  0
SPLINE
  5
D6
330
1F
100
AcDbEntity
  8
0
  6
Continuous
 62
     7
370
    25
100
AcDbSpline
210
0.0
220
0.0
230
1.0
 70
    24
 71
     3
 72
    14
 73
    10
 74
     0
 42
0.000000001
 43
0.00000001
 40
0.0
 40
0.0
 40
0.0
 40
0.0
 40
0.25
 40
0.25
 40
0.5
 40
0.5
 40
0.75
 40
0.75
 40
1.0
 40
1.0
 40
1.0
 40
1.0
 10
102.3091590405978
 20
156.8474947476147
 30
0.0
 10
102.3091590405978
 20
156.8474947476147
 30
0.0
 10
102.3248733610637
 20
156.8474947476147
 30
0.0
 10
102.3885573395321
 20
156.8474947476147
 30
0.0
 10
102.4371605339426
 20
156.8474947476147
 30
0.0
 10
102.5698440563681
 20
156.8474947476147
 30
0.0
 10
102.6549461606788
 20
156.8474947476147
 30
0.0
 10
102.8613883955888
 20
156.8474947476147
 30
0.0
 10
102.9854693372119
 20
156.8474947476147
 30
0.0
 10
103.1091590405978
 20
156.8474947476147
 30
0.0
  0
LINE
  5
D7
330
1F
100
AcDbEntity
  8
0
  6
Continuous
 62
     7
370
    25
100
AcDbLine
 10
105.3291591294
 20
80.8578179383
 30
0.0
 11
103.1091599204
 21
80.8578179383
 31
0.0
  0
LINE
  5
D8
330
1F
100
AcDbEntity
  8
0
  6
Continuous
 62
     7
370
    25
100
AcDbLine
 10
103.1091599204
 20
156.8474964404
 30
0.0
 11
105.3291591294
 21
156.8474964404
 31
0.0
  0
LINE
  5
D9
330
1F
100
AcDbEntity
  8
0
  6
Continuous
 62
     7
370
    25
100
AcDbLine
 10
184.2191605307
 20
86.497493943
 30
0.0
 11
184.2191605307
 21
164.4974955523
 31
0.0
  0
SPLINE
  5
DA
330
1F
100
AcDbEntity
  8
0
  6
Continuous
 62
     7
370
    25
100
AcDbSpline
210
0.0
220
0.0
230
1.0
 70
    11
 71
     3
 72
    91
 73
    87
 74
     0
 42
0.000000001
 43
0.00000001
 40
0.0
 40
0.0
 40
0.0
 40
0.0
 40
0.0312500000000002
 40
0.0312500000000002
 40
0.0468750000000003
 40
0.0468750000000003
 40
0.0625000000000004
 40
0.0625000000000004
 40
0.0937500000000005
 40
0.0937500000000005
 40
0.1250000000000006
 40
0.1250000000000006
 40
0.1562500000000008
 40
0.1562500000000008
 40
0.1718750000000009
 40
0.1718750000000009
 40
0.187500000000001
 40
0.187500000000001
 40
0.2187500000000015
 40
0.2187500000000015
 40
0.2500000000000021
 40
0.2500000000000021
 40
0.2656250000000023
 40
0.2656250000000023
 40
0.2812500000000026
 40
0.2812500000000026
 40
0.3125000000000029
 40
0.3125000000000029
 40
0.3281250000000028
 40
0.3281250000000028
 40
0.3437500000000028
 40
0.3437500000000028
 40
0.3750000000000028
 40
0.3750000000000028
 40
0.4062500000000028
 40
0.4062500000000028
 40
0.4375000000000027
 40
0.4375000000000027
 40
0.4687500000000027
 40
0.4687500000000027
 40
0.4843750000000027
 40
0.4843750000000027
 40
0.5000000000000027
 40
0.5000000000000027
 40
0.5312500000000036
 40
0.5312500000000036
 40
0.546875000000004
 40
0.546875000000004
 40
0.5625000000000043
 40
0.5625000000000043
 40
0.5937500000000043
 40
0.5937500000000043
 40
0.6250000000000043
 40
0.6250000000000043
 40
0.6406250000000043
 40
0.6406250000000043
 40
0.6562500000000042
 40
0.6562500000000042
 40
0.6875000000000042
 40
0.6875000000000042
 40
0.7187500000000042
 40
0.7187500000000042
 40
0.7500000000000041
 40
0.7500000000000041
 40
0.7656250000000041
 40
0.7656250000000041
 40
0.7812500000000041
 40
0.7968750000000041
 40
0.7968750000000041
 40
0.8125000000000041
 40
0.8125000000000041
 40
0.8437500000000037
 40
0.8437500000000037
 40
0.8593750000000033
 40
0.8593750000000033
 40
0.8750000000000031
 40
0.8750000000000031
 40
0.9062500000000021
 40
0.9062500000000021
 40
0.9375000000000011
 40
0.9375000000000011
 40
0.9531250000000006
 40
0.9531250000000006
 40
0.9687500000000001
 40
0.9687500000000001
 40
1.0
 40
1.0
 40
1.0
 40
1.0
 10
171.9191590405977
 20
132.6677381698763
 30
0.0
 10
171.4350746394435
 20
132.6677381698763
 30
0.0
 10
170.9586491703884
 20
132.6232055447176
 30
0.0
 10
170.2550618074454
 20
132.4920367098226
 30
0.0
 10
170.0223875892648
 20
132.4375069989967
 30
0.0
 10
169.5608325820792
 20
132.3062990531299
 30
0.0
 10
169.3308342630425
 20
132.2291183950177
 30
0.0
 10
168.6594346514773
 20
131.9678555929613
 30
0.0
 10
168.233959871137
 20
131.7541221412816
 30
0.0
 10
167.4269705185124
 20
131.2474603036279
 30
0.0
 10
167.041982666194
 20
130.9505768367278
 30
0.0
 10
166.3476025241913
 20
130.2961346217469
 30
0.0
 10
166.0353866613469
 20
129.9380267958368
 30
0.0
 10
165.620728510497
 20
129.3530530773315
 30
0.0
 10
165.4908332709791
 20
129.1487487627736
 30
0.0
 10
165.2540671551084
 20
128.7304288064474
 30
0.0
 10
165.1471491427226
 20
128.5167083931775
 30
0.0
 10
164.8601015144544
 20
127.8620938994928
 30
0.0
 10
164.7133214694891
 20
127.4078868690752
 30
0.0
 10
164.5135675729042
 20
126.4618424438792
 30
0.0
 10
164.4638984774207
 20
125.9839611432572
 30
0.0
 10
164.4629924039589
 20
125.2674481024177
 30
0.0
 10
164.474965576105
 20
125.028253236855
 30
0.0
 10
164.5240623345848
 20
124.5491319830204
 30
0.0
 10
164.5614310839846
 20
124.3088837170407
 30
0.0
 10
164.7087714863482
 20
123.604017557662
 30
0.0
 10
164.8539699001857
 20
123.1493865354787
 30
0.0
 10
165.1414820655435
 20
122.4900071879742
 30
0.0
 10
165.2497298688487
 20
122.2728998170804
 30
0.0
 10
165.4857138790513
 20
121.8546362514357
 30
0.0
 10
165.6135572473642
 20
121.6528761269276
 30
0.0
 10
166.0257602805646
 20
121.068966768464
 30
0.0
 10
166.3401638156858
 20
120.7064572718906
 30
0.0
 10
167.0400156752634
 20
120.0456828753476
 30
0.0
 10
167.4173442353826
 20
119.754441708772
 30
0.0
 10
168.2243374962551
 20
119.2460604200881
 30
0.0
 10
168.6587698802662
 20
119.0275568862956
 30
0.0
 10
169.5507580679022
 20
118.6801283328191
 30
0.0
 10
170.0095626419834
 20
118.5492678627123
 30
0.0
 10
170.7168829029666
 20
118.4165899182548
 30
0.0
 10
170.9571354239098
 20
118.3829571258732
 30
0.0
 10
171.4369466788305
 20
118.3384169155088
 30
0.0
 10
171.6763546711106
 20
118.3273709190668
 30
0.0
 10
172.39312454994
 20
118.327015034862
 30
0.0
 10
172.8690457596369
 20
118.3701746178881
 30
0.0
 10
173.5799496527443
 20
118.5021541273271
 30
0.0
 10
173.8157885846957
 20
118.5574596557316
 30
0.0
 10
174.276586129092
 20
118.6884173143709
 30
0.0
 10
174.5027721497625
 20
118.7642742767945
 30
0.0
 10
175.1688194836756
 20
119.0227546691367
 30
0.0
 10
175.5979403609914
 20
119.2370107057583
 30
0.0
 10
176.413936850189
 20
119.7489829166019
 30
0.0
 10
176.790822179391
 20
120.0400034322537
 30
0.0
 10
177.3103905039231
 20
120.5285186149027
 30
0.0
 10
177.4758997652063
 20
120.7000817781797
 30
0.0
 10
177.7910342161896
 20
121.0613337057705
 30
0.0
 10
177.9409805980833
 20
121.2517098431002
 30
0.0
 10
178.3562683000448
 20
121.8375836366905
 30
0.0
 10
178.5910439181744
 20
122.2513891903024
 30
0.0
 10
178.9758617108773
 20
123.1261066193708
 30
0.0
 10
179.1256371781233
 20
123.5907522908966
 30
0.0
 10
179.323344247079
 20
124.5258734000668
 30
0.0
 10
179.3740750433376
 20
125.0009939441395
 30
0.0
 10
179.3754865025743
 20
125.7254280861412
 30
0.0
 10
179.3632586986375
 20
125.9675786405837
 30
0.0
 10
179.3143936403188
 20
126.4445854830982
 30
0.0
 10
179.2411571856173
 20
126.9168587544375
 30
0.0
 10
179.1198365792252
 20
127.3798044993956
 30
0.0
 10
178.9740599225231
 20
127.8380159622952
 30
0.0
 10
178.8885268398775
 20
128.0653665066066
 30
0.0
 10
178.600865001754
 20
128.7250674075941
 30
0.0
 10
178.3667118471382
 20
129.1402914655852
 30
0.0
 10
177.953141284785
 20
129.7272408998624
 30
0.0
 10
177.8039098312568
 20
129.9178401376503
 30
0.0
 10
177.489239775933
 20
130.2805869813335
 30
0.0
 10
177.3238836493107
 20
130.4529139292017
 30
0.0
 10
176.8045246508001
 20
130.9437447615335
 30
0.0
 10
176.4270829520075
 20
131.2365734260436
 30
0.0
 10
175.610650027928
 20
131.7511526064047
 30
0.0
 10
175.1838500624809
 20
131.965333877445
 30
0.0
 10
174.5171661826139
 20
132.2256372151506
 30
0.0
 10
174.2904914237001
 20
132.3021658366885
 30
0.0
 10
173.8280986742539
 20
132.4344607783704
 30
0.0
 10
173.5918873992405
 20
132.4902145819817
 30
0.0
 10
172.8820632058933
 20
132.6231765296326
 30
0.0
 10
172.403243441752
 20
132.6677381698763
 30
0.0
 10
171.9191590405978
 20
132.6677381698763
 30
0.0
  0
SPLINE
  5
DB
330
1F
100
AcDbEntity
  8
0
  6
Continuous
 62
     7
370
    25
100
AcDbSpline
210
0.0
220
0.0
230
1.0
 70
    11
 71
     3
 72
    68
 73
    64
 74
     0
 42
0.000000001
 43
0.00000001
 40
0.0
 40
0.0
 40
0.0
 40
0.0
 40
0.03125
 40
0.03125
 40
0.0625000000000001
 40
0.0625000000000001
 40
0.0937500000000001
 40
0.0937500000000001
 40
0.1250000000000001
 40
0.1250000000000001
 40
0.1562500000000002
 40
0.1562500000000002
 40
0.1875000000000002
 40
0.1875000000000002
 40
0.2187500000000002
 40
0.2187500000000002
 40
0.2500000000000003
 40
0.2500000000000003
 40
0.2812500000000003
 40
0.2812500000000003
 40
0.3125000000000003
 40
0.3125000000000003
 40
0.3437500000000004
 40
0.3437500000000004
 40
0.3750000000000004
 40
0.3750000000000004
 40
0.4062500000000004
 40
0.4062500000000004
 40
0.4375000000000005
 40
0.4375000000000005
 40
0.4687500000000005
 40
0.4687500000000005
 40
0.5000000000000006
 40
0.5000000000000006
 40
0.5312500000000006
 40
0.5312500000000006
 40
0.5625000000000007
 40
0.5625000000000007
 40
0.6250000000000022
 40
0.6250000000000022
 40
0.6562500000000021
 40
0.6562500000000021
 40
0.6875000000000019
 40
0.6875000000000019
 40
0.7187500000000017
 40
0.7187500000000017
 40
0.7500000000000016
 40
0.7500000000000016
 40
0.7812500000000013
 40
0.7812500000000013
 40
0.8125000000000011
 40
0.8125000000000011
 40
0.8437500000000009
 40
0.8437500000000009
 40
0.8750000000000008
 40
0.8750000000000008
 40
0.9062500000000006
 40
0.9062500000000006
 40
0.9375000000000003
 40
0.9375000000000003
 40
0.9687500000000002
 40
0.9687500000000002
 40
1.0
 40
1.0
 40
1.0
 40
1.0
 10
150.4958886806221
 20
155.2323928778422
 30
0.0
 10
150.6458034914401
 20
155.3434070708416
 30
0.0
 10
150.8095947368748
 20
155.4418682105066
 30
0.0
 10
151.1627771183354
 20
155.6163526580031
 30
0.0
 10
151.3541616123975
 20
155.6929329706915
 30
0.0
 10
151.753235826864
 20
155.8204378372558
 30
0.0
 10
151.95961106299
 20
155.871294836319
 30
0.0
 10
152.3855849078033
 20
155.9485602303292
 30
0.0
 10
152.6069328626453
 20
155.9748873648792
 30
0.0
 10
153.0471481460757
 20
156.0012161724993
 30
0.0
 10
153.2675603662392
 20
156.0016858333951
 30
0.0
 10
153.7089979206815
 20
155.9770753639767
 30
0.0
 10
153.9302750423997
 20
155.9516248074591
 30
0.0
 10
154.3558354065953
 20
155.8763502641614
 30
0.0
 10
154.562416083692
 20
155.8264975850945
 30
0.0
 10
154.9626671573041
 20
155.7008571512366
 30
0.0
 10
155.1548284160067
 20
155.6251750530819
 30
0.0
 10
155.5093664464923
 20
155.4526902260688
 30
0.0
 10
155.6738478955593
 20
155.3553032850247
 30
0.0
 10
155.9752555453856
 20
155.1357431261666
 30
0.0
 10
156.1086309923266
 20
155.0158300639122
 30
0.0
 10
156.3352082776926
 20
154.7598454319492
 30
0.0
 10
156.4299958635744
 20
154.6218852498038
 30
0.0
 10
156.5747453027355
 20
154.3313270421094
 30
0.0
 10
156.6235598732688
 20
154.1818715704102
 30
0.0
 10
156.6743594092437
 20
153.8743461777977
 30
0.0
 10
156.6756858370639
 20
153.7146027441822
 30
0.0
 10
156.6298224945483
 20
153.4010962568887
 30
0.0
 10
156.5833417778269
 20
153.2458893201027
 30
0.0
 10
156.4428029486945
 20
152.9388945882628
 30
0.0
 10
156.3504646823563
 20
152.7912928933792
 30
0.0
 10
156.12674615028
 20
152.511292355338
 30
0.0
 10
155.9933009192686
 20
152.3770343569184
 30
0.0
 10
155.696512759537
 20
152.1322544272893
 30
0.0
 10
155.5331520775997
 20
152.020994990863
 30
0.0
 10
155.1773621141747
 20
151.8207501527497
 30
0.0
 10
154.9860139100658
 20
151.7327823966662
 30
0.0
 10
154.3911204360878
 20
151.5124084360374
 30
0.0
 10
153.9542749245559
 20
151.4196866889183
 30
0.0
 10
153.2952796118345
 20
151.3727683871698
 30
0.0
 10
153.0713339589191
 20
151.372048697907
 30
0.0
 10
152.6285860297041
 20
151.4011279296529
 30
0.0
 10
152.4114589917704
 20
151.4305037154883
 30
0.0
 10
151.9856049807584
 20
151.5183827856278
 30
0.0
 10
151.7747482764748
 20
151.5777646187098
 30
0.0
 10
151.375306692705
 20
151.7229578458705
 30
0.0
 10
151.1864018065541
 20
151.8084032521431
 30
0.0
 10
150.8306632793064
 20
152.0049349374196
 30
0.0
 10
150.6624695078364
 20
152.1174275508363
 30
0.0
 10
150.3637131296457
 20
152.3596736404036
 30
0.0
 10
150.2315192396219
 20
152.4899393776231
 30
0.0
 10
150.0031982172305
 20
152.7689979324811
 30
0.0
 10
149.9076871046067
 20
152.91811642737
 30
0.0
 10
149.7644155718874
 20
153.2202869539549
 30
0.0
 10
149.7149835481187
 20
153.3750957867648
 30
0.0
 10
149.6635814895197
 20
153.6923578256438
 30
0.0
 10
149.6626204811242
 20
153.8489799833343
 30
0.0
 10
149.7082717079927
 20
154.15727893818
 30
0.0
 10
149.7559671154047
 20
154.3107979947157
 30
0.0
 10
149.8956244597772
 20
154.6009559326355
 30
0.0
 10
149.9871527441116
 20
154.7385829359399
 30
0.0
 10
150.2129438782989
 20
154.9997149221436
 30
0.0
 10
150.3459738698041
 20
155.1213786848429
 30
0.0
 10
150.4958886806221
 20
155.2323928778422
 30
0.0
  0
SPLINE
  5
DC
330
1F
100
AcDbEntity
  8
0
  6
Continuous
 62
     7
370
    25
100
AcDbSpline
210
0.0
220
0.0
230
1.0
 70
    11
 71
     3
 72
    66
 73
    62
 74
     0
 42
0.000000001
 43
0.00000001
 40
0.0
 40
0.0
 40
0.0
 40
0.0
 40
0.0312500000000004
 40
0.0312500000000004
 40
0.0625000000000008
 40
0.0625000000000008
 40
0.1250000000000016
 40
0.1250000000000016
 40
0.1562500000000012
 40
0.1562500000000012
 40
0.1875000000000009
 40
0.1875000000000009
 40
0.2187500000000005
 40
0.2187500000000005
 40
0.2500000000000001
 40
0.2500000000000001
 40
0.2812499999999997
 40
0.2812499999999997
 40
0.3124999999999993
 40
0.3124999999999993
 40
0.3749999999999986
 40
0.3749999999999986
 40
0.4062499999999987
 40
0.4062499999999987
 40
0.4374999999999987
 40
0.4374999999999987
 40
0.4687499999999988
 40
0.4687499999999988
 40
0.4999999999999989
 40
0.4999999999999989
 40
0.531249999999999
 40
0.531249999999999
 40
0.562499999999999
 40
0.562499999999999
 40
0.5937499999999991
 40
0.5937499999999991
 40
0.6249999999999991
 40
0.6249999999999991
 40
0.6562499999999992
 40
0.6562499999999992
 40
0.6874999999999993
 40
0.6874999999999993
 40
0.7187499999999993
 40
0.7187499999999993
 40
0.7499999999999994
 40
0.7499999999999994
 40
0.7812499999999996
 40
0.7812499999999996
 40
0.8124999999999996
 40
0.8124999999999996
 40
0.8437499999999997
 40
0.8437499999999997
 40
0.8749999999999997
 40
0.8749999999999997
 40
0.9062499999999998
 40
0.9062499999999998
 40
0.9374999999999999
 40
0.9374999999999999
 40
0.9687499999999999
 40
0.9687499999999999
 40
1.0
 40
1.0
 40
1.0
 40
1.0
 10
149.6796512825173
 20
97.39223102066961
 30
0.0
 10
149.6982249857604
 20
97.55093837106574
 30
0.0
 10
149.740818945284
 20
97.70678518995707
 30
0.0
 10
149.871750077424
 20
98.01277011713589
 30
0.0
 10
149.9611841494678
 20
98.16360170142508
 30
0.0
 10
150.2858215515901
 20
98.58762005617048
 30
0.0
 10
150.584776912107
 20
98.84219982114634
 30
0.0
 10
151.1079721238106
 20
99.14753152658545
 30
0.0
 10
151.2978673006266
 20
99.23842124042682
 30
0.0
 10
151.6923570963889
 20
99.39090803159361
 30
0.0
 10
151.8972149792114
 20
99.4530822387312
 30
0.0
 10
152.3218338738172
 20
99.54944927158915
 30
0.0
 10
152.5421413555356
 20
99.58333423980734
 30
0.0
 10
152.9808835692598
 20
99.62022418062635
 30
0.0
 10
153.2014011359549
 20
99.62381371804987
 30
0.0
 10
153.6447735557836
 20
99.60068048460218
 30
0.0
 10
153.8656191405458
 20
99.57376421428218
 30
0.0
 10
154.2927406489005
 20
99.49150513378707
 30
0.0
 10
154.5009704291765
 20
99.43610078954718
 30
0.0
 10
155.1087784647603
 20
99.22530313932891
 30
0.0
 10
155.4719198933677
 20
99.0328808724053
 30
0.0
 10
155.9344240201191
 20
98.67188104634317
 30
0.0
 10
156.0700642217414
 20
98.54297746509492
 30
0.0
 10
156.3043934448681
 20
98.26873671741954
 30
0.0
 10
156.4039715126615
 20
98.12149296419129
 30
0.0
 10
156.5569514402388
 20
97.81908921076716
 30
0.0
 10
156.6104388614133
 20
97.66513738855232
 30
0.0
 10
156.6708432908946
 20
97.35199880937425
 30
0.0
 10
156.6770228215332
 20
97.19202002561832
 30
0.0
 10
156.6407879726072
 20
96.88271161761611
 30
0.0
 10
156.5988690423893
 20
96.73099487066683
 30
0.0
 10
156.4671876097252
 20
96.43570242831703
 30
0.0
 10
156.3795851479719
 20
96.29663577932881
 30
0.0
 10
156.1635998548627
 20
96.03405745834205
 30
0.0
 10
156.0336775628855
 20
95.90975158519177
 30
0.0
 10
155.743912724924
 20
95.68562021566534
 30
0.0
 10
155.5834249195379
 20
95.58453338751954
 30
0.0
 10
155.2317589380181
 20
95.40320933511231
 30
0.0
 10
155.0436556570429
 20
95.32476031197646
 30
0.0
 10
154.6507378139214
 20
95.19284493669342
 30
0.0
 10
154.4432442905622
 20
95.13857681800437
 30
0.0
 10
154.0169743661732
 20
95.05573692275115
 30
0.0
 10
153.8006138721828
 20
95.02739200544566
 30
0.0
 10
153.3616543744145
 20
94.99570343783641
 30
0.0
 10
153.1368310269782
 20
94.99255695737193
 30
0.0
 10
152.6948114120769
 20
95.01208748498641
 30
0.0
 10
152.4771510424297
 20
95.0344319906506
 30
0.0
 10
152.0485430225206
 20
95.10456181409893
 30
0.0
 10
151.8359641245475
 20
95.15303382969729
 30
0.0
 10
151.4341437764222
 20
95.27325240469798
 30
0.0
 10
151.2431378994759
 20
95.34506281176711
 30
0.0
 10
150.8816290763355
 20
95.5135595287166
 30
0.0
 10
150.7108145999377
 20
95.61096603350703
 30
0.0
 10
150.4063278592805
 20
95.82399600974631
 30
0.0
 10
150.2704493400219
 20
95.94044674076149
 30
0.0
 10
150.033611552524
 20
96.19529315118764
 30
0.0
 10
149.9344685838258
 20
96.33250147414135
 30
0.0
 10
149.7824245301378
 20
96.61708482242136
 30
0.0
 10
149.7279784344856
 20
96.76670362909603
 30
0.0
 10
149.6671058669443
 20
97.07652982711015
 30
0.0
 10
149.6610775792742
 20
97.2335236702735
 30
0.0
 10
149.6796512825173
 20
97.39223102066961
 30
0.0
  0
LINE
  5
DD
330
1F
100
AcDbEntity
  8
0
  6
Continuous
 62
     7
370
    25
100
AcDbLine
 10
81.7191590965
 20
87.6152449453
 30
0.0
 11
81.7191590965
 21
163.37974455
 31
0.0
  0
LINE
  5
DE
330
1F
100
AcDbEntity
  8
0
  6
Continuous
 62
     7
370
    25
100
AcDbLine
 10
49.4191585518
 20
89.2334812486
 30
0.0
 11
49.4191585518
 21
91.6281611824
 31
0.0
  0
SPLINE
  5
DF
330
1F
100
AcDbEntity
  8
0
  6
Continuous
 62
     7
370
    25
100
AcDbSpline
210
0.0
220
0.0
230
1.0
 70
     8
 71
     3
 72
    14
 73
    10
 74
     0
 42
0.000000001
 43
0.00000001
 40
0.0
 40
0.0
 40
0.0
 40
0.0
 40
0.25
 40
0.25
 40
0.5
 40
0.5
 40
0.75
 40
0.75
 40
1.0
 40
1.0
 40
1.0
 40
1.0
 10
48.41473656926083
 20
93.33101340387118
 30
0.0
 10
48.50350514720616
 20
93.17247927256322
 30
0.0
 10
48.62522298588507
 20
93.02003659567468
 30
0.0
 10
48.8602725957419
 20
92.72290197184576
 30
0.0
 10
48.97590278195879
 20
92.57821932822839
 30
0.0
 10
49.17630771538661
 20
92.29493012572499
 30
0.0
 10
49.26170800737093
 20
92.15637613268812
 30
0.0
 10
49.38341364108817
 20
91.8849921026546
 30
0.0
 10
49.4191590406008
 20
91.75285623401997
 30
0.0
 10
49.41915904060079
 20
91.62816148224921
 30
0.0
  0
SPLINE
  5
E0
330
1F
100
AcDbEntity
  8
0
  6
Continuous
 62
     7
370
    25
100
AcDbSpline
210
0.0
220
0.0
230
1.0
 70
     8
 71
     3
 72
    14
 73
    10
 74
     0
 42
0.000000001
 43
0.00000001
 40
0.0
 40
0.0
 40
0.0
 40
0.0
 40
0.124999999999999
 40
0.124999999999999
 40
0.249999999999998
 40
0.249999999999998
 40
0.5000000000000007
 40
0.5000000000000007
 40
1.0
 40
1.0
 40
1.0
 40
1.0
 10
47.51915904059778
 20
93.9598433429713
 30
0.0
 10
47.58674134038228
 20
93.9669992280727
 30
0.0
 10
47.65922891813018
 20
93.96257475803365
 30
0.0
 10
47.79152002739612
 20
93.93286860026332
 30
0.0
 10
47.8487974067863
 20
93.90958431868509
 30
0.0
 10
47.99844783398657
 20
93.83209907883477
 30
0.0
 10
48.07216112950807
 20
93.77024725193341
 30
0.0
 10
48.25996911283431
 20
93.5855697992851
 30
0.0
 10
48.34400941919577
 20
93.45732687599387
 30
0.0
 10
48.41473656926204
 20
93.33101340387128
 30
0.0
  0
SPLINE
  5
E1
330
1F
100
AcDbEntity
  8
0
  6
Continuous
 62
     7
370
    25
100
AcDbSpline
210
0.0
220
0.0
230
1.0
 70
     8
 71
     3
 72
     8
 73
     4
 74
     0
 42
0.000000001
 43
0.00000001
 40
0.0
 40
0.0
 40
0.0
 40
0.0
 40
1.0
 40
1.0
 40
1.0
 40
1.0
 10
43.97451865251701
 20
93.5417947581795
 30
0.0
 10
45.13981696322588
 20
93.69698223006611
 30
0.0
 10
46.32443217726568
 20
93.83334086837644
 30
0.0
 10
47.51915904059778
 20
93.95984334297131
 30
0.0
  0
SPLINE
  5
E2
330
1F
100
AcDbEntity
  8
0
  6
Continuous
 62
     7
370
    25
100
AcDbSpline
210
0.0
220
0.0
230
1.0
 70
     8
 71
     3
 72
    14
 73
    10
 74
     0
 42
0.000000001
 43
0.00000001
 40
0.0
 40
0.0
 40
0.0
 40
0.0
 40
0.5000000000000012
 40
0.5000000000000012
 40
0.7500000000000018
 40
0.7500000000000018
 40
0.8750000000000009
 40
0.8750000000000009
 40
1.0
 40
1.0
 40
1.0
 40
1.0
 10
36.21908415656744
 20
93.25166257904957
 30
0.0
 10
37.52738571910147
 20
93.25867730279069
 30
0.0
 10
38.83244509375858
 20
93.27408587923517
 30
0.0
 10
40.77832114524726
 20
93.32798243470184
 30
0.0
 10
41.42501864898642
 20
93.35101399930454
 30
0.0
 10
42.38886101284096
 20
93.40195652417529
 30
0.0
 10
42.7090997047751
 20
93.42169144640849
 30
0.0
 10
43.34579493111764
 20
93.47117857488007
 30
0.0
 10
43.66251033940066
 20
93.50024335380931
 30
0.0
 10
43.97451865251703
 20
93.54179475817948
 30
0.0
  0
SPLINE
  5
E3
330
1F
100
AcDbEntity
  8
0
  6
Continuous
 62
     7
370
    25
100
AcDbSpline
210
0.0
220
0.0
230
1.0
 70
     8
 71
     3
 72
    12
 73
     8
 74
     0
 42
0.000000001
 43
0.00000001
 40
0.0
 40
0.0
 40
0.0
 40
0.0
 40
0.2500000000000001
 40
0.2500000000000001
 40
0.5000000000000001
 40
0.5000000000000001
 40
1.0
 40
1.0
 40
1.0
 40
1.0
 10
42.51915904059779
 20
157.5840176391112
 30
0.0
 10
42.0004602187696
 20
157.6165404139594
 30
0.0
 10
41.47874864556461
 20
157.6398371551299
 30
0.0
 10
40.43245662906905
 20
157.677682669552
 30
0.0
 10
39.90778500339877
 20
157.6919511440481
 30
0.0
 10
38.33093898085954
 20
157.7261606315064
 30
0.0
 10
37.27598366631265
 20
157.7376601354503
 30
0.0
 10
36.21908415656744
 20
157.7433269161798
 30
0.0
  0
SPLINE
  5
E4
330
1F
100
AcDbEntity
  8
0
  6
Continuous
 62
     7
370
    25
100
AcDbSpline
210
0.0
220
0.0
230
1.0
 70
     8
 71
     3
 72
    20
 73
    16
 74
     0
 42
0.000000001
 43
0.00000001
 40
0.0
 40
0.0
 40
0.0
 40
0.0
 40
0.2500000000000011
 40
0.2500000000000011
 40
0.5000000000000021
 40
0.5000000000000021
 40
0.7500000000000031
 40
0.7500000000000031
 40
0.8750000000000008
 40
0.8750000000000008
 40
0.9375000000000006
 40
0.9375000000000006
 40
0.9687500000000003
 40
0.9687500000000003
 40
1.0
 40
1.0
 40
1.0
 40
1.0
 10
44.41915904059779
 20
159.2421034845993
 30
0.0
 10
44.41915904059779
 20
159.1064211648525
 30
0.0
 10
44.37044725138116
 20
158.9653341787125
 30
0.0
 10
44.20128582815597
 20
158.6732624599819
 30
0.0
 10
44.07950541423767
 20
158.5216137178915
 30
0.0
 10
43.78195831948814
 20
158.2192052777384
 30
0.0
 10
43.60804571378537
 20
158.0666166416151
 30
0.0
 10
43.28863087990355
 20
157.8413458777728
 30
0.0
 10
43.17359010445629
 20
157.766622783262
 30
0.0
 10
42.96650578043987
 20
157.6672123740051
 30
0.0
 10
42.89039794563349
 20
157.6356472816605
 30
0.0
 10
42.75900340608013
 20
157.6012038974675
 30
0.0
 10
42.71245018707867
 20
157.5921523256998
 30
0.0
 10
42.61611683599796
 20
157.5819766768614
 30
0.0
 10
42.56685741264252
 20
157.5810269181864
 30
0.0
 10
42.5191590405958
 20
157.5840176391009
 30
0.0
  0
LINE
  5
E5
330
1F
100
AcDbEntity
  8
0
  6
Continuous
 62
     7
370
    25
100
AcDbLine
 10
44.4191595949
 20
159.2421018684
 30
0.0
 11
44.4191595949
 21
161.5110085511
 31
0.0
  0
SPLINE
  5
E6
330
1F
100
AcDbEntity
  8
0
  6
Continuous
 62
     7
370
    25
100
AcDbSpline
210
0.0
220
0.0
230
1.0
 70
     8
 71
     3
 72
    24
 73
    20
 74
     0
 42
0.000000001
 43
0.00000001
 40
0.0
 40
0.0
 40
0.0
 40
0.0
 40
0.0002934239329635
 40
0.0628079954843725
 40
0.1260453886222317
 40
0.1890746649056576
 40
0.2513200327496127
 40
0.3133304381321615
 40
0.3759158074016681
 40
0.4383740215105411
 40
0.5000631209931454
 40
0.5616593985498132
 40
0.6245050468179062
 40
0.6872231543007362
 40
0.7494953203649202
 40
0.811758388799549
 40
0.8747365576758938
 40
0.937898032705022
 40
1.0
 40
1.0
 40
1.0
 40
1.0
 10
62.73911469056975
 20
88.56624822852596
 30
0.0
 10
62.73892014678697
 20
88.56622453126535
 30
0.0
 10
62.69727765053129
 20
88.56115208396294
 30
0.0
 10
62.84230086270412
 20
88.57959337410905
 30
0.0
 10
63.19741808972257
 20
88.62219570287584
 30
0.0
 10
63.80198364335862
 20
88.6903060362022
 30
0.0
 10
64.60842080176434
 20
88.76357134953014
 30
0.0
 10
65.59389791178558
 20
88.82808695283885
 30
0.0
 10
66.72556705316785
 20
88.86665386811814
 30
0.0
 10
67.94785996683021
 20
88.87034316996497
 30
0.0
 10
69.2151891127905
 20
88.82792474357082
 30
0.0
 10
70.48167435588745
 20
88.7396698773193
 30
0.0
 10
71.69781248674819
 20
88.61128427008828
 30
0.0
 10
72.8232219123639
 20
88.45863654341835
 30
0.0
 10
73.80064010558188
 20
88.29686616205335
 30
0.0
 10
74.60390478609952
 20
88.14433372557691
 30
0.0
 10
75.192398195131
 20
88.02032008681603
 30
0.0
 10
75.58130493161639
 20
87.9353984956654
 30
0.0
 10
75.6280657479867
 20
87.92467278735731
 30
0.0
 10
75.65124839916598
 20
87.91935529348835
 30
0.0
  0
SPLINE
  5
E7
330
1F
100
AcDbEntity
  8
0
  6
Continuous
 62
     7
370
    25
100
AcDbSpline
210
0.0
220
0.0
230
1.0
 70
     8
 71
     3
 72
    27
 73
    23
 74
     0
 42
0.000000001
 43
0.00000001
 40
0.0
 40
0.0
 40
0.0
 40
0.0
 40
0.0619954680688684
 40
0.1254397621813191
 40
0.1886583727463871
 40
0.2510346191260181
 40
0.313178255016169
 40
0.3756730771103761
 40
0.4382401025850776
 40
0.4998243385522818
 40
0.5615387009126923
 40
0.6240931220669997
 40
0.6867530144355031
 40
0.7488662870716932
 40
0.8111008374917862
 40
0.8742090103085037
 40
0.9448189516773847
 40
0.9756082665127763
 40
0.9877505319198249
 40
0.9999433694577685
 40
0.9999501670988248
 40
1.0
 40
1.0
 40
1.0
 40
1.0
 10
75.65112732723128
 20
163.0755894982575
 30
0.0
 10
75.62755573627229
 20
163.0702799132141
 30
0.0
 10
75.57986168933245
 20
163.0595366588139
 30
0.0
 10
75.18781859595344
 20
162.9743097736374
 30
0.0
 10
74.59730595076661
 20
162.8497410926814
 30
0.0
 10
73.79326750269976
 20
162.6967921825114
 30
0.0
 10
72.81719273629963
 20
162.5350349799049
 30
0.0
 10
71.69538442340306
 20
162.3828015619696
 30
0.0
 10
70.48185278762713
 20
162.2550262081655
 30
0.0
 10
69.21702235679642
 20
162.1671776901598
 30
0.0
 10
67.94897898510784
 20
162.1247896604638
 30
0.0
 10
66.72547168417405
 20
162.1285286960511
 30
0.0
 10
65.59197233849805
 20
162.1671173095796
 30
0.0
 10
64.60586771586932
 20
162.2315632430206
 30
0.0
 10
63.79723787342063
 20
162.3050719767264
 30
0.0
 10
63.1770093387069
 20
162.3750424220558
 30
0.0
 10
62.85885615693784
 20
162.4135938147212
 30
0.0
 10
62.76319471127961
 20
162.4256648670207
 30
0.0
 10
62.74157588219941
 20
162.4284252878155
 30
0.0
 10
62.73873491505759
 20
162.4287536691634
 30
0.0
 10
62.73841453937909
 20
162.42880860643
 30
0.0
 10
62.73845009952841
 20
162.4288025103743
 30
0.0
 10
62.73848139121901
 20
162.4287971460579
 30
0.0
  0
SPLINE
  5
E8
330
1F
100
AcDbEntity
  8
0
  6
Continuous
 62
     7
370
    25
100
AcDbSpline
210
0.0
220
0.0
230
1.0
 70
     8
 71
     3
 72
    20
 73
    16
 74
     0
 42
0.000000001
 43
0.00000001
 40
0.0
 40
0.0
 40
0.0
 40
0.0
 40
0.249999999999986
 40
0.249999999999986
 40
0.3749999999999789
 40
0.3749999999999789
 40
0.4374999999999789
 40
0.4374999999999789
 40
0.4999999999999789
 40
0.4999999999999789
 40
0.6249999999999835
 40
0.6249999999999835
 40
0.7499999999999879
 40
0.7499999999999879
 40
1.0
 40
1.0
 40
1.0
 40
1.0
 10
34.6099732723138
 20
94.81901159491402
 30
0.0
 10
34.63624548952721
 20
94.83832953599646
 30
0.0
 10
34.66692563178204
 20
94.85271824709825
 30
0.0
 10
34.73839650216397
 20
94.84581388526223
 30
0.0
 10
34.7664235392083
 20
94.83864788191381
 30
0.0
 10
34.82150712870581
 20
94.80894885521023
 30
0.0
 10
34.84239845725824
 20
94.7954752126489
 30
0.0
 10
34.8876071047037
 20
94.76027694713288
 30
0.0
 10
34.91201131709927
 20
94.73836871840561
 30
0.0
 10
34.98334363515071
 20
94.66624385841007
 30
0.0
 10
35.02524041997098
 20
94.61390331746001
 30
0.0
 10
35.09681637882686
 20
94.51641992555928
 30
0.0
 10
35.12764436864416
 20
94.46966615568086
 30
0.0
 10
35.21074430147974
 20
94.33637293984174
 30
0.0
 10
35.25559920685004
 20
94.25373554192652
 30
0.0
 10
35.29571128230261
 20
94.17462864713575
 30
0.0
  0
SPLINE
  5
E9
330
1F
100
AcDbEntity
  8
0
  6
Continuous
 62
     7
370
    25
100
AcDbSpline
210
0.0
220
0.0
230
1.0
 70
     8
 71
     3
 72
    14
 73
    10
 74
     0
 42
0.000000001
 43
0.00000001
 40
0.0
 40
0.0
 40
0.0
 40
0.0
 40
0.2499999999999994
 40
0.2499999999999994
 40
0.4999999999999988
 40
0.4999999999999988
 40
0.7499999999999982
 40
0.7499999999999982
 40
1.0
 40
1.0
 40
1.0
 40
1.0
 10
34.31915904059779
 20
94.99482500504679
 30
0.0
 10
34.31915904059779
 20
94.95357807402243
 30
0.0
 10
34.32776875697904
 20
94.91667110173995
 30
0.0
 10
34.35885493654938
 20
94.85577104184055
 30
0.0
 10
34.38124449003347
 20
94.83159012230085
 30
0.0
 10
34.43598842120957
 20
94.79762253141759
 30
0.0
 10
34.46843866079475
 20
94.78770244744942
 30
0.0
 10
34.53844017552282
 20
94.78635123854457
 30
0.0
 10
34.57665067564535
 20
94.7945095152407
 30
0.0
 10
34.60997327231845
 20
94.81901159490882
 30
0.0
  0
LINE
  5
EA
330
1F
100
AcDbEntity
  8
0
  6
Continuous
 62
     7
370
    25
100
AcDbLine
 10
34.3191599883
 20
94.9948252344
 30
0.0
 11
34.3191599883
 21
156.0001642608
 31
0.0
  0
SPLINE
  5
EB
330
1F
100
AcDbEntity
  8
0
  6
Continuous
 62
     7
370
    25
100
AcDbSpline
210
0.0
220
0.0
230
1.0
 70
     8
 71
     3
 72
     9
 73
     5
 74
     0
 42
0.000000001
 43
0.00000001
 40
0.0
 40
0.0
 40
0.0
 40
0.0
 40
0.0592942499244465
 40
1.0
 40
1.0
 40
1.0
 40
1.0
 10
34.60997477546107
 20
156.175977473831
 30
0.0
 10
34.6050917777623
 20
156.1792706135288
 30
0.0
 10
34.5227398177497
 20
156.2348095519918
 30
0.0
 10
34.4566091633344
 20
156.1775173488791
 30
0.0
 10
34.39439967646967
 20
156.1236222439764
 30
0.0
  0
SPLINE
  5
EC
330
1F
100
AcDbEntity
  8
0
  6
Continuous
 62
     7
370
    25
100
AcDbSpline
210
0.0
220
0.0
230
1.0
 70
     8
 71
     3
 72
     8
 73
     4
 74
     0
 42
0.000000001
 43
0.00000001
 40
0.0
 40
0.0
 40
0.0
 40
0.0
 40
1.0
 40
1.0
 40
1.0
 40
1.0
 10
34.342792709534
 20
156.1077439912523
 30
0.0
 10
34.32744367089796
 20
156.0772339362564
 30
0.0
 10
34.31915904059779
 20
156.040922380744
 30
0.0
 10
34.31915904059779
 20
156.0001644901826
 30
0.0
  0
SPLINE
  5
ED
330
1F
100
AcDbEntity
  8
0
  6
Continuous
 62
     7
370
    25
100
AcDbSpline
210
0.0
220
0.0
230
1.0
 70
     8
 71
     3
 72
    20
 73
    16
 74
     0
 42
0.000000001
 43
0.00000001
 40
0.0
 40
0.0
 40
0.0
 40
0.0
 40
0.2500000000000037
 40
0.2500000000000037
 40
0.3750000000000055
 40
0.3750000000000055
 40
0.5000000000000073
 40
0.5000000000000073
 40
0.5625000000000057
 40
0.5625000000000057
 40
0.625000000000004
 40
0.625000000000004
 40
0.7500000000000027
 40
0.7500000000000027
 40
1.0
 40
1.0
 40
1.0
 40
1.0
 10
35.29571128230022
 20
156.8203608480929
 30
0.0
 10
35.25571506447639
 20
156.7414824415354
 30
0.0
 10
35.21060143663873
 20
156.6583527948439
 30
0.0
 10
35.12734722227221
 20
156.524864130493
 30
0.0
 10
35.0971278936517
 20
156.478999074611
 30
0.0
 10
35.02503965851028
 20
156.3808075222061
 30
0.0
 10
34.98312234109918
 20
156.3284977026825
 30
0.0
 10
34.91187173654772
 20
156.256491799948
 30
0.0
 10
34.88763592416841
 20
156.2347215876464
 30
0.0
 10
34.84203773398376
 20
156.1992469293174
 30
0.0
 10
34.82123524438405
 20
156.1858767451399
 30
0.0
 10
34.76629424596492
 20
156.1563068330047
 30
0.0
 10
34.73822525787812
 20
156.1491803107027
 30
0.0
 10
34.66772242781528
 20
156.14230593922
 30
0.0
 10
34.63629834002441
 20
156.1566210983072
 30
0.0
 10
34.60997327231581
 20
156.1759779003177
 30
0.0
  0
SPLINE
  5
EE
330
1F
100
AcDbEntity
  8
0
  6
Continuous
 62
     7
370
    25
100
AcDbSpline
210
0.0
220
0.0
230
1.0
 70
     8
 71
     3
 72
    10
 73
     6
 74
     0
 42
0.000000001
 43
0.00000001
 40
0.0
 40
0.0
 40
0.0
 40
0.0
 40
0.4999999999999989
 40
0.4999999999999989
 40
1.0
 40
1.0
 40
1.0
 40
1.0
 10
35.9691590405978
 20
157.7457799494347
 30
0.0
 10
35.8442707698476
 20
157.6147836713632
 30
0.0
 10
35.72282065178715
 20
157.4710708346983
 30
0.0
 10
35.49323667682972
 20
157.160500542009
 30
0.0
 10
35.38296170143374
 20
156.9924314689459
 30
0.0
 10
35.29571128230022
 20
156.8203608480929
 30
0.0
  0
SPLINE
  5
EF
330
1F
100
AcDbEntity
  8
0
  6
Continuous
 62
     7
370
    25
100
AcDbSpline
210
0.0
220
0.0
230
1.0
 70
     8
 71
     3
 72
     8
 73
     4
 74
     0
 42
0.000000001
 43
0.00000001
 40
0.0
 40
0.0
 40
0.0
 40
0.0
 40
1.0
 40
1.0
 40
1.0
 40
1.0
 10
36.21908415656357
 20
157.7433269161793
 30
0.0
 10
36.13206612671519
 20
157.7437934809664
 30
0.0
 10
36.04911210033524
 20
157.7448335005425
 30
0.0
 10
35.96915904059549
 20
157.7457799494348
 30
0.0
  0
SPLINE
  5
F0
330
1F
100
AcDbEntity
  8
0
  6
Continuous
 62
     7
370
    25
100
AcDbSpline
210
0.0
220
0.0
230
1.0
 70
     8
 71
     3
 72
     8
 73
     4
 74
     0
 42
0.000000001
 43
0.00000001
 40
0.0
 40
0.0
 40
0.0
 40
0.0
 40
1.0
 40
1.0
 40
1.0
 40
1.0
 10
35.96915904059549
 20
93.24920954579463
 30
0.0
 10
36.04911210033525
 20
93.25015599468689
 30
0.0
 10
36.13206612671521
 20
93.25119601426302
 30
0.0
 10
36.21908415656358
 20
93.2516625790501
 30
0.0
  0
SPLINE
  5
F1
330
1F
100
AcDbEntity
  8
0
  6
Continuous
 62
     7
370
    25
100
AcDbSpline
210
0.0
220
0.0
230
1.0
 70
     8
 71
     3
 72
    10
 73
     6
 74
     0
 42
0.000000001
 43
0.00000001
 40
0.0
 40
0.0
 40
0.0
 40
0.0
 40
0.4999999999999989
 40
0.4999999999999989
 40
1.0
 40
1.0
 40
1.0
 40
1.0
 10
35.29571128229929
 20
94.1746286471383
 30
0.0
 10
35.38296170143276
 20
94.00255802628493
 30
0.0
 10
35.49323667682892
 20
93.8344889532215
 30
0.0
 10
35.72282065178675
 20
93.52391866053169
 30
0.0
 10
35.84427076984739
 20
93.38020582386642
 30
0.0
 10
35.9691590405978
 20
93.24920954579471
 30
0.0
  0
SPLINE
  5
F2
330
1F
100
AcDbEntity
  8
0
  6
Continuous
 62
     7
370
    25
100
AcDbSpline
210
0.0
220
0.0
230
1.0
 70
     8
 71
     3
 72
    12
 73
     8
 74
     0
 42
0.000000001
 43
0.00000001
 40
0.0
 40
0.0
 40
0.0
 40
0.0
 40
0.5
 40
0.5
 40
0.75
 40
0.75
 40
1.0
 40
1.0
 40
1.0
 40
1.0
 10
113.1691590405978
 20
173.4662345684605
 30
0.0
 10
113.1691590405978
 20
173.7315040012269
 30
0.0
 10
113.0645522971113
 20
173.9940191068793
 30
0.0
 10
112.787883945366
 20
174.2795567129166
 30
0.0
 10
112.677518686014
 20
174.355878329778
 30
0.0
 10
112.4334466373983
 20
174.4602204946181
 30
0.0
 10
112.3016941760666
 20
174.4872896032783
 30
0.0
 10
112.1691590405978
 20
174.4872896032783
 30
0.0
  0
SPLINE
  5
F3
330
1F
100
AcDbEntity
  8
0
  6
Continuous
 62
     7
370
    25
100
AcDbSpline
210
0.0
220
0.0
230
1.0
 70
     8
 71
     3
 72
    16
 73
    12
 74
     0
 42
0.000000001
 43
0.00000001
 40
0.0
 40
0.0
 40
0.0
 40
0.0
 40
0.125
 40
0.125
 40
0.25
 40
0.25
 40
0.5
 40
0.5
 40
0.75
 40
0.75
 40
1.0
 40
1.0
 40
1.0
 40
1.0
 10
112.1691590405968
 20
164.4484575085016
 30
0.0
 10
112.2447967470081
 20
164.4484575085017
 30
0.0
 10
112.3211124114263
 20
164.4371125083669
 30
0.0
 10
112.4655231493184
 20
164.3944599577285
 30
0.0
 10
112.5339695984269
 20
164.3635256330457
 30
0.0
 10
112.7289008510402
 20
164.2442692612782
 30
0.0
 10
112.8367420248212
 20
164.1341172476576
 30
0.0
 10
113.0054547730335
 20
163.8859811619995
 30
0.0
 10
113.0678191857571
 20
163.7456388379957
 30
0.0
 10
113.1491231102655
 20
163.457367146507
 30
0.0
 10
113.1691590405978
 20
163.3065621735271
 30
0.0
 10
113.1691590405978
 20
163.1561922821817
 30
0.0
  0
LINE
  5
F4
330
1F
100
AcDbEntity
  8
0
  6
Continuous
 62
     7
370
    25
100
AcDbLine
 10
113.1691592224
 20
163.1561936044
 30
0.0
 11
113.1691592224
 21
173.466236254
 31
0.0
  0
SPLINE
  5
F5
330
1F
100
AcDbEntity
  8
0
  6
Continuous
 62
     7
370
    25
100
AcDbSpline
210
0.0
220
0.0
230
1.0
 70
     8
 71
     3
 72
     8
 73
     4
 74
     0
 42
0.000000001
 43
0.00000001
 40
0.0
 40
0.0
 40
0.0
 40
0.0
 40
1.0
 40
1.0
 40
1.0
 40
1.0
 10
102.3091590405978
 20
172.0947656083196
 30
0.0
 10
101.8588508049132
 20
172.8924807334332
 30
0.0
 10
101.4081569883896
 20
173.6899790330904
 30
0.0
 10
100.9571300196764
 20
174.4872896032783
 30
0.0
  0
LINE
  5
F6
330
1F
100
AcDbEntity
  8
0
  6
Continuous
 62
     7
370
    25
100
AcDbLine
 10
102.3091594167
 20
161.3929429257
 30
0.0
 11
102.3091594167
 21
172.0947669053
 31
0.0
  0
SPLINE
  5
F7
330
1F
100
AcDbEntity
  8
0
  6
Continuous
 62
     7
370
    25
100
AcDbSpline
210
0.0
220
0.0
230
1.0
 70
     8
 71
     3
 72
     8
 73
     4
 74
     0
 42
0.000000001
 43
0.00000001
 40
0.0
 40
0.0
 40
0.0
 40
0.0
 40
1.0
 40
1.0
 40
1.0
 40
1.0
 10
100.9571300196764
 20
164.4484575085016
 30
0.0
 10
101.4140563734759
 20
163.4325395388273
 30
0.0
 10
101.865262015279
 20
162.4137437097362
 30
0.0
 10
102.3091590405978
 20
161.3929422537525
 30
0.0
  0
SPLINE
  5
F8
330
1F
100
AcDbEntity
  8
0
  6
Continuous
 62
     7
370
    25
100
AcDbSpline
210
0.0
220
0.0
230
1.0
 70
     8
 71
     3
 72
    10
 73
     6
 74
     0
 42
0.000000001
 43
0.00000001
 40
0.0
 40
0.0
 40
0.0
 40
0.0
 40
0.5
 40
0.5
 40
1.0
 40
1.0
 40
1.0
 40
1.0
 10
103.1091590405978
 20
170.3717705077871
 30
0.0
 10
102.8966227267414
 20
170.3717705077871
 30
0.0
 10
102.6866865550874
 20
170.4631830944173
 30
0.0
 10
102.3929794140762
 20
170.7679279603215
 30
0.0
 10
102.3091590405978
 20
170.9800829302301
 30
0.0
 10
102.3091590405978
 20
171.1910459884627
 30
0.0
  0
SPLINE
  5
F9
330
1F
100
AcDbEntity
  8
0
  6
Continuous
 62
     7
370
    25
100
AcDbSpline
210
0.0
220
0.0
230
1.0
 70
     8
 71
     3
 72
    14
 73
    10
 74
     0
 42
0.000000001
 43
0.00000001
 40
0.0
 40
0.0
 40
0.0
 40
0.0
 40
0.25
 40
0.25
 40
0.5
 40
0.5
 40
0.75
 40
0.75
 40
1.0
 40
1.0
 40
1.0
 40
1.0
 10
102.3091590405978
 20
160.2117299401117
 30
0.0
 10
102.3091590405978
 20
160.0878630633225
 30
0.0
 10
102.3250181682254
 20
159.9636033864851
 30
0.0
 10
102.3883798137453
 20
159.7259950240792
 30
0.0
 10
102.4369695217946
 20
159.6092146393267
 30
0.0
 10
102.5692551265695
 20
159.4004121107177
 30
0.0
 10
102.6545799178301
 20
159.3059014071251
 30
0.0
 10
102.8614711661363
 20
159.1679446063228
 30
0.0
 10
102.9854391120262
 20
159.1260261606871
 30
0.0
 10
103.1091590405978
 20
159.1260261606871
 30
0.0
  0
SPLINE
  5
FA
330
1F
100
AcDbEntity
  8
0
  6
Continuous
 62
     7
370
    25
100
AcDbSpline
210
0.0
220
0.0
230
1.0
 70
     8
 71
     3
 72
     8
 73
     4
 74
     0
 42
0.000000001
 43
0.00000001
 40
0.0
 40
0.0
 40
0.0
 40
0.0
 40
1.0
 40
1.0
 40
1.0
 40
1.0
 10
107.4811880615192
 20
174.4872896032783
 30
0.0
 10
107.0301610928059
 20
173.6899790330904
 30
0.0
 10
106.5794672762823
 20
172.8924807334332
 30
0.0
 10
106.1291590405978
 20
172.0947656083196
 30
0.0
  0
LINE
  5
FB
330
1F
100
AcDbEntity
  8
0
  6
Continuous
 62
     7
370
    25
100
AcDbLine
 10
107.4811885543
 20
164.4484558308
 30
0.0
 11
107.4811885543
 21
174.487289896
 31
0.0
  0
SPLINE
  5
FC
330
1F
100
AcDbEntity
  8
0
  6
Continuous
 62
     7
370
    25
100
AcDbSpline
210
0.0
220
0.0
230
1.0
 70
     8
 71
     3
 72
     8
 73
     4
 74
     0
 42
0.000000001
 43
0.00000001
 40
0.0
 40
0.0
 40
0.0
 40
0.0
 40
1.0
 40
1.0
 40
1.0
 40
1.0
 10
106.1291590405978
 20
161.3929422537525
 30
0.0
 10
106.5733090516233
 20
162.4143254847042
 30
0.0
 10
107.0243833618812
 20
163.4328100214725
 30
0.0
 10
107.4811880615192
 20
164.4484575085017
 30
0.0
  0
LINE
  5
FD
330
1F
100
AcDbEntity
  8
0
  6
Continuous
 62
     7
370
    25
100
AcDbLine
 10
106.1291596331
 20
161.3929429257
 30
0.0
 11
106.1291596331
 21
172.0947669053
 31
0.0
  0
LINE
  5
FE
330
1F
100
AcDbEntity
  8
0
  6
Continuous
 62
     7
370
    25
100
AcDbLine
 10
102.3091594167
 20
161.3929429257
 30
0.0
 11
102.3091594167
 21
160.2117316031
 31
0.0
  0
LINE
  5
FF
330
1F
100
AcDbEntity
  8
0
  6
Continuous
 62
     7
370
    25
100
AcDbLine
 10
103.1091599204
 20
159.126025548
 30
0.0
 11
105.3291591294
 21
159.126025548
 31
0.0
  0
SPLINE
  5
100
330
1F
100
AcDbEntity
  8
0
  6
Continuous
 62
     7
370
    25
100
AcDbSpline
210
0.0
220
0.0
230
1.0
 70
     8
 71
     3
 72
    12
 73
     8
 74
     0
 42
0.000000001
 43
0.00000001
 40
0.0
 40
0.0
 40
0.0
 40
0.0
 40
0.250000000000002
 40
0.250000000000002
 40
0.500000000000004
 40
0.500000000000004
 40
1.0
 40
1.0
 40
1.0
 40
1.0
 10
105.3291590405998
 20
159.1260261606872
 30
0.0
 10
105.4528599905797
 20
159.1260261606876
 30
0.0
 10
105.5769566028495
 20
159.1680197724205
 30
0.0
 10
105.783611765936
 20
159.3058150990651
 30
0.0
 10
105.8686525326626
 20
159.3997886975299
 30
0.0
 10
106.0681311011356
 20
159.7145769037507
 30
0.0
 10
106.1291590405978
 20
159.9648158959779
 30
0.0
 10
106.1291590405978
 20
160.2117299401118
 30
0.0
  0
LINE
  5
101
330
1F
100
AcDbEntity
  8
0
  6
Continuous
 62
     7
370
    25
100
AcDbLine
 10
106.1291596331
 20
160.2117316031
 30
0.0
 11
106.1291596331
 21
161.3929429257
 31
0.0
  0
LINE
  5
102
330
1F
100
AcDbEntity
  8
0
  6
Continuous
 62
     7
370
    25
100
AcDbLine
 10
107.4811885543
 20
164.4484558308
 30
0.0
 11
112.1691590585
 21
164.4484558308
 31
0.0
  0
LINE
  5
103
330
1F
100
AcDbEntity
  8
0
  6
Continuous
 62
     7
370
    25
100
AcDbLine
 10
113.1691592224
 20
163.1561936044
 30
0.0
 11
113.1691592224
 21
156.8474964404
 31
0.0
  0
SPLINE
  5
104
330
1F
100
AcDbEntity
  8
0
  6
Continuous
 62
     7
370
    25
100
AcDbSpline
210
0.0
220
0.0
230
1.0
 70
     8
 71
     3
 72
    14
 73
    10
 74
     0
 42
0.000000001
 43
0.00000001
 40
0.0
 40
0.0
 40
0.0
 40
0.0
 40
0.25
 40
0.25
 40
0.5
 40
0.5
 40
0.75
 40
0.75
 40
1.0
 40
1.0
 40
1.0
 40
1.0
 10
106.1291590405978
 20
171.1910459884627
 30
0.0
 10
106.1291590405978
 20
171.0846892947103
 30
0.0
 10
106.1087714844566
 20
170.9788488069502
 30
0.0
 10
106.030137138995
 20
170.7822838934137
 30
0.0
 10
105.9714057793563
 20
170.6911131511266
 30
0.0
 10
105.8247968737537
 20
170.5392020620949
 30
0.0
 10
105.7353915537271
 20
170.4771332252754
 30
0.0
 10
105.5415008211267
 20
170.3938651775167
 30
0.0
 10
105.4349958312369
 20
170.3717705077871
 30
0.0
 10
105.3291590405975
 20
170.3717705077871
 30
0.0
  0
LINE
  5
105
330
1F
100
AcDbEntity
  8
0
  6
Continuous
 62
     7
370
    25
100
AcDbLine
 10
112.1691590585
 20
174.487289896
 30
0.0
 11
107.4811885543
 21
174.487289896
 31
0.0
  0
LINE
  5
106
330
1F
100
AcDbEntity
  8
0
  6
Continuous
 62
     7
370
    25
100
AcDbLine
 10
105.3291591294
 20
170.3717717135
 30
0.0
 11
103.1091599204
 21
170.3717717135
 31
0.0
  0
LWPOLYLINE
  5
107
330
1F
100
AcDbEntity
  8
0
  6
Continuous
 62
     7
370
    25
100
AcDbPolyline
 90
       20
 70
   128
 43
0.0
 10
153.1691564657
 20
151.6057503575
 10
153.9809046723
 20
151.701533159
 10
154.7046913244
 20
151.9785010421
 10
155.2620767094
 20
152.4066412055
 10
155.5926589705
 20
152.9395570212
 10
155.6606231667
 20
153.519499039
 10
155.4585932232
 20
154.0836216116
 10
155.0084663965
 20
154.5707945877
 10
154.3590290882
 20
154.9282231533
 10
153.5806445815
 20
155.1171754652
 10
152.7576758005
 20
155.1171754652
 10
151.9792912938
 20
154.9282231533
 10
151.3298465349
 20
154.5707945877
 10
150.8797271587
 20
154.0836216116
 10
150.6776972152
 20
153.519499039
 10
150.7456614114
 20
152.9395570212
 10
151.0762436725
 20
152.4066412055
 10
151.6336290576
 20
151.9785010421
 10
152.3574082591
 20
151.701533159
 10
153.1691564657
 20
151.6057503575
  0
LWPOLYLINE
  5
108
330
1F
100
AcDbEntity
  8
0
  6
Continuous
 62
     7
370
    25
100
AcDbPolyline
 90
       20
 70
   128
 43
0.0
 10
153.1691564657
 20
95.8537039512
 10
153.9809046723
 20
95.9494867527
 10
154.7046913244
 20
96.2264546358
 10
155.2620767094
 20
96.6545947993
 10
155.5926589705
 20
97.187510615
 10
155.6606231667
 20
97.7674526328
 10
155.4585932232
 20
98.3315752053
 10
155.0084663965
 20
98.8187481814
 10
154.3590290882
 20
99.1761767471
 10
153.5806445815
 20
99.3651290589
 10
152.7576758005
 20
99.3651290589
 10
151.9792912938
 20
99.1761767471
 10
151.3298465349
 20
98.8187481814
 10
150.8797271587
 20
98.3315752053
 10
150.6776972152
 20
97.7674526328
 10
150.7456614114
 20
97.187510615
 10
151.0762436725
 20
96.6545947993
 10
151.6336290576
 20
96.2264546358
 10
152.3574082591
 20
95.9494867527
 10
153.1691564657
 20
95.8537039512
  0
ARC
  5
109
330
1F
100
AcDbEntity
  8
0
  6
Continuous
 62
     7
370
    25
100
AcDbCircle
 10
93.219200716
 20
158.1840689186
 30
0.0
 40
11.33198962224723
100
AcDbArc
 50
77.7820552646
 51
102.2364432639
  0
LINE
  5
10A
330
1F
100
AcDbEntity
  8
0
  6
Continuous
 62
     7
370
    25
100
AcDbLine
 10
186.7191581465
 20
105.4974951946
 30
0.0
 11
186.7191581465
 21
145.4974943006
 31
0.0
  0
LINE
  5
10B
330
1F
100
AcDbEntity
  8
0
  6
Continuous
 62
     7
370
    25
100
AcDbLine
 10
211.2191630937
 20
106.4974953586
 30
0.0
 11
211.2191630937
 21
144.4974941367
 31
0.0
  0
LINE
  5
10C
330
1F
100
AcDbEntity
  8
0
  6
Continuous
 62
     7
370
    25
100
AcDbLine
 10
35.9691581167
 20
93.2474964463
 30
0.0
 11
35.9691581167
 21
93.2492100799
 31
0.0
  0
LINE
  5
10D
330
1F
100
AcDbEntity
  8
0
  6
Continuous
 62
     7
370
    25
100
AcDbLine
 10
35.9691581167
 20
157.7474930489
 30
0.0
 11
35.9691581167
 21
157.7457794153
 31
0.0
  0
LINE
  5
10E
330
1F
100
AcDbEntity
  8
0
  6
HIDDEN
 62
     7
370
    18
100
AcDbLine
 10
236.219154153
 20
118.4974945315
 30
0.0
 11
236.219154153
 21
139.4974951797
 31
0.0
  0
LINE
  5
10F
330
1F
100
AcDbEntity
  8
0
  6
HIDDEN
 62
     7
370
    18
100
AcDbLine
 10
236.219154153
 20
111.4974943155
 30
0.0
 11
236.219154153
 21
118.4974945315
 31
0.0
  0
LINE
  5
110
330
1F
100
AcDbEntity
  8
0
  6
HIDDEN
 62
     7
370
    18
100
AcDbLine
 10
216.2191583253
 20
117.9974949153
 30
0.0
 11
216.2191583253
 21
140.4974944123
 31
0.0
  0
LINE
  5
111
330
1F
100
AcDbEntity
  8
0
  6
HIDDEN
 62
     7
370
    18
100
AcDbLine
 10
216.2191583253
 20
110.4974950829
 30
0.0
 11
216.2191583253
 21
117.9974949153
 31
0.0
  0
LINE
  5
112
330
1F
100
AcDbEntity
  8
0
  6
HIDDEN
 62
     7
370
    18
100
AcDbLine
 10
216.2191583253
 20
136.2939718345
 30
0.0
 11
216.2191583253
 21
114.7115825841
 31
0.0
  0
LINE
  5
113
330
1F
100
AcDbEntity
  8
0
  6
HIDDEN
 62
     7
370
    18
100
AcDbLine
 10
177.5931580402
 20
115.4974949711
 30
0.0
 11
177.5931580402
 21
135.4974945241
 31
0.0
  0
LINE
  5
114
330
1F
100
AcDbEntity
  8
0
  6
HIDDEN
 62
     7
370
    18
100
AcDbLine
 10
176.2191592194
 20
116.8714947232
 30
0.0
 11
176.2191592194
 21
134.123494772
 31
0.0
  0
LINE
  5
115
330
1F
100
AcDbEntity
  8
0
  6
HIDDEN
 62
     7
370
    18
100
AcDbLine
 10
236.219154153
 20
116.8824945742
 30
0.0
 11
236.219154153
 21
125.4974947476
 31
0.0
  0
LINE
  5
116
330
1F
100
AcDbEntity
  8
0
  6
HIDDEN
 62
     7
370
    18
100
AcDbLine
 10
226.2191636898
 20
116.8824945742
 30
0.0
 11
226.2191636898
 21
121.1899946609
 31
0.0
  0
LINE
  5
117
330
1F
100
AcDbEntity
  8
0
  6
HIDDEN
 62
     7
370
    18
100
AcDbLine
 10
226.2191636898
 20
121.1899946609
 30
0.0
 11
226.2191636898
 21
116.8824945742
 31
0.0
  0
LINE
  5
118
330
1F
100
AcDbEntity
  8
0
  6
HIDDEN
 62
     7
370
    18
100
AcDbLine
 10
226.2191636898
 20
129.8049948343
 30
0.0
 11
226.2191636898
 21
121.1899946609
 31
0.0
  0
LINE
  5
119
330
1F
100
AcDbEntity
  8
0
  6
HIDDEN
 62
     7
370
    18
100
AcDbLine
 10
226.2191636898
 20
134.1124949211
 30
0.0
 11
226.2191636898
 21
129.8049948343
 31
0.0
  0
LINE
  5
11A
330
1F
100
AcDbEntity
  8
0
  6
HIDDEN
 62
     7
370
    18
100
AcDbLine
 10
226.2191636898
 20
129.8049948343
 30
0.0
 11
226.2191636898
 21
134.1124949211
 31
0.0
  0
LINE
  5
11B
330
1F
100
AcDbEntity
  8
0
  6
HIDDEN
 62
     7
370
    18
100
AcDbLine
 10
226.2191636898
 20
121.1899946609
 30
0.0
 11
226.2191636898
 21
129.8049948343
 31
0.0
  0
LINE
  5
11C
330
1F
100
AcDbEntity
  8
0
  6
HIDDEN
 62
     7
370
    18
100
AcDbLine
 10
226.2191636898
 20
121.1899946609
 30
0.0
 11
226.2191636898
 21
125.4974947476
 31
0.0
  0
LINE
  5
11D
330
1F
100
AcDbEntity
  8
0
  6
HIDDEN
 62
     7
370
    18
100
AcDbLine
 10
226.2191636898
 20
129.8049948343
 30
0.0
 11
226.2191636898
 21
125.4974947476
 31
0.0
  0
LINE
  5
11E
330
1F
100
AcDbEntity
  8
0
  6
HIDDEN
 62
     7
370
    18
100
AcDbLine
 10
226.2191636898
 20
125.4974947476
 30
0.0
 11
236.219154153
 21
125.4974947476
 31
0.0
  0
LINE
  5
11F
330
1F
100
AcDbEntity
  8
0
  6
HIDDEN
 62
     7
370
    18
100
AcDbLine
 10
236.219154153
 20
134.1124949211
 30
0.0
 11
236.219154153
 21
125.4974947476
 31
0.0
  0
LINE
  5
120
330
1F
100
AcDbEntity
  8
0
  6
HIDDEN
 62
     7
370
    18
100
AcDbLine
 10
226.2191636898
 20
116.8824945742
 30
0.0
 11
226.2191636898
 21
121.1899946609
 31
0.0
  0
LINE
  5
121
330
1F
100
AcDbEntity
  8
0
  6
HIDDEN
 62
     7
370
    18
100
AcDbLine
 10
226.2191636898
 20
134.1124949211
 30
0.0
 11
226.2191636898
 21
129.8049948343
 31
0.0
  0
LINE
  5
122
330
1F
100
AcDbEntity
  8
0
  6
HIDDEN
 62
     7
370
    18
100
AcDbLine
 10
226.2191636898
 20
116.8824945742
 30
0.0
 11
236.219154153
 21
116.8824945742
 31
0.0
  0
LINE
  5
123
330
1F
100
AcDbEntity
  8
0
  6
HIDDEN
 62
     7
370
    18
100
AcDbLine
 10
226.2191636898
 20
134.1124949211
 30
0.0
 11
236.219154153
 21
134.1124949211
 31
0.0
  0
LINE
  5
124
330
1F
100
AcDbEntity
  8
0
  6
HIDDEN
 62
     7
370
    18
100
AcDbLine
 10
211.2191630937
 20
135.4974945241
 30
0.0
 11
177.5931580402
 21
135.4974945241
 31
0.0
  0
LINE
  5
125
330
1F
100
AcDbEntity
  8
0
  6
HIDDEN
 62
     7
370
    18
100
AcDbLine
 10
177.5931580402
 20
115.4974949711
 30
0.0
 11
211.2191630937
 21
115.4974949711
 31
0.0
  0
LINE
  5
126
330
1F
100
AcDbEntity
  8
0
  6
HIDDEN
 62
     7
370
    18
100
AcDbLine
 10
177.5931580402
 20
135.4974945241
 30
0.0
 11
176.2191592194
 21
134.123494772
 31
0.0
  0
LINE
  5
127
330
1F
100
AcDbEntity
  8
0
  6
HIDDEN
 62
     7
370
    18
100
AcDbLine
 10
176.2191592194
 20
116.8714947232
 30
0.0
 11
177.5931580402
 21
115.4974949711
 31
0.0
  0
LINE
  5
128
330
1F
100
AcDbEntity
  8
0
  6
HIDDEN
 62
     7
370
    18
100
AcDbLine
 10
226.2191636898
 20
134.1124949211
 30
0.0
 11
221.2452901937
 21
125.4974947476
 31
0.0
  0
LINE
  5
129
330
1F
100
AcDbEntity
  8
0
  6
HIDDEN
 62
     7
370
    18
100
AcDbLine
 10
221.2452901937
 20
125.4974947476
 30
0.0
 11
226.2191636898
 21
116.8824945742
 31
0.0
  0
DIMENSION
  5
12A
330
1F
100
AcDbEntity
  8
VERMASSUNG
100
AcDbDimension
  2
_D
 10
271.5565036024
 20
165.4974947476
 30
0.0
 11
271.5565036024
 21
125.4974947476
 31
0.0
 70
   160
  1
%%c<>
 71
     2
 42
-1.0
  3
SLDDIMSTYLE0
100
AcDbAlignedDimension
 13
183.2191590406
 23
85.4974947476
 33
0.0
 14
183.2191590406
 24
165.4974947476
 34
0.0
 50
90.0
100
AcDbRotatedDimension
  0
DIMENSION
  5
136
330
1F
100
AcDbEntity
  8
VERMASSUNG
100
AcDbDimension
  2
_D_1
 10
260.8236333903
 20
145.4974947476
 30
0.0
 11
260.8236333903
 21
125.4974947476
 31
0.0
 70
   160
  1
%%c<>
 71
     2
 42
-1.0
  3
SLDDIMSTYLE0
100
AcDbAlignedDimension
 13
210.2191590406
 23
105.4974947476
 33
0.0
 14
210.2191590406
 24
145.4974947476
 34
0.0
 50
90.0
100
AcDbRotatedDimension
  0
DIMENSION
  5
141
330
1F
100
AcDbEntity
  8
VERMASSUNG
100
AcDbDimension
  2
_D_2
 10
24.0686896796
 20
75.4974947476
 30
0.0
 11
24.0686896796
 21
125.4974947476
 31
0.0
 70
   160
  1
%%c<>
 71
     2
 42
-1.0
  3
SLDDIMSTYLE0
100
AcDbAlignedDimension
 13
84.7191590406
 23
175.4974947476
 33
0.0
 14
84.7191590406
 24
75.4974947476
 34
0.0
 50
90.0
100
AcDbRotatedDimension
  0
DIMENSION
  5
14C
330
1F
100
AcDbEntity
  8
VERMASSUNG
100
AcDbDimension
  2
_D_3
 10
250.577513436
 20
116.8824947476
 30
0.0
 11
250.577513436
 21
125.4974947476
 31
0.0
 70
   160
  1
SW<>
 71
     2
 42
-1.0
  3
SLDDIMSTYLE1
100
AcDbAlignedDimension
 13
236.2191590406
 23
134.1124947476
 33
0.0
 14
236.2191590406
 24
116.8824947476
 34
0.0
 50
90.0
100
AcDbRotatedDimension
  0
DIMENSION
  5
158
330
1F
100
AcDbEntity
  8
VERMASSUNG
100
AcDbDimension
  2
_D_4
 10
184.2191590406
 20
180.6531207709
 30
0.0
 11
197.7191590406
 21
180.6531207709
 31
0.0
 70
   160
  1
<>
 71
     2
 42
-1.0
  3
SLDDIMSTYLE0
100
AcDbAlignedDimension
 13
211.2191590406
 23
144.4974947476
 33
0.0
 14
184.2191590406
 24
164.4974947476
 34
0.0
100
AcDbRotatedDimension
  0
DIMENSION
  5
162
330
1F
100
AcDbEntity
  8
VERMASSUNG
100
AcDbDimension
  2
_D_5
 10
113.1691590406
 20
180.6531207709
 30
0.0
 11
148.6941590406
 21
180.6531207709
 31
0.0
 70
   160
  1
<>
 71
     2
 42
-1.0
  3
SLDDIMSTYLE0
100
AcDbAlignedDimension
 13
184.2191590406
 23
164.4974947476
 33
0.0
 14
113.1691590406
 24
173.4662345685
 34
0.0
100
AcDbRotatedDimension
  0
DIMENSION
  5
16C
330
1F
100
AcDbEntity
  8
VERMASSUNG
100
AcDbDimension
  2
_D_6
 10
84.2191590406
 20
189.200726262
 30
0.0
 11
134.2191590406
 21
189.200726262
 31
0.0
 70
   160
  1
<>
 71
     2
 42
-1.0
  3
SLDDIMSTYLE0
100
AcDbAlignedDimension
 13
184.2191590406
 23
164.4974947476
 33
0.0
 14
84.2191590406
 24
174.9974947476
 34
0.0
100
AcDbRotatedDimension
  0
DIMENSION
  5
176
330
1F
100
AcDbEntity
  8
VERMASSUNG
100
AcDbDimension
  2
_D_7
 10
211.2191590406
 20
197.4974947476
 30
0.0
 11
122.7691590406
 21
197.4974947476
 31
0.0
 70
   160
  1
<>
 71
     2
 42
-1.0
  3
SLDDIMSTYLE0
100
AcDbAlignedDimension
 13
34.3191590406
 23
156.0001644902
 33
0.0
 14
211.2191590406
 24
144.4974947476
 34
0.0
100
AcDbRotatedDimension
  0
LINE
  5
180
330
1F
100
AcDbEntity
  8
VERMASSUNG
  6
CENTERX2
370
    18
100
AcDbLine
 10
242.3371380674
 20
125.4974947476
 30
0.0
 11
30.955739129
 21
125.4974947476
 31
0.0
  0
LINE
  5
181
330
1F
100
AcDbEntity
  8
0
  6
Continuous
 62
     7
370
    25
100
AcDbLine
 10
238.1420206951
 20
20.8602979302
 30
0.0
 11
240.4401171228
 21
19.5336351013
 31
0.0
  0
LINE
  5
182
330
1F
100
AcDbEntity
  8
0
  6
Continuous
 62
     7
370
    25
100
AcDbLine
 10
244.4397924604
 20
26.4620261761
 30
0.0
 11
242.1416960327
 21
27.788689005
 31
0.0
  0
LINE
  5
183
330
1F
100
AcDbEntity
  8
0
  6
Continuous
 62
     7
370
    25
100
AcDbLine
 10
265.652996739
 20
38.7081483401
 30
0.0
 11
263.3549003112
 21
40.034811169
 31
0.0
  0
SPLINE
  5
184
330
1F
100
AcDbEntity
  8
0
  6
Continuous
 62
     7
370
    25
100
AcDbSpline
210
0.0
220
0.0
230
1.0
 70
     8
 71
     3
 72
    10
 73
     6
 74
     0
 42
0.000000001
 43
0.00000001
 40
0.0
 40
0.0
 40
0.0
 40
0.0
 40
0.3093866865061107
 40
0.8005566592900759
 40
1.0
 40
1.0
 40
1.0
 40
1.0
 10
264.9707087380266
 20
13.60026961707369
 30
0.0
 10
265.0897644529539
 20
13.52548606224078
 30
0.0
 10
265.3978282758933
 20
13.33197911627954
 30
0.0
 10
265.8464343282859
 20
13.21080795716052
 30
0.0
 10
266.1675469798763
 20
13.17263195605361
 30
0.0
 10
266.2602816241788
 20
13.16160704667678
 30
0.0
  0
SPLINE
  5
185
330
1F
100
AcDbEntity
  8
0
  6
Continuous
 62
     7
370
    25
100
AcDbSpline
210
0.0
220
0.0
230
1.0
 70
     8
 71
     3
 72
    28
 73
    24
 74
     0
 42
0.000000001
 43
0.00000001
 40
0.0
 40
0.0
 40
0.0
 40
0.0
 40
0.0275824122251401
 40
0.0769013260628108
 40
0.126908093283738
 40
0.1776501670923206
 40
0.2287265058842008
 40
0.2798334406168245
 40
0.3308627840202029
 40
0.3818078539119752
 40
0.432694858540091
 40
0.4835623907107093
 40
0.5344512714280641
 40
0.5853943783972441
 40
0.636437666527644
 40
0.6876241601477568
 40
0.7389822287860944
 40
0.7904956776081837
 40
0.8419828876817583
 40
0.8930460847690023
 40
0.9431756217565916
 40
0.9921184091579245
 40
1.0
 40
1.0
 40
1.0
 40
1.0
 10
266.2602816241788
 20
13.16160704667678
 30
0.0
 10
266.3939596341662
 20
13.15447680547988
 30
0.0
 10
266.7666614903186
 20
13.13459728955091
 30
0.0
 10
267.4084854138442
 20
13.21991016471873
 30
0.0
 10
268.1821747173837
 20
13.45535639815057
 30
0.0
 10
268.970539054306
 20
13.83338812188909
 30
0.0
 10
269.756311030475
 20
14.3440696998169
 30
0.0
 10
270.5214171359794
 20
14.97578696388385
 30
0.0
 10
271.2491639311251
 20
15.71329027422238
 30
0.0
 10
271.9248491146639
 20
16.54026775372497
 30
0.0
 10
272.5350963176672
 20
17.43922580017255
 30
0.0
 10
273.0677468571004
 20
18.39162362844568
 30
0.0
 10
273.5119001024627
 20
19.37807133331827
 30
0.0
 10
273.8581960773669
 20
20.37873057645026
 30
0.0
 10
274.098855914247
 20
21.37375761196075
 30
0.0
 10
274.2276860060229
 20
22.3437519122515
 30
0.0
 10
274.2398520796565
 20
23.26966873142375
 30
0.0
 10
274.1321167899054
 20
24.13282060154265
 30
0.0
 10
273.9024866799215
 20
24.91202221198175
 30
0.0
 10
273.5560144828281
 20
25.59132268783199
 30
0.0
 10
273.0928397136068
 20
26.13302953891639
 30
0.0
 10
272.7070753225662
 20
26.46216339281368
 30
0.0
 10
272.4623614277348
 20
26.5630745517761
 30
0.0
 10
272.4284193970069
 20
26.57707101756996
 30
0.0
  0
LINE
  5
186
330
1F
100
AcDbEntity
  8
0
  6
Continuous
 62
     7
370
    25
100
AcDbLine
 10
272.5293755872
 20
26.5337191154
 30
0.0
 11
265.8118633575
 21
30.4116563814
 31
0.0
  0
LINE
  5
187
330
1F
100
AcDbEntity
  8
0
  6
Continuous
 62
     7
370
    25
100
AcDbLine
 10
258.3124730874
 20
17.420923829
 30
0.0
 11
265.029985317
 21
13.542986563
 31
0.0
  0
LINE
  5
188
330
1F
100
AcDbEntity
  8
0
  6
Continuous
 62
     7
370
    25
100
AcDbLine
 10
261.766654277
 20
29.8602328091
 30
0.0
 11
261.7395433167
 21
29.8758836333
 31
0.0
  0
LINE
  5
189
330
1F
100
AcDbEntity
  8
0
  6
Continuous
 62
     7
370
    25
100
AcDbLine
 10
256.7162764453
 20
21.2290616037
 30
0.0
 11
256.7670607636
 21
21.1997444408
 31
0.0
  0
SPLINE
  5
18A
330
1F
100
AcDbEntity
  8
0
  6
Continuous
 62
     7
370
    25
100
AcDbSpline
210
0.0
220
0.0
230
1.0
 70
     8
 71
     3
 72
    17
 73
    13
 74
     0
 42
0.000000001
 43
0.00000001
 40
0.0
 40
0.0
 40
0.0
 40
0.0
 40
0.0783610331229186
 40
0.1911384209299933
 40
0.3045321089171348
 40
0.4184217561770787
 40
0.5326459214512976
 40
0.6470565096410124
 40
0.7615428876220317
 40
0.8760212527404193
 40
0.990457321727406
 40
0.9999999999999999
 40
0.9999999999999999
 40
0.9999999999999999
 40
0.9999999999999999
 10
243.4293724753174
 20
12.40246440925558
 30
0.0
 10
243.6877960554613
 20
12.37916596412201
 30
0.0
 10
244.3181434752342
 20
12.32233634057721
 30
0.0
 10
245.3748488045551
 20
12.39994750417383
 30
0.0
 10
246.5825450446268
 20
12.61119674832141
 30
0.0
 10
247.8230111845666
 20
12.971836394191
 30
0.0
 10
249.0837217343218
 20
13.47204461485656
 30
0.0
 10
250.3544427092882
 20
14.11050809882683
 30
0.0
 10
251.6256909685783
 20
14.87731413384629
 30
0.0
 10
252.8827922504033
 20
15.7804405563485
 30
0.0
 10
253.7508259144499
 20
16.45972245816776
 30
0.0
 10
254.1867558102108
 20
16.86538216363611
 30
0.0
 10
254.2203094541748
 20
16.89660590272853
 30
0.0
  0
SPLINE
  5
18B
330
1F
100
AcDbEntity
  8
0
  6
Continuous
 62
     7
370
    25
100
AcDbSpline
210
0.0
220
0.0
230
1.0
 70
     8
 71
     3
 72
    13
 73
     9
 74
     0
 42
0.000000001
 43
0.00000001
 40
0.0
 40
0.0
 40
0.0
 40
0.0
 40
0.1517430001760234
 40
0.33690128290344
 40
0.5219670286471781
 40
0.7067467716955897
 40
0.8909769464212347
 40
1.0
 40
1.0
 40
1.0
 40
1.0
 10
264.6627710211881
 20
39.27979317413823
 30
0.0
 10
264.644298601587
 20
39.67101241839115
 30
0.0
 10
264.6032859561619
 20
40.53960118447878
 30
0.0
 10
264.4019150919099
 20
41.79653263716339
 30
0.0
 10
264.0875705933151
 20
43.0556472452314
 30
0.0
 10
263.6535034618742
 20
44.20966110446058
 30
0.0
 10
263.1997788085363
 20
45.13222558337316
 30
0.0
 10
262.8490290210725
 20
45.61890109240087
 30
0.0
 10
262.7186304127007
 20
45.79983294574479
 30
0.0
  0
LINE
  5
18C
330
1F
100
AcDbEntity
  8
0
  6
Continuous
 62
     7
370
    25
100
AcDbLine
 10
230.9931683982
 20
18.7586573925
 30
0.0
 11
240.3957193692
 21
13.3306802547
 31
0.0
  0
LINE
  5
18D
330
1F
100
AcDbEntity
  8
0
  6
Continuous
 62
     7
370
    25
100
AcDbLine
 10
216.6899649577
 20
27.0157209821
 30
0.0
 11
228.5466255017
 21
20.1710165437
 31
0.0
  0
LINE
  5
18E
330
1F
100
AcDbEntity
  8
0
  6
Continuous
 62
     7
370
    25
100
AcDbLine
 10
248.5462244482
 20
54.8122629013
 30
0.0
 11
236.6883390115
 21
61.6576744552
 31
0.0
  0
LINE
  5
18F
330
1F
100
AcDbEntity
  8
0
  6
Continuous
 62
     7
370
    25
100
AcDbLine
 10
260.394093423
 20
47.9726337277
 30
0.0
 11
251.0064835098
 21
53.3919855765
 31
0.0
  0
SPLINE
  5
190
330
1F
100
AcDbEntity
  8
0
  6
Continuous
 62
     7
370
    25
100
AcDbSpline
210
0.0
220
0.0
230
1.0
 70
     8
 71
     3
 72
    14
 73
    10
 74
     0
 42
0.000000001
 43
0.00000001
 40
0.0
 40
0.0
 40
0.0
 40
0.0
 40
0.0894218185721685
 40
0.2531602805006711
 40
0.4169900722967629
 40
0.5824433944012045
 40
0.7502794999827703
 40
0.9202366397199477
 40
1.0
 40
1.0
 40
1.0
 40
1.0
 10
254.7806705736456
 20
16.60242844746395
 30
0.0
 10
254.8951815083088
 20
16.52389118356382
 30
0.0
 10
255.2193710719141
 20
16.30154594303769
 30
0.0
 10
255.8393994009262
 20
16.08725433293937
 30
0.0
 10
256.6144824688882
 20
15.95445616310798
 30
0.0
 10
257.4418637012765
 20
15.97062075930927
 30
0.0
 10
258.3073854156322
 20
16.13671517788766
 30
0.0
 10
259.0402393494761
 20
16.36861422167486
 30
0.0
 10
259.4808638521378
 20
16.59338420462455
 30
0.0
 10
259.6216039633886
 20
16.6651781067228
 30
0.0
  0
SPLINE
  5
191
330
1F
100
AcDbEntity
  8
0
  6
Continuous
 62
     7
370
    25
100
AcDbSpline
210
0.0
220
0.0
230
1.0
 70
     8
 71
     3
 72
    14
 73
    10
 74
     0
 42
0.000000001
 43
0.00000001
 40
0.0
 40
0.0
 40
0.0
 40
0.0
 40
0.0107876158343916
 40
0.1929799204246369
 40
0.3750077893009242
 40
0.5560752388215188
 40
0.7351239345163023
 40
0.9113678368288065
 40
1.0
 40
1.0
 40
1.0
 40
1.0
 10
267.1331361067583
 20
29.64890208474259
 30
0.0
 10
267.132798835921
 20
29.66951767654284
 30
0.0
 10
267.1267653897596
 20
30.03831049658704
 30
0.0
 10
267.0054658385084
 20
30.69323784291331
 30
0.0
 10
266.7593235709443
 20
31.58779149511097
 30
0.0
 10
266.3856931597724
 20
32.37477935233511
 30
0.0
 10
265.9022828617682
 20
33.03768656808
 30
0.0
 10
265.4273675414701
 20
33.50557571437881
 30
0.0
 10
265.0871855969618
 20
33.69540755270619
 30
0.0
 10
264.9733547698597
 20
33.75892860523691
 30
0.0
  0
LINE
  5
192
330
1F
100
AcDbEntity
  8
0
  6
Continuous
 62
     7
370
    25
100
AcDbLine
 10
246.6327496233
 20
21.2768115981
 30
0.0
 11
254.9412553348
 21
16.480413345
 31
0.0
  0
LINE
  5
193
330
1F
100
AcDbEntity
  8
0
  6
Continuous
 62
     7
370
    25
100
AcDbLine
 10
264.9404423617
 20
33.8013900815
 30
0.0
 11
256.6319366502
 21
38.5977883346
 31
0.0
  0
SPLINE
  5
194
330
1F
100
AcDbEntity
  8
0
  6
Continuous
 62
     7
370
    25
100
AcDbSpline
210
0.0
220
0.0
230
1.0
 70
     8
 71
     3
 72
    24
 73
    20
 74
     0
 42
0.000000001
 43
0.00000001
 40
0.0
 40
0.0
 40
0.0
 40
0.0
 40
0.0134777843093347
 40
0.0824042203483654
 40
0.1488723137591768
 40
0.1880457197706481
 40
0.2221375448379026
 40
0.2876397400066973
 40
0.3533932998700455
 40
0.4193621499364606
 40
0.4854897188704712
 40
0.5516875259436332
 40
0.617847416468378
 40
0.6838460534225005
 40
0.7495852554611073
 40
0.8149874627766808
 40
0.8800494903328302
 40
0.9449679294727108
 40
1.0
 40
1.0
 40
1.0
 40
1.0
 10
256.7725563175063
 20
21.15119216520827
 30
0.0
 10
256.7534232512056
 20
21.17657273856923
 30
0.0
 10
256.6364421974067
 20
21.33175153589978
 30
0.0
 10
256.4945365866566
 20
21.73729398199411
 30
0.0
 10
256.3910186366647
 20
22.27966637191887
 30
0.0
 10
256.3697298930244
 20
22.77164128365152
 30
0.0
 10
256.3885280579599
 20
23.28801627111876
 30
0.0
 10
256.4782551213294
 20
23.94394735703504
 30
0.0
 10
256.6891988155662
 20
24.76165890271129
 30
0.0
 10
256.9999592459509
 20
25.59241351462243
 30
0.0
 10
257.4020774052988
 20
26.40988897531084
 30
0.0
 10
257.8836114904369
 20
27.18843211689429
 30
0.0
 10
258.4293433889737
 20
27.90350022944423
 30
0.0
 10
259.021388145898
 20
28.53294956888624
 30
0.0
 10
259.6394169350647
 20
29.05752693349
 30
0.0
 10
260.262442379951
 20
29.46367131125457
 30
0.0
 10
260.86570848434
 20
29.73791241853413
 30
0.0
 10
261.4069660587422
 20
29.88447944077469
 30
0.0
 10
261.7077264264994
 20
29.88140049007106
 30
0.0
 10
261.8457122159401
 20
29.87998789888873
 30
0.0
  0
LINE
  5
195
330
1F
100
AcDbEntity
  8
0
  6
Continuous
 62
     7
370
    25
100
AcDbLine
 10
255.5938656982
 20
38.9878720234
 30
0.0
 11
255.0937462547
 21
39.0897677006
 31
0.0
  0
LINE
  5
196
330
1F
100
AcDbEntity
  8
0
  6
Continuous
 62
     7
370
    25
100
AcDbLine
 10
245.4374860729
 20
22.3628215602
 30
0.0
 11
245.7758258263
 21
21.9806852025
 31
0.0
  0
LINE
  5
197
330
1F
100
AcDbEntity
  8
0
  6
Continuous
 62
     7
370
    25
100
AcDbLine
 10
203.0709138371
 20
29.1044849494
 30
0.0
 11
208.8119036929
 21
25.7902820504
 31
0.0
  0
LINE
  5
198
330
1F
100
AcDbEntity
  8
0
  6
Continuous
 62
     7
370
    25
100
AcDbLine
 10
230.2755965703
 20
71.1330187622
 30
0.0
 11
228.0688814043
 21
72.4069283116
 31
0.0
  0
SPLINE
  5
199
330
1F
100
AcDbEntity
  8
0
  6
Continuous
 62
     7
370
    25
100
AcDbSpline
210
0.0
220
0.0
230
1.0
 70
     8
 71
     3
 72
    10
 73
     6
 74
     0
 42
0.000000001
 43
0.00000001
 40
0.0
 40
0.0
 40
0.0
 40
0.0
 40
0.2877671293385511
 40
0.7914668933538241
 40
1.0
 40
1.0
 40
1.0
 40
1.0
 10
198.0540102497558
 20
44.00622668982525
 30
0.0
 10
198.0098987777517
 20
43.67498298063274
 30
0.0
 10
197.8885757837438
 20
42.76393928338976
 30
0.0
 10
197.8287925585836
 20
41.65118999660632
 30
0.0
 10
197.8212218360527
 20
40.87880223509203
 30
0.0
 10
197.8190052207377
 20
40.65265650933456
 30
0.0
  0
SPLINE
  5
19A
330
1F
100
AcDbEntity
  8
0
  6
Continuous
 62
     7
370
    25
100
AcDbSpline
210
0.0
220
0.0
230
1.0
 70
     8
 71
     3
 72
     9
 73
     5
 74
     0
 42
0.000000001
 43
0.00000001
 40
0.0
 40
0.0
 40
0.0
 40
0.0
 40
0.5696751866024141
 40
1.0
 40
1.0
 40
1.0
 40
1.0
 10
215.7611014911136
 20
71.34462348368332
 30
0.0
 10
215.5321515906884
 20
71.22346718284847
 30
0.0
 10
215.1302560793345
 20
71.01079107603498
 30
0.0
 10
214.7299255251465
 20
70.74355574148214
 30
0.0
 10
214.5576533541183
 20
70.62855774600746
 30
0.0
  0
SPLINE
  5
19B
330
1F
100
AcDbEntity
  8
0
  6
Continuous
 62
     7
370
    25
100
AcDbSpline
210
0.0
220
0.0
230
1.0
 70
     8
 71
     3
 72
     9
 73
     5
 74
     0
 42
0.000000001
 43
0.00000001
 40
0.0
 40
0.0
 40
0.0
 40
0.0
 40
0.4109279501872297
 40
1.0
 40
1.0
 40
1.0
 40
1.0
 10
197.8190052207377
 20
40.65265650933456
 30
0.0
 10
197.8211087976102
 20
40.3677158208593
 30
0.0
 10
197.8262278869093
 20
39.67430791724642
 30
0.0
 10
197.8864190163858
 20
39.01505990663394
 30
0.0
 10
197.9218759284072
 20
38.62671532968746
 30
0.0
  0
LINE
  5
19C
330
1F
100
AcDbEntity
  8
0
  6
Continuous
 62
     7
370
    25
100
AcDbLine
 10
216.3368593194
 20
71.5927629994
 30
0.0
 11
207.0015246693
 21
76.2438834611
 31
0.0
  0
LINE
  5
19D
330
1F
100
AcDbEntity
  8
0
  6
Continuous
 62
     7
370
    25
100
AcDbLine
 10
189.2128018816
 20
45.4295734495
 30
0.0
 11
197.8410908794
 21
39.716278989
 31
0.0
  0
SPLINE
  5
19E
330
1F
100
AcDbEntity
  8
0
  6
Continuous
 62
     7
370
    25
100
AcDbSpline
210
0.0
220
0.0
230
1.0
 70
     8
 71
     3
 72
    12
 73
     8
 74
     0
 42
0.000000001
 43
0.00000001
 40
0.0
 40
0.0
 40
0.0
 40
0.0
 40
0.176686294069366
 40
0.3876432579037069
 40
0.5994241964611686
 40
0.8118690542225444
 40
1.0
 40
1.0
 40
1.0
 40
1.0
 10
216.5822455154625
 20
22.3382782066941
 30
0.0
 10
216.9314226534644
 20
22.31362399039931
 30
0.0
 10
217.6975045053337
 20
22.25953354282999
 30
0.0
 10
218.9371766479927
 20
22.35075866135005
 30
0.0
 10
220.2818581480557
 20
22.58043816966389
 30
0.0
 10
221.6053024757745
 20
22.9309541954292
 30
0.0
 10
222.4854247123847
 20
23.27150849143491
 30
0.0
 10
222.898775262544
 20
23.43145025833676
 30
0.0
  0
LINE
  5
19F
330
1F
100
AcDbEntity
  8
0
  6
Continuous
 62
     7
370
    25
100
AcDbLine
 10
211.1185065401
 20
24.4587085701
 30
0.0
 11
212.7759544068
 21
23.5018842832
 31
0.0
  0
SPLINE
  5
1A0
330
1F
100
AcDbEntity
  8
0
  6
Continuous
 62
     7
370
    25
100
AcDbSpline
210
0.0
220
0.0
230
1.0
 70
     8
 71
     3
 72
    10
 73
     6
 74
     0
 42
0.000000001
 43
0.00000001
 40
0.0
 40
0.0
 40
0.0
 40
0.0
 40
0.028148475011432
 40
0.6719752357242176
 40
1.0
 40
1.0
 40
1.0
 40
1.0
 10
240.3859669835921
 20
64.50589543574517
 30
0.0
 10
240.3756170487122
 20
64.5208904349266
 30
0.0
 10
240.1285379466369
 20
64.87885896094915
 30
0.0
 10
239.6944608395261
 20
65.33401294078229
 30
0.0
 10
239.2411044588916
 20
65.72790153914656
 30
0.0
 10
239.0880850767464
 20
65.86084902269438
 30
0.0
  0
SPLINE
  5
1A1
330
1F
100
AcDbEntity
  8
0
  6
Continuous
 62
     7
370
    25
100
AcDbSpline
210
0.0
220
0.0
230
1.0
 70
     8
 71
     3
 72
    12
 73
     8
 74
     0
 42
0.000000001
 43
0.00000001
 40
0.0
 40
0.0
 40
0.0
 40
0.0
 40
0.1180490526010331
 40
0.3415715706442001
 40
0.5648880326714045
 40
0.7876618717436215
 40
0.9999999999999999
 40
0.9999999999999999
 40
0.9999999999999999
 40
0.9999999999999999
 10
242.7500983033125
 20
58.99599794553802
 30
0.0
 10
242.6974266491629
 20
59.24931007442208
 30
0.0
 10
242.5450227184249
 20
59.98226150283025
 30
0.0
 10
242.207393802509
 20
61.12658472112183
 30
0.0
 10
241.7002584025455
 20
62.38557658970439
 30
0.0
 10
241.1017630279624
 20
63.52668479962914
 30
0.0
 10
240.6207198908993
 20
64.18475291826087
 30
0.0
 10
240.3859669835921
 20
64.50589543574517
 30
0.0
  0
SPLINE
  5
1A2
330
1F
100
AcDbEntity
  8
0
  6
Continuous
 62
     7
370
    25
100
AcDbSpline
210
0.0
220
0.0
230
1.0
 70
     8
 71
     3
 72
    28
 73
    24
 74
     0
 42
0.000000001
 43
0.00000001
 40
0.0
 40
0.0
 40
0.0
 40
0.0
 40
0.0173646859913571
 40
0.0666529697132405
 40
0.116022427525708
 40
0.1657775298981347
 40
0.2161025423756545
 40
0.2670303082661907
 40
0.3184683026004565
 40
0.3702610478330405
 40
0.4222524658896515
 40
0.4743219123752864
 40
0.5263766481100202
 40
0.5783840758737929
 40
0.6303339792540638
 40
0.6822286908839886
 40
0.734077400466319
 40
0.7858927912084067
 40
0.8376893382521449
 40
0.8894823799690259
 40
0.9412855244705658
 40
0.9931116107064701
 40
1.0
 40
1.0
 40
1.0
 40
1.0
 10
207.1673507861975
 20
76.13780518872626
 30
0.0
 10
207.0640486380576
 20
76.19870783778673
 30
0.0
 10
206.6675315369303
 20
76.43247782506457
 30
0.0
 10
205.9003689652937
 20
76.69582719822877
 30
0.0
 10
204.880185132475
 20
76.92322642864889
 30
0.0
 10
203.8013380014933
 20
76.99690863651598
 30
0.0
 10
202.6770493515978
 20
76.92789707237094
 30
0.0
 10
201.5134266287929
 20
76.71219678023306
 30
0.0
 10
200.3208476752191
 20
76.35126813277485
 30
0.0
 10
199.1105636405249
 20
75.84755352181381
 30
0.0
 10
197.8946151286937
 20
75.20601438066926
 30
0.0
 10
196.6849062835439
 20
74.43342828228255
 30
0.0
 10
195.4927029256077
 20
73.53791019962284
 30
0.0
 10
194.3285207361638
 20
72.52847245794604
 30
0.0
 10
193.2021636838716
 20
71.41468494276968
 30
0.0
 10
192.1229638676615
 20
70.20675769981369
 30
0.0
 10
191.099927370822
 20
68.91549658529834
 30
0.0
 10
190.1413657475694
 20
67.55227637910443
 30
0.0
 10
189.2561300954303
 20
66.12893686272255
 30
0.0
 10
188.4488047255798
 20
64.657880887382
 30
0.0
 10
187.7374297633519
 20
63.15139965628684
 30
0.0
 10
187.275144269394
 20
62.0656390169131
 30
0.0
 10
187.0768722293469
 20
61.48619072532829
 30
0.0
 10
187.053610929888
 20
61.41820978243617
 30
0.0
  0
LINE
  5
1A3
330
1F
100
AcDbEntity
  8
0
  6
Continuous
 62
     7
370
    25
100
AcDbLine
 10
187.437512085
 20
59.0853951293
 30
0.0
 11
191.217398193
 21
56.903313326
 31
0.0
  0
LINE
  5
1A4
330
1F
100
AcDbEntity
  8
0
  6
Continuous
 62
     7
370
    25
100
AcDbLine
 10
186.9320732482
 20
60.855042011
 30
0.0
 11
186.9320732482
 21
60.2025370679
 31
0.0
  0
LINE
  5
1A5
330
1F
100
AcDbEntity
  8
0
  6
Continuous
 62
     7
370
    25
100
AcDbLine
 10
186.9320732482
 20
48.696749139
 30
0.0
 11
186.9320732482
 21
48.0442441959
 31
0.0
  0
SPLINE
  5
1A6
330
1F
100
AcDbEntity
  8
0
  6
Continuous
 62
     7
370
    25
100
AcDbSpline
210
0.0
220
0.0
230
1.0
 70
     8
 71
     3
 72
    10
 73
     6
 74
     0
 42
0.000000001
 43
0.00000001
 40
0.0
 40
0.0
 40
0.0
 40
0.0
 40
0.3295006286484303
 40
0.6892241807213073
 40
1.0
 40
1.0
 40
1.0
 40
1.0
 10
187.0643089854202
 20
47.70870049439463
 30
0.0
 10
187.2470641043521
 20
47.427307025722
 30
0.0
 10
187.6293372661217
 20
46.83870971802717
 30
0.0
 10
188.3036645169231
 20
46.11001861642355
 30
0.0
 10
188.8264462936554
 20
45.71946772173207
 30
0.0
 10
189.0687551486816
 20
45.53844775444543
 30
0.0
  0
SPLINE
  5
1A7
330
1F
100
AcDbEntity
  8
0
  6
Continuous
 62
     7
370
    25
100
AcDbSpline
210
0.0
220
0.0
230
1.0
 70
     8
 71
     3
 72
     9
 73
     5
 74
     0
 42
0.000000001
 43
0.00000001
 40
0.0
 40
0.0
 40
0.0
 40
0.0
 40
0.3544518289669109
 40
1.0
 40
1.0
 40
1.0
 40
1.0
 10
186.9783399511701
 20
47.84446676746217
 30
0.0
 10
186.9872814466727
 20
47.82723473525332
 30
0.0
 10
187.0125077109259
 20
47.77861872935183
 30
0.0
 10
187.043987357287
 20
47.73612940197267
 30
0.0
 10
187.0643089854202
 20
47.70870049439463
 30
0.0
  0
LWPOLYLINE
  5
1A8
330
1F
100
AcDbEntity
  8
0
  6
Continuous
 62
     7
370
    25
100
AcDbPolyline
 90
       23
 70
   128
 43
0.0
 10
242.6991770078
 20
26.3998937142
 10
242.985092667
 20
26.5174572628
 10
243.5689760085
 20
26.64427164
 10
244.1000671295
 20
26.6005822628
 10
244.5535336337
 20
26.3884323536
 10
244.908171705
 20
26.017741859
 10
245.1473985343
 20
25.5058435695
 10
245.2600280844
 20
24.8766732249
 10
245.2407946335
 20
24.159650563
 10
245.0905964363
 20
23.3883021458
 10
244.8164575285
 20
22.5986959979
 10
244.4311958204
 20
21.8277528157
 10
243.9528264557
 20
21.1115213175
 10
243.4037162398
 20
20.4834913311
 10
242.8095418233
 20
19.9730293339
 10
242.1980865404
 20
19.6040036491
 10
241.5979397837
 20
19.3936693487
 10
241.0371654276
 20
19.3518619078
 10
240.5419834215
 20
19.4805355372
 10
240.1355495075
 20
19.7736747038
 10
239.8368653288
 20
20.2175707562
 10
239.6598999316
 20
20.7914693514
 10
239.6267698745
 20
21.0351989869
  0
LWPOLYLINE
  5
1A9
330
1F
100
AcDbEntity
  8
0
  6
Continuous
 62
     7
370
    25
100
AcDbPolyline
 90
       11
 70
   128
 43
0.0
 10
237.4000465005
 20
23.5437719862
 10
237.6134649705
 20
24.3288508075
 10
237.9451093018
 20
25.1137264234
 10
238.3794720884
 20
25.8616988289
 10
238.8962411834
 20
26.5377929146
 10
239.4712532718
 20
27.1103950832
 10
240.0776232741
 20
27.5527321494
 10
240.6869962393
 20
27.8441200917
 10
241.2708795807
 20
27.9709344689
 10
241.8019707017
 20
27.9272450917
 10
242.1416960327
 20
27.788689005
  0
ARC
  5
1AA
330
1F
100
AcDbEntity
  8
0
  6
Continuous
 62
     7
370
    25
100
AcDbCircle
 10
239.740242076
 20
22.7465164193
 30
0.0
 40
2.472272592329134
100
AcDbArc
 50
161.1870997091
 51
229.7248905469
  0
LWPOLYLINE
  5
1AB
330
1F
100
AcDbEntity
  8
0
  6
Continuous
 62
     7
370
    25
100
AcDbPolyline
 90
       18
 70
   128
 43
0.0
 10
241.6228248636
 20
22.6127677681
 10
241.7808992531
 20
23.098994833
 10
242.0518560738
 20
23.5577757296
 10
242.3991033002
 20
23.9271507335
 10
242.775742685
 20
24.1572335544
 10
243.1309069334
 20
24.2169500828
 10
243.416628322
 20
24.0982347398
 10
243.5943200939
 20
23.8171216803
 10
243.6399829115
 20
23.4115760993
 10
243.5474501641
 20
22.9363693884
 10
243.3292183924
 20
22.4556805971
 10
243.0147620727
 20
22.0344300118
 10
242.6465487649
 20
21.7295089619
 10
242.2743097745
 20
21.5820999266
 10
241.948315755
 20
21.612109959
 10
241.7125963338
 20
21.8154874591
 10
241.5989842353
 20
22.1647636708
 10
241.6228248636
 20
22.6127677681
  0
SPLINE
  5
1AC
330
1F
100
AcDbEntity
  8
0
  6
Continuous
 62
     7
370
    25
100
AcDbSpline
210
0.0
220
0.0
230
1.0
 70
     8
 71
     3
 72
     9
 73
     5
 74
     0
 42
0.000000001
 43
0.00000001
 40
0.0
 40
0.0
 40
0.0
 40
0.0
 40
0.4733821560836756
 40
0.9999999999999999
 40
0.9999999999999999
 40
0.9999999999999999
 40
0.9999999999999999
 10
241.6299121196003
 20
22.01092008862389
 30
0.0
 10
241.6186371035538
 20
22.07743603889998
 30
0.0
 10
241.5948191038646
 20
22.21794820105325
 30
0.0
 10
241.6034840235328
 20
22.35354931966389
 30
0.0
 10
241.6080471248462
 20
22.42495928837927
 30
0.0
  0
SPLINE
  5
1AD
330
1F
100
AcDbEntity
  8
0
  6
Continuous
 62
     7
370
    25
100
AcDbSpline
210
0.0
220
0.0
230
1.0
 70
     8
 71
     3
 72
    10
 73
     6
 74
     0
 42
0.000000001
 43
0.00000001
 40
0.0
 40
0.0
 40
0.0
 40
0.0
 40
0.4391259327747885
 40
0.7513741110044295
 40
0.9999999999999999
 40
0.9999999999999999
 40
0.9999999999999999
 40
0.9999999999999999
 10
242.3614082125438
 20
21.61130785922742
 30
0.0
 10
242.1961484628229
 20
21.70346432142348
 30
0.0
 10
241.9133778763838
 20
21.86115024859778
 30
0.0
 10
241.6989464862939
 20
21.97686601758441
 30
0.0
 10
241.6511150000434
 20
22.00046088646947
 30
0.0
 10
241.6299121196003
 20
22.0109200886239
 30
0.0
  0
SPLINE
  5
1AE
330
1F
100
AcDbEntity
  8
0
  6
Continuous
 62
     7
370
    25
100
AcDbSpline
210
0.0
220
0.0
230
1.0
 70
     8
 71
     3
 72
    10
 73
     6
 74
     0
 42
0.000000001
 43
0.00000001
 40
0.0
 40
0.0
 40
0.0
 40
0.0
 40
0.4391257318746379
 40
0.7513738800323505
 40
1.0
 40
1.0
 40
1.0
 40
1.0
 10
243.3435450281365
 20
22.49887133526937
 30
0.0
 10
243.1424034794025
 20
22.40675471857741
 30
0.0
 10
242.7982366612504
 20
22.24913694609158
 30
0.0
 10
242.4945557116726
 20
21.90650730389584
 30
0.0
 10
242.4023025055901
 20
21.70197402026215
 30
0.0
 10
242.3614082125438
 20
21.61130785922742
 30
0.0
  0
SPLINE
  5
1AF
330
1F
100
AcDbEntity
  8
0
  6
Continuous
 62
     7
370
    25
100
AcDbSpline
210
0.0
220
0.0
230
1.0
 70
     8
 71
     3
 72
    11
 73
     7
 74
     0
 42
0.000000001
 43
0.00000001
 40
0.0
 40
0.0
 40
0.0
 40
0.0
 40
0.1842419964451408
 40
0.5169671091099168
 40
0.8653136095546788
 40
1.0
 40
1.0
 40
1.0
 40
1.0
 10
243.5941850922412
 20
23.78604666053815
 30
0.0
 10
243.5521680623509
 20
23.7272681957905
 30
0.0
 10
243.4342719100355
 20
23.56234090676411
 30
0.0
 10
243.3008565283659
 20
23.20544458849373
 30
0.0
 10
243.2986320409859
 20
22.80204118807011
 30
0.0
 10
243.3337522819714
 20
22.56497393947706
 30
0.0
 10
243.3435450281365
 20
22.49887133526937
 30
0.0
  0
SPLINE
  5
1B0
330
1F
100
AcDbEntity
  8
0
  6
Continuous
 62
     7
370
    25
100
AcDbSpline
210
0.0
220
0.0
230
1.0
 70
     8
 71
     3
 72
    10
 73
     6
 74
     0
 42
0.000000001
 43
0.00000001
 40
0.0
 40
0.0
 40
0.0
 40
0.0
 40
0.4391254998231885
 40
0.7513741150266776
 40
1.0
 40
1.0
 40
1.0
 40
1.0
 10
242.8626889992977
 20
24.18565888993462
 30
0.0
 10
242.906872663084
 20
24.16339769401551
 30
0.0
 10
242.9824739690647
 20
24.12530724745776
 30
0.0
 10
243.2889940111966
 20
23.95643130437094
 30
0.0
 10
243.5004502355288
 20
23.83837774479197
 30
0.0
 10
243.5941850922412
 20
23.78604666053815
 30
0.0
  0
SPLINE
  5
1B1
330
1F
100
AcDbEntity
  8
0
  6
Continuous
 62
     7
370
    25
100
AcDbSpline
210
0.0
220
0.0
230
1.0
 70
     8
 71
     3
 72
     9
 73
     5
 74
     0
 42
0.000000001
 43
0.00000001
 40
0.0
 40
0.0
 40
0.0
 40
0.0
 40
0.0552323179422224
 40
1.0
 40
1.0
 40
1.0
 40
1.0
 10
242.5126146413882
 20
24.01665438946108
 30
0.0
 10
242.5180722714079
 20
24.02079989144254
 30
0.0
 10
242.6168845288515
 20
24.09585562214341
 30
0.0
 10
242.7432772454283
 20
24.14203248358539
 30
0.0
 10
242.8626889992977
 20
24.18565888993462
 30
0.0
  0
LINE
  5
1B2
330
1F
100
AcDbEntity
  8
0
  6
Continuous
 62
     7
370
    25
100
AcDbLine
 10
241.626625324
 20
22.0354889919
 30
0.0
 11
242.3614082125
 21
21.6113078592
 31
0.0
  0
LINE
  5
1B3
330
1F
100
AcDbEntity
  8
0
  6
Continuous
 62
     7
370
    25
100
AcDbLine
 10
241.6940965015
 20
22.8249697464
 30
0.0
 11
242.1929518689
 21
23.1630946277
 31
0.0
  0
SPLINE
  5
1B4
330
1F
100
AcDbEntity
  8
0
  6
Continuous
 62
     7
370
    25
100
AcDbSpline
210
0.0
220
0.0
230
1.0
 70
     8
 71
     3
 72
     9
 73
     5
 74
     0
 42
0.000000001
 43
0.00000001
 40
0.0
 40
0.0
 40
0.0
 40
0.0
 40
0.2500074880523311
 40
0.9999999999999999
 40
0.9999999999999999
 40
0.9999999999999999
 40
0.9999999999999999
 10
242.1929518688573
 20
23.16309462773095
 30
0.0
 10
242.1910160587882
 20
23.21475159394345
 30
0.0
 10
242.1832730504319
 20
23.4213732700178
 30
0.0
 10
242.2170272843048
 20
23.61411055799833
 30
0.0
 10
242.242342706956
 20
23.75866208075684
 30
0.0
  0
LINE
  5
1B5
330
1F
100
AcDbEntity
  8
0
  6
Continuous
 62
     7
370
    25
100
AcDbLine
 10
242.1929518689
 20
23.1630946277
 30
0.0
 11
243.3435450281
 21
22.4988713353
 31
0.0
  0
ARC
  5
1B6
330
1F
100
AcDbEntity
  8
0
  6
Continuous
 62
     7
370
    25
100
AcDbCircle
 10
264.8472099998
 20
36.9764634981
 30
0.0
 40
1.909980277609387
100
AcDbArc
 50
65.0465222987
 51
117.6337902993
  0
LWPOLYLINE
  5
1B7
330
1F
100
AcDbEntity
  8
0
  6
Continuous
 62
     7
370
    25
100
AcDbPolyline
 90
       10
 70
   128
 43
0.0
 10
259.0751216283
 20
37.1873678203
 10
259.103371212
 20
37.2473396458
 10
259.5239770038
 20
38.0028980089
 10
260.0302028013
 20
38.6914848276
 10
260.5983778806
 20
39.2809024229
 10
261.2019345807
 20
39.7435899301
 10
261.8126509767
 20
40.0579121665
 10
262.4019706031
 20
40.209172444
 10
262.9423392992
 20
40.1902983819
 10
263.3549003112
 20
40.034811169
  0
LWPOLYLINE
  5
1B8
330
1F
100
AcDbEntity
  8
0
  6
Continuous
 62
     7
370
    25
100
AcDbPolyline
 90
       13
 70
   128
 43
0.0
 10
262.8683300917
 20
34.9975954988
 10
262.8738671339
 20
35.0176791369
 10
263.0722260081
 20
35.5021298066
 10
263.372918089
 20
35.9379298139
 10
263.7353322539
 20
36.2662214782
 10
264.1105234993
 20
36.4426675614
 10
264.4478194596
 20
36.44343782
 10
264.701667294
 20
36.2684286377
 10
264.8377831755
 20
35.9412758277
 10
264.8377831755
 20
35.5061627733
 10
264.701667294
 20
35.0218539118
 10
264.4478194596
 20
34.5537582584
 10
264.1858511129
 20
34.2370068892
  0
SPLINE
  5
1B9
330
1F
100
AcDbEntity
  8
0
  6
Continuous
 62
     7
370
    25
100
AcDbSpline
210
0.0
220
0.0
230
1.0
 70
     8
 71
     3
 72
     9
 73
     5
 74
     0
 42
0.000000001
 43
0.00000001
 40
0.0
 40
0.0
 40
0.0
 40
0.0
 40
0.6311978020354347
 40
1.0
 40
1.0
 40
1.0
 40
1.0
 10
264.7091351887281
 20
35.06557234185212
 30
0.0
 10
264.5175038956
 20
34.94441019018445
 30
0.0
 10
264.2139044652627
 20
34.75245427513379
 30
0.0
 10
264.0459518189963
 20
34.46101154296328
 30
0.0
 10
263.9840105138994
 20
34.35352682275801
 30
0.0
  0
SPLINE
  5
1BA
330
1F
100
AcDbEntity
  8
0
  6
Continuous
 62
     7
370
    25
100
AcDbSpline
210
0.0
220
0.0
230
1.0
 70
     8
 71
     3
 72
    11
 73
     7
 74
     0
 42
0.000000001
 43
0.00000001
 40
0.0
 40
0.0
 40
0.0
 40
0.0
 40
0.184241996819023
 40
0.5169670674472885
 40
0.8653135927090866
 40
0.9999999999999999
 40
0.9999999999999999
 40
0.9999999999999999
 40
0.9999999999999999
 10
264.7091351887281
 20
36.24414752159988
 30
0.0
 10
264.6816528555086
 20
36.19166681174365
 30
0.0
 10
264.6045398114881
 20
36.04441049049036
 30
0.0
 10
264.547078983681
 20
35.7204246099253
 30
0.0
 10
264.6156926394391
 20
35.34771477350849
 30
0.0
 10
264.688761144336
 20
35.12709016720261
 30
0.0
 10
264.7091351887281
 20
35.06557234185212
 30
0.0
  0
SPLINE
  5
1BB
330
1F
100
AcDbEntity
  8
0
  6
Continuous
 62
     7
370
    25
100
AcDbSpline
210
0.0
220
0.0
230
1.0
 70
     8
 71
     3
 72
    10
 73
     6
 74
     0
 42
0.000000001
 43
0.00000001
 40
0.0
 40
0.0
 40
0.0
 40
0.0
 40
0.4391259271787122
 40
0.7513739080116174
 40
1.0
 40
1.0
 40
1.0
 40
1.0
 10
263.8252518966374
 20
36.32318014803207
 30
0.0
 10
263.8912516862255
 20
36.34681373746677
 30
0.0
 10
264.0041817519798
 20
36.38725239379477
 30
0.0
 10
264.3649640104434
 20
36.33252874825947
 30
0.0
 10
264.6034280638233
 20
36.27129251791335
 30
0.0
 10
264.7091351887281
 20
36.24414752159988
 30
0.0
  0
SPLINE
  5
1BC
330
1F
100
AcDbEntity
  8
0
  6
Continuous
 62
     7
370
    25
100
AcDbSpline
210
0.0
220
0.0
230
1.0
 70
     8
 71
     3
 72
     9
 73
     5
 74
     0
 42
0.000000001
 43
0.00000001
 40
0.0
 40
0.0
 40
0.0
 40
0.0
 40
0.3723152419461976
 40
1.0
 40
1.0
 40
1.0
 40
1.0
 10
262.8673053964564
 20
34.94261083922483
 30
0.0
 10
262.9288877065435
 20
35.05473842355311
 30
0.0
 10
263.0942913837208
 20
35.35590144804321
 30
0.0
 10
263.3795128576155
 20
35.58561066195606
 30
0.0
 10
263.558542029449
 20
35.7297956343137
 30
0.0
  0
SPLINE
  5
1BD
330
1F
100
AcDbEntity
  8
0
  6
Continuous
 62
     7
370
    25
100
AcDbSpline
210
0.0
220
0.0
230
1.0
 70
     8
 71
     3
 72
     9
 73
     5
 74
     0
 42
0.000000001
 43
0.00000001
 40
0.0
 40
0.0
 40
0.0
 40
0.0
 40
0.4011313178770138
 40
1.0
 40
1.0
 40
1.0
 40
1.0
 10
263.558542029449
 20
35.7297956343137
 30
0.0
 10
263.5472591724213
 20
35.77780397026623
 30
0.0
 10
263.5191315829644
 20
35.8974863132122
 30
0.0
 10
263.5157693003239
 20
36.00803845277557
 30
0.0
 10
263.51375573455
 20
36.07424466690175
 30
0.0
  0
LINE
  5
1BE
330
1F
100
AcDbEntity
  8
0
  6
Continuous
 62
     7
370
    25
100
AcDbLine
 10
263.5585420294
 20
35.7297956343
 30
0.0
 11
264.7091351887
 21
35.0655723419
 31
0.0
  0
LINE
  5
1BF
330
1F
100
AcDbEntity
  8
0
  6
Continuous
 62
     7
370
    25
100
AcDbLine
 10
265.029985317
 20
13.542986563
 30
0.0
 11
264.9697614218
 21
13.5788875834
 31
0.0
  0
LINE
  5
1C0
330
1F
100
AcDbEntity
  8
0
  6
Continuous
 62
     7
370
    25
100
AcDbLine
 10
272.4451121832
 20
26.5802251453
 30
0.0
 11
272.5293755872
 21
26.5337191154
 31
0.0
  0
LWPOLYLINE
  5
1C1
330
1F
100
AcDbEntity
  8
0
  6
Continuous
 62
     7
370
    25
100
AcDbPolyline
 90
       23
 70
   128
 43
0.0
 10
265.8118633575
 20
30.4116563814
 10
265.6905522152
 20
30.4772972328
 10
265.0576132348
 20
30.6991539907
 10
264.354463367
 20
30.7620261244
 10
263.5975840052
 20
30.6644402113
 10
262.804715927
 20
30.4086829622
 10
261.9944431914
 20
30.0007499853
 10
261.1857578465
 20
29.4502021025
 10
260.3976148251
 20
28.7699441382
 10
259.64848752
 20
27.975920829
 10
258.9559346212
 20
27.0867428092
 10
258.33618958
 20
26.123252273
 10
257.8037780773
 20
25.1080325596
 10
257.3711798607
 20
24.064879283
 10
257.0485342108
 20
23.0182432256
 10
256.8434038528
 20
21.9926564957
 10
256.7605971492
 20
21.0121582525
 10
256.8020545017
 20
20.0997302629
 10
256.9668045568
 20
19.2767592111
 10
257.2509859391
 20
18.5625350759
 10
257.6479368122
 20
17.9737980292
 10
258.1483539178
 20
17.5243484936
 10
258.3124730874
 20
17.420923829
  0
LINE
  5
1C2
330
1F
100
AcDbEntity
  8
0
  6
Continuous
 62
     7
370
    25
100
AcDbLine
 10
272.1790970805
 20
19.5619044327
 30
0.0
 11
272.1790970805
 21
23.623274375
 31
0.0
  0
LINE
  5
1C3
330
1F
100
AcDbEntity
  8
0
  6
Continuous
 62
     7
370
    25
100
AcDbLine
 10
272.1790970805
 20
23.623274375
 30
0.0
 11
269.1332345592
 21
23.8956203398
 31
0.0
  0
LINE
  5
1C4
330
1F
100
AcDbEntity
  8
0
  6
Continuous
 62
     7
370
    25
100
AcDbLine
 10
266.0873720379
 20
20.1065963625
 30
0.0
 11
269.1332345592
 21
23.8956203398
 31
0.0
  0
LINE
  5
1C5
330
1F
100
AcDbEntity
  8
0
  6
Continuous
 62
     7
370
    25
100
AcDbLine
 10
266.0873720379
 20
16.0452264203
 30
0.0
 11
266.0873720379
 21
20.1065963625
 31
0.0
  0
LINE
  5
1C6
330
1F
100
AcDbEntity
  8
0
  6
Continuous
 62
     7
370
    25
100
AcDbLine
 10
266.0873720379
 20
16.0452264203
 30
0.0
 11
269.1332345592
 21
15.7728804554
 31
0.0
  0
LINE
  5
1C7
330
1F
100
AcDbEntity
  8
0
  6
Continuous
 62
     7
370
    25
100
AcDbLine
 10
272.1790970805
 20
19.5619044327
 30
0.0
 11
269.1332345592
 21
15.7728804554
 31
0.0
  0
ARC
  5
1C8
330
1F
100
AcDbEntity
  8
0
  6
Continuous
 62
     7
370
    25
100
AcDbCircle
 10
261.893150472
 20
24.0208525824
 30
0.0
 40
6.776706559956752
100
AcDbArc
 50
320.4788893947
 51
353.6116582221
  0
ARC
  5
1C9
330
1F
100
AcDbEntity
  8
0
  6
Continuous
 62
     7
370
    25
100
AcDbCircle
 10
262.3665897389
 20
23.4817006401
 30
0.0
 40
6.069486423961776
100
AcDbArc
 50
307.8090166298
 51
321.5609398537
  0
LINE
  5
1CA
330
1F
100
AcDbEntity
  8
0
  6
Continuous
 62
     7
370
    25
100
AcDbLine
 10
266.0873713793
 20
17.5312198418
 30
0.0
 11
269.1332345592
 21
15.7728804554
 31
0.0
  0
LINE
  5
1CB
330
1F
100
AcDbEntity
  8
0
  6
Continuous
 62
     7
370
    25
100
AcDbLine
 10
268.6435665463
 20
21.6029227658
 30
0.0
 11
272.1790970805
 21
19.5619044327
 31
0.0
  0
LINE
  5
1CC
330
1F
100
AcDbEntity
  8
0
  6
Continuous
 62
     7
370
    25
100
AcDbLine
 10
268.6435665463
 20
21.6029227658
 30
0.0
 11
268.6435665463
 21
23.2864718027
 31
0.0
  0
LINE
  5
1CD
330
1F
100
AcDbEntity
  8
0
  6
Continuous
 62
     7
370
    25
100
AcDbLine
 10
267.1206352856
 20
19.7084107772
 30
0.0
 11
266.0873754541
 21
18.4230452857
 31
0.0
  0
LINE
  5
1CE
330
1F
100
AcDbEntity
  8
0
  6
Continuous
 62
     7
370
    25
100
AcDbLine
 10
268.6435665463
 20
21.6029227658
 30
0.0
 11
267.1206352856
 21
19.7084107772
 31
0.0
  0
ARC
  5
1CF
330
1F
100
AcDbEntity
  8
0
  6
Continuous
 62
     7
370
    25
100
AcDbCircle
 10
256.9045925245
 20
41.930324709
 30
0.0
 40
6.96971466915309
100
AcDbArc
 50
34.8091027508
 51
86.0743647002
  0
ARC
  5
1D0
330
1F
100
AcDbEntity
  8
0
  6
Continuous
 62
     7
370
    25
100
AcDbCircle
 10
243.8850987836
 20
19.3773775978
 30
0.0
 40
6.973049226094627
100
AcDbArc
 50
213.97873128
 51
265.1496595311
  0
SPLINE
  5
1D1
330
1F
100
AcDbEntity
  8
0
  6
Continuous
 62
     7
370
    25
100
AcDbSpline
210
0.0
220
0.0
230
1.0
 70
    11
 71
     3
 72
    91
 73
    87
 74
     0
 42
0.000000001
 43
0.00000001
 40
0.0
 40
0.0
 40
0.0
 40
0.0
 40
0.0312500000000002
 40
0.0312500000000002
 40
0.0468750000000003
 40
0.0468750000000003
 40
0.0625000000000004
 40
0.0625000000000004
 40
0.0937500000000005
 40
0.0937500000000005
 40
0.1250000000000006
 40
0.1250000000000006
 40
0.1562500000000008
 40
0.1562500000000008
 40
0.1718750000000009
 40
0.1718750000000009
 40
0.187500000000001
 40
0.187500000000001
 40
0.2187500000000015
 40
0.2187500000000015
 40
0.2500000000000021
 40
0.2500000000000021
 40
0.2656250000000023
 40
0.2656250000000023
 40
0.2812500000000026
 40
0.2812500000000026
 40
0.3125000000000029
 40
0.3125000000000029
 40
0.3281250000000028
 40
0.3281250000000028
 40
0.3437500000000028
 40
0.3437500000000028
 40
0.3750000000000028
 40
0.3750000000000028
 40
0.4062500000000028
 40
0.4062500000000028
 40
0.4375000000000027
 40
0.4375000000000027
 40
0.4687500000000027
 40
0.4687500000000027
 40
0.4843750000000027
 40
0.4843750000000027
 40
0.5000000000000027
 40
0.5000000000000027
 40
0.5312500000000036
 40
0.5312500000000036
 40
0.546875000000004
 40
0.546875000000004
 40
0.5625000000000043
 40
0.5625000000000043
 40
0.5937500000000043
 40
0.5937500000000043
 40
0.6250000000000043
 40
0.6250000000000043
 40
0.6406250000000043
 40
0.6406250000000043
 40
0.6562500000000042
 40
0.6562500000000042
 40
0.6875000000000042
 40
0.6875000000000042
 40
0.7187500000000042
 40
0.7187500000000042
 40
0.7500000000000041
 40
0.7500000000000041
 40
0.7656250000000041
 40
0.7656250000000041
 40
0.7812500000000041
 40
0.7968750000000041
 40
0.7968750000000041
 40
0.8125000000000041
 40
0.8125000000000041
 40
0.8437500000000037
 40
0.8437500000000037
 40
0.8593750000000033
 40
0.8593750000000033
 40
0.8750000000000031
 40
0.8750000000000031
 40
0.9062500000000021
 40
0.9062500000000021
 40
0.9375000000000011
 40
0.9375000000000011
 40
0.9531250000000006
 40
0.9531250000000006
 40
0.9687500000000001
 40
0.9687500000000001
 40
1.0
 40
1.0
 40
1.0
 40
1.0
 10
248.934817145371
 20
50.48776800447109
 30
0.0
 10
248.7636674640096
 20
50.58657061244839
 30
0.0
 10
248.5794809634433
 20
50.67806389544212
 30
0.0
 10
248.2843500793789
 20
50.8044679159234
 30
0.0
 10
248.1828081564869
 20
50.84477831530646
 30
0.0
 10
247.9732348046172
 20
50.92154812883592
 30
0.0
 10
247.8646306357272
 20
50.95816734604666
 30
0.0
 10
247.5348846771124
 20
51.05984537044839
 30
0.0
 10
247.3088904393866
 20
51.11730136061659
 30
0.0
 10
246.8444446070068
 20
51.20999978125949
 30
0.0
 10
246.6033666901488
 20
51.24534715996826
 30
0.0
 10
246.1264859725293
 20
51.28802260559188
 30
0.0
 10
245.8894907595751
 20
51.29588448839354
 30
0.0
 10
245.5360675228195
 20
51.28543225730349
 30
0.0
 10
245.4179101373412
 20
51.27813575405507
 30
0.0
 10
245.1863022353856
 20
51.25583164513775
 30
0.0
 10
245.0729394328405
 20
51.24089241825029
 30
0.0
 10
244.7400115968308
 20
51.18463225079311
 30
0.0
 10
244.5275305786265
 20
51.13197570749939
 30
0.0
 10
244.1224296970248
 20
50.99354458043197
 30
0.0
 10
243.9359124657728
 20
50.90970535783297
 30
0.0
 10
243.6822665054352
 20
50.76371281584603
 30
0.0
 10
243.6019315053114
 20
50.71159712322341
 30
0.0
 10
243.4498948869405
 20
50.60031997349512
 30
0.0
 10
243.3781661459718
 20
50.54102588905293
 30
0.0
 10
243.181051024236
 20
50.35684060340119
 30
0.0
 10
243.0716500763952
 20
50.22442212929645
 30
0.0
 10
242.9401751732969
 20
50.01235238477177
 30
0.0
 10
242.9016875040774
 20
49.93899777646352
 30
0.0
 10
242.8372419492151
 20
49.79075123044368
 30
0.0
 10
242.8111084294406
 20
49.71570536513367
 30
0.0
 10
242.7504010759575
 20
49.48819987449638
 30
0.0
 10
242.7333930501783
 20
49.33265387980607
 30
0.0
 10
242.7472090197299
 20
49.02011989582616
 30
0.0
 10
242.7776455096046
 20
48.86662809147383
 30
0.0
 10
242.8832207848436
 20
48.56668244579978
 30
0.0
 10
242.9595631619653
 20
48.41886729526412
 30
0.0
 10
243.1520940670027
 20
48.14200880048917
 30
0.0
 10
243.2680398168879
 20
48.01220579260613
 30
0.0
 10
243.4712065562739
 20
47.83108033943606
 30
0.0
 10
243.5442576618703
 20
47.77269617477652
 30
0.0
 10
243.6981492155003
 20
47.66237759580027
 30
0.0
 10
243.7788873734115
 20
47.61043572930723
 30
0.0
 10
244.0321779702795
 20
47.4640424325899
 30
0.0
 10
244.2157007445386
 20
47.37895710488274
 30
0.0
 10
244.5137050293836
 20
47.27043037181318
 30
0.0
 10
244.6166401404949
 20
47.23758993802211
 30
0.0
 10
244.8258571989294
 20
47.17959663697516
 30
0.0
 10
244.9326455197072
 20
47.15425017421283
 30
0.0
 10
245.2595154320222
 20
47.08884879066422
 30
0.0
 10
245.4869835213742
 20
47.05928790440644
 30
0.0
 10
245.9564913578755
 20
47.02897251171932
 30
0.0
 10
246.1926317339207
 20
47.02846601162506
 30
0.0
 10
246.5490430758857
 20
47.0479292583489
 30
0.0
 10
246.6682161744644
 20
47.05781162972019
 30
0.0
 10
246.9073548719605
 20
47.08436190539881
 30
0.0
 10
247.0276770525271
 20
47.10112685966801
 30
0.0
 10
247.3816410938109
 20
47.16029041297523
 30
0.0
 10
247.6109491661551
 20
47.21166414253523
 30
0.0
 10
248.0562621143839
 20
47.33679228231075
 30
0.0
 10
248.2734927912489
 20
47.41135283295429
 30
0.0
 10
248.6740080345849
 20
47.57560578720555
 30
0.0
 10
248.859924558907
 20
47.6658580362649
 30
0.0
 10
249.1165497322721
 20
47.81352858335814
 30
0.0
 10
249.1978397002879
 20
47.86457790525888
 30
0.0
 10
249.349210679745
 20
47.96845881304903
 30
0.0
 10
249.4902914992389
 20
48.07464044323294
 30
0.0
 10
249.6110742252907
 20
48.18551354610828
 30
0.0
 10
249.7215366103612
 20
48.29890017732293
 30
0.0
 10
249.7716766547785
 20
48.35703400794901
 30
0.0
 10
249.9032123268872
 20
48.53157569970057
 30
0.0
 10
249.9672305587133
 20
48.64929964856843
 30
0.0
 10
250.0285292467393
 20
48.82921628154552
 30
0.0
 10
250.0431549671256
 20
48.89008553402405
 30
0.0
 10
250.0601526786589
 20
49.01119609310718
 30
0.0
 10
250.0626172361457
 20
49.07145776715491
 30
0.0
 10
250.0525310062657
 20
49.25178166269453
 30
0.0
 10
250.0226157811068
 20
49.37149219572046
 30
0.0
 10
249.9158943665518
 20
49.61130046474925
 30
0.0
 10
249.8407223062408
 20
49.72785180419601
 30
0.0
 10
249.6970450876886
 20
49.89915825134801
 30
0.0
 10
249.6439604117348
 20
49.95566335510286
 30
0.0
 10
249.5272532125723
 20
50.06762265906165
 30
0.0
 10
249.4634518617002
 20
50.12317552950248
 30
0.0
 10
249.2595002588291
 20
50.28548853884548
 30
0.0
 10
249.1059668267324
 20
50.38896539649382
 30
0.0
 10
248.934817145371
 20
50.48776800447111
 30
0.0
  0
LINE
  5
1D2
330
1F
100
AcDbEntity
  8
0
  6
Continuous
 62
     7
370
    25
100
AcDbLine
 10
249.3383573438
 20
54.3228152761
 30
0.0
 11
249.742966431
 21
54.0681493415
 31
0.0
  0
LWPOLYLINE
  5
1D3
330
1F
100
AcDbEntity
  8
0
  6
Continuous
 62
     7
370
    25
100
AcDbPolyline
 90
       14
 70
   128
 43
0.0
 10
251.0064439971
 20
53.3919156176
 10
250.6937861625
 20
53.5652710734
 10
250.2878290347
 20
53.7807417753
 10
249.8184863395
 20
54.0276294129
 10
249.3231100628
 20
54.2934168537
 10
248.8607960132
 20
54.5537851725
 10
248.502246846
 20
54.7727533582
 10
248.3059735823
 20
54.911394171
 10
248.2966828364
 20
54.9422164734
 10
248.4547480062
 20
54.86425805
 10
248.7352892837
 20
54.6995553475
 10
249.1025351897
 20
54.4716099911
 10
249.3383573438
 20
54.3228152761
 10
249.3383573438
 20
54.3228152761
  0
SPLINE
  5
1D4
330
1F
100
AcDbEntity
  8
0
  6
Continuous
 62
     7
370
    25
100
AcDbSpline
210
0.0
220
0.0
230
1.0
 70
     8
 71
     3
 72
    20
 73
    16
 74
     0
 42
0.000000001
 43
0.00000001
 40
0.0
 40
0.0
 40
0.0
 40
0.0
 40
0.0690603273292156
 40
0.1355671858262568
 40
0.2146371691952506
 40
0.2895844171857591
 40
0.363259552066643
 40
0.4394478613513136
 40
0.5204971544970065
 40
0.6066157778210789
 40
0.6960433538168129
 40
0.7859325972685378
 40
0.8730561790316548
 40
0.9547515747119241
 40
1.0
 40
1.0
 40
1.0
 40
1.0
 10
229.7882663904397
 20
19.50739520992746
 30
0.0
 10
229.6461894142344
 20
19.58234193427992
 30
0.0
 10
229.3672886823709
 20
19.7294642677569
 30
0.0
 10
228.9506597612829
 20
19.94809740847863
 30
0.0
 10
228.5942973770885
 20
20.14136009245208
 30
0.0
 10
228.3576487775748
 20
20.28173306110033
 30
0.0
 10
228.2736041114358
 20
20.34818109699499
 30
0.0
 10
228.340606352267
 20
20.33491281712706
 30
0.0
 10
228.5593615680762
 20
20.23247067871485
 30
0.0
 10
228.9215388051265
 20
20.03507806582634
 30
0.0
 10
229.3945226415053
 20
19.75446673257846
 30
0.0
 10
229.9221429500217
 20
19.42512714865056
 30
0.0
 10
230.4220340073516
 20
19.10813196723976
 30
0.0
 10
230.799917285821
 20
18.87143123623422
 30
0.0
 10
230.9430051588054
 20
18.78936071951897
 30
0.0
 10
230.9940080424509
 20
18.76010713619672
 30
0.0
  0
SPLINE
  5
1D5
330
1F
100
AcDbEntity
  8
0
  6
Continuous
 62
     7
370
    25
100
AcDbSpline
210
0.0
220
0.0
230
1.0
 70
    11
 71
     3
 72
    66
 73
    62
 74
     0
 42
0.000000001
 43
0.00000001
 40
0.0
 40
0.0
 40
0.0
 40
0.0
 40
0.0312500000000004
 40
0.0312500000000004
 40
0.0625000000000008
 40
0.0625000000000008
 40
0.1250000000000016
 40
0.1250000000000016
 40
0.1562500000000012
 40
0.1562500000000012
 40
0.1875000000000009
 40
0.1875000000000009
 40
0.2187500000000005
 40
0.2187500000000005
 40
0.2500000000000001
 40
0.2500000000000001
 40
0.2812499999999997
 40
0.2812499999999997
 40
0.3124999999999993
 40
0.3124999999999993
 40
0.3749999999999986
 40
0.3749999999999986
 40
0.4062499999999987
 40
0.4062499999999987
 40
0.4374999999999987
 40
0.4374999999999987
 40
0.4687499999999988
 40
0.4687499999999988
 40
0.4999999999999989
 40
0.4999999999999989
 40
0.531249999999999
 40
0.531249999999999
 40
0.562499999999999
 40
0.562499999999999
 40
0.5937499999999991
 40
0.5937499999999991
 40
0.6249999999999991
 40
0.6249999999999991
 40
0.6562499999999992
 40
0.6562499999999992
 40
0.6874999999999993
 40
0.6874999999999993
 40
0.7187499999999993
 40
0.7187499999999993
 40
0.7499999999999994
 40
0.7499999999999994
 40
0.7812499999999996
 40
0.7812499999999996
 40
0.8124999999999996
 40
0.8124999999999996
 40
0.8437499999999997
 40
0.8437499999999997
 40
0.8749999999999997
 40
0.8749999999999997
 40
0.9062499999999998
 40
0.9062499999999998
 40
0.9374999999999999
 40
0.9374999999999999
 40
0.9687499999999999
 40
0.9687499999999999
 40
1.0
 40
1.0
 40
1.0
 40
1.0
 10
228.6001886148769
 20
43.3810520164309
 30
0.0
 10
228.662866932479
 20
43.47363661528166
 30
0.0
 10
228.7330263425196
 20
43.55851264415865
 30
0.0
 10
228.8874994966964
 20
43.71364201896494
 30
0.0
 10
228.9724462341361
 20
43.78405543274246
 30
0.0
 10
229.2371360153638
 20
43.96480812315924
 30
0.0
 10
229.4328402357942
 20
44.04892745194655
 30
0.0
 10
229.7257687365478
 20
44.11435636950105
 30
0.0
 10
229.8250411866671
 20
44.12648478506536
 30
0.0
 10
230.018426613551
 20
44.13099467482316
 30
0.0
 10
230.1128367143536
 20
44.12365249044818
 30
0.0
 10
230.2970330554598
 20
44.09029939178267
 30
0.0
 10
230.3869036579981
 20
44.06400594570037
 30
0.0
 10
230.555065018912
 20
43.99478029562217
 30
0.0
 10
230.6342988454292
 20
43.95174562239844
 30
0.0
 10
230.7828758346344
 20
43.84851398402528
 30
0.0
 10
230.8514402012909
 20
43.7886198924781
 30
0.0
 10
230.9733674819489
 20
43.65599580860749
 30
0.0
 10
231.0273994330283
 20
43.58283467919935
 30
0.0
 10
231.167763800875
 20
43.3414941002003
 30
0.0
 10
231.2281221393276
 20
43.15970935498625
 30
0.0
 10
231.2640093289961
 20
42.85946069608671
 30
0.0
 10
231.2663910839705
 20
42.7577382293771
 30
0.0
 10
231.2522802291425
 20
42.5508649586616
 30
0.0
 10
231.2354278644421
 20
42.44440506450055
 30
0.0
 10
231.1825985641785
 20
42.23435521384669
 30
0.0
 10
231.1470790345568
 20
42.13148338676
 30
0.0
 10
231.0577240190128
 20
41.93002624370155
 30
0.0
 10
231.0033477716024
 20
41.83107343788394
 30
0.0
 10
230.8811797815188
 20
41.64747195970038
 30
0.0
 10
230.8127192313165
 20
41.56128222598218
 30
0.0
 10
230.6617611701106
 20
41.4017724077575
 30
0.0
 10
230.5816215374652
 20
41.33086738969609
 30
0.0
 10
230.412423749087
 20
41.20573450190449
 30
0.0
 10
230.3225405193219
 20
41.15128481441553
 30
0.0
 10
230.1408507727515
 20
41.06325089295719
 30
0.0
 10
230.0483701741731
 20
41.02899440365312
 30
0.0
 10
229.8599297405258
 20
40.97979708483625
 30
0.0
 10
229.7656892696368
 20
40.96542153797265
 30
0.0
 10
229.5801327057739
 20
40.95649643426778
 30
0.0
 10
229.4875859897005
 20
40.96195085795043
 30
0.0
 10
229.3075884867817
 20
40.9924952573712
 30
0.0
 10
229.2210720589215
 20
41.01725081492467
 30
0.0
 10
229.0546728396311
 20
41.0851450680249
 30
0.0
 10
228.9740733340238
 20
41.12887247166579
 30
0.0
 10
228.8247008847249
 20
41.23246958859153
 30
0.0
 10
228.7556462987771
 20
41.29220592730839
 30
0.0
 10
228.6289051169646
 20
41.42755376968751
 30
0.0
 10
228.5708845722813
 20
41.50396337625008
 30
0.0
 10
228.4713233105961
 20
41.66739427565208
 30
0.0
 10
228.4291813480776
 20
41.75482292479637
 30
0.0
 10
228.3609412635083
 20
41.94140818666107
 30
0.0
 10
228.3349876262499
 20
42.04109372160179
 30
0.0
 10
228.3026527770973
 20
42.24370901118942
 30
0.0
 10
228.2957840166921
 20
42.34765139241554
 30
0.0
 10
228.3021510263883
 20
42.56103508448418
 30
0.0
 10
228.3156091614494
 20
42.66931014190708
 30
0.0
 10
228.3624688784393
 20
42.88093103003812
 30
0.0
 10
228.3961175131132
 20
42.98602708098724
 30
0.0
 10
228.4841359132674
 20
43.19082975096738
 30
0.0
 10
228.5375102972748
 20
43.28846741758015
 30
0.0
 10
228.6001886148769
 20
43.3810520164309
 30
0.0
  0
LWPOLYLINE
  5
1D6
330
1F
100
AcDbEntity
  8
0
  6
Continuous
 62
     7
370
    25
100
AcDbPolyline
 90
       22
 70
   128
 43
0.0
 10
243.1370919834
 20
27.2140597109
 10
243.3221291607
 20
28.4092258474
 10
243.6321291097
 20
29.6663527558
 10
244.058978562
 20
30.936306264
 10
244.5956692869
 20
32.198234947
 10
245.2333889712
 20
33.4314175883
 10
245.9616657693
 20
34.6156053746
 10
246.7685418301
 20
35.7313536312
 10
247.6407678966
 20
36.7603421492
 10
248.5640219428
 20
37.685674787
 10
249.5231446858
 20
38.4921576352
 10
250.5023869925
 20
39.1665483063
 10
251.4856698813
 20
39.6977737119
 10
252.4568477754
 20
40.077110172
 10
253.3999738961
 20
40.2983305405
 10
254.2995623223
 20
40.357800735
 10
255.140841736
 20
40.2545448517
 10
255.9099983429
 20
39.990258403
 10
256.5944029059
 20
39.5692815851
 10
257.1828170336
 20
38.9985259689
 10
257.6655788903
 20
38.2873634552
 10
257.8627965068
 20
37.8872285402
  0
ARC
  5
1D7
330
1F
100
AcDbEntity
  8
0
  6
Continuous
 62
     7
370
    25
100
AcDbCircle
 10
247.3070325842
 20
24.489480052
 30
0.0
 40
3.962512061503532
100
AcDbArc
 50
222.9784608651
 51
278.0744963249
  0
LINE
  5
1D8
330
1F
100
AcDbEntity
  8
0
  6
Continuous
 62
     7
370
    25
100
AcDbLine
 10
254.9412553348
 20
16.480413345
 30
0.0
 11
254.7861697496
 21
16.5756760644
 31
0.0
  0
ARC
  5
1D9
330
1F
100
AcDbEntity
  8
0
  6
Continuous
 62
     7
370
    25
100
AcDbCircle
 10
248.6251875132
 20
24.5644381959
 30
0.0
 40
3.844255115327123
100
AcDbArc
 50
200.8997354189
 51
238.7824012387
  0
LWPOLYLINE
  5
1DA
330
1F
100
AcDbEntity
  8
0
  6
Continuous
 62
     7
370
    25
100
AcDbPolyline
 90
       19
 70
   128
 43
0.0
 10
244.5750476242
 20
26.3725896566
 10
244.5912432093
 20
26.6235186475
 10
244.7419228025
 20
27.7934402122
 10
245.0169290134
 20
29.0020443164
 10
245.4113003677
 20
30.2275238692
 10
245.9179212918
 20
31.4477671783
 10
246.5276492125
 20
32.6407557085
 10
247.2294838023
 20
33.7849652098
 10
248.0107612502
 20
34.8597491621
 10
248.8573840941
 20
35.8457151834
 10
249.7540770646
 20
36.7250731073
 10
250.684660382
 20
37.4819562531
 10
251.6323431367
 20
38.1027079027
 10
252.5800258915
 20
38.5761274717
 10
253.5106092088
 20
38.8936729542
 10
254.4073021794
 20
39.0496146971
 10
255.2539250232
 20
39.0411386048
 10
256.0352024712
 20
38.8683983934
 10
256.6319366502
 20
38.5977883346
  0
LWPOLYLINE
  5
1DB
330
1F
100
AcDbEntity
  8
0
  6
Continuous
 62
     7
370
    25
100
AcDbPolyline
 90
       17
 70
   128
 43
0.0
 10
257.3657863812
 20
27.6486790377
 10
257.2985048644
 20
28.0004340392
 10
257.1069029862
 20
28.2209560279
 10
256.8201506462
 20
28.2766722026
 10
256.4819030891
 20
28.1591002564
 10
256.143655532
 20
27.8861398859
 10
255.8569028627
 20
27.4993463165
 10
255.6653009845
 20
27.057605508
 10
255.5980194677
 20
26.6281689208
 10
255.6653009845
 20
26.2764139193
 10
255.8569028627
 20
26.0558923109
 10
256.143655532
 20
26.0001763262
 10
256.4819030891
 20
26.1177482724
 10
256.8201506462
 20
26.3907086429
 10
257.1069029862
 20
26.7775020223
 10
257.2985048644
 20
27.2192424505
 10
257.3657863812
 20
27.6486790377
  0
ARC
  5
1DC
330
1F
100
AcDbEntity
  8
0
  6
Continuous
 62
     7
370
    25
100
AcDbCircle
 10
259.2149346758
 20
25.4994730681
 30
0.0
 40
15.79220561095152
100
AcDbArc
 50
122.5692405987
 51
169.410191744
  0
LWPOLYLINE
  5
1DD
330
1F
100
AcDbEntity
  8
0
  6
Continuous
 62
     7
370
    25
100
AcDbPolyline
 90
       18
 70
   128
 43
0.0
 10
244.2512603874
 20
26.5708639234
 10
244.305000912
 20
27.2797823976
 10
244.4900492846
 20
28.4379159866
 10
244.7947933898
 20
29.6272863346
 10
245.2137929916
 20
30.826667912
 10
245.7395726218
 20
32.0146587626
 10
246.3627486799
 20
33.1700586316
 10
247.0722013125
 20
34.2722495619
 10
247.8552700015
 20
35.301562228
 10
248.6979807617
 20
36.2396299106
 10
249.5852955646
 20
37.0697119549
 10
250.5013802014
 20
37.7769951741
 10
251.4298871279
 20
38.3488582736
 10
252.3542471173
 20
38.7750972535
 10
253.2579650291
 20
39.0481045176
 10
254.1249136846
 20
39.1630088655
 10
254.939622803
 20
39.1177601626
 10
255.0937462547
 20
39.0897677006
  0
LWPOLYLINE
  5
1DE
330
1F
100
AcDbEntity
  8
0
  6
Continuous
 62
     7
370
    25
100
AcDbPolyline
 90
        3
 70
   128
 43
0.0
 10
245.4374860729
 20
22.3628215602
 10
245.2137929916
 20
22.6413480154
 10
244.9743336961
 20
23.0107968932
  0
ARC
  5
1DF
330
1F
100
AcDbEntity
  8
0
  6
Continuous
 62
     7
370
    25
100
AcDbCircle
 10
253.9307547812
 20
35.2549898097
 30
0.0
 40
4.084516194816295
100
AcDbArc
 50
66.1185152111
 51
105.2945562305
  0
ARC
  5
1E0
330
1F
100
AcDbEntity
  8
0
  6
Continuous
 62
     7
370
    25
100
AcDbCircle
 10
247.7877390297
 20
24.907296736
 30
0.0
 40
3.549126634005574
100
AcDbArc
 50
215.8062121448
 51
235.3411848349
  0
ARC
  5
1E1
330
1F
100
AcDbEntity
  8
0
  6
Continuous
 62
     7
370
    25
100
AcDbCircle
 10
254.2004257952
 20
34.7762419833
 30
0.0
 40
4.410637010187554
100
AcDbArc
 50
75.5957203883
 51
104.3663991275
  0
LWPOLYLINE
  5
1E2
330
1F
100
AcDbEntity
  8
0
  6
Continuous
 62
     7
370
    25
100
AcDbPolyline
 90
        3
 70
   128
 43
0.0
 10
245.5754136103
 20
22.2070387841
 10
245.1651081132
 20
22.680887491
 10
244.964900046
 20
22.9835716485
  0
LWPOLYLINE
  5
1E3
330
1F
100
AcDbEntity
  8
0
  6
Continuous
 62
     7
370
    25
100
AcDbPolyline
 90
       17
 70
   128
 43
0.0
 10
229.289963542
 20
41.3937936458
 10
229.6757889641
 20
41.2809294439
 10
230.0980226779
 20
41.3500545055
 10
230.4923900809
 20
41.5906437646
 10
230.7988490361
 20
41.9660696855
 10
230.9707442992
 20
42.4191775722
 10
230.9819066286
 20
42.8809864115
 10
230.8306382965
 20
43.2811871569
 10
230.5399639947
 20
43.5588579331
 10
230.1541418653
 20
43.671720234
 10
229.7319074929
 20
43.6025955527
 10
229.3375407485
 20
43.3620059133
 10
229.0310811348
 20
42.9865803727
 10
228.8591865302
 20
42.5334721057
 10
228.8480235423
 20
42.0716636467
 10
228.9992925328
 20
41.671462521
 10
229.289963542
 20
41.3937936458
  0
SPLINE
  5
1E4
330
1F
100
AcDbEntity
  8
0
  6
Continuous
 62
     7
370
    25
100
AcDbSpline
210
0.0
220
0.0
230
1.0
 70
     8
 71
     3
 72
    14
 73
    10
 74
     0
 42
0.000000001
 43
0.00000001
 40
0.0
 40
0.0
 40
0.0
 40
0.0
 40
0.25
 40
0.25
 40
0.5
 40
0.5
 40
0.75
 40
0.75
 40
1.0
 40
1.0
 40
1.0
 40
1.0
 10
208.7465485585624
 20
39.69424014602806
 30
0.0
 10
208.69937545133
 20
39.66700769088192
 30
0.0
 10
208.6438113866312
 20
39.64526333274098
 30
0.0
 10
208.5218859145122
 20
39.61501790533496
 30
0.0
 10
208.4557893936363
 20
39.60671887522466
 30
0.0
 10
208.3235974644996
 20
39.6052862594449
 30
0.0
 10
208.2566623129688
 20
39.6122362336265
 30
0.0
 10
208.1340518212986
 20
39.64044558723591
 30
0.0
 10
208.0771163664948
 20
39.66202143154357
 30
0.0
 10
208.0303738231226
 20
39.68900532746396
 30
0.0
  0
SPLINE
  5
1E5
330
1F
100
AcDbEntity
  8
0
  6
Continuous
 62
     7
370
    25
100
AcDbSpline
210
0.0
220
0.0
230
1.0
 70
     8
 71
     3
 72
    12
 73
     8
 74
     0
 42
0.000000001
 43
0.00000001
 40
0.0
 40
0.0
 40
0.0
 40
0.0
 40
0.2500000000000032
 40
0.2500000000000032
 40
0.5000000000000064
 40
0.5000000000000064
 40
1.0
 40
1.0
 40
1.0
 40
1.0
 10
236.3588369792024
 20
67.45422992261825
 30
0.0
 10
236.4126089981504
 20
67.42318799682552
 30
0.0
 10
236.4650972732686
 20
67.3742133675687
 30
0.0
 10
236.5561032002072
 20
67.25748249271918
 30
0.0
 10
236.5946775537365
 20
67.19003102738606
 30
0.0
 10
236.6845011430327
 20
66.98571380037916
 30
0.0
 10
236.7123903697957
 20
66.84535097118174
 30
0.0
 10
236.7123903697957
 20
66.72253424612707
 30
0.0
  0
LINE
  5
1E6
330
1F
100
AcDbEntity
  8
0
  6
Continuous
 62
     7
370
    25
100
AcDbLine
 10
208.0303733639
 20
39.6890050307
 30
0.0
 11
206.3729254972
 21
40.6458293176
 31
0.0
  0
LWPOLYLINE
  5
1E7
330
1F
100
AcDbEntity
  8
0
  6
Continuous
 62
     7
370
    25
100
AcDbPolyline
 90
       25
 70
   128
 43
0.0
 10
206.3729254972
 20
40.6458293176
 10
206.7623979388
 20
42.5342506502
 10
207.2719915329
 20
44.4481544693
 10
207.8980737479
 20
46.3739010733
 10
208.6361849204
 20
48.2977664266
 10
209.4810632798
 20
50.2060406374
 10
210.4266870952
 20
52.085121871
 10
211.4663181391
 20
53.9216197686
 10
212.5925471272
 20
55.7024463185
 10
213.7973477191
 20
57.4149101481
 10
215.0721331529
 20
59.046805493
 10
216.4078194658
 20
60.5865049676
 10
217.7948867383
 20
62.0230329438
 10
219.2234502173
 20
63.346153758
 10
220.6833288047
 20
64.5464371048
 10
222.1641179913
 20
65.6153290383
 10
223.6552650129
 20
66.5452105677
 10
225.1461428544
 20
67.3294571099
 10
226.6261263117
 20
67.9624763146
 10
228.0846683831
 20
68.4397612902
 10
229.5113741081
 20
68.7579058529
 10
230.8960758887
 20
68.9146464886
 10
232.2289047769
 20
68.9088639615
 10
233.5003632439
 20
68.7406009881
 10
234.7013897173
 20
68.4110538664
  0
LINE
  5
1E8
330
1F
100
AcDbEntity
  8
0
  6
Continuous
 62
     7
370
    25
100
AcDbLine
 10
234.7013897173
 20
68.4110538664
 30
0.0
 11
236.358837584
 21
67.4542295795
 31
0.0
  0
LINE
  5
1E9
330
1F
100
AcDbEntity
  8
0
  6
Continuous
 62
     7
370
    25
100
AcDbLine
 10
242.0940088493
 20
58.5370486297
 30
0.0
 11
242.588002841
 21
58.822225291
 31
0.0
  0
LINE
  5
1EA
330
1F
100
AcDbEntity
  8
0
  6
Continuous
 62
     7
370
    25
100
AcDbLine
 10
208.7465490774
 20
30.7122914649
 30
0.0
 11
210.1074971576
 21
31.4979500684
 31
0.0
  0
LINE
  5
1EB
330
1F
100
AcDbEntity
  8
0
  6
Continuous
 62
     7
370
    25
100
AcDbLine
 10
210.1074971576
 20
31.4979500684
 30
0.0
 11
210.1074971576
 21
40.4798989505
 31
0.0
  0
LINE
  5
1EC
330
1F
100
AcDbEntity
  8
0
  6
Continuous
 62
     7
370
    25
100
AcDbLine
 10
210.1074971576
 20
40.4798989505
 30
0.0
 11
208.7465490774
 21
39.694240347
 31
0.0
  0
LINE
  5
1ED
330
1F
100
AcDbEntity
  8
0
  6
Continuous
 62
     7
370
    25
100
AcDbLine
 10
236.7123910326
 20
66.7225350944
 30
0.0
 11
236.7123910326
 21
64.1468807422
 31
0.0
  0
LINE
  5
1EE
330
1F
100
AcDbEntity
  8
0
  6
Continuous
 62
     7
370
    25
100
AcDbLine
 10
238.9428523051
 20
65.4344986272
 30
0.0
 11
236.7123910326
 21
64.1468807422
 31
0.0
  0
LWPOLYLINE
  5
1EF
330
1F
100
AcDbEntity
  8
0
  6
Continuous
 62
     7
370
    25
100
AcDbPolyline
 90
       22
 70
   128
 43
0.0
 10
205.3941400146
 20
42.192031757
 10
205.8067405393
 20
44.1022317173
 10
206.3469393309
 20
46.0368883586
 10
207.0104242398
 20
47.9805555633
 10
207.7919005681
 20
49.9177173435
 10
208.6851253141
 20
51.8329049487
 10
209.6829703918
 20
53.7108299414
 10
210.7774660957
 20
55.5364967412
 10
211.9598768329
 20
57.2953330372
 10
213.2207610507
 20
58.9732935855
 10
214.5500522379
 20
60.5569822558
 10
215.9371372911
 20
62.0337550672
 10
217.3709417966
 20
63.3918226519
 10
218.840019263
 20
64.6203413129
 10
220.3326400248
 20
65.7095038905
 10
221.8368873231
 20
66.6506134798
 10
223.3407516468
 20
67.4361576651
 10
224.8322260473
 20
68.0598635433
 10
226.2994029543
 20
68.5167520938
 10
227.7305690012
 20
68.8031746693
 10
229.1142967944
 20
68.9168446794
 10
230.3254424627
 20
68.8691112278
  0
SPLINE
  5
1F0
330
1F
100
AcDbEntity
  8
0
  6
Continuous
 62
     7
370
    25
100
AcDbSpline
210
0.0
220
0.0
230
1.0
 70
     8
 71
     3
 72
     8
 73
     4
 74
     0
 42
0.000000001
 43
0.00000001
 40
0.0
 40
0.0
 40
0.0
 40
0.0
 40
1.0
 40
1.0
 40
1.0
 40
1.0
 10
205.3941401974592
 20
42.19203204046766
 30
0.0
 10
204.9516038436138
 20
42.1203455100384
 30
0.0
 10
204.5089946535621
 20
42.04880934443664
 30
0.0
 10
204.0663229473457
 20
41.97740318813194
 30
0.0
  0
LWPOLYLINE
  5
1F1
330
1F
100
AcDbEntity
  8
0
  6
Continuous
 62
     7
370
    25
100
AcDbPolyline
 90
       25
 70
   128
 43
0.0
 10
204.06632265
 20
41.9774027979
 10
204.4557950917
 20
43.8658241305
 10
204.9653886857
 20
45.7797279497
 10
205.5914709008
 20
47.7054745537
 10
206.3295820733
 20
49.6293399069
 10
207.1744604327
 20
51.5376141177
 10
208.1200842481
 20
53.4166953513
 10
209.1597152919
 20
55.253193249
 10
210.28594428
 20
57.0340197988
 10
211.4907448719
 20
58.7464836284
 10
212.7655303058
 20
60.3783789734
 10
214.1012166187
 20
61.9180784479
 10
215.4882838911
 20
63.3546064241
 10
216.9168473702
 20
64.6777272383
 10
218.3767259576
 20
65.8780105852
 10
219.8575151442
 20
66.9469025186
 10
221.3486621657
 20
67.8767840481
 10
222.8395400072
 20
68.6610305902
 10
224.3195234646
 20
69.294049795
 10
225.778065536
 20
69.7713347705
 10
227.2047712609
 20
70.0894793332
 10
228.5894730415
 20
70.246219969
 10
229.9223019298
 20
70.2404374418
 10
231.1937603968
 20
70.0721744684
 10
232.3947868701
 20
69.7426273467
  0
LINE
  5
1F2
330
1F
100
AcDbEntity
  8
0
  6
Continuous
 62
     7
370
    25
100
AcDbLine
 10
232.3947868701
 20
69.7426273467
 30
0.0
 11
232.6909619942
 21
68.7987191671
 31
0.0
  0
LINE
  5
1F3
330
1F
100
AcDbEntity
  8
0
  6
Continuous
 62
     7
370
    25
100
AcDbLine
 10
228.2271095846
 20
72.1485762316
 30
0.0
 11
232.3947868701
 21
69.7426273467
 31
0.0
  0
LINE
  5
1F4
330
1F
100
AcDbEntity
  8
0
  6
Continuous
 62
     7
370
    25
100
AcDbLine
 10
204.06632265
 20
41.9774027979
 30
0.0
 11
203.4341791914
 21
42.3423314489
 31
0.0
  0
SPLINE
  5
1F5
330
1F
100
AcDbEntity
  8
0
  6
Continuous
 62
     7
370
    25
100
AcDbSpline
210
0.0
220
0.0
230
1.0
 70
     8
 71
     3
 72
    30
 73
    26
 74
     0
 42
0.000000001
 43
0.00000001
 40
0.0
 40
0.0
 40
0.0
 40
0.0
 40
0.1250000000000002
 40
0.1250000000000002
 40
0.1875000000000003
 40
0.1875000000000003
 40
0.2500000000000004
 40
0.2500000000000004
 40
0.3750000000000001
 40
0.3750000000000001
 40
0.4374999999999998
 40
0.4374999999999998
 40
0.4999999999999996
 40
0.4999999999999996
 40
0.6249999999999996
 40
0.6249999999999996
 40
0.6874999999999997
 40
0.6874999999999997
 40
0.7499999999999997
 40
0.7499999999999997
 40
0.8124999999999998
 40
0.8124999999999998
 40
0.8749999999999999
 40
0.8749999999999999
 40
1.0
 40
1.0
 40
1.0
 40
1.0
 10
203.4341797454101
 20
42.34233169088778
 30
0.0
 10
203.1998641118035
 20
42.47759922691841
 30
0.0
 10
202.9643636352748
 20
42.58086175584777
 30
0.0
 10
202.6098131878851
 20
42.69010449361155
 30
0.0
 10
202.4914189244861
 20
42.71885745560824
 30
0.0
 10
202.2543642794358
 20
42.76081062025795
 30
0.0
 10
202.1355443682
 20
42.77391575516005
 30
0.0
 10
201.7869004842238
 20
42.78916714417437
 30
0.0
 10
201.5621356415818
 20
42.76808838273237
 30
0.0
 10
201.2379249939781
 20
42.69108533085667
 30
0.0
 10
201.1315089180668
 20
42.65757672582346
 30
0.0
 10
200.9261996880944
 20
42.57603837969982
 30
0.0
 10
200.8276049575866
 20
42.5282327745985
 30
0.0
 10
200.5441069637877
 20
42.36456556504559
 30
0.0
 10
200.3713639901175
 20
42.228653468569
 30
0.0
 10
200.1392391916215
 20
41.98428233166392
 30
0.0
 10
200.0669252057955
 20
41.89646524645627
 30
0.0
 10
199.9346068917258
 20
41.71108467751601
 30
0.0
 10
199.874252953005
 20
41.61316367747568
 30
0.0
 10
199.7652898188619
 20
41.40707582677143
 30
0.0
 10
199.7166799937638
 20
41.29890901992717
 30
0.0
 10
199.6316441778692
 20
41.07221930642043
 30
0.0
 10
199.5950932986941
 20
40.95307887869765
 30
0.0
 10
199.5060990216013
 20
40.58509455024353
 30
0.0
 10
199.4737624646211
 20
40.32586942494686
 30
0.0
 10
199.4690765583243
 20
40.05266284351671
 30
0.0
  0
ARC
  5
1F6
330
1F
100
AcDbEntity
  8
0
  6
Continuous
 62
     7
370
    25
100
AcDbCircle
 10
223.0317541792
 20
39.6443925776
 30
0.0
 40
23.5662141819747
100
AcDbArc
 50
179.0073355702
 51
180.9926644298
  0
SPLINE
  5
1F7
330
1F
100
AcDbEntity
  8
0
  6
Continuous
 62
     7
370
    25
100
AcDbSpline
210
0.0
220
0.0
230
1.0
 70
     8
 71
     3
 72
    30
 73
    26
 74
     0
 42
0.000000001
 43
0.00000001
 40
0.0
 40
0.0
 40
0.0
 40
0.0
 40
0.1249999999999996
 40
0.1249999999999996
 40
0.1874999999999994
 40
0.1874999999999994
 40
0.2499999999999993
 40
0.2499999999999993
 40
0.3749999999999992
 40
0.3749999999999992
 40
0.4374999999999993
 40
0.4374999999999993
 40
0.4999999999999994
 40
0.4999999999999994
 40
0.6249999999999992
 40
0.6249999999999992
 40
0.6874999999999993
 40
0.6874999999999993
 40
0.7499999999999994
 40
0.7499999999999994
 40
0.8124999999999997
 40
0.8124999999999997
 40
0.8749999999999998
 40
0.8749999999999998
 40
1.0
 40
1.0
 40
1.0
 40
1.0
 10
199.4690765583243
 20
39.23612203163096
 30
0.0
 10
199.473762804983
 20
38.96830623099923
 30
0.0
 10
199.5060723253018
 20
38.69459006601382
 30
0.0
 10
199.5937303806704
 20
38.27534191881841
 30
0.0
 10
199.6295245519838
 20
38.1341315001261
 30
0.0
 10
199.7143851668363
 20
37.84863088513396
 30
0.0
 10
199.76363781475
 20
37.70404582030293
 30
0.0
 10
199.9278421509194
 20
37.27495355115132
 30
0.0
 10
200.0598946089797
 20
36.99198073566748
 30
0.0
 10
200.2899451764987
 20
36.57097682493034
 30
0.0
 10
200.3724082149925
 20
36.43057175505654
 30
0.0
 10
200.5461599502116
 20
36.15390746096232
 30
0.0
 10
200.6369615420453
 20
36.01832291191594
 30
0.0
 10
200.9203560142766
 20
35.6192258451563
 30
0.0
 10
201.1238358889437
 20
35.36329890214912
 30
0.0
 10
201.4497438761925
 20
34.99367292211343
 30
0.0
 10
201.5614844916536
 20
34.87335407492792
 30
0.0
 10
201.7867885957909
 20
34.64251647679711
 30
0.0
 10
201.90091124327
 20
34.53135388271756
 30
0.0
 10
202.1318210298344
 20
34.31728007354258
 30
0.0
 10
202.2486084458432
 20
34.21436894680811
 30
0.0
 10
202.484691408313
 20
34.01681077989289
 30
0.0
 10
202.6045687827027
 20
33.92173900728751
 30
0.0
 10
202.9630520378665
 20
33.65293392868493
 30
0.0
 10
203.1998607044297
 20
33.49565226321016
 30
0.0
 10
203.4341797454101
 20
33.36038276014454
 30
0.0
  0
LINE
  5
1F8
330
1F
100
AcDbEntity
  8
0
  6
Continuous
 62
     7
370
    25
100
AcDbLine
 10
203.4341791914
 20
33.3603825668
 30
0.0
 11
204.06632265
 21
32.9954539159
 31
0.0
  0
LWPOLYLINE
  5
1F9
330
1F
100
AcDbEntity
  8
0
  6
Continuous
 62
     7
370
    25
100
AcDbPolyline
 90
        9
 70
   128
 43
0.0
 10
210.0185100139
 20
25.2168330432
 10
209.2052417908
 20
25.5770721846
 10
208.1558537515
 20
26.2110286392
 10
207.2013435366
 20
26.9981037593
 10
206.3485955703
 20
27.9326238458
 10
205.6037580242
 20
29.0078452974
 10
204.9722059385
 20
30.2160169718
 10
204.45849249
 20
31.5484227768
 10
204.06632265
 20
32.9954539159
  0
LINE
  5
1FA
330
1F
100
AcDbEntity
  8
0
  6
Continuous
 62
     7
370
    25
100
AcDbLine
 10
234.3467391336
 20
68.6152849666
 30
0.0
 11
234.6991500074
 21
68.4118424995
 31
0.0
  0
SPLINE
  5
1FB
330
1F
100
AcDbEntity
  8
0
  6
Continuous
 62
     7
370
    25
100
AcDbSpline
210
0.0
220
0.0
230
1.0
 70
     8
 71
     3
 72
    22
 73
    18
 74
     0
 42
0.000000001
 43
0.00000001
 40
0.0
 40
0.0
 40
0.0
 40
0.0
 40
0.2500000000000002
 40
0.2500000000000002
 40
0.3750000000000003
 40
0.3750000000000003
 40
0.5000000000000004
 40
0.5000000000000004
 40
0.6250000000000004
 40
0.6250000000000004
 40
0.7500000000000004
 40
0.7500000000000004
 40
0.8750000000000004
 40
0.8750000000000004
 40
0.9375000000000002
 40
0.9375000000000002
 40
1.0
 40
1.0
 40
1.0
 40
1.0
 10
228.2271089955571
 20
72.14857656559884
 30
0.0
 10
228.6591410910962
 20
71.9803061274924
 30
0.0
 10
229.1095157394616
 20
71.7696301226122
 30
0.0
 10
229.8344891811458
 20
71.38453588635555
 30
0.0
 10
230.0864565048652
 20
71.24341034807975
 30
0.0
 10
230.5992486179975
 20
70.94439337886257
 30
0.0
 10
230.8607699300566
 20
70.78622754150676
 30
0.0
 10
231.3983446116551
 20
70.45362760016928
 30
0.0
 10
231.6763071563179
 20
70.27792978880325
 30
0.0
 10
232.2289130750633
 20
69.92628687270988
 30
0.0
 10
232.5059090002347
 20
69.74890804358716
 30
0.0
 10
233.0640965801313
 20
69.3945976242746
 30
0.0
 10
233.3342726692911
 20
69.22473978456215
 30
0.0
 10
233.7257399843876
 20
68.98417079958743
 30
0.0
 10
233.8539872144955
 20
68.90630291703904
 30
0.0
 10
234.105848853677
 20
68.75569662154061
 30
0.0
 10
234.2287410875234
 20
68.68340378232968
 30
0.0
 10
234.3467397463828
 20
68.61528460652758
 30
0.0
  0
LWPOLYLINE
  5
1FC
330
1F
100
AcDbEntity
  8
0
  6
Continuous
 62
     7
370
    25
100
AcDbPolyline
 90
       12
 70
   128
 43
0.0
 10
215.8860367685
 20
71.3484650495
 10
215.9401108047
 20
71.3784691483
 10
217.4177172046
 20
72.1241231826
 10
218.8823626664
 20
72.7198922667
 10
220.323773361
 20
73.1615990724
 10
221.7318393129
 20
73.4461449017
 10
223.0966833424
 20
73.5715327553
 10
224.4087325173
 20
73.5368842461
 10
225.6587836779
 20
73.3424424452
 10
226.8380683043
 20
72.9895713052
 10
227.9383144189
 20
72.4807442472
 10
228.0688814043
 20
72.4069283116
  0
LWPOLYLINE
  5
1FD
330
1F
100
AcDbEntity
  8
0
  6
Continuous
 62
     7
370
    25
100
AcDbPolyline
 90
       10
 70
   128
 43
0.0
 10
203.0709138371
 20
29.1044849494
 10
202.683431517
 20
29.3424914397
 10
201.7160230493
 20
30.0782220761
 10
200.8457907263
 20
30.9589912442
 10
200.0788379385
 20
31.9786196104
 10
199.4205423604
 20
33.1299552768
 10
198.8755243401
 20
34.4049239756
 10
198.447604753
 20
35.7945811639
 10
198.1397852449
 20
37.289179707
 10
197.9848916254
 20
38.5166999798
  0
LINE
  5
1FE
330
1F
100
AcDbEntity
  8
0
  6
Continuous
 62
     7
370
    25
100
AcDbLine
 10
205.7152410483
 20
42.3773994381
 30
0.0
 11
205.3941400146
 21
42.192031757
 31
0.0
  0
LINE
  5
1FF
330
1F
100
AcDbEntity
  8
0
  6
Continuous
 62
     7
370
    25
100
AcDbLine
 10
206.6758902151
 20
42.1589851298
 30
0.0
 11
206.2892356855
 21
42.3821960386
 31
0.0
  0
SPLINE
  5
200
330
1F
100
AcDbEntity
  8
0
  6
Continuous
 62
     7
370
    25
100
AcDbSpline
210
0.0
220
0.0
230
1.0
 70
     8
 71
     3
 72
    12
 73
     8
 74
     0
 42
0.000000001
 43
0.00000001
 40
0.0
 40
0.0
 40
0.0
 40
0.0
 40
0.250000000000003
 40
0.250000000000003
 40
0.500000000000006
 40
0.500000000000006
 40
1.0
 40
1.0
 40
1.0
 40
1.0
 10
206.2892358521513
 20
42.38219651833354
 30
0.0
 10
206.2518438145684
 20
42.40378248215998
 30
0.0
 10
206.2056955037135
 20
42.42122261718244
 30
0.0
 10
206.1069956663309
 20
42.44367874549678
 30
0.0
 10
206.0534841000355
 20
42.44906505109739
 30
0.0
 10
205.8948866803341
 20
42.44698389228725
 30
0.0
 10
205.7901725857163
 20
42.42065667179644
 30
0.0
 10
205.7152407471895
 20
42.37739944217095
 30
0.0
  0
LWPOLYLINE
  5
201
330
1F
100
AcDbEntity
  8
0
  6
Continuous
 62
     7
370
    25
100
AcDbPolyline
 90
       18
 70
   128
 43
0.0
 10
198.1128708807
 20
44.0810509234
 10
198.143962084
 20
44.3154329354
 10
198.4569300931
 20
46.1730242961
 10
198.8919237653
 20
48.0643698998
 10
199.4458084288
 20
49.9758410248
 10
200.114594621
 20
51.893667203
 10
200.893461796
 20
53.8040289948
 10
201.7768004718
 20
55.6931633085
 10
202.7582451571
 20
57.5474584558
 10
203.8307230839
 20
59.3535537672
 10
204.9865095252
 20
61.0984361663
 10
206.21727521
 20
62.7695344619
 10
207.514153495
 20
64.3548098376
 10
208.8677996337
 20
65.8428372154
 10
210.2684609112
 20
67.2228959341
 10
211.7060454621
 20
68.4850444587
 10
213.1701956985
 20
69.620188625
 10
214.4597415843
 20
70.499551987
  0
LINE
  5
202
330
1F
100
AcDbEntity
  8
0
  6
Continuous
 62
     7
370
    25
100
AcDbLine
 10
205.1577495365
 20
34.355378548
 30
0.0
 11
210.1074971576
 21
31.4979500684
 31
0.0
  0
ARC
  5
203
330
1F
100
AcDbEntity
  8
0
  6
Continuous
 62
     7
370
    25
100
AcDbCircle
 10
209.2982960473
 20
40.8284070023
 30
0.0
 40
7.684023866253082
100
AcDbArc
 50
182.6054781208
 51
237.3945216397
  0
LINE
  5
204
330
1F
100
AcDbEntity
  8
0
  6
Continuous
 62
     7
370
    25
100
AcDbLine
 10
201.6222157096
 20
41.2956436483
 30
0.0
 11
201.6222157096
 21
40.4791027976
 31
0.0
  0
ARC
  5
205
330
1F
100
AcDbEntity
  8
0
  6
Continuous
 62
     7
370
    25
100
AcDbCircle
 10
204.8349586567
 20
41.4087914992
 30
0.0
 40
3.214734776046435
100
AcDbArc
 50
155.343366055
 51
182.0170353142
  0
SPLINE
  5
206
330
1F
100
AcDbEntity
  8
0
  6
Continuous
 62
     7
370
    25
100
AcDbSpline
210
0.0
220
0.0
230
1.0
 70
     8
 71
     3
 72
     8
 73
     4
 74
     0
 42
0.000000001
 43
0.00000001
 40
0.0
 40
0.0
 40
0.0
 40
0.0
 40
1.0
 40
1.0
 40
1.0
 40
1.0
 10
189.866445774562
 20
45.78897374034343
 30
0.0
 10
190.3333080002288
 20
45.40873215308149
 30
0.0
 10
190.8003427846123
 20
45.04182550453865
 30
0.0
 10
191.2674678967876
 20
44.68189917894669
 30
0.0
  0
SPLINE
  5
207
330
1F
100
AcDbEntity
  8
0
  6
Continuous
 62
     7
370
    25
100
AcDbSpline
210
0.0
220
0.0
230
1.0
 70
     8
 71
     3
 72
    14
 73
    10
 74
     0
 42
0.000000001
 43
0.00000001
 40
0.0
 40
0.0
 40
0.0
 40
0.0
 40
0.1249999999999987
 40
0.1249999999999987
 40
0.2499999999999973
 40
0.2499999999999973
 40
0.4999999999999947
 40
0.4999999999999947
 40
1.0
 40
1.0
 40
1.0
 40
1.0
 10
191.2674678967877
 20
44.68189917894664
 30
0.0
 10
191.2938918354609
 20
44.66153917066103
 30
0.0
 10
191.3179557779656
 20
44.64602686734637
 30
0.0
 10
191.3542250353908
 20
44.62904349878701
 30
0.0
 10
191.366243410379
 20
44.62716925738108
 30
0.0
 10
191.3917576570494
 20
44.63131009871632
 30
0.0
 10
191.3959513194974
 20
44.64625248677934
 30
0.0
 10
191.397058129233
 20
44.70060382312447
 30
0.0
 10
191.3814301441443
 20
44.75202478380049
 30
0.0
 10
191.3617774115107
 20
44.80837361138645
 30
0.0
  0
SPLINE
  5
208
330
1F
100
AcDbEntity
  8
0
  6
Continuous
 62
     7
370
    25
100
AcDbSpline
210
0.0
220
0.0
230
1.0
 70
     8
 71
     3
 72
    14
 73
    10
 74
     0
 42
0.000000001
 43
0.00000001
 40
0.0
 40
0.0
 40
0.0
 40
0.0
 40
0.25
 40
0.25
 40
0.5
 40
0.5
 40
0.75
 40
0.75
 40
1.0
 40
1.0
 40
1.0
 40
1.0
 10
191.3617774115102
 20
44.80837361138681
 30
0.0
 10
191.3371115635723
 20
44.87909617392462
 30
0.0
 10
191.3262486928478
 20
44.94216247167483
 30
0.0
 10
191.304298325653
 20
45.07372921263342
 30
0.0
 10
191.294026730834
 20
45.1416825516251
 30
0.0
 10
191.2647227164754
 20
45.29028755546853
 30
0.0
 10
191.2459300452457
 20
45.37075136189941
 30
0.0
 10
191.1930107407295
 20
45.55032223571374
 30
0.0
 10
191.1589315635506
 20
45.6491532816416
 30
0.0
 10
191.1148453112729
 20
45.75675333662087
 30
0.0
  0
LWPOLYLINE
  5
209
330
1F
100
AcDbEntity
  8
0
  6
Continuous
 62
     7
370
    25
100
AcDbPolyline
 90
        9
 70
   128
 43
0.0
 10
191.1148450324
 20
45.7567534891
 10
190.7467647506
 20
46.8278988688
 10
190.4816360488
 20
47.9919017462
 10
190.3216690023
 20
49.239052989
 10
190.2681978225
 20
50.558949625
 10
190.3216690023
 20
51.9405827711
 10
190.4816360488
 20
53.3724280344
 10
190.7467647506
 20
54.8425419951
 10
191.1148450324
 20
56.3386638224
  0
SPLINE
  5
20A
330
1F
100
AcDbEntity
  8
0
  6
Continuous
 62
     7
370
    25
100
AcDbSpline
210
0.0
220
0.0
230
1.0
 70
     8
 71
     3
 72
    14
 73
    10
 74
     0
 42
0.000000001
 43
0.00000001
 40
0.0
 40
0.0
 40
0.0
 40
0.0
 40
0.25
 40
0.25
 40
0.5
 40
0.5
 40
0.75
 40
0.75
 40
1.0
 40
1.0
 40
1.0
 40
1.0
 10
191.3617774115102
 20
58.39216401069532
 30
0.0
 10
191.3371115635723
 20
58.22049147920246
 30
0.0
 10
191.3262486928478
 20
58.04551174702686
 30
0.0
 10
191.304298325653
 20
57.69670524338567
 30
0.0
 10
191.294026730834
 20
57.52249115144988
 30
0.0
 10
191.2647227164754
 20
57.17644023949879
 30
0.0
 10
191.2459300452457
 20
57.00455738558354
 30
0.0
 10
191.1930107407295
 20
56.66452571668932
 30
0.0
 10
191.1589315635506
 20
56.4971648561922
 30
0.0
 10
191.1148453112729
 20
56.33866389778926
 30
0.0
  0
SPLINE
  5
20B
330
1F
100
AcDbEntity
  8
0
  6
Continuous
 62
     7
370
    25
100
AcDbSpline
210
0.0
220
0.0
230
1.0
 70
     8
 71
     3
 72
    14
 73
    10
 74
     0
 42
0.000000001
 43
0.00000001
 40
0.0
 40
0.0
 40
0.0
 40
0.0
 40
0.124999999999999
 40
0.124999999999999
 40
0.249999999999998
 40
0.249999999999998
 40
0.5000000000000007
 40
0.5000000000000007
 40
1.0
 40
1.0
 40
1.0
 40
1.0
 10
191.2674678967877
 20
59.14090775433798
 30
0.0
 10
191.2938918354609
 20
59.13660145506577
 30
0.0
 10
191.3179557779657
 20
59.12071794852536
 30
0.0
 10
191.3542250353908
 20
59.07157337563395
 30
0.0
 10
191.366243410379
 20
59.04056202028162
 30
0.0
 10
191.3917576570494
 20
58.94370347841419
 30
0.0
 10
191.3959513194974
 20
58.87342285753804
 30
0.0
 10
191.397058129233
 20
58.66702145546016
 30
0.0
 10
191.3814301441443
 20
58.52894561943798
 30
0.0
 10
191.3617774115107
 20
58.39216401069523
 30
0.0
  0
SPLINE
  5
20C
330
1F
100
AcDbEntity
  8
0
  6
Continuous
 62
     7
370
    25
100
AcDbSpline
210
0.0
220
0.0
230
1.0
 70
     8
 71
     3
 72
     8
 73
     4
 74
     0
 42
0.000000001
 43
0.00000001
 40
0.0
 40
0.0
 40
0.0
 40
0.0
 40
1.0
 40
1.0
 40
1.0
 40
1.0
 10
189.866445774562
 20
59.31012064822294
 30
0.0
 10
190.3333080002288
 20
59.27803089415764
 30
0.0
 10
190.8003427846123
 20
59.21703495685199
 30
0.0
 10
191.2674678967877
 20
59.140907754338
 30
0.0
  0
SPLINE
  5
20D
330
1F
100
AcDbEntity
  8
0
  6
Continuous
 62
     7
370
    25
100
AcDbSpline
210
0.0
220
0.0
230
1.0
 70
     8
 71
     3
 72
    14
 73
    10
 74
     0
 42
0.000000001
 43
0.00000001
 40
0.0
 40
0.0
 40
0.0
 40
0.0
 40
0.5000000000000012
 40
0.5000000000000012
 40
0.7500000000000018
 40
0.7500000000000018
 40
0.8750000000000009
 40
0.8750000000000009
 40
1.0
 40
1.0
 40
1.0
 40
1.0
 10
187.0219083973434
 20
60.2347025243854
 30
0.0
 10
187.4869429300585
 20
60.03835727512451
 30
0.0
 10
187.9537988513403
 20
59.85070476365641
 30
0.0
 10
188.6608252369449
 20
59.60068680671192
 30
0.0
 10
188.897610219836
 20
59.52252554891306
 30
0.0
 10
189.2563908579677
 20
59.42195828351805
 30
0.0
 10
189.3765896819688
 20
59.39123678726641
 30
0.0
 10
189.6191917800786
 20
59.33996208088183
 30
0.0
 10
189.7414435376674
 20
59.31871267134883
 30
0.0
 10
189.866445774562
 20
59.31012064822289
 30
0.0
  0
SPLINE
  5
20E
330
1F
100
AcDbEntity
  8
0
  6
Continuous
 62
     7
370
    25
100
AcDbSpline
210
0.0
220
0.0
230
1.0
 70
     8
 71
     3
 72
    14
 73
    10
 74
     0
 42
0.000000001
 43
0.00000001
 40
0.0
 40
0.0
 40
0.0
 40
0.0
 40
0.5000000000000012
 40
0.5000000000000012
 40
0.7500000000000018
 40
0.7500000000000018
 40
0.8750000000000009
 40
0.8750000000000009
 40
1.0
 40
1.0
 40
1.0
 40
1.0
 10
187.0219083973434
 20
47.91175854851118
 30
0.0
 10
187.4869429300585
 20
47.57691323227274
 30
0.0
 10
187.9537988513403
 20
47.23812505720114
 30
0.0
 10
188.6608252369449
 20
46.71582931016832
 30
0.0
 10
188.897610219836
 20
46.53940760207791
 30
0.0
 10
189.2563908579677
 20
46.26732545055891
 30
0.0
 10
189.3765896819688
 20
46.17538008920197
 30
0.0
 10
189.6191917800786
 20
45.98695406837163
 30
0.0
 10
189.7414435376674
 20
45.89078332431696
 30
0.0
 10
189.866445774562
 20
45.78897374034345
 30
0.0
  0
SPLINE
  5
20F
330
1F
100
AcDbEntity
  8
0
  6
Continuous
 62
     7
370
    25
100
AcDbSpline
210
0.0
220
0.0
230
1.0
 70
     8
 71
     3
 72
    17
 73
    13
 74
     0
 42
0.000000001
 43
0.00000001
 40
0.0
 40
0.0
 40
0.0
 40
0.0
 40
0.1207961882900952
 40
0.2420175987944839
 40
0.3632153541307872
 40
0.4839596318162575
 40
0.6040258967628624
 40
0.6645178707182005
 40
0.7242649424600393
 40
0.8441758508052679
 40
0.9646454444514005
 40
1.0
 40
1.0
 40
1.0
 40
1.0
 10
195.4801515248605
 20
45.46798271112721
 30
0.0
 10
195.2763832338896
 20
45.84187229886559
 30
0.0
 10
194.8681293544476
 20
46.59096762645486
 30
0.0
 10
194.6748619921855
 20
47.73928608250802
 30
0.0
 10
194.8802201652279
 20
48.69162307511817
 30
0.0
 10
195.4395263306042
 20
49.32509632736726
 30
0.0
 10
196.1153680106711
 20
49.46638260104237
 30
0.0
 10
196.6903673430133
 20
49.34023189677264
 30
0.0
 10
197.2701573001088
 20
49.05198266764495
 30
0.0
 10
197.9372080321208
 20
48.39469155327383
 30
0.0
 10
198.4678385741484
 20
47.56926706402051
 30
0.0
 10
198.6269029078929
 20
47.04735509970372
 30
0.0
 10
198.6629926208946
 20
46.92893978584337
 30
0.0
  0
SPLINE
  5
210
330
1F
100
AcDbEntity
  8
0
  6
Continuous
 62
     7
370
    25
100
AcDbSpline
210
0.0
220
0.0
230
1.0
 70
     8
 71
     3
 72
    12
 73
     8
 74
     0
 42
0.000000001
 43
0.00000001
 40
0.0
 40
0.0
 40
0.0
 40
0.0
 40
0.0353744433893711
 40
0.3560360900717853
 40
0.5160472232178944
 40
0.6782077942890793
 40
1.0
 40
1.0
 40
1.0
 40
1.0
 10
197.9833760057454
 20
43.43579213485338
 30
0.0
 10
197.9606697205941
 20
43.43194526171197
 30
0.0
 10
197.7321358919096
 20
43.3932273190099
 30
0.0
 10
197.2583214332002
 20
43.6568139674202
 30
0.0
 10
196.6896210664009
 20
44.06623787815406
 30
0.0
 10
196.1061727090335
 20
44.60246585042342
 30
0.0
 10
195.7301670285916
 20
45.12231927450969
 30
0.0
 10
195.4801515248605
 20
45.46798271112721
 30
0.0
  0
ARC
  5
211
330
1F
100
AcDbEntity
  8
0
  6
Continuous
 62
     7
370
    25
100
AcDbCircle
 10
217.1311245252
 20
31.0459646525
 30
0.0
 40
8.70192927394054
100
AcDbArc
 50
214.5542627763
 51
265.4839169162
  0
SPLINE
  5
212
330
1F
100
AcDbEntity
  8
0
  6
Continuous
 62
     7
370
    25
100
AcDbSpline
210
0.0
220
0.0
230
1.0
 70
     8
 71
     3
 72
    14
 73
    10
 74
     0
 42
0.000000001
 43
0.00000001
 40
0.0
 40
0.0
 40
0.0
 40
0.0
 40
0.25
 40
0.25
 40
0.5
 40
0.5
 40
0.75
 40
0.75
 40
1.0
 40
1.0
 40
1.0
 40
1.0
 10
208.0303738231227
 20
30.70705639672072
 30
0.0
 10
208.0775949865463
 20
30.6797961993259
 30
0.0
 10
208.1338817459776
 20
30.65851426780175
 30
0.0
 10
208.2573110940508
 20
30.63015963797064
 30
0.0
 10
208.3239644175107
 20
30.62331625563046
 30
0.0
 10
208.4560892944523
 20
30.62479837125963
 30
0.0
 10
208.522448650437
 20
30.6331889029458
 30
0.0
 10
208.6437028825577
 20
30.66330722641711
 30
0.0
 10
208.699813985035
 20
30.68531192025789
 30
0.0
 10
208.7465485585624
 20
30.7122912152848
 30
0.0
  0
LINE
  5
213
330
1F
100
AcDbEntity
  8
0
  6
Continuous
 62
     7
370
    25
100
AcDbLine
 10
206.3729254972
 20
31.6638804356
 30
0.0
 11
208.0303733639
 21
30.7070561487
 31
0.0
  0
SPLINE
  5
214
330
1F
100
AcDbEntity
  8
0
  6
Continuous
 62
     7
370
    25
100
AcDbSpline
210
0.0
220
0.0
230
1.0
 70
     8
 71
     3
 72
     8
 73
     4
 74
     0
 42
0.000000001
 43
0.00000001
 40
0.0
 40
0.0
 40
0.0
 40
0.0
 40
1.0
 40
1.0
 40
1.0
 40
1.0
 10
206.7447141495255
 20
32.43041336293373
 30
0.0
 10
206.6205359816405
 20
32.17494256370765
 30
0.0
 10
206.4966182814987
 20
31.9194297170347
 30
0.0
 10
206.3729257884665
 20
31.66388078054803
 30
0.0
  0
LINE
  5
215
330
1F
100
AcDbEntity
  8
0
  6
Continuous
 62
     7
370
    25
100
AcDbLine
 10
207.0658150769
 20
32.6157807651
 30
0.0
 11
206.7447140431
 21
32.430413084
 31
0.0
  0
SPLINE
  5
216
330
1F
100
AcDbEntity
  8
0
  6
Continuous
 62
     7
370
    25
100
AcDbSpline
210
0.0
220
0.0
230
1.0
 70
     8
 71
     3
 72
    12
 73
     8
 74
     0
 42
0.000000001
 43
0.00000001
 40
0.0
 40
0.0
 40
0.0
 40
0.0
 40
0.2500000000000014
 40
0.2500000000000014
 40
0.5000000000000029
 40
0.5000000000000029
 40
1.0
 40
1.0
 40
1.0
 40
1.0
 10
207.0741243792684
 20
32.94714108552869
 30
0.0
 10
207.1115164168513
 20
32.92555512170225
 30
0.0
 10
207.1417268901687
 20
32.8989142689122
 30
0.0
 10
207.1806262601782
 20
32.8419360656064
 30
0.0
 10
207.1899566261081
 20
32.81104449592959
 30
0.0
 10
207.1863515626943
 20
32.71948815436753
 30
0.0
 10
207.1407465377827
 20
32.6590379942625
 30
0.0
 10
207.065814699256
 20
32.61578076463704
 30
0.0
  0
LINE
  5
217
330
1F
100
AcDbEntity
  8
0
  6
Continuous
 62
     7
370
    25
100
AcDbLine
 10
206.2892356855
 20
33.4002471566
 30
0.0
 11
207.0741239329
 21
32.9471408159
 31
0.0
  0
SPLINE
  5
218
330
1F
100
AcDbEntity
  8
0
  6
Continuous
 62
     7
370
    25
100
AcDbSpline
210
0.0
220
0.0
230
1.0
 70
     8
 71
     3
 72
    14
 73
    10
 74
     0
 42
0.000000001
 43
0.00000001
 40
0.0
 40
0.0
 40
0.0
 40
0.0
 40
0.25
 40
0.25
 40
0.5
 40
0.5
 40
0.75
 40
0.75
 40
1.0
 40
1.0
 40
1.0
 40
1.0
 10
205.7152407471896
 20
33.39545051142773
 30
0.0
 10
205.7530865449681
 20
33.41729842543934
 30
0.0
 10
205.7974054621161
 20
33.43467107022826
 30
0.0
 10
205.8951069986682
 20
33.45903254492012
 30
0.0
 10
205.94786013028
 20
33.46574650945168
 30
0.0
 10
206.0538134875084
 20
33.46710395903769
 30
0.0
 10
206.1071777738038
 20
33.4617262578986
 30
0.0
 10
206.2063555485755
 20
33.43908531438277
 30
0.0
 10
206.2513624419767
 20
33.4221114418989
 30
0.0
 10
206.2892358521513
 20
33.4002475875903
 30
0.0
  0
LINE
  5
219
330
1F
100
AcDbEntity
  8
0
  6
Continuous
 62
     7
370
    25
100
AcDbLine
 10
205.3941400146
 20
33.210082875
 30
0.0
 11
205.7152410483
 21
33.3954505561
 31
0.0
  0
SPLINE
  5
21A
330
1F
100
AcDbEntity
  8
0
  6
Continuous
 62
     7
370
    25
100
AcDbSpline
210
0.0
220
0.0
230
1.0
 70
     8
 71
     3
 72
     8
 73
     4
 74
     0
 42
0.000000001
 43
0.00000001
 40
0.0
 40
0.0
 40
0.0
 40
0.0
 40
1.0
 40
1.0
 40
1.0
 40
1.0
 10
204.0663229473457
 20
32.99545425738869
 30
0.0
 10
204.5089946535621
 20
33.06686041369339
 30
0.0
 10
204.9516038436138
 20
33.13839657929517
 30
0.0
 10
205.3941401974592
 20
33.21008310972441
 30
0.0
  0
LWPOLYLINE
  5
21B
330
1F
100
AcDbEntity
  8
0
  6
Continuous
 62
     7
370
    25
100
AcDbPolyline
 90
        8
 70
   128
 43
0.0
 10
211.1185065401
 20
24.4587085701
 10
210.4624565987
 20
24.8794551588
 10
209.5079463837
 20
25.666530279
 10
208.6551984174
 20
26.6010503655
 10
207.9103608713
 20
27.6762718171
 10
207.2788087856
 20
28.8844434915
 10
206.7650953371
 20
30.2168492964
 10
206.3729254972
 20
31.6638804356
  0
ARC
  5
21C
330
1F
100
AcDbEntity
  8
0
  6
Continuous
 62
     7
370
    25
100
AcDbCircle
 10
216.9061195584
 20
35.6722684261
 30
0.0
 40
11.77234176809893
100
AcDbArc
 50
192.0725460793
 51
215.0022747034
  0
SPLINE
  5
21D
330
1F
100
AcDbEntity
  8
0
  6
Continuous
 62
     7
370
    25
100
AcDbSpline
210
0.0
220
0.0
230
1.0
 70
     8
 71
     3
 72
    12
 73
     8
 74
     0
 42
0.000000001
 43
0.00000001
 40
0.0
 40
0.0
 40
0.0
 40
0.0
 40
0.1675503883347434
 40
0.4025161747753053
 40
0.6381208840270863
 40
0.8774598722428354
 40
0.9999999999999999
 40
0.9999999999999999
 40
0.9999999999999999
 40
0.9999999999999999
 10
196.9031094730182
 20
49.12818479114517
 30
0.0
 10
196.8686015578667
 20
48.95090549430292
 30
0.0
 10
196.7857011591013
 20
48.52501698911346
 30
0.0
 10
196.9803361997601
 20
47.7140747908922
 30
0.0
 10
197.4137912172181
 20
46.84174737871759
 30
0.0
 10
197.9356376126221
 20
46.14058261590434
 30
0.0
 10
198.301086379023
 20
45.82998755614286
 30
0.0
 10
198.4248352679387
 20
45.72481332357741
 30
0.0
  0
SPLINE
  5
21E
330
1F
100
AcDbEntity
  8
0
  6
Continuous
 62
     7
370
    25
100
AcDbSpline
210
0.0
220
0.0
230
1.0
 70
     8
 71
     3
 72
    11
 73
     7
 74
     0
 42
0.000000001
 43
0.00000001
 40
0.0
 40
0.0
 40
0.0
 40
0.0
 40
0.1889487415400878
 40
0.3635157627967836
 40
0.6686735586554259
 40
1.0
 40
1.0
 40
1.0
 40
1.0
 10
195.7704649443041
 20
45.65039279616721
 30
0.0
 10
195.8970060216579
 20
45.46720806795501
 30
0.0
 10
196.1404565780599
 20
45.11478160739217
 30
0.0
 10
196.657153110614
 20
44.55338060187781
 30
0.0
 10
197.3314791861142
 20
43.99535835917128
 30
0.0
 10
197.7863255430643
 20
43.83833132990495
 30
0.0
 10
198.0230990811947
 20
43.75658978194402
 30
0.0
  0
SPLINE
  5
21F
330
1F
100
AcDbEntity
  8
0
  6
Continuous
 62
     7
370
    25
100
AcDbSpline
210
0.0
220
0.0
230
1.0
 70
     8
 71
     3
 72
    15
 73
    11
 74
     0
 42
0.000000001
 43
0.00000001
 40
0.0
 40
0.0
 40
0.0
 40
0.0
 40
0.0285605575140947
 40
0.1766231786262573
 40
0.2612396331333766
 40
0.3527785380977456
 40
0.5145481059714542
 40
0.6763327681591422
 40
0.8381560932852216
 40
1.0
 40
1.0
 40
1.0
 40
1.0
 10
197.4252605230469
 20
48.85170157436535
 30
0.0
 10
197.3824203151284
 20
48.89454764802306
 30
0.0
 10
197.117489433025
 20
49.15951480482114
 30
0.0
 10
196.6563897257691
 20
49.27205082215919
 30
0.0
 10
196.1463152920408
 20
49.27929086454859
 30
0.0
 10
195.660457026946
 20
49.10351512109574
 30
0.0
 10
195.2084820522221
 20
48.61533191031654
 30
0.0
 10
195.0190019066426
 20
47.73459203586116
 30
0.0
 10
195.1978212691195
 20
46.68159294229642
 30
0.0
 10
195.5795756274841
 20
45.99414074961458
 30
0.0
 10
195.7704649443041
 20
45.65039279616721
 30
0.0
  0
SPLINE
  5
220
330
1F
100
AcDbEntity
  8
0
  6
Continuous
 62
     7
370
    25
100
AcDbSpline
210
0.0
220
0.0
230
1.0
 70
     8
 71
     3
 72
     9
 73
     5
 74
     0
 42
0.000000001
 43
0.00000001
 40
0.0
 40
0.0
 40
0.0
 40
0.0
 40
0.1883710221454139
 40
1.0
 40
1.0
 40
1.0
 40
1.0
 10
236.7123903740103
 20
66.70954848357006
 30
0.0
 10
236.7547665147335
 20
66.71908120605258
 30
0.0
 10
236.9797275530106
 20
66.76968730445324
 30
0.0
 10
237.2054951541521
 20
66.81908539487814
 30
0.0
 10
237.3887346814993
 20
66.85917831651767
 30
0.0
  0
LINE
  5
221
330
1F
100
AcDbEntity
  8
0
  6
Continuous
 62
     7
370
    25
100
AcDbLine
 10
237.3887346815
 20
66.8591783165
 30
0.0
 11
239.0461825482
 21
65.9023540296
 31
0.0
  0
SPLINE
  5
222
330
1F
100
AcDbEntity
  8
0
  6
Continuous
 62
     7
370
    25
100
AcDbSpline
210
0.0
220
0.0
230
1.0
 70
     8
 71
     3
 72
    16
 73
    12
 74
     0
 42
0.000000001
 43
0.00000001
 40
0.0
 40
0.0
 40
0.0
 40
0.0
 40
0.125
 40
0.125
 40
0.25
 40
0.25
 40
0.5
 40
0.5
 40
0.75
 40
0.75
 40
1.0
 40
1.0
 40
1.0
 40
1.0
 10
239.0461831350868
 20
65.90235368458708
 30
0.0
 10
239.0729251026453
 20
65.88691587531864
 30
0.0
 10
239.0958957012917
 20
65.86902415591142
 30
0.0
 10
239.1318726534159
 20
65.83084415936628
 30
0.0
 10
239.145135192195
 20
65.8105603418957
 30
0.0
 10
239.1718903029007
 20
65.74643401060096
 30
0.0
 10
239.1710732976404
 20
65.70194115897179
 30
0.0
 10
239.1429929073941
 20
65.61686146662788
 30
0.0
 10
239.1154235524697
 20
65.57548861058156
 30
0.0
 10
239.0422493967102
 20
65.50005747787354
 30
0.0
 10
238.9960155582975
 20
65.46518850304975
 30
0.0
 10
238.9428517733692
 20
65.43449770328269
 30
0.0
  0
LINE
  5
223
330
1F
100
AcDbEntity
  8
0
  6
Continuous
 62
     7
370
    25
100
AcDbLine
 10
189.6591343732
 20
51.610902616
 30
0.0
 11
190.2819080606
 21
51.2513830189
 31
0.0
  0
SPLINE
  5
224
330
1F
100
AcDbEntity
  8
0
  6
Continuous
 62
     7
370
    25
100
AcDbSpline
210
0.0
220
0.0
230
1.0
 70
     8
 71
     3
 72
    11
 73
     7
 74
     0
 42
0.000000001
 43
0.00000001
 40
0.0
 40
0.0
 40
0.0
 40
0.0
 40
0.0466304722500908
 40
0.4281527877979693
 40
0.8088298298119748
 40
1.0
 40
1.0
 40
1.0
 40
1.0
 10
242.5880028410286
 20
58.8222252909929
 30
0.0
 10
242.5929802823489
 20
58.82517287270544
 30
0.0
 10
242.6386822723685
 20
58.85223704912469
 30
0.0
 10
242.7051184966471
 20
58.91347591976266
 30
0.0
 10
242.7477385328571
 20
58.99724974253174
 30
0.0
 10
242.7339059752624
 20
59.04740674979915
 30
0.0
 10
242.7292817114152
 20
59.0641743818009
 30
0.0
  0
LINE
  5
225
330
1F
100
AcDbEntity
  8
0
  6
Continuous
 62
     7
370
    25
100
AcDbLine
 10
187.0071440294
 20
61.2923333564
 30
0.0
 11
187.0233178825
 21
61.3409589706
 31
0.0
  0
SPLINE
  5
226
330
1F
100
AcDbEntity
  8
0
  6
Continuous
 62
     7
370
    25
100
AcDbSpline
210
0.0
220
0.0
230
1.0
 70
     8
 71
     3
 72
    16
 73
    12
 74
     0
 42
0.000000001
 43
0.00000001
 40
0.0
 40
0.0
 40
0.0
 40
0.0
 40
0.0332838850724123
 40
0.1625854311030977
 40
0.239429833395794
 40
0.3008069245191573
 40
0.3624173839861106
 40
0.4362069101913193
 40
0.5596777462223994
 40
0.9141728339414532
 40
1.0
 40
1.0
 40
1.0
 40
1.0
 10
187.0494956852576
 20
61.41965267654799
 30
0.0
 10
187.0511390157421
 20
61.42466629917261
 30
0.0
 10
187.0591663717636
 20
61.44915688956009
 30
0.0
 10
187.0697799886879
 20
61.47377957380437
 30
0.0
 10
187.0798364438359
 20
61.49119596453667
 30
0.0
 10
187.0846950476391
 20
61.49056756654956
 30
0.0
 10
187.0858975954445
 20
61.47519918543605
 30
0.0
 10
187.0826191001263
 20
61.43862938698735
 30
0.0
 10
187.0671098029954
 20
61.33830435425271
 30
0.0
 10
187.0441151605183
 20
61.22300857805224
 30
0.0
 10
187.0254103070487
 20
61.13396399264705
 30
0.0
 10
187.0217643760264
 20
61.11660751258587
 30
0.0
  0
SPLINE
  5
227
330
1F
100
AcDbEntity
  8
0
  6
Continuous
 62
     7
370
    25
100
AcDbSpline
210
0.0
220
0.0
230
1.0
 70
     8
 71
     3
 72
     9
 73
     5
 74
     0
 42
0.000000001
 43
0.00000001
 40
0.0
 40
0.0
 40
0.0
 40
0.0
 40
0.7766522094856231
 40
1.0
 40
1.0
 40
1.0
 40
1.0
 10
186.9559803894905
 20
60.85413782065652
 30
0.0
 10
186.9527940795236
 20
60.96297361035142
 30
0.0
 10
186.948691458134
 20
61.10310813693312
 30
0.0
 10
186.9964722868762
 20
61.25778632488726
 30
0.0
 10
187.0071440294047
 20
61.29233335640757
 30
0.0
  0
SPLINE
  5
228
330
1F
100
AcDbEntity
  8
0
  6
Continuous
 62
     7
370
    25
100
AcDbSpline
210
0.0
220
0.0
230
1.0
 70
     8
 71
     3
 72
     8
 73
     4
 74
     0
 42
0.000000001
 43
0.00000001
 40
0.0
 40
0.0
 40
0.0
 40
0.0
 40
1.0
 40
1.0
 40
1.0
 40
1.0
 10
186.9326792469726
 20
60.25569947417591
 30
0.0
 10
186.9612815425468
 20
60.25414605904238
 30
0.0
 10
186.9909779222842
 20
60.24776188107968
 30
0.0
 10
187.0219083973422
 20
60.23470252439175
 30
0.0
  0
SPLINE
  5
229
330
1F
100
AcDbEntity
  8
0
  6
Continuous
 62
     7
370
    25
100
AcDbSpline
210
0.0
220
0.0
230
1.0
 70
     8
 71
     3
 72
    10
 73
     6
 74
     0
 42
0.000000001
 43
0.00000001
 40
0.0
 40
0.0
 40
0.0
 40
0.0
 40
0.4999999999999989
 40
0.4999999999999989
 40
1.0
 40
1.0
 40
1.0
 40
1.0
 10
187.0217645696394
 20
61.11660748837026
 30
0.0
 10
186.9917760997305
 20
60.97481663220026
 30
0.0
 10
186.9713428005439
 20
60.83255881615695
 30
0.0
 10
186.9427098133181
 20
60.54574854798719
 30
0.0
 10
186.9348387536717
 20
60.40129201479166
 30
0.0
 10
186.9326792469734
 20
60.2556994741722
 30
0.0
  0
ARC
  5
22A
330
1F
100
AcDbEntity
  8
0
  6
Continuous
 62
     7
370
    25
100
AcDbCircle
 10
188.152031
 20
60.0876532785
 30
0.0
 40
1.230877198383525
100
AcDbArc
 50
172.1531384875
 51
234.5145852444
  0
ARC
  5
22B
330
1F
100
AcDbEntity
  8
0
  6
Continuous
 62
     7
370
    25
100
AcDbCircle
 10
190.6651791369
 20
47.8842905355
 30
0.0
 40
3.734047488377542
100
AcDbArc
 50
122.5266350896
 51
178.3504233083
  0
SPLINE
  5
22C
330
1F
100
AcDbEntity
  8
0
  6
Continuous
 62
     7
370
    25
100
AcDbSpline
210
0.0
220
0.0
230
1.0
 70
     8
 71
     3
 72
     8
 73
     4
 74
     0
 42
0.000000001
 43
0.00000001
 40
0.0
 40
0.0
 40
0.0
 40
0.0
 40
1.0
 40
1.0
 40
1.0
 40
1.0
 10
186.9326792469733
 20
47.99178070660985
 30
0.0
 10
186.9612815425473
 20
47.96108330275193
 30
0.0
 10
186.9909779222845
 20
47.93402985090161
 30
0.0
 10
187.0219083973422
 20
47.91175854850662
 30
0.0
  0
LINE
  5
22D
330
1F
100
AcDbEntity
  8
0
  6
Continuous
 62
     7
370
    25
100
AcDbLine
 10
188.6574131025
 20
51.0326212355
 30
0.0
 11
189.6591343732
 21
51.610902616
 31
0.0
  0
SPLINE
  5
22E
330
1F
100
AcDbEntity
  8
0
  6
Continuous
 62
     7
370
    25
100
AcDbSpline
210
0.0
220
0.0
230
1.0
 70
     8
 71
     3
 72
     9
 73
     5
 74
     0
 42
0.000000001
 43
0.00000001
 40
0.0
 40
0.0
 40
0.0
 40
0.0
 40
0.3901117718169397
 40
1.0
 40
1.0
 40
1.0
 40
1.0
 10
186.9664848329374
 20
49.05893157492198
 30
0.0
 10
186.957407276295
 20
49.01214552154859
 30
0.0
 10
186.9341381588311
 20
48.89221565335852
 30
0.0
 10
186.9477057036314
 20
48.77136062691621
 30
0.0
 10
186.9559803894905
 20
48.6976525689723
 30
0.0
  0
ARC
  5
22F
330
1F
100
AcDbEntity
  8
0
  6
Continuous
 62
     7
370
    25
100
AcDbCircle
 10
189.4500940476
 20
48.5714998692
 30
0.0
 40
2.530988818361965
100
AcDbArc
 50
122.9343808406
 51
168.8962913337
  0
LINE
  5
230
330
1F
100
AcDbEntity
  8
0
  6
Continuous
 62
     7
370
    25
100
AcDbLine
 10
188.6574131025
 20
51.0326212355
 30
0.0
 11
188.0740506697
 21
50.6957430335
 31
0.0
  0
LINE
  5
231
330
1F
100
AcDbEntity
  8
0
  6
Continuous
 62
     7
370
    25
100
AcDbLine
 10
186.9921944105
 20
47.8526595078
 30
0.0
 11
186.9326791092
 21
47.9917809449
 31
0.0
  0
LWPOLYLINE
  5
232
330
1F
100
AcDbEntity
  8
0
  6
Continuous
 62
     7
370
    18
100
AcDbPolyline
 90
       30
 70
   128
 43
0.0
 10
240.0462824824
 20
22.1638525955
 10
240.246364109
 20
22.8998649884
 10
240.5572800934
 20
23.6356855635
 10
240.964493724
 20
24.3369089689
 10
241.4489651622
 20
24.9707473524
 10
241.9880404768
 20
25.5075626578
 10
242.5565112427
 20
25.9222530395
 10
243.1277986033
 20
26.195429378
 10
243.6751893594
 20
26.314318023
 10
244.1730872031
 20
26.2733591606
 10
244.5982119273
 20
26.07446849
 10
244.9306853661
 20
25.7269463414
 10
245.1549599423
 20
25.2470412732
 10
245.2605503102
 20
24.6571941985
 10
245.242518703
 20
23.9849853356
 10
245.1017087163
 20
23.2618466756
 10
244.844703161
 20
22.5215906803
 10
244.4835204743
 20
21.7988315895
 10
244.0350490302
 20
21.1273645957
 10
243.5202582029
 20
20.5385862933
 10
242.9632197697
 20
20.0600281234
 10
242.3899798246
 20
19.7140663538
 10
241.827342446
 20
19.5168778877
 10
241.3016171457
 20
19.4776839109
 10
240.8373840973
 20
19.5983154028
 10
240.4563515621
 20
19.873133015
 10
240.1763358031
 20
20.2892859147
 10
240.0104313194
 20
20.8273162398
 10
239.966393131
 20
21.4620647797
 10
240.0462824824
 20
22.1638525955
  0
ARC
  5
233
330
1F
100
AcDbEntity
  8
0
  6
Continuous
 62
     7
370
    18
100
AcDbCircle
 10
245.5546718539
 20
21.1831814623
 30
0.0
 40
5.947094882034523
100
AcDbArc
 50
118.6951688781
 51
169.9880108089
  0
LWPOLYLINE
  5
234
330
1F
100
AcDbEntity
  8
0
  6
Continuous
 62
     7
370
    18
100
AcDbPolyline
 90
        3
 70
   128
 43
0.0
 10
239.6267698745
 20
21.0351989869
 10
239.6129272689
 20
21.4685352829
 10
239.6981429282
 20
22.2171091573
  0
LWPOLYLINE
  5
235
330
1F
100
AcDbEntity
  8
0
  6
Continuous
 62
     7
370
    18
100
AcDbPolyline
 90
       18
 70
   128
 43
0.0
 10
261.6765634127
 20
35.6855880267
 10
261.7189749961
 20
35.7763300839
 10
262.1132936668
 20
36.4846665483
 10
262.5878803519
 20
37.1302167977
 10
263.1205440772
 20
37.6827953893
 10
263.6863780308
 20
38.1165645115
 10
264.2589251871
 20
38.4112422497
 10
264.8114124192
 20
38.5530484866
 10
265.3180070016
 20
38.5353534593
 10
265.7550224054
 20
38.358985253
 10
266.1020213605
 20
38.0321888229
 10
266.3427812813
 20
37.5702464327
 10
266.466042374
 20
36.9947567839
 10
266.466042374
 20
36.3326298719
 10
266.3427812813
 20
35.6148259948
 10
266.1020213605
 20
34.8749081168
 10
265.7550224054
 20
34.147475221
 10
265.3504982705
 20
33.5111441431
  0
ARC
  5
236
330
1F
100
AcDbEntity
  8
0
  6
Continuous
 62
     7
370
    18
100
AcDbCircle
 10
266.6702480156
 20
33.5749589761
 30
0.0
 40
5.769156024862486
100
AcDbArc
 50
118.0052607
 51
156.6590947667
  0
LWPOLYLINE
  5
237
330
1F
100
AcDbEntity
  8
0
  6
Continuous
 62
     7
370
    18
100
AcDbPolyline
 90
       40
 70
   128
 43
0.0
 10
266.6583607486
 20
13.4555204599
 10
267.3780298761
 20
13.4766397124
 10
268.1431579194
 20
13.6624178718
 10
268.9339283276
 20
14.0080432813
 10
269.7298606957
 20
14.5045639825
 10
270.5103407697
 20
15.1391210562
 10
271.255154526
 20
15.8952797543
 10
271.9450115082
 20
16.7534551907
 10
272.5620453217
 20
17.6914221851
 10
273.0902744082
 20
18.6848869686
 10
273.5160181643
 20
19.7081194222
 10
273.8282502499
 20
20.7346188291
 10
274.0188840677
 20
21.7377993098
 10
274.0829821803
 20
22.6916788772
 10
274.0188840677
 20
23.5715523391
 10
273.8282502499
 20
24.3546316987
 10
273.5160181643
 20
25.0206356129
 10
273.0902744082
 20
25.5523147888
 10
272.5620453217
 20
25.9358992506
 10
271.9450115082
 20
26.1614541681
 10
271.255154526
 20
26.2231376867
 10
270.5103407697
 20
26.1193527263
 10
269.7298606957
 20
25.8527866875
 10
268.9339283276
 20
25.430343437
 10
268.1431579194
 20
24.8629647671
 10
267.3780298761
 20
24.1653448913
 10
266.6583607486
 20
23.3555518557
 10
266.0027895691
 20
22.4545587611
 10
265.4282954259
 20
21.4857013846
 10
264.9497571445
 20
20.4740724649
 10
264.5795685324
 20
19.4458720176
 10
264.3273176684
 20
18.4277306484
 10
264.1995376434
 20
17.4460174606
 10
264.1995376434
 20
16.5261581253
 10
264.3273176684
 20
15.6919766142
 10
264.5795685324
 20
14.9650778933
 10
264.9497571445
 20
14.3642881197
 10
265.4282954259
 20
13.9051677393
 10
266.0027895691
 20
13.5996071819
 10
266.6583607486
 20
13.4555204599
  0
LWPOLYLINE
  5
238
330
1F
100
AcDbEntity
  8
0
  6
Continuous
 62
     7
370
    18
100
AcDbPolyline
 90
       23
 70
   128
 43
0.0
 10
264.9697614218
 20
13.5788875834
 10
264.8658661474
 20
13.6464112277
 10
264.3654490418
 20
14.0958607632
 10
263.9684981687
 20
14.6845978099
 10
263.6843167865
 20
15.3988219452
 10
263.5195667313
 20
16.221792997
 10
263.4781093789
 20
17.1342209865
 10
263.5609160824
 20
18.1147192297
 10
263.7660464405
 20
19.1403059596
 10
264.0886920903
 20
20.186942017
 10
264.5212903069
 20
21.2300952936
 10
265.0537018096
 20
22.245315007
 10
265.6734468509
 20
23.2088055433
 10
266.3659997497
 20
24.0979835631
 10
267.1151270547
 20
24.8920068722
 10
267.9032700761
 20
25.5722648366
 10
268.711955421
 20
26.1228127194
 10
269.5222281566
 20
26.5307456962
 10
270.3150962349
 20
26.7865029453
 10
271.0719755966
 20
26.8840888584
 10
271.7751254644
 20
26.8212167248
 10
272.4080644448
 20
26.5993599668
 10
272.4451121832
 20
26.5802251453
  0
LWPOLYLINE
  5
239
330
1F
100
AcDbEntity
  8
0
  6
Continuous
 62
     7
370
    18
100
AcDbPolyline
 90
       34
 70
   128
 43
0.0
 10
236.9598779856
 20
22.4875752951
 10
237.0223145904
 20
24.037153358
 10
237.2090554223
 20
25.6447839505
 10
237.5184132904
 20
27.2959103553
 10
237.947582795
 20
28.9755774772
 10
238.4926798406
 20
30.6685756625
 10
239.1487666604
 20
32.3595721612
 10
239.9099025246
 20
34.033253329
 10
240.7691944477
 20
35.6744618862
 10
241.7188597507
 20
37.2683345553
 10
242.7502978423
 20
38.8004370368
 10
243.8541692444
 20
40.2568940406
 10
245.0204765927
 20
41.6245174167
 10
246.2386568334
 20
42.8909186949
 10
247.4976790166
 20
44.0446332209
 10
248.7861406089
 20
45.0752092173
 10
250.092373354
 20
45.9733145227
 10
251.4045476523
 20
46.7308166212
 10
252.7107803975
 20
47.3408555416
 10
253.9992419897
 20
47.7979056347
 10
255.258264173
 20
48.0978271799
 10
256.4764444137
 20
48.2379068698
 10
257.642751762
 20
48.2168732951
 10
258.7466231641
 20
48.0349190836
 10
259.7780612557
 20
47.6936896742
 10
260.7277265587
 20
47.1962772251
 10
261.5870184818
 20
46.5471860045
 10
262.3481543459
 20
45.7522935999
 10
263.0042411658
 20
44.8187988196
 10
263.5493382114
 20
43.7551562869
 10
263.978507716
 20
42.5709977278
 10
264.2878655841
 20
41.2770483148
 10
264.474606416
 20
39.8850240975
 10
264.5111832951
 20
39.3673019968
  0
LWPOLYLINE
  5
23A
330
1F
100
AcDbEntity
  8
0
  6
Continuous
 62
     7
370
    18
100
AcDbPolyline
 90
       21
 70
   128
 43
0.0
 10
254.1198814167
 20
16.9545821944
 10
253.9992419897
 20
16.8504758783
 10
252.7107803975
 20
15.8198998819
 10
251.4045476523
 20
14.9217945765
 10
250.092373354
 20
14.164292478
 10
248.7861406089
 20
13.5542535576
 10
247.4976790166
 20
13.0972034645
 10
246.2386568334
 20
12.7972819194
 10
245.0204765927
 20
12.6572022294
 10
243.8541692444
 20
12.6782358041
 10
242.7502978423
 20
12.8601900157
 10
241.7188597507
 20
13.201419425
 10
240.7691944477
 20
13.6988318741
 10
239.9099025246
 20
14.3479230947
 10
239.1487666604
 20
15.1428154993
 10
238.4926798406
 20
16.0763102796
 10
237.947582795
 20
17.1399528123
 10
237.5184132904
 20
18.3241113714
 10
237.2090554223
 20
19.6180607844
 10
237.0223145904
 20
21.0100850017
 10
236.9598779856
 20
22.4875752951
  0
LWPOLYLINE
  5
23B
330
1F
100
AcDbEntity
  8
0
  6
Continuous
 62
     7
370
    18
100
AcDbPolyline
 90
       24
 70
   128
 43
0.0
 10
236.2527710885
 20
22.4875760554
 10
236.3149113482
 20
24.0526907833
 10
236.5007881698
 20
25.6757982075
 10
236.8087657286
 20
27.3426326731
 10
237.2361400408
 20
29.0385480136
 10
237.7791534516
 20
30.7486385584
 10
238.4330341474
 20
32.4578772479
 10
239.1920369859
 20
34.1512428176
 10
240.0494909112
 20
35.8138536346
 10
240.9978608572
 20
37.4310996325
 10
242.0288116259
 20
38.9887666407
 10
243.1332849376
 20
40.4731683179
 10
244.3015731878
 20
41.8712571725
 10
245.5234093384
 20
43.1707471788
 10
246.7880568088
 20
44.3602189026
 10
248.0844015081
 20
45.4292212998
 10
249.4010510279
 20
46.3683563555
 10
250.7264344531
 20
47.1693716854
 10
252.0489044774
 20
47.8252301321
 10
253.3568390662
 20
48.3301669325
 10
254.6387440247
 20
48.6797428463
 10
255.8833539614
 20
48.8708887516
 10
257.0797311105
 20
48.9019231507
 10
257.3817508171
 20
48.883686668
  0
ARC
  5
23C
330
1F
100
AcDbEntity
  8
0
  6
Continuous
 62
     7
370
    18
100
AcDbCircle
 10
248.4531724505
 20
21.9606618135
 30
0.0
 40
12.21177431875578
100
AcDbArc
 50
177.527031125
 51
212.0507096469
  0
LWPOLYLINE
  5
23D
330
1F
100
AcDbEntity
  8
0
  6
Continuous
 62
     7
370
    18
100
AcDbPolyline
 90
       27
 70
   128
 43
0.0
 10
212.547016677
 20
36.1726167829
 10
212.6091569367
 20
37.7377315107
 10
212.7950337583
 20
39.360838935
 10
213.1030113171
 20
41.0276734006
 10
213.5303856293
 20
42.7235887411
 10
214.0733990401
 20
44.4336792858
 10
214.7272797359
 20
46.1429179754
 10
215.4862825744
 20
47.836283545
 10
216.3437364997
 20
49.4988943621
 10
217.2921064457
 20
51.1161403599
 10
218.3230572144
 20
52.6738073682
 10
219.4275305261
 20
54.1582090454
 10
220.5958187763
 20
55.5562979
 10
221.8176549269
 20
56.8557879063
 10
223.0823023973
 20
58.0452596301
 10
224.3786470966
 20
59.1142620273
 10
225.6952966164
 20
60.053397083
 10
227.0206800417
 20
60.8544124129
 10
228.3431500659
 20
61.5102708595
 10
229.6510846547
 20
62.01520766
 10
230.9329896132
 20
62.3647835738
 10
232.1775995499
 20
62.5559294791
 10
233.373976699
 20
62.5869638782
 10
234.5116077268
 20
62.4576138007
 10
235.5804946104
 20
62.1690163165
 10
236.5712438711
 20
61.7237076901
 10
236.6883390115
 20
61.6576744552
  0
LWPOLYLINE
  5
23E
330
1F
100
AcDbEntity
  8
0
  6
Continuous
 62
     7
370
    18
100
AcDbPolyline
 90
       10
 70
   128
 43
0.0
 10
216.6899649577
 20
27.0157209821
 10
216.3437364997
 20
27.2299386036
 10
215.4862825744
 20
27.902554191
 10
214.7272797359
 20
28.7195937365
 10
214.0733990401
 20
29.6738778444
 10
213.5303856293
 20
30.75701845
 10
213.1030113171
 20
31.9594979127
 10
212.7950337583
 20
33.2707490577
 10
212.6091569367
 20
34.6792476719
 10
212.547016677
 20
36.1726167829
  0
LWPOLYLINE
  5
23F
330
1F
100
AcDbEntity
  8
0
  6
Continuous
 62
     7
370
    18
100
AcDbPolyline
 90
       24
 70
   128
 43
0.0
 10
253.5768887501
 20
21.0588608652
 10
253.6394557467
 20
22.1512434926
 10
253.8259924299
 20
23.2955160798
 10
254.1330230016
 20
24.4703625128
 10
254.554828003
 20
25.6538973012
 10
255.0835513272
 20
26.8240747928
 10
255.7093424655
 20
27.9590955319
 10
256.4205445217
 20
29.0378163219
 10
257.2039095557
 20
30.0401431741
 10
258.044844386
 20
30.9474043864
 10
258.9276842143
 20
31.7426997608
 10
259.8359835791
 20
32.4112130547
 10
260.7528223317
 20
32.9404928005
 10
261.6611216964
 20
33.3206796311
 10
262.5439615248
 20
33.5446894259
 10
263.384896355
 20
33.6083509019
 10
264.1682613891
 20
33.5104780662
 10
264.8794634452
 20
33.2528936918
 10
265.5052545835
 20
32.8403960216
 10
266.0339779077
 20
32.2806694864
 10
266.4557829091
 20
31.5841403863
 10
266.7628134809
 20
30.763783906
 10
266.949350164
 20
29.8348819889
 10
266.9598111435
 20
29.7489605828
  0
LWPOLYLINE
  5
240
330
1F
100
AcDbEntity
  8
0
  6
Continuous
 62
     7
370
    18
100
AcDbPolyline
 90
       12
 70
   128
 43
0.0
 10
259.4604205441
 20
16.7582274601
 10
258.9276842143
 20
16.5529189123
 10
258.044844386
 20
16.3289091175
 10
257.2039095557
 20
16.2652476415
 10
256.4205445217
 20
16.3631204772
 10
255.7093424655
 20
16.6207048516
 10
255.0835513272
 20
17.0332025218
 10
254.554828003
 20
17.592929057
 10
254.1330230016
 20
18.2894581571
 10
253.8259924299
 20
19.1098146374
 10
253.6394557467
 20
20.0387165545
 10
253.5768887501
 20
21.0588608652
  0
LWPOLYLINE
  5
241
330
1F
100
AcDbEntity
  8
0
  6
Continuous
 62
     7
370
    18
100
AcDbPolyline
 90
       19
 70
   128
 43
0.0
 10
252.8697811945
 20
21.0588612454
 10
252.932873051
 20
22.1836257593
 10
253.1210218512
 20
23.3611626482
 10
253.4308709934
 20
24.5704593066
 10
253.8568906796
 20
25.7899352671
 10
254.3914793305
 20
26.9978298368
 10
255.0250959532
 20
28.1725866894
 10
255.7464346557
 20
29.2932435852
 10
256.5426225391
 20
30.3398013681
 10
257.3994521643
 20
31.2935855432
 10
258.3016327862
 20
32.1375742034
 10
259.2330654613
 20
32.8567070361
 10
260.1771284233
 20
33.4381512094
 10
261.1169750129
 20
33.8715311581
 10
262.0358335215
 20
34.1491123265
 10
262.9173070346
 20
34.2659423245
 10
263.745665805
 20
34.2199353
 10
264.5061273196
 20
34.0119127043
 10
264.978876007
 20
33.7788594731
  0
LWPOLYLINE
  5
242
330
1F
100
AcDbEntity
  8
0
  6
Continuous
 62
     7
370
    18
100
AcDbPolyline
 90
        7
 70
   128
 43
0.0
 10
254.7861697496
 20
16.5756760644
 10
254.3914793305
 20
16.8768079249
 10
253.8568906796
 20
17.4674795763
 10
253.4308709934
 20
18.1950836769
 10
253.1210218512
 20
19.0466361304
 10
252.932873051
 20
20.0069410386
 10
252.8697811945
 20
21.0588612454
  0
LWPOLYLINE
  5
243
330
1F
100
AcDbEntity
  8
0
  6
Continuous
 62
     7
370
    18
100
AcDbPolyline
 90
       13
 70
   128
 43
0.0
 10
256.2285389556
 20
22.5896259456
 10
256.2938790832
 20
23.4656901757
 10
256.4877993673
 20
24.3890370487
 10
256.8040670137
 20
25.329989515
 10
257.2325167291
 20
26.2583045389
 10
257.7593781834
 20
27.1441450351
 10
258.3677173983
 20
27.9590400063
 10
259.0379818583
 20
28.6767973331
 10
259.7486287614
 20
29.2743482087
 10
260.4768172528
 20
29.7324866838
 10
261.1991428459
 20
30.0364879371
 10
261.8923893568
 20
30.1765807613
 10
262.312033015
 20
30.1777874033
  0
ARC
  5
244
330
1F
100
AcDbEntity
  8
0
  6
Continuous
 62
     7
370
    18
100
AcDbCircle
 10
259.746369848
 20
22.4414411964
 30
0.0
 40
3.520950568698332
100
AcDbArc
 50
177.5879044528
 51
212.1337778826
  0
LWPOLYLINE
  5
245
330
1F
100
AcDbEntity
  8
0
  6
Continuous
 62
     7
370
    18
100
AcDbPolyline
 90
        3
 70
   128
 43
0.0
 10
243.5127343319
 20
26.9972054639
 10
243.554978645
 20
27.480594347
 10
243.6917010459
 20
28.4017094004
  0
LWPOLYLINE
  5
246
330
1F
100
AcDbEntity
  8
0
  6
Continuous
 62
     7
370
    18
100
AcDbPolyline
 90
        9
 70
   128
 43
0.0
 10
250.7136992751
 20
38.808220369
 10
250.9200334088
 20
38.9227915236
 10
251.8755521023
 20
39.3633974768
 10
252.8097328013
 20
39.6456079511
 10
253.7059051925
 20
39.7643857313
 10
254.5480766047
 20
39.7176110542
 10
255.3212190523
 20
39.5061203183
 10
256.0115353694
 20
39.1336855734
 10
256.596927107
 20
38.6177183602
  0
ARC
  5
247
330
1F
100
AcDbEntity
  8
0
  6
Continuous
 62
     7
370
    18
100
AcDbCircle
 10
247.3305394756
 20
24.6860212807
 30
0.0
 40
3.467131636058341
100
AcDbArc
 50
221.3294503025
 51
257.8022683589
  0
LWPOLYLINE
  5
248
330
1F
100
AcDbEntity
  8
0
  6
Continuous
 62
     7
370
    18
100
AcDbPolyline
 90
       15
 70
   128
 43
0.0
 10
243.9505432818
 20
26.7444641537
 10
244.0045452486
 20
27.4603901739
 10
244.1894013262
 20
28.6173201582
 10
244.4938286715
 20
29.8054544036
 10
244.9123929753
 20
31.003589433
 10
245.4376260137
 20
32.1903457234
 10
246.0601543932
 20
33.3445443119
 10
246.7688697853
 20
34.4455894839
 10
247.5511245133
 20
35.4738330156
 10
248.3929594092
 20
36.4109251065
 10
249.2793519205
 20
37.2401446823
 10
250.1944843843
 20
37.9466926707
 10
251.1220262961
 20
38.5179614164
 10
252.0454255514
 20
38.943756804
 10
252.8533353625
 20
39.1948425915
  0
LWPOLYLINE
  5
249
330
1F
100
AcDbEntity
  8
0
  6
Continuous
 62
     7
370
    18
100
AcDbPolyline
 90
       15
 70
   128
 43
0.0
 10
244.2032584197
 20
26.59857481
 10
244.2572603864
 20
27.3145008302
 10
244.442116464
 20
28.4714308145
 10
244.7465438093
 20
29.6595650598
 10
245.1651081132
 20
30.8577000893
 10
245.6903411515
 20
32.0444563796
 10
246.3128695311
 20
33.1986549682
 10
247.0215849231
 20
34.2997001402
 10
247.8038396511
 20
35.3279436719
 10
248.6456745471
 20
36.2650357628
 10
249.5320670584
 20
37.0942553386
 10
250.4471995222
 20
37.800803327
 10
251.374741434
 20
38.3720720727
 10
252.2981406893
 20
38.7978674602
 10
253.1060505003
 20
39.0489532478
  0
LWPOLYLINE
  5
24A
330
1F
100
AcDbEntity
  8
0
  6
Continuous
 62
     7
370
    18
100
AcDbPolyline
 90
       25
 70
   128
 43
0.0
 10
208.7465490774
 20
39.694240347
 10
209.1373649499
 20
41.5575864304
 10
209.6470955212
 20
43.4453877282
 10
210.2720661131
 20
45.3440322995
 10
211.0077670127
 20
47.2398261517
 10
211.8488969368
 20
49.1191035037
 10
212.7893893733
 20
50.9683096737
 10
213.8224613139
 20
52.7741128627
 10
214.9406639615
 20
54.5234889414
 10
216.1359354144
 20
56.2038263894
 10
217.3996553249
 20
57.8030080393
 10
218.7227120712
 20
59.309500045
 10
220.095565319
 20
60.7124427508
 10
221.508315498
 20
62.0017166554
 10
222.9507755833
 20
63.1680279571
 10
224.4125441111
 20
64.2029643931
 10
225.8830805623
 20
65.0990646134
 10
227.3517812795
 20
65.8498665695
 10
228.8080554883
 20
66.4499544424
 10
230.2414026346
 20
66.8950048095
 10
231.6414870271
 20
67.1818053997
 10
232.9982125199
 20
67.3082906026
 10
234.3017961051
 20
67.2735459287
 10
235.5428383769
 20
67.0778228328
 10
236.7123910326
 20
66.7225350944
  0
LWPOLYLINE
  5
24B
330
1F
100
AcDbEntity
  8
0
  6
Continuous
 62
     7
370
    18
100
AcDbPolyline
 90
       25
 70
   128
 43
0.0
 10
208.0303733639
 20
39.6890050307
 10
208.4198458056
 20
41.5774263633
 10
208.9294393996
 20
43.4913301824
 10
209.5555216146
 20
45.4170767864
 10
210.2936327872
 20
47.3409421397
 10
211.1385111466
 20
49.2492163505
 10
212.0841349619
 20
51.1282975841
 10
213.1237660058
 20
52.9647954817
 10
214.2499949939
 20
54.7456220316
 10
215.4547955858
 20
56.4580858612
 10
216.7295810197
 20
58.0899812062
 10
218.0652673326
 20
59.6296806807
 10
219.452334605
 20
61.0662086569
 10
220.880898084
 20
62.3893294711
 10
222.3407766715
 20
63.5896128179
 10
223.8215658581
 20
64.6585047514
 10
225.3127128796
 20
65.5883862808
 10
226.8035907211
 20
66.372632823
 10
228.2835741785
 20
67.0056520277
 10
229.7421162499
 20
67.4829370033
 10
231.1688219748
 20
67.801081566
 10
232.5535237554
 20
67.9578222017
 10
233.8863526437
 20
67.9520396746
 10
235.1578111107
 20
67.7837767012
 10
236.358837584
 20
67.4542295795
  0
LWPOLYLINE
  5
24C
330
1F
100
AcDbEntity
  8
0
  6
Continuous
 62
     7
370
    18
100
AcDbPolyline
 90
       15
 70
   128
 43
0.0
 10
222.7053650211
 20
23.5431038927
 10
221.4502453726
 20
23.1222554537
 10
220.0432749095
 20
22.787655664
 10
218.6763274888
 20
22.6118607251
 10
217.3591976431
 20
22.5961294247
 10
216.1013242907
 20
22.7405753267
 10
214.9117209304
 20
23.0441629758
 10
213.7989117623
 20
23.504716648
 10
212.7708711018
 20
24.1189370875
 10
211.8349660863
 20
24.8824209029
 10
210.9979033331
 20
25.7896989765
 10
210.2656808655
 20
26.8342695479
 10
209.6435459663
 20
28.0086468888
 10
209.1359556646
 20
29.3044156787
 10
208.7465490774
 20
30.7122914649
  0
ARC
  5
24D
330
1F
100
AcDbEntity
  8
0
  6
Continuous
 62
     7
370
    18
100
AcDbCircle
 10
231.6017919803
 20
57.0767209434
 30
0.0
 40
11.12401072022532
100
AcDbArc
 50
9.0277736643
 51
48.7055209086
  0
LWPOLYLINE
  5
24E
330
1F
100
AcDbEntity
  8
0
  6
Continuous
 62
     7
370
    18
100
AcDbPolyline
 90
       32
 70
   128
 43
0.0
 10
210.4256953272
 20
36.1726164027
 10
210.4886837923
 20
37.8053975143
 10
210.677123669
 20
39.4973715521
 10
210.9894568412
 20
41.2345204794
 10
211.4230925946
 20
43.0024484066
 10
211.9744392276
 20
44.7865064937
 10
212.6389277583
 20
46.5719106301
 10
213.4110514376
 20
48.343866527
 10
214.2844131641
 20
50.0876925277
 10
215.2517755336
 20
51.7889367139
 10
216.3051227425
 20
53.4335046582
 10
217.4357257833
 20
55.007765502
 10
218.6342168602
 20
56.4986778057
 10
219.8906644637
 20
57.8938845987
 10
221.1946579929
 20
59.1818261111
 10
222.5353913909
 20
60.3518306403
 10
223.9017553411
 20
61.3942027565
 10
225.2824274055
 20
62.3003042361
 10
226.665967102
 20
63.0626271992
 10
228.0409099116
 20
63.6748544632
 10
229.3958627672
 20
64.1319146672
 10
230.7195981436
 20
64.4300183373
 10
232.0011465003
 20
64.566697565
 10
233.2298897949
 20
64.5408174052
 10
234.3956446244
 20
64.3525919331
 10
235.488752775
 20
64.0035848064
 10
236.5001553085
 20
63.496683592
 10
237.4214722461
 20
62.8360917746
 10
238.2450677641
 20
62.0272804604
 10
238.9641193415
 20
61.0769545304
 10
239.5726671504
 20
59.9929860953
 10
239.5729332024
 20
59.9924347347
  0
LWPOLYLINE
  5
24F
330
1F
100
AcDbEntity
  8
0
  6
Continuous
 62
     7
370
    18
100
AcDbPolyline
 90
       14
 70
   128
 43
0.0
 10
219.5745584901
 20
25.350480121
 10
218.6342168602
 20
25.3239122307
 10
217.4357257833
 20
25.4310761907
 10
216.3051227425
 20
25.6999705493
 10
215.2517755336
 20
26.1283696931
 10
214.2844131641
 20
26.7127210612
 10
213.4110514376
 20
27.448185076
 10
212.6389277583
 20
28.3286659484
 10
211.9744392276
 20
29.3468679576
 10
211.4230925946
 20
30.4943547721
 10
210.9894568412
 20
31.7616175153
 10
210.677123669
 20
33.1381542379
 10
210.4886837923
 20
34.612560225
 10
210.4256953272
 20
36.1726164027
  0
LWPOLYLINE
  5
250
330
1F
100
AcDbEntity
  8
0
  6
Continuous
 62
     7
370
    18
100
AcDbPolyline
 90
       20
 70
   128
 43
0.0
 10
197.8922278276
 20
40.5506050806
 10
197.9542258418
 20
42.2945551232
 10
198.1397852449
 20
44.0978541643
 10
198.447604753
 20
45.9478535466
 10
198.8755243401
 20
47.8315761736
 10
199.4205423604
 20
49.7358092843
 10
200.0788379385
 20
51.6471968472
 10
200.8457907263
 20
53.5523300536
 10
201.7160230493
 20
55.4378480752
 10
202.683431517
 20
57.2905247535
 10
203.7412278525
 20
59.0973628939
 10
204.8819942107
 20
60.8456915992
 10
206.097728617
 20
62.5232457341
 10
207.3799035788
 20
64.1182583156
 10
208.7195253537
 20
65.6195433984
 10
210.10719717
 20
67.016567552
 10
211.5331863985
 20
68.2995357869
 10
212.9874900775
 20
69.4594445907
 10
214.4599075993
 20
70.4881619126
 10
215.8860367685
 20
71.3484650495
  0
LWPOLYLINE
  5
251
330
1F
100
AcDbEntity
  8
0
  6
Continuous
 62
     7
370
    18
100
AcDbPolyline
 90
        3
 70
   128
 43
0.0
 10
197.9848916254
 20
38.5166999798
 10
197.9542258418
 20
38.8782364215
 10
197.8922278276
 20
40.5506050806
  0
LWPOLYLINE
  5
252
330
1F
100
AcDbEntity
  8
0
  6
Continuous
 62
     7
370
    18
100
AcDbPolyline
 90
       21
 70
   128
 43
0.0
 10
205.7152410483
 20
42.3773994381
 10
206.1293601767
 20
44.2649161688
 10
206.6699830709
 20
46.1758661001
 10
207.3327409467
 20
48.0948107245
 10
208.1122798371
 20
50.0062477477
 10
209.0023027396
 20
51.8947373222
 10
209.9956196653
 20
53.7450221951
 10
211.0842062494
 20
55.5421581224
 10
212.2592689469
 20
57.2716237496
 10
213.5113148389
 20
58.9194491235
 10
214.8302299988
 20
60.4723232902
 10
216.2053591765
 20
61.9177011328
 10
217.6255940431
 20
63.2439075462
 10
219.0794612716
 20
64.4402278295
 10
220.5552162147
 20
65.4969967458
 10
222.0409373028
 20
66.4056788732
 10
223.5246223772
 20
67.158933342
 10
224.9942856189
 20
67.7506758745
 10
226.4380548906
 20
68.1761243326
 10
227.8442667105
 20
68.4318444197
 10
228.1940486746
 20
68.4694834093
  0
LWPOLYLINE
  5
253
330
1F
100
AcDbEntity
  8
0
  6
Continuous
 62
     7
370
    18
100
AcDbPolyline
 90
       18
 70
   128
 43
0.0
 10
206.2892356855
 20
42.3821960386
 10
206.7048536612
 20
44.2493527557
 10
207.2460073422
 20
46.1389990298
 10
207.908276578
 20
48.0356971186
 10
208.6862507666
 20
49.9239530983
 10
209.5735736367
 20
51.7883400548
 10
210.5629972473
 20
53.6136296382
 10
211.6464399402
 20
55.3849091692
 10
212.8150489015
 20
57.0877074893
 10
214.0592785288
 20
58.7081170083
 10
215.3689635288
 20
60.2328975
 10
216.7334055169
 20
61.6495945368
 10
218.1414579687
 20
62.9466326381
 10
219.5816175933
 20
64.1134182091
 10
221.042119987
 20
65.1404175751
 10
222.511033517
 20
66.0192415972
 10
223.976358391
 20
66.7427119902
 10
224.1201859933
 20
66.8053949525
  0
LINE
  5
254
330
1F
100
AcDbEntity
  8
0
  6
Continuous
 62
     7
370
    18
100
AcDbLine
 10
199.4690767819
 20
40.0526630029
 30
0.0
 11
201.6222157096
 21
41.2956436483
 31
0.0
  0
LWPOLYLINE
  5
255
330
1F
100
AcDbEntity
  8
0
  6
Continuous
 62
     7
370
    18
100
AcDbPolyline
 90
       20
 70
   128
 43
0.0
 10
187.0219079387
 20
60.2347021548
 10
187.6309707295
 20
61.9073203964
 10
188.3544319209
 20
63.5666593472
 10
189.1846221036
 20
65.1951286991
 10
190.1127411474
 20
66.77546639
 10
191.1289497387
 20
68.2909184446
 10
192.2224760651
 20
69.7254207148
 10
193.3817274383
 20
71.0637667416
 10
194.5944150885
 20
72.2917680108
 10
195.847683733
 20
73.3964086003
 10
197.1282474834
 20
74.3659761092
 10
198.4225316792
 20
75.1901944878
 10
199.7168158751
 20
75.8603248336
 10
200.9973796255
 20
76.36926476
 10
202.25064827
 20
76.7116173473
 10
203.4633359202
 20
76.8837554362
 10
204.6225872934
 20
76.8838525554
 10
205.7161136198
 20
76.7119089073
 10
206.7323222111
 20
76.3697463182
 10
207.0015246693
 20
76.2438834611
  0
ARC
  5
256
330
1F
100
AcDbEntity
  8
0
  6
Continuous
 62
     7
370
    18
100
AcDbCircle
 10
192.8818988122
 20
50.8760778998
 30
0.0
 40
6.56709090948972
100
AcDbArc
 50
206.8329030039
 51
236.0333930637
  0
ARC
  5
257
330
1F
100
AcDbEntity
  8
0
  6
Continuous
 62
     7
370
    18
100
AcDbCircle
 10
220.3641949415
 20
33.190983398
 30
0.0
 40
12.58145656459705
100
AcDbArc
 50
191.3865744508
 51
214.2485105814
  0
LINE
  5
258
330
1F
100
AcDbEntity
  8
0
  6
Continuous
 62
     7
370
    18
100
AcDbLine
 10
203.4341791914
 20
33.3603825668
 30
0.0
 11
205.1577495365
 21
34.355378548
 31
0.0
  0
LINE
  5
259
330
1F
100
AcDbEntity
  8
0
  6
Continuous
 62
     7
370
    18
100
AcDbLine
 10
199.4690767819
 20
39.2361221523
 30
0.0
 11
201.6222157096
 21
40.4791027976
 31
0.0
  0
LINE
  5
25A
330
1F
100
AcDbEntity
  8
0
  6
Continuous
 62
     7
370
    18
100
AcDbLine
 10
207.1410122986
 20
32.6831626608
 30
0.0
 11
207.0741239329
 21
32.9471408159
 31
0.0
  0
LINE
  5
25B
330
1F
100
AcDbEntity
  8
0
  6
Continuous
 62
     7
370
    18
100
AcDbLine
 10
206.6328839661
 20
32.2179833306
 30
0.0
 11
206.2892356855
 21
33.4002471566
 31
0.0
  0
LWPOLYLINE
  5
25C
330
1F
100
AcDbEntity
  8
0
  6
Continuous
 62
     7
370
    18
100
AcDbPolyline
 90
        3
 70
   128
 43
0.0
 10
206.5432488145
 20
30.9651349839
 10
206.1125541209
 20
32.03382386
 10
205.7152410483
 20
33.3954505561
  0
LINE
  5
25D
330
1F
100
AcDbEntity
  8
0
  6
Continuous
 62
     7
370
    18
100
AcDbLine
 10
234.3467391336
 20
68.6152849666
 30
0.0
 11
234.2463703651
 21
68.5573433098
 31
0.0
  0
ARC
  5
25E
330
1F
100
AcDbEntity
  8
0
  6
Continuous
 62
     7
370
    18
100
AcDbCircle
 10
192.9865859843
 20
57.9188664562
 30
0.0
 40
1.982758115011144
100
AcDbArc
 50
160.3181851691
 51
206.3321513809
  0
ARC
  5
25F
330
1F
100
AcDbEntity
  8
0
  6
Continuous
 62
     7
370
    18
100
AcDbCircle
 10
190.7344750174
 20
57.8591986121
 30
0.0
 40
0.8231407192530902
100
AcDbArc
 50
40.3516534992
 51
62.0985447238
  0
LINE
  5
260
330
1F
100
AcDbEntity
  8
0
  6
Continuous
 62
     7
370
    18
100
AcDbLine
 10
191.1196655782
 20
58.5866523051
 30
0.0
 11
191.2674679905
 21
59.1409071378
 31
0.0
  0
LINE
  5
261
330
1F
100
AcDbEntity
  8
0
  6
Continuous
 62
     7
370
    18
100
AcDbLine
 10
191.1196655782
 20
58.5866523051
 30
0.0
 11
189.8664461599
 21
59.3101204759
 31
0.0
  0
LINE
  5
262
330
1F
100
AcDbEntity
  8
0
  6
Continuous
 62
     7
370
    18
100
AcDbLine
 10
187.021764376
 20
61.1166075126
 30
0.0
 11
187.0071440294
 21
61.2923333564
 31
0.0
  0
ARC
  5
263
330
1F
100
AcDbEntity
  8
0
  6
Continuous
 62
     7
370
    18
100
AcDbCircle
 10
190.8380165375
 20
44.5577555571
 30
0.0
 40
0.5806338492589388
100
AcDbArc
 50
25.5709532967
 51
60.9828307538
  0
ARC
  5
264
330
1F
100
AcDbEntity
  8
0
  6
Continuous
 62
     7
370
    18
100
AcDbCircle
 10
193.0751233887
 20
45.7114971985
 30
0.0
 40
2.059398257751345
100
AcDbArc
 50
172.8727688224
 51
198.2811498096
  0
LINE
  5
265
330
1F
100
AcDbEntity
  8
0
  6
Continuous
 62
     7
370
    18
100
AcDbLine
 10
190.2744809956
 20
50.0991078112
 30
0.0
 11
188.6574131025
 21
51.0326212355
 31
0.0
  0
LINE
  5
266
330
1F
100
AcDbEntity
  8
0
  6
Continuous
 62
     7
370
    18
100
AcDbLine
 10
191.1196655782
 20
45.0655049882
 30
0.0
 11
189.8664461599
 21
45.788973159
 31
0.0
  0
LINE
  5
267
330
1F
100
AcDbEntity
  8
0
  6
Continuous
 62
     7
370
    18
100
AcDbLine
 10
191.1196655782
 20
45.0655049882
 30
0.0
 11
191.2674679905
 21
44.6818991883
 31
0.0
  0
OLE2FRAME
  5
268
330
1F
100
AcDbEntity
  8
0
100
AcDbOle2Frame
 70
     2
  3
Paintbrush-Bild
 10
13.8511154363
 20
38.264191557
 30
0.0
 11
51.6290888628
 21
31.9806341108
 31
0.0
 71
     2
 72
     0
 73
     1
 90
    12928
310
80552BED0767C5B32B40DDAF6807D121434000000000000000006FFBDDFB85D0
310
4940DDAF6807D121434000000000000000006FFBDDFB85D04940416F4BD60AFB
310
3F4000000000000000002BED0767C5B32B40416F4BD60AFB3F40000000000000
310
0000000000000100000000010000010000000100000000000100000000320000
310
D0CF11E0A1B11AE1000000000000000000000000000000003E000300FEFF0900
310
0600000000000000000000000100000001000000000000000010000002000000
310
01000000FEFFFFFF0000000000000000FFFFFFFFFFFFFFFFFFFFFFFFFFFFFFFF
310
FFFFFFFFFFFFFFFFFFFFFFFFFFFFFFFFFFFFFFFFFFFFFFFFFFFFFFFFFFFFFFFF
310
FFFFFFFFFFFFFFFFFFFFFFFFFFFFFFFFFFFFFFFFFFFFFFFFFFFFFFFFFFFFFFFF
310
FFFFFFFFFFFFFFFFFFFFFFFFFFFFFFFFFFFFFFFFFFFFFFFFFFFFFFFFFFFFFFFF
310
FFFFFFFFFFFFFFFFFFFFFFFFFFFFFFFFFFFFFFFFFFFFFFFFFFFFFFFFFFFFFFFF
310
FFFFFFFFFFFFFFFFFFFFFFFFFFFFFFFFFFFFFFFFFFFFFFFFFFFFFFFFFFFFFFFF
310
FFFFFFFFFFFFFFFFFFFFFFFFFFFFFFFFFFFFFFFFFFFFFFFFFFFFFFFFFFFFFFFF
310
FFFFFFFFFFFFFFFFFFFFFFFFFFFFFFFFFFFFFFFFFFFFFFFFFFFFFFFFFFFFFFFF
310
FFFFFFFFFFFFFFFFFFFFFFFFFFFFFFFFFFFFFFFFFFFFFFFFFFFFFFFFFFFFFFFF
310
FFFFFFFFFFFFFFFFFFFFFFFFFFFFFFFFFFFFFFFFFFFFFFFFFFFFFFFFFFFFFFFF
310
FFFFFFFFFFFFFFFFFFFFFFFFFFFFFFFFFFFFFFFFFFFFFFFFFFFFFFFFFFFFFFFF
310
FFFFFFFFFFFFFFFFFFFFFFFFFFFFFFFFFFFFFFFFFFFFFFFFFFFFFFFFFFFFFFFF
310
FFFFFFFFFFFFFFFFFFFFFFFFFFFFFFFFFFFFFFFFFFFFFFFFFFFFFFFFFFFFFFFF
310
FFFFFFFFFFFFFFFFFFFFFFFFFFFFFFFFFFFFFFFFFFFFFFFFFFFFFFFFFFFFFFFF
310
FDFFFFFFFEFFFFFFFEFFFFFFFEFFFFFF05000000060000000700000008000000
310
090000000A0000000B0000000C0000000D0000000E0000000F00000010000000
310
11000000120000001300000014000000150000001600000017000000FEFFFFFF
310
FFFFFFFFFFFFFFFFFFFFFFFFFFFFFFFFFFFFFFFFFFFFFFFFFFFFFFFFFFFFFFFF
310
FFFFFFFFFFFFFFFFFFFFFFFFFFFFFFFFFFFFFFFFFFFFFFFFFFFFFFFFFFFFFFFF
310
FFFFFFFFFFFFFFFFFFFFFFFFFFFFFFFFFFFFFFFFFFFFFFFFFFFFFFFFFFFFFFFF
310
FFFFFFFFFFFFFFFFFFFFFFFFFFFFFFFFFFFFFFFFFFFFFFFFFFFFFFFFFFFFFFFF
310
FFFFFFFFFFFFFFFFFFFFFFFFFFFFFFFFFFFFFFFFFFFFFFFFFFFFFFFFFFFFFFFF
310
FFFFFFFFFFFFFFFFFFFFFFFFFFFFFFFFFFFFFFFFFFFFFFFFFFFFFFFFFFFFFFFF
310
FFFFFFFFFFFFFFFFFFFFFFFFFFFFFFFFFFFFFFFFFFFFFFFFFFFFFFFFFFFFFFFF
310
FFFFFFFFFFFFFFFFFFFFFFFFFFFFFFFFFFFFFFFFFFFFFFFFFFFFFFFFFFFFFFFF
310
FFFFFFFFFFFFFFFFFFFFFFFFFFFFFFFFFFFFFFFFFFFFFFFFFFFFFFFFFFFFFFFF
310
FFFFFFFFFFFFFFFFFFFFFFFFFFFFFFFFFFFFFFFFFFFFFFFFFFFFFFFFFFFFFFFF
310
FFFFFFFFFFFFFFFFFFFFFFFFFFFFFFFFFFFFFFFFFFFFFFFFFFFFFFFFFFFFFFFF
310
FFFFFFFFFFFFFFFFFFFFFFFFFFFFFFFFFFFFFFFFFFFFFFFFFFFFFFFFFFFFFFFF
310
FFFFFFFFFFFFFFFFFFFFFFFFFFFFFFFFFFFFFFFFFFFFFFFFFFFFFFFFFFFFFFFF
310
52006F006F007400200045006E00740072007900000000000000000000000000
310
0000000000000000000000000000000000000000000000000000000000000000
310
16000500FFFFFFFFFFFFFFFF020000000A00030000000000C000000000000046
310
0000000000000000000000007020F6886CA9D30103000000C000000000000000
310
01004F006C006500000000000000000000000000000000000000000000000000
310
0000000000000000000000000000000000000000000000000000000000000000
310
0A000200FFFFFFFFFFFFFFFFFFFFFFFF00000000000000000000000000000000
310
0000000000000000000000000000000000000000000000001400000000000000
310
010043006F006D0070004F0062006A0000000000000000000000000000000000
310
0000000000000000000000000000000000000000000000000000000000000000
310
120002010100000003000000FFFFFFFF00000000000000000000000000000000
310
0000000000000000000000000000000000000000010000004D00000000000000
310
01004F006C006500310030004E00610074006900760065000000000000000000
310
0000000000000000000000000000000000000000000000000000000000000000
310
1A000200FFFFFFFFFFFFFFFFFFFFFFFF00000000000000000000000000000000
310
0000000000000000000000000000000000000000040000002426000000000000
310
FEFFFFFF02000000FEFFFFFFFFFFFFFFFFFFFFFFFFFFFFFFFFFFFFFFFFFFFFFF
310
FFFFFFFFFFFFFFFFFFFFFFFFFFFFFFFFFFFFFFFFFFFFFFFFFFFFFFFFFFFFFFFF
310
FFFFFFFFFFFFFFFFFFFFFFFFFFFFFFFFFFFFFFFFFFFFFFFFFFFFFFFFFFFFFFFF
310
FFFFFFFFFFFFFFFFFFFFFFFFFFFFFFFFFFFFFFFFFFFFFFFFFFFFFFFFFFFFFFFF
310
FFFFFFFFFFFFFFFFFFFFFFFFFFFFFFFFFFFFFFFFFFFFFFFFFFFFFFFFFFFFFFFF
310
FFFFFFFFFFFFFFFFFFFFFFFFFFFFFFFFFFFFFFFFFFFFFFFFFFFFFFFFFFFFFFFF
310
FFFFFFFFFFFFFFFFFFFFFFFFFFFFFFFFFFFFFFFFFFFFFFFFFFFFFFFFFFFFFFFF
310
FFFFFFFFFFFFFFFFFFFFFFFFFFFFFFFFFFFFFFFFFFFFFFFFFFFFFFFFFFFFFFFF
310
FFFFFFFFFFFFFFFFFFFFFFFFFFFFFFFFFFFFFFFFFFFFFFFFFFFFFFFFFFFFFFFF
310
FFFFFFFFFFFFFFFFFFFFFFFFFFFFFFFFFFFFFFFFFFFFFFFFFFFFFFFFFFFFFFFF
310
FFFFFFFFFFFFFFFFFFFFFFFFFFFFFFFFFFFFFFFFFFFFFFFFFFFFFFFFFFFFFFFF
310
FFFFFFFFFFFFFFFFFFFFFFFFFFFFFFFFFFFFFFFFFFFFFFFFFFFFFFFFFFFFFFFF
310
FFFFFFFFFFFFFFFFFFFFFFFFFFFFFFFFFFFFFFFFFFFFFFFFFFFFFFFFFFFFFFFF
310
FFFFFFFFFFFFFFFFFFFFFFFFFFFFFFFFFFFFFFFFFFFFFFFFFFFFFFFFFFFFFFFF
310
FFFFFFFFFFFFFFFFFFFFFFFFFFFFFFFFFFFFFFFFFFFFFFFFFFFFFFFFFFFFFFFF
310
FFFFFFFFFFFFFFFFFFFFFFFFFFFFFFFFFFFFFFFFFFFFFFFFFFFFFFFFFFFFFFFF
310
0100000200000000000000000000000000000000000000000000000000000000
310
0000000000000000000000000000000000000000000000000000000000000000
310
0100FEFF030A0000FFFFFFFF0A00030000000000C00000000000004607000000
310
5042727573680007000000504272757368000700000050427275736800F439B2
310
7100000000000000000000000000000000000000000000000000000000000000
310
0000000000000000000000000000000000000000000000000000000000000000
310
0000000000000000000000000000000000000000000000000000000000000000
310
0000000000000000000000000000000000000000000000000000000000000000
310
0000000000000000000000000000000000000000000000000000000000000000
310
0000000000000000000000000000000000000000000000000000000000000000
310
0000000000000000000000000000000000000000000000000000000000000000
310
0000000000000000000000000000000000000000000000000000000000000000
310
0000000000000000000000000000000000000000000000000000000000000000
310
0000000000000000000000000000000000000000000000000000000000000000
310
0000000000000000000000000000000000000000000000000000000000000000
310
0000000000000000000000000000000000000000000000000000000000000000
310
20260000424D0E260000000000003E00000028000000B40200006E0000000100
310
01000000000000000000130B0000130B00000200000002000000000000FFFFFF
310
FFFFFFFFFFFFFFFFFFFFFFFFFFFFFFFFFFFFFFFFFFFFFFFFFFFFFFFFFFFFFFFF
310
FFFFFFFFFFFFFFFFFFFFFFFFFFFFFFFFFFFFFFFFFFFFFFFFFFFFFFFFFFFFFFFF
310
FFFFFFFFFFFFFFFFFFFFFFFFFFFFFFFFFFFFFFFFFFFFFFFFF000FFFFFFFFFFFF
310
FFFFFFFFFFFFFFFFFFFFFFFFFFFFFFFFFFFFFFFFFFFFFFFFFFFFFFFFFFFFFFFF
310
FFFFFFFFFFFFFFFFFFFFFFFFFFFFFFFFFFFFFFFFFFFFFFFFFFFFFFFFFFFFFFFF
310
FFFFFFFFFFFFFFFFFFFFFFFFFFFFFFFFF000FFFFFFFFFFFFFFFFFFFFFFFFFFFF
310
FFFFFFFFFFFFFFFFFFFFFFFFFFFFFFFFFFFFFFFFFFFFFFFFFFFFFFFFFFFFFFFF
310
FFFFFFFFFFFFFFFFFFFFFFFFFFFFFFFFFFFFFFFFFFFFFFFFFFFFFFFFFFFFFFFF
310
FFFFFFFFFFFFFFFFF000FFFFFFFFFFFFFFFFFFFFFFFFFFFFFFFFFFFFFFFFFFFF
310
FFFFFFFFFFFFFFFFFFFFFFFFFFFFFFFFFFFFFFFFFFFFFFFFFFFFFFFFFFFFFFFF
310
FFFFFFFFFFFFFFFFFFFFFFFFFFFFFFFFFFFFFFFFFFFFFFFFFFFFFFFFFFFFFFFF
310
F000FFFFFFFFFFFFFFFFFFFFFFFFFFFFFFFFFFFFFFFFFFFFFFFFFFFFFFFFFFFF
310
FFFFFFFFFFFFFFFFFFFFFFFFFFFFFFFFFFFFFFFFFFFFFFFFFFFFFFFFFFFFFFFF
310
FFFFFFFFFFFFFFFFFFFFFFFFFFFFFFFFFFFFFFFFFFFFFFFFF000FFFFFFFFFFFF
310
FFFFFFFFFFFFFFFFFFFFFFFFFFFFFFFFFFFFFFFFFFFFFFFFFFFFFFFFFFFFFFFF
310
FFFFFFFFFFFFFFFFFFFFFFFFFFFFFFFFFFFFFFFFFFFFFFFFFFFFFFFFFFFFFFFF
310
FFFFFFFFFFFFFFFFFFFFFFFFFFFFFFFFF000FFFFFFFFFFFFFFFFFFFFFFFFFFFF
310
FFFFFFFFFFFFFFFFFFFFFFFFFFFFFFFFFFFFFFFFFFFFFFFFFFFFFFFFFFFFFFFF
310
FFFFFFFFFFFFFFFFFFFFFFFFFFFFFFFFFFFFFFFFFFFFFFFFFFFFFFFFFFFFFFFF
310
FFFFFFFFFFFFFFFFF000FFFFFFFFFFFFFFFFFFFFFFFFFFFFFFFFFFFFFFFFFFFF
310
FFFFFFFFFFFFFFFFFFFFFFFFFFFFFFFFFFFFFFFFFFFFFFFFFFFFFFFFFFFFFFFF
310
FFFFFFFFFFFFFFFFFFFFFFFFFFFFFFFFFFFFFFFFFFFFFFFFFFFFFFFFFFFFFFFF
310
F000FFFFFFFFFFFFFFFFFFFFFFFFFFFFFFFFFFFFFFFFFFFFFFFFFFFFFFFFFFFF
310
FFFFFFFFFFFFFFFFFFFFFFFFFFFFFFFFFFFFFFFFFFFFFFFFFFFFFFFFFFFFFFFF
310
FFFFFFFFFFFFFFFFFFFFFFFFFFFFFFFFFFFFFFFFFFFFFFFFF000FFFFFFFFFFFF
310
FFFFFFFFFFFFFFFFFFFFFFFFFFFFFFFFFFFFFFFFFFFFFFFFFFFFFFFFFFFFFFFF
310
FFFFFFFFFFFFFFFFFFFFFFFFFFFFFFFFFFFFFFFFFFFFFFFFFFFFFFFFFFFFFFFF
310
FFFFFFFFFFFFFFFFFFFFFFFFFFFFFFFFF000FFFFFFFFFFFFFFFFFFFFFFFFFFFF
310
FFFFFFFFFFFFFFFFFFFFFFFFFFFFFFFFFFFFFFFFFFFFFFFFFFFFFFFFFFFFFFFF
310
FFFFFFFFFFFFFFFFFFFFFFFFFFFFFFFFFFFFFFFFFFFFFFFFFFFFFFFFFFFFFFFF
310
FFFFFFFFFFFFFFFFF000FFFFFFFFFFFFFFFFFFFFFFFFFFFFFFFFFFFFFFFFFFFF
310
FFFFFFFFFFFFFFFFFFFFFFFFFFFFFFFFFFFFFFFFFFFFFFFFFFFFFFFFFFFFFFFF
310
FFFFFFFFFFFFFFFFFFFFFFFFFFFFFFFFFFFFFFFFFFFFFFFFFFFFFFFFFFFFFFFF
310
F000FFFFFFFFFFFFFFFFFFFFFFFFFFFFFFFFFFFFFFFFFFFFFFFFFFFFFFFFFFFF
310
FFFFFFFFFFFFFFFFFFFFFFFFFFFFFFFFFFFFFFFFFFFFFFFFFFFFFFFFFFFFFFFF
310
FFFFFFFFFFFFFFFFFFFFFFFFFFFFFFFFFFFFFFFFFFFFFFFFF000FFFFFFFFFFFF
310
FFFFFFFFFFFFFFFFFFFFFFFFFFFFFFFFFFFFFFFFFFFFFFFFFFFFFFFFFFFFFFFF
310
FFFFFFFFFFFFFFFFFFFFFFFFFFFFFFFFFFFFFFFFFFFFFFFFFFFFFFFFFFFFFFFF
310
FFFFFFFFFFFFFFFFFFFFFFFFFFFFFFFFF000FFFFFFFFFFFFFFFFFFFFFFFFFFFF
310
FFFFFFFFFFFFFFFFFFFFFFFFFFFFFFFFFFFFFFFFFFFFFFFFFFFFFFFFFFFFFFFF
310
FFFFFFFFFFFFFFFFFFFFFFFFFFFFFFFFFFFFFFFFFFFFFFFFFFFFFFFFFFFFFFFF
310
FFFFFFFFFFFFFFFFF000FFFFFFFFFFFFFFFFFFFFFFFFFFFFFFFFFFFFFFFFFFFF
310
FFFFFFFFFFFFFFFFFFFFFFFFFFFFFFFFFFFFFFFFFFFFFFFFFFFFFFFFFFFFFFFF
310
FFFFFFFFFFFFFFFFFFFFFFFFFFFFFFFFFFFFFFFFFFFFFFFFFFFFFFFFFFFFFFFF
310
F000FFFFFFFFFFFFFFFFFFFFFFFFFFFFFFFFFFFFFFFFFFFFFFFFFFFFFFFFFFFF
310
FFFFFFFFFFFFFFFFFFFFFFFFFFFFFFFFFFFFFFFFFFFFFFFFFFFFFFFFFFFFFFFF
310
FFFFFFFFFFFFFFFFFFFFFFFFFFFFFFFFFFFFFFFFFFFFFFFFF000FFFFFFFFFFFF
310
FFFFFFFFFFFFFFFFFFFFFFFFFFFFFFFFFFFFFFFFFFFFFFFFFFFFFFFFFFFFFFFF
310
FFFFFFFFFFFFFFFFFFFFFFFFFFFFFFFFFFFFFFFFFFFFFFFFFFFFFFFFFFFFFFFF
310
FFFFFFFFFFFFFFFFFFFFFFFFFFFFFFFFF000FFFFFFFFFFFFFFFFFFFFFFFFFFFF
310
FFFFFFFFFFFFFFFFFFFFFFFFFFFFFFFFFFFFFFFFFFFFFFFFFFFFFFFFFFFFFFFF
310
FFFFFFFFFFFFFFFFFFFFFFFFFFFFFFFFFFFFFFFFFFFFFFFFFFFFFFFFFFFFFFFF
310
FFFFFFFFFFFFFFFFF000FFFFF80003FFFFFFFFFFFFFFFFFFFFFFFFFFFFFFFFFF
310
FFFFF00007FFFFFFFFFF00007FFFFFF800000000000000007FFFFFFFFFFFFFFF
310
FFFFFFFC001FFFFFFFFFFFFFFC001FFFFFFFFFFFFFFFFFFFFFFFFFFE0007FFFF
310
F000FFFF8000007FFFFFFFF8000FFFFFC0007FFFFF80007FFFFF0000007FFFFF
310
FFF8000007FFFFF800000000000000007FFFFFF0001FFFFFFFFFFFC00001FFFF
310
FFFFFFFFC00001FFFFFFFF000000000003FFFFE000007FFFF000FFFE0000000F
310
FFFFFFF0000FFFFF80007FFFFF80007FFFFC0000001FFFFFFFC0000001FFFFF8
310
00000000000000007FFFFFF0001FFFFFFFFFFE0000003FFFFFFFFFFE0000003F
310
FFFFFF000000000003FFFF0000000FFFF000FFF800000003FFFFFFF00007FFFF
310
80007FFFFF80007FFFF000000007FFFFFF000000003FFFF80000000000000000
310
7FFFFFF0001FFFFFFFFFF80000000FFFFFFFFFF80000000FFFFFFF0000000000
310
03FFFC00000003FFF000FFE000000000FFFFFFF00007FFFF80003FFFFF80007F
310
FFC000000001FFFFFC000000001FFFF800000000000000007FFFFFF0001FFFFF
310
FFFFE000000003FFFFFFFFE000000003FFFFFF000000000003FFF000000000FF
310
F000FF80000000007FFFFFF00007FFFF80003FFFFF80007FFF8000000000FFFF
310
F80000000007FFF800000000000000007FFFFFF0001FFFFFFFFFC000000001FF
310
FFFFFFC000000001FFFFFF000000000003FFC0000000007FF000FF0000000000
310
3FFFFFE00007FFFF00003FFFFF80007FFE00000000003FFFF00000000003FFF8
310
00000000000000007FFFFFF0001FFFFFFFFF8000000000FFFFFFFF8000000000
310
FFFFFF000000000003FF80000000003FF000FE00000000001FFFFFE00003FFFF
310
00003FFFFF80007FFC00000000001FFFE00000000001FFF8000001FFFE000000
310
7FFFFFF0001FFFFFFFFE00000000003FFFFFFE00000000003FFFFF0000000000
310
03FF00000000001FF000FC00000000000FFFFFE00003FFFF00001FFFFF80007F
310
F800000000001FFFC00000000000FFF8000001FFFE0000007FFFFFF0001FFFFF
310
FFFC00000000001FFFFFFC00000000001FFFFF000000000003FE00000000000F
310
F000F8000000000007FFFFE00003FFFF00001FFFFF80007FF800000000000FFF
310
800000000000FFF8000001FFFE0000007FFFFFF0001FFFFFFFF800000000000F
310
FFFFF800000000000FFFFF000000000003FC000000000007F000F80000000000
310
03FFFFC00003FFFE00001FFFFF80007FF0000000000007FF0000000000007FF8
310
000001FFFE0000007FFFFFF0001FFFFFFFF0000000000007FFFFF00000000000
310
07FFFF000000000003F8000000000003F000F0000000000003FFFFC00001FFFE
310
00001FFFFF80007FE0000000000007FE0000000000003FF8000001FFFE000000
310
7FFFFFF0001FFFFFFFF0000000000007FFFFF0000000000007FFFF0000000000
310
03F800001F800003F000E00001FFF00001FFFFC00001FFFE00000FFFFF80007F
310
E00001FFE00003FE00001FFF00003FF8000001FFFE0000007FFFFFF0001FFFFF
310
FFE000003E000003FFFFE000003E000003FFFF000000000003F00001FFF80001
310
F000E00007FFFC0001FFFFC00001FFFE00000FFFFF80007FC0000FFFFC0003FC
310
0000FFFFC0001FF8000001FFFE0000007FFFFFF0001FFFFFFFC00003FFE00001
310
FFFFC00003FFE00001FFFF0001FFFFFFFFF00007FFFE0001F000E0000FFFFF00
310
00FFFF800001FFFC00000FFFFF80007FC0001FFFFE0001FC0001FFFFE0001FF8
310
000001FFFE0000007FFFFFF0001FFFFFFF80000FFFF80000FFFF80000FFFF800
310
00FFFF0003FFFFFFFFE0000FFFFF8000F000C0003FFFFF8000FFFF800000FFFC
310
000007FFFF80007F80003FFFFF0001FC0003FFFFF0001FF8000001FFFE000000
310
7FFFFFF0001FFFFFFF80003FFFFE0000FFFF80003FFFFE0000FFFF0003FFFFFF
310
FFE0003FFFFF8000F000C0003FFFFF8000FFFF800000FFFC000007FFFF80007F
310
80007FFFFF8001F80007FFFFF8000FF8000001FFFE0000007FFFFFF0001FFFFF
310
FF00007FFFFF00007FFF00007FFFFF00007FFF0003FFFFFFFFE0003FFFFFC000
310
F000C0007FFFFFC000FFFF000000FFFC000007FFFF80007F8000FFFFFF8000F8
310
000FFFFFF8000FF8000001FFFE0000007FFFFFF0001FFFFFFF0000FFFFFF8000
310
7FFF0000FFFFFF80007FFF0003FFFFFFFFC0007FFFFFC00070008000FFFFFFC0
310
00FFFF000000FFF8000007FFFF80007F8000FFFFFF8000F8000FFFFFF8000FF8
310
000001FFFE0000007FFFFFF0001FFFFFFE0001FFFFFFC0003FFE0001FFFFFFC0
310
003FFF0003FFFFFFFFC0007FFFFFE00070008000FFFFFFC0007FFF0000007FF8
310
000003FFFF80007F0001FFFFFF8000F8000FFFFFF8000FF8000001FFFE000000
310
7FFFFFF0001FFFFFFE0001FFFFFFC0003FFE0001FFFFFFC0003FFF0003FFFFFF
310
FFC000FFFFFFE00070008000FFFFFFC0007FFF0000007FF8000003FFFF80007F
310
0001FFFFFF8000F8001FFFFFF8000FF8000001FFFE0000007FFFFFF0001FFFFF
310
FE0003FFFFFFE0003FFE0003FFFFFFE0003FFF0003FFFFFFFFC000FFFFFFE000
310
70008000FFFFFFC0007FFE0000007FF8000003FFFF80007F0001FFFFFF8000F0
310
001FFFFFF8000FF8000001FFFE0000007FFFFFF0001FFFFFFC0003FFFFFFE000
310
1FFC0003FFFFFFE0001FFF0003FFFFFFFFC000FFFFFFC00070008000FFFFFF80
310
007FFE0000007FF0000003FFFF80007F0001FFFFFF0000F0001FFFFFF8000FF8
310
000001FFFE0000007FFFFFF0001FFFFFFC0007FFFFFFF0001FFC0007FFFFFFF0
310
001FFF0003FFFFFFFFC000FFFFFFC00070008001FFFFFF0000FFFE0000003FF0
310
000001FFFF80007F0001FFFFFF0000F8001FFFFFF0000FF8000001FFFE000000
310
7FFFFFF0001FFFFFFC0007FFFFFFF0001FFC0007FFFFFFF0001FFF0003FFFFFF
310
FFC001FFFFFF80007000FFFFFFFFFE0000FFFE0008003FF0008001FFFF80007F
310
FFFFFFFFFC0000FFFFFFFFFFE0000FF8000001FFFE0000007FFFFFF0001FFFFF
310
F8000FFFFFFFF8000FF8000FFFFFFFF8000FFF0003FFFFFFFFFFFFFFFFFF0000
310
7000FFFFFFFFFC0000FFFC0008003FF0008001FFFF80007FFFFFFFFFF80001FF
310
FFFFFFFF80000FF8000001FFFE0000007FFFFFF0001FFFFFF8000FFFFFFFF800
310
0FF8000FFFFFFFF8000FFF0003FFFFFFFFFFFFFFFFFE0000F000FFFFFFFFE000
310
00FFFC000C003FE000C001FFFF80007FFFFFFFFFC00001FFFFFFFFFE00001FF8
310
000001FFFE0000007FFFFFF0001FFFFFF8000FFFFFFFF8000FF8000FFFFFFFF8
310
000FFF0003FFFFFFFFFFFFFFFFF00000F000FFFFFFFE000001FFFC000C001FE0
310
00C000FFFF80007FFFFFFFFE000001FFFFFFFFE000001FF80FFFFFFFFFFFFFC0
310
7FFFFFF0001FFFFFF8000FFFFFFFF8000FF8000FFFFFFFF8000FFF0003FFFFFF
310
FFFFFFFFFF800000F000FFFFFFC0000001FFFC001C001FE001C000FFFF80007F
310
FFFFFF80000003FFFFFFF80000001FF80FFFFFFFFFFFFFC07FFFFFF0001FFFFF
310
F8001FFFFFFFFC000FF8001FFFFFFFFC000FFF0003FFFFFFFFFFFFFFF0000001
310
F000FFFFF800000001FFF8001C001FE001C000FFFF80007FFFFFF800000003FF
310
FFFF800000003FF80FFFFFFFFFFFFFC07FFFFFF0001FFFFFF8001FFFFFFFFC00
310
0FF8001FFFFFFFFC000FFF0003FFFFFFFFFFFFFE00000001F000FFFFC0000000
310
03FFF8001E001FC001E000FFFF80007FFFFF8000000007FFFFFC000000003FF8
310
0FFFFFFFFFFFFFC07FFFFFF0001FFFFFF8001FFFFFFFFC000FF8001FFFFFFFFC
310
000FFF0003FFFFFFFFFFFFE000000003F000FFFE0000000007FFF8001E000FC0
310
01E0007FFF80007FFFFE0000000007FFFFE0000000007FF80FFFFFFFFFFFFFC0
310
7FFFFFF0001FFFFFF0001FFFFFFFFC0007F0001FFFFFFFFC0007FF0003FFFFFF
310
FFFFFF0000000003F000FFF80000000007FFF8001E000FC003E0007FFF80007F
310
FFF0000000000FFFFF8000000000FFF80FFFFFFFFFFFFFC07FFFFFF0001FFFFF
310
F0001FFFFFFFFC0007F0001FFFFFFFFC0007FF0003FFFFFFFFFFFC0000000007
310
F000FFE0000000000FFFF0003E000FC003E0007FFF80007FFFC0000000001FFF
310
FE0000000001FFF80FFFFFFFFFFFFFC07FFFFFF0001FFFFFF0001FFFFFFFFC00
310
07F0001FFFFFFFFC0007FF0003FFFFFFFFFFF0000000000FF000FFC000000000
310
1FFFF0003F000F8003F0003FFF80007FFF80000000003FFFF80000000003FFF8
310
0FFFFFFFFFFFFFC07FFFFFF0001FFFFFF0001FFFFFFFFC0007F0001FFFFFFFFC
310
0007FF0003FFFFFFFFFFE0000000001FF000FF00000000007FFFF0003F000780
310
03F0003FFF80007FFF00000000007FFFF00000000007FFF80FFFFFFFFFFFFFC0
310
7FFFFFF0001FFFFFF0001FFFFFFFFC0007F0001FFFFFFFFC0007FF0003FFFFFF
310
FFFF80000000007FF000FE0000000000FFFFE0003F00078007F0003FFF80007F
310
FE0000000001FFFFE0000000001FFFF80FFFFFFFFFFFFFC07FFFFFF0001FFFFF
310
F0001FFFFFFFFC0007F0001FFFFFFFFC0007FF0003FFFFFFFFFF0000000000FF
310
F000FC0000000003FFFFE0007F00078007F0003FFF80007FFC0000000007FFFF
310
C0000000007FFFF80FFFFFFFFFFFFFC07FFFFFF0001FFFFFF8001FFFFFFFFC00
310
0FF8001FFFFFFFFC000FFF0003FFFFFFFFFE0000000003FFF000FC000000000F
310
FFFFE0007F80070007F8001FFF80007FF8000000001FFFFF8000000001FFFFF8
310
0FFFFFFFFFFFFFC07FFFFFF0001FFFFFF8001FFFFFFFFC000FF8001FFFFFFFFC
310
000FFF0003FFFFFFFFFC000000000FFFF000F8000000007FFFFFE0007F800700
310
07F8001FFF80007FF000000000FFFFFF800000000FFFFFF80FFFFFFFFFFFFFC0
310
7FFFFFF0001FFFFFF8000FFFFFFFF8000FF8000FFFFFFFF8000FFF0003FFFFFF
310
FFFC000000007FFFF000F800000007FFFFFFC0007F8003000FF8001FFF80007F
310
F000000007FFFFFF000000007FFFFFF80FFFFFFFFFFFFFC07FFFFFF0001FFFFF
310
F8000FFFFFFFF8000FF8000FFFFFFFF8000FFF0003FFFFFFFFF80000000FFFFF
310
F000F0000000FFFFFFFFC000FF8003000FF8001FFF80007FE0000000FFFFFFFF
310
0000000FFFFFFFF8000001FFFE0000007FFFFFF0001FFFFFF8000FFFFFFFF800
310
0FF8000FFFFFFFF8000FFF0003FFFFFFFFF8000000FFFFFFF000F000000FFFFF
310
FFFFC000FFC002000FF8000FFF80007FE000001FFFFFFFFE000001FFFFFFFFF8
310
000001FFFE0000007FFFFFF0001FFFFFF8000FFFFFFFF8000FF8000FFFFFFFF8
310
000FFF0003FFFFFFFFF000001FFFFFFFF000E00000FFFFFFFFFFC000FFC00200
310
0FFC000FFF80007FE00001FFFFFFFFFE00001FFFFFFFFFF8000001FFFE000000
310
7FFFFFF0001FFFFFFC000FFFFFFFF8001FFC000FFFFFFFF8001FFF0003FFFFFF
310
FFF00001FFFFFFFFF000E00007FFFFFFFFFF8000FFC000001FFC000FFF80007F
310
C0000FFFFFFFFFFE0000FFFFFFFFFFF8000001FFFE0000007FFFFFF0001FFFFF
310
FC0007FFFFFFF0001FFC0007FFFFFFF0001FFF0003FFFFFFFFF00007FFFFFFFF
310
F000E0001FFFFFFFFFFF8000FFC000001FFC000FFF80007FC0003FFFFFFFFFFE
310
0001FFFFFFFFFFF8000001FFFE0000007FFFFFF0001FFFFFFC0007FFFFFFF000
310
1FFC0007FFFFFFF0001FFF0003FFFFFFFFF0001FFFFFFFFFF000E0003FFFFF00
310
03FF8001FFE000001FFC0007FF80007FC0007FFFFF0007FC0003FFFFF0003FF8
310
000001FFFE0000007FFFFFF0001FFFFFFC0003FFFFFFE0001FFC0003FFFFFFE0
310
001FFF0003FFFFFFFFF0003FFFFFFFFFF000E0003FFFFF0001FF8001FFE00000
310
1FFE0007FF80007FC0007FFFFE0003FC0007FFFFE0003FF8000001FFFE000000
310
7FFFFFF0001FFFFFFE0003FFFFFFE0003FFE0003FFFFFFE0003FFF0003FFFFFF
310
FFF0003FFFFF8001F000E0003FFFFF0001FF0001FFE000001FFE0007FF80007F
310
C0007FFFFE0003FC0007FFFFE0003FF8000001FFFE0000007FFFFFF0001FFFFF
310
FE0001FFFFFFC0003FFE0001FFFFFFC0003FFF0003FFFFFFFFF0003FFFFF0001
310
F000E0003FFFFF0003FF0001FFE000003FFE0007FF80007FC0007FFFFE0003FC
310
0007FFFFE0003FF8000001FFFE0000007FFFFFF0001FFFFFFF0001FFFFFFC000
310
7FFF0001FFFFFFC0007FFF0003FFFFFFFFF0003FFFFF0001F000E0003FFFFE00
310
03FF0003FFF000003FFE0003FF80007FC0007FFFFC0003FE0007FFFFE0003FF8
310
000001FFFE0000007FFFFFF0001FFFFFFF0000FFFFFF80007FFF0000FFFFFF80
310
007FFF0003FFFFFFFFF0003FFFFF0001F000E0003FFFFE0003FF0003FFF00000
310
3FFF0003FF80007FC0007FFFFC0007FE0007FFFFC0003FF8000001FFFE000000
310
7FFFFFF0001FFFFFFF80007FFFFF0000FFFF80007FFFFF0000FFFF0003FFFFFF
310
FFF0003FFFFF0003F000E0003FFFFC0003FE0003FFF000003FFF0003FF80007F
310
E0003FFFF80007FE0003FFFFC0007FF8000001FFFE0000007FFFFFF0001FFFFF
310
FF80003FFFFE0000FFFF80003FFFFE0000FFFF0003FFFFFFFFF0001FFFFE0003
310
F000F0001FFFF80003FE0003FFF000007FFF0001FF80007FE0003FFFF00007FE
310
0001FFFF80007FF8000001FFFE0000007FFFFFF0001FFFFFFFC0000FFFF80001
310
FFFFC0000FFFF80001FFFF0003FFFFFFFFF0001FFFFC0003F000F0000FFFF000
310
07FE0007FFF800007FFF0001FF80007FE0001FFFE00007FF0000FFFE00007FF8
310
000001FFFE0000007FFFFFF0001FFFFFFFC00003FFE00001FFFFC00003FFE000
310
01FFFF0003FFFFFFFFF8000FFFF80003F000F00003FFC00007FC0007FFF80000
310
7FFF8001FF80007FF00007FF80000FFF00007FF80000FFF8000001FFFE000000
310
7F80000000000001FFE000003E000003FFFFE000003E000003FFFF0003FFFFFF
310
FFF80003FFE00007F000F800000000000FFC0007FFF800007FFF8001FF80007F
310
F000000000000FFF000000000000FFF8000001FFFE0000007F80000000000001
310
FFF0000000000007FFFFF0000000000007FFFF0003FFFFFFFFFC00007E000007
310
F000F800000000000FFC0007FFF80000FFFF8000FF80007FF800000000001FFF
310
800000000001FFF8000001FFFE0000007F80000000000001FFF800000000000F
310
FFFFF800000000000FFFFF0003FFFFFFFFFC00000000000FF000FC0000000000
310
1FFC0007FFFC0000FFFF8000FF80007FF800000000003FFFC00000000001FFF8
310
000001FFFE0000007F80000000000001FFF800000000000FFFFFF80000000000
310
0FFFFF0003FFFFFFFFFE00000000001FF000FE00000000003FF8000FFFFC0000
310
FFFF8000FF80007FFC00000000003FFFC00000000003FFF8000001FFFE000000
310
7F80000000000001FFFC00000000001FFFFFFC00000000001FFFFF0003FFFFFF
310
FFFF00000000001FF000FF00000000003FF8000FFFFC0000FFFFC000FF80007F
310
FE00000000007FFFE00000000007FFF8000001FFFE0000007F80000000000001
310
FFFE00000000003FFFFFFE00000000003FFFFF0003FFFFFFFFFF80000000003F
310
F000FF80000000007FF8000FFFFC0001FFFFC0007F80007FFF0000000000FFFF
310
F0000000000FFFF800000000000000007F80000000000001FFFF8000000000FF
310
FFFFFF8000000000FFFFFF0003FFFFFFFFFFC0000000007FF000FFC000000000
310
FFF8000FFFFE0001FFFFC0007F80007FFF8000000001FFFFF8000000001FFFF8
310
00000000000000007F80000000000001FFFFC000000001FFFFFFFFC000000001
310
FFFFFF0003FFFFFFFFFFE000000000FFF000FFE000000003FFF0001FFFFE0001
310
FFFFC0007F80007FFFC000000007FFFFFE000000003FFFF80000000000000000
310
7F80000000000001FFFFE000000003FFFFFFFFE000000003FFFFFF0003FFFFFF
310
FFFFF000000003FFF000FFF80000000FFFF0001FFFFE0001FFFFE0007F80007F
310
FFF00000000FFFFFFF00000000FFFFF800000000000000007F80000000000001
310
FFFFF80000000FFFFFFFFFF80000000FFFFFFF0003FFFFFFFFFFFC0000000FFF
310
F000FFFE0000003FFFF0001FFFFE0003FFFFE0003F80007FFFFC0000003FFFFF
310
FFC0000003FFFFF800000000000000007F80000000000001FFFFFE0000003FFF
310
FFFFFFFE0000003FFFFFFF0003FFFFFFFFFFFF0000003FFFF000FFFF800000FF
310
FFF0001FFFFF0003FFFFE0003F80007FFFFF000001FFFFFFFFF800001FFFFFF8
310
00000000000000007F80000000000001FFFFFFC00001FFFFFFFFFFFFC00001FF
310
FFFFFF0003FFFFFFFFFFFFC00000FFFFF000FFFFF8000FFFFFFFFFFFFFFFFFFF
310
FFFFFFFFFFFFFFFFFFFFF0001FFFFFFFFFFF0000FFFFFFF80000000000000000
310
7FFFFFFFFFFFFFFFFFFFFFFC001FFFFFFFFFFFFFFC001FFFFFFFFFFFFFFFFFFF
310
FFFFFFFC001FFFFFF000FFFFFFFFFFFFFFFFFFFFFFFFFFFFFFFFFFFFFFFFFFFF
310
FFFFFFFFFFFFFFFFFFFFFFFFFFFFFFFFFFFFFFFFFFFFFFFFFFFFFFFFFFFFFFFF
310
FFFFFFFFFFFFFFFFFFFFFFFFFFFFFFFFFFFFFFFFFFFFFFFFFFFFFFFFFFFFFFFF
310
F000FFFFFFFFFFFFFFFFFFFFFFFFFFFFFFFFFFFFFFFFFFFFFFFFFFFFFFFFFFFF
310
FFFFFFFFFFFFFFFFFFFFFFFFFFFFFFFFFFFFFFFFFFFFFFFFFFFFFFFFFFFFFFFF
310
FFFFFFFFFFFFFFFFFFFFFFFFFFFFFFFFFFFFFFFFFFFFFFFFF000FFFFFFFFFFFF
310
FFFFFFFFFFFFFFFFFFFFFFFFFFFFFFFFFFFFFFFFFFFFFFFFFFFFFFFFFFFFFFFF
310
FFFFFFFFFFFFFFFFFFFFFFFFFFFFFFFFFFFFFFFFFFFFFFFFFFFFFFFFFFFFFFFF
310
FFFFFFFFFFFFFFFFFFFFFFFFFFFFFFFFF000FFFFFFFFFFFFFFFFFFFFFFFFFFFF
310
FFFFFFFFFFFFFFFFFFFFFFFFFFFFFFFFFFFFFFFFFFFFFFFFFFFFFFFFFFFFFFFF
310
FFFFFFFFFFFFFFFFFFFFFFFFFFFFFFFFFFFFFFFFFFFFFFFFFFFFFFFFFFFFFFFF
310
FFFFFFFFFFFFFFFFF000FFFFFFFFFFFFFFFFFFFFFFFFFFFFFFFFFFFFFFFFFFFF
310
FFFFFFFFFFFFFFFFFFFFFFFFFFFFFFFFFFFFFFFFFFFFFFFFFFFFFFFFFFFFFFFF
310
FFFFFFFFFFFFFFFFFFFFFFFFFFFFFFFFFFFFFFFFFFFFFFFFFFFFFFFFFFFFFFFF
310
F000FFFFFFFFFFFFFFFFFFFFFFFFFFFFFFFFFFFFFFFFFFFFFFFFFFFFFFFFFFFF
310
FFFFFFFFFFFFFFFFFFFFFFFFFFFFFFFFFFFFFFFFFFFFFFFFFFFFFFFFFFFFFFFF
310
FFFFFFFFFFFFFFFFFFFFFFFFFFFFFFFFFFFFFFFFFFFFFFFFF000FFFFFFFFFFFF
310
FFFFFFFFFFFFFFFFFFFFFFFFFFFFFFFFFFFFFFFFFFFFFFFFFFFFFFFFFFFFFFFF
310
FFFFFFFFFFFFFFFFFFFFFFFFFFFFFFFFFFFFFFFFFFFFFFFFFFFFFFFFFFFFFFFF
310
FFFFFFFFFFFFFFFFFFFFFFFFFFFFFFFFF000FFFFFFFFFFFFFFFFFFFFFFFFFFFF
310
FFFFFFFFFFFFFFFFFFFFFFFFFFFFFFFFFFFFFFFFFFFFFFFFFFFFFFFFFFFFFFFF
310
FFFFFFFFFFFFFFFFFFFFFFFFFFFFFFFFFFFFFFFFFFFFFFFFFFFFFFFFFFFFFFFF
310
FFFFFFFFFFFFFFFFF000FFFFFFFFFFFFFFFFFFFFFFFFFFFFFFFFFFFFFFFFFFFF
310
FFFFFFFFFFFFFFFFFFFFFFFFFFFFFFFFFFFFFFFFFFFFFFFFFFFFFFFFFFFFFFFF
310
FFFFFFFFFFFFFFFFFFFFFFFFFFFFFFFFFFFFFFFFFFFFFFFFFFFFFFFFFFFFFFFF
310
F000FFFFFFFFFFFFFFFFFFFFFFFFFFFFFFFFFFFFFFFFFFFFFFFFFFFFFFFFFFFF
310
FFFFFFFFFFFFFFFFFFFFFFFFFFFFFFFFFFFFFFFFFFFFFFFFFFFFFFFFFFFFFFFF
310
FFFFFFFFFFFFFFFFFFFFFFFFFFFFFFFFFFFFFFFFFFFFFFFFF000FFFFFFFFFFFF
310
FFFFFFFFFFFFFFFFFFFFFFFFFFFFFFFFFFFFFFFFFFFFFFFFFFFFFFFFFFFFFFFF
310
FFFFFFFFFFFFFFFFFFFFFFFFFFFFFFFFFFFFFFFFFFFFFFFFFFFFFFFFFFFFFFFF
310
FFFFFFFFFFFFFFFFFFFFFFFFFFFFFFFFF000FFFFFFFFFFFFFFFFFFFFFFFFFFFF
310
FFFFFFFFFFFFFFFFFFFFFFFFFFFFFFFFFFFFFFFFFFFFFFFFFFFFFFFFFFFFFFFF
310
FFFFFFFFFFFFFFFFFFFFFFFFFFFFFFFFFFFFFFFFFFFFFFFFFFFFFFFFFFFFFFFF
310
FFFFFFFFFFFFFFFFF000FFFFFFFFFFFFFFFFFFFFFFFFFFFFFFFFFFFFFFFFFFFF
310
FFFFFFFFFFFFFFFFFFFFFFFFFFFFFFFFFFFFFFFFFFFFFFFFFFFFFFFFFFFFFFFF
310
FFFFFFFFFFFFFFFFFFFFFFFFFFFFFFFFFFFFFFFFFFFFFFFFFFFFFFFFFFFFFFFF
310
F000FFFFFFFFFFFFFFFFFFFFFFFFFFFFFFFFFFFFFFFFFFFFFFFFFFFFFFFFFFFF
310
FFFFFFFFFFFFFFFFFFFFFFFFFFFFFFFFFFFFFFFFFFFFFFFFFFFFFFFFFFFFFFFF
310
FFFFFFFFFFFFFFFFFFFFFFFFFFFFFFFFFFFFFFFFFFFFFFFFF000FFFFFFFFFFFF
310
FFFFFFFFFFFFFFFFFFFFFFFFFFFFFFFFFFFFFFFFFFFFFFFFFFFFFFFFFFFFFFFF
310
FFFFFFFFFFFFFFFFFFFFFFFFFFFFFFFFFFFFFFFFFFFFFFFFFFFFFFFFFFFFFFFF
310
FFFFFFFFFFFFFFFFFFFFFFFFFFFFFFFFF000FFFFFFFFFFFFFFFFFFFFFFFFFFFF
310
FFFFFFFFFFFFFFFFFFFFFFFFFFFFFFFFFFFFFFFFFFFFFFFFFFFFFFFFFFFFFFFF
310
FFFFFFFFFFFFFFFFFFFFFFFFFFFFFFFFFFFFFFFFFFFFFFFFFFFFFFFFFFFFFFFF
310
FFFFFFFFFFFFFFFFF000FFFFFFFFFFFFFFFFFFFFFFFFFFFFFFFFFFFFFFFFFFFF
310
FFFFFFFFFFFFFFFFFFFFFFFFFFFFFFFFFFFFFFFFFFFFFFFFFFFFFFFFFFFFFFFF
310
FFFFFFFFFFFFFFFFFFFFFFFFFFFFFFFFFFFFFFFFFFFFFFFFFFFFFFFFFFFFFFFF
310
F000FFFFFFFFFFFFFFFFFFFFFFFFFFFFFFFFFFFFFFFFFFFFFFFFFFFFFFFFFFFF
310
FFFFFFFFFFFFFFFFFFFFFFFFFFFFFFFFFFFFFFFFFFFFFFFFFFFFFFFFFFFFFFFF
310
FFFFFFFFFFFFFFFFFFFFFFFFFFFFFFFFFFFFFFFFFFFFFFFFF000FFFFFFFFFFFF
310
FFFFFFFFFFFFFFFFFFFFFFFFFFFFFFFFFFFFFFFFFFFFFFFFFFFFFFFFFFFFFFFF
310
FFFFFFFFFFFFFFFFFFFFFFFFFFFFFFFFFFFFFFFFFFFFFFFFFFFFFFFFFFFFFFFF
310
FFFFFFFFFFFFFFFFFFFFFFFFFFFFFFFFF000FFFFFFFFFFFFFFFFFFFFFFFFFFFF
310
FFFFFFFFFFFFFFFFFFFFFFFFFFFFFFFFFFFFFFFFFFFFFFFFFFFFFFFFFFFFFFFF
310
FFFFFFFFFFFFFFFFFFFFFFFFFFFFFFFFFFFFFFFFFFFFFFFFFFFFFFFFFFFFFFFF
310
FFFFFFFFFFFFFFFFF000FFFFFFFFFFFFFFFFFFFFFFFFFFFFFFFFFFFFFFFFFFFF
310
FFFFFFFFFFFFFFFFFFFFFFFFFFFFFFFFFFFFFFFFFFFFFFFFFFFFFFFFFFFFFFFF
310
FFFFFFFFFFFFFFFFFFFFFFFFFFFFFFFFFFFFFFFFFFFFFFFFFFFFFFFFFFFFFFFF
310
F000FFFFFFFFFFFFFFFFFFFFFFFFFFFFFFFFFFFFFFFFFFFFFFFFFFFFFFFFFFFF
310
FFFFFFFFFFFFFFFFFFFFFFFFFFFFFFFFFFFFFFFFFFFFFFFFFFFFFFFFFFFFFFFF
310
FFFFFFFFFFFFFFFFFFFFFFFFFFFFFFFFFFFFFFFFFFFFFFFFF000FFFFFFFFFFFF
310
FFFFFFFFFFFFFFFFFFFFFFFFFFFFFFFFFFFFFFFFFFFFFFFFFFFFFFFFFFFFFFFF
310
FFFFFFFFFFFFFFFFFFFFFFFFFFFFFFFFFFFFFFFFFFFFFFFFFFFFFFFFFFFFFFFF
310
FFFFFFFFFFFFFFFFFFFFFFFFFFFFFFFFF0000000000000000000000000000000
310
0000000000000000000000000000000000000000000000000000000000000000
310
0000000000000000000000000000000000000000000000000000000000000000
310
0000000000000000000000000000000000000000000000000000000000000000
310
0000000000000000000000000000000000000000000000000000000000000000
310
0000000000000000000000000000000000000000000000000000000000000000
310
0000000000000000000000000000000000000000000000000000000000000000
310
0000000000000000000000000000000000000000000000000000000000000000
310
0000000000000000000000000000000000000000000000000000000000000000
310
0000000000000000000000000000000000000000000000000000000000000000
310
0000000000000000000000000000000000000000000000000000000000000000
310
0000000000000000000000000000000000000000000000000000000000000000
310
0000000000000000000000000000000000000000000000000000000000000000
310
0000000000000000000000000000000000000000000000000000000000000000
310
0000000000000000000000000000000000000000000000000000000000000000
310
0000000000000000000000000000000000000000000000000000000000000000
  1
OLE
  0
ENDSEC
  0
SECTION
  2
OBJECTS
  0
DICTIONARY
  5
C
330
0
100
AcDbDictionary
281
     1
  3
ACAD_GROUP
350
D
  3
ACAD_LAYOUT
350
1A
  3
ACAD_MLINESTYLE
350
17
  3
ACAD_PLOTSETTINGS
350
19
  3
ACAD_PLOTSTYLENAME
350
E
  3
ACAD_SCALELIST
350
47
  0
DICTIONARY
  5
D
102
{ACAD_REACTORS
330
C
102
}
330
C
100
AcDbDictionary
281
     1
  0
DICTIONARY
  5
1A
102
{ACAD_REACTORS
330
C
102
}
330
C
100
AcDbDictionary
281
     1
  3
Layout1
350
1E
  3
Layout2
350
26
  3
Model
350
22
  0
DICTIONARY
  5
17
102
{ACAD_REACTORS
330
C
102
}
330
C
100
AcDbDictionary
281
     1
  3
Standard
350
18
  0
DICTIONARY
  5
19
102
{ACAD_REACTORS
330
C
102
}
330
C
100
AcDbDictionary
281
     1
  0
ACDBDICTIONARYWDFLT
  5
E
102
{ACAD_REACTORS
330
C
102
}
330
C
100
AcDbDictionary
281
     1
  3
Normal
350
F
100
AcDbDictionaryWithDefault
340
F
  0
DICTIONARY
  5
47
102
{ACAD_REACTORS
330
C
102
}
330
C
100
AcDbDictionary
281
     1
  3
A0
350
48
  3
A1
350
49
  3
A2
350
4A
  3
A3
350
4B
  3
A4
350
4C
  3
A5
350
4D
  3
A6
350
4E
  3
A7
350
4F
  3
A8
350
50
  3
A9
350
51
  3
B0
350
52
  3
B1
350
53
  3
B2
350
54
  3
B3
350
55
  3
B4
350
56
  3
B5
350
57
  3
B6
350
58
  3
B7
350
59
  3
B8
350
5A
  3
B9
350
5B
  3
C0
350
5C
  3
C1
350
5D
  3
C2
350
5E
  3
C3
350
5F
  3
C4
350
60
  3
C5
350
61
  3
C6
350
62
  3
C7
350
63
  3
C8
350
64
  3
C9
350
65
  3
D0
350
66
  3
D1
350
67
  3
D2
350
68
  0
LAYOUT
  5
1E
102
{ACAD_REACTORS
330
1A
102
}
330
1A
100
AcDbPlotSettings
  1

  2
none_device
  4

  6

 40
0.0
 41
0.0
 42
0.0
 43
0.0
 44
0.0
 45
0.0
 46
0.0
 47
0.0
 48
0.0
 49
0.0
140
0.0
141
0.0
142
1.0
143
1.0
 70
   688
 72
     1
 73
     0
 74
     5
  7

 75
    16
147
1.0
148
0.0
149
0.0
100
AcDbLayout
  1
Layout1
 70
     1
 71
     1
 10
0.0
 20
0.0
 11
420.0
 21
297.0
 12
0.0
 22
0.0
 32
0.0
 14
1.0000000000E+20
 24
1.0000000000E+20
 34
1.0000000000E+20
 15
-1.0000000000E+20
 25
-1.0000000000E+20
 35
-1.0000000000E+20
146
0.0
 13
0.0
 23
0.0
 33
0.0
 16
1.0
 26
0.0
 36
0.0
 17
0.0
 27
1.0
 37
0.0
 76
     0
330
1B
  0
LAYOUT
  5
26
102
{ACAD_REACTORS
330
1A
102
}
330
1A
100
AcDbPlotSettings
  1

  2
none_device
  4

  6

 40
0.0
 41
0.0
 42
0.0
 43
0.0
 44
0.0
 45
0.0
 46
0.0
 47
0.0
 48
0.0
 49
0.0
140
0.0
141
0.0
142
1.0
143
1.0
 70
   688
 72
     1
 73
     0
 74
     5
  7

 75
    16
147
1.0
148
0.0
149
0.0
100
AcDbLayout
  1
Layout2
 70
     1
 71
     2
 10
0.0
 20
0.0
 11
0.0
 21
0.0
 12
0.0
 22
0.0
 32
0.0
 14
0.0
 24
0.0
 34
0.0
 15
0.0
 25
0.0
 35
0.0
146
0.0
 13
0.0
 23
0.0
 33
0.0
 16
1.0
 26
0.0
 36
0.0
 17
0.0
 27
1.0
 37
0.0
 76
     0
330
23
  0
LAYOUT
  5
22
102
{ACAD_REACTORS
330
1A
102
}
330
1A
100
AcDbPlotSettings
  1

  2
none_device
  4
Letter_(8.50_x_11.00_Inches)
  6

 40
6.35
 41
6.35
 42
6.35000508
 43
6.35000508
 44
215.9
 45
279.4
 46
0.0
 47
0.0
 48
0.0
 49
0.0
140
0.0
141
0.0
142
1.0
143
1.0
 70
  1712
 72
     1
 73
     0
 74
     0
  7

 75
     0
147
1.0
148
0.0
149
0.0
100
AcDbLayout
  1
Model
 70
     1
 71
     0
 10
0.0
 20
0.0
 11
297.0
 21
210.0
 12
0.0
 22
0.0
 32
0.0
 14
0.0
 24
0.0
 34
0.0
 15
297.0
 25
210.0
 35
0.0
146
0.0
 13
0.0
 23
0.0
 33
0.0
 16
1.0
 26
0.0
 36
0.0
 17
0.0
 27
1.0
 37
0.0
 76
     0
330
1F
331
29
  0
MLINESTYLE
  5
18
102
{ACAD_REACTORS
330
17
102
}
330
17
100
AcDbMlineStyle
  2
Standard
 70
     0
  3

 62
   256
 51
90.0
 52
90.0
 71
     2
 49
0.5
 62
   256
  6
BYLAYER
 49
-0.5
 62
   256
  6
BYLAYER
  0
ACDBPLACEHOLDER
  5
F
102
{ACAD_REACTORS
330
E
102
}
330
E
  0
SCALE
  5
48
102
{ACAD_REACTORS
330
47
102
}
330
47
100
AcDbScale
 70
     0
300
1:1
140
1.0
141
1.0
290
     1
  0
SCALE
  5
49
102
{ACAD_REACTORS
330
47
102
}
330
47
100
AcDbScale
 70
     0
300
1:2
140
1.0
141
2.0
290
     0
  0
SCALE
  5
4A
102
{ACAD_REACTORS
330
47
102
}
330
47
100
AcDbScale
 70
     0
300
1:4
140
1.0
141
4.0
290
     0
  0
SCALE
  5
4B
102
{ACAD_REACTORS
330
47
102
}
330
47
100
AcDbScale
 70
     0
300
1:5
140
1.0
141
5.0
290
     0
  0
SCALE
  5
4C
102
{ACAD_REACTORS
330
47
102
}
330
47
100
AcDbScale
 70
     0
300
1:8
140
1.0
141
8.0
290
     0
  0
SCALE
  5
4D
102
{ACAD_REACTORS
330
47
102
}
330
47
100
AcDbScale
 70
     0
300
1:10
140
1.0
141
10.0
290
     0
  0
SCALE
  5
4E
102
{ACAD_REACTORS
330
47
102
}
330
47
100
AcDbScale
 70
     0
300
1:16
140
1.0
141
16.0
290
     0
  0
SCALE
  5
4F
102
{ACAD_REACTORS
330
47
102
}
330
47
100
AcDbScale
 70
     0
300
1:20
140
1.0
141
20.0
290
     0
  0
SCALE
  5
50
102
{ACAD_REACTORS
330
47
102
}
330
47
100
AcDbScale
 70
     0
300
1:30
140
1.0
141
30.0
290
     0
  0
SCALE
  5
51
102
{ACAD_REACTORS
330
47
102
}
330
47
100
AcDbScale
 70
     0
300
1:40
140
1.0
141
40.0
290
     0
  0
SCALE
  5
52
102
{ACAD_REACTORS
330
47
102
}
330
47
100
AcDbScale
 70
     0
300
1:50
140
1.0
141
50.0
290
     0
  0
SCALE
  5
53
102
{ACAD_REACTORS
330
47
102
}
330
47
100
AcDbScale
 70
     0
300
1:100
140
1.0
141
100.0
290
     0
  0
SCALE
  5
54
102
{ACAD_REACTORS
330
47
102
}
330
47
100
AcDbScale
 70
     0
300
2:1
140
2.0
141
1.0
290
     0
  0
SCALE
  5
55
102
{ACAD_REACTORS
330
47
102
}
330
47
100
AcDbScale
 70
     0
300
4:1
140
4.0
141
1.0
290
     0
  0
SCALE
  5
56
102
{ACAD_REACTORS
330
47
102
}
330
47
100
AcDbScale
 70
     0
300
8:1
140
8.0
141
1.0
290
     0
  0
SCALE
  5
57
102
{ACAD_REACTORS
330
47
102
}
330
47
100
AcDbScale
 70
     0
300
10:1
140
10.0
141
1.0
290
     0
  0
SCALE
  5
58
102
{ACAD_REACTORS
330
47
102
}
330
47
100
AcDbScale
 70
     0
300
100:1
140
100.0
141
1.0
290
     0
  0
SCALE
  5
59
102
{ACAD_REACTORS
330
47
102
}
330
47
100
AcDbScale
 70
     0
300
1/128" = 1'-0"
140
0.0078125
141
12.0
290
     0
  0
SCALE
  5
5A
102
{ACAD_REACTORS
330
47
102
}
330
47
100
AcDbScale
 70
     0
300
1/64" = 1'-0"
140
0.015625
141
12.0
290
     0
  0
SCALE
  5
5B
102
{ACAD_REACTORS
330
47
102
}
330
47
100
AcDbScale
 70
     0
300
1/32" = 1'-0"
140
0.03125
141
12.0
290
     0
  0
SCALE
  5
5C
102
{ACAD_REACTORS
330
47
102
}
330
47
100
AcDbScale
 70
     0
300
1/16" = 1'-0"
140
0.0625
141
12.0
290
     0
  0
SCALE
  5
5D
102
{ACAD_REACTORS
330
47
102
}
330
47
100
AcDbScale
 70
     0
300
3/32" = 1'-0"
140
0.09375
141
12.0
290
     0
  0
SCALE
  5
5E
102
{ACAD_REACTORS
330
47
102
}
330
47
100
AcDbScale
 70
     0
300
1/8" = 1'-0"
140
0.125
141
12.0
290
     0
  0
SCALE
  5
5F
102
{ACAD_REACTORS
330
47
102
}
330
47
100
AcDbScale
 70
     0
300
3/16" = 1'-0"
140
0.1875
141
12.0
290
     0
  0
SCALE
  5
60
102
{ACAD_REACTORS
330
47
102
}
330
47
100
AcDbScale
 70
     0
300
1/4" = 1'-0"
140
0.25
141
12.0
290
     0
  0
SCALE
  5
61
102
{ACAD_REACTORS
330
47
102
}
330
47
100
AcDbScale
 70
     0
300
3/8" = 1'-0"
140
0.375
141
12.0
290
     0
  0
SCALE
  5
62
102
{ACAD_REACTORS
330
47
102
}
330
47
100
AcDbScale
 70
     0
300
1/2" = 1'-0"
140
0.5
141
12.0
290
     0
  0
SCALE
  5
63
102
{ACAD_REACTORS
330
47
102
}
330
47
100
AcDbScale
 70
     0
300
3/4" = 1'-0"
140
0.75
141
12.0
290
     0
  0
SCALE
  5
64
102
{ACAD_REACTORS
330
47
102
}
330
47
100
AcDbScale
 70
     0
300
1" = 1'-0"
140
1.0
141
12.0
290
     0
  0
SCALE
  5
65
102
{ACAD_REACTORS
330
47
102
}
330
47
100
AcDbScale
 70
     0
300
1-1/2" = 1'-0"
140
1.5
141
12.0
290
     0
  0
SCALE
  5
66
102
{ACAD_REACTORS
330
47
102
}
330
47
100
AcDbScale
 70
     0
300
3" = 1'-0"
140
3.0
141
12.0
290
     0
  0
SCALE
  5
67
102
{ACAD_REACTORS
330
47
102
}
330
47
100
AcDbScale
 70
     0
300
6" = 1'-0"
140
6.0
141
12.0
290
     0
  0
SCALE
  5
68
102
{ACAD_REACTORS
330
47
102
}
330
47
100
AcDbScale
 70
     0
300
1'-0" = 1'-0"
140
12.0
141
12.0
290
     0
  0
ENDSEC
  0
EOF
